  0
SECTION
  2
HEADER
  9
$ACADVER
  1
AC1015
  9
$ACADMAINTVER
 70
    20
  9
$DWGCODEPAGE
  3
ANSI_1252
  9
$INSBASE
 10
0.0
 20
0.0
 30
0.0
  9
$EXTMIN
 10
-64.71609547985483
 20
-75.44824321291713
 30
0.0
  9
$EXTMAX
 10
378.6172378534787
 20
223.5517567870829
 30
0.0
  9
$LIMMIN
 10
0.0
 20
0.0
  9
$LIMMAX
 10
12.0
 20
9.0
  9
$ORTHOMODE
 70
     0
  9
$REGENMODE
 70
     1
  9
$FILLMODE
 70
     1
  9
$QTEXTMODE
 70
     0
  9
$MIRRTEXT
 70
     1
  9
$LTSCALE
 40
1.0
  9
$ATTMODE
 70
     1
  9
$TEXTSIZE
 40
0.2
  9
$TRACEWID
 40
0.05
  9
$TEXTSTYLE
  7
Standard
  9
$CLAYER
  8
0
  9
$CELTYPE
  6
ByLayer
  9
$CECOLOR
 62
   256
  9
$CELTSCALE
 40
1.0
  9
$DISPSILH
 70
     0
  9
$DIMSCALE
 40
1.0
  9
$DIMASZ
 40
0.18
  9
$DIMEXO
 40
0.0625
  9
$DIMDLI
 40
0.38
  9
$DIMRND
 40
0.0
  9
$DIMDLE
 40
0.0
  9
$DIMEXE
 40
0.18
  9
$DIMTP
 40
0.0
  9
$DIMTM
 40
0.0
  9
$DIMTXT
 40
0.18
  9
$DIMCEN
 40
0.09
  9
$DIMTSZ
 40
0.0
  9
$DIMTOL
 70
     0
  9
$DIMLIM
 70
     0
  9
$DIMTIH
 70
     1
  9
$DIMTOH
 70
     1
  9
$DIMSE1
 70
     0
  9
$DIMSE2
 70
     0
  9
$DIMTAD
 70
     0
  9
$DIMZIN
 70
     0
  9
$DIMBLK
  1

  9
$DIMASO
 70
     1
  9
$DIMSHO
 70
     1
  9
$DIMPOST
  1

  9
$DIMAPOST
  1

  9
$DIMALT
 70
     0
  9
$DIMALTD
 70
     2
  9
$DIMALTF
 40
25.4
  9
$DIMLFAC
 40
1.0
  9
$DIMTOFL
 70
     0
  9
$DIMTVP
 40
0.0
  9
$DIMTIX
 70
     0
  9
$DIMSOXD
 70
     0
  9
$DIMSAH
 70
     0
  9
$DIMBLK1
  1

  9
$DIMBLK2
  1

  9
$DIMSTYLE
  2
Standard
  9
$DIMCLRD
 70
     0
  9
$DIMCLRE
 70
     0
  9
$DIMCLRT
 70
     0
  9
$DIMTFAC
 40
1.0
  9
$DIMGAP
 40
0.09
  9
$DIMJUST
 70
     0
  9
$DIMSD1
 70
     0
  9
$DIMSD2
 70
     0
  9
$DIMTOLJ
 70
     1
  9
$DIMTZIN
 70
     0
  9
$DIMALTZ
 70
     0
  9
$DIMALTTZ
 70
     0
  9
$DIMUPT
 70
     0
  9
$DIMDEC
 70
     4
  9
$DIMTDEC
 70
     4
  9
$DIMALTU
 70
     2
  9
$DIMALTTD
 70
     2
  9
$DIMTXSTY
  7
Standard
  9
$DIMAUNIT
 70
     0
  9
$DIMADEC
 70
     0
  9
$DIMALTRND
 40
0.0
  9
$DIMAZIN
 70
     0
  9
$DIMDSEP
 70
    46
  9
$DIMATFIT
 70
     3
  9
$DIMFRAC
 70
     0
  9
$DIMLDRBLK
  1

  9
$DIMLUNIT
 70
     2
  9
$DIMLWD
 70
    -2
  9
$DIMLWE
 70
    -2
  9
$DIMTMOVE
 70
     0
  9
$LUNITS
 70
     2
  9
$LUPREC
 70
     3
  9
$SKETCHINC
 40
0.1
  9
$FILLETRAD
 40
0.0
  9
$AUNITS
 70
     0
  9
$AUPREC
 70
     0
  9
$MENU
  1
.
  9
$ELEVATION
 40
0.0
  9
$PELEVATION
 40
0.0
  9
$THICKNESS
 40
0.0
  9
$LIMCHECK
 70
     0
  9
$CHAMFERA
 40
0.5
  9
$CHAMFERB
 40
0.5
  9
$CHAMFERC
 40
1.0
  9
$CHAMFERD
 40
0.0
  9
$SKPOLY
 70
     0
  9
$TDCREATE
 40
2454769.747291297
  9
$TDUCREATE
 40
2454769.705624630
  9
$TDUPDATE
 40
2455146.452740347
  9
$TDUUPDATE
 40
2455146.411073680
  9
$TDINDWG
 40
0.0675784722
  9
$TDUSRTIMER
 40
0.0675784722
  9
$USRTIMER
 70
     1
  9
$ANGBASE
 50
0.0
  9
$ANGDIR
 70
     0
  9
$PDMODE
 70
     0
  9
$PDSIZE
 40
0.0
  9
$PLINEWID
 40
0.0
  9
$SPLFRAME
 70
     0
  9
$SPLINETYPE
 70
     6
  9
$SPLINESEGS
 70
     8
  9
$HANDSEED
  5
9C8
  9
$SURFTAB1
 70
     6
  9
$SURFTAB2
 70
     6
  9
$SURFTYPE
 70
     6
  9
$SURFU
 70
     6
  9
$SURFV
 70
     6
  9
$UCSBASE
  2

  9
$UCSNAME
  2

  9
$UCSORG
 10
0.0
 20
0.0
 30
0.0
  9
$UCSXDIR
 10
1.0
 20
0.0
 30
0.0
  9
$UCSYDIR
 10
0.0
 20
1.0
 30
0.0
  9
$UCSORTHOREF
  2

  9
$UCSORTHOVIEW
 70
     0
  9
$UCSORGTOP
 10
0.0
 20
0.0
 30
0.0
  9
$UCSORGBOTTOM
 10
0.0
 20
0.0
 30
0.0
  9
$UCSORGLEFT
 10
0.0
 20
0.0
 30
0.0
  9
$UCSORGRIGHT
 10
0.0
 20
0.0
 30
0.0
  9
$UCSORGFRONT
 10
0.0
 20
0.0
 30
0.0
  9
$UCSORGBACK
 10
0.0
 20
0.0
 30
0.0
  9
$PUCSBASE
  2

  9
$PUCSNAME
  2

  9
$PUCSORG
 10
0.0
 20
0.0
 30
0.0
  9
$PUCSXDIR
 10
1.0
 20
0.0
 30
0.0
  9
$PUCSYDIR
 10
0.0
 20
1.0
 30
0.0
  9
$PUCSORTHOREF
  2

  9
$PUCSORTHOVIEW
 70
     0
  9
$PUCSORGTOP
 10
0.0
 20
0.0
 30
0.0
  9
$PUCSORGBOTTOM
 10
0.0
 20
0.0
 30
0.0
  9
$PUCSORGLEFT
 10
0.0
 20
0.0
 30
0.0
  9
$PUCSORGRIGHT
 10
0.0
 20
0.0
 30
0.0
  9
$PUCSORGFRONT
 10
0.0
 20
0.0
 30
0.0
  9
$PUCSORGBACK
 10
0.0
 20
0.0
 30
0.0
  9
$USERI1
 70
     0
  9
$USERI2
 70
     0
  9
$USERI3
 70
     0
  9
$USERI4
 70
     0
  9
$USERI5
 70
     0
  9
$USERR1
 40
0.0
  9
$USERR2
 40
0.0
  9
$USERR3
 40
0.0
  9
$USERR4
 40
0.0
  9
$USERR5
 40
0.0
  9
$WORLDVIEW
 70
     1
  9
$SHADEDGE
 70
     3
  9
$SHADEDIF
 70
    70
  9
$TILEMODE
 70
     1
  9
$MAXACTVP
 70
    64
  9
$PINSBASE
 10
0.0
 20
0.0
 30
0.0
  9
$PLIMCHECK
 70
     0
  9
$PEXTMIN
 10
1.000000000000000E+20
 20
1.000000000000000E+20
 30
1.000000000000000E+20
  9
$PEXTMAX
 10
-1.000000000000000E+20
 20
-1.000000000000000E+20
 30
-1.000000000000000E+20
  9
$PLIMMIN
 10
0.0
 20
0.0
  9
$PLIMMAX
 10
12.0
 20
9.0
  9
$UNITMODE
 70
     0
  9
$VISRETAIN
 70
     1
  9
$PLINEGEN
 70
     0
  9
$PSLTSCALE
 70
     1
  9
$TREEDEPTH
 70
  3020
  9
$CMLSTYLE
  2
Standard
  9
$CMLJUST
 70
     0
  9
$CMLSCALE
 40
1.0
  9
$PROXYGRAPHICS
 70
     1
  9
$MEASUREMENT
 70
     0
  9
$CELWEIGHT
370
    -1
  9
$ENDCAPS
280
     0
  9
$JOINSTYLE
280
     0
  9
$LWDISPLAY
290
     0
  9
$INSUNITS
 70
     4
  9
$HYPERLINKBASE
  1

  9
$STYLESHEET
  1
monochrome.ctb
  9
$XEDIT
290
     1
  9
$CEPSNTYPE
380
     0
  9
$PSTYLEMODE
290
     1
  9
$FINGERPRINTGUID
  2
{EC30556C-8DB0-413B-A994-4F4826DEFF54}
  9
$VERSIONGUID
  2
{4279E739-DBB5-4F03-953C-8B13CDDE6BC3}
  9
$EXTNAMES
290
     1
  9
$PSVPSCALE
 40
0.0
  9
$OLESTARTUP
290
     0
  0
ENDSEC
  0
SECTION
  2
CLASSES
  0
CLASS
  1
ACDBDICTIONARYWDFLT
  2
AcDbDictionaryWithDefault
  3
ObjectDBX Classes
 90
        0
280
     0
281
     0
  0
CLASS
  1
TABLESTYLE
  2
AcDbTableStyle
  3
ObjectDBX Classes
 90
     4095
280
     0
281
     0
  0
CLASS
  1
ACME_DOCUMENT
  2
AcMeDbDoc
  3
AcMeServices
 90
     1024
280
     0
281
     0
  0
CLASS
  1
AMGSETTINGSOBJ
  2
AmgSettingsObj
  3
"AcadM|Product Description: AutoCAD Mechanical|Company: Autodesk, Inc."
 90
     1024
280
     0
281
     0
  0
CLASS
  1
ACMESCOPE
  2
AcMeScope
  3
AcMeServices
 90
     1024
280
     0
281
     0
  0
CLASS
  1
ACMECOMMANDHISTORY
  2
AcMeCommandHistory
  3
AcMeServices
 90
     1024
280
     0
281
     0
  0
CLASS
  1
ACIMSYSVARMAN
  2
AcImSysVarManager
  3
AcMeServices
 90
     1024
280
     0
281
     0
  0
CLASS
  1
ACIMINTSYSVAR
  2
AcImIntSysVar
  3
AcMeServices
 90
     1024
280
     0
281
     0
  0
CLASS
  1
ACMEDRAWINGMAN
  2
AcMeDrawingMan
  3
AcMeServices
 90
     1024
280
     0
281
     0
  0
CLASS
  1
ACMEVIEW
  2
AcMeView
  3
AcMeServices
 90
     1024
280
     0
281
     0
  0
CLASS
  1
ACDBENTITYCACHE
  2
AcMeEntityCache
  3
AcMeServices
 90
     1024
280
     0
281
     0
  0
CLASS
  1
GSMANAGER
  2
AcMeGSManager
  3
AcMeServices
 90
     1024
280
     0
281
     0
  0
CLASS
  1
AMDTINTERNALREACTOR
  2
AmdtInternalReactor
  3
AcMeServices
 90
     1024
280
     0
281
     0
  0
CLASS
  1
ACMESTATEMGR
  2
AcMeStateMgr
  3
AcMeServices
 90
     1024
280
     0
281
     0
  0
CLASS
  1
ACGREFMASTER
  2
AcGrefMaster
  3
AcAttribServices
 90
     1024
280
     0
281
     0
  0
CLASS
  1
AM_DRAWING_MGR
  2
AcDmDwgMgr
  3
AcMechDwgViewMgmt
 90
     1024
280
     0
281
     0
  0
CLASS
  1
AM_DWG_DOCUMENT
  2
AcDmDwgDocument
  3
AcMechDwgViewMgmt
 90
     1024
280
     0
281
     0
  0
CLASS
  1
AM_DWG_SHEET
  2
AcDmSheet
  3
AcMechDwgViewMgmt
 90
     1024
280
     0
281
     0
  0
CLASS
  1
AM_VIEWDIMPARMAP
  2
AcDmViewDimParMap
  3
AcMechDwgViewMgmt
 90
     1024
280
     0
281
     0
  0
CLASS
  1
ACIMREALSYSVAR
  2
AcImRealSysVar
  3
AcMeServices
 90
     1024
280
     0
281
     0
  0
CLASS
  1
AM_DWGMGR_NAME
  2
AcDmDwgMgrName
  3
AcMechDwgViewMgmt
 90
     1024
280
     0
281
     0
  0
CLASS
  1
ACME_DATABASE
  2
AcMeDbDatabase
  3
AcMeServices
 90
     1024
280
     0
281
     0
  0
CLASS
  1
ACRFINSADJUSTERMGR
  2
AcRfInsAdjusterMgr
  3
AcMeServices
 90
     1024
280
     0
281
     0
  0
CLASS
  1
ACGREFACADMASTER
  2
AcGrefacadMaster
  3
AcGrefServices
 90
     1024
280
     0
281
     0
  0
CLASS
  1
AMDTMENUSTATEMGR
  2
AmdtMenuStateMgr
  3
McadcomServices
 90
     1024
280
     0
281
     0
  0
CLASS
  1
AMDTMCOMMENUSTATE
  2
AmdtMcomMenuState
  3
McadcomServices
 90
     1024
280
     0
281
     0
  0
CLASS
  1
AMIMASTER
  2
AmiMaster
  3
AmiServices
 90
     1024
280
     0
281
     0
  0
CLASS
  1
MAPIAMMOUDLE
  2
MApiAmModule
  3
MApiAmServices
 90
     1024
280
     0
281
     0
  0
CLASS
  1
ACIMSTRSYSVAR
  2
AcImStrSysVar
  3
AcMeServices
 90
     1024
280
     0
281
     0
  0
CLASS
  1
AMDTADMENUSTATE
  2
AmdtAdMenuState
  3
DesignerServices
 90
     1024
280
     0
281
     0
  0
CLASS
  1
ADAPPL
  2
AcAdAppl
  3
DesignerServices
 90
     1024
280
     0
281
     0
  0
CLASS
  1
DEPMGR
  2
AcAdDepMgr
  3
DesignerServices
 90
     1024
280
     0
281
     0
  0
CLASS
  1
PARAMMGR
  2
AcAdParamMgr
  3
DesignerServices
 90
     1024
280
     0
281
     0
  0
CLASS
  1
PARAMSCOPE
  2
AcAdParamScope
  3
DesignerServices
 90
     1024
280
     0
281
     0
  0
CLASS
  1
NAMEDAPPL
  2
AcAdNamedAppl
  3
DesignerServices
 90
     1024
280
     0
281
     0
  0
CLASS
  1
AMDTDMMENUSTATE
  2
AmdtDmMenuState
  3
AcMechDwgViewMgmt
 90
     1024
280
     0
281
     0
  0
CLASS
  1
AMDTAMMENUSTATE
  2
AmdtAmMenuState
  3
DesignerAssemblies
 90
     1024
280
     0
281
     0
  0
CLASS
  1
ACAMPROJECT
  2
AcAmProject
  3
DesignerAssemblies
 90
     1024
280
     0
281
     0
  0
CLASS
  1
ACAMGRCOMPDEF
  2
AcAmGrCompDef
  3
DesignerAssemblies
 90
     1024
280
     0
281
     0
  0
CLASS
  1
ACCMCONTEXT
  2
AcCmContext
  3
DesignerAssemblies
 90
     1024
280
     0
281
     0
  0
CLASS
  1
ACAMCOMPDEF
  2
AcAmCompDef
  3
DesignerAssemblies
 90
     1024
280
     0
281
     0
  0
CLASS
  1
ACAMCOMPDEFMGR
  2
AcAmCompDefMgr
  3
DesignerAssemblies
 90
     1024
280
     0
281
     0
  0
CLASS
  1
AMCONTEXTMGR
  2
AcAmContextMgr
  3
DesignerAssemblies
 90
     1024
280
     0
281
     0
  0
CLASS
  1
ACAMCONTEXTMODELER
  2
AcAmContextModeler
  3
DesignerAssemblies
 90
     1024
280
     0
281
     0
  0
CLASS
  1
ACMDATADICTIONARY
  2
AcmDataDictionary
  3
"AcmSymBB|Product Description: AutoCAD Mechanical|Company: Autodesk, Inc."
 90
     1024
280
     0
281
     0
  0
CLASS
  1
CATALOGSTATE
  2
AcAmCatalogState
  3
DesignerAssemblies
 90
     1024
280
     0
281
     0
  0
CLASS
  1
ACAMGRCOMPDEFSET
  2
AcAmGrCompDefSet
  3
DesignerAssemblies
 90
     1024
280
     0
281
     0
  0
CLASS
  1
AMDTBROWSERDBTAB
  2
AmdtBrowserDbTab
  3
McadcomServices
 90
     1024
280
     0
281
     0
  0
CLASS
  1
CBROWSERAPPOBJECT
  2
CBrowserAppObject
  3
McadcomServices
 90
     1024
280
     0
281
     0
  0
CLASS
  1
DM_PLACEHOLDER
  2
AcDmSelsetPlaceholder
  3
AcMechDwgViewMgmt
 90
     1024
280
     0
281
     0
  0
CLASS
  1
ACMSTANDARDANSI
  2
AcmStandardANSI
  3
"Amdt_StdImp|Product Description: AutoCAD Mechanical|Company: Autodesk, Inc."
 90
     1024
280
     0
281
     0
  0
CLASS
  1
AMGOBJPROPCFG
  2
AmgObjPropCfg
  3
"AmgLay|Product Description: AutoCAD Mechanical|Company: Autodesk, Inc."
 90
     1025
280
     0
281
     0
  0
CLASS
  1
ACMSURFSTANDARDANSI
  2
AcmSurfTextStdANSI
  3
"Amdt_StdImp|Product Description: AutoCAD Mechanical|Company: Autodesk, Inc."
 90
     1024
280
     0
281
     0
  0
CLASS
  1
ACMFCFSTANDARDANSI
  2
AcmFCFStdANSI
  3
"Amdt_StdImp|Product Description: AutoCAD Mechanical|Company: Autodesk, Inc."
 90
     1024
280
     0
281
     0
  0
CLASS
  1
ACMWELDSTANDARDANSI
  2
AcmWeldingStdANSI
  3
"Amdt_StdImp|Product Description: AutoCAD Mechanical|Company: Autodesk, Inc."
 90
     1024
280
     0
281
     0
  0
CLASS
  1
ACMIDSTANDARDANSI
  2
AcmIdStdANSI
  3
"Amdt_StdImp|Product Description: AutoCAD Mechanical|Company: Autodesk, Inc."
 90
     1024
280
     0
281
     0
  0
CLASS
  1
ACMDATUMSTANDARDANSI
  2
AcmDatumStdANSI
  3
"Amdt_StdImp|Product Description: AutoCAD Mechanical|Company: Autodesk, Inc."
 90
     1024
280
     0
281
     0
  0
CLASS
  1
ACMBOMSTANDARDANSI
  2
AcmBOMStdANSI
  3
"Amdt_StdImp|Product Description: AutoCAD Mechanical|Company: Autodesk, Inc."
 90
     1024
280
     0
281
     0
  0
CLASS
  1
ACMDETAILSTANDARDANSI
  2
AmdtDetailSymStdANSI
  3
"Amdt_StdImp|Product Description: AutoCAD Mechanical|Company: Autodesk, Inc."
 90
     1024
280
     0
281
     0
  0
CLASS
  1
ACMSECTIONSTANDARDANSI
  2
AmdtSectionSymStdANSI
  3
"Amdt_StdImp|Product Description: AutoCAD Mechanical|Company: Autodesk, Inc."
 90
     1024
280
     0
281
     0
  0
CLASS
  1
ACMCENTERLINESTANDARDANSI
  2
AmdtCenterLineStdANSI
  3
"Amdt_StdImp|Product Description: AutoCAD Mechanical|Company: Autodesk, Inc."
 90
     1024
280
     0
281
     0
  0
CLASS
  1
ACMTHREADLINESTANDARDANSI
  2
AmdtThreadLineStdANSI
  3
"Amdt_StdImp|Product Description: AutoCAD Mechanical|Company: Autodesk, Inc."
 90
     1024
280
     0
281
     0
  0
CLASS
  1
ACMNOTESTANDARDANSI
  2
AmdtNoteStdANSI
  3
"Amdt_StdImp|Product Description: AutoCAD Mechanical|Company: Autodesk, Inc."
 90
     1024
280
     0
281
     0
  0
CLASS
  1
AMDTNOTETEMPLATEDB
  2
AmdtNoteTemplateDB
  3
AcmSymBB|Product Description: AutoCAD Mechanical|Company: Autodesk, Inc.
 90
     1024
280
     0
281
     0
  0
CLASS
  1
ACAMGLAYSTD
  2
AcAmgLayStd
  3
"AmgLay|Product Description: AutoCAD Mechanical|Company: Autodesk, Inc."
 90
     1024
280
     0
281
     0
  0
CLASS
  1
ACAMGDIMSTD
  2
AcAmgDimStd
  3
"AmgDim|Product Description: AutoCAD Mechanical|Company: Autodesk, Inc."
 90
     1024
280
     0
281
     0
  0
CLASS
  1
ACAMGHOLECHARTSTDANSI
  2
AcAmgHoleChartStdANSI
  3
AmgDim|Product Description: AutoCAD Mechanical|Company: Autodesk, Inc.
 90
     1024
280
     0
281
     0
  0
CLASS
  1
ACAMGTITLESTD
  2
AcAmgTitleStd
  3
"AmgTitle|Product Description: AutoCAD Mechanical|Company: Autodesk, Inc."
 90
     4095
280
     0
281
     0
  0
CLASS
  1
ACAMGFILTERDAT
  2
AcAmgFilterDat
  3
"AcadM|Product Description: AutoCAD Mechanical|Company: Autodesk, Inc."
 90
     1024
280
     0
281
     0
  0
CLASS
  1
SORTENTSTABLE
  2
AcDbSortentsTable
  3
ObjectDBX Classes
 90
        0
280
     0
281
     0
  0
CLASS
  1
DICTIONARYVAR
  2
AcDbDictionaryVar
  3
ObjectDBX Classes
 90
        0
280
     0
281
     0
  0
CLASS
  1
MATERIAL
  2
AcDbMaterial
  3
ObjectDBX Classes
 90
     1153
280
     0
281
     0
  0
CLASS
  1
ACMSTANDARDISO
  2
AcmStandardISO
  3
"Amdt_StdImp|Product Description: AutoCAD Mechanical|Company: Autodesk, Inc."
 90
     1024
280
     0
281
     0
  0
CLASS
  1
AMDTEDGESTANDARDISO
  2
AmdtEdgeStdISO
  3
"Amdt_StdImp|Product Description: AutoCAD Mechanical|Company: Autodesk, Inc."
 90
     1024
280
     0
281
     0
  0
CLASS
  1
ACMSURFSTANDARDISO
  2
AcmSurfTextStdISO
  3
"Amdt_StdImp|Product Description: AutoCAD Mechanical|Company: Autodesk, Inc."
 90
     1024
280
     0
281
     0
  0
CLASS
  1
ACMFCFSTANDARDISO
  2
AcmFCFStdISO
  3
"Amdt_StdImp|Product Description: AutoCAD Mechanical|Company: Autodesk, Inc."
 90
     1024
280
     0
281
     0
  0
CLASS
  1
ACMWELDSTANDARDISO
  2
AcmWeldingStdISO
  3
"Amdt_StdImp|Product Description: AutoCAD Mechanical|Company: Autodesk, Inc."
 90
     1024
280
     0
281
     0
  0
CLASS
  1
ACMIDSTANDARDISO
  2
AcmIdStdISO
  3
"Amdt_StdImp|Product Description: AutoCAD Mechanical|Company: Autodesk, Inc."
 90
     1024
280
     0
281
     0
  0
CLASS
  1
ACMDATUMSTANDARDISO
  2
AcmDatumStdISO
  3
"Amdt_StdImp|Product Description: AutoCAD Mechanical|Company: Autodesk, Inc."
 90
     1024
280
     0
281
     0
  0
CLASS
  1
ACMBOMSTANDARDISO
  2
AcmBOMStdISO
  3
"Amdt_StdImp|Product Description: AutoCAD Mechanical|Company: Autodesk, Inc."
 90
     1024
280
     0
281
     0
  0
CLASS
  1
ACMDETAILSTANDARDISO
  2
AmdtDetailSymStdISO
  3
"Amdt_StdImp|Product Description: AutoCAD Mechanical|Company: Autodesk, Inc."
 90
     1024
280
     0
281
     0
  0
CLASS
  1
ACMSECTIONSTANDARDISO
  2
AmdtSectionSymStdISO
  3
"Amdt_StdImp|Product Description: AutoCAD Mechanical|Company: Autodesk, Inc."
 90
     1024
280
     0
281
     0
  0
CLASS
  1
ACMCENTERLINESTANDARDISO
  2
AmdtCenterLineStdISO
  3
"Amdt_StdImp|Product Description: AutoCAD Mechanical|Company: Autodesk, Inc."
 90
     1024
280
     0
281
     0
  0
CLASS
  1
ACMNOTESTANDARDISO
  2
AmdtNoteStdISO
  3
"Amdt_StdImp|Product Description: AutoCAD Mechanical|Company: Autodesk, Inc."
 90
     1024
280
     0
281
     0
  0
CLASS
  1
ACAMGHOLECHARTSTDISO
  2
AcAmgHoleChartStdISO
  3
AmgDim|Product Description: AutoCAD Mechanical|Company: Autodesk, Inc.
 90
     1024
280
     0
281
     0
  0
CLASS
  1
ACMTHREADLINESTANDARDISO
  2
AmdtThreadLineStdISO
  3
"Amdt_StdImp|Product Description: AutoCAD Mechanical|Company: Autodesk, Inc."
 90
     1024
280
     0
281
     0
  0
CLASS
  1
ACMDATAENTRYBLOCK
  2
AcmDataEntryBlock
  3
AcmSymBB|Product Description: AutoCAD Mechanical|Company: Autodesk, Inc.
 90
    33792
280
     0
281
     0
  0
CLASS
  1
AMDTDETAILSYM
  2
AmdtDetailSym
  3
"AcmSymBB|Product Description: AutoCAD Mechanical|Company: Autodesk, Inc."
 90
     4095
280
     0
281
     1
  0
CLASS
  1
AMDTDETAILSYMLABEL
  2
AmdtDetailSymLabel
  3
"AcmSymBB|Product Description: AutoCAD Mechanical|Company: Autodesk, Inc."
 90
     4095
280
     0
281
     1
  0
CLASS
  1
DIMASSOC
  2
AcDbDimAssoc
  3
"AcDbDimAssoc|Product Desc:     AcDim ARX App For Dimension|Company:          Autodesk, Inc.|WEB Address:      www.autodesk.com"
 90
        0
280
     0
281
     0
  0
CLASS
  1
ACMSTANDARDDIN
  2
AcmStandardDIN
  3
"Amdt_StdImp|Product Description: AutoCAD Mechanical|Company: Autodesk, Inc."
 90
     1024
280
     0
281
     0
  0
CLASS
  1
AMDTEDGESTANDARDDIN
  2
AmdtEdgeStdDIN
  3
"Amdt_StdImp|Product Description: AutoCAD Mechanical|Company: Autodesk, Inc."
 90
     1024
280
     0
281
     0
  0
CLASS
  1
ACMSURFSTANDARDDIN
  2
AcmSurfTextStdDIN
  3
"Amdt_StdImp|Product Description: AutoCAD Mechanical|Company: Autodesk, Inc."
 90
     1024
280
     0
281
     0
  0
CLASS
  1
ACMFCFSTANDARDDIN
  2
AcmFCFStdDIN
  3
"Amdt_StdImp|Product Description: AutoCAD Mechanical|Company: Autodesk, Inc."
 90
     1024
280
     0
281
     0
  0
CLASS
  1
ACMWELDSTANDARDDIN
  2
AcmWeldingStdDIN
  3
"Amdt_StdImp|Product Description: AutoCAD Mechanical|Company: Autodesk, Inc."
 90
     1024
280
     0
281
     0
  0
CLASS
  1
ACMIDSTANDARDDIN
  2
AcmIdStdDIN
  3
"Amdt_StdImp|Product Description: AutoCAD Mechanical|Company: Autodesk, Inc."
 90
     1024
280
     0
281
     0
  0
CLASS
  1
ACMDATUMSTANDARDDIN
  2
AcmDatumStdDIN
  3
"Amdt_StdImp|Product Description: AutoCAD Mechanical|Company: Autodesk, Inc."
 90
     1024
280
     0
281
     0
  0
CLASS
  1
ACMBOMSTANDARDDIN
  2
AcmBOMStdDIN
  3
"Amdt_StdImp|Product Description: AutoCAD Mechanical|Company: Autodesk, Inc."
 90
     1024
280
     0
281
     0
  0
CLASS
  1
ACMDETAILSTANDARDDIN
  2
AmdtDetailSymStdDIN
  3
"Amdt_StdImp|Product Description: AutoCAD Mechanical|Company: Autodesk, Inc."
 90
     1024
280
     0
281
     0
  0
CLASS
  1
ACMSECTIONSTANDARDDIN
  2
AmdtSectionSymStdDIN
  3
"Amdt_StdImp|Product Description: AutoCAD Mechanical|Company: Autodesk, Inc."
 90
     1024
280
     0
281
     0
  0
CLASS
  1
ACMCENTERLINESTANDARDDIN
  2
AmdtCenterLineStdDIN
  3
"Amdt_StdImp|Product Description: AutoCAD Mechanical|Company: Autodesk, Inc."
 90
     1024
280
     0
281
     0
  0
CLASS
  1
ACMTHREADLINESTANDARDDIN
  2
AmdtThreadLineStdDIN
  3
"Amdt_StdImp|Product Description: AutoCAD Mechanical|Company: Autodesk, Inc."
 90
     1024
280
     0
281
     0
  0
CLASS
  1
ACMNOTESTANDARDDIN
  2
AmdtNoteStdDIN
  3
"Amdt_StdImp|Product Description: AutoCAD Mechanical|Company: Autodesk, Inc."
 90
     1024
280
     0
281
     0
  0
CLASS
  1
VISUALSTYLE
  2
AcDbVisualStyle
  3
ObjectDBX Classes
 90
     4095
280
     0
281
     0
  0
CLASS
  1
SCALE
  2
AcDbScale
  3
ObjectDBX Classes
 90
     1153
280
     0
281
     0
  0
CLASS
  1
MLEADERSTYLE
  2
AcDbMLeaderStyle
  3
ACDB_MLEADERSTYLE_CLASS
 90
     4095
280
     0
281
     0
  0
CLASS
  1
ACMTAPERSTANDARDDIN
  2
AcmTaperStdDIN
  3
"Amdt_StdImp|Product Description: AutoCAD Mechanical|Company: Autodesk, Inc."
 90
     1024
280
     0
281
     0
  0
CLASS
  1
ACMANOOTATIONVIEWSTANDARDDIN
  2
AmdtAnViewStdDIN
  3
"Amdt_StdImp|Product Description: AutoCAD Mechanical|Company: Autodesk, Inc."
 90
     1024
280
     0
281
     0
  0
CLASS
  1
ACMTAPERSTANDARDANSI
  2
AcmTaperStdANSI
  3
"Amdt_StdImp|Product Description: AutoCAD Mechanical|Company: Autodesk, Inc."
 90
     1024
280
     0
281
     0
  0
CLASS
  1
ACMANOOTATIONVIEWSTANDARDANSI
  2
AmdtAnViewStdANSI
  3
"Amdt_StdImp|Product Description: AutoCAD Mechanical|Company: Autodesk, Inc."
 90
     1024
280
     0
281
     0
  0
CLASS
  1
ACMTAPERSTANDARDISO
  2
AcmTaperStdISO
  3
"Amdt_StdImp|Product Description: AutoCAD Mechanical|Company: Autodesk, Inc."
 90
     1024
280
     0
281
     0
  0
CLASS
  1
ACMANOOTATIONVIEWSTANDARDISO
  2
AmdtAnViewStdISO
  3
"Amdt_StdImp|Product Description: AutoCAD Mechanical|Company: Autodesk, Inc."
 90
     1024
280
     0
281
     0
  0
CLASS
  1
EXACXREFPANELOBJECT
  2
ExAcXREFPanelObject
  3
EXAC_ESW
 90
     1025
280
     0
281
     0
  0
CLASS
  1
NPOCOLLECTION
  2
AcDbImpNonPersistentObjectsCollection
  3
ObjectDBX Classes
 90
     1153
280
     0
281
     0
  0
CLASS
  1
CAMSSTRUCTBTNSTATE
  2
StructBtnState
  3
DesignerAssemblies
 90
     1024
280
     0
281
     0
  0
CLASS
  1
CELLSTYLEMAP
  2
AcDbCellStyleMap
  3
ObjectDBX Classes
 90
     1152
280
     0
281
     0
  0
CLASS
  1
ACDBPLACEHOLDER
  2
AcDbPlaceHolder
  3
ObjectDBX Classes
 90
        0
280
     0
281
     0
  0
CLASS
  1
LAYOUT
  2
AcDbLayout
  3
ObjectDBX Classes
 90
        0
280
     0
281
     0
  0
ENDSEC
  0
SECTION
  2
TABLES
  0
TABLE
  2
VPORT
  5
8
330
0
100
AcDbSymbolTable
 70
     1
  0
VPORT
  5
879
330
8
100
AcDbSymbolTableRecord
100
AcDbViewportTableRecord
  2
*Active
 70
     0
 10
0.0
 20
0.0
 11
1.0
 21
1.0
 12
95.45878479813683
 22
-0.962143526062448
 13
0.0
 23
0.0
 14
0.5
 24
0.5
 15
0.5
 25
0.5
 16
0.0
 26
0.0
 36
1.0
 17
69.99999980843497
 27
70.00000074615406
 37
0.0
 40
350.9700918149844
 41
1.833531510107015
 42
50.0
 43
0.0
 44
0.0
 50
0.0
 51
0.0
 71
     0
 72
   100
 73
     1
 74
     3
 75
     0
 76
     0
 77
     0
 78
     0
281
     0
 65
     1
110
0.0
120
0.0
130
0.0
111
1.0
121
0.0
131
0.0
112
0.0
122
1.0
132
0.0
 79
     0
146
0.0
  0
ENDTAB
  0
TABLE
  2
LTYPE
  5
5
330
0
100
AcDbSymbolTable
 70
    25
  0
LTYPE
  5
14
330
5
100
AcDbSymbolTableRecord
100
AcDbLinetypeTableRecord
  2
ByBlock
 70
     0
  3

 72
    65
 73
     0
 40
0.0
  0
LTYPE
  5
15
330
5
100
AcDbSymbolTableRecord
100
AcDbLinetypeTableRecord
  2
ByLayer
 70
     0
  3

 72
    65
 73
     0
 40
0.0
  0
LTYPE
  5
16
330
5
100
AcDbSymbolTableRecord
100
AcDbLinetypeTableRecord
  2
Continuous
 70
     0
  3
Solid line
 72
    65
 73
     0
 40
0.0
  0
LTYPE
  5
1AD
330
5
100
AcDbSymbolTableRecord
100
AcDbLinetypeTableRecord
  2
HIDDEN
 70
     0
  3
Verdeckt
 72
    65
 73
     2
 40
0.375
 49
0.25
 74
     0
 49
-0.125
 74
     0
  0
LTYPE
  5
1AE
330
5
100
AcDbSymbolTableRecord
100
AcDbLinetypeTableRecord
  2
PHANTOM2
 70
     0
  3
Phantom (.5x) ___ _ _ ___ _ _ ___ _ _ ___ _ _
 72
    65
 73
     6
 40
1.25
 49
0.625
 74
     0
 49
-0.125
 74
     0
 49
0.125
 74
     0
 49
-0.125
 74
     0
 49
0.125
 74
     0
 49
-0.125
 74
     0
  0
LTYPE
  5
1AF
330
5
100
AcDbSymbolTableRecord
100
AcDbLinetypeTableRecord
  2
CENTER
 70
     0
  3
Mitte ____ _ ____ _ ____ _ ____ _ ____ _ ____
 72
    65
 73
     4
 40
2.0
 49
1.25
 74
     0
 49
-0.25
 74
     0
 49
0.25
 74
     0
 49
-0.25
 74
     0
  0
LTYPE
  5
1E3
330
5
100
AcDbSymbolTableRecord
100
AcDbLinetypeTableRecord
  2
AM_ISO02W050
 70
     0
  3
__ __ __ __ __ __ __ __ __ __ __ __ __ __ __
 72
    65
 73
     2
 40
7.5
 49
6.0
 74
     0
 49
-1.5
 74
     0
  0
LTYPE
  5
1E4
330
5
100
AcDbSymbolTableRecord
100
AcDbLinetypeTableRecord
  2
AM_ISO08W050
 70
     0
  3
____ . ____ . ____ . ____ . ____ . ____ . ____
 72
    65
 73
     4
 40
18.0
 49
12.0
 74
     0
 49
-1.5
 74
     0
 49
3.0
 74
     0
 49
-1.5
 74
     0
  0
LTYPE
  5
1E5
330
5
100
AcDbSymbolTableRecord
100
AcDbLinetypeTableRecord
  2
AM_ISO09W050
 70
     0
  3
_____ . . _____ . . _____ . . ____ .. ____
 72
    65
 73
     6
 40
22.5
 49
12.0
 74
     0
 49
-1.5
 74
     0
 49
3.0
 74
     0
 49
-1.5
 74
     0
 49
3.0
 74
     0
 49
-1.5
 74
     0
  0
LTYPE
  5
1E6
330
5
100
AcDbSymbolTableRecord
100
AcDbLinetypeTableRecord
  2
Amconstr
 70
     0
  3
_______________________
 72
    65
 73
     2
 40
9999.0
 49
9999.0
 74
     0
 49
0.0
 74
     0
  0
LTYPE
  5
1E7
330
5
100
AcDbSymbolTableRecord
100
AcDbLinetypeTableRecord
  2
AM_ISO08W050x2
 70
     0
  3
__ . __ . __ . __ . __ . __
 72
    65
 73
     4
 40
9.0
 49
6.0
 74
     0
 49
-0.75
 74
     0
 49
1.5
 74
     0
 49
-0.75
 74
     0
  0
LTYPE
  5
1E8
330
5
100
AcDbSymbolTableRecord
100
AcDbLinetypeTableRecord
  2
AM_ISO02W050x2
 70
     0
  3
 _ _ _ _ _ _ _ _ _ _ _ _
 72
    65
 73
     2
 40
3.75
 49
3.0
 74
     0
 49
-0.75
 74
     0
  0
LTYPE
  5
1EB
330
5
100
AcDbSymbolTableRecord
100
AcDbLinetypeTableRecord
  2
Amzigzag
 70
     0
  3
/\/-/\/-/\/-/\/-/\/-/\/
 72
    65
 73
     2
 40
11.0001
 49
0.0001
 74
     4
 75
   136
340
1EA
 46
0.04
 50
0.0
 44
0.0
 45
0.0
 49
-11.0
 74
     0
  0
LTYPE
  5
1EC
330
5
100
AcDbSymbolTableRecord
100
AcDbLinetypeTableRecord
  2
CENTER2
 70
     0
  3
Center (.5x) ___ _ ___ _ ___ _ ___ _ ___ _ ___
 72
    65
 73
     4
 40
1.125
 49
0.75
 74
     0
 49
-0.125
 74
     0
 49
0.125
 74
     0
 49
-0.125
 74
     0
  0
LTYPE
  5
1ED
330
5
100
AcDbSymbolTableRecord
100
AcDbLinetypeTableRecord
  2
HIDDEN2
 70
     0
  3
Hidden (.5x) _ _ _ _ _ _ _ _ _ _ _ _ _ _ _ _ _
 72
    65
 73
     2
 40
0.1875
 49
0.125
 74
     0
 49
-0.0625
 74
     0
  0
LTYPE
  5
1EE
330
5
100
AcDbSymbolTableRecord
100
AcDbLinetypeTableRecord
  2
Amzigzag2
 70
     0
  3
/\/-/\/-/\/-/\/-/\/-/\/
 72
    65
 73
     2
 40
0.4401
 49
0.0001
 74
     4
 75
   136
340
1EA
 46
0.0016
 50
0.0
 44
0.0
 45
0.0
 49
-0.4400000000000001
 74
     0
  0
LTYPE
  5
1FC
330
5
100
AcDbSymbolTableRecord
100
AcDbLinetypeTableRecord
  2
ACANSTGB
 70
     0
  3
__ . . __ . .
 72
    65
 73
     6
 40
0.35433070866
 49
0.15748031496
 74
     0
 49
-0.03937007874
 74
     0
 49
0.03937007874
 74
     0
 49
-0.03937007874
 74
     0
 49
0.03937007874
 74
     0
 49
-0.03937007874
 74
     0
  0
LTYPE
  5
1FD
330
5
100
AcDbSymbolTableRecord
100
AcDbLinetypeTableRecord
  2
ACANSTGL
 70
     0
  3
_ _ _ _ _
 72
    65
 73
     2
 40
0.11811023622
 49
0.07874015748
 74
     0
 49
-0.03937007874
 74
     0
  0
LTYPE
  5
25B
330
5
100
AcDbSymbolTableRecord
100
AcDbLinetypeTableRecord
  2
ACISOWELD
 70
     0
  3
_ _ _ _ _
 72
    65
 73
     2
 40
2.0
 49
2.0
 74
     0
 49
-1.0
 74
     0
  0
LTYPE
  5
25C
330
5
100
AcDbSymbolTableRecord
100
AcDbLinetypeTableRecord
  2
ACISOTGB
 70
     0
  3
__ . . __ . .
 72
    65
 73
     6
 40
9.0
 49
4.0
 74
     0
 49
-1.0
 74
     0
 49
1.0
 74
     0
 49
-1.0
 74
     0
 49
1.0
 74
     0
 49
-1.0
 74
     0
  0
LTYPE
  5
25D
330
5
100
AcDbSymbolTableRecord
100
AcDbLinetypeTableRecord
  2
ACISOTGL
 70
     0
  3
_ _ _ _ _
 72
    65
 73
     2
 40
3.0
 49
2.0
 74
     0
 49
-1.0
 74
     0
  0
LTYPE
  5
606
330
5
100
AcDbSymbolTableRecord
100
AcDbLinetypeTableRecord
  2
GEN7
 70
     0
  3
____ . ____ . ____ . ____ . ____ . ____ . ____
 72
    65
 73
     4
 40
13.75
 49
10.0
 74
     0
 49
-1.25
 74
     0
 49
1.25
 74
     0
 49
-1.25
 74
     0
  0
LTYPE
  5
607
330
5
100
AcDbSymbolTableRecord
100
AcDbLinetypeTableRecord
  2
ACDINWELD
 70
     0
  3
_ _ _ _ _
 72
    65
 73
     2
 40
2.0
 49
2.0
 74
     0
 49
-1.0
 74
     0
  0
LTYPE
  5
608
330
5
100
AcDbSymbolTableRecord
100
AcDbLinetypeTableRecord
  2
ACDINTGB
 70
     0
  3
__ . . __ . .
 72
    65
 73
     6
 40
9.0
 49
4.0
 74
     0
 49
-1.0
 74
     0
 49
1.0
 74
     0
 49
-1.0
 74
     0
 49
1.0
 74
     0
 49
-1.0
 74
     0
  0
LTYPE
  5
609
330
5
100
AcDbSymbolTableRecord
100
AcDbLinetypeTableRecord
  2
ACDINTGL
 70
     0
  3
_ _ _ _ _
 72
    65
 73
     2
 40
3.0
 49
2.0
 74
     0
 49
-1.0
 74
     0
  0
LTYPE
  5
60A
330
5
100
AcDbSymbolTableRecord
100
AcDbLinetypeTableRecord
  2
AUSGEZOGEN
 70
     0
  3
Ausgezogene Linie
 72
    65
 73
     0
 40
0.0
  0
LTYPE
  5
60B
330
5
100
AcDbSymbolTableRecord
100
AcDbLinetypeTableRecord
  2
STRICHPUNKT
 70
     0
  3
__ . __ . __ . __ . __ . __ . __ . __ . __ . __
 72
    65
 73
     4
 40
1.0
 49
0.5
 74
     0
 49
-0.25
 74
     0
 49
0.0
 74
     0
 49
-0.25
 74
     0
  0
ENDTAB
  0
TABLE
  2
LAYER
  5
2
102
{ACAD_XDICTIONARY
360
26D
102
}
330
0
100
AcDbSymbolTable
 70
    19
  0
LAYER
  5
10
102
{ACAD_XDICTIONARY
360
912
102
}
330
2
100
AcDbSymbolTableRecord
100
AcDbLayerTableRecord
  2
0
 70
     0
 62
     7
  6
Continuous
370
    -3
390
F
  0
LAYER
  5
2A
102
{ACAD_XDICTIONARY
360
914
102
}
330
2
100
AcDbSymbolTableRecord
100
AcDbLayerTableRecord
  2
OHNE VERRIEGELUNG
 70
     0
 62
     7
  6
Continuous
370
    -3
390
F
  0
LAYER
  5
25E
102
{ACAD_XDICTIONARY
360
916
102
}
330
2
100
AcDbSymbolTableRecord
100
AcDbLayerTableRecord
  2
WHITE
 70
     0
 62
     7
  6
Continuous
370
    -3
390
F
  0
LAYER
  5
60C
330
2
100
AcDbSymbolTableRecord
100
AcDbLayerTableRecord
  2
Defpoints
 70
     0
 62
     7
  6
Continuous
290
     0
370
    -3
390
F
  0
LAYER
  5
60D
102
{ACAD_XDICTIONARY
360
918
102
}
330
2
100
AcDbSymbolTableRecord
100
AcDbLayerTableRecord
  2
RAHM2
 70
     0
 62
     1
  6
Continuous
370
    -3
390
F
  0
LAYER
  5
60E
102
{ACAD_XDICTIONARY
360
91A
102
}
330
2
100
AcDbSymbolTableRecord
100
AcDbLayerTableRecord
  2
7
 70
     0
 62
     4
  6
GEN7
370
    -3
390
F
  0
LAYER
  5
60F
102
{ACAD_XDICTIONARY
360
91C
102
}
330
2
100
AcDbSymbolTableRecord
100
AcDbLayerTableRecord
  2
6
 70
     0
 62
     2
  6
Continuous
370
    -3
390
F
  0
LAYER
  5
610
102
{ACAD_XDICTIONARY
360
91E
102
}
330
2
100
AcDbSymbolTableRecord
100
AcDbLayerTableRecord
  2
5
 70
     0
 62
     3
  6
Continuous
370
    -3
390
F
  0
LAYER
  5
611
102
{ACAD_XDICTIONARY
360
920
102
}
330
2
100
AcDbSymbolTableRecord
100
AcDbLayerTableRecord
  2
0N
 70
     0
 62
     7
  6
Continuous
370
    -3
390
F
  0
LAYER
  5
612
102
{ACAD_XDICTIONARY
360
922
102
}
330
2
100
AcDbSymbolTableRecord
100
AcDbLayerTableRecord
  2
RAHM3
 70
     0
 62
     2
  6
Continuous
370
    -3
390
F
  0
LAYER
  5
613
102
{ACAD_XDICTIONARY
360
924
102
}
330
2
100
AcDbSymbolTableRecord
100
AcDbLayerTableRecord
  2
MITTE
 70
     0
 62
     1
  6
STRICHPUNKT
370
    -3
390
F
  0
LAYER
  5
614
102
{ACAD_XDICTIONARY
360
926
102
}
330
2
100
AcDbSymbolTableRecord
100
AcDbLayerTableRecord
  2
TEXT50
 70
     0
 62
     7
  6
Continuous
370
    -3
390
F
  0
LAYER
  5
615
102
{ACAD_XDICTIONARY
360
928
102
}
330
2
100
AcDbSymbolTableRecord
100
AcDbLayerTableRecord
  2
TEXT35
 70
     0
 62
   132
  6
Continuous
370
    -3
390
F
  0
LAYER
  5
616
102
{ACAD_XDICTIONARY
360
92A
102
}
330
2
100
AcDbSymbolTableRecord
100
AcDbLayerTableRecord
  2
TEXT25
 70
     0
 62
     3
  6
Continuous
370
    -3
390
F
  0
LAYER
  5
617
102
{ACAD_XDICTIONARY
360
92C
102
}
330
2
100
AcDbSymbolTableRecord
100
AcDbLayerTableRecord
  2
KOPF
 70
     0
 62
     1
  6
AUSGEZOGEN
370
    -3
390
F
  0
LAYER
  5
618
102
{ACAD_XDICTIONARY
360
92E
102
}
330
2
100
AcDbSymbolTableRecord
100
AcDbLayerTableRecord
  2
Sperrlayer
 70
     1
 62
     7
  6
Continuous
370
    50
390
F
  0
LAYER
  5
619
102
{ACAD_XDICTIONARY
360
930
102
}
330
2
100
AcDbSymbolTableRecord
100
AcDbLayerTableRecord
  2
AM_8
 70
     0
 62
     1
  6
Continuous
370
    15
390
F
1001
AcAecLayerStandard
1000

1000

  0
LAYER
  5
61A
102
{ACAD_XDICTIONARY
360
932
102
}
330
2
100
AcDbSymbolTableRecord
100
AcDbLayerTableRecord
  2
AM_4
 70
     0
 62
     3
  6
Continuous
370
    15
390
F
1001
AcAecLayerStandard
1000

1000

  0
LAYER
  5
61B
102
{ACAD_XDICTIONARY
360
934
102
}
330
2
100
AcDbSymbolTableRecord
100
AcDbLayerTableRecord
  2
AM_0
 70
     0
 62
     7
  6
Continuous
370
    30
390
F
1001
AcAecLayerStandard
1000

1000

  0
ENDTAB
  0
TABLE
  2
STYLE
  5
3
330
0
100
AcDbSymbolTable
 70
    12
  0
STYLE
  5
11
330
3
100
AcDbSymbolTableRecord
100
AcDbTextStyleTableRecord
  2
Standard
 70
     0
 40
0.0
 41
1.0
 50
0.0
 71
     0
 42
0.2
  3
txt
  4

  0
STYLE
  5
1EA
330
3
100
AcDbSymbolTableRecord
100
AcDbTextStyleTableRecord
  2

 70
     1
 40
0.0
 41
1.0
 50
0.0
 71
     0
 42
0.2
  3
genltshp.shx
  4

  0
STYLE
  5
1EF
330
3
100
AcDbSymbolTableRecord
100
AcDbTextStyleTableRecord
  2
ACANSTS
 70
     0
 40
1.0
 41
1.0
 50
0.0
 71
     0
 42
0.2
  3
romans.shx
  4

  0
STYLE
  5
1FB
330
3
100
AcDbSymbolTableRecord
100
AcDbTextStyleTableRecord
  2
ACANSGDT
 70
     0
 40
0.0
 41
1.0
 50
0.0
 71
     0
 42
0.2
  3
amgdt.shx
  4

  0
STYLE
  5
261
330
3
100
AcDbSymbolTableRecord
100
AcDbTextStyleTableRecord
  2
ACISOTS
 70
     0
 40
1.0
 41
1.0
 50
0.0
 71
     0
 42
2.5
  3
isocp.shx
  4
bigfont.shx
  0
STYLE
  5
262
330
3
100
AcDbSymbolTableRecord
100
AcDbTextStyleTableRecord
  2
ACISOGDT
 70
     0
 40
0.0
 41
1.0
 50
0.0
 71
     0
 42
2.5
  3
AMGDT
  4
bigfont.shx
  0
STYLE
  5
61C
330
3
100
AcDbSymbolTableRecord
100
AcDbTextStyleTableRecord
  2
ACDINTS
 70
     0
 40
1.0
 41
1.0
 50
0.0
 71
     0
 42
5.0
  3
isocp.shx
  4

  0
STYLE
  5
61D
330
3
100
AcDbSymbolTableRecord
100
AcDbTextStyleTableRecord
  2
ACDINGDT
 70
     0
 40
0.0
 41
1.0
 50
0.0
 71
     0
 42
5.0
  3
amgdt.shx
  4

  0
STYLE
  5
61E
330
3
100
AcDbSymbolTableRecord
100
AcDbTextStyleTableRecord
  2
KOPF
 70
     0
 40
0.0
 41
0.9
 50
10.0
 71
     0
 42
2.5
  3
dutchi.ttf
  4

1001
ACAD
1000
Dutch801 Rm BT
1071
 16777234
  0
STYLE
  5
61F
330
3
100
AcDbSymbolTableRecord
100
AcDbTextStyleTableRecord
  2
TEXT20
 70
     0
 40
2.0
 41
0.8
 50
0.0
 71
     0
 42
2.0
  3
isocp3.shx
  4

  0
STYLE
  5
620
330
3
100
AcDbSymbolTableRecord
100
AcDbTextStyleTableRecord
  2
TEXT35
 70
     0
 40
3.5
 41
0.8
 50
0.0
 71
     0
 42
3.5
  3
isocp3.shx
  4

  0
STYLE
  5
621
330
3
100
AcDbSymbolTableRecord
100
AcDbTextStyleTableRecord
  2
TEXT50
 70
     0
 40
5.0
 41
0.8
 50
0.0
 71
     0
 42
5.0
  3
isocp3.shx
  4

  0
ENDTAB
  0
TABLE
  2
VIEW
  5
6
330
0
100
AcDbSymbolTable
 70
     0
  0
ENDTAB
  0
TABLE
  2
UCS
  5
7
330
0
100
AcDbSymbolTable
 70
     0
  0
ENDTAB
  0
TABLE
  2
APPID
  5
9
330
0
100
AcDbSymbolTable
 70
    29
  0
APPID
  5
12
330
9
100
AcDbSymbolTableRecord
100
AcDbRegAppTableRecord
  2
ACAD
 70
     0
  0
APPID
  5
17E
330
9
100
AcDbSymbolTableRecord
100
AcDbRegAppTableRecord
  2
MCAD_NO_VIS
 70
     0
  0
APPID
  5
17F
330
9
100
AcDbSymbolTableRecord
100
AcDbRegAppTableRecord
  2
ACAD_TEMP_GRAPHIC
 70
     0
  0
APPID
  5
1B1
330
9
100
AcDbSymbolTableRecord
100
AcDbRegAppTableRecord
  2
AD_DRAW
 70
     0
  0
APPID
  5
1B4
330
9
100
AcDbSymbolTableRecord
100
AcDbRegAppTableRecord
  2
ACATTRIBSERVICES
 70
     0
  0
APPID
  5
1D4
330
9
100
AcDbSymbolTableRecord
100
AcDbRegAppTableRecord
  2
DESIGNERASSEMBLIES
 70
     0
  0
APPID
  5
1DA
330
9
100
AcDbSymbolTableRecord
100
AcDbRegAppTableRecord
  2
ACADM_DIM_EDIT
 70
     0
  0
APPID
  5
1DB
330
9
100
AcDbSymbolTableRecord
100
AcDbRegAppTableRecord
  2
AMDT_DM_ADJ
 70
     0
  0
APPID
  5
209
330
9
100
AcDbSymbolTableRecord
100
AcDbRegAppTableRecord
  2
ACAD_DSTYLE_DIMARC_LENGTH_SYMBOL
 70
     0
  0
APPID
  5
20A
330
9
100
AcDbSymbolTableRecord
100
AcDbRegAppTableRecord
  2
ACAD_DSTYLE_DIMJOGGED_JOGANGLE_SYMBOL
 70
     0
  0
APPID
  5
625
330
9
100
AcDbSymbolTableRecord
100
AcDbRegAppTableRecord
  2
AcAecLayerStandard
 70
     0
  0
APPID
  5
626
330
9
100
AcDbSymbolTableRecord
100
AcDbRegAppTableRecord
  2
GENIUS_GENODEF_13
 70
     0
  0
APPID
  5
627
330
9
100
AcDbSymbolTableRecord
100
AcDbRegAppTableRecord
  2
GENIUS_VERSION2
 70
     0
  0
APPID
  5
628
330
9
100
AcDbSymbolTableRecord
100
AcDbRegAppTableRecord
  2
GENIUS_GENOBJ-N-SDF_13
 70
     0
  0
APPID
  5
629
330
9
100
AcDbSymbolTableRecord
100
AcDbRegAppTableRecord
  2
GENIUS_GENDTOL_13
 70
     0
  0
APPID
  5
62A
330
9
100
AcDbSymbolTableRecord
100
AcDbRegAppTableRecord
  2
GENIUS_GENOBJ-N-HTC_13
 70
     0
  0
APPID
  5
62B
330
9
100
AcDbSymbolTableRecord
100
AcDbRegAppTableRecord
  2
GENIUS_GENHATCH_13
 70
     0
  0
APPID
  5
62C
330
9
100
AcDbSymbolTableRecord
100
AcDbRegAppTableRecord
  2
GENIUS_GENBLLY_14
 70
     0
  0
APPID
  5
62D
330
9
100
AcDbSymbolTableRecord
100
AcDbRegAppTableRecord
  2
GENIUS_GENREC_14
 70
     0
  0
APPID
  5
62E
330
9
100
AcDbSymbolTableRecord
100
AcDbRegAppTableRecord
  2
GENIUS_GENOBJ-N-REC_13
 70
     0
  0
APPID
  5
62F
330
9
100
AcDbSymbolTableRecord
100
AcDbRegAppTableRecord
  2
GENIUS_AMGTXT_16
 70
     0
  0
APPID
  5
630
330
9
100
AcDbSymbolTableRecord
100
AcDbRegAppTableRecord
  2
GENIUS_GENSCREG_15
 70
     0
  0
APPID
  5
631
330
9
100
AcDbSymbolTableRecord
100
AcDbRegAppTableRecord
  2
GENIUS_GENOBJ-N-ZOO_13
 70
     0
  0
APPID
  5
632
330
9
100
AcDbSymbolTableRecord
100
AcDbRegAppTableRecord
  2
GENIUS_GENZOO_17
 70
     0
  0
APPID
  5
633
330
9
100
AcDbSymbolTableRecord
100
AcDbRegAppTableRecord
  2
DCO15
 70
     0
  0
APPID
  5
8C0
330
9
100
AcDbSymbolTableRecord
100
AcDbRegAppTableRecord
  2
ACAD_MLEADERVER
 70
     0
  0
APPID
  5
8F5
330
9
100
AcDbSymbolTableRecord
100
AcDbRegAppTableRecord
  2
ACAD_DSTYLE_DIMINSPECT
 70
     0
  0
APPID
  5
8F6
330
9
100
AcDbSymbolTableRecord
100
AcDbRegAppTableRecord
  2
ACAD_DSTYLE_DIMRADIAL_EXTENSION
 70
     0
  0
APPID
  5
97F
330
9
100
AcDbSymbolTableRecord
100
AcDbRegAppTableRecord
  2
ACAD_PSEXT
 70
     0
  0
ENDTAB
  0
TABLE
  2
DIMSTYLE
  5
A
330
0
100
AcDbSymbolTable
 70
    17
100
AcDbDimStyleTable
 71
     1
340
27
  0
DIMSTYLE
105
27
330
A
100
AcDbSymbolTableRecord
100
AcDbDimStyleTableRecord
  2
Standard
 70
     0
340
11
  0
DIMSTYLE
105
208
330
A
100
AcDbSymbolTableRecord
100
AcDbDimStyleTableRecord
  2
AM_ANSI
 70
     0
  4
mm
 41
0.1
 42
0.05
 43
0.5
 44
0.1
 47
0.1
 48
0.1
 78
     7
 79
     2
140
0.12
141
0.0
146
0.71
147
0.06
176
   256
177
   256
178
     2
274
     4
284
     7
340
11
371
    -1
372
    -1
1001
ACAD_DSTYLE_DIMJOGGED_JOGANGLE_SYMBOL
1070
   384
1040
0.7853981633974483
1001
ACAD_DSTYLE_DIMARC_LENGTH_SYMBOL
1070
   379
1070
     1
  0
DIMSTYLE
105
211
330
A
100
AcDbSymbolTableRecord
100
AcDbDimStyleTableRecord
  2
AM_ANSI$3
 70
     0
  4
mm
 41
0.1
 42
0.05
 43
0.5
 44
0.1
 47
0.1
 48
0.1
 78
     7
 79
     2
140
0.12
141
0.0
146
0.71
147
0.06
176
   256
177
   256
178
     2
274
     4
284
     7
288
     1
289
     0
340
11
371
    -1
372
    -1
1001
ACAD_DSTYLE_DIMJOGGED_JOGANGLE_SYMBOL
1070
   384
1040
0.7853981633974483
1001
ACAD_DSTYLE_DIMARC_LENGTH_SYMBOL
1070
   379
1070
     1
  0
DIMSTYLE
105
214
330
A
100
AcDbSymbolTableRecord
100
AcDbDimStyleTableRecord
  2
AM_ANSI$4
 70
     0
  4
mm
 41
0.1
 42
0.05
 43
0.5
 44
0.1
 47
0.1
 48
0.1
 78
     7
 79
     2
140
0.12
141
0.0
146
0.71
147
0.06
176
   256
177
   256
178
     2
274
     4
284
     7
288
     1
289
     0
340
11
371
    -1
372
    -1
1001
ACAD_DSTYLE_DIMJOGGED_JOGANGLE_SYMBOL
1070
   384
1040
0.7853981633974483
1001
ACAD_DSTYLE_DIMARC_LENGTH_SYMBOL
1070
   379
1070
     1
  0
DIMSTYLE
105
219
330
A
100
AcDbSymbolTableRecord
100
AcDbDimStyleTableRecord
  2
AM_ANSI$7
 70
     0
  4
mm
 41
0.1
 42
0.05
 43
0.5
 44
0.1
 47
0.1
 48
0.1
 78
     7
 79
     2
140
0.24
141
0.0
146
0.71
147
0.06
176
   256
177
   256
178
     2
274
     4
284
     7
340
11
371
    -1
372
    -1
1001
ACAD_DSTYLE_DIMJOGGED_JOGANGLE_SYMBOL
1070
   384
1040
0.7853981633974483
1001
ACAD_DSTYLE_DIMARC_LENGTH_SYMBOL
1070
   379
1070
     1
  0
DIMSTYLE
105
21C
330
A
100
AcDbSymbolTableRecord
100
AcDbDimStyleTableRecord
  2
AM_ANSI$SF
 70
     0
  4
mm
 41
0.1
 42
0.05
 43
0.5
 44
0.1
 47
0.1
 48
0.1
 75
     1
 76
     1
 78
     7
 79
     2
140
0.12
141
0.0
146
0.71
147
0.06
176
   256
177
   256
178
     2
274
     4
284
     7
340
11
371
    -1
372
    -1
1001
ACAD_DSTYLE_DIMJOGGED_JOGANGLE_SYMBOL
1070
   384
1040
0.7853981633974483
1001
ACAD_DSTYLE_DIMARC_LENGTH_SYMBOL
1070
   379
1070
     1
  0
DIMSTYLE
105
223
330
A
100
AcDbSymbolTableRecord
100
AcDbDimStyleTableRecord
  2
AM_ANSI$SH
 70
     0
  4
mm
 41
0.1
 42
0.05
 43
0.5
 44
0.1
 47
0.1
 48
0.1
 75
     1
 76
     1
 78
     7
 79
     2
140
0.12
141
0.0
146
0.71
147
0.06
173
     1
176
   256
177
   256
178
     2
274
     4
284
     7
340
11
343
21D
371
    -1
372
    -1
1001
ACAD_DSTYLE_DIMJOGGED_JOGANGLE_SYMBOL
1070
   384
1040
0.7853981633974483
1001
ACAD_DSTYLE_DIMARC_LENGTH_SYMBOL
1070
   379
1070
     1
  0
DIMSTYLE
105
263
330
A
100
AcDbSymbolTableRecord
100
AcDbDimStyleTableRecord
  2
AM_ISO
 70
     0
  4
"
 41
2.5
 42
1.0
 43
10.0
 44
1.0
 47
0.1
 48
0.1
 73
     0
 74
     0
 77
     1
 78
     8
 79
     2
140
3.5
141
0.0
143
0.0393701
146
0.71
147
1.5
172
     1
176
   256
177
   256
178
     2
271
     2
272
     3
274
     4
283
     0
284
     8
340
11
371
    -1
372
    -1
1001
ACAD_DSTYLE_DIMJOGGED_JOGANGLE_SYMBOL
1070
   384
1040
0.7853981633974483
1001
ACAD_DSTYLE_DIMARC_LENGTH_SYMBOL
1070
   379
1070
     1
  0
DIMSTYLE
105
264
330
A
100
AcDbSymbolTableRecord
100
AcDbDimStyleTableRecord
  2
AM_ISO$3
 70
     0
  4
"
 41
2.5
 42
1.0
 43
10.0
 44
1.0
 47
0.1
 48
0.1
 73
     0
 77
     1
 78
     8
 79
     2
140
3.5
141
0.0
143
0.0393701
146
0.71
147
1.5
176
   256
177
   256
178
     2
271
     2
272
     3
274
     4
283
     0
284
     8
288
     1
289
     0
340
11
371
    -1
372
    -1
1001
ACAD_DSTYLE_DIMJOGGED_JOGANGLE_SYMBOL
1070
   384
1040
0.7853981633974483
1001
ACAD_DSTYLE_DIMARC_LENGTH_SYMBOL
1070
   379
1070
     1
  0
DIMSTYLE
105
265
330
A
100
AcDbSymbolTableRecord
100
AcDbDimStyleTableRecord
  2
AM_ISO$4
 70
     0
  4
"
 41
2.5
 42
1.0
 43
10.0
 44
1.0
 47
0.1
 48
0.1
 73
     0
 77
     1
 78
     8
 79
     2
140
3.5
141
0.0
143
0.0393701
146
0.71
147
1.5
176
   256
177
   256
178
     2
271
     2
272
     3
274
     4
283
     0
284
     8
288
     1
289
     0
340
11
371
    -1
372
    -1
1001
ACAD_DSTYLE_DIMJOGGED_JOGANGLE_SYMBOL
1070
   384
1040
0.7853981633974483
1001
ACAD_DSTYLE_DIMARC_LENGTH_SYMBOL
1070
   379
1070
     1
  0
DIMSTYLE
105
266
330
A
100
AcDbSymbolTableRecord
100
AcDbDimStyleTableRecord
  2
AM_ISO$6
 70
     0
  4
"
 41
2.5
 42
1.0
 43
10.0
 44
1.0
 47
0.1
 48
0.1
 73
     0
 74
     0
 78
     8
 79
     2
140
3.5
141
0.0
143
0.0393701
146
0.71
147
1.5
172
     1
176
   256
177
   256
178
     2
271
     2
272
     3
274
     4
283
     0
284
     8
340
11
371
    -1
372
    -1
1001
ACAD_DSTYLE_DIMJOGGED_JOGANGLE_SYMBOL
1070
   384
1040
0.7853981633974483
1001
ACAD_DSTYLE_DIMARC_LENGTH_SYMBOL
1070
   379
1070
     1
  0
DIMSTYLE
105
267
330
A
100
AcDbSymbolTableRecord
100
AcDbDimStyleTableRecord
  2
AM_ISO$7
 70
     0
  4
"
 41
2.5
 42
1.0
 43
10.0
 44
1.0
 47
0.1
 48
0.1
 73
     0
 74
     0
 77
     1
 78
     8
 79
     2
140
5.0
141
0.0
143
0.0393701
146
0.71
147
1.5
172
     1
176
   256
177
   256
178
     2
271
     2
272
     3
274
     4
283
     0
284
     8
340
11
371
    -1
372
    -1
1001
ACAD_DSTYLE_DIMJOGGED_JOGANGLE_SYMBOL
1070
   384
1040
0.7853981633974483
1001
ACAD_DSTYLE_DIMARC_LENGTH_SYMBOL
1070
   379
1070
     1
  0
DIMSTYLE
105
268
330
A
100
AcDbSymbolTableRecord
100
AcDbDimStyleTableRecord
  2
AM_ISO$SF
 70
     0
  4
"
 41
2.5
 42
1.0
 43
10.0
 44
1.0
 47
0.1
 48
0.1
 73
     0
 74
     0
 75
     1
 76
     1
 77
     1
 78
     8
 79
     2
140
3.5
141
0.0
143
0.0393701
146
0.71
147
1.5
172
     1
176
   256
177
   256
178
     2
271
     2
272
     3
274
     4
283
     0
284
     8
340
11
371
    -1
372
    -1
1001
ACAD_DSTYLE_DIMJOGGED_JOGANGLE_SYMBOL
1070
   384
1040
0.7853981633974483
1001
ACAD_DSTYLE_DIMARC_LENGTH_SYMBOL
1070
   379
1070
     1
  0
DIMSTYLE
105
269
330
A
100
AcDbSymbolTableRecord
100
AcDbDimStyleTableRecord
  2
AM_ISO$SH
 70
     0
  4
"
 41
2.5
 42
1.0
 43
10.0
 44
1.0
 47
0.1
 48
0.1
 73
     0
 74
     0
 75
     1
 76
     1
 77
     1
 78
     8
 79
     2
140
3.5
141
0.0
143
0.0393701
144
2.0
146
0.71
147
1.5
172
     1
173
     1
176
   256
177
   256
178
     2
271
     2
272
     3
274
     4
283
     0
284
     8
340
11
343
21D
371
    -1
372
    -1
1001
ACAD_DSTYLE_DIMJOGGED_JOGANGLE_SYMBOL
1070
   384
1040
0.7853981633974483
1001
ACAD_DSTYLE_DIMARC_LENGTH_SYMBOL
1070
   379
1070
     1
  0
DIMSTYLE
105
622
102
{ACAD_REACTORS
330
6B2
102
}
330
A
100
AcDbSymbolTableRecord
100
AcDbDimStyleTableRecord
  2
GEN-ISO
 70
     0
  3
<>
  4
"
 41
2.5
 42
1.0
 43
7.0
 44
1.0
 47
0.1
 48
0.1
 73
     0
 74
     0
 77
     1
 78
     8
140
3.5
141
0.0
143
0.0393701
146
0.71
147
0.6
172
     1
176
   256
177
   256
178
     2
271
     2
272
     3
274
     4
283
     0
340
11
  0
DIMSTYLE
105
623
102
{ACAD_REACTORS
330
903
102
}
330
A
100
AcDbSymbolTableRecord
100
AcDbDimStyleTableRecord
  2
GEN-ISO$4
 70
     0
  3
<>
  4
"
 41
2.5
 42
1.0
 43
7.0
 44
1.0
 47
0.1
 48
0.1
 73
     0
 77
     1
 78
     8
140
3.5
141
0.0
143
0.0393701
146
0.71
147
0.6
176
   256
177
   256
178
     2
271
     2
272
     3
274
     4
283
     0
288
     1
289
     0
340
11
  0
DIMSTYLE
105
624
102
{ACAD_REACTORS
330
6DC
330
6DD
330
6DE
330
702
102
}
330
A
100
AcDbSymbolTableRecord
100
AcDbDimStyleTableRecord
  2
GEN-ISO$0
 70
     0
  3
<>
  4
"
 41
2.5
 42
1.0
 43
7.0
 44
1.0
 47
0.1
 48
0.1
 73
     0
 74
     0
 77
     1
 78
     8
140
3.5
141
0.0
143
0.0393701
146
0.71
147
0.6
172
     1
176
   256
177
   256
178
     2
271
     2
272
     3
274
     4
283
     0
340
11
  0
ENDTAB
  0
TABLE
  2
BLOCK_RECORD
  5
1
330
0
100
AcDbSymbolTable
 70
    22
  0
BLOCK_RECORD
  5
1F
102
{ACAD_XDICTIONARY
360
238
102
}
330
1
100
AcDbSymbolTableRecord
100
AcDbBlockTableRecord
  2
*Model_Space
340
22
  0
BLOCK_RECORD
  5
1B
330
1
100
AcDbSymbolTableRecord
100
AcDbBlockTableRecord
  2
*Paper_Space
340
1E
  0
BLOCK_RECORD
  5
23
330
1
100
AcDbSymbolTableRecord
100
AcDbBlockTableRecord
  2
*Paper_Space0
340
26
  0
BLOCK_RECORD
  5
21D
330
1
100
AcDbSymbolTableRecord
100
AcDbBlockTableRecord
  2
GENAXEH
340
0
  0
BLOCK_RECORD
  5
2BC
330
1
100
AcDbSymbolTableRecord
100
AcDbBlockTableRecord
  2
ACO_A3
340
0
  0
BLOCK_RECORD
  5
2FF
330
1
100
AcDbSymbolTableRecord
100
AcDbBlockTableRecord
  2
ACO-SF02-GR
340
0
  0
BLOCK_RECORD
  5
534
330
1
100
AcDbSymbolTableRecord
100
AcDbBlockTableRecord
  2
GENZOOIJNBVB3
340
0
  0
BLOCK_RECORD
  5
703
330
1
100
AcDbSymbolTableRecord
100
AcDbBlockTableRecord
  2
*D6
340
0
  0
BLOCK_RECORD
  5
710
330
1
100
AcDbSymbolTableRecord
100
AcDbBlockTableRecord
  2
*D7
340
0
  0
BLOCK_RECORD
  5
71D
330
1
100
AcDbSymbolTableRecord
100
AcDbBlockTableRecord
  2
*D8
340
0
  0
BLOCK_RECORD
  5
729
330
1
100
AcDbSymbolTableRecord
100
AcDbBlockTableRecord
  2
*D9
340
0
  0
BLOCK_RECORD
  5
735
330
1
100
AcDbSymbolTableRecord
100
AcDbBlockTableRecord
  2
*D10
340
0
  0
BLOCK_RECORD
  5
760
330
1
100
AcDbSymbolTableRecord
100
AcDbBlockTableRecord
  2
*D11
340
0
  0
BLOCK_RECORD
  5
76C
330
1
100
AcDbSymbolTableRecord
100
AcDbBlockTableRecord
  2
*D12
340
0
  0
BLOCK_RECORD
  5
778
330
1
100
AcDbSymbolTableRecord
100
AcDbBlockTableRecord
  2
*D13
340
0
  0
BLOCK_RECORD
  5
786
330
1
100
AcDbSymbolTableRecord
100
AcDbBlockTableRecord
  2
*D14
340
0
  0
BLOCK_RECORD
  5
792
330
1
100
AcDbSymbolTableRecord
100
AcDbBlockTableRecord
  2
*D15
340
0
  0
BLOCK_RECORD
  5
79E
330
1
100
AcDbSymbolTableRecord
100
AcDbBlockTableRecord
  2
*D16
340
0
  0
BLOCK_RECORD
  5
7AA
330
1
100
AcDbSymbolTableRecord
100
AcDbBlockTableRecord
  2
*D17
340
0
  0
BLOCK_RECORD
  5
7B8
330
1
100
AcDbSymbolTableRecord
100
AcDbBlockTableRecord
  2
*D18
340
0
  0
BLOCK_RECORD
  5
7C6
330
1
100
AcDbSymbolTableRecord
100
AcDbBlockTableRecord
  2
*D19
340
0
  0
BLOCK_RECORD
  5
7CF
330
1
100
AcDbSymbolTableRecord
100
AcDbBlockTableRecord
  2
*D20
340
0
  0
BLOCK_RECORD
  5
909
330
1
100
AcDbSymbolTableRecord
100
AcDbBlockTableRecord
  2
*D21
340
0
  0
ENDTAB
  0
ENDSEC
  0
SECTION
  2
BLOCKS
  0
BLOCK
  5
20
330
1F
100
AcDbEntity
  8
0
100
AcDbBlockBegin
  2
*Model_Space
 70
     0
 10
0.0
 20
0.0
 30
0.0
  3
*Model_Space
  1

  0
ENDBLK
  5
21
330
1F
100
AcDbEntity
  8
0
100
AcDbBlockEnd
  0
BLOCK
  5
1C
330
1B
100
AcDbEntity
 67
     1
  8
0
100
AcDbBlockBegin
  2
*Paper_Space
 70
     0
 10
0.0
 20
0.0
 30
0.0
  3
*Paper_Space
  1

  0
ENDBLK
  5
1D
330
1B
100
AcDbEntity
 67
     1
  8
0
100
AcDbBlockEnd
  0
BLOCK
  5
24
330
23
100
AcDbEntity
 67
     1
  8
0
100
AcDbBlockBegin
  2
*Paper_Space0
 70
     0
 10
0.0
 20
0.0
 30
0.0
  3
*Paper_Space0
  1

  0
ENDBLK
  5
25
330
23
100
AcDbEntity
 67
     1
  8
0
100
AcDbBlockEnd
  0
BLOCK
  5
21F
330
21D
100
AcDbEntity
  8
0
100
AcDbBlockBegin
  2
GENAXEH
 70
     0
 10
0.0
 20
0.0
 30
0.0
  3
GENAXEH
  1

  0
LINE
  5
21E
330
21D
100
AcDbEntity
  8
0
100
AcDbLine
 10
-1.0
 20
0.0
 30
0.0
 11
1.0
 21
0.0
 31
0.0
  0
ENDBLK
  5
220
330
21D
100
AcDbEntity
  8
0
100
AcDbBlockEnd
  0
BLOCK
  5
2BD
330
2BC
100
AcDbEntity
  8
0
100
AcDbBlockBegin
  2
ACO_A3
 70
     0
 10
0.0
 20
0.0
 30
0.0
  3
ACO_A3
  1

  0
LINE
  5
2BE
330
2BC
100
AcDbEntity
  8
RAHM2
100
AcDbLine
 10
420.0
 20
297.0
 30
0.0
 11
419.9999999999999
 21
0.0
 31
0.0
1001
GENIUS_GENBLLY_14
1000
BOR2
  0
LINE
  5
2BF
330
2BC
100
AcDbEntity
  8
RAHM2
100
AcDbLine
 10
230.0
 20
5.00000000000005
 30
0.0
 11
230.0
 21
0.0000000000000233
 31
0.0
1001
GENIUS_GENBLLY_14
1000
BOR2
  0
LINE
  5
2C0
330
2BC
100
AcDbEntity
  8
RAHM2
100
AcDbLine
 10
157.12
 20
10.00000000000003
 30
0.0
 11
9.999999999999943
 21
10.00000000000005
 31
0.0
1001
GENIUS_GENBLLY_14
1000
BOR2
  0
TEXT
  5
2C1
330
2BC
100
AcDbEntity
  8
RAHM2
100
AcDbText
 10
411.0
 20
262.0
 30
0.0
 40
4.0
  1
A
100
AcDbText
1001
GENIUS_GENBLLY_14
1000
BOR2
  0
TEXT
  5
2C2
330
2BC
100
AcDbEntity
  8
RAHM2
100
AcDbText
 10
411.0
 20
216.0
 30
0.0
 40
4.0
  1
B
100
AcDbText
1001
GENIUS_GENBLLY_14
1000
BOR2
  0
TEXT
  5
2C3
330
2BC
100
AcDbEntity
  8
RAHM2
100
AcDbText
 10
411.0
 20
170.0
 30
0.0
 40
4.0
  1
C
100
AcDbText
1001
GENIUS_GENBLLY_14
1000
BOR2
  0
TEXT
  5
2C4
330
2BC
100
AcDbEntity
  8
RAHM2
100
AcDbText
 10
411.0
 20
123.0
 30
0.0
 40
4.0
  1
D
100
AcDbText
1001
GENIUS_GENBLLY_14
1000
BOR2
  0
TEXT
  5
2C5
330
2BC
100
AcDbEntity
  8
RAHM2
100
AcDbText
 10
411.0
 20
77.0
 30
0.0
 40
4.0
  1
E
100
AcDbText
1001
GENIUS_GENBLLY_14
1000
BOR2
  0
TEXT
  5
2C6
330
2BC
100
AcDbEntity
  8
RAHM2
100
AcDbText
 10
411.0
 20
31.0
 30
0.0
 40
4.0
  1
F
100
AcDbText
1001
GENIUS_GENBLLY_14
1000
BOR2
  0
LINE
  5
2C7
330
2BC
100
AcDbEntity
  8
RAHM2
100
AcDbLine
 10
415.0
 20
240.83
 30
0.0
 11
410.0
 21
240.83
 31
0.0
1001
GENIUS_GENBLLY_14
1000
BOR2
  0
LINE
  5
2C8
330
2BC
100
AcDbEntity
  8
RAHM2
100
AcDbLine
 10
415.0
 20
194.664
 30
0.0
 11
410.0
 21
194.664
 31
0.0
1001
GENIUS_GENBLLY_14
1000
BOR2
  0
LINE
  5
2C9
330
2BC
100
AcDbEntity
  8
RAHM2
100
AcDbLine
 10
415.0
 20
148.498
 30
0.0
 11
410.0
 21
148.498
 31
0.0
1001
GENIUS_GENBLLY_14
1000
BOR2
  0
LINE
  5
2CA
330
2BC
100
AcDbEntity
  8
RAHM2
100
AcDbLine
 10
415.0
 20
102.332
 30
0.0
 11
410.0
 21
102.332
 31
0.0
1001
GENIUS_GENBLLY_14
1000
BOR2
  0
LINE
  5
2CB
330
2BC
100
AcDbEntity
  8
RAHM2
100
AcDbLine
 10
415.0
 20
56.166
 30
0.0
 11
410.0
 21
56.166
 31
0.0
1001
GENIUS_GENBLLY_14
1000
BOR2
  0
LINE
  5
2CC
330
2BC
100
AcDbEntity
  8
RAHM2
100
AcDbLine
 10
60.0
 20
291.9999999999999
 30
0.0
 11
60.0
 21
287.0
 31
0.0
1001
GENIUS_GENBLLY_14
1000
BOR2
  0
LINE
  5
2CD
330
2BC
100
AcDbEntity
  8
RAHM2
100
AcDbLine
 10
110.0
 20
291.9999999999999
 30
0.0
 11
110.0
 21
287.0
 31
0.0
1001
GENIUS_GENBLLY_14
1000
BOR2
  0
LINE
  5
2CE
330
2BC
100
AcDbEntity
  8
RAHM2
100
AcDbLine
 10
160.0
 20
291.9999999999999
 30
0.0
 11
160.0
 21
287.0
 31
0.0
1001
GENIUS_GENBLLY_14
1000
BOR2
  0
LINE
  5
2CF
330
2BC
100
AcDbEntity
  8
RAHM2
100
AcDbLine
 10
210.0
 20
291.9999999999999
 30
0.0
 11
210.0
 21
287.0
 31
0.0
1001
GENIUS_GENBLLY_14
1000
BOR2
  0
LINE
  5
2D0
330
2BC
100
AcDbEntity
  8
RAHM2
100
AcDbLine
 10
260.0
 20
291.9999999999999
 30
0.0
 11
260.0
 21
287.0
 31
0.0
1001
GENIUS_GENBLLY_14
1000
BOR2
  0
LINE
  5
2D1
330
2BC
100
AcDbEntity
  8
RAHM2
100
AcDbLine
 10
310.0
 20
291.9999999999999
 30
0.0
 11
310.0
 21
287.0
 31
0.0
1001
GENIUS_GENBLLY_14
1000
BOR2
  0
LINE
  5
2D2
330
2BC
100
AcDbEntity
  8
RAHM2
100
AcDbLine
 10
360.0
 20
291.9999999999999
 30
0.0
 11
360.0
 21
287.0
 31
0.0
1001
GENIUS_GENBLLY_14
1000
BOR2
  0
TEXT
  5
2D3
330
2BC
100
AcDbEntity
  8
RAHM2
100
AcDbText
 10
384.0
 20
287.5
 30
0.0
 40
4.0
  1
8
100
AcDbText
1001
GENIUS_GENBLLY_14
1000
BOR2
  0
TEXT
  5
2D4
330
2BC
100
AcDbEntity
  8
RAHM2
100
AcDbText
 10
334.0
 20
287.5
 30
0.0
 40
4.0
  1
7
100
AcDbText
1001
GENIUS_GENBLLY_14
1000
BOR2
  0
TEXT
  5
2D5
330
2BC
100
AcDbEntity
  8
RAHM2
100
AcDbText
 10
284.0
 20
287.5
 30
0.0
 40
4.0
  1
6
100
AcDbText
1001
GENIUS_GENBLLY_14
1000
BOR2
  0
TEXT
  5
2D6
330
2BC
100
AcDbEntity
  8
RAHM2
100
AcDbText
 10
233.5
 20
287.5
 30
0.0
 40
4.0
  1
5
100
AcDbText
1001
GENIUS_GENBLLY_14
1000
BOR2
  0
TEXT
  5
2D7
330
2BC
100
AcDbEntity
  8
RAHM2
100
AcDbText
 10
183.5
 20
287.5
 30
0.0
 40
4.0
  1
4
100
AcDbText
1001
GENIUS_GENBLLY_14
1000
BOR2
  0
TEXT
  5
2D8
330
2BC
100
AcDbEntity
  8
RAHM2
100
AcDbText
 10
133.5
 20
287.5
 30
0.0
 40
4.0
  1
3
100
AcDbText
1001
GENIUS_GENBLLY_14
1000
BOR2
  0
TEXT
  5
2D9
330
2BC
100
AcDbEntity
  8
RAHM2
100
AcDbText
 10
83.49999999999999
 20
287.5
 30
0.0
 40
4.0
  1
2
100
AcDbText
1001
GENIUS_GENBLLY_14
1000
BOR2
  0
TEXT
  5
2DA
330
2BC
100
AcDbEntity
  8
RAHM2
100
AcDbText
 10
33.5
 20
287.5
 30
0.0
 40
4.0
  1
1
100
AcDbText
1001
GENIUS_GENBLLY_14
1000
BOR2
  0
TEXT
  5
2DB
330
2BC
100
AcDbEntity
  8
RAHM2
100
AcDbText
 10
33.5
 20
5.5
 30
0.0
 40
4.0
  1
1
100
AcDbText
1001
GENIUS_GENBLLY_14
1000
BOR2
  0
TEXT
  5
2DC
330
2BC
100
AcDbEntity
  8
RAHM2
100
AcDbText
 10
83.49999999999999
 20
5.5
 30
0.0
 40
4.0
  1
2
100
AcDbText
1001
GENIUS_GENBLLY_14
1000
BOR2
  0
TEXT
  5
2DD
330
2BC
100
AcDbEntity
  8
RAHM2
100
AcDbText
 10
133.5
 20
5.5
 30
0.0
 40
4.0
  1
3
100
AcDbText
1001
GENIUS_GENBLLY_14
1000
BOR2
  0
TEXT
  5
2DE
330
2BC
100
AcDbEntity
  8
RAHM2
100
AcDbText
 10
6.0
 20
262.0
 30
0.0
 40
4.0
  1
A
100
AcDbText
1001
GENIUS_GENBLLY_14
1000
BOR2
  0
TEXT
  5
2DF
330
2BC
100
AcDbEntity
  8
RAHM2
100
AcDbText
 10
6.0
 20
216.0
 30
0.0
 40
4.0
  1
B
100
AcDbText
1001
GENIUS_GENBLLY_14
1000
BOR2
  0
TEXT
  5
2E0
330
2BC
100
AcDbEntity
  8
RAHM2
100
AcDbText
 10
6.0
 20
170.0
 30
0.0
 40
4.0
  1
C
100
AcDbText
1001
GENIUS_GENBLLY_14
1000
BOR2
  0
TEXT
  5
2E1
330
2BC
100
AcDbEntity
  8
RAHM2
100
AcDbText
 10
6.0
 20
123.0
 30
0.0
 40
4.0
  1
D
100
AcDbText
1001
GENIUS_GENBLLY_14
1000
BOR2
  0
TEXT
  5
2E2
330
2BC
100
AcDbEntity
  8
RAHM2
100
AcDbText
 10
6.0
 20
77.0
 30
0.0
 40
4.0
  1
E
100
AcDbText
1001
GENIUS_GENBLLY_14
1000
BOR2
  0
TEXT
  5
2E3
330
2BC
100
AcDbEntity
  8
RAHM2
100
AcDbText
 10
6.0
 20
31.0
 30
0.0
 40
4.0
  1
F
100
AcDbText
1001
GENIUS_GENBLLY_14
1000
BOR2
  0
LINE
  5
2E4
330
2BC
100
AcDbEntity
  8
RAHM2
100
AcDbLine
 10
110.0
 20
10.0
 30
0.0
 11
110.0
 21
5.0
 31
0.0
1001
GENIUS_GENBLLY_14
1000
BOR2
  0
LINE
  5
2E5
330
2BC
100
AcDbEntity
  8
RAHM2
100
AcDbLine
 10
60.0
 20
10.0
 30
0.0
 11
60.0
 21
5.0
 31
0.0
1001
GENIUS_GENBLLY_14
1000
BOR2
  0
LINE
  5
2E6
330
2BC
100
AcDbEntity
  8
RAHM2
100
AcDbLine
 10
10.0
 20
240.83
 30
0.0
 11
5.0
 21
240.83
 31
0.0
1001
GENIUS_GENBLLY_14
1000
BOR2
  0
LINE
  5
2E7
330
2BC
100
AcDbEntity
  8
RAHM2
100
AcDbLine
 10
10.0
 20
194.664
 30
0.0
 11
5.0
 21
194.664
 31
0.0
1001
GENIUS_GENBLLY_14
1000
BOR2
  0
LINE
  5
2E8
330
2BC
100
AcDbEntity
  8
RAHM2
100
AcDbLine
 10
10.0
 20
148.498
 30
0.0
 11
5.0
 21
148.498
 31
0.0
1001
GENIUS_GENBLLY_14
1000
BOR2
  0
LINE
  5
2E9
330
2BC
100
AcDbEntity
  8
RAHM2
100
AcDbLine
 10
10.0
 20
102.332
 30
0.0
 11
5.0
 21
102.332
 31
0.0
1001
GENIUS_GENBLLY_14
1000
BOR2
  0
LINE
  5
2EA
330
2BC
100
AcDbEntity
  8
RAHM2
100
AcDbLine
 10
10.0
 20
56.166
 30
0.0
 11
5.0
 21
56.166
 31
0.0
1001
GENIUS_GENBLLY_14
1000
BOR2
  0
LINE
  5
2EB
330
2BC
100
AcDbEntity
  8
RAHM2
100
AcDbLine
 10
410.0
 20
287.0
 30
0.0
 11
409.9999999999999
 21
5.0
 31
0.0
1001
GENIUS_GENBLLY_14
1000
BOR2
  0
LINE
  5
2EC
330
2BC
100
AcDbEntity
  8
RAHM2
100
AcDbLine
 10
10.00000000000001
 20
287.0
 30
0.0
 11
410.0
 21
287.0
 31
0.0
1001
GENIUS_GENBLLY_14
1000
BOR2
  0
LINE
  5
2ED
330
2BC
100
AcDbEntity
  8
RAHM2
100
AcDbLine
 10
10.0
 20
10.0
 30
0.0
 11
10.00000000000001
 21
287.0
 31
0.0
1001
GENIUS_GENBLLY_14
1000
BOR2
  0
LINE
  5
2EE
330
2BC
100
AcDbEntity
  8
0
100
AcDbLine
 10
414.9999999999999
 20
5.0
 30
0.0
 11
4.999999999999943
 21
5.00000000000005
 31
0.0
  0
LINE
  5
2EF
330
2BC
100
AcDbEntity
  8
0
100
AcDbLine
 10
415.0
 20
292.0
 30
0.0
 11
414.9999999999999
 21
5.0
 31
0.0
  0
LINE
  5
2F0
330
2BC
100
AcDbEntity
  8
0
100
AcDbLine
 10
5.000000000000017
 20
292.0
 30
0.0
 11
415.0
 21
292.0
 31
0.0
  0
LINE
  5
2F1
330
2BC
100
AcDbEntity
  8
RAHM2
100
AcDbLine
 10
0.0000000000000182
 20
297.0
 30
0.0
 11
420.0
 21
297.0
 31
0.0
1001
GENIUS_GENBLLY_14
1000
BOR2
  0
LINE
  5
2F2
330
2BC
100
AcDbEntity
  8
RAHM2
100
AcDbLine
 10
0.0
 20
0.0
 30
0.0
 11
0.0000000000000182
 21
297.0
 31
0.0
1001
GENIUS_GENBLLY_14
1000
BOR2
  0
LINE
  5
2F3
330
2BC
100
AcDbEntity
  8
RAHM2
100
AcDbLine
 10
125.0
 20
0.0000000000000514
 30
0.0
 11
125.0
 21
5.000000000000035
 31
0.0
1001
GENIUS_GENBLLY_14
1000
BOR2
  0
TEXT
  5
2F4
330
2BC
100
AcDbEntity
  8
0
100
AcDbText
 10
420.0
 20
297.0
 30
0.0
 40
2.0
  1
!GENTITLE-MAX
100
AcDbText
  0
TEXT
  5
2F5
330
2BC
100
AcDbEntity
  8
0
100
AcDbText
 10
410.0
 20
287.0
 30
0.0
 40
2.0
  1
!GENTITLE-RU
100
AcDbText
  0
TEXT
  5
2F6
330
2BC
100
AcDbEntity
  8
0
100
AcDbText
 10
409.9999999999999
 20
5.0
 30
0.0
 40
2.0
  1
!GENTITLE-INSERT
100
AcDbText
  0
TEXT
  5
2F7
330
2BC
100
AcDbEntity
  8
0
100
AcDbText
 10
10.0
 20
10.00000000000005
 30
0.0
 40
2.0
  1
!GENTITLE-LL
100
AcDbText
  0
LINE
  5
2F8
330
2BC
100
AcDbEntity
  8
0
100
AcDbLine
 10
5.0
 20
5.0
 30
0.0
 11
5.000000000000017
 21
292.0
 31
0.0
  0
LINE
  5
2F9
330
2BC
100
AcDbEntity
  8
RAHM2
100
AcDbLine
 10
419.9999999999999
 20
0.0
 30
0.0
 11
-0.0000000000000568
 21
0.0000000000000514
 31
0.0
1001
GENIUS_VERSION2
1070
     2
1001
GENIUS_GENBLLY_14
1000
BOR2
  0
LWPOLYLINE
  5
2FA
330
2BC
100
AcDbEntity
  8
RAHM2
100
AcDbPolyline
 90
        4
 70
     1
 43
0.0
 10
227.1200000000001
 20
5.000000000000031
 10
157.12
 20
5.000000000000031
 10
157.12
 20
13.50000000000003
 10
227.1200000000001
 20
13.50000000000002
1001
GENIUS_GENREC_14
1002
{
1000
PXDIR
1011
157.12
1021
5.000000000000031
1031
0.0
1002
}
1002
{
1000
PORI
1011
227.1200000000001
1021
5.000000000000031
1031
0.0
1002
}
1002
{
1000
PINS
1011
227.1200000000001
1021
5.000000000000031
1031
0.0
1002
}
1002
{
1000
HVAL
1000
8.5
1002
}
1002
{
1000
H
1070
     2
1002
}
1002
{
1000
WVAL
1000
-70
1002
}
1002
{
1000
W
1070
     2
1002
}
1002
{
1000
C
1070
     1
1002
}
1001
GENIUS_GENODEF_13
1002
{
1000
HIER
1070
     0
1002
}
1002
{
1000
MANEDIT
1070
     0
1002
}
1002
{
1000
NOSEL
1070
     0
1002
}
1002
{
1000
BEHIND
1070
     0
1002
}
1002
{
1000
REACTOR
1002
}
1001
GENIUS_GENOBJ-N-REC_13
1002
{
1000
OWNER
1000
GEN
1002
}
  0
MTEXT
  5
2FB
102
{ACAD_XDICTIONARY
360
9C4
102
}
330
2BC
100
AcDbEntity
  8
RAHM2
100
AcDbMText
 10
158.8183525451007
 20
12.32474728438519
 30
0.0
 40
3.5
 41
4.301759591192151
 71
     1
 72
     5
  1
\fArial|b0|i0|c0|p32;\U+00A9
 73
     1
 44
1.0
1001
ACAD
1000
MTEXTBEGIN
1070
    73
1070
     1
1070
    44
1040
1.0
1070
    74
1070
     0
1000
MTEXTEND
  0
MTEXT
  5
2FC
330
2BC
100
AcDbEntity
  8
RAHM2
100
AcDbMText
 10
200.9022594589521
 20
9.282856166729633
 30
0.0
 40
2.5
 41
51.25
 71
     5
 72
     5
  1
\fArial Black|b0|i0|c0|p34;ACO\Fgeniso.shx; \fDutch801 Rm BT|b0|i1|c0|p18;passavant \P\Fgeniso.shx;\H1.8;Schutzvermerk nach DIN 34
 73
     1
 44
1.0
1001
ACAD
1000
MTEXTBEGIN
1070
    73
1070
     1
1070
    44
1040
1.0
1070
    74
1070
     0
1000
MTEXTEND
  0
MTEXT
  5
2FD
330
2BC
100
AcDbEntity
  8
RAHM2
100
AcDbMText
 10
165.5515418910248
 20
11.24554815700972
 30
0.0
 40
2.0
 41
5.5175
 71
     1
 72
     5
  1
2001
 73
     1
 44
1.0
1001
ACAD
1000
MTEXTBEGIN
1070
    73
1070
     1
1070
    44
1040
1.0
1070
    74
1070
     0
1000
MTEXTEND
  0
ENDBLK
  5
2FE
330
2BC
100
AcDbEntity
  8
0
100
AcDbBlockEnd
  0
BLOCK
  5
300
330
2FF
100
AcDbEntity
  8
0
100
AcDbBlockBegin
  2
ACO-SF02-GR
 70
     2
 10
0.0
 20
0.0
 30
0.0
  3
ACO-SF02-GR
  1

  0
LINE
  5
301
330
2FF
100
AcDbEntity
  8
KOPF
 62
    12
100
AcDbLine
 10
0.0
 20
5.0
 30
0.0
 11
-83.0
 21
5.0
 31
0.0
  0
LWPOLYLINE
  5
302
330
2FF
100
AcDbEntity
  8
KOPF
 62
    12
100
AcDbPolyline
 90
        2
 70
     0
 43
0.5
 10
-83.0
 20
10.0
 10
0.0
 20
10.0
  0
LINE
  5
303
330
2FF
100
AcDbEntity
  8
KOPF
100
AcDbLine
 10
-83.0
 20
10.0
 30
0.0
 11
0.0
 21
10.0
 31
0.0
  0
LINE
  5
304
330
2FF
100
AcDbEntity
  8
KOPF
100
AcDbLine
 10
0.0
 20
5.0
 30
0.0
 11
-83.0
 21
5.0
 31
0.0
  0
LWPOLYLINE
  5
305
330
2FF
100
AcDbEntity
  8
KOPF
 62
    12
100
AcDbPolyline
 90
        2
 70
     0
 43
0.5
 10
0.0
 20
68.49999999999997
 10
-182.0
 20
68.49999999999997
  0
LWPOLYLINE
  5
306
330
2FF
100
AcDbEntity
  8
KOPF
 62
    12
100
AcDbPolyline
 90
        2
 70
     0
 43
0.5
 10
0.0
 20
46.99999999999997
 10
-182.0
 20
46.99999999999997
  0
LWPOLYLINE
  5
307
330
2FF
100
AcDbEntity
  8
KOPF
 62
    12
100
AcDbPolyline
 90
        2
 70
     0
 43
0.5
 10
-0.2154115848244373
 20
27.23910754630094
 10
-182.1882840408789
 20
27.23910754630094
  0
LINE
  5
308
330
2FF
100
AcDbEntity
  8
KOPF
 62
    12
100
AcDbLine
 10
0.0
 20
88.49999999999996
 30
0.0
 11
-182.0
 21
88.49999999999996
 31
0.0
  0
LINE
  5
309
330
2FF
100
AcDbEntity
  8
KOPF
 62
    12
100
AcDbLine
 10
-182.0
 20
83.49999999999997
 30
0.0
 11
0.0
 21
83.49999999999997
 31
0.0
  0
LINE
  5
30A
330
2FF
100
AcDbEntity
  8
KOPF
 62
    12
100
AcDbLine
 10
0.0
 20
73.49999999999997
 30
0.0
 11
-182.0
 21
73.49999999999997
 31
0.0
  0
LINE
  5
30B
330
2FF
100
AcDbEntity
  8
KOPF
 62
    12
100
AcDbLine
 10
-162.682677
 20
78.49999999999997
 30
0.0
 11
0.0
 21
78.49999999999997
 31
0.0
  0
LINE
  5
30C
330
2FF
100
AcDbEntity
  8
KOPF
100
AcDbLine
 10
0.0
 20
68.49999999999997
 30
0.0
 11
-182.0
 21
68.49999999999997
 31
0.0
  0
LINE
  5
30D
330
2FF
100
AcDbEntity
  8
KOPF
100
AcDbLine
 10
0.0
 20
88.49999999999996
 30
0.0
 11
-182.0
 21
88.49999999999996
 31
0.0
  0
LINE
  5
30E
330
2FF
100
AcDbEntity
  8
KOPF
100
AcDbLine
 10
-182.0
 20
83.49999999999997
 30
0.0
 11
0.0
 21
83.49999999999997
 31
0.0
  0
LINE
  5
30F
330
2FF
100
AcDbEntity
  8
KOPF
100
AcDbLine
 10
0.0
 20
73.49999999999997
 30
0.0
 11
-182.0
 21
73.49999999999997
 31
0.0
  0
LINE
  5
310
330
2FF
100
AcDbEntity
  8
KOPF
100
AcDbLine
 10
-162.682677
 20
78.49999999999997
 30
0.0
 11
0.0
 21
78.49999999999997
 31
0.0
  0
LINE
  5
311
330
2FF
100
AcDbEntity
  8
KOPF
 62
    12
100
AcDbLine
 10
-182.0
 20
57.74999999999997
 30
0.0
 11
-100.0
 21
57.74999999999997
 31
0.0
  0
LINE
  5
312
330
2FF
100
AcDbEntity
  8
KOPF
 62
    12
100
AcDbLine
 10
-182.0
 20
41.99999999999996
 30
0.0
 11
-113.4
 21
41.99999999999996
 31
0.0
  0
LINE
  5
313
330
2FF
100
AcDbEntity
  8
KOPF
100
AcDbLine
 10
-182.0
 20
57.74999999999997
 30
0.0
 11
-100.0
 21
57.74999999999997
 31
0.0
  0
LINE
  5
314
330
2FF
100
AcDbEntity
  8
KOPF
100
AcDbLine
 10
-182.0
 20
41.99999999999996
 30
0.0
 11
-113.4
 21
41.99999999999996
 31
0.0
  0
LINE
  5
315
330
2FF
100
AcDbEntity
  8
KOPF
 62
    12
100
AcDbLine
 10
-142.0
 20
68.49999999999997
 30
0.0
 11
-142.0
 21
46.99999999999997
 31
0.0
  0
LINE
  5
316
330
2FF
100
AcDbEntity
  8
KOPF
 62
    12
100
AcDbLine
 10
-142.0
 20
68.49999999999997
 30
0.0
 11
-142.0
 21
46.99999999999997
 31
0.0
  0
ATTDEF
  5
317
330
2FF
100
AcDbEntity
  8
TEXT35
100
AcDbText
 10
-140.2
 20
49.4
 30
0.0
 40
3.5
  1

 41
0.8
  7
TEXT35
100
AcDbAttributeDefinition
  3
Oberfläche:
  2
F63
 70
     0
  0
LWPOLYLINE
  5
318
330
2FF
100
AcDbEntity
  8
KOPF
 62
    12
100
AcDbPolyline
 90
        2
 70
     0
 43
0.7
 10
-182.0
 20
103.4999999999999
 10
-182.0
 20
0.0
  0
LINE
  5
319
330
2FF
100
AcDbEntity
  8
KOPF
100
AcDbLine
 10
-182.0
 20
103.4999999999999
 30
0.0
 11
-182.0
 21
0.0
 31
0.0
  0
TEXT
  5
31A
330
2FF
100
AcDbEntity
  8
KOPF
100
AcDbText
 10
-179.738589
 20
38.32439403633659
 30
0.0
 40
2.0
  1
Gezeichnet:
 41
0.8
  7
TEXT20
100
AcDbText
  0
ATTDEF
  5
31B
330
2FF
100
AcDbEntity
  8
TEXT35
100
AcDbText
 10
-176.6
 20
3.399999999999999
 30
0.0
 40
3.5
  1

 41
0.8
  7
TEXT35
100
AcDbAttributeDefinition
  3
Z-Titel 3
  2
F13
 70
     0
  0
ATTDEF
  5
31C
330
2FF
100
AcDbEntity
  8
TEXT50
100
AcDbText
 10
-176.6
 20
10.63250279796295
 30
0.0
 40
5.0
  1

 41
0.8
  7
TEXT50
100
AcDbAttributeDefinition
  3
Z-Titel 2
  2
F3
 70
     0
  0
ATTDEF
  5
31D
330
2FF
100
AcDbEntity
  8
TEXT50
100
AcDbText
 10
-176.6
 20
18.56318324460701
 30
0.0
 40
5.0
  1

 41
0.8
  7
TEXT50
100
AcDbAttributeDefinition
  3
Z-Titel 1
  2
F2
 70
     0
  0
TEXT
  5
31E
330
2FF
100
AcDbEntity
  8
KOPF
100
AcDbText
 10
-179.738589
 20
28.52395361420514
 30
0.0
 40
2.0
  1
Update:
 41
0.8
  7
TEXT20
100
AcDbText
  0
TEXT
  5
31F
330
2FF
100
AcDbEntity
  8
KOPF
100
AcDbText
 10
-179.738589
 20
33.43577642824449
 30
0.0
 40
2.0
  1
Geprüft
 41
0.8
  7
TEXT20
100
AcDbText
  0
LINE
  5
320
330
2FF
100
AcDbEntity
  8
KOPF
 62
    12
100
AcDbLine
 10
-163.0
 20
46.99999999999997
 30
0.0
 11
-163.0
 21
27.0
 31
0.0
  0
LINE
  5
321
330
2FF
100
AcDbEntity
  8
KOPF
100
AcDbLine
 10
-163.0
 20
46.99999999999997
 30
0.0
 11
-163.0
 21
27.0
 31
0.0
  0
ATTDEF
  5
322
330
2FF
100
AcDbEntity
  8
TEXT25
100
AcDbText
 10
-161.5009557098303
 20
28.32091209119023
 30
0.0
 40
2.0
  1

 41
0.8
  7
TEXT20
100
AcDbAttributeDefinition
  3
Update am:
  2
F53
 70
     0
  0
ATTDEF
  5
323
330
2FF
100
AcDbEntity
  8
TEXT25
100
AcDbText
 10
-161.5539333606331
 20
33.12227989587696
 30
0.0
 40
2.0
  1

 41
0.8
  7
TEXT20
100
AcDbAttributeDefinition
  3
Geprüft am:
  2
F22
 70
     0
  0
ATTDEF
  5
324
330
2FF
100
AcDbEntity
  8
TEXT25
100
AcDbText
 10
-161.5207141482394
 20
38.33983936444393
 30
0.0
 40
2.0
  1

 41
0.8
  7
TEXT20
100
AcDbAttributeDefinition
  3
Gezeichnet am:
  2
F9
 70
     0
  0
TEXT
  5
325
330
2FF
100
AcDbEntity
  8
KOPF
100
AcDbText
 10
-155.964455
 20
43.13467299999999
 30
0.0
 40
2.0
  1
Datum
 41
0.8
  7
TEXT20
100
AcDbText
  0
LINE
  5
326
330
2FF
100
AcDbEntity
  8
KOPF
 62
    12
100
AcDbLine
 10
-138.4
 20
46.99999999999997
 30
0.0
 11
-138.4
 21
27.0
 31
0.0
  0
LINE
  5
327
330
2FF
100
AcDbEntity
  8
KOPF
100
AcDbLine
 10
-138.4
 20
46.99999999999997
 30
0.0
 11
-138.4
 21
27.0
 31
0.0
  0
TEXT
  5
328
330
2FF
100
AcDbEntity
  8
KOPF
100
AcDbText
 10
-130.065072
 20
43.14125800000002
 30
0.0
 40
2.0
  1
Name
 41
0.8
  7
TEXT20
100
AcDbText
  0
ATTDEF
  5
329
330
2FF
100
AcDbEntity
  8
TEXT25
100
AcDbText
 10
-136.2746977811447
 20
33.28471223400234
 30
0.0
 40
2.0
  1

 41
0.8
  7
TEXT20
100
AcDbAttributeDefinition
  3
Geprüft von:
  2
F21
 70
     0
  0
ATTDEF
  5
32A
330
2FF
100
AcDbEntity
  8
TEXT25
100
AcDbText
 10
-136.3996291720711
 20
28.23101841142455
 30
0.0
 40
2.0
  1

 41
0.8
  7
TEXT20
100
AcDbAttributeDefinition
  3
Update von:
  2
F52
 70
     0
  0
ATTDEF
  5
32B
330
2FF
100
AcDbEntity
  8
TEXT25
100
AcDbText
 10
-136.1922113552417
 20
38.48172579575253
 30
0.0
 40
2.0
  1

 41
0.8
  7
TEXT20
100
AcDbAttributeDefinition
  3
Gezeichnet von
  2
F8
 70
     0
  0
TEXT
  5
32C
330
2FF
100
AcDbEntity
  8
KOPF
100
AcDbText
 10
-174.6925639999999
 20
69.53813999999997
 30
0.0
 40
2.0
  1
Index
 41
0.8
  7
TEXT20
100
AcDbText
  0
LINE
  5
32D
330
2FF
100
AcDbEntity
  8
KOPF
100
AcDbLine
 10
-182.0
 20
78.49999999999997
 30
0.0
 11
-162.682677
 21
78.49999999999997
 31
0.0
  0
LINE
  5
32E
330
2FF
100
AcDbEntity
  8
KOPF
100
AcDbLine
 10
-182.0
 20
78.49999999999997
 30
0.0
 11
-162.682677
 21
78.49999999999997
 31
0.0
  0
TEXT
  5
32F
330
2FF
100
AcDbEntity
  8
KOPF
100
AcDbText
 10
-180.0
 20
65.166273
 30
0.0
 40
2.0
  1
Werkstoff:
 41
0.8
  7
TEXT20
100
AcDbText
  0
TEXT
  5
330
330
2FF
100
AcDbEntity
  8
KOPF
100
AcDbText
 10
-181.0
 20
54.49999999999997
 30
0.0
 40
2.0
  1
zul. Abweich.:
 41
0.8
  7
TEXT20
100
AcDbText
  0
ATTDEF
  5
331
330
2FF
100
AcDbEntity
  8
TEXT35
100
AcDbText
 10
-179.7
 20
59.6
 30
0.0
 40
3.5
  1

 41
0.8
  7
TEXT35
100
AcDbAttributeDefinition
  3
Werkstoff:
  2
F61
 70
     0
  0
ATTDEF
  5
332
330
2FF
100
AcDbEntity
  8
TEXT35
100
AcDbText
 10
-179.7
 20
49.7
 30
0.0
 40
3.5
  1

 41
0.8
  7
TEXT35
100
AcDbAttributeDefinition
  3
zul. Abweichung
  2
F62
 70
     0
  0
ATTDEF
  5
333
330
2FF
100
AcDbEntity
  8
TEXT25
100
AcDbText
 10
-174.360415155955
 20
74.59999999999999
 30
0.0
 40
2.0
  1

 41
0.8
  7
TEXT20
100
AcDbAttributeDefinition
  3
Index vv.:
  2
F72
 70
     0
  0
ATTDEF
  5
334
330
2FF
100
AcDbEntity
  8
TEXT25
100
AcDbText
 10
-174.4435409453564
 20
79.47378932523601
 30
0.0
 40
2.0
  1

 41
0.8
  7
TEXT20
100
AcDbAttributeDefinition
  3
Index v.:
  2
F68
 70
     0
  0
ATTDEF
  5
335
330
2FF
100
AcDbEntity
  8
TEXT25
100
AcDbText
 10
-174.3700408782365
 20
84.63034186138365
 30
0.0
 40
2.0
  1

 41
0.8
  7
TEXT20
100
AcDbAttributeDefinition
  3
Index l.:
  2
F64
 70
     0
  0
LINE
  5
336
330
2FF
100
AcDbEntity
  8
KOPF
100
AcDbLine
 10
-162.682677
 20
88.49999999999996
 30
0.0
 11
-162.682677
 21
68.49999999999997
 31
0.0
  0
LINE
  5
337
330
2FF
100
AcDbEntity
  8
KOPF
100
AcDbLine
 10
-162.682677
 20
88.49999999999996
 30
0.0
 11
-162.682677
 21
68.49999999999997
 31
0.0
  0
TEXT
  5
338
330
2FF
100
AcDbEntity
  8
KOPF
100
AcDbText
 10
-156.706568
 20
69.53813999999997
 30
0.0
 40
2.0
  1
Datum
 41
0.8
  7
TEXT20
100
AcDbText
  0
ATTDEF
  5
339
330
2FF
100
AcDbEntity
  8
TEXT25
100
AcDbText
 10
-160.9
 20
75.09999999999999
 30
0.0
 40
2.0
  1

 41
0.8
  7
TEXT20
100
AcDbAttributeDefinition
  3
Datum vv.:
  2
F73
 70
     0
  0
ATTDEF
  5
33A
330
2FF
100
AcDbEntity
  8
TEXT25
100
AcDbText
 10
-160.9
 20
79.40000000000001
 30
0.0
 40
2.0
  1

 41
0.8
  7
TEXT20
100
AcDbAttributeDefinition
  3
Datum v.:
  2
F69
 70
     0
  0
ATTDEF
  5
33B
330
2FF
100
AcDbEntity
  8
TEXT25
100
AcDbText
 10
-160.6
 20
84.50000000000001
 30
0.0
 40
2.0
  1

 41
0.8
  7
TEXT20
100
AcDbAttributeDefinition
  3
Datum l.:
  2
F65
 70
     0
  0
LINE
  5
33C
330
2FF
100
AcDbEntity
  8
KOPF
 62
    12
100
AcDbLine
 10
-142.0
 20
68.49999999999997
 30
0.0
 11
-142.0
 21
88.49999999999996
 31
0.0
  0
LINE
  5
33D
330
2FF
100
AcDbEntity
  8
KOPF
100
AcDbLine
 10
-142.0
 20
68.49999999999997
 30
0.0
 11
-142.0
 21
88.49999999999996
 31
0.0
  0
ATTDEF
  5
33E
330
2FF
100
AcDbEntity
  8
TEXT35
100
AcDbText
 10
-139.9
 20
59.29999999999999
 30
0.0
 40
3.5
  1

 41
0.8
  7
TEXT35
100
AcDbAttributeDefinition
  3
Gewicht:
  2
F60
 70
     0
  0
TEXT
  5
33F
330
2FF
100
AcDbEntity
  8
KOPF
100
AcDbText
 10
-140.387393
 20
54.54752599999996
 30
0.0
 40
2.0
  1
Oberfläche
 41
0.8
  7
TEXT20
100
AcDbText
  0
TEXT
  5
340
330
2FF
100
AcDbEntity
  8
KOPF
100
AcDbText
 10
-140.1020469999999
 20
65.166273
 30
0.0
 40
2.0
  1
Gewicht:
 41
0.8
  7
TEXT20
100
AcDbText
  0
TEXT
  5
341
330
2FF
100
AcDbEntity
  8
KOPF
100
AcDbText
 10
-140.1020469999999
 20
65.166273
 30
0.0
 40
2.0
  1
Gewicht:
 41
0.8
  7
TEXT20
100
AcDbText
  0
ATTDEF
  5
342
330
2FF
100
AcDbEntity
  8
TEXT25
100
AcDbText
 10
-140.4
 20
74.59999999999999
 30
0.0
 40
2.0
  1

 41
0.8
  7
TEXT20
100
AcDbAttributeDefinition
  3
Bennenung vv.:
  2
F74
 70
     0
  0
ATTDEF
  5
343
330
2FF
100
AcDbEntity
  8
TEXT25
100
AcDbText
 10
-140.5063960262479
 20
79.64480359078786
 30
0.0
 40
2.0
  1

 41
0.8
  7
TEXT20
100
AcDbAttributeDefinition
  3
Benennung v.:
  2
F70
 70
     0
  0
ATTDEF
  5
344
330
2FF
100
AcDbEntity
  8
TEXT25
100
AcDbText
 10
-140.390233442385
 20
84.56120109651198
 30
0.0
 40
2.0
  1

 41
0.8
  7
TEXT20
100
AcDbAttributeDefinition
  3
Bennenung l.:
  2
F66
 70
     0
  0
LINE
  5
345
330
2FF
100
AcDbEntity
  8
KOPF
 62
    12
100
AcDbLine
 10
-100.0
 20
68.49999999999997
 30
0.0
 11
-100.0
 21
46.99999999999997
 31
0.0
  0
LWPOLYLINE
  5
346
330
2FF
100
AcDbEntity
  8
KOPF
 62
    12
100
AcDbPolyline
 90
        2
 70
     0
 43
0.5
 10
-83.0
 20
46.99999999999997
 10
-83.0
 20
0.0
  0
LINE
  5
347
330
2FF
100
AcDbEntity
  8
KOPF
100
AcDbLine
 10
-83.0
 20
46.99999999999997
 30
0.0
 11
-83.0
 21
0.0
 31
0.0
  0
TEXT
  5
348
330
2FF
100
AcDbEntity
  8
KOPF
100
AcDbText
 10
-81.0
 20
1.714285999999985
 30
0.0
 40
2.0
  1
Ersetzt durch:
 41
0.8
  7
TEXT20
100
AcDbText
  0
LINE
  5
349
330
2FF
100
AcDbEntity
  8
KOPF
 62
    12
100
AcDbLine
 10
-113.4
 20
27.0
 30
0.0
 11
-113.4
 21
46.99999999999997
 31
0.0
  0
LWPOLYLINE
  5
34A
330
2FF
100
AcDbEntity
  8
KOPF
100
AcDbPolyline
 90
        2
 70
     0
 43
0.5
 10
-113.4
 20
27.0
 10
-113.4
 20
46.99999999999997
  0
LINE
  5
34B
330
2FF
100
AcDbEntity
  8
KOPF
100
AcDbLine
 10
-113.4
 20
27.0
 30
0.0
 11
-113.4
 21
46.99999999999997
 31
0.0
  0
LINE
  5
34C
330
2FF
100
AcDbEntity
  8
KOPF
100
AcDbLine
 10
-113.4
 20
27.0
 30
0.0
 11
-113.4
 21
46.99999999999997
 31
0.0
  0
ATTDEF
  5
34D
330
2FF
100
AcDbEntity
  8
TEXT35
100
AcDbText
 10
-104.4935632823758
 20
33.13408015176805
 30
0.0
 40
3.5
  1

 41
0.8
  7
TEXT35
100
AcDbAttributeDefinition
  3
Maßstab 2:
  2
F54
 70
     0
  0
ATTDEF
  5
34E
330
2FF
100
AcDbEntity
  8
TEXT35
100
AcDbText
 10
-104.487948258847
 20
28.6
 30
0.0
 40
3.5
  1

 41
0.8
  7
TEXT35
100
AcDbAttributeDefinition
  3
Maßstab 3:
  2
F55
 70
     0
  0
ATTDEF
  5
34F
330
2FF
100
AcDbEntity
  8
TEXT50
100
AcDbText
 10
-106.6
 20
37.8
 30
0.0
 40
5.0
  1

 41
0.8
  7
TEXT50
100
AcDbAttributeDefinition
  3
Maßstab 1:
  2
F25
 70
     0
  0
TEXT
  5
350
330
2FF
100
AcDbEntity
  8
KOPF
100
AcDbText
 10
-112.263457
 20
43.88678899999999
 30
0.0
 40
2.0
  1
Massstab:
 41
0.8
  7
TEXT20
100
AcDbText
  0
LINE
  5
351
330
2FF
100
AcDbEntity
  8
KOPF
 62
    12
100
AcDbLine
 10
-57.80813400000011
 20
27.0
 30
0.0
 11
-57.80813400000011
 21
46.99999999999997
 31
0.0
  0
LINE
  5
352
330
2FF
100
AcDbEntity
  8
KOPF
100
AcDbLine
 10
-57.80813400000011
 20
27.0
 30
0.0
 11
-57.80813400000011
 21
46.99999999999997
 31
0.0
  0
TEXT
  5
353
330
2FF
100
AcDbEntity
  8
KOPF
100
AcDbText
 10
-81.59296000000006
 20
23.69783599999999
 30
0.0
 40
2.0
  1
Zeichnung Nr.:
 41
0.8
  7
TEXT20
100
AcDbText
  0
TEXT
  5
354
330
2FF
100
AcDbEntity
  8
KOPF
100
AcDbText
 10
-81.00375700000006
 20
5.924711999999997
 30
0.0
 40
2.0
  1
Ersatz für:
 41
0.8
  7
TEXT20
100
AcDbText
  0
TEXT
  5
355
330
2FF
100
AcDbEntity
  8
KOPF
100
AcDbText
 10
-81.59296000000006
 20
23.69783599999999
 30
0.0
 40
2.0
  1
Zeichnung Nr.:
 41
0.8
  7
TEXT20
100
AcDbText
  0
ATTDEF
  5
356
330
2FF
100
AcDbEntity
  8
TEXT50
100
AcDbText
 10
-78.29193986361122
 20
14.50587824180555
 30
0.0
 40
5.0
  1

 41
0.8
  7
TEXT50
100
AcDbAttributeDefinition
  3
Standart:
  2
F1
 70
     0
  0
TEXT
  5
357
330
2FF
100
AcDbEntity
  8
KOPF
100
AcDbText
 10
-81.48889200000008
 20
43.86057200000001
 30
0.0
 40
2.0
  1
Masseinheit:
 41
0.8
  7
TEXT20
100
AcDbText
  0
LINE
  5
358
330
2FF
100
AcDbEntity
  8
KOPF
 62
    12
100
AcDbLine
 10
-57.80813400000011
 20
36.213444
 30
0.0
 11
-83.0
 21
36.213444
 31
0.0
  0
LINE
  5
359
330
2FF
100
AcDbEntity
  8
KOPF
100
AcDbLine
 10
-57.80813400000011
 20
36.213444
 30
0.0
 11
-83.0
 21
36.213444
 31
0.0
  0
ATTDEF
  5
35A
330
2FF
100
AcDbEntity
  8
TEXT35
100
AcDbText
 10
-79.40896486611496
 20
38.08722024605356
 30
0.0
 40
3.5
  1

 41
0.8
  7
TEXT35
100
AcDbAttributeDefinition
  3
Maßeinheit:
  2
F56
 70
     0
  0
TEXT
  5
35B
330
2FF
100
AcDbEntity
  8
KOPF
100
AcDbText
 10
-33.57569784693112
 20
42.62823225872138
 30
0.0
 40
1.54
  1
Diese Zeichnung darf weder kopiert
 41
0.8
  7
TEXT20
100
AcDbText
  0
TEXT
  5
35C
330
2FF
100
AcDbEntity
  8
KOPF
100
AcDbText
 10
-33.57569784693112
 20
40.26106040199917
 30
0.0
 40
1.54
  1
noch dritten Personen, insbesondere
 41
0.8
  7
TEXT20
100
AcDbText
  0
TEXT
  5
35D
330
2FF
100
AcDbEntity
  8
KOPF
100
AcDbText
 10
-33.57569784693112
 20
35.63814072439632
 30
0.0
 40
1.54
  1
mitgeteilt werden und bleibt unser
 41
0.8
  7
TEXT20
100
AcDbText
  0
TEXT
  5
35E
330
2FF
100
AcDbEntity
  8
KOPF
100
AcDbText
 10
-33.57569784693112
 20
33.37532604459598
 30
0.0
 40
1.54
  1
Eigentum.
 41
0.8
  7
TEXT20
100
AcDbText
  0
TEXT
  5
35F
330
2FF
100
AcDbEntity
  8
KOPF
100
AcDbText
 10
-33.57569784693112
 20
37.97994933403727
 30
0.0
 40
1.54
  1
zum Zweck anderweitiger Benutzung
 41
0.8
  7
TEXT20
100
AcDbText
  0
TEXT
  5
360
330
2FF
100
AcDbEntity
  8
KOPF
100
AcDbText
 10
-33.7904806989385
 20
30.30982488917614
 30
0.0
 40
1.54
  1
Schutzvermerk nach DIN 34 beachten
 41
0.75
  7
TEXT20
100
AcDbText
  0
LINE
  5
361
330
2FF
100
AcDbEntity
  8
KOPF
100
AcDbLine
 10
-34.94281200000012
 20
47.01203199999999
 30
0.0
 11
-34.94281200000012
 21
27.0
 31
0.0
  0
LINE
  5
362
330
2FF
100
AcDbEntity
  8
KOPF
100
AcDbLine
 10
-34.94281200000012
 20
47.01203199999999
 30
0.0
 11
-34.94281200000012
 21
27.0
 31
0.0
  0
LINE
  5
363
330
2FF
100
AcDbEntity
  8
MITTE
100
AcDbLine
 10
-45.85521401410289
 20
36.04852954632858
 30
0.0
 11
-35.23444858652556
 21
36.04852954632858
 31
0.0
  0
LINE
  5
364
330
2FF
100
AcDbEntity
  8
TEXT50
100
AcDbLine
 10
-45.05865660703466
 20
32.02559619470341
 30
0.0
 11
-36.50894043783512
 21
34.06858135367652
 31
0.0
  0
LINE
  5
365
330
2FF
100
AcDbEntity
  8
TEXT50
100
AcDbLine
 10
-36.50894043783512
 20
38.02847773898061
 30
0.0
 11
-45.05865660703466
 21
40.07146289795374
 31
0.0
  0
TEXT
  5
366
330
2FF
100
AcDbEntity
  8
KOPF
100
AcDbText
 10
-57.12244047883302
 20
43.82431699999997
 30
0.0
 40
2.0
  1
Projektion: ISO-E
 41
0.8
  7
TEXT20
100
AcDbText
  0
LINE
  5
367
330
2FF
100
AcDbEntity
  8
TEXT50
100
AcDbLine
 10
-45.05865660703466
 20
40.07146289795374
 30
0.0
 11
-45.05865660703466
 21
32.02559619470346
 31
0.0
  0
LINE
  5
368
330
2FF
100
AcDbEntity
  8
MITTE
100
AcDbLine
 10
-51.4945506424383
 20
40.07146289795374
 30
0.0
 11
-51.4945506424383
 21
30.76413131482123
 31
0.0
  0
CIRCLE
  5
369
330
2FF
100
AcDbEntity
  8
TEXT50
100
AcDbCircle
 10
-51.4945506424383
 20
36.04852954632858
 30
0.0
 40
4.022933351625178
  0
CIRCLE
  5
36A
330
2FF
100
AcDbEntity
  8
TEXT50
100
AcDbCircle
 10
-51.4945506424383
 20
36.04852954632858
 30
0.0
 40
1.979948192651899
  0
LINE
  5
36B
330
2FF
100
AcDbEntity
  8
MITTE
100
AcDbLine
 10
-56.48631039339966
 20
36.04852954632858
 30
0.0
 11
-46.50279089147699
 21
36.04852954632858
 31
0.0
  0
LINE
  5
36C
330
2FF
100
AcDbEntity
  8
TEXT50
100
AcDbLine
 10
-36.50894043783512
 20
38.02847773898061
 30
0.0
 11
-36.50894043783512
 21
34.06858135367652
 31
0.0
  0
LWPOLYLINE
  5
36D
330
2FF
100
AcDbEntity
  8
KOPF
 62
    12
100
AcDbPolyline
 90
        2
 70
     0
 43
0.5
 10
-12.0
 20
27.0
 10
-12.0
 20
10.0
  0
LINE
  5
36E
330
2FF
100
AcDbEntity
  8
KOPF
100
AcDbLine
 10
-12.0
 20
27.0
 30
0.0
 11
-12.0
 21
10.0
 31
0.0
  0
ATTDEF
  5
36F
330
2FF
100
AcDbEntity
  8
TEXT50
100
AcDbText
 10
-5.58570360403041
 20
17.00587824180555
 30
0.0
 40
5.0
  1

 41
0.8
  7
TEXT50
 72
     4
 11
-5.58570360403041
 21
17.00587824180555
 31
0.0
100
AcDbAttributeDefinition
  3
Index:
  2
F1B
 70
     0
  0
TEXT
  5
370
330
2FF
100
AcDbEntity
  8
KOPF
100
AcDbText
 10
-8.353129999999964
 20
23.330072
 30
0.0
 40
2.0
  1
Index
 41
0.8
  7
TEXT20
100
AcDbText
  0
TEXT
  5
371
330
2FF
100
AcDbEntity
  8
KOPF
100
AcDbText
 10
-94.40535829344497
 20
70.39773773357916
 30
0.0
 40
2.0
  1
Benennung
 41
0.8
  7
TEXT20
100
AcDbText
  0
LINE
  5
372
330
2FF
100
AcDbEntity
  8
KOPF
100
AcDbLine
 10
-15.0
 20
88.49999999999996
 30
0.0
 11
-15.0
 21
68.49999999999997
 31
0.0
  0
LINE
  5
373
330
2FF
100
AcDbEntity
  8
KOPF
100
AcDbLine
 10
-15.0
 20
88.49999999999996
 30
0.0
 11
-15.0
 21
68.49999999999997
 31
0.0
  0
TEXT
  5
374
330
2FF
100
AcDbEntity
  8
KOPF
100
AcDbText
 10
-11.65833600000008
 20
69.53813999999997
 30
0.0
 40
2.0
  1
Name
 41
0.8
  7
TEXT20
100
AcDbText
  0
TEXT
  5
375
330
2FF
100
AcDbEntity
  8
KOPF
100
AcDbText
 10
-11.65833600000008
 20
69.53813999999997
 30
0.0
 40
2.0
  1
Name
 41
0.8
  7
TEXT20
100
AcDbText
  0
ATTDEF
  5
376
330
2FF
100
AcDbEntity
  8
TEXT25
100
AcDbText
 10
-13.39999999999998
 20
74.90000000000001
 30
0.0
 40
2.0
  1

 41
0.8
  7
TEXT20
100
AcDbAttributeDefinition
  3
Name vv.:
  2
F75
 70
     0
  0
ATTDEF
  5
377
330
2FF
100
AcDbEntity
  8
TEXT25
100
AcDbText
 10
-13.39999999999998
 20
79.7
 30
0.0
 40
2.0
  1

 41
0.8
  7
TEXT20
100
AcDbAttributeDefinition
  3
Name v.:
  2
F71
 70
     0
  0
ATTDEF
  5
378
330
2FF
100
AcDbEntity
  8
TEXT25
100
AcDbText
 10
-13.31006638105163
 20
84.29999999999999
 30
0.0
 40
2.0
  1

 41
0.8
  7
TEXT20
100
AcDbAttributeDefinition
  3
Name l.:
  2
F67
 70
     0
  0
LINE
  5
379
330
2FF
100
AcDbEntity
  8
KOPF
100
AcDbLine
 10
-182.0
 20
36.99999999999997
 30
0.0
 11
-113.4
 21
36.99999999999997
 31
0.0
  0
LINE
  5
37A
330
2FF
100
AcDbEntity
  8
KOPF
100
AcDbLine
 10
-182.0
 20
31.99999999999997
 30
0.0
 11
-113.4
 21
31.99999999999997
 31
0.0
  0
MTEXT
  5
37B
330
2FF
100
AcDbEntity
  8
Sperrlayer
 62
     1
100
AcDbMText
 10
-166.0749851709908
 20
9.027899370527848
 30
0.0
 40
10.0
 41
771.0
 71
     1
 72
     5
  1
VORABZUG - nicht FREIGEGEBEN !
  7
TEXT20
 11
0.8660254037844387
 21
0.5
 31
0.0
 73
     1
 44
1.0
1001
ACAD
1000
MTEXTBEGIN
1070
    73
1070
     1
1070
    44
1040
1.0
1070
    74
1070
     0
1000
MTEXTEND
  0
SOLID
  5
37C
330
2FF
100
AcDbEntity
  8
RAHM2
100
AcDbTrace
 10
-65.27552397868255
 20
61.53746598194189
 30
0.0
 11
-62.05035543935675
 21
61.53746598194189
 31
0.0
 12
-65.27552397868255
 22
61.25701654373962
 32
0.0
 13
-62.05035543935675
 23
61.25701654373962
 33
0.0
  0
TEXT
  5
37D
330
2FF
100
AcDbEntity
  8
RAHM2
100
AcDbText
 10
-40.91775160745712
 20
53.63170934671963
 30
0.0
 40
2.6
  1
GmbH
  7
KOPF
 72
     1
 11
-35.478939452761
 21
53.63170934671963
 31
0.0
100
AcDbText
  0
TEXT
  5
37E
330
2FF
100
AcDbEntity
  8
RAHM2
100
AcDbText
 10
-58.33566801898796
 20
50.12594670488301
 30
0.0
 40
2.6
  1
36269 Philippsthal
  7
KOPF
 72
     1
 11
-44.32206304661227
 21
50.12594670488301
 31
0.0
100
AcDbText
  0
SOLID
  5
37F
330
2FF
100
AcDbEntity
  8
RAHM2
100
AcDbTrace
 10
-67.51911948430052
 20
62.09836485834642
 30
0.0
 11
-66.95822060789598
 21
62.09836485834642
 31
0.0
 12
-67.51911948430052
 22
61.9581401392452
 32
0.0
 13
-66.95822060789598
 23
61.9581401392452
 33
0.0
  0
SOLID
  5
380
330
2FF
100
AcDbEntity
  8
RAHM2
100
AcDbTrace
 10
-68.36046779890714
 20
61.9581401392452
 30
0.0
 11
-66.11687229328918
 21
61.9581401392452
 31
0.0
 12
-68.36046779890714
 22
61.81791542014416
 32
0.0
 13
-66.11687229328918
 23
61.81791542014416
 33
0.0
  0
SOLID
  5
381
330
2FF
100
AcDbEntity
  8
RAHM2
100
AcDbTrace
 10
-68.64091723710941
 20
61.81791542014416
 30
0.0
 11
-66.11687229328918
 21
61.81791542014416
 31
0.0
 12
-68.64091723710941
 22
61.67769070104293
 32
0.0
 13
-66.11687229328918
 23
61.67769070104293
 33
0.0
  0
SOLID
  5
382
330
2FF
100
AcDbEntity
  8
RAHM2
100
AcDbTrace
 10
-68.92136667531167
 20
61.67769070104293
 30
0.0
 11
-66.2570970123904
 21
61.67769070104293
 31
0.0
 12
-68.92136667531167
 22
61.53746598194189
 32
0.0
 13
-66.2570970123904
 23
61.53746598194189
 33
0.0
  0
SOLID
  5
383
330
2FF
100
AcDbEntity
  8
RAHM2
100
AcDbTrace
 10
-69.0615913944129
 20
61.53746598194189
 30
0.0
 11
-66.2570970123904
 21
61.53746598194189
 31
0.0
 12
-69.0615913944129
 22
61.39724126284066
 32
0.0
 13
-66.2570970123904
 23
61.39724126284066
 33
0.0
  0
SOLID
  5
384
330
2FF
100
AcDbEntity
  8
RAHM2
100
AcDbTrace
 10
-69.20181611351394
 20
61.39724126284066
 30
0.0
 11
-66.2570970123904
 21
61.39724126284066
 31
0.0
 12
-69.20181611351394
 22
61.25701654373962
 32
0.0
 13
-66.2570970123904
 23
61.25701654373962
 33
0.0
  0
SOLID
  5
385
330
2FF
100
AcDbEntity
  8
RAHM2
100
AcDbTrace
 10
-69.34204083261517
 20
61.25701654373962
 30
0.0
 11
-67.09844532699702
 21
61.25701654373962
 31
0.0
 12
-69.34204083261517
 22
61.1167918246384
 32
0.0
 13
-67.09844532699702
 23
61.1167918246384
 33
0.0
  0
SOLID
  5
386
330
2FF
100
AcDbEntity
  8
RAHM2
100
AcDbTrace
 10
-69.20181611351394
 20
58.59274688081836
 30
0.0
 11
-66.39732173149145
 21
58.59274688081836
 31
0.0
 12
-69.20181611351394
 22
58.45252216171712
 32
0.0
 13
-66.39732173149145
 23
58.45252216171712
 33
0.0
  0
SOLID
  5
387
330
2FF
100
AcDbEntity
  8
RAHM2
100
AcDbTrace
 10
-69.0615913944129
 20
58.45252216171712
 30
0.0
 11
-66.2570970123904
 21
58.45252216171712
 31
0.0
 12
-69.0615913944129
 22
58.17207272351486
 32
0.0
 13
-66.2570970123904
 23
58.17207272351486
 33
0.0
  0
SOLID
  5
388
330
2FF
100
AcDbEntity
  8
RAHM2
100
AcDbTrace
 10
-68.78114195621063
 20
58.17207272351486
 30
0.0
 11
-66.2570970123904
 21
58.17207272351486
 31
0.0
 12
-68.78114195621063
 22
58.03184800441382
 32
0.0
 13
-66.2570970123904
 23
58.03184800441382
 33
0.0
  0
SOLID
  5
389
330
2FF
100
AcDbEntity
  8
RAHM2
100
AcDbTrace
 10
-68.50069251800836
 20
58.03184800441382
 30
0.0
 11
-66.11687229328918
 21
58.03184800441382
 31
0.0
 12
-68.50069251800836
 22
57.89162328531259
 32
0.0
 13
-66.11687229328918
 23
57.89162328531259
 33
0.0
  0
SOLID
  5
38A
330
2FF
100
AcDbEntity
  8
RAHM2
100
AcDbTrace
 10
-68.22024307980609
 20
57.89162328531259
 30
0.0
 11
-66.11687229328918
 21
57.89162328531259
 31
0.0
 12
-68.22024307980609
 22
57.75139856621155
 32
0.0
 13
-66.11687229328918
 23
57.75139856621155
 33
0.0
  0
SOLID
  5
38B
330
2FF
100
AcDbEntity
  8
RAHM2
100
AcDbTrace
 10
-67.79956892250279
 20
57.75139856621155
 30
0.0
 11
-66.39732173149145
 21
57.75139856621155
 31
0.0
 12
-67.79956892250279
 22
57.61117384711032
 32
0.0
 13
-66.39732173149145
 23
57.61117384711032
 33
0.0
  0
SOLID
  5
38C
330
2FF
100
AcDbEntity
  8
RAHM2
100
AcDbTrace
 10
-81.82204083261508
 20
64.86384610464772
 30
0.0
 11
-79.99911948430043
 21
64.86384610464772
 31
0.0
 12
-81.82204083261508
 22
60.23643037431057
 32
0.0
 13
-79.99911948430043
 23
60.23643037431057
 33
0.0
  0
SOLID
  5
38D
330
2FF
100
AcDbEntity
  8
RAHM2
100
AcDbTrace
 10
-79.4382206078959
 20
64.86384610464772
 30
0.0
 11
-77.61529925958143
 21
64.86384610464772
 31
0.0
 12
-79.4382206078959
 22
60.23643037431057
 32
0.0
 13
-77.61529925958143
 23
60.23643037431057
 33
0.0
  0
SOLID
  5
38E
330
2FF
100
AcDbEntity
  8
RAHM2
100
AcDbTrace
 10
-77.19462510227794
 20
64.86384610464772
 30
0.0
 11
-75.23147903486225
 21
64.86384610464772
 31
0.0
 12
-77.19462510227794
 22
60.23643037431057
 32
0.0
 13
-75.23147903486225
 23
60.23643037431057
 33
0.0
  0
SOLID
  5
38F
330
2FF
100
AcDbEntity
  8
RAHM2
100
AcDbTrace
 10
-72.70743409104202
 20
62.09836485834642
 30
0.0
 11
-71.58563633823312
 21
62.09836485834642
 31
0.0
 12
-72.70743409104202
 22
61.9581401392452
 32
0.0
 13
-71.58563633823312
 23
61.9581401392452
 33
0.0
  0
SOLID
  5
390
330
2FF
100
AcDbEntity
  8
RAHM2
100
AcDbTrace
 10
-72.70743409104202
 20
61.9581401392452
 30
0.0
 11
-71.4454116191319
 21
61.9581401392452
 31
0.0
 12
-72.70743409104202
 22
61.81791542014416
 32
0.0
 13
-71.4454116191319
 23
61.81791542014416
 33
0.0
  0
SOLID
  5
391
330
2FF
100
AcDbEntity
  8
RAHM2
100
AcDbTrace
 10
-72.84765881014324
 20
61.81791542014416
 30
0.0
 11
-71.4454116191319
 21
61.81791542014416
 31
0.0
 12
-72.84765881014324
 22
61.67769070104293
 32
0.0
 13
-71.4454116191319
 23
61.67769070104293
 33
0.0
  0
SOLID
  5
392
330
2FF
100
AcDbEntity
  8
RAHM2
100
AcDbTrace
 10
-72.84765881014324
 20
61.67769070104293
 30
0.0
 11
-71.30518690003086
 21
61.67769070104293
 31
0.0
 12
-72.84765881014324
 22
61.53746598194189
 32
0.0
 13
-71.30518690003086
 23
61.53746598194189
 33
0.0
  0
SOLID
  5
393
330
2FF
100
AcDbEntity
  8
RAHM2
100
AcDbTrace
 10
-72.98788352924429
 20
61.53746598194189
 30
0.0
 11
-71.30518690003086
 21
61.53746598194189
 31
0.0
 12
-72.98788352924429
 22
61.25701654373962
 32
0.0
 13
-71.30518690003086
 23
61.25701654373962
 33
0.0
  0
SOLID
  5
394
330
2FF
100
AcDbEntity
  8
RAHM2
100
AcDbTrace
 10
-72.98788352924429
 20
61.25701654373962
 30
0.0
 11
-71.16496218092963
 21
61.25701654373962
 31
0.0
 12
-72.98788352924429
 22
61.1167918246384
 32
0.0
 13
-71.16496218092963
 23
61.1167918246384
 33
0.0
  0
SOLID
  5
395
330
2FF
100
AcDbEntity
  8
RAHM2
100
AcDbTrace
 10
-73.12810824834551
 20
61.1167918246384
 30
0.0
 11
-71.16496218092963
 21
61.1167918246384
 31
0.0
 12
-73.12810824834551
 22
60.97656710553735
 32
0.0
 13
-71.16496218092963
 23
60.97656710553735
 33
0.0
  0
SOLID
  5
396
330
2FF
100
AcDbEntity
  8
RAHM2
100
AcDbTrace
 10
-73.12810824834551
 20
60.97656710553735
 30
0.0
 11
-72.28675993373871
 21
60.97656710553735
 31
0.0
 12
-73.12810824834551
 22
60.83634238643631
 32
0.0
 13
-72.28675993373871
 23
60.83634238643631
 33
0.0
  0
SOLID
  5
397
330
2FF
100
AcDbEntity
  8
RAHM2
100
AcDbTrace
 10
-73.26833296744656
 20
60.83634238643631
 30
0.0
 11
-72.28675993373871
 21
60.83634238643631
 31
0.0
 12
-73.26833296744656
 22
60.69611766733508
 32
0.0
 13
-72.28675993373871
 23
60.69611766733508
 33
0.0
  0
SOLID
  5
398
330
2FF
100
AcDbEntity
  8
RAHM2
100
AcDbTrace
 10
-73.26833296744656
 20
60.69611766733508
 30
0.0
 11
-72.42698465283975
 21
60.69611766733508
 31
0.0
 12
-73.26833296744656
 22
60.41566822913281
 32
0.0
 13
-72.42698465283975
 23
60.41566822913281
 33
0.0
  0
SOLID
  5
399
330
2FF
100
AcDbEntity
  8
RAHM2
100
AcDbTrace
 10
-73.40855768654759
 20
60.41566822913281
 30
0.0
 11
-72.42698465283975
 21
60.41566822913281
 31
0.0
 12
-73.40855768654759
 22
60.27544351003178
 32
0.0
 13
-72.42698465283975
 23
60.27544351003178
 33
0.0
  0
SOLID
  5
39A
330
2FF
100
AcDbEntity
  8
RAHM2
100
AcDbTrace
 10
-73.40855768654759
 20
60.27544351003178
 30
0.0
 11
-72.56720937194097
 21
60.27544351003178
 31
0.0
 12
-73.40855768654759
 22
60.13521879093055
 32
0.0
 13
-72.56720937194097
 23
60.13521879093055
 33
0.0
  0
SOLID
  5
39B
330
2FF
100
AcDbEntity
  8
RAHM2
100
AcDbTrace
 10
-73.54878240564882
 20
60.13521879093055
 30
0.0
 11
-72.56720937194097
 21
60.13521879093055
 31
0.0
 12
-73.54878240564882
 22
59.85476935272828
 32
0.0
 13
-72.56720937194097
 23
59.85476935272828
 33
0.0
  0
SOLID
  5
39C
330
2FF
100
AcDbEntity
  8
RAHM2
100
AcDbTrace
 10
-73.68900712474986
 20
59.85476935272828
 30
0.0
 11
-72.70743409104202
 21
59.85476935272828
 31
0.0
 12
-73.68900712474986
 22
59.43409519542497
 32
0.0
 13
-72.70743409104202
 23
59.43409519542497
 33
0.0
  0
SOLID
  5
39D
330
2FF
100
AcDbEntity
  8
RAHM2
100
AcDbTrace
 10
-72.28675993373871
 20
60.97656710553735
 30
0.0
 11
-71.16496218092963
 21
60.97656710553735
 31
0.0
 12
-72.28675993373871
 22
60.83634238643631
 32
0.0
 13
-71.16496218092963
 23
60.83634238643631
 33
0.0
  0
SOLID
  5
39E
330
2FF
100
AcDbEntity
  8
RAHM2
100
AcDbTrace
 10
-72.14653521463748
 20
60.83634238643631
 30
0.0
 11
-71.02473746182859
 21
60.83634238643631
 31
0.0
 12
-72.14653521463748
 22
60.55589294823405
 32
0.0
 13
-71.02473746182859
 23
60.55589294823405
 33
0.0
  0
SOLID
  5
39F
330
2FF
100
AcDbEntity
  8
RAHM2
100
AcDbTrace
 10
-72.14653521463748
 20
60.55589294823405
 30
0.0
 11
-70.88451274272737
 21
60.55589294823405
 31
0.0
 12
-72.14653521463748
 22
60.27544351003178
 32
0.0
 13
-70.88451274272737
 23
60.27544351003178
 33
0.0
  0
SOLID
  5
3A0
330
2FF
100
AcDbEntity
  8
RAHM2
100
AcDbTrace
 10
-72.00631049553644
 20
60.27544351003178
 30
0.0
 11
-70.88451274272737
 21
60.27544351003178
 31
0.0
 12
-72.00631049553644
 22
60.13521879093055
 32
0.0
 13
-70.88451274272737
 23
60.13521879093055
 33
0.0
  0
SOLID
  5
3A1
330
2FF
100
AcDbEntity
  8
RAHM2
100
AcDbTrace
 10
-72.00631049553644
 20
60.13521879093055
 30
0.0
 11
-70.74428802362632
 21
60.13521879093055
 31
0.0
 12
-72.00631049553644
 22
59.85476935272828
 32
0.0
 13
-70.74428802362632
 23
59.85476935272828
 33
0.0
  0
SOLID
  5
3A2
330
2FF
100
AcDbEntity
  8
RAHM2
100
AcDbTrace
 10
-72.00631049553644
 20
59.85476935272828
 30
0.0
 11
-70.60406330452528
 21
59.85476935272828
 31
0.0
 12
-72.00631049553644
 22
59.71454463362724
 32
0.0
 13
-70.60406330452528
 23
59.71454463362724
 33
0.0
  0
SOLID
  5
3A3
330
2FF
100
AcDbEntity
  8
RAHM2
100
AcDbTrace
 10
-71.86608577643539
 20
59.71454463362724
 30
0.0
 11
-70.60406330452528
 21
59.71454463362724
 31
0.0
 12
-71.86608577643539
 22
59.43409519542497
 32
0.0
 13
-70.60406330452528
 23
59.43409519542497
 33
0.0
  0
SOLID
  5
3A4
330
2FF
100
AcDbEntity
  8
RAHM2
100
AcDbTrace
 10
-73.82923184385109
 20
59.43409519542497
 30
0.0
 11
-70.46383858542405
 21
59.43409519542497
 31
0.0
 12
-73.82923184385109
 22
59.15364575722271
 32
0.0
 13
-70.46383858542405
 23
59.15364575722271
 33
0.0
  0
SOLID
  5
3A5
330
2FF
100
AcDbEntity
  8
RAHM2
100
AcDbTrace
 10
-73.96945656295213
 20
59.15364575722271
 30
0.0
 11
-70.46383858542405
 21
59.15364575722271
 31
0.0
 12
-73.96945656295213
 22
59.01342103812166
 32
0.0
 13
-70.46383858542405
 23
59.01342103812166
 33
0.0
  0
SOLID
  5
3A6
330
2FF
100
AcDbEntity
  8
RAHM2
100
AcDbTrace
 10
-73.96945656295213
 20
59.01342103812166
 30
0.0
 11
-70.32361386632302
 21
59.01342103812166
 31
0.0
 12
-73.96945656295213
 22
58.87319631902044
 32
0.0
 13
-70.32361386632302
 23
58.87319631902044
 33
0.0
  0
SOLID
  5
3A7
330
2FF
100
AcDbEntity
  8
RAHM2
100
AcDbTrace
 10
-74.10968128205336
 20
58.87319631902044
 30
0.0
 11
-70.32361386632302
 21
58.87319631902044
 31
0.0
 12
-74.10968128205336
 22
58.73297159991939
 32
0.0
 13
-70.32361386632302
 23
58.73297159991939
 33
0.0
  0
SOLID
  5
3A8
330
2FF
100
AcDbEntity
  8
RAHM2
100
AcDbTrace
 10
-74.10968128205336
 20
58.73297159991939
 30
0.0
 11
-72.98788352924429
 21
58.73297159991939
 31
0.0
 12
-74.10968128205336
 22
58.45252216171712
 32
0.0
 13
-72.98788352924429
 23
58.45252216171712
 33
0.0
  0
SOLID
  5
3A9
330
2FF
100
AcDbEntity
  8
RAHM2
100
AcDbTrace
 10
-74.2499060011544
 20
58.45252216171712
 30
0.0
 11
-73.12810824834551
 21
58.45252216171712
 31
0.0
 12
-74.2499060011544
 22
58.17207272351486
 32
0.0
 13
-73.12810824834551
 23
58.17207272351486
 33
0.0
  0
SOLID
  5
3AA
330
2FF
100
AcDbEntity
  8
RAHM2
100
AcDbTrace
 10
-74.39013072025563
 20
58.17207272351486
 30
0.0
 11
-73.26833296744656
 21
58.17207272351486
 31
0.0
 12
-74.39013072025563
 22
57.75139856621155
 32
0.0
 13
-73.26833296744656
 23
57.75139856621155
 33
0.0
  0
SOLID
  5
3AB
330
2FF
100
AcDbEntity
  8
RAHM2
100
AcDbTrace
 10
-71.72586105733417
 20
58.73297159991939
 30
0.0
 11
-70.18338914722178
 21
58.73297159991939
 31
0.0
 12
-71.72586105733417
 22
58.59274688081836
 32
0.0
 13
-70.18338914722178
 23
58.59274688081836
 33
0.0
  0
SOLID
  5
3AC
330
2FF
100
AcDbEntity
  8
RAHM2
100
AcDbTrace
 10
-71.58563633823312
 20
58.59274688081836
 30
0.0
 11
-70.18338914722178
 21
58.59274688081836
 31
0.0
 12
-71.58563633823312
 22
58.31229744261609
 32
0.0
 13
-70.18338914722178
 23
58.31229744261609
 33
0.0
  0
SOLID
  5
3AD
330
2FF
100
AcDbEntity
  8
RAHM2
100
AcDbTrace
 10
-71.4454116191319
 20
58.31229744261609
 30
0.0
 11
-70.04316442812075
 21
58.31229744261609
 31
0.0
 12
-71.4454116191319
 22
58.03184800441382
 32
0.0
 13
-70.04316442812075
 23
58.03184800441382
 33
0.0
  0
SOLID
  5
3AE
330
2FF
100
AcDbEntity
  8
RAHM2
100
AcDbTrace
 10
-71.4454116191319
 20
58.03184800441382
 30
0.0
 11
-69.90293970901952
 21
58.03184800441382
 31
0.0
 12
-71.4454116191319
 22
57.89162328531259
 32
0.0
 13
-69.90293970901952
 23
57.89162328531259
 33
0.0
  0
SOLID
  5
3AF
330
2FF
100
AcDbEntity
  8
RAHM2
100
AcDbTrace
 10
-71.30518690003086
 20
57.89162328531259
 30
0.0
 11
-69.90293970901952
 21
57.89162328531259
 31
0.0
 12
-71.30518690003086
 22
57.75139856621155
 32
0.0
 13
-69.90293970901952
 23
57.75139856621155
 33
0.0
  0
SOLID
  5
3B0
330
2FF
100
AcDbEntity
  8
RAHM2
100
AcDbTrace
 10
-69.34204083261517
 20
61.1167918246384
 30
0.0
 11
-67.51911948430052
 21
61.1167918246384
 31
0.0
 12
-69.34204083261517
 22
60.97656710553735
 32
0.0
 13
-67.51911948430052
 23
60.97656710553735
 33
0.0
  0
SOLID
  5
3B1
330
2FF
100
AcDbEntity
  8
RAHM2
100
AcDbTrace
 10
-69.48226555171621
 20
60.97656710553735
 30
0.0
 11
-67.93979364160382
 21
60.97656710553735
 31
0.0
 12
-69.48226555171621
 22
60.83634238643631
 32
0.0
 13
-67.93979364160382
 23
60.83634238643631
 33
0.0
  0
SOLID
  5
3B2
330
2FF
100
AcDbEntity
  8
RAHM2
100
AcDbTrace
 10
-69.62249027081725
 20
60.83634238643631
 30
0.0
 11
-68.08001836070506
 21
60.83634238643631
 31
0.0
 12
-69.62249027081725
 22
60.69611766733508
 32
0.0
 13
-68.08001836070506
 23
60.69611766733508
 33
0.0
  0
SOLID
  5
3B3
330
2FF
100
AcDbEntity
  8
RAHM2
100
AcDbTrace
 10
-69.62249027081725
 20
60.69611766733508
 30
0.0
 11
-68.22024307980609
 21
60.69611766733508
 31
0.0
 12
-69.62249027081725
 22
60.55589294823405
 32
0.0
 13
-68.22024307980609
 23
60.55589294823405
 33
0.0
  0
SOLID
  5
3B4
330
2FF
100
AcDbEntity
  8
RAHM2
100
AcDbTrace
 10
-69.62249027081725
 20
60.55589294823405
 30
0.0
 11
-68.36046779890714
 21
60.55589294823405
 31
0.0
 12
-69.62249027081725
 22
60.41566822913281
 32
0.0
 13
-68.36046779890714
 23
60.41566822913281
 33
0.0
  0
SOLID
  5
3B5
330
2FF
100
AcDbEntity
  8
RAHM2
100
AcDbTrace
 10
-69.62249027081725
 20
60.41566822913281
 30
0.0
 11
-68.36046779890714
 21
60.41566822913281
 31
0.0
 12
-69.62249027081725
 22
60.13521879093055
 32
0.0
 13
-68.36046779890714
 23
60.13521879093055
 33
0.0
  0
SOLID
  5
3B6
330
2FF
100
AcDbEntity
  8
RAHM2
100
AcDbTrace
 10
-69.76271498991848
 20
60.13521879093055
 30
0.0
 11
-68.36046779890714
 21
60.13521879093055
 31
0.0
 12
-69.76271498991848
 22
59.99499407182951
 32
0.0
 13
-68.36046779890714
 23
59.99499407182951
 33
0.0
  0
SOLID
  5
3B7
330
2FF
100
AcDbEntity
  8
RAHM2
100
AcDbTrace
 10
-69.76271498991848
 20
59.99499407182951
 30
0.0
 11
-68.50069251800836
 21
59.99499407182951
 31
0.0
 12
-69.76271498991848
 22
59.85476935272828
 32
0.0
 13
-68.50069251800836
 23
59.85476935272828
 33
0.0
  0
SOLID
  5
3B8
330
2FF
100
AcDbEntity
  8
RAHM2
100
AcDbTrace
 10
-69.76271498991848
 20
59.85476935272828
 30
0.0
 11
-68.50069251800836
 21
59.85476935272828
 31
0.0
 12
-69.76271498991848
 22
59.71454463362724
 32
0.0
 13
-68.50069251800836
 23
59.71454463362724
 33
0.0
  0
SOLID
  5
3B9
330
2FF
100
AcDbEntity
  8
RAHM2
100
AcDbTrace
 10
-69.62249027081725
 20
59.71454463362724
 30
0.0
 11
-68.36046779890714
 21
59.71454463362724
 31
0.0
 12
-69.62249027081725
 22
59.29387047632393
 32
0.0
 13
-68.36046779890714
 23
59.29387047632393
 33
0.0
  0
SOLID
  5
3BA
330
2FF
100
AcDbEntity
  8
RAHM2
100
AcDbTrace
 10
-69.62249027081725
 20
59.29387047632393
 30
0.0
 11
-68.36046779890714
 21
59.29387047632393
 31
0.0
 12
-69.62249027081725
 22
59.15364575722271
 32
0.0
 13
-68.36046779890714
 23
59.15364575722271
 33
0.0
  0
SOLID
  5
3BB
330
2FF
100
AcDbEntity
  8
RAHM2
100
AcDbTrace
 10
-69.62249027081725
 20
59.15364575722271
 30
0.0
 11
-68.22024307980609
 21
59.15364575722271
 31
0.0
 12
-69.62249027081725
 22
59.01342103812166
 32
0.0
 13
-68.22024307980609
 23
59.01342103812166
 33
0.0
  0
SOLID
  5
3BC
330
2FF
100
AcDbEntity
  8
RAHM2
100
AcDbTrace
 10
-69.48226555171621
 20
59.01342103812166
 30
0.0
 11
-68.08001836070506
 21
59.01342103812166
 31
0.0
 12
-69.48226555171621
 22
58.87319631902044
 32
0.0
 13
-68.08001836070506
 23
58.87319631902044
 33
0.0
  0
SOLID
  5
3BD
330
2FF
100
AcDbEntity
  8
RAHM2
100
AcDbTrace
 10
-69.48226555171621
 20
58.87319631902044
 30
0.0
 11
-67.93979364160382
 21
58.87319631902044
 31
0.0
 12
-69.48226555171621
 22
58.73297159991939
 32
0.0
 13
-67.93979364160382
 23
58.73297159991939
 33
0.0
  0
SOLID
  5
3BE
330
2FF
100
AcDbEntity
  8
RAHM2
100
AcDbTrace
 10
-69.34204083261517
 20
58.73297159991939
 30
0.0
 11
-67.37889476519929
 21
58.73297159991939
 31
0.0
 12
-69.34204083261517
 22
58.59274688081836
 32
0.0
 13
-67.37889476519929
 23
58.59274688081836
 33
0.0
  0
SOLID
  5
3BF
330
2FF
100
AcDbEntity
  8
RAHM2
100
AcDbTrace
 10
-52.09440038317687
 20
60.55589294823405
 30
0.0
 11
-51.67372622587357
 21
60.55589294823405
 31
0.0
 12
-52.09440038317687
 22
60.41566822913281
 32
0.0
 13
-51.67372622587357
 23
60.41566822913281
 33
0.0
  0
SOLID
  5
3C0
330
2FF
100
AcDbEntity
  8
RAHM2
100
AcDbTrace
 10
-52.23462510227792
 20
60.41566822913281
 30
0.0
 11
-51.8139509449746
 21
60.41566822913281
 31
0.0
 12
-52.23462510227792
 22
60.13521879093055
 32
0.0
 13
-51.8139509449746
 23
60.13521879093055
 33
0.0
  0
SOLID
  5
3C1
330
2FF
100
AcDbEntity
  8
RAHM2
100
AcDbTrace
 10
-52.37484982137914
 20
60.13521879093055
 30
0.0
 11
-51.95417566407583
 21
60.13521879093055
 31
0.0
 12
-52.37484982137914
 22
59.99499407182951
 32
0.0
 13
-51.95417566407583
 23
59.99499407182951
 33
0.0
  0
SOLID
  5
3C2
330
2FF
100
AcDbEntity
  8
RAHM2
100
AcDbTrace
 10
-52.37484982137914
 20
59.99499407182951
 30
0.0
 11
-51.8139509449746
 21
59.99499407182951
 31
0.0
 12
-52.37484982137914
 22
59.85476935272828
 32
0.0
 13
-51.8139509449746
 23
59.85476935272828
 33
0.0
  0
SOLID
  5
3C3
330
2FF
100
AcDbEntity
  8
RAHM2
100
AcDbTrace
 10
-52.23462510227792
 20
59.85476935272828
 30
0.0
 11
-51.67372622587357
 21
59.85476935272828
 31
0.0
 12
-52.23462510227792
 22
59.71454463362724
 32
0.0
 13
-51.67372622587357
 23
59.71454463362724
 33
0.0
  0
SOLID
  5
3C4
330
2FF
100
AcDbEntity
  8
RAHM2
100
AcDbTrace
 10
-52.23462510227792
 20
59.71454463362724
 30
0.0
 11
-51.53350150677233
 21
59.71454463362724
 31
0.0
 12
-52.23462510227792
 22
59.5743199145262
 32
0.0
 13
-51.53350150677233
 23
59.5743199145262
 33
0.0
  0
SOLID
  5
3C5
330
2FF
100
AcDbEntity
  8
RAHM2
100
AcDbTrace
 10
-52.23462510227792
 20
59.5743199145262
 30
0.0
 11
-51.3932767876713
 21
59.5743199145262
 31
0.0
 12
-52.23462510227792
 22
59.43409519542497
 32
0.0
 13
-51.3932767876713
 23
59.43409519542497
 33
0.0
  0
SOLID
  5
3C6
330
2FF
100
AcDbEntity
  8
RAHM2
100
AcDbTrace
 10
-52.09440038317687
 20
59.43409519542497
 30
0.0
 11
-51.3932767876713
 21
59.43409519542497
 31
0.0
 12
-52.09440038317687
 22
59.29387047632393
 32
0.0
 13
-51.3932767876713
 23
59.29387047632393
 33
0.0
  0
SOLID
  5
3C7
330
2FF
100
AcDbEntity
  8
RAHM2
100
AcDbTrace
 10
-52.65529925958141
 20
57.75139856621155
 30
0.0
 11
-51.67372622587357
 21
57.75139856621155
 31
0.0
 12
-52.65529925958141
 22
57.61117384711032
 32
0.0
 13
-51.67372622587357
 23
57.61117384711032
 33
0.0
  0
SOLID
  5
3C8
330
2FF
100
AcDbEntity
  8
RAHM2
100
AcDbTrace
 10
-59.80675993373861
 20
59.99499407182951
 30
0.0
 11
-59.38608577643529
 21
59.99499407182951
 31
0.0
 12
-59.80675993373861
 22
59.85476935272828
 32
0.0
 13
-59.38608577643529
 23
59.85476935272828
 33
0.0
  0
SOLID
  5
3C9
330
2FF
100
AcDbEntity
  8
RAHM2
100
AcDbTrace
 10
-59.80675993373861
 20
59.85476935272828
 30
0.0
 11
-59.66653521463756
 21
59.85476935272828
 31
0.0
 12
-59.80675993373861
 22
59.71454463362724
 32
0.0
 13
-59.66653521463756
 23
59.71454463362724
 33
0.0
  0
SOLID
  5
3CA
330
2FF
100
AcDbEntity
  8
RAHM2
100
AcDbTrace
 10
-59.80675993373861
 20
58.17207272351486
 30
0.0
 11
-59.10563633823302
 21
58.17207272351486
 31
0.0
 12
-59.80675993373861
 22
58.03184800441382
 32
0.0
 13
-59.10563633823302
 23
58.03184800441382
 33
0.0
  0
SOLID
  5
3CB
330
2FF
100
AcDbEntity
  8
RAHM2
100
AcDbTrace
 10
-59.80675993373861
 20
58.03184800441382
 30
0.0
 11
-59.24586105733425
 21
58.03184800441382
 31
0.0
 12
-59.80675993373861
 22
57.89162328531259
 32
0.0
 13
-59.24586105733425
 23
57.89162328531259
 33
0.0
  0
SOLID
  5
3CC
330
2FF
100
AcDbEntity
  8
RAHM2
100
AcDbTrace
 10
-59.80675993373861
 20
57.89162328531259
 30
0.0
 11
-58.26428802362641
 21
57.89162328531259
 31
0.0
 12
-59.80675993373861
 22
57.75139856621155
 32
0.0
 13
-58.26428802362641
 23
57.75139856621155
 33
0.0
  0
SOLID
  5
3CD
330
2FF
100
AcDbEntity
  8
RAHM2
100
AcDbTrace
 10
-59.80675993373861
 20
57.75139856621155
 30
0.0
 11
-58.68496218092971
 21
57.75139856621155
 31
0.0
 12
-59.80675993373861
 22
57.61117384711032
 32
0.0
 13
-58.68496218092971
 23
57.61117384711032
 33
0.0
  0
SOLID
  5
3CE
330
2FF
100
AcDbEntity
  8
RAHM2
100
AcDbTrace
 10
-59.80675993373861
 20
57.61117384711032
 30
0.0
 11
-59.24586105733425
 21
57.61117384711032
 31
0.0
 12
-59.80675993373861
 22
57.47094912800928
 32
0.0
 13
-59.24586105733425
 23
57.47094912800928
 33
0.0
  0
SOLID
  5
3CF
330
2FF
100
AcDbEntity
  8
RAHM2
100
AcDbTrace
 10
-59.94698465283983
 20
57.47094912800928
 30
0.0
 11
-59.24586105733425
 21
57.47094912800928
 31
0.0
 12
-59.94698465283983
 22
57.19049968980701
 32
0.0
 13
-59.24586105733425
 23
57.19049968980701
 33
0.0
  0
SOLID
  5
3D0
330
2FF
100
AcDbEntity
  8
RAHM2
100
AcDbTrace
 10
-59.94698465283983
 20
57.19049968980701
 30
0.0
 11
-59.38608577643529
 21
57.19049968980701
 31
0.0
 12
-59.94698465283983
 22
56.7698255325037
 32
0.0
 13
-59.38608577643529
 23
56.7698255325037
 33
0.0
  0
SOLID
  5
3D1
330
2FF
100
AcDbEntity
  8
RAHM2
100
AcDbTrace
 10
-60.08720937194087
 20
56.7698255325037
 30
0.0
 11
-59.52631049553652
 21
56.7698255325037
 31
0.0
 12
-60.08720937194087
 22
56.62960081340248
 32
0.0
 13
-59.52631049553652
 23
56.62960081340248
 33
0.0
  0
SOLID
  5
3D2
330
2FF
100
AcDbEntity
  8
RAHM2
100
AcDbTrace
 10
-60.08720937194087
 20
56.62960081340248
 30
0.0
 11
-59.52631049553652
 21
56.62960081340248
 31
0.0
 12
-60.08720937194087
 22
56.34915137520021
 32
0.0
 13
-59.52631049553652
 23
56.34915137520021
 33
0.0
  0
SOLID
  5
3D3
330
2FF
100
AcDbEntity
  8
RAHM2
100
AcDbTrace
 10
-60.08720937194087
 20
56.34915137520021
 30
0.0
 11
-59.38608577643529
 21
56.34915137520021
 31
0.0
 12
-60.08720937194087
 22
56.20892665609916
 32
0.0
 13
-59.38608577643529
 23
56.20892665609916
 33
0.0
  0
SOLID
  5
3D4
330
2FF
100
AcDbEntity
  8
RAHM2
100
AcDbTrace
 10
-60.64810824834541
 20
56.20892665609916
 30
0.0
 11
-58.96541161913198
 21
56.20892665609916
 31
0.0
 12
-60.64810824834541
 22
56.06870193699812
 32
0.0
 13
-58.96541161913198
 23
56.06870193699812
 33
0.0
  0
SOLID
  5
3D5
330
2FF
100
AcDbEntity
  8
RAHM2
100
AcDbTrace
 10
-66.81799588879494
 20
61.25701654373962
 30
0.0
 11
-66.2570970123904
 21
61.25701654373962
 31
0.0
 12
-66.81799588879494
 22
61.1167918246384
 32
0.0
 13
-66.2570970123904
 23
61.1167918246384
 33
0.0
  0
SOLID
  5
3D6
330
2FF
100
AcDbEntity
  8
RAHM2
100
AcDbTrace
 10
-63.87327678767121
 20
62.09836485834642
 30
0.0
 11
-63.45260263036791
 21
62.09836485834642
 31
0.0
 12
-63.87327678767121
 22
61.9581401392452
 32
0.0
 13
-63.45260263036791
 23
61.9581401392452
 33
0.0
  0
SOLID
  5
3D7
330
2FF
100
AcDbEntity
  8
RAHM2
100
AcDbTrace
 10
-64.57440038317698
 20
61.9581401392452
 30
0.0
 11
-62.75147903486232
 21
61.9581401392452
 31
0.0
 12
-64.57440038317698
 22
61.81791542014416
 32
0.0
 13
-62.75147903486232
 23
61.81791542014416
 33
0.0
  0
SOLID
  5
3D8
330
2FF
100
AcDbEntity
  8
RAHM2
100
AcDbTrace
 10
-64.85484982137906
 20
61.81791542014416
 30
0.0
 11
-62.47102959666006
 21
61.81791542014416
 31
0.0
 12
-64.85484982137906
 22
61.67769070104293
 32
0.0
 13
-62.47102959666006
 23
61.67769070104293
 33
0.0
  0
SOLID
  5
3D9
330
2FF
100
AcDbEntity
  8
RAHM2
100
AcDbTrace
 10
-64.99507454048028
 20
61.67769070104293
 30
0.0
 11
-62.33080487755883
 21
61.67769070104293
 31
0.0
 12
-64.99507454048028
 22
61.53746598194189
 32
0.0
 13
-62.33080487755883
 23
61.53746598194189
 33
0.0
  0
SOLID
  5
3DA
330
2FF
100
AcDbEntity
  8
RAHM2
100
AcDbTrace
 10
-65.4157486977836
 20
61.25701654373962
 30
0.0
 11
-63.73305206857017
 21
61.25701654373962
 31
0.0
 12
-65.4157486977836
 22
61.1167918246384
 32
0.0
 13
-63.73305206857017
 23
61.1167918246384
 33
0.0
  0
SOLID
  5
3DB
330
2FF
100
AcDbEntity
  8
RAHM2
100
AcDbTrace
 10
-63.59282734946894
 20
61.25701654373962
 30
0.0
 11
-61.91013072025552
 21
61.25701654373962
 31
0.0
 12
-63.59282734946894
 22
61.1167918246384
 32
0.0
 13
-61.91013072025552
 23
61.1167918246384
 33
0.0
  0
SOLID
  5
3DC
330
2FF
100
AcDbEntity
  8
RAHM2
100
AcDbTrace
 10
-65.55597341688482
 20
61.1167918246384
 30
0.0
 11
-64.01350150677244
 21
61.1167918246384
 31
0.0
 12
-65.55597341688482
 22
60.97656710553735
 32
0.0
 13
-64.01350150677244
 23
60.97656710553735
 33
0.0
  0
SOLID
  5
3DD
330
2FF
100
AcDbEntity
  8
RAHM2
100
AcDbTrace
 10
-65.55597341688482
 20
60.97656710553735
 30
0.0
 11
-64.15372622587348
 21
60.97656710553735
 31
0.0
 12
-65.55597341688482
 22
60.83634238643631
 32
0.0
 13
-64.15372622587348
 23
60.83634238643631
 33
0.0
  0
SOLID
  5
3DE
330
2FF
100
AcDbEntity
  8
RAHM2
100
AcDbTrace
 10
-63.17215319216564
 20
61.1167918246384
 30
0.0
 11
-61.76990600115448
 21
61.1167918246384
 31
0.0
 12
-63.17215319216564
 22
60.97656710553735
 32
0.0
 13
-61.76990600115448
 23
60.97656710553735
 33
0.0
  0
SOLID
  5
3DF
330
2FF
100
AcDbEntity
  8
RAHM2
100
AcDbTrace
 10
-63.03192847306459
 20
60.97656710553735
 30
0.0
 11
-61.76990600115448
 21
60.97656710553735
 31
0.0
 12
-63.03192847306459
 22
60.83634238643631
 32
0.0
 13
-61.76990600115448
 23
60.83634238643631
 33
0.0
  0
SOLID
  5
3E0
330
2FF
100
AcDbEntity
  8
RAHM2
100
AcDbTrace
 10
-65.69619813598587
 20
60.83634238643631
 30
0.0
 11
-64.29395094497471
 21
60.83634238643631
 31
0.0
 12
-65.69619813598587
 22
60.13521879093055
 32
0.0
 13
-64.29395094497471
 23
60.13521879093055
 33
0.0
  0
SOLID
  5
3E1
330
2FF
100
AcDbEntity
  8
RAHM2
100
AcDbTrace
 10
-65.83642285508691
 20
60.13521879093055
 30
0.0
 11
-64.43417566407575
 21
60.13521879093055
 31
0.0
 12
-65.83642285508691
 22
59.99499407182951
 32
0.0
 13
-64.43417566407575
 23
59.99499407182951
 33
0.0
  0
SOLID
  5
3E2
330
2FF
100
AcDbEntity
  8
RAHM2
100
AcDbTrace
 10
-63.03192847306459
 20
60.83634238643631
 30
0.0
 11
-61.62968128205325
 21
60.83634238643631
 31
0.0
 12
-63.03192847306459
 22
60.41566822913281
 32
0.0
 13
-61.62968128205325
 23
60.41566822913281
 33
0.0
  0
SOLID
  5
3E3
330
2FF
100
AcDbEntity
  8
RAHM2
100
AcDbTrace
 10
-62.89170375396337
 20
60.41566822913281
 30
0.0
 11
-61.48945656295222
 21
60.41566822913281
 31
0.0
 12
-62.89170375396337
 22
59.99499407182951
 32
0.0
 13
-61.48945656295222
 23
59.99499407182951
 33
0.0
  0
SOLID
  5
3E4
330
2FF
100
AcDbEntity
  8
RAHM2
100
AcDbTrace
 10
-65.83642285508691
 20
59.99499407182951
 30
0.0
 11
-64.43417566407575
 21
59.99499407182951
 31
0.0
 12
-65.83642285508691
 22
59.71454463362724
 32
0.0
 13
-64.43417566407575
 23
59.71454463362724
 33
0.0
  0
SOLID
  5
3E5
330
2FF
100
AcDbEntity
  8
RAHM2
100
AcDbTrace
 10
-65.69619813598587
 20
59.71454463362724
 30
0.0
 11
-64.29395094497471
 21
59.71454463362724
 31
0.0
 12
-65.69619813598587
 22
59.01342103812166
 32
0.0
 13
-64.29395094497471
 23
59.01342103812166
 33
0.0
  0
SOLID
  5
3E6
330
2FF
100
AcDbEntity
  8
RAHM2
100
AcDbTrace
 10
-62.89170375396337
 20
59.99499407182951
 30
0.0
 11
-61.48945656295222
 21
59.99499407182951
 31
0.0
 12
-62.89170375396337
 22
59.29387047632393
 32
0.0
 13
-61.48945656295222
 23
59.29387047632393
 33
0.0
  0
SOLID
  5
3E7
330
2FF
100
AcDbEntity
  8
RAHM2
100
AcDbTrace
 10
-63.03192847306459
 20
59.29387047632393
 30
0.0
 11
-61.62968128205325
 21
59.29387047632393
 31
0.0
 12
-63.03192847306459
 22
59.01342103812166
 32
0.0
 13
-61.62968128205325
 23
59.01342103812166
 33
0.0
  0
SOLID
  5
3E8
330
2FF
100
AcDbEntity
  8
RAHM2
100
AcDbTrace
 10
-65.69619813598587
 20
59.01342103812166
 30
0.0
 11
-64.29395094497471
 21
59.01342103812166
 31
0.0
 12
-65.69619813598587
 22
58.87319631902044
 32
0.0
 13
-64.29395094497471
 23
58.87319631902044
 33
0.0
  0
SOLID
  5
3E9
330
2FF
100
AcDbEntity
  8
RAHM2
100
AcDbTrace
 10
-63.03192847306459
 20
59.01342103812166
 30
0.0
 11
-61.62968128205325
 21
59.01342103812166
 31
0.0
 12
-63.03192847306459
 22
58.87319631902044
 32
0.0
 13
-61.62968128205325
 23
58.87319631902044
 33
0.0
  0
SOLID
  5
3EA
330
2FF
100
AcDbEntity
  8
RAHM2
100
AcDbTrace
 10
-65.55597341688482
 20
58.87319631902044
 30
0.0
 11
-64.15372622587348
 21
58.87319631902044
 31
0.0
 12
-65.55597341688482
 22
58.73297159991939
 32
0.0
 13
-64.15372622587348
 23
58.73297159991939
 33
0.0
  0
SOLID
  5
3EB
330
2FF
100
AcDbEntity
  8
RAHM2
100
AcDbTrace
 10
-65.4157486977836
 20
58.73297159991939
 30
0.0
 11
-64.01350150677244
 21
58.73297159991939
 31
0.0
 12
-65.4157486977836
 22
58.59274688081836
 32
0.0
 13
-64.01350150677244
 23
58.59274688081836
 33
0.0
  0
SOLID
  5
3EC
330
2FF
100
AcDbEntity
  8
RAHM2
100
AcDbTrace
 10
-63.17215319216564
 20
58.87319631902044
 30
0.0
 11
-61.76990600115448
 21
58.87319631902044
 31
0.0
 12
-63.17215319216564
 22
58.73297159991939
 32
0.0
 13
-61.76990600115448
 23
58.73297159991939
 33
0.0
  0
SOLID
  5
3ED
330
2FF
100
AcDbEntity
  8
RAHM2
100
AcDbTrace
 10
-63.31237791126686
 20
58.73297159991939
 30
0.0
 11
-61.76990600115448
 21
58.73297159991939
 31
0.0
 12
-63.31237791126686
 22
58.59274688081836
 32
0.0
 13
-61.76990600115448
 23
58.59274688081836
 33
0.0
  0
SOLID
  5
3EE
330
2FF
100
AcDbEntity
  8
RAHM2
100
AcDbTrace
 10
-65.4157486977836
 20
58.59274688081836
 30
0.0
 11
-61.91013072025552
 21
58.59274688081836
 31
0.0
 12
-65.4157486977836
 22
58.45252216171712
 32
0.0
 13
-61.91013072025552
 23
58.45252216171712
 33
0.0
  0
SOLID
  5
3EF
330
2FF
100
AcDbEntity
  8
RAHM2
100
AcDbTrace
 10
-65.27552397868255
 20
58.45252216171712
 30
0.0
 11
-62.05035543935675
 21
58.45252216171712
 31
0.0
 12
-65.27552397868255
 22
58.31229744261609
 32
0.0
 13
-62.05035543935675
 23
58.31229744261609
 33
0.0
  0
SOLID
  5
3F0
330
2FF
100
AcDbEntity
  8
RAHM2
100
AcDbTrace
 10
-65.27552397868255
 20
58.31229744261609
 30
0.0
 11
-62.05035543935675
 21
58.31229744261609
 31
0.0
 12
-65.27552397868255
 22
58.17207272351486
 32
0.0
 13
-62.05035543935675
 23
58.17207272351486
 33
0.0
  0
SOLID
  5
3F1
330
2FF
100
AcDbEntity
  8
RAHM2
100
AcDbTrace
 10
-64.99507454048028
 20
58.17207272351486
 30
0.0
 11
-62.33080487755883
 21
58.17207272351486
 31
0.0
 12
-64.99507454048028
 22
58.03184800441382
 32
0.0
 13
-62.33080487755883
 23
58.03184800441382
 33
0.0
  0
SOLID
  5
3F2
330
2FF
100
AcDbEntity
  8
RAHM2
100
AcDbTrace
 10
-64.85484982137906
 20
58.03184800441382
 30
0.0
 11
-62.47102959666006
 21
58.03184800441382
 31
0.0
 12
-64.85484982137906
 22
57.89162328531259
 32
0.0
 13
-62.47102959666006
 23
57.89162328531259
 33
0.0
  0
SOLID
  5
3F3
330
2FF
100
AcDbEntity
  8
RAHM2
100
AcDbTrace
 10
-64.71462510227802
 20
57.89162328531259
 30
0.0
 11
-62.6112543157611
 21
57.89162328531259
 31
0.0
 12
-64.71462510227802
 22
57.75139856621155
 32
0.0
 13
-62.6112543157611
 23
57.75139856621155
 33
0.0
  0
SOLID
  5
3F4
330
2FF
100
AcDbEntity
  8
RAHM2
100
AcDbTrace
 10
-64.15372622587348
 20
57.75139856621155
 30
0.0
 11
-63.17215319216564
 21
57.75139856621155
 31
0.0
 12
-64.15372622587348
 22
57.61117384711032
 32
0.0
 13
-63.17215319216564
 23
57.61117384711032
 33
0.0
  0
SOLID
  5
3F5
330
2FF
100
AcDbEntity
  8
RAHM2
100
AcDbTrace
 10
-58.82518690003076
 20
61.1167918246384
 30
0.0
 11
-58.54473746182849
 21
61.1167918246384
 31
0.0
 12
-58.82518690003076
 22
60.97656710553735
 32
0.0
 13
-58.54473746182849
 23
60.97656710553735
 33
0.0
  0
SOLID
  5
3F6
330
2FF
100
AcDbEntity
  8
RAHM2
100
AcDbTrace
 10
-59.10563633823302
 20
60.97656710553735
 30
0.0
 11
-58.54473746182849
 21
60.97656710553735
 31
0.0
 12
-59.10563633823302
 22
60.83634238643631
 32
0.0
 13
-58.54473746182849
 23
60.83634238643631
 33
0.0
  0
SOLID
  5
3F7
330
2FF
100
AcDbEntity
  8
RAHM2
100
AcDbTrace
 10
-59.10563633823302
 20
60.83634238643631
 30
0.0
 11
-58.54473746182849
 21
60.83634238643631
 31
0.0
 12
-59.10563633823302
 22
60.69611766733508
 32
0.0
 13
-58.54473746182849
 23
60.69611766733508
 33
0.0
  0
SOLID
  5
3F8
330
2FF
100
AcDbEntity
  8
RAHM2
100
AcDbTrace
 10
-57.70338914722187
 20
60.83634238643631
 30
0.0
 11
-57.4229397090196
 21
60.83634238643631
 31
0.0
 12
-57.70338914722187
 22
60.69611766733508
 32
0.0
 13
-57.4229397090196
 23
60.69611766733508
 33
0.0
  0
SOLID
  5
3F9
330
2FF
100
AcDbEntity
  8
RAHM2
100
AcDbTrace
 10
-59.10563633823302
 20
60.69611766733508
 30
0.0
 11
-58.54473746182849
 21
60.69611766733508
 31
0.0
 12
-59.10563633823302
 22
60.55589294823405
 32
0.0
 13
-58.54473746182849
 23
60.55589294823405
 33
0.0
  0
SOLID
  5
3FA
330
2FF
100
AcDbEntity
  8
RAHM2
100
AcDbTrace
 10
-58.26428802362641
 20
60.69611766733508
 30
0.0
 11
-57.14249027081733
 21
60.69611766733508
 31
0.0
 12
-58.26428802362641
 22
60.55589294823405
 32
0.0
 13
-57.14249027081733
 23
60.55589294823405
 33
0.0
  0
SOLID
  5
3FB
330
2FF
100
AcDbEntity
  8
RAHM2
100
AcDbTrace
 10
-59.10563633823302
 20
60.55589294823405
 30
0.0
 11
-58.68496218092971
 21
60.55589294823405
 31
0.0
 12
-59.10563633823302
 22
60.41566822913281
 32
0.0
 13
-58.68496218092971
 23
60.41566822913281
 33
0.0
  0
SOLID
  5
3FC
330
2FF
100
AcDbEntity
  8
RAHM2
100
AcDbTrace
 10
-58.54473746182849
 20
60.55589294823405
 30
0.0
 11
-57.98383858542414
 21
60.55589294823405
 31
0.0
 12
-58.54473746182849
 22
60.41566822913281
 32
0.0
 13
-57.98383858542414
 23
60.41566822913281
 33
0.0
  0
SOLID
  5
3FD
330
2FF
100
AcDbEntity
  8
RAHM2
100
AcDbTrace
 10
-57.84361386632291
 20
60.55589294823405
 30
0.0
 11
-57.00226555171629
 21
60.55589294823405
 31
0.0
 12
-57.84361386632291
 22
60.41566822913281
 32
0.0
 13
-57.00226555171629
 23
60.41566822913281
 33
0.0
  0
SOLID
  5
3FE
330
2FF
100
AcDbEntity
  8
RAHM2
100
AcDbTrace
 10
-59.10563633823302
 20
60.41566822913281
 30
0.0
 11
-58.40451274272744
 21
60.41566822913281
 31
0.0
 12
-59.10563633823302
 22
60.27544351003178
 32
0.0
 13
-58.40451274272744
 23
60.27544351003178
 33
0.0
  0
SOLID
  5
3FF
330
2FF
100
AcDbEntity
  8
RAHM2
100
AcDbTrace
 10
-57.70338914722187
 20
60.41566822913281
 30
0.0
 11
-57.00226555171629
 21
60.41566822913281
 31
0.0
 12
-57.70338914722187
 22
60.27544351003178
 32
0.0
 13
-57.00226555171629
 23
60.27544351003178
 33
0.0
  0
SOLID
  5
400
330
2FF
100
AcDbEntity
  8
RAHM2
100
AcDbTrace
 10
-59.24586105733425
 20
60.27544351003178
 30
0.0
 11
-58.68496218092971
 21
60.27544351003178
 31
0.0
 12
-59.24586105733425
 22
60.13521879093055
 32
0.0
 13
-58.68496218092971
 23
60.13521879093055
 33
0.0
  0
SOLID
  5
401
330
2FF
100
AcDbEntity
  8
RAHM2
100
AcDbTrace
 10
-57.56316442812064
 20
60.27544351003178
 30
0.0
 11
-57.00226555171629
 21
60.27544351003178
 31
0.0
 12
-57.56316442812064
 22
60.13521879093055
 32
0.0
 13
-57.00226555171629
 23
60.13521879093055
 33
0.0
  0
SOLID
  5
402
330
2FF
100
AcDbEntity
  8
RAHM2
100
AcDbTrace
 10
-59.38608577643529
 20
60.13521879093055
 30
0.0
 11
-58.68496218092971
 21
60.13521879093055
 31
0.0
 12
-59.38608577643529
 22
59.99499407182951
 32
0.0
 13
-58.68496218092971
 23
59.99499407182951
 33
0.0
  0
SOLID
  5
403
330
2FF
100
AcDbEntity
  8
RAHM2
100
AcDbTrace
 10
-57.56316442812064
 20
60.13521879093055
 30
0.0
 11
-57.00226555171629
 21
60.13521879093055
 31
0.0
 12
-57.56316442812064
 22
59.99499407182951
 32
0.0
 13
-57.00226555171629
 23
59.99499407182951
 33
0.0
  0
SOLID
  5
404
330
2FF
100
AcDbEntity
  8
RAHM2
100
AcDbTrace
 10
-59.38608577643529
 20
59.99499407182951
 30
0.0
 11
-58.68496218092971
 21
59.99499407182951
 31
0.0
 12
-59.38608577643529
 22
59.85476935272828
 32
0.0
 13
-58.68496218092971
 23
59.85476935272828
 33
0.0
  0
SOLID
  5
405
330
2FF
100
AcDbEntity
  8
RAHM2
100
AcDbTrace
 10
-59.38608577643529
 20
59.85476935272828
 30
0.0
 11
-58.82518690003076
 21
59.85476935272828
 31
0.0
 12
-59.38608577643529
 22
59.71454463362724
 32
0.0
 13
-58.82518690003076
 23
59.71454463362724
 33
0.0
  0
SOLID
  5
406
330
2FF
100
AcDbEntity
  8
RAHM2
100
AcDbTrace
 10
-57.56316442812064
 20
59.99499407182951
 30
0.0
 11
-57.00226555171629
 21
59.99499407182951
 31
0.0
 12
-57.56316442812064
 22
59.71454463362724
 32
0.0
 13
-57.00226555171629
 23
59.71454463362724
 33
0.0
  0
SOLID
  5
407
330
2FF
100
AcDbEntity
  8
RAHM2
100
AcDbTrace
 10
-59.38608577643529
 20
59.71454463362724
 30
0.0
 11
-58.82518690003076
 21
59.71454463362724
 31
0.0
 12
-59.38608577643529
 22
59.43409519542497
 32
0.0
 13
-58.82518690003076
 23
59.43409519542497
 33
0.0
  0
SOLID
  5
408
330
2FF
100
AcDbEntity
  8
RAHM2
100
AcDbTrace
 10
-59.52631049553652
 20
59.43409519542497
 30
0.0
 11
-58.82518690003076
 21
59.43409519542497
 31
0.0
 12
-59.52631049553652
 22
59.15364575722271
 32
0.0
 13
-58.82518690003076
 23
59.15364575722271
 33
0.0
  0
SOLID
  5
409
330
2FF
100
AcDbEntity
  8
RAHM2
100
AcDbTrace
 10
-57.56316442812064
 20
59.71454463362724
 30
0.0
 11
-57.00226555171629
 21
59.71454463362724
 31
0.0
 12
-57.56316442812064
 22
59.43409519542497
 32
0.0
 13
-57.00226555171629
 23
59.43409519542497
 33
0.0
  0
SOLID
  5
40A
330
2FF
100
AcDbEntity
  8
RAHM2
100
AcDbTrace
 10
-57.56316442812064
 20
59.43409519542497
 30
0.0
 11
-57.14249027081733
 21
59.43409519542497
 31
0.0
 12
-57.56316442812064
 22
59.29387047632393
 32
0.0
 13
-57.14249027081733
 23
59.29387047632393
 33
0.0
  0
SOLID
  5
40B
330
2FF
100
AcDbEntity
  8
RAHM2
100
AcDbTrace
 10
-57.70338914722187
 20
59.29387047632393
 30
0.0
 11
-57.14249027081733
 21
59.29387047632393
 31
0.0
 12
-57.70338914722187
 22
59.15364575722271
 32
0.0
 13
-57.14249027081733
 23
59.15364575722271
 33
0.0
  0
SOLID
  5
40C
330
2FF
100
AcDbEntity
  8
RAHM2
100
AcDbTrace
 10
-59.52631049553652
 20
59.15364575722271
 30
0.0
 11
-58.96541161913198
 21
59.15364575722271
 31
0.0
 12
-59.52631049553652
 22
59.01342103812166
 32
0.0
 13
-58.96541161913198
 23
59.01342103812166
 33
0.0
  0
SOLID
  5
40D
330
2FF
100
AcDbEntity
  8
RAHM2
100
AcDbTrace
 10
-57.70338914722187
 20
59.15364575722271
 30
0.0
 11
-57.14249027081733
 21
59.15364575722271
 31
0.0
 12
-57.70338914722187
 22
59.01342103812166
 32
0.0
 13
-57.14249027081733
 23
59.01342103812166
 33
0.0
  0
SOLID
  5
40E
330
2FF
100
AcDbEntity
  8
RAHM2
100
AcDbTrace
 10
-59.52631049553652
 20
59.01342103812166
 30
0.0
 11
-58.96541161913198
 21
59.01342103812166
 31
0.0
 12
-59.52631049553652
 22
58.73297159991939
 32
0.0
 13
-58.96541161913198
 23
58.73297159991939
 33
0.0
  0
SOLID
  5
40F
330
2FF
100
AcDbEntity
  8
RAHM2
100
AcDbTrace
 10
-59.66653521463756
 20
58.73297159991939
 30
0.0
 11
-58.96541161913198
 21
58.73297159991939
 31
0.0
 12
-59.66653521463756
 22
58.59274688081836
 32
0.0
 13
-58.96541161913198
 23
58.59274688081836
 33
0.0
  0
SOLID
  5
410
330
2FF
100
AcDbEntity
  8
RAHM2
100
AcDbTrace
 10
-59.66653521463756
 20
58.59274688081836
 30
0.0
 11
-59.10563633823302
 21
58.59274688081836
 31
0.0
 12
-59.66653521463756
 22
58.45252216171712
 32
0.0
 13
-59.10563633823302
 23
58.45252216171712
 33
0.0
  0
SOLID
  5
411
330
2FF
100
AcDbEntity
  8
RAHM2
100
AcDbTrace
 10
-57.70338914722187
 20
59.01342103812166
 30
0.0
 11
-57.14249027081733
 21
59.01342103812166
 31
0.0
 12
-57.70338914722187
 22
58.87319631902044
 32
0.0
 13
-57.14249027081733
 23
58.87319631902044
 33
0.0
  0
SOLID
  5
412
330
2FF
100
AcDbEntity
  8
RAHM2
100
AcDbTrace
 10
-57.84361386632291
 20
58.87319631902044
 30
0.0
 11
-57.28271498991837
 21
58.87319631902044
 31
0.0
 12
-57.84361386632291
 22
58.73297159991939
 32
0.0
 13
-57.28271498991837
 23
58.73297159991939
 33
0.0
  0
SOLID
  5
413
330
2FF
100
AcDbEntity
  8
RAHM2
100
AcDbTrace
 10
-57.84361386632291
 20
58.73297159991939
 30
0.0
 11
-57.4229397090196
 21
58.73297159991939
 31
0.0
 12
-57.84361386632291
 22
58.59274688081836
 32
0.0
 13
-57.4229397090196
 23
58.59274688081836
 33
0.0
  0
SOLID
  5
414
330
2FF
100
AcDbEntity
  8
RAHM2
100
AcDbTrace
 10
-57.98383858542414
 20
58.59274688081836
 30
0.0
 11
-57.4229397090196
 21
58.59274688081836
 31
0.0
 12
-57.98383858542414
 22
58.45252216171712
 32
0.0
 13
-57.4229397090196
 23
58.45252216171712
 33
0.0
  0
SOLID
  5
415
330
2FF
100
AcDbEntity
  8
RAHM2
100
AcDbTrace
 10
-59.66653521463756
 20
58.45252216171712
 30
0.0
 11
-59.10563633823302
 21
58.45252216171712
 31
0.0
 12
-59.66653521463756
 22
58.17207272351486
 32
0.0
 13
-59.10563633823302
 23
58.17207272351486
 33
0.0
  0
SOLID
  5
416
330
2FF
100
AcDbEntity
  8
RAHM2
100
AcDbTrace
 10
-58.12406330452517
 20
58.45252216171712
 30
0.0
 11
-57.56316442812064
 21
58.45252216171712
 31
0.0
 12
-58.12406330452517
 22
58.31229744261609
 32
0.0
 13
-57.56316442812064
 23
58.31229744261609
 33
0.0
  0
SOLID
  5
417
330
2FF
100
AcDbEntity
  8
RAHM2
100
AcDbTrace
 10
-58.26428802362641
 20
58.31229744261609
 30
0.0
 11
-57.70338914722187
 21
58.31229744261609
 31
0.0
 12
-58.26428802362641
 22
58.17207272351486
 32
0.0
 13
-57.70338914722187
 23
58.17207272351486
 33
0.0
  0
SOLID
  5
418
330
2FF
100
AcDbEntity
  8
RAHM2
100
AcDbTrace
 10
-58.40451274272744
 20
58.17207272351486
 30
0.0
 11
-57.84361386632291
 21
58.17207272351486
 31
0.0
 12
-58.40451274272744
 22
58.03184800441382
 32
0.0
 13
-57.84361386632291
 23
58.03184800441382
 33
0.0
  0
SOLID
  5
419
330
2FF
100
AcDbEntity
  8
RAHM2
100
AcDbTrace
 10
-58.54473746182849
 20
58.03184800441382
 30
0.0
 11
-58.12406330452517
 21
58.03184800441382
 31
0.0
 12
-58.54473746182849
 22
57.89162328531259
 32
0.0
 13
-58.12406330452517
 23
57.89162328531259
 33
0.0
  0
SOLID
  5
41A
330
2FF
100
AcDbEntity
  8
RAHM2
100
AcDbTrace
 10
-54.33799588879484
 20
60.83634238643631
 30
0.0
 11
-53.49664757418803
 21
60.83634238643631
 31
0.0
 12
-54.33799588879484
 22
60.69611766733508
 32
0.0
 13
-53.49664757418803
 23
60.69611766733508
 33
0.0
  0
SOLID
  5
41B
330
2FF
100
AcDbEntity
  8
RAHM2
100
AcDbTrace
 10
-54.89889476519937
 20
60.69611766733508
 30
0.0
 11
-53.49664757418803
 21
60.69611766733508
 31
0.0
 12
-54.89889476519937
 22
60.55589294823405
 32
0.0
 13
-53.49664757418803
 23
60.55589294823405
 33
0.0
  0
SOLID
  5
41C
330
2FF
100
AcDbEntity
  8
RAHM2
100
AcDbTrace
 10
-55.17934420340164
 20
60.55589294823405
 30
0.0
 11
-54.61844532699711
 21
60.55589294823405
 31
0.0
 12
-55.17934420340164
 22
60.41566822913281
 32
0.0
 13
-54.61844532699711
 23
60.41566822913281
 33
0.0
  0
SOLID
  5
41D
330
2FF
100
AcDbEntity
  8
RAHM2
100
AcDbTrace
 10
-55.45979364160391
 20
60.41566822913281
 30
0.0
 11
-55.03911948430041
 21
60.41566822913281
 31
0.0
 12
-55.45979364160391
 22
60.27544351003178
 32
0.0
 13
-55.03911948430041
 23
60.27544351003178
 33
0.0
  0
SOLID
  5
41E
330
2FF
100
AcDbEntity
  8
RAHM2
100
AcDbTrace
 10
-54.05754645059257
 20
60.55589294823405
 30
0.0
 11
-53.49664757418803
 21
60.55589294823405
 31
0.0
 12
-54.05754645059257
 22
60.27544351003178
 32
0.0
 13
-53.49664757418803
 23
60.27544351003178
 33
0.0
  0
SOLID
  5
41F
330
2FF
100
AcDbEntity
  8
RAHM2
100
AcDbTrace
 10
-55.60001836070495
 20
60.27544351003178
 30
0.0
 11
-55.31956892250268
 21
60.27544351003178
 31
0.0
 12
-55.60001836070495
 22
60.13521879093055
 32
0.0
 13
-55.31956892250268
 23
60.13521879093055
 33
0.0
  0
SOLID
  5
420
330
2FF
100
AcDbEntity
  8
RAHM2
100
AcDbTrace
 10
-55.74024307980618
 20
60.13521879093055
 30
0.0
 11
-55.31956892250268
 21
60.13521879093055
 31
0.0
 12
-55.74024307980618
 22
59.99499407182951
 32
0.0
 13
-55.31956892250268
 23
59.99499407182951
 33
0.0
  0
SOLID
  5
421
330
2FF
100
AcDbEntity
  8
RAHM2
100
AcDbTrace
 10
-54.05754645059257
 20
60.27544351003178
 30
0.0
 11
-53.63687229328926
 21
60.27544351003178
 31
0.0
 12
-54.05754645059257
 22
60.13521879093055
 32
0.0
 13
-53.63687229328926
 23
60.13521879093055
 33
0.0
  0
SOLID
  5
422
330
2FF
100
AcDbEntity
  8
RAHM2
100
AcDbTrace
 10
-54.19777116969379
 20
60.13521879093055
 30
0.0
 11
-53.63687229328926
 21
60.13521879093055
 31
0.0
 12
-54.19777116969379
 22
59.99499407182951
 32
0.0
 13
-53.63687229328926
 23
59.99499407182951
 33
0.0
  0
SOLID
  5
423
330
2FF
100
AcDbEntity
  8
RAHM2
100
AcDbTrace
 10
-55.88046779890722
 20
59.99499407182951
 30
0.0
 11
-55.45979364160391
 21
59.99499407182951
 31
0.0
 12
-55.88046779890722
 22
59.85476935272828
 32
0.0
 13
-55.45979364160391
 23
59.85476935272828
 33
0.0
  0
SOLID
  5
424
330
2FF
100
AcDbEntity
  8
RAHM2
100
AcDbTrace
 10
-56.02069251800826
 20
59.85476935272828
 30
0.0
 11
-55.60001836070495
 21
59.85476935272828
 31
0.0
 12
-56.02069251800826
 22
59.71454463362724
 32
0.0
 13
-55.60001836070495
 23
59.71454463362724
 33
0.0
  0
SOLID
  5
425
330
2FF
100
AcDbEntity
  8
RAHM2
100
AcDbTrace
 10
-54.19777116969379
 20
59.99499407182951
 30
0.0
 11
-53.63687229328926
 21
59.99499407182951
 31
0.0
 12
-54.19777116969379
 22
59.71454463362724
 32
0.0
 13
-53.63687229328926
 23
59.71454463362724
 33
0.0
  0
SOLID
  5
426
330
2FF
100
AcDbEntity
  8
RAHM2
100
AcDbTrace
 10
-56.02069251800826
 20
59.71454463362724
 30
0.0
 11
-55.60001836070495
 21
59.71454463362724
 31
0.0
 12
-56.02069251800826
 22
59.5743199145262
 32
0.0
 13
-55.60001836070495
 23
59.5743199145262
 33
0.0
  0
SOLID
  5
427
330
2FF
100
AcDbEntity
  8
RAHM2
100
AcDbTrace
 10
-56.16091723710948
 20
59.5743199145262
 30
0.0
 11
-55.60001836070495
 21
59.5743199145262
 31
0.0
 12
-56.16091723710948
 22
59.43409519542497
 32
0.0
 13
-55.60001836070495
 23
59.43409519542497
 33
0.0
  0
SOLID
  5
428
330
2FF
100
AcDbEntity
  8
RAHM2
100
AcDbTrace
 10
-54.33799588879484
 20
59.71454463362724
 30
0.0
 11
-53.7770970123903
 21
59.71454463362724
 31
0.0
 12
-54.33799588879484
 22
59.43409519542497
 32
0.0
 13
-53.7770970123903
 23
59.43409519542497
 33
0.0
  0
SOLID
  5
429
330
2FF
100
AcDbEntity
  8
RAHM2
100
AcDbTrace
 10
-56.16091723710948
 20
59.43409519542497
 30
0.0
 11
-55.74024307980618
 21
59.43409519542497
 31
0.0
 12
-56.16091723710948
 22
59.29387047632393
 32
0.0
 13
-55.74024307980618
 23
59.29387047632393
 33
0.0
  0
SOLID
  5
42A
330
2FF
100
AcDbEntity
  8
RAHM2
100
AcDbTrace
 10
-56.30114195621053
 20
59.29387047632393
 30
0.0
 11
-55.74024307980618
 21
59.29387047632393
 31
0.0
 12
-56.30114195621053
 22
59.15364575722271
 32
0.0
 13
-55.74024307980618
 23
59.15364575722271
 33
0.0
  0
SOLID
  5
42B
330
2FF
100
AcDbEntity
  8
RAHM2
100
AcDbTrace
 10
-54.47822060789606
 20
59.43409519542497
 30
0.0
 11
-53.7770970123903
 21
59.43409519542497
 31
0.0
 12
-54.47822060789606
 22
59.15364575722271
 32
0.0
 13
-53.7770970123903
 23
59.15364575722271
 33
0.0
  0
SOLID
  5
42C
330
2FF
100
AcDbEntity
  8
RAHM2
100
AcDbTrace
 10
-56.30114195621053
 20
59.15364575722271
 30
0.0
 11
-55.74024307980618
 21
59.15364575722271
 31
0.0
 12
-56.30114195621053
 22
59.01342103812166
 32
0.0
 13
-55.74024307980618
 23
59.01342103812166
 33
0.0
  0
SOLID
  5
42D
330
2FF
100
AcDbEntity
  8
RAHM2
100
AcDbTrace
 10
-54.61844532699711
 20
59.15364575722271
 30
0.0
 11
-53.7770970123903
 21
59.15364575722271
 31
0.0
 12
-54.61844532699711
 22
59.01342103812166
 32
0.0
 13
-53.7770970123903
 23
59.01342103812166
 33
0.0
  0
SOLID
  5
42E
330
2FF
100
AcDbEntity
  8
RAHM2
100
AcDbTrace
 10
-56.30114195621053
 20
59.01342103812166
 30
0.0
 11
-55.74024307980618
 21
59.01342103812166
 31
0.0
 12
-56.30114195621053
 22
58.73297159991939
 32
0.0
 13
-55.74024307980618
 23
58.73297159991939
 33
0.0
  0
SOLID
  5
42F
330
2FF
100
AcDbEntity
  8
RAHM2
100
AcDbTrace
 10
-56.30114195621053
 20
58.73297159991939
 30
0.0
 11
-55.88046779890722
 21
58.73297159991939
 31
0.0
 12
-56.30114195621053
 22
58.59274688081836
 32
0.0
 13
-55.88046779890722
 23
58.59274688081836
 33
0.0
  0
SOLID
  5
430
330
2FF
100
AcDbEntity
  8
RAHM2
100
AcDbTrace
 10
-54.61844532699711
 20
59.01342103812166
 30
0.0
 11
-54.47822060789606
 21
59.01342103812166
 31
0.0
 12
-54.61844532699711
 22
58.87319631902044
 32
0.0
 13
-54.47822060789606
 23
58.87319631902044
 33
0.0
  0
SOLID
  5
431
330
2FF
100
AcDbEntity
  8
RAHM2
100
AcDbTrace
 10
-54.75867004609814
 20
58.87319631902044
 30
0.0
 11
-54.61844532699711
 21
58.87319631902044
 31
0.0
 12
-54.75867004609814
 22
58.73297159991939
 32
0.0
 13
-54.61844532699711
 23
58.73297159991939
 33
0.0
  0
SOLID
  5
432
330
2FF
100
AcDbEntity
  8
RAHM2
100
AcDbTrace
 10
-54.47822060789606
 20
59.01342103812166
 30
0.0
 11
-53.91732173149152
 21
59.01342103812166
 31
0.0
 12
-54.47822060789606
 22
58.59274688081836
 32
0.0
 13
-53.91732173149152
 23
58.59274688081836
 33
0.0
  0
SOLID
  5
433
330
2FF
100
AcDbEntity
  8
RAHM2
100
AcDbTrace
 10
-56.44136667531175
 20
58.59274688081836
 30
0.0
 11
-55.88046779890722
 21
58.59274688081836
 31
0.0
 12
-56.44136667531175
 22
58.31229744261609
 32
0.0
 13
-55.88046779890722
 23
58.31229744261609
 33
0.0
  0
SOLID
  5
434
330
2FF
100
AcDbEntity
  8
RAHM2
100
AcDbTrace
 10
-54.89889476519937
 20
58.59274688081836
 30
0.0
 11
-54.75867004609814
 21
58.59274688081836
 31
0.0
 12
-54.89889476519937
 22
58.45252216171712
 32
0.0
 13
-54.75867004609814
 23
58.45252216171712
 33
0.0
  0
SOLID
  5
435
330
2FF
100
AcDbEntity
  8
RAHM2
100
AcDbTrace
 10
-55.17934420340164
 20
58.45252216171712
 30
0.0
 11
-54.89889476519937
 21
58.45252216171712
 31
0.0
 12
-55.17934420340164
 22
58.31229744261609
 32
0.0
 13
-54.89889476519937
 23
58.31229744261609
 33
0.0
  0
SOLID
  5
436
330
2FF
100
AcDbEntity
  8
RAHM2
100
AcDbTrace
 10
-54.47822060789606
 20
58.59274688081836
 30
0.0
 11
-53.91732173149152
 21
58.59274688081836
 31
0.0
 12
-54.47822060789606
 22
58.45252216171712
 32
0.0
 13
-53.91732173149152
 23
58.45252216171712
 33
0.0
  0
SOLID
  5
437
330
2FF
100
AcDbEntity
  8
RAHM2
100
AcDbTrace
 10
-54.47822060789606
 20
58.45252216171712
 30
0.0
 11
-54.05754645059257
 21
58.45252216171712
 31
0.0
 12
-54.47822060789606
 22
58.31229744261609
 32
0.0
 13
-54.05754645059257
 23
58.31229744261609
 33
0.0
  0
SOLID
  5
438
330
2FF
100
AcDbEntity
  8
RAHM2
100
AcDbTrace
 10
-56.44136667531175
 20
58.31229744261609
 30
0.0
 11
-55.88046779890722
 21
58.31229744261609
 31
0.0
 12
-56.44136667531175
 22
58.17207272351486
 32
0.0
 13
-55.88046779890722
 23
58.17207272351486
 33
0.0
  0
SOLID
  5
439
330
2FF
100
AcDbEntity
  8
RAHM2
100
AcDbTrace
 10
-55.31956892250268
 20
58.31229744261609
 30
0.0
 11
-55.03911948430041
 21
58.31229744261609
 31
0.0
 12
-55.31956892250268
 22
58.17207272351486
 32
0.0
 13
-55.03911948430041
 23
58.17207272351486
 33
0.0
  0
SOLID
  5
43A
330
2FF
100
AcDbEntity
  8
RAHM2
100
AcDbTrace
 10
-54.61844532699711
 20
58.31229744261609
 30
0.0
 11
-54.05754645059257
 21
58.31229744261609
 31
0.0
 12
-54.61844532699711
 22
58.17207272351486
 32
0.0
 13
-54.05754645059257
 23
58.17207272351486
 33
0.0
  0
SOLID
  5
43B
330
2FF
100
AcDbEntity
  8
RAHM2
100
AcDbTrace
 10
-56.44136667531175
 20
58.17207272351486
 30
0.0
 11
-55.74024307980618
 21
58.17207272351486
 31
0.0
 12
-56.44136667531175
 22
58.03184800441382
 32
0.0
 13
-55.74024307980618
 23
58.03184800441382
 33
0.0
  0
SOLID
  5
43C
330
2FF
100
AcDbEntity
  8
RAHM2
100
AcDbTrace
 10
-55.45979364160391
 20
58.17207272351486
 30
0.0
 11
-55.17934420340164
 21
58.17207272351486
 31
0.0
 12
-55.45979364160391
 22
58.03184800441382
 32
0.0
 13
-55.17934420340164
 23
58.03184800441382
 33
0.0
  0
SOLID
  5
43D
330
2FF
100
AcDbEntity
  8
RAHM2
100
AcDbTrace
 10
-54.61844532699711
 20
58.17207272351486
 30
0.0
 11
-54.05754645059257
 21
58.17207272351486
 31
0.0
 12
-54.61844532699711
 22
58.03184800441382
 32
0.0
 13
-54.05754645059257
 23
58.03184800441382
 33
0.0
  0
SOLID
  5
43E
330
2FF
100
AcDbEntity
  8
RAHM2
100
AcDbTrace
 10
-53.91732173149152
 20
58.17207272351486
 30
0.0
 11
-53.49664757418803
 21
58.17207272351486
 31
0.0
 12
-53.91732173149152
 22
58.03184800441382
 32
0.0
 13
-53.49664757418803
 23
58.03184800441382
 33
0.0
  0
SOLID
  5
43F
330
2FF
100
AcDbEntity
  8
RAHM2
100
AcDbTrace
 10
-56.44136667531175
 20
58.03184800441382
 30
0.0
 11
-55.31956892250268
 21
58.03184800441382
 31
0.0
 12
-56.44136667531175
 22
57.89162328531259
 32
0.0
 13
-55.31956892250268
 23
57.89162328531259
 33
0.0
  0
SOLID
  5
440
330
2FF
100
AcDbEntity
  8
RAHM2
100
AcDbTrace
 10
-56.30114195621053
 20
57.89162328531259
 30
0.0
 11
-55.45979364160391
 21
57.89162328531259
 31
0.0
 12
-56.30114195621053
 22
57.75139856621155
 32
0.0
 13
-55.45979364160391
 23
57.75139856621155
 33
0.0
  0
SOLID
  5
441
330
2FF
100
AcDbEntity
  8
RAHM2
100
AcDbTrace
 10
-54.61844532699711
 20
58.03184800441382
 30
0.0
 11
-53.7770970123903
 21
58.03184800441382
 31
0.0
 12
-54.61844532699711
 22
57.89162328531259
 32
0.0
 13
-53.7770970123903
 23
57.89162328531259
 33
0.0
  0
SOLID
  5
442
330
2FF
100
AcDbEntity
  8
RAHM2
100
AcDbTrace
 10
-54.75867004609814
 20
57.89162328531259
 30
0.0
 11
-54.05754645059257
 21
57.89162328531259
 31
0.0
 12
-54.75867004609814
 22
57.75139856621155
 32
0.0
 13
-54.05754645059257
 23
57.75139856621155
 33
0.0
  0
SOLID
  5
443
330
2FF
100
AcDbEntity
  8
RAHM2
100
AcDbTrace
 10
-56.16091723710948
 20
57.75139856621155
 30
0.0
 11
-55.74024307980618
 21
57.75139856621155
 31
0.0
 12
-56.16091723710948
 22
57.61117384711032
 32
0.0
 13
-55.74024307980618
 23
57.61117384711032
 33
0.0
  0
SOLID
  5
444
330
2FF
100
AcDbEntity
  8
RAHM2
100
AcDbTrace
 10
-54.61844532699711
 20
57.75139856621155
 30
0.0
 11
-54.33799588879484
 21
57.75139856621155
 31
0.0
 12
-54.61844532699711
 22
57.61117384711032
 32
0.0
 13
-54.33799588879484
 23
57.61117384711032
 33
0.0
  0
SOLID
  5
445
330
2FF
100
AcDbEntity
  8
RAHM2
100
AcDbTrace
 10
-52.79552397868245
 20
58.45252216171712
 30
0.0
 11
-52.65529925958141
 21
58.45252216171712
 31
0.0
 12
-52.79552397868245
 22
58.31229744261609
 32
0.0
 13
-52.65529925958141
 23
58.31229744261609
 33
0.0
  0
SOLID
  5
446
330
2FF
100
AcDbEntity
  8
RAHM2
100
AcDbTrace
 10
-52.79552397868245
 20
58.31229744261609
 30
0.0
 11
-52.51507454048018
 21
58.31229744261609
 31
0.0
 12
-52.79552397868245
 22
57.89162328531259
 32
0.0
 13
-52.51507454048018
 23
57.89162328531259
 33
0.0
  0
SOLID
  5
447
330
2FF
100
AcDbEntity
  8
RAHM2
100
AcDbTrace
 10
-52.93574869778367
 20
57.89162328531259
 30
0.0
 11
-52.23462510227792
 21
57.89162328531259
 31
0.0
 12
-52.93574869778367
 22
57.75139856621155
 32
0.0
 13
-52.23462510227792
 23
57.75139856621155
 33
0.0
  0
SOLID
  5
448
330
2FF
100
AcDbEntity
  8
RAHM2
100
AcDbTrace
 10
-45.08316442812072
 20
60.83634238643631
 30
0.0
 11
-44.24181611351392
 21
60.83634238643631
 31
0.0
 12
-45.08316442812072
 22
60.69611766733508
 32
0.0
 13
-44.24181611351392
 23
60.69611766733508
 33
0.0
  0
SOLID
  5
449
330
2FF
100
AcDbEntity
  8
RAHM2
100
AcDbTrace
 10
-45.64406330452526
 20
60.69611766733508
 30
0.0
 11
-44.24181611351392
 21
60.69611766733508
 31
0.0
 12
-45.64406330452526
 22
60.55589294823405
 32
0.0
 13
-44.24181611351392
 23
60.55589294823405
 33
0.0
  0
SOLID
  5
44A
330
2FF
100
AcDbEntity
  8
RAHM2
100
AcDbTrace
 10
-44.80271498991846
 20
60.55589294823405
 30
0.0
 11
-44.24181611351392
 21
60.55589294823405
 31
0.0
 12
-44.80271498991846
 22
60.27544351003178
 32
0.0
 13
-44.24181611351392
 23
60.27544351003178
 33
0.0
  0
SOLID
  5
44B
330
2FF
100
AcDbEntity
  8
RAHM2
100
AcDbTrace
 10
-44.38204083261514
 20
58.31229744261609
 30
0.0
 11
-44.24181611351392
 21
58.31229744261609
 31
0.0
 12
-44.38204083261514
 22
58.17207272351486
 32
0.0
 13
-44.24181611351392
 23
58.17207272351486
 33
0.0
  0
SOLID
  5
44C
330
2FF
100
AcDbEntity
  8
RAHM2
100
AcDbTrace
 10
-44.66249027081741
 20
58.17207272351486
 30
0.0
 11
-44.24181611351392
 21
58.17207272351486
 31
0.0
 12
-44.66249027081741
 22
58.03184800441382
 32
0.0
 13
-44.24181611351392
 23
58.03184800441382
 33
0.0
  0
SOLID
  5
44D
330
2FF
100
AcDbEntity
  8
RAHM2
100
AcDbTrace
 10
-51.53350150677233
 20
60.83634238643631
 30
0.0
 11
-51.11282734946903
 21
60.83634238643631
 31
0.0
 12
-51.53350150677233
 22
60.69611766733508
 32
0.0
 13
-51.11282734946903
 23
60.69611766733508
 33
0.0
  0
SOLID
  5
44E
330
2FF
100
AcDbEntity
  8
RAHM2
100
AcDbTrace
 10
-51.95417566407583
 20
60.69611766733508
 30
0.0
 11
-51.3932767876713
 21
60.69611766733508
 31
0.0
 12
-51.95417566407583
 22
60.55589294823405
 32
0.0
 13
-51.3932767876713
 23
60.55589294823405
 33
0.0
  0
SOLID
  5
44F
330
2FF
100
AcDbEntity
  8
RAHM2
100
AcDbTrace
 10
-51.25305206857007
 20
60.69611766733508
 30
0.0
 11
-50.69215319216572
 21
60.69611766733508
 31
0.0
 12
-51.25305206857007
 22
60.55589294823405
 32
0.0
 13
-50.69215319216572
 23
60.55589294823405
 33
0.0
  0
SOLID
  5
450
330
2FF
100
AcDbEntity
  8
RAHM2
100
AcDbTrace
 10
-50.97260263036798
 20
60.55589294823405
 30
0.0
 11
-50.69215319216572
 21
60.55589294823405
 31
0.0
 12
-50.97260263036798
 22
60.41566822913281
 32
0.0
 13
-50.69215319216572
 23
60.41566822913281
 33
0.0
  0
SOLID
  5
451
330
2FF
100
AcDbEntity
  8
RAHM2
100
AcDbTrace
 10
-50.97260263036798
 20
60.41566822913281
 30
0.0
 11
-50.69215319216572
 21
60.41566822913281
 31
0.0
 12
-50.97260263036798
 22
60.27544351003178
 32
0.0
 13
-50.69215319216572
 23
60.27544351003178
 33
0.0
  0
SOLID
  5
452
330
2FF
100
AcDbEntity
  8
RAHM2
100
AcDbTrace
 10
-50.97260263036798
 20
60.27544351003178
 30
0.0
 11
-50.83237791126676
 21
60.27544351003178
 31
0.0
 12
-50.97260263036798
 22
60.13521879093055
 32
0.0
 13
-50.83237791126676
 23
60.13521879093055
 33
0.0
  0
SOLID
  5
453
330
2FF
100
AcDbEntity
  8
RAHM2
100
AcDbTrace
 10
-51.95417566407583
 20
59.29387047632393
 30
0.0
 11
-51.25305206857007
 21
59.29387047632393
 31
0.0
 12
-51.95417566407583
 22
59.15364575722271
 32
0.0
 13
-51.25305206857007
 23
59.15364575722271
 33
0.0
  0
SOLID
  5
454
330
2FF
100
AcDbEntity
  8
RAHM2
100
AcDbTrace
 10
-51.8139509449746
 20
59.15364575722271
 30
0.0
 11
-51.11282734946903
 21
59.15364575722271
 31
0.0
 12
-51.8139509449746
 22
59.01342103812166
 32
0.0
 13
-51.11282734946903
 23
59.01342103812166
 33
0.0
  0
SOLID
  5
455
330
2FF
100
AcDbEntity
  8
RAHM2
100
AcDbTrace
 10
-51.67372622587357
 20
59.01342103812166
 30
0.0
 11
-50.97260263036798
 21
59.01342103812166
 31
0.0
 12
-51.67372622587357
 22
58.87319631902044
 32
0.0
 13
-50.97260263036798
 23
58.87319631902044
 33
0.0
  0
SOLID
  5
456
330
2FF
100
AcDbEntity
  8
RAHM2
100
AcDbTrace
 10
-51.53350150677233
 20
58.87319631902044
 30
0.0
 11
-50.97260263036798
 21
58.87319631902044
 31
0.0
 12
-51.53350150677233
 22
58.73297159991939
 32
0.0
 13
-50.97260263036798
 23
58.73297159991939
 33
0.0
  0
SOLID
  5
457
330
2FF
100
AcDbEntity
  8
RAHM2
100
AcDbTrace
 10
-51.3932767876713
 20
58.73297159991939
 30
0.0
 11
-50.83237791126676
 21
58.73297159991939
 31
0.0
 12
-51.3932767876713
 22
58.45252216171712
 32
0.0
 13
-50.83237791126676
 23
58.45252216171712
 33
0.0
  0
SOLID
  5
458
330
2FF
100
AcDbEntity
  8
RAHM2
100
AcDbTrace
 10
-51.3932767876713
 20
58.45252216171712
 30
0.0
 11
-50.83237791126676
 21
58.45252216171712
 31
0.0
 12
-51.3932767876713
 22
58.31229744261609
 32
0.0
 13
-50.83237791126676
 23
58.31229744261609
 33
0.0
  0
SOLID
  5
459
330
2FF
100
AcDbEntity
  8
RAHM2
100
AcDbTrace
 10
-51.3932767876713
 20
58.31229744261609
 30
0.0
 11
-50.97260263036798
 21
58.31229744261609
 31
0.0
 12
-51.3932767876713
 22
58.03184800441382
 32
0.0
 13
-50.97260263036798
 23
58.03184800441382
 33
0.0
  0
SOLID
  5
45A
330
2FF
100
AcDbEntity
  8
RAHM2
100
AcDbTrace
 10
-51.53350150677233
 20
58.03184800441382
 30
0.0
 11
-51.11282734946903
 21
58.03184800441382
 31
0.0
 12
-51.53350150677233
 22
57.89162328531259
 32
0.0
 13
-51.11282734946903
 23
57.89162328531259
 33
0.0
  0
SOLID
  5
45B
330
2FF
100
AcDbEntity
  8
RAHM2
100
AcDbTrace
 10
-51.67372622587357
 20
57.89162328531259
 30
0.0
 11
-51.25305206857007
 21
57.89162328531259
 31
0.0
 12
-51.67372622587357
 22
57.75139856621155
 32
0.0
 13
-51.25305206857007
 23
57.75139856621155
 33
0.0
  0
SOLID
  5
45C
330
2FF
100
AcDbEntity
  8
RAHM2
100
AcDbTrace
 10
-48.86923184385107
 20
60.83634238643631
 30
0.0
 11
-48.44855768654776
 21
60.83634238643631
 31
0.0
 12
-48.86923184385107
 22
60.69611766733508
 32
0.0
 13
-48.44855768654776
 23
60.69611766733508
 33
0.0
  0
SOLID
  5
45D
330
2FF
100
AcDbEntity
  8
RAHM2
100
AcDbTrace
 10
-49.28990600115437
 20
60.69611766733508
 30
0.0
 11
-48.72900712474984
 21
60.69611766733508
 31
0.0
 12
-49.28990600115437
 22
60.55589294823405
 32
0.0
 13
-48.72900712474984
 23
60.55589294823405
 33
0.0
  0
SOLID
  5
45E
330
2FF
100
AcDbEntity
  8
RAHM2
100
AcDbTrace
 10
-48.5887824056488
 20
60.69611766733508
 30
0.0
 11
-47.88765881014322
 21
60.69611766733508
 31
0.0
 12
-48.5887824056488
 22
60.55589294823405
 32
0.0
 13
-47.88765881014322
 23
60.55589294823405
 33
0.0
  0
SOLID
  5
45F
330
2FF
100
AcDbEntity
  8
RAHM2
100
AcDbTrace
 10
-49.28990600115437
 20
60.55589294823405
 30
0.0
 11
-49.00945656295211
 21
60.55589294823405
 31
0.0
 12
-49.28990600115437
 22
60.41566822913281
 32
0.0
 13
-49.00945656295211
 23
60.41566822913281
 33
0.0
  0
SOLID
  5
460
330
2FF
100
AcDbEntity
  8
RAHM2
100
AcDbTrace
 10
-48.30833296744653
 20
60.55589294823405
 30
0.0
 11
-47.88765881014322
 21
60.55589294823405
 31
0.0
 12
-48.30833296744653
 22
60.41566822913281
 32
0.0
 13
-47.88765881014322
 23
60.41566822913281
 33
0.0
  0
SOLID
  5
461
330
2FF
100
AcDbEntity
  8
RAHM2
100
AcDbTrace
 10
-49.43013072025561
 20
60.41566822913281
 30
0.0
 11
-49.00945656295211
 21
60.41566822913281
 31
0.0
 12
-49.43013072025561
 22
60.13521879093055
 32
0.0
 13
-49.00945656295211
 23
60.13521879093055
 33
0.0
  0
SOLID
  5
462
330
2FF
100
AcDbEntity
  8
RAHM2
100
AcDbTrace
 10
-48.16810824834549
 20
60.41566822913281
 30
0.0
 11
-47.88765881014322
 21
60.41566822913281
 31
0.0
 12
-48.16810824834549
 22
60.27544351003178
 32
0.0
 13
-47.88765881014322
 23
60.27544351003178
 33
0.0
  0
SOLID
  5
463
330
2FF
100
AcDbEntity
  8
RAHM2
100
AcDbTrace
 10
-48.16810824834549
 20
60.27544351003178
 30
0.0
 11
-48.02788352924427
 21
60.27544351003178
 31
0.0
 12
-48.16810824834549
 22
60.13521879093055
 32
0.0
 13
-48.02788352924427
 23
60.13521879093055
 33
0.0
  0
SOLID
  5
464
330
2FF
100
AcDbEntity
  8
RAHM2
100
AcDbTrace
 10
-49.57035543935664
 20
60.13521879093055
 30
0.0
 11
-49.14968128205334
 21
60.13521879093055
 31
0.0
 12
-49.57035543935664
 22
59.99499407182951
 32
0.0
 13
-49.14968128205334
 23
59.99499407182951
 33
0.0
  0
SOLID
  5
465
330
2FF
100
AcDbEntity
  8
RAHM2
100
AcDbTrace
 10
-49.57035543935664
 20
59.99499407182951
 30
0.0
 11
-49.00945656295211
 21
59.99499407182951
 31
0.0
 12
-49.57035543935664
 22
59.85476935272828
 32
0.0
 13
-49.00945656295211
 23
59.85476935272828
 33
0.0
  0
SOLID
  5
466
330
2FF
100
AcDbEntity
  8
RAHM2
100
AcDbTrace
 10
-49.57035543935664
 20
59.85476935272828
 30
0.0
 11
-48.86923184385107
 21
59.85476935272828
 31
0.0
 12
-49.57035543935664
 22
59.71454463362724
 32
0.0
 13
-48.86923184385107
 23
59.71454463362724
 33
0.0
  0
SOLID
  5
467
330
2FF
100
AcDbEntity
  8
RAHM2
100
AcDbTrace
 10
-49.57035543935664
 20
59.71454463362724
 30
0.0
 11
-48.72900712474984
 21
59.71454463362724
 31
0.0
 12
-49.57035543935664
 22
59.5743199145262
 32
0.0
 13
-48.72900712474984
 23
59.5743199145262
 33
0.0
  0
SOLID
  5
468
330
2FF
100
AcDbEntity
  8
RAHM2
100
AcDbTrace
 10
-49.43013072025561
 20
59.5743199145262
 30
0.0
 11
-48.5887824056488
 21
59.5743199145262
 31
0.0
 12
-49.43013072025561
 22
59.43409519542497
 32
0.0
 13
-48.5887824056488
 23
59.43409519542497
 33
0.0
  0
SOLID
  5
469
330
2FF
100
AcDbEntity
  8
RAHM2
100
AcDbTrace
 10
-49.28990600115437
 20
59.43409519542497
 30
0.0
 11
-48.5887824056488
 21
59.43409519542497
 31
0.0
 12
-49.28990600115437
 22
59.29387047632393
 32
0.0
 13
-48.5887824056488
 23
59.29387047632393
 33
0.0
  0
SOLID
  5
46A
330
2FF
100
AcDbEntity
  8
RAHM2
100
AcDbTrace
 10
-49.14968128205334
 20
59.29387047632393
 30
0.0
 11
-48.44855768654776
 21
59.29387047632393
 31
0.0
 12
-49.14968128205334
 22
59.15364575722271
 32
0.0
 13
-48.44855768654776
 23
59.15364575722271
 33
0.0
  0
SOLID
  5
46B
330
2FF
100
AcDbEntity
  8
RAHM2
100
AcDbTrace
 10
-49.14968128205334
 20
59.15364575722271
 30
0.0
 11
-48.30833296744653
 21
59.15364575722271
 31
0.0
 12
-49.14968128205334
 22
59.01342103812166
 32
0.0
 13
-48.30833296744653
 23
59.01342103812166
 33
0.0
  0
SOLID
  5
46C
330
2FF
100
AcDbEntity
  8
RAHM2
100
AcDbTrace
 10
-49.00945656295211
 20
59.01342103812166
 30
0.0
 11
-48.16810824834549
 21
59.01342103812166
 31
0.0
 12
-49.00945656295211
 22
58.87319631902044
 32
0.0
 13
-48.16810824834549
 23
58.87319631902044
 33
0.0
  0
SOLID
  5
46D
330
2FF
100
AcDbEntity
  8
RAHM2
100
AcDbTrace
 10
-48.86923184385107
 20
58.87319631902044
 30
0.0
 11
-48.16810824834549
 21
58.87319631902044
 31
0.0
 12
-48.86923184385107
 22
58.73297159991939
 32
0.0
 13
-48.16810824834549
 23
58.73297159991939
 33
0.0
  0
SOLID
  5
46E
330
2FF
100
AcDbEntity
  8
RAHM2
100
AcDbTrace
 10
-48.86923184385107
 20
58.73297159991939
 30
0.0
 11
-48.02788352924427
 21
58.73297159991939
 31
0.0
 12
-48.86923184385107
 22
58.59274688081836
 32
0.0
 13
-48.02788352924427
 23
58.59274688081836
 33
0.0
  0
SOLID
  5
46F
330
2FF
100
AcDbEntity
  8
RAHM2
100
AcDbTrace
 10
-48.72900712474984
 20
58.59274688081836
 30
0.0
 11
-48.02788352924427
 21
58.59274688081836
 31
0.0
 12
-48.72900712474984
 22
58.45252216171712
 32
0.0
 13
-48.02788352924427
 23
58.45252216171712
 33
0.0
  0
SOLID
  5
470
330
2FF
100
AcDbEntity
  8
RAHM2
100
AcDbTrace
 10
-49.99102959665996
 20
58.45252216171712
 30
0.0
 11
-49.85080487755891
 21
58.45252216171712
 31
0.0
 12
-49.99102959665996
 22
58.31229744261609
 32
0.0
 13
-49.85080487755891
 23
58.31229744261609
 33
0.0
  0
SOLID
  5
471
330
2FF
100
AcDbEntity
  8
RAHM2
100
AcDbTrace
 10
-48.5887824056488
 20
58.45252216171712
 30
0.0
 11
-48.02788352924427
 21
58.45252216171712
 31
0.0
 12
-48.5887824056488
 22
58.31229744261609
 32
0.0
 13
-48.02788352924427
 23
58.31229744261609
 33
0.0
  0
SOLID
  5
472
330
2FF
100
AcDbEntity
  8
RAHM2
100
AcDbTrace
 10
-49.99102959665996
 20
58.31229744261609
 30
0.0
 11
-49.71058015845769
 21
58.31229744261609
 31
0.0
 12
-49.99102959665996
 22
57.89162328531259
 32
0.0
 13
-49.71058015845769
 23
57.89162328531259
 33
0.0
  0
SOLID
  5
473
330
2FF
100
AcDbEntity
  8
RAHM2
100
AcDbTrace
 10
-48.5887824056488
 20
58.31229744261609
 30
0.0
 11
-48.16810824834549
 21
58.31229744261609
 31
0.0
 12
-48.5887824056488
 22
58.17207272351486
 32
0.0
 13
-48.16810824834549
 23
58.17207272351486
 33
0.0
  0
SOLID
  5
474
330
2FF
100
AcDbEntity
  8
RAHM2
100
AcDbTrace
 10
-48.72900712474984
 20
58.17207272351486
 30
0.0
 11
-48.16810824834549
 21
58.17207272351486
 31
0.0
 12
-48.72900712474984
 22
58.03184800441382
 32
0.0
 13
-48.16810824834549
 23
58.03184800441382
 33
0.0
  0
SOLID
  5
475
330
2FF
100
AcDbEntity
  8
RAHM2
100
AcDbTrace
 10
-48.72900712474984
 20
58.03184800441382
 30
0.0
 11
-48.30833296744653
 21
58.03184800441382
 31
0.0
 12
-48.72900712474984
 22
57.89162328531259
 32
0.0
 13
-48.30833296744653
 23
57.89162328531259
 33
0.0
  0
SOLID
  5
476
330
2FF
100
AcDbEntity
  8
RAHM2
100
AcDbTrace
 10
-50.13125431576118
 20
57.89162328531259
 30
0.0
 11
-49.57035543935664
 21
57.89162328531259
 31
0.0
 12
-50.13125431576118
 22
57.75139856621155
 32
0.0
 13
-49.57035543935664
 23
57.75139856621155
 33
0.0
  0
SOLID
  5
477
330
2FF
100
AcDbEntity
  8
RAHM2
100
AcDbTrace
 10
-49.00945656295211
 20
57.89162328531259
 30
0.0
 11
-48.44855768654776
 21
57.89162328531259
 31
0.0
 12
-49.00945656295211
 22
57.75139856621155
 32
0.0
 13
-48.44855768654776
 23
57.75139856621155
 33
0.0
  0
SOLID
  5
478
330
2FF
100
AcDbEntity
  8
RAHM2
100
AcDbTrace
 10
-49.85080487755891
 20
57.75139856621155
 30
0.0
 11
-48.86923184385107
 21
57.75139856621155
 31
0.0
 12
-49.85080487755891
 22
57.61117384711032
 32
0.0
 13
-48.86923184385107
 23
57.61117384711032
 33
0.0
  0
SOLID
  5
479
330
2FF
100
AcDbEntity
  8
RAHM2
100
AcDbTrace
 10
-45.92451274272753
 20
60.55589294823405
 30
0.0
 11
-45.36361386632299
 21
60.55589294823405
 31
0.0
 12
-45.92451274272753
 22
60.41566822913281
 32
0.0
 13
-45.36361386632299
 23
60.41566822913281
 33
0.0
  0
SOLID
  5
47A
330
2FF
100
AcDbEntity
  8
RAHM2
100
AcDbTrace
 10
-46.20496218092961
 20
60.41566822913281
 30
0.0
 11
-45.7842880236263
 21
60.41566822913281
 31
0.0
 12
-46.20496218092961
 22
60.27544351003178
 32
0.0
 13
-45.7842880236263
 23
60.27544351003178
 33
0.0
  0
SOLID
  5
47B
330
2FF
100
AcDbEntity
  8
RAHM2
100
AcDbTrace
 10
-46.34518690003083
 20
60.27544351003178
 30
0.0
 11
-46.06473746182857
 21
60.27544351003178
 31
0.0
 12
-46.34518690003083
 22
60.13521879093055
 32
0.0
 13
-46.06473746182857
 23
60.13521879093055
 33
0.0
  0
SOLID
  5
47C
330
2FF
100
AcDbEntity
  8
RAHM2
100
AcDbTrace
 10
-46.48541161913188
 20
60.13521879093055
 30
0.0
 11
-46.06473746182857
 21
60.13521879093055
 31
0.0
 12
-46.48541161913188
 22
59.99499407182951
 32
0.0
 13
-46.06473746182857
 23
59.99499407182951
 33
0.0
  0
SOLID
  5
47D
330
2FF
100
AcDbEntity
  8
RAHM2
100
AcDbTrace
 10
-44.80271498991846
 20
60.27544351003178
 30
0.0
 11
-44.38204083261514
 21
60.27544351003178
 31
0.0
 12
-44.80271498991846
 22
60.13521879093055
 32
0.0
 13
-44.38204083261514
 23
60.13521879093055
 33
0.0
  0
SOLID
  5
47E
330
2FF
100
AcDbEntity
  8
RAHM2
100
AcDbTrace
 10
-44.94293970901949
 20
60.13521879093055
 30
0.0
 11
-44.38204083261514
 21
60.13521879093055
 31
0.0
 12
-44.94293970901949
 22
59.99499407182951
 32
0.0
 13
-44.38204083261514
 23
59.99499407182951
 33
0.0
  0
SOLID
  5
47F
330
2FF
100
AcDbEntity
  8
RAHM2
100
AcDbTrace
 10
-46.6256363382331
 20
59.99499407182951
 30
0.0
 11
-46.20496218092961
 21
59.99499407182951
 31
0.0
 12
-46.6256363382331
 22
59.85476935272828
 32
0.0
 13
-46.20496218092961
 23
59.85476935272828
 33
0.0
  0
SOLID
  5
480
330
2FF
100
AcDbEntity
  8
RAHM2
100
AcDbTrace
 10
-46.76586105733415
 20
59.85476935272828
 30
0.0
 11
-46.34518690003083
 21
59.85476935272828
 31
0.0
 12
-46.76586105733415
 22
59.71454463362724
 32
0.0
 13
-46.34518690003083
 23
59.71454463362724
 33
0.0
  0
SOLID
  5
481
330
2FF
100
AcDbEntity
  8
RAHM2
100
AcDbTrace
 10
-44.94293970901949
 20
59.99499407182951
 30
0.0
 11
-44.38204083261514
 21
59.99499407182951
 31
0.0
 12
-44.94293970901949
 22
59.71454463362724
 32
0.0
 13
-44.38204083261514
 23
59.71454463362724
 33
0.0
  0
SOLID
  5
482
330
2FF
100
AcDbEntity
  8
RAHM2
100
AcDbTrace
 10
-46.76586105733415
 20
59.71454463362724
 30
0.0
 11
-46.34518690003083
 21
59.71454463362724
 31
0.0
 12
-46.76586105733415
 22
59.5743199145262
 32
0.0
 13
-46.34518690003083
 23
59.5743199145262
 33
0.0
  0
SOLID
  5
483
330
2FF
100
AcDbEntity
  8
RAHM2
100
AcDbTrace
 10
-46.90608577643537
 20
59.5743199145262
 30
0.0
 11
-46.34518690003083
 21
59.5743199145262
 31
0.0
 12
-46.90608577643537
 22
59.43409519542497
 32
0.0
 13
-46.34518690003083
 23
59.43409519542497
 33
0.0
  0
SOLID
  5
484
330
2FF
100
AcDbEntity
  8
RAHM2
100
AcDbTrace
 10
-45.08316442812072
 20
59.71454463362724
 30
0.0
 11
-44.52226555171619
 21
59.71454463362724
 31
0.0
 12
-45.08316442812072
 22
59.43409519542497
 32
0.0
 13
-44.52226555171619
 23
59.43409519542497
 33
0.0
  0
SOLID
  5
485
330
2FF
100
AcDbEntity
  8
RAHM2
100
AcDbTrace
 10
-46.90608577643537
 20
59.43409519542497
 30
0.0
 11
-46.48541161913188
 21
59.43409519542497
 31
0.0
 12
-46.90608577643537
 22
59.29387047632393
 32
0.0
 13
-46.48541161913188
 23
59.29387047632393
 33
0.0
  0
SOLID
  5
486
330
2FF
100
AcDbEntity
  8
RAHM2
100
AcDbTrace
 10
-47.04631049553642
 20
59.29387047632393
 30
0.0
 11
-46.48541161913188
 21
59.29387047632393
 31
0.0
 12
-47.04631049553642
 22
59.15364575722271
 32
0.0
 13
-46.48541161913188
 23
59.15364575722271
 33
0.0
  0
SOLID
  5
487
330
2FF
100
AcDbEntity
  8
RAHM2
100
AcDbTrace
 10
-45.22338914722176
 20
59.43409519542497
 30
0.0
 11
-44.52226555171619
 21
59.43409519542497
 31
0.0
 12
-45.22338914722176
 22
59.15364575722271
 32
0.0
 13
-44.52226555171619
 23
59.15364575722271
 33
0.0
  0
SOLID
  5
488
330
2FF
100
AcDbEntity
  8
RAHM2
100
AcDbTrace
 10
-47.04631049553642
 20
59.15364575722271
 30
0.0
 11
-46.48541161913188
 21
59.15364575722271
 31
0.0
 12
-47.04631049553642
 22
59.01342103812166
 32
0.0
 13
-46.48541161913188
 23
59.01342103812166
 33
0.0
  0
SOLID
  5
489
330
2FF
100
AcDbEntity
  8
RAHM2
100
AcDbTrace
 10
-45.36361386632299
 20
59.15364575722271
 30
0.0
 11
-44.52226555171619
 21
59.15364575722271
 31
0.0
 12
-45.36361386632299
 22
59.01342103812166
 32
0.0
 13
-44.52226555171619
 23
59.01342103812166
 33
0.0
  0
SOLID
  5
48A
330
2FF
100
AcDbEntity
  8
RAHM2
100
AcDbTrace
 10
-47.04631049553642
 20
59.01342103812166
 30
0.0
 11
-46.48541161913188
 21
59.01342103812166
 31
0.0
 12
-47.04631049553642
 22
58.73297159991939
 32
0.0
 13
-46.48541161913188
 23
58.73297159991939
 33
0.0
  0
SOLID
  5
48B
330
2FF
100
AcDbEntity
  8
RAHM2
100
AcDbTrace
 10
-47.04631049553642
 20
58.73297159991939
 30
0.0
 11
-46.6256363382331
 21
58.73297159991939
 31
0.0
 12
-47.04631049553642
 22
58.59274688081836
 32
0.0
 13
-46.6256363382331
 23
58.59274688081836
 33
0.0
  0
SOLID
  5
48C
330
2FF
100
AcDbEntity
  8
RAHM2
100
AcDbTrace
 10
-45.36361386632299
 20
59.01342103812166
 30
0.0
 11
-45.22338914722176
 21
59.01342103812166
 31
0.0
 12
-45.36361386632299
 22
58.87319631902044
 32
0.0
 13
-45.22338914722176
 23
58.87319631902044
 33
0.0
  0
SOLID
  5
48D
330
2FF
100
AcDbEntity
  8
RAHM2
100
AcDbTrace
 10
-45.50383858542403
 20
58.87319631902044
 30
0.0
 11
-45.36361386632299
 21
58.87319631902044
 31
0.0
 12
-45.50383858542403
 22
58.73297159991939
 32
0.0
 13
-45.36361386632299
 23
58.73297159991939
 33
0.0
  0
SOLID
  5
48E
330
2FF
100
AcDbEntity
  8
RAHM2
100
AcDbTrace
 10
-45.22338914722176
 20
59.01342103812166
 30
0.0
 11
-44.66249027081741
 21
59.01342103812166
 31
0.0
 12
-45.22338914722176
 22
58.59274688081836
 32
0.0
 13
-44.66249027081741
 23
58.59274688081836
 33
0.0
  0
SOLID
  5
48F
330
2FF
100
AcDbEntity
  8
RAHM2
100
AcDbTrace
 10
-47.18653521463764
 20
58.59274688081836
 30
0.0
 11
-46.6256363382331
 21
58.59274688081836
 31
0.0
 12
-47.18653521463764
 22
58.31229744261609
 32
0.0
 13
-46.6256363382331
 23
58.31229744261609
 33
0.0
  0
SOLID
  5
490
330
2FF
100
AcDbEntity
  8
RAHM2
100
AcDbTrace
 10
-45.7842880236263
 20
58.59274688081836
 30
0.0
 11
-45.50383858542403
 21
58.59274688081836
 31
0.0
 12
-45.7842880236263
 22
58.45252216171712
 32
0.0
 13
-45.50383858542403
 23
58.45252216171712
 33
0.0
  0
SOLID
  5
491
330
2FF
100
AcDbEntity
  8
RAHM2
100
AcDbTrace
 10
-45.92451274272753
 20
58.45252216171712
 30
0.0
 11
-45.64406330452526
 21
58.45252216171712
 31
0.0
 12
-45.92451274272753
 22
58.31229744261609
 32
0.0
 13
-45.64406330452526
 23
58.31229744261609
 33
0.0
  0
SOLID
  5
492
330
2FF
100
AcDbEntity
  8
RAHM2
100
AcDbTrace
 10
-45.22338914722176
 20
58.59274688081836
 30
0.0
 11
-44.66249027081741
 21
58.59274688081836
 31
0.0
 12
-45.22338914722176
 22
58.45252216171712
 32
0.0
 13
-44.66249027081741
 23
58.45252216171712
 33
0.0
  0
SOLID
  5
493
330
2FF
100
AcDbEntity
  8
RAHM2
100
AcDbTrace
 10
-45.22338914722176
 20
58.45252216171712
 30
0.0
 11
-44.80271498991846
 21
58.45252216171712
 31
0.0
 12
-45.22338914722176
 22
58.31229744261609
 32
0.0
 13
-44.80271498991846
 23
58.31229744261609
 33
0.0
  0
SOLID
  5
494
330
2FF
100
AcDbEntity
  8
RAHM2
100
AcDbTrace
 10
-47.18653521463764
 20
58.31229744261609
 30
0.0
 11
-46.6256363382331
 21
58.31229744261609
 31
0.0
 12
-47.18653521463764
 22
58.17207272351486
 32
0.0
 13
-46.6256363382331
 23
58.17207272351486
 33
0.0
  0
SOLID
  5
495
330
2FF
100
AcDbEntity
  8
RAHM2
100
AcDbTrace
 10
-46.06473746182857
 20
58.31229744261609
 30
0.0
 11
-45.7842880236263
 21
58.31229744261609
 31
0.0
 12
-46.06473746182857
 22
58.17207272351486
 32
0.0
 13
-45.7842880236263
 23
58.17207272351486
 33
0.0
  0
SOLID
  5
496
330
2FF
100
AcDbEntity
  8
RAHM2
100
AcDbTrace
 10
-45.36361386632299
 20
58.31229744261609
 30
0.0
 11
-44.80271498991846
 21
58.31229744261609
 31
0.0
 12
-45.36361386632299
 22
58.17207272351486
 32
0.0
 13
-44.80271498991846
 23
58.17207272351486
 33
0.0
  0
SOLID
  5
497
330
2FF
100
AcDbEntity
  8
RAHM2
100
AcDbTrace
 10
-47.18653521463764
 20
58.17207272351486
 30
0.0
 11
-46.48541161913188
 21
58.17207272351486
 31
0.0
 12
-47.18653521463764
 22
58.03184800441382
 32
0.0
 13
-46.48541161913188
 23
58.03184800441382
 33
0.0
  0
SOLID
  5
498
330
2FF
100
AcDbEntity
  8
RAHM2
100
AcDbTrace
 10
-46.20496218092961
 20
58.17207272351486
 30
0.0
 11
-45.92451274272753
 21
58.17207272351486
 31
0.0
 12
-46.20496218092961
 22
58.03184800441382
 32
0.0
 13
-45.92451274272753
 23
58.03184800441382
 33
0.0
  0
SOLID
  5
499
330
2FF
100
AcDbEntity
  8
RAHM2
100
AcDbTrace
 10
-45.36361386632299
 20
58.17207272351486
 30
0.0
 11
-44.80271498991846
 21
58.17207272351486
 31
0.0
 12
-45.36361386632299
 22
58.03184800441382
 32
0.0
 13
-44.80271498991846
 23
58.03184800441382
 33
0.0
  0
SOLID
  5
49A
330
2FF
100
AcDbEntity
  8
RAHM2
100
AcDbTrace
 10
-47.18653521463764
 20
58.03184800441382
 30
0.0
 11
-46.06473746182857
 21
58.03184800441382
 31
0.0
 12
-47.18653521463764
 22
57.89162328531259
 32
0.0
 13
-46.06473746182857
 23
57.89162328531259
 33
0.0
  0
SOLID
  5
49B
330
2FF
100
AcDbEntity
  8
RAHM2
100
AcDbTrace
 10
-47.04631049553642
 20
57.89162328531259
 30
0.0
 11
-46.34518690003083
 21
57.89162328531259
 31
0.0
 12
-47.04631049553642
 22
57.75139856621155
 32
0.0
 13
-46.34518690003083
 23
57.75139856621155
 33
0.0
  0
SOLID
  5
49C
330
2FF
100
AcDbEntity
  8
RAHM2
100
AcDbTrace
 10
-45.36361386632299
 20
58.03184800441382
 30
0.0
 11
-44.52226555171619
 21
58.03184800441382
 31
0.0
 12
-45.36361386632299
 22
57.89162328531259
 32
0.0
 13
-44.52226555171619
 23
57.89162328531259
 33
0.0
  0
SOLID
  5
49D
330
2FF
100
AcDbEntity
  8
RAHM2
100
AcDbTrace
 10
-45.36361386632299
 20
57.89162328531259
 30
0.0
 11
-44.80271498991846
 21
57.89162328531259
 31
0.0
 12
-45.36361386632299
 22
57.75139856621155
 32
0.0
 13
-44.80271498991846
 23
57.75139856621155
 33
0.0
  0
SOLID
  5
49E
330
2FF
100
AcDbEntity
  8
RAHM2
100
AcDbTrace
 10
-46.90608577643537
 20
57.75139856621155
 30
0.0
 11
-46.48541161913188
 21
57.75139856621155
 31
0.0
 12
-46.90608577643537
 22
57.61117384711032
 32
0.0
 13
-46.48541161913188
 23
57.61117384711032
 33
0.0
  0
SOLID
  5
49F
330
2FF
100
AcDbEntity
  8
RAHM2
100
AcDbTrace
 10
-45.36361386632299
 20
57.75139856621155
 30
0.0
 11
-45.08316442812072
 21
57.75139856621155
 31
0.0
 12
-45.36361386632299
 22
57.61117384711032
 32
0.0
 13
-45.08316442812072
 23
57.61117384711032
 33
0.0
  0
SOLID
  5
4A0
330
2FF
100
AcDbEntity
  8
RAHM2
100
AcDbTrace
 10
-42.55911948430049
 20
60.83634238643631
 30
0.0
 11
-42.41889476519945
 21
60.83634238643631
 31
0.0
 12
-42.55911948430049
 22
60.69611766733508
 32
0.0
 13
-42.41889476519945
 23
60.69611766733508
 33
0.0
  0
SOLID
  5
4A1
330
2FF
100
AcDbEntity
  8
RAHM2
100
AcDbTrace
 10
-40.87642285508707
 20
60.83634238643631
 30
0.0
 11
-40.5959734168848
 21
60.83634238643631
 31
0.0
 12
-40.87642285508707
 22
60.69611766733508
 32
0.0
 13
-40.5959734168848
 23
60.69611766733508
 33
0.0
  0
SOLID
  5
4A2
330
2FF
100
AcDbEntity
  8
RAHM2
100
AcDbTrace
 10
-42.9797936416038
 20
60.69611766733508
 30
0.0
 11
-42.41889476519945
 21
60.69611766733508
 31
0.0
 12
-42.9797936416038
 22
60.55589294823405
 32
0.0
 13
-42.41889476519945
 23
60.55589294823405
 33
0.0
  0
SOLID
  5
4A3
330
2FF
100
AcDbEntity
  8
RAHM2
100
AcDbTrace
 10
-41.01664757418811
 20
60.69611766733508
 30
0.0
 11
-40.5959734168848
 21
60.69611766733508
 31
0.0
 12
-41.01664757418811
 22
60.55589294823405
 32
0.0
 13
-40.5959734168848
 23
60.55589294823405
 33
0.0
  0
SOLID
  5
4A4
330
2FF
100
AcDbEntity
  8
RAHM2
100
AcDbTrace
 10
-43.40046779890729
 20
60.55589294823405
 30
0.0
 11
-42.41889476519945
 21
60.55589294823405
 31
0.0
 12
-43.40046779890729
 22
60.41566822913281
 32
0.0
 13
-42.41889476519945
 23
60.41566822913281
 33
0.0
  0
SOLID
  5
4A5
330
2FF
100
AcDbEntity
  8
RAHM2
100
AcDbTrace
 10
-41.01664757418811
 20
60.55589294823405
 30
0.0
 11
-40.45574869778358
 21
60.55589294823405
 31
0.0
 12
-41.01664757418811
 22
60.41566822913281
 32
0.0
 13
-40.45574869778358
 23
60.41566822913281
 33
0.0
  0
SOLID
  5
4A6
330
2FF
100
AcDbEntity
  8
RAHM2
100
AcDbTrace
 10
-43.12001836070503
 20
60.41566822913281
 30
0.0
 11
-42.41889476519945
 21
60.41566822913281
 31
0.0
 12
-43.12001836070503
 22
60.27544351003178
 32
0.0
 13
-42.41889476519945
 23
60.27544351003178
 33
0.0
  0
SOLID
  5
4A7
330
2FF
100
AcDbEntity
  8
RAHM2
100
AcDbTrace
 10
-41.01664757418811
 20
60.41566822913281
 30
0.0
 11
-40.45574869778358
 21
60.41566822913281
 31
0.0
 12
-41.01664757418811
 22
60.27544351003178
 32
0.0
 13
-40.45574869778358
 23
60.27544351003178
 33
0.0
  0
SOLID
  5
4A8
330
2FF
100
AcDbEntity
  8
RAHM2
100
AcDbTrace
 10
-42.83956892250276
 20
60.27544351003178
 30
0.0
 11
-42.27867004609822
 21
60.27544351003178
 31
0.0
 12
-42.83956892250276
 22
59.99499407182951
 32
0.0
 13
-42.27867004609822
 23
59.99499407182951
 33
0.0
  0
SOLID
  5
4A9
330
2FF
100
AcDbEntity
  8
RAHM2
100
AcDbTrace
 10
-41.01664757418811
 20
60.27544351003178
 30
0.0
 11
-40.45574869778358
 21
60.27544351003178
 31
0.0
 12
-41.01664757418811
 22
60.13521879093055
 32
0.0
 13
-40.45574869778358
 23
60.13521879093055
 33
0.0
  0
SOLID
  5
4AA
330
2FF
100
AcDbEntity
  8
RAHM2
100
AcDbTrace
 10
-41.01664757418811
 20
60.13521879093055
 30
0.0
 11
-40.5959734168848
 21
60.13521879093055
 31
0.0
 12
-41.01664757418811
 22
59.99499407182951
 32
0.0
 13
-40.5959734168848
 23
59.99499407182951
 33
0.0
  0
SOLID
  5
4AB
330
2FF
100
AcDbEntity
  8
RAHM2
100
AcDbTrace
 10
-42.83956892250276
 20
59.99499407182951
 30
0.0
 11
-42.27867004609822
 21
59.99499407182951
 31
0.0
 12
-42.83956892250276
 22
59.71454463362724
 32
0.0
 13
-42.27867004609822
 23
59.71454463362724
 33
0.0
  0
SOLID
  5
4AC
330
2FF
100
AcDbEntity
  8
RAHM2
100
AcDbTrace
 10
-41.01664757418811
 20
59.99499407182951
 30
0.0
 11
-40.73619813598584
 21
59.99499407182951
 31
0.0
 12
-41.01664757418811
 22
59.85476935272828
 32
0.0
 13
-40.73619813598584
 23
59.85476935272828
 33
0.0
  0
SOLID
  5
4AD
330
2FF
100
AcDbEntity
  8
RAHM2
100
AcDbTrace
 10
-41.15687229328933
 20
59.85476935272828
 30
0.0
 11
-40.73619813598584
 21
59.85476935272828
 31
0.0
 12
-41.15687229328933
 22
59.71454463362724
 32
0.0
 13
-40.73619813598584
 23
59.71454463362724
 33
0.0
  0
SOLID
  5
4AE
330
2FF
100
AcDbEntity
  8
RAHM2
100
AcDbTrace
 10
-42.83956892250276
 20
59.71454463362724
 30
0.0
 11
-42.27867004609822
 21
59.71454463362724
 31
0.0
 12
-42.83956892250276
 22
59.5743199145262
 32
0.0
 13
-42.27867004609822
 23
59.5743199145262
 33
0.0
  0
SOLID
  5
4AF
330
2FF
100
AcDbEntity
  8
RAHM2
100
AcDbTrace
 10
-41.15687229328933
 20
59.71454463362724
 30
0.0
 11
-40.87642285508707
 21
59.71454463362724
 31
0.0
 12
-41.15687229328933
 22
59.5743199145262
 32
0.0
 13
-40.87642285508707
 23
59.5743199145262
 33
0.0
  0
SOLID
  5
4B0
330
2FF
100
AcDbEntity
  8
RAHM2
100
AcDbTrace
 10
-42.83956892250276
 20
59.5743199145262
 30
0.0
 11
-42.27867004609822
 21
59.5743199145262
 31
0.0
 12
-42.83956892250276
 22
59.15364575722271
 32
0.0
 13
-42.27867004609822
 23
59.15364575722271
 33
0.0
  0
SOLID
  5
4B1
330
2FF
100
AcDbEntity
  8
RAHM2
100
AcDbTrace
 10
-42.69934420340153
 20
59.15364575722271
 30
0.0
 11
-42.13844532699718
 21
59.15364575722271
 31
0.0
 12
-42.69934420340153
 22
58.31229744261609
 32
0.0
 13
-42.13844532699718
 23
58.31229744261609
 33
0.0
  0
SOLID
  5
4B2
330
2FF
100
AcDbEntity
  8
RAHM2
100
AcDbTrace
 10
-41.29709701239038
 20
59.5743199145262
 30
0.0
 11
-41.01664757418811
 21
59.5743199145262
 31
0.0
 12
-41.29709701239038
 22
59.43409519542497
 32
0.0
 13
-41.01664757418811
 23
59.43409519542497
 33
0.0
  0
SOLID
  5
4B3
330
2FF
100
AcDbEntity
  8
RAHM2
100
AcDbTrace
 10
-41.43732173149142
 20
59.43409519542497
 30
0.0
 11
-41.01664757418811
 21
59.43409519542497
 31
0.0
 12
-41.43732173149142
 22
59.29387047632393
 32
0.0
 13
-41.01664757418811
 23
59.29387047632393
 33
0.0
  0
SOLID
  5
4B4
330
2FF
100
AcDbEntity
  8
RAHM2
100
AcDbTrace
 10
-41.43732173149142
 20
59.29387047632393
 30
0.0
 11
-41.15687229328933
 21
59.29387047632393
 31
0.0
 12
-41.43732173149142
 22
59.15364575722271
 32
0.0
 13
-41.15687229328933
 23
59.15364575722271
 33
0.0
  0
SOLID
  5
4B5
330
2FF
100
AcDbEntity
  8
RAHM2
100
AcDbTrace
 10
-41.57754645059265
 20
59.15364575722271
 30
0.0
 11
-41.29709701239038
 21
59.15364575722271
 31
0.0
 12
-41.57754645059265
 22
59.01342103812166
 32
0.0
 13
-41.29709701239038
 23
59.01342103812166
 33
0.0
  0
SOLID
  5
4B6
330
2FF
100
AcDbEntity
  8
RAHM2
100
AcDbTrace
 10
-41.71777116969368
 20
59.01342103812166
 30
0.0
 11
-41.43732173149142
 21
59.01342103812166
 31
0.0
 12
-41.71777116969368
 22
58.73297159991939
 32
0.0
 13
-41.43732173149142
 23
58.73297159991939
 33
0.0
  0
SOLID
  5
4B7
330
2FF
100
AcDbEntity
  8
RAHM2
100
AcDbTrace
 10
-41.85799588879492
 20
58.73297159991939
 30
0.0
 11
-41.57754645059265
 21
58.73297159991939
 31
0.0
 12
-41.85799588879492
 22
58.59274688081836
 32
0.0
 13
-41.57754645059265
 23
58.59274688081836
 33
0.0
  0
SOLID
  5
4B8
330
2FF
100
AcDbEntity
  8
RAHM2
100
AcDbTrace
 10
-41.99822060789595
 20
58.59274688081836
 30
0.0
 11
-41.71777116969368
 21
58.59274688081836
 31
0.0
 12
-41.99822060789595
 22
58.45252216171712
 32
0.0
 13
-41.71777116969368
 23
58.45252216171712
 33
0.0
  0
SOLID
  5
4B9
330
2FF
100
AcDbEntity
  8
RAHM2
100
AcDbTrace
 10
-41.99822060789595
 20
58.45252216171712
 30
0.0
 11
-41.85799588879492
 21
58.45252216171712
 31
0.0
 12
-41.99822060789595
 22
58.31229744261609
 32
0.0
 13
-41.85799588879492
 23
58.31229744261609
 33
0.0
  0
SOLID
  5
4BA
330
2FF
100
AcDbEntity
  8
RAHM2
100
AcDbTrace
 10
-42.69934420340153
 20
58.31229744261609
 30
0.0
 11
-41.85799588879492
 21
58.31229744261609
 31
0.0
 12
-42.69934420340153
 22
58.17207272351486
 32
0.0
 13
-41.85799588879492
 23
58.17207272351486
 33
0.0
  0
SOLID
  5
4BB
330
2FF
100
AcDbEntity
  8
RAHM2
100
AcDbTrace
 10
-42.69934420340153
 20
58.17207272351486
 30
0.0
 11
-41.99822060789595
 21
58.17207272351486
 31
0.0
 12
-42.69934420340153
 22
58.03184800441382
 32
0.0
 13
-41.99822060789595
 23
58.03184800441382
 33
0.0
  0
SOLID
  5
4BC
330
2FF
100
AcDbEntity
  8
RAHM2
100
AcDbTrace
 10
-42.69934420340153
 20
58.03184800441382
 30
0.0
 11
-42.13844532699718
 21
58.03184800441382
 31
0.0
 12
-42.69934420340153
 22
57.75139856621155
 32
0.0
 13
-42.13844532699718
 23
57.75139856621155
 33
0.0
  0
SOLID
  5
4BD
330
2FF
100
AcDbEntity
  8
RAHM2
100
AcDbTrace
 10
-42.69934420340153
 20
57.75139856621155
 30
0.0
 11
-42.27867004609822
 21
57.75139856621155
 31
0.0
 12
-42.69934420340153
 22
57.61117384711032
 32
0.0
 13
-42.27867004609822
 23
57.61117384711032
 33
0.0
  0
SOLID
  5
4BE
330
2FF
100
AcDbEntity
  8
RAHM2
100
AcDbTrace
 10
-38.07192847306458
 20
60.83634238643631
 30
0.0
 11
-37.23058015845777
 21
60.83634238643631
 31
0.0
 12
-38.07192847306458
 22
60.69611766733508
 32
0.0
 13
-37.23058015845777
 23
60.69611766733508
 33
0.0
  0
SOLID
  5
4BF
330
2FF
100
AcDbEntity
  8
RAHM2
100
AcDbTrace
 10
-38.63282734946911
 20
60.69611766733508
 30
0.0
 11
-37.23058015845777
 21
60.69611766733508
 31
0.0
 12
-38.63282734946911
 22
60.55589294823405
 32
0.0
 13
-37.23058015845777
 23
60.55589294823405
 33
0.0
  0
SOLID
  5
4C0
330
2FF
100
AcDbEntity
  8
RAHM2
100
AcDbTrace
 10
-38.91327678767119
 20
60.55589294823405
 30
0.0
 11
-38.35237791126684
 21
60.55589294823405
 31
0.0
 12
-38.91327678767119
 22
60.41566822913281
 32
0.0
 13
-38.35237791126684
 23
60.41566822913281
 33
0.0
  0
SOLID
  5
4C1
330
2FF
100
AcDbEntity
  8
RAHM2
100
AcDbTrace
 10
-39.19372622587346
 20
60.41566822913281
 30
0.0
 11
-38.77305206857015
 21
60.41566822913281
 31
0.0
 12
-39.19372622587346
 22
60.27544351003178
 32
0.0
 13
-38.77305206857015
 23
60.27544351003178
 33
0.0
  0
SOLID
  5
4C2
330
2FF
100
AcDbEntity
  8
RAHM2
100
AcDbTrace
 10
-37.79147903486231
 20
60.55589294823405
 30
0.0
 11
-37.23058015845777
 21
60.55589294823405
 31
0.0
 12
-37.79147903486231
 22
60.27544351003178
 32
0.0
 13
-37.23058015845777
 23
60.27544351003178
 33
0.0
  0
SOLID
  5
4C3
330
2FF
100
AcDbEntity
  8
RAHM2
100
AcDbTrace
 10
-39.33395094497469
 20
60.27544351003178
 30
0.0
 11
-39.05350150677242
 21
60.27544351003178
 31
0.0
 12
-39.33395094497469
 22
60.13521879093055
 32
0.0
 13
-39.05350150677242
 23
60.13521879093055
 33
0.0
  0
SOLID
  5
4C4
330
2FF
100
AcDbEntity
  8
RAHM2
100
AcDbTrace
 10
-39.47417566407573
 20
60.13521879093055
 30
0.0
 11
-39.05350150677242
 21
60.13521879093055
 31
0.0
 12
-39.47417566407573
 22
59.99499407182951
 32
0.0
 13
-39.05350150677242
 23
59.99499407182951
 33
0.0
  0
SOLID
  5
4C5
330
2FF
100
AcDbEntity
  8
RAHM2
100
AcDbTrace
 10
-37.79147903486231
 20
60.27544351003178
 30
0.0
 11
-37.370804877559
 21
60.27544351003178
 31
0.0
 12
-37.79147903486231
 22
60.13521879093055
 32
0.0
 13
-37.370804877559
 23
60.13521879093055
 33
0.0
  0
SOLID
  5
4C6
330
2FF
100
AcDbEntity
  8
RAHM2
100
AcDbTrace
 10
-37.93170375396335
 20
60.13521879093055
 30
0.0
 11
-37.370804877559
 21
60.13521879093055
 31
0.0
 12
-37.93170375396335
 22
59.99499407182951
 32
0.0
 13
-37.370804877559
 23
59.99499407182951
 33
0.0
  0
SOLID
  5
4C7
330
2FF
100
AcDbEntity
  8
RAHM2
100
AcDbTrace
 10
-39.61440038317696
 20
59.99499407182951
 30
0.0
 11
-39.19372622587346
 21
59.99499407182951
 31
0.0
 12
-39.61440038317696
 22
59.85476935272828
 32
0.0
 13
-39.19372622587346
 23
59.85476935272828
 33
0.0
  0
SOLID
  5
4C8
330
2FF
100
AcDbEntity
  8
RAHM2
100
AcDbTrace
 10
-39.754625102278
 20
59.85476935272828
 30
0.0
 11
-39.33395094497469
 21
59.85476935272828
 31
0.0
 12
-39.754625102278
 22
59.71454463362724
 32
0.0
 13
-39.33395094497469
 23
59.71454463362724
 33
0.0
  0
SOLID
  5
4C9
330
2FF
100
AcDbEntity
  8
RAHM2
100
AcDbTrace
 10
-37.93170375396335
 20
59.99499407182951
 30
0.0
 11
-37.370804877559
 21
59.99499407182951
 31
0.0
 12
-37.93170375396335
 22
59.71454463362724
 32
0.0
 13
-37.370804877559
 23
59.71454463362724
 33
0.0
  0
SOLID
  5
4CA
330
2FF
100
AcDbEntity
  8
RAHM2
100
AcDbTrace
 10
-39.754625102278
 20
59.71454463362724
 30
0.0
 11
-39.33395094497469
 21
59.71454463362724
 31
0.0
 12
-39.754625102278
 22
59.5743199145262
 32
0.0
 13
-39.33395094497469
 23
59.5743199145262
 33
0.0
  0
SOLID
  5
4CB
330
2FF
100
AcDbEntity
  8
RAHM2
100
AcDbTrace
 10
-39.89484982137923
 20
59.5743199145262
 30
0.0
 11
-39.33395094497469
 21
59.5743199145262
 31
0.0
 12
-39.89484982137923
 22
59.43409519542497
 32
0.0
 13
-39.33395094497469
 23
59.43409519542497
 33
0.0
  0
SOLID
  5
4CC
330
2FF
100
AcDbEntity
  8
RAHM2
100
AcDbTrace
 10
-38.07192847306458
 20
59.71454463362724
 30
0.0
 11
-37.51102959666004
 21
59.71454463362724
 31
0.0
 12
-38.07192847306458
 22
59.43409519542497
 32
0.0
 13
-37.51102959666004
 23
59.43409519542497
 33
0.0
  0
SOLID
  5
4CD
330
2FF
100
AcDbEntity
  8
RAHM2
100
AcDbTrace
 10
-39.89484982137923
 20
59.43409519542497
 30
0.0
 11
-39.47417566407573
 21
59.43409519542497
 31
0.0
 12
-39.89484982137923
 22
59.29387047632393
 32
0.0
 13
-39.47417566407573
 23
59.29387047632393
 33
0.0
  0
SOLID
  5
4CE
330
2FF
100
AcDbEntity
  8
RAHM2
100
AcDbTrace
 10
-40.03507454048026
 20
59.29387047632393
 30
0.0
 11
-39.47417566407573
 21
59.29387047632393
 31
0.0
 12
-40.03507454048026
 22
59.15364575722271
 32
0.0
 13
-39.47417566407573
 23
59.15364575722271
 33
0.0
  0
SOLID
  5
4CF
330
2FF
100
AcDbEntity
  8
RAHM2
100
AcDbTrace
 10
-38.21215319216562
 20
59.43409519542497
 30
0.0
 11
-37.51102959666004
 21
59.43409519542497
 31
0.0
 12
-38.21215319216562
 22
59.15364575722271
 32
0.0
 13
-37.51102959666004
 23
59.15364575722271
 33
0.0
  0
SOLID
  5
4D0
330
2FF
100
AcDbEntity
  8
RAHM2
100
AcDbTrace
 10
-40.03507454048026
 20
59.15364575722271
 30
0.0
 11
-39.47417566407573
 21
59.15364575722271
 31
0.0
 12
-40.03507454048026
 22
59.01342103812166
 32
0.0
 13
-39.47417566407573
 23
59.01342103812166
 33
0.0
  0
SOLID
  5
4D1
330
2FF
100
AcDbEntity
  8
RAHM2
100
AcDbTrace
 10
-38.35237791126684
 20
59.15364575722271
 30
0.0
 11
-37.51102959666004
 21
59.15364575722271
 31
0.0
 12
-38.35237791126684
 22
59.01342103812166
 32
0.0
 13
-37.51102959666004
 23
59.01342103812166
 33
0.0
  0
SOLID
  5
4D2
330
2FF
100
AcDbEntity
  8
RAHM2
100
AcDbTrace
 10
-40.03507454048026
 20
59.01342103812166
 30
0.0
 11
-39.47417566407573
 21
59.01342103812166
 31
0.0
 12
-40.03507454048026
 22
58.73297159991939
 32
0.0
 13
-39.47417566407573
 23
58.73297159991939
 33
0.0
  0
SOLID
  5
4D3
330
2FF
100
AcDbEntity
  8
RAHM2
100
AcDbTrace
 10
-40.03507454048026
 20
58.73297159991939
 30
0.0
 11
-39.61440038317696
 21
58.73297159991939
 31
0.0
 12
-40.03507454048026
 22
58.59274688081836
 32
0.0
 13
-39.61440038317696
 23
58.59274688081836
 33
0.0
  0
SOLID
  5
4D4
330
2FF
100
AcDbEntity
  8
RAHM2
100
AcDbTrace
 10
-38.35237791126684
 20
59.01342103812166
 30
0.0
 11
-38.21215319216562
 21
59.01342103812166
 31
0.0
 12
-38.35237791126684
 22
58.87319631902044
 32
0.0
 13
-38.21215319216562
 23
58.87319631902044
 33
0.0
  0
SOLID
  5
4D5
330
2FF
100
AcDbEntity
  8
RAHM2
100
AcDbTrace
 10
-38.49260263036788
 20
58.87319631902044
 30
0.0
 11
-38.35237791126684
 21
58.87319631902044
 31
0.0
 12
-38.49260263036788
 22
58.73297159991939
 32
0.0
 13
-38.35237791126684
 23
58.73297159991939
 33
0.0
  0
SOLID
  5
4D6
330
2FF
100
AcDbEntity
  8
RAHM2
100
AcDbTrace
 10
-38.21215319216562
 20
59.01342103812166
 30
0.0
 11
-37.65125431576108
 21
59.01342103812166
 31
0.0
 12
-38.21215319216562
 22
58.59274688081836
 32
0.0
 13
-37.65125431576108
 23
58.59274688081836
 33
0.0
  0
SOLID
  5
4D7
330
2FF
100
AcDbEntity
  8
RAHM2
100
AcDbTrace
 10
-40.03507454048026
 20
58.59274688081836
 30
0.0
 11
-39.61440038317696
 21
58.59274688081836
 31
0.0
 12
-40.03507454048026
 22
58.45252216171712
 32
0.0
 13
-39.61440038317696
 23
58.45252216171712
 33
0.0
  0
SOLID
  5
4D8
330
2FF
100
AcDbEntity
  8
RAHM2
100
AcDbTrace
 10
-40.17529925958131
 20
58.45252216171712
 30
0.0
 11
-39.61440038317696
 21
58.45252216171712
 31
0.0
 12
-40.17529925958131
 22
58.31229744261609
 32
0.0
 13
-39.61440038317696
 23
58.31229744261609
 33
0.0
  0
SOLID
  5
4D9
330
2FF
100
AcDbEntity
  8
RAHM2
100
AcDbTrace
 10
-38.63282734946911
 20
58.59274688081836
 30
0.0
 11
-38.49260263036788
 21
58.59274688081836
 31
0.0
 12
-38.63282734946911
 22
58.45252216171712
 32
0.0
 13
-38.49260263036788
 23
58.45252216171712
 33
0.0
  0
SOLID
  5
4DA
330
2FF
100
AcDbEntity
  8
RAHM2
100
AcDbTrace
 10
-38.91327678767119
 20
58.45252216171712
 30
0.0
 11
-38.63282734946911
 21
58.45252216171712
 31
0.0
 12
-38.91327678767119
 22
58.31229744261609
 32
0.0
 13
-38.63282734946911
 23
58.31229744261609
 33
0.0
  0
SOLID
  5
4DB
330
2FF
100
AcDbEntity
  8
RAHM2
100
AcDbTrace
 10
-38.21215319216562
 20
58.59274688081836
 30
0.0
 11
-37.65125431576108
 21
58.59274688081836
 31
0.0
 12
-38.21215319216562
 22
58.45252216171712
 32
0.0
 13
-37.65125431576108
 23
58.45252216171712
 33
0.0
  0
SOLID
  5
4DC
330
2FF
100
AcDbEntity
  8
RAHM2
100
AcDbTrace
 10
-38.21215319216562
 20
58.45252216171712
 30
0.0
 11
-37.79147903486231
 21
58.45252216171712
 31
0.0
 12
-38.21215319216562
 22
58.31229744261609
 32
0.0
 13
-37.79147903486231
 23
58.31229744261609
 33
0.0
  0
SOLID
  5
4DD
330
2FF
100
AcDbEntity
  8
RAHM2
100
AcDbTrace
 10
-40.17529925958131
 20
58.31229744261609
 30
0.0
 11
-39.61440038317696
 21
58.31229744261609
 31
0.0
 12
-40.17529925958131
 22
58.17207272351486
 32
0.0
 13
-39.61440038317696
 23
58.17207272351486
 33
0.0
  0
SOLID
  5
4DE
330
2FF
100
AcDbEntity
  8
RAHM2
100
AcDbTrace
 10
-39.05350150677242
 20
58.31229744261609
 30
0.0
 11
-38.77305206857015
 21
58.31229744261609
 31
0.0
 12
-39.05350150677242
 22
58.17207272351486
 32
0.0
 13
-38.77305206857015
 23
58.17207272351486
 33
0.0
  0
SOLID
  5
4DF
330
2FF
100
AcDbEntity
  8
RAHM2
100
AcDbTrace
 10
-38.35237791126684
 20
58.31229744261609
 30
0.0
 11
-37.79147903486231
 21
58.31229744261609
 31
0.0
 12
-38.35237791126684
 22
58.17207272351486
 32
0.0
 13
-37.79147903486231
 23
58.17207272351486
 33
0.0
  0
SOLID
  5
4E0
330
2FF
100
AcDbEntity
  8
RAHM2
100
AcDbTrace
 10
-40.17529925958131
 20
58.17207272351486
 30
0.0
 11
-39.47417566407573
 21
58.17207272351486
 31
0.0
 12
-40.17529925958131
 22
58.03184800441382
 32
0.0
 13
-39.47417566407573
 23
58.03184800441382
 33
0.0
  0
SOLID
  5
4E1
330
2FF
100
AcDbEntity
  8
RAHM2
100
AcDbTrace
 10
-39.19372622587346
 20
58.17207272351486
 30
0.0
 11
-38.91327678767119
 21
58.17207272351486
 31
0.0
 12
-39.19372622587346
 22
58.03184800441382
 32
0.0
 13
-38.91327678767119
 23
58.03184800441382
 33
0.0
  0
SOLID
  5
4E2
330
2FF
100
AcDbEntity
  8
RAHM2
100
AcDbTrace
 10
-38.35237791126684
 20
58.17207272351486
 30
0.0
 11
-37.79147903486231
 21
58.17207272351486
 31
0.0
 12
-38.35237791126684
 22
58.03184800441382
 32
0.0
 13
-37.79147903486231
 23
58.03184800441382
 33
0.0
  0
SOLID
  5
4E3
330
2FF
100
AcDbEntity
  8
RAHM2
100
AcDbTrace
 10
-37.65125431576108
 20
58.17207272351486
 30
0.0
 11
-37.23058015845777
 21
58.17207272351486
 31
0.0
 12
-37.65125431576108
 22
58.03184800441382
 32
0.0
 13
-37.23058015845777
 23
58.03184800441382
 33
0.0
  0
SOLID
  5
4E4
330
2FF
100
AcDbEntity
  8
RAHM2
100
AcDbTrace
 10
-40.03507454048026
 20
58.03184800441382
 30
0.0
 11
-39.05350150677242
 21
58.03184800441382
 31
0.0
 12
-40.03507454048026
 22
57.89162328531259
 32
0.0
 13
-39.05350150677242
 23
57.89162328531259
 33
0.0
  0
SOLID
  5
4E5
330
2FF
100
AcDbEntity
  8
RAHM2
100
AcDbTrace
 10
-40.03507454048026
 20
57.89162328531259
 30
0.0
 11
-39.19372622587346
 21
57.89162328531259
 31
0.0
 12
-40.03507454048026
 22
57.75139856621155
 32
0.0
 13
-39.19372622587346
 23
57.75139856621155
 33
0.0
  0
SOLID
  5
4E6
330
2FF
100
AcDbEntity
  8
RAHM2
100
AcDbTrace
 10
-38.35237791126684
 20
58.03184800441382
 30
0.0
 11
-37.51102959666004
 21
58.03184800441382
 31
0.0
 12
-38.35237791126684
 22
57.89162328531259
 32
0.0
 13
-37.51102959666004
 23
57.89162328531259
 33
0.0
  0
SOLID
  5
4E7
330
2FF
100
AcDbEntity
  8
RAHM2
100
AcDbTrace
 10
-38.35237791126684
 20
57.89162328531259
 30
0.0
 11
-37.79147903486231
 21
57.89162328531259
 31
0.0
 12
-38.35237791126684
 22
57.75139856621155
 32
0.0
 13
-37.79147903486231
 23
57.75139856621155
 33
0.0
  0
SOLID
  5
4E8
330
2FF
100
AcDbEntity
  8
RAHM2
100
AcDbTrace
 10
-39.89484982137923
 20
57.75139856621155
 30
0.0
 11
-39.47417566407573
 21
57.75139856621155
 31
0.0
 12
-39.89484982137923
 22
57.61117384711032
 32
0.0
 13
-39.47417566407573
 23
57.61117384711032
 33
0.0
  0
SOLID
  5
4E9
330
2FF
100
AcDbEntity
  8
RAHM2
100
AcDbTrace
 10
-38.35237791126684
 20
57.75139856621155
 30
0.0
 11
-37.93170375396335
 21
57.75139856621155
 31
0.0
 12
-38.35237791126684
 22
57.61117384711032
 32
0.0
 13
-37.93170375396335
 23
57.61117384711032
 33
0.0
  0
SOLID
  5
4EA
330
2FF
100
AcDbEntity
  8
RAHM2
100
AcDbTrace
 10
-35.26743409104208
 20
60.83634238643631
 30
0.0
 11
-35.12720937194085
 21
60.83634238643631
 31
0.0
 12
-35.26743409104208
 22
60.69611766733508
 32
0.0
 13
-35.12720937194085
 23
60.69611766733508
 33
0.0
  0
SOLID
  5
4EB
330
2FF
100
AcDbEntity
  8
RAHM2
100
AcDbTrace
 10
-33.72496218092969
 20
60.83634238643631
 30
0.0
 11
-33.44451274272743
 21
60.83634238643631
 31
0.0
 12
-33.72496218092969
 22
60.69611766733508
 32
0.0
 13
-33.44451274272743
 23
60.69611766733508
 33
0.0
  0
SOLID
  5
4EC
330
2FF
100
AcDbEntity
  8
RAHM2
100
AcDbTrace
 10
-35.68810824834539
 20
60.69611766733508
 30
0.0
 11
-35.12720937194085
 21
60.69611766733508
 31
0.0
 12
-35.68810824834539
 22
60.55589294823405
 32
0.0
 13
-35.12720937194085
 23
60.55589294823405
 33
0.0
  0
SOLID
  5
4ED
330
2FF
100
AcDbEntity
  8
RAHM2
100
AcDbTrace
 10
-34.14563633823301
 20
60.69611766733508
 30
0.0
 11
-33.30428802362638
 21
60.69611766733508
 31
0.0
 12
-34.14563633823301
 22
60.55589294823405
 32
0.0
 13
-33.30428802362638
 23
60.55589294823405
 33
0.0
  0
SOLID
  5
4EE
330
2FF
100
AcDbEntity
  8
RAHM2
100
AcDbTrace
 10
-36.10878240564888
 20
60.55589294823405
 30
0.0
 11
-35.12720937194085
 21
60.55589294823405
 31
0.0
 12
-36.10878240564888
 22
60.41566822913281
 32
0.0
 13
-35.12720937194085
 23
60.41566822913281
 33
0.0
  0
SOLID
  5
4EF
330
2FF
100
AcDbEntity
  8
RAHM2
100
AcDbTrace
 10
-34.28586105733423
 20
60.55589294823405
 30
0.0
 11
-33.30428802362638
 21
60.55589294823405
 31
0.0
 12
-34.28586105733423
 22
60.41566822913281
 32
0.0
 13
-33.30428802362638
 23
60.41566822913281
 33
0.0
  0
SOLID
  5
4F0
330
2FF
100
AcDbEntity
  8
RAHM2
100
AcDbTrace
 10
-36.38923184385097
 20
60.41566822913281
 30
0.0
 11
-36.10878240564888
 21
60.41566822913281
 31
0.0
 12
-36.38923184385097
 22
60.27544351003178
 32
0.0
 13
-36.10878240564888
 23
60.27544351003178
 33
0.0
  0
SOLID
  5
4F1
330
2FF
100
AcDbEntity
  8
RAHM2
100
AcDbTrace
 10
-35.82833296744662
 20
60.41566822913281
 30
0.0
 11
-35.12720937194085
 21
60.41566822913281
 31
0.0
 12
-35.82833296744662
 22
60.27544351003178
 32
0.0
 13
-35.12720937194085
 23
60.27544351003178
 33
0.0
  0
SOLID
  5
4F2
330
2FF
100
AcDbEntity
  8
RAHM2
100
AcDbTrace
 10
-34.5663104955365
 20
60.41566822913281
 30
0.0
 11
-34.14563633823301
 21
60.41566822913281
 31
0.0
 12
-34.5663104955365
 22
60.27544351003178
 32
0.0
 13
-34.14563633823301
 23
60.27544351003178
 33
0.0
  0
SOLID
  5
4F3
330
2FF
100
AcDbEntity
  8
RAHM2
100
AcDbTrace
 10
-33.86518690003074
 20
60.41566822913281
 30
0.0
 11
-33.30428802362638
 21
60.41566822913281
 31
0.0
 12
-33.86518690003074
 22
60.27544351003178
 32
0.0
 13
-33.30428802362638
 23
60.27544351003178
 33
0.0
  0
SOLID
  5
4F4
330
2FF
100
AcDbEntity
  8
RAHM2
100
AcDbTrace
 10
-35.82833296744662
 20
60.27544351003178
 30
0.0
 11
-35.12720937194085
 21
60.27544351003178
 31
0.0
 12
-35.82833296744662
 22
60.13521879093055
 32
0.0
 13
-35.12720937194085
 23
60.13521879093055
 33
0.0
  0
SOLID
  5
4F5
330
2FF
100
AcDbEntity
  8
RAHM2
100
AcDbTrace
 10
-34.70653521463754
 20
60.27544351003178
 30
0.0
 11
-34.42608577643528
 21
60.27544351003178
 31
0.0
 12
-34.70653521463754
 22
60.13521879093055
 32
0.0
 13
-34.42608577643528
 23
60.13521879093055
 33
0.0
  0
SOLID
  5
4F6
330
2FF
100
AcDbEntity
  8
RAHM2
100
AcDbTrace
 10
-33.86518690003074
 20
60.27544351003178
 30
0.0
 11
-33.30428802362638
 21
60.27544351003178
 31
0.0
 12
-33.86518690003074
 22
60.13521879093055
 32
0.0
 13
-33.30428802362638
 23
60.13521879093055
 33
0.0
  0
SOLID
  5
4F7
330
2FF
100
AcDbEntity
  8
RAHM2
100
AcDbTrace
 10
-35.82833296744662
 20
60.13521879093055
 30
0.0
 11
-35.26743409104208
 21
60.13521879093055
 31
0.0
 12
-35.82833296744662
 22
59.85476935272828
 32
0.0
 13
-35.26743409104208
 23
59.85476935272828
 33
0.0
  0
SOLID
  5
4F8
330
2FF
100
AcDbEntity
  8
RAHM2
100
AcDbTrace
 10
-34.84675993373877
 20
60.13521879093055
 30
0.0
 11
-34.5663104955365
 21
60.13521879093055
 31
0.0
 12
-34.84675993373877
 22
59.99499407182951
 32
0.0
 13
-34.5663104955365
 23
59.99499407182951
 33
0.0
  0
SOLID
  5
4F9
330
2FF
100
AcDbEntity
  8
RAHM2
100
AcDbTrace
 10
-34.98698465283981
 20
59.99499407182951
 30
0.0
 11
-34.70653521463754
 21
59.99499407182951
 31
0.0
 12
-34.98698465283981
 22
59.85476935272828
 32
0.0
 13
-34.70653521463754
 23
59.85476935272828
 33
0.0
  0
SOLID
  5
4FA
330
2FF
100
AcDbEntity
  8
RAHM2
100
AcDbTrace
 10
-33.86518690003074
 20
60.13521879093055
 30
0.0
 11
-33.30428802362638
 21
60.13521879093055
 31
0.0
 12
-33.86518690003074
 22
59.85476935272828
 32
0.0
 13
-33.30428802362638
 23
59.85476935272828
 33
0.0
  0
SOLID
  5
4FB
330
2FF
100
AcDbEntity
  8
RAHM2
100
AcDbTrace
 10
-35.82833296744662
 20
59.85476935272828
 30
0.0
 11
-35.26743409104208
 21
59.85476935272828
 31
0.0
 12
-35.82833296744662
 22
59.71454463362724
 32
0.0
 13
-35.26743409104208
 23
59.71454463362724
 33
0.0
  0
SOLID
  5
4FC
330
2FF
100
AcDbEntity
  8
RAHM2
100
AcDbTrace
 10
-34.98698465283981
 20
59.85476935272828
 30
0.0
 11
-34.84675993373877
 21
59.85476935272828
 31
0.0
 12
-34.98698465283981
 22
59.71454463362724
 32
0.0
 13
-34.84675993373877
 23
59.71454463362724
 33
0.0
  0
SOLID
  5
4FD
330
2FF
100
AcDbEntity
  8
RAHM2
100
AcDbTrace
 10
-33.86518690003074
 20
59.85476935272828
 30
0.0
 11
-33.30428802362638
 21
59.85476935272828
 31
0.0
 12
-33.86518690003074
 22
59.71454463362724
 32
0.0
 13
-33.30428802362638
 23
59.71454463362724
 33
0.0
  0
SOLID
  5
4FE
330
2FF
100
AcDbEntity
  8
RAHM2
100
AcDbTrace
 10
-35.82833296744662
 20
59.71454463362724
 30
0.0
 11
-35.26743409104208
 21
59.71454463362724
 31
0.0
 12
-35.82833296744662
 22
59.5743199145262
 32
0.0
 13
-35.26743409104208
 23
59.5743199145262
 33
0.0
  0
SOLID
  5
4FF
330
2FF
100
AcDbEntity
  8
RAHM2
100
AcDbTrace
 10
-35.96855768654766
 20
59.5743199145262
 30
0.0
 11
-35.40765881014312
 21
59.5743199145262
 31
0.0
 12
-35.96855768654766
 22
59.43409519542497
 32
0.0
 13
-35.40765881014312
 23
59.43409519542497
 33
0.0
  0
SOLID
  5
500
330
2FF
100
AcDbEntity
  8
RAHM2
100
AcDbTrace
 10
-35.12720937194085
 20
59.71454463362724
 30
0.0
 11
-34.98698465283981
 21
59.71454463362724
 31
0.0
 12
-35.12720937194085
 22
59.5743199145262
 32
0.0
 13
-34.98698465283981
 23
59.5743199145262
 33
0.0
  0
SOLID
  5
501
330
2FF
100
AcDbEntity
  8
RAHM2
100
AcDbTrace
 10
-35.26743409104208
 20
59.5743199145262
 30
0.0
 11
-35.12720937194085
 21
59.5743199145262
 31
0.0
 12
-35.26743409104208
 22
59.43409519542497
 32
0.0
 13
-35.12720937194085
 23
59.43409519542497
 33
0.0
  0
SOLID
  5
502
330
2FF
100
AcDbEntity
  8
RAHM2
100
AcDbTrace
 10
-33.86518690003074
 20
59.71454463362724
 30
0.0
 11
-33.44451274272743
 21
59.71454463362724
 31
0.0
 12
-33.86518690003074
 22
59.43409519542497
 32
0.0
 13
-33.44451274272743
 23
59.43409519542497
 33
0.0
  0
SOLID
  5
503
330
2FF
100
AcDbEntity
  8
RAHM2
100
AcDbTrace
 10
-35.96855768654766
 20
59.43409519542497
 30
0.0
 11
-35.12720937194085
 21
59.43409519542497
 31
0.0
 12
-35.96855768654766
 22
59.29387047632393
 32
0.0
 13
-35.12720937194085
 23
59.29387047632393
 33
0.0
  0
SOLID
  5
504
330
2FF
100
AcDbEntity
  8
RAHM2
100
AcDbTrace
 10
-35.96855768654766
 20
59.29387047632393
 30
0.0
 11
-35.26743409104208
 21
59.29387047632393
 31
0.0
 12
-35.96855768654766
 22
59.01342103812166
 32
0.0
 13
-35.26743409104208
 23
59.01342103812166
 33
0.0
  0
SOLID
  5
505
330
2FF
100
AcDbEntity
  8
RAHM2
100
AcDbTrace
 10
-34.00541161913196
 20
59.43409519542497
 30
0.0
 11
-33.44451274272743
 21
59.43409519542497
 31
0.0
 12
-34.00541161913196
 22
59.15364575722271
 32
0.0
 13
-33.44451274272743
 23
59.15364575722271
 33
0.0
  0
SOLID
  5
506
330
2FF
100
AcDbEntity
  8
RAHM2
100
AcDbTrace
 10
-34.00541161913196
 20
59.15364575722271
 30
0.0
 11
-33.58473746182865
 21
59.15364575722271
 31
0.0
 12
-34.00541161913196
 22
59.01342103812166
 32
0.0
 13
-33.58473746182865
 23
59.01342103812166
 33
0.0
  0
SOLID
  5
507
330
2FF
100
AcDbEntity
  8
RAHM2
100
AcDbTrace
 10
-36.10878240564888
 20
59.01342103812166
 30
0.0
 11
-35.40765881014312
 21
59.01342103812166
 31
0.0
 12
-36.10878240564888
 22
58.73297159991939
 32
0.0
 13
-35.40765881014312
 23
58.73297159991939
 33
0.0
  0
SOLID
  5
508
330
2FF
100
AcDbEntity
  8
RAHM2
100
AcDbTrace
 10
-36.10878240564888
 20
58.73297159991939
 30
0.0
 11
-35.54788352924435
 21
58.73297159991939
 31
0.0
 12
-36.10878240564888
 22
58.45252216171712
 32
0.0
 13
-35.54788352924435
 23
58.45252216171712
 33
0.0
  0
SOLID
  5
509
330
2FF
100
AcDbEntity
  8
RAHM2
100
AcDbTrace
 10
-34.00541161913196
 20
59.01342103812166
 30
0.0
 11
-33.58473746182865
 21
59.01342103812166
 31
0.0
 12
-34.00541161913196
 22
58.87319631902044
 32
0.0
 13
-33.58473746182865
 23
58.87319631902044
 33
0.0
  0
SOLID
  5
50A
330
2FF
100
AcDbEntity
  8
RAHM2
100
AcDbTrace
 10
-34.14563633823301
 20
58.87319631902044
 30
0.0
 11
-33.58473746182865
 21
58.87319631902044
 31
0.0
 12
-34.14563633823301
 22
58.59274688081836
 32
0.0
 13
-33.58473746182865
 23
58.59274688081836
 33
0.0
  0
SOLID
  5
50B
330
2FF
100
AcDbEntity
  8
RAHM2
100
AcDbTrace
 10
-34.14563633823301
 20
58.59274688081836
 30
0.0
 11
-33.72496218092969
 21
58.59274688081836
 31
0.0
 12
-34.14563633823301
 22
58.45252216171712
 32
0.0
 13
-33.72496218092969
 23
58.45252216171712
 33
0.0
  0
SOLID
  5
50C
330
2FF
100
AcDbEntity
  8
RAHM2
100
AcDbTrace
 10
-36.10878240564888
 20
58.45252216171712
 30
0.0
 11
-35.54788352924435
 21
58.45252216171712
 31
0.0
 12
-36.10878240564888
 22
58.31229744261609
 32
0.0
 13
-35.54788352924435
 23
58.31229744261609
 33
0.0
  0
SOLID
  5
50D
330
2FF
100
AcDbEntity
  8
RAHM2
100
AcDbTrace
 10
-34.28586105733423
 20
58.45252216171712
 30
0.0
 11
-33.72496218092969
 21
58.45252216171712
 31
0.0
 12
-34.28586105733423
 22
58.31229744261609
 32
0.0
 13
-33.72496218092969
 23
58.31229744261609
 33
0.0
  0
SOLID
  5
50E
330
2FF
100
AcDbEntity
  8
RAHM2
100
AcDbTrace
 10
-36.24900712474993
 20
58.31229744261609
 30
0.0
 11
-35.68810824834539
 21
58.31229744261609
 31
0.0
 12
-36.24900712474993
 22
58.17207272351486
 32
0.0
 13
-35.68810824834539
 23
58.17207272351486
 33
0.0
  0
SOLID
  5
50F
330
2FF
100
AcDbEntity
  8
RAHM2
100
AcDbTrace
 10
-34.28586105733423
 20
58.31229744261609
 30
0.0
 11
-33.72496218092969
 21
58.31229744261609
 31
0.0
 12
-34.28586105733423
 22
58.17207272351486
 32
0.0
 13
-33.72496218092969
 23
58.17207272351486
 33
0.0
  0
SOLID
  5
510
330
2FF
100
AcDbEntity
  8
RAHM2
100
AcDbTrace
 10
-33.30428802362638
 20
58.31229744261609
 30
0.0
 11
-33.16406330452516
 21
58.31229744261609
 31
0.0
 12
-33.30428802362638
 22
58.17207272351486
 32
0.0
 13
-33.16406330452516
 23
58.17207272351486
 33
0.0
  0
SOLID
  5
511
330
2FF
100
AcDbEntity
  8
RAHM2
100
AcDbTrace
 10
-36.24900712474993
 20
58.17207272351486
 30
0.0
 11
-35.68810824834539
 21
58.17207272351486
 31
0.0
 12
-36.24900712474993
 22
58.03184800441382
 32
0.0
 13
-35.68810824834539
 23
58.03184800441382
 33
0.0
  0
SOLID
  5
512
330
2FF
100
AcDbEntity
  8
RAHM2
100
AcDbTrace
 10
-34.28586105733423
 20
58.17207272351486
 30
0.0
 11
-33.72496218092969
 21
58.17207272351486
 31
0.0
 12
-34.28586105733423
 22
58.03184800441382
 32
0.0
 13
-33.72496218092969
 23
58.03184800441382
 33
0.0
  0
SOLID
  5
513
330
2FF
100
AcDbEntity
  8
RAHM2
100
AcDbTrace
 10
-33.58473746182865
 20
58.17207272351486
 30
0.0
 11
-33.16406330452516
 21
58.17207272351486
 31
0.0
 12
-33.58473746182865
 22
58.03184800441382
 32
0.0
 13
-33.16406330452516
 23
58.03184800441382
 33
0.0
  0
SOLID
  5
514
330
2FF
100
AcDbEntity
  8
RAHM2
100
AcDbTrace
 10
-36.24900712474993
 20
58.03184800441382
 30
0.0
 11
-35.68810824834539
 21
58.03184800441382
 31
0.0
 12
-36.24900712474993
 22
57.75139856621155
 32
0.0
 13
-35.68810824834539
 23
57.75139856621155
 33
0.0
  0
SOLID
  5
515
330
2FF
100
AcDbEntity
  8
RAHM2
100
AcDbTrace
 10
-34.28586105733423
 20
58.03184800441382
 30
0.0
 11
-33.44451274272743
 21
58.03184800441382
 31
0.0
 12
-34.28586105733423
 22
57.89162328531259
 32
0.0
 13
-33.44451274272743
 23
57.89162328531259
 33
0.0
  0
SOLID
  5
516
330
2FF
100
AcDbEntity
  8
RAHM2
100
AcDbTrace
 10
-34.42608577643528
 20
57.89162328531259
 30
0.0
 11
-33.72496218092969
 21
57.89162328531259
 31
0.0
 12
-34.42608577643528
 22
57.75139856621155
 32
0.0
 13
-33.72496218092969
 23
57.75139856621155
 33
0.0
  0
SOLID
  5
517
330
2FF
100
AcDbEntity
  8
RAHM2
100
AcDbTrace
 10
-36.38923184385097
 20
57.75139856621155
 30
0.0
 11
-35.82833296744662
 21
57.75139856621155
 31
0.0
 12
-36.38923184385097
 22
57.61117384711032
 32
0.0
 13
-35.82833296744662
 23
57.61117384711032
 33
0.0
  0
SOLID
  5
518
330
2FF
100
AcDbEntity
  8
RAHM2
100
AcDbTrace
 10
-34.28586105733423
 20
57.75139856621155
 30
0.0
 11
-34.00541161913196
 21
57.75139856621155
 31
0.0
 12
-34.28586105733423
 22
57.61117384711032
 32
0.0
 13
-34.00541161913196
 23
57.61117384711032
 33
0.0
  0
SOLID
  5
519
330
2FF
100
AcDbEntity
  8
RAHM2
100
AcDbTrace
 10
-30.92046779890719
 20
61.81791542014416
 30
0.0
 11
-30.78024307980615
 21
61.81791542014416
 31
0.0
 12
-30.92046779890719
 22
61.67769070104293
 32
0.0
 13
-30.78024307980615
 23
61.67769070104293
 33
0.0
  0
SOLID
  5
51A
330
2FF
100
AcDbEntity
  8
RAHM2
100
AcDbTrace
 10
-31.06069251800842
 20
61.67769070104293
 30
0.0
 11
-30.78024307980615
 21
61.67769070104293
 31
0.0
 12
-31.06069251800842
 22
61.53746598194189
 32
0.0
 13
-30.78024307980615
 23
61.53746598194189
 33
0.0
  0
SOLID
  5
51B
330
2FF
100
AcDbEntity
  8
RAHM2
100
AcDbTrace
 10
-31.20091723710946
 20
61.53746598194189
 30
0.0
 11
-30.78024307980615
 21
61.53746598194189
 31
0.0
 12
-31.20091723710946
 22
61.39724126284066
 32
0.0
 13
-30.78024307980615
 23
61.39724126284066
 33
0.0
  0
SOLID
  5
51C
330
2FF
100
AcDbEntity
  8
RAHM2
100
AcDbTrace
 10
-31.3411419562105
 20
61.39724126284066
 30
0.0
 11
-30.78024307980615
 21
61.39724126284066
 31
0.0
 12
-31.3411419562105
 22
61.1167918246384
 32
0.0
 13
-30.78024307980615
 23
61.1167918246384
 33
0.0
  0
SOLID
  5
51D
330
2FF
100
AcDbEntity
  8
RAHM2
100
AcDbTrace
 10
-31.3411419562105
 20
61.1167918246384
 30
0.0
 11
-30.92046779890719
 21
61.1167918246384
 31
0.0
 12
-31.3411419562105
 22
60.97656710553735
 32
0.0
 13
-30.92046779890719
 23
60.97656710553735
 33
0.0
  0
SOLID
  5
51E
330
2FF
100
AcDbEntity
  8
RAHM2
100
AcDbTrace
 10
-31.48136667531173
 20
60.97656710553735
 30
0.0
 11
-30.92046779890719
 21
60.97656710553735
 31
0.0
 12
-31.48136667531173
 22
60.83634238643631
 32
0.0
 13
-30.92046779890719
 23
60.83634238643631
 33
0.0
  0
SOLID
  5
51F
330
2FF
100
AcDbEntity
  8
RAHM2
100
AcDbTrace
 10
-32.04226555171627
 20
60.83634238643631
 30
0.0
 11
-30.07911948430039
 21
60.83634238643631
 31
0.0
 12
-32.04226555171627
 22
60.69611766733508
 32
0.0
 13
-30.07911948430039
 23
60.69611766733508
 33
0.0
  0
SOLID
  5
520
330
2FF
100
AcDbEntity
  8
RAHM2
100
AcDbTrace
 10
-32.04226555171627
 20
60.69611766733508
 30
0.0
 11
-30.07911948430039
 21
60.69611766733508
 31
0.0
 12
-32.04226555171627
 22
60.55589294823405
 32
0.0
 13
-30.07911948430039
 23
60.55589294823405
 33
0.0
  0
SOLID
  5
521
330
2FF
100
AcDbEntity
  8
RAHM2
100
AcDbTrace
 10
-31.62159139441277
 20
60.55589294823405
 30
0.0
 11
-31.06069251800842
 21
60.55589294823405
 31
0.0
 12
-31.62159139441277
 22
59.99499407182951
 32
0.0
 13
-31.06069251800842
 23
59.99499407182951
 33
0.0
  0
SOLID
  5
522
330
2FF
100
AcDbEntity
  8
RAHM2
100
AcDbTrace
 10
-31.761816113514
 20
59.99499407182951
 30
0.0
 11
-31.20091723710946
 21
59.99499407182951
 31
0.0
 12
-31.761816113514
 22
59.43409519542497
 32
0.0
 13
-31.20091723710946
 23
59.43409519542497
 33
0.0
  0
SOLID
  5
523
330
2FF
100
AcDbEntity
  8
RAHM2
100
AcDbTrace
 10
-31.761816113514
 20
59.43409519542497
 30
0.0
 11
-31.3411419562105
 21
59.43409519542497
 31
0.0
 12
-31.761816113514
 22
59.15364575722271
 32
0.0
 13
-31.3411419562105
 23
59.15364575722271
 33
0.0
  0
SOLID
  5
524
330
2FF
100
AcDbEntity
  8
RAHM2
100
AcDbTrace
 10
-31.90204083261504
 20
59.15364575722271
 30
0.0
 11
-31.3411419562105
 21
59.15364575722271
 31
0.0
 12
-31.90204083261504
 22
58.73297159991939
 32
0.0
 13
-31.3411419562105
 23
58.73297159991939
 33
0.0
  0
SOLID
  5
525
330
2FF
100
AcDbEntity
  8
RAHM2
100
AcDbTrace
 10
-31.90204083261504
 20
58.73297159991939
 30
0.0
 11
-31.48136667531173
 21
58.73297159991939
 31
0.0
 12
-31.90204083261504
 22
58.59274688081836
 32
0.0
 13
-31.48136667531173
 23
58.59274688081836
 33
0.0
  0
SOLID
  5
526
330
2FF
100
AcDbEntity
  8
RAHM2
100
AcDbTrace
 10
-31.90204083261504
 20
58.59274688081836
 30
0.0
 11
-31.48136667531173
 21
58.59274688081836
 31
0.0
 12
-31.90204083261504
 22
58.45252216171712
 32
0.0
 13
-31.48136667531173
 23
58.45252216171712
 33
0.0
  0
SOLID
  5
527
330
2FF
100
AcDbEntity
  8
RAHM2
100
AcDbTrace
 10
-32.04226555171627
 20
58.45252216171712
 30
0.0
 11
-31.48136667531173
 21
58.45252216171712
 31
0.0
 12
-32.04226555171627
 22
58.31229744261609
 32
0.0
 13
-31.48136667531173
 23
58.31229744261609
 33
0.0
  0
SOLID
  5
528
330
2FF
100
AcDbEntity
  8
RAHM2
100
AcDbTrace
 10
-32.04226555171627
 20
58.31229744261609
 30
0.0
 11
-31.3411419562105
 21
58.31229744261609
 31
0.0
 12
-32.04226555171627
 22
58.17207272351486
 32
0.0
 13
-31.3411419562105
 23
58.17207272351486
 33
0.0
  0
SOLID
  5
529
330
2FF
100
AcDbEntity
  8
RAHM2
100
AcDbTrace
 10
-32.04226555171627
 20
58.17207272351486
 30
0.0
 11
-31.3411419562105
 21
58.17207272351486
 31
0.0
 12
-32.04226555171627
 22
58.03184800441382
 32
0.0
 13
-31.3411419562105
 23
58.03184800441382
 33
0.0
  0
SOLID
  5
52A
330
2FF
100
AcDbEntity
  8
RAHM2
100
AcDbTrace
 10
-30.64001836070493
 20
58.17207272351486
 30
0.0
 11
-30.49979364160388
 21
58.17207272351486
 31
0.0
 12
-30.64001836070493
 22
58.03184800441382
 32
0.0
 13
-30.49979364160388
 23
58.03184800441382
 33
0.0
  0
SOLID
  5
52B
330
2FF
100
AcDbEntity
  8
RAHM2
100
AcDbTrace
 10
-32.04226555171627
 20
58.03184800441382
 30
0.0
 11
-30.49979364160388
 21
58.03184800441382
 31
0.0
 12
-32.04226555171627
 22
57.89162328531259
 32
0.0
 13
-30.49979364160388
 23
57.89162328531259
 33
0.0
  0
SOLID
  5
52C
330
2FF
100
AcDbEntity
  8
RAHM2
100
AcDbTrace
 10
-32.04226555171627
 20
57.89162328531259
 30
0.0
 11
-30.64001836070493
 21
57.89162328531259
 31
0.0
 12
-32.04226555171627
 22
57.75139856621155
 32
0.0
 13
-30.64001836070493
 23
57.75139856621155
 33
0.0
  0
SOLID
  5
52D
330
2FF
100
AcDbEntity
  8
RAHM2
100
AcDbTrace
 10
-31.90204083261504
 20
57.75139856621155
 30
0.0
 11
-31.20091723710946
 21
57.75139856621155
 31
0.0
 12
-31.90204083261504
 22
57.61117384711032
 32
0.0
 13
-31.20091723710946
 23
57.61117384711032
 33
0.0
  0
ATTDEF
  5
52E
330
2FF
100
AcDbEntity
  8
RAHM3
100
AcDbText
 10
-100.6895275842899
 20
38.58583043117892
 30
0.0
 40
3.0
  1
-
 72
     1
 11
-99.68952758428997
 21
38.58583043117892
 31
0.0
100
AcDbAttributeDefinition
  3
(genmsg"gendwg"83)
  2
GEN-TITLE-SCA{5.42}
 70
     0
1001
GENIUS_GENBLLY_14
1000
BOR3
  0
TEXT
  5
52F
330
2FF
100
AcDbEntity
  8
0N
100
AcDbText
 10
-180.0433753026868
 20
97.16012098886922
 30
0.0
 40
3.5
  1
Zeichnungen größer darstellenden Maßstabes bzw. Einzelteilzeichnungen
 41
0.9
100
AcDbText
  0
TEXT
  5
530
330
2FF
100
AcDbEntity
  8
0N
100
AcDbText
 10
-180.0433753026868
 20
91.14471067045299
 30
0.0
 40
3.5
  1
haben vorrangige Gültigkeit
 41
0.9
100
AcDbText
  0
LINE
  5
531
330
2FF
100
AcDbEntity
  8
KOPF
 62
    12
100
AcDbLine
 10
0.0
 20
103.4999999999999
 30
0.0
 11
-182.0
 21
103.4999999999999
 31
0.0
  0
LINE
  5
532
330
2FF
100
AcDbEntity
  8
KOPF
100
AcDbLine
 10
0.0
 20
103.4999999999999
 30
0.0
 11
-182.0
 21
103.4999999999999
 31
0.0
  0
ENDBLK
  5
533
330
2FF
100
AcDbEntity
  8
0
100
AcDbBlockEnd
  0
BLOCK
  5
535
330
534
100
AcDbEntity
  8
0
100
AcDbBlockBegin
  2
GENZOOIJNBVB3
 70
     0
 10
0.0
 20
0.0
 30
0.0
  3
GENZOOIJNBVB3
  1

  0
CIRCLE
  5
536
330
534
100
AcDbEntity
  8
WHITE
  6
Continuous
100
AcDbCircle
 10
6.453833318453121
 20
0.0
 30
0.0
 40
2.277733996314847
  0
CIRCLE
  5
537
330
534
100
AcDbEntity
  8
WHITE
  6
Continuous
100
AcDbCircle
 10
6.453833318453121
 20
0.0
 30
0.0
 40
1.576892766679509
  0
ARC
  5
538
330
534
100
AcDbEntity
  8
WHITE
100
AcDbCircle
 10
-3.124894526218326
 20
-2.333109784966268
 30
0.0
 40
4.905835633809448
100
AcDbArc
 50
172.3057540000012
 51
179.7112909999983
  0
LINE
  5
539
330
534
100
AcDbEntity
  8
WHITE
100
AcDbLine
 10
-7.98656033324346
 20
-1.676283536096804
 30
0.0
 11
-4.921112416005485
 21
-1.676283536096804
 31
0.0
  0
ARC
  5
53A
330
534
100
AcDbEntity
  8
WHITE
100
AcDbCircle
 10
-9.782843421354186
 20
-2.333113859861612
 30
0.0
 40
4.905898794685424
100
AcDbArc
 50
0.2887579999957042
 51
7.694197000004674
  0
LINE
  5
53B
330
534
100
AcDbEntity
  8
WHITE
100
AcDbLine
 10
-4.877005750097168
 20
-2.308389433087711
 30
0.0
 11
-4.176158408119135
 21
-2.308389433087711
 31
0.0
  0
ARC
  5
53C
330
534
100
AcDbEntity
  8
WHITE
100
AcDbCircle
 10
-9.782843421354186
 20
-2.333113859861612
 30
0.0
 40
5.606740024320764
100
AcDbArc
 50
0.2526630000050822
 51
53.57637100000324
  0
ARC
  5
53D
330
534
100
AcDbEntity
  8
WHITE
100
AcDbCircle
 10
-3.124894526218326
 20
-2.333109784966268
 30
0.0
 40
5.606699275368519
100
AcDbArc
 50
126.4231449999945
 51
179.7473799999977
  0
LINE
  5
53E
330
534
100
AcDbEntity
  8
WHITE
100
AcDbLine
 10
-8.731516378577907
 20
-2.308389433087711
 30
0.0
 11
-8.03066699915189
 21
-2.308389433087711
 31
0.0
  0
ARC
  5
53F
330
534
100
AcDbEntity
  8
WHITE
  6
Continuous
100
AcDbCircle
 10
0.0
 20
0.0
 30
0.0
 40
1.576890729231897
100
AcDbArc
 50
31.05578300000499
 51
329.9999750000025
  0
LINE
  5
540
330
534
100
AcDbEntity
  8
WHITE
  6
Continuous
100
AcDbLine
 10
1.350868515823094
 20
0.8134754085312891
 30
0.0
 11
1.957885282917686
 21
1.163938809748742
 31
0.0
  0
ARC
  5
541
330
534
100
AcDbEntity
  8
WHITE
  6
Continuous
100
AcDbCircle
 10
0.0
 20
0.0
 30
0.0
 40
2.277731958867235
100
AcDbArc
 50
30.73095099999774
 51
329.9999720000071
  0
LINE
  5
542
330
534
100
AcDbEntity
  8
WHITE
  6
Continuous
100
AcDbLine
 10
1.972573242753924
 20
-1.138865979433802
 30
0.0
 11
1.365627786325603
 21
-0.7884453646161802
 31
0.0
  0
ARC
  5
543
330
534
100
AcDbEntity
  8
WHITE
100
AcDbCircle
 10
-9.782843421354186
 20
-2.333113859861612
 30
0.0
 40
4.905898794685424
100
AcDbArc
 50
16.0658920000019
 51
47.26783700000162
  0
LINE
  5
544
330
534
100
AcDbEntity
  8
WHITE
100
AcDbLine
 10
-5.06854823756521
 20
-0.9754423064612467
 30
0.0
 11
-7.839126549131606
 21
-0.9754423064612467
 31
0.0
  0
ARC
  5
545
330
534
100
AcDbEntity
  8
WHITE
100
AcDbCircle
 10
-3.124894526218326
 20
-2.333109784966268
 30
0.0
 40
4.905851933390343
100
AcDbArc
 50
132.7316659999998
 51
163.9339569999975
  0
HATCH
  5
546
330
534
100
AcDbEntity
  8
AM_8
100
AcDbHatch
 10
0.0
 20
0.0
 30
0.0
210
0.0
220
0.0
230
1.0
  2
_U
 70
     0
 71
     0
 91
        1
 92
        1
 93
        4
 72
     2
 10
0.0
 20
0.0
 40
2.277731958867238
 50
30.73096496929825
 51
329.9999720000063
 73
     1
 72
     1
 10
1.972573182835617
 20
-1.138866943414654
 11
1.365627086482618
 21
-0.788445960483216
 72
     2
 10
0.0
 20
-0.0000000000000142
 40
1.576890729231897
 50
30.0000249999977
 51
328.9442169999937
 73
     0
 72
     1
 10
1.350867814038679
 20
0.8134743517356355
 11
1.957884245333985
 21
1.163938210695889
 97
        0
 75
     0
 76
     0
 52
45.0
 41
0.09
 77
     1
 78
     2
 53
45.0
 43
-176.4571517690805
 44
-54.26157204673851
 45
-0.0636396103067893
 46
0.0636396103067893
 79
     0
 53
135.0
 43
-176.4571517690805
 44
-54.26157204673851
 45
-0.0636396103067893
 46
-0.0636396103067893
 79
     0
 98
        1
 10
-176.4571517690805
 20
-54.26157204673851
1001
GENIUS_GENODEF_13
1002
{
1000
HIER
1070
     0
1002
}
1002
{
1000
MANEDIT
1070
     0
1002
}
1002
{
1000
NOSEL
1070
     0
1002
}
1002
{
1000
BEHIND
1070
     0
1002
}
1002
{
1000
OTHER
1070
     0
1002
}
1002
{
1000
REACTOR
1002
}
1001
GENIUS_GENOBJ-N-HTC_13
1002
{
1000
OWNER
1000
GEN
1002
}
1001
GENIUS_GENHATCH_13
1002
{
1000
DATA
1040
45.0
1042
0.09
1000
_U
1070
     1
1011
-1.371550383403359
1021
1.131275704293642
1031
0.0
1002
}
1002
{
1000
UCS
1010
0.0
1020
0.0
1030
0.0
1010
1.0
1020
0.0
1030
0.0
1010
0.0
1020
1.0
1030
0.0
1002
}
  0
HATCH
  5
547
330
534
100
AcDbEntity
  8
AM_8
100
AcDbHatch
 10
0.0
 20
0.0
 30
0.0
210
0.0
220
0.0
230
1.0
  2
_U
 70
     0
 71
     0
 91
        2
 92
        1
 93
        2
 72
     2
 10
6.453833318453121
 20
-0.0000000000000426
 40
2.277733996314838
 50
191.4591559026153
 51
535.1587630986702
 73
     1
 72
     2
 10
6.453833318453121
 20
-0.0000000000000426
 40
2.277733996314837
 50
175.1587630986701
 51
191.4591559026153
 73
     1
 97
        0
 92
       16
 93
        2
 72
     2
 10
6.453833318453121
 20
0.0
 40
1.576892766679508
 50
348.5408440973836
 51
544.8412369013289
 73
     0
 72
     2
 10
6.453833318453121
 20
0.0
 40
1.576892766679513
 50
184.8412369013289
 51
348.5408440973836
 73
     0
 97
        0
 75
     0
 76
     0
 52
45.0
 41
0.09
 77
     1
 78
     2
 53
45.0
 43
-176.4571517690805
 44
-54.26157204673851
 45
-0.0636396103067893
 46
0.0636396103067893
 79
     0
 53
135.0
 43
-176.4571517690805
 44
-54.26157204673851
 45
-0.0636396103067893
 46
-0.0636396103067893
 79
     0
 98
        1
 10
-176.4571517690805
 20
-54.26157204673851
1001
GENIUS_GENODEF_13
1002
{
1000
HIER
1070
     0
1002
}
1002
{
1000
MANEDIT
1070
     0
1002
}
1002
{
1000
NOSEL
1070
     0
1002
}
1002
{
1000
BEHIND
1070
     0
1002
}
1002
{
1000
OTHER
1070
     0
1002
}
1002
{
1000
REACTOR
1002
}
1001
GENIUS_GENOBJ-N-HTC_13
1002
{
1000
OWNER
1000
GEN
1002
}
1001
GENIUS_GENHATCH_13
1002
{
1000
DATA
1040
45.0
1042
0.09
1000
_U
1070
     1
1011
4.645613787216802
1021
0.1531511037996154
1031
0.0
1002
}
1002
{
1000
UCS
1010
0.0
1020
0.0
1030
0.0
1010
1.0
1020
0.0
1030
0.0
1010
0.0
1020
1.0
1030
0.0
1002
}
  0
HATCH
  5
548
330
534
100
AcDbEntity
  8
AM_8
100
AcDbHatch
 10
0.0
 20
0.0
 30
0.0
210
0.0
220
0.0
230
1.0
  2
_U
 70
     0
 71
     0
 91
        2
 92
        1
 93
        2
 72
     2
 10
6.453833318453121
 20
0.0
 40
2.277733996314846
 50
191.4591559026164
 51
474.0889047300826
 73
     1
 72
     2
 10
6.453833318453121
 20
0.0
 40
2.27773399631485
 50
114.0889047300826
 51
191.4591559026164
 73
     1
 97
        0
 92
       16
 93
        2
 72
     2
 10
6.453833318453121
 20
0.0
 40
1.576892766679481
 50
348.5408440973834
 51
605.911095269917
 73
     0
 72
     2
 10
6.453833318453121
 20
0.0
 40
1.576892766679515
 50
245.9110952699171
 51
348.5408440973834
 73
     0
 97
        0
 75
     0
 76
     0
 52
45.0
 41
0.09
 77
     1
 78
     2
 53
45.0
 43
-176.4571517690805
 44
-54.26157204673851
 45
-0.0636396103067893
 46
0.0636396103067893
 79
     0
 53
135.0
 43
-176.4571517690805
 44
-54.26157204673851
 45
-0.0636396103067893
 46
-0.0636396103067893
 79
     0
 98
        1
 10
-176.4571517690805
 20
-54.26157204673851
1001
GENIUS_GENOBJ-N-HTC_13
1002
{
1000
OWNER
1000
GEN
1002
}
1001
GENIUS_GENODEF_13
1002
{
1000
HIER
1070
     0
1002
}
1002
{
1000
MANEDIT
1070
     0
1002
}
1002
{
1000
NOSEL
1070
     0
1002
}
1002
{
1000
BEHIND
1070
     0
1002
}
1002
{
1000
OTHER
1070
     0
1002
}
1002
{
1000
REACTOR
1002
}
1001
GENIUS_GENHATCH_13
1002
{
1000
DATA
1040
45.0
1042
0.09
1000
_U
1070
     1
1011
5.696521842210927
1021
1.693870951949719
1031
0.0
1002
}
1002
{
1000
UCS
1010
0.0
1020
0.0
1030
0.0
1010
1.0
1020
0.0
1030
0.0
1010
0.0
1020
1.0
1030
0.0
1002
}
  0
LINE
  5
549
330
534
100
AcDbEntity
  8
0
100
AcDbLine
 10
-4.921113586658179
 20
-1.676283594022066
 30
0.0
 11
-4.921113586658179
 21
-1.676283594022066
 31
0.0
  0
LINE
  5
54A
330
534
100
AcDbEntity
  8
0
100
AcDbLine
 10
-4.176157912251255
 20
-2.30838933083865
 30
0.0
 11
-4.176157912251255
 21
-2.30838933083865
 31
0.0
  0
HATCH
  5
54B
330
534
100
AcDbEntity
  8
AM_8
100
AcDbHatch
 10
0.0
 20
0.0
 30
0.0
210
0.0
220
0.0
230
1.0
  2
_U
 70
     0
 71
     0
 91
        2
 92
        1
 93
        4
 72
     1
 10
1.957884529114039
 20
1.163937733343487
 11
1.350868515823094
 21
0.813475408531282
 72
     2
 10
-0.0000000103964339
 20
0.00000112835842
 40
1.576891302415311
 50
31.05576742335645
 51
329.9999396831432
 73
     1
 72
     1
 10
1.365627086482618
 20
-0.788445960483216
 11
1.972573182835617
 21
-1.138866943414654
 72
     2
 10
-0.0000000000001137
 20
-0.0000000000000426
 40
2.277731958867243
 50
30.0000279999924
 51
329.269049000002
 73
     0
 97
        0
 92
        1
 93
        2
 72
     1
 10
-6.45383755364196
 20
1.270433126186262
 11
-6.453760069863676
 21
1.270363214094082
 72
     1
 10
-6.453760069863619
 20
1.270363214094089
 11
-6.453837553641903
 21
1.270433126186269
 97
        0
 75
     0
 76
     0
 52
45.0
 41
0.09
 77
     1
 78
     2
 53
45.0
 43
-176.4571517690805
 44
-54.26157204673851
 45
-0.0636396103067893
 46
0.0636396103067893
 79
     0
 53
135.0
 43
-176.4571517690805
 44
-54.26157204673851
 45
-0.0636396103067893
 46
-0.0636396103067893
 79
     0
 98
        1
 10
-176.4571517690805
 20
-54.26157204673851
1001
GENIUS_GENOBJ-N-HTC_13
1002
{
1000
OWNER
1000
GEN
1002
}
1001
GENIUS_GENODEF_13
1002
{
1000
HIER
1070
     0
1002
}
1002
{
1000
MANEDIT
1070
     0
1002
}
1002
{
1000
NOSEL
1070
     0
1002
}
1002
{
1000
BEHIND
1070
     0
1002
}
1002
{
1000
OTHER
1070
     0
1002
}
1002
{
1000
REACTOR
1002
}
1001
GENIUS_GENHATCH_13
1002
{
1000
DATA
1040
45.0
1042
0.09
1000
_U
1070
     1
1011
-6.974571080846772
1021
0.9674675190033497
1031
0.0
1002
}
1002
{
1000
UCS
1010
0.0
1020
0.0
1030
0.0
1010
1.0
1020
0.0
1030
0.0
1010
0.0
1020
1.0
1030
0.0
1002
}
  0
HATCH
  5
54C
330
534
100
AcDbEntity
  8
AM_8
100
AcDbHatch
 10
0.0
 20
0.0
 30
0.0
210
0.0
220
0.0
230
1.0
  2
_U
 70
     0
 71
     0
 91
        2
 92
        1
 93
       43
 72
     1
 10
-7.98656033324346
 20
-1.676283536096804
 11
-4.921113586658208
 21
-1.676283594022088
 72
     2
 10
-9.782843421354186
 20
-2.333113859861668
 40
4.905898794685422
 50
352.305802999994
 51
359.7108172679506
 73
     0
 72
     1
 10
-4.877007113300464
 20
-2.308352957657263
 11
-4.87700575009714
 21
-2.308389433087711
 72
     1
 10
-4.877005750097168
 20
-2.308389433087711
 11
-4.176158408119135
 21
-2.308389433087711
 72
     1
 10
-4.176158408119135
 20
-2.308389433087711
 11
-4.185576899990763
 21
-2.03695700745618
 72
     1
 10
-4.185576899990792
 20
-2.03695700745618
 11
-4.205716101885343
 21
-1.757627489254723
 72
     2
 10
-9.782843421354186
 20
-2.333113859861526
 40
5.606740024320776
 50
5.891322448679513
 51
10.01155376516831
 73
     1
 72
     1
 10
-4.261478816228418
 20
-1.358400262139298
 11
-4.31760204673418
 21
-1.081446804506228
 72
     2
 10
-9.782843421354073
 20
-2.333113859862208
 40
5.606740024320759
 50
12.89959841733238
 51
13.74468133579606
 73
     1
 72
     1
 10
-4.336657277835911
 20
-1.000976408068737
 11
-4.473245849456418
 21
-0.5320843418310944
 72
     2
 10
-9.782843421354073
 20
-2.333113859862038
 40
5.606740024320804
 50
18.73707193417068
 51
19.34996135248807
 73
     1
 72
     1
 10
-4.49281475478017
 20
-0.4753920273082031
 11
-4.75298323684521
 21
0.1421632830709427
 72
     1
 10
-4.752983236845238
 20
0.1421632830709427
 11
-4.928712158876322
 21
0.4727627209870989
 72
     2
 10
-9.782843421354073
 20
-2.333113859861725
 40
5.60674002432075
 50
30.02958189183695
 51
33.33627185401258
 73
     1
 72
     1
 10
-5.09863848789223
 20
0.7480803634309297
 11
-5.138660865507631
 21
0.8080805130308448
 72
     2
 10
-9.782843421354186
 20
-2.333113859861583
 40
5.606740024320772
 50
34.07331412204379
 51
37.96952971603585
 73
     1
 72
     1
 10
-5.362836895098666
 20
1.116389873746868
 11
-5.55634551943541
 21
1.350939503676485
 72
     2
 10
-9.782843421354186
 20
-2.333113859861697
 40
5.606740024320796
 50
41.07723853974786
 51
41.7849099604546
 73
     1
 72
     1
 10
-5.602169205213385
 20
1.402859480355914
 11
-5.934529615065173
 21
1.74142275478141
 72
     1
 10
-5.93452961506523
 20
1.74142275478141
 11
-6.189526065605605
 21
1.970791817682474
 72
     2
 10
-9.782843421354073
 20
-2.333113859861668
 40
5.606740024320699
 50
50.14160045082939
 51
50.63287161007293
 73
     1
 72
     1
 10
-6.226560675684709
 20
2.001443410860957
 11
-6.453838469888012
 21
2.178343305150342
 72
     1
 10
-6.453838469888069
 20
2.178343305150349
 11
-6.552277665487594
 21
2.104020096057162
 72
     2
 10
-3.124894526218213
 20
-2.333109784966126
 40
5.606699275368516
 50
127.683662553009
 51
130.2598590092964
 73
     1
 72
     1
 10
-6.748253654859695
 20
1.945481734366836
 11
-7.021551729907741
 21
1.694187143316575
 72
     1
 10
-7.021551729907741
 20
1.694187143316582
 11
-7.227711389014615
 21
1.48814270011929
 72
     2
 10
-3.124894526218213
 20
-2.333109784965941
 40
5.606699275368423
 50
137.0350233487508
 51
137.6540480887846
 73
     1
 72
     1
 10
-7.268756021495846
 20
1.443593628379062
 11
-7.585074629266955
 21
1.064223023692179
 72
     2
 10
-3.12489452621628
 20
-2.333109784965259
 40
5.606699275369539
 50
142.7033646660853
 51
142.8216597002024
 73
     1
 72
     1
 10
-7.592079379868437
 20
1.055007132694214
 11
-7.860094419581059
 21
0.6690492271974336
 72
     2
 10
-3.124894526218099
 20
-2.333109784965898
 40
5.606699275368515
 50
147.6249377417097
 51
149.0670983871278
 73
     1
 72
     1
 10
-7.934152221209274
 20
0.5489237310755187
 11
-8.076625443805141
 21
0.2966121935388486
 72
     2
 10
-3.124894526218326
 20
-2.333109784966239
 40
5.606699275368516
 50
152.0285131198598
 51
154.3414573586053
 73
     1
 72
     1
 10
-8.178720365011372
 20
0.0946301425313294
 11
-8.330609067681052
 21
-0.2528326446147275
 72
     1
 10
-8.330609067681052
 20
-0.2528326446147275
 11
-8.457695598812108
 21
-0.6021246652841655
 72
     2
 10
-3.124894526218099
 20
-2.333109784965671
 40
5.606699275368532
 50
162.016978950881
 51
163.4414752505082
 73
     1
 72
     1
 10
-8.49907909006049
 20
-0.7352308664689815
 11
-8.630641129756838
 21
-1.276656782582229
 72
     1
 10
-8.630641129756895
 20
-1.276656782582222
 11
-8.703270018325412
 21
-1.770256666046812
 72
     2
 10
-3.124894526218213
 20
-2.333109784966126
 40
5.606699275368573
 50
174.238406294719
 51
176.3825340783078
 73
     1
 72
     1
 10
-8.720422683888841
 20
-1.979356479491457
 11
-8.731539305319074
 21
-2.308389643377473
 72
     1
 10
-8.731539305319074
 20
-2.308389643377466
 11
-8.030667878757896
 21
-2.308389763381427
 72
     2
 10
-3.124894526218326
 20
-2.333109784966353
 40
4.905835633809412
 50
180.2887090000028
 51
183.9914775000014
 73
     0
 72
     1
 10
-8.018830639676252
 20
-1.991623938484991
 11
-7.986560333243488
 21
-1.676283536096796
 97
        0
 92
       16
 93
       21
 72
     1
 10
-5.068549074126622
 20
-0.9754424005628834
 11
-7.839126549131577
 21
-0.9754423064612396
 72
     1
 10
-7.839126549131606
 20
-0.9754423064612467
 11
-7.783579277884854
 21
-0.7998499933333392
 72
     1
 10
-7.783579277884882
 20
-0.7998499933333392
 11
-7.728318635382947
 21
-0.6420501996990993
 72
     1
 10
-7.728318635382947
 20
-0.6420501996990993
 11
-7.613850443832689
 21
-0.3501208963448903
 72
     1
 10
-7.613850443832689
 20
-0.3501208963448903
 11
-7.590312164318618
 21
-0.3015024140176123
 72
     2
 10
-3.124894526218326
 20
-2.333109784966239
 40
4.905851933390338
 50
204.4638591797037
 51
209.5711748127995
 73
     0
 72
     1
 10
-7.391726468587989
 20
0.0879495633198815
 11
-7.377019259925617
 21
0.1153878651378406
 72
     1
 10
-7.377019259925646
 20
0.1153878651378477
 11
-7.270444881467483
 21
0.2929121081945709
 72
     1
 10
-7.270444881467483
 20
0.2929121081945709
 11
-7.241477213598983
 21
0.3354347940707498
 72
     2
 10
-3.124894526218326
 20
-2.333109784966296
 40
4.905851933390331
 50
212.9530288293097
 51
227.2680634576603
 73
     0
 72
     1
 10
-6.453854569010331
 20
1.270417407361264
 11
-6.453837337125094
 21
1.270434596155268
 72
     2
 10
-9.782843421354414
 20
-2.333113859861413
 40
4.905898794685419
 50
312.732163000002
 51
315.445619133743
 73
     0
 72
     1
 10
-6.286974130352291
 20
1.1087956223773
 11
-6.248111142606063
 21
1.071149375617835
 72
     1
 10
-6.248111142606148
 20
1.071149375617835
 11
-6.21442952233275
 21
1.033526190539731
 72
     2
 10
-9.782843421354186
 20
-2.333113859861555
 40
4.905898794685414
 50
316.6665377932571
 51
324.6089167120336
 73
     0
 72
     1
 10
-5.783466726528786
 20
0.508158572796603
 11
-5.742112982373498
 21
0.4530508543929273
 72
     1
 10
-5.742112982373555
 20
0.4530508543929273
 11
-5.709368291387249
 21
0.4008655382386124
 72
     2
 10
-9.782843421354186
 20
-2.333113859861597
 40
4.905898794685411
 50
326.1318174816516
 51
335.126920261769
 73
     0
 72
     1
 10
-5.332007278957462
 20
-0.2696457556179723
 11
-5.28722508894063
 21
-0.3591607879468555
 72
     1
 10
-5.287225088940658
 20
-0.3591607879468484
 11
-5.243307024379589
 21
-0.4728847653040376
 72
     2
 10
-9.782843421354186
 20
-2.333113859861583
 40
4.905898794685409
 50
337.7169696472817
 51
343.9341079999992
 73
     0
 97
        0
 75
     0
 76
     0
 52
45.0
 41
0.1
 77
     1
 78
     2
 53
45.0
 43
-176.4571513522422
 44
-54.26157211694988
 45
-0.0707106781186548
 46
0.0707106781186548
 79
     0
 53
135.0
 43
-176.4571513522422
 44
-54.26157211694988
 45
-0.0707106781186548
 46
-0.0707106781186548
 79
     0
 98
        1
 10
-176.4571513522422
 20
-54.26157211694988
1001
GENIUS_GENODEF_13
1002
{
1000
HIER
1070
     0
1002
}
1002
{
1000
MANEDIT
1070
     0
1002
}
1002
{
1000
NOSEL
1070
     0
1002
}
1002
{
1000
BEHIND
1070
     0
1002
}
1002
{
1000
OTHER
1070
     0
1002
}
1002
{
1000
REACTOR
1002
}
1001
GENIUS_GENOBJ-N-HTC_13
1002
{
1000
OWNER
1000
GEN
1002
}
1001
GENIUS_GENHATCH_13
1002
{
1000
DATA
1040
45.0
1042
0.1
1000
_U
1070
     1
1011
-6.315948351937777
1021
-1.141903832062041
1031
0.0
1002
}
1002
{
1000
UCS
1010
0.0
1020
0.0
1030
0.0
1010
1.0
1020
0.0
1030
0.0
1010
0.0
1020
1.0
1030
0.0
1002
}
  0
ENDBLK
  5
54D
330
534
100
AcDbEntity
  8
0
100
AcDbBlockEnd
  0
BLOCK
  5
70E
330
703
100
AcDbEntity
  8
0
100
AcDbBlockBegin
  2
*D6
 70
     1
 10
0.0
 20
0.0
 30
0.0
  3
*D6
  1

  0
LINE
  5
743
330
703
100
AcDbEntity
  8
5
370
    -2
100
AcDbLine
 10
134.6853495054659
 20
5.0306561829268
 30
0.0
 11
151.141879481472
 21
5.030656182926795
 31
0.0
  0
LINE
  5
744
330
703
100
AcDbEntity
  8
5
370
    -2
100
AcDbLine
 10
138.4999998084348
 20
0.0000007461539117
 30
0.0
 11
151.141879481472
 21
0.0000007461539081
 31
0.0
  0
LINE
  5
745
330
703
100
AcDbEntity
  8
5
370
    -2
100
AcDbLine
 10
150.141879481472
 20
7.530656182926795
 30
0.0
 11
150.141879481472
 21
10.03065618292679
 31
0.0
  0
LINE
  5
746
330
703
100
AcDbEntity
  8
5
370
    -2
100
AcDbLine
 10
150.141879481472
 20
-2.499999253846091
 30
0.0
 11
150.141879481472
 21
-4.999999253846091
 31
0.0
  0
SOLID
  5
747
330
703
100
AcDbEntity
  8
5
100
AcDbTrace
 10
149.7252128148054
 20
7.530656182926796
 30
0.0
 11
150.5585461481387
 21
7.530656182926795
 31
0.0
 12
150.141879481472
 22
5.030656182926795
 32
0.0
 13
150.141879481472
 23
5.030656182926795
 33
0.0
  0
SOLID
  5
748
330
703
100
AcDbEntity
  8
5
100
AcDbTrace
 10
149.7252128148054
 20
-2.499999253846091
 30
0.0
 11
150.5585461481387
 21
-2.499999253846091
 31
0.0
 12
150.141879481472
 22
0.0000007461539084
 32
0.0
 13
150.141879481472
 23
0.0000007461539084
 33
0.0
  0
MTEXT
  5
749
330
703
100
AcDbEntity
  8
5
 62
     2
100
AcDbMText
 10
147.791879481472
 20
2.515328464540377
 30
0.0
 40
3.5
 41
0.0
 71
     5
 72
     1
  1
5
 11
0.0000000000000001
 21
1.0
 31
0.0
 73
     1
 44
1.0
1001
ACAD
1000
MTEXTBEGIN
1070
    73
1070
     1
1070
    44
1040
1.0
1070
    74
1070
     0
1000
MTEXTEND
  0
POINT
  5
74A
330
703
100
AcDbEntity
  8
Defpoints
 62
     0
100
AcDbPoint
 10
133.6853495054659
 20
5.030656182926801
 30
0.0
  0
POINT
  5
74B
330
703
100
AcDbEntity
  8
Defpoints
 62
     0
100
AcDbPoint
 10
137.4999998084348
 20
0.000000746153912
 30
0.0
  0
POINT
  5
74C
330
703
100
AcDbEntity
  8
Defpoints
 62
     0
100
AcDbPoint
 10
150.141879481472
 20
0.0000007461539084
 30
0.0
  0
ENDBLK
  5
70F
330
703
100
AcDbEntity
  8
0
100
AcDbBlockEnd
  0
BLOCK
  5
71B
330
710
100
AcDbEntity
  8
0
100
AcDbBlockBegin
  2
*D7
 70
     1
 10
0.0
 20
0.0
 30
0.0
  3
*D7
  1

  0
LINE
  5
74D
330
710
100
AcDbEntity
  8
5
370
    -2
100
AcDbLine
 10
135.9630835017809
 20
8.308390179241651
 30
0.0
 11
135.9630835017809
 21
18.75070624777157
 31
0.0
  0
LINE
  5
74E
330
710
100
AcDbEntity
  8
5
370
    -2
100
AcDbLine
 10
139.9999998084348
 20
3.500000746153911
 30
0.0
 11
139.9999998084348
 21
18.75070624777157
 31
0.0
  0
LINE
  5
74F
330
710
100
AcDbEntity
  8
5
370
    -2
100
AcDbLine
 10
133.4630835017809
 20
17.75070624777157
 30
0.0
 11
130.9630835017809
 21
17.75070624777157
 31
0.0
  0
LINE
  5
750
330
710
100
AcDbEntity
  8
5
370
    -2
100
AcDbLine
 10
142.4999998084348
 20
17.75070624777157
 30
0.0
 11
144.9999998084348
 21
17.75070624777157
 31
0.0
  0
SOLID
  5
751
330
710
100
AcDbEntity
  8
5
100
AcDbTrace
 10
133.4630835017809
 20
18.16737291443824
 30
0.0
 11
133.4630835017809
 21
17.3340395811049
 31
0.0
 12
135.9630835017809
 22
17.75070624777157
 32
0.0
 13
135.9630835017809
 23
17.75070624777157
 33
0.0
  0
SOLID
  5
752
330
710
100
AcDbEntity
  8
5
100
AcDbTrace
 10
142.4999998084348
 20
18.16737291443824
 30
0.0
 11
142.4999998084348
 21
17.3340395811049
 31
0.0
 12
139.9999998084348
 22
17.75070624777157
 32
0.0
 13
139.9999998084348
 23
17.75070624777157
 33
0.0
  0
MTEXT
  5
753
330
710
100
AcDbEntity
  8
5
 62
     2
100
AcDbMText
 10
137.9815416551078
 20
20.10070624777157
 30
0.0
 40
3.5
 41
0.0
 71
     5
 72
     1
  1
4
 73
     1
 44
1.0
1001
ACAD
1000
MTEXTBEGIN
1070
    73
1070
     1
1070
    44
1040
1.0
1070
    74
1070
     0
1000
MTEXTEND
  0
POINT
  5
754
330
710
100
AcDbEntity
  8
Defpoints
 62
     0
100
AcDbPoint
 10
135.9630835017809
 20
7.308390179241651
 30
0.0
  0
POINT
  5
755
330
710
100
AcDbEntity
  8
Defpoints
 62
     0
100
AcDbPoint
 10
139.9999998084348
 20
2.500000746153911
 30
0.0
  0
POINT
  5
756
330
710
100
AcDbEntity
  8
Defpoints
 62
     0
100
AcDbPoint
 10
139.9999998084348
 20
17.75070624777157
 30
0.0
  0
ENDBLK
  5
71C
330
710
100
AcDbEntity
  8
0
100
AcDbBlockEnd
  0
BLOCK
  5
727
330
71D
100
AcDbEntity
  8
0
100
AcDbBlockBegin
  2
*D8
 70
     1
 10
0.0
 20
0.0
 30
0.0
  3
*D8
  1

  0
LINE
  5
757
330
71D
100
AcDbEntity
  8
5
370
    -2
100
AcDbLine
 10
135.9630835017809
 20
6.308390179241651
 30
0.0
 11
135.9630835017809
 21
-13.82179936071457
 31
0.0
  0
LINE
  5
758
330
71D
100
AcDbEntity
  8
5
370
    -2
100
AcDbLine
 10
118.4999768816936
 20
4.000000535864185
 30
0.0
 11
118.4999768816936
 21
-13.82179936071457
 31
0.0
  0
LINE
  5
759
330
71D
100
AcDbEntity
  8
5
370
    -2
100
AcDbLine
 10
133.4630835017809
 20
-12.82179936071457
 30
0.0
 11
120.9999768816936
 21
-12.82179936071457
 31
0.0
  0
SOLID
  5
75A
330
71D
100
AcDbEntity
  8
5
100
AcDbTrace
 10
133.4630835017809
 20
-12.40513269404791
 30
0.0
 11
133.4630835017809
 21
-13.23846602738124
 31
0.0
 12
135.9630835017809
 22
-12.82179936071457
 32
0.0
 13
135.9630835017809
 23
-12.82179936071457
 33
0.0
  0
SOLID
  5
75B
330
71D
100
AcDbEntity
  8
5
100
AcDbTrace
 10
120.9999768816936
 20
-12.40513269404791
 30
0.0
 11
120.9999768816936
 21
-13.23846602738124
 31
0.0
 12
118.4999768816936
 22
-12.82179936071457
 32
0.0
 13
118.4999768816936
 23
-12.82179936071457
 33
0.0
  0
MTEXT
  5
75C
330
71D
100
AcDbEntity
  8
5
 62
     2
100
AcDbMText
 10
127.2315301917372
 20
-10.47179936071457
 30
0.0
 40
3.5
 41
0.0
 71
     5
 72
     1
  1
17.5
 73
     1
 44
1.0
1001
ACAD
1000
MTEXTBEGIN
1070
    73
1070
     1
1070
    44
1040
1.0
1070
    74
1070
     0
1000
MTEXTEND
  0
POINT
  5
75D
330
71D
100
AcDbEntity
  8
Defpoints
 62
     0
100
AcDbPoint
 10
135.9630835017809
 20
7.308390179241651
 30
0.0
  0
POINT
  5
75E
330
71D
100
AcDbEntity
  8
Defpoints
 62
     0
100
AcDbPoint
 10
118.4999768816936
 20
5.000000535864185
 30
0.0
  0
POINT
  5
75F
330
71D
100
AcDbEntity
  8
Defpoints
 62
     0
100
AcDbPoint
 10
118.4999768816936
 20
-12.82179936071457
 30
0.0
  0
ENDBLK
  5
728
330
71D
100
AcDbEntity
  8
0
100
AcDbBlockEnd
  0
BLOCK
  5
733
330
729
100
AcDbEntity
  8
0
100
AcDbBlockBegin
  2
*D9
 70
     1
 10
0.0
 20
0.0
 30
0.0
  3
*D9
  1

  0
LINE
  5
7D8
330
729
100
AcDbEntity
  8
5
370
    -2
100
AcDbLine
 10
139.9662973613143
 20
1.301280405470122
 30
0.0
 11
139.9662973613143
 21
-23.1395517985608
 31
0.0
  0
LINE
  5
7D9
330
729
100
AcDbEntity
  8
5
370
    -2
100
AcDbLine
 10
-0.0337026386857531
 20
1.301280405470121
 30
0.0
 11
-0.0337026386857546
 21
-23.1395517985608
 31
0.0
  0
LINE
  5
7DA
330
729
100
AcDbEntity
  8
5
370
    -2
100
AcDbLine
 10
137.4662973613143
 20
-22.1395517985608
 30
0.0
 11
2.466297361314245
 21
-22.1395517985608
 31
0.0
  0
SOLID
  5
7DB
330
729
100
AcDbEntity
  8
5
100
AcDbTrace
 10
137.4662973613143
 20
-21.72288513189413
 30
0.0
 11
137.4662973613143
 21
-22.55621846522747
 31
0.0
 12
139.9662973613143
 22
-22.1395517985608
 32
0.0
 13
139.9662973613143
 23
-22.1395517985608
 33
0.0
  0
SOLID
  5
7DC
330
729
100
AcDbEntity
  8
5
100
AcDbTrace
 10
2.466297361314245
 20
-21.72288513189413
 30
0.0
 11
2.466297361314245
 21
-22.55621846522747
 31
0.0
 12
-0.0337026386857546
 22
-22.1395517985608
 32
0.0
 13
-0.0337026386857546
 23
-22.1395517985608
 33
0.0
  0
MTEXT
  5
7DD
330
729
100
AcDbEntity
  8
5
 62
     2
100
AcDbMText
 10
69.96629736131429
 20
-18.64038513189413
 30
0.0
 40
3.5
 41
0.0
 71
     5
 72
     1
  1
140{}{\H0.71x;\C3;\S+0.2^ -0.2;}
 73
     1
 44
1.0
1001
ACAD
1000
MTEXTBEGIN
1070
    73
1070
     1
1070
    44
1040
1.0
1070
    74
1070
     0
1000
MTEXTEND
  0
POINT
  5
7DE
330
729
100
AcDbEntity
  8
Defpoints
 62
     0
100
AcDbPoint
 10
139.9662973613143
 20
2.301280405470122
 30
0.0
  0
POINT
  5
7DF
330
729
100
AcDbEntity
  8
Defpoints
 62
     0
100
AcDbPoint
 10
-0.0337026386857531
 20
2.301280405470121
 30
0.0
  0
POINT
  5
7E0
330
729
100
AcDbEntity
  8
Defpoints
 62
     0
100
AcDbPoint
 10
-0.0337026386857546
 20
-22.1395517985608
 30
0.0
  0
ENDBLK
  5
734
330
729
100
AcDbEntity
  8
0
100
AcDbBlockEnd
  0
BLOCK
  5
741
330
735
100
AcDbEntity
  8
0
100
AcDbBlockBegin
  2
*D10
 70
     1
 10
0.0
 20
0.0
 30
0.0
  3
*D10
  1

  0
LINE
  5
7E1
330
735
100
AcDbEntity
  8
5
370
    -2
100
AcDbLine
 10
140.9999998084348
 20
174.6676474140531
 30
0.0
 11
150.9999998084348
 21
174.6676474140531
 31
0.0
  0
LINE
  5
7E2
330
735
100
AcDbEntity
  8
5
370
    -2
100
AcDbLine
 10
140.9999998084348
 20
169.6676474140531
 30
0.0
 11
150.9999998084348
 21
169.6676474140531
 31
0.0
  0
LINE
  5
7E3
330
735
100
AcDbEntity
  8
5
370
    -2
100
AcDbLine
 10
149.9999998084348
 20
167.1676474140531
 30
0.0
 11
149.9999998084348
 21
164.6676474140531
 31
0.0
  0
LINE
  5
7E4
330
735
100
AcDbEntity
  8
5
370
    -2
100
AcDbLine
 10
149.9999998084348
 20
177.1676474140531
 30
0.0
 11
149.9999998084348
 21
183.2009807473866
 31
0.0
  0
LINE
  5
7E5
330
735
100
AcDbEntity
  8
5
370
    -2
100
AcDbLine
 10
149.9999998084348
 20
169.6676474140531
 30
0.0
 11
149.9999998084348
 21
174.6676474140531
 31
0.0
  0
SOLID
  5
7E6
330
735
100
AcDbEntity
  8
5
100
AcDbTrace
 10
149.5833331417682
 20
167.1676474140531
 30
0.0
 11
150.4166664751015
 21
167.1676474140531
 31
0.0
 12
149.9999998084348
 22
169.6676474140531
 32
0.0
 13
149.9999998084348
 23
169.6676474140531
 33
0.0
  0
SOLID
  5
7E7
330
735
100
AcDbEntity
  8
5
100
AcDbTrace
 10
149.5833331417682
 20
177.1676474140531
 30
0.0
 11
150.4166664751015
 21
177.1676474140531
 31
0.0
 12
149.9999998084348
 22
174.6676474140531
 32
0.0
 13
149.9999998084348
 23
174.6676474140531
 33
0.0
  0
MTEXT
  5
7E8
330
735
100
AcDbEntity
  8
5
 62
     2
100
AcDbMText
 10
147.6499998084348
 20
181.43431408072
 30
0.0
 40
3.5
 41
0.0
 71
     5
 72
     1
  1
5
 11
0.0000000000000001
 21
1.0
 31
0.0
 73
     1
 44
1.0
1001
ACAD
1000
MTEXTBEGIN
1070
    73
1070
     1
1070
    44
1040
1.0
1070
    74
1070
     0
1000
MTEXTEND
  0
POINT
  5
7E9
330
735
100
AcDbEntity
  8
Defpoints
 62
     0
100
AcDbPoint
 10
139.9999998084348
 20
174.6676474140531
 30
0.0
  0
POINT
  5
7EA
330
735
100
AcDbEntity
  8
Defpoints
 62
     0
100
AcDbPoint
 10
139.9999998084348
 20
169.6676474140531
 30
0.0
  0
POINT
  5
7EB
330
735
100
AcDbEntity
  8
Defpoints
 62
     0
100
AcDbPoint
 10
149.9999998084348
 20
169.6676474140531
 30
0.0
  0
ENDBLK
  5
742
330
735
100
AcDbEntity
  8
0
100
AcDbBlockEnd
  0
BLOCK
  5
76A
330
760
100
AcDbEntity
  8
0
100
AcDbBlockBegin
  2
*D11
 70
     1
 10
0.0
 20
0.0
 30
0.0
  3
*D11
  1

  0
LINE
  5
7EC
330
760
100
AcDbEntity
  8
5
370
    -2
100
AcDbLine
 10
250.8724868528385
 20
169.3054220275331
 30
0.0
 11
227.6358987734746
 21
169.3054220275331
 31
0.0
  0
LINE
  5
7ED
330
760
100
AcDbEntity
  8
5
370
    -2
100
AcDbLine
 10
244.0393804560645
 20
155.845221404007
 30
0.0
 11
227.6358987734746
 21
155.845221404007
 31
0.0
  0
LINE
  5
7EE
330
760
100
AcDbEntity
  8
5
370
    -2
100
AcDbLine
 10
228.6358987734747
 20
166.8054220275331
 30
0.0
 11
228.6358987734747
 21
158.3452214040071
 31
0.0
  0
SOLID
  5
7EF
330
760
100
AcDbEntity
  8
5
100
AcDbTrace
 10
228.219232106808
 20
166.8054220275331
 30
0.0
 11
229.0525654401413
 21
166.8054220275331
 31
0.0
 12
228.6358987734747
 22
169.3054220275331
 32
0.0
 13
228.6358987734747
 23
169.3054220275331
 33
0.0
  0
SOLID
  5
7F0
330
760
100
AcDbEntity
  8
5
100
AcDbTrace
 10
228.219232106808
 20
158.3452214040071
 30
0.0
 11
229.0525654401413
 21
158.3452214040071
 31
0.0
 12
228.6358987734747
 22
155.845221404007
 32
0.0
 13
228.6358987734747
 23
155.845221404007
 33
0.0
  0
MTEXT
  5
7F1
330
760
100
AcDbEntity
  8
5
 62
     2
100
AcDbMText
 10
226.2858987734746
 20
162.5753217157701
 30
0.0
 40
3.5
 41
0.0
 71
     5
 72
     1
  1
4.5
 11
0.0000000000000001
 21
1.0
 31
0.0
 73
     1
 44
1.0
1001
ACAD
1000
MTEXTBEGIN
1070
    73
1070
     1
1070
    44
1040
1.0
1070
    74
1070
     0
1000
MTEXTEND
  0
POINT
  5
7F2
330
760
100
AcDbEntity
  8
Defpoints
 62
     0
100
AcDbPoint
 10
251.8724868528385
 20
169.3054220275331
 30
0.0
  0
POINT
  5
7F3
330
760
100
AcDbEntity
  8
Defpoints
 62
     0
100
AcDbPoint
 10
245.0393804560646
 20
155.845221404007
 30
0.0
  0
POINT
  5
7F4
330
760
100
AcDbEntity
  8
Defpoints
 62
     0
100
AcDbPoint
 10
228.6358987734747
 20
155.845221404007
 30
0.0
  0
ENDBLK
  5
76B
330
760
100
AcDbEntity
  8
0
100
AcDbBlockEnd
  0
BLOCK
  5
776
330
76C
100
AcDbEntity
  8
0
100
AcDbBlockBegin
  2
*D12
 70
     1
 10
0.0
 20
0.0
 30
0.0
  3
*D12
  1

  0
LINE
  5
7F5
330
76C
100
AcDbEntity
  8
5
370
    -2
100
AcDbLine
 10
245.0393804560646
 20
156.8452214040071
 30
0.0
 11
245.0393804560646
 21
179.4965725742366
 31
0.0
  0
LINE
  5
7F6
330
76C
100
AcDbEntity
  8
5
370
    -2
100
AcDbLine
 10
258.7055246352683
 20
156.8452223416235
 30
0.0
 11
258.7055246352683
 21
179.4965725742366
 31
0.0
  0
LINE
  5
7F7
330
76C
100
AcDbEntity
  8
5
370
    -2
100
AcDbLine
 10
247.5393804560646
 20
178.4965725742366
 30
0.0
 11
256.2055246352683
 21
178.4965725742366
 31
0.0
  0
SOLID
  5
7F8
330
76C
100
AcDbEntity
  8
5
100
AcDbTrace
 10
247.5393804560646
 20
178.9132392409032
 30
0.0
 11
247.5393804560646
 21
178.0799059075699
 31
0.0
 12
245.0393804560646
 22
178.4965725742366
 32
0.0
 13
245.0393804560646
 23
178.4965725742366
 33
0.0
  0
SOLID
  5
7F9
330
76C
100
AcDbEntity
  8
5
100
AcDbTrace
 10
256.2055246352683
 20
178.9132392409032
 30
0.0
 11
256.2055246352683
 21
178.0799059075699
 31
0.0
 12
258.7055246352683
 22
178.4965725742366
 32
0.0
 13
258.7055246352683
 23
178.4965725742366
 33
0.0
  0
MTEXT
  5
7FA
330
76C
100
AcDbEntity
  8
5
 62
     2
100
AcDbMText
 10
251.8724525456664
 20
180.8465725742365
 30
0.0
 40
3.5
 41
0.0
 71
     5
 72
     1
  1
4.6
 73
     1
 44
1.0
1001
ACAD
1000
MTEXTBEGIN
1070
    73
1070
     1
1070
    44
1040
1.0
1070
    74
1070
     0
1000
MTEXTEND
  0
POINT
  5
7FB
330
76C
100
AcDbEntity
  8
Defpoints
 62
     0
100
AcDbPoint
 10
245.0393804560646
 20
155.8452214040071
 30
0.0
  0
POINT
  5
7FC
330
76C
100
AcDbEntity
  8
Defpoints
 62
     0
100
AcDbPoint
 10
258.7055246352683
 20
155.8452223416235
 30
0.0
  0
POINT
  5
7FD
330
76C
100
AcDbEntity
  8
Defpoints
 62
     0
100
AcDbPoint
 10
258.7055246352683
 20
178.4965725742366
 30
0.0
  0
ENDBLK
  5
777
330
76C
100
AcDbEntity
  8
0
100
AcDbBlockEnd
  0
BLOCK
  5
784
330
778
100
AcDbEntity
  8
0
100
AcDbBlockBegin
  2
*D13
 70
     1
 10
0.0
 20
0.0
 30
0.0
  3
*D13
  1

  0
LINE
  5
779
330
778
100
AcDbEntity
  8
5
370
    -2
100
AcDbLine
 10
283.7622963384366
 20
163.7703903341395
 30
0.0
 11
283.7622963384366
 21
179.4965725742365
 31
0.0
  0
LINE
  5
77A
330
778
100
AcDbEntity
  8
5
370
    -2
100
AcDbLine
 10
285.8648200273427
 20
163.7703903341395
 30
0.0
 11
285.8648200273427
 21
179.4965725742365
 31
0.0
  0
LINE
  5
77B
330
778
100
AcDbEntity
  8
5
370
    -2
100
AcDbLine
 10
281.2622963384366
 20
178.4965725742365
 30
0.0
 11
278.7622963384366
 21
178.4965725742365
 31
0.0
  0
LINE
  5
77C
330
778
100
AcDbEntity
  8
5
370
    -2
100
AcDbLine
 10
288.3648200273427
 20
178.4965725742365
 30
0.0
 11
290.8648200273427
 21
178.4965725742365
 31
0.0
  0
LINE
  5
77D
330
778
100
AcDbEntity
  8
5
370
    -2
100
AcDbLine
 10
283.7622963384366
 20
178.4965725742365
 30
0.0
 11
285.8648200273427
 21
178.4965725742365
 31
0.0
  0
SOLID
  5
77E
330
778
100
AcDbEntity
  8
5
100
AcDbTrace
 10
281.2622963384366
 20
178.9132392409032
 30
0.0
 11
281.2622963384366
 21
178.0799059075699
 31
0.0
 12
283.7622963384366
 22
178.4965725742365
 32
0.0
 13
283.7622963384366
 23
178.4965725742365
 33
0.0
  0
SOLID
  5
77F
330
778
100
AcDbEntity
  8
5
100
AcDbTrace
 10
288.3648200273427
 20
178.9132392409032
 30
0.0
 11
288.3648200273427
 21
178.0799059075699
 31
0.0
 12
285.8648200273427
 22
178.4965725742365
 32
0.0
 13
285.8648200273427
 23
178.4965725742365
 33
0.0
  0
MTEXT
  5
780
330
778
100
AcDbEntity
  8
5
 62
     2
100
AcDbMText
 10
284.8135581828897
 20
180.8465725742365
 30
0.0
 40
3.5
 41
0.0
 71
     5
 72
     1
  1
0.7
 73
     1
 44
1.0
1001
ACAD
1000
MTEXTBEGIN
1070
    73
1070
     1
1070
    44
1040
1.0
1070
    74
1070
     0
1000
MTEXTEND
  0
POINT
  5
781
330
778
100
AcDbEntity
  8
Defpoints
 62
     0
100
AcDbPoint
 10
283.7622963384366
 20
162.7703903341395
 30
0.0
  0
POINT
  5
782
330
778
100
AcDbEntity
  8
Defpoints
 62
     0
100
AcDbPoint
 10
285.8648200273427
 20
162.7703903341395
 30
0.0
  0
POINT
  5
783
330
778
100
AcDbEntity
  8
Defpoints
 62
     0
100
AcDbPoint
 10
285.8648200273427
 20
178.4965725742365
 30
0.0
  0
ENDBLK
  5
785
330
778
100
AcDbEntity
  8
0
100
AcDbBlockEnd
  0
BLOCK
  5
790
330
786
100
AcDbEntity
  8
0
100
AcDbBlockBegin
  2
*D14
 70
     1
 10
0.0
 20
0.0
 30
0.0
  3
*D14
  1

  0
LINE
  5
787
330
786
100
AcDbEntity
  8
5
370
    -2
100
AcDbLine
 10
297.4287003163257
 20
161.7703903341395
 30
0.0
 11
297.4287003163257
 21
133.8329589068417
 31
0.0
  0
LINE
  5
788
330
786
100
AcDbEntity
  8
5
370
    -2
100
AcDbLine
 10
245.039449236288
 20
154.8452220348763
 30
0.0
 11
245.039449236288
 21
133.8329589068417
 31
0.0
  0
LINE
  5
789
330
786
100
AcDbEntity
  8
5
370
    -2
100
AcDbLine
 10
294.9287003163257
 20
134.8329589068416
 30
0.0
 11
247.539449236288
 21
134.8329589068416
 31
0.0
  0
SOLID
  5
78A
330
786
100
AcDbEntity
  8
5
100
AcDbTrace
 10
294.9287003163257
 20
135.2496255735083
 30
0.0
 11
294.9287003163257
 21
134.416292240175
 31
0.0
 12
297.4287003163257
 22
134.8329589068416
 32
0.0
 13
297.4287003163257
 23
134.8329589068416
 33
0.0
  0
SOLID
  5
78B
330
786
100
AcDbEntity
  8
5
100
AcDbTrace
 10
247.539449236288
 20
135.2496255735083
 30
0.0
 11
247.539449236288
 21
134.416292240175
 31
0.0
 12
245.039449236288
 22
134.8329589068416
 32
0.0
 13
245.039449236288
 23
134.8329589068416
 33
0.0
  0
MTEXT
  5
78C
330
786
100
AcDbEntity
  8
5
 62
     2
100
AcDbMText
 10
272.0889659660583
 20
137.1829589068416
 30
0.0
 40
3.5
 41
0.0
 71
     5
 72
     1
  1
17.5
 73
     1
 44
1.0
1001
ACAD
1000
MTEXTBEGIN
1070
    73
1070
     1
1070
    44
1040
1.0
1070
    74
1070
     0
1000
MTEXTEND
  0
POINT
  5
78D
330
786
100
AcDbEntity
  8
Defpoints
 62
     0
100
AcDbPoint
 10
297.4287003163257
 20
162.7703903341395
 30
0.0
  0
POINT
  5
78E
330
786
100
AcDbEntity
  8
Defpoints
 62
     0
100
AcDbPoint
 10
245.039449236288
 20
155.8452220348763
 30
0.0
  0
POINT
  5
78F
330
786
100
AcDbEntity
  8
Defpoints
 62
     0
100
AcDbPoint
 10
245.039449236288
 20
134.8329589068416
 30
0.0
  0
ENDBLK
  5
791
330
786
100
AcDbEntity
  8
0
100
AcDbBlockEnd
  0
BLOCK
  5
79C
330
792
100
AcDbEntity
  8
0
100
AcDbBlockBegin
  2
*D15
 70
     1
 10
0.0
 20
0.0
 30
0.0
  3
*D15
  1

  0
LINE
  5
793
330
792
100
AcDbEntity
  8
5
370
    -2
100
AcDbLine
 10
271.2339983720218
 20
161.7703903341395
 30
0.0
 11
271.2339983720218
 21
143.0417306885759
 31
0.0
  0
LINE
  5
794
330
792
100
AcDbEntity
  8
5
370
    -2
100
AcDbLine
 10
251.8724861919767
 20
158.8440634147557
 30
0.0
 11
251.8724861919767
 21
143.0417306885759
 31
0.0
  0
LINE
  5
795
330
792
100
AcDbEntity
  8
5
370
    -2
100
AcDbLine
 10
268.7339983720218
 20
144.0417306885759
 30
0.0
 11
254.3724861919767
 21
144.0417306885759
 31
0.0
  0
SOLID
  5
796
330
792
100
AcDbEntity
  8
5
100
AcDbTrace
 10
268.7339983720218
 20
144.4583973552425
 30
0.0
 11
268.7339983720218
 21
143.6250640219092
 31
0.0
 12
271.2339983720218
 22
144.0417306885759
 32
0.0
 13
271.2339983720218
 23
144.0417306885759
 33
0.0
  0
SOLID
  5
797
330
792
100
AcDbEntity
  8
5
100
AcDbTrace
 10
254.3724861919767
 20
144.4583973552425
 30
0.0
 11
254.3724861919767
 21
143.6250640219092
 31
0.0
 12
251.8724861919767
 22
144.0417306885759
 32
0.0
 13
251.8724861919767
 23
144.0417306885759
 33
0.0
  0
MTEXT
  5
798
330
792
100
AcDbEntity
  8
5
 62
     2
100
AcDbMText
 10
263.3138175545211
 20
146.3917306885759
 30
0.0
 40
3.5
 41
0.0
 71
     5
 72
     1
  1
6.5
 73
     1
 44
1.0
1001
ACAD
1000
MTEXTBEGIN
1070
    73
1070
     1
1070
    44
1040
1.0
1070
    74
1070
     0
1000
MTEXTEND
  0
POINT
  5
799
330
792
100
AcDbEntity
  8
Defpoints
 62
     0
100
AcDbPoint
 10
271.2339983720218
 20
162.7703903341395
 30
0.0
  0
POINT
  5
79A
330
792
100
AcDbEntity
  8
Defpoints
 62
     0
100
AcDbPoint
 10
251.8724861919767
 20
159.8440634147557
 30
0.0
  0
POINT
  5
79B
330
792
100
AcDbEntity
  8
Defpoints
 62
     0
100
AcDbPoint
 10
251.8724861919767
 20
144.0417306885759
 30
0.0
  0
ENDBLK
  5
79D
330
792
100
AcDbEntity
  8
0
100
AcDbBlockEnd
  0
BLOCK
  5
7A8
330
79E
100
AcDbEntity
  8
0
100
AcDbBlockBegin
  2
*D16
 70
     1
 10
0.0
 20
0.0
 30
0.0
  3
*D16
  1

  0
LINE
  5
7FE
330
79E
100
AcDbEntity
  8
5
370
    -2
100
AcDbLine
 10
290.5954983273813
 20
161.7703903341395
 30
0.0
 11
290.5954983273813
 21
143.0417306885759
 31
0.0
  0
LINE
  5
7FF
330
79E
100
AcDbEntity
  8
5
370
    -2
100
AcDbLine
 10
271.2339983720218
 20
161.7703903341395
 30
0.0
 11
271.2339983720218
 21
143.0417306885759
 31
0.0
  0
LINE
  5
800
330
79E
100
AcDbEntity
  8
5
370
    -2
100
AcDbLine
 10
288.0954983273813
 20
144.0417306885759
 30
0.0
 11
273.7339983720218
 21
144.0417306885759
 31
0.0
  0
SOLID
  5
801
330
79E
100
AcDbEntity
  8
5
100
AcDbTrace
 10
288.0954983273813
 20
144.4583973552426
 30
0.0
 11
288.0954983273813
 21
143.6250640219093
 31
0.0
 12
290.5954983273813
 22
144.0417306885759
 32
0.0
 13
290.5954983273813
 23
144.0417306885759
 33
0.0
  0
SOLID
  5
802
330
79E
100
AcDbEntity
  8
5
100
AcDbTrace
 10
273.7339983720218
 20
144.4583973552426
 30
0.0
 11
273.7339983720218
 21
143.6250640219093
 31
0.0
 12
271.2339983720218
 22
144.0417306885759
 32
0.0
 13
271.2339983720218
 23
144.0417306885759
 33
0.0
  0
MTEXT
  5
803
330
79E
100
AcDbEntity
  8
5
 62
     2
100
AcDbMText
 10
281.3028727913927
 20
146.3917306885759
 30
0.0
 40
3.5
 41
0.0
 71
     5
 72
     1
  1
6.5
 73
     1
 44
1.0
1001
ACAD
1000
MTEXTBEGIN
1070
    73
1070
     1
1070
    44
1040
1.0
1070
    74
1070
     0
1000
MTEXTEND
  0
POINT
  5
804
330
79E
100
AcDbEntity
  8
Defpoints
 62
     0
100
AcDbPoint
 10
290.5954983273813
 20
162.7703903341395
 30
0.0
  0
POINT
  5
805
330
79E
100
AcDbEntity
  8
Defpoints
 62
     0
100
AcDbPoint
 10
271.2339983720218
 20
162.7703903341395
 30
0.0
  0
POINT
  5
806
330
79E
100
AcDbEntity
  8
Defpoints
 62
     0
100
AcDbPoint
 10
271.2339983720218
 20
144.0417306885759
 30
0.0
  0
ENDBLK
  5
7A9
330
79E
100
AcDbEntity
  8
0
100
AcDbBlockEnd
  0
BLOCK
  5
7B6
330
7AA
100
AcDbEntity
  8
0
100
AcDbBlockBegin
  2
*D17
 70
     1
 10
0.0
 20
0.0
 30
0.0
  3
*D17
  1

  0
LINE
  5
7AB
330
7AA
100
AcDbEntity
  8
5
370
    -2
100
AcDbLine
 10
276.2866018141381
 20
165.2108133893463
 30
0.0
 11
281.1835915559655
 21
165.2108133893463
 31
0.0
  0
LINE
  5
7AC
330
7AA
100
AcDbEntity
  8
5
370
    -2
100
AcDbLine
 10
276.3308817309987
 20
160.405054240291
 30
0.0
 11
281.1835915559655
 21
160.405054240291
 31
0.0
  0
LINE
  5
7AD
330
7AA
100
AcDbEntity
  8
5
370
    -2
100
AcDbLine
 10
280.1835915559655
 20
157.9050542402909
 30
0.0
 11
280.1835915559655
 21
155.405054240291
 31
0.0
  0
LINE
  5
7AE
330
7AA
100
AcDbEntity
  8
5
370
    -2
100
AcDbLine
 10
280.1835915559655
 20
167.7108133893463
 30
0.0
 11
280.1835915559655
 21
177.2441467226798
 31
0.0
  0
LINE
  5
7AF
330
7AA
100
AcDbEntity
  8
5
370
    -2
100
AcDbLine
 10
280.1835915559655
 20
160.405054240291
 30
0.0
 11
280.1835915559655
 21
165.2108133893463
 31
0.0
  0
SOLID
  5
7B0
330
7AA
100
AcDbEntity
  8
5
100
AcDbTrace
 10
279.7669248892988
 20
157.9050542402909
 30
0.0
 11
280.6002582226322
 21
157.9050542402909
 31
0.0
 12
280.1835915559655
 22
160.405054240291
 32
0.0
 13
280.1835915559655
 23
160.405054240291
 33
0.0
  0
SOLID
  5
7B1
330
7AA
100
AcDbEntity
  8
5
100
AcDbTrace
 10
279.7669248892988
 20
167.7108133893463
 30
0.0
 11
280.6002582226322
 21
167.7108133893463
 31
0.0
 12
280.1835915559655
 22
165.2108133893463
 32
0.0
 13
280.1835915559655
 23
165.2108133893463
 33
0.0
  0
MTEXT
  5
7B2
330
7AA
100
AcDbEntity
  8
5
 62
     2
100
AcDbMText
 10
277.8335915559654
 20
173.7274800560132
 30
0.0
 40
3.5
 41
0.0
 71
     5
 72
     1
  1
1.6
 11
0.0000000000000001
 21
1.0
 31
0.0
 73
     1
 44
1.0
1001
ACAD
1000
MTEXTBEGIN
1070
    73
1070
     1
1070
    44
1040
1.0
1070
    74
1070
     0
1000
MTEXTEND
  0
POINT
  5
7B3
330
7AA
100
AcDbEntity
  8
Defpoints
 62
     0
100
AcDbPoint
 10
275.2866018141381
 20
165.2108133893463
 30
0.0
  0
POINT
  5
7B4
330
7AA
100
AcDbEntity
  8
Defpoints
 62
     0
100
AcDbPoint
 10
275.3308817309987
 20
160.405054240291
 30
0.0
  0
POINT
  5
7B5
330
7AA
100
AcDbEntity
  8
Defpoints
 62
     0
100
AcDbPoint
 10
280.1835915559655
 20
160.405054240291
 30
0.0
  0
ENDBLK
  5
7B7
330
7AA
100
AcDbEntity
  8
0
100
AcDbBlockEnd
  0
BLOCK
  5
7C4
330
7B8
100
AcDbEntity
  8
0
100
AcDbBlockBegin
  2
*D18
 70
     1
 10
0.0
 20
0.0
 30
0.0
  3
*D18
  1

  0
LINE
  5
81E
330
7B8
100
AcDbEntity
  8
5
370
    -2
100
AcDbLine
 10
244.0393804560646
 20
155.8452214040071
 30
0.0
 11
235.5229341867655
 21
155.8452214040071
 31
0.0
  0
LINE
  5
81F
330
7B8
100
AcDbEntity
  8
5
370
    -2
100
AcDbLine
 10
246.2743147511195
 20
157.7415388809793
 30
0.0
 11
235.5229341867655
 21
157.7415388809793
 31
0.0
  0
LINE
  5
820
330
7B8
100
AcDbEntity
  8
5
370
    -2
100
AcDbLine
 10
236.5229341867656
 20
160.2415388809792
 30
0.0
 11
236.5229341867656
 21
162.7415388809793
 31
0.0
  0
LINE
  5
821
330
7B8
100
AcDbEntity
  8
5
370
    -2
100
AcDbLine
 10
236.5229341867656
 20
153.3452214040071
 30
0.0
 11
236.5229341867656
 21
143.2285547373404
 31
0.0
  0
LINE
  5
822
330
7B8
100
AcDbEntity
  8
5
370
    -2
100
AcDbLine
 10
236.5229341867656
 20
157.7415388809793
 30
0.0
 11
236.5229341867656
 21
155.8452214040071
 31
0.0
  0
SOLID
  5
823
330
7B8
100
AcDbEntity
  8
5
100
AcDbTrace
 10
236.1062675200989
 20
160.2415388809792
 30
0.0
 11
236.9396008534322
 21
160.2415388809792
 31
0.0
 12
236.5229341867656
 22
157.7415388809793
 32
0.0
 13
236.5229341867656
 23
157.7415388809793
 33
0.0
  0
SOLID
  5
824
330
7B8
100
AcDbEntity
  8
5
100
AcDbTrace
 10
236.1062675200989
 20
153.3452214040071
 30
0.0
 11
236.9396008534322
 21
153.3452214040071
 31
0.0
 12
236.5229341867656
 22
155.8452214040071
 32
0.0
 13
236.5229341867656
 23
155.8452214040071
 33
0.0
  0
MTEXT
  5
825
330
7B8
100
AcDbEntity
  8
5
 62
     2
100
AcDbMText
 10
234.1729341867655
 20
147.0368880706738
 30
0.0
 40
3.5
 41
0.0
 71
     5
 72
     1
  1
0.6
 11
0.0000000000000001
 21
1.0
 31
0.0
 73
     1
 44
1.0
1001
ACAD
1000
MTEXTBEGIN
1070
    73
1070
     1
1070
    44
1040
1.0
1070
    74
1070
     0
1000
MTEXTEND
  0
POINT
  5
826
330
7B8
100
AcDbEntity
  8
Defpoints
 62
     0
100
AcDbPoint
 10
245.0393804560646
 20
155.8452214040071
 30
0.0
  0
POINT
  5
827
330
7B8
100
AcDbEntity
  8
Defpoints
 62
     0
100
AcDbPoint
 10
247.2743147511195
 20
157.7415388809793
 30
0.0
  0
POINT
  5
828
330
7B8
100
AcDbEntity
  8
Defpoints
 62
     0
100
AcDbPoint
 10
236.5229341867656
 20
157.7415388809793
 30
0.0
  0
ENDBLK
  5
7C5
330
7B8
100
AcDbEntity
  8
0
100
AcDbBlockEnd
  0
BLOCK
  5
7CD
330
7C6
100
AcDbEntity
  8
0
100
AcDbBlockBegin
  2
*D19
 70
     1
 10
0.0
 20
0.0
 30
0.0
  3
*D19
  1

  0
LINE
  5
86E
330
7C6
100
AcDbEntity
  8
5
370
    -2
100
AcDbLine
 10
315.407593731519
 20
173.5013703187902
 30
0.0
 11
299.1618641715186
 21
166.4752568082263
 31
0.0
  0
MTEXT
  5
86F
330
7C6
100
AcDbEntity
  8
5
 62
     2
100
AcDbMText
 10
307.4991806577434
 20
172.6414269168532
 30
0.0
 40
3.5
 41
0.0
 71
     5
 72
     1
  1
R 2.3
 11
0.9178378282486105
 21
0.3969555655685836
 31
0.0
 73
     1
 44
1.0
1001
ACAD
1000
MTEXTBEGIN
1070
    73
1070
     1
1070
    44
1040
1.0
1070
    74
1070
     0
1000
MTEXTEND
  0
LINE
  5
870
330
7C6
100
AcDbEntity
  8
5
370
    -2
100
AcDbLine
 10
290.5954983273812
 20
162.7703903341394
 30
0.0
 11
296.8672696008971
 21
165.4828678943048
 31
0.0
  0
SOLID
  5
871
330
7C6
100
AcDbEntity
  8
5
100
AcDbTrace
 10
298.9964660191984
 20
166.8576892366632
 30
0.0
 11
299.3272623238389
 21
166.0928243797893
 31
0.0
 12
296.8672696008971
 22
165.4828678943048
 32
0.0
 13
296.8672696008971
 23
165.4828678943048
 33
0.0
  0
POINT
  5
872
330
7C6
100
AcDbEntity
  8
Defpoints
 62
     0
100
AcDbPoint
 10
296.8672696008971
 20
165.4828678943048
 30
0.0
  0
POINT
  5
873
330
7C6
100
AcDbEntity
  8
Defpoints
 62
     0
100
AcDbPoint
 10
290.5954983273812
 20
162.7703903341394
 30
0.0
  0
ENDBLK
  5
7CE
330
7C6
100
AcDbEntity
  8
0
100
AcDbBlockEnd
  0
BLOCK
  5
7D6
330
7CF
100
AcDbEntity
  8
0
100
AcDbBlockBegin
  2
*D20
 70
     1
 10
0.0
 20
0.0
 30
0.0
  3
*D20
  1

  0
LINE
  5
861
330
7CF
100
AcDbEntity
  8
5
370
    -2
100
AcDbLine
 10
278.9909363408295
 20
187.211691095285
 30
0.0
 11
256.6256939310709
 21
168.2609104972372
 31
0.0
  0
MTEXT
  5
862
330
7CF
100
AcDbEntity
  8
5
 62
     2
100
AcDbMText
 10
271.6733752148664
 20
184.0914668777337
 30
0.0
 40
3.5
 41
0.0
 71
     5
 72
     1
  1
R 5.6
 11
0.7629429565215292
 21
0.6464658112338101
 31
0.0
 73
     1
 44
1.0
1001
ACAD
1000
MTEXTBEGIN
1070
    73
1070
     1
1070
    44
1040
1.0
1070
    74
1070
     0
1000
MTEXTEND
  0
LINE
  5
863
330
7CF
100
AcDbEntity
  8
5
370
    -2
100
AcDbLine
 10
241.8854681079591
 20
155.7710487545545
 30
0.0
 11
254.7183365397671
 21
166.6447459691527
 31
0.0
  0
SOLID
  5
864
330
7CF
100
AcDbEntity
  8
5
100
AcDbTrace
 10
256.3563331763901
 20
168.5788033957878
 30
0.0
 11
256.8950546857516
 21
167.9430175986866
 31
0.0
 12
254.7183365397671
 22
166.6447459691527
 32
0.0
 13
254.7183365397671
 23
166.6447459691527
 33
0.0
  0
POINT
  5
865
330
7CF
100
AcDbEntity
  8
Defpoints
 62
     0
100
AcDbPoint
 10
254.7183365397671
 20
166.6447459691527
 30
0.0
  0
POINT
  5
866
330
7CF
100
AcDbEntity
  8
Defpoints
 62
     0
100
AcDbPoint
 10
241.8854681079591
 20
155.7710487545545
 30
0.0
  0
ENDBLK
  5
7D7
330
7CF
100
AcDbEntity
  8
0
100
AcDbBlockEnd
  0
BLOCK
  5
90A
330
909
100
AcDbEntity
  8
0
100
AcDbBlockBegin
  2
*D21
 70
     1
 10
0.0
 20
0.0
 30
0.0
  3
*D21
  1

  0
LINE
  5
90C
330
909
100
AcDbEntity
  8
5
370
    -2
100
AcDbLine
 10
141.9596232520244
 20
140.471149747146
 30
0.0
 11
148.5812263120818
 21
144.2844495569155
 31
0.0
  0
LINE
  5
90D
330
909
100
AcDbEntity
  8
5
370
    -2
100
AcDbLine
 10
148.5812263120818
 20
144.2844495569155
 30
0.0
 11
165.5145596454152
 21
144.2844495569155
 31
0.0
  0
SOLID
  5
90E
330
909
100
AcDbEntity
  8
5
100
AcDbTrace
 10
141.7516861120046
 20
140.8322221178855
 30
0.0
 11
142.1675603920441
 21
140.1100773764063
 31
0.0
 12
139.7931890275867
 22
139.2235269070275
 32
0.0
 13
139.7931890275867
 23
139.2235269070275
 33
0.0
  0
MTEXT
  5
90F
330
909
100
AcDbEntity
  8
5
 62
     2
100
AcDbMText
 10
157.3478929787485
 20
146.6344495569154
 30
0.0
 40
3.5
 41
0.0
 71
     5
 72
     1
  1
R 1.55
 73
     1
 44
1.0
1001
ACAD
1000
MTEXTBEGIN
1070
    73
1070
     1
1070
    44
1040
1.0
1070
    74
1070
     0
1000
MTEXTEND
  0
POINT
  5
910
330
909
100
AcDbEntity
  8
Defpoints
 62
     0
100
AcDbPoint
 10
139.7931890275867
 20
139.2235269070275
 30
0.0
  0
POINT
  5
911
330
909
100
AcDbEntity
  8
Defpoints
 62
     0
100
AcDbPoint
 10
138.4499998084352
 20
138.4500007461539
 30
0.0
  0
ENDBLK
  5
90B
330
909
100
AcDbEntity
  8
0
100
AcDbBlockEnd
  0
ENDSEC
  0
SECTION
  2
ENTITIES
  0
POLYLINE
  5
2B
330
1F
100
AcDbEntity
  8
OHNE VERRIEGELUNG
100
AcDb2dPolyline
 66
     1
 10
0.0
 20
0.0
 30
0.0
  0
VERTEX
  5
2D
330
2B
100
AcDbEntity
  8
OHNE VERRIEGELUNG
100
AcDbVertex
100
AcDb2dVertex
 10
124.9999998084356
 20
46.64210067824885
 30
0.0
  0
VERTEX
  5
2E
330
2B
100
AcDbEntity
  8
OHNE VERRIEGELUNG
100
AcDbVertex
100
AcDb2dVertex
 10
124.9999998084356
 20
51.04210067824904
 30
0.0
 42
0.4128858736846559
  0
VERTEX
  5
2F
330
2B
100
AcDbEntity
  8
OHNE VERRIEGELUNG
100
AcDbVertex
100
AcDb2dVertex
 10
124.4999998084361
 20
51.59210067824885
 30
0.0
  0
VERTEX
  5
30
330
2B
100
AcDbEntity
  8
OHNE VERRIEGELUNG
100
AcDbVertex
100
AcDb2dVertex
 10
103.5740455457246
 20
51.59210067824885
 30
0.0
 42
0.4128858736853325
  0
VERTEX
  5
31
330
2B
100
AcDbEntity
  8
OHNE VERRIEGELUNG
100
AcDbVertex
100
AcDb2dVertex
 10
103.0740455457246
 20
51.04210067824883
 30
0.0
  0
VERTEX
  5
32
330
2B
100
AcDbEntity
  8
OHNE VERRIEGELUNG
100
AcDbVertex
100
AcDb2dVertex
 10
103.0740455457246
 20
46.64210067824885
 30
0.0
 42
0.4128858736852516
  0
VERTEX
  5
33
330
2B
100
AcDbEntity
  8
OHNE VERRIEGELUNG
100
AcDbVertex
100
AcDb2dVertex
 10
103.5740455457246
 20
46.09210067824885
 30
0.0
  0
VERTEX
  5
34
330
2B
100
AcDbEntity
  8
OHNE VERRIEGELUNG
100
AcDbVertex
100
AcDb2dVertex
 10
124.4999998084356
 20
46.09210067824885
 30
0.0
 42
0.4128858736843372
  0
VERTEX
  5
35
330
2B
100
AcDbEntity
  8
OHNE VERRIEGELUNG
100
AcDbVertex
100
AcDb2dVertex
 10
124.9999998084356
 20
46.64210067824885
 30
0.0
  0
SEQEND
  5
2C
330
2B
100
AcDbEntity
  8
OHNE VERRIEGELUNG
  0
POLYLINE
  5
36
330
1F
100
AcDbEntity
  8
OHNE VERRIEGELUNG
100
AcDb2dPolyline
 66
     1
 10
0.0
 20
0.0
 30
0.0
  0
VERTEX
  5
38
330
36
100
AcDbEntity
  8
OHNE VERRIEGELUNG
100
AcDbVertex
100
AcDb2dVertex
 10
15.4999998084352
 20
51.59210067824885
 30
0.0
  0
VERTEX
  5
39
330
36
100
AcDbEntity
  8
OHNE VERRIEGELUNG
100
AcDbVertex
100
AcDb2dVertex
 10
28.22404554572475
 20
51.59210067824885
 30
0.0
 42
-0.4128858736840261
  0
VERTEX
  5
3A
330
36
100
AcDbEntity
  8
OHNE VERRIEGELUNG
100
AcDbVertex
100
AcDb2dVertex
 10
28.72404554572475
 20
51.04210067824883
 30
0.0
  0
VERTEX
  5
3B
330
36
100
AcDbEntity
  8
OHNE VERRIEGELUNG
100
AcDbVertex
100
AcDb2dVertex
 10
28.72404554572475
 20
46.64210067824885
 30
0.0
 42
-0.4128858736840235
  0
VERTEX
  5
3C
330
36
100
AcDbEntity
  8
OHNE VERRIEGELUNG
100
AcDbVertex
100
AcDb2dVertex
 10
28.22404554572475
 20
46.09210067824885
 30
0.0
  0
VERTEX
  5
3D
330
36
100
AcDbEntity
  8
OHNE VERRIEGELUNG
100
AcDbVertex
100
AcDb2dVertex
 10
15.49999980843566
 20
46.09210067824885
 30
0.0
 42
-0.4128858736852253
  0
VERTEX
  5
3E
330
36
100
AcDbEntity
  8
OHNE VERRIEGELUNG
100
AcDbVertex
100
AcDb2dVertex
 10
14.9999998084352
 20
46.64210067824888
 30
0.0
  0
VERTEX
  5
3F
330
36
100
AcDbEntity
  8
OHNE VERRIEGELUNG
100
AcDbVertex
100
AcDb2dVertex
 10
14.9999998084352
 20
51.09210067824883
 30
0.0
 42
-0.4142135623730948
  0
VERTEX
  5
40
330
36
100
AcDbEntity
  8
OHNE VERRIEGELUNG
100
AcDbVertex
100
AcDb2dVertex
 10
15.49999980843519
 20
51.59210067824885
 30
0.0
  0
SEQEND
  5
37
330
36
100
AcDbEntity
  8
OHNE VERRIEGELUNG
  0
POLYLINE
  5
41
330
1F
100
AcDbEntity
  8
OHNE VERRIEGELUNG
100
AcDb2dPolyline
 66
     1
 10
0.0
 20
0.0
 30
0.0
  0
VERTEX
  5
43
330
41
100
AcDbEntity
  8
OHNE VERRIEGELUNG
100
AcDbVertex
100
AcDb2dVertex
 10
81.75
 20
37.58829506930369
 30
0.0
  0
VERTEX
  5
44
330
41
100
AcDbEntity
  8
OHNE VERRIEGELUNG
100
AcDbVertex
100
AcDb2dVertex
 10
86.14169915289702
 20
37.5882950693031
 30
0.0
 42
-0.4128858736846292
  0
VERTEX
  5
45
330
41
100
AcDbEntity
  8
OHNE VERRIEGELUNG
100
AcDbVertex
100
AcDb2dVertex
 10
86.64169915289702
 20
37.03829506930311
 30
0.0
  0
VERTEX
  5
46
330
41
100
AcDbEntity
  8
OHNE VERRIEGELUNG
100
AcDbVertex
100
AcDb2dVertex
 10
86.6416991528961
 20
32.63829506930288
 30
0.0
 42
-0.4128858736841979
  0
VERTEX
  5
47
330
41
100
AcDbEntity
  8
OHNE VERRIEGELUNG
100
AcDbVertex
100
AcDb2dVertex
 10
86.14169915289611
 20
32.08829506930309
 30
0.0
  0
VERTEX
  5
48
330
41
100
AcDbEntity
  8
OHNE VERRIEGELUNG
100
AcDbVertex
100
AcDb2dVertex
 10
77.64169915289611
 20
32.08829506930432
 30
0.0
 42
-0.4128858736850578
  0
VERTEX
  5
49
330
41
100
AcDbEntity
  8
OHNE VERRIEGELUNG
100
AcDbVertex
100
AcDb2dVertex
 10
77.14169915289611
 20
32.6382950693043
 30
0.0
  0
VERTEX
  5
4A
330
41
100
AcDbEntity
  8
OHNE VERRIEGELUNG
100
AcDbVertex
100
AcDb2dVertex
 10
77.14169915289701
 20
37.03829506930431
 30
0.0
 42
-0.412885873685326
  0
VERTEX
  5
4B
330
41
100
AcDbEntity
  8
OHNE VERRIEGELUNG
100
AcDbVertex
100
AcDb2dVertex
 10
77.64169915289702
 20
37.58829506930432
 30
0.0
  0
VERTEX
  5
4C
330
41
100
AcDbEntity
  8
OHNE VERRIEGELUNG
100
AcDbVertex
100
AcDb2dVertex
 10
81.75
 20
37.58829506930369
 30
0.0
  0
SEQEND
  5
42
330
41
100
AcDbEntity
  8
OHNE VERRIEGELUNG
  0
POLYLINE
  5
4D
330
1F
100
AcDbEntity
  8
OHNE VERRIEGELUNG
100
AcDb2dPolyline
 66
     1
 10
0.0
 20
0.0
 30
0.0
  0
VERTEX
  5
4F
330
4D
100
AcDbEntity
  8
OHNE VERRIEGELUNG
100
AcDbVertex
100
AcDb2dVertex
 10
66.82433820579515
 20
79.94705507525171
 30
0.0
 42
-0.4128858736845494
  0
VERTEX
  5
50
330
4D
100
AcDbEntity
  8
OHNE VERRIEGELUNG
100
AcDbVertex
100
AcDb2dVertex
 10
67.32433820579515
 20
79.39705507525173
 30
0.0
  0
VERTEX
  5
51
330
4D
100
AcDbEntity
  8
OHNE VERRIEGELUNG
100
AcDbVertex
100
AcDb2dVertex
 10
67.3243382057947
 20
74.99705507525149
 30
0.0
 42
-0.4128858736840546
  0
VERTEX
  5
52
330
4D
100
AcDbEntity
  8
OHNE VERRIEGELUNG
100
AcDbVertex
100
AcDb2dVertex
 10
66.82433820579425
 20
74.44705507525174
 30
0.0
  0
VERTEX
  5
53
330
4D
100
AcDbEntity
  8
OHNE VERRIEGELUNG
100
AcDbVertex
100
AcDb2dVertex
 10
33.72433820579434
 20
74.44705507525793
 30
0.0
 42
-0.4128858736851269
  0
VERTEX
  5
54
330
4D
100
AcDbEntity
  8
OHNE VERRIEGELUNG
100
AcDbVertex
100
AcDb2dVertex
 10
33.22433820579434
 20
74.99705507525795
 30
0.0
  0
VERTEX
  5
55
330
4D
100
AcDbEntity
  8
OHNE VERRIEGELUNG
100
AcDbVertex
100
AcDb2dVertex
 10
33.22433820579525
 20
79.39705507525792
 30
0.0
 42
-0.4128858736847551
  0
VERTEX
  5
56
330
4D
100
AcDbEntity
  8
OHNE VERRIEGELUNG
100
AcDbVertex
100
AcDb2dVertex
 10
33.72433820579525
 20
79.94705507525793
 30
0.0
  0
VERTEX
  5
57
330
4D
100
AcDbEntity
  8
OHNE VERRIEGELUNG
100
AcDbVertex
100
AcDb2dVertex
 10
66.82433820579515
 20
79.94705507525174
 30
0.0
  0
SEQEND
  5
4E
330
4D
100
AcDbEntity
  8
OHNE VERRIEGELUNG
  0
POLYLINE
  5
58
330
1F
100
AcDbEntity
  8
OHNE VERRIEGELUNG
100
AcDb2dPolyline
 66
     1
 10
0.0
 20
0.0
 30
0.0
  0
VERTEX
  5
5A
330
58
100
AcDbEntity
  8
OHNE VERRIEGELUNG
100
AcDbVertex
100
AcDb2dVertex
 10
124.9999998084352
 20
18.63829506929438
 30
0.0
  0
VERTEX
  5
5B
330
58
100
AcDbEntity
  8
OHNE VERRIEGELUNG
100
AcDbVertex
100
AcDb2dVertex
 10
124.9999998084356
 20
23.03829506929427
 30
0.0
 42
0.4128858736843163
  0
VERTEX
  5
5C
330
58
100
AcDbEntity
  8
OHNE VERRIEGELUNG
100
AcDbVertex
100
AcDb2dVertex
 10
124.4999998084356
 20
23.58829506929426
 30
0.0
  0
VERTEX
  5
5D
330
58
100
AcDbEntity
  8
OHNE VERRIEGELUNG
100
AcDbVertex
100
AcDb2dVertex
 10
72.82433820579561
 20
23.58829506930343
 30
0.0
 42
0.412885873685232
  0
VERTEX
  5
5E
330
58
100
AcDbEntity
  8
OHNE VERRIEGELUNG
100
AcDbVertex
100
AcDb2dVertex
 10
72.32433820579515
 20
23.03829506930394
 30
0.0
  0
VERTEX
  5
5F
330
58
100
AcDbEntity
  8
OHNE VERRIEGELUNG
100
AcDbVertex
100
AcDb2dVertex
 10
72.3243382057947
 20
18.6382950693037
 30
0.0
 42
0.4128858736854756
  0
VERTEX
  5
60
330
58
100
AcDbEntity
  8
OHNE VERRIEGELUNG
100
AcDbVertex
100
AcDb2dVertex
 10
72.82433820579425
 20
18.08829506930343
 30
0.0
  0
VERTEX
  5
61
330
58
100
AcDbEntity
  8
OHNE VERRIEGELUNG
100
AcDbVertex
100
AcDb2dVertex
 10
124.4999998084352
 20
18.0882950692942
 30
0.0
 42
0.4128858736843283
  0
VERTEX
  5
62
330
58
100
AcDbEntity
  8
OHNE VERRIEGELUNG
100
AcDbVertex
100
AcDb2dVertex
 10
124.9999998084352
 20
18.63829506929438
 30
0.0
  0
SEQEND
  5
59
330
58
100
AcDbEntity
  8
OHNE VERRIEGELUNG
  0
POLYLINE
  5
64
330
1F
100
AcDbEntity
  8
OHNE VERRIEGELUNG
100
AcDb2dPolyline
 66
     1
 10
0.0
 20
0.0
 30
0.0
  0
VERTEX
  5
66
330
64
100
AcDbEntity
  8
OHNE VERRIEGELUNG
100
AcDbVertex
100
AcDb2dVertex
 10
24.00343464152982
 20
60.64210067824863
 30
0.0
 42
-0.4128858736840008
  0
VERTEX
  5
67
330
64
100
AcDbEntity
  8
OHNE VERRIEGELUNG
100
AcDbVertex
100
AcDb2dVertex
 10
23.50343464152982
 20
60.09210067824862
 30
0.0
  0
VERTEX
  5
68
330
64
100
AcDbEntity
  8
OHNE VERRIEGELUNG
100
AcDbVertex
100
AcDb2dVertex
 10
15.50343464152982
 20
60.09210067824862
 30
0.0
 42
-0.4128858736844313
  0
VERTEX
  5
69
330
64
100
AcDbEntity
  8
OHNE VERRIEGELUNG
100
AcDbVertex
100
AcDb2dVertex
 10
15.00343464152982
 20
60.64210067824863
 30
0.0
  0
VERTEX
  5
6A
330
64
100
AcDbEntity
  8
OHNE VERRIEGELUNG
100
AcDbVertex
100
AcDb2dVertex
 10
15.00343464152982
 20
65.0421006782486
 30
0.0
 42
-0.4128858736851701
  0
VERTEX
  5
6B
330
64
100
AcDbEntity
  8
OHNE VERRIEGELUNG
100
AcDbVertex
100
AcDb2dVertex
 10
15.50343464152982
 20
65.59210067824861
 30
0.0
  0
VERTEX
  5
6C
330
64
100
AcDbEntity
  8
OHNE VERRIEGELUNG
100
AcDbVertex
100
AcDb2dVertex
 10
23.50343464152982
 20
65.59210067824861
 30
0.0
 42
-0.4128858736844256
  0
VERTEX
  5
6D
330
64
100
AcDbEntity
  8
OHNE VERRIEGELUNG
100
AcDbVertex
100
AcDb2dVertex
 10
24.00343464152982
 20
65.0421006782486
 30
0.0
  0
VERTEX
  5
6E
330
64
100
AcDbEntity
  8
OHNE VERRIEGELUNG
100
AcDbVertex
100
AcDb2dVertex
 10
24.00343464152982
 20
60.64210067824863
 30
0.0
  0
SEQEND
  5
65
330
64
100
AcDbEntity
  8
OHNE VERRIEGELUNG
  0
POLYLINE
  5
7A
330
1F
100
AcDbEntity
  8
OHNE VERRIEGELUNG
100
AcDb2dPolyline
 66
     1
 10
0.0
 20
0.0
 30
0.0
  0
VERTEX
  5
7C
330
7A
100
AcDbEntity
  8
OHNE VERRIEGELUNG
100
AcDbVertex
100
AcDb2dVertex
 10
40.25
 20
65.59210067824861
 30
0.0
  0
VERTEX
  5
7D
330
7A
100
AcDbEntity
  8
OHNE VERRIEGELUNG
100
AcDbVertex
100
AcDb2dVertex
 10
111.5034346415262
 20
65.59210067824861
 30
0.0
 42
-0.4128858736846228
  0
VERTEX
  5
7E
330
7A
100
AcDbEntity
  8
OHNE VERRIEGELUNG
100
AcDbVertex
100
AcDb2dVertex
 10
112.0034346415262
 20
65.0421006782486
 30
0.0
  0
VERTEX
  5
7F
330
7A
100
AcDbEntity
  8
OHNE VERRIEGELUNG
100
AcDbVertex
100
AcDb2dVertex
 10
112.0034346415262
 20
60.64210067824863
 30
0.0
 42
-0.4128858736857787
  0
VERTEX
  5
80
330
7A
100
AcDbEntity
  8
OHNE VERRIEGELUNG
100
AcDbVertex
100
AcDb2dVertex
 10
111.5034346415243
 20
60.09210067824862
 30
0.0
  0
VERTEX
  5
81
330
7A
100
AcDbEntity
  8
OHNE VERRIEGELUNG
100
AcDbVertex
100
AcDb2dVertex
 10
29.50343464152982
 20
60.09210067824862
 30
0.0
 42
-0.4128858736849447
  0
VERTEX
  5
82
330
7A
100
AcDbEntity
  8
OHNE VERRIEGELUNG
100
AcDbVertex
100
AcDb2dVertex
 10
29.00343464152982
 20
60.64210067824863
 30
0.0
  0
VERTEX
  5
83
330
7A
100
AcDbEntity
  8
OHNE VERRIEGELUNG
100
AcDbVertex
100
AcDb2dVertex
 10
29.00343464152982
 20
65.0421006782486
 30
0.0
 42
-0.4128858736854746
  0
VERTEX
  5
84
330
7A
100
AcDbEntity
  8
OHNE VERRIEGELUNG
100
AcDbVertex
100
AcDb2dVertex
 10
29.50343464152982
 20
65.59210067824861
 30
0.0
  0
VERTEX
  5
85
330
7A
100
AcDbEntity
  8
OHNE VERRIEGELUNG
100
AcDbVertex
100
AcDb2dVertex
 10
40.25
 20
65.59210067824861
 30
0.0
  0
SEQEND
  5
7B
330
7A
100
AcDbEntity
  8
OHNE VERRIEGELUNG
  0
POLYLINE
  5
86
330
1F
100
AcDbEntity
  8
OHNE VERRIEGELUNG
100
AcDb2dPolyline
 66
     1
 10
0.0
 20
0.0
 30
0.0
  0
VERTEX
  5
88
330
86
100
AcDbEntity
  8
OHNE VERRIEGELUNG
100
AcDbVertex
100
AcDb2dVertex
 10
86.14169915289611
 20
88.44705507524944
 30
0.0
 42
0.4128858736842394
  0
VERTEX
  5
89
330
86
100
AcDbEntity
  8
OHNE VERRIEGELUNG
100
AcDbVertex
100
AcDb2dVertex
 10
86.6416991528961
 20
88.99705507524945
 30
0.0
  0
VERTEX
  5
8A
330
86
100
AcDbEntity
  8
OHNE VERRIEGELUNG
100
AcDbVertex
100
AcDb2dVertex
 10
86.64169915289702
 20
93.39705507524939
 30
0.0
 42
0.4128858736846168
  0
VERTEX
  5
8B
330
86
100
AcDbEntity
  8
OHNE VERRIEGELUNG
100
AcDbVertex
100
AcDb2dVertex
 10
86.14169915289702
 20
93.94705507524941
 30
0.0
  0
VERTEX
  5
8C
330
86
100
AcDbEntity
  8
OHNE VERRIEGELUNG
100
AcDbVertex
100
AcDb2dVertex
 10
77.64169915289702
 20
93.94705507525078
 30
0.0
 42
0.4128858736853298
  0
VERTEX
  5
8D
330
86
100
AcDbEntity
  8
OHNE VERRIEGELUNG
100
AcDbVertex
100
AcDb2dVertex
 10
77.14169915289701
 20
93.39705507525076
 30
0.0
  0
VERTEX
  5
8E
330
86
100
AcDbEntity
  8
OHNE VERRIEGELUNG
100
AcDbVertex
100
AcDb2dVertex
 10
77.14169915289611
 20
88.99705507525082
 30
0.0
 42
0.4128858736851015
  0
VERTEX
  5
8F
330
86
100
AcDbEntity
  8
OHNE VERRIEGELUNG
100
AcDbVertex
100
AcDb2dVertex
 10
77.64169915289611
 20
88.4470550752508
 30
0.0
  0
VERTEX
  5
90
330
86
100
AcDbEntity
  8
OHNE VERRIEGELUNG
100
AcDbVertex
100
AcDb2dVertex
 10
86.14169915289611
 20
88.44705507524944
 30
0.0
  0
SEQEND
  5
87
330
86
100
AcDbEntity
  8
OHNE VERRIEGELUNG
  0
POLYLINE
  5
91
330
1F
100
AcDbEntity
  8
OHNE VERRIEGELUNG
100
AcDb2dPolyline
 66
     1
 10
0.0
 20
0.0
 30
0.0
  0
VERTEX
  5
93
330
91
100
AcDbEntity
  8
OHNE VERRIEGELUNG
100
AcDbVertex
100
AcDb2dVertex
 10
15.49999980843569
 20
37.58829506931441
 30
0.0
  0
VERTEX
  5
94
330
91
100
AcDbEntity
  8
OHNE VERRIEGELUNG
100
AcDbVertex
100
AcDb2dVertex
 10
71.64169915289702
 20
37.58829506930509
 30
0.0
 42
-0.4128858736841209
  0
VERTEX
  5
95
330
91
100
AcDbEntity
  8
OHNE VERRIEGELUNG
100
AcDbVertex
100
AcDb2dVertex
 10
72.14169915289701
 20
37.0382950693051
 30
0.0
  0
VERTEX
  5
96
330
91
100
AcDbEntity
  8
OHNE VERRIEGELUNG
100
AcDbVertex
100
AcDb2dVertex
 10
72.14169915289611
 20
32.63829506930509
 30
0.0
 42
-0.4128858736843297
  0
VERTEX
  5
97
330
91
100
AcDbEntity
  8
OHNE VERRIEGELUNG
100
AcDbVertex
100
AcDb2dVertex
 10
71.64169915289611
 20
32.08829506930508
 30
0.0
  0
VERTEX
  5
98
330
91
100
AcDbEntity
  8
OHNE VERRIEGELUNG
100
AcDbVertex
100
AcDb2dVertex
 10
15.49999980843475
 20
32.08829506931444
 30
0.0
 42
-0.4128858736845227
  0
VERTEX
  5
99
330
91
100
AcDbEntity
  8
OHNE VERRIEGELUNG
100
AcDbVertex
100
AcDb2dVertex
 10
14.99999980843475
 20
32.6382950693143
 30
0.0
  0
VERTEX
  5
9A
330
91
100
AcDbEntity
  8
OHNE VERRIEGELUNG
100
AcDbVertex
100
AcDb2dVertex
 10
14.99999980843516
 20
37.08829506931449
 30
0.0
 42
-0.4142135623733542
  0
VERTEX
  5
9B
330
91
100
AcDbEntity
  8
OHNE VERRIEGELUNG
100
AcDbVertex
100
AcDb2dVertex
 10
15.49999980843569
 20
37.58829506931441
 30
0.0
  0
SEQEND
  5
92
330
91
100
AcDbEntity
  8
OHNE VERRIEGELUNG
  0
POLYLINE
  5
A7
330
1F
100
AcDbEntity
  8
OHNE VERRIEGELUNG
100
AcDb2dPolyline
 66
     1
 10
0.0
 20
0.0
 30
0.0
  0
VERTEX
  5
A9
330
A7
100
AcDbEntity
  8
OHNE VERRIEGELUNG
100
AcDbVertex
100
AcDb2dVertex
 10
124.9999998084356
 20
32.6382950692964
 30
0.0
  0
VERTEX
  5
AA
330
A7
100
AcDbEntity
  8
OHNE VERRIEGELUNG
100
AcDbVertex
100
AcDb2dVertex
 10
124.9999998084356
 20
37.03829506929649
 30
0.0
 42
0.4128858736853821
  0
VERTEX
  5
AB
330
A7
100
AcDbEntity
  8
OHNE VERRIEGELUNG
100
AcDbVertex
100
AcDb2dVertex
 10
124.4999998084352
 20
37.58829506929647
 30
0.0
  0
VERTEX
  5
AC
330
A7
100
AcDbEntity
  8
OHNE VERRIEGELUNG
100
AcDbVertex
100
AcDb2dVertex
 10
92.14169915289748
 20
37.58829506930187
 30
0.0
 42
0.4128858736850717
  0
VERTEX
  5
AD
330
A7
100
AcDbEntity
  8
OHNE VERRIEGELUNG
100
AcDbVertex
100
AcDb2dVertex
 10
91.64169915289702
 20
37.0382950693018
 30
0.0
  0
VERTEX
  5
AE
330
A7
100
AcDbEntity
  8
OHNE VERRIEGELUNG
100
AcDbVertex
100
AcDb2dVertex
 10
91.6416991528961
 20
32.63829506930177
 30
0.0
 42
0.4128858736851658
  0
VERTEX
  5
AF
330
A7
100
AcDbEntity
  8
OHNE VERRIEGELUNG
100
AcDbVertex
100
AcDb2dVertex
 10
92.14169915289611
 20
32.08829506930181
 30
0.0
  0
VERTEX
  5
B0
330
A7
100
AcDbEntity
  8
OHNE VERRIEGELUNG
100
AcDbVertex
100
AcDb2dVertex
 10
124.4999998084361
 20
32.08829506929647
 30
0.0
 42
0.4128858736842562
  0
VERTEX
  5
B1
330
A7
100
AcDbEntity
  8
OHNE VERRIEGELUNG
100
AcDbVertex
100
AcDb2dVertex
 10
124.9999998084356
 20
32.6382950692964
 30
0.0
  0
SEQEND
  5
A8
330
A7
100
AcDbEntity
  8
OHNE VERRIEGELUNG
  0
POLYLINE
  5
B3
330
1F
100
AcDbEntity
  8
OHNE VERRIEGELUNG
100
AcDb2dPolyline
 66
     1
 10
0.0
 20
0.0
 30
0.0
  0
VERTEX
  5
B5
330
B3
100
AcDbEntity
  8
OHNE VERRIEGELUNG
100
AcDbVertex
100
AcDb2dVertex
 10
29.50343464152982
 20
116.4508606841953
 30
0.0
 42
-0.4128858736849263
  0
VERTEX
  5
B6
330
B3
100
AcDbEntity
  8
OHNE VERRIEGELUNG
100
AcDbVertex
100
AcDb2dVertex
 10
29.00343464152982
 20
117.0008606841953
 30
0.0
  0
VERTEX
  5
B7
330
B3
100
AcDbEntity
  8
OHNE VERRIEGELUNG
100
AcDbVertex
100
AcDb2dVertex
 10
29.00343464152982
 20
121.4008606841953
 30
0.0
 42
-0.4128858736854281
  0
VERTEX
  5
B8
330
B3
100
AcDbEntity
  8
OHNE VERRIEGELUNG
100
AcDbVertex
100
AcDb2dVertex
 10
29.50343464152982
 20
121.9508606841953
 30
0.0
  0
VERTEX
  5
B9
330
B3
100
AcDbEntity
  8
OHNE VERRIEGELUNG
100
AcDbVertex
100
AcDb2dVertex
 10
111.5034346415262
 20
121.950860684196
 30
0.0
 42
-0.4128858736846802
  0
VERTEX
  5
BA
330
B3
100
AcDbEntity
  8
OHNE VERRIEGELUNG
100
AcDbVertex
100
AcDb2dVertex
 10
112.0034346415262
 20
121.400860684196
 30
0.0
  0
VERTEX
  5
BB
330
B3
100
AcDbEntity
  8
OHNE VERRIEGELUNG
100
AcDbVertex
100
AcDb2dVertex
 10
112.0034346415262
 20
117.0008606841961
 30
0.0
 42
-0.4128858736858382
  0
VERTEX
  5
BC
330
B3
100
AcDbEntity
  8
OHNE VERRIEGELUNG
100
AcDbVertex
100
AcDb2dVertex
 10
111.5034346415243
 20
116.4508606841961
 30
0.0
  0
VERTEX
  5
BD
330
B3
100
AcDbEntity
  8
OHNE VERRIEGELUNG
100
AcDbVertex
100
AcDb2dVertex
 10
29.50343464152982
 20
116.4508606841953
 30
0.0
  0
SEQEND
  5
B4
330
B3
100
AcDbEntity
  8
OHNE VERRIEGELUNG
  0
POLYLINE
  5
BE
330
1F
100
AcDbEntity
  8
OHNE VERRIEGELUNG
100
AcDb2dPolyline
 66
     1
 10
0.0
 20
0.0
 30
0.0
  0
VERTEX
  5
C0
330
BE
100
AcDbEntity
  8
OHNE VERRIEGELUNG
100
AcDbVertex
100
AcDb2dVertex
 10
124.9999998084356
 20
88.99705507524206
 30
0.0
  0
VERTEX
  5
C1
330
BE
100
AcDbEntity
  8
OHNE VERRIEGELUNG
100
AcDbVertex
100
AcDb2dVertex
 10
124.9999998084356
 20
93.39705507524218
 30
0.0
 42
0.4128858736843327
  0
VERTEX
  5
C2
330
BE
100
AcDbEntity
  8
OHNE VERRIEGELUNG
100
AcDbVertex
100
AcDb2dVertex
 10
124.4999998084356
 20
93.94705507524212
 30
0.0
  0
VERTEX
  5
C3
330
BE
100
AcDbEntity
  8
OHNE VERRIEGELUNG
100
AcDbVertex
100
AcDb2dVertex
 10
92.14169915289748
 20
93.94705507524804
 30
0.0
 42
0.4128858736850995
  0
VERTEX
  5
C4
330
BE
100
AcDbEntity
  8
OHNE VERRIEGELUNG
100
AcDbVertex
100
AcDb2dVertex
 10
91.64169915289702
 20
93.39705507524802
 30
0.0
  0
VERTEX
  5
C5
330
BE
100
AcDbEntity
  8
OHNE VERRIEGELUNG
100
AcDbVertex
100
AcDb2dVertex
 10
91.6416991528961
 20
88.99705507524799
 30
0.0
 42
0.4128858736851502
  0
VERTEX
  5
C6
330
BE
100
AcDbEntity
  8
OHNE VERRIEGELUNG
100
AcDbVertex
100
AcDb2dVertex
 10
92.14169915289611
 20
88.44705507524805
 30
0.0
  0
VERTEX
  5
C7
330
BE
100
AcDbEntity
  8
OHNE VERRIEGELUNG
100
AcDbVertex
100
AcDb2dVertex
 10
124.4999998084356
 20
88.44705507524215
 30
0.0
 42
0.4128858736856237
  0
VERTEX
  5
C8
330
BE
100
AcDbEntity
  8
OHNE VERRIEGELUNG
100
AcDbVertex
100
AcDb2dVertex
 10
124.9999998084356
 20
88.99705507524206
 30
0.0
  0
SEQEND
  5
BF
330
BE
100
AcDbEntity
  8
OHNE VERRIEGELUNG
  0
POLYLINE
  5
C9
330
1F
100
AcDbEntity
  8
OHNE VERRIEGELUNG
100
AcDb2dPolyline
 66
     1
 10
0.0
 20
0.0
 30
0.0
  0
VERTEX
  5
CB
330
C9
100
AcDbEntity
  8
OHNE VERRIEGELUNG
100
AcDbVertex
100
AcDb2dVertex
 10
15.4999998084353
 20
23.58829506931392
 30
0.0
  0
VERTEX
  5
CC
330
C9
100
AcDbEntity
  8
OHNE VERRIEGELUNG
100
AcDbVertex
100
AcDb2dVertex
 10
27.72433820579525
 20
23.58829506931162
 30
0.0
 42
-0.412885873683658
  0
VERTEX
  5
CD
330
C9
100
AcDbEntity
  8
OHNE VERRIEGELUNG
100
AcDbVertex
100
AcDb2dVertex
 10
28.22433820579525
 20
23.03829506931164
 30
0.0
  0
VERTEX
  5
CE
330
C9
100
AcDbEntity
  8
OHNE VERRIEGELUNG
100
AcDbVertex
100
AcDb2dVertex
 10
28.22433820579434
 20
18.63829506931163
 30
0.0
 42
-0.4128858736838427
  0
VERTEX
  5
CF
330
C9
100
AcDbEntity
  8
OHNE VERRIEGELUNG
100
AcDbVertex
100
AcDb2dVertex
 10
27.72433820579434
 20
18.08829506931162
 30
0.0
  0
VERTEX
  5
D0
330
C9
100
AcDbEntity
  8
OHNE VERRIEGELUNG
100
AcDbVertex
100
AcDb2dVertex
 10
15.4999998084352
 20
18.08829506931395
 30
0.0
 42
-0.4128858736848584
  0
VERTEX
  5
D1
330
C9
100
AcDbEntity
  8
OHNE VERRIEGELUNG
100
AcDbVertex
100
AcDb2dVertex
 10
14.9999998084352
 20
18.63829506931405
 30
0.0
  0
VERTEX
  5
D2
330
C9
100
AcDbEntity
  8
OHNE VERRIEGELUNG
100
AcDbVertex
100
AcDb2dVertex
 10
14.9999998084352
 20
23.08829506931398
 30
0.0
 42
-0.4142135623731168
  0
VERTEX
  5
D3
330
C9
100
AcDbEntity
  8
OHNE VERRIEGELUNG
100
AcDbVertex
100
AcDb2dVertex
 10
15.4999998084353
 20
23.58829506931392
 30
0.0
  0
SEQEND
  5
CA
330
C9
100
AcDbEntity
  8
OHNE VERRIEGELUNG
  0
POLYLINE
  5
D4
330
1F
100
AcDbEntity
  8
OHNE VERRIEGELUNG
100
AcDb2dPolyline
 66
     1
 10
0.0
 20
0.0
 30
0.0
  0
VERTEX
  5
D6
330
D4
100
AcDbEntity
  8
OHNE VERRIEGELUNG
100
AcDbVertex
100
AcDb2dVertex
 10
34.22404554572475
 20
102.4508606841959
 30
0.0
 42
-0.4128858736847821
  0
VERTEX
  5
D7
330
D4
100
AcDbEntity
  8
OHNE VERRIEGELUNG
100
AcDbVertex
100
AcDb2dVertex
 10
33.72404554572475
 20
103.0008606841959
 30
0.0
  0
VERTEX
  5
D8
330
D4
100
AcDbEntity
  8
OHNE VERRIEGELUNG
100
AcDbVertex
100
AcDb2dVertex
 10
33.72404554572475
 20
107.4008606841959
 30
0.0
 42
-0.4128858736850498
  0
VERTEX
  5
D9
330
D4
100
AcDbEntity
  8
OHNE VERRIEGELUNG
100
AcDbVertex
100
AcDb2dVertex
 10
34.22404554572475
 20
107.9508606841959
 30
0.0
  0
VERTEX
  5
DA
330
D4
100
AcDbEntity
  8
OHNE VERRIEGELUNG
100
AcDbVertex
100
AcDb2dVertex
 10
67.32404554572466
 20
107.9508606841959
 30
0.0
 42
-0.4128858736843102
  0
VERTEX
  5
DB
330
D4
100
AcDbEntity
  8
OHNE VERRIEGELUNG
100
AcDbVertex
100
AcDb2dVertex
 10
67.82404554572465
 20
107.4008606841959
 30
0.0
  0
VERTEX
  5
DC
330
D4
100
AcDbEntity
  8
OHNE VERRIEGELUNG
100
AcDbVertex
100
AcDb2dVertex
 10
67.82404554572465
 20
103.0008606841959
 30
0.0
 42
-0.4128858736848532
  0
VERTEX
  5
DD
330
D4
100
AcDbEntity
  8
OHNE VERRIEGELUNG
100
AcDbVertex
100
AcDb2dVertex
 10
67.32404554572466
 20
102.4508606841959
 30
0.0
  0
VERTEX
  5
DE
330
D4
100
AcDbEntity
  8
OHNE VERRIEGELUNG
100
AcDbVertex
100
AcDb2dVertex
 10
34.22404554572475
 20
102.4508606841959
 30
0.0
  0
SEQEND
  5
D5
330
D4
100
AcDbEntity
  8
OHNE VERRIEGELUNG
  0
POLYLINE
  5
DF
330
1F
100
AcDbEntity
  8
OHNE VERRIEGELUNG
100
AcDb2dPolyline
 66
     1
 10
0.0
 20
0.0
 30
0.0
  0
VERTEX
  5
E1
330
DF
100
AcDbEntity
  8
OHNE VERRIEGELUNG
100
AcDbVertex
100
AcDb2dVertex
 10
34.22404554572475
 20
46.09210067824887
 30
0.0
 42
-0.4128858736847642
  0
VERTEX
  5
E2
330
DF
100
AcDbEntity
  8
OHNE VERRIEGELUNG
100
AcDbVertex
100
AcDb2dVertex
 10
33.72404554572475
 20
46.64210067824885
 30
0.0
  0
VERTEX
  5
E3
330
DF
100
AcDbEntity
  8
OHNE VERRIEGELUNG
100
AcDbVertex
100
AcDb2dVertex
 10
33.72404554572475
 20
51.04210067824883
 30
0.0
 42
-0.4128858736850535
  0
VERTEX
  5
E4
330
DF
100
AcDbEntity
  8
OHNE VERRIEGELUNG
100
AcDbVertex
100
AcDb2dVertex
 10
34.22404554572475
 20
51.59210067824885
 30
0.0
  0
VERTEX
  5
E5
330
DF
100
AcDbEntity
  8
OHNE VERRIEGELUNG
100
AcDbVertex
100
AcDb2dVertex
 10
67.32404554572466
 20
51.59210067824885
 30
0.0
 42
-0.4128858736843574
  0
VERTEX
  5
E6
330
DF
100
AcDbEntity
  8
OHNE VERRIEGELUNG
100
AcDbVertex
100
AcDb2dVertex
 10
67.82404554572465
 20
51.04210067824883
 30
0.0
  0
VERTEX
  5
E7
330
DF
100
AcDbEntity
  8
OHNE VERRIEGELUNG
100
AcDbVertex
100
AcDb2dVertex
 10
67.82404554572465
 20
46.64210067824885
 30
0.0
 42
-0.4128858736848194
  0
VERTEX
  5
E8
330
DF
100
AcDbEntity
  8
OHNE VERRIEGELUNG
100
AcDbVertex
100
AcDb2dVertex
 10
67.32404554572466
 20
46.09210067824885
 30
0.0
  0
VERTEX
  5
E9
330
DF
100
AcDbEntity
  8
OHNE VERRIEGELUNG
100
AcDbVertex
100
AcDb2dVertex
 10
34.22404554572475
 20
46.09210067824885
 30
0.0
  0
SEQEND
  5
E0
330
DF
100
AcDbEntity
  8
OHNE VERRIEGELUNG
  0
POLYLINE
  5
EA
330
1F
100
AcDbEntity
  8
OHNE VERRIEGELUNG
100
AcDb2dPolyline
 66
     1
 10
0.0
 20
0.0
 30
0.0
  0
VERTEX
  5
EC
330
EA
100
AcDbEntity
  8
OHNE VERRIEGELUNG
100
AcDbVertex
100
AcDb2dVertex
 10
124.9999998084356
 20
117.0008606841962
 30
0.0
  0
VERTEX
  5
ED
330
EA
100
AcDbEntity
  8
OHNE VERRIEGELUNG
100
AcDbVertex
100
AcDb2dVertex
 10
124.9999998084356
 20
121.4008606841961
 30
0.0
 42
0.4128858736854168
  0
VERTEX
  5
EE
330
EA
100
AcDbEntity
  8
OHNE VERRIEGELUNG
100
AcDbVertex
100
AcDb2dVertex
 10
124.4999998084352
 20
121.9508606841962
 30
0.0
  0
VERTEX
  5
EF
330
EA
100
AcDbEntity
  8
OHNE VERRIEGELUNG
100
AcDbVertex
100
AcDb2dVertex
 10
117.5034346415262
 20
121.9508606841961
 30
0.0
 42
0.4128858736850773
  0
VERTEX
  5
F0
330
EA
100
AcDbEntity
  8
OHNE VERRIEGELUNG
100
AcDbVertex
100
AcDb2dVertex
 10
117.0034346415262
 20
121.4008606841961
 30
0.0
  0
VERTEX
  5
F1
330
EA
100
AcDbEntity
  8
OHNE VERRIEGELUNG
100
AcDbVertex
100
AcDb2dVertex
 10
117.0034346415262
 20
117.0008606841961
 30
0.0
 42
0.4128858736843366
  0
VERTEX
  5
F2
330
EA
100
AcDbEntity
  8
OHNE VERRIEGELUNG
100
AcDbVertex
100
AcDb2dVertex
 10
117.5034346415262
 20
116.4508606841961
 30
0.0
  0
VERTEX
  5
F3
330
EA
100
AcDbEntity
  8
OHNE VERRIEGELUNG
100
AcDbVertex
100
AcDb2dVertex
 10
124.4999998084356
 20
116.4508606841962
 30
0.0
 42
0.4128858736843262
  0
VERTEX
  5
F4
330
EA
100
AcDbEntity
  8
OHNE VERRIEGELUNG
100
AcDbVertex
100
AcDb2dVertex
 10
124.9999998084357
 20
117.0008606841962
 30
0.0
  0
SEQEND
  5
EB
330
EA
100
AcDbEntity
  8
OHNE VERRIEGELUNG
  0
POLYLINE
  5
F5
330
1F
100
AcDbEntity
  8
OHNE VERRIEGELUNG
100
AcDb2dPolyline
 66
     1
 10
0.0
 20
0.0
 30
0.0
  0
VERTEX
  5
F7
330
F5
100
AcDbEntity
  8
OHNE VERRIEGELUNG
100
AcDbVertex
100
AcDb2dVertex
 10
124.4999998084361
 20
60.09210067824862
 30
0.0
  0
VERTEX
  5
F8
330
F5
100
AcDbEntity
  8
OHNE VERRIEGELUNG
100
AcDbVertex
100
AcDb2dVertex
 10
117.5034346415262
 20
60.09210067824862
 30
0.0
 42
-0.412885873684349
  0
VERTEX
  5
F9
330
F5
100
AcDbEntity
  8
OHNE VERRIEGELUNG
100
AcDbVertex
100
AcDb2dVertex
 10
117.0034346415262
 20
60.64210067824863
 30
0.0
  0
VERTEX
  5
FA
330
F5
100
AcDbEntity
  8
OHNE VERRIEGELUNG
100
AcDbVertex
100
AcDb2dVertex
 10
117.0034346415262
 20
65.0421006782486
 30
0.0
 42
-0.4128858736851031
  0
VERTEX
  5
FB
330
F5
100
AcDbEntity
  8
OHNE VERRIEGELUNG
100
AcDbVertex
100
AcDb2dVertex
 10
117.5034346415262
 20
65.59210067824861
 30
0.0
  0
VERTEX
  5
FC
330
F5
100
AcDbEntity
  8
OHNE VERRIEGELUNG
100
AcDbVertex
100
AcDb2dVertex
 10
124.4999998084356
 20
65.59210067824861
 30
0.0
 42
-0.4128858736843423
  0
VERTEX
  5
FD
330
F5
100
AcDbEntity
  8
OHNE VERRIEGELUNG
100
AcDbVertex
100
AcDb2dVertex
 10
124.9999998084356
 20
65.0421006782486
 30
0.0
  0
VERTEX
  5
FE
330
F5
100
AcDbEntity
  8
OHNE VERRIEGELUNG
100
AcDbVertex
100
AcDb2dVertex
 10
124.9999998084356
 20
60.64210067824863
 30
0.0
 42
-0.4128858736842418
  0
VERTEX
  5
FF
330
F5
100
AcDbEntity
  8
OHNE VERRIEGELUNG
100
AcDbVertex
100
AcDb2dVertex
 10
124.4999998084361
 20
60.09210067824863
 30
0.0
  0
SEQEND
  5
F6
330
F5
100
AcDbEntity
  8
OHNE VERRIEGELUNG
  0
POLYLINE
  5
100
330
1F
100
AcDbEntity
  8
OHNE VERRIEGELUNG
100
AcDb2dPolyline
 66
     1
 10
0.0
 20
0.0
 30
0.0
  0
VERTEX
  5
102
330
100
100
AcDbEntity
  8
OHNE VERRIEGELUNG
100
AcDbVertex
100
AcDb2dVertex
 10
14.9999998084352
 20
79.39705507526134
 30
0.0
  0
VERTEX
  5
103
330
100
100
AcDbEntity
  8
OHNE VERRIEGELUNG
100
AcDbVertex
100
AcDb2dVertex
 10
14.9999998084352
 20
74.99705507526127
 30
0.0
 42
0.4128858736849405
  0
VERTEX
  5
104
330
100
100
AcDbEntity
  8
OHNE VERRIEGELUNG
100
AcDbVertex
100
AcDb2dVertex
 10
15.4999998084352
 20
74.44705507526129
 30
0.0
  0
VERTEX
  5
105
330
100
100
AcDbEntity
  8
OHNE VERRIEGELUNG
100
AcDbVertex
100
AcDb2dVertex
 10
27.72433820579434
 20
74.44705507525887
 30
0.0
 42
0.4128858736843681
  0
VERTEX
  5
106
330
100
100
AcDbEntity
  8
OHNE VERRIEGELUNG
100
AcDbVertex
100
AcDb2dVertex
 10
28.22433820579434
 20
74.99705507525888
 30
0.0
  0
VERTEX
  5
107
330
100
100
AcDbEntity
  8
OHNE VERRIEGELUNG
100
AcDbVertex
100
AcDb2dVertex
 10
28.22433820579525
 20
79.39705507525889
 30
0.0
 42
0.4128858736836721
  0
VERTEX
  5
108
330
100
100
AcDbEntity
  8
OHNE VERRIEGELUNG
100
AcDbVertex
100
AcDb2dVertex
 10
27.72433820579525
 20
79.94705507525887
 30
0.0
  0
VERTEX
  5
109
330
100
100
AcDbEntity
  8
OHNE VERRIEGELUNG
100
AcDbVertex
100
AcDb2dVertex
 10
15.4999998084352
 20
79.94705507526123
 30
0.0
 42
0.412885873684914
  0
VERTEX
  5
10A
330
100
100
AcDbEntity
  8
OHNE VERRIEGELUNG
100
AcDbVertex
100
AcDb2dVertex
 10
14.99999980843521
 20
79.39705507526134
 30
0.0
  0
SEQEND
  5
101
330
100
100
AcDbEntity
  8
OHNE VERRIEGELUNG
  0
POLYLINE
  5
10B
330
1F
100
AcDbEntity
  8
OHNE VERRIEGELUNG
100
AcDb2dPolyline
 66
     1
 10
0.0
 20
0.0
 30
0.0
  0
VERTEX
  5
10D
330
10B
100
AcDbEntity
  8
OHNE VERRIEGELUNG
100
AcDbVertex
100
AcDb2dVertex
 10
66.82433820579515
 20
23.5882950693048
 30
0.0
 42
-0.4128858736845613
  0
VERTEX
  5
10E
330
10B
100
AcDbEntity
  8
OHNE VERRIEGELUNG
100
AcDbVertex
100
AcDb2dVertex
 10
67.32433820579515
 20
23.03829506930485
 30
0.0
  0
VERTEX
  5
10F
330
10B
100
AcDbEntity
  8
OHNE VERRIEGELUNG
100
AcDbVertex
100
AcDb2dVertex
 10
67.3243382057947
 20
18.63829506930458
 30
0.0
 42
-0.4128858736835351
  0
VERTEX
  5
110
330
10B
100
AcDbEntity
  8
OHNE VERRIEGELUNG
100
AcDbVertex
100
AcDb2dVertex
 10
66.82433820579425
 20
18.08829506930482
 30
0.0
  0
VERTEX
  5
111
330
10B
100
AcDbEntity
  8
OHNE VERRIEGELUNG
100
AcDbVertex
100
AcDb2dVertex
 10
33.72433820579434
 20
18.08829506931074
 30
0.0
 42
-0.4128858736856611
  0
VERTEX
  5
112
330
10B
100
AcDbEntity
  8
OHNE VERRIEGELUNG
100
AcDbVertex
100
AcDb2dVertex
 10
33.22433820579434
 20
18.63829506931072
 30
0.0
  0
VERTEX
  5
113
330
10B
100
AcDbEntity
  8
OHNE VERRIEGELUNG
100
AcDbVertex
100
AcDb2dVertex
 10
33.22433820579525
 20
23.03829506931073
 30
0.0
 42
-0.4128858736847488
  0
VERTEX
  5
114
330
10B
100
AcDbEntity
  8
OHNE VERRIEGELUNG
100
AcDbVertex
100
AcDb2dVertex
 10
33.72433820579525
 20
23.58829506931074
 30
0.0
  0
VERTEX
  5
115
330
10B
100
AcDbEntity
  8
OHNE VERRIEGELUNG
100
AcDbVertex
100
AcDb2dVertex
 10
66.82433820579515
 20
23.58829506930483
 30
0.0
  0
SEQEND
  5
10C
330
10B
100
AcDbEntity
  8
OHNE VERRIEGELUNG
  0
POLYLINE
  5
116
330
1F
100
AcDbEntity
  8
OHNE VERRIEGELUNG
100
AcDb2dPolyline
 66
     1
 10
0.0
 20
0.0
 30
0.0
  0
VERTEX
  5
118
330
116
100
AcDbEntity
  8
OHNE VERRIEGELUNG
100
AcDbVertex
100
AcDb2dVertex
 10
73.32404554572466
 20
102.4508606841959
 30
0.0
 42
-0.4128858736851978
  0
VERTEX
  5
119
330
116
100
AcDbEntity
  8
OHNE VERRIEGELUNG
100
AcDbVertex
100
AcDb2dVertex
 10
72.82404554572465
 20
103.0008606841959
 30
0.0
  0
VERTEX
  5
11A
330
116
100
AcDbEntity
  8
OHNE VERRIEGELUNG
100
AcDbVertex
100
AcDb2dVertex
 10
72.82404554572465
 20
107.4008606841959
 30
0.0
 42
-0.4128858736851323
  0
VERTEX
  5
11B
330
116
100
AcDbEntity
  8
OHNE VERRIEGELUNG
100
AcDbVertex
100
AcDb2dVertex
 10
73.32404554572466
 20
107.9508606841959
 30
0.0
  0
VERTEX
  5
11C
330
116
100
AcDbEntity
  8
OHNE VERRIEGELUNG
100
AcDbVertex
100
AcDb2dVertex
 10
97.57404554572467
 20
107.9508606841959
 30
0.0
 42
-0.4128858736837799
  0
VERTEX
  5
11D
330
116
100
AcDbEntity
  8
OHNE VERRIEGELUNG
100
AcDbVertex
100
AcDb2dVertex
 10
98.07404554572466
 20
107.4008606841959
 30
0.0
  0
VERTEX
  5
11E
330
116
100
AcDbEntity
  8
OHNE VERRIEGELUNG
100
AcDbVertex
100
AcDb2dVertex
 10
98.07404554572466
 20
103.0008606841959
 30
0.0
 42
-0.4128858736845811
  0
VERTEX
  5
11F
330
116
100
AcDbEntity
  8
OHNE VERRIEGELUNG
100
AcDbVertex
100
AcDb2dVertex
 10
97.57404554572467
 20
102.4508606841959
 30
0.0
  0
VERTEX
  5
120
330
116
100
AcDbEntity
  8
OHNE VERRIEGELUNG
100
AcDbVertex
100
AcDb2dVertex
 10
73.32404554572466
 20
102.4508606841959
 30
0.0
  0
SEQEND
  5
117
330
116
100
AcDbEntity
  8
OHNE VERRIEGELUNG
  0
POLYLINE
  5
121
330
1F
100
AcDbEntity
  8
OHNE VERRIEGELUNG
100
AcDb2dPolyline
 66
     1
 10
0.0
 20
0.0
 30
0.0
  0
VERTEX
  5
123
330
121
100
AcDbEntity
  8
OHNE VERRIEGELUNG
100
AcDbVertex
100
AcDb2dVertex
 10
15.4999998084352
 20
107.9508606841959
 30
0.0
  0
VERTEX
  5
124
330
121
100
AcDbEntity
  8
OHNE VERRIEGELUNG
100
AcDbVertex
100
AcDb2dVertex
 10
28.22404554572475
 20
107.9508606841959
 30
0.0
 42
-0.4128858736839852
  0
VERTEX
  5
125
330
121
100
AcDbEntity
  8
OHNE VERRIEGELUNG
100
AcDbVertex
100
AcDb2dVertex
 10
28.72404554572475
 20
107.4008606841959
 30
0.0
  0
VERTEX
  5
126
330
121
100
AcDbEntity
  8
OHNE VERRIEGELUNG
100
AcDbVertex
100
AcDb2dVertex
 10
28.72404554572475
 20
103.0008606841959
 30
0.0
 42
-0.4128858736840272
  0
VERTEX
  5
127
330
121
100
AcDbEntity
  8
OHNE VERRIEGELUNG
100
AcDbVertex
100
AcDb2dVertex
 10
28.22404554572475
 20
102.4508606841959
 30
0.0
  0
VERTEX
  5
128
330
121
100
AcDbEntity
  8
OHNE VERRIEGELUNG
100
AcDbVertex
100
AcDb2dVertex
 10
15.49999980843475
 20
102.450860684196
 30
0.0
 42
-0.4128858736840397
  0
VERTEX
  5
129
330
121
100
AcDbEntity
  8
OHNE VERRIEGELUNG
100
AcDbVertex
100
AcDb2dVertex
 10
14.9999998084352
 20
103.000860684196
 30
0.0
  0
VERTEX
  5
12A
330
121
100
AcDbEntity
  8
OHNE VERRIEGELUNG
100
AcDbVertex
100
AcDb2dVertex
 10
14.9999998084352
 20
107.400860684196
 30
0.0
 42
-0.4128858736855605
  0
VERTEX
  5
12B
330
121
100
AcDbEntity
  8
OHNE VERRIEGELUNG
100
AcDbVertex
100
AcDb2dVertex
 10
15.4999998084352
 20
107.9508606841959
 30
0.0
  0
SEQEND
  5
122
330
121
100
AcDbEntity
  8
OHNE VERRIEGELUNG
  0
POLYLINE
  5
132
330
1F
100
AcDbEntity
  8
OHNE VERRIEGELUNG
100
AcDb2dPolyline
 66
     1
 10
0.0
 20
0.0
 30
0.0
  0
VERTEX
  5
134
330
132
100
AcDbEntity
  8
OHNE VERRIEGELUNG
100
AcDbVertex
100
AcDb2dVertex
 10
124.4999998084356
 20
74.44705507524054
 30
0.0
  0
VERTEX
  5
135
330
132
100
AcDbEntity
  8
OHNE VERRIEGELUNG
100
AcDbVertex
100
AcDb2dVertex
 10
72.8243382057947
 20
74.44705507525029
 30
0.0
 42
-0.4128858736849283
  0
VERTEX
  5
136
330
132
100
AcDbEntity
  8
OHNE VERRIEGELUNG
100
AcDbVertex
100
AcDb2dVertex
 10
72.3243382057947
 20
74.99705507525078
 30
0.0
  0
VERTEX
  5
137
330
132
100
AcDbEntity
  8
OHNE VERRIEGELUNG
100
AcDbVertex
100
AcDb2dVertex
 10
72.32433820579515
 20
79.39705507525053
 30
0.0
 42
-0.4128858736852675
  0
VERTEX
  5
138
330
132
100
AcDbEntity
  8
OHNE VERRIEGELUNG
100
AcDbVertex
100
AcDb2dVertex
 10
72.82433820579516
 20
79.94705507525029
 30
0.0
  0
VERTEX
  5
139
330
132
100
AcDbEntity
  8
OHNE VERRIEGELUNG
100
AcDbVertex
100
AcDb2dVertex
 10
124.4999998084356
 20
79.94705507524059
 30
0.0
 42
-0.4128858736847433
  0
VERTEX
  5
13A
330
132
100
AcDbEntity
  8
OHNE VERRIEGELUNG
100
AcDbVertex
100
AcDb2dVertex
 10
124.9999998084361
 20
79.39705507524087
 30
0.0
  0
VERTEX
  5
13B
330
132
100
AcDbEntity
  8
OHNE VERRIEGELUNG
100
AcDbVertex
100
AcDb2dVertex
 10
124.9999998084356
 20
74.99705507524055
 30
0.0
 42
-0.4128858736844695
  0
VERTEX
  5
13C
330
132
100
AcDbEntity
  8
OHNE VERRIEGELUNG
100
AcDbVertex
100
AcDb2dVertex
 10
124.4999998084356
 20
74.44705507524054
 30
0.0
  0
SEQEND
  5
133
330
132
100
AcDbEntity
  8
OHNE VERRIEGELUNG
  0
POLYLINE
  5
13D
330
1F
100
AcDbEntity
  8
OHNE VERRIEGELUNG
100
AcDb2dPolyline
 66
     1
 10
0.0
 20
0.0
 30
0.0
  0
VERTEX
  5
13F
330
13D
100
AcDbEntity
  8
OHNE VERRIEGELUNG
100
AcDbVertex
100
AcDb2dVertex
 10
15.4999998084352
 20
93.94705507526202
 30
0.0
  0
VERTEX
  5
140
330
13D
100
AcDbEntity
  8
OHNE VERRIEGELUNG
100
AcDbVertex
100
AcDb2dVertex
 10
71.64169915289702
 20
93.94705507525163
 30
0.0
 42
-0.4128858736841432
  0
VERTEX
  5
141
330
13D
100
AcDbEntity
  8
OHNE VERRIEGELUNG
100
AcDbVertex
100
AcDb2dVertex
 10
72.14169915289701
 20
93.39705507525167
 30
0.0
  0
VERTEX
  5
142
330
13D
100
AcDbEntity
  8
OHNE VERRIEGELUNG
100
AcDbVertex
100
AcDb2dVertex
 10
72.14169915289611
 20
88.99705507525169
 30
0.0
 42
-0.4128858736843277
  0
VERTEX
  5
143
330
13D
100
AcDbEntity
  8
OHNE VERRIEGELUNG
100
AcDbVertex
100
AcDb2dVertex
 10
71.64169915289611
 20
88.44705507525167
 30
0.0
  0
VERTEX
  5
144
330
13D
100
AcDbEntity
  8
OHNE VERRIEGELUNG
100
AcDbVertex
100
AcDb2dVertex
 10
15.4999998084352
 20
88.44705507526199
 30
0.0
 42
-0.412885873685161
  0
VERTEX
  5
145
330
13D
100
AcDbEntity
  8
OHNE VERRIEGELUNG
100
AcDbVertex
100
AcDb2dVertex
 10
14.99999980843475
 20
88.99705507526126
 30
0.0
  0
VERTEX
  5
146
330
13D
100
AcDbEntity
  8
OHNE VERRIEGELUNG
100
AcDbVertex
100
AcDb2dVertex
 10
14.9999998084352
 20
93.39705507526195
 30
0.0
 42
-0.4128858736839347
  0
VERTEX
  5
147
330
13D
100
AcDbEntity
  8
OHNE VERRIEGELUNG
100
AcDbVertex
100
AcDb2dVertex
 10
15.4999998084352
 20
93.94705507526202
 30
0.0
  0
SEQEND
  5
13E
330
13D
100
AcDbEntity
  8
OHNE VERRIEGELUNG
  0
POLYLINE
  5
148
330
1F
100
AcDbEntity
  8
OHNE VERRIEGELUNG
100
AcDb2dPolyline
 66
     1
 10
0.0
 20
0.0
 30
0.0
  0
VERTEX
  5
14A
330
148
100
AcDbEntity
  8
OHNE VERRIEGELUNG
100
AcDbVertex
100
AcDb2dVertex
 10
73.32404554572466
 20
46.09210067824885
 30
0.0
 42
-0.4128858736851703
  0
VERTEX
  5
14B
330
148
100
AcDbEntity
  8
OHNE VERRIEGELUNG
100
AcDbVertex
100
AcDb2dVertex
 10
72.82404554572465
 20
46.64210067824885
 30
0.0
  0
VERTEX
  5
14C
330
148
100
AcDbEntity
  8
OHNE VERRIEGELUNG
100
AcDbVertex
100
AcDb2dVertex
 10
72.82404554572465
 20
51.04210067824883
 30
0.0
 42
-0.4128858736851496
  0
VERTEX
  5
14D
330
148
100
AcDbEntity
  8
OHNE VERRIEGELUNG
100
AcDbVertex
100
AcDb2dVertex
 10
73.32404554572466
 20
51.59210067824885
 30
0.0
  0
VERTEX
  5
14E
330
148
100
AcDbEntity
  8
OHNE VERRIEGELUNG
100
AcDbVertex
100
AcDb2dVertex
 10
97.57404554572467
 20
51.59210067824885
 30
0.0
 42
-0.4128858736838022
  0
VERTEX
  5
14F
330
148
100
AcDbEntity
  8
OHNE VERRIEGELUNG
100
AcDbVertex
100
AcDb2dVertex
 10
98.07404554572466
 20
51.04210067824883
 30
0.0
  0
VERTEX
  5
150
330
148
100
AcDbEntity
  8
OHNE VERRIEGELUNG
100
AcDbVertex
100
AcDb2dVertex
 10
98.07404554572466
 20
46.64210067824885
 30
0.0
 42
-0.4128858736846103
  0
VERTEX
  5
151
330
148
100
AcDbEntity
  8
OHNE VERRIEGELUNG
100
AcDbVertex
100
AcDb2dVertex
 10
97.57404554572467
 20
46.09210067824885
 30
0.0
  0
VERTEX
  5
152
330
148
100
AcDbEntity
  8
OHNE VERRIEGELUNG
100
AcDbVertex
100
AcDb2dVertex
 10
73.32404554572466
 20
46.09210067824885
 30
0.0
  0
SEQEND
  5
149
330
148
100
AcDbEntity
  8
OHNE VERRIEGELUNG
  0
POLYLINE
  5
15A
330
1F
100
AcDbEntity
  8
OHNE VERRIEGELUNG
100
AcDb2dPolyline
 66
     1
 10
0.0
 20
0.0
 30
0.0
  0
VERTEX
  5
15C
330
15A
100
AcDbEntity
  8
OHNE VERRIEGELUNG
100
AcDbVertex
100
AcDb2dVertex
 10
24.00343464152982
 20
117.0008606841953
 30
0.0
 42
-0.4128858736840213
  0
VERTEX
  5
15D
330
15A
100
AcDbEntity
  8
OHNE VERRIEGELUNG
100
AcDbVertex
100
AcDb2dVertex
 10
23.50343464152982
 20
116.4508606841953
 30
0.0
  0
VERTEX
  5
15E
330
15A
100
AcDbEntity
  8
OHNE VERRIEGELUNG
100
AcDbVertex
100
AcDb2dVertex
 10
15.50343464152982
 20
116.4508606841952
 30
0.0
 42
-0.4128858736844336
  0
VERTEX
  5
15F
330
15A
100
AcDbEntity
  8
OHNE VERRIEGELUNG
100
AcDbVertex
100
AcDb2dVertex
 10
15.00343464152982
 20
117.0008606841952
 30
0.0
  0
VERTEX
  5
160
330
15A
100
AcDbEntity
  8
OHNE VERRIEGELUNG
100
AcDbVertex
100
AcDb2dVertex
 10
15.00343464152982
 20
121.4008606841952
 30
0.0
 42
-0.41288587368515
  0
VERTEX
  5
161
330
15A
100
AcDbEntity
  8
OHNE VERRIEGELUNG
100
AcDbVertex
100
AcDb2dVertex
 10
15.50343464152982
 20
121.9508606841952
 30
0.0
  0
VERTEX
  5
162
330
15A
100
AcDbEntity
  8
OHNE VERRIEGELUNG
100
AcDbVertex
100
AcDb2dVertex
 10
23.50343464152982
 20
121.9508606841952
 30
0.0
 42
-0.4128858736844167
  0
VERTEX
  5
163
330
15A
100
AcDbEntity
  8
OHNE VERRIEGELUNG
100
AcDbVertex
100
AcDb2dVertex
 10
24.00343464152982
 20
121.4008606841952
 30
0.0
  0
VERTEX
  5
164
330
15A
100
AcDbEntity
  8
OHNE VERRIEGELUNG
100
AcDbVertex
100
AcDb2dVertex
 10
24.00343464152982
 20
117.0008606841953
 30
0.0
  0
SEQEND
  5
15B
330
15A
100
AcDbEntity
  8
OHNE VERRIEGELUNG
  0
POLYLINE
  5
165
330
1F
100
AcDbEntity
  8
OHNE VERRIEGELUNG
100
AcDb2dPolyline
 66
     1
 10
0.0
 20
0.0
 30
0.0
  0
VERTEX
  5
167
330
165
100
AcDbEntity
  8
OHNE VERRIEGELUNG
100
AcDbVertex
100
AcDb2dVertex
 10
124.9999998084352
 20
103.0008606841962
 30
0.0
  0
VERTEX
  5
168
330
165
100
AcDbEntity
  8
OHNE VERRIEGELUNG
100
AcDbVertex
100
AcDb2dVertex
 10
124.9999998084356
 20
107.4008606841959
 30
0.0
 42
0.4128858736853634
  0
VERTEX
  5
169
330
165
100
AcDbEntity
  8
OHNE VERRIEGELUNG
100
AcDbVertex
100
AcDb2dVertex
 10
124.4999998084352
 20
107.9508606841959
 30
0.0
  0
VERTEX
  5
16A
330
165
100
AcDbEntity
  8
OHNE VERRIEGELUNG
100
AcDbVertex
100
AcDb2dVertex
 10
103.5740455457246
 20
107.9508606841959
 30
0.0
 42
0.4128858736852758
  0
VERTEX
  5
16B
330
165
100
AcDbEntity
  8
OHNE VERRIEGELUNG
100
AcDbVertex
100
AcDb2dVertex
 10
103.0740455457246
 20
107.4008606841959
 30
0.0
  0
VERTEX
  5
16C
330
165
100
AcDbEntity
  8
OHNE VERRIEGELUNG
100
AcDbVertex
100
AcDb2dVertex
 10
103.0740455457246
 20
103.0008606841959
 30
0.0
 42
0.412885873685274
  0
VERTEX
  5
16D
330
165
100
AcDbEntity
  8
OHNE VERRIEGELUNG
100
AcDbVertex
100
AcDb2dVertex
 10
103.5740455457246
 20
102.4508606841959
 30
0.0
  0
VERTEX
  5
16E
330
165
100
AcDbEntity
  8
OHNE VERRIEGELUNG
100
AcDbVertex
100
AcDb2dVertex
 10
124.4999998084352
 20
102.4508606841959
 30
0.0
 42
0.4128858736848008
  0
VERTEX
  5
16F
330
165
100
AcDbEntity
  8
OHNE VERRIEGELUNG
100
AcDbVertex
100
AcDb2dVertex
 10
124.9999998084352
 20
103.0008606841962
 30
0.0
  0
SEQEND
  5
166
330
165
100
AcDbEntity
  8
OHNE VERRIEGELUNG
  0
LINE
  5
230
330
1F
100
AcDbEntity
  8
OHNE VERRIEGELUNG
100
AcDbLine
 10
139.9999998084352
 20
1.550000746154065
 30
0.0
 11
139.9999998084352
 21
138.450000746154
 31
0.0
  0
ARC
  5
231
330
1F
100
AcDbEntity
  8
OHNE VERRIEGELUNG
100
AcDbCircle
 10
138.4499998084352
 20
138.450000746154
 30
0.0
 40
1.550000000000011
100
AcDbArc
 50
0.0
 51
90.0
  0
LINE
  5
232
330
1F
100
AcDbEntity
  8
OHNE VERRIEGELUNG
100
AcDbLine
 10
138.4499998084352
 20
140.000000746154
 30
0.0
 11
1.549999808434751
 21
140.000000746154
 31
0.0
  0
ARC
  5
233
330
1F
100
AcDbEntity
  8
OHNE VERRIEGELUNG
100
AcDbCircle
 10
1.549999808434756
 20
138.450000746154
 30
0.0
 40
1.550000000000011
100
AcDbArc
 50
90.00000000000019
 51
180.0
  0
LINE
  5
234
330
1F
100
AcDbEntity
  8
OHNE VERRIEGELUNG
100
AcDbLine
 10
-0.0000001915652488
 20
138.450000746154
 30
0.0
 11
-0.0000001915652488
 21
1.550000746154065
 31
0.0
  0
LINE
  5
236
330
1F
100
AcDbEntity
  8
OHNE VERRIEGELUNG
100
AcDbLine
 10
1.549999808434751
 20
0.000000746154065
 30
0.0
 11
138.4499998084352
 21
0.000000746154065
 31
0.0
  0
ARC
  5
23A
330
1F
100
AcDbEntity
  8
OHNE VERRIEGELUNG
100
AcDbCircle
 10
138.4499998084352
 20
1.550000746154065
 30
0.0
 40
1.55
100
AcDbArc
 50
270.0
 51
0.0
  0
ARC
  5
23B
330
1F
100
AcDbEntity
  8
OHNE VERRIEGELUNG
100
AcDbCircle
 10
1.549999808434751
 20
1.550000746154065
 30
0.0
 40
1.55
100
AcDbArc
 50
180.0
 51
270.0
  0
CIRCLE
  5
296
330
1F
100
AcDbEntity
  8
WHITE
  6
Continuous
100
AcDbCircle
 10
133.6853495054658
 20
7.308390179241651
 30
0.0
 40
2.277733996314847
  0
CIRCLE
  5
297
330
1F
100
AcDbEntity
  8
WHITE
  6
Continuous
100
AcDbCircle
 10
133.6853495054658
 20
7.308390179241651
 30
0.0
 40
1.576892766679509
  0
ARC
  5
298
330
1F
100
AcDbEntity
  8
WHITE
  6
Continuous
100
AcDbCircle
 10
127.2315161870126
 20
7.308390179241651
 30
0.0
 40
1.576890729231897
100
AcDbArc
 50
31.05578300000539
 51
329.9999749999984
  0
LINE
  5
299
330
1F
100
AcDbEntity
  8
WHITE
  6
Continuous
100
AcDbLine
 10
128.5823847028359
 20
8.121865587772955
 30
0.0
 11
129.1894014699305
 21
8.472328988990394
 31
0.0
  0
ARC
  5
29A
330
1F
100
AcDbEntity
  8
WHITE
  6
Continuous
100
AcDbCircle
 10
127.2315161870126
 20
7.308390179241651
 30
0.0
 40
2.277731958867235
100
AcDbArc
 50
30.73095099999762
 51
329.9999720000061
  0
LINE
  5
29B
330
1F
100
AcDbEntity
  8
WHITE
  6
Continuous
100
AcDbLine
 10
129.2040894297667
 20
6.169524199807934
 30
0.0
 11
128.5971439733384
 21
6.519944814625542
 31
0.0
  0
HATCH
  5
29C
330
1F
100
AcDbEntity
  8
0
100
AcDbHatch
 10
0.0
 20
0.0
 30
0.0
210
0.0
220
0.0
230
1.0
  2
SOLID
 70
     1
 71
     0
 91
        5
 92
        7
 72
     1
 73
     1
 93
        4
 10
129.2040898022442
 20
6.169523984757685
 42
0.0
 10
128.5971437064743
 20
6.519944968699856
 42
-3.664441712880978
 10
128.5823837098864
 20
8.121865014489909
 42
0.0
 10
129.1894004323467
 20
8.472328389937498
 42
3.684997770613025
 97
        0
 92
        7
 72
     1
 73
     1
 93
        2
 10
131.4076155091511
 20
7.308390179241651
 42
1.0
 10
135.9630835017808
 20
7.308390179241651
 42
1.0
 97
        0
 92
       22
 72
     1
 73
     1
 93
        2
 10
135.2622422721453
 20
7.308390179241651
 42
-1.0
 10
132.1084567387863
 20
7.308390179241651
 42
-1.0
 97
        0
 92
        7
 72
     1
 73
     1
 93
        7
 10
120.7776787671245
 20
9.486734259173427
 42
0.2369624768135127
 10
118.4999768826205
 20
5.000000746153997
 42
0.0
 10
119.2008483099191
 20
5.000000746153997
 42
-0.0323239992921771
 10
119.2449550180938
 20
5.632106643144876
 42
0.0
 10
122.3104025925288
 20
5.632106643144876
 42
-0.0323235821139967
 10
122.3545092576764
 20
5.000000746153997
 42
0.0
 10
123.0553582752124
 20
5.000000746153997
 42
0.2369600159374391
 97
        0
 92
       22
 72
     1
 73
     1
 93
        4
 10
120.7776788498874
 20
8.578824775397148
 42
-0.1369916014750728
 10
122.1629670857858
 20
6.332947872780433
 42
0.0
 10
119.3923749330383
 20
6.332947872780433
 42
-0.1369933941410354
 10
120.7776795372358
 20
8.578824140415573
 42
0.0
 97
        0
 75
     0
 76
     1
 47
0.0243724694748106
 98
        5
 10
126.837922883614
 20
9.273601442020659
 10
133.8115171069137
 20
9.273601442020659
 10
133.8115171069137
 20
9.273601442020659
 10
120.8884227325036
 20
8.883641821469037
 10
120.8884227325036
 20
8.883641821469037
1001
ACAD
1010
0.0
1020
0.0
1030
0.0
  0
LINE
  5
6AD
330
1F
100
AcDbEntity
  8
7
100
AcDbLine
 10
69.94999980843508
 20
179.667647414054
 30
0.0
 11
69.94999980843508
 21
164.667647414054
 31
0.0
  0
LINE
  5
6AE
330
1F
100
AcDbEntity
  8
0
100
AcDbLine
 10
-0.1000001915651012
 20
174.667647414055
 30
0.0
 11
139.9999998084348
 21
174.6676474140531
 31
0.0
  0
LINE
  5
6AF
330
1F
100
AcDbEntity
  8
0
100
AcDbLine
 10
-0.1000001915651012
 20
169.667647414055
 30
0.0
 11
139.9999998084348
 21
169.6676474140531
 31
0.0
  0
LINE
  5
6B0
330
1F
100
AcDbEntity
  8
0
100
AcDbLine
 10
-0.1000001915651012
 20
174.667647414055
 30
0.0
 11
-0.1000001915651012
 21
169.667647414055
 31
0.0
  0
LINE
  5
6B1
330
1F
100
AcDbEntity
  8
0
100
AcDbLine
 10
139.9999998084348
 20
174.6676474140531
 30
0.0
 11
139.9999998084348
 21
169.6676474140531
 31
0.0
  0
DIMENSION
  5
6B2
330
1F
100
AcDbEntity
  8
5
100
AcDbDimension
  2
*D10
 10
149.9999998084348
 20
169.6676474140531
 30
0.0
 11
149.9999998084348
 21
181.43431408072
 31
0.0
 70
   160
  1
<>
 71
     5
 42
5.0
  3
GEN-ISO
100
AcDbAlignedDimension
 13
139.9999998084348
 23
174.6676474140531
 33
0.0
 14
139.9999998084348
 24
169.6676474140531
 34
0.0
 50
90.0
100
AcDbRotatedDimension
1001
ACAD
1000
DSTYLE
1002
{
1070
    40
1040
1.0
1002
}
1001
GENIUS_GENDTOL_13
1000

1000
h7
1000

1040
0.0
  0
POINT
  5
6B3
330
1F
100
AcDbEntity
  8
Defpoints
  6
ByBlock
 62
     0
100
AcDbPoint
 10
4.706583579358124
 20
174.6676474140549
 30
0.0
  0
POINT
  5
6B4
330
1F
100
AcDbEntity
  8
Defpoints
  6
ByBlock
 62
     0
100
AcDbPoint
 10
17.10658357935821
 20
174.6676474140548
 30
0.0
  0
POINT
  5
6B5
330
1F
100
AcDbEntity
  8
Defpoints
  6
ByBlock
 62
     0
100
AcDbPoint
 10
14.20658357935812
 20
169.6676474140548
 30
0.0
  0
POINT
  5
6B6
330
1F
100
AcDbEntity
  8
Defpoints
  6
ByBlock
 62
     0
100
AcDbPoint
 10
7.606583579358215
 20
169.6676474140549
 30
0.0
  0
DIMENSION
  5
6DC
330
1F
100
AcDbEntity
  8
5
100
AcDbDimension
  2
*D6
 10
150.141879481472
 20
0.0000007461539084
 30
0.0
 11
150.141879481472
 21
2.515328464540376
 31
0.0
 70
   160
 71
     5
 42
5.030655436772888
  3
GEN-ISO$0
100
AcDbAlignedDimension
 13
133.6853495054659
 23
5.030656182926801
 33
0.0
 14
137.4999998084348
 24
0.000000746153912
 34
0.0
 50
90.0
100
AcDbRotatedDimension
1001
ACAD
1000
DSTYLE
1002
{
1070
    74
1070
     1
1070
    78
1070
     0
1070
   172
1070
     0
1070
   271
1070
     0
1070
   288
1070
     1
1070
   289
1070
     0
1002
}
  0
DIMENSION
  5
6DD
330
1F
100
AcDbEntity
  8
5
100
AcDbDimension
  2
*D7
 10
139.9999998084348
 20
17.75070624777157
 30
0.0
 11
137.9815416551078
 21
17.75070624777157
 31
0.0
 70
   160
 71
     5
 42
4.036916306653893
  3
GEN-ISO$0
100
AcDbAlignedDimension
 13
135.9630835017809
 23
7.308390179241651
 33
0.0
 14
139.9999998084348
 24
2.500000746153911
 34
0.0
100
AcDbRotatedDimension
1001
ACAD
1000
DSTYLE
1002
{
1070
    74
1070
     1
1070
    78
1070
     0
1070
   172
1070
     0
1070
   271
1070
     0
1070
   288
1070
     1
1070
   289
1070
     0
1002
}
  0
DIMENSION
  5
6DE
330
1F
100
AcDbEntity
  8
5
100
AcDbDimension
  2
*D8
 10
118.4999768816936
 20
-12.82179936071457
 30
0.0
 11
127.2315301917372
 21
-12.82179936071457
 31
0.0
 70
   160
 71
     5
 42
17.46310662008727
  3
GEN-ISO$0
100
AcDbAlignedDimension
 13
135.9630835017809
 23
7.308390179241651
 33
0.0
 14
118.4999768816936
 24
5.000000535864185
 34
0.0
100
AcDbRotatedDimension
1001
ACAD
1000
DSTYLE
1002
{
1070
    74
1070
     1
1070
    78
1070
     0
1070
   172
1070
     0
1070
   271
1070
     1
1070
   288
1070
     1
1070
   289
1070
     0
1002
}
  0
DIMENSION
  5
702
330
1F
100
AcDbEntity
  8
5
100
AcDbDimension
  2
*D9
 10
-0.0337026386857546
 20
-22.1395517985608
 30
0.0
 11
69.96629736131429
 21
-18.64038513189413
 31
0.0
 70
    32
  1
<>{}{\H0.71x;\C3;\S+0.2^ -0.2;}
 71
     5
 42
140.0000000000001
  3
GEN-ISO$0
100
AcDbAlignedDimension
 13
139.9662973613143
 23
2.301280405470122
 33
0.0
 14
-0.0337026386857531
 24
2.301280405470121
 34
0.0
 50
0.0000000000001018
100
AcDbRotatedDimension
1001
GENIUS_GENDTOL_13
1000
TolSmNrm
1000

1000
{\H0.71x;$2\S$+$P^ $-$M;}
1040
140.0
1001
ACAD
1000
DSTYLE
1002
{
1070
   286
1070
     0
1070
   284
1070
     0
1070
   274
1070
     4
1070
    47
1040
0.2
1070
    48
1040
0.2
1070
    74
1070
     1
1070
    78
1070
     0
1070
   172
1070
     0
1070
   271
1070
     0
1070
   272
1070
     1
1070
   288
1070
     1
1070
   289
1070
     0
1002
}
  0
DIMENSION
  5
903
330
1F
100
AcDbEntity
  8
5
100
AcDbDimension
  2
*D21
 10
138.4499998084352
 20
138.4500007461539
 30
0.0
 11
157.3478929787485
 21
144.2844495569154
 31
0.0
 70
   164
  1
R <>
 71
     5
 42
1.550000000000181
  3
GEN-ISO$4
100
AcDbRadialDimension
 15
139.7931890275867
 25
139.2235269070275
 35
0.0
 40
0.0
1001
ACAD
1000
DSTYLE
1002
{
1070
    78
1070
     0
1002
}
1001
ACAD_DSTYLE_DIMINSPECT
1070
   396
1000
100%
1070
   395
1000

1070
   394
1070
    33
1070
   393
1070
     0
1001
ACAD_DSTYLE_DIMRADIAL_EXTENSION
1070
   387
1070
     1
1070
   388
1040
0.0
1070
   390
1040
1.570796326794896
  0
ENDSEC
  0
SECTION
  2
OBJECTS
  0
DICTIONARY
  5
C
330
0
100
AcDbDictionary
281
     1
  3
ACAD_2007HEADERVARS_RT
350
9B9
  3
ACAD_COLOR
350
172
  3
ACAD_GROUP
350
D
  3
ACAD_LAYOUT
350
1A
  3
ACAD_MATERIAL
350
171
  3
ACAD_MLEADERSTYLE
350
8BE
  3
ACAD_MLINESTYLE
350
17
  3
ACAD_PLOTSETTINGS
350
19
  3
ACAD_PLOTSTYLENAME
350
E
  3
ACAD_SCALELIST
350
89C
  3
ACAD_TABLESTYLE
350
173
  3
ACAD_VISUALSTYLE
350
88B
  3
ACDB_RECOMPOSE_DATA
350
954
  3
AcDbVariableDictionary
350
23C
  3
AcmDictionary
350
1D5
  3
AMG
350
179
  3
AMGSNAPSETTINGS
350
229
  3
ASE_INDEX_DICTIONARY
350
836
  3
DWGPROPS
350
9B8
  0
DICTIONARY
  5
26D
330
2
100
AcDbDictionary
280
     1
281
     1
  3
ACAD_LAYERSTATES
360
26E
  0
DICTIONARY
  5
912
330
10
100
AcDbDictionary
280
     1
281
     1
  3
ADSK_XREC_LAYER_RECONCILED
360
913
  0
DICTIONARY
  5
914
330
2A
100
AcDbDictionary
280
     1
281
     1
  3
ADSK_XREC_LAYER_RECONCILED
360
915
  0
DICTIONARY
  5
916
330
25E
100
AcDbDictionary
280
     1
281
     1
  3
ADSK_XREC_LAYER_RECONCILED
360
917
  0
DICTIONARY
  5
918
330
60D
100
AcDbDictionary
280
     1
281
     1
  3
ADSK_XREC_LAYER_RECONCILED
360
919
  0
DICTIONARY
  5
91A
330
60E
100
AcDbDictionary
280
     1
281
     1
  3
ADSK_XREC_LAYER_RECONCILED
360
91B
  0
DICTIONARY
  5
91C
330
60F
100
AcDbDictionary
280
     1
281
     1
  3
ADSK_XREC_LAYER_RECONCILED
360
91D
  0
DICTIONARY
  5
91E
330
610
100
AcDbDictionary
280
     1
281
     1
  3
ADSK_XREC_LAYER_RECONCILED
360
91F
  0
DICTIONARY
  5
920
330
611
100
AcDbDictionary
280
     1
281
     1
  3
ADSK_XREC_LAYER_RECONCILED
360
921
  0
DICTIONARY
  5
922
330
612
100
AcDbDictionary
280
     1
281
     1
  3
ADSK_XREC_LAYER_RECONCILED
360
923
  0
DICTIONARY
  5
924
330
613
100
AcDbDictionary
280
     1
281
     1
  3
ADSK_XREC_LAYER_RECONCILED
360
925
  0
DICTIONARY
  5
926
330
614
100
AcDbDictionary
280
     1
281
     1
  3
ADSK_XREC_LAYER_RECONCILED
360
927
  0
DICTIONARY
  5
928
330
615
100
AcDbDictionary
280
     1
281
     1
  3
ADSK_XREC_LAYER_RECONCILED
360
929
  0
DICTIONARY
  5
92A
330
616
100
AcDbDictionary
280
     1
281
     1
  3
ADSK_XREC_LAYER_RECONCILED
360
92B
  0
DICTIONARY
  5
92C
330
617
100
AcDbDictionary
280
     1
281
     1
  3
ADSK_XREC_LAYER_RECONCILED
360
92D
  0
DICTIONARY
  5
92E
330
618
100
AcDbDictionary
280
     1
281
     1
  3
ADSK_XREC_LAYER_RECONCILED
360
92F
  0
DICTIONARY
  5
930
330
619
100
AcDbDictionary
280
     1
281
     1
  3
ADSK_XREC_LAYER_RECONCILED
360
931
  0
DICTIONARY
  5
932
330
61A
100
AcDbDictionary
280
     1
281
     1
  3
ADSK_XREC_LAYER_RECONCILED
360
933
  0
DICTIONARY
  5
934
330
61B
100
AcDbDictionary
280
     1
281
     1
  3
ADSK_XREC_LAYER_RECONCILED
360
935
  0
DICTIONARY
  5
238
330
1F
100
AcDbDictionary
280
     1
281
     1
  3
ACAD_SORTENTS
360
239
  0
DICTIONARY
  5
9C4
330
2FB
100
AcDbDictionary
280
     1
281
     1
  3
ACAD_MTEXT_RT
360
9C5
  0
DICTIONARY
  5
9B9
102
{ACAD_REACTORS
330
C
102
}
330
C
100
AcDbDictionary
281
     1
  3
DIMARCSYM
350
9BA
  0
DICTIONARY
  5
172
102
{ACAD_REACTORS
330
C
102
}
330
C
100
AcDbDictionary
281
     1
  0
DICTIONARY
  5
D
102
{ACAD_REACTORS
330
C
102
}
330
C
100
AcDbDictionary
281
     1
  0
DICTIONARY
  5
1A
102
{ACAD_REACTORS
330
C
102
}
330
C
100
AcDbDictionary
281
     1
  3
Layout1
350
1E
  3
Layout2
350
26
  3
Model
350
22
  0
DICTIONARY
  5
171
102
{ACAD_REACTORS
330
C
102
}
330
C
100
AcDbDictionary
281
     1
  3
ByBlock
350
883
  3
ByLayer
350
87B
  3
Global
350
26A
  0
DICTIONARY
  5
8BE
102
{ACAD_REACTORS
330
C
102
}
330
C
100
AcDbDictionary
281
     1
  3
Standard
350
8BF
  0
DICTIONARY
  5
17
102
{ACAD_REACTORS
330
C
102
}
330
C
100
AcDbDictionary
281
     1
  3
Standard
350
18
  0
DICTIONARY
  5
19
102
{ACAD_REACTORS
330
C
102
}
330
C
100
AcDbDictionary
281
     1
  0
ACDBDICTIONARYWDFLT
  5
E
102
{ACAD_REACTORS
330
C
102
}
330
C
100
AcDbDictionary
281
     1
  3
Normal
350
F
100
AcDbDictionaryWithDefault
340
F
  0
DICTIONARY
  5
89C
102
{ACAD_REACTORS
330
C
102
}
330
C
100
AcDbDictionary
281
     1
  3
A0
350
89D
  3
A1
350
89E
  3
A2
350
89F
  3
A3
350
8A0
  3
A4
350
8A1
  3
A5
350
8A2
  3
A6
350
8A3
  3
A7
350
8A4
  3
A8
350
8A5
  3
A9
350
8A6
  3
B0
350
8A7
  3
B1
350
8A8
  3
B2
350
8A9
  3
B3
350
8AA
  3
B4
350
8AB
  3
B5
350
8AC
  3
B6
350
8AD
  3
B7
350
8AE
  3
B8
350
8AF
  3
B9
350
8B0
  3
C0
350
8B1
  3
C1
350
8B2
  3
C2
350
8B3
  3
C3
350
8B4
  3
C4
350
8B5
  3
C5
350
8B6
  3
C6
350
8B7
  3
C7
350
8B8
  3
C8
350
8B9
  3
C9
350
8BA
  3
D0
350
8BB
  3
D1
350
8BC
  3
D2
350
8BD
  0
DICTIONARY
  5
173
102
{ACAD_REACTORS
330
C
102
}
330
C
100
AcDbDictionary
281
     1
  3
Standard
350
174
  0
DICTIONARY
  5
88B
102
{ACAD_REACTORS
330
C
102
}
330
C
100
AcDbDictionary
281
     1
  3
2dWireframe
350
891
  3
3D Hidden
350
893
  3
3dWireframe
350
892
  3
Basic
350
890
  3
Brighten
350
897
  3
ColorChange
350
89B
  3
Conceptual
350
894
  3
Dim
350
896
  3
Facepattern
350
89A
  3
Flat
350
88C
  3
FlatWithEdges
350
88D
  3
Gouraud
350
88E
  3
GouraudWithEdges
350
88F
  3
Linepattern
350
899
  3
Realistic
350
895
  3
Thicken
350
898
  0
XRECORD
  5
954
102
{ACAD_REACTORS
330
C
102
}
330
C
100
AcDbXrecord
280
     1
 90
        1
330
174
  0
DICTIONARY
  5
23C
102
{ACAD_REACTORS
330
C
102
}
330
C
100
AcDbDictionary
281
     1
  3
CANNOSCALE
350
957
  3
CMLEADERSTYLE
350
955
  3
CTABLESTYLE
350
23D
  3
DIMASSOC
350
9B6
  3
HIDETEXT
350
9B5
  3
INDEXCTL
350
9B4
  3
LAYEREVAL
350
959
  3
LAYERNOTIFY
350
95A
  3
LIGHTINGUNITS
350
958
  3
MSLTSCALE
350
956
  3
SORTENTS
350
9B3
  0
DICTIONARY
  5
1D5
102
{ACAD_REACTORS
330
C
102
}
330
C
100
AcDbDictionary
281
     1
  3
AcmStdDictionary
350
1E0
  3
AMDTSECTSYM_ARROWCOLOR
350
1FF
  0
DICTIONARY
  5
179
102
{ACAD_REACTORS
330
C
102
}
330
C
100
AcDbDictionary
281
     1
  0
DICTIONARY
  5
229
102
{ACAD_REACTORS
330
C
102
}
330
C
100
AcDbDictionary
281
     1
  0
DICTIONARY
  5
836
102
{ACAD_REACTORS
330
C
102
}
330
C
100
AcDbDictionary
281
     1
  3
ASEBlockHierarchyIndexRecord
350
837
1001
DCO15
1040
1643086694.457
  0
XRECORD
  5
9B8
102
{ACAD_REACTORS
330
C
102
}
330
C
100
AcDbXrecord
280
     1
  1
DWGPROPS COOKIE
  2

  3

  4

  6

  7

  8
jamoeller
  9

300
=
301
=
302
=
303
=
304
=
305
=
306
=
307
=
308
=
309
=
 40
0.0675781018518519
 41
2454769.747291297
 42
2455146.452740347
  1

 90
        0
  0
DICTIONARY
  5
26E
102
{ACAD_REACTORS
330
26D
102
}
330
26D
100
AcDbDictionary
281
     1
  0
XRECORD
  5
913
102
{ACAD_REACTORS
330
912
102
}
330
912
100
AcDbXrecord
280
     1
290
     1
  0
XRECORD
  5
915
102
{ACAD_REACTORS
330
914
102
}
330
914
100
AcDbXrecord
280
     1
290
     1
  0
XRECORD
  5
917
102
{ACAD_REACTORS
330
916
102
}
330
916
100
AcDbXrecord
280
     1
290
     1
  0
XRECORD
  5
919
102
{ACAD_REACTORS
330
918
102
}
330
918
100
AcDbXrecord
280
     1
290
     1
  0
XRECORD
  5
91B
102
{ACAD_REACTORS
330
91A
102
}
330
91A
100
AcDbXrecord
280
     1
290
     1
  0
XRECORD
  5
91D
102
{ACAD_REACTORS
330
91C
102
}
330
91C
100
AcDbXrecord
280
     1
290
     1
  0
XRECORD
  5
91F
102
{ACAD_REACTORS
330
91E
102
}
330
91E
100
AcDbXrecord
280
     1
290
     1
  0
XRECORD
  5
921
102
{ACAD_REACTORS
330
920
102
}
330
920
100
AcDbXrecord
280
     1
290
     1
  0
XRECORD
  5
923
102
{ACAD_REACTORS
330
922
102
}
330
922
100
AcDbXrecord
280
     1
290
     1
  0
XRECORD
  5
925
102
{ACAD_REACTORS
330
924
102
}
330
924
100
AcDbXrecord
280
     1
290
     1
  0
XRECORD
  5
927
102
{ACAD_REACTORS
330
926
102
}
330
926
100
AcDbXrecord
280
     1
290
     1
  0
XRECORD
  5
929
102
{ACAD_REACTORS
330
928
102
}
330
928
100
AcDbXrecord
280
     1
290
     1
  0
XRECORD
  5
92B
102
{ACAD_REACTORS
330
92A
102
}
330
92A
100
AcDbXrecord
280
     1
290
     1
  0
XRECORD
  5
92D
102
{ACAD_REACTORS
330
92C
102
}
330
92C
100
AcDbXrecord
280
     1
290
     1
  0
XRECORD
  5
92F
102
{ACAD_REACTORS
330
92E
102
}
330
92E
100
AcDbXrecord
280
     1
290
     1
  0
XRECORD
  5
931
102
{ACAD_REACTORS
330
930
102
}
330
930
100
AcDbXrecord
280
     1
290
     1
  0
XRECORD
  5
933
102
{ACAD_REACTORS
330
932
102
}
330
932
100
AcDbXrecord
280
     1
290
     1
  0
XRECORD
  5
935
102
{ACAD_REACTORS
330
934
102
}
330
934
100
AcDbXrecord
280
     1
290
     1
  0
SORTENTSTABLE
  5
239
102
{ACAD_REACTORS
330
238
102
}
330
238
100
AcDbSortentsTable
330
1F
331
230
  5
7A
331
DF
  5
148
331
13D
  5
235
331
86
  5
EA
331
4D
  5
4D
331
2B
  5
2B
331
F5
  5
15A
331
231
  5
91
331
10B
  5
230
331
BE
  5
12C
331
23A
  5
86
331
236
  5
D4
331
41
  5
41
331
121
  5
232
331
D4
  5
13D
331
132
  5
234
331
165
  5
23B
331
232
  5
9C
331
23B
  5
B3
331
EA
  5
153
331
148
  5
236
331
64
  5
64
331
233
  5
A7
331
B3
  5
121
331
91
  5
F5
331
100
  5
165
331
58
  5
58
331
36
  5
36
331
A7
  5
10B
331
C9
  5
132
331
116
  5
231
331
15A
  5
23A
331
7A
  5
DF
331
234
  5
B2
  0
XRECORD
  5
9C5
102
{ACAD_REACTORS
330
9C4
102
}
330
9C4
100
AcDbXrecord
280
     1
 40
30543.0
  1
\fArial|b0|i0|c0|p32;©
  0
XRECORD
  5
9BA
102
{ACAD_REACTORS
330
9B9
102
}
330
9B9
100
AcDbXrecord
280
     1
 70
     1
  0
LAYOUT
  5
1E
102
{ACAD_XDICTIONARY
360
9BB
102
}
102
{ACAD_REACTORS
330
1A
102
}
330
1A
100
AcDbPlotSettings
  1

  2
none_device
  4

  6

 40
0.0
 41
0.0
 42
0.0
 43
0.0
 44
0.0
 45
0.0
 46
0.0
 47
0.0
 48
0.0
 49
0.0
140
0.0
141
0.0
142
1.0
143
1.0
 70
   688
 72
     0
 73
     0
 74
     5
  7
monochrome.ctb
 75
    16
147
1.0
148
0.0
149
0.0
100
AcDbLayout
  1
Layout1
 70
     1
 71
     1
 10
0.0
 20
0.0
 11
12.0
 21
9.0
 12
0.0
 22
0.0
 32
0.0
 14
1.000000000000000E+20
 24
1.000000000000000E+20
 34
1.000000000000000E+20
 15
-1.000000000000000E+20
 25
-1.000000000000000E+20
 35
-1.000000000000000E+20
146
0.0
 13
0.0
 23
0.0
 33
0.0
 16
1.0
 26
0.0
 36
0.0
 17
0.0
 27
1.0
 37
0.0
 76
     0
330
1B
  0
LAYOUT
  5
26
102
{ACAD_XDICTIONARY
360
9BF
102
}
102
{ACAD_REACTORS
330
1A
102
}
330
1A
100
AcDbPlotSettings
  1

  2
none_device
  4

  6

 40
0.0
 41
0.0
 42
0.0
 43
0.0
 44
0.0
 45
0.0
 46
0.0
 47
0.0
 48
0.0
 49
0.0
140
0.0
141
0.0
142
1.0
143
1.0
 70
   688
 72
     0
 73
     0
 74
     5
  7
monochrome.ctb
 75
    16
147
1.0
148
0.0
149
0.0
100
AcDbLayout
  1
Layout2
 70
     1
 71
     2
 10
0.0
 20
0.0
 11
0.0
 21
0.0
 12
0.0
 22
0.0
 32
0.0
 14
0.0
 24
0.0
 34
0.0
 15
0.0
 25
0.0
 35
0.0
146
0.0
 13
0.0
 23
0.0
 33
0.0
 16
1.0
 26
0.0
 36
0.0
 17
0.0
 27
1.0
 37
0.0
 76
     0
330
23
  0
LAYOUT
  5
22
102
{ACAD_XDICTIONARY
360
9BD
102
}
102
{ACAD_REACTORS
330
1A
102
}
330
1A
100
AcDbPlotSettings
  1

  2
none_device
  4
Letter_(8.50_x_11.00_Inches)
  6

 40
6.349999904632568
 41
6.349999904632568
 42
6.350006103515625
 43
6.350006103515625
 44
215.8999938964844
 45
279.3999938964844
 46
0.0
 47
0.0
 48
0.0
 49
0.0
140
0.0
141
0.0
142
1.0
143
53.42267940581404
 70
 11952
 72
     0
 73
     1
 74
     0
  7
monochrome.ctb
 75
     0
147
0.0187186418038622
148
4915.369436017483
149
3721.549997101061
100
AcDbLayout
  1
Model
 70
     1
 71
     0
 10
0.0
 20
0.0
 11
12.0
 21
9.0
 12
0.0
 22
0.0
 32
0.0
 14
-0.000000191565249
 24
0.0000007461540648
 34
0.0
 15
139.9999998084352
 25
140.000000746154
 35
0.0
146
0.0
 13
0.0
 23
0.0
 33
0.0
 16
1.0
 26
0.0
 36
0.0
 17
0.0
 27
1.0
 37
0.0
 76
     0
330
1F
331
879
1001
ACAD_PSEXT
1000
Kein
1000
Kein
1000
Nicht anwendbar
1000
Das Layout wird erst geplottet, wenn ein neuer Plotter-Konfigurationsname ausgewählt wird.
1070
     0
  0
MATERIAL
  5
883
102
{ACAD_XDICTIONARY
360
884
102
}
102
{ACAD_REACTORS
330
171
102
}
330
171
100
AcDbMaterial
  1
ByBlock
 72
     0
 43
0.0008202099737533
 43
0.0
 43
0.0
 43
0.0
 43
0.0
 43
0.0008202099737533
 43
0.0
 43
0.0
 43
0.0
 43
0.0
 43
1.0
 43
0.0
 43
0.0
 43
0.0
 43
0.0
 43
1.0
 77
     0
 47
0.0008202099737533
 47
0.0
 47
0.0
 47
0.0
 47
0.0
 47
0.0008202099737533
 47
0.0
 47
0.0
 47
0.0
 47
0.0
 47
1.0
 47
0.0
 47
0.0
 47
0.0
 47
0.0
 47
1.0
171
     0
 49
0.0008202099737533
 49
0.0
 49
0.0
 49
0.0
 49
0.0
 49
0.0008202099737533
 49
0.0
 49
0.0
 49
0.0
 49
0.0
 49
1.0
 49
0.0
 49
0.0
 49
0.0
 49
0.0
 49
1.0
175
     0
142
0.0008202099737533
142
0.0
142
0.0
142
0.0
142
0.0
142
0.0008202099737533
142
0.0
142
0.0
142
0.0
142
0.0
142
1.0
142
0.0
142
0.0
142
0.0
142
0.0
142
1.0
179
     0
144
0.0008202099737533
144
0.0
144
0.0
144
0.0
144
0.0
144
0.0008202099737533
144
0.0
144
0.0
144
0.0
144
0.0
144
1.0
144
0.0
144
0.0
144
0.0
144
0.0
144
1.0
147
0.0008202099737533
147
0.0
147
0.0
147
0.0
147
0.0
147
0.0008202099737533
147
0.0
147
0.0
147
0.0
147
0.0
147
1.0
147
0.0
147
0.0
147
0.0
147
0.0
147
1.0
  0
MATERIAL
  5
87B
102
{ACAD_XDICTIONARY
360
87C
102
}
102
{ACAD_REACTORS
330
171
102
}
330
171
100
AcDbMaterial
  1
ByLayer
 72
     0
 43
0.0008202099737533
 43
0.0
 43
0.0
 43
0.0
 43
0.0
 43
0.0008202099737533
 43
0.0
 43
0.0
 43
0.0
 43
0.0
 43
1.0
 43
0.0
 43
0.0
 43
0.0
 43
0.0
 43
1.0
 77
     0
 47
0.0008202099737533
 47
0.0
 47
0.0
 47
0.0
 47
0.0
 47
0.0008202099737533
 47
0.0
 47
0.0
 47
0.0
 47
0.0
 47
1.0
 47
0.0
 47
0.0
 47
0.0
 47
0.0
 47
1.0
171
     0
 49
0.0008202099737533
 49
0.0
 49
0.0
 49
0.0
 49
0.0
 49
0.0008202099737533
 49
0.0
 49
0.0
 49
0.0
 49
0.0
 49
1.0
 49
0.0
 49
0.0
 49
0.0
 49
0.0
 49
1.0
175
     0
142
0.0008202099737533
142
0.0
142
0.0
142
0.0
142
0.0
142
0.0008202099737533
142
0.0
142
0.0
142
0.0
142
0.0
142
1.0
142
0.0
142
0.0
142
0.0
142
0.0
142
1.0
179
     0
144
0.0008202099737533
144
0.0
144
0.0
144
0.0
144
0.0
144
0.0008202099737533
144
0.0
144
0.0
144
0.0
144
0.0
144
1.0
144
0.0
144
0.0
144
0.0
144
0.0
144
1.0
147
0.0008202099737533
147
0.0
147
0.0
147
0.0
147
0.0
147
0.0008202099737533
147
0.0
147
0.0
147
0.0
147
0.0
147
1.0
147
0.0
147
0.0
147
0.0
147
0.0
147
1.0
  0
MATERIAL
  5
26A
102
{ACAD_XDICTIONARY
360
9C2
102
}
102
{ACAD_REACTORS
330
171
102
}
330
171
100
AcDbMaterial
  1
Global
 73
     1
 78
     1
172
     1
176
     1
270
     1
274
     1
  0
MLEADERSTYLE
  5
8BF
102
{ACAD_REACTORS
330
8BE
102
}
330
8BE
100
AcDbMLeaderStyle
170
     2
171
     1
172
     0
 90
        2
 40
0.0
 41
0.0
173
     1
 91
-1056964608
340
14
 92
       -2
290
     1
 42
0.09
291
     1
 43
0.36
  3
Standard
 44
0.18
300

342
11
174
     1
178
     6
175
     1
176
     0
 93
-1056964608
 45
0.18
292
     0
297
     0
 46
0.18
 94
-1056964608
 47
1.0
 49
1.0
140
1.0
293
     1
141
0.0
294
     1
177
     0
142
1.0
295
     0
296
     0
143
0.125
1001
ACAD_MLEADERVER
1070
     2
  0
MLINESTYLE
  5
18
102
{ACAD_REACTORS
330
17
102
}
330
17
100
AcDbMlineStyle
  2
STANDARD
 70
     0
  3

 62
   256
 51
90.0
 52
90.0
 71
     2
 49
0.5
 62
   256
  6
BYLAYER
 49
-0.5
 62
   256
  6
BYLAYER
  0
ACDBPLACEHOLDER
  5
F
102
{ACAD_REACTORS
330
E
102
}
330
E
  0
SCALE
  5
89D
102
{ACAD_REACTORS
330
89C
102
}
330
89C
100
AcDbScale
 70
     0
300
1:1
140
1.0
141
1.0
290
     1
  0
SCALE
  5
89E
102
{ACAD_REACTORS
330
89C
102
}
330
89C
100
AcDbScale
 70
     0
300
1:2
140
1.0
141
2.0
290
     0
  0
SCALE
  5
89F
102
{ACAD_REACTORS
330
89C
102
}
330
89C
100
AcDbScale
 70
     0
300
1:4
140
1.0
141
4.0
290
     0
  0
SCALE
  5
8A0
102
{ACAD_REACTORS
330
89C
102
}
330
89C
100
AcDbScale
 70
     0
300
1:5
140
1.0
141
5.0
290
     0
  0
SCALE
  5
8A1
102
{ACAD_REACTORS
330
89C
102
}
330
89C
100
AcDbScale
 70
     0
300
1:8
140
1.0
141
8.0
290
     0
  0
SCALE
  5
8A2
102
{ACAD_REACTORS
330
89C
102
}
330
89C
100
AcDbScale
 70
     0
300
1:10
140
1.0
141
10.0
290
     0
  0
SCALE
  5
8A3
102
{ACAD_REACTORS
330
89C
102
}
330
89C
100
AcDbScale
 70
     0
300
1:16
140
1.0
141
16.0
290
     0
  0
SCALE
  5
8A4
102
{ACAD_REACTORS
330
89C
102
}
330
89C
100
AcDbScale
 70
     0
300
1:20
140
1.0
141
20.0
290
     0
  0
SCALE
  5
8A5
102
{ACAD_REACTORS
330
89C
102
}
330
89C
100
AcDbScale
 70
     0
300
1:30
140
1.0
141
30.0
290
     0
  0
SCALE
  5
8A6
102
{ACAD_REACTORS
330
89C
102
}
330
89C
100
AcDbScale
 70
     0
300
1:40
140
1.0
141
40.0
290
     0
  0
SCALE
  5
8A7
102
{ACAD_REACTORS
330
89C
102
}
330
89C
100
AcDbScale
 70
     0
300
1:50
140
1.0
141
50.0
290
     0
  0
SCALE
  5
8A8
102
{ACAD_REACTORS
330
89C
102
}
330
89C
100
AcDbScale
 70
     0
300
1:100
140
1.0
141
100.0
290
     0
  0
SCALE
  5
8A9
102
{ACAD_REACTORS
330
89C
102
}
330
89C
100
AcDbScale
 70
     0
300
2:1
140
2.0
141
1.0
290
     0
  0
SCALE
  5
8AA
102
{ACAD_REACTORS
330
89C
102
}
330
89C
100
AcDbScale
 70
     0
300
4:1
140
4.0
141
1.0
290
     0
  0
SCALE
  5
8AB
102
{ACAD_REACTORS
330
89C
102
}
330
89C
100
AcDbScale
 70
     0
300
8:1
140
8.0
141
1.0
290
     0
  0
SCALE
  5
8AC
102
{ACAD_REACTORS
330
89C
102
}
330
89C
100
AcDbScale
 70
     0
300
10:1
140
10.0
141
1.0
290
     0
  0
SCALE
  5
8AD
102
{ACAD_REACTORS
330
89C
102
}
330
89C
100
AcDbScale
 70
     0
300
100:1
140
100.0
141
1.0
290
     0
  0
SCALE
  5
8AE
102
{ACAD_REACTORS
330
89C
102
}
330
89C
100
AcDbScale
 70
     0
300
1/128" = 1'-0"
140
0.0078125
141
12.0
290
     0
  0
SCALE
  5
8AF
102
{ACAD_REACTORS
330
89C
102
}
330
89C
100
AcDbScale
 70
     0
300
1/64" = 1'-0"
140
0.015625
141
12.0
290
     0
  0
SCALE
  5
8B0
102
{ACAD_REACTORS
330
89C
102
}
330
89C
100
AcDbScale
 70
     0
300
1/32" = 1'-0"
140
0.03125
141
12.0
290
     0
  0
SCALE
  5
8B1
102
{ACAD_REACTORS
330
89C
102
}
330
89C
100
AcDbScale
 70
     0
300
1/16" = 1'-0"
140
0.0625
141
12.0
290
     0
  0
SCALE
  5
8B2
102
{ACAD_REACTORS
330
89C
102
}
330
89C
100
AcDbScale
 70
     0
300
3/32" = 1'-0"
140
0.09375
141
12.0
290
     0
  0
SCALE
  5
8B3
102
{ACAD_REACTORS
330
89C
102
}
330
89C
100
AcDbScale
 70
     0
300
1/8" = 1'-0"
140
0.125
141
12.0
290
     0
  0
SCALE
  5
8B4
102
{ACAD_REACTORS
330
89C
102
}
330
89C
100
AcDbScale
 70
     0
300
3/16" = 1'-0"
140
0.1875
141
12.0
290
     0
  0
SCALE
  5
8B5
102
{ACAD_REACTORS
330
89C
102
}
330
89C
100
AcDbScale
 70
     0
300
1/4" = 1'-0"
140
0.25
141
12.0
290
     0
  0
SCALE
  5
8B6
102
{ACAD_REACTORS
330
89C
102
}
330
89C
100
AcDbScale
 70
     0
300
3/8" = 1'-0"
140
0.375
141
12.0
290
     0
  0
SCALE
  5
8B7
102
{ACAD_REACTORS
330
89C
102
}
330
89C
100
AcDbScale
 70
     0
300
1/2" = 1'-0"
140
0.5
141
12.0
290
     0
  0
SCALE
  5
8B8
102
{ACAD_REACTORS
330
89C
102
}
330
89C
100
AcDbScale
 70
     0
300
3/4" = 1'-0"
140
0.75
141
12.0
290
     0
  0
SCALE
  5
8B9
102
{ACAD_REACTORS
330
89C
102
}
330
89C
100
AcDbScale
 70
     0
300
1" = 1'-0"
140
1.0
141
12.0
290
     0
  0
SCALE
  5
8BA
102
{ACAD_REACTORS
330
89C
102
}
330
89C
100
AcDbScale
 70
     0
300
1-1/2" = 1'-0"
140
1.5
141
12.0
290
     0
  0
SCALE
  5
8BB
102
{ACAD_REACTORS
330
89C
102
}
330
89C
100
AcDbScale
 70
     0
300
3" = 1'-0"
140
3.0
141
12.0
290
     0
  0
SCALE
  5
8BC
102
{ACAD_REACTORS
330
89C
102
}
330
89C
100
AcDbScale
 70
     0
300
6" = 1'-0"
140
6.0
141
12.0
290
     0
  0
SCALE
  5
8BD
102
{ACAD_REACTORS
330
89C
102
}
330
89C
100
AcDbScale
 70
     0
300
1'-0" = 1'-0"
140
12.0
141
12.0
290
     0
  0
TABLESTYLE
  5
174
102
{ACAD_XDICTIONARY
360
952
102
}
102
{ACAD_REACTORS
330
173
102
}
330
173
100
AcDbTableStyle
  3
Standard
 70
     0
 71
     0
 40
0.06
 41
0.06
280
     0
281
     0
  7
Standard
140
0.18
170
     2
 62
     0
 63
     7
283
     0
274
    -2
284
     1
 64
     0
275
    -2
285
     1
 65
     0
276
    -2
286
     1
 66
     0
277
    -2
287
     1
 67
     0
278
    -2
288
     1
 68
     0
279
    -2
289
     1
 69
     0
  7
Standard
140
0.25
170
     5
 62
     0
 63
     7
283
     0
274
    -2
284
     1
 64
     0
275
    -2
285
     1
 65
     0
276
    -2
286
     1
 66
     0
277
    -2
287
     1
 67
     0
278
    -2
288
     1
 68
     0
279
    -2
289
     1
 69
     0
  7
Standard
140
0.18
170
     5
 62
     0
 63
     7
283
     0
274
    -2
284
     1
 64
     0
275
    -2
285
     1
 65
     0
276
    -2
286
     1
 66
     0
277
    -2
287
     1
 67
     0
278
    -2
288
     1
 68
     0
279
    -2
289
     1
 69
     0
  0
VISUALSTYLE
  5
891
102
{ACAD_REACTORS
330
88B
102
}
330
88B
100
AcDbVisualStyle
  2
2dWireframe
 70
     4
 71
     0
 72
     2
 73
     0
 90
        0
 40
-0.6
 41
-30.0
 62
     5
 63
     7
 74
     1
 91
        4
 64
     7
 65
   257
 75
     1
175
     1
 42
1.0
 92
        0
 66
   257
 43
1.0
 76
     1
 77
     6
 78
     2
 67
     7
 79
     5
170
     0
171
     0
290
     0
174
     0
 93
        1
 44
0.0
173
     0
291
     0
 45
0.0
1001
ACAD
1000
AcDbSavedByObjectVersion
1070
     0
  0
VISUALSTYLE
  5
893
102
{ACAD_REACTORS
330
88B
102
}
330
88B
100
AcDbVisualStyle
  2
3D Hidden
 70
     6
 71
     1
 72
     2
 73
     2
 90
        0
 40
-0.6
 41
-30.0
 62
     5
 63
     7
 74
     2
 91
        2
 64
     7
 65
   257
 75
     2
175
     1
 42
40.0
 92
        0
 66
   257
 43
1.0
 76
     1
 77
     6
 78
     2
 67
     7
 79
     3
170
     0
171
     0
290
     0
174
     0
 93
        1
 44
0.0
173
     0
291
     0
 45
0.0
1001
ACAD
1000
AcDbSavedByObjectVersion
1070
     0
  0
VISUALSTYLE
  5
892
102
{ACAD_REACTORS
330
88B
102
}
330
88B
100
AcDbVisualStyle
  2
3dWireframe
 70
     5
 71
     0
 72
     2
 73
     0
 90
        0
 40
-0.6
 41
-30.0
 62
     5
 63
     7
 74
     1
 91
        4
 64
     7
 65
   257
 75
     1
175
     1
 42
1.0
 92
        0
 66
   257
 43
1.0
 76
     1
 77
     6
 78
     2
 67
     7
 79
     5
170
     0
171
     0
290
     0
174
     0
 93
        1
 44
0.0
173
     0
291
     0
 45
0.0
1001
ACAD
1000
AcDbSavedByObjectVersion
1070
     0
  0
VISUALSTYLE
  5
890
102
{ACAD_REACTORS
330
88B
102
}
330
88B
100
AcDbVisualStyle
  2
Basic
 70
     7
 71
     1
 72
     0
 73
     1
 90
        0
 40
-0.6
 41
-30.0
 62
     5
 63
     7
 74
     0
 91
        4
 64
     7
 65
   257
 75
     1
175
     1
 42
1.0
 92
        8
 66
     7
 43
1.0
 76
     1
 77
     6
 78
     2
 67
     7
 79
     5
170
     0
171
     0
290
     0
174
     0
 93
        1
 44
0.0
173
     0
291
     1
 45
0.0
1001
ACAD
1000
AcDbSavedByObjectVersion
1070
     0
  0
VISUALSTYLE
  5
897
102
{ACAD_REACTORS
330
88B
102
}
330
88B
100
AcDbVisualStyle
  2
Brighten
 70
    12
 71
     2
 72
     2
 73
     0
 90
        0
 40
-0.6
 41
-30.0
 62
     5
 63
     7
 74
     1
 91
        4
 64
     7
 65
   257
 75
     1
175
     1
 42
1.0
 92
        8
 66
     7
 43
1.0
 76
     1
 77
     6
 78
     2
 67
     7
 79
     5
170
     0
171
     0
290
     0
174
     0
 93
        1
 44
50.0
173
     0
291
     1
 45
0.0
1001
ACAD
1000
AcDbSavedByObjectVersion
1070
     0
  0
VISUALSTYLE
  5
89B
102
{ACAD_REACTORS
330
88B
102
}
330
88B
100
AcDbVisualStyle
  2
ColorChange
 70
    16
 71
     2
 72
     2
 73
     3
 90
        0
 40
-0.6
 41
-30.0
 62
     5
 63
     8
 74
     1
 91
        4
 64
     7
 65
   257
 75
     1
175
     1
 42
1.0
 92
        8
 66
     8
 43
1.0
 76
     1
 77
     6
 78
     2
 67
     7
 79
     5
170
     0
171
     0
290
     0
174
     0
 93
        1
 44
0.0
173
     0
291
     1
 45
0.0
1001
ACAD
1000
AcDbSavedByObjectVersion
1070
     0
  0
VISUALSTYLE
  5
894
102
{ACAD_REACTORS
330
88B
102
}
330
88B
100
AcDbVisualStyle
  2
Conceptual
 70
     9
 71
     3
 72
     2
 73
     0
 90
        0
 40
-0.6
 41
-30.0
 62
     5
 63
     7
 74
     2
 91
        2
 64
     7
 65
   257
 75
     1
175
     1
 42
40.0
 92
        8
 66
     7
 43
1.0
 76
     1
 77
     6
 78
     2
 67
     7
 79
     3
170
     0
171
     0
290
     0
174
     0
 93
        1
 44
0.0
173
     0
291
     0
 45
0.0
1001
ACAD
1000
AcDbSavedByObjectVersion
1070
     0
  0
VISUALSTYLE
  5
896
102
{ACAD_REACTORS
330
88B
102
}
330
88B
100
AcDbVisualStyle
  2
Dim
 70
    11
 71
     2
 72
     2
 73
     0
 90
        0
 40
-0.6
 41
-30.0
 62
     5
 63
     7
 74
     1
 91
        4
 64
     7
 65
   257
 75
     1
175
     1
 42
1.0
 92
        8
 66
     7
 43
1.0
 76
     1
 77
     6
 78
     2
 67
     7
 79
     5
170
     0
171
     0
290
     0
174
     0
 93
        1
 44
-50.0
173
     0
291
     1
 45
0.0
1001
ACAD
1000
AcDbSavedByObjectVersion
1070
     0
  0
VISUALSTYLE
  5
89A
102
{ACAD_REACTORS
330
88B
102
}
330
88B
100
AcDbVisualStyle
  2
Facepattern
 70
    15
 71
     2
 72
     2
 73
     0
 90
        0
 40
-0.6
 41
-30.0
 62
     5
 63
     7
 74
     1
 91
        4
 64
     7
 65
   257
 75
     1
175
     1
 42
1.0
 92
        8
 66
     7
 43
1.0
 76
     1
 77
     6
 78
     2
 67
     7
 79
     5
170
     0
171
     0
290
     0
174
     0
 93
        1
 44
0.0
173
     0
291
     1
 45
0.0
1001
ACAD
1000
AcDbSavedByObjectVersion
1070
     0
  0
VISUALSTYLE
  5
88C
102
{ACAD_REACTORS
330
88B
102
}
330
88B
100
AcDbVisualStyle
  2
Flat
 70
     0
 71
     2
 72
     1
 73
     1
 90
        2
 40
-0.6
 41
30.0
 62
     5
 63
     7
 74
     0
 91
        4
 64
     7
 65
   257
 75
     1
175
     1
 42
1.0
 92
        8
 66
     7
 43
1.0
 76
     1
 77
     6
 78
     2
 67
     7
 79
     5
170
     0
171
     0
290
     0
174
     0
 93
       13
 44
0.0
173
     0
291
     1
 45
0.0
1001
ACAD
1000
AcDbSavedByObjectVersion
1070
     0
  0
VISUALSTYLE
  5
88D
102
{ACAD_REACTORS
330
88B
102
}
330
88B
100
AcDbVisualStyle
  2
FlatWithEdges
 70
     1
 71
     2
 72
     1
 73
     1
 90
        2
 40
-0.6
 41
30.0
 62
     5
 63
     7
 74
     1
 91
        4
 64
     7
 65
   257
 75
     1
175
     1
 42
1.0
 92
        0
 66
   257
 43
1.0
 76
     1
 77
     6
 78
     2
 67
     7
 79
     5
170
     0
171
     0
290
     0
174
     0
 93
       13
 44
0.0
173
     0
291
     1
 45
0.0
1001
ACAD
1000
AcDbSavedByObjectVersion
1070
     0
  0
VISUALSTYLE
  5
88E
102
{ACAD_REACTORS
330
88B
102
}
330
88B
100
AcDbVisualStyle
  2
Gouraud
 70
     2
 71
     2
 72
     2
 73
     1
 90
        2
 40
-0.6
 41
30.0
 62
     5
 63
     7
 74
     0
 91
        4
 64
     7
 65
   257
 75
     1
175
     1
 42
1.0
 92
        0
 66
     7
 43
1.0
 76
     1
 77
     6
 78
     2
 67
     7
 79
     5
170
     0
171
     0
290
     0
174
     0
 93
       13
 44
0.0
173
     0
291
     1
 45
0.0
1001
ACAD
1000
AcDbSavedByObjectVersion
1070
     0
  0
VISUALSTYLE
  5
88F
102
{ACAD_REACTORS
330
88B
102
}
330
88B
100
AcDbVisualStyle
  2
GouraudWithEdges
 70
     3
 71
     2
 72
     2
 73
     1
 90
        2
 40
-0.6
 41
30.0
 62
     5
 63
     7
 74
     1
 91
        4
 64
     7
 65
   257
 75
     1
175
     1
 42
1.0
 92
        0
 66
   257
 43
1.0
 76
     1
 77
     6
 78
     2
 67
     7
 79
     5
170
     0
171
     0
290
     0
174
     0
 93
       13
 44
0.0
173
     0
291
     1
 45
0.0
1001
ACAD
1000
AcDbSavedByObjectVersion
1070
     0
  0
VISUALSTYLE
  5
899
102
{ACAD_REACTORS
330
88B
102
}
330
88B
100
AcDbVisualStyle
  2
Linepattern
 70
    14
 71
     2
 72
     2
 73
     0
 90
        0
 40
-0.6
 41
-30.0
 62
     5
 63
     7
 74
     1
 91
        4
 64
     7
 65
   257
 75
     7
175
     7
 42
1.0
 92
        8
 66
     7
 43
1.0
 76
     1
 77
     6
 78
     2
 67
     7
 79
     5
170
     0
171
     0
290
     0
174
     0
 93
        1
 44
0.0
173
     0
291
     1
 45
0.0
1001
ACAD
1000
AcDbSavedByObjectVersion
1070
     0
  0
VISUALSTYLE
  5
895
102
{ACAD_REACTORS
330
88B
102
}
330
88B
100
AcDbVisualStyle
  2
Realistic
 70
     8
 71
     2
 72
     2
 73
     0
 90
        0
 40
-0.6
 41
-30.0
 62
     5
 63
     7
 74
     1
 91
        0
 64
     7
 65
   257
 75
     1
175
     1
 42
1.0
 92
        8
 66
     8
 43
1.0
 76
     1
 77
     6
 78
     2
 67
     7
 79
     5
170
     0
171
     0
290
     0
174
     0
 93
       13
 44
0.0
173
     0
291
     0
 45
0.0
1001
ACAD
1000
AcDbSavedByObjectVersion
1070
     0
  0
VISUALSTYLE
  5
898
102
{ACAD_REACTORS
330
88B
102
}
330
88B
100
AcDbVisualStyle
  2
Thicken
 70
    13
 71
     2
 72
     2
 73
     0
 90
        0
 40
-0.6
 41
-30.0
 62
     5
 63
     7
 74
     1
 91
        4
 64
     7
 65
   257
 75
     1
175
     1
 42
1.0
 92
       12
 66
     7
 43
1.0
 76
     1
 77
     6
 78
     2
 67
     7
 79
     5
170
     0
171
     0
290
     0
174
     0
 93
        1
 44
0.0
173
     0
291
     1
 45
0.0
1001
ACAD
1000
AcDbSavedByObjectVersion
1070
     0
  0
DICTIONARYVAR
  5
957
102
{ACAD_REACTORS
330
23C
102
}
330
23C
100
DictionaryVariables
280
     0
  1
1:1
  0
DICTIONARYVAR
  5
955
102
{ACAD_REACTORS
330
23C
102
}
330
23C
100
DictionaryVariables
280
     0
  1
STANDARD
  0
DICTIONARYVAR
  5
23D
102
{ACAD_REACTORS
330
23C
102
}
330
23C
100
DictionaryVariables
280
     0
  1
STANDARD
  0
DICTIONARYVAR
  5
9B6
102
{ACAD_REACTORS
330
23C
102
}
330
23C
100
DictionaryVariables
280
     0
  1
2
  0
DICTIONARYVAR
  5
9B5
102
{ACAD_REACTORS
330
23C
102
}
330
23C
100
DictionaryVariables
280
     0
  1
1
  0
DICTIONARYVAR
  5
9B4
102
{ACAD_REACTORS
330
23C
102
}
330
23C
100
DictionaryVariables
280
     0
  1
0
  0
DICTIONARYVAR
  5
959
102
{ACAD_REACTORS
330
23C
102
}
330
23C
100
DictionaryVariables
280
     0
  1
1
  0
DICTIONARYVAR
  5
95A
102
{ACAD_REACTORS
330
23C
102
}
330
23C
100
DictionaryVariables
280
     0
  1
15
  0
DICTIONARYVAR
  5
958
102
{ACAD_REACTORS
330
23C
102
}
330
23C
100
DictionaryVariables
280
     0
  1
0
  0
DICTIONARYVAR
  5
956
102
{ACAD_REACTORS
330
23C
102
}
330
23C
100
DictionaryVariables
280
     0
  1
0
  0
DICTIONARYVAR
  5
9B3
102
{ACAD_REACTORS
330
23C
102
}
330
23C
100
DictionaryVariables
280
     0
  1
127
  0
DICTIONARY
  5
1E0
102
{ACAD_REACTORS
330
1D5
102
}
330
1D5
100
AcDbDictionary
281
     1
  0
XRECORD
  5
1FF
102
{ACAD_REACTORS
330
1D5
102
}
330
1D5
100
AcDbXrecord
280
     1
 90
-1023410169
  0
XRECORD
  5
837
102
{ACAD_REACTORS
330
836
102
}
330
836
100
AcDbXrecord
280
     1
330
6B7
330
6B8
330
6E1
330
0
330
0
330
0
  0
DICTIONARY
  5
9BB
330
1E
100
AcDbDictionary
280
     1
281
     1
  3
ACAD_XREC_ROUNDTRIP
360
9BC
  0
DICTIONARY
  5
9BF
330
26
100
AcDbDictionary
280
     1
281
     1
  3
ACAD_XREC_ROUNDTRIP
360
9C0
  0
DICTIONARY
  5
9BD
330
22
100
AcDbDictionary
280
     1
281
     1
  3
ACAD_XREC_ROUNDTRIP
360
9BE
  0
DICTIONARY
  5
884
330
883
100
AcDbDictionary
280
     1
281
     1
  3
ACAD_XREC_ROUNDTRIP
360
9C7
  3
BUMPTILE
360
886
  3
DIFFUSETILE
360
885
  3
OPACITYTILE
360
889
  3
REFLECTIONTILE
360
888
  3
REFRACTIONTILE
360
88A
  3
SPECULARTILE
360
887
  0
DICTIONARY
  5
87C
330
87B
100
AcDbDictionary
280
     1
281
     1
  3
ACAD_XREC_ROUNDTRIP
360
9C6
  3
BUMPTILE
360
87E
  3
DIFFUSETILE
360
87D
  3
OPACITYTILE
360
881
  3
REFLECTIONTILE
360
880
  3
REFRACTIONTILE
360
882
  3
SPECULARTILE
360
87F
  0
DICTIONARY
  5
9C2
330
26A
100
AcDbDictionary
280
     1
281
     1
  3
ACAD_XREC_ROUNDTRIP
360
9C3
  0
DICTIONARY
  5
952
330
174
100
AcDbDictionary
280
     1
281
     1
  3
ACAD_ROUNDTRIP_2008_TABLESTYLE_CELLSTYLEMAP
360
9B7
  3
ACAD_XREC_ROUNDTRIP
360
9C1
  0
XRECORD
  5
9BC
102
{ACAD_REACTORS
330
9BB
102
}
330
9BB
100
AcDbXrecord
280
     1
102
SHADEPLOT
 70
     0
102
SHADEPLOTRESLEVEL
 70
     2
102
SHADEPLOTCUSTOMDPI
 70
   300
  0
XRECORD
  5
9C0
102
{ACAD_REACTORS
330
9BF
102
}
330
9BF
100
AcDbXrecord
280
     1
102
SHADEPLOT
 70
     0
102
SHADEPLOTRESLEVEL
 70
     2
102
SHADEPLOTCUSTOMDPI
 70
   300
  0
XRECORD
  5
9BE
102
{ACAD_REACTORS
330
9BD
102
}
330
9BD
100
AcDbXrecord
280
     1
102
SHADEPLOT
 70
     0
102
SHADEPLOTRESLEVEL
 70
     2
102
SHADEPLOTCUSTOMDPI
 70
   300
  0
XRECORD
  5
9C7
102
{ACAD_REACTORS
330
884
102
}
330
884
100
AcDbXrecord
280
     1
102
MATERIAL
148
0.0
149
0.0
149
0.0
 93
        0
 94
      127
282
     0
 72
     0
 77
     0
171
     0
175
     0
179
     0
273
     0
  0
XRECORD
  5
886
102
{ACAD_REACTORS
330
884
102
}
330
884
100
AcDbXrecord
280
     1
270
     1
271
     1
  0
XRECORD
  5
885
102
{ACAD_REACTORS
330
884
102
}
330
884
100
AcDbXrecord
280
     1
270
     1
271
     1
  0
XRECORD
  5
889
102
{ACAD_REACTORS
330
884
102
}
330
884
100
AcDbXrecord
280
     1
270
     1
271
     1
  0
XRECORD
  5
888
102
{ACAD_REACTORS
330
884
102
}
330
884
100
AcDbXrecord
280
     1
270
     1
271
     1
  0
XRECORD
  5
88A
102
{ACAD_REACTORS
330
884
102
}
330
884
100
AcDbXrecord
280
     1
270
     1
271
     1
  0
XRECORD
  5
887
102
{ACAD_REACTORS
330
884
102
}
330
884
100
AcDbXrecord
280
     1
270
     1
271
     1
  0
XRECORD
  5
9C6
102
{ACAD_REACTORS
330
87C
102
}
330
87C
100
AcDbXrecord
280
     1
102
MATERIAL
148
0.0
149
0.0
149
0.0
 93
        0
 94
      127
282
     0
 72
     0
 77
     0
171
     0
175
     0
179
     0
273
     0
  0
XRECORD
  5
87E
102
{ACAD_REACTORS
330
87C
102
}
330
87C
100
AcDbXrecord
280
     1
270
     1
271
     1
  0
XRECORD
  5
87D
102
{ACAD_REACTORS
330
87C
102
}
330
87C
100
AcDbXrecord
280
     1
270
     1
271
     1
  0
XRECORD
  5
881
102
{ACAD_REACTORS
330
87C
102
}
330
87C
100
AcDbXrecord
280
     1
270
     1
271
     1
  0
XRECORD
  5
880
102
{ACAD_REACTORS
330
87C
102
}
330
87C
100
AcDbXrecord
280
     1
270
     1
271
     1
  0
XRECORD
  5
882
102
{ACAD_REACTORS
330
87C
102
}
330
87C
100
AcDbXrecord
280
     1
270
     1
271
     1
  0
XRECORD
  5
87F
102
{ACAD_REACTORS
330
87C
102
}
330
87C
100
AcDbXrecord
280
     1
270
     1
271
     1
  0
XRECORD
  5
9C3
102
{ACAD_REACTORS
330
9C2
102
}
330
9C2
100
AcDbXrecord
280
     1
102
MATERIAL
148
0.0
149
0.0
149
0.0
 93
        0
 94
       63
282
     0
 72
     1
 77
     1
171
     1
175
     1
179
     1
273
     0
  0
CELLSTYLEMAP
  5
9B7
102
{ACAD_REACTORS
330
952
102
}
330
952
100
AcDbCellStyleMap
 90
        3
300
CELLSTYLE
  1
TABLEFORMAT_BEGIN
 90
        5
170
     1
 91
        0
 92
    32768
 62
   257
 93
        1
300
CONTENTFORMAT
  1
CONTENTFORMAT_BEGIN
 90
        0
 91
        0
 92
        4
 93
        0
300

 40
0.0
140
1.0
 94
        5
 62
     0
340
11
144
0.25
309
CONTENTFORMAT_END
171
     0
 94
        6
 95
        1
302
GRIDFORMAT
  1
GRIDFORMAT_BEGIN
 90
        0
 91
        1
 62
     0
 92
       -2
340
0
 93
        0
 40
0.045
309
GRIDFORMAT_END
 95
        2
302
GRIDFORMAT
  1
GRIDFORMAT_BEGIN
 90
        0
 91
        1
 62
     0
 92
       -2
340
0
 93
        0
 40
0.045
309
GRIDFORMAT_END
 95
        4
302
GRIDFORMAT
  1
GRIDFORMAT_BEGIN
 90
        0
 91
        1
 62
     0
 92
       -2
340
0
 93
        0
 40
0.045
309
GRIDFORMAT_END
 95
        8
302
GRIDFORMAT
  1
GRIDFORMAT_BEGIN
 90
        0
 91
        1
 62
     0
 92
       -2
340
0
 93
        0
 40
0.045
309
GRIDFORMAT_END
 95
       16
302
GRIDFORMAT
  1
GRIDFORMAT_BEGIN
 90
        0
 91
        1
 62
     0
 92
       -2
340
0
 93
        0
 40
0.045
309
GRIDFORMAT_END
 95
       32
302
GRIDFORMAT
  1
GRIDFORMAT_BEGIN
 90
        0
 91
        1
 62
     0
 92
       -2
340
0
 93
        0
 40
0.045
309
GRIDFORMAT_END
309
TABLEFORMAT_END
  1
CELLSTYLE_BEGIN
 90
        1
 91
        1
300
_TITLE
309
CELLSTYLE_END
300
CELLSTYLE
  1
TABLEFORMAT_BEGIN
 90
        5
170
     1
 91
        0
 92
        0
 62
   257
 93
        1
300
CONTENTFORMAT
  1
CONTENTFORMAT_BEGIN
 90
        0
 91
        0
 92
        4
 93
        0
300

 40
0.0
140
1.0
 94
        5
 62
     0
340
11
144
0.18
309
CONTENTFORMAT_END
171
     0
 94
        6
 95
        1
302
GRIDFORMAT
  1
GRIDFORMAT_BEGIN
 90
        0
 91
        1
 62
     0
 92
       -2
340
0
 93
        0
 40
0.045
309
GRIDFORMAT_END
 95
        2
302
GRIDFORMAT
  1
GRIDFORMAT_BEGIN
 90
        0
 91
        1
 62
     0
 92
       -2
340
0
 93
        0
 40
0.045
309
GRIDFORMAT_END
 95
        4
302
GRIDFORMAT
  1
GRIDFORMAT_BEGIN
 90
        0
 91
        1
 62
     0
 92
       -2
340
0
 93
        0
 40
0.045
309
GRIDFORMAT_END
 95
        8
302
GRIDFORMAT
  1
GRIDFORMAT_BEGIN
 90
        0
 91
        1
 62
     0
 92
       -2
340
0
 93
        0
 40
0.045
309
GRIDFORMAT_END
 95
       16
302
GRIDFORMAT
  1
GRIDFORMAT_BEGIN
 90
        0
 91
        1
 62
     0
 92
       -2
340
0
 93
        0
 40
0.045
309
GRIDFORMAT_END
 95
       32
302
GRIDFORMAT
  1
GRIDFORMAT_BEGIN
 90
        0
 91
        1
 62
     0
 92
       -2
340
0
 93
        0
 40
0.045
309
GRIDFORMAT_END
309
TABLEFORMAT_END
  1
CELLSTYLE_BEGIN
 90
        2
 91
        1
300
_HEADER
309
CELLSTYLE_END
300
CELLSTYLE
  1
TABLEFORMAT_BEGIN
 90
        5
170
     1
 91
        0
 92
        0
 62
   257
 93
        1
300
CONTENTFORMAT
  1
CONTENTFORMAT_BEGIN
 90
        0
 91
        0
 92
        4
 93
        0
300

 40
0.0
140
1.0
 94
        2
 62
     0
340
11
144
0.18
309
CONTENTFORMAT_END
171
     0
 94
        6
 95
        1
302
GRIDFORMAT
  1
GRIDFORMAT_BEGIN
 90
        0
 91
        1
 62
     0
 92
       -2
340
0
 93
        0
 40
0.045
309
GRIDFORMAT_END
 95
        2
302
GRIDFORMAT
  1
GRIDFORMAT_BEGIN
 90
        0
 91
        1
 62
     0
 92
       -2
340
0
 93
        0
 40
0.045
309
GRIDFORMAT_END
 95
        4
302
GRIDFORMAT
  1
GRIDFORMAT_BEGIN
 90
        0
 91
        1
 62
     0
 92
       -2
340
0
 93
        0
 40
0.045
309
GRIDFORMAT_END
 95
        8
302
GRIDFORMAT
  1
GRIDFORMAT_BEGIN
 90
        0
 91
        1
 62
     0
 92
       -2
340
0
 93
        0
 40
0.045
309
GRIDFORMAT_END
 95
       16
302
GRIDFORMAT
  1
GRIDFORMAT_BEGIN
 90
        0
 91
        1
 62
     0
 92
       -2
340
0
 93
        0
 40
0.045
309
GRIDFORMAT_END
 95
       32
302
GRIDFORMAT
  1
GRIDFORMAT_BEGIN
 90
        0
 91
        1
 62
     0
 92
       -2
340
0
 93
        0
 40
0.045
309
GRIDFORMAT_END
309
TABLEFORMAT_END
  1
CELLSTYLE_BEGIN
 90
        3
 91
        2
300
_DATA
309
CELLSTYLE_END
  0
XRECORD
  5
9C1
102
{ACAD_REACTORS
330
952
102
}
330
952
100
AcDbXrecord
280
     1
102
ACAD_ROUNDTRIP_PRE2007_TABLESTYLE
 90
        4
 91
        0
  1

 92
        4
 93
        0
  2

 94
        4
 95
        0
  3

  0
ENDSEC
  0
EOF
