  0
SECTION
  2
HEADER
  9
$ACADVER
  1
AC1015
  9
$ACADMAINTVER
 70
    20
  9
$DWGCODEPAGE
  3
ANSI_1252
  9
$INSBASE
 10
0.0
 20
0.0
 30
0.0
  9
$EXTMIN
 10
-470.6713935624
 20
98.09444947790002
 30
0.0
  9
$EXTMAX
 10
735.0929317268
 20
253.2549251557
 30
0.0
  9
$LIMMIN
 10
0.0
 20
0.0
  9
$LIMMAX
 10
420.0
 20
297.0
  9
$ORTHOMODE
 70
     1
  9
$REGENMODE
 70
     1
  9
$FILLMODE
 70
     1
  9
$QTEXTMODE
 70
     0
  9
$MIRRTEXT
 70
     0
  9
$LTSCALE
 40
23.1
  9
$ATTMODE
 70
     1
  9
$TEXTSIZE
 40
0.2
  9
$TRACEWID
 40
0.05
  9
$TEXTSTYLE
  7
STANDARD
  9
$CLAYER
  8
0
  9
$CELTYPE
  6
BYLAYER
  9
$CECOLOR
 62
   256
  9
$CELTSCALE
 40
1.0
  9
$DISPSILH
 70
     0
  9
$DIMSCALE
 40
1.0
  9
$DIMASZ
 40
3.5
  9
$DIMEXO
 40
1.5
  9
$DIMDLI
 40
15.96
  9
$DIMRND
 40
0.0
  9
$DIMDLE
 40
0.0
  9
$DIMEXE
 40
1.5
  9
$DIMTP
 40
0.005
  9
$DIMTM
 40
0.005
  9
$DIMTXT
 40
3.5
  9
$DIMCEN
 40
3.779999999999998
  9
$DIMTSZ
 40
0.0
  9
$DIMTOL
 70
     1
  9
$DIMLIM
 70
     0
  9
$DIMTIH
 70
     1
  9
$DIMTOH
 70
     1
  9
$DIMSE1
 70
     0
  9
$DIMSE2
 70
     0
  9
$DIMTAD
 70
     0
  9
$DIMZIN
 70
     0
  9
$DIMBLK
  1
_FILLED
  9
$DIMASO
 70
     1
  9
$DIMSHO
 70
     1
  9
$DIMPOST
  1

  9
$DIMAPOST
  1

  9
$DIMALT
 70
     0
  9
$DIMALTD
 70
     2
  9
$DIMALTF
 40
25.4
  9
$DIMLFAC
 40
1.0
  9
$DIMTOFL
 70
     0
  9
$DIMTVP
 40
0.0
  9
$DIMTIX
 70
     0
  9
$DIMSOXD
 70
     0
  9
$DIMSAH
 70
     0
  9
$DIMBLK1
  1

  9
$DIMBLK2
  1

  9
$DIMSTYLE
  2
STANDARD
  9
$DIMCLRD
 70
     0
  9
$DIMCLRE
 70
     0
  9
$DIMCLRT
 70
     0
  9
$DIMTFAC
 40
1.0
  9
$DIMGAP
 40
0.625
  9
$DIMJUST
 70
     0
  9
$DIMSD1
 70
     0
  9
$DIMSD2
 70
     0
  9
$DIMTOLJ
 70
     1
  9
$DIMTZIN
 70
     0
  9
$DIMALTZ
 70
     0
  9
$DIMALTTZ
 70
     0
  9
$DIMUPT
 70
     0
  9
$DIMDEC
 70
     0
  9
$DIMTDEC
 70
     4
  9
$DIMALTU
 70
     2
  9
$DIMALTTD
 70
     2
  9
$DIMTXSTY
  7
STANDARD
  9
$DIMAUNIT
 70
     0
  9
$DIMADEC
 70
     0
  9
$DIMALTRND
 40
0.0
  9
$DIMAZIN
 70
     0
  9
$DIMDSEP
 70
    46
  9
$DIMATFIT
 70
     3
  9
$DIMFRAC
 70
     0
  9
$DIMLDRBLK
  1

  9
$DIMLUNIT
 70
     2
  9
$DIMLWD
 70
    -2
  9
$DIMLWE
 70
    -2
  9
$DIMTMOVE
 70
     0
  9
$LUNITS
 70
     2
  9
$LUPREC
 70
     2
  9
$SKETCHINC
 40
0.1
  9
$FILLETRAD
 40
0.0
  9
$AUNITS
 70
     0
  9
$AUPREC
 70
     0
  9
$MENU
  1
.
  9
$ELEVATION
 40
0.0
  9
$PELEVATION
 40
0.0
  9
$THICKNESS
 40
0.0
  9
$LIMCHECK
 70
     0
  9
$CHAMFERA
 40
0.0
  9
$CHAMFERB
 40
0.0
  9
$CHAMFERC
 40
0.0
  9
$CHAMFERD
 40
0.0
  9
$SKPOLY
 70
     0
  9
$TDCREATE
 40
2456685.680487234
  9
$TDUCREATE
 40
2456685.638820567
  9
$TDUPDATE
 40
2456686.561531123
  9
$TDUUPDATE
 40
2456686.519864456
  9
$TDINDWG
 40
0.1990914699
  9
$TDUSRTIMER
 40
0.1990912963
  9
$USRTIMER
 70
     1
  9
$ANGBASE
 50
0.0
  9
$ANGDIR
 70
     0
  9
$PDMODE
 70
     3
  9
$PDSIZE
 40
0.3125
  9
$PLINEWID
 40
0.0
  9
$SPLFRAME
 70
     0
  9
$SPLINETYPE
 70
     6
  9
$SPLINESEGS
 70
     8
  9
$HANDSEED
  5
25A7
  9
$SURFTAB1
 70
     6
  9
$SURFTAB2
 70
     6
  9
$SURFTYPE
 70
     6
  9
$SURFU
 70
     6
  9
$SURFV
 70
     6
  9
$UCSBASE
  2

  9
$UCSNAME
  2

  9
$UCSORG
 10
0.0
 20
0.0
 30
0.0
  9
$UCSXDIR
 10
1.0
 20
0.0
 30
0.0
  9
$UCSYDIR
 10
0.0
 20
1.0
 30
0.0
  9
$UCSORTHOREF
  2

  9
$UCSORTHOVIEW
 70
     0
  9
$UCSORGTOP
 10
0.0
 20
0.0
 30
0.0
  9
$UCSORGBOTTOM
 10
0.0
 20
0.0
 30
0.0
  9
$UCSORGLEFT
 10
0.0
 20
0.0
 30
0.0
  9
$UCSORGRIGHT
 10
0.0
 20
0.0
 30
0.0
  9
$UCSORGFRONT
 10
0.0
 20
0.0
 30
0.0
  9
$UCSORGBACK
 10
0.0
 20
0.0
 30
0.0
  9
$PUCSBASE
  2

  9
$PUCSNAME
  2

  9
$PUCSORG
 10
0.0
 20
0.0
 30
0.0
  9
$PUCSXDIR
 10
1.0
 20
0.0
 30
0.0
  9
$PUCSYDIR
 10
0.0
 20
1.0
 30
0.0
  9
$PUCSORTHOREF
  2

  9
$PUCSORTHOVIEW
 70
     0
  9
$PUCSORGTOP
 10
0.0
 20
0.0
 30
0.0
  9
$PUCSORGBOTTOM
 10
0.0
 20
0.0
 30
0.0
  9
$PUCSORGLEFT
 10
0.0
 20
0.0
 30
0.0
  9
$PUCSORGRIGHT
 10
0.0
 20
0.0
 30
0.0
  9
$PUCSORGFRONT
 10
0.0
 20
0.0
 30
0.0
  9
$PUCSORGBACK
 10
0.0
 20
0.0
 30
0.0
  9
$USERI1
 70
     0
  9
$USERI2
 70
     0
  9
$USERI3
 70
     0
  9
$USERI4
 70
     0
  9
$USERI5
 70
     0
  9
$USERR1
 40
0.0
  9
$USERR2
 40
0.0
  9
$USERR3
 40
0.0
  9
$USERR4
 40
0.0
  9
$USERR5
 40
0.0
  9
$WORLDVIEW
 70
     1
  9
$SHADEDGE
 70
     3
  9
$SHADEDIF
 70
    70
  9
$TILEMODE
 70
     1
  9
$MAXACTVP
 70
    64
  9
$PINSBASE
 10
0.0
 20
0.0
 30
0.0
  9
$PLIMCHECK
 70
     0
  9
$PEXTMIN
 10
1.000000000000000E+20
 20
1.000000000000000E+20
 30
1.000000000000000E+20
  9
$PEXTMAX
 10
-1.000000000000000E+20
 20
-1.000000000000000E+20
 30
-1.000000000000000E+20
  9
$PLIMMIN
 10
0.0
 20
0.0
  9
$PLIMMAX
 10
12.0
 20
9.0
  9
$UNITMODE
 70
     0
  9
$VISRETAIN
 70
     1
  9
$PLINEGEN
 70
     0
  9
$PSLTSCALE
 70
     1
  9
$TREEDEPTH
 70
  3020
  9
$CMLSTYLE
  2
Standard
  9
$CMLJUST
 70
     0
  9
$CMLSCALE
 40
1.0
  9
$PROXYGRAPHICS
 70
     1
  9
$MEASUREMENT
 70
     1
  9
$CELWEIGHT
370
    -1
  9
$ENDCAPS
280
     0
  9
$JOINSTYLE
280
     0
  9
$LWDISPLAY
290
     0
  9
$INSUNITS
 70
     4
  9
$HYPERLINKBASE
  1

  9
$STYLESHEET
  1

  9
$XEDIT
290
     1
  9
$CEPSNTYPE
380
     0
  9
$PSTYLEMODE
290
     1
  9
$FINGERPRINTGUID
  2
{280769C8-3179-4496-817A-F71727A8D79E}
  9
$VERSIONGUID
  2
{76513CE7-9D75-4BBB-8A7D-0863DDDA652F}
  9
$EXTNAMES
290
     1
  9
$PSVPSCALE
 40
0.0
  9
$OLESTARTUP
290
     0
  0
ENDSEC
  0
SECTION
  2
CLASSES
  0
CLASS
  1
ACDBDICTIONARYWDFLT
  2
AcDbDictionaryWithDefault
  3
ObjectDBX Classes
 90
        0
280
     0
281
     0
  0
CLASS
  1
ACDBPLACEHOLDER
  2
AcDbPlaceHolder
  3
ObjectDBX Classes
 90
        0
280
     0
281
     0
  0
CLASS
  1
LAYOUT
  2
AcDbLayout
  3
ObjectDBX Classes
 90
        0
280
     0
281
     0
  0
CLASS
  1
MATERIAL
  2
AcDbMaterial
  3
ObjectDBX Classes
 90
     1153
280
     0
281
     0
  0
CLASS
  1
VISUALSTYLE
  2
AcDbVisualStyle
  3
ObjectDBX Classes
 90
     4095
280
     0
281
     0
  0
CLASS
  1
TABLESTYLE
  2
AcDbTableStyle
  3
ObjectDBX Classes
 90
     4095
280
     0
281
     0
  0
CLASS
  1
SCALE
  2
AcDbScale
  3
ObjectDBX Classes
 90
     1153
280
     0
281
     0
  0
CLASS
  1
MLEADERSTYLE
  2
AcDbMLeaderStyle
  3
ACDB_MLEADERSTYLE_CLASS
 90
     4095
280
     0
281
     0
  0
CLASS
  1
AMGSETTINGSOBJ
  2
AmgSettingsObj
  3
"AcadM|Product Description: AutoCAD Mechanical|Company: Autodesk, Inc."
 90
     1024
280
     0
281
     0
  0
CLASS
  1
ACME_DOCUMENT
  2
AcMeDbDoc
  3
AcMeServices
 90
     1024
280
     0
281
     0
  0
CLASS
  1
ACMESCOPE
  2
AcMeScope
  3
AcMeServices
 90
     1024
280
     0
281
     0
  0
CLASS
  1
ACMECOMMANDHISTORY
  2
AcMeCommandHistory
  3
AcMeServices
 90
     1024
280
     0
281
     0
  0
CLASS
  1
ACIMSYSVARMAN
  2
AcImSysVarManager
  3
AcMeServices
 90
     1024
280
     0
281
     0
  0
CLASS
  1
ACIMINTSYSVAR
  2
AcImIntSysVar
  3
AcMeServices
 90
     1024
280
     0
281
     0
  0
CLASS
  1
ACMEDRAWINGMAN
  2
AcMeDrawingMan
  3
AcMeServices
 90
     1024
280
     0
281
     0
  0
CLASS
  1
ACMEVIEW
  2
AcMeView
  3
AcMeServices
 90
     1024
280
     0
281
     0
  0
CLASS
  1
ACDBENTITYCACHE
  2
AcMeEntityCache
  3
AcMeServices
 90
     1024
280
     0
281
     0
  0
CLASS
  1
ACMESTATEMGR
  2
AcMeStateMgr
  3
AcMeServices
 90
     1024
280
     0
281
     0
  0
CLASS
  1
ACGREFMASTER
  2
AcGrefMaster
  3
AcAttribServices
 90
     1024
280
     0
281
     0
  0
CLASS
  1
AM_DRAWING_MGR
  2
AcDmDwgMgr
  3
AcMechDwgViewMgmt
 90
     1024
280
     0
281
     0
  0
CLASS
  1
AM_DWG_DOCUMENT
  2
AcDmDwgDocument
  3
AcMechDwgViewMgmt
 90
     1024
280
     0
281
     0
  0
CLASS
  1
AM_DWG_SHEET
  2
AcDmSheet
  3
AcMechDwgViewMgmt
 90
     1024
280
     0
281
     0
  0
CLASS
  1
AM_VIEWDIMPARMAP
  2
AcDmViewDimParMap
  3
AcMechDwgViewMgmt
 90
     1024
280
     0
281
     0
  0
CLASS
  1
AMDTINTERNALREACTOR
  2
AmdtInternalReactor
  3
AcMeServices
 90
     1024
280
     0
281
     0
  0
CLASS
  1
ACIMREALSYSVAR
  2
AcImRealSysVar
  3
AcMeServices
 90
     1024
280
     0
281
     0
  0
CLASS
  1
AM_DWGMGR_NAME
  2
AcDmDwgMgrName
  3
AcMechDwgViewMgmt
 90
     1024
280
     0
281
     0
  0
CLASS
  1
ACME_DATABASE
  2
AcMeDbDatabase
  3
AcMeServices
 90
     1024
280
     0
281
     0
  0
CLASS
  1
ACRFINSADJUSTERMGR
  2
AcRfInsAdjusterMgr
  3
AcMeServices
 90
     1024
280
     0
281
     0
  0
CLASS
  1
ACGREFACADMASTER
  2
AcGrefacadMaster
  3
AcGrefServices
 90
     1024
280
     0
281
     0
  0
CLASS
  1
AMDTMENUSTATEMGR
  2
AmdtMenuStateMgr
  3
McadcomServices
 90
     1024
280
     0
281
     0
  0
CLASS
  1
AMDTMCOMMENUSTATE
  2
AmdtMcomMenuState
  3
McadcomServices
 90
     1024
280
     0
281
     0
  0
CLASS
  1
AMIMASTER
  2
AmiMaster
  3
AmiServices
 90
     1024
280
     0
281
     0
  0
CLASS
  1
MAPIAMMOUDLE
  2
MApiAmModule
  3
MApiAmServices
 90
     1024
280
     0
281
     0
  0
CLASS
  1
ACIMSTRSYSVAR
  2
AcImStrSysVar
  3
AcMeServices
 90
     1024
280
     0
281
     0
  0
CLASS
  1
AMDTADMENUSTATE
  2
AmdtAdMenuState
  3
DesignerServices
 90
     1024
280
     0
281
     0
  0
CLASS
  1
ADAPPL
  2
AcAdAppl
  3
DesignerServices
 90
     1024
280
     0
281
     0
  0
CLASS
  1
DEPMGR
  2
AcAdDepMgr
  3
DesignerServices
 90
     1024
280
     0
281
     0
  0
CLASS
  1
PARAMMGR
  2
AcAdParamMgr
  3
DesignerServices
 90
     1024
280
     0
281
     0
  0
CLASS
  1
PARAMSCOPE
  2
AcAdParamScope
  3
DesignerServices
 90
     1024
280
     0
281
     0
  0
CLASS
  1
NAMEDAPPL
  2
AcAdNamedAppl
  3
DesignerServices
 90
     1024
280
     0
281
     0
  0
CLASS
  1
AMDTDMMENUSTATE
  2
AmdtDmMenuState
  3
AcMechDwgViewMgmt
 90
     1024
280
     0
281
     0
  0
CLASS
  1
AMDTAMMENUSTATE
  2
AmdtAmMenuState
  3
DesignerAssemblies
 90
     1024
280
     0
281
     0
  0
CLASS
  1
ACAMPROJECT
  2
AcAmProject
  3
DesignerAssemblies
 90
     1024
280
     0
281
     0
  0
CLASS
  1
ACAMGRCOMPDEF
  2
AcAmGrCompDef
  3
DesignerAssemblies
 90
     1024
280
     0
281
     0
  0
CLASS
  1
ACAMCOMPDEF
  2
AcAmCompDef
  3
DesignerAssemblies
 90
     1024
280
     0
281
     0
  0
CLASS
  1
ACAMCOMPDEFMGR
  2
AcAmCompDefMgr
  3
DesignerAssemblies
 90
     1024
280
     0
281
     0
  0
CLASS
  1
AMCONTEXTMGR
  2
AcAmContextMgr
  3
DesignerAssemblies
 90
     1024
280
     0
281
     0
  0
CLASS
  1
ACAMCONTEXTMODELER
  2
AcAmContextModeler
  3
DesignerAssemblies
 90
     1024
280
     0
281
     0
  0
CLASS
  1
ACMDATADICTIONARY
  2
AcmDataDictionary
  3
"AcmSymBB|Product Description: AutoCAD Mechanical|Company: Autodesk, Inc."
 90
     1024
280
     0
281
     0
  0
CLASS
  1
CATALOGSTATE
  2
AcAmCatalogState
  3
DesignerAssemblies
 90
     1024
280
     0
281
     0
  0
CLASS
  1
ACAMGRCOMPDEFSET
  2
AcAmGrCompDefSet
  3
DesignerAssemblies
 90
     1024
280
     0
281
     0
  0
CLASS
  1
AMDTBROWSERDBTAB
  2
AmdtBrowserDbTab
  3
McadcomServices
 90
     1024
280
     0
281
     0
  0
CLASS
  1
CBROWSERAPPOBJECT
  2
CBrowserAppObject
  3
McadcomServices
 90
     1024
280
     0
281
     0
  0
CLASS
  1
DM_PLACEHOLDER
  2
AcDmSelsetPlaceholder
  3
AcMechDwgViewMgmt
 90
     1024
280
     0
281
     0
  0
CLASS
  1
EXACXREFPANELOBJECT
  2
ExAcXREFPanelObject
  3
EXAC_ESW
 90
     1025
280
     0
281
     0
  0
CLASS
  1
NPOCOLLECTION
  2
AcDbImpNonPersistentObjectsCollection
  3
ObjectDBX Classes
 90
     1153
280
     0
281
     0
  0
CLASS
  1
ACMSTANDARDDIN
  2
AcmStandardDIN
  3
"Amdt_StdImp|Product Description: AutoCAD Mechanical|Company: Autodesk, Inc."
 90
     1024
280
     0
281
     0
  0
CLASS
  1
AMDTEDGESTANDARDDIN13715
  2
AmdtEdgeStdDIN13715
  3
"Amdt_StdImp|Product Description: AutoCAD Mechanical|Company: Autodesk, Inc."
 90
     1024
280
     0
281
     0
  0
CLASS
  1
ACMSURFSTANDARDDIN2002
  2
AcmSurfTextStdDIN2002
  3
"Amdt_StdImp|Product Description: AutoCAD Mechanical|Company: Autodesk, Inc."
 90
     1024
280
     0
281
     0
  0
CLASS
  1
ACMFCFSTANDARDDIN
  2
AcmFCFStdDIN
  3
"Amdt_StdImp|Product Description: AutoCAD Mechanical|Company: Autodesk, Inc."
 90
     1024
280
     0
281
     0
  0
CLASS
  1
ACMWELDSTANDARDDIN
  2
AcmWeldingStdDIN
  3
"Amdt_StdImp|Product Description: AutoCAD Mechanical|Company: Autodesk, Inc."
 90
     1024
280
     0
281
     0
  0
CLASS
  1
ACMIDSTANDARDDIN
  2
AcmIdStdDIN
  3
"Amdt_StdImp|Product Description: AutoCAD Mechanical|Company: Autodesk, Inc."
 90
     1024
280
     0
281
     0
  0
CLASS
  1
ACMDATUMSTANDARDDIN
  2
AcmDatumStdDIN
  3
"Amdt_StdImp|Product Description: AutoCAD Mechanical|Company: Autodesk, Inc."
 90
     1024
280
     0
281
     0
  0
CLASS
  1
ACMBOMSTANDARDDIN
  2
AcmBOMStdDIN
  3
"Amdt_StdImp|Product Description: AutoCAD Mechanical|Company: Autodesk, Inc."
 90
     1024
280
     0
281
     0
  0
CLASS
  1
ACMDETAILSTANDARDDIN
  2
AmdtDetailSymStdDIN
  3
"Amdt_StdImp|Product Description: AutoCAD Mechanical|Company: Autodesk, Inc."
 90
     1024
280
     0
281
     0
  0
CLASS
  1
ACMSECTIONSTANDARDDIN
  2
AmdtSectionSymStdDIN
  3
"Amdt_StdImp|Product Description: AutoCAD Mechanical|Company: Autodesk, Inc."
 90
     1024
280
     0
281
     0
  0
CLASS
  1
ACMCENTERLINESTANDARDDIN
  2
AmdtCenterLineStdDIN
  3
"Amdt_StdImp|Product Description: AutoCAD Mechanical|Company: Autodesk, Inc."
 90
     1024
280
     0
281
     0
  0
CLASS
  1
ACMTHREADLINESTANDARDDIN
  2
AmdtThreadLineStdDIN
  3
"Amdt_StdImp|Product Description: AutoCAD Mechanical|Company: Autodesk, Inc."
 90
     1024
280
     0
281
     0
  0
CLASS
  1
ACMNOTESTANDARDDIN
  2
AmdtNoteStdDIN
  3
"Amdt_StdImp|Product Description: AutoCAD Mechanical|Company: Autodesk, Inc."
 90
     1024
280
     0
281
     0
  0
CLASS
  1
ACMTAPERSTANDARDDIN
  2
AcmTaperStdDIN
  3
"Amdt_StdImp|Product Description: AutoCAD Mechanical|Company: Autodesk, Inc."
 90
     1024
280
     0
281
     0
  0
CLASS
  1
ACMANOOTATIONVIEWSTANDARDDIN
  2
AmdtAnViewStdDIN
  3
"Amdt_StdImp|Product Description: AutoCAD Mechanical|Company: Autodesk, Inc."
 90
     1024
280
     0
281
     0
  0
CLASS
  1
ACAMGLAYSTD
  2
AcAmgLayStd
  3
"AmgLay|Product Description: AutoCAD Mechanical|Company: Autodesk, Inc."
 90
     1024
280
     0
281
     0
  0
CLASS
  1
ACAMGDIMSTD
  2
AcAmgDimStd
  3
"AmgDim|Product Description: AutoCAD Mechanical|Company: Autodesk, Inc."
 90
     1024
280
     0
281
     0
  0
CLASS
  1
AMGOBJPROPCFG
  2
AmgObjPropCfg
  3
"AmgLay|Product Description: AutoCAD Mechanical|Company: Autodesk, Inc."
 90
     1025
280
     0
281
     0
  0
CLASS
  1
ACAMGHOLECHARTSTDDIN
  2
AcAmgHoleChartStdDIN
  3
AmgDim|Product Description: AutoCAD Mechanical|Company: Autodesk, Inc.
 90
     1024
280
     0
281
     0
  0
CLASS
  1
ACAMGTITLESTD
  2
AcAmgTitleStd
  3
"AmgTitle|Product Description: AutoCAD Mechanical|Company: Autodesk, Inc."
 90
     4095
280
     0
281
     0
  0
CLASS
  1
AMDTNOTETEMPLATEDB
  2
AmdtNoteTemplateDB
  3
AcmSymBB|Product Description: AutoCAD Mechanical|Company: Autodesk, Inc.
 90
     1024
280
     0
281
     0
  0
CLASS
  1
ACAMGFILTERDAT
  2
AcAmgFilterDat
  3
"AcadM|Product Description: AutoCAD Mechanical|Company: Autodesk, Inc."
 90
    33792
280
     0
281
     0
  0
CLASS
  1
CAMSSTRUCTBTNSTATE
  2
StructBtnState
  3
DesignerAssemblies
 90
    33792
280
     0
281
     0
  0
CLASS
  1
DICTIONARYVAR
  2
AcDbDictionaryVar
  3
ObjectDBX Classes
 90
        0
280
     0
281
     0
  0
CLASS
  1
DIMASSOC
  2
AcDbDimAssoc
  3
"AcDbDimAssoc|Product Desc:     AcDim ARX App For Dimension|Company:          Autodesk, Inc.|WEB Address:      www.autodesk.com"
 90
    32768
280
     0
281
     0
  0
CLASS
  1
CELLSTYLEMAP
  2
AcDbCellStyleMap
  3
ObjectDBX Classes
 90
     1152
280
     0
281
     0
  0
CLASS
  1
SORTENTSTABLE
  2
AcDbSortentsTable
  3
ObjectDBX Classes
 90
        0
280
     0
281
     0
  0
ENDSEC
  0
SECTION
  2
TABLES
  0
TABLE
  2
VPORT
  5
8
330
0
100
AcDbSymbolTable
 70
     1
  0
VPORT
  5
1F4
330
8
100
AcDbSymbolTableRecord
100
AcDbViewportTableRecord
  2
*ACTIVE
 70
     0
 10
0.0
 20
0.0
 11
1.0
 21
1.0
 12
318.9187297638364
 22
-103.8160283089794
 13
0.0
 23
0.0
 14
1.0
 24
1.0
 15
0.0
 25
0.0
 16
0.0
 26
0.0
 36
1.0
 17
0.0
 27
0.0
 37
0.0
 40
1663.943859150219
 41
2.017384105960264
 42
50.0
 43
0.0
 44
0.0
 50
0.0
 51
0.0
 71
     0
 72
   100
 73
     1
 74
     1
 75
     0
 76
     0
 77
     0
 78
     0
281
     0
 65
     0
110
0.0
120
0.0
130
0.0
111
1.0
121
0.0
131
0.0
112
0.0
122
1.0
132
0.0
 79
     0
146
0.0
  0
ENDTAB
  0
TABLE
  2
LTYPE
  5
5
330
0
100
AcDbSymbolTable
 70
    23
  0
LTYPE
  5
14
330
5
100
AcDbSymbolTableRecord
100
AcDbLinetypeTableRecord
  2
BYBLOCK
 70
     0
  3

 72
    65
 73
     0
 40
0.0
  0
LTYPE
  5
15
330
5
100
AcDbSymbolTableRecord
100
AcDbLinetypeTableRecord
  2
BYLAYER
 70
     0
  3

 72
    65
 73
     0
 40
0.0
  0
LTYPE
  5
16
330
5
100
AcDbSymbolTableRecord
100
AcDbLinetypeTableRecord
  2
CONTINUOUS
 70
     0
  3
Solid line
 72
    65
 73
     0
 40
0.0
  0
LTYPE
  5
1F5
330
5
100
AcDbSymbolTableRecord
100
AcDbLinetypeTableRecord
  2
CENTER
 70
     0
  3
____ _ ____ _ ____ _ ____ _ ____ _ ____ _ ____
 72
    65
 73
     4
 40
0.6
 49
0.375
 74
     0
 49
-0.075
 74
     0
 49
0.075
 74
     0
 49
-0.075
 74
     0
  0
LTYPE
  5
1F6
330
5
100
AcDbSymbolTableRecord
100
AcDbLinetypeTableRecord
  2
HIDDEN
 70
     0
  3
- - - - - - - - - - - - - - - - - - - -
 72
    65
 73
     2
 40
0.2
 49
0.1
 74
     0
 49
-0.1
 74
     0
  0
LTYPE
  5
1F7
330
5
100
AcDbSymbolTableRecord
100
AcDbLinetypeTableRecord
  2
PHANTOM
 70
     0
  3
_____ _ _ _____ _ _ _____ _ _ _____
 72
    65
 73
     6
 40
0.8
 49
0.45
 74
     0
 49
-0.05
 74
     0
 49
0.1
 74
     0
 49
-0.05
 74
     0
 49
0.1
 74
     0
 49
-0.05
 74
     0
  0
LTYPE
  5
1F8
330
5
100
AcDbSymbolTableRecord
100
AcDbLinetypeTableRecord
  2
DOT
 70
     0
  3
. . . . . . . . . . . . . . . . . . . .
 72
    65
 73
     2
 40
0.2
 49
0.1
 74
     0
 49
-0.1
 74
     0
  0
LTYPE
  5
1F9
330
5
100
AcDbSymbolTableRecord
100
AcDbLinetypeTableRecord
  2
DASHED
 70
     0
  3
- - - - - - - - - - - - - - - - - - - -
 72
    65
 73
     2
 40
0.2
 49
0.1
 74
     0
 49
-0.1
 74
     0
  0
LTYPE
  5
40B
330
5
100
AcDbSymbolTableRecord
100
AcDbLinetypeTableRecord
  2
PHANTOM2
 70
     0
  3
Phantom (.5x) ___ _ _ ___ _ _ ___ _ _ ___ _ _
 72
    65
 73
     6
 40
31.75
 49
15.875
 74
     0
 49
-3.174999999999998
 74
     0
 49
3.174999999999998
 74
     0
 49
-3.174999999999998
 74
     0
 49
3.174999999999998
 74
     0
 49
-3.174999999999998
 74
     0
  0
LTYPE
  5
453
330
5
100
AcDbSymbolTableRecord
100
AcDbLinetypeTableRecord
  2
AM_ISO02W050
 70
     0
  3
__ __ __ __ __ __ __ __ __ __ __ __ __ __ __
 72
    65
 73
     2
 40
7.5
 49
6.0
 74
     0
 49
-1.5
 74
     0
  0
LTYPE
  5
454
330
5
100
AcDbSymbolTableRecord
100
AcDbLinetypeTableRecord
  2
AM_ISO08W050
 70
     0
  3
____ . ____ . ____ . ____ . ____ . ____ . ____
 72
    65
 73
     4
 40
18.0
 49
12.0
 74
     0
 49
-1.5
 74
     0
 49
3.0
 74
     0
 49
-1.5
 74
     0
  0
LTYPE
  5
455
330
5
100
AcDbSymbolTableRecord
100
AcDbLinetypeTableRecord
  2
AM_ISO09W050
 70
     0
  3
_____ . . _____ . . _____ . . ____ .. ____
 72
    65
 73
     6
 40
22.5
 49
12.0
 74
     0
 49
-1.5
 74
     0
 49
3.0
 74
     0
 49
-1.5
 74
     0
 49
3.0
 74
     0
 49
-1.5
 74
     0
  0
LTYPE
  5
456
330
5
100
AcDbSymbolTableRecord
100
AcDbLinetypeTableRecord
  2
Amconstr
 70
     0
  3
_______________________
 72
    65
 73
     2
 40
9999.0
 49
9999.0
 74
     0
 49
0.0
 74
     0
  0
LTYPE
  5
457
330
5
100
AcDbSymbolTableRecord
100
AcDbLinetypeTableRecord
  2
AM_ISO08W050x2
 70
     0
  3
__ . __ . __ . __ . __ . __
 72
    65
 73
     4
 40
9.0
 49
6.0
 74
     0
 49
-0.75
 74
     0
 49
1.5
 74
     0
 49
-0.75
 74
     0
  0
LTYPE
  5
458
330
5
100
AcDbSymbolTableRecord
100
AcDbLinetypeTableRecord
  2
AM_ISO02W050x2
 70
     0
  3
 _ _ _ _ _ _ _ _ _ _ _ _
 72
    65
 73
     2
 40
3.75
 49
3.0
 74
     0
 49
-0.75
 74
     0
  0
LTYPE
  5
45B
330
5
100
AcDbSymbolTableRecord
100
AcDbLinetypeTableRecord
  2
Amzigzag
 70
     0
  3
/\/-/\/-/\/-/\/-/\/-/\/
 72
    65
 73
     2
 40
11.0001
 49
0.0001
 74
     4
 75
   136
340
45A
 46
0.04
 50
0.0
 44
0.0
 45
0.0
 49
-11.0
 74
     0
  0
LTYPE
  5
45C
330
5
100
AcDbSymbolTableRecord
100
AcDbLinetypeTableRecord
  2
AM_DIN_F_W050
 70
     0
  3
__ __ __ __ __ __ __ __ __ __ __ __ __ __ __
 72
    65
 73
     2
 40
6.25
 49
4.75
 74
     0
 49
-1.5
 74
     0
  0
LTYPE
  5
45D
330
5
100
AcDbSymbolTableRecord
100
AcDbLinetypeTableRecord
  2
AM_DIN_G_W050
 70
     0
  3
____ . ____ . ____ . ____ . ____ . ____ . ____
 72
    65
 73
     4
 40
13.75
 49
9.75
 74
     0
 49
-1.5
 74
     0
 49
1.0
 74
     0
 49
-1.5
 74
     0
  0
LTYPE
  5
45E
330
5
100
AcDbSymbolTableRecord
100
AcDbLinetypeTableRecord
  2
AM_DIN_K_W050
 70
     0
  3
_____ . . _____ . . _____ . . ____ .. ____
 72
    65
 73
     6
 40
16.25
 49
9.75
 74
     0
 49
-1.5
 74
     0
 49
1.0
 74
     0
 49
-1.5
 74
     0
 49
1.0
 74
     0
 49
-1.5
 74
     0
  0
LTYPE
  5
45F
330
5
100
AcDbSymbolTableRecord
100
AcDbLinetypeTableRecord
  2
AM_DIN_G_W050x2
 70
     0
  3
__ . __ . __ . __ . __ . __
 72
    65
 73
     4
 40
6.875
 49
4.75
 74
     0
 49
-0.875
 74
     0
 49
0.375
 74
     0
 49
-0.875
 74
     0
  0
LTYPE
  5
460
330
5
100
AcDbSymbolTableRecord
100
AcDbLinetypeTableRecord
  2
AM_DIN_F_W050x2
 70
     0
  3
 _ _ _ _ _ _ _ _ _ _ _ _
 72
    65
 73
     2
 40
3.125
 49
2.25
 74
     0
 49
-0.875
 74
     0
  0
LTYPE
  5
46F
330
5
100
AcDbSymbolTableRecord
100
AcDbLinetypeTableRecord
  2
ACDINWELD
 70
     0
  3
_ _ _ _ _
 72
    65
 73
     2
 40
2.0
 49
2.0
 74
     0
 49
-1.0
 74
     0
  0
LTYPE
  5
470
330
5
100
AcDbSymbolTableRecord
100
AcDbLinetypeTableRecord
  2
ACDINTGB
 70
     0
  3
__ . . __ . .
 72
    65
 73
     6
 40
9.0
 49
4.0
 74
     0
 49
-1.0
 74
     0
 49
1.0
 74
     0
 49
-1.0
 74
     0
 49
1.0
 74
     0
 49
-1.0
 74
     0
  0
LTYPE
  5
471
330
5
100
AcDbSymbolTableRecord
100
AcDbLinetypeTableRecord
  2
ACDINTGL
 70
     0
  3
_ _ _ _ _
 72
    65
 73
     2
 40
3.0
 49
2.0
 74
     0
 49
-1.0
 74
     0
  0
ENDTAB
  0
TABLE
  2
LAYER
  5
2
102
{ACAD_XDICTIONARY
360
BA2
102
}
330
0
100
AcDbSymbolTable
 70
    16
  0
LAYER
  5
10
330
2
100
AcDbSymbolTableRecord
100
AcDbLayerTableRecord
  2
0
 70
     0
 62
     7
  6
CONTINUOUS
370
    -3
390
F
  0
LAYER
  5
1FA
330
2
100
AcDbSymbolTableRecord
100
AcDbLayerTableRecord
  2
DEFAULT_1
 70
     0
 62
     7
  6
CENTER
370
    -3
390
F
  0
LAYER
  5
1FB
330
2
100
AcDbSymbolTableRecord
100
AcDbLayerTableRecord
  2
DEFAULT_2
 70
     0
 62
     8
  6
HIDDEN
370
    -3
390
F
  0
LAYER
  5
1FC
330
2
100
AcDbSymbolTableRecord
100
AcDbLayerTableRecord
  2
DEFAULT_3
 70
     0
 62
     7
  6
PHANTOM
370
    -3
390
F
  0
LAYER
  5
1FD
330
2
100
AcDbSymbolTableRecord
100
AcDbLayerTableRecord
  2
BEZUGSACHSEN
 70
     0
 62
     7
  6
CONTINUOUS
370
    -3
390
F
  0
LAYER
  5
1FE
330
2
100
AcDbSymbolTableRecord
100
AcDbLayerTableRecord
  2
BEZUGSEBENEN
 70
     0
 62
     7
  6
CONTINUOUS
370
    -3
390
F
  0
LAYER
  5
1FF
330
2
100
AcDbSymbolTableRecord
100
AcDbLayerTableRecord
  2
BOHRUNGEN
 70
     0
 62
     7
  6
CONTINUOUS
370
    -3
390
F
  0
LAYER
  5
200
330
2
100
AcDbSymbolTableRecord
100
AcDbLayerTableRecord
  2
HILFEN
 70
     0
 62
     7
  6
CONTINUOUS
370
    -3
390
F
  0
LAYER
  5
201
330
2
100
AcDbSymbolTableRecord
100
AcDbLayerTableRecord
  2
PLATZIERUNG
 70
     0
 62
     7
  6
CONTINUOUS
370
    -3
390
F
  0
LAYER
  5
202
330
2
100
AcDbSymbolTableRecord
100
AcDbLayerTableRecord
  2
RUNDUNGEN
 70
     0
 62
     7
  6
CONTINUOUS
370
    -3
390
F
  0
LAYER
  5
203
330
2
100
AcDbSymbolTableRecord
100
AcDbLayerTableRecord
  2
TEIL_STARTBEZUEGE
 70
     0
 62
     7
  6
CONTINUOUS
370
    -3
390
F
  0
LAYER
  5
204
330
2
100
AcDbSymbolTableRecord
100
AcDbLayerTableRecord
  2
ZEICHNUNGSBEMASSUNGEN
 70
     0
 62
     7
  6
CONTINUOUS
370
    -3
390
F
  0
LAYER
  5
4F8
330
2
100
AcDbSymbolTableRecord
100
AcDbLayerTableRecord
  2
Defpoints
 70
     0
 62
     7
  6
CONTINUOUS
290
     0
370
    -3
390
F
  0
LAYER
  5
52F
330
2
100
AcDbSymbolTableRecord
100
AcDbLayerTableRecord
  2
AM_5
 70
     0
 62
     3
  6
CONTINUOUS
370
    25
390
F
1001
AcAecLayerStandard
1000

1000

  0
LAYER
  5
B9F
102
{ACAD_XDICTIONARY
360
BA0
102
}
330
2
100
AcDbSymbolTableRecord
100
AcDbLayerTableRecord
  2
P-0000
 70
     0
 62
     7
  6
CONTINUOUS
370
    -3
390
F
  0
LAYER
  5
1DA3
330
2
100
AcDbSymbolTableRecord
100
AcDbLayerTableRecord
  2
AM_CL
 70
     0
 62
     1
  6
Amconstr
370
    25
390
F
1001
AcAecLayerStandard
1000

1000

  0
ENDTAB
  0
TABLE
  2
STYLE
  5
3
330
0
100
AcDbSymbolTable
 70
     6
  0
STYLE
  5
11
330
3
100
AcDbSymbolTableRecord
100
AcDbTextStyleTableRecord
  2
STANDARD
 70
     0
 40
0.0
 41
0.7
 50
0.0
 71
     0
 42
0.2
  3
txt
  4

  0
STYLE
  5
205
330
3
100
AcDbSymbolTableRecord
100
AcDbTextStyleTableRecord
  2
TEXTSTYLE_1
 70
     0
 40
0.0
 41
0.8
 50
0.0
 71
     0
 42
0.2
  3
gdt
  4

  0
STYLE
  5
206
330
3
100
AcDbSymbolTableRecord
100
AcDbTextStyleTableRecord
  2
TEXTSTYLE_2
 70
     0
 40
0.0
 41
0.6
 50
0.0
 71
     0
 42
0.2
  3
txt
  4

  0
STYLE
  5
45A
330
3
100
AcDbSymbolTableRecord
100
AcDbTextStyleTableRecord
  2

 70
     1
 40
0.0
 41
1.0
 50
0.0
 71
     0
 42
0.2
  3
genltshp.shx
  4

  0
STYLE
  5
46D
330
3
100
AcDbSymbolTableRecord
100
AcDbTextStyleTableRecord
  2
ACDINTS
 70
     0
 40
1.0
 41
1.0
 50
0.0
 71
     0
 42
0.2
  3
isocp.shx
  4

  0
STYLE
  5
46E
330
3
100
AcDbSymbolTableRecord
100
AcDbTextStyleTableRecord
  2
ACDINGDT
 70
     0
 40
0.0
 41
1.0
 50
0.0
 71
     0
 42
0.2
  3
amgdt.shx
  4

  0
ENDTAB
  0
TABLE
  2
VIEW
  5
6
330
0
100
AcDbSymbolTable
 70
     0
  0
ENDTAB
  0
TABLE
  2
UCS
  5
7
330
0
100
AcDbSymbolTable
 70
     0
  0
ENDTAB
  0
TABLE
  2
APPID
  5
9
330
0
100
AcDbSymbolTable
 70
    19
  0
APPID
  5
207
330
9
100
AcDbSymbolTableRecord
100
AcDbRegAppTableRecord
  2
ACAD
 70
     0
  0
APPID
  5
3E0
330
9
100
AcDbSymbolTableRecord
100
AcDbRegAppTableRecord
  2
MCAD_NO_VIS
 70
     0
  0
APPID
  5
3E1
330
9
100
AcDbSymbolTableRecord
100
AcDbRegAppTableRecord
  2
ACAD_TEMP_GRAPHIC
 70
     0
  0
APPID
  5
40D
330
9
100
AcDbSymbolTableRecord
100
AcDbRegAppTableRecord
  2
AD_DRAW
 70
     0
  0
APPID
  5
410
330
9
100
AcDbSymbolTableRecord
100
AcDbRegAppTableRecord
  2
ACATTRIBSERVICES
 70
     0
  0
APPID
  5
430
330
9
100
AcDbSymbolTableRecord
100
AcDbRegAppTableRecord
  2
DESIGNERASSEMBLIES
 70
     0
  0
APPID
  5
436
330
9
100
AcDbSymbolTableRecord
100
AcDbRegAppTableRecord
  2
ACADM_DIM_EDIT
 70
     0
  0
APPID
  5
437
330
9
100
AcDbSymbolTableRecord
100
AcDbRegAppTableRecord
  2
AMDT_DM_ADJ
 70
     0
  0
APPID
  5
450
330
9
100
AcDbSymbolTableRecord
100
AcDbRegAppTableRecord
  2
ACAD_DSTYLE_DIMJAG
 70
     0
  0
APPID
  5
451
330
9
100
AcDbSymbolTableRecord
100
AcDbRegAppTableRecord
  2
ACAD_DSTYLE_DIMBREAK
 70
     0
  0
APPID
  5
530
330
9
100
AcDbSymbolTableRecord
100
AcDbRegAppTableRecord
  2
AcAecLayerStandard
 70
     0
  0
APPID
  5
793
330
9
100
AcDbSymbolTableRecord
100
AcDbRegAppTableRecord
  2
GENIUS_GENDTOL_13
 70
     0
  0
APPID
  5
794
330
9
100
AcDbSymbolTableRecord
100
AcDbRegAppTableRecord
  2
ACAD_DSTYLE_DIMINSPECT
 70
     0
  0
APPID
  5
837
330
9
100
AcDbSymbolTableRecord
100
AcDbRegAppTableRecord
  2
ACAD_MLEADERVER
 70
     0
  0
APPID
  5
838
330
9
100
AcDbSymbolTableRecord
100
AcDbRegAppTableRecord
  2
ACAD_DSTYLE_DIMJOGGED_JOGANGLE_SYMBOL
 70
     0
  0
APPID
  5
839
330
9
100
AcDbSymbolTableRecord
100
AcDbRegAppTableRecord
  2
ACAD_DSTYLE_DIM_LINETYPE
 70
     0
  0
APPID
  5
83A
330
9
100
AcDbSymbolTableRecord
100
AcDbRegAppTableRecord
  2
ACAD_DSTYLE_DIM_EXT1_LINETYPE
 70
     0
  0
APPID
  5
83B
330
9
100
AcDbSymbolTableRecord
100
AcDbRegAppTableRecord
  2
ACAD_DSTYLE_DIM_EXT2_LINETYPE
 70
     0
  0
APPID
  5
2537
330
9
100
AcDbSymbolTableRecord
100
AcDbRegAppTableRecord
  2
ACAD_EXEMPT_FROM_CAD_STANDARDS
 70
     0
  0
ENDTAB
  0
TABLE
  2
DIMSTYLE
  5
A
330
0
100
AcDbSymbolTable
 70
    14
100
AcDbDimStyleTable
 71
     3
340
20F
340
BA1
340
211
  0
DIMSTYLE
105
20F
330
A
100
AcDbSymbolTableRecord
100
AcDbDimStyleTableRecord
  2
STANDARD
 70
     0
 41
3.5
 42
1.5
 44
1.5
 47
0.005
 48
0.005
 71
     1
 73
     0
 74
     0
 77
     1
 78
     8
140
3.5
147
0.625
178
     5
271
     3
272
     3
284
     8
340
11
341
20A
342
20A
343
20A
344
20A
  0
DIMSTYLE
105
210
330
A
100
AcDbSymbolTableRecord
100
AcDbDimStyleTableRecord
  2
DIMSTYLE_1
 70
     0
 41
3.5
 42
1.5
 44
1.5
 48
1.0
 71
     1
 73
     0
 74
     0
 77
     1
 78
     8
140
3.5
146
0.6
147
0.875
178
     5
271
     3
272
     3
284
     8
340
11
341
20A
342
20A
343
20A
344
20A
  0
DIMSTYLE
105
211
330
A
100
AcDbSymbolTableRecord
100
AcDbDimStyleTableRecord
  2
DIMSTYLE_2
 70
     0
 41
3.5
 42
1.5
 44
1.5
 47
0.3
 48
0.3
 73
     0
 74
     0
 77
     1
 78
     8
140
3.5
147
0.875
178
     5
271
     3
272
     3
284
     8
340
11
341
20A
342
20A
343
20A
344
20A
  0
DIMSTYLE
105
212
330
A
100
AcDbSymbolTableRecord
100
AcDbDimStyleTableRecord
  2
DIMSTYLE_3
 70
     0
 41
3.5
 42
1.5
 44
1.5
 48
1.0
 71
     1
 73
     0
 74
     0
 77
     1
 78
     8
140
3.5
146
0.6
147
0.875
178
     5
271
     2
272
     2
284
     8
340
11
341
20A
342
20A
343
20A
344
20A
  0
DIMSTYLE
105
44F
102
{ACAD_REACTORS
330
251A
102
}
330
A
100
AcDbSymbolTableRecord
100
AcDbDimStyleTableRecord
  2
AM_DIN
 70
     0
  4
"
 41
3.5
 42
1.0
 43
10.0
 44
1.0
 47
0.1
 48
0.1
 73
     0
 74
     0
 77
     1
 78
     8
 79
     2
140
3.5
141
0.0
143
0.0393701
146
0.71
147
1.5
172
     1
176
   256
177
   256
178
     2
271
     2
272
     3
274
     4
283
     0
284
     8
340
11
371
    -1
372
    -1
1001
ACAD_DSTYLE_DIMJAG
1070
   388
1040
1.5
1001
ACAD_DSTYLE_DIMBREAK
1070
   391
1040
3.75
1001
ACAD_DSTYLE_DIMJOGGED_JOGANGLE_SYMBOL
1070
   384
1040
1.570796326794896
1001
ACAD_DSTYLE_DIM_LINETYPE
1070
   380
1005
14
1001
ACAD_DSTYLE_DIM_EXT1_LINETYPE
1070
   381
1005
14
1001
ACAD_DSTYLE_DIM_EXT2_LINETYPE
1070
   382
1005
14
  0
DIMSTYLE
105
461
330
A
100
AcDbSymbolTableRecord
100
AcDbDimStyleTableRecord
  2
AM_DIN$3
 70
     0
  4
"
 41
3.5
 42
1.0
 43
10.0
 44
1.0
 47
0.1
 48
0.1
 73
     0
 77
     1
 78
     8
 79
     2
140
3.5
141
0.0
143
0.0393701
146
0.71
147
1.5
176
   256
177
   256
178
     2
271
     2
272
     3
274
     4
283
     0
284
     8
288
     1
289
     0
340
11
371
    -1
372
    -1
1001
ACAD_DSTYLE_DIMBREAK
1070
   391
1040
3.75
1001
ACAD_DSTYLE_DIMJAG
1070
   388
1040
1.5
1001
ACAD_DSTYLE_DIMJOGGED_JOGANGLE_SYMBOL
1070
   384
1040
1.570796326794896
1001
ACAD_DSTYLE_DIM_LINETYPE
1070
   380
1005
14
1001
ACAD_DSTYLE_DIM_EXT1_LINETYPE
1070
   381
1005
14
1001
ACAD_DSTYLE_DIM_EXT2_LINETYPE
1070
   382
1005
14
  0
DIMSTYLE
105
462
330
A
100
AcDbSymbolTableRecord
100
AcDbDimStyleTableRecord
  2
AM_DIN$4
 70
     0
  4
"
 41
3.5
 42
1.0
 43
10.0
 44
1.0
 47
0.1
 48
0.1
 73
     0
 77
     1
 78
     8
 79
     2
140
3.5
141
0.0
143
0.0393701
146
0.71
147
1.5
176
   256
177
   256
178
     2
271
     2
272
     3
274
     4
283
     0
284
     8
288
     1
289
     0
340
11
371
    -1
372
    -1
1001
ACAD_DSTYLE_DIMBREAK
1070
   391
1040
3.75
1001
ACAD_DSTYLE_DIMJAG
1070
   388
1040
1.5
1001
ACAD_DSTYLE_DIMJOGGED_JOGANGLE_SYMBOL
1070
   384
1040
1.570796326794896
1001
ACAD_DSTYLE_DIM_LINETYPE
1070
   380
1005
14
1001
ACAD_DSTYLE_DIM_EXT1_LINETYPE
1070
   381
1005
14
1001
ACAD_DSTYLE_DIM_EXT2_LINETYPE
1070
   382
1005
14
  0
DIMSTYLE
105
463
330
A
100
AcDbSymbolTableRecord
100
AcDbDimStyleTableRecord
  2
AM_DIN$6
 70
     0
  4
"
 41
3.5
 42
1.0
 43
10.0
 44
1.0
 47
0.1
 48
0.1
 73
     0
 74
     0
 78
     8
 79
     2
140
3.5
141
0.0
143
0.0393701
146
0.71
147
1.5
172
     1
176
   256
177
   256
178
     2
271
     2
272
     3
274
     4
283
     0
284
     8
340
11
371
    -1
372
    -1
1001
ACAD_DSTYLE_DIMBREAK
1070
   391
1040
3.75
1001
ACAD_DSTYLE_DIMJAG
1070
   388
1040
1.5
1001
ACAD_DSTYLE_DIMJOGGED_JOGANGLE_SYMBOL
1070
   384
1040
1.570796326794896
1001
ACAD_DSTYLE_DIM_LINETYPE
1070
   380
1005
14
1001
ACAD_DSTYLE_DIM_EXT1_LINETYPE
1070
   381
1005
14
1001
ACAD_DSTYLE_DIM_EXT2_LINETYPE
1070
   382
1005
14
  0
DIMSTYLE
105
464
330
A
100
AcDbSymbolTableRecord
100
AcDbDimStyleTableRecord
  2
AM_DIN$7
 70
     0
  4
"
 41
3.5
 42
1.0
 43
10.0
 44
1.0
 47
0.1
 48
0.1
 73
     0
 74
     0
 77
     1
 78
     8
 79
     2
140
3.5
141
0.0
143
0.0393701
146
0.71
147
1.5
172
     1
176
   256
177
   256
178
     2
271
     2
272
     3
274
     4
283
     0
284
     8
340
11
371
    -1
372
    -1
1001
ACAD_DSTYLE_DIMBREAK
1070
   391
1040
3.75
1001
ACAD_DSTYLE_DIMJAG
1070
   388
1040
1.5
1001
ACAD_DSTYLE_DIMJOGGED_JOGANGLE_SYMBOL
1070
   384
1040
1.570796326794896
1001
ACAD_DSTYLE_DIM_LINETYPE
1070
   380
1005
14
1001
ACAD_DSTYLE_DIM_EXT1_LINETYPE
1070
   381
1005
14
1001
ACAD_DSTYLE_DIM_EXT2_LINETYPE
1070
   382
1005
14
  0
DIMSTYLE
105
465
330
A
100
AcDbSymbolTableRecord
100
AcDbDimStyleTableRecord
  2
AM_DIN$SF
 70
     0
  4
"
 41
3.5
 42
1.0
 43
10.0
 44
1.0
 47
0.1
 48
0.1
 73
     0
 74
     0
 75
     1
 76
     1
 77
     1
 78
     8
 79
     2
140
3.5
141
0.0
143
0.0393701
146
0.71
147
1.5
172
     1
176
   256
177
   256
178
     2
271
     2
272
     3
274
     4
283
     0
284
     8
340
11
371
    -1
372
    -1
1001
ACAD_DSTYLE_DIMBREAK
1070
   391
1040
3.75
1001
ACAD_DSTYLE_DIMJAG
1070
   388
1040
1.5
1001
ACAD_DSTYLE_DIMJOGGED_JOGANGLE_SYMBOL
1070
   384
1040
1.570796326794896
1001
ACAD_DSTYLE_DIM_LINETYPE
1070
   380
1005
14
1001
ACAD_DSTYLE_DIM_EXT1_LINETYPE
1070
   381
1005
14
1001
ACAD_DSTYLE_DIM_EXT2_LINETYPE
1070
   382
1005
14
  0
DIMSTYLE
105
46A
330
A
100
AcDbSymbolTableRecord
100
AcDbDimStyleTableRecord
  2
AM_DIN$SH
 70
     0
  4
"
 41
3.5
 42
1.0
 43
10.0
 44
1.0
 47
0.1
 48
0.1
 73
     0
 74
     0
 75
     1
 76
     1
 77
     1
 78
     8
 79
     2
140
3.5
141
0.0
143
0.0393701
144
2.0
146
0.71
147
1.5
172
     1
173
     1
176
   256
177
   256
178
     2
271
     2
272
     3
274
     4
283
     0
284
     8
340
11
343
466
371
    -1
372
    -1
1001
ACAD_DSTYLE_DIMBREAK
1070
   391
1040
3.75
1001
ACAD_DSTYLE_DIMJAG
1070
   388
1040
1.5
1001
ACAD_DSTYLE_DIMJOGGED_JOGANGLE_SYMBOL
1070
   384
1040
1.570796326794896
1001
ACAD_DSTYLE_DIM_LINETYPE
1070
   380
1005
14
1001
ACAD_DSTYLE_DIM_EXT1_LINETYPE
1070
   381
1005
14
1001
ACAD_DSTYLE_DIM_EXT2_LINETYPE
1070
   382
1005
14
  0
DIMSTYLE
105
BA1
102
{ACAD_REACTORS
330
23E
330
240
330
241
330
23F
102
}
330
A
100
AcDbSymbolTableRecord
100
AcDbDimStyleTableRecord
  2
883N99122_001_00149479900
 70
     0
 40
2.0
 41
3.149999999999999
 42
0.0
 43
3.75
 44
2.0
 73
     0
 74
     0
 77
     1
 78
     8
 79
     2
140
3.5
141
0.0
143
0.03937007874016
145
2.0
147
2.0
171
     3
172
     1
173
     1
176
     3
177
     3
178
     2
179
     2
271
     2
272
     2
274
     3
283
     0
284
     8
340
11
341
B9C
  0
DIMSTYLE
105
1DE6
330
A
100
AcDbSymbolTableRecord
100
AcDbDimStyleTableRecord
  2
STANDARD$0
 70
     0
 41
3.5
 42
1.5
 44
1.5
 47
0.005
 48
0.005
 71
     1
 73
     0
 74
     0
 77
     1
 78
     8
140
3.5
147
0.625
178
     5
271
     3
272
     3
284
     8
340
11
341
20A
342
20A
343
20A
344
20A
1001
ACAD_DSTYLE_DIMBREAK
1070
   391
1040
3.75
1001
ACAD_DSTYLE_DIMJAG
1070
   388
1040
1.5
  0
ENDTAB
  0
TABLE
  2
BLOCK_RECORD
  5
1
330
0
100
AcDbSymbolTable
 70
    32
  0
BLOCK_RECORD
  5
208
102
{ACAD_XDICTIONARY
360
1F71
102
}
330
1
100
AcDbSymbolTableRecord
100
AcDbBlockTableRecord
  2
*Model_Space
340
390
  0
BLOCK_RECORD
  5
209
330
1
100
AcDbSymbolTableRecord
100
AcDbBlockTableRecord
  2
*Paper_Space
340
391
  0
BLOCK_RECORD
  5
20A
330
1
100
AcDbSymbolTableRecord
100
AcDbBlockTableRecord
  2
_FILLED
340
0
102
{BLKREFS
331
8D4
331
8D5
331
8BC
331
8BD
331
8C8
331
8C9
331
A8A
331
A8B
331
A93
331
A94
331
A9C
331
A9D
331
1E1A
331
1E1B
331
1E52
331
1E53
331
1E85
331
1E86
331
1EB3
331
1EB4
331
1EE1
331
1EE2
331
2373
331
2374
331
23CF
331
23D0
331
23F3
331
23F4
331
2421
331
2422
331
244F
331
2450
102
}
  0
BLOCK_RECORD
  5
20B
330
1
100
AcDbSymbolTableRecord
100
AcDbBlockTableRecord
  2
*D1
340
0
  0
BLOCK_RECORD
  5
20C
330
1
100
AcDbSymbolTableRecord
100
AcDbBlockTableRecord
  2
*D2
340
0
  0
BLOCK_RECORD
  5
20D
330
1
100
AcDbSymbolTableRecord
100
AcDbBlockTableRecord
  2
*D3
340
0
  0
BLOCK_RECORD
  5
20E
330
1
100
AcDbSymbolTableRecord
100
AcDbBlockTableRecord
  2
*D4
340
0
  0
BLOCK_RECORD
  5
466
330
1
100
AcDbSymbolTableRecord
100
AcDbBlockTableRecord
  2
GENAXEH
340
0
  0
BLOCK_RECORD
  5
8B7
330
1
100
AcDbSymbolTableRecord
100
AcDbBlockTableRecord
  2
*D6
340
0
  0
BLOCK_RECORD
  5
8C3
330
1
100
AcDbSymbolTableRecord
100
AcDbBlockTableRecord
  2
*D7
340
0
  0
BLOCK_RECORD
  5
8CF
330
1
100
AcDbSymbolTableRecord
100
AcDbBlockTableRecord
  2
*D8
340
0
  0
BLOCK_RECORD
  5
A63
330
1
100
AcDbSymbolTableRecord
100
AcDbBlockTableRecord
  2
*D9
340
0
  0
BLOCK_RECORD
  5
A6F
330
1
100
AcDbSymbolTableRecord
100
AcDbBlockTableRecord
  2
*D10
340
0
  0
BLOCK_RECORD
  5
A7B
330
1
100
AcDbSymbolTableRecord
100
AcDbBlockTableRecord
  2
*D11
340
0
  0
BLOCK_RECORD
  5
B75
330
1
100
AcDbSymbolTableRecord
100
AcDbBlockTableRecord
  2
*D12
340
0
  0
BLOCK_RECORD
  5
B82
330
1
100
AcDbSymbolTableRecord
100
AcDbBlockTableRecord
  2
*D13
340
0
  0
BLOCK_RECORD
  5
B8F
330
1
100
AcDbSymbolTableRecord
100
AcDbBlockTableRecord
  2
*D14
340
0
  0
BLOCK_RECORD
  5
B9C
330
1
100
AcDbSymbolTableRecord
100
AcDbBlockTableRecord
  2
_None
340
0
  0
BLOCK_RECORD
  5
D2C
330
1
100
AcDbSymbolTableRecord
100
AcDbBlockTableRecord
  2
*D16
340
0
  0
BLOCK_RECORD
  5
D39
330
1
100
AcDbSymbolTableRecord
100
AcDbBlockTableRecord
  2
*D17
340
0
  0
BLOCK_RECORD
  5
D46
330
1
100
AcDbSymbolTableRecord
100
AcDbBlockTableRecord
  2
*D18
340
0
  0
BLOCK_RECORD
  5
1BE1
330
1
100
AcDbSymbolTableRecord
100
AcDbBlockTableRecord
  2
A$C00CD4B85
340
0
1001
ACAD
1000
DesignCenter Data
1002
{
1070
     1
1070
     4
1002
}
  0
BLOCK_RECORD
  5
1DE9
330
1
100
AcDbSymbolTableRecord
100
AcDbBlockTableRecord
  2
*D20
340
0
  0
BLOCK_RECORD
  5
1E21
330
1
100
AcDbSymbolTableRecord
100
AcDbBlockTableRecord
  2
*D21
340
0
  0
BLOCK_RECORD
  5
1E59
330
1
100
AcDbSymbolTableRecord
100
AcDbBlockTableRecord
  2
*D22
340
0
  0
BLOCK_RECORD
  5
1E8C
330
1
100
AcDbSymbolTableRecord
100
AcDbBlockTableRecord
  2
*D23
340
0
  0
BLOCK_RECORD
  5
1EBA
330
1
100
AcDbSymbolTableRecord
100
AcDbBlockTableRecord
  2
*D24
340
0
  0
BLOCK_RECORD
  5
234C
330
1
100
AcDbSymbolTableRecord
100
AcDbBlockTableRecord
  2
*D25
340
0
  0
BLOCK_RECORD
  5
23A8
330
1
100
AcDbSymbolTableRecord
100
AcDbBlockTableRecord
  2
*D26
340
0
  0
BLOCK_RECORD
  5
23D6
330
1
100
AcDbSymbolTableRecord
100
AcDbBlockTableRecord
  2
*D27
340
0
  0
BLOCK_RECORD
  5
23FA
330
1
100
AcDbSymbolTableRecord
100
AcDbBlockTableRecord
  2
*D28
340
0
  0
BLOCK_RECORD
  5
2428
330
1
100
AcDbSymbolTableRecord
100
AcDbBlockTableRecord
  2
*D29
340
0
  0
ENDTAB
  0
ENDSEC
  0
SECTION
  2
BLOCKS
  0
BLOCK
  5
20
330
208
100
AcDbEntity
  8
0
100
AcDbBlockBegin
  2
*Model_Space
 70
     0
 10
0.0
 20
0.0
 30
0.0
  3
*Model_Space
  1

  0
ENDBLK
  5
21
330
208
100
AcDbEntity
  8
0
100
AcDbBlockEnd
  0
BLOCK
  5
1C
330
209
100
AcDbEntity
 67
     1
  8
0
100
AcDbBlockBegin
  2
*Paper_Space
 70
     0
 10
0.0
 20
0.0
 30
0.0
  3
*Paper_Space
  1

  0
ENDBLK
  5
1D
330
209
100
AcDbEntity
 67
     1
  8
0
100
AcDbBlockEnd
  0
BLOCK
  5
213
330
20A
100
AcDbEntity
  8
0
100
AcDbBlockBegin
  2
_FILLED
 70
     0
 10
0.0
 20
0.0
 30
0.0
  3
_FILLED
  1

  0
SOLID
  5
214
330
20A
100
AcDbEntity
  8
0
  6
ByBlock
 62
     0
100
AcDbTrace
 10
0.0
 20
0.0
 30
0.0
 11
-1.0
 21
0.125
 31
0.0
 12
-1.0
 22
-0.125
 32
0.0
 13
-1.0
 23
-0.125
 33
0.0
  0
ENDBLK
  5
215
330
20A
100
AcDbEntity
  8
0
  6
ByBlock
 62
     0
100
AcDbBlockEnd
  0
BLOCK
  5
216
330
20B
100
AcDbEntity
  8
ZEICHNUNGSBEMASSUNGEN
  6
Continuous
 62
     2
100
AcDbBlockBegin
  2
*D1
 70
     1
 10
0.0
 20
0.0
 30
0.0
  3
*D1
  1

  0
LINE
  5
21C2
330
20B
100
AcDbEntity
  8
P-0000
  6
Continuous
 62
     3
370
    -2
100
AcDbLine
 10
-450.7820217571
 20
128.8332165957
 30
0.0
 11
-450.7820217571
 21
98.09444947790002
 31
0.0
  0
LINE
  5
21C3
330
20B
100
AcDbEntity
  8
P-0000
  6
Continuous
 62
     3
370
    -2
100
AcDbLine
 10
715.2179782428999
 20
128.8332165957
 30
0.0
 11
715.2179782428999
 21
98.09444947790002
 31
0.0
  0
LINE
  5
21C4
330
20B
100
AcDbEntity
  8
P-0000
  6
Continuous
 62
     3
370
    -2
100
AcDbLine
 10
-444.4820217570998
 20
102.0944494779
 30
0.0
 11
120.8679782429
 21
102.0944494779
 31
0.0
  0
LINE
  5
21C5
330
20B
100
AcDbEntity
  8
P-0000
  6
Continuous
 62
     3
370
    -2
100
AcDbLine
 10
708.9179782428999
 20
102.0944494779
 30
0.0
 11
143.5679782429
 21
102.0944494779
 31
0.0
  0
MTEXT
  5
21C6
330
20B
100
AcDbEntity
  8
P-0000
  6
Continuous
 62
     2
100
AcDbMText
 10
132.2179782429
 20
105.5944494779
 30
0.0
 40
7.0
 41
0.0
 71
     2
 72
     1
  1
1166
 73
     1
 44
1.0
1001
ACAD
1000
MTEXTBEGIN
1070
    73
1070
     1
1070
    44
1040
1.0
1070
    74
1070
     0
1000
MTEXTEND
  0
SOLID
  5
21C7
330
20B
100
AcDbEntity
  8
P-0000
  6
Continuous
 62
     3
100
AcDbTrace
 10
-444.4820217570998
 20
103.1444494779
 30
0.0
 11
-444.4820217570998
 21
101.0444494779
 31
0.0
 12
-450.7820217571
 22
102.0944494779
 32
0.0
 13
-450.7820217571
 23
102.0944494779
 33
0.0
  0
SOLID
  5
21C8
330
20B
100
AcDbEntity
  8
P-0000
  6
Continuous
 62
     3
100
AcDbTrace
 10
708.9179782428999
 20
103.1444494779
 30
0.0
 11
708.9179782428999
 21
101.0444494779
 31
0.0
 12
715.2179782428999
 22
102.0944494779
 32
0.0
 13
715.2179782428999
 23
102.0944494779
 33
0.0
  0
POINT
  5
21C9
330
20B
100
AcDbEntity
  8
Defpoints
  6
Continuous
 62
     0
100
AcDbPoint
 10
-450.7820217571
 20
128.8332165957
 30
0.0
  0
POINT
  5
21CA
330
20B
100
AcDbEntity
  8
Defpoints
  6
Continuous
 62
     0
100
AcDbPoint
 10
715.2179782428999
 20
128.8332165957
 30
0.0
  0
POINT
  5
21CB
330
20B
100
AcDbEntity
  8
Defpoints
  6
Continuous
 62
     0
100
AcDbPoint
 10
715.2179782428999
 20
102.0944494779
 30
0.0
  0
ENDBLK
  5
220
330
20B
100
AcDbEntity
  8
0
  6
ByBlock
 62
     0
100
AcDbBlockEnd
  0
BLOCK
  5
221
330
20C
100
AcDbEntity
  8
ZEICHNUNGSBEMASSUNGEN
  6
Continuous
 62
     2
100
AcDbBlockBegin
  2
*D2
 70
     1
 10
0.0
 20
0.0
 30
0.0
  3
*D2
  1

  0
LINE
  5
21B8
330
20C
100
AcDbEntity
  8
P-0000
  6
Continuous
 62
     3
370
    -2
100
AcDbLine
 10
717.7179782428999
 20
121.5832165957
 30
0.0
 11
735.0929317268
 21
121.5832165957
 31
0.0
  0
LINE
  5
21B9
330
20C
100
AcDbEntity
  8
P-0000
  6
Continuous
 62
     3
370
    -2
100
AcDbLine
 10
717.7179782428999
 20
184.5832165957
 30
0.0
 11
735.0929317268
 21
184.5832165957
 31
0.0
  0
LINE
  5
21BA
330
20C
100
AcDbEntity
  8
P-0000
  6
Continuous
 62
     3
370
    -2
100
AcDbLine
 10
731.0929317268
 20
127.8832165957
 30
0.0
 11
731.0929317268
 21
144.9998832623665
 31
0.0
  0
LINE
  5
21BB
330
20C
100
AcDbEntity
  8
P-0000
  6
Continuous
 62
     3
370
    -2
100
AcDbLine
 10
731.0929317268
 20
178.2832165957
 30
0.0
 11
731.0929317268
 21
161.1665499290332
 31
0.0
  0
MTEXT
  5
21BC
330
20C
100
AcDbEntity
  8
P-0000
  6
Continuous
 62
     2
100
AcDbMText
 10
727.5929317267999
 20
153.0832165957
 30
0.0
 40
7.0
 41
0.0
 71
     2
 72
     1
  1
63
 11
0.0000000000000001
 21
1.0
 31
0.0
 73
     1
 44
1.0
1001
ACAD
1000
MTEXTBEGIN
1070
    73
1070
     1
1070
    44
1040
1.0
1070
    74
1070
     0
1000
MTEXTEND
  0
SOLID
  5
21BD
330
20C
100
AcDbEntity
  8
P-0000
  6
Continuous
 62
     3
100
AcDbTrace
 10
730.0429317267998
 20
127.8832165957
 30
0.0
 11
732.1429317267999
 21
127.8832165957
 31
0.0
 12
731.0929317268
 22
121.5832165957
 32
0.0
 13
731.0929317268
 23
121.5832165957
 33
0.0
  0
SOLID
  5
21BE
330
20C
100
AcDbEntity
  8
P-0000
  6
Continuous
 62
     3
100
AcDbTrace
 10
730.0429317267998
 20
178.2832165957
 30
0.0
 11
732.1429317267999
 21
178.2832165957
 31
0.0
 12
731.0929317268
 22
184.5832165957
 32
0.0
 13
731.0929317268
 23
184.5832165957
 33
0.0
  0
POINT
  5
21BF
330
20C
100
AcDbEntity
  8
Defpoints
  6
Continuous
 62
     0
100
AcDbPoint
 10
717.7179782428999
 20
121.5832165957
 30
0.0
  0
POINT
  5
21C0
330
20C
100
AcDbEntity
  8
Defpoints
  6
Continuous
 62
     0
100
AcDbPoint
 10
717.7179782428999
 20
184.5832165957
 30
0.0
  0
POINT
  5
21C1
330
20C
100
AcDbEntity
  8
Defpoints
  6
Continuous
 62
     0
100
AcDbPoint
 10
731.0929317268
 20
184.5832165957
 30
0.0
  0
ENDBLK
  5
229
330
20C
100
AcDbEntity
  8
0
  6
ByBlock
 62
     0
100
AcDbBlockEnd
  0
BLOCK
  5
22A
330
20D
100
AcDbEntity
  8
ZEICHNUNGSBEMASSUNGEN
  6
Continuous
 62
     2
100
AcDbBlockBegin
  2
*D3
 70
     1
 10
0.0
 20
0.0
 30
0.0
  3
*D3
  1

  0
LINE
  5
219A
330
20D
100
AcDbEntity
  8
P-0000
  6
Continuous
 62
     3
370
    -2
100
AcDbLine
 10
-449.0320217570998
 20
179.0832165957
 30
0.0
 11
-470.6713935623999
 21
179.0832165957
 31
0.0
  0
LINE
  5
219B
330
20D
100
AcDbEntity
  8
P-0000
  6
Continuous
 62
     3
370
    -2
100
AcDbLine
 10
-449.0320217570998
 20
127.0832165957
 30
0.0
 11
-470.6713935624
 21
127.0832165957
 31
0.0
  0
LINE
  5
219C
330
20D
100
AcDbEntity
  8
P-0000
  6
Continuous
 62
     3
370
    -2
100
AcDbLine
 10
-466.6713935623999
 20
172.7832165957
 30
0.0
 11
-466.6713935623999
 21
161.1665499290334
 31
0.0
  0
LINE
  5
219D
330
20D
100
AcDbEntity
  8
P-0000
  6
Continuous
 62
     3
370
    -2
100
AcDbLine
 10
-466.6713935623999
 20
133.3832165957
 30
0.0
 11
-466.6713935623999
 21
144.9998832623667
 31
0.0
  0
MTEXT
  5
219E
330
20D
100
AcDbEntity
  8
P-0000
  6
Continuous
 62
     2
100
AcDbMText
 10
-470.1713935624
 20
153.0832165957
 30
0.0
 40
7.0
 41
0.0
 71
     2
 72
     1
  1
52
 11
0.0000000000000001
 21
1.0
 31
0.0
 73
     1
 44
1.0
1001
ACAD
1000
MTEXTBEGIN
1070
    73
1070
     1
1070
    44
1040
1.0
1070
    74
1070
     0
1000
MTEXTEND
  0
SOLID
  5
219F
330
20D
100
AcDbEntity
  8
P-0000
  6
Continuous
 62
     3
100
AcDbTrace
 10
-467.7213935623998
 20
172.7832165957
 30
0.0
 11
-465.6213935623999
 21
172.7832165957
 31
0.0
 12
-466.6713935623999
 22
179.0832165957
 32
0.0
 13
-466.6713935623999
 23
179.0832165957
 33
0.0
  0
SOLID
  5
21A0
330
20D
100
AcDbEntity
  8
P-0000
  6
Continuous
 62
     3
100
AcDbTrace
 10
-467.7213935623998
 20
133.3832165957
 30
0.0
 11
-465.6213935623999
 21
133.3832165957
 31
0.0
 12
-466.6713935624
 22
127.0832165957
 32
0.0
 13
-466.6713935624
 23
127.0832165957
 33
0.0
  0
POINT
  5
21A1
330
20D
100
AcDbEntity
  8
Defpoints
  6
Continuous
 62
     0
100
AcDbPoint
 10
-449.0320217570998
 20
179.0832165957
 30
0.0
  0
POINT
  5
21A2
330
20D
100
AcDbEntity
  8
Defpoints
  6
Continuous
 62
     0
100
AcDbPoint
 10
-449.0320217570998
 20
127.0832165957
 30
0.0
  0
POINT
  5
21A3
330
20D
100
AcDbEntity
  8
Defpoints
  6
Continuous
 62
     0
100
AcDbPoint
 10
-466.6713935624
 20
127.0832165957
 30
0.0
  0
ENDBLK
  5
232
330
20D
100
AcDbEntity
  8
0
  6
ByBlock
 62
     0
100
AcDbBlockEnd
  0
BLOCK
  5
233
330
20E
100
AcDbEntity
  8
0
  6
Continuous
 62
     2
100
AcDbBlockBegin
  2
*D4
 70
     1
 10
0.0
 20
0.0
 30
0.0
  3
*D4
  1

  0
LINE
  5
247D
330
20E
100
AcDbEntity
  8
P-0000
  6
Continuous
 62
     3
370
    -2
100
AcDbLine
 10
720.7615902300617
 20
238.2549251557
 30
0.0
 11
720.7615902300617
 21
214.1800417493796
 31
0.0
  0
LINE
  5
247E
330
20E
100
AcDbEntity
  8
P-0000
  6
Continuous
 62
     3
370
    -2
100
AcDbLine
 10
-456.2769925155726
 20
238.2549251557
 30
0.0
 11
-456.2769925155726
 21
214.1800417493796
 31
0.0
  0
LINE
  5
247F
330
20E
100
AcDbEntity
  8
P-0000
  6
Continuous
 62
     3
370
    -2
100
AcDbLine
 10
714.4615902300619
 20
218.1800417493796
 30
0.0
 11
-449.9769925155726
 21
218.1800417493796
 31
0.0
  0
SOLID
  5
2480
330
20E
100
AcDbEntity
  8
P-0000
  6
Continuous
 62
     3
100
AcDbTrace
 10
714.4615902300619
 20
219.2300417493796
 30
0.0
 11
714.4615902300619
 21
217.1300417493795
 31
0.0
 12
720.7615902300617
 22
218.1800417493796
 32
0.0
 13
720.7615902300617
 23
218.1800417493796
 33
0.0
  0
SOLID
  5
2481
330
20E
100
AcDbEntity
  8
P-0000
  6
Continuous
 62
     3
100
AcDbTrace
 10
-449.9769925155726
 20
219.2300417493796
 30
0.0
 11
-449.9769925155726
 21
217.1300417493795
 31
0.0
 12
-456.2769925155726
 22
218.1800417493796
 32
0.0
 13
-456.2769925155726
 23
218.1800417493796
 33
0.0
  0
MTEXT
  5
2482
330
20E
100
AcDbEntity
  8
P-0000
  6
Continuous
 62
     2
100
AcDbMText
 10
137.9402165078749
 20
229.1800417493796
 30
0.0
 40
7.0
 41
0.0
 71
     2
 72
     1
  1
1177
 73
     1
 44
1.0
1001
ACAD
1000
MTEXTBEGIN
1070
    73
1070
     1
1070
    44
1040
1.0
1070
    74
1070
     0
1000
MTEXTEND
  0
POINT
  5
2483
330
20E
100
AcDbEntity
  8
Defpoints
  6
Continuous
 62
     0
100
AcDbPoint
 10
720.7615902300617
 20
238.2549251557
 30
0.0
  0
POINT
  5
2484
330
20E
100
AcDbEntity
  8
Defpoints
  6
Continuous
 62
     0
100
AcDbPoint
 10
-456.2769925155726
 20
238.2549251557
 30
0.0
  0
POINT
  5
2485
330
20E
100
AcDbEntity
  8
Defpoints
  6
Continuous
 62
     0
100
AcDbPoint
 10
-456.2769925155726
 20
218.1800417493796
 30
0.0
  0
ENDBLK
  5
23D
330
20E
100
AcDbEntity
  8
0
  6
ByBlock
 62
     0
100
AcDbBlockEnd
  0
BLOCK
  5
468
330
466
100
AcDbEntity
  8
0
100
AcDbBlockBegin
  2
GENAXEH
 70
     0
 10
0.0
 20
0.0
 30
0.0
  3
GENAXEH
  1

  0
LINE
  5
467
330
466
100
AcDbEntity
  8
0
100
AcDbLine
 10
-1.0
 20
0.0
 30
0.0
 11
1.0
 21
0.0
 31
0.0
  0
ENDBLK
  5
469
330
466
100
AcDbEntity
  8
0
100
AcDbBlockEnd
  0
BLOCK
  5
8B8
330
8B7
100
AcDbEntity
  8
ZEICHNUNGSBEMASSUNGEN
  6
Continuous
 62
     2
100
AcDbBlockBegin
  2
*D6
 70
     1
 10
0.0
 20
0.0
 30
0.0
  3
*D6
  1

  0
LINE
  5
8B9
330
8B7
100
AcDbEntity
  8
ZEICHNUNGSBEMASSUNGEN
  6
Continuous
 62
     0
370
    -2
100
AcDbLine
 10
-150.7820217571
 20
127.3332165957
 30
0.0
 11
-150.7820217571
 21
100.5944494779
 31
0.0
  0
LINE
  5
8BA
330
8B7
100
AcDbEntity
  8
ZEICHNUNGSBEMASSUNGEN
  6
Continuous
 62
     0
370
    -2
100
AcDbLine
 10
415.2179782429
 20
127.3332165957
 30
0.0
 11
415.2179782429
 21
100.5944494779
 31
0.0
  0
LINE
  5
8BB
330
8B7
100
AcDbEntity
  8
ZEICHNUNGSBEMASSUNGEN
  6
Continuous
 62
     0
370
    -2
100
AcDbLine
 10
-147.2820217571
 20
102.0944494779
 30
0.0
 11
411.7179782428998
 21
102.0944494779
 31
0.0
  0
INSERT
  5
8BC
330
8B7
100
AcDbEntity
  8
ZEICHNUNGSBEMASSUNGEN
  6
Continuous
 62
     0
370
    -2
100
AcDbBlockReference
  2
_FILLED
 10
-150.7820217571
 20
102.0944494779
 30
0.0
 41
3.5
 42
3.5
 43
3.5
 50
180.0
  0
INSERT
  5
8BD
330
8B7
100
AcDbEntity
  8
ZEICHNUNGSBEMASSUNGEN
  6
Continuous
 62
     0
370
    -2
100
AcDbBlockReference
  2
_FILLED
 10
415.2179782429
 20
102.0944494779
 30
0.0
 41
3.5
 42
3.5
 43
3.5
  0
MTEXT
  5
8BE
330
8B7
100
AcDbEntity
  8
ZEICHNUNGSBEMASSUNGEN
  6
Continuous
 62
     5
100
AcDbMText
 10
132.2179782429
 20
112.4694494779
 30
0.0
 40
9.5
 41
0.0
 71
     2
 72
     1
  1
\A1;566
 73
     1
 44
1.0
1001
ACAD
1000
MTEXTBEGIN
1070
    73
1070
     1
1070
    44
1040
1.0
1070
    74
1070
     0
1000
MTEXTEND
  0
POINT
  5
8BF
330
8B7
100
AcDbEntity
  8
Defpoints
  6
Continuous
 62
     0
100
AcDbPoint
 10
-150.7820217571
 20
128.8332165957
 30
0.0
  0
POINT
  5
8C0
330
8B7
100
AcDbEntity
  8
Defpoints
  6
Continuous
 62
     0
100
AcDbPoint
 10
415.2179782429
 20
128.8332165957
 30
0.0
  0
POINT
  5
8C1
330
8B7
100
AcDbEntity
  8
Defpoints
  6
Continuous
 62
     0
100
AcDbPoint
 10
415.2179782429
 20
102.0944494779
 30
0.0
  0
ENDBLK
  5
8C2
330
8B7
100
AcDbEntity
  8
0
  6
ByBlock
 62
     0
100
AcDbBlockEnd
  0
BLOCK
  5
8C4
330
8C3
100
AcDbEntity
  8
ZEICHNUNGSBEMASSUNGEN
  6
Continuous
 62
     2
100
AcDbBlockBegin
  2
*D7
 70
     1
 10
0.0
 20
0.0
 30
0.0
  3
*D7
  1

  0
LINE
  5
8C5
330
8C3
100
AcDbEntity
  8
ZEICHNUNGSBEMASSUNGEN
  6
Continuous
 62
     0
370
    -2
100
AcDbLine
 10
419.2179782429
 20
121.5832165957
 30
0.0
 11
432.5929317267998
 21
121.5832165957
 31
0.0
  0
LINE
  5
8C6
330
8C3
100
AcDbEntity
  8
ZEICHNUNGSBEMASSUNGEN
  6
Continuous
 62
     0
370
    -2
100
AcDbLine
 10
419.2179782429
 20
184.5832165957
 30
0.0
 11
432.5929317267998
 21
184.5832165957
 31
0.0
  0
LINE
  5
8C7
330
8C3
100
AcDbEntity
  8
ZEICHNUNGSBEMASSUNGEN
  6
Continuous
 62
     0
370
    -2
100
AcDbLine
 10
431.0929317268
 20
125.0832165957
 30
0.0
 11
431.0929317268
 21
181.0832165957
 31
0.0
  0
INSERT
  5
8C8
330
8C3
100
AcDbEntity
  8
ZEICHNUNGSBEMASSUNGEN
  6
Continuous
 62
     0
370
    -2
100
AcDbBlockReference
  2
_FILLED
 10
431.0929317268
 20
121.5832165957
 30
0.0
 41
3.5
 42
3.5
 43
3.5
 50
270.0
  0
INSERT
  5
8C9
330
8C3
100
AcDbEntity
  8
ZEICHNUNGSBEMASSUNGEN
  6
Continuous
 62
     0
370
    -2
100
AcDbBlockReference
  2
_FILLED
 10
431.0929317268
 20
184.5832165957
 30
0.0
 41
3.5
 42
3.5
 43
3.5
 50
90.0
  0
MTEXT
  5
8CA
330
8C3
100
AcDbEntity
  8
ZEICHNUNGSBEMASSUNGEN
  6
Continuous
 62
     5
100
AcDbMText
 10
420.7179317267998
 20
153.0832165957
 30
0.0
 40
9.5
 41
0.0
 71
     2
 72
     1
  1
\A1;63
 11
0.0000000000000001
 21
1.0
 31
0.0
 73
     1
 44
1.0
1001
ACAD
1000
MTEXTBEGIN
1070
    73
1070
     1
1070
    44
1040
1.0
1070
    74
1070
     0
1000
MTEXTEND
  0
POINT
  5
8CB
330
8C3
100
AcDbEntity
  8
Defpoints
  6
Continuous
 62
     0
100
AcDbPoint
 10
417.7179782429
 20
121.5832165957
 30
0.0
  0
POINT
  5
8CC
330
8C3
100
AcDbEntity
  8
Defpoints
  6
Continuous
 62
     0
100
AcDbPoint
 10
417.7179782429
 20
184.5832165957
 30
0.0
  0
POINT
  5
8CD
330
8C3
100
AcDbEntity
  8
Defpoints
  6
Continuous
 62
     0
100
AcDbPoint
 10
431.0929317268
 20
184.5832165957
 30
0.0
  0
ENDBLK
  5
8CE
330
8C3
100
AcDbEntity
  8
0
  6
ByBlock
 62
     0
100
AcDbBlockEnd
  0
BLOCK
  5
8D0
330
8CF
100
AcDbEntity
  8
ZEICHNUNGSBEMASSUNGEN
  6
Continuous
 62
     2
100
AcDbBlockBegin
  2
*D8
 70
     1
 10
0.0
 20
0.0
 30
0.0
  3
*D8
  1

  0
LINE
  5
8D1
330
8CF
100
AcDbEntity
  8
ZEICHNUNGSBEMASSUNGEN
  6
Continuous
 62
     0
370
    -2
100
AcDbLine
 10
-150.5320217571
 20
179.0832165957
 30
0.0
 11
-168.1713935624
 21
179.0832165957
 31
0.0
  0
LINE
  5
8D2
330
8CF
100
AcDbEntity
  8
ZEICHNUNGSBEMASSUNGEN
  6
Continuous
 62
     0
370
    -2
100
AcDbLine
 10
-150.5320217571
 20
127.0832165957
 30
0.0
 11
-168.1713935624
 21
127.0832165957
 31
0.0
  0
LINE
  5
8D3
330
8CF
100
AcDbEntity
  8
ZEICHNUNGSBEMASSUNGEN
  6
Continuous
 62
     0
370
    -2
100
AcDbLine
 10
-166.6713935623999
 20
175.5832165957
 30
0.0
 11
-166.6713935623999
 21
130.5832165957
 31
0.0
  0
INSERT
  5
8D4
330
8CF
100
AcDbEntity
  8
ZEICHNUNGSBEMASSUNGEN
  6
Continuous
 62
     0
370
    -2
100
AcDbBlockReference
  2
_FILLED
 10
-166.6713935623999
 20
179.0832165957
 30
0.0
 41
3.5
 42
3.5
 43
3.5
 50
90.0
  0
INSERT
  5
8D5
330
8CF
100
AcDbEntity
  8
ZEICHNUNGSBEMASSUNGEN
  6
Continuous
 62
     0
370
    -2
100
AcDbBlockReference
  2
_FILLED
 10
-166.6713935623999
 20
127.0832165957
 30
0.0
 41
3.5
 42
3.5
 43
3.5
 50
270.0
  0
MTEXT
  5
8D6
330
8CF
100
AcDbEntity
  8
ZEICHNUNGSBEMASSUNGEN
  6
Continuous
 62
     5
100
AcDbMText
 10
-177.0463935624
 20
153.0832165957
 30
0.0
 40
9.5
 41
0.0
 71
     2
 72
     1
  1
\A1;52
 11
0.0000000000000001
 21
1.0
 31
0.0
 73
     1
 44
1.0
1001
ACAD
1000
MTEXTBEGIN
1070
    73
1070
     1
1070
    44
1040
1.0
1070
    74
1070
     0
1000
MTEXTEND
  0
POINT
  5
8D7
330
8CF
100
AcDbEntity
  8
Defpoints
  6
Continuous
 62
     0
100
AcDbPoint
 10
-149.0320217570999
 20
179.0832165957
 30
0.0
  0
POINT
  5
8D8
330
8CF
100
AcDbEntity
  8
Defpoints
  6
Continuous
 62
     0
100
AcDbPoint
 10
-149.0320217570999
 20
127.0832165957
 30
0.0
  0
POINT
  5
8D9
330
8CF
100
AcDbEntity
  8
Defpoints
  6
Continuous
 62
     0
100
AcDbPoint
 10
-166.6713935623999
 20
127.0832165957
 30
0.0
  0
ENDBLK
  5
8DA
330
8CF
100
AcDbEntity
  8
0
  6
ByBlock
 62
     0
100
AcDbBlockEnd
  0
BLOCK
  5
A64
330
A63
100
AcDbEntity
  8
0
100
AcDbBlockBegin
  2
*D9
 70
     1
 10
0.0
 20
0.0
 30
0.0
  3
*D9
  1

  0
LINE
  5
A87
330
A63
100
AcDbEntity
  8
ZEICHNUNGSBEMASSUNGEN
  6
Continuous
 62
     0
370
    -2
100
AcDbLine
 10
-108.5221700031968
 20
-40.33293448956341
 30
0.0
 11
-108.5221700031968
 21
-67.07170160736342
 31
0.0
  0
LINE
  5
A88
330
A63
100
AcDbEntity
  8
ZEICHNUNGSBEMASSUNGEN
  6
Continuous
 62
     0
370
    -2
100
AcDbLine
 10
457.4778299968031
 20
-40.33293448956341
 30
0.0
 11
457.4778299968031
 21
-67.07170160736342
 31
0.0
  0
LINE
  5
A89
330
A63
100
AcDbEntity
  8
ZEICHNUNGSBEMASSUNGEN
  6
Continuous
 62
     0
370
    -2
100
AcDbLine
 10
-105.0221700031968
 20
-65.57170160736342
 30
0.0
 11
453.977829996803
 21
-65.57170160736342
 31
0.0
  0
INSERT
  5
A8A
330
A63
100
AcDbEntity
  8
ZEICHNUNGSBEMASSUNGEN
  6
Continuous
 62
     0
370
    -2
100
AcDbBlockReference
  2
_FILLED
 10
-108.5221700031968
 20
-65.57170160736342
 30
0.0
 41
3.5
 42
3.5
 43
3.5
 50
180.0
  0
INSERT
  5
A8B
330
A63
100
AcDbEntity
  8
ZEICHNUNGSBEMASSUNGEN
  6
Continuous
 62
     0
370
    -2
100
AcDbBlockReference
  2
_FILLED
 10
457.4778299968031
 20
-65.57170160736342
 30
0.0
 41
3.5
 42
3.5
 43
3.5
  0
MTEXT
  5
A8C
330
A63
100
AcDbEntity
  8
ZEICHNUNGSBEMASSUNGEN
  6
Continuous
 62
     5
100
AcDbMText
 10
174.4778299968031
 20
-55.19670160736342
 30
0.0
 40
9.5
 41
0.0
 71
     2
 72
     1
  1
\A1;566
 73
     1
 44
1.0
1001
ACAD
1000
MTEXTBEGIN
1070
    73
1070
     1
1070
    44
1040
1.0
1070
    74
1070
     0
1000
MTEXTEND
  0
POINT
  5
A8D
330
A63
100
AcDbEntity
  8
Defpoints
  6
Continuous
 62
     0
100
AcDbPoint
 10
-108.5221700031968
 20
-38.83293448956344
 30
0.0
  0
POINT
  5
A8E
330
A63
100
AcDbEntity
  8
Defpoints
  6
Continuous
 62
     0
100
AcDbPoint
 10
457.4778299968031
 20
-38.83293448956344
 30
0.0
  0
POINT
  5
A8F
330
A63
100
AcDbEntity
  8
Defpoints
  6
Continuous
 62
     0
100
AcDbPoint
 10
457.4778299968031
 20
-65.57170160736342
 30
0.0
  0
ENDBLK
  5
A65
330
A63
100
AcDbEntity
  8
0
100
AcDbBlockEnd
  0
BLOCK
  5
A70
330
A6F
100
AcDbEntity
  8
0
100
AcDbBlockBegin
  2
*D10
 70
     1
 10
0.0
 20
0.0
 30
0.0
  3
*D10
  1

  0
LINE
  5
A90
330
A6F
100
AcDbEntity
  8
ZEICHNUNGSBEMASSUNGEN
  6
Continuous
 62
     0
370
    -2
100
AcDbLine
 10
461.4778299968032
 20
-46.08293448956342
 30
0.0
 11
474.8527834807031
 21
-46.08293448956342
 31
0.0
  0
LINE
  5
A91
330
A6F
100
AcDbEntity
  8
ZEICHNUNGSBEMASSUNGEN
  6
Continuous
 62
     0
370
    -2
100
AcDbLine
 10
461.4778299968032
 20
16.91706551043657
 30
0.0
 11
474.8527834807031
 21
16.91706551043657
 31
0.0
  0
LINE
  5
A92
330
A6F
100
AcDbEntity
  8
ZEICHNUNGSBEMASSUNGEN
  6
Continuous
 62
     0
370
    -2
100
AcDbLine
 10
473.3527834807031
 20
-42.58293448956345
 30
0.0
 11
473.3527834807031
 21
13.41706551043657
 31
0.0
  0
INSERT
  5
A93
330
A6F
100
AcDbEntity
  8
ZEICHNUNGSBEMASSUNGEN
  6
Continuous
 62
     0
370
    -2
100
AcDbBlockReference
  2
_FILLED
 10
473.3527834807031
 20
-46.08293448956342
 30
0.0
 41
3.5
 42
3.5
 43
3.5
 50
270.0
  0
INSERT
  5
A94
330
A6F
100
AcDbEntity
  8
ZEICHNUNGSBEMASSUNGEN
  6
Continuous
 62
     0
370
    -2
100
AcDbBlockReference
  2
_FILLED
 10
473.3527834807031
 20
16.91706551043657
 30
0.0
 41
3.5
 42
3.5
 43
3.5
 50
90.0
  0
MTEXT
  5
A95
330
A6F
100
AcDbEntity
  8
ZEICHNUNGSBEMASSUNGEN
  6
Continuous
 62
     5
100
AcDbMText
 10
462.9777834807031
 20
-14.58293448956343
 30
0.0
 40
9.5
 41
0.0
 71
     2
 72
     1
  1
\A1;63
 11
0.0000000000000001
 21
1.0
 31
0.0
 73
     1
 44
1.0
1001
ACAD
1000
MTEXTBEGIN
1070
    73
1070
     1
1070
    44
1040
1.0
1070
    74
1070
     0
1000
MTEXTEND
  0
POINT
  5
A96
330
A6F
100
AcDbEntity
  8
Defpoints
  6
Continuous
 62
     0
100
AcDbPoint
 10
459.9778299968031
 20
-46.08293448956342
 30
0.0
  0
POINT
  5
A97
330
A6F
100
AcDbEntity
  8
Defpoints
  6
Continuous
 62
     0
100
AcDbPoint
 10
459.9778299968031
 20
16.91706551043657
 30
0.0
  0
POINT
  5
A98
330
A6F
100
AcDbEntity
  8
Defpoints
  6
Continuous
 62
     0
100
AcDbPoint
 10
473.3527834807031
 20
16.91706551043657
 30
0.0
  0
ENDBLK
  5
A71
330
A6F
100
AcDbEntity
  8
0
100
AcDbBlockEnd
  0
BLOCK
  5
A7C
330
A7B
100
AcDbEntity
  8
0
100
AcDbBlockBegin
  2
*D11
 70
     1
 10
0.0
 20
0.0
 30
0.0
  3
*D11
  1

  0
LINE
  5
A99
330
A7B
100
AcDbEntity
  8
ZEICHNUNGSBEMASSUNGEN
  6
Continuous
 62
     0
370
    -2
100
AcDbLine
 10
-108.2721700031967
 20
11.41706551043657
 30
0.0
 11
-125.9115418084968
 21
11.41706551043658
 31
0.0
  0
LINE
  5
A9A
330
A7B
100
AcDbEntity
  8
ZEICHNUNGSBEMASSUNGEN
  6
Continuous
 62
     0
370
    -2
100
AcDbLine
 10
-108.2721700031967
 20
-40.58293448956344
 30
0.0
 11
-125.9115418084968
 21
-40.58293448956344
 31
0.0
  0
LINE
  5
A9B
330
A7B
100
AcDbEntity
  8
ZEICHNUNGSBEMASSUNGEN
  6
Continuous
 62
     0
370
    -2
100
AcDbLine
 10
-124.4115418084968
 20
7.917065510436576
 30
0.0
 11
-124.4115418084968
 21
-37.08293448956343
 31
0.0
  0
INSERT
  5
A9C
330
A7B
100
AcDbEntity
  8
ZEICHNUNGSBEMASSUNGEN
  6
Continuous
 62
     0
370
    -2
100
AcDbBlockReference
  2
_FILLED
 10
-124.4115418084968
 20
11.41706551043658
 30
0.0
 41
3.5
 42
3.5
 43
3.5
 50
90.0
  0
INSERT
  5
A9D
330
A7B
100
AcDbEntity
  8
ZEICHNUNGSBEMASSUNGEN
  6
Continuous
 62
     0
370
    -2
100
AcDbBlockReference
  2
_FILLED
 10
-124.4115418084968
 20
-40.58293448956344
 30
0.0
 41
3.5
 42
3.5
 43
3.5
 50
270.0
  0
MTEXT
  5
A9E
330
A7B
100
AcDbEntity
  8
ZEICHNUNGSBEMASSUNGEN
  6
Continuous
 62
     5
100
AcDbMText
 10
-134.7865418084968
 20
-14.58293448956343
 30
0.0
 40
9.5
 41
0.0
 71
     2
 72
     1
  1
\A1;52
 11
0.0000000000000001
 21
1.0
 31
0.0
 73
     1
 44
1.0
1001
ACAD
1000
MTEXTBEGIN
1070
    73
1070
     1
1070
    44
1040
1.0
1070
    74
1070
     0
1000
MTEXTEND
  0
POINT
  5
A9F
330
A7B
100
AcDbEntity
  8
Defpoints
  6
Continuous
 62
     0
100
AcDbPoint
 10
-106.7721700031968
 20
11.41706551043657
 30
0.0
  0
POINT
  5
AA0
330
A7B
100
AcDbEntity
  8
Defpoints
  6
Continuous
 62
     0
100
AcDbPoint
 10
-106.7721700031968
 20
-40.58293448956344
 30
0.0
  0
POINT
  5
AA1
330
A7B
100
AcDbEntity
  8
Defpoints
  6
Continuous
 62
     0
100
AcDbPoint
 10
-124.4115418084968
 20
-40.58293448956344
 30
0.0
  0
ENDBLK
  5
A7D
330
A7B
100
AcDbEntity
  8
0
100
AcDbBlockEnd
  0
BLOCK
  5
B76
330
B75
100
AcDbEntity
  8
ZEICHNUNGSBEMASSUNGEN
  6
Continuous
 62
     2
100
AcDbBlockBegin
  2
*D12
 70
     1
 10
0.0
 20
0.0
 30
0.0
  3
*D12
  1

  0
LINE
  5
B77
330
B75
100
AcDbEntity
  8
P-0000
  6
Continuous
 62
     3
370
    -2
100
AcDbLine
 10
-150.7820217571
 20
128.8332165957
 30
0.0
 11
-150.7820217571
 21
98.09444947790002
 31
0.0
  0
LINE
  5
B78
330
B75
100
AcDbEntity
  8
P-0000
  6
Continuous
 62
     3
370
    -2
100
AcDbLine
 10
415.2179782429
 20
128.8332165957
 30
0.0
 11
415.2179782429
 21
98.09444947790002
 31
0.0
  0
LINE
  5
B79
330
B75
100
AcDbEntity
  8
P-0000
  6
Continuous
 62
     3
370
    -2
100
AcDbLine
 10
-144.4820217570999
 20
102.0944494779
 30
0.0
 11
121.6846449095667
 21
102.0944494779
 31
0.0
  0
LINE
  5
B7A
330
B75
100
AcDbEntity
  8
P-0000
  6
Continuous
 62
     3
370
    -2
100
AcDbLine
 10
408.9179782429
 20
102.0944494779
 30
0.0
 11
142.7513115762333
 21
102.0944494779
 31
0.0
  0
MTEXT
  5
B7B
330
B75
100
AcDbEntity
  8
P-0000
  6
Continuous
 62
     2
100
AcDbMText
 10
132.2179782429
 20
105.5944494779
 30
0.0
 40
7.0
 41
0.0
 71
     2
 72
     1
  1
566
 73
     1
 44
1.0
1001
ACAD
1000
MTEXTBEGIN
1070
    73
1070
     1
1070
    44
1040
1.0
1070
    74
1070
     0
1000
MTEXTEND
  0
SOLID
  5
B7C
330
B75
100
AcDbEntity
  8
P-0000
  6
Continuous
 62
     3
100
AcDbTrace
 10
-144.4820217570999
 20
103.1444494779
 30
0.0
 11
-144.4820217570999
 21
101.0444494779
 31
0.0
 12
-150.7820217571
 22
102.0944494779
 32
0.0
 13
-150.7820217571
 23
102.0944494779
 33
0.0
  0
SOLID
  5
B7D
330
B75
100
AcDbEntity
  8
P-0000
  6
Continuous
 62
     3
100
AcDbTrace
 10
408.9179782429
 20
103.1444494779
 30
0.0
 11
408.9179782429
 21
101.0444494779
 31
0.0
 12
415.2179782429
 22
102.0944494779
 32
0.0
 13
415.2179782429
 23
102.0944494779
 33
0.0
  0
POINT
  5
B7E
330
B75
100
AcDbEntity
  8
Defpoints
  6
Continuous
 62
     0
100
AcDbPoint
 10
-150.7820217571
 20
128.8332165957
 30
0.0
  0
POINT
  5
B7F
330
B75
100
AcDbEntity
  8
Defpoints
  6
Continuous
 62
     0
100
AcDbPoint
 10
415.2179782429
 20
128.8332165957
 30
0.0
  0
POINT
  5
B80
330
B75
100
AcDbEntity
  8
Defpoints
  6
Continuous
 62
     0
100
AcDbPoint
 10
415.2179782429
 20
102.0944494779
 30
0.0
  0
ENDBLK
  5
B81
330
B75
100
AcDbEntity
  8
0
  6
ByBlock
 62
     0
100
AcDbBlockEnd
  0
BLOCK
  5
B83
330
B82
100
AcDbEntity
  8
ZEICHNUNGSBEMASSUNGEN
  6
Continuous
 62
     2
100
AcDbBlockBegin
  2
*D13
 70
     1
 10
0.0
 20
0.0
 30
0.0
  3
*D13
  1

  0
LINE
  5
B84
330
B82
100
AcDbEntity
  8
P-0000
  6
Continuous
 62
     3
370
    -2
100
AcDbLine
 10
417.7179782429
 20
121.5832165957
 30
0.0
 11
435.0929317267998
 21
121.5832165957
 31
0.0
  0
LINE
  5
B85
330
B82
100
AcDbEntity
  8
P-0000
  6
Continuous
 62
     3
370
    -2
100
AcDbLine
 10
417.7179782429
 20
184.5832165957
 30
0.0
 11
435.0929317268
 21
184.5832165957
 31
0.0
  0
LINE
  5
B86
330
B82
100
AcDbEntity
  8
P-0000
  6
Continuous
 62
     3
370
    -2
100
AcDbLine
 10
431.0929317267998
 20
127.8832165957
 30
0.0
 11
431.0929317268
 21
144.9998832623666
 31
0.0
  0
LINE
  5
B87
330
B82
100
AcDbEntity
  8
P-0000
  6
Continuous
 62
     3
370
    -2
100
AcDbLine
 10
431.0929317268
 20
178.2832165957
 30
0.0
 11
431.0929317268
 21
161.1665499290333
 31
0.0
  0
MTEXT
  5
B88
330
B82
100
AcDbEntity
  8
P-0000
  6
Continuous
 62
     2
100
AcDbMText
 10
427.5929317267999
 20
153.0832165957
 30
0.0
 40
7.0
 41
0.0
 71
     2
 72
     1
  1
63
 11
0.0000000000000001
 21
1.0
 31
0.0
 73
     1
 44
1.0
1001
ACAD
1000
MTEXTBEGIN
1070
    73
1070
     1
1070
    44
1040
1.0
1070
    74
1070
     0
1000
MTEXTEND
  0
SOLID
  5
B89
330
B82
100
AcDbEntity
  8
P-0000
  6
Continuous
 62
     3
100
AcDbTrace
 10
430.0429317267998
 20
127.8832165957
 30
0.0
 11
432.1429317267998
 21
127.8832165957
 31
0.0
 12
431.0929317267998
 22
121.5832165957
 32
0.0
 13
431.0929317267998
 23
121.5832165957
 33
0.0
  0
SOLID
  5
B8A
330
B82
100
AcDbEntity
  8
P-0000
  6
Continuous
 62
     3
100
AcDbTrace
 10
430.0429317267998
 20
178.2832165957
 30
0.0
 11
432.1429317267998
 21
178.2832165957
 31
0.0
 12
431.0929317268
 22
184.5832165957
 32
0.0
 13
431.0929317268
 23
184.5832165957
 33
0.0
  0
POINT
  5
B8B
330
B82
100
AcDbEntity
  8
Defpoints
  6
Continuous
 62
     0
100
AcDbPoint
 10
417.7179782429
 20
121.5832165957
 30
0.0
  0
POINT
  5
B8C
330
B82
100
AcDbEntity
  8
Defpoints
  6
Continuous
 62
     0
100
AcDbPoint
 10
417.7179782429
 20
184.5832165957
 30
0.0
  0
POINT
  5
B8D
330
B82
100
AcDbEntity
  8
Defpoints
  6
Continuous
 62
     0
100
AcDbPoint
 10
431.0929317268
 20
184.5832165957
 30
0.0
  0
ENDBLK
  5
B8E
330
B82
100
AcDbEntity
  8
0
  6
ByBlock
 62
     0
100
AcDbBlockEnd
  0
BLOCK
  5
B90
330
B8F
100
AcDbEntity
  8
ZEICHNUNGSBEMASSUNGEN
  6
Continuous
 62
     2
100
AcDbBlockBegin
  2
*D14
 70
     1
 10
0.0
 20
0.0
 30
0.0
  3
*D14
  1

  0
LINE
  5
B91
330
B8F
100
AcDbEntity
  8
P-0000
  6
Continuous
 62
     3
370
    -2
100
AcDbLine
 10
-149.0320217570999
 20
179.0832165957
 30
0.0
 11
-170.6713935623999
 21
179.0832165957
 31
0.0
  0
LINE
  5
B92
330
B8F
100
AcDbEntity
  8
P-0000
  6
Continuous
 62
     3
370
    -2
100
AcDbLine
 10
-149.0320217570999
 20
127.0832165957
 30
0.0
 11
-170.6713935623999
 21
127.0832165957
 31
0.0
  0
LINE
  5
B93
330
B8F
100
AcDbEntity
  8
P-0000
  6
Continuous
 62
     3
370
    -2
100
AcDbLine
 10
-166.6713935623999
 20
172.7832165957
 30
0.0
 11
-166.6713935623999
 21
161.1665499290334
 31
0.0
  0
LINE
  5
B94
330
B8F
100
AcDbEntity
  8
P-0000
  6
Continuous
 62
     3
370
    -2
100
AcDbLine
 10
-166.6713935623999
 20
133.3832165957
 30
0.0
 11
-166.6713935623999
 21
144.9998832623667
 31
0.0
  0
MTEXT
  5
B95
330
B8F
100
AcDbEntity
  8
P-0000
  6
Continuous
 62
     2
100
AcDbMText
 10
-170.1713935624
 20
153.0832165957
 30
0.0
 40
7.0
 41
0.0
 71
     2
 72
     1
  1
52
 11
0.0000000000000001
 21
1.0
 31
0.0
 73
     1
 44
1.0
1001
ACAD
1000
MTEXTBEGIN
1070
    73
1070
     1
1070
    44
1040
1.0
1070
    74
1070
     0
1000
MTEXTEND
  0
SOLID
  5
B96
330
B8F
100
AcDbEntity
  8
P-0000
  6
Continuous
 62
     3
100
AcDbTrace
 10
-167.7213935623999
 20
172.7832165957
 30
0.0
 11
-165.6213935623999
 21
172.7832165957
 31
0.0
 12
-166.6713935623999
 22
179.0832165957
 32
0.0
 13
-166.6713935623999
 23
179.0832165957
 33
0.0
  0
SOLID
  5
B97
330
B8F
100
AcDbEntity
  8
P-0000
  6
Continuous
 62
     3
100
AcDbTrace
 10
-167.7213935623999
 20
133.3832165957
 30
0.0
 11
-165.6213935623999
 21
133.3832165957
 31
0.0
 12
-166.6713935623999
 22
127.0832165957
 32
0.0
 13
-166.6713935623999
 23
127.0832165957
 33
0.0
  0
POINT
  5
B98
330
B8F
100
AcDbEntity
  8
Defpoints
  6
Continuous
 62
     0
100
AcDbPoint
 10
-149.0320217570999
 20
179.0832165957
 30
0.0
  0
POINT
  5
B99
330
B8F
100
AcDbEntity
  8
Defpoints
  6
Continuous
 62
     0
100
AcDbPoint
 10
-149.0320217570999
 20
127.0832165957
 30
0.0
  0
POINT
  5
B9A
330
B8F
100
AcDbEntity
  8
Defpoints
  6
Continuous
 62
     0
100
AcDbPoint
 10
-166.6713935623999
 20
127.0832165957
 30
0.0
  0
ENDBLK
  5
B9B
330
B8F
100
AcDbEntity
  8
0
  6
ByBlock
 62
     0
100
AcDbBlockEnd
  0
BLOCK
  5
B9D
330
B9C
100
AcDbEntity
  8
0
100
AcDbBlockBegin
  2
_None
 70
     0
 10
0.0
 20
0.0
 30
0.0
  3
_None
  1

  0
ENDBLK
  5
B9E
330
B9C
100
AcDbEntity
  8
0
100
AcDbBlockEnd
  0
BLOCK
  5
D2D
330
D2C
100
AcDbEntity
  8
0
100
AcDbBlockBegin
  2
*D16
 70
     1
 10
0.0
 20
0.0
 30
0.0
  3
*D16
  1

  0
LINE
  5
D53
330
D2C
100
AcDbEntity
  8
P-0000
  6
Continuous
 62
     3
370
    -2
100
AcDbLine
 10
-68.80120438551762
 20
-41.63529221068839
 30
0.0
 11
-68.80120438551762
 21
-72.37405932848837
 31
0.0
  0
LINE
  5
D54
330
D2C
100
AcDbEntity
  8
P-0000
  6
Continuous
 62
     3
370
    -2
100
AcDbLine
 10
497.1987956144823
 20
-41.63529221068839
 30
0.0
 11
497.1987956144823
 21
-72.37405932848837
 31
0.0
  0
LINE
  5
D55
330
D2C
100
AcDbEntity
  8
P-0000
  6
Continuous
 62
     3
370
    -2
100
AcDbLine
 10
-62.50120438551761
 20
-68.37405932848837
 30
0.0
 11
203.665462281149
 21
-68.37405932848837
 31
0.0
  0
LINE
  5
D56
330
D2C
100
AcDbEntity
  8
P-0000
  6
Continuous
 62
     3
370
    -2
100
AcDbLine
 10
490.8987956144823
 20
-68.37405932848837
 30
0.0
 11
224.7321289478157
 21
-68.37405932848837
 31
0.0
  0
MTEXT
  5
D57
330
D2C
100
AcDbEntity
  8
P-0000
  6
Continuous
 62
     2
100
AcDbMText
 10
214.1987956144824
 20
-64.87405932848837
 30
0.0
 40
7.0
 41
0.0
 71
     2
 72
     1
  1
566
 73
     1
 44
1.0
1001
ACAD
1000
MTEXTBEGIN
1070
    73
1070
     1
1070
    44
1040
1.0
1070
    74
1070
     0
1000
MTEXTEND
  0
SOLID
  5
D58
330
D2C
100
AcDbEntity
  8
P-0000
  6
Continuous
 62
     3
100
AcDbTrace
 10
-62.50120438551761
 20
-67.32405932848839
 30
0.0
 11
-62.50120438551761
 21
-69.42405932848839
 31
0.0
 12
-68.80120438551762
 22
-68.37405932848837
 32
0.0
 13
-68.80120438551762
 23
-68.37405932848837
 33
0.0
  0
SOLID
  5
D59
330
D2C
100
AcDbEntity
  8
P-0000
  6
Continuous
 62
     3
100
AcDbTrace
 10
490.8987956144823
 20
-67.32405932848839
 30
0.0
 11
490.8987956144823
 21
-69.42405932848839
 31
0.0
 12
497.1987956144823
 22
-68.37405932848837
 32
0.0
 13
497.1987956144823
 23
-68.37405932848837
 33
0.0
  0
POINT
  5
D5A
330
D2C
100
AcDbEntity
  8
Defpoints
  6
Continuous
 62
     0
100
AcDbPoint
 10
-68.80120438551762
 20
-41.63529221068839
 30
0.0
  0
POINT
  5
D5B
330
D2C
100
AcDbEntity
  8
Defpoints
  6
Continuous
 62
     0
100
AcDbPoint
 10
497.1987956144823
 20
-41.63529221068839
 30
0.0
  0
POINT
  5
D5C
330
D2C
100
AcDbEntity
  8
Defpoints
  6
Continuous
 62
     0
100
AcDbPoint
 10
497.1987956144823
 20
-68.37405932848837
 30
0.0
  0
ENDBLK
  5
D2E
330
D2C
100
AcDbEntity
  8
0
100
AcDbBlockEnd
  0
BLOCK
  5
D3A
330
D39
100
AcDbEntity
  8
0
100
AcDbBlockBegin
  2
*D17
 70
     1
 10
0.0
 20
0.0
 30
0.0
  3
*D17
  1

  0
LINE
  5
D5D
330
D39
100
AcDbEntity
  8
P-0000
  6
Continuous
 62
     3
370
    -2
100
AcDbLine
 10
499.6987956144823
 20
-48.88529221068839
 30
0.0
 11
517.0737490983823
 21
-48.88529221068839
 31
0.0
  0
LINE
  5
D5E
330
D39
100
AcDbEntity
  8
P-0000
  6
Continuous
 62
     3
370
    -2
100
AcDbLine
 10
499.6987956144823
 20
14.11470778931161
 30
0.0
 11
517.0737490983823
 21
14.1147077893116
 31
0.0
  0
LINE
  5
D5F
330
D39
100
AcDbEntity
  8
P-0000
  6
Continuous
 62
     3
370
    -2
100
AcDbLine
 10
513.0737490983823
 20
-42.58529221068839
 30
0.0
 11
513.0737490983823
 21
-25.46862554402181
 31
0.0
  0
LINE
  5
D60
330
D39
100
AcDbEntity
  8
P-0000
  6
Continuous
 62
     3
370
    -2
100
AcDbLine
 10
513.0737490983823
 20
7.814707789311606
 30
0.0
 11
513.0737490983823
 21
-9.30195887735514
 31
0.0
  0
MTEXT
  5
D61
330
D39
100
AcDbEntity
  8
P-0000
  6
Continuous
 62
     2
100
AcDbMText
 10
509.5737490983823
 20
-17.38529221068839
 30
0.0
 40
7.0
 41
0.0
 71
     2
 72
     1
  1
63
 11
0.0000000000000001
 21
1.0
 31
0.0
 73
     1
 44
1.0
1001
ACAD
1000
MTEXTBEGIN
1070
    73
1070
     1
1070
    44
1040
1.0
1070
    74
1070
     0
1000
MTEXTEND
  0
SOLID
  5
D62
330
D39
100
AcDbEntity
  8
P-0000
  6
Continuous
 62
     3
100
AcDbTrace
 10
512.0237490983823
 20
-42.58529221068839
 30
0.0
 11
514.123749098382
 21
-42.58529221068839
 31
0.0
 12
513.0737490983823
 22
-48.88529221068839
 32
0.0
 13
513.0737490983823
 23
-48.88529221068839
 33
0.0
  0
SOLID
  5
D63
330
D39
100
AcDbEntity
  8
P-0000
  6
Continuous
 62
     3
100
AcDbTrace
 10
512.0237490983823
 20
7.814707789311606
 30
0.0
 11
514.123749098382
 21
7.814707789311606
 31
0.0
 12
513.0737490983823
 22
14.1147077893116
 32
0.0
 13
513.0737490983823
 23
14.1147077893116
 33
0.0
  0
POINT
  5
D64
330
D39
100
AcDbEntity
  8
Defpoints
  6
Continuous
 62
     0
100
AcDbPoint
 10
499.6987956144823
 20
-48.88529221068839
 30
0.0
  0
POINT
  5
D65
330
D39
100
AcDbEntity
  8
Defpoints
  6
Continuous
 62
     0
100
AcDbPoint
 10
499.6987956144823
 20
14.11470778931161
 30
0.0
  0
POINT
  5
D66
330
D39
100
AcDbEntity
  8
Defpoints
  6
Continuous
 62
     0
100
AcDbPoint
 10
513.0737490983823
 20
14.1147077893116
 30
0.0
  0
ENDBLK
  5
D3B
330
D39
100
AcDbEntity
  8
0
100
AcDbBlockEnd
  0
BLOCK
  5
D47
330
D46
100
AcDbEntity
  8
0
100
AcDbBlockBegin
  2
*D18
 70
     1
 10
0.0
 20
0.0
 30
0.0
  3
*D18
  1

  0
LINE
  5
D67
330
D46
100
AcDbEntity
  8
P-0000
  6
Continuous
 62
     3
370
    -2
100
AcDbLine
 10
-67.05120438551756
 20
8.614707789311607
 30
0.0
 11
-88.69057619081756
 21
8.614707789311616
 31
0.0
  0
LINE
  5
D68
330
D46
100
AcDbEntity
  8
P-0000
  6
Continuous
 62
     3
370
    -2
100
AcDbLine
 10
-67.05120438551756
 20
-43.38529221068839
 30
0.0
 11
-88.69057619081756
 21
-43.38529221068839
 31
0.0
  0
LINE
  5
D69
330
D46
100
AcDbEntity
  8
P-0000
  6
Continuous
 62
     3
370
    -2
100
AcDbLine
 10
-84.69057619081755
 20
2.314707789311615
 30
0.0
 11
-84.69057619081755
 21
-9.301958877355042
 31
0.0
  0
LINE
  5
D6A
330
D46
100
AcDbEntity
  8
P-0000
  6
Continuous
 62
     3
370
    -2
100
AcDbLine
 10
-84.69057619081755
 20
-37.0852922106884
 30
0.0
 11
-84.69057619081755
 21
-25.46862554402171
 31
0.0
  0
MTEXT
  5
D6B
330
D46
100
AcDbEntity
  8
P-0000
  6
Continuous
 62
     2
100
AcDbMText
 10
-88.19057619081764
 20
-17.38529221068839
 30
0.0
 40
7.0
 41
0.0
 71
     2
 72
     1
  1
52
 11
0.0000000000000001
 21
1.0
 31
0.0
 73
     1
 44
1.0
1001
ACAD
1000
MTEXTBEGIN
1070
    73
1070
     1
1070
    44
1040
1.0
1070
    74
1070
     0
1000
MTEXTEND
  0
SOLID
  5
D6C
330
D46
100
AcDbEntity
  8
P-0000
  6
Continuous
 62
     3
100
AcDbTrace
 10
-85.74057619081754
 20
2.314707789311615
 30
0.0
 11
-83.64057619081753
 21
2.314707789311615
 31
0.0
 12
-84.69057619081755
 22
8.614707789311616
 32
0.0
 13
-84.69057619081755
 23
8.614707789311616
 33
0.0
  0
SOLID
  5
D6D
330
D46
100
AcDbEntity
  8
P-0000
  6
Continuous
 62
     3
100
AcDbTrace
 10
-85.74057619081754
 20
-37.0852922106884
 30
0.0
 11
-83.64057619081753
 21
-37.0852922106884
 31
0.0
 12
-84.69057619081755
 22
-43.38529221068839
 32
0.0
 13
-84.69057619081755
 23
-43.38529221068839
 33
0.0
  0
POINT
  5
D6E
330
D46
100
AcDbEntity
  8
Defpoints
  6
Continuous
 62
     0
100
AcDbPoint
 10
-67.05120438551756
 20
8.614707789311607
 30
0.0
  0
POINT
  5
D6F
330
D46
100
AcDbEntity
  8
Defpoints
  6
Continuous
 62
     0
100
AcDbPoint
 10
-67.05120438551756
 20
-43.38529221068839
 30
0.0
  0
POINT
  5
D70
330
D46
100
AcDbEntity
  8
Defpoints
  6
Continuous
 62
     0
100
AcDbPoint
 10
-84.69057619081755
 20
-43.38529221068839
 30
0.0
  0
ENDBLK
  5
D48
330
D46
100
AcDbEntity
  8
0
100
AcDbBlockEnd
  0
BLOCK
  5
1BEE
330
1BE1
100
AcDbEntity
  8
0
100
AcDbBlockBegin
  2
A$C00CD4B85
 70
     0
 10
0.0
 20
0.0
 30
0.0
  3
A$C00CD4B85
  1

  0
LINE
  5
1BE2
330
1BE1
100
AcDbEntity
  8
0
  6
Continuous
 62
     7
100
AcDbLine
 10
361.955605685661
 20
2.535275992946393
 30
0.0
 11
361.544229672961
 21
0.9999998125464058
 31
0.0
  0
LINE
  5
1BE3
330
1BE1
100
AcDbEntity
  8
0
  6
Continuous
 62
     7
100
AcDbLine
 10
383.5443963921611
 20
2.535275992946393
 30
0.0
 11
383.955772404861
 21
0.9999998125464058
 31
0.0
  0
LINE
  5
1BE4
330
1BE1
100
AcDbEntity
  8
0
  6
Continuous
 62
     7
100
AcDbLine
 10
0.0000010388609439
 20
-0.000000187453594
 30
0.0
 11
1062.500001038861
 21
-0.0000001874536224
 31
0.0
  0
LINE
  5
1BE5
330
1BE1
100
AcDbEntity
  8
0
  6
Continuous
 62
     9
100
AcDbLine
 10
383.955772404861
 20
0.9999998125464058
 30
0.0
 11
361.544229672961
 21
0.9999998125464058
 31
0.0
  0
LINE
  5
1BE6
330
1BE1
100
AcDbEntity
  8
RUNDUNGEN
  6
Continuous
 62
     7
100
AcDbLine
 10
379.6806930869609
 20
5.499999812546406
 30
0.0
 11
365.819308990861
 21
5.499999812546406
 31
0.0
  0
ARC
  5
1BE7
330
1BE1
100
AcDbEntity
  8
RUNDUNGEN
  6
Continuous
 62
     7
100
AcDbCircle
 10
365.819308990861
 20
1.499999812546406
 30
0.0
 40
4.0
100
AcDbArc
 50
90.0
 51
165.0000000000008
  0
ARC
  5
1BE8
330
1BE1
100
AcDbEntity
  8
RUNDUNGEN
  6
Continuous
 62
     7
100
AcDbCircle
 10
379.6806930869609
 20
1.499999812546406
 30
0.0
 40
4.0
100
AcDbArc
 50
14.99999999999917
 51
90.0
  0
SPLINE
  5
1BE9
330
1BE1
100
AcDbEntity
  8
0
  6
Continuous
 62
     7
100
AcDbSpline
210
0.0
220
0.0
230
1.0
 70
     8
 71
     3
 72
     9
 73
     5
 74
     0
 42
0.0000000001
 43
0.0000000001
 40
0.0
 40
0.0
 40
0.0
 40
0.0
 40
0.2488387873
 40
1.0
 40
1.0
 40
1.0
 40
1.0
 10
375.996338848361
 20
-0.000000187453594
 30
0.0
 10
376.037095341561
 20
-0.000000187453594
 30
0.0
 10
376.200867430961
 20
0.0037895493464077
 30
0.0
 10
376.364230710861
 20
0.0227177459464088
 30
0.0
 10
376.485286350961
 20
0.0446716312463877
 30
0.0
  0
SPLINE
  5
1BEA
330
1BE1
100
AcDbEntity
  8
0
  6
Continuous
 62
     7
100
AcDbSpline
210
0.0
220
0.0
230
1.0
 70
     8
 71
     3
 72
    11
 73
     7
 74
     0
 42
0.0000000001
 43
0.0000000001
 40
0.0
 40
0.0
 40
0.0
 40
0.0
 40
0.2742592274
 40
0.5260864827000003
 40
0.7621155876000003
 40
1.0
 40
1.0
 40
1.0
 40
1.0
 10
361.536079403761
 20
0.9761124572464151
 30
0.0
 10
361.492414216561
 20
0.8481599457464028
 30
0.0
 10
361.383262698161
 20
0.609925067546385
 30
0.0
 10
361.138690870261
 20
0.3171679822464171
 30
0.0
 10
360.828410646761
 20
0.127450205746328
 30
0.0
 10
360.600671012561
 20
0.0655970638464112
 30
0.0
 10
360.485286350961
 20
0.0446716312463877
 30
0.0
  0
SPLINE
  5
1BEB
330
1BE1
100
AcDbEntity
  8
0
  6
Continuous
 62
     7
100
AcDbSpline
210
0.0
220
0.0
230
1.0
 70
     8
 71
     3
 72
    11
 73
     7
 74
     0
 42
0.0000000001
 43
0.0000000001
 40
0.0
 40
0.0
 40
0.0
 40
0.0
 40
0.2378844124
 40
0.4739135173
 40
0.7257407726000002
 40
1.0
 40
1.0
 40
1.0
 40
1.0
 10
385.014715726861
 20
0.0446716312463877
 30
0.0
 10
384.899331065261
 20
0.0655970638464112
 30
0.0
 10
384.671591431061
 20
0.127450205746328
 30
0.0
 10
384.361311207561
 20
0.3171679822464171
 30
0.0
 10
384.116739379661
 20
0.609925067546385
 30
0.0
 10
384.0075878612609
 20
0.8481599457464028
 30
0.0
 10
383.963922674061
 20
0.9761124572464151
 30
0.0
  0
LINE
  5
1BEC
330
1BE1
100
AcDbEntity
  8
0
  6
Continuous
 62
     7
100
AcDbLine
 10
361.544229672961
 20
0.9999998125464058
 30
0.0
 11
361.536079403761
 21
0.9761124572464151
 31
0.0
  0
LINE
  5
1BED
330
1BE1
100
AcDbEntity
  8
0
  6
Continuous
 62
     7
100
AcDbLine
 10
383.955772404861
 20
0.9999998125464058
 30
0.0
 11
383.963922674061
 21
0.9761124572464151
 31
0.0
  0
ENDBLK
  5
1BEF
330
1BE1
100
AcDbEntity
  8
0
100
AcDbBlockEnd
  0
BLOCK
  5
1DEA
330
1DE9
100
AcDbEntity
  8
0
100
AcDbBlockBegin
  2
*D20
 70
     1
 10
0.0
 20
0.0
 30
0.0
  3
*D20
  1

  0
LINE
  5
1E16
330
1DE9
100
AcDbEntity
  8
AM_5
  6
ByBlock
 62
     0
370
    -2
100
AcDbLine
 10
-406.2820217570997
 20
182.8258572828
 30
0.0
 11
-406.2820217570997
 21
198.0832165957
 31
0.0
  0
LINE
  5
1E17
330
1DE9
100
AcDbEntity
  8
AM_5
  6
ByBlock
 62
     0
370
    -2
100
AcDbLine
 10
-186.3921210451817
 20
186.0832165957
 30
0.0
 11
-186.3921210451817
 21
198.0832165957
 31
0.0
  0
LINE
  5
1E18
330
1DE9
100
AcDbEntity
  8
AM_5
  6
ByBlock
 62
     0
370
    -2
100
AcDbLine
 10
-402.7820217570996
 20
196.5832165957
 30
0.0
 11
-300.0245714011409
 21
196.5832165957
 31
0.0
  0
LINE
  5
1E19
330
1DE9
100
AcDbEntity
  8
AM_5
  6
ByBlock
 62
     0
370
    -2
100
AcDbLine
 10
-189.8921210451817
 20
196.5832165957
 30
0.0
 11
-292.6495714011409
 21
196.5832165957
 31
0.0
  0
INSERT
  5
1E1A
330
1DE9
100
AcDbEntity
  8
AM_5
 62
     0
370
    -2
100
AcDbBlockReference
  2
_FILLED
 10
-406.2820217570997
 20
196.5832165957
 30
0.0
 41
3.5
 42
3.5
 43
3.5
 50
180.0
  0
INSERT
  5
1E1B
330
1DE9
100
AcDbEntity
  8
AM_5
 62
     0
370
    -2
100
AcDbBlockReference
  2
_FILLED
 10
-186.3921210451817
 20
196.5832165957
 30
0.0
 41
3.5
 42
3.5
 43
3.5
  0
MTEXT
  5
1E1C
330
1DE9
100
AcDbEntity
  8
AM_5
 62
     0
100
AcDbMText
 10
-296.3370714011409
 20
196.5832165957
 30
0.0
 40
3.5
 41
0.0
 71
     5
 72
     1
  1
\A1;220
 73
     1
 44
1.0
1001
ACAD
1000
MTEXTBEGIN
1070
    73
1070
     1
1070
    44
1040
1.0
1070
    74
1070
     0
1000
MTEXTEND
  0
POINT
  5
1E1D
330
1DE9
100
AcDbEntity
  8
Defpoints
 62
     0
100
AcDbPoint
 10
-406.2820217570997
 20
181.3258572828
 30
0.0
  0
POINT
  5
1E1E
330
1DE9
100
AcDbEntity
  8
Defpoints
 62
     0
100
AcDbPoint
 10
-186.3921210451817
 20
184.5832165957
 30
0.0
  0
POINT
  5
1E1F
330
1DE9
100
AcDbEntity
  8
Defpoints
 62
     0
100
AcDbPoint
 10
-186.3921210451817
 20
196.5832165957
 30
0.0
  0
ENDBLK
  5
1DEB
330
1DE9
100
AcDbEntity
  8
0
100
AcDbBlockEnd
  0
BLOCK
  5
1E22
330
1E21
100
AcDbEntity
  8
0
100
AcDbBlockBegin
  2
*D21
 70
     1
 10
0.0
 20
0.0
 30
0.0
  3
*D21
  1

  0
LINE
  5
1E4E
330
1E21
100
AcDbEntity
  8
AM_5
  6
ByBlock
 62
     0
370
    -2
100
AcDbLine
 10
-186.3921210451817
 20
198.0832165957
 30
0.0
 11
-186.3921210451817
 21
198.0832176056999
 31
0.0
  0
LINE
  5
1E4F
330
1E21
100
AcDbEntity
  8
AM_5
  6
ByBlock
 62
     0
370
    -2
100
AcDbLine
 10
20.71797824295
 20
186.0832165957
 30
0.0
 11
20.71797824295
 21
198.0832176056999
 31
0.0
  0
LINE
  5
1E50
330
1E21
100
AcDbEntity
  8
AM_5
  6
ByBlock
 62
     0
370
    -2
100
AcDbLine
 10
-182.8921210451817
 20
196.5832176057
 30
0.0
 11
-86.52457140111588
 21
196.5832176057
 31
0.0
  0
LINE
  5
1E51
330
1E21
100
AcDbEntity
  8
AM_5
  6
ByBlock
 62
     0
370
    -2
100
AcDbLine
 10
17.21797824295
 20
196.5832176057
 30
0.0
 11
-79.14957140111588
 21
196.5832176057
 31
0.0
  0
INSERT
  5
1E52
330
1E21
100
AcDbEntity
  8
AM_5
 62
     0
370
    -2
100
AcDbBlockReference
  2
_FILLED
 10
-186.3921210451817
 20
196.5832176057
 30
0.0
 41
3.5
 42
3.5
 43
3.5
 50
180.0
  0
INSERT
  5
1E53
330
1E21
100
AcDbEntity
  8
AM_5
 62
     0
370
    -2
100
AcDbBlockReference
  2
_FILLED
 10
20.71797824295
 20
196.5832176057
 30
0.0
 41
3.5
 42
3.5
 43
3.5
  0
MTEXT
  5
1E54
330
1E21
100
AcDbEntity
  8
AM_5
 62
     0
100
AcDbMText
 10
-82.83707140111587
 20
196.5832176057
 30
0.0
 40
3.5
 41
0.0
 71
     5
 72
     1
  1
\A1;207
 73
     1
 44
1.0
1001
ACAD
1000
MTEXTBEGIN
1070
    73
1070
     1
1070
    44
1040
1.0
1070
    74
1070
     0
1000
MTEXTEND
  0
POINT
  5
1E55
330
1E21
100
AcDbEntity
  8
Defpoints
 62
     0
100
AcDbPoint
 10
-186.3921210451817
 20
196.5832165957
 30
0.0
  0
POINT
  5
1E56
330
1E21
100
AcDbEntity
  8
Defpoints
 62
     0
100
AcDbPoint
 10
20.71797824295
 20
184.5832165957
 30
0.0
  0
POINT
  5
1E57
330
1E21
100
AcDbEntity
  8
Defpoints
 62
     0
100
AcDbPoint
 10
20.71797824295
 20
196.5832176057
 30
0.0
  0
ENDBLK
  5
1E23
330
1E21
100
AcDbEntity
  8
0
100
AcDbBlockEnd
  0
BLOCK
  5
1E5A
330
1E59
100
AcDbEntity
  8
0
100
AcDbBlockBegin
  2
*D22
 70
     1
 10
0.0
 20
0.0
 30
0.0
  3
*D22
  1

  0
LINE
  5
1E82
330
1E59
100
AcDbEntity
  8
AM_5
  6
ByBlock
 62
     0
370
    -2
100
AcDbLine
 10
243.4826938577825
 20
186.0385441483728
 30
0.0
 11
243.4826938577825
 21
198.0832176056999
 31
0.0
  0
LINE
  5
1E83
330
1E59
100
AcDbEntity
  8
AM_5
  6
ByBlock
 62
     0
370
    -2
100
AcDbLine
 10
24.21797824295
 20
196.5832176057
 30
0.0
 11
128.2086693836995
 21
196.5832176057
 31
0.0
  0
LINE
  5
1E84
330
1E59
100
AcDbEntity
  8
AM_5
  6
ByBlock
 62
     0
370
    -2
100
AcDbLine
 10
239.9826938577825
 20
196.5832176057
 30
0.0
 11
135.9920027170329
 21
196.5832176057
 31
0.0
  0
INSERT
  5
1E85
330
1E59
100
AcDbEntity
  8
AM_5
 62
     0
370
    -2
100
AcDbBlockReference
  2
_FILLED
 10
20.71797824295
 20
196.5832176057
 30
0.0
 41
3.5
 42
3.5
 43
3.5
 50
180.0
  0
INSERT
  5
1E86
330
1E59
100
AcDbEntity
  8
AM_5
 62
     0
370
    -2
100
AcDbBlockReference
  2
_FILLED
 10
243.4826938577825
 20
196.5832176057
 30
0.0
 41
3.5
 42
3.5
 43
3.5
  0
MTEXT
  5
1E87
330
1E59
100
AcDbEntity
  8
AM_5
 62
     0
100
AcDbMText
 10
132.1003360503662
 20
196.5832176057
 30
0.0
 40
3.5
 41
0.0
 71
     5
 72
     1
  1
\A1;223
 73
     1
 44
1.0
1001
ACAD
1000
MTEXTBEGIN
1070
    73
1070
     1
1070
    44
1040
1.0
1070
    74
1070
     0
1000
MTEXTEND
  0
POINT
  5
1E88
330
1E59
100
AcDbEntity
  8
Defpoints
 62
     0
100
AcDbPoint
 10
20.71797824295
 20
196.5832176057
 30
0.0
  0
POINT
  5
1E89
330
1E59
100
AcDbEntity
  8
Defpoints
 62
     0
100
AcDbPoint
 10
243.4826938577825
 20
184.5385441483728
 30
0.0
  0
POINT
  5
1E8A
330
1E59
100
AcDbEntity
  8
Defpoints
 62
     0
100
AcDbPoint
 10
243.4826938577825
 20
196.5832176057
 30
0.0
  0
ENDBLK
  5
1E5B
330
1E59
100
AcDbEntity
  8
0
100
AcDbBlockEnd
  0
BLOCK
  5
1E8D
330
1E8C
100
AcDbEntity
  8
0
100
AcDbBlockBegin
  2
*D23
 70
     1
 10
0.0
 20
0.0
 30
0.0
  3
*D23
  1

  0
LINE
  5
1EAF
330
1E8C
100
AcDbEntity
  8
AM_5
  6
ByBlock
 62
     0
370
    -2
100
AcDbLine
 10
243.4826938577825
 20
186.0385441483728
 30
0.0
 11
243.4826938577825
 21
198.0832165957
 31
0.0
  0
LINE
  5
1EB0
330
1E8C
100
AcDbEntity
  8
AM_5
  6
ByBlock
 62
     0
370
    -2
100
AcDbLine
 10
450.7179782429499
 20
186.0832165957
 30
0.0
 11
450.7179782429499
 21
198.0832165957
 31
0.0
  0
LINE
  5
1EB1
330
1E8C
100
AcDbEntity
  8
AM_5
  6
ByBlock
 62
     0
370
    -2
100
AcDbLine
 10
246.9826938577825
 20
196.5832165957
 30
0.0
 11
343.4128360503663
 21
196.5832165957
 31
0.0
  0
LINE
  5
1EB2
330
1E8C
100
AcDbEntity
  8
AM_5
  6
ByBlock
 62
     0
370
    -2
100
AcDbLine
 10
447.2179782429499
 20
196.5832165957
 30
0.0
 11
350.7878360503663
 21
196.5832165957
 31
0.0
  0
INSERT
  5
1EB3
330
1E8C
100
AcDbEntity
  8
AM_5
 62
     0
370
    -2
100
AcDbBlockReference
  2
_FILLED
 10
243.4826938577825
 20
196.5832165957
 30
0.0
 41
3.5
 42
3.5
 43
3.5
 50
180.0
  0
INSERT
  5
1EB4
330
1E8C
100
AcDbEntity
  8
AM_5
 62
     0
370
    -2
100
AcDbBlockReference
  2
_FILLED
 10
450.7179782429499
 20
196.5832165957
 30
0.0
 41
3.5
 42
3.5
 43
3.5
  0
MTEXT
  5
1EB5
330
1E8C
100
AcDbEntity
  8
AM_5
 62
     0
100
AcDbMText
 10
347.1003360503662
 20
196.5832165957
 30
0.0
 40
3.5
 41
0.0
 71
     5
 72
     1
  1
\A1;207
 73
     1
 44
1.0
1001
ACAD
1000
MTEXTBEGIN
1070
    73
1070
     1
1070
    44
1040
1.0
1070
    74
1070
     0
1000
MTEXTEND
  0
POINT
  5
1EB6
330
1E8C
100
AcDbEntity
  8
Defpoints
 62
     0
100
AcDbPoint
 10
243.4826938577825
 20
184.5385441483728
 30
0.0
  0
POINT
  5
1EB7
330
1E8C
100
AcDbEntity
  8
Defpoints
 62
     0
100
AcDbPoint
 10
450.7179782429499
 20
184.5832165957
 30
0.0
  0
POINT
  5
1EB8
330
1E8C
100
AcDbEntity
  8
Defpoints
 62
     0
100
AcDbPoint
 10
450.7179782429499
 20
196.5832165957
 30
0.0
  0
ENDBLK
  5
1E8E
330
1E8C
100
AcDbEntity
  8
0
100
AcDbBlockEnd
  0
BLOCK
  5
1EBB
330
1EBA
100
AcDbEntity
  8
0
100
AcDbBlockBegin
  2
*D24
 70
     1
 10
0.0
 20
0.0
 30
0.0
  3
*D24
  1

  0
LINE
  5
1EDD
330
1EBA
100
AcDbEntity
  8
AM_5
  6
ByBlock
 62
     0
370
    -2
100
AcDbLine
 10
450.7179782429499
 20
186.0832165957
 30
0.0
 11
450.7179782429499
 21
198.0832165957
 31
0.0
  0
LINE
  5
1EDE
330
1EBA
100
AcDbEntity
  8
AM_5
  6
ByBlock
 62
     0
370
    -2
100
AcDbLine
 10
670.7179782429
 20
182.95453693925
 30
0.0
 11
670.7179782429
 21
198.0832165957
 31
0.0
  0
LINE
  5
1EDF
330
1EBA
100
AcDbEntity
  8
AM_5
  6
ByBlock
 62
     0
370
    -2
100
AcDbLine
 10
454.2179782429498
 20
196.5832165957
 30
0.0
 11
557.030478242925
 21
196.5832165957
 31
0.0
  0
LINE
  5
1EE0
330
1EBA
100
AcDbEntity
  8
AM_5
  6
ByBlock
 62
     0
370
    -2
100
AcDbLine
 10
667.2179782429
 20
196.5832165957
 30
0.0
 11
564.4054782429249
 21
196.5832165957
 31
0.0
  0
INSERT
  5
1EE1
330
1EBA
100
AcDbEntity
  8
AM_5
 62
     0
370
    -2
100
AcDbBlockReference
  2
_FILLED
 10
450.7179782429499
 20
196.5832165957
 30
0.0
 41
3.5
 42
3.5
 43
3.5
 50
180.0
  0
INSERT
  5
1EE2
330
1EBA
100
AcDbEntity
  8
AM_5
 62
     0
370
    -2
100
AcDbBlockReference
  2
_FILLED
 10
670.7179782429
 20
196.5832165957
 30
0.0
 41
3.5
 42
3.5
 43
3.5
  0
MTEXT
  5
1EE3
330
1EBA
100
AcDbEntity
  8
AM_5
 62
     0
100
AcDbMText
 10
560.717978242925
 20
196.5832165957
 30
0.0
 40
3.5
 41
0.0
 71
     5
 72
     1
  1
\A1;220
 73
     1
 44
1.0
1001
ACAD
1000
MTEXTBEGIN
1070
    73
1070
     1
1070
    44
1040
1.0
1070
    74
1070
     0
1000
MTEXTEND
  0
POINT
  5
1EE4
330
1EBA
100
AcDbEntity
  8
Defpoints
 62
     0
100
AcDbPoint
 10
450.7179782429499
 20
184.5832165957
 30
0.0
  0
POINT
  5
1EE5
330
1EBA
100
AcDbEntity
  8
Defpoints
 62
     0
100
AcDbPoint
 10
670.7179782429
 20
181.45453693925
 30
0.0
  0
POINT
  5
1EE6
330
1EBA
100
AcDbEntity
  8
Defpoints
 62
     0
100
AcDbPoint
 10
670.7179782429
 20
196.5832165957
 30
0.0
  0
ENDBLK
  5
1EBC
330
1EBA
100
AcDbEntity
  8
0
100
AcDbBlockEnd
  0
BLOCK
  5
234D
330
234C
100
AcDbEntity
  8
0
100
AcDbBlockBegin
  2
*D25
 70
     1
 10
0.0
 20
0.0
 30
0.0
  3
*D25
  1

  0
LINE
  5
236F
330
234C
100
AcDbEntity
  8
AM_5
  6
ByBlock
 62
     0
370
    -2
100
AcDbLine
 10
16.71797824295
 20
186.0832165957
 30
0.0
 11
16.71797824295
 21
193.9549558422071
 31
0.0
  0
LINE
  5
2370
330
234C
100
AcDbEntity
  8
AM_5
  6
ByBlock
 62
     0
370
    -2
100
AcDbLine
 10
247.4826938577825
 20
186.0385441483728
 30
0.0
 11
247.4826938577825
 21
193.9549558422071
 31
0.0
  0
LINE
  5
2371
330
234C
100
AcDbEntity
  8
AM_5
  6
ByBlock
 62
     0
370
    -2
100
AcDbLine
 10
20.21797824295
 20
192.4549558422071
 30
0.0
 11
128.6170027170329
 21
192.4549558422071
 31
0.0
  0
LINE
  5
2372
330
234C
100
AcDbEntity
  8
AM_5
  6
ByBlock
 62
     0
370
    -2
100
AcDbLine
 10
243.9826938577825
 20
192.4549558422071
 30
0.0
 11
135.5836693836995
 21
192.4549558422071
 31
0.0
  0
INSERT
  5
2373
330
234C
100
AcDbEntity
  8
AM_5
 62
     0
370
    -2
100
AcDbBlockReference
  2
_FILLED
 10
16.71797824295
 20
192.4549558422071
 30
0.0
 41
3.5
 42
3.5
 43
3.5
 50
180.0
  0
INSERT
  5
2374
330
234C
100
AcDbEntity
  8
AM_5
 62
     0
370
    -2
100
AcDbBlockReference
  2
_FILLED
 10
247.4826938577825
 20
192.4549558422071
 30
0.0
 41
3.5
 42
3.5
 43
3.5
  0
MTEXT
  5
2375
330
234C
100
AcDbEntity
  8
AM_5
 62
     0
100
AcDbMText
 10
132.1003360503662
 20
192.4549558422071
 30
0.0
 40
3.5
 41
0.0
 71
     5
 72
     1
  1
\A1;231
 73
     1
 44
1.0
1001
ACAD
1000
MTEXTBEGIN
1070
    73
1070
     1
1070
    44
1040
1.0
1070
    74
1070
     0
1000
MTEXTEND
  0
POINT
  5
2376
330
234C
100
AcDbEntity
  8
Defpoints
 62
     0
100
AcDbPoint
 10
16.71797824295
 20
184.5832165957
 30
0.0
  0
POINT
  5
2377
330
234C
100
AcDbEntity
  8
Defpoints
 62
     0
100
AcDbPoint
 10
247.4826938577825
 20
184.5385441483728
 30
0.0
  0
POINT
  5
2378
330
234C
100
AcDbEntity
  8
Defpoints
 62
     0
100
AcDbPoint
 10
247.4826938577825
 20
192.4549558422071
 30
0.0
  0
ENDBLK
  5
234E
330
234C
100
AcDbEntity
  8
0
100
AcDbBlockEnd
  0
BLOCK
  5
23A9
330
23A8
100
AcDbEntity
  8
0
100
AcDbBlockBegin
  2
*D26
 70
     1
 10
0.0
 20
0.0
 30
0.0
  3
*D26
  1

  0
LINE
  5
23CB
330
23A8
100
AcDbEntity
  8
AM_5
  6
ByBlock
 62
     0
370
    -2
100
AcDbLine
 10
247.4826938577825
 20
187.5385441483728
 30
0.0
 11
247.4826938577825
 21
194.5167767526332
 31
0.0
  0
LINE
  5
23CC
330
23A8
100
AcDbEntity
  8
AM_5
  6
ByBlock
 62
     0
370
    -2
100
AcDbLine
 10
477.7179782429499
 20
186.0832165957
 30
0.0
 11
477.7179782429499
 21
194.5167767526332
 31
0.0
  0
LINE
  5
23CD
330
23A8
100
AcDbEntity
  8
AM_5
  6
ByBlock
 62
     0
370
    -2
100
AcDbLine
 10
250.9826938577825
 20
193.0167767526332
 30
0.0
 11
358.9128360503662
 21
193.0167767526332
 31
0.0
  0
LINE
  5
23CE
330
23A8
100
AcDbEntity
  8
AM_5
  6
ByBlock
 62
     0
370
    -2
100
AcDbLine
 10
474.2179782429499
 20
193.0167767526332
 30
0.0
 11
366.2878360503662
 21
193.0167767526332
 31
0.0
  0
INSERT
  5
23CF
330
23A8
100
AcDbEntity
  8
AM_5
 62
     0
370
    -2
100
AcDbBlockReference
  2
_FILLED
 10
247.4826938577825
 20
193.0167767526332
 30
0.0
 41
3.5
 42
3.5
 43
3.5
 50
180.0
  0
INSERT
  5
23D0
330
23A8
100
AcDbEntity
  8
AM_5
 62
     0
370
    -2
100
AcDbBlockReference
  2
_FILLED
 10
477.7179782429499
 20
193.0167767526332
 30
0.0
 41
3.5
 42
3.5
 43
3.5
  0
MTEXT
  5
23D1
330
23A8
100
AcDbEntity
  8
AM_5
 62
     0
100
AcDbMText
 10
362.6003360503662
 20
193.0167767526332
 30
0.0
 40
3.5
 41
0.0
 71
     5
 72
     1
  1
\A1;230
 73
     1
 44
1.0
1001
ACAD
1000
MTEXTBEGIN
1070
    73
1070
     1
1070
    44
1040
1.0
1070
    74
1070
     0
1000
MTEXTEND
  0
POINT
  5
23D2
330
23A8
100
AcDbEntity
  8
Defpoints
 62
     0
100
AcDbPoint
 10
247.4826938577825
 20
186.0385441483728
 30
0.0
  0
POINT
  5
23D3
330
23A8
100
AcDbEntity
  8
Defpoints
 62
     0
100
AcDbPoint
 10
477.7179782429499
 20
184.5832165957
 30
0.0
  0
POINT
  5
23D4
330
23A8
100
AcDbEntity
  8
Defpoints
 62
     0
100
AcDbPoint
 10
477.7179782429499
 20
193.0167767526332
 30
0.0
  0
ENDBLK
  5
23AA
330
23A8
100
AcDbEntity
  8
0
100
AcDbBlockEnd
  0
BLOCK
  5
23D7
330
23D6
100
AcDbEntity
  8
0
100
AcDbBlockBegin
  2
*D27
 70
     1
 10
0.0
 20
0.0
 30
0.0
  3
*D27
  1

  0
LINE
  5
23EF
330
23D6
100
AcDbEntity
  8
AM_5
  6
ByBlock
 62
     0
370
    -2
100
AcDbLine
 10
477.7179782429499
 20
187.5832165957
 30
0.0
 11
477.7179782429499
 21
194.2754169240934
 31
0.0
  0
LINE
  5
23F0
330
23D6
100
AcDbEntity
  8
AM_5
  6
ByBlock
 62
     0
370
    -2
100
AcDbLine
 10
720.7179782428998
 20
183.0832165957
 30
0.0
 11
720.7179782428998
 21
194.2754169240934
 31
0.0
  0
LINE
  5
23F1
330
23D6
100
AcDbEntity
  8
AM_5
  6
ByBlock
 62
     0
370
    -2
100
AcDbLine
 10
481.2179782429499
 20
192.7754169240934
 30
0.0
 11
595.3263115762584
 21
192.7754169240934
 31
0.0
  0
LINE
  5
23F2
330
23D6
100
AcDbEntity
  8
AM_5
  6
ByBlock
 62
     0
370
    -2
100
AcDbLine
 10
717.2179782428998
 20
192.7754169240934
 30
0.0
 11
603.1096449095915
 21
192.7754169240934
 31
0.0
  0
INSERT
  5
23F3
330
23D6
100
AcDbEntity
  8
AM_5
 62
     0
370
    -2
100
AcDbBlockReference
  2
_FILLED
 10
477.7179782429499
 20
192.7754169240934
 30
0.0
 41
3.5
 42
3.5
 43
3.5
 50
180.0
  0
INSERT
  5
23F4
330
23D6
100
AcDbEntity
  8
AM_5
 62
     0
370
    -2
100
AcDbBlockReference
  2
_FILLED
 10
720.7179782428998
 20
192.7754169240934
 30
0.0
 41
3.5
 42
3.5
 43
3.5
  0
MTEXT
  5
23F5
330
23D6
100
AcDbEntity
  8
AM_5
 62
     0
100
AcDbMText
 10
599.217978242925
 20
192.7754169240934
 30
0.0
 40
3.5
 41
0.0
 71
     5
 72
     1
  1
\A1;243
 73
     1
 44
1.0
1001
ACAD
1000
MTEXTBEGIN
1070
    73
1070
     1
1070
    44
1040
1.0
1070
    74
1070
     0
1000
MTEXTEND
  0
POINT
  5
23F6
330
23D6
100
AcDbEntity
  8
Defpoints
 62
     0
100
AcDbPoint
 10
477.7179782429499
 20
186.0832165957
 30
0.0
  0
POINT
  5
23F7
330
23D6
100
AcDbEntity
  8
Defpoints
 62
     0
100
AcDbPoint
 10
720.7179782428998
 20
181.5832165957
 30
0.0
  0
POINT
  5
23F8
330
23D6
100
AcDbEntity
  8
Defpoints
 62
     0
100
AcDbPoint
 10
720.7179782428998
 20
192.7754169240934
 30
0.0
  0
ENDBLK
  5
23D8
330
23D6
100
AcDbEntity
  8
0
100
AcDbBlockEnd
  0
BLOCK
  5
23FB
330
23FA
100
AcDbEntity
  8
0
100
AcDbBlockBegin
  2
*D28
 70
     1
 10
0.0
 20
0.0
 30
0.0
  3
*D28
  1

  0
LINE
  5
241D
330
23FA
100
AcDbEntity
  8
AM_5
  6
ByBlock
 62
     0
370
    -2
100
AcDbLine
 10
-213.3921210451817
 20
186.0832165957
 30
0.0
 11
-213.3921210451817
 21
193.5749558422071
 31
0.0
  0
LINE
  5
241E
330
23FA
100
AcDbEntity
  8
AM_5
  6
ByBlock
 62
     0
370
    -2
100
AcDbLine
 10
16.71797824295
 20
186.0832165957
 30
0.0
 11
16.71797824295
 21
193.5749558422071
 31
0.0
  0
LINE
  5
241F
330
23FA
100
AcDbEntity
  8
AM_5
  6
ByBlock
 62
     0
370
    -2
100
AcDbLine
 10
-209.8921210451817
 20
192.0749558422071
 30
0.0
 11
-102.0245714011158
 21
192.0749558422071
 31
0.0
  0
LINE
  5
2420
330
23FA
100
AcDbEntity
  8
AM_5
  6
ByBlock
 62
     0
370
    -2
100
AcDbLine
 10
13.21797824294999
 20
192.0749558422071
 30
0.0
 11
-94.64957140111584
 21
192.0749558422071
 31
0.0
  0
INSERT
  5
2421
330
23FA
100
AcDbEntity
  8
AM_5
 62
     0
370
    -2
100
AcDbBlockReference
  2
_FILLED
 10
-213.3921210451817
 20
192.0749558422071
 30
0.0
 41
3.5
 42
3.5
 43
3.5
 50
180.0
  0
INSERT
  5
2422
330
23FA
100
AcDbEntity
  8
AM_5
 62
     0
370
    -2
100
AcDbBlockReference
  2
_FILLED
 10
16.71797824295
 20
192.0749558422071
 30
0.0
 41
3.5
 42
3.5
 43
3.5
  0
MTEXT
  5
2423
330
23FA
100
AcDbEntity
  8
AM_5
 62
     0
100
AcDbMText
 10
-98.33707140111584
 20
192.0749558422071
 30
0.0
 40
3.5
 41
0.0
 71
     5
 72
     1
  1
\A1;230
 73
     1
 44
1.0
1001
ACAD
1000
MTEXTBEGIN
1070
    73
1070
     1
1070
    44
1040
1.0
1070
    74
1070
     0
1000
MTEXTEND
  0
POINT
  5
2424
330
23FA
100
AcDbEntity
  8
Defpoints
 62
     0
100
AcDbPoint
 10
-213.3921210451817
 20
184.5832165957
 30
0.0
  0
POINT
  5
2425
330
23FA
100
AcDbEntity
  8
Defpoints
 62
     0
100
AcDbPoint
 10
16.71797824295
 20
184.5832165957
 30
0.0
  0
POINT
  5
2426
330
23FA
100
AcDbEntity
  8
Defpoints
 62
     0
100
AcDbPoint
 10
16.71797824295
 20
192.0749558422071
 30
0.0
  0
ENDBLK
  5
23FC
330
23FA
100
AcDbEntity
  8
0
100
AcDbBlockEnd
  0
BLOCK
  5
2429
330
2428
100
AcDbEntity
  8
0
100
AcDbBlockBegin
  2
*D29
 70
     1
 10
0.0
 20
0.0
 30
0.0
  3
*D29
  1

  0
LINE
  5
244B
330
2428
100
AcDbEntity
  8
AM_5
  6
ByBlock
 62
     0
370
    -2
100
AcDbLine
 10
-456.213882726699
 20
182.8258572828
 30
0.0
 11
-456.213882726699
 21
193.2171947602191
 31
0.0
  0
LINE
  5
244C
330
2428
100
AcDbEntity
  8
AM_5
  6
ByBlock
 62
     0
370
    -2
100
AcDbLine
 10
-213.3921210451817
 20
186.0832165957
 30
0.0
 11
-213.3921210451817
 21
193.2171947602191
 31
0.0
  0
LINE
  5
244D
330
2428
100
AcDbEntity
  8
AM_5
  6
ByBlock
 62
     0
370
    -2
100
AcDbLine
 10
-452.7138827266991
 20
191.7171947602192
 30
0.0
 11
-338.6946685526071
 21
191.7171947602192
 31
0.0
  0
LINE
  5
244E
330
2428
100
AcDbEntity
  8
AM_5
  6
ByBlock
 62
     0
370
    -2
100
AcDbLine
 10
-216.8921210451817
 20
191.7171947602192
 30
0.0
 11
-330.9113352192738
 21
191.7171947602192
 31
0.0
  0
INSERT
  5
244F
330
2428
100
AcDbEntity
  8
AM_5
 62
     0
370
    -2
100
AcDbBlockReference
  2
_FILLED
 10
-456.213882726699
 20
191.7171947602192
 30
0.0
 41
3.5
 42
3.5
 43
3.5
 50
180.0
  0
INSERT
  5
2450
330
2428
100
AcDbEntity
  8
AM_5
 62
     0
370
    -2
100
AcDbBlockReference
  2
_FILLED
 10
-213.3921210451817
 20
191.7171947602192
 30
0.0
 41
3.5
 42
3.5
 43
3.5
  0
MTEXT
  5
2451
330
2428
100
AcDbEntity
  8
AM_5
 62
     0
100
AcDbMText
 10
-334.8030018859404
 20
191.7171947602192
 30
0.0
 40
3.5
 41
0.0
 71
     5
 72
     1
  1
\A1;243
 73
     1
 44
1.0
1001
ACAD
1000
MTEXTBEGIN
1070
    73
1070
     1
1070
    44
1040
1.0
1070
    74
1070
     0
1000
MTEXTEND
  0
POINT
  5
2452
330
2428
100
AcDbEntity
  8
Defpoints
 62
     0
100
AcDbPoint
 10
-456.213882726699
 20
181.3258572828
 30
0.0
  0
POINT
  5
2453
330
2428
100
AcDbEntity
  8
Defpoints
 62
     0
100
AcDbPoint
 10
-213.3921210451817
 20
184.5832165957
 30
0.0
  0
POINT
  5
2454
330
2428
100
AcDbEntity
  8
Defpoints
 62
     0
100
AcDbPoint
 10
-213.3921210451817
 20
191.7171947602192
 30
0.0
  0
ENDBLK
  5
242A
330
2428
100
AcDbEntity
  8
0
100
AcDbBlockEnd
  0
ENDSEC
  0
SECTION
  2
ENTITIES
  0
DIMENSION
  5
23E
330
208
100
AcDbEntity
  8
P-0000
  6
Continuous
100
AcDbDimension
  2
*D1
 10
715.2179782428999
 20
102.0944494779
 30
0.0
 11
132.2179782429
 21
102.0944494779
 31
0.0
 70
   160
 71
     2
 42
1166.0
  3
883N99122_001_00149479900
100
AcDbAlignedDimension
 13
-450.7820217571
 23
128.8332165957
 33
0.0
 14
715.2179782428999
 24
128.8332165957
 34
0.0
100
AcDbRotatedDimension
1001
GENIUS_GENDTOL_13
1000
TolAcTol
1000

1000

1040
666.0
1001
ACAD_DSTYLE_DIMINSPECT
1070
   396
1000
100%
1070
   395
1000

1070
   394
1070
    33
1070
   393
1070
     0
1001
ACAD
1000
DSTYLE
1002
{
1070
   279
1070
     2
1070
   288
1070
     1
1002
}
  0
DIMENSION
  5
23F
330
208
100
AcDbEntity
  8
P-0000
  6
Continuous
100
AcDbDimension
  2
*D2
 10
731.0929317268
 20
184.5832165957
 30
0.0
 11
731.0929317268
 21
153.0832165957
 31
0.0
 70
   160
 71
     2
 42
63.00000000000003
  3
883N99122_001_00149479900
100
AcDbAlignedDimension
 13
717.7179782428999
 23
121.5832165957
 33
0.0
 14
717.7179782428999
 24
184.5832165957
 34
0.0
 50
90.0
100
AcDbRotatedDimension
1001
ACAD
1000
DSTYLE
1002
{
1070
   279
1070
     2
1070
   288
1070
     1
1002
}
  0
DIMENSION
  5
240
330
208
100
AcDbEntity
  8
P-0000
  6
Continuous
100
AcDbDimension
  2
*D3
 10
-466.6713935624
 20
127.0832165957
 30
0.0
 11
-466.6713935624
 21
153.0832165957
 31
0.0
 70
   160
 71
     2
 42
52.0
  3
883N99122_001_00149479900
100
AcDbAlignedDimension
 13
-449.0320217570998
 23
179.0832165957
 33
0.0
 14
-449.0320217570998
 24
127.0832165957
 34
0.0
 50
270.0
100
AcDbRotatedDimension
1001
ACAD
1000
DSTYLE
1002
{
1070
   279
1070
     2
1070
   288
1070
     1
1002
}
  0
DIMENSION
  5
241
330
208
100
AcDbEntity
  8
P-0000
  6
Continuous
100
AcDbDimension
  2
*D4
 10
-456.2769925155726
 20
218.1800417493796
 30
0.0
 11
137.9402165078749
 21
218.1800417493796
 31
0.0
 70
   160
 71
     2
 42
1177.038582745634
  3
883N99122_001_00149479900
100
AcDbAlignedDimension
 13
720.7615902300617
 23
238.2549251557
 33
0.0
 14
-456.2769925155726
 24
238.2549251557
 34
0.0
 50
180.0
100
AcDbRotatedDimension
1001
ACAD_DSTYLE_DIMINSPECT
1070
   396
1000
100%
1070
   395
1000

1070
   394
1070
    33
1070
   393
1070
     0
1001
ACAD
1000
DSTYLE
1002
{
1070
   271
1070
     0
1070
   288
1070
     1
1002
}
  0
LINE
  5
242
330
208
100
AcDbEntity
  8
RUNDUNGEN
  6
Continuous
 62
     7
100
AcDbLine
 10
-456.2820217570997
 20
124.5832165957
 30
0.0
 11
-456.2820217570997
 21
124.8405759086
 31
0.0
  0
LINE
  5
243
330
208
100
AcDbEntity
  8
RUNDUNGEN
  6
Continuous
 62
     7
100
AcDbLine
 10
-456.2820217570997
 20
181.3258572828
 30
0.0
 11
-456.2820217570997
 21
181.5832165957
 31
0.0
  0
LINE
  5
244
330
208
100
AcDbEntity
  8
0
  6
Continuous
 62
     9
100
AcDbLine
 10
-455.4033479993
 20
126.719864925
 30
0.0
 11
-455.4033479993
 21
127.3564687485
 31
0.0
  0
LINE
  5
245
330
208
100
AcDbEntity
  8
0
  6
Continuous
 62
     9
100
AcDbLine
 10
-455.4033452631001
 20
178.8099833806
 30
0.0
 11
-455.4033452631001
 21
179.4465888621
 31
0.0
  0
LINE
  5
246
330
208
100
AcDbEntity
  8
0
  6
Continuous
 62
     7
100
AcDbLine
 10
-454.2820217571
 20
179.0832165957
 30
0.0
 11
-454.2820217571
 21
178.0832165957
 31
0.0
  0
LINE
  5
247
330
208
100
AcDbEntity
  8
0
  6
Continuous
 62
     7
100
AcDbLine
 10
-454.2820217571
 20
127.0832165957
 30
0.0
 11
-454.2820217571
 21
128.0832165957
 31
0.0
  0
LINE
  5
248
330
208
100
AcDbEntity
  8
RUNDUNGEN
  6
Continuous
 62
     9
100
AcDbLine
 10
-451.2035946323
 20
128.0832165957
 30
0.0
 11
-451.2035946323
 21
127.0832165957
 31
0.0
  0
LINE
  5
249
330
208
100
AcDbEntity
  8
RUNDUNGEN
  6
Continuous
 62
     9
100
AcDbLine
 10
-451.2035946323
 20
178.0832165957
 30
0.0
 11
-451.2035946323
 21
179.0832165957
 31
0.0
  0
LINE
  5
24A
330
208
100
AcDbEntity
  8
0
  6
Continuous
 62
     7
100
AcDbLine
 10
-450.7820217571
 20
127.8332165957
 30
0.0
 11
-450.7820217571
 21
178.3332165957
 31
0.0
  0
LINE
  5
24B
330
208
100
AcDbEntity
  8
0
  6
Continuous
 62
     7
100
AcDbLine
 10
-450.0320217570997
 20
128.0832165957
 30
0.0
 11
-450.0320217570997
 21
127.0832165957
 31
0.0
  0
LINE
  5
24C
330
208
100
AcDbEntity
  8
0
  6
Continuous
 62
     7
100
AcDbLine
 10
-450.0320217570997
 20
178.0832165957
 30
0.0
 11
-450.0320217570997
 21
179.0832165957
 31
0.0
  0
LINE
  5
24D
330
208
100
AcDbEntity
  8
0
  6
Continuous
 62
     0
100
AcDbLine
 10
-449.7820217571
 20
127.8332165957
 30
0.0
 11
-449.7820217571
 21
128.8332165957
 31
0.0
  0
LINE
  5
24E
330
208
100
AcDbEntity
  8
0
  6
Continuous
 62
     0
100
AcDbLine
 10
-449.7820217571
 20
177.3332165957
 30
0.0
 11
-449.7820217571
 21
178.3332165957
 31
0.0
  0
LINE
  5
24F
330
208
100
AcDbEntity
  8
0
  6
Continuous
 62
     7
100
AcDbLine
 10
-449.0320217570998
 20
128.8332165957
 30
0.0
 11
-449.0320217570998
 21
127.0832165957
 31
0.0
  0
LINE
  5
250
330
208
100
AcDbEntity
  8
0
  6
Continuous
 62
     7
100
AcDbLine
 10
-449.0320217570998
 20
177.3332165957
 30
0.0
 11
-449.0320217570998
 21
179.0832165957
 31
0.0
  0
LINE
  5
251
330
208
100
AcDbEntity
  8
0
  6
Continuous
 62
     7
100
AcDbLine
 10
-448.7820217570997
 20
177.0832165957
 30
0.0
 11
-448.7820217570997
 21
129.0832165957
 31
0.0
  0
LINE
  5
252
330
208
100
AcDbEntity
  8
0
  6
Continuous
 62
     9
100
AcDbLine
 10
-448.0320217571
 20
129.8332165957
 30
0.0
 11
-448.0320217571
 21
176.3332165957
 31
0.0
  0
LINE
  5
253
330
208
100
AcDbEntity
  8
0
  6
Continuous
 62
     7
100
AcDbLine
 10
-432.4876264038
 20
124.5479404153
 30
0.0
 11
-432.0762503911
 21
126.0832165957
 31
0.0
  0
LINE
  5
254
330
208
100
AcDbEntity
  8
0
  6
Continuous
 62
     7
100
AcDbLine
 10
-432.0762503911
 20
180.0832165957
 30
0.0
 11
-432.4876264038
 21
181.6184927761
 31
0.0
  0
LINE
  5
255
330
208
100
AcDbEntity
  8
BEZUGSACHSEN
  6
CENTER
 62
     2
100
AcDbLine
 10
-337.7820217571
 20
153.0832165957
 30
0.0
 11
-337.7820217571
 21
145.0832165957
 31
0.0
  0
LINE
  5
256
330
208
100
AcDbEntity
  8
BEZUGSACHSEN
  6
CENTER
 62
     2
100
AcDbLine
 10
-337.7820217571
 20
153.0832165957
 30
0.0
 11
-337.7820217571
 21
161.0832165957
 31
0.0
  0
LINE
  5
257
330
208
100
AcDbEntity
  8
0
  6
Continuous
 62
     7
100
AcDbLine
 10
5.9235828897
 20
181.6184927761
 30
0.0
 11
5.512206876999996
 21
180.0832165957
 31
0.0
  0
LINE
  5
258
330
208
100
AcDbEntity
  8
0
  6
Continuous
 62
     7
100
AcDbLine
 10
-224.5934954153328
 20
126.0832165957
 30
0.0
 11
-224.1821194026327
 21
124.5479404153
 31
0.0
  0
LINE
  5
259
330
208
100
AcDbEntity
  8
0
  6
Continuous
 62
     7
100
AcDbLine
 10
-202.5933286961327
 20
124.5479404153
 30
0.0
 11
-202.1819526834328
 21
126.0832165957
 31
0.0
  0
LINE
  5
25A
330
208
100
AcDbEntity
  8
0
  6
Continuous
 62
     7
100
AcDbLine
 10
27.5123735962
 20
181.6184927761
 30
0.0
 11
27.92374960889999
 21
180.0832165957
 31
0.0
  0
LINE
  5
25B
330
208
100
AcDbEntity
  8
RUNDUNGEN
  6
Continuous
 62
     7
100
AcDbLine
 10
-453.2820217570998
 20
121.5832165957
 30
0.0
 11
-436.351329709
 21
121.5832165957
 31
0.0
  0
LINE
  5
25C
330
208
100
AcDbEntity
  8
RUNDUNGEN
  6
Continuous
 62
     7
100
AcDbLine
 10
-220.3184160974328
 20
121.5832165957
 30
0.0
 11
-206.4570320013328
 21
121.5832165957
 31
0.0
  0
LINE
  5
25D
330
208
100
AcDbEntity
  8
RUNDUNGEN
  6
Continuous
 62
     7
100
AcDbLine
 10
470.8096418745117
 20
121.5832165957
 30
0.0
 11
484.6710259706116
 21
121.5832165957
 31
0.0
  0
LINE
  5
25E
330
208
100
AcDbEntity
  8
RUNDUNGEN
  6
Continuous
 62
     7
100
AcDbLine
 10
700.7872861948999
 20
121.5832165957
 30
0.0
 11
717.7179782428999
 21
121.5832165957
 31
0.0
  0
LINE
  5
25F
330
208
100
AcDbEntity
  8
0
  6
Continuous
 62
     9
100
AcDbLine
 10
-456.0125609204
 20
126.0832165957
 30
0.0
 11
-432.0762503911
 21
126.0832165957
 31
0.0
  0
LINE
  5
260
330
208
100
AcDbEntity
  8
0
  6
Continuous
 62
     9
100
AcDbLine
 10
-224.5934954153328
 20
126.0832165957
 30
0.0
 11
-202.1819526834328
 21
126.0832165957
 31
0.0
  0
LINE
  5
261
330
208
100
AcDbEntity
  8
0
  6
Continuous
 62
     9
100
AcDbLine
 10
466.5345625566117
 20
126.0832165957
 30
0.0
 11
488.9461052885116
 21
126.0832165957
 31
0.0
  0
LINE
  5
262
330
208
100
AcDbEntity
  8
0
  6
Continuous
 62
     9
100
AcDbLine
 10
696.5122068769995
 20
126.0832165957
 30
0.0
 11
720.4485174062997
 21
126.0832165957
 31
0.0
  0
LINE
  5
263
330
208
100
AcDbEntity
  8
RUNDUNGEN
  6
Continuous
 62
     7
100
AcDbLine
 10
715.6395511181997
 20
127.0832165957
 30
0.0
 11
714.4679782428998
 21
127.0832165957
 31
0.0
  0
LINE
  5
264
330
208
100
AcDbEntity
  8
0
  6
Continuous
 62
     7
100
AcDbLine
 10
-454.2820217571
 20
127.0832165957
 30
0.0
 11
-451.2035946323
 21
127.0832165957
 31
0.0
  0
LINE
  5
265
330
208
100
AcDbEntity
  8
0
  6
Continuous
 62
     7
100
AcDbLine
 10
713.4679782429001
 20
127.0832165957
 30
0.0
 11
-449.0320217570998
 21
127.0832165956999
 31
0.0
  0
LINE
  5
266
330
208
100
AcDbEntity
  8
RUNDUNGEN
  6
Continuous
 62
     7
100
AcDbLine
 10
-450.0320217570997
 20
127.0832165957
 30
0.0
 11
-451.2035946323
 21
127.0832165957
 31
0.0
  0
LINE
  5
267
330
208
100
AcDbEntity
  8
0
  6
Continuous
 62
     7
100
AcDbLine
 10
715.6395511181997
 20
127.0832165957
 30
0.0
 11
718.7179782428999
 21
127.0832165957
 31
0.0
  0
LINE
  5
268
330
208
100
AcDbEntity
  8
0
  6
Continuous
 62
     7
100
AcDbLine
 10
-449.7820217571
 20
127.8332165957
 30
0.0
 11
-450.7820217571
 21
127.8332165957
 31
0.0
  0
LINE
  5
269
330
208
100
AcDbEntity
  8
0
  6
Continuous
 62
     7
100
AcDbLine
 10
714.2179782428999
 20
127.8332165957
 30
0.0
 11
715.2179782428999
 21
127.8332165957
 31
0.0
  0
LINE
  5
26A
330
208
100
AcDbEntity
  8
0
  6
Continuous
 62
     0
100
AcDbLine
 10
714.4679782428998
 20
128.0832165957
 30
0.0
 11
713.4679782428999
 21
128.0832165957
 31
0.0
  0
LINE
  5
26B
330
208
100
AcDbEntity
  8
0
  6
Continuous
 62
     0
100
AcDbLine
 10
-454.2820217571
 20
128.0832165957
 30
0.0
 11
-451.2035946323
 21
128.0832165957
 31
0.0
  0
LINE
  5
26C
330
208
100
AcDbEntity
  8
RUNDUNGEN
  6
Continuous
 62
     0
100
AcDbLine
 10
-451.2035946323
 20
128.0832165957
 30
0.0
 11
-450.7820217571
 21
128.0832165957
 31
0.0
  0
LINE
  5
26D
330
208
100
AcDbEntity
  8
0
  6
Continuous
 62
     0
100
AcDbLine
 10
-449.0320217570998
 20
128.0832165957
 30
0.0
 11
-450.0320217570997
 21
128.0832165957
 31
0.0
  0
LINE
  5
26E
330
208
100
AcDbEntity
  8
RUNDUNGEN
  6
Continuous
 62
     0
100
AcDbLine
 10
715.2179782428999
 20
128.0832165957
 30
0.0
 11
715.6395511181997
 21
128.0832165957
 31
0.0
  0
LINE
  5
26F
330
208
100
AcDbEntity
  8
0
  6
Continuous
 62
     0
100
AcDbLine
 10
715.6395511181997
 20
128.0832165957
 30
0.0
 11
718.7179782428999
 21
128.0832165957
 31
0.0
  0
LINE
  5
270
330
208
100
AcDbEntity
  8
0
  6
Continuous
 62
     7
100
AcDbLine
 10
-449.0320217570998
 20
128.8332165957
 30
0.0
 11
-450.7820217571
 21
128.8332165957
 31
0.0
  0
LINE
  5
271
330
208
100
AcDbEntity
  8
0
  6
Continuous
 62
     7
100
AcDbLine
 10
713.4679782428999
 20
128.8332165957
 30
0.0
 11
715.2179782428999
 21
128.8332165957
 31
0.0
  0
LINE
  5
272
330
208
100
AcDbEntity
  8
0
  6
Continuous
 62
     7
100
AcDbLine
 10
-448.7820217570997
 20
129.0832165957
 30
0.0
 11
713.2179782428998
 21
129.0832165957
 31
0.0
  0
LINE
  5
273
330
208
100
AcDbEntity
  8
0
  6
Continuous
 62
     9
100
AcDbLine
 10
712.4679782428999
 20
129.8332165957
 30
0.0
 11
-448.0320217571
 21
129.8332165957
 31
0.0
  0
LINE
  5
274
330
208
100
AcDbEntity
  8
TEIL_STARTBEZUEGE
  6
CENTER
 62
     2
100
AcDbLine
 10
132.2179782429
 20
153.0832165957
 30
0.0
 11
132.2179782429
 21
145.7676487895
 31
0.0
  0
LINE
  5
275
330
208
100
AcDbEntity
  8
TEIL_STARTBEZUEGE
  6
CENTER
 62
     2
100
AcDbLine
 10
132.2179782429
 20
153.0832165957
 30
0.0
 11
132.2179782429
 21
160.2667386897
 31
0.0
  0
LINE
  5
276
330
208
100
AcDbEntity
  8
BEZUGSACHSEN
  6
CENTER
 62
     2
100
AcDbLine
 10
602.2179782429
 20
153.0832165957
 30
0.0
 11
594.2179782429
 21
153.0832165957
 31
0.0
  0
LINE
  5
277
330
208
100
AcDbEntity
  8
TEIL_STARTBEZUEGE
  6
CENTER
 62
     2
100
AcDbLine
 10
132.2179782429
 20
153.0832165957
 30
0.0
 11
124.1747869944
 21
153.0832165957
 31
0.0
  0
LINE
  5
278
330
208
100
AcDbEntity
  8
BEZUGSACHSEN
  6
CENTER
 62
     2
100
AcDbLine
 10
-337.7820217571
 20
153.0832165957
 30
0.0
 11
-329.7820217571
 21
153.0832165957
 31
0.0
  0
LINE
  5
279
330
208
100
AcDbEntity
  8
BEZUGSACHSEN
  6
CENTER
 62
     2
100
AcDbLine
 10
-337.7820217571
 20
153.0832165957
 30
0.0
 11
-345.7820217571
 21
153.0832165957
 31
0.0
  0
LINE
  5
27A
330
208
100
AcDbEntity
  8
TEIL_STARTBEZUEGE
  6
CENTER
 62
     2
100
AcDbLine
 10
132.2179782429
 20
153.0832165957
 30
0.0
 11
138.7703860683
 21
153.0832165957
 31
0.0
  0
LINE
  5
27B
330
208
100
AcDbEntity
  8
BEZUGSACHSEN
  6
CENTER
 62
     2
100
AcDbLine
 10
602.2179782429
 20
153.0832165957
 30
0.0
 11
610.2179782429
 21
153.0832165957
 31
0.0
  0
LINE
  5
27C
330
208
100
AcDbEntity
  8
0
  6
Continuous
 62
     9
100
AcDbLine
 10
-448.0320217571
 20
176.3332165957
 30
0.0
 11
712.4679782428999
 21
176.3332165957
 31
0.0
  0
LINE
  5
27D
330
208
100
AcDbEntity
  8
0
  6
Continuous
 62
     7
100
AcDbLine
 10
713.2179782428998
 20
177.0832165957
 30
0.0
 11
-448.7820217570997
 21
177.0832165957
 31
0.0
  0
LINE
  5
27E
330
208
100
AcDbEntity
  8
0
  6
Continuous
 62
     7
100
AcDbLine
 10
-449.0320217570998
 20
177.3332165957
 30
0.0
 11
-450.7820217571
 21
177.3332165957
 31
0.0
  0
LINE
  5
27F
330
208
100
AcDbEntity
  8
0
  6
Continuous
 62
     7
100
AcDbLine
 10
713.4679782428999
 20
177.3332165957
 30
0.0
 11
715.2179782428999
 21
177.3332165957
 31
0.0
  0
LINE
  5
280
330
208
100
AcDbEntity
  8
0
  6
Continuous
 62
     0
100
AcDbLine
 10
718.7179782428999
 20
178.0832165957
 30
0.0
 11
715.6395511181997
 21
178.0832165957
 31
0.0
  0
LINE
  5
281
330
208
100
AcDbEntity
  8
RUNDUNGEN
  6
Continuous
 62
     0
100
AcDbLine
 10
715.6395511181997
 20
178.0832165957
 30
0.0
 11
715.2179782428999
 21
178.0832165957
 31
0.0
  0
LINE
  5
282
330
208
100
AcDbEntity
  8
0
  6
Continuous
 62
     0
100
AcDbLine
 10
-450.0320217570997
 20
178.0832165957
 30
0.0
 11
-449.0320217570998
 21
178.0832165957
 31
0.0
  0
LINE
  5
283
330
208
100
AcDbEntity
  8
RUNDUNGEN
  6
Continuous
 62
     0
100
AcDbLine
 10
-450.7820217571
 20
178.0832165957
 30
0.0
 11
-451.2035946323
 21
178.0832165957
 31
0.0
  0
LINE
  5
284
330
208
100
AcDbEntity
  8
0
  6
Continuous
 62
     0
100
AcDbLine
 10
-451.2035946323
 20
178.0832165957
 30
0.0
 11
-454.2820217571
 21
178.0832165957
 31
0.0
  0
LINE
  5
285
330
208
100
AcDbEntity
  8
0
  6
Continuous
 62
     0
100
AcDbLine
 10
713.4679782428999
 20
178.0832165957
 30
0.0
 11
714.4679782428998
 21
178.0832165957
 31
0.0
  0
LINE
  5
286
330
208
100
AcDbEntity
  8
0
  6
Continuous
 62
     7
100
AcDbLine
 10
-449.7820217571
 20
178.3332165957
 30
0.0
 11
-450.7820217571
 21
178.3332165957
 31
0.0
  0
LINE
  5
287
330
208
100
AcDbEntity
  8
0
  6
Continuous
 62
     7
100
AcDbLine
 10
714.2179782428999
 20
178.3332165957
 30
0.0
 11
715.2179782428999
 21
178.3332165957
 31
0.0
  0
LINE
  5
288
330
208
100
AcDbEntity
  8
0
  6
Continuous
 62
     7
100
AcDbLine
 10
718.7179782428999
 20
179.0832165957
 30
0.0
 11
715.6395511181997
 21
179.0832165957
 31
0.0
  0
LINE
  5
289
330
208
100
AcDbEntity
  8
RUNDUNGEN
  6
Continuous
 62
     7
100
AcDbLine
 10
-451.2035946323
 20
179.0832165957
 30
0.0
 11
-450.0320217570997
 21
179.0832165957
 31
0.0
  0
LINE
  5
28A
330
208
100
AcDbEntity
  8
0
  6
Continuous
 62
     7
100
AcDbLine
 10
-451.2035946323
 20
179.0832165957
 30
0.0
 11
-454.2820217571
 21
179.0832165957
 31
0.0
  0
LINE
  5
28B
330
208
100
AcDbEntity
  8
0
  6
Continuous
 62
     7
100
AcDbLine
 10
-399.0320217571
 20
179.0832165957
 30
0.0
 11
663.4679782429
 21
179.0832165957
 31
0.0
  0
LINE
  5
28C
330
208
100
AcDbEntity
  8
RUNDUNGEN
  6
Continuous
 62
     7
100
AcDbLine
 10
714.4679782428998
 20
179.0832165957
 30
0.0
 11
715.6395511181997
 21
179.0832165957
 31
0.0
  0
LINE
  5
28D
330
208
100
AcDbEntity
  8
0
  6
Continuous
 62
     9
100
AcDbLine
 10
720.4485174062997
 20
180.0832165957
 30
0.0
 11
696.5122068769995
 21
180.0832165957
 31
0.0
  0
LINE
  5
28E
330
208
100
AcDbEntity
  8
0
  6
Continuous
 62
     9
100
AcDbLine
 10
488.9237496088998
 20
180.0832165957
 30
0.0
 11
466.5122068769998
 21
180.0832165957
 31
0.0
  0
LINE
  5
28F
330
208
100
AcDbEntity
  8
0
  6
Continuous
 62
     9
100
AcDbLine
 10
27.92374960889999
 20
180.0832165957
 30
0.0
 11
5.512206876999996
 21
180.0832165957
 31
0.0
  0
LINE
  5
290
330
208
100
AcDbEntity
  8
0
  6
Continuous
 62
     9
100
AcDbLine
 10
-432.0762503911
 20
180.0832165957
 30
0.0
 11
-456.0125609204
 21
180.0832165957
 31
0.0
  0
LINE
  5
291
330
208
100
AcDbEntity
  8
RUNDUNGEN
  6
Continuous
 62
     7
100
AcDbLine
 10
717.7179782428999
 20
184.5832165957
 30
0.0
 11
700.7872861948999
 21
184.5832165957
 31
0.0
  0
LINE
  5
292
330
208
100
AcDbEntity
  8
RUNDUNGEN
  6
Continuous
 62
     7
100
AcDbLine
 10
484.6486702909999
 20
184.5832165957
 30
0.0
 11
470.7872861948998
 21
184.5832165957
 31
0.0
  0
LINE
  5
293
330
208
100
AcDbEntity
  8
RUNDUNGEN
  6
Continuous
 62
     7
100
AcDbLine
 10
23.648670291
 20
184.5832165957
 30
0.0
 11
9.787286194899998
 21
184.5832165957
 31
0.0
  0
LINE
  5
294
330
208
100
AcDbEntity
  8
RUNDUNGEN
  6
Continuous
 62
     7
100
AcDbLine
 10
-436.351329709
 20
184.5832165957
 30
0.0
 11
-453.2820217570998
 21
184.5832165957
 31
0.0
  0
LINE
  5
295
330
208
100
AcDbEntity
  8
0
  6
Continuous
 62
     7
100
AcDbLine
 10
466.9235828896997
 20
181.6184927761
 30
0.0
 11
466.5122068769998
 21
180.0832165957
 31
0.0
  0
LINE
  5
296
330
208
100
AcDbEntity
  8
0
  6
Continuous
 62
     7
100
AcDbLine
 10
466.9459385693118
 20
124.5479404153
 30
0.0
 11
466.5345625566117
 21
126.0832165957
 31
0.0
  0
LINE
  5
297
330
208
100
AcDbEntity
  8
0
  6
Continuous
 62
     7
100
AcDbLine
 10
488.9461052885116
 20
126.0832165957
 30
0.0
 11
488.5347292758116
 21
124.5479404153
 31
0.0
  0
LINE
  5
298
330
208
100
AcDbEntity
  8
0
  6
Continuous
 62
     7
100
AcDbLine
 10
488.9237496088998
 20
180.0832165957
 30
0.0
 11
488.5123735961999
 21
181.6184927761
 31
0.0
  0
LINE
  5
299
330
208
100
AcDbEntity
  8
BEZUGSACHSEN
  6
CENTER
 62
     2
100
AcDbLine
 10
602.2179782429
 20
153.0832165957
 30
0.0
 11
602.2179782429
 21
145.0832165957
 31
0.0
  0
LINE
  5
29A
330
208
100
AcDbEntity
  8
BEZUGSACHSEN
  6
CENTER
 62
     2
100
AcDbLine
 10
602.2179782429
 20
153.0832165957
 30
0.0
 11
602.2179782429
 21
161.0832165957
 31
0.0
  0
LINE
  5
29B
330
208
100
AcDbEntity
  8
0
  6
Continuous
 62
     7
100
AcDbLine
 10
696.5122068769995
 20
180.0832165957
 30
0.0
 11
696.9235828897
 21
181.6184927761
 31
0.0
  0
LINE
  5
29C
330
208
100
AcDbEntity
  8
0
  6
Continuous
 62
     7
100
AcDbLine
 10
696.5122068769995
 20
126.0832165957
 30
0.0
 11
696.9235828897
 21
124.5479404153
 31
0.0
  0
LINE
  5
29D
330
208
100
AcDbEntity
  8
0
  6
Continuous
 62
     9
100
AcDbLine
 10
712.4679782428999
 20
129.8332165957
 30
0.0
 11
712.4679782428999
 21
176.3332165957
 31
0.0
  0
LINE
  5
29E
330
208
100
AcDbEntity
  8
0
  6
Continuous
 62
     7
100
AcDbLine
 10
713.2179782428998
 20
129.0832165957
 30
0.0
 11
713.2179782428998
 21
177.0832165957
 31
0.0
  0
LINE
  5
29F
330
208
100
AcDbEntity
  8
0
  6
Continuous
 62
     7
100
AcDbLine
 10
713.4679782428999
 20
128.8332165957
 30
0.0
 11
713.4679782428999
 21
127.0832165957
 31
0.0
  0
LINE
  5
2A0
330
208
100
AcDbEntity
  8
0
  6
Continuous
 62
     7
100
AcDbLine
 10
713.4679782428999
 20
177.3332165957
 30
0.0
 11
713.4679782428999
 21
179.0832165957
 31
0.0
  0
LINE
  5
2A1
330
208
100
AcDbEntity
  8
0
  6
Continuous
 62
     0
100
AcDbLine
 10
714.2179782428999
 20
178.3332165957
 30
0.0
 11
714.2179782428999
 21
177.3332165957
 31
0.0
  0
LINE
  5
2A2
330
208
100
AcDbEntity
  8
0
  6
Continuous
 62
     0
100
AcDbLine
 10
714.2179782428999
 20
128.8332165957
 30
0.0
 11
714.2179782428999
 21
127.8332165957
 31
0.0
  0
LINE
  5
2A3
330
208
100
AcDbEntity
  8
0
  6
Continuous
 62
     7
100
AcDbLine
 10
714.4679782428998
 20
128.0832165957
 30
0.0
 11
714.4679782428998
 21
127.0832165957
 31
0.0
  0
LINE
  5
2A4
330
208
100
AcDbEntity
  8
0
  6
Continuous
 62
     7
100
AcDbLine
 10
714.4679782428998
 20
178.0832165957
 30
0.0
 11
714.4679782428998
 21
179.0832165957
 31
0.0
  0
LINE
  5
2A5
330
208
100
AcDbEntity
  8
0
  6
Continuous
 62
     7
100
AcDbLine
 10
715.2179782428999
 20
127.8332165957
 30
0.0
 11
715.2179782428999
 21
178.3332165957
 31
0.0
  0
LINE
  5
2A6
330
208
100
AcDbEntity
  8
RUNDUNGEN
  6
Continuous
 62
     9
100
AcDbLine
 10
715.6395511181997
 20
128.0832165957
 30
0.0
 11
715.6395511181997
 21
127.0832165957
 31
0.0
  0
LINE
  5
2A7
330
208
100
AcDbEntity
  8
RUNDUNGEN
  6
Continuous
 62
     9
100
AcDbLine
 10
715.6395511181997
 20
178.0832165957
 30
0.0
 11
715.6395511181997
 21
179.0832165957
 31
0.0
  0
LINE
  5
2A8
330
208
100
AcDbEntity
  8
0
  6
Continuous
 62
     7
100
AcDbLine
 10
718.7179782428999
 20
179.0832165957
 30
0.0
 11
718.7179782428999
 21
178.0832165957
 31
0.0
  0
LINE
  5
2A9
330
208
100
AcDbEntity
  8
0
  6
Continuous
 62
     7
100
AcDbLine
 10
718.7179782428999
 20
127.0832165957
 30
0.0
 11
718.7179782428999
 21
128.0832165957
 31
0.0
  0
LINE
  5
2AA
330
208
100
AcDbEntity
  8
0
  6
Continuous
 62
     9
100
AcDbLine
 10
719.8393044851997
 20
179.4465682665
 30
0.0
 11
719.8393044851997
 21
178.8099644429
 31
0.0
  0
LINE
  5
2AB
330
208
100
AcDbEntity
  8
0
  6
Continuous
 62
     9
100
AcDbLine
 10
719.8393017489998
 20
127.3564498108
 30
0.0
 11
719.8393017489998
 21
126.7198443294
 31
0.0
  0
LINE
  5
2AC
330
208
100
AcDbEntity
  8
RUNDUNGEN
  6
Continuous
 62
     7
100
AcDbLine
 10
720.7179782428998
 20
181.5832165957
 30
0.0
 11
720.7179782428998
 21
181.3258572828
 31
0.0
  0
LINE
  5
2AD
330
208
100
AcDbEntity
  8
RUNDUNGEN
  6
Continuous
 62
     7
100
AcDbLine
 10
720.7179782428998
 20
124.8405759086
 30
0.0
 11
720.7179782428998
 21
124.5832165957
 31
0.0
  0
LINE
  5
2AE
330
208
100
AcDbEntity
  8
RUNDUNGEN
  6
Continuous
 62
     7
100
AcDbLine
 10
-456.2769925155726
 20
238.2549251557
 30
0.0
 11
-456.2769925155726
 21
239.2549251557
 31
0.0
  0
LINE
  5
2AF
330
208
100
AcDbEntity
  8
RUNDUNGEN
  6
Continuous
 62
     9
100
AcDbLine
 10
-453.2769925155728
 20
238.2549251557
 30
0.0
 11
-453.2769925155728
 21
239.2549251557
 31
0.0
  0
LINE
  5
2B0
330
208
100
AcDbEntity
  8
0
  6
Continuous
 62
     7
100
AcDbLine
 10
-450.7769925155726
 20
246.2549251557
 30
0.0
 11
-450.7769925155726
 21
252.2549251557
 31
0.0
  0
LINE
  5
2B1
330
208
100
AcDbEntity
  8
RUNDUNGEN
  6
Continuous
 62
     7
100
AcDbLine
 10
-450.0269925155729
 20
252.2549251557
 30
0.0
 11
-450.0269925155729
 21
246.1617794052
 31
0.0
  0
LINE
  5
2B2
330
208
100
AcDbEntity
  8
0
  6
Continuous
 62
     7
100
AcDbLine
 10
-449.0269925155726
 20
253.2548443348
 30
0.0
 11
-449.0269925155726
 21
252.2549251557
 31
0.0
  0
LINE
  5
2B3
330
208
100
AcDbEntity
  8
RUNDUNGEN
  6
Continuous
 62
     9
100
AcDbLine
 10
-436.3463004674728
 20
238.2549251557
 30
0.0
 11
-436.3463004674728
 21
239.2549251557
 31
0.0
  0
LINE
  5
2B4
330
208
100
AcDbEntity
  8
RUNDUNGEN
  6
Continuous
 62
     9
100
AcDbLine
 10
-432.4825971622727
 20
238.2549251557
 30
0.0
 11
-432.4825971622727
 21
239.2549251557
 31
0.0
  0
LINE
  5
2B5
330
208
100
AcDbEntity
  8
0
  6
Continuous
 62
     7
100
AcDbLine
 10
-432.0712211495727
 20
239.2549251557
 30
0.0
 11
-432.0712211495727
 21
238.2549251557
 31
0.0
  0
LINE
  5
2B6
330
208
100
AcDbEntity
  8
0
  6
Continuous
 62
     9
100
AcDbLine
 10
-432.0630708803728
 20
239.2552104993
 30
0.0
 11
-432.0630708803728
 21
238.2554958428
 31
0.0
  0
LINE
  5
2B7
330
208
100
AcDbEntity
  8
0
  6
Continuous
 62
     9
100
AcDbLine
 10
-431.0122778275728
 20
239.9593780934
 30
0.0
 11
-431.0122778275728
 21
239.663831031
 31
0.0
  0
LINE
  5
2B8
330
208
100
AcDbEntity
  8
0
  6
Continuous
 62
     7
100
AcDbLine
 10
-454.2769925155726
 20
240.2549251557
 30
0.0
 11
-451.1985653907728
 21
243.3333522804
 31
0.0
  0
LINE
  5
2B9
330
208
100
AcDbEntity
  8
0
  6
Continuous
 62
     7
100
AcDbLine
 10
-430.523330324973
 20
240.2549251557
 30
0.0
 11
-425.8489284282727
 21
243.9069681701
 31
0.0
  0
LINE
  5
2BA
330
208
100
AcDbEntity
  8
0
  6
Continuous
 62
     9
100
AcDbLine
 10
4.30037666717552
 20
239.9593780934
 30
0.0
 11
4.30037666717552
 21
239.663831031
 31
0.0
  0
LINE
  5
2BB
330
208
100
AcDbEntity
  8
0
  6
Continuous
 62
     9
100
AcDbLine
 10
5.351169719975523
 20
239.2552104993
 30
0.0
 11
5.351169719975523
 21
238.2554958428
 31
0.0
  0
LINE
  5
2BC
330
208
100
AcDbEntity
  8
0
  6
Continuous
 62
     7
100
AcDbLine
 10
5.359319989175514
 20
239.2549251557
 30
0.0
 11
5.359319989175514
 21
238.2549251557
 31
0.0
  0
LINE
  5
2BD
330
208
100
AcDbEntity
  8
RUNDUNGEN
  6
Continuous
 62
     9
100
AcDbLine
 10
5.770696001875517
 20
239.2549251557
 30
0.0
 11
5.770696001875517
 21
238.2549251557
 31
0.0
  0
LINE
  5
2BE
330
208
100
AcDbEntity
  8
RUNDUNGEN
  6
Continuous
 62
     9
100
AcDbLine
 10
9.634399307075517
 20
239.2549251557
 30
0.0
 11
9.634399307075517
 21
238.2549251557
 31
0.0
  0
LINE
  5
2BF
330
208
100
AcDbEntity
  8
RUNDUNGEN
  6
Continuous
 62
     9
100
AcDbLine
 10
23.49578340317552
 20
238.2549251557
 30
0.0
 11
23.49578340317552
 21
239.2549251557
 31
0.0
  0
LINE
  5
2C0
330
208
100
AcDbEntity
  8
RUNDUNGEN
  6
Continuous
 62
     9
100
AcDbLine
 10
27.35948670837552
 20
238.2549251557
 30
0.0
 11
27.35948670837552
 21
239.2549251557
 31
0.0
  0
LINE
  5
2C1
330
208
100
AcDbEntity
  8
0
  6
Continuous
 62
     7
100
AcDbLine
 10
27.7708627210755
 20
239.2549251557
 30
0.0
 11
27.7708627210755
 21
238.2549251557
 31
0.0
  0
LINE
  5
2C2
330
208
100
AcDbEntity
  8
0
  6
Continuous
 62
     9
100
AcDbLine
 10
27.77901299027552
 20
239.2552104993
 30
0.0
 11
27.77901299027552
 21
238.2554958428
 31
0.0
  0
LINE
  5
2C3
330
208
100
AcDbEntity
  8
0
  6
Continuous
 62
     9
100
AcDbLine
 10
28.82980604307551
 20
239.9593780934
 30
0.0
 11
28.82980604307551
 21
239.663831031
 31
0.0
  0
LINE
  5
2C4
330
208
100
AcDbEntity
  8
0
  6
Continuous
 62
     7
100
AcDbLine
 10
3.811429164575521
 20
240.2549251557
 30
0.0
 11
-0.8968795308274629
 21
243.9331678102996
 31
0.0
  0
LINE
  5
2C5
330
208
100
AcDbEntity
  8
0
  6
Continuous
 62
     7
100
AcDbLine
 10
29.31875354567552
 20
240.2549251557
 30
0.0
 11
33.99315544237552
 21
243.9069681701
 31
0.0
  0
LINE
  5
2C6
330
208
100
AcDbEntity
  8
0
  6
Continuous
 62
     7
100
AcDbLine
 10
258.6774858988555
 20
239.2549330823
 30
0.0
 11
258.6761275206555
 21
239.2549251557
 31
0.0
  0
LINE
  5
2C7
330
208
100
AcDbEntity
  8
0
  6
Continuous
 62
     7
100
AcDbLine
 10
27.7708627210755
 20
239.2549251557
 30
0.0
 11
27.77222109927552
 21
239.2549330823
 31
0.0
  0
LINE
  5
2C8
330
208
100
AcDbEntity
  8
0
  6
Continuous
 62
     7
100
AcDbLine
 10
-432.0712211495727
 20
239.2549251557
 30
0.0
 11
-432.0698627713729
 21
239.2549330823
 31
0.0
  0
LINE
  5
2C9
330
208
100
AcDbEntity
  8
0
  6
Continuous
 62
     0
100
AcDbLine
 10
258.6761275206555
 20
238.2549251557
 30
0.0
 11
258.2647515079553
 21
238.2549251557
 31
0.0
  0
LINE
  5
2CA
330
208
100
AcDbEntity
  8
0
  6
Continuous
 62
     0
100
AcDbLine
 10
236.6759608014556
 20
238.2549251557
 30
0.0
 11
236.2645847887555
 21
238.2549251557
 31
0.0
  0
LINE
  5
2CB
330
208
100
AcDbEntity
  8
0
  6
Continuous
 62
     0
100
AcDbLine
 10
-432.4825971622727
 20
238.2549251557
 30
0.0
 11
-432.0712211495727
 21
238.2549251557
 31
0.0
  0
LINE
  5
2CC
330
208
100
AcDbEntity
  8
0
  6
Continuous
 62
     0
100
AcDbLine
 10
5.359319989175514
 20
238.2549251557
 30
0.0
 11
5.770696001875517
 21
238.2549251557
 31
0.0
  0
LINE
  5
2CD
330
208
100
AcDbEntity
  8
RUNDUNGEN
  6
Continuous
 62
     0
100
AcDbLine
 10
5.770696001875517
 20
238.2549251557
 30
0.0
 11
27.35948670837552
 21
238.2549251557
 31
0.0
  0
LINE
  5
2CE
330
208
100
AcDbEntity
  8
0
  6
Continuous
 62
     0
100
AcDbLine
 10
27.35948670837552
 20
238.2549251557
 30
0.0
 11
27.7708627210755
 21
238.2549251557
 31
0.0
  0
LINE
  5
2CF
330
208
100
AcDbEntity
  8
RUNDUNGEN
  6
Continuous
 62
     0
100
AcDbLine
 10
-432.4825971622727
 20
238.2549251557
 30
0.0
 11
-456.2769925155726
 21
238.2549251557
 31
0.0
  0
LINE
  5
2D0
330
208
100
AcDbEntity
  8
RUNDUNGEN
  6
Continuous
 62
     0
100
AcDbLine
 10
236.6759608014556
 20
238.2549251557
 30
0.0
 11
258.2647515079553
 21
238.2549251557
 31
0.0
  0
LINE
  5
2D1
330
208
100
AcDbEntity
  8
0
  6
Continuous
 62
     0
100
AcDbLine
 10
696.5558188641616
 20
238.2549251557
 30
0.0
 11
696.9671948768619
 21
238.2549251557
 31
0.0
  0
LINE
  5
2D2
330
208
100
AcDbEntity
  8
RUNDUNGEN
  6
Continuous
 62
     0
100
AcDbLine
 10
696.9671948768619
 20
238.2549251557
 30
0.0
 11
720.7615902300617
 21
238.2549251557
 31
0.0
  0
LINE
  5
2D3
330
208
100
AcDbEntity
  8
0
  6
Continuous
 62
     7
100
AcDbLine
 10
258.6761275206555
 20
239.2549251557
 30
0.0
 11
258.2647515079553
 21
239.2549251557
 31
0.0
  0
LINE
  5
2D4
330
208
100
AcDbEntity
  8
0
  6
Continuous
 62
     7
100
AcDbLine
 10
236.6759608014556
 20
239.2549251557
 30
0.0
 11
236.2645847887555
 21
239.2549251557
 31
0.0
  0
LINE
  5
2D5
330
208
100
AcDbEntity
  8
RUNDUNGEN
  6
Continuous
 62
     7
100
AcDbLine
 10
-456.2769925155726
 20
239.2549251557
 30
0.0
 11
-432.4825971622727
 21
239.2549251557
 31
0.0
  0
LINE
  5
2D6
330
208
100
AcDbEntity
  8
0
  6
Continuous
 62
     7
100
AcDbLine
 10
-432.4825971622727
 20
239.2549251557
 30
0.0
 11
-432.0712211495727
 21
239.2549251557
 31
0.0
  0
LINE
  5
2D7
330
208
100
AcDbEntity
  8
0
  6
Continuous
 62
     7
100
AcDbLine
 10
5.359319989175514
 20
239.2549251557
 30
0.0
 11
5.770696001875517
 21
239.2549251557
 31
0.0
  0
LINE
  5
2D8
330
208
100
AcDbEntity
  8
RUNDUNGEN
  6
Continuous
 62
     7
100
AcDbLine
 10
5.770696001875517
 20
239.2549251557
 30
0.0
 11
27.35948670837552
 21
239.2549251557
 31
0.0
  0
LINE
  5
2D9
330
208
100
AcDbEntity
  8
0
  6
Continuous
 62
     7
100
AcDbLine
 10
27.35948670837552
 20
239.2549251557
 30
0.0
 11
27.7708627210755
 21
239.2549251557
 31
0.0
  0
LINE
  5
2DA
330
208
100
AcDbEntity
  8
RUNDUNGEN
  6
Continuous
 62
     7
100
AcDbLine
 10
236.6759608014556
 20
239.2549251557
 30
0.0
 11
258.2647515079553
 21
239.2549251557
 31
0.0
  0
LINE
  5
2DB
330
208
100
AcDbEntity
  8
0
  6
Continuous
 62
     7
100
AcDbLine
 10
696.5558188641616
 20
239.2549251557
 30
0.0
 11
696.9671948768619
 21
239.2549251557
 31
0.0
  0
LINE
  5
2DC
330
208
100
AcDbEntity
  8
RUNDUNGEN
  6
Continuous
 62
     7
100
AcDbLine
 10
696.9671948768619
 20
239.2549251557
 30
0.0
 11
720.7615902300617
 21
239.2549251557
 31
0.0
  0
LINE
  5
2DD
330
208
100
AcDbEntity
  8
0
  6
Continuous
 62
     9
100
AcDbLine
 10
-454.2769925155726
 20
240.2549251557
 30
0.0
 11
-430.523330324973
 21
240.2549251557
 31
0.0
  0
LINE
  5
2DE
330
208
100
AcDbEntity
  8
0
  6
Continuous
 62
     9
100
AcDbLine
 10
3.811429164575521
 20
240.2549251557
 30
0.0
 11
29.31875354567552
 21
240.2549251557
 31
0.0
  0
LINE
  5
2DF
330
208
100
AcDbEntity
  8
0
  6
Continuous
 62
     9
100
AcDbLine
 10
234.7166939641556
 20
240.2549251557
 30
0.0
 11
260.2240183452553
 21
240.2549251557
 31
0.0
  0
LINE
  5
2E0
330
208
100
AcDbEntity
  8
0
  6
Continuous
 62
     9
100
AcDbLine
 10
695.0079280395617
 20
240.2549251557
 30
0.0
 11
718.761590230062
 21
240.2549251557
 31
0.0
  0
LINE
  5
2E6
330
208
100
AcDbEntity
  8
0
  6
Continuous
 62
     9
100
AcDbLine
 10
264.8984202419703
 20
243.9069681701114
 30
0.0
 11
460.226866836451
 21
243.9069681701
 31
0.0
  0
LINE
  5
2E8
330
208
100
AcDbEntity
  8
RUNDUNGEN
  6
Continuous
 62
     7
100
AcDbLine
 10
36.45580134367552
 20
244.7549251557
 30
0.0
 11
219.2256233603091
 21
244.7549251557
 31
0.0
  0
LINE
  5
2E9
330
208
100
AcDbEntity
  8
RUNDUNGEN
  6
Continuous
 62
     7
100
AcDbLine
 10
338.0655526064544
 20
244.7549251557
 30
0.0
 11
457.7642209351511
 21
244.7549251556999
 31
0.0
  0
LINE
  5
2EA
330
208
100
AcDbEntity
  8
0
  6
Continuous
 62
     7
100
AcDbLine
 10
-450.0269925155729
 20
246.2549251557
 30
0.0
 11
-450.7769925155726
 21
246.2549251557
 31
0.0
  0
LINE
  5
2EB
330
208
100
AcDbEntity
  8
0
  6
Continuous
 62
     7
100
AcDbLine
 10
714.5115902300617
 20
246.2549251557
 30
0.0
 11
715.2615902300619
 21
246.2549251557
 31
0.0
  0
LINE
  5
2EC
330
208
100
AcDbEntity
  8
0
  6
Continuous
 62
     7
100
AcDbLine
 10
5.359319989175514
 20
239.2549251557
 30
0.0
 11
5.357961610975519
 21
239.2549330823
 31
0.0
  0
LINE
  5
2ED
330
208
100
AcDbEntity
  8
0
  6
Continuous
 62
     7
100
AcDbLine
 10
236.2645847887555
 20
239.2549251557
 30
0.0
 11
236.2632264105555
 21
239.2549330823
 31
0.0
  0
LINE
  5
2EE
330
208
100
AcDbEntity
  8
0
  6
Continuous
 62
     7
100
AcDbLine
 10
696.5544604859617
 20
239.2549330823
 30
0.0
 11
696.5558188641616
 21
239.2549251557
 31
0.0
  0
LINE
  5
2EF
330
208
100
AcDbEntity
  8
0
  6
Continuous
 62
     9
100
AcDbLine
 10
-449.0269925155726
 20
252.2549251557
 30
0.0
 11
713.5115902300619
 21
252.2549251557
 31
0.0
  0
LINE
  5
2F0
330
208
100
AcDbEntity
  8
0
  6
Continuous
 62
     7
100
AcDbLine
 10
-449.0269925155726
 20
252.2549251557
 30
0.0
 11
-450.7769925155726
 21
252.2549251557
 31
0.0
  0
LINE
  5
2F1
330
208
100
AcDbEntity
  8
0
  6
Continuous
 62
     7
100
AcDbLine
 10
713.5115902300619
 20
252.2549251557
 30
0.0
 11
715.2615902300619
 21
252.2549251557
 31
0.0
  0
LINE
  5
2F2
330
208
100
AcDbEntity
  8
0
  6
Continuous
 62
     7
100
AcDbLine
 10
-449.0269925155726
 20
253.2548443347999
 30
0.0
 11
713.5115902300619
 21
253.2548443348
 31
0.0
  0
LINE
  5
2F3
330
208
100
AcDbEntity
  8
0
  6
Continuous
 62
     7
100
AcDbLine
 10
234.7166939641556
 20
240.2549251557
 30
0.0
 11
230.0422920674555
 21
243.9069681701
 31
0.0
  0
LINE
  5
2F4
330
208
100
AcDbEntity
  8
0
  6
Continuous
 62
     9
100
AcDbLine
 10
235.2056414667555
 20
239.9593780934
 30
0.0
 11
235.2056414667555
 21
239.663831031
 31
0.0
  0
LINE
  5
2F5
330
208
100
AcDbEntity
  8
0
  6
Continuous
 62
     7
100
AcDbLine
 10
260.2240183452553
 20
240.2549251557
 30
0.0
 11
264.8984202419557
 21
243.9069681701
 31
0.0
  0
LINE
  5
2F6
330
208
100
AcDbEntity
  8
0
  6
Continuous
 62
     9
100
AcDbLine
 10
236.2564345195555
 20
239.2552104993
 30
0.0
 11
236.2564345195555
 21
238.2554958428
 31
0.0
  0
LINE
  5
2F7
330
208
100
AcDbEntity
  8
0
  6
Continuous
 62
     7
100
AcDbLine
 10
236.2645847887555
 20
238.2549251557
 30
0.0
 11
236.2645847887555
 21
239.2549251557
 31
0.0
  0
LINE
  5
2F8
330
208
100
AcDbEntity
  8
RUNDUNGEN
  6
Continuous
 62
     9
100
AcDbLine
 10
236.6759608014556
 20
239.2549251557
 30
0.0
 11
236.6759608014556
 21
238.2549251557
 31
0.0
  0
LINE
  5
2F9
330
208
100
AcDbEntity
  8
RUNDUNGEN
  6
Continuous
 62
     9
100
AcDbLine
 10
240.5396641066555
 20
239.2549251557
 30
0.0
 11
240.5396641066555
 21
238.2549251557
 31
0.0
  0
LINE
  5
2FA
330
208
100
AcDbEntity
  8
RUNDUNGEN
  6
Continuous
 62
     9
100
AcDbLine
 10
254.4010482027555
 20
238.2549251557
 30
0.0
 11
254.4010482027555
 21
239.2549251557
 31
0.0
  0
LINE
  5
2FB
330
208
100
AcDbEntity
  8
RUNDUNGEN
  6
Continuous
 62
     9
100
AcDbLine
 10
258.2647515079553
 20
238.2549251557
 30
0.0
 11
258.2647515079553
 21
239.2549251557
 31
0.0
  0
LINE
  5
2FC
330
208
100
AcDbEntity
  8
0
  6
Continuous
 62
     7
100
AcDbLine
 10
258.6761275206555
 20
239.2549251557
 30
0.0
 11
258.6761275206555
 21
238.2549251557
 31
0.0
  0
LINE
  5
2FD
330
208
100
AcDbEntity
  8
0
  6
Continuous
 62
     9
100
AcDbLine
 10
258.6842777898556
 20
239.2552104993
 30
0.0
 11
258.6842777898556
 21
238.2554958428
 31
0.0
  0
LINE
  5
2FE
330
208
100
AcDbEntity
  8
0
  6
Continuous
 62
     9
100
AcDbLine
 10
259.7350708426555
 20
239.9593780934
 30
0.0
 11
259.7350708426555
 21
239.663831031
 31
0.0
  0
LINE
  5
2FF
330
208
100
AcDbEntity
  8
0
  6
Continuous
 62
     7
100
AcDbLine
 10
690.3335261428614
 20
243.9069681701
 30
0.0
 11
695.0079280395617
 21
240.2549251557
 31
0.0
  0
LINE
  5
300
330
208
100
AcDbEntity
  8
0
  6
Continuous
 62
     7
100
AcDbLine
 10
715.6831631053618
 20
243.3333522804
 30
0.0
 11
718.761590230062
 21
240.2549251557
 31
0.0
  0
LINE
  5
301
330
208
100
AcDbEntity
  8
0
  6
Continuous
 62
     9
100
AcDbLine
 10
695.4968755421616
 20
239.9593780934
 30
0.0
 11
695.4968755421616
 21
239.663831031
 31
0.0
  0
LINE
  5
302
330
208
100
AcDbEntity
  8
0
  6
Continuous
 62
     9
100
AcDbLine
 10
696.5476685949616
 20
239.2552104993
 30
0.0
 11
696.5476685949616
 21
238.2554958428
 31
0.0
  0
LINE
  5
303
330
208
100
AcDbEntity
  8
0
  6
Continuous
 62
     7
100
AcDbLine
 10
696.5558188641616
 20
238.2549251557
 30
0.0
 11
696.5558188641616
 21
239.2549251557
 31
0.0
  0
LINE
  5
304
330
208
100
AcDbEntity
  8
RUNDUNGEN
  6
Continuous
 62
     9
100
AcDbLine
 10
696.9671948768619
 20
239.2549251557
 30
0.0
 11
696.9671948768619
 21
238.2549251557
 31
0.0
  0
LINE
  5
305
330
208
100
AcDbEntity
  8
RUNDUNGEN
  6
Continuous
 62
     9
100
AcDbLine
 10
700.8308981820619
 20
239.2549251557
 30
0.0
 11
700.8308981820619
 21
238.2549251557
 31
0.0
  0
LINE
  5
306
330
208
100
AcDbEntity
  8
0
  6
Continuous
 62
     7
100
AcDbLine
 10
713.5115902300619
 20
253.2548443348
 30
0.0
 11
713.5115902300619
 21
252.2549251557
 31
0.0
  0
LINE
  5
307
330
208
100
AcDbEntity
  8
RUNDUNGEN
  6
Continuous
 62
     7
100
AcDbLine
 10
714.5115902300617
 20
246.1617794052
 30
0.0
 11
714.5115902300617
 21
252.2549251557
 31
0.0
  0
LINE
  5
308
330
208
100
AcDbEntity
  8
0
  6
Continuous
 62
     7
100
AcDbLine
 10
715.2615902300619
 20
252.2549251557
 30
0.0
 11
715.2615902300619
 21
246.2549251557
 31
0.0
  0
LINE
  5
309
330
208
100
AcDbEntity
  8
RUNDUNGEN
  6
Continuous
 62
     9
100
AcDbLine
 10
717.7615902300617
 20
239.2549251557
 30
0.0
 11
717.7615902300617
 21
238.2549251557
 31
0.0
  0
LINE
  5
30A
330
208
100
AcDbEntity
  8
RUNDUNGEN
  6
Continuous
 62
     7
100
AcDbLine
 10
720.7615902300617
 20
239.2549251557
 30
0.0
 11
720.7615902300617
 21
238.2549251557
 31
0.0
  0
CIRCLE
  5
30B
330
208
100
AcDbEntity
  8
BEZUGSACHSEN
  6
Continuous
 62
     7
100
AcDbCircle
 10
-337.7820217571
 20
153.0832165957
 30
0.0
 40
5.0
  0
CIRCLE
  5
30C
330
208
100
AcDbEntity
  8
BEZUGSACHSEN
  6
Continuous
 62
     7
100
AcDbCircle
 10
132.2179782429
 20
153.0832165957
 30
0.0
 40
5.0
  0
CIRCLE
  5
30D
330
208
100
AcDbEntity
  8
BEZUGSACHSEN
  6
Continuous
 62
     7
100
AcDbCircle
 10
602.2179782429
 20
153.0832165957
 30
0.0
 40
5.0
  0
ARC
  5
30E
330
208
100
AcDbEntity
  8
RUNDUNGEN
  6
Continuous
 62
     7
100
AcDbCircle
 10
700.7872861948999
 20
180.5832165957
 30
0.0
 40
4.0
100
AcDbArc
 50
90.0
 51
164.9999999999999
  0
ARC
  5
30F
330
208
100
AcDbEntity
  8
RUNDUNGEN
  6
Continuous
 62
     7
100
AcDbCircle
 10
470.7872861948998
 20
180.5832165957
 30
0.0
 40
4.0
100
AcDbArc
 50
90.0
 51
164.9999999999999
  0
ARC
  5
310
330
208
100
AcDbEntity
  8
RUNDUNGEN
  6
Continuous
 62
     7
100
AcDbCircle
 10
484.6486702909999
 20
180.5832165957
 30
0.0
 40
4.0
100
AcDbArc
 50
14.99999999999998
 51
90.0
  0
ARC
  5
312
330
208
100
AcDbEntity
  8
RUNDUNGEN
  6
Continuous
 62
     7
100
AcDbCircle
 10
23.648670291
 20
180.5832165957
 30
0.0
 40
4.0
100
AcDbArc
 50
15.00000000000002
 51
90.0
  0
ARC
  5
313
330
208
100
AcDbEntity
  8
RUNDUNGEN
  6
Continuous
 62
     7
100
AcDbCircle
 10
-436.351329709
 20
180.5832165957
 30
0.0
 40
4.0
100
AcDbArc
 50
15.00000000000015
 51
90.0
  0
ARC
  5
314
330
208
100
AcDbEntity
  8
RUNDUNGEN
  6
Continuous
 62
     7
100
AcDbCircle
 10
-436.351329709
 20
125.5832165957
 30
0.0
 40
4.0
100
AcDbArc
 50
270.0
 51
344.9999999999998
  0
ARC
  5
315
330
208
100
AcDbEntity
  8
RUNDUNGEN
  6
Continuous
 62
     7
100
AcDbCircle
 10
-206.4570320013328
 20
125.5832165957
 30
0.0
 40
4.0
100
AcDbArc
 50
270.0
 51
344.9999999999998
  0
ARC
  5
316
330
208
100
AcDbEntity
  8
RUNDUNGEN
  6
Continuous
 62
     7
100
AcDbCircle
 10
-220.3184160974328
 20
125.5832165957
 30
0.0
 40
4.0
100
AcDbArc
 50
195.0
 51
270.0
  0
ARC
  5
317
330
208
100
AcDbEntity
  8
RUNDUNGEN
  6
Continuous
 62
     7
100
AcDbCircle
 10
484.6710259706116
 20
125.5832165957
 30
0.0
 40
4.0
100
AcDbArc
 50
270.0
 51
344.9999999999998
  0
ARC
  5
318
330
208
100
AcDbEntity
  8
RUNDUNGEN
  6
Continuous
 62
     7
100
AcDbCircle
 10
470.8096418745117
 20
125.5832165957
 30
0.0
 40
4.0
100
AcDbArc
 50
195.0
 51
270.0
  0
ARC
  5
319
330
208
100
AcDbEntity
  8
RUNDUNGEN
  6
Continuous
 62
     7
100
AcDbCircle
 10
700.7872861948999
 20
125.5832165957
 30
0.0
 40
4.0
100
AcDbArc
 50
195.0
 51
270.0
  0
ARC
  5
31A
330
208
100
AcDbEntity
  8
RUNDUNGEN
  6
Continuous
 62
     7
100
AcDbCircle
 10
717.7179782428999
 20
181.5832165957
 30
0.0
 40
3.0
100
AcDbArc
 50
0.0
 51
90.0
  0
ARC
  5
31B
330
208
100
AcDbEntity
  8
0
  6
Continuous
 62
     7
100
AcDbCircle
 10
717.7179782428999
 20
181.3258572828
 30
0.0
 40
3.0
100
AcDbArc
 50
335.5301994793
 51
0.0
  0
ARC
  5
31C
330
208
100
AcDbEntity
  8
0
  6
Continuous
 62
     7
100
AcDbCircle
 10
-453.2820217570998
 20
181.3258572828
 30
0.0
 40
3.0
100
AcDbArc
 50
180.0
 51
204.4698005207
  0
ARC
  5
31D
330
208
100
AcDbEntity
  8
RUNDUNGEN
  6
Continuous
 62
     7
100
AcDbCircle
 10
-453.2820217570998
 20
181.5832165957
 30
0.0
 40
3.0
100
AcDbArc
 50
90.0
 51
180.0
  0
ARC
  5
31E
330
208
100
AcDbEntity
  8
RUNDUNGEN
  6
Continuous
 62
     7
100
AcDbCircle
 10
-453.2820217570998
 20
124.5832165957
 30
0.0
 40
3.0
100
AcDbArc
 50
180.0
 51
270.0
  0
ARC
  5
31F
330
208
100
AcDbEntity
  8
0
  6
Continuous
 62
     7
100
AcDbCircle
 10
-453.2820217570998
 20
124.8405759086
 30
0.0
 40
3.0
100
AcDbArc
 50
155.5301994793
 51
180.0
  0
ARC
  5
320
330
208
100
AcDbEntity
  8
0
  6
Continuous
 62
     7
100
AcDbCircle
 10
717.7179782428999
 20
124.8405759086
 30
0.0
 40
3.0
100
AcDbArc
 50
0.0
 51
24.46980052069991
  0
ARC
  5
321
330
208
100
AcDbEntity
  8
RUNDUNGEN
  6
Continuous
 62
     7
100
AcDbCircle
 10
717.7179782428999
 20
124.5832165957
 30
0.0
 40
3.0
100
AcDbArc
 50
270.0
 51
0.0
  0
ARC
  5
322
330
208
100
AcDbEntity
  8
RUNDUNGEN
  6
Continuous
 62
     7
100
AcDbCircle
 10
687.8708802415617
 20
240.7549251557
 30
0.0
 40
4.0
100
AcDbArc
 50
51.99999999999993
 51
90.0
  0
ARC
  5
323
330
208
100
AcDbEntity
  8
RUNDUNGEN
  6
Continuous
 62
     7
100
AcDbCircle
 10
267.3610661432556
 20
240.7549251557
 30
0.0
 40
4.0
100
AcDbArc
 50
90.0
 51
128.0
  0
ARC
  5
324
330
208
100
AcDbEntity
  8
RUNDUNGEN
  6
Continuous
 62
     7
100
AcDbCircle
 10
227.5796461661555
 20
240.7549251557
 30
0.0
 40
4.0
100
AcDbArc
 50
51.99999999999993
 51
90.0
  0
ARC
  5
325
330
208
100
AcDbEntity
  8
RUNDUNGEN
  6
Continuous
 62
     7
100
AcDbCircle
 10
36.45580134364408
 20
240.7549251558989
 30
0.0
 40
3.999999999801076
100
AcDbArc
 50
89.99999999954964
 51
128.0000000016068
  0
ARC
  5
326
330
208
100
AcDbEntity
  8
RUNDUNGEN
  6
Continuous
 62
     7
100
AcDbCircle
 10
-3.325618633424483
 20
240.7549251557
 30
0.0
 40
4.0
100
AcDbArc
 50
52.61377889903592
 51
90.0
  0
ARC
  5
327
330
208
100
AcDbEntity
  8
RUNDUNGEN
  6
Continuous
 62
     7
100
AcDbCircle
 10
-423.3862825269726
 20
240.7549251557
 30
0.0
 40
4.0
100
AcDbArc
 50
90.0
 51
128.0
  0
ARC
  5
328
330
208
100
AcDbEntity
  8
RUNDUNGEN
  6
Continuous
 62
     7
100
AcDbCircle
 10
718.5115902300617
 20
246.1617794052
 30
0.0
 40
4.0
100
AcDbArc
 50
180.0
 51
225.0000000000001
  0
ARC
  5
329
330
208
100
AcDbEntity
  8
RUNDUNGEN
  6
Continuous
 62
     7
100
AcDbCircle
 10
-454.0269925155726
 20
246.1617794052
 30
0.0
 40
4.0
100
AcDbArc
 50
314.9999999999999
 51
0.0
  0
ARC
  5
32A
330
208
100
AcDbEntity
  8
0
  6
Continuous
 62
     7
100
AcDbCircle
 10
714.261590230062
 20
252.2549251557
 30
0.0
 40
1.0
100
AcDbArc
 50
0.0
 51
138.6377526879998
  0
ARC
  5
32B
330
208
100
AcDbEntity
  8
0
  6
Continuous
 62
     7
100
AcDbCircle
 10
-449.7769925155727
 20
252.2549251557
 30
0.0
 40
1.0
100
AcDbArc
 50
41.36224731200019
 51
180.0
  0
ARC
  5
32C
330
208
100
AcDbEntity
  8
0
  6
Continuous
 62
     7
100
AcDbCircle
 10
236.2645940523555
 20
239.3716969258
 30
0.0
 40
0.1167718525
100
AcDbArc
 50
265.9931433754
 51
269.3289316659999
  0
ARC
  5
32D
330
208
100
AcDbEntity
  8
0
  6
Continuous
 62
     7
100
AcDbCircle
 10
27.77085345747554
 20
239.3716969258
 30
0.0
 40
0.1167718525
100
AcDbArc
 50
270.671068334
 51
274.0068566245996
  0
ARC
  5
32E
330
208
100
AcDbEntity
  8
0
  6
Continuous
 62
     7
100
AcDbCircle
 10
5.359329252775516
 20
239.3716969258
 30
0.0
 40
0.1167718525
100
AcDbArc
 50
265.9931433754
 51
269.3289316659999
  0
ARC
  5
32F
330
208
100
AcDbEntity
  8
0
  6
Continuous
 62
     7
100
AcDbCircle
 10
-432.0712304131729
 20
239.3716969259
 30
0.0
 40
0.1167718526
100
AcDbArc
 50
270.6710683356002
 51
274.0068566230998
  0
ARC
  5
330
330
208
100
AcDbEntity
  8
0
  6
Continuous
 62
     7
100
AcDbCircle
 10
696.5558281277617
 20
239.3716969258
 30
0.0
 40
0.1167718525
100
AcDbArc
 50
265.9931433754
 51
269.3289316659999
  0
ARC
  5
331
330
208
100
AcDbEntity
  8
0
  6
Continuous
 62
     7
100
AcDbCircle
 10
258.6761182570552
 20
239.3716969259
 30
0.0
 40
0.1167718526
100
AcDbArc
 50
270.6710683352
 51
274.0068566241997
  0
ARC
  5
332
330
208
100
AcDbEntity
  8
0
  6
Continuous
 62
     3
100
AcDbCircle
 10
236.2646098353555
 20
238.3137672389
 30
0.0
 40
0.0588420885
100
AcDbArc
 50
262.0136873904997
 51
269.9756116519997
  0
ARC
  5
333
330
208
100
AcDbEntity
  8
0
  6
Continuous
 62
     3
100
AcDbCircle
 10
27.77083767447553
 20
238.3137672389
 30
0.0
 40
0.0588420885
100
AcDbArc
 50
270.0243883479999
 51
277.9863126094
  0
ARC
  5
334
330
208
100
AcDbEntity
  8
0
  6
Continuous
 62
     3
100
AcDbCircle
 10
5.359345035775518
 20
238.3137672389
 30
0.0
 40
0.0588420885
100
AcDbArc
 50
262.0136873906
 51
269.9756116519997
  0
ARC
  5
335
330
208
100
AcDbEntity
  8
0
  6
Continuous
 62
     3
100
AcDbCircle
 10
-432.0712461961726
 20
238.3137672389
 30
0.0
 40
0.0588420885
100
AcDbArc
 50
270.0243883479999
 51
277.9863126095998
  0
ARC
  5
336
330
208
100
AcDbEntity
  8
0
  6
Continuous
 62
     3
100
AcDbCircle
 10
696.5558439107617
 20
238.3137672389
 30
0.0
 40
0.0588420885
100
AcDbArc
 50
262.0136873905001
 51
269.9756116520001
  0
ARC
  5
337
330
208
100
AcDbEntity
  8
0
  6
Continuous
 62
     3
100
AcDbCircle
 10
258.6761024740555
 20
238.3137672389
 30
0.0
 40
0.0588420885
100
AcDbArc
 50
270.0243883479999
 51
277.9863126094999
  0
SPLINE
  5
338
330
208
100
AcDbEntity
  8
0
  6
Continuous
 62
     7
100
AcDbSpline
210
0.0
220
0.0
230
1.0
 70
     8
 71
     3
 72
     9
 73
     5
 74
     0
 42
0.0000000001
 43
0.0000000001
 40
0.0
 40
0.0
 40
0.0
 40
0.0
 40
0.2488387873
 40
1.0
 40
1.0
 40
1.0
 40
1.0
 10
-430.5283595665001
 20
179.0832165957
 30
0.0
 10
-430.5691160597
 20
179.0832165957
 30
0.0
 10
-430.7328881491001
 20
179.0870063325
 30
0.0
 10
-430.896251429
 20
179.1059345291
 30
0.0
 10
-431.0173070691
 20
179.1278884144
 30
0.0
  0
SPLINE
  5
33D
330
208
100
AcDbEntity
  8
0
  6
Continuous
 62
     7
100
AcDbSpline
210
0.0
220
0.0
230
1.0
 70
     8
 71
     3
 72
     9
 73
     5
 74
     0
 42
0.0000000001
 43
0.0000000001
 40
0.0
 40
0.0
 40
0.0
 40
0.0
 40
0.2488387873
 40
1.0
 40
1.0
 40
1.0
 40
1.0
 10
694.9643160523999
 20
179.0832165957
 30
0.0
 10
695.0050725456
 20
179.0832165957
 30
0.0
 10
695.168844635
 20
179.0870063325
 30
0.0
 10
695.3322079149001
 20
179.1059345291
 30
0.0
 10
695.4532635549997
 20
179.1278884144
 30
0.0
  0
SPLINE
  5
33E
330
208
100
AcDbEntity
  8
0
  6
Continuous
 62
     7
100
AcDbSpline
210
0.0
220
0.0
230
1.0
 70
     8
 71
     3
 72
     9
 73
     5
 74
     0
 42
0.0000000001
 43
0.0000000001
 40
0.0
 40
0.0
 40
0.0
 40
0.0
 40
0.5323552969
 40
1.0
 40
1.0
 40
1.0
 40
1.0
 10
712.4679782428999
 20
176.3332165957
 30
0.0
 10
712.5863448116
 20
176.4336892127
 30
0.0
 10
712.8088195599
 20
176.6215187318
 30
0.0
 10
713.0102748526999
 20
176.8364658715
 30
0.0
 10
713.0859435025999
 20
176.9499363326
 30
0.0
  0
SPLINE
  5
33F
330
208
100
AcDbEntity
  8
0
  6
Continuous
 62
     7
100
AcDbSpline
210
0.0
220
0.0
230
1.0
 70
     8
 71
     3
 72
     9
 73
     5
 74
     0
 42
0.0000000001
 43
0.0000000001
 40
0.0
 40
0.0
 40
0.0
 40
0.0
 40
0.5323553244000001
 40
1.0
 40
1.0
 40
1.0
 40
1.0
 10
712.4679782428999
 20
129.8332165957
 30
0.0
 10
712.5863448412999
 20
129.7327439884
 30
0.0
 10
712.8088196334998
 20
129.5449144983
 30
0.0
 10
713.0102749656997
 20
129.3299673679
 30
0.0
 10
713.0859436136999
 20
129.2164969063
 30
0.0
  0
SPLINE
  5
340
330
208
100
AcDbEntity
  8
0
  6
Continuous
 62
     7
100
AcDbSpline
210
0.0
220
0.0
230
1.0
 70
     8
 71
     3
 72
     9
 73
     5
 74
     0
 42
0.0000000001
 43
0.0000000001
 40
0.0
 40
0.0
 40
0.0
 40
0.0
 40
0.5323553196000002
 40
1.0
 40
1.0
 40
1.0
 40
1.0
 10
-448.0320217571
 20
129.8332165957
 30
0.0
 10
-448.1324943594001
 20
129.7148500052
 30
0.0
 10
-448.3203238419998
 20
129.4923752258
 30
0.0
 10
-448.5352709594
 20
129.290919903
 30
0.0
 10
-448.6487414134999
 20
129.2152512538
 30
0.0
  0
SPLINE
  5
341
330
208
100
AcDbEntity
  8
0
  6
Continuous
 62
     7
100
AcDbSpline
210
0.0
220
0.0
230
1.0
 70
     8
 71
     3
 72
     9
 73
     5
 74
     0
 42
0.0000000001
 43
0.0000000001
 40
0.0
 40
0.0
 40
0.0
 40
0.0
 40
0.5323553030000002
 40
1.0
 40
1.0
 40
1.0
 40
1.0
 10
712.4679782428999
 20
129.8332165957
 30
0.0
 10
712.5684508641
 20
129.7148500179
 30
0.0
 10
712.7562803884999
 20
129.492375255
 30
0.0
 10
712.97122754
 20
129.2909199511
 30
0.0
 10
713.0846980080998
 20
129.2152513024
 30
0.0
  0
SPLINE
  5
342
330
208
100
AcDbEntity
  8
0
  6
Continuous
 62
     7
100
AcDbSpline
210
0.0
220
0.0
230
1.0
 70
     8
 71
     3
 72
     9
 73
     5
 74
     0
 42
0.0000000001
 43
0.0000000001
 40
0.0
 40
0.0
 40
0.0
 40
0.0
 40
0.5323553244000001
 40
1.0
 40
1.0
 40
1.0
 40
1.0
 10
-448.0320217571
 20
176.3332165957
 30
0.0
 10
-448.1503883554
 20
176.4336892031
 30
0.0
 10
-448.3728631476
 20
176.6215186931
 30
0.0
 10
-448.5743184798
 20
176.8364658235
 30
0.0
 10
-448.6499871278
 20
176.9499362851
 30
0.0
  0
SPLINE
  5
343
330
208
100
AcDbEntity
  8
0
  6
Continuous
 62
     7
100
AcDbSpline
210
0.0
220
0.0
230
1.0
 70
     8
 71
     3
 72
     9
 73
     5
 74
     0
 42
0.0000000001
 43
0.0000000001
 40
0.0
 40
0.0
 40
0.0
 40
0.0
 40
0.5323552969
 40
1.0
 40
1.0
 40
1.0
 40
1.0
 10
-448.0320217571
 20
129.8332165957
 30
0.0
 10
-448.1503883256998
 20
129.7327439787
 30
0.0
 10
-448.3728630741
 20
129.5449144596999
 30
0.0
 10
-448.5743183669
 20
129.3299673199
 30
0.0
 10
-448.6499870167
 20
129.2164968588
 30
0.0
  0
SPLINE
  5
344
330
208
100
AcDbEntity
  8
0
  6
Continuous
 62
     7
100
AcDbSpline
210
0.0
220
0.0
230
1.0
 70
     8
 71
     3
 72
     9
 73
     5
 74
     0
 42
0.0000000001
 43
0.0000000001
 40
0.0
 40
0.0
 40
0.0
 40
0.0
 40
0.5323553196000002
 40
1.0
 40
1.0
 40
1.0
 40
1.0
 10
712.4679782428999
 20
176.3332165957
 30
0.0
 10
712.5684508452998
 20
176.4515831862
 30
0.0
 10
712.7562803278997
 20
176.6740579656
 30
0.0
 10
712.9712274452996
 20
176.8755132884
 30
0.0
 10
713.0846978993997
 20
176.9511819375999
 30
0.0
  0
SPLINE
  5
345
330
208
100
AcDbEntity
  8
0
  6
Continuous
 62
     7
100
AcDbSpline
210
0.0
220
0.0
230
1.0
 70
     8
 71
     3
 72
     9
 73
     5
 74
     0
 42
0.0000000001
 43
0.0000000001
 40
0.0
 40
0.0
 40
0.0
 40
0.0
 40
0.5323553030000002
 40
1.0
 40
1.0
 40
1.0
 40
1.0
 10
-448.0320217571
 20
176.3332165957
 30
0.0
 10
-448.1324943781998
 20
176.4515831735
 30
0.0
 10
-448.3203239026
 20
176.6740579364
 30
0.0
 10
-448.5352710541
 20
176.8755132403
 30
0.0
 10
-448.6487415223
 20
176.951181889
 30
0.0
  0
SPLINE
  5
346
330
208
100
AcDbEntity
  8
0
  6
Continuous
 62
     7
100
AcDbSpline
210
0.0
220
0.0
230
1.0
 70
     8
 71
     3
 72
    11
 73
     7
 74
     0
 42
0.0000000001
 43
0.0000000001
 40
0.0
 40
0.0
 40
0.0
 40
0.0
 40
0.2742592274
 40
0.5260864827000003
 40
0.7621155876000003
 40
1.0
 40
1.0
 40
1.0
 40
1.0
 10
-432.0681001219
 20
126.1071039511
 30
0.0
 10
-432.0244349346999
 20
126.2350564625
 30
0.0
 10
-431.9152834162998
 20
126.4732913407
 30
0.0
 10
-431.6707115883999
 20
126.7660484261
 30
0.0
 10
-431.3604313648998
 20
126.9557662026
 30
0.0
 10
-431.1326917307
 20
127.0176193445
 30
0.0
 10
-431.0173070691
 20
127.038544777
 30
0.0
  0
SPLINE
  5
347
330
208
100
AcDbEntity
  8
0
  6
Continuous
 62
     7
100
AcDbSpline
210
0.0
220
0.0
230
1.0
 70
     8
 71
     3
 72
    11
 73
     7
 74
     0
 42
0.0000000001
 43
0.0000000001
 40
0.0
 40
0.0
 40
0.0
 40
0.0
 40
0.2378844124
 40
0.4739135173
 40
0.7257407726000002
 40
1.0
 40
1.0
 40
1.0
 40
1.0
 10
-225.6524387373329
 20
127.038544777
 30
0.0
 10
-225.5370540757327
 20
127.0176193445
 30
0.0
 10
-225.3093144415329
 20
126.9557662026
 30
0.0
 10
-224.9990342180328
 20
126.7660484261
 30
0.0
 10
-224.7544623901328
 20
126.4732913407
 30
0.0
 10
-224.6453108717328
 20
126.2350564625
 30
0.0
 10
-224.6016456845329
 20
126.1071039511
 30
0.0
  0
SPLINE
  5
348
330
208
100
AcDbEntity
  8
0
  6
Continuous
 62
     7
100
AcDbSpline
210
0.0
220
0.0
230
1.0
 70
     8
 71
     3
 72
    11
 73
     7
 74
     0
 42
0.0000000001
 43
0.0000000001
 40
0.0
 40
0.0
 40
0.0
 40
0.0
 40
0.2742592274
 40
0.5260864827000003
 40
0.7621155876000003
 40
1.0
 40
1.0
 40
1.0
 40
1.0
 10
-202.1738024142327
 20
126.1071039511
 30
0.0
 10
-202.1301372270329
 20
126.2350564625
 30
0.0
 10
-202.0209857086328
 20
126.4732913407
 30
0.0
 10
-201.7764138807327
 20
126.7660484261
 30
0.0
 10
-201.4661336572327
 20
126.9557662026
 30
0.0
 10
-201.2383940230327
 20
127.0176193445
 30
0.0
 10
-201.1230093614327
 20
127.038544777
 30
0.0
  0
SPLINE
  5
349
330
208
100
AcDbEntity
  8
0
  6
Continuous
 62
     7
100
AcDbSpline
210
0.0
220
0.0
230
1.0
 70
     8
 71
     3
 72
    11
 73
     7
 74
     0
 42
0.0000000001
 43
0.0000000001
 40
0.0
 40
0.0
 40
0.0
 40
0.0
 40
0.2378844124
 40
0.4739135173
 40
0.7257407726000002
 40
1.0
 40
1.0
 40
1.0
 40
1.0
 10
465.4756192346114
 20
127.038544777
 30
0.0
 10
465.5910038962114
 20
127.0176193445
 30
0.0
 10
465.8187435304117
 20
126.9557662026
 30
0.0
 10
466.1290237539116
 20
126.7660484261
 30
0.0
 10
466.3735955818117
 20
126.4732913407
 30
0.0
 10
466.4827471002118
 20
126.2350564625
 30
0.0
 10
466.5264122874116
 20
126.1071039511
 30
0.0
  0
SPLINE
  5
34A
330
208
100
AcDbEntity
  8
0
  6
Continuous
 62
     7
100
AcDbSpline
210
0.0
220
0.0
230
1.0
 70
     8
 71
     3
 72
    11
 73
     7
 74
     0
 42
0.0000000001
 43
0.0000000001
 40
0.0
 40
0.0
 40
0.0
 40
0.0
 40
0.2742592274
 40
0.5260864827000003
 40
0.7621155876000003
 40
1.0
 40
1.0
 40
1.0
 40
1.0
 10
488.9542555577118
 20
126.1071039511
 30
0.0
 10
488.9979207449116
 20
126.2350564625
 30
0.0
 10
489.1070722633116
 20
126.4732913407
 30
0.0
 10
489.3516440912114
 20
126.7660484261
 30
0.0
 10
489.6619243147116
 20
126.9557662026
 30
0.0
 10
489.8896639489116
 20
127.0176193445
 30
0.0
 10
490.0050486105117
 20
127.038544777
 30
0.0
  0
SPLINE
  5
34B
330
208
100
AcDbEntity
  8
0
  6
Continuous
 62
     7
100
AcDbSpline
210
0.0
220
0.0
230
1.0
 70
     8
 71
     3
 72
    11
 73
     7
 74
     0
 42
0.0000000001
 43
0.0000000001
 40
0.0
 40
0.0
 40
0.0
 40
0.0
 40
0.2378844124
 40
0.4739135173
 40
0.7257407726000002
 40
1.0
 40
1.0
 40
1.0
 40
1.0
 10
695.4532635549997
 20
127.038544777
 30
0.0
 10
695.5686482165997
 20
127.0176193445
 30
0.0
 10
695.7963878508
 20
126.9557662026
 30
0.0
 10
696.1066680742998
 20
126.7660484261
 30
0.0
 10
696.3512399022
 20
126.4732913407
 30
0.0
 10
696.4603914206
 20
126.2350564625
 30
0.0
 10
696.5040566077998
 20
126.1071039511
 30
0.0
  0
SPLINE
  5
34C
330
208
100
AcDbEntity
  8
0
  6
Continuous
 62
     7
100
AcDbSpline
210
0.0
220
0.0
230
1.0
 70
     8
 71
     3
 72
    11
 73
     7
 74
     0
 42
0.0000000001
 43
0.0000000001
 40
0.0
 40
0.0
 40
0.0
 40
0.0
 40
0.2742592274
 40
0.5260864827000003
 40
0.7621155876000003
 40
1.0
 40
1.0
 40
1.0
 40
1.0
 10
696.5040566077998
 20
180.0593292404
 30
0.0
 10
696.4603914206
 20
179.9313767289
 30
0.0
 10
696.3512399022
 20
179.6931418507
 30
0.0
 10
696.1066680742998
 20
179.4003847654
 30
0.0
 10
695.7963878508
 20
179.2106669888999
 30
0.0
 10
695.5686482165997
 20
179.148813847
 30
0.0
 10
695.4532635549997
 20
179.1278884144
 30
0.0
  0
SPLINE
  5
34D
330
208
100
AcDbEntity
  8
0
  6
Continuous
 62
     7
100
AcDbSpline
210
0.0
220
0.0
230
1.0
 70
     8
 71
     3
 72
    11
 73
     7
 74
     0
 42
0.0000000001
 43
0.0000000001
 40
0.0
 40
0.0
 40
0.0
 40
0.0
 40
0.2378844124
 40
0.4739135173
 40
0.7257407726000002
 40
1.0
 40
1.0
 40
1.0
 40
1.0
 10
489.9826929308998
 20
179.1278884144
 30
0.0
 10
489.8673082693
 20
179.148813847
 30
0.0
 10
489.6395686350998
 20
179.2106669888999
 30
0.0
 10
489.3292884116
 20
179.4003847654
 30
0.0
 10
489.0847165837
 20
179.6931418507
 30
0.0
 10
488.9755650652999
 20
179.9313767289
 30
0.0
 10
488.9318998780999
 20
180.0593292404
 30
0.0
  0
SPLINE
  5
34E
330
208
100
AcDbEntity
  8
0
  6
Continuous
 62
     7
100
AcDbSpline
210
0.0
220
0.0
230
1.0
 70
     8
 71
     3
 72
    11
 73
     7
 74
     0
 42
0.0000000001
 43
0.0000000001
 40
0.0
 40
0.0
 40
0.0
 40
0.0
 40
0.2742592274
 40
0.5260864827000003
 40
0.7621155876000003
 40
1.0
 40
1.0
 40
1.0
 40
1.0
 10
466.5040566077998
 20
180.0593292404
 30
0.0
 10
466.4603914205998
 20
179.9313767289
 30
0.0
 10
466.3512399021997
 20
179.6931418507
 30
0.0
 10
466.1066680742998
 20
179.4003847654
 30
0.0
 10
465.7963878508
 20
179.2106669888999
 30
0.0
 10
465.5686482165998
 20
179.148813847
 30
0.0
 10
465.4532635549998
 20
179.1278884144
 30
0.0
  0
SPLINE
  5
34F
330
208
100
AcDbEntity
  8
0
  6
Continuous
 62
     7
100
AcDbSpline
210
0.0
220
0.0
230
1.0
 70
     8
 71
     3
 72
    11
 73
     7
 74
     0
 42
0.0000000001
 43
0.0000000001
 40
0.0
 40
0.0
 40
0.0
 40
0.0
 40
0.2742592274
 40
0.5260864827000003
 40
0.7621155876000003
 40
1.0
 40
1.0
 40
1.0
 40
1.0
 10
5.504056607800001
 20
180.0593292404
 30
0.0
 10
5.460391420599989
 20
179.9313767289
 30
0.0
 10
5.351239902199998
 20
179.6931418507
 30
0.0
 10
5.106668074299995
 20
179.4003847654
 30
0.0
 10
4.796387850800002
 20
179.2106669888999
 30
0.0
 10
4.568648216600007
 20
179.148813847
 30
0.0
 10
4.453263554999998
 20
179.1278884144
 30
0.0
  0
SPLINE
  5
350
330
208
100
AcDbEntity
  8
0
  6
Continuous
 62
     7
100
AcDbSpline
210
0.0
220
0.0
230
1.0
 70
     8
 71
     3
 72
    11
 73
     7
 74
     0
 42
0.0000000001
 43
0.0000000001
 40
0.0
 40
0.0
 40
0.0
 40
0.0
 40
0.2378844124
 40
0.4739135173
 40
0.7257407726000002
 40
1.0
 40
1.0
 40
1.0
 40
1.0
 10
28.9826929309
 20
179.1278884144
 30
0.0
 10
28.86730826929999
 20
179.148813847
 30
0.0
 10
28.63956863510001
 20
179.2106669888999
 30
0.0
 10
28.32928841160001
 20
179.4003847654
 30
0.0
 10
28.0847165837
 20
179.6931418507
 30
0.0
 10
27.9755650653
 20
179.9313767289
 30
0.0
 10
27.9318998781
 20
180.0593292404
 30
0.0
  0
SPLINE
  5
351
330
208
100
AcDbEntity
  8
0
  6
Continuous
 62
     7
100
AcDbSpline
210
0.0
220
0.0
230
1.0
 70
     8
 71
     3
 72
    11
 73
     7
 74
     0
 42
0.0000000001
 43
0.0000000001
 40
0.0
 40
0.0
 40
0.0
 40
0.0
 40
0.2378844124
 40
0.4739135173
 40
0.7257407726000002
 40
1.0
 40
1.0
 40
1.0
 40
1.0
 10
-431.0173070691
 20
179.1278884144
 30
0.0
 10
-431.1326917307
 20
179.148813847
 30
0.0
 10
-431.3604313648998
 20
179.2106669888999
 30
0.0
 10
-431.6707115883999
 20
179.4003847654
 30
0.0
 10
-431.9152834162998
 20
179.6931418507
 30
0.0
 10
-432.0244349346999
 20
179.9313767289
 30
0.0
 10
-432.0681001219
 20
180.0593292404
 30
0.0
  0
SPLINE
  5
352
330
208
100
AcDbEntity
  8
0
  6
Continuous
 62
     7
100
AcDbSpline
210
0.0
220
0.0
230
1.0
 70
     8
 71
     3
 72
     9
 73
     5
 74
     0
 42
0.0000000001
 43
0.0000000001
 40
0.0
 40
0.0
 40
0.0
 40
0.0
 40
0.2488387873
 40
1.0
 40
1.0
 40
1.0
 40
1.0
 10
694.9643160523999
 20
127.0832165957
 30
0.0
 10
695.0050725456
 20
127.0832165957
 30
0.0
 10
695.168844635
 20
127.079426859
 30
0.0
 10
695.3322079149001
 20
127.0604986623
 30
0.0
 10
695.4532635549997
 20
127.038544777
 30
0.0
  0
LINE
  5
353
330
208
100
AcDbEntity
  8
0
  6
Continuous
 62
     7
100
AcDbLine
 10
696.5040566077998
 20
126.1071039511
 30
0.0
 11
696.5122068769995
 21
126.0832165957
 31
0.0
  0
LINE
  5
354
330
208
100
AcDbEntity
  8
0
  6
Continuous
 62
     7
100
AcDbLine
 10
488.9542555577118
 20
126.1071039511
 30
0.0
 11
488.9461052885116
 21
126.0832165957
 31
0.0
  0
LINE
  5
357
330
208
100
AcDbEntity
  8
0
  6
Continuous
 62
     7
100
AcDbLine
 10
466.5345625566117
 20
126.0832165957
 30
0.0
 11
466.5264122874116
 21
126.1071039511
 31
0.0
  0
LINE
  5
358
330
208
100
AcDbEntity
  8
0
  6
Continuous
 62
     7
100
AcDbLine
 10
-202.1819526834328
 20
126.0832165957
 30
0.0
 11
-202.1738024142327
 21
126.1071039511
 31
0.0
  0
SPLINE
  5
359
330
208
100
AcDbEntity
  8
0
  6
Continuous
 62
     7
100
AcDbSpline
210
0.0
220
0.0
230
1.0
 70
     8
 71
     3
 72
     9
 73
     5
 74
     0
 42
0.0000000001
 43
0.0000000001
 40
0.0
 40
0.0
 40
0.0
 40
0.0
 40
0.2488387873
 40
1.0
 40
1.0
 40
1.0
 40
1.0
 10
16.5524075466688
 20
127.0832165957
 30
0.0
 10
16.5116510534688
 20
127.0832165957
 30
0.0
 10
16.3478789640688
 20
127.079426859
 30
0.0
 10
16.1845156841688
 20
127.0604986623
 30
0.0
 10
16.0634600440688
 20
127.038544777
 30
0.0
  0
LINE
  5
35B
330
208
100
AcDbEntity
  8
0
  6
Continuous
 62
     7
100
AcDbLine
 10
-224.5934954153328
 20
126.0832165957
 30
0.0
 11
-224.6016456845329
 21
126.1071039511
 31
0.0
  0
LINE
  5
35C
330
208
100
AcDbEntity
  8
0
  6
Continuous
 62
     7
100
AcDbLine
 10
-432.0762503911
 20
126.0832165957
 30
0.0
 11
-432.0681001219
 21
126.1071039511
 31
0.0
  0
SPLINE
  5
35D
330
208
100
AcDbEntity
  8
0
  6
Continuous
 62
     7
100
AcDbSpline
210
0.0
220
0.0
230
1.0
 70
     8
 71
     3
 72
     9
 73
     5
 74
     0
 42
0.0000000001
 43
0.0000000001
 40
0.0
 40
0.0
 40
0.0
 40
0.0
 40
0.2488387873
 40
1.0
 40
1.0
 40
1.0
 40
1.0
 10
-430.5283595665001
 20
127.0832165957
 30
0.0
 10
-430.5691160597
 20
127.0832165957
 30
0.0
 10
-430.7328881491001
 20
127.079426859
 30
0.0
 10
-430.896251429
 20
127.0604986623
 30
0.0
 10
-431.0173070691
 20
127.038544777
 30
0.0
  0
LINE
  5
35E
330
208
100
AcDbEntity
  8
0
  6
Continuous
 62
     7
100
AcDbLine
 10
-432.0762503911
 20
180.0832165957
 30
0.0
 11
-432.0681001219
 21
180.0593292404
 31
0.0
  0
LINE
  5
35F
330
208
100
AcDbEntity
  8
0
  6
Continuous
 62
     7
100
AcDbLine
 10
5.512206876999996
 20
180.0832165957
 30
0.0
 11
5.504056607800001
 21
180.0593292404
 31
0.0
  0
LINE
  5
360
330
208
100
AcDbEntity
  8
0
  6
Continuous
 62
     7
100
AcDbLine
 10
27.92374960889999
 20
180.0832165957
 30
0.0
 11
27.9318998781
 21
180.0593292404
 31
0.0
  0
LINE
  5
361
330
208
100
AcDbEntity
  8
0
  6
Continuous
 62
     7
100
AcDbLine
 10
466.5122068769998
 20
180.0832165957
 30
0.0
 11
466.5040566077998
 21
180.0593292404
 31
0.0
  0
LINE
  5
362
330
208
100
AcDbEntity
  8
0
  6
Continuous
 62
     7
100
AcDbLine
 10
488.9318998780999
 20
180.0593292404
 30
0.0
 11
488.9237496088998
 21
180.0832165957
 31
0.0
  0
LINE
  5
363
330
208
100
AcDbEntity
  8
0
  6
Continuous
 62
     7
100
AcDbLine
 10
696.5040566077998
 20
180.0593292404
 30
0.0
 11
696.5122068769995
 21
180.0832165957
 31
0.0
  0
SPLINE
  5
364
330
208
100
AcDbEntity
  8
0
  6
Continuous
 62
     7
100
AcDbSpline
210
0.0
220
0.0
230
1.0
 70
     8
 71
     3
 72
     9
 73
     5
 74
     0
 42
0.0000000001
 43
0.0000000001
 40
0.0
 40
0.0
 40
0.0
 40
0.0
 40
0.51256656
 40
1.0
 40
1.0
 40
1.0
 40
1.0
 10
-456.0125609204
 20
180.0832165957
 30
0.0
 10
-455.9364710791
 20
179.951900065
 30
0.0
 10
-455.760142393
 20
179.7100968962
 30
0.0
 10
-455.5267909346
 20
179.5213622735
 30
0.0
 10
-455.4033421005999
 20
179.4465919672
 30
0.0
  0
SPLINE
  5
365
330
208
100
AcDbEntity
  8
0
  6
Continuous
 62
     7
100
AcDbSpline
210
0.0
220
0.0
230
1.0
 70
     8
 71
     3
 72
    10
 73
     6
 74
     0
 42
0.0000000001
 43
0.0000000001
 40
0.0
 40
0.0
 40
0.0
 40
0.0
 40
0.5213068484000001
 40
0.7639622578000002
 40
1.0
 40
1.0
 40
1.0
 40
1.0
 10
719.8392985864999
 20
179.4465919672
 30
0.0
 10
719.6621279113997
 20
179.3392782643
 30
0.0
 10
719.3883099553999
 20
179.2002340744
 30
0.0
 10
719.002358153
 20
179.1000072085
 30
0.0
 10
718.8117658403997
 20
179.0832165957
 30
0.0
 10
718.7179782428999
 20
179.0832165957
 30
0.0
  0
SPLINE
  5
366
330
208
100
AcDbEntity
  8
0
  6
Continuous
 62
     7
100
AcDbSpline
210
0.0
220
0.0
230
1.0
 70
     8
 71
     3
 72
     9
 73
     5
 74
     0
 42
0.0000000001
 43
0.0000000001
 40
0.0
 40
0.0
 40
0.0
 40
0.0
 40
0.4874454541
 40
1.0
 40
1.0
 40
1.0
 40
1.0
 10
719.8392985864999
 20
179.4465919672
 30
0.0
 10
719.9627541874997
 20
179.5213663721
 30
0.0
 10
720.1962527107999
 20
179.7099529227
 30
0.0
 10
720.3724270530998
 20
179.9518991815
 30
0.0
 10
720.4485174062997
 20
180.0832165957
 30
0.0
  0
SPLINE
  5
367
330
208
100
AcDbEntity
  8
0
  6
Continuous
 62
     7
100
AcDbSpline
210
0.0
220
0.0
230
1.0
 70
     8
 71
     3
 72
    10
 73
     6
 74
     0
 42
0.0000000001
 43
0.0000000001
 40
0.0
 40
0.0
 40
0.0
 40
0.0
 40
0.5213068484000001
 40
0.7639622578000002
 40
1.0
 40
1.0
 40
1.0
 40
1.0
 10
-455.4033421005999
 20
126.7198412242
 30
0.0
 10
-455.2261714255
 20
126.8271549272
 30
0.0
 10
-454.9523534695
 20
126.9661991171
 30
0.0
 10
-454.5664016671
 20
127.0664259829
 30
0.0
 10
-454.3758093544998
 20
127.0832165957
 30
0.0
 10
-454.2820217571
 20
127.0832165957
 30
0.0
  0
SPLINE
  5
368
330
208
100
AcDbEntity
  8
0
  6
Continuous
 62
     7
100
AcDbSpline
210
0.0
220
0.0
230
1.0
 70
     8
 71
     3
 72
     9
 73
     5
 74
     0
 42
0.0000000001
 43
0.0000000001
 40
0.0
 40
0.0
 40
0.0
 40
0.0
 40
0.4874454541
 40
1.0
 40
1.0
 40
1.0
 40
1.0
 10
-455.4033421005999
 20
126.7198412242
 30
0.0
 10
-455.5267977016
 20
126.6450668194
 30
0.0
 10
-455.7602962248998
 20
126.4564802688
 30
0.0
 10
-455.9364705672
 20
126.2145340099
 30
0.0
 10
-456.0125609204
 20
126.0832165957
 30
0.0
  0
SPLINE
  5
369
330
208
100
AcDbEntity
  8
0
  6
Continuous
 62
     7
100
AcDbSpline
210
0.0
220
0.0
230
1.0
 70
     8
 71
     3
 72
     9
 73
     5
 74
     0
 42
0.0000000001
 43
0.0000000001
 40
0.0
 40
0.0
 40
0.0
 40
0.0
 40
0.51256656
 40
1.0
 40
1.0
 40
1.0
 40
1.0
 10
720.4485174062997
 20
126.0832165957
 30
0.0
 10
720.3724275649997
 20
126.2145331264
 30
0.0
 10
720.1960988788997
 20
126.4563362952
 30
0.0
 10
719.9627474205
 20
126.645070918
 30
0.0
 10
719.8392985864999
 20
126.7198412242
 30
0.0
  0
SPLINE
  5
36A
330
208
100
AcDbEntity
  8
0
  6
Continuous
 62
     7
100
AcDbSpline
210
0.0
220
0.0
230
1.0
 70
     8
 71
     3
 72
    10
 73
     6
 74
     0
 42
0.0000000001
 43
0.0000000001
 40
0.0
 40
0.0
 40
0.0
 40
0.0
 40
0.2360377379
 40
0.4786931438000001
 40
1.0
 40
1.0
 40
1.0
 40
1.0
 10
718.7179782428999
 20
127.0832165957
 30
0.0
 10
718.8117658386999
 20
127.0832165957
 30
0.0
 10
719.002358083
 20
127.0664258763
 30
0.0
 10
719.3883103019998
 20
126.9661996986
 30
0.0
 10
719.6621262464
 20
126.8271521842
 30
0.0
 10
719.8392985864999
 20
126.7198412242
 30
0.0
  0
SPLINE
  5
36B
330
208
100
AcDbEntity
  8
0
  6
Continuous
 62
     7
100
AcDbSpline
210
0.0
220
0.0
230
1.0
 70
     8
 71
     3
 72
    10
 73
     6
 74
     0
 42
0.0000000001
 43
0.0000000001
 40
0.0
 40
0.0
 40
0.0
 40
0.0
 40
0.2360377379
 40
0.4786931438000001
 40
1.0
 40
1.0
 40
1.0
 40
1.0
 10
-454.2820217571
 20
179.0832165957
 30
0.0
 10
-454.3758093527999
 20
179.0832165957
 30
0.0
 10
-454.5664015971
 20
179.1000073151
 30
0.0
 10
-454.9523538160998
 20
179.2002334928
 30
0.0
 10
-455.2261697605
 20
179.3392810072
 30
0.0
 10
-455.4033421005999
 20
179.4465919672
 30
0.0
  0
SPLINE
  5
36C
330
208
100
AcDbEntity
  8
0
  6
Continuous
 62
     0
100
AcDbSpline
210
0.0
220
0.0
230
1.0
 70
     8
 71
     3
 72
    11
 73
     7
 74
     0
 42
0.0000000001
 43
0.0000000001
 40
0.0
 40
0.0
 40
0.0
 40
0.0
 40
0.2066505356
 40
0.4351081108
 40
0.6984523957
 40
1.0
 40
1.0
 40
1.0
 40
1.0
 10
-454.2820217571
 20
178.0832165957
 30
0.0
 10
-454.3768412641
 20
178.0832165957
 30
0.0
 10
-454.5775931044
 20
178.120172515
 30
0.0
 10
-454.8629913819
 20
178.2732851743999
 30
0.0
 10
-455.1419271652999
 20
178.5097952461
 30
0.0
 10
-455.3152576080998
 20
178.7032659625
 30
0.0
 10
-455.4033421005999
 20
178.8099673388
 30
0.0
  0
SPLINE
  5
36D
330
208
100
AcDbEntity
  8
0
  6
Continuous
 62
     0
100
AcDbSpline
210
0.0
220
0.0
230
1.0
 70
     8
 71
     3
 72
    11
 73
     7
 74
     0
 42
0.0000000001
 43
0.0000000001
 40
0.0
 40
0.0
 40
0.0
 40
0.0
 40
0.2066505356
 40
0.4351081108
 40
0.6984523957
 40
1.0
 40
1.0
 40
1.0
 40
1.0
 10
718.7179782428999
 20
128.0832165957
 30
0.0
 10
718.8127977499997
 20
128.0832165957
 30
0.0
 10
719.0135495902998
 20
128.0462606764
 30
0.0
 10
719.2989478677998
 20
127.8931480171
 30
0.0
 10
719.5778836511998
 20
127.6566379453
 30
0.0
 10
719.7512140939998
 20
127.4631672289
 30
0.0
 10
719.8392985864999
 20
127.3564658526
 30
0.0
  0
SPLINE
  5
36E
330
208
100
AcDbEntity
  8
0
  6
Continuous
 62
     0
100
AcDbSpline
210
0.0
220
0.0
230
1.0
 70
     8
 71
     3
 72
     9
 73
     5
 74
     0
 42
0.0000000001
 43
0.0000000001
 40
0.0
 40
0.0
 40
0.0
 40
0.0
 40
0.4766479256000001
 40
1.0
 40
1.0
 40
1.0
 40
1.0
 10
719.8392985864999
 20
127.3564658526
 30
0.0
 10
719.9827682393999
 20
127.1826728806
 30
0.0
 10
720.2225769745997
 20
126.768066787
 30
0.0
 10
720.3796600978003
 20
126.3208857171
 30
0.0
 10
720.4485174062997
 20
126.0832165957
 30
0.0
  0
SPLINE
  5
36F
330
208
100
AcDbEntity
  8
0
  6
Continuous
 62
     0
100
AcDbSpline
210
0.0
220
0.0
230
1.0
 70
     8
 71
     3
 72
     9
 73
     5
 74
     0
 42
0.0000000001
 43
0.0000000001
 40
0.0
 40
0.0
 40
0.0
 40
0.0
 40
0.5233455386000001
 40
1.0
 40
1.0
 40
1.0
 40
1.0
 10
-456.0125609204
 20
126.0832165957
 30
0.0
 10
-455.9437031386
 20
126.3208873506
 30
0.0
 10
-455.7868710183
 20
126.7681861592
 30
0.0
 10
-455.5468164986
 20
127.1826671326
 30
0.0
 10
-455.4033421005999
 20
127.3564658526
 30
0.0
  0
SPLINE
  5
370
330
208
100
AcDbEntity
  8
0
  6
Continuous
 62
     0
100
AcDbSpline
210
0.0
220
0.0
230
1.0
 70
     8
 71
     3
 72
    11
 73
     7
 74
     0
 42
0.0000000001
 43
0.0000000001
 40
0.0
 40
0.0
 40
0.0
 40
0.0
 40
0.3015476291
 40
0.5648918682000002
 40
0.7933494639000001
 40
1.0
 40
1.0
 40
1.0
 40
1.0
 10
-455.4033421005999
 20
127.3564658526
 30
0.0
 10
-455.3152585173998
 20
127.4631679927
 30
0.0
 10
-455.1419266244
 20
127.656637466
 30
0.0
 10
-454.8629915158
 20
127.8931481699
 30
0.0
 10
-454.5775930770998
 20
128.0462606331
 30
0.0
 10
-454.3768412636
 20
128.0832165957
 30
0.0
 10
-454.2820217571
 20
128.0832165957
 30
0.0
  0
SPLINE
  5
371
330
208
100
AcDbEntity
  8
0
  6
Continuous
 62
     0
100
AcDbSpline
210
0.0
220
0.0
230
1.0
 70
     8
 71
     3
 72
     9
 73
     5
 74
     0
 42
0.0000000001
 43
0.0000000001
 40
0.0
 40
0.0
 40
0.0
 40
0.0
 40
0.4766479256000001
 40
1.0
 40
1.0
 40
1.0
 40
1.0
 10
-455.4033421005999
 20
178.8099673388
 30
0.0
 10
-455.5468117534998
 20
178.9837603108
 30
0.0
 10
-455.7866204887
 20
179.3983664044
 30
0.0
 10
-455.9437036119
 20
179.8455474744
 30
0.0
 10
-456.0125609204
 20
180.0832165957
 30
0.0
  0
SPLINE
  5
372
330
208
100
AcDbEntity
  8
0
  6
Continuous
 62
     0
100
AcDbSpline
210
0.0
220
0.0
230
1.0
 70
     8
 71
     3
 72
     9
 73
     5
 74
     0
 42
0.0000000001
 43
0.0000000001
 40
0.0
 40
0.0
 40
0.0
 40
0.0
 40
0.5233455386000001
 40
1.0
 40
1.0
 40
1.0
 40
1.0
 10
720.4485174062997
 20
180.0832165957
 30
0.0
 10
720.3796596244998
 20
179.8455458408
 30
0.0
 10
720.2228275041997
 20
179.3982470322
 30
0.0
 10
719.9827729844997
 20
178.9837660589
 30
0.0
 10
719.8392985864999
 20
178.8099673388
 30
0.0
  0
SPLINE
  5
373
330
208
100
AcDbEntity
  8
0
  6
Continuous
 62
     0
100
AcDbSpline
210
0.0
220
0.0
230
1.0
 70
     8
 71
     3
 72
    11
 73
     7
 74
     0
 42
0.0000000001
 43
0.0000000001
 40
0.0
 40
0.0
 40
0.0
 40
0.0
 40
0.3015476291
 40
0.5648918682000002
 40
0.7933494639000001
 40
1.0
 40
1.0
 40
1.0
 40
1.0
 10
719.8392985864999
 20
178.8099673388
 30
0.0
 10
719.7512150032999
 20
178.7032651987
 30
0.0
 10
719.5778831102998
 20
178.5097957255
 30
0.0
 10
719.2989480016998
 20
178.2732850215
 30
0.0
 10
719.0135495629997
 20
178.1201725584
 30
0.0
 10
718.8127977494998
 20
178.0832165957
 30
0.0
 10
718.7179782428999
 20
178.0832165957
 30
0.0
  0
SPLINE
  5
374
330
208
100
AcDbEntity
  8
0
  6
Continuous
 62
     7
100
AcDbSpline
210
0.0
220
0.0
230
1.0
 70
     8
 71
     3
 72
    10
 73
     6
 74
     0
 42
0.0000000001
 43
0.0000000001
 40
0.0
 40
0.0
 40
0.0
 40
0.0
 40
0.1952072951
 40
0.4300741355
 40
1.0
 40
1.0
 40
1.0
 40
1.0
 10
720.4921293934617
 20
239.2549251557
 30
0.0
 10
720.4495105142617
 20
239.2549251557
 30
0.0
 10
720.3558932557617
 20
239.2720580812
 30
0.0
 10
720.150915247462
 20
239.3476986922
 30
0.0
 10
719.9942037862618
 20
239.4281042908
 30
0.0
 10
719.8829105736617
 20
239.4837513216
 30
0.0
  0
SPLINE
  5
375
330
208
100
AcDbEntity
  8
0
  6
Continuous
 62
     7
100
AcDbSpline
210
0.0
220
0.0
230
1.0
 70
     8
 71
     3
 72
     9
 73
     5
 74
     0
 42
0.0000000001
 43
0.0000000001
 40
0.0
 40
0.0
 40
0.0
 40
0.0
 40
0.5168902849000001
 40
1.0
 40
1.0
 40
1.0
 40
1.0
 10
718.761590230062
 20
240.2549251557
 30
0.0
 10
718.9462179638618
 20
240.1099188727
 30
0.0
 10
719.3030435020618
 20
239.8292796506
 30
0.0
 10
719.6866548302616
 20
239.5818812957
 30
0.0
 10
719.8829105736617
 20
239.4837513216
 30
0.0
  0
SPLINE
  5
376
330
208
100
AcDbEntity
  8
0
  6
Continuous
 62
     7
100
AcDbSpline
210
0.0
220
0.0
230
1.0
 70
     8
 71
     3
 72
     9
 73
     5
 74
     0
 42
0.0000000001
 43
0.0000000001
 40
0.0
 40
0.0
 40
0.0
 40
0.0
 40
0.4831097071000002
 40
1.0
 40
1.0
 40
1.0
 40
1.0
 10
-455.3983128590727
 20
239.4837513216
 30
0.0
 10
-455.2020584910727
 20
239.5818840384
 30
0.0
 10
-454.8184450565726
 20
239.8292781807
 30
0.0
 10
-454.4616202520726
 20
240.1099188705
 30
0.0
 10
-454.2769925155726
 20
240.2549251557
 30
0.0
  0
SPLINE
  5
377
330
208
100
AcDbEntity
  8
0
  6
Continuous
 62
     7
100
AcDbSpline
210
0.0
220
0.0
230
1.0
 70
     8
 71
     3
 72
    10
 73
     6
 74
     0
 42
0.0000000001
 43
0.0000000001
 40
0.0
 40
0.0
 40
0.0
 40
0.0
 40
0.5700320187
 40
0.8048143887
 40
1.0
 40
1.0
 40
1.0
 40
1.0
 10
-455.3983128590727
 20
239.4837513216
 30
0.0
 10
-455.5096255711728
 20
239.428094541
 30
0.0
 10
-455.6663808763728
 20
239.3477833137
 30
0.0
 10
-455.8713215877727
 20
239.2720503368
 30
0.0
 10
-455.9649180045727
 20
239.2549251557
 30
0.0
 10
-456.0075316788728
 20
239.2549251557
 30
0.0
  0
SPLINE
  5
378
330
208
100
AcDbEntity
  8
0
  6
Continuous
 62
     7
100
AcDbSpline
210
0.0
220
0.0
230
1.0
 70
     8
 71
     3
 72
     9
 73
     5
 74
     0
 42
0.0000000001
 43
0.0000000001
 40
0.0
 40
0.0
 40
0.0
 40
0.0
 40
0.2509524747
 40
1.0
 40
1.0
 40
1.0
 40
1.0
 10
-430.523330324973
 20
240.2549251557
 30
0.0
 10
-430.5640652690727
 20
240.2299293672
 30
0.0
 10
-430.7263873596729
 20
240.1303309618
 30
0.0
 10
-430.8892123452729
 20
240.0315201573
 30
0.0
 10
-431.0122778275728
 20
239.9593780934
 30
0.0
  0
SPLINE
  5
379
330
208
100
AcDbEntity
  8
0
  6
Continuous
 62
     7
100
AcDbSpline
210
0.0
220
0.0
230
1.0
 70
     8
 71
     3
 72
    13
 73
     9
 74
     0
 42
0.0000000001
 43
0.0000000001
 40
0.0
 40
0.0
 40
0.0
 40
0.0
 40
0.063554982
 40
0.1513115845
 40
0.2614749126
 40
0.3897140227
 40
0.6824700978
 40
1.0
 40
1.0
 40
1.0
 40
1.0
 10
-432.0630708803728
 20
239.2552104993
 30
0.0
 10
-432.0362362413729
 20
239.2570893888
 30
0.0
 10
-431.9746322639727
 20
239.2802250154
 30
0.0
 10
-431.8806520004728
 20
239.3381084261
 30
0.0
 10
-431.7690906070726
 20
239.4198385499
 30
0.0
 10
-431.5919667605728
 20
239.5581519768
 30
0.0
 10
-431.3442675714727
 20
239.7489934392
 30
0.0
 10
-431.1282225960726
 20
239.8914102542
 30
0.0
 10
-431.0122778275728
 20
239.9593780934
 30
0.0
  0
SPLINE
  5
37A
330
208
100
AcDbEntity
  8
0
  6
Continuous
 62
     7
100
AcDbSpline
210
0.0
220
0.0
230
1.0
 70
     8
 71
     3
 72
    13
 73
     9
 74
     0
 42
0.0000000001
 43
0.0000000001
 40
0.0
 40
0.0
 40
0.0
 40
0.0
 40
0.3175299022
 40
0.6102859773000004
 40
0.7385250873999999
 40
0.8486884155
 40
0.936445018
 40
1.0
 40
1.0
 40
1.0
 40
1.0
 10
235.2056414667555
 20
239.9593780934
 30
0.0
 10
235.3215862351555
 20
239.8914102542
 30
0.0
 10
235.5376312106554
 20
239.7489934392
 30
0.0
 10
235.7853303997555
 20
239.5581519768
 30
0.0
 10
235.9624542462555
 20
239.4198385499
 30
0.0
 10
236.0740156396555
 20
239.3381084261
 30
0.0
 10
236.1679959031555
 20
239.2802250154
 30
0.0
 10
236.2295998805556
 20
239.2570893888
 30
0.0
 10
236.2564345195555
 20
239.2552104993
 30
0.0
  0
SPLINE
  5
37B
330
208
100
AcDbEntity
  8
0
  6
Continuous
 62
     7
100
AcDbSpline
210
0.0
220
0.0
230
1.0
 70
     8
 71
     3
 72
    13
 73
     9
 74
     0
 42
0.0000000001
 43
0.0000000001
 40
0.0
 40
0.0
 40
0.0
 40
0.0
 40
0.3175299022
 40
0.6102859773000004
 40
0.7385250873999999
 40
0.8486884155
 40
0.936445018
 40
1.0
 40
1.0
 40
1.0
 40
1.0
 10
4.30037666717552
 20
239.9593780934
 30
0.0
 10
4.416321435575518
 20
239.8914102542
 30
0.0
 10
4.632366411075516
 20
239.7489934392
 30
0.0
 10
4.880065600175519
 20
239.5581519768
 30
0.0
 10
5.057189446675514
 20
239.4198385499
 30
0.0
 10
5.168750840075515
 20
239.3381084261
 30
0.0
 10
5.262731103575511
 20
239.2802250154
 30
0.0
 10
5.32433508097552
 20
239.2570893888
 30
0.0
 10
5.351169719975523
 20
239.2552104993
 30
0.0
  0
SPLINE
  5
37C
330
208
100
AcDbEntity
  8
0
  6
Continuous
 62
     7
100
AcDbSpline
210
0.0
220
0.0
230
1.0
 70
     8
 71
     3
 72
    13
 73
     9
 74
     0
 42
0.0000000001
 43
0.0000000001
 40
0.0
 40
0.0
 40
0.0
 40
0.0
 40
0.063554982
 40
0.1513115845
 40
0.2614749126
 40
0.3897140227
 40
0.6824700978
 40
1.0
 40
1.0
 40
1.0
 40
1.0
 10
258.6842777898556
 20
239.2552104993
 30
0.0
 10
258.7111124288555
 20
239.2570893888
 30
0.0
 10
258.7727164062555
 20
239.2802250154
 30
0.0
 10
258.8666966697555
 20
239.3381084261
 30
0.0
 10
258.9782580631556
 20
239.4198385499
 30
0.0
 10
259.1553819096555
 20
239.5581519768
 30
0.0
 10
259.4030810987556
 20
239.7489934392
 30
0.0
 10
259.6191260741557
 20
239.8914102542
 30
0.0
 10
259.7350708426555
 20
239.9593780934
 30
0.0
  0
SPLINE
  5
37D
330
208
100
AcDbEntity
  8
0
  6
Continuous
 62
     7
100
AcDbSpline
210
0.0
220
0.0
230
1.0
 70
     8
 71
     3
 72
    13
 73
     9
 74
     0
 42
0.0000000001
 43
0.0000000001
 40
0.0
 40
0.0
 40
0.0
 40
0.0
 40
0.3175299022
 40
0.6102859773000004
 40
0.7385250873999999
 40
0.8486884155
 40
0.936445018
 40
1.0
 40
1.0
 40
1.0
 40
1.0
 10
695.4968755421616
 20
239.9593780934
 30
0.0
 10
695.6128203105617
 20
239.8914102542
 30
0.0
 10
695.8288652860617
 20
239.7489934392
 30
0.0
 10
696.076564475162
 20
239.5581519768
 30
0.0
 10
696.2536883216618
 20
239.4198385499
 30
0.0
 10
696.3652497150619
 20
239.3381084261
 30
0.0
 10
696.4592299785619
 20
239.2802250154
 30
0.0
 10
696.520833955962
 20
239.2570893888
 30
0.0
 10
696.5476685949616
 20
239.2552104993
 30
0.0
  0
SPLINE
  5
37E
330
208
100
AcDbEntity
  8
0
  6
Continuous
 62
     7
100
AcDbSpline
210
0.0
220
0.0
230
1.0
 70
     8
 71
     3
 72
     9
 73
     5
 74
     0
 42
0.0000000001
 43
0.0000000001
 40
0.0
 40
0.0
 40
0.0
 40
0.0
 40
0.2509524747
 40
1.0
 40
1.0
 40
1.0
 40
1.0
 10
695.0079280395617
 20
240.2549251557
 30
0.0
 10
695.0486629836618
 20
240.2299293672
 30
0.0
 10
695.2109850742617
 20
240.1303309618
 30
0.0
 10
695.3738100598617
 20
240.0315201573
 30
0.0
 10
695.4968755421616
 20
239.9593780934
 30
0.0
  0
SPLINE
  5
37F
330
208
100
AcDbEntity
  8
0
  6
Continuous
 62
     7
100
AcDbSpline
210
0.0
220
0.0
230
1.0
 70
     8
 71
     3
 72
     9
 73
     5
 74
     0
 42
0.0000000001
 43
0.0000000001
 40
0.0
 40
0.0
 40
0.0
 40
0.0
 40
0.2509524747
 40
1.0
 40
1.0
 40
1.0
 40
1.0
 10
260.2240183452553
 20
240.2549251557
 30
0.0
 10
260.1832834011556
 20
240.2299293672
 30
0.0
 10
260.0209613105555
 20
240.1303309618
 30
0.0
 10
259.8581363249555
 20
240.0315201573
 30
0.0
 10
259.7350708426555
 20
239.9593780934
 30
0.0
  0
SPLINE
  5
380
330
208
100
AcDbEntity
  8
0
  6
Continuous
 62
     7
100
AcDbSpline
210
0.0
220
0.0
230
1.0
 70
     8
 71
     3
 72
     9
 73
     5
 74
     0
 42
0.0000000001
 43
0.0000000001
 40
0.0
 40
0.0
 40
0.0
 40
0.0
 40
0.2509524747
 40
1.0
 40
1.0
 40
1.0
 40
1.0
 10
234.7166939641556
 20
240.2549251557
 30
0.0
 10
234.7574289082555
 20
240.2299293672
 30
0.0
 10
234.9197509988555
 20
240.1303309618
 30
0.0
 10
235.0825759844556
 20
240.0315201573
 30
0.0
 10
235.2056414667555
 20
239.9593780934
 30
0.0
  0
SPLINE
  5
381
330
208
100
AcDbEntity
  8
0
  6
Continuous
 62
     7
100
AcDbSpline
210
0.0
220
0.0
230
1.0
 70
     8
 71
     3
 72
     9
 73
     5
 74
     0
 42
0.0000000001
 43
0.0000000001
 40
0.0
 40
0.0
 40
0.0
 40
0.0
 40
0.2509524747
 40
1.0
 40
1.0
 40
1.0
 40
1.0
 10
29.31875354567552
 20
240.2549251557
 30
0.0
 10
29.27801860157553
 20
240.2299293672
 30
0.0
 10
29.11569651097554
 20
240.1303309618
 30
0.0
 10
28.95287152537552
 20
240.0315201573
 30
0.0
 10
28.82980604307551
 20
239.9593780934
 30
0.0
  0
SPLINE
  5
382
330
208
100
AcDbEntity
  8
0
  6
Continuous
 62
     7
100
AcDbSpline
210
0.0
220
0.0
230
1.0
 70
     8
 71
     3
 72
     9
 73
     5
 74
     0
 42
0.0000000001
 43
0.0000000001
 40
0.0
 40
0.0
 40
0.0
 40
0.0
 40
0.2509524747
 40
1.0
 40
1.0
 40
1.0
 40
1.0
 10
3.811429164575521
 20
240.2549251557
 30
0.0
 10
3.852164108675522
 20
240.2299293672
 30
0.0
 10
4.014486199275522
 20
240.1303309618
 30
0.0
 10
4.177311184875519
 20
240.0315201573
 30
0.0
 10
4.30037666717552
 20
239.9593780934
 30
0.0
  0
SPLINE
  5
383
330
208
100
AcDbEntity
  8
0
  6
Continuous
 62
     7
100
AcDbSpline
210
0.0
220
0.0
230
1.0
 70
     8
 71
     3
 72
    13
 73
     9
 74
     0
 42
0.0000000001
 43
0.0000000001
 40
0.0
 40
0.0
 40
0.0
 40
0.0
 40
0.063554982
 40
0.1513115845
 40
0.2614749126
 40
0.3897140227
 40
0.6824700978
 40
1.0
 40
1.0
 40
1.0
 40
1.0
 10
27.77901299027552
 20
239.2552104993
 30
0.0
 10
27.80584762927552
 20
239.2570893888
 30
0.0
 10
27.86745160667552
 20
239.2802250154
 30
0.0
 10
27.96143187017552
 20
239.3381084261
 30
0.0
 10
28.07299326357554
 20
239.4198385499
 30
0.0
 10
28.25011711007552
 20
239.5581519768
 30
0.0
 10
28.49781629917553
 20
239.7489934392
 30
0.0
 10
28.71386127457552
 20
239.8914102542
 30
0.0
 10
28.82980604307551
 20
239.9593780934
 30
0.0
  0
SPLINE
  5
384
330
208
100
AcDbEntity
  8
0
  6
Continuous
 62
     0
100
AcDbSpline
210
0.0
220
0.0
230
1.0
 70
     8
 71
     3
 72
    14
 73
    10
 74
     0
 42
0.0000000001
 43
0.0000000001
 40
0.0
 40
0.0
 40
0.0
 40
0.0
 40
0.3611200797
 40
0.5237677657000001
 40
0.6685457457
 40
0.7912199603
 40
0.8882801451999997
 40
0.9574861668
 40
1.0
 40
1.0
 40
1.0
 40
1.0
 10
-431.0122778275728
 20
239.663831031
 30
0.0
 10
-431.1502341567726
 20
239.5020886132
 30
0.0
 10
-431.3340085911727
 20
239.2535169613
 30
0.0
 10
-431.550878668873
 20
238.9252254364
 30
0.0
 10
-431.6874335363728
 20
238.7118692499
 30
0.0
 10
-431.8039541412726
 20
238.5320502855
 30
0.0
 10
-431.9028134822728
 20
238.3924840577
 30
0.0
 10
-431.9815219026729
 20
238.3002142166
 30
0.0
 10
-432.0382855272728
 20
238.258966651
 30
0.0
 10
-432.0630708803728
 20
238.2554958428
 30
0.0
  0
SPLINE
  5
385
330
208
100
AcDbEntity
  8
0
  6
Continuous
 62
     0
100
AcDbSpline
210
0.0
220
0.0
230
1.0
 70
     8
 71
     3
 72
    14
 73
    10
 74
     0
 42
0.0000000001
 43
0.0000000001
 40
0.0
 40
0.0
 40
0.0
 40
0.0
 40
0.0425138332
 40
0.1117198548
 40
0.2087800397
 40
0.3314542543
 40
0.4762322343000001
 40
0.6388799203
 40
1.0
 40
1.0
 40
1.0
 40
1.0
 10
5.351169719975523
 20
238.2554958428
 30
0.0
 10
5.326384366875513
 20
238.258966651
 30
0.0
 10
5.269620742275519
 20
238.3002142166
 30
0.0
 10
5.190912321875514
 20
238.3924840577
 30
0.0
 10
5.092052980875519
 20
238.5320502855
 30
0.0
 10
4.975532375975511
 20
238.7118692499
 30
0.0
 10
4.838977508475521
 20
238.9252254364
 30
0.0
 10
4.622107430775518
 20
239.2535169613
 30
0.0
 10
4.438332996375521
 20
239.5020886132
 30
0.0
 10
4.30037666717552
 20
239.663831031
 30
0.0
  0
SPLINE
  5
386
330
208
100
AcDbEntity
  8
0
  6
Continuous
 62
     0
100
AcDbSpline
210
0.0
220
0.0
230
1.0
 70
     8
 71
     3
 72
    14
 73
    10
 74
     0
 42
0.0000000001
 43
0.0000000001
 40
0.0
 40
0.0
 40
0.0
 40
0.0
 40
0.3611200797
 40
0.5237677657000001
 40
0.6685457457
 40
0.7912199603
 40
0.8882801451999997
 40
0.9574861668
 40
1.0
 40
1.0
 40
1.0
 40
1.0
 10
28.82980604307551
 20
239.663831031
 30
0.0
 10
28.69184971377553
 20
239.5020886132
 30
0.0
 10
28.50807527947552
 20
239.2535169613
 30
0.0
 10
28.2912052017755
 20
238.9252254364
 30
0.0
 10
28.15465033427553
 20
238.7118692499
 30
0.0
 10
28.03812972937552
 20
238.5320502855
 30
0.0
 10
27.93927038837552
 20
238.3924840577
 30
0.0
 10
27.86056196797552
 20
238.3002142166
 30
0.0
 10
27.80379834337552
 20
238.258966651
 30
0.0
 10
27.77901299027552
 20
238.2554958428
 30
0.0
  0
SPLINE
  5
387
330
208
100
AcDbEntity
  8
0
  6
Continuous
 62
     0
100
AcDbSpline
210
0.0
220
0.0
230
1.0
 70
     8
 71
     3
 72
    14
 73
    10
 74
     0
 42
0.0000000001
 43
0.0000000001
 40
0.0
 40
0.0
 40
0.0
 40
0.0
 40
0.0425138332
 40
0.1117198548
 40
0.2087800397
 40
0.3314542543
 40
0.4762322343000001
 40
0.6388799203
 40
1.0
 40
1.0
 40
1.0
 40
1.0
 10
236.2564345195555
 20
238.2554958428
 30
0.0
 10
236.2316491664555
 20
238.258966651
 30
0.0
 10
236.1748855418555
 20
238.3002142166
 30
0.0
 10
236.0961771214555
 20
238.3924840577
 30
0.0
 10
235.9973177804555
 20
238.5320502855
 30
0.0
 10
235.8807971755556
 20
238.7118692499
 30
0.0
 10
235.7442423080555
 20
238.9252254364
 30
0.0
 10
235.5273722303555
 20
239.2535169613
 30
0.0
 10
235.3435977959555
 20
239.5020886132
 30
0.0
 10
235.2056414667555
 20
239.663831031
 30
0.0
  0
SPLINE
  5
388
330
208
100
AcDbEntity
  8
0
  6
Continuous
 62
     0
100
AcDbSpline
210
0.0
220
0.0
230
1.0
 70
     8
 71
     3
 72
    14
 73
    10
 74
     0
 42
0.0000000001
 43
0.0000000001
 40
0.0
 40
0.0
 40
0.0
 40
0.0
 40
0.3611200797
 40
0.5237677657000001
 40
0.6685457457
 40
0.7912199603
 40
0.8882801451999997
 40
0.9574861668
 40
1.0
 40
1.0
 40
1.0
 40
1.0
 10
259.7350708426555
 20
239.663831031
 30
0.0
 10
259.5971145133554
 20
239.5020886132
 30
0.0
 10
259.4133400790556
 20
239.2535169613
 30
0.0
 10
259.1964700013552
 20
238.9252254364
 30
0.0
 10
259.0599151338555
 20
238.7118692499
 30
0.0
 10
258.9433945289555
 20
238.5320502855
 30
0.0
 10
258.8445351879554
 20
238.3924840577
 30
0.0
 10
258.7658267675555
 20
238.3002142166
 30
0.0
 10
258.7090631429555
 20
238.258966651
 30
0.0
 10
258.6842777898556
 20
238.2554958428
 30
0.0
  0
SPLINE
  5
389
330
208
100
AcDbEntity
  8
0
  6
Continuous
 62
     0
100
AcDbSpline
210
0.0
220
0.0
230
1.0
 70
     8
 71
     3
 72
    14
 73
    10
 74
     0
 42
0.0000000001
 43
0.0000000001
 40
0.0
 40
0.0
 40
0.0
 40
0.0
 40
0.0425138332
 40
0.1117198548
 40
0.2087800397
 40
0.3314542543
 40
0.4762322343000001
 40
0.6388799203
 40
1.0
 40
1.0
 40
1.0
 40
1.0
 10
696.5476685949616
 20
238.2554958428
 30
0.0
 10
696.522883241862
 20
238.258966651
 30
0.0
 10
696.4661196172618
 20
238.3002142166
 30
0.0
 10
696.3874111968618
 20
238.3924840577
 30
0.0
 10
696.288551855862
 20
238.5320502855
 30
0.0
 10
696.1720312509616
 20
238.7118692499
 30
0.0
 10
696.0354763834617
 20
238.9252254364
 30
0.0
 10
695.8186063057617
 20
239.2535169613
 30
0.0
 10
695.6348318713615
 20
239.5020886132
 30
0.0
 10
695.4968755421616
 20
239.663831031
 30
0.0
  0
SPLINE
  5
38A
330
208
100
AcDbEntity
  8
0
  6
Continuous
 62
     0
100
AcDbSpline
210
0.0
220
0.0
230
1.0
 70
     8
 71
     3
 72
     9
 73
     5
 74
     0
 42
0.0000000001
 43
0.0000000001
 40
0.0
 40
0.0
 40
0.0
 40
0.0
 40
0.2521100781999999
 40
1.0
 40
1.0
 40
1.0
 40
1.0
 10
695.0079280395617
 20
240.2549251557
 30
0.0
 10
695.0486501939617
 20
240.2049492748
 30
0.0
 10
695.2101818055616
 20
240.006728716
 30
0.0
 10
695.3727711158618
 20
239.809333235
 30
0.0
 10
695.4968755421616
 20
239.663831031
 30
0.0
  0
SPLINE
  5
38B
330
208
100
AcDbEntity
  8
0
  6
Continuous
 62
     0
100
AcDbSpline
210
0.0
220
0.0
230
1.0
 70
     8
 71
     3
 72
     9
 73
     5
 74
     0
 42
0.0000000001
 43
0.0000000001
 40
0.0
 40
0.0
 40
0.0
 40
0.0
 40
0.2521100781999999
 40
1.0
 40
1.0
 40
1.0
 40
1.0
 10
234.7166939641556
 20
240.2549251557
 30
0.0
 10
234.7574161185555
 20
240.2049492748
 30
0.0
 10
234.9189477301555
 20
240.006728716
 30
0.0
 10
235.0815370404554
 20
239.809333235
 30
0.0
 10
235.2056414667555
 20
239.663831031
 30
0.0
  0
SPLINE
  5
38C
330
208
100
AcDbEntity
  8
0
  6
Continuous
 62
     0
100
AcDbSpline
210
0.0
220
0.0
230
1.0
 70
     8
 71
     3
 72
     9
 73
     5
 74
     0
 42
0.0000000001
 43
0.0000000001
 40
0.0
 40
0.0
 40
0.0
 40
0.0
 40
0.2521100781999999
 40
1.0
 40
1.0
 40
1.0
 40
1.0
 10
260.2240183452553
 20
240.2549251557
 30
0.0
 10
260.1832961908554
 20
240.2049492748
 30
0.0
 10
260.0217645792555
 20
240.006728716
 30
0.0
 10
259.8591752689556
 20
239.809333235
 30
0.0
 10
259.7350708426555
 20
239.663831031
 30
0.0
  0
SPLINE
  5
38D
330
208
100
AcDbEntity
  8
0
  6
Continuous
 62
     0
100
AcDbSpline
210
0.0
220
0.0
230
1.0
 70
     8
 71
     3
 72
     9
 73
     5
 74
     0
 42
0.0000000001
 43
0.0000000001
 40
0.0
 40
0.0
 40
0.0
 40
0.0
 40
0.2521100781999999
 40
1.0
 40
1.0
 40
1.0
 40
1.0
 10
3.811429164575521
 20
240.2549251557
 30
0.0
 10
3.852151318975515
 20
240.2049492748
 30
0.0
 10
4.013682930575518
 20
240.006728716
 30
0.0
 10
4.176272240875518
 20
239.809333235
 30
0.0
 10
4.30037666717552
 20
239.663831031
 30
0.0
  0
SPLINE
  5
38E
330
208
100
AcDbEntity
  8
0
  6
Continuous
 62
     0
100
AcDbSpline
210
0.0
220
0.0
230
1.0
 70
     8
 71
     3
 72
     9
 73
     5
 74
     0
 42
0.0000000001
 43
0.0000000001
 40
0.0
 40
0.0
 40
0.0
 40
0.0
 40
0.2521100781999999
 40
1.0
 40
1.0
 40
1.0
 40
1.0
 10
29.31875354567552
 20
240.2549251557
 30
0.0
 10
29.27803139127552
 20
240.2049492748
 30
0.0
 10
29.11649977967552
 20
240.006728716
 30
0.0
 10
28.95391046937552
 20
239.809333235
 30
0.0
 10
28.82980604307551
 20
239.663831031
 30
0.0
  0
SPLINE
  5
38F
330
208
100
AcDbEntity
  8
0
  6
Continuous
 62
     0
100
AcDbSpline
210
0.0
220
0.0
230
1.0
 70
     8
 71
     3
 72
     9
 73
     5
 74
     0
 42
0.0000000001
 43
0.0000000001
 40
0.0
 40
0.0
 40
0.0
 40
0.0
 40
0.2521100781999999
 40
1.0
 40
1.0
 40
1.0
 40
1.0
 10
-430.523330324973
 20
240.2549251557
 30
0.0
 10
-430.5640524793727
 20
240.2049492748
 30
0.0
 10
-430.7255840909729
 20
240.006728716
 30
0.0
 10
-430.8881734012726
 20
239.809333235
 30
0.0
 10
-431.0122778275728
 20
239.663831031
 30
0.0
  0
LINE
  5
1BFF
330
208
100
AcDbEntity
  8
0
  6
Continuous
 62
     7
100
AcDbLine
 10
236.6882985045325
 20
181.5738203287728
 30
0.0
 11
236.2769224918325
 21
180.0385441483728
 31
0.0
  0
LINE
  5
1C00
330
208
100
AcDbEntity
  8
0
  6
Continuous
 62
     7
100
AcDbLine
 10
258.2770892110325
 20
181.5738203287728
 30
0.0
 11
258.6884652237324
 21
180.0385441483728
 31
0.0
  0
LINE
  5
1C01
330
208
100
AcDbEntity
  8
0
  6
Continuous
 62
     9
100
AcDbLine
 10
258.6884652237324
 20
180.0385441483728
 30
0.0
 11
236.2769224918325
 21
180.0385441483728
 31
0.0
  0
LINE
  5
1C02
330
208
100
AcDbEntity
  8
RUNDUNGEN
  6
Continuous
 62
     7
100
AcDbLine
 10
254.4133859058325
 20
184.5385441483728
 30
0.0
 11
240.5520018097325
 21
184.5385441483728
 31
0.0
  0
ARC
  5
1C03
330
208
100
AcDbEntity
  8
RUNDUNGEN
  6
Continuous
 62
     7
100
AcDbCircle
 10
240.5520018097325
 20
180.5385441483728
 30
0.0
 40
4.0
100
AcDbArc
 50
90.0
 51
165.0000000000003
  0
ARC
  5
1C04
330
208
100
AcDbEntity
  8
RUNDUNGEN
  6
Continuous
 62
     7
100
AcDbCircle
 10
254.4133859058325
 20
180.5385441483728
 30
0.0
 40
4.0
100
AcDbArc
 50
14.99999999999965
 51
90.0
  0
SPLINE
  5
1C05
330
208
100
AcDbEntity
  8
0
  6
Continuous
 62
     7
100
AcDbSpline
210
0.0
220
0.0
230
1.0
 70
     8
 71
     3
 72
    11
 73
     7
 74
     0
 42
0.0000000001
 43
0.0000000001
 40
0.0
 40
0.0
 40
0.0
 40
0.0
 40
0.2742592274
 40
0.5260864827000003
 40
0.7621155876000003
 40
1.0
 40
1.0
 40
1.0
 40
1.0
 10
236.2687722226325
 20
180.0146567930728
 30
0.0
 10
236.2251070354325
 20
179.8867042815728
 30
0.0
 10
236.1159555170325
 20
179.6484694033728
 30
0.0
 10
235.8713836891325
 20
179.3557123180728
 30
0.0
 10
235.5611034656325
 20
179.1659945415726
 30
0.0
 10
235.3333638314325
 20
179.1041413996728
 30
0.0
 10
235.2179791698325
 20
179.0832159670728
 30
0.0
  0
SPLINE
  5
1C06
330
208
100
AcDbEntity
  8
0
  6
Continuous
 62
     7
100
AcDbSpline
210
0.0
220
0.0
230
1.0
 70
     8
 71
     3
 72
    11
 73
     7
 74
     0
 42
0.0000000001
 43
0.0000000001
 40
0.0
 40
0.0
 40
0.0
 40
0.0
 40
0.2378844124
 40
0.4739135173
 40
0.7257407726000002
 40
1.0
 40
1.0
 40
1.0
 40
1.0
 10
259.7474085457325
 20
179.0832159670728
 30
0.0
 10
259.6320238841325
 20
179.1041413996728
 30
0.0
 10
259.4042842499325
 20
179.1659945415726
 30
0.0
 10
259.0940040264325
 20
179.3557123180728
 30
0.0
 10
258.8494321985325
 20
179.6484694033728
 30
0.0
 10
258.7402806801325
 20
179.8867042815728
 30
0.0
 10
258.6966154929326
 20
180.0146567930728
 30
0.0
  0
LINE
  5
1C07
330
208
100
AcDbEntity
  8
0
  6
Continuous
 62
     7
100
AcDbLine
 10
236.2769224918325
 20
180.0385441483728
 30
0.0
 11
236.2687722226325
 21
180.0146567930728
 31
0.0
  0
LINE
  5
1C08
330
208
100
AcDbEntity
  8
0
  6
Continuous
 62
     7
100
AcDbLine
 10
258.6884652237324
 20
180.0385441483728
 30
0.0
 11
258.6966154929326
 21
180.0146567930728
 31
0.0
  0
LINE
  5
1C09
330
208
100
AcDbEntity
  8
0
  6
Continuous
 62
     7
100
AcDbLine
 10
5.9235828897
 20
181.6184927761
 30
0.0
 11
5.512206876999996
 21
180.0832165957
 31
0.0
  0
LINE
  5
1C0A
330
208
100
AcDbEntity
  8
0
  6
Continuous
 62
     7
100
AcDbLine
 10
27.5123735962
 20
181.6184927761
 30
0.0
 11
27.92374960889999
 21
180.0832165957
 31
0.0
  0
LINE
  5
1C0B
330
208
100
AcDbEntity
  8
0
  6
Continuous
 62
     7
100
AcDbLine
 10
-399.0320217571
 20
179.0832165957
 30
0.0
 11
663.4679782429
 21
179.0832165957
 31
0.0
  0
LINE
  5
1C0C
330
208
100
AcDbEntity
  8
0
  6
Continuous
 62
     9
100
AcDbLine
 10
27.92374960889999
 20
180.0832165957
 30
0.0
 11
5.512206876999996
 21
180.0832165957
 31
0.0
  0
LINE
  5
1C0D
330
208
100
AcDbEntity
  8
RUNDUNGEN
  6
Continuous
 62
     7
100
AcDbLine
 10
23.648670291
 20
184.5832165957
 30
0.0
 11
9.787286194899998
 21
184.5832165957
 31
0.0
  0
ARC
  5
1C0E
330
208
100
AcDbEntity
  8
RUNDUNGEN
  6
Continuous
 62
     7
100
AcDbCircle
 10
9.787286194899998
 20
180.5832165957
 30
0.0
 40
4.0
100
AcDbArc
 50
90.0
 51
164.9999999999999
  0
SPLINE
  5
1C11
330
208
100
AcDbEntity
  8
0
  6
Continuous
 62
     7
100
AcDbSpline
210
0.0
220
0.0
230
1.0
 70
     8
 71
     3
 72
    11
 73
     7
 74
     0
 42
0.0000000001
 43
0.0000000001
 40
0.0
 40
0.0
 40
0.0
 40
0.0
 40
0.2378844124
 40
0.4739135173
 40
0.7257407726000002
 40
1.0
 40
1.0
 40
1.0
 40
1.0
 10
28.9826929309
 20
179.1278884144
 30
0.0
 10
28.86730826929999
 20
179.148813847
 30
0.0
 10
28.63956863510001
 20
179.2106669888999
 30
0.0
 10
28.32928841160001
 20
179.4003847654
 30
0.0
 10
28.0847165837
 20
179.6931418507
 30
0.0
 10
27.9755650653
 20
179.9313767289
 30
0.0
 10
27.9318998781
 20
180.0593292404
 30
0.0
  0
LINE
  5
1C12
330
208
100
AcDbEntity
  8
0
  6
Continuous
 62
     7
100
AcDbLine
 10
5.512206876999996
 20
180.0832165957
 30
0.0
 11
5.504056607800001
 21
180.0593292404
 31
0.0
  0
LINE
  5
1C13
330
208
100
AcDbEntity
  8
0
  6
Continuous
 62
     7
100
AcDbLine
 10
27.92374960889999
 20
180.0832165957
 30
0.0
 11
27.9318998781
 21
180.0593292404
 31
0.0
  0
LINE
  5
1C14
330
208
100
AcDbEntity
  8
0
  6
Continuous
 62
     7
100
AcDbLine
 10
-224.1865163984317
 20
181.6184927761
 30
0.0
 11
-224.5978924111317
 21
180.0832165957
 31
0.0
  0
LINE
  5
1C15
330
208
100
AcDbEntity
  8
0
  6
Continuous
 62
     7
100
AcDbLine
 10
-202.5977256919317
 20
181.6184927761
 30
0.0
 11
-202.1863496792317
 21
180.0832165957
 31
0.0
  0
LINE
  5
1C17
330
208
100
AcDbEntity
  8
0
  6
Continuous
 62
     9
100
AcDbLine
 10
-202.1863496792317
 20
180.0832165957
 30
0.0
 11
-224.5978924111317
 21
180.0832165957
 31
0.0
  0
LINE
  5
1C18
330
208
100
AcDbEntity
  8
RUNDUNGEN
  6
Continuous
 62
     7
100
AcDbLine
 10
-206.4614289971317
 20
184.5832165957
 30
0.0
 11
-220.3228130932317
 21
184.5832165957
 31
0.0
  0
ARC
  5
1C19
330
208
100
AcDbEntity
  8
RUNDUNGEN
  6
Continuous
 62
     7
100
AcDbCircle
 10
-220.3228130932317
 20
180.5832165957
 30
0.0
 40
4.0
100
AcDbArc
 50
90.0
 51
164.9999999999998
  0
ARC
  5
1C1A
330
208
100
AcDbEntity
  8
RUNDUNGEN
  6
Continuous
 62
     7
100
AcDbCircle
 10
-206.4614289971317
 20
180.5832165957
 30
0.0
 40
4.0
100
AcDbArc
 50
15.00000000000002
 51
90.0
  0
SPLINE
  5
1C1B
330
208
100
AcDbEntity
  8
0
  6
Continuous
 62
     7
100
AcDbSpline
210
0.0
220
0.0
230
1.0
 70
     8
 71
     3
 72
    11
 73
     7
 74
     0
 42
0.0000000001
 43
0.0000000001
 40
0.0
 40
0.0
 40
0.0
 40
0.0
 40
0.2742592274
 40
0.5260864827000003
 40
0.7621155876000003
 40
1.0
 40
1.0
 40
1.0
 40
1.0
 10
-224.6060426803318
 20
180.0593292404
 30
0.0
 10
-224.6497078675318
 20
179.9313767289
 30
0.0
 10
-224.7588593859318
 20
179.6931418507
 30
0.0
 10
-225.0034312138317
 20
179.4003847654
 30
0.0
 10
-225.3137114373317
 20
179.2106669888999
 30
0.0
 10
-225.5414510715317
 20
179.148813847
 30
0.0
 10
-225.6568357331317
 20
179.1278884144
 30
0.0
  0
SPLINE
  5
1C1C
330
208
100
AcDbEntity
  8
0
  6
Continuous
 62
     7
100
AcDbSpline
210
0.0
220
0.0
230
1.0
 70
     8
 71
     3
 72
    11
 73
     7
 74
     0
 42
0.0000000001
 43
0.0000000001
 40
0.0
 40
0.0
 40
0.0
 40
0.0
 40
0.2378844124
 40
0.4739135173
 40
0.7257407726000002
 40
1.0
 40
1.0
 40
1.0
 40
1.0
 10
-201.1274063572317
 20
179.1278884144
 30
0.0
 10
-201.2427910188317
 20
179.148813847
 30
0.0
 10
-201.4705306530317
 20
179.2106669888999
 30
0.0
 10
-201.7808108765317
 20
179.4003847654
 30
0.0
 10
-202.0253827044318
 20
179.6931418507
 30
0.0
 10
-202.1345342228317
 20
179.9313767289
 30
0.0
 10
-202.1781994100317
 20
180.0593292404
 30
0.0
  0
LINE
  5
1C1D
330
208
100
AcDbEntity
  8
0
  6
Continuous
 62
     7
100
AcDbLine
 10
-224.5978924111317
 20
180.0832165957
 30
0.0
 11
-224.6060426803318
 21
180.0593292404
 31
0.0
  0
LINE
  5
1C1E
330
208
100
AcDbEntity
  8
0
  6
Continuous
 62
     7
100
AcDbLine
 10
-202.1863496792317
 20
180.0832165957
 30
0.0
 11
-202.1781994100317
 21
180.0593292404
 31
0.0
  0
LINE
  5
1C1F
330
208
100
AcDbEntity
  8
0
  6
Continuous
 62
     7
100
AcDbLine
 10
-224.1865163984317
 20
181.6184927761
 30
0.0
 11
-224.5978924111317
 21
180.0832165957
 31
0.0
  0
LINE
  5
1C20
330
208
100
AcDbEntity
  8
0
  6
Continuous
 62
     7
100
AcDbLine
 10
-202.5977256919317
 20
181.6184927761
 30
0.0
 11
-202.1863496792317
 21
180.0832165957
 31
0.0
  0
LINE
  5
1C21
330
208
100
AcDbEntity
  8
0
  6
Continuous
 62
     7
100
AcDbLine
 10
-449.0320217570998
 20
179.0832165957
 30
0.0
 11
367.3578789547682
 21
179.0832165957
 31
0.0
  0
LINE
  5
1C22
330
208
100
AcDbEntity
  8
0
  6
Continuous
 62
     9
100
AcDbLine
 10
-202.1863496792317
 20
180.0832165957
 30
0.0
 11
-224.5978924111317
 21
180.0832165957
 31
0.0
  0
LINE
  5
1C23
330
208
100
AcDbEntity
  8
RUNDUNGEN
  6
Continuous
 62
     7
100
AcDbLine
 10
-206.4614289971317
 20
184.5832165957
 30
0.0
 11
-220.3228130932317
 21
184.5832165957
 31
0.0
  0
ARC
  5
1C24
330
208
100
AcDbEntity
  8
RUNDUNGEN
  6
Continuous
 62
     7
100
AcDbCircle
 10
-220.3228130932317
 20
180.5832165957
 30
0.0
 40
4.0
100
AcDbArc
 50
90.0
 51
164.9999999999998
  0
ARC
  5
1C25
330
208
100
AcDbEntity
  8
RUNDUNGEN
  6
Continuous
 62
     7
100
AcDbCircle
 10
-206.4614289971317
 20
180.5832165957
 30
0.0
 40
4.0
100
AcDbArc
 50
15.00000000000002
 51
90.0
  0
SPLINE
  5
1C26
330
208
100
AcDbEntity
  8
0
  6
Continuous
 62
     7
100
AcDbSpline
210
0.0
220
0.0
230
1.0
 70
     8
 71
     3
 72
    11
 73
     7
 74
     0
 42
0.0000000001
 43
0.0000000001
 40
0.0
 40
0.0
 40
0.0
 40
0.0
 40
0.2742592274
 40
0.5260864827000003
 40
0.7621155876000003
 40
1.0
 40
1.0
 40
1.0
 40
1.0
 10
-224.6060426803318
 20
180.0593292404
 30
0.0
 10
-224.6497078675318
 20
179.9313767289
 30
0.0
 10
-224.7588593859318
 20
179.6931418507
 30
0.0
 10
-225.0034312138317
 20
179.4003847654
 30
0.0
 10
-225.3137114373317
 20
179.2106669888999
 30
0.0
 10
-225.5414510715317
 20
179.148813847
 30
0.0
 10
-225.6568357331317
 20
179.1278884144
 30
0.0
  0
SPLINE
  5
1C27
330
208
100
AcDbEntity
  8
0
  6
Continuous
 62
     7
100
AcDbSpline
210
0.0
220
0.0
230
1.0
 70
     8
 71
     3
 72
    11
 73
     7
 74
     0
 42
0.0000000001
 43
0.0000000001
 40
0.0
 40
0.0
 40
0.0
 40
0.0
 40
0.2378844124
 40
0.4739135173
 40
0.7257407726000002
 40
1.0
 40
1.0
 40
1.0
 40
1.0
 10
-201.1274063572317
 20
179.1278884144
 30
0.0
 10
-201.2427910188317
 20
179.148813847
 30
0.0
 10
-201.4705306530317
 20
179.2106669888999
 30
0.0
 10
-201.7808108765317
 20
179.4003847654
 30
0.0
 10
-202.0253827044318
 20
179.6931418507
 30
0.0
 10
-202.1345342228317
 20
179.9313767289
 30
0.0
 10
-202.1781994100317
 20
180.0593292404
 30
0.0
  0
LINE
  5
1C28
330
208
100
AcDbEntity
  8
0
  6
Continuous
 62
     7
100
AcDbLine
 10
-224.5978924111317
 20
180.0832165957
 30
0.0
 11
-224.6060426803318
 21
180.0593292404
 31
0.0
  0
LINE
  5
1C29
330
208
100
AcDbEntity
  8
0
  6
Continuous
 62
     7
100
AcDbLine
 10
-202.1863496792317
 20
180.0832165957
 30
0.0
 11
-202.1781994100317
 21
180.0593292404
 31
0.0
  0
LINE
  5
1C2A
330
208
100
AcDbEntity
  8
0
  6
Continuous
 62
     7
100
AcDbLine
 10
-224.1865163984317
 20
181.6184927761
 30
0.0
 11
-224.5978924111317
 21
180.0832165957
 31
0.0
  0
LINE
  5
1C2B
330
208
100
AcDbEntity
  8
0
  6
Continuous
 62
     7
100
AcDbLine
 10
-202.5977256919317
 20
181.6184927761
 30
0.0
 11
-202.1863496792317
 21
180.0832165957
 31
0.0
  0
LINE
  5
1C2C
330
208
100
AcDbEntity
  8
0
  6
Continuous
 62
     7
100
AcDbLine
 10
-449.0320217570998
 20
179.0832165957
 30
0.0
 11
367.3578789547682
 21
179.0832165957
 31
0.0
  0
LINE
  5
1C2D
330
208
100
AcDbEntity
  8
0
  6
Continuous
 62
     9
100
AcDbLine
 10
-202.1863496792317
 20
180.0832165957
 30
0.0
 11
-224.5978924111317
 21
180.0832165957
 31
0.0
  0
LINE
  5
1C2E
330
208
100
AcDbEntity
  8
RUNDUNGEN
  6
Continuous
 62
     7
100
AcDbLine
 10
-206.4614289971317
 20
184.5832165957
 30
0.0
 11
-220.3228130932317
 21
184.5832165957
 31
0.0
  0
ARC
  5
1C2F
330
208
100
AcDbEntity
  8
RUNDUNGEN
  6
Continuous
 62
     7
100
AcDbCircle
 10
-220.3228130932317
 20
180.5832165957
 30
0.0
 40
4.0
100
AcDbArc
 50
90.0
 51
164.9999999999998
  0
ARC
  5
1C30
330
208
100
AcDbEntity
  8
RUNDUNGEN
  6
Continuous
 62
     7
100
AcDbCircle
 10
-206.4614289971317
 20
180.5832165957
 30
0.0
 40
4.0
100
AcDbArc
 50
15.00000000000002
 51
90.0
  0
SPLINE
  5
1C31
330
208
100
AcDbEntity
  8
0
  6
Continuous
 62
     7
100
AcDbSpline
210
0.0
220
0.0
230
1.0
 70
     8
 71
     3
 72
    11
 73
     7
 74
     0
 42
0.0000000001
 43
0.0000000001
 40
0.0
 40
0.0
 40
0.0
 40
0.0
 40
0.2742592274
 40
0.5260864827000003
 40
0.7621155876000003
 40
1.0
 40
1.0
 40
1.0
 40
1.0
 10
-224.6060426803318
 20
180.0593292404
 30
0.0
 10
-224.6497078675318
 20
179.9313767289
 30
0.0
 10
-224.7588593859318
 20
179.6931418507
 30
0.0
 10
-225.0034312138317
 20
179.4003847654
 30
0.0
 10
-225.3137114373317
 20
179.2106669888999
 30
0.0
 10
-225.5414510715317
 20
179.148813847
 30
0.0
 10
-225.6568357331317
 20
179.1278884144
 30
0.0
  0
SPLINE
  5
1C32
330
208
100
AcDbEntity
  8
0
  6
Continuous
 62
     7
100
AcDbSpline
210
0.0
220
0.0
230
1.0
 70
     8
 71
     3
 72
    11
 73
     7
 74
     0
 42
0.0000000001
 43
0.0000000001
 40
0.0
 40
0.0
 40
0.0
 40
0.0
 40
0.2378844124
 40
0.4739135173
 40
0.7257407726000002
 40
1.0
 40
1.0
 40
1.0
 40
1.0
 10
-201.1274063572317
 20
179.1278884144
 30
0.0
 10
-201.2427910188317
 20
179.148813847
 30
0.0
 10
-201.4705306530317
 20
179.2106669888999
 30
0.0
 10
-201.7808108765317
 20
179.4003847654
 30
0.0
 10
-202.0253827044318
 20
179.6931418507
 30
0.0
 10
-202.1345342228317
 20
179.9313767289
 30
0.0
 10
-202.1781994100317
 20
180.0593292404
 30
0.0
  0
LINE
  5
1C33
330
208
100
AcDbEntity
  8
0
  6
Continuous
 62
     7
100
AcDbLine
 10
-224.5978924111317
 20
180.0832165957
 30
0.0
 11
-224.6060426803318
 21
180.0593292404
 31
0.0
  0
LINE
  5
1C34
330
208
100
AcDbEntity
  8
0
  6
Continuous
 62
     7
100
AcDbLine
 10
-202.1863496792317
 20
180.0832165957
 30
0.0
 11
-202.1781994100317
 21
180.0593292404
 31
0.0
  0
LINE
  5
1C35
330
208
100
AcDbEntity
  8
0
  6
Continuous
 62
     7
100
AcDbLine
 10
5.9235828897
 20
181.6184927761
 30
0.0
 11
5.512206876999996
 21
180.0832165957
 31
0.0
  0
LINE
  5
1C36
330
208
100
AcDbEntity
  8
0
  6
Continuous
 62
     7
100
AcDbLine
 10
27.5123735962
 20
181.6184927761
 30
0.0
 11
27.92374960889999
 21
180.0832165957
 31
0.0
  0
LINE
  5
1C37
330
208
100
AcDbEntity
  8
0
  6
Continuous
 62
     7
100
AcDbLine
 10
-399.0320217571
 20
179.0832165957
 30
0.0
 11
713.4679782428999
 21
179.0832165957
 31
0.0
  0
LINE
  5
1C38
330
208
100
AcDbEntity
  8
0
  6
Continuous
 62
     9
100
AcDbLine
 10
27.92374960889999
 20
180.0832165957
 30
0.0
 11
5.512206876999996
 21
180.0832165957
 31
0.0
  0
LINE
  5
1C39
330
208
100
AcDbEntity
  8
RUNDUNGEN
  6
Continuous
 62
     7
100
AcDbLine
 10
23.648670291
 20
184.5832165957
 30
0.0
 11
9.787286194899998
 21
184.5832165957
 31
0.0
  0
ARC
  5
1C3A
330
208
100
AcDbEntity
  8
RUNDUNGEN
  6
Continuous
 62
     7
100
AcDbCircle
 10
9.787286194899998
 20
180.5832165957
 30
0.0
 40
4.0
100
AcDbArc
 50
90.0
 51
164.9999999999999
  0
SPLINE
  5
1C3D
330
208
100
AcDbEntity
  8
0
  6
Continuous
 62
     7
100
AcDbSpline
210
0.0
220
0.0
230
1.0
 70
     8
 71
     3
 72
    11
 73
     7
 74
     0
 42
0.0000000001
 43
0.0000000001
 40
0.0
 40
0.0
 40
0.0
 40
0.0
 40
0.2378844124
 40
0.4739135173
 40
0.7257407726000002
 40
1.0
 40
1.0
 40
1.0
 40
1.0
 10
28.9826929309
 20
179.1278884144
 30
0.0
 10
28.86730826929999
 20
179.148813847
 30
0.0
 10
28.63956863510001
 20
179.2106669888999
 30
0.0
 10
28.32928841160001
 20
179.4003847654
 30
0.0
 10
28.0847165837
 20
179.6931418507
 30
0.0
 10
27.9755650653
 20
179.9313767289
 30
0.0
 10
27.9318998781
 20
180.0593292404
 30
0.0
  0
LINE
  5
1C3E
330
208
100
AcDbEntity
  8
0
  6
Continuous
 62
     7
100
AcDbLine
 10
5.512206876999996
 20
180.0832165957
 30
0.0
 11
5.504056607800001
 21
180.0593292404
 31
0.0
  0
LINE
  5
1C3F
330
208
100
AcDbEntity
  8
0
  6
Continuous
 62
     7
100
AcDbLine
 10
27.92374960889999
 20
180.0832165957
 30
0.0
 11
27.9318998781
 21
180.0593292404
 31
0.0
  0
LINE
  5
1C42
330
208
100
AcDbEntity
  8
0
  6
Continuous
 62
     7
100
AcDbLine
 10
-449.0320217570998
 20
179.0832165957
 30
0.0
 11
479.6398050769716
 21
179.0832165957
 31
0.0
  0
LINE
  5
1C4D
330
208
100
AcDbEntity
  8
0
  6
Continuous
 62
     7
100
AcDbLine
 10
-449.0320217570998
 20
179.0832165957
 30
0.0
 11
479.6398050769716
 21
179.0832165957
 31
0.0
  0
LINE
  5
1F05
330
208
100
AcDbEntity
  8
0
  6
Continuous
 62
     7
100
AcDbLine
 10
5.491003021871006
 20
126.0832165957
 30
0.0
 11
5.902379034571009
 21
124.5479404153
 31
0.0
  0
LINE
  5
1F06
330
208
100
AcDbEntity
  8
0
  6
Continuous
 62
     7
100
AcDbLine
 10
27.49116974107101
 20
124.5479404153
 30
0.0
 11
27.902545753771
 21
126.0832165957
 31
0.0
  0
LINE
  5
1F07
330
208
100
AcDbEntity
  8
RUNDUNGEN
  6
Continuous
 62
     7
100
AcDbLine
 10
9.766082339771015
 20
121.5832165957
 30
0.0
 11
23.62746643587102
 21
121.5832165957
 31
0.0
  0
LINE
  5
1F08
330
208
100
AcDbEntity
  8
0
  6
Continuous
 62
     9
100
AcDbLine
 10
5.491003021871006
 20
126.0832165957
 30
0.0
 11
27.902545753771
 21
126.0832165957
 31
0.0
  0
ARC
  5
1F09
330
208
100
AcDbEntity
  8
RUNDUNGEN
  6
Continuous
 62
     7
100
AcDbCircle
 10
23.62746643587102
 20
125.5832165957
 30
0.0
 40
4.0
100
AcDbArc
 50
270.0
 51
344.9999999999998
  0
ARC
  5
1F0A
330
208
100
AcDbEntity
  8
RUNDUNGEN
  6
Continuous
 62
     7
100
AcDbCircle
 10
9.766082339771015
 20
125.5832165957
 30
0.0
 40
4.0
100
AcDbArc
 50
195.0
 51
270.0
  0
SPLINE
  5
1F0B
330
208
100
AcDbEntity
  8
0
  6
Continuous
 62
     7
100
AcDbSpline
210
0.0
220
0.0
230
1.0
 70
     8
 71
     3
 72
    11
 73
     7
 74
     0
 42
0.0000000001
 43
0.0000000001
 40
0.0
 40
0.0
 40
0.0
 40
0.0
 40
0.2378844124
 40
0.4739135173
 40
0.7257407726000002
 40
1.0
 40
1.0
 40
1.0
 40
1.0
 10
4.432059699871011
 20
127.038544777
 30
0.0
 10
4.547444361471021
 20
127.0176193445
 30
0.0
 10
4.775183995671013
 20
126.9557662026
 30
0.0
 10
5.085464219171005
 20
126.7660484261
 30
0.0
 10
5.330036047071011
 20
126.4732913407
 30
0.0
 10
5.439187565471002
 20
126.2350564625
 30
0.0
 10
5.482852752671013
 20
126.1071039511
 30
0.0
  0
SPLINE
  5
1F0C
330
208
100
AcDbEntity
  8
0
  6
Continuous
 62
     7
100
AcDbSpline
210
0.0
220
0.0
230
1.0
 70
     8
 71
     3
 72
    11
 73
     7
 74
     0
 42
0.0000000001
 43
0.0000000001
 40
0.0
 40
0.0
 40
0.0
 40
0.0
 40
0.2742592274
 40
0.5260864827000003
 40
0.7621155876000003
 40
1.0
 40
1.0
 40
1.0
 40
1.0
 10
27.91069602297102
 20
126.1071039511
 30
0.0
 10
27.95436121017102
 20
126.2350564625
 30
0.0
 10
28.06351272857101
 20
126.4732913407
 30
0.0
 10
28.30808455647101
 20
126.7660484261
 30
0.0
 10
28.61836477997103
 20
126.9557662026
 30
0.0
 10
28.846104414171
 20
127.0176193445
 30
0.0
 10
28.96148907577101
 20
127.038544777
 30
0.0
  0
LINE
  5
1F0D
330
208
100
AcDbEntity
  8
0
  6
Continuous
 62
     7
100
AcDbLine
 10
27.902545753771
 20
126.0832165957
 30
0.0
 11
27.91069602297102
 21
126.1071039511
 31
0.0
  0
LINE
  5
1F0E
330
208
100
AcDbEntity
  8
0
  6
Continuous
 62
     7
100
AcDbLine
 10
5.491003021871006
 20
126.0832165957
 30
0.0
 11
5.482852752671013
 21
126.1071039511
 31
0.0
  0
LINE
  5
1F0F
330
208
100
AcDbEntity
  8
RUNDUNGEN
  6
Continuous
 62
     7
100
AcDbLine
 10
240.4844399542526
 20
121.5832165957
 30
0.0
 11
254.3458240503526
 21
121.5832165957
 31
0.0
  0
LINE
  5
1F10
330
208
100
AcDbEntity
  8
0
  6
Continuous
 62
     9
100
AcDbLine
 10
236.2093606363526
 20
126.0832165957
 30
0.0
 11
258.6209033682526
 21
126.0832165957
 31
0.0
  0
LINE
  5
1F11
330
208
100
AcDbEntity
  8
0
  6
Continuous
 62
     7
100
AcDbLine
 10
236.6207366490526
 20
124.5479404153
 30
0.0
 11
236.2093606363526
 21
126.0832165957
 31
0.0
  0
LINE
  5
1F12
330
208
100
AcDbEntity
  8
0
  6
Continuous
 62
     7
100
AcDbLine
 10
258.6209033682526
 20
126.0832165957
 30
0.0
 11
258.2095273555526
 21
124.5479404153
 31
0.0
  0
ARC
  5
1F13
330
208
100
AcDbEntity
  8
RUNDUNGEN
  6
Continuous
 62
     7
100
AcDbCircle
 10
254.3458240503526
 20
125.5832165957
 30
0.0
 40
4.0
100
AcDbArc
 50
270.0
 51
344.9999999999998
  0
ARC
  5
1F14
330
208
100
AcDbEntity
  8
RUNDUNGEN
  6
Continuous
 62
     7
100
AcDbCircle
 10
240.4844399542526
 20
125.5832165957
 30
0.0
 40
4.0
100
AcDbArc
 50
195.0
 51
270.0
  0
SPLINE
  5
1F15
330
208
100
AcDbEntity
  8
0
  6
Continuous
 62
     7
100
AcDbSpline
210
0.0
220
0.0
230
1.0
 70
     8
 71
     3
 72
    11
 73
     7
 74
     0
 42
0.0000000001
 43
0.0000000001
 40
0.0
 40
0.0
 40
0.0
 40
0.0
 40
0.2378844124
 40
0.4739135173
 40
0.7257407726000002
 40
1.0
 40
1.0
 40
1.0
 40
1.0
 10
235.1504173143526
 20
127.038544777
 30
0.0
 10
235.2658019759525
 20
127.0176193445
 30
0.0
 10
235.4935416101528
 20
126.9557662026
 30
0.0
 10
235.8038218336526
 20
126.7660484261
 30
0.0
 10
236.0483936615528
 20
126.4732913407
 30
0.0
 10
236.1575451799526
 20
126.2350564625
 30
0.0
 10
236.2012103671526
 20
126.1071039511
 30
0.0
  0
SPLINE
  5
1F16
330
208
100
AcDbEntity
  8
0
  6
Continuous
 62
     7
100
AcDbSpline
210
0.0
220
0.0
230
1.0
 70
     8
 71
     3
 72
    11
 73
     7
 74
     0
 42
0.0000000001
 43
0.0000000001
 40
0.0
 40
0.0
 40
0.0
 40
0.0
 40
0.2742592274
 40
0.5260864827000003
 40
0.7621155876000003
 40
1.0
 40
1.0
 40
1.0
 40
1.0
 10
258.6290536374526
 20
126.1071039511
 30
0.0
 10
258.6727188246527
 20
126.2350564625
 30
0.0
 10
258.7818703430526
 20
126.4732913407
 30
0.0
 10
259.0264421709526
 20
126.7660484261
 30
0.0
 10
259.3367223944526
 20
126.9557662026
 30
0.0
 10
259.5644620286527
 20
127.0176193445
 30
0.0
 10
259.6798466902526
 20
127.038544777
 30
0.0
  0
LINE
  5
1F17
330
208
100
AcDbEntity
  8
0
  6
Continuous
 62
     7
100
AcDbLine
 10
258.6290536374526
 20
126.1071039511
 30
0.0
 11
258.6209033682526
 21
126.0832165957
 31
0.0
  0
LINE
  5
1F18
330
208
100
AcDbEntity
  8
0
  6
Continuous
 62
     7
100
AcDbLine
 10
236.2093606363526
 20
126.0832165957
 30
0.0
 11
236.2012103671526
 21
126.1071039511
 31
0.0
  0
LINE
  5
1F73
330
208
100
AcDbEntity
  8
0
  6
Continuous
 62
     9
100
AcDbLine
 10
34.12395658040336
 20
244.0049251557
 30
0.0
 11
34.12395658040336
 21
244.0049251557
 31
0.0
  0
LINE
  5
1F74
330
208
100
AcDbEntity
  8
0
  6
Continuous
 62
     7
100
AcDbLine
 10
488.8620606678511
 20
239.2549330823
 30
0.0
 11
488.860702289651
 21
239.2549251557
 31
0.0
  0
LINE
  5
1F75
330
208
100
AcDbEntity
  8
0
  6
Continuous
 62
     0
100
AcDbLine
 10
488.860702289651
 20
238.2549251557
 30
0.0
 11
488.449326276951
 21
238.2549251557
 31
0.0
  0
LINE
  5
1F76
330
208
100
AcDbEntity
  8
0
  6
Continuous
 62
     0
100
AcDbLine
 10
466.8605355704509
 20
238.2549251557
 30
0.0
 11
466.4491595577509
 21
238.2549251557
 31
0.0
  0
LINE
  5
1F77
330
208
100
AcDbEntity
  8
RUNDUNGEN
  6
Continuous
 62
     0
100
AcDbLine
 10
466.8605355704509
 20
238.2549251557
 30
0.0
 11
488.449326276951
 21
238.2549251557
 31
0.0
  0
LINE
  5
1F78
330
208
100
AcDbEntity
  8
0
  6
Continuous
 62
     7
100
AcDbLine
 10
488.860702289651
 20
239.2549251557
 30
0.0
 11
488.449326276951
 21
239.2549251557
 31
0.0
  0
LINE
  5
1F79
330
208
100
AcDbEntity
  8
0
  6
Continuous
 62
     7
100
AcDbLine
 10
466.8605355704509
 20
239.2549251557
 30
0.0
 11
466.4491595577509
 21
239.2549251557
 31
0.0
  0
LINE
  5
1F7A
330
208
100
AcDbEntity
  8
RUNDUNGEN
  6
Continuous
 62
     7
100
AcDbLine
 10
466.8605355704509
 20
239.2549251557
 30
0.0
 11
488.449326276951
 21
239.2549251557
 31
0.0
  0
LINE
  5
1F7B
330
208
100
AcDbEntity
  8
0
  6
Continuous
 62
     9
100
AcDbLine
 10
464.901268733151
 20
240.2549251557
 30
0.0
 11
490.408593114251
 21
240.2549251557
 31
0.0
  0
LINE
  5
1F80
330
208
100
AcDbEntity
  8
RUNDUNGEN
  6
Continuous
 62
     7
100
AcDbLine
 10
148.8196903190538
 20
244.7549251557
 30
0.0
 11
227.5796461661555
 21
244.7549251556999
 31
0.0
  0
LINE
  5
1F81
330
208
100
AcDbEntity
  8
RUNDUNGEN
  6
Continuous
 62
     7
100
AcDbLine
 10
497.5456409122511
 20
244.7549251557
 30
0.0
 11
687.8708802415617
 21
244.7549251557
 31
0.0
  0
LINE
  5
1F82
330
208
100
AcDbEntity
  8
0
  6
Continuous
 62
     7
100
AcDbLine
 10
466.4491595577509
 20
239.2549251557
 30
0.0
 11
466.4478011795512
 21
239.2549330823
 31
0.0
  0
LINE
  5
1F83
330
208
100
AcDbEntity
  8
0
  6
Continuous
 62
     7
100
AcDbLine
 10
464.901268733151
 20
240.2549251557
 30
0.0
 11
460.226866836451
 21
243.9069681701
 31
0.0
  0
LINE
  5
1F84
330
208
100
AcDbEntity
  8
0
  6
Continuous
 62
     9
100
AcDbLine
 10
465.390216235751
 20
239.9593780934
 30
0.0
 11
465.390216235751
 21
239.663831031
 31
0.0
  0
LINE
  5
1F85
330
208
100
AcDbEntity
  8
0
  6
Continuous
 62
     7
100
AcDbLine
 10
490.408593114251
 20
240.2549251557
 30
0.0
 11
495.0829950109511
 21
243.9069681701
 31
0.0
  0
LINE
  5
1F86
330
208
100
AcDbEntity
  8
0
  6
Continuous
 62
     9
100
AcDbLine
 10
466.4410092885511
 20
239.2552104993
 30
0.0
 11
466.4410092885511
 21
238.2554958428
 31
0.0
  0
LINE
  5
1F87
330
208
100
AcDbEntity
  8
0
  6
Continuous
 62
     7
100
AcDbLine
 10
466.4491595577509
 20
238.2549251557
 30
0.0
 11
466.4491595577509
 21
239.2549251557
 31
0.0
  0
LINE
  5
1F88
330
208
100
AcDbEntity
  8
RUNDUNGEN
  6
Continuous
 62
     9
100
AcDbLine
 10
466.8605355704509
 20
239.2549251557
 30
0.0
 11
466.8605355704509
 21
238.2549251557
 31
0.0
  0
LINE
  5
1F89
330
208
100
AcDbEntity
  8
RUNDUNGEN
  6
Continuous
 62
     9
100
AcDbLine
 10
470.7242388756511
 20
239.2549251557
 30
0.0
 11
470.7242388756511
 21
238.2549251557
 31
0.0
  0
LINE
  5
1F8A
330
208
100
AcDbEntity
  8
RUNDUNGEN
  6
Continuous
 62
     9
100
AcDbLine
 10
484.5856229717511
 20
238.2549251557
 30
0.0
 11
484.5856229717511
 21
239.2549251557
 31
0.0
  0
LINE
  5
1F8B
330
208
100
AcDbEntity
  8
RUNDUNGEN
  6
Continuous
 62
     9
100
AcDbLine
 10
488.449326276951
 20
238.2549251557
 30
0.0
 11
488.449326276951
 21
239.2549251557
 31
0.0
  0
LINE
  5
1F8C
330
208
100
AcDbEntity
  8
0
  6
Continuous
 62
     7
100
AcDbLine
 10
488.860702289651
 20
239.2549251557
 30
0.0
 11
488.860702289651
 21
238.2549251557
 31
0.0
  0
LINE
  5
1F8D
330
208
100
AcDbEntity
  8
0
  6
Continuous
 62
     9
100
AcDbLine
 10
488.868852558851
 20
239.2552104993
 30
0.0
 11
488.868852558851
 21
238.2554958428
 31
0.0
  0
LINE
  5
1F8E
330
208
100
AcDbEntity
  8
0
  6
Continuous
 62
     9
100
AcDbLine
 10
489.9196456116511
 20
239.9593780934
 30
0.0
 11
489.9196456116511
 21
239.663831031
 31
0.0
  0
ARC
  5
1F8F
330
208
100
AcDbEntity
  8
RUNDUNGEN
  6
Continuous
 62
     7
100
AcDbCircle
 10
497.5456409122511
 20
240.7549251557
 30
0.0
 40
4.0
100
AcDbArc
 50
90.0
 51
127.9999999999997
  0
ARC
  5
1F90
330
208
100
AcDbEntity
  8
RUNDUNGEN
  6
Continuous
 62
     7
100
AcDbCircle
 10
457.7642209351511
 20
240.7549251557
 30
0.0
 40
4.0
100
AcDbArc
 50
52.66349913093118
 51
90.0
  0
ARC
  5
1F91
330
208
100
AcDbEntity
  8
0
  6
Continuous
 62
     7
100
AcDbCircle
 10
466.4491688213511
 20
239.3716969258
 30
0.0
 40
0.1167718525
100
AcDbArc
 50
265.9931433753996
 51
269.3289316659995
  0
ARC
  5
1F92
330
208
100
AcDbEntity
  8
0
  6
Continuous
 62
     7
100
AcDbCircle
 10
488.8606930260507
 20
239.3716969259
 30
0.0
 40
0.1167718526
100
AcDbArc
 50
270.6710683352008
 51
274.0068566242005
  0
ARC
  5
1F93
330
208
100
AcDbEntity
  8
0
  6
Continuous
 62
     3
100
AcDbCircle
 10
466.4491846043509
 20
238.3137672389
 30
0.0
 40
0.0588420885
100
AcDbArc
 50
262.0136873904993
 51
269.9756116520001
  0
ARC
  5
1F94
330
208
100
AcDbEntity
  8
0
  6
Continuous
 62
     3
100
AcDbCircle
 10
488.860677243051
 20
238.3137672389
 30
0.0
 40
0.0588420885
100
AcDbArc
 50
270.0243883479999
 51
277.9863126095007
  0
SPLINE
  5
1F95
330
208
100
AcDbEntity
  8
0
  6
Continuous
 62
     7
100
AcDbSpline
210
0.0
220
0.0
230
1.0
 70
     8
 71
     3
 72
    13
 73
     9
 74
     0
 42
0.0000000001
 43
0.0000000001
 40
0.0
 40
0.0
 40
0.0
 40
0.0
 40
0.3175299022
 40
0.6102859773000004
 40
0.7385250873999999
 40
0.8486884155
 40
0.936445018
 40
1.0
 40
1.0
 40
1.0
 40
1.0
 10
465.390216235751
 20
239.9593780934
 30
0.0
 10
465.5061610041512
 20
239.8914102542
 30
0.0
 10
465.722205979651
 20
239.7489934392
 30
0.0
 10
465.969905168751
 20
239.5581519768
 30
0.0
 10
466.1470290152512
 20
239.4198385499
 30
0.0
 10
466.2585904086511
 20
239.3381084261
 30
0.0
 10
466.3525706721511
 20
239.2802250154
 30
0.0
 10
466.4141746495511
 20
239.2570893888
 30
0.0
 10
466.4410092885511
 20
239.2552104993
 30
0.0
  0
SPLINE
  5
1F96
330
208
100
AcDbEntity
  8
0
  6
Continuous
 62
     7
100
AcDbSpline
210
0.0
220
0.0
230
1.0
 70
     8
 71
     3
 72
    13
 73
     9
 74
     0
 42
0.0000000001
 43
0.0000000001
 40
0.0
 40
0.0
 40
0.0
 40
0.0
 40
0.063554982
 40
0.1513115845
 40
0.2614749126
 40
0.3897140227
 40
0.6824700978
 40
1.0
 40
1.0
 40
1.0
 40
1.0
 10
488.868852558851
 20
239.2552104993
 30
0.0
 10
488.8956871978511
 20
239.2570893888
 30
0.0
 10
488.9572911752511
 20
239.2802250154
 30
0.0
 10
489.0512714387511
 20
239.3381084261
 30
0.0
 10
489.1628328321512
 20
239.4198385499
 30
0.0
 10
489.3399566786511
 20
239.5581519768
 30
0.0
 10
489.5876558677511
 20
239.7489934392
 30
0.0
 10
489.8037008431511
 20
239.8914102542
 30
0.0
 10
489.9196456116511
 20
239.9593780934
 30
0.0
  0
SPLINE
  5
1F97
330
208
100
AcDbEntity
  8
0
  6
Continuous
 62
     7
100
AcDbSpline
210
0.0
220
0.0
230
1.0
 70
     8
 71
     3
 72
     9
 73
     5
 74
     0
 42
0.0000000001
 43
0.0000000001
 40
0.0
 40
0.0
 40
0.0
 40
0.0
 40
0.2509524747
 40
1.0
 40
1.0
 40
1.0
 40
1.0
 10
490.408593114251
 20
240.2549251557
 30
0.0
 10
490.3678581701511
 20
240.2299293672
 30
0.0
 10
490.2055360795511
 20
240.1303309618
 30
0.0
 10
490.042711093951
 20
240.0315201573
 30
0.0
 10
489.9196456116511
 20
239.9593780934
 30
0.0
  0
SPLINE
  5
1F98
330
208
100
AcDbEntity
  8
0
  6
Continuous
 62
     7
100
AcDbSpline
210
0.0
220
0.0
230
1.0
 70
     8
 71
     3
 72
     9
 73
     5
 74
     0
 42
0.0000000001
 43
0.0000000001
 40
0.0
 40
0.0
 40
0.0
 40
0.0
 40
0.2509524747
 40
1.0
 40
1.0
 40
1.0
 40
1.0
 10
464.901268733151
 20
240.2549251557
 30
0.0
 10
464.9420036772509
 20
240.2299293672
 30
0.0
 10
465.1043257678511
 20
240.1303309618
 30
0.0
 10
465.2671507534511
 20
240.0315201573
 30
0.0
 10
465.390216235751
 20
239.9593780934
 30
0.0
  0
SPLINE
  5
1F99
330
208
100
AcDbEntity
  8
0
  6
Continuous
 62
     0
100
AcDbSpline
210
0.0
220
0.0
230
1.0
 70
     8
 71
     3
 72
    14
 73
    10
 74
     0
 42
0.0000000001
 43
0.0000000001
 40
0.0
 40
0.0
 40
0.0
 40
0.0
 40
0.0425138332
 40
0.1117198548
 40
0.2087800397
 40
0.3314542543
 40
0.4762322343000001
 40
0.6388799203
 40
1.0
 40
1.0
 40
1.0
 40
1.0
 10
466.4410092885511
 20
238.2554958428
 30
0.0
 10
466.4162239354511
 20
238.258966651
 30
0.0
 10
466.3594603108511
 20
238.3002142166
 30
0.0
 10
466.2807518904511
 20
238.3924840577
 30
0.0
 10
466.1818925494511
 20
238.5320502855
 30
0.0
 10
466.0653719445511
 20
238.7118692499
 30
0.0
 10
465.9288170770511
 20
238.9252254364
 30
0.0
 10
465.7119469993509
 20
239.2535169613
 30
0.0
 10
465.528172564951
 20
239.5020886132
 30
0.0
 10
465.390216235751
 20
239.663831031
 30
0.0
  0
SPLINE
  5
1F9A
330
208
100
AcDbEntity
  8
0
  6
Continuous
 62
     0
100
AcDbSpline
210
0.0
220
0.0
230
1.0
 70
     8
 71
     3
 72
    14
 73
    10
 74
     0
 42
0.0000000001
 43
0.0000000001
 40
0.0
 40
0.0
 40
0.0
 40
0.0
 40
0.3611200797
 40
0.5237677657000001
 40
0.6685457457
 40
0.7912199603
 40
0.8882801451999997
 40
0.9574861668
 40
1.0
 40
1.0
 40
1.0
 40
1.0
 10
489.9196456116511
 20
239.663831031
 30
0.0
 10
489.7816892823511
 20
239.5020886132
 30
0.0
 10
489.5979148480511
 20
239.2535169613
 30
0.0
 10
489.3810447703508
 20
238.9252254364
 30
0.0
 10
489.244489902851
 20
238.7118692499
 30
0.0
 10
489.1279692979511
 20
238.5320502855
 30
0.0
 10
489.0291099569511
 20
238.3924840577
 30
0.0
 10
488.9504015365511
 20
238.3002142166
 30
0.0
 10
488.8936379119511
 20
238.258966651
 30
0.0
 10
488.868852558851
 20
238.2554958428
 30
0.0
  0
SPLINE
  5
1F9B
330
208
100
AcDbEntity
  8
0
  6
Continuous
 62
     0
100
AcDbSpline
210
0.0
220
0.0
230
1.0
 70
     8
 71
     3
 72
     9
 73
     5
 74
     0
 42
0.0000000001
 43
0.0000000001
 40
0.0
 40
0.0
 40
0.0
 40
0.0
 40
0.2521100781999999
 40
1.0
 40
1.0
 40
1.0
 40
1.0
 10
464.901268733151
 20
240.2549251557
 30
0.0
 10
464.9419908875509
 20
240.2049492748
 30
0.0
 10
465.1035224991511
 20
240.006728716
 30
0.0
 10
465.2661118094512
 20
239.809333235
 30
0.0
 10
465.390216235751
 20
239.663831031
 30
0.0
  0
SPLINE
  5
1F9C
330
208
100
AcDbEntity
  8
0
  6
Continuous
 62
     0
100
AcDbSpline
210
0.0
220
0.0
230
1.0
 70
     8
 71
     3
 72
     9
 73
     5
 74
     0
 42
0.0000000001
 43
0.0000000001
 40
0.0
 40
0.0
 40
0.0
 40
0.0
 40
0.2521100781999999
 40
1.0
 40
1.0
 40
1.0
 40
1.0
 10
490.408593114251
 20
240.2549251557
 30
0.0
 10
490.3678709598511
 20
240.2049492748
 30
0.0
 10
490.2063393482511
 20
240.006728716
 30
0.0
 10
490.0437500379513
 20
239.809333235
 30
0.0
 10
489.9196456116511
 20
239.663831031
 30
0.0
  0
LINE
  5
1F9F
330
208
100
AcDbEntity
  8
0
  6
Continuous
 62
     9
100
AcDbLine
 10
495.2137961489788
 20
244.0049251557
 30
0.0
 11
495.2137961489788
 21
244.0049251557
 31
0.0
  0
LINE
  5
1FA0
330
208
100
AcDbEntity
  8
0
  6
Continuous
 62
     9
100
AcDbLine
 10
495.0829950109285
 20
243.9069681701113
 30
0.0
 11
690.3335261428471
 21
243.9069681701113
 31
0.0
  0
LINE
  5
1FA1
330
208
100
AcDbEntity
  8
0
  6
Continuous
 62
     0
100
AcDbLine
 10
462.544855351757
 20
242.0959570606874
 30
0.0
 11
262.5804317266493
 21
242.0959570606874
 31
0.0
  0
LINE
  5
1FA2
330
208
100
AcDbEntity
  8
RUNDUNGEN
  6
Continuous
 62
     7
100
AcDbLine
 10
570.1323885244587
 20
244.7549251557
 30
0.0
 11
687.8708802415617
 21
244.7549251557
 31
0.0
  0
LINE
  5
1FA4
330
208
100
AcDbEntity
  8
0
  6
Continuous
 62
     0
100
AcDbLine
 10
692.6515146581676
 20
242.0959570606874
 30
0.0
 11
492.7650064956449
 21
242.0959570606874
 31
0.0
  0
LINE
  5
1FAB
330
208
100
AcDbEntity
  8
RUNDUNGEN
  6
Continuous
 62
     7
100
AcDbLine
 10
338.0655526064544
 20
244.7549251557
 30
0.0
 11
457.7642209351511
 21
244.7549251557
 31
0.0
  0
LINE
  5
1FB5
330
208
100
AcDbEntity
  8
RUNDUNGEN
  6
Continuous
 62
     7
100
AcDbLine
 10
270.8272682544
 20
244.7549251557
 30
0.0
 11
310.6086882315
 21
244.7549251557
 31
0.0
  0
LINE
  5
1FE0
330
208
100
AcDbEntity
  8
0
  6
Continuous
 62
     9
100
AcDbLine
 10
-225.7252894191125
 20
239.9593780934
 30
0.0
 11
-225.7252894191125
 21
239.663831031
 31
0.0
  0
LINE
  5
1FE1
330
208
100
AcDbEntity
  8
0
  6
Continuous
 62
     9
100
AcDbLine
 10
-224.6744963663125
 20
239.2552104993
 30
0.0
 11
-224.6744963663125
 21
238.2554958428
 31
0.0
  0
LINE
  5
1FE2
330
208
100
AcDbEntity
  8
0
  6
Continuous
 62
     7
100
AcDbLine
 10
-224.6663460971126
 20
239.2549251557
 30
0.0
 11
-224.6663460971126
 21
238.2549251557
 31
0.0
  0
LINE
  5
1FE3
330
208
100
AcDbEntity
  8
RUNDUNGEN
  6
Continuous
 62
     9
100
AcDbLine
 10
-224.2549700844125
 20
239.2549251557
 30
0.0
 11
-224.2549700844125
 21
238.2549251557
 31
0.0
  0
LINE
  5
1FE4
330
208
100
AcDbEntity
  8
RUNDUNGEN
  6
Continuous
 62
     9
100
AcDbLine
 10
-220.3912667792126
 20
239.2549251557
 30
0.0
 11
-220.3912667792126
 21
238.2549251557
 31
0.0
  0
LINE
  5
1FE5
330
208
100
AcDbEntity
  8
RUNDUNGEN
  6
Continuous
 62
     9
100
AcDbLine
 10
-206.5298826831125
 20
238.2549251557
 30
0.0
 11
-206.5298826831125
 21
239.2549251557
 31
0.0
  0
LINE
  5
1FE6
330
208
100
AcDbEntity
  8
RUNDUNGEN
  6
Continuous
 62
     9
100
AcDbLine
 10
-202.6661793779125
 20
238.2549251557
 30
0.0
 11
-202.6661793779125
 21
239.2549251557
 31
0.0
  0
LINE
  5
1FE7
330
208
100
AcDbEntity
  8
0
  6
Continuous
 62
     7
100
AcDbLine
 10
-202.2548033652126
 20
239.2549251557
 30
0.0
 11
-202.2548033652126
 21
238.2549251557
 31
0.0
  0
LINE
  5
1FE8
330
208
100
AcDbEntity
  8
0
  6
Continuous
 62
     9
100
AcDbLine
 10
-202.2466530960125
 20
239.2552104993
 30
0.0
 11
-202.2466530960125
 21
238.2554958428
 31
0.0
  0
LINE
  5
1FE9
330
208
100
AcDbEntity
  8
0
  6
Continuous
 62
     9
100
AcDbLine
 10
-201.1958600432126
 20
239.9593780934
 30
0.0
 11
-201.1958600432126
 21
239.663831031
 31
0.0
  0
LINE
  5
1FEA
330
208
100
AcDbEntity
  8
0
  6
Continuous
 62
     7
100
AcDbLine
 10
-226.2142369217126
 20
240.2549251557
 30
0.0
 11
-230.9225456171156
 21
243.9331678102996
 31
0.0
  0
LINE
  5
1FEB
330
208
100
AcDbEntity
  8
0
  6
Continuous
 62
     7
100
AcDbLine
 10
-200.7069125406126
 20
240.2549251557
 30
0.0
 11
-196.0325106439125
 21
243.9069681701
 31
0.0
  0
LINE
  5
1FEC
330
208
100
AcDbEntity
  8
0
  6
Continuous
 62
     7
100
AcDbLine
 10
-202.2548033652126
 20
239.2549251557
 30
0.0
 11
-202.2534449870124
 21
239.2549330823
 31
0.0
  0
LINE
  5
1FED
330
208
100
AcDbEntity
  8
0
  6
Continuous
 62
     0
100
AcDbLine
 10
-224.6663460971126
 20
238.2549251557
 30
0.0
 11
-224.2549700844125
 21
238.2549251557
 31
0.0
  0
LINE
  5
1FEE
330
208
100
AcDbEntity
  8
RUNDUNGEN
  6
Continuous
 62
     0
100
AcDbLine
 10
-224.2549700844125
 20
238.2549251557
 30
0.0
 11
-202.6661793779125
 21
238.2549251557
 31
0.0
  0
LINE
  5
1FEF
330
208
100
AcDbEntity
  8
0
  6
Continuous
 62
     0
100
AcDbLine
 10
-202.6661793779125
 20
238.2549251557
 30
0.0
 11
-202.2548033652126
 21
238.2549251557
 31
0.0
  0
LINE
  5
1FF0
330
208
100
AcDbEntity
  8
0
  6
Continuous
 62
     7
100
AcDbLine
 10
-224.6663460971126
 20
239.2549251557
 30
0.0
 11
-224.2549700844125
 21
239.2549251557
 31
0.0
  0
LINE
  5
1FF1
330
208
100
AcDbEntity
  8
RUNDUNGEN
  6
Continuous
 62
     7
100
AcDbLine
 10
-224.2549700844125
 20
239.2549251557
 30
0.0
 11
-202.6661793779125
 21
239.2549251557
 31
0.0
  0
LINE
  5
1FF2
330
208
100
AcDbEntity
  8
0
  6
Continuous
 62
     7
100
AcDbLine
 10
-202.6661793779125
 20
239.2549251557
 30
0.0
 11
-202.2548033652126
 21
239.2549251557
 31
0.0
  0
LINE
  5
1FF3
330
208
100
AcDbEntity
  8
0
  6
Continuous
 62
     9
100
AcDbLine
 10
-226.2142369217126
 20
240.2549251557
 30
0.0
 11
-200.7069125406126
 21
240.2549251557
 31
0.0
  0
LINE
  5
1FF4
330
208
100
AcDbEntity
  8
0
  6
Continuous
 62
     0
100
AcDbLine
 10
232.3602805827617
 20
242.0959570606874
 30
0.0
 11
31.67516692706943
 21
242.0959570606874
 31
0.0
  0
LINE
  5
1FF5
330
208
100
AcDbEntity
  8
0
  6
Continuous
 62
     0
100
AcDbLine
 10
-228.5659359769165
 20
242.0921283501462
 30
0.0
 11
-428.166916943579
 21
242.0959570606874
 31
0.0
  0
LINE
  5
1FF7
330
208
100
AcDbEntity
  8
0
  6
Continuous
 62
     9
100
AcDbLine
 10
-195.9017095058847
 20
244.0049251557
 30
0.0
 11
-195.9017095058847
 21
244.0049251557
 31
0.0
  0
LINE
  5
1FF8
330
208
100
AcDbEntity
  8
0
  6
Continuous
 62
     9
100
AcDbLine
 10
-425.8489284282581
 20
243.9069681701114
 30
0.0
 11
-230.8890089515471
 21
243.906968170096
 31
0.0
  0
LINE
  5
1FFA
330
208
100
AcDbEntity
  8
RUNDUNGEN
  6
Continuous
 62
     7
100
AcDbLine
 10
-193.5698647426126
 20
244.7549251557
 30
0.0
 11
-3.325618633424483
 21
244.7549251557
 31
0.0
  0
LINE
  5
1FFB
330
208
100
AcDbEntity
  8
0
  6
Continuous
 62
     7
100
AcDbLine
 10
-224.6663460971126
 20
239.2549251557
 30
0.0
 11
-224.6677044753126
 21
239.2549330823
 31
0.0
  0
ARC
  5
1FFC
330
208
100
AcDbEntity
  8
RUNDUNGEN
  6
Continuous
 62
     7
100
AcDbCircle
 10
-193.569864742644
 20
240.7549251558989
 30
0.0
 40
3.999999999801102
100
AcDbArc
 50
89.99999999955013
 51
128.0000000016068
  0
ARC
  5
1FFD
330
208
100
AcDbEntity
  8
RUNDUNGEN
  6
Continuous
 62
     7
100
AcDbCircle
 10
-233.3512847197127
 20
240.7549251556999
 30
0.0
 40
4.000000000000156
100
AcDbArc
 50
52.61377889903658
 51
89.9999999999992
  0
ARC
  5
1FFE
330
208
100
AcDbEntity
  8
0
  6
Continuous
 62
     7
100
AcDbCircle
 10
-202.2548126288125
 20
239.3716969258
 30
0.0
 40
0.1167718525
100
AcDbArc
 50
270.6710683339988
 51
274.0068566245989
  0
ARC
  5
1FFF
330
208
100
AcDbEntity
  8
0
  6
Continuous
 62
     7
100
AcDbCircle
 10
-224.6663368335125
 20
239.3716969258
 30
0.0
 40
0.1167718525
100
AcDbArc
 50
265.9931433754011
 51
269.3289316660011
  0
ARC
  5
2000
330
208
100
AcDbEntity
  8
0
  6
Continuous
 62
     3
100
AcDbCircle
 10
-202.2548284118126
 20
238.3137672389
 30
0.0
 40
0.0588420885
100
AcDbArc
 50
270.0243883479999
 51
277.9863126093988
  0
ARC
  5
2001
330
208
100
AcDbEntity
  8
0
  6
Continuous
 62
     3
100
AcDbCircle
 10
-224.6663210505126
 20
238.3137672389
 30
0.0
 40
0.0588420885
100
AcDbArc
 50
262.0136873905996
 51
269.9756116519984
  0
SPLINE
  5
2002
330
208
100
AcDbEntity
  8
0
  6
Continuous
 62
     7
100
AcDbSpline
210
0.0
220
0.0
230
1.0
 70
     8
 71
     3
 72
    13
 73
     9
 74
     0
 42
0.0000000001
 43
0.0000000001
 40
0.0
 40
0.0
 40
0.0
 40
0.0
 40
0.3175299022
 40
0.6102859773000004
 40
0.7385250873999999
 40
0.8486884155
 40
0.936445018
 40
1.0
 40
1.0
 40
1.0
 40
1.0
 10
-225.7252894191125
 20
239.9593780934
 30
0.0
 10
-225.6093446507125
 20
239.8914102542
 30
0.0
 10
-225.3932996752126
 20
239.7489934392
 30
0.0
 10
-225.1456004861125
 20
239.5581519768
 30
0.0
 10
-224.9684766396125
 20
239.4198385499
 30
0.0
 10
-224.8569152462126
 20
239.3381084261
 30
0.0
 10
-224.7629349827126
 20
239.2802250154
 30
0.0
 10
-224.7013310053126
 20
239.2570893888
 30
0.0
 10
-224.6744963663125
 20
239.2552104993
 30
0.0
  0
SPLINE
  5
2003
330
208
100
AcDbEntity
  8
0
  6
Continuous
 62
     7
100
AcDbSpline
210
0.0
220
0.0
230
1.0
 70
     8
 71
     3
 72
     9
 73
     5
 74
     0
 42
0.0000000001
 43
0.0000000001
 40
0.0
 40
0.0
 40
0.0
 40
0.0
 40
0.2509524747
 40
1.0
 40
1.0
 40
1.0
 40
1.0
 10
-200.7069125406126
 20
240.2549251557
 30
0.0
 10
-200.7476474847126
 20
240.2299293672
 30
0.0
 10
-200.9099695753125
 20
240.1303309618
 30
0.0
 10
-201.0727945609126
 20
240.0315201573
 30
0.0
 10
-201.1958600432126
 20
239.9593780934
 30
0.0
  0
SPLINE
  5
2004
330
208
100
AcDbEntity
  8
0
  6
Continuous
 62
     7
100
AcDbSpline
210
0.0
220
0.0
230
1.0
 70
     8
 71
     3
 72
     9
 73
     5
 74
     0
 42
0.0000000001
 43
0.0000000001
 40
0.0
 40
0.0
 40
0.0
 40
0.0
 40
0.2509524747
 40
1.0
 40
1.0
 40
1.0
 40
1.0
 10
-226.2142369217126
 20
240.2549251557
 30
0.0
 10
-226.1735019776125
 20
240.2299293672
 30
0.0
 10
-226.0111798870125
 20
240.1303309618
 30
0.0
 10
-225.8483549014126
 20
240.0315201573
 30
0.0
 10
-225.7252894191125
 20
239.9593780934
 30
0.0
  0
SPLINE
  5
2005
330
208
100
AcDbEntity
  8
0
  6
Continuous
 62
     7
100
AcDbSpline
210
0.0
220
0.0
230
1.0
 70
     8
 71
     3
 72
    13
 73
     9
 74
     0
 42
0.0000000001
 43
0.0000000001
 40
0.0
 40
0.0
 40
0.0
 40
0.0
 40
0.063554982
 40
0.1513115845
 40
0.2614749126
 40
0.3897140227
 40
0.6824700978
 40
1.0
 40
1.0
 40
1.0
 40
1.0
 10
-202.2466530960125
 20
239.2552104993
 30
0.0
 10
-202.2198184570126
 20
239.2570893888
 30
0.0
 10
-202.1582144796126
 20
239.2802250154
 30
0.0
 10
-202.0642342161126
 20
239.3381084261
 30
0.0
 10
-201.9526728227125
 20
239.4198385499
 30
0.0
 10
-201.7755489762126
 20
239.5581519768
 30
0.0
 10
-201.5278497871125
 20
239.7489934392
 30
0.0
 10
-201.3118048117126
 20
239.8914102542
 30
0.0
 10
-201.1958600432126
 20
239.9593780934
 30
0.0
  0
SPLINE
  5
2006
330
208
100
AcDbEntity
  8
0
  6
Continuous
 62
     0
100
AcDbSpline
210
0.0
220
0.0
230
1.0
 70
     8
 71
     3
 72
    14
 73
    10
 74
     0
 42
0.0000000001
 43
0.0000000001
 40
0.0
 40
0.0
 40
0.0
 40
0.0
 40
0.0425138332
 40
0.1117198548
 40
0.2087800397
 40
0.3314542543
 40
0.4762322343000001
 40
0.6388799203
 40
1.0
 40
1.0
 40
1.0
 40
1.0
 10
-224.6744963663125
 20
238.2554958428
 30
0.0
 10
-224.6992817194126
 20
238.258966651
 30
0.0
 10
-224.7560453440125
 20
238.3002142166
 30
0.0
 10
-224.8347537644125
 20
238.3924840577
 30
0.0
 10
-224.9336131054126
 20
238.5320502855
 30
0.0
 10
-225.0501337103126
 20
238.7118692499
 30
0.0
 10
-225.1866885778125
 20
238.9252254364
 30
0.0
 10
-225.4035586555126
 20
239.2535169613
 30
0.0
 10
-225.5873330899125
 20
239.5020886132
 30
0.0
 10
-225.7252894191125
 20
239.663831031
 30
0.0
  0
SPLINE
  5
2007
330
208
100
AcDbEntity
  8
0
  6
Continuous
 62
     0
100
AcDbSpline
210
0.0
220
0.0
230
1.0
 70
     8
 71
     3
 72
    14
 73
    10
 74
     0
 42
0.0000000001
 43
0.0000000001
 40
0.0
 40
0.0
 40
0.0
 40
0.0
 40
0.3611200797
 40
0.5237677657000001
 40
0.6685457457
 40
0.7912199603
 40
0.8882801451999997
 40
0.9574861668
 40
1.0
 40
1.0
 40
1.0
 40
1.0
 10
-201.1958600432126
 20
239.663831031
 30
0.0
 10
-201.3338163725126
 20
239.5020886132
 30
0.0
 10
-201.5175908068126
 20
239.2535169613
 30
0.0
 10
-201.7344608845126
 20
238.9252254364
 30
0.0
 10
-201.8710157520126
 20
238.7118692499
 30
0.0
 10
-201.9875363569125
 20
238.5320502855
 30
0.0
 10
-202.0863956979126
 20
238.3924840577
 30
0.0
 10
-202.1651041183126
 20
238.3002142166
 30
0.0
 10
-202.2218677429126
 20
238.258966651
 30
0.0
 10
-202.2466530960125
 20
238.2554958428
 30
0.0
  0
SPLINE
  5
2008
330
208
100
AcDbEntity
  8
0
  6
Continuous
 62
     0
100
AcDbSpline
210
0.0
220
0.0
230
1.0
 70
     8
 71
     3
 72
     9
 73
     5
 74
     0
 42
0.0000000001
 43
0.0000000001
 40
0.0
 40
0.0
 40
0.0
 40
0.0
 40
0.2521100781999999
 40
1.0
 40
1.0
 40
1.0
 40
1.0
 10
-226.2142369217126
 20
240.2549251557
 30
0.0
 10
-226.1735147673125
 20
240.2049492748
 30
0.0
 10
-226.0119831557125
 20
240.006728716
 30
0.0
 10
-225.8493938454126
 20
239.809333235
 30
0.0
 10
-225.7252894191125
 20
239.663831031
 30
0.0
  0
SPLINE
  5
2009
330
208
100
AcDbEntity
  8
0
  6
Continuous
 62
     0
100
AcDbSpline
210
0.0
220
0.0
230
1.0
 70
     8
 71
     3
 72
     9
 73
     5
 74
     0
 42
0.0000000001
 43
0.0000000001
 40
0.0
 40
0.0
 40
0.0
 40
0.0
 40
0.2521100781999999
 40
1.0
 40
1.0
 40
1.0
 40
1.0
 10
-200.7069125406126
 20
240.2549251557
 30
0.0
 10
-200.7476346950125
 20
240.2049492748
 30
0.0
 10
-200.9091663066126
 20
240.006728716
 30
0.0
 10
-201.0717556169126
 20
239.809333235
 30
0.0
 10
-201.1958600432126
 20
239.663831031
 30
0.0
  0
LINE
  5
200B
330
208
100
AcDbEntity
  8
0
100
AcDbLine
 10
-423.3862825269726
 20
244.7549251557
 30
0.0
 11
-233.3512847197127
 21
244.7549251557
 31
0.0
  0
LINE
  5
200C
330
208
100
AcDbEntity
  8
0
  6
Continuous
 62
     9
100
AcDbLine
 10
-196.0325106439126
 20
243.9069681701
 30
0.0
 11
-0.8633428652640303
 21
243.9069681701
 31
0.0
  0
LINE
  5
200E
330
208
100
AcDbEntity
  8
RUNDUNGEN
  6
Continuous
 62
     7
100
AcDbLine
 10
267.3610661432556
 20
244.7549251557
 30
0.0
 11
338.0655526064544
 21
244.7549251557
 31
0.0
  0
LINE
  5
2011
330
208
100
AcDbEntity
  8
RUNDUNGEN
  6
Continuous
 62
     7
100
AcDbLine
 10
36.45580134367552
 20
244.7549251557
 30
0.0
 11
106.4943858987298
 21
244.7549251557
 31
0.0
  0
LINE
  5
2014
330
208
100
AcDbEntity
  8
0
  6
Continuous
 62
     0
100
AcDbLine
 10
1.457274816874028
 20
242.0940464829998
 30
0.0
 11
-198.3504991592186
 21
242.0959570606874
 31
0.0
  0
LINE
  5
253E
330
208
100
AcDbEntity
  8
0
100
AcDbLine
 10
33.99315544246704
 20
243.9069681701715
 30
0.0
 11
230.0422920674925
 21
243.9069681701
 31
0.0
  0
ENDSEC
  0
SECTION
  2
OBJECTS
  0
DICTIONARY
  5
C
330
0
100
AcDbDictionary
281
     1
  3
ACAD_2007HEADERVARS_RT
350
2577
  3
ACAD_COLOR
350
3C2
  3
ACAD_GROUP
350
D
  3
ACAD_LAYOUT
350
1A
  3
ACAD_MATERIAL
350
395
  3
ACAD_MLEADERSTYLE
350
3D7
  3
ACAD_MLINESTYLE
350
17
  3
ACAD_PLOTSETTINGS
350
19
  3
ACAD_PLOTSTYLENAME
350
E
  3
ACAD_SCALELIST
350
3C5
  3
ACAD_TABLESTYLE
350
3C3
  3
ACAD_VISUALSTYLE
350
3AE
  3
ACDB_RECOMPOSE_DATA
350
2575
  3
AcDbVariableDictionary
350
7F8
  3
AcmDictionary
350
431
  3
AMG
350
3DB
  3
AMGSNAPSETTINGS
350
478
  3
DWGPROPS
350
2576
  0
DICTIONARY
  5
BA2
330
2
100
AcDbDictionary
280
     1
281
     1
  3
ACAD_LAYERSTATES
360
BA3
  0
DICTIONARY
  5
BA0
330
B9F
100
AcDbDictionary
280
     1
281
     1
  0
DICTIONARY
  5
1F71
330
208
100
AcDbDictionary
280
     1
281
     1
  3
ACAD_SORTENTS
360
1F72
  0
DICTIONARY
  5
2577
102
{ACAD_REACTORS
330
C
102
}
330
C
100
AcDbDictionary
281
     1
  3
DIMJOGANG
350
2578
  3
DIMLTEX1
350
257A
  3
DIMLTEX2
350
257B
  3
DIMLTYPE
350
2579
  0
DICTIONARY
  5
3C2
102
{ACAD_REACTORS
330
C
102
}
330
C
100
AcDbDictionary
281
     1
  0
DICTIONARY
  5
D
102
{ACAD_REACTORS
330
C
102
}
330
C
100
AcDbDictionary
281
     1
  0
DICTIONARY
  5
1A
102
{ACAD_REACTORS
330
C
102
}
330
C
100
AcDbDictionary
281
     1
  3
Layout1
350
391
  3
Model
350
390
  0
DICTIONARY
  5
395
102
{ACAD_REACTORS
330
C
102
}
330
C
100
AcDbDictionary
281
     1
  3
ByBlock
350
39E
  3
ByLayer
350
396
  3
Global
350
3A6
  0
DICTIONARY
  5
3D7
102
{ACAD_REACTORS
330
C
102
}
330
C
100
AcDbDictionary
281
     1
  3
Standard
350
3D8
  0
DICTIONARY
  5
17
102
{ACAD_REACTORS
330
C
102
}
330
C
100
AcDbDictionary
281
     1
  3
Standard
350
18
  0
DICTIONARY
  5
19
102
{ACAD_REACTORS
330
C
102
}
330
C
100
AcDbDictionary
281
     1
  0
ACDBDICTIONARYWDFLT
  5
E
102
{ACAD_REACTORS
330
C
102
}
330
C
100
AcDbDictionary
281
     1
  3
Normal
350
F
100
AcDbDictionaryWithDefault
340
F
  0
DICTIONARY
  5
3C5
102
{ACAD_REACTORS
330
C
102
}
330
C
100
AcDbDictionary
281
     1
  3
A0
350
3C6
  3
A1
350
3C7
  3
A2
350
3C8
  3
A3
350
3C9
  3
A4
350
3CA
  3
A5
350
3CB
  3
A6
350
3CC
  3
A7
350
3CD
  3
A8
350
3CE
  3
A9
350
3CF
  3
B0
350
3D0
  3
B1
350
3D1
  3
B2
350
3D2
  3
B3
350
3D3
  3
B4
350
3D4
  3
B5
350
3D5
  3
B6
350
3D6
  0
DICTIONARY
  5
3C3
102
{ACAD_REACTORS
330
C
102
}
330
C
100
AcDbDictionary
281
     1
  3
Standard
350
3C4
  0
DICTIONARY
  5
3AE
102
{ACAD_REACTORS
330
C
102
}
330
C
100
AcDbDictionary
281
     1
  3
2dWireframe
350
3B4
  3
3D Hidden
350
3B6
  3
3dWireframe
350
3B5
  3
Basic
350
3B3
  3
Brighten
350
3BA
  3
ColorChange
350
3BE
  3
Conceptual
350
3B7
  3
Dim
350
3B9
  3
EdgeColorOff
350
3C1
  3
Facepattern
350
3BD
  3
Flat
350
3AF
  3
FlatWithEdges
350
3B0
  3
Gouraud
350
3B1
  3
GouraudWithEdges
350
3B2
  3
JitterOff
350
3BF
  3
Linepattern
350
3BC
  3
OverhangOff
350
3C0
  3
Realistic
350
3B8
  3
Thicken
350
3BB
  0
XRECORD
  5
2575
102
{ACAD_REACTORS
330
C
102
}
330
C
100
AcDbXrecord
280
     1
 90
        1
330
3C4
  0
DICTIONARY
  5
7F8
102
{ACAD_REACTORS
330
C
102
}
330
C
100
AcDbDictionary
281
     1
  3
CANNOSCALE
350
7FC
  3
CMLEADERSTYLE
350
7FA
  3
CTABLESTYLE
350
7F9
  3
DIMASSOC
350
803
  3
HIDETEXT
350
802
  3
INDEXCTL
350
801
  3
LAYEREVAL
350
7FE
  3
LAYERNOTIFY
350
7FF
  3
LIGHTINGUNITS
350
7FD
  3
MSLTSCALE
350
7FB
  3
SORTENTS
350
800
  3
XCLIPFRAME
350
2573
  0
DICTIONARY
  5
431
102
{ACAD_REACTORS
330
C
102
}
330
C
100
AcDbDictionary
281
     1
  3
AcmStdDictionary
350
43D
  0
DICTIONARY
  5
3DB
102
{ACAD_REACTORS
330
C
102
}
330
C
100
AcDbDictionary
281
     1
  0
DICTIONARY
  5
478
102
{ACAD_REACTORS
330
C
102
}
330
C
100
AcDbDictionary
281
     1
  0
XRECORD
  5
2576
102
{ACAD_REACTORS
330
C
102
}
330
C
100
AcDbXrecord
280
     1
  1
DWGPROPS COOKIE
  2

  3

  4

  6

  7

  8
MAlaie
  9

300
=
301
=
302
=
303
=
304
=
305
=
306
=
307
=
308
=
309
=
 40
0.1990912847222222
 41
2456685.680487234
 42
2456686.561531123
  1

 90
        0
  0
DICTIONARY
  5
BA3
102
{ACAD_REACTORS
330
BA2
102
}
330
BA2
100
AcDbDictionary
281
     1
  0
SORTENTSTABLE
  5
1F72
102
{ACAD_REACTORS
330
1F71
102
}
330
1F71
100
AcDbSortentsTable
330
208
331
1FFF
  5
2009
331
1FFB
  5
2005
331
1FF7
  5
1FFF
331
247
  5
247
331
1FF3
  5
1FF8
331
243
  5
243
331
284
  5
284
331
377
  5
381
331
2FE
  5
308
331
280
  5
280
331
2BF
  5
2BF
331
373
  5
37D
331
1F05
  5
1F0F
331
2FA
  5
304
331
2BB
  5
2BB
331
2F6
  5
300
331
335
  5
343
331
36F
  5
379
331
27C
  5
27C
331
1C12
  5
1C1D
331
2F2
  5
2FC
331
331
  5
33F
331
1C4D
  5
1F0E
331
1F94
  5
1FA8
331
36B
  5
375
331
278
  5
278
331
1F90
  5
1FA4
331
1FEF
  5
1FF2
331
23F
  5
23F
331
1FEB
  5
1FEE
331
1FE7
  5
1FEA
331
1FE3
  5
1FE6
331
2B7
  5
2B7
331
274
  5
274
331
2B3
  5
2B3
331
367
  5
371
331
1C0E
  5
1C1B
331
2EE
  5
2F8
331
32D
  5
337
331
329
  5
333
331
270
  5
270
331
2AF
  5
2AF
331
1F8C
  5
1FA0
331
363
  5
36D
331
1C0A
  5
1C17
331
2EA
  5
2F4
331
2E6
  5
2EA
331
325
  5
32F
331
26C
  5
26C
331
1F88
  5
1F9A
331
35F
  5
369
331
1C06
  5
1C12
331
2AB
  5
2AB
331
1C02
  5
1C0C
331
321
  5
32B
331
1C3D
  5
1F0A
331
1F84
  5
1F96
331
35B
  5
365
331
268
  5
268
331
1C39
  5
1F08
331
1F80
  5
1F90
331
1FAB
  5
1F92
331
2A7
  5
2A7
331
264
  5
264
331
2A3
  5
2A3
331
357
  5
362
331
2DE
  5
2DE
331
31D
  5
327
331
319
  5
323
331
260
  5
260
331
29F
  5
29F
331
353
  5
360
331
1C35
  5
1C4D
331
2DA
  5
2DA
331
2D6
  5
2D6
331
315
  5
31F
331
25C
  5
25C
331
1F78
  5
1F80
331
34F
  5
35C
331
38E
  5
1C07
331
29B
  5
29B
331
1C31
  5
1C3D
331
38A
  5
1C03
331
2D2
  5
2D2
331
1C2D
  5
1C37
331
34B
  5
357
331
258
  5
258
331
1C29
  5
1C33
331
1F18
  5
1F7B
331
200E
  5
2F1
331
1F9F
  5
2EB
331
2006
  5
2010
331
1F74
  5
1F7C
331
1F9B
  5
1FE1
331
2002
  5
200C
331
297
  5
297
331
254
  5
254
331
293
  5
293
331
347
  5
351
331
386
  5
1BFF
331
2CE
  5
2CE
331
30D
  5
318
331
309
  5
314
331
250
  5
250
331
28F
  5
28F
331
343
  5
34D
331
382
  5
38C
331
2CA
  5
2CA
331
1C25
  5
1C2F
331
1F14
  5
1F77
331
305
  5
30F
331
24C
  5
24C
331
28B
  5
28B
331
1F10
  5
1F73
331
33F
  5
349
331
37E
  5
388
331
1C21
  5
1C2B
331
2C6
  5
2C6
331
37A
  5
384
331
2C2
  5
2C2
331
1C1D
  5
1C27
331
1F0C
  5
1F16
331
301
  5
30B
331
248
  5
248
331
1C19
  5
1C23
331
1F08
  5
1F12
331
1FFE
  5
2008
331
1FFA
  5
2003
331
246
  5
246
331
1FF2
  5
1FF5
331
242
  5
242
331
287
  5
287
331
283
  5
283
331
376
  5
380
331
2FD
  5
307
331
27F
  5
27F
331
2BE
  5
2BE
331
372
  5
37C
331
2F9
  5
303
331
2BA
  5
2BA
331
1C15
  5
1C20
331
2F5
  5
2FF
331
334
  5
342
331
1F97
  5
1FAB
331
36E
  5
378
331
27B
  5
27B
331
1C11
  5
1C1C
331
2F1
  5
2FB
331
330
  5
33E
331
1F93
  5
1FA7
331
36A
  5
374
331
1FEE
  5
1FF1
331
23E
  5
23E
331
1FEA
  5
1FED
331
1FE6
  5
1FE9
331
1FE2
  5
1FE5
331
277
  5
277
331
2B6
  5
2B6
331
273
  5
273
331
2B2
  5
2B2
331
366
  5
370
331
1C0D
  5
1C1A
331
2ED
  5
2F7
331
1F8F
  5
1FA3
331
32C
  5
336
331
328
  5
332
331
26F
  5
26F
331
2AE
  5
2AE
331
1F8B
  5
1F9F
331
362
  5
36C
331
1C09
  5
1C15
331
2E9
  5
2F2
331
2AA
  5
2AA
331
324
  5
32E
331
26B
  5
26B
331
1F87
  5
1F99
331
35E
  5
368
331
1C05
  5
1C11
331
1C01
  5
1C0B
331
1F83
  5
1F95
331
320
  5
32A
331
1C38
  5
1F07
331
2011
  5
2004
331
2A6
  5
2A6
331
267
  5
267
331
263
  5
263
331
2A2
  5
2A2
331
2DD
  5
2DD
331
31C
  5
326
331
318
  5
322
331
25F
  5
25F
331
29E
  5
29E
331
1F7B
  5
1F88
331
352
  5
35F
331
1C34
  5
1C42
331
2D9
  5
2D9
331
2D5
  5
2D5
331
314
  5
31E
331
25B
  5
25B
331
1C30
  5
1C3A
331
34E
  5
35B
331
38D
  5
1C06
331
29A
  5
29A
331
389
  5
1C02
331
2D1
  5
2D1
331
310
  5
31B
331
1C2C
  5
1C36
331
34A
  5
354
331
1C28
  5
1C32
331
2009
  5
2013
331
1F77
  5
1F7F
331
1FA2
  5
2F3
331
2005
  5
200F
331
1F73
  5
2E9
331
1F9A
  5
1FE0
331
2001
  5
200B
331
296
  5
296
331
257
  5
257
331
253
  5
253
331
292
  5
292
331
346
  5
350
331
385
  5
38F
331
2CD
  5
2CD
331
1F17
  5
1F7A
331
30C
  5
317
331
308
  5
313
331
24F
  5
24F
331
28E
  5
28E
331
1F13
  5
1F76
331
342
  5
34C
331
381
  5
38B
331
1C24
  5
1C2E
331
2C9
  5
2C9
331
2C5
  5
2C5
331
304
  5
30E
331
24B
  5
24B
331
1F0F
  5
1F70
331
33E
  5
348
331
37D
  5
387
331
28A
  5
28A
331
1C20
  5
1C2A
331
379
  5
383
331
2C1
  5
2C1
331
1C1C
  5
1C26
331
1F0B
  5
1F15
331
300
  5
30A
331
1C18
  5
1C22
331
1FFD
  5
2007
331
1FF5
  5
1FFE
331
245
  5
245
331
1FF1
  5
1FF4
331
241
  5
241
331
286
  5
286
331
282
  5
282
331
375
  5
37F
331
1F07
  5
1F11
331
2FC
  5
306
331
2F8
  5
302
331
337
  5
345
331
371
  5
37B
331
27E
  5
27E
331
2BD
  5
2BD
331
2B9
  5
2B9
331
1C14
  5
1C1F
331
2F4
  5
2FE
331
333
  5
341
331
1F96
  5
1FAA
331
36D
  5
377
331
27A
  5
27A
331
369
  5
373
331
2F0
  5
2FA
331
1F92
  5
1FA6
331
1FED
  5
1FF0
331
1FE9
  5
1FEC
331
1FE5
  5
1FE8
331
1FE1
  5
1FE4
331
276
  5
276
331
2B5
  5
2B5
331
32F
  5
33D
331
32B
  5
335
331
272
  5
272
331
2B1
  5
2B1
331
365
  5
36F
331
1C0C
  5
1C19
331
2EC
  5
2F6
331
1F8E
  5
1FA2
331
327
  5
331
331
26E
  5
26E
331
2AD
  5
2AD
331
1F8A
  5
1F9C
331
361
  5
36B
331
1C08
  5
1C14
331
2E8
  5
2F0
331
2A9
  5
2A9
331
1C04
  5
1C0E
331
323
  5
32D
331
1C3F
  5
1F0C
331
1F86
  5
1F98
331
35D
  5
367
331
26A
  5
26A
331
1C00
  5
1C0A
331
2E0
  5
2E0
331
1F82
  5
1F94
331
359
  5
364
331
1FB5
  5
1F91
331
2014
  5
1FFD
331
266
  5
266
331
2A5
  5
2A5
331
31F
  5
329
331
262
  5
262
331
2A1
  5
2A1
331
2DC
  5
2DC
331
1C37
  5
1F06
331
31B
  5
325
331
317
  5
321
331
25E
  5
25E
331
29D
  5
29D
331
1F7A
  5
1F84
331
351
  5
35E
331
1C33
  5
1C3F
331
2D8
  5
2D8
331
299
  5
299
331
2D4
  5
2D4
331
313
  5
31D
331
25A
  5
25A
331
1C2F
  5
1C39
331
34D
  5
359
331
38C
  5
1C05
331
388
  5
1C01
331
2D0
  5
2D0
331
1C2B
  5
1C35
331
349
  5
353
331
200C
  5
2001
331
2008
  5
2012
331
1F76
  5
1F7E
331
1FA1
  5
2E2
331
2004
  5
200E
331
1F99
  5
1FAD
331
2000
  5
200A
331
295
  5
295
331
30F
  5
31A
331
256
  5
256
331
252
  5
252
331
291
  5
291
331
345
  5
34F
331
384
  5
38E
331
2CC
  5
2CC
331
1C27
  5
1C31
331
1F16
  5
1F79
331
30B
  5
316
331
307
  5
312
331
24E
  5
24E
331
28D
  5
28D
331
1F12
  5
1F75
331
341
  5
34B
331
380
  5
38A
331
1C23
  5
1C2D
331
2C8
  5
2C8
331
2C4
  5
2C4
331
303
  5
30D
331
24A
  5
24A
331
1C1F
  5
1C29
331
1F0E
  5
1F18
331
33D
  5
347
331
37C
  5
386
331
289
  5
289
331
378
  5
382
331
2C0
  5
2C0
331
1C1B
  5
1C25
331
1F0A
  5
1F14
331
1FFC
  5
2006
331
1FF8
  5
2000
331
1FF4
  5
1FF9
331
244
  5
244
331
1FF0
  5
1FF3
331
240
  5
240
331
285
  5
285
331
2FF
  5
309
331
281
  5
281
331
374
  5
37E
331
1F06
  5
1F10
331
2FB
  5
305
331
2F7
  5
301
331
336
  5
344
331
27D
  5
27D
331
370
  5
37A
331
1C17
  5
1C21
331
2BC
  5
2BC
331
2B8
  5
2B8
331
1C13
  5
1C1E
331
2F3
  5
2FD
331
332
  5
340
331
1F95
  5
1FA9
331
36C
  5
376
331
279
  5
279
331
368
  5
372
331
1F91
  5
1FA5
331
1FEC
  5
1FEF
331
1FE8
  5
1FEB
331
1FE4
  5
1FE7
331
1FE0
  5
1FE3
331
275
  5
275
331
2B4
  5
2B4
331
2EF
  5
2F9
331
32E
  5
338
331
32A
  5
334
331
271
  5
271
331
2B0
  5
2B0
331
1F8D
  5
1FA1
331
364
  5
36E
331
1C0B
  5
1C18
331
2EB
  5
2F5
331
326
  5
330
331
26D
  5
26D
331
1F89
  5
1F9B
331
360
  5
36A
331
1C07
  5
1C13
331
2AC
  5
2AC
331
1C42
  5
1F0D
331
2A8
  5
2A8
331
1C03
  5
1C0D
331
322
  5
32C
331
1C3E
  5
1F0B
331
1F85
  5
1F97
331
35C
  5
366
331
269
  5
269
331
358
  5
363
331
1C3A
  5
1F09
331
1F81
  5
1F93
331
265
  5
265
331
2A4
  5
2A4
331
1BFF
  5
1C09
331
2DF
  5
2DF
331
31E
  5
328
331
31A
  5
324
331
261
  5
261
331
2A0
  5
2A0
331
354
  5
361
331
1C36
  5
1F05
331
2DB
  5
2DB
331
316
  5
320
331
25D
  5
25D
331
29C
  5
29C
331
1F79
  5
1F82
331
350
  5
35D
331
38F
  5
1C08
331
1C32
  5
1C3E
331
2D7
  5
2D7
331
298
  5
298
331
38B
  5
1C04
331
2D3
  5
2D3
331
312
  5
31C
331
1C2E
  5
1C38
331
34C
  5
358
331
259
  5
259
331
1C2A
  5
1C34
331
348
  5
352
331
200B
  5
2014
331
1FA4
  5
1F89
331
2007
  5
2011
331
1F75
  5
1F7D
331
1FA0
  5
2ED
331
1F9C
  5
1FE2
331
2003
  5
200D
331
1F98
  5
1FAC
331
255
  5
255
331
294
  5
294
331
387
  5
1C00
331
2CF
  5
2CF
331
30E
  5
319
331
251
  5
251
331
290
  5
290
331
344
  5
34E
331
383
  5
38D
331
2CB
  5
2CB
331
1C26
  5
1C30
331
1F15
  5
1F78
331
30A
  5
315
331
306
  5
310
331
24D
  5
24D
331
28C
  5
28C
331
1F11
  5
1F74
331
340
  5
34A
331
37F
  5
389
331
1C22
  5
1C2C
331
2C7
  5
2C7
331
288
  5
288
331
2C3
  5
2C3
331
302
  5
30C
331
249
  5
249
331
1C1E
  5
1C28
331
1F0D
  5
1F17
331
37B
  5
385
331
1C1A
  5
1C24
331
1F09
  5
1F13
331
338
  5
346
  0
XRECORD
  5
2578
102
{ACAD_REACTORS
330
2577
102
}
330
2577
100
AcDbXrecord
280
     1
 40
1.570796326794896
  0
XRECORD
  5
257A
102
{ACAD_REACTORS
330
2577
102
}
330
2577
100
AcDbXrecord
280
     1
340
14
  0
XRECORD
  5
257B
102
{ACAD_REACTORS
330
2577
102
}
330
2577
100
AcDbXrecord
280
     1
340
14
  0
XRECORD
  5
2579
102
{ACAD_REACTORS
330
2577
102
}
330
2577
100
AcDbXrecord
280
     1
340
14
  0
LAYOUT
  5
391
102
{ACAD_XDICTIONARY
360
257E
102
}
102
{ACAD_REACTORS
330
1A
102
}
330
1A
100
AcDbPlotSettings
  1

  2
none_device
  4
ISO_A3_(420.00_x_297.00_MM)
  6

 40
0.0
 41
0.0
 42
0.0
 43
0.0
 44
420.0
 45
297.0
 46
0.0
 47
0.0
 48
0.0
 49
0.0
140
0.0
141
0.0
142
1.0
143
1.0
 70
     0
 72
     1
 73
     0
 74
     0
  7

 75
     0
147
1.0
148
0.0
149
0.0
100
AcDbLayout
  1
Layout1
 70
     1
 71
     1
 10
0.0
 20
0.0
 11
12.0
 21
9.0
 12
0.0
 22
0.0
 32
0.0
 14
1.000000000000000E+20
 24
1.000000000000000E+20
 34
1.000000000000000E+20
 15
-1.000000000000000E+20
 25
-1.000000000000000E+20
 35
-1.000000000000000E+20
146
0.0
 13
0.0
 23
0.0
 33
0.0
 16
1.0
 26
0.0
 36
0.0
 17
0.0
 27
1.0
 37
0.0
 76
     0
330
209
  0
LAYOUT
  5
390
102
{ACAD_XDICTIONARY
360
257C
102
}
102
{ACAD_REACTORS
330
1A
102
}
330
1A
100
AcDbPlotSettings
  1

  2
none_device
  4
ISO_A3_(420.00_x_297.00_MM)
  6

 40
0.0
 41
0.0
 42
0.0
 43
0.0
 44
420.0
 45
297.0
 46
0.0
 47
0.0
 48
0.0
 49
0.0
140
0.0
141
0.0
142
1.0
143
1.0
 70
  1024
 72
     1
 73
     0
 74
     0
  7

 75
     0
147
1.0
148
0.0
149
0.0
100
AcDbLayout
  1
Model
 70
     0
 71
     0
 10
0.0
 20
0.0
 11
420.0
 21
297.0
 12
0.0
 22
0.0
 32
0.0
 14
0.0
 24
0.0
 34
0.0
 15
0.0
 25
0.0
 35
0.0
146
0.0
 13
0.0
 23
0.0
 33
0.0
 16
1.0
 26
0.0
 36
0.0
 17
0.0
 27
1.0
 37
0.0
 76
     0
330
208
331
1F4
  0
MATERIAL
  5
39E
102
{ACAD_XDICTIONARY
360
39F
102
}
102
{ACAD_REACTORS
330
395
102
}
330
395
100
AcDbMaterial
  1
ByBlock
 72
     0
 43
0.0008202099737533
 43
0.0
 43
0.0
 43
0.0
 43
0.0
 43
0.0008202099737533
 43
0.0
 43
0.0
 43
0.0
 43
0.0
 43
1.0
 43
0.0
 43
0.0
 43
0.0
 43
0.0
 43
1.0
 77
     0
 47
0.0008202099737533
 47
0.0
 47
0.0
 47
0.0
 47
0.0
 47
0.0008202099737533
 47
0.0
 47
0.0
 47
0.0
 47
0.0
 47
1.0
 47
0.0
 47
0.0
 47
0.0
 47
0.0
 47
1.0
171
     0
 49
0.0008202099737533
 49
0.0
 49
0.0
 49
0.0
 49
0.0
 49
0.0008202099737533
 49
0.0
 49
0.0
 49
0.0
 49
0.0
 49
1.0
 49
0.0
 49
0.0
 49
0.0
 49
0.0
 49
1.0
175
     0
142
0.0008202099737533
142
0.0
142
0.0
142
0.0
142
0.0
142
0.0008202099737533
142
0.0
142
0.0
142
0.0
142
0.0
142
1.0
142
0.0
142
0.0
142
0.0
142
0.0
142
1.0
179
     0
144
0.0008202099737533
144
0.0
144
0.0
144
0.0
144
0.0
144
0.0008202099737533
144
0.0
144
0.0
144
0.0
144
0.0
144
1.0
144
0.0
144
0.0
144
0.0
144
0.0
144
1.0
147
0.0008202099737533
147
0.0
147
0.0
147
0.0
147
0.0
147
0.0008202099737533
147
0.0
147
0.0
147
0.0
147
0.0
147
1.0
147
0.0
147
0.0
147
0.0
147
0.0
147
1.0
  0
MATERIAL
  5
396
102
{ACAD_XDICTIONARY
360
397
102
}
102
{ACAD_REACTORS
330
395
102
}
330
395
100
AcDbMaterial
  1
ByLayer
 72
     0
 43
0.0008202099737533
 43
0.0
 43
0.0
 43
0.0
 43
0.0
 43
0.0008202099737533
 43
0.0
 43
0.0
 43
0.0
 43
0.0
 43
1.0
 43
0.0
 43
0.0
 43
0.0
 43
0.0
 43
1.0
 77
     0
 47
0.0008202099737533
 47
0.0
 47
0.0
 47
0.0
 47
0.0
 47
0.0008202099737533
 47
0.0
 47
0.0
 47
0.0
 47
0.0
 47
1.0
 47
0.0
 47
0.0
 47
0.0
 47
0.0
 47
1.0
171
     0
 49
0.0008202099737533
 49
0.0
 49
0.0
 49
0.0
 49
0.0
 49
0.0008202099737533
 49
0.0
 49
0.0
 49
0.0
 49
0.0
 49
1.0
 49
0.0
 49
0.0
 49
0.0
 49
0.0
 49
1.0
175
     0
142
0.0008202099737533
142
0.0
142
0.0
142
0.0
142
0.0
142
0.0008202099737533
142
0.0
142
0.0
142
0.0
142
0.0
142
1.0
142
0.0
142
0.0
142
0.0
142
0.0
142
1.0
179
     0
144
0.0008202099737533
144
0.0
144
0.0
144
0.0
144
0.0
144
0.0008202099737533
144
0.0
144
0.0
144
0.0
144
0.0
144
1.0
144
0.0
144
0.0
144
0.0
144
0.0
144
1.0
147
0.0008202099737533
147
0.0
147
0.0
147
0.0
147
0.0
147
0.0008202099737533
147
0.0
147
0.0
147
0.0
147
0.0
147
1.0
147
0.0
147
0.0
147
0.0
147
0.0
147
1.0
  0
MATERIAL
  5
3A6
102
{ACAD_XDICTIONARY
360
3A7
102
}
102
{ACAD_REACTORS
330
395
102
}
330
395
100
AcDbMaterial
  1
Global
 72
     0
 43
0.0008202099737533
 43
0.0
 43
0.0
 43
0.0
 43
0.0
 43
0.0008202099737533
 43
0.0
 43
0.0
 43
0.0
 43
0.0
 43
1.0
 43
0.0
 43
0.0
 43
0.0
 43
0.0
 43
1.0
 77
     0
 47
0.0008202099737533
 47
0.0
 47
0.0
 47
0.0
 47
0.0
 47
0.0008202099737533
 47
0.0
 47
0.0
 47
0.0
 47
0.0
 47
1.0
 47
0.0
 47
0.0
 47
0.0
 47
0.0
 47
1.0
171
     0
 49
0.0008202099737533
 49
0.0
 49
0.0
 49
0.0
 49
0.0
 49
0.0008202099737533
 49
0.0
 49
0.0
 49
0.0
 49
0.0
 49
1.0
 49
0.0
 49
0.0
 49
0.0
 49
0.0
 49
1.0
175
     0
142
0.0008202099737533
142
0.0
142
0.0
142
0.0
142
0.0
142
0.0008202099737533
142
0.0
142
0.0
142
0.0
142
0.0
142
1.0
142
0.0
142
0.0
142
0.0
142
0.0
142
1.0
179
     0
144
0.0008202099737533
144
0.0
144
0.0
144
0.0
144
0.0
144
0.0008202099737533
144
0.0
144
0.0
144
0.0
144
0.0
144
1.0
144
0.0
144
0.0
144
0.0
144
0.0
144
1.0
147
0.0008202099737533
147
0.0
147
0.0
147
0.0
147
0.0
147
0.0008202099737533
147
0.0
147
0.0
147
0.0
147
0.0
147
1.0
147
0.0
147
0.0
147
0.0
147
0.0
147
1.0
  0
MLEADERSTYLE
  5
3D8
102
{ACAD_REACTORS
330
3D7
102
}
330
3D7
100
AcDbMLeaderStyle
170
     2
171
     1
172
     0
 90
        2
 40
0.0
 41
0.0
173
     1
 91
-1056964608
340
14
 92
       -2
290
     1
 42
2.0
291
     1
 43
0.36
  3
Standard
 44
4.0
300

342
11
174
     1
178
     6
175
     1
176
     0
 93
-1056964608
 45
4.0
292
     0
297
     0
 46
4.0
 94
-1056964608
 47
1.0
 49
1.0
140
1.0
293
     1
141
0.0
294
     1
177
     0
142
1.0
295
     0
296
     0
143
0.125
1001
ACAD_MLEADERVER
1070
     2
  0
MLINESTYLE
  5
18
102
{ACAD_REACTORS
330
17
102
}
330
17
100
AcDbMlineStyle
  2
STANDARD
 70
     0
  3

 62
   256
 51
90.0
 52
90.0
 71
     2
 49
0.5
 62
   256
  6
BYLAYER
 49
-0.5
 62
   256
  6
BYLAYER
  0
ACDBPLACEHOLDER
  5
F
102
{ACAD_REACTORS
330
E
102
}
330
E
  0
SCALE
  5
3C6
102
{ACAD_REACTORS
330
3C5
102
}
330
3C5
100
AcDbScale
 70
     0
300
1:1
140
1.0
141
1.0
290
     1
  0
SCALE
  5
3C7
102
{ACAD_REACTORS
330
3C5
102
}
330
3C5
100
AcDbScale
 70
     0
300
1:2
140
1.0
141
2.0
290
     0
  0
SCALE
  5
3C8
102
{ACAD_REACTORS
330
3C5
102
}
330
3C5
100
AcDbScale
 70
     0
300
1:4
140
1.0
141
4.0
290
     0
  0
SCALE
  5
3C9
102
{ACAD_REACTORS
330
3C5
102
}
330
3C5
100
AcDbScale
 70
     0
300
1:5
140
1.0
141
5.0
290
     0
  0
SCALE
  5
3CA
102
{ACAD_REACTORS
330
3C5
102
}
330
3C5
100
AcDbScale
 70
     0
300
1:8
140
1.0
141
8.0
290
     0
  0
SCALE
  5
3CB
102
{ACAD_REACTORS
330
3C5
102
}
330
3C5
100
AcDbScale
 70
     0
300
1:10
140
1.0
141
10.0
290
     0
  0
SCALE
  5
3CC
102
{ACAD_REACTORS
330
3C5
102
}
330
3C5
100
AcDbScale
 70
     0
300
1:16
140
1.0
141
16.0
290
     0
  0
SCALE
  5
3CD
102
{ACAD_REACTORS
330
3C5
102
}
330
3C5
100
AcDbScale
 70
     0
300
1:20
140
1.0
141
20.0
290
     0
  0
SCALE
  5
3CE
102
{ACAD_REACTORS
330
3C5
102
}
330
3C5
100
AcDbScale
 70
     0
300
1:30
140
1.0
141
30.0
290
     0
  0
SCALE
  5
3CF
102
{ACAD_REACTORS
330
3C5
102
}
330
3C5
100
AcDbScale
 70
     0
300
1:40
140
1.0
141
40.0
290
     0
  0
SCALE
  5
3D0
102
{ACAD_REACTORS
330
3C5
102
}
330
3C5
100
AcDbScale
 70
     0
300
1:50
140
1.0
141
50.0
290
     0
  0
SCALE
  5
3D1
102
{ACAD_REACTORS
330
3C5
102
}
330
3C5
100
AcDbScale
 70
     0
300
1:100
140
1.0
141
100.0
290
     0
  0
SCALE
  5
3D2
102
{ACAD_REACTORS
330
3C5
102
}
330
3C5
100
AcDbScale
 70
     0
300
2:1
140
2.0
141
1.0
290
     0
  0
SCALE
  5
3D3
102
{ACAD_REACTORS
330
3C5
102
}
330
3C5
100
AcDbScale
 70
     0
300
4:1
140
4.0
141
1.0
290
     0
  0
SCALE
  5
3D4
102
{ACAD_REACTORS
330
3C5
102
}
330
3C5
100
AcDbScale
 70
     0
300
8:1
140
8.0
141
1.0
290
     0
  0
SCALE
  5
3D5
102
{ACAD_REACTORS
330
3C5
102
}
330
3C5
100
AcDbScale
 70
     0
300
10:1
140
10.0
141
1.0
290
     0
  0
SCALE
  5
3D6
102
{ACAD_REACTORS
330
3C5
102
}
330
3C5
100
AcDbScale
 70
     0
300
100:1
140
100.0
141
1.0
290
     0
  0
TABLESTYLE
  5
3C4
102
{ACAD_XDICTIONARY
360
805
102
}
102
{ACAD_REACTORS
330
3C3
102
}
330
3C3
100
AcDbTableStyle
  3
Standard
 70
     0
 71
     0
 40
1.5
 41
1.5
280
     0
281
     0
  7
STANDARD
140
4.5
170
     2
 62
     0
 63
     7
283
     0
274
    -2
284
     1
 64
     0
275
    -2
285
     1
 65
     0
276
    -2
286
     1
 66
     0
277
    -2
287
     1
 67
     0
278
    -2
288
     1
 68
     0
279
    -2
289
     1
 69
     0
  7
STANDARD
140
6.0
170
     5
 62
     0
 63
     7
283
     0
274
    -2
284
     1
 64
     0
275
    -2
285
     1
 65
     0
276
    -2
286
     1
 66
     0
277
    -2
287
     1
 67
     0
278
    -2
288
     1
 68
     0
279
    -2
289
     1
 69
     0
  7
STANDARD
140
4.5
170
     5
 62
     0
 63
     7
283
     0
274
    -2
284
     1
 64
     0
275
    -2
285
     1
 65
     0
276
    -2
286
     1
 66
     0
277
    -2
287
     1
 67
     0
278
    -2
288
     1
 68
     0
279
    -2
289
     1
 69
     0
  0
VISUALSTYLE
  5
3B4
102
{ACAD_XDICTIONARY
360
258A
102
}
102
{ACAD_REACTORS
330
3AE
102
}
330
3AE
100
AcDbVisualStyle
  2

 70
     4
 71
     0
 72
     2
 73
     0
 90
        0
 40
-0.6
 41
-30.0
 62
     5
 63
     7
 74
     1
 91
        4
 64
     7
 65
   257
 75
     1
175
     1
 42
1.0
 92
        0
 66
   257
 43
1.0
 76
     1
 77
     6
 78
     2
 67
     7
 79
     5
170
     0
171
     0
290
     0
174
     0
 93
        1
 44
0.0
173
     0
291
     0
 45
0.0
1001
ACAD
1000
AcDbSavedByObjectVersion
1070
     0
  0
VISUALSTYLE
  5
3B6
102
{ACAD_XDICTIONARY
360
258E
102
}
102
{ACAD_REACTORS
330
3AE
102
}
330
3AE
100
AcDbVisualStyle
  2

 70
     6
 71
     1
 72
     2
 73
     2
 90
        0
 40
-0.6
 41
-30.0
 62
     5
 63
     7
 74
     2
 91
        2
 64
     7
 65
   257
 75
     2
175
     1
 42
179.0
 92
        0
 66
   257
 43
1.0
 76
     1
 77
     6
 78
     2
 67
     7
 79
     3
170
     0
171
     0
290
     0
174
     0
 93
        1
 44
0.0
173
     0
291
     0
 45
0.0
1001
ACAD
1000
AcDbSavedByObjectVersion
1070
     0
  0
VISUALSTYLE
  5
3B5
102
{ACAD_XDICTIONARY
360
258C
102
}
102
{ACAD_REACTORS
330
3AE
102
}
330
3AE
100
AcDbVisualStyle
  2

 70
     5
 71
     0
 72
     2
 73
     0
 90
        0
 40
-0.6
 41
-30.0
 62
     5
 63
     7
 74
     1
 91
        4
 64
     7
 65
   257
 75
     1
175
     1
 42
1.0
 92
        0
 66
   257
 43
1.0
 76
     1
 77
     6
 78
     2
 67
     7
 79
     5
170
     0
171
     0
290
     0
174
     0
 93
        1
 44
0.0
173
     0
291
     0
 45
0.0
1001
ACAD
1000
AcDbSavedByObjectVersion
1070
     0
  0
VISUALSTYLE
  5
3B3
102
{ACAD_XDICTIONARY
360
2588
102
}
102
{ACAD_REACTORS
330
3AE
102
}
330
3AE
100
AcDbVisualStyle
  2

 70
     7
 71
     1
 72
     0
 73
     1
 90
        0
 40
-0.6
 41
-30.0
 62
     5
 63
     7
 74
     0
 91
        4
 64
     7
 65
   257
 75
     1
175
     1
 42
1.0
 92
        8
 66
     7
 43
1.0
 76
     1
 77
     6
 78
     2
 67
     7
 79
     5
170
     0
171
     0
290
     0
174
     0
 93
        1
 44
0.0
173
     0
291
     1
 45
0.0
1001
ACAD
1000
AcDbSavedByObjectVersion
1070
     0
  0
VISUALSTYLE
  5
3BA
102
{ACAD_XDICTIONARY
360
2596
102
}
102
{ACAD_REACTORS
330
3AE
102
}
330
3AE
100
AcDbVisualStyle
  2

 70
    12
 71
     2
 72
     2
 73
     0
 90
        0
 40
-0.6
 41
-30.0
 62
     5
 63
     7
 74
     1
 91
        4
 64
     7
 65
   257
 75
     1
175
     1
 42
1.0
 92
        8
 66
     7
 43
1.0
 76
     1
 77
     6
 78
     2
 67
     7
 79
     5
170
     0
171
     0
290
     0
174
     0
 93
        1
 44
50.0
173
     0
291
     1
 45
0.0
1001
ACAD
1000
AcDbSavedByObjectVersion
1070
     0
  0
VISUALSTYLE
  5
3BE
102
{ACAD_XDICTIONARY
360
259E
102
}
102
{ACAD_REACTORS
330
3AE
102
}
330
3AE
100
AcDbVisualStyle
  2

 70
    16
 71
     2
 72
     2
 73
     3
 90
        0
 40
-0.6
 41
-30.0
 62
     5
 63
     8
 74
     1
 91
        4
 64
     7
 65
   257
 75
     1
175
     1
 42
1.0
 92
        8
 66
     8
 43
1.0
 76
     1
 77
     6
 78
     2
 67
     7
 79
     5
170
     0
171
     0
290
     0
174
     0
 93
        1
 44
0.0
173
     0
291
     1
 45
0.0
1001
ACAD
1000
AcDbSavedByObjectVersion
1070
     0
  0
VISUALSTYLE
  5
3B7
102
{ACAD_XDICTIONARY
360
2590
102
}
102
{ACAD_REACTORS
330
3AE
102
}
330
3AE
100
AcDbVisualStyle
  2

 70
     9
 71
     3
 72
     2
 73
     0
 90
        0
 40
-0.6
 41
-30.0
 62
     5
 63
     7
 74
     2
 91
        2
 64
     7
 65
   257
 75
     1
175
     1
 42
179.0
 92
        8
 66
     7
 43
1.0
 76
     1
 77
     6
 78
     2
 67
     7
 79
     3
170
     0
171
     0
290
     0
174
     0
 93
        1
 44
0.0
173
     0
291
     0
 45
0.0
1001
ACAD
1000
AcDbSavedByObjectVersion
1070
     0
  0
VISUALSTYLE
  5
3B9
102
{ACAD_XDICTIONARY
360
2594
102
}
102
{ACAD_REACTORS
330
3AE
102
}
330
3AE
100
AcDbVisualStyle
  2

 70
    11
 71
     2
 72
     2
 73
     0
 90
        0
 40
-0.6
 41
-30.0
 62
     5
 63
     7
 74
     1
 91
        4
 64
     7
 65
   257
 75
     1
175
     1
 42
1.0
 92
        8
 66
     7
 43
1.0
 76
     1
 77
     6
 78
     2
 67
     7
 79
     5
170
     0
171
     0
290
     0
174
     0
 93
        1
 44
-50.0
173
     0
291
     1
 45
0.0
1001
ACAD
1000
AcDbSavedByObjectVersion
1070
     0
  0
VISUALSTYLE
  5
3C1
102
{ACAD_XDICTIONARY
360
25A4
102
}
102
{ACAD_REACTORS
330
3AE
102
}
330
3AE
100
AcDbVisualStyle
  2

 70
    22
 71
     2
 72
     2
 73
     0
 90
        0
 40
-0.6
 41
-30.0
 62
     5
 63
     7
 74
     1
 91
        4
 64
     7
 65
   257
 75
     1
175
     1
 42
1.0
 92
        8
 66
     7
 43
1.0
 76
     1
 77
     6
 78
     2
 67
     7
 79
     5
170
     0
171
     0
290
     0
174
     0
 93
        1
 44
0.0
173
     0
291
     1
 45
0.0
1001
ACAD
1000
AcDbSavedByObjectVersion
1070
     0
  0
VISUALSTYLE
  5
3BD
102
{ACAD_XDICTIONARY
360
259C
102
}
102
{ACAD_REACTORS
330
3AE
102
}
330
3AE
100
AcDbVisualStyle
  2

 70
    15
 71
     2
 72
     2
 73
     0
 90
        0
 40
-0.6
 41
-30.0
 62
     5
 63
     7
 74
     1
 91
        4
 64
     7
 65
   257
 75
     1
175
     1
 42
1.0
 92
        8
 66
     7
 43
1.0
 76
     1
 77
     6
 78
     2
 67
     7
 79
     5
170
     0
171
     0
290
     0
174
     0
 93
        1
 44
0.0
173
     0
291
     1
 45
0.0
1001
ACAD
1000
AcDbSavedByObjectVersion
1070
     0
  0
VISUALSTYLE
  5
3AF
102
{ACAD_XDICTIONARY
360
2580
102
}
102
{ACAD_REACTORS
330
3AE
102
}
330
3AE
100
AcDbVisualStyle
  2

 70
     0
 71
     2
 72
     1
 73
     1
 90
        2
 40
-0.6
 41
30.0
 62
     5
 63
     7
 74
     0
 91
        4
 64
     7
 65
   257
 75
     1
175
     1
 42
1.0
 92
        8
 66
     7
 43
1.0
 76
     1
 77
     6
 78
     2
 67
     7
 79
     5
170
     0
171
     0
290
     0
174
     0
 93
       13
 44
0.0
173
     0
291
     1
 45
0.0
1001
ACAD
1000
AcDbSavedByObjectVersion
1070
     0
  0
VISUALSTYLE
  5
3B0
102
{ACAD_XDICTIONARY
360
2582
102
}
102
{ACAD_REACTORS
330
3AE
102
}
330
3AE
100
AcDbVisualStyle
  2

 70
     1
 71
     2
 72
     1
 73
     1
 90
        2
 40
-0.6
 41
30.0
 62
     5
 63
     7
 74
     1
 91
        4
 64
     7
 65
   257
 75
     1
175
     1
 42
1.0
 92
        0
 66
   257
 43
1.0
 76
     1
 77
     6
 78
     2
 67
     7
 79
     5
170
     0
171
     0
290
     0
174
     0
 93
       13
 44
0.0
173
     0
291
     1
 45
0.0
1001
ACAD
1000
AcDbSavedByObjectVersion
1070
     0
  0
VISUALSTYLE
  5
3B1
102
{ACAD_XDICTIONARY
360
2584
102
}
102
{ACAD_REACTORS
330
3AE
102
}
330
3AE
100
AcDbVisualStyle
  2

 70
     2
 71
     2
 72
     2
 73
     1
 90
        2
 40
-0.6
 41
30.0
 62
     5
 63
     7
 74
     0
 91
        4
 64
     7
 65
   257
 75
     1
175
     1
 42
1.0
 92
        0
 66
     7
 43
1.0
 76
     1
 77
     6
 78
     2
 67
     7
 79
     5
170
     0
171
     0
290
     0
174
     0
 93
       13
 44
0.0
173
     0
291
     1
 45
0.0
1001
ACAD
1000
AcDbSavedByObjectVersion
1070
     0
  0
VISUALSTYLE
  5
3B2
102
{ACAD_XDICTIONARY
360
2586
102
}
102
{ACAD_REACTORS
330
3AE
102
}
330
3AE
100
AcDbVisualStyle
  2

 70
     3
 71
     2
 72
     2
 73
     1
 90
        2
 40
-0.6
 41
30.0
 62
     5
 63
     7
 74
     1
 91
        4
 64
     7
 65
   257
 75
     1
175
     1
 42
1.0
 92
        0
 66
   257
 43
1.0
 76
     1
 77
     6
 78
     2
 67
     7
 79
     5
170
     0
171
     0
290
     0
174
     0
 93
       13
 44
0.0
173
     0
291
     1
 45
0.0
1001
ACAD
1000
AcDbSavedByObjectVersion
1070
     0
  0
VISUALSTYLE
  5
3BF
102
{ACAD_XDICTIONARY
360
25A0
102
}
102
{ACAD_REACTORS
330
3AE
102
}
330
3AE
100
AcDbVisualStyle
  2

 70
    20
 71
     2
 72
     2
 73
     0
 90
        0
 40
-0.6
 41
-30.0
 62
     5
 63
     7
 74
     1
 91
        4
 64
     7
 65
   257
 75
     1
175
     1
 42
1.0
 92
       10
 66
     7
 43
1.0
 76
     1
 77
     6
 78
     2
 67
     7
 79
     5
170
     0
171
     0
290
     0
174
     0
 93
        1
 44
0.0
173
     0
291
     1
 45
0.0
1001
ACAD
1000
AcDbSavedByObjectVersion
1070
     0
  0
VISUALSTYLE
  5
3BC
102
{ACAD_XDICTIONARY
360
259A
102
}
102
{ACAD_REACTORS
330
3AE
102
}
330
3AE
100
AcDbVisualStyle
  2

 70
    14
 71
     2
 72
     2
 73
     0
 90
        0
 40
-0.6
 41
-30.0
 62
     5
 63
     7
 74
     1
 91
        4
 64
     7
 65
   257
 75
     7
175
     7
 42
1.0
 92
        8
 66
     7
 43
1.0
 76
     1
 77
     6
 78
     2
 67
     7
 79
     5
170
     0
171
     0
290
     0
174
     0
 93
        1
 44
0.0
173
     0
291
     1
 45
0.0
1001
ACAD
1000
AcDbSavedByObjectVersion
1070
     0
  0
VISUALSTYLE
  5
3C0
102
{ACAD_XDICTIONARY
360
25A2
102
}
102
{ACAD_REACTORS
330
3AE
102
}
330
3AE
100
AcDbVisualStyle
  2

 70
    21
 71
     2
 72
     2
 73
     0
 90
        0
 40
-0.6
 41
-30.0
 62
     5
 63
     7
 74
     1
 91
        4
 64
     7
 65
   257
 75
     1
175
     1
 42
1.0
 92
        9
 66
     7
 43
1.0
 76
     1
 77
     6
 78
     2
 67
     7
 79
     5
170
     0
171
     0
290
     0
174
     0
 93
        1
 44
0.0
173
     0
291
     1
 45
0.0
1001
ACAD
1000
AcDbSavedByObjectVersion
1070
     0
  0
VISUALSTYLE
  5
3B8
102
{ACAD_XDICTIONARY
360
2592
102
}
102
{ACAD_REACTORS
330
3AE
102
}
330
3AE
100
AcDbVisualStyle
  2

 70
     8
 71
     2
 72
     2
 73
     0
 90
        0
 40
-0.6
 41
-30.0
 62
     5
 63
     7
 74
     1
 91
        0
 64
     7
 65
   257
 75
     1
175
     1
 42
1.0
 92
        8
 66
     8
 43
1.0
 76
     1
 77
     6
 78
     2
 67
     7
 79
     5
170
     0
171
     0
290
     0
174
     0
 93
       13
 44
0.0
173
     0
291
     0
 45
0.0
1001
ACAD
1000
AcDbSavedByObjectVersion
1070
     0
  0
VISUALSTYLE
  5
3BB
102
{ACAD_XDICTIONARY
360
2598
102
}
102
{ACAD_REACTORS
330
3AE
102
}
330
3AE
100
AcDbVisualStyle
  2

 70
    13
 71
     2
 72
     2
 73
     0
 90
        0
 40
-0.6
 41
-30.0
 62
     5
 63
     7
 74
     1
 91
        4
 64
     7
 65
   257
 75
     1
175
     1
 42
1.0
 92
       12
 66
     7
 43
1.0
 76
     1
 77
     6
 78
     2
 67
     7
 79
     5
170
     0
171
     0
290
     0
174
     0
 93
        1
 44
0.0
173
     0
291
     1
 45
0.0
1001
ACAD
1000
AcDbSavedByObjectVersion
1070
     0
  0
DICTIONARYVAR
  5
7FC
102
{ACAD_REACTORS
330
7F8
102
}
330
7F8
100
DictionaryVariables
280
     0
  1
1:1
  0
DICTIONARYVAR
  5
7FA
102
{ACAD_REACTORS
330
7F8
102
}
330
7F8
100
DictionaryVariables
280
     0
  1
STANDARD
  0
DICTIONARYVAR
  5
7F9
102
{ACAD_REACTORS
330
7F8
102
}
330
7F8
100
DictionaryVariables
280
     0
  1
STANDARD
  0
DICTIONARYVAR
  5
803
102
{ACAD_REACTORS
330
7F8
102
}
330
7F8
100
DictionaryVariables
280
     0
  1
2
  0
DICTIONARYVAR
  5
802
102
{ACAD_REACTORS
330
7F8
102
}
330
7F8
100
DictionaryVariables
280
     0
  1
1
  0
DICTIONARYVAR
  5
801
102
{ACAD_REACTORS
330
7F8
102
}
330
7F8
100
DictionaryVariables
280
     0
  1
0
  0
DICTIONARYVAR
  5
7FE
102
{ACAD_REACTORS
330
7F8
102
}
330
7F8
100
DictionaryVariables
280
     0
  1
0
  0
DICTIONARYVAR
  5
7FF
102
{ACAD_REACTORS
330
7F8
102
}
330
7F8
100
DictionaryVariables
280
     0
  1
0
  0
DICTIONARYVAR
  5
7FD
102
{ACAD_REACTORS
330
7F8
102
}
330
7F8
100
DictionaryVariables
280
     0
  1
2
  0
DICTIONARYVAR
  5
7FB
102
{ACAD_REACTORS
330
7F8
102
}
330
7F8
100
DictionaryVariables
280
     0
  1
1
  0
DICTIONARYVAR
  5
800
102
{ACAD_REACTORS
330
7F8
102
}
330
7F8
100
DictionaryVariables
280
     0
  1
127
  0
DICTIONARYVAR
  5
2573
102
{ACAD_REACTORS
330
7F8
102
}
330
7F8
100
DictionaryVariables
280
     0
  1
2
  0
DICTIONARY
  5
43D
102
{ACAD_REACTORS
330
431
102
}
330
431
100
AcDbDictionary
281
     1
  0
DICTIONARY
  5
257E
330
391
100
AcDbDictionary
280
     1
281
     1
  3
ACAD_XREC_ROUNDTRIP
360
257F
  0
DICTIONARY
  5
257C
330
390
100
AcDbDictionary
280
     1
281
     1
  3
ACAD_XREC_ROUNDTRIP
360
257D
  0
DICTIONARY
  5
39F
330
39E
100
AcDbDictionary
280
     1
281
     1
  3
ACAD_XREC_ROUNDTRIP
360
80E
  3
BUMPTILE
360
3A1
  3
DIFFUSETILE
360
3A0
  3
OPACITYTILE
360
3A4
  3
REFLECTIONTILE
360
3A3
  3
REFRACTIONTILE
360
3A5
  3
SPECULARTILE
360
3A2
  0
DICTIONARY
  5
397
330
396
100
AcDbDictionary
280
     1
281
     1
  3
ACAD_XREC_ROUNDTRIP
360
80D
  3
BUMPTILE
360
399
  3
DIFFUSETILE
360
398
  3
OPACITYTILE
360
39C
  3
REFLECTIONTILE
360
39B
  3
REFRACTIONTILE
360
39D
  3
SPECULARTILE
360
39A
  0
DICTIONARY
  5
3A7
330
3A6
100
AcDbDictionary
280
     1
281
     1
  3
ACAD_XREC_ROUNDTRIP
360
80F
  3
BUMPTILE
360
3A9
  3
DIFFUSETILE
360
3A8
  3
OPACITYTILE
360
3AC
  3
REFLECTIONTILE
360
3AB
  3
REFRACTIONTILE
360
3AD
  3
SPECULARTILE
360
3AA
  0
DICTIONARY
  5
805
330
3C4
100
AcDbDictionary
280
     1
281
     1
  3
ACAD_ROUNDTRIP_2008_TABLESTYLE_CELLSTYLEMAP
360
2574
  3
ACAD_XREC_ROUNDTRIP
360
25A6
  0
DICTIONARY
  5
258A
330
3B4
100
AcDbDictionary
280
     1
281
     1
  3
ACAD_XREC_ROUNDTRIP
360
258B
  0
DICTIONARY
  5
258E
330
3B6
100
AcDbDictionary
280
     1
281
     1
  3
ACAD_XREC_ROUNDTRIP
360
258F
  0
DICTIONARY
  5
258C
330
3B5
100
AcDbDictionary
280
     1
281
     1
  3
ACAD_XREC_ROUNDTRIP
360
258D
  0
DICTIONARY
  5
2588
330
3B3
100
AcDbDictionary
280
     1
281
     1
  3
ACAD_XREC_ROUNDTRIP
360
2589
  0
DICTIONARY
  5
2596
330
3BA
100
AcDbDictionary
280
     1
281
     1
  3
ACAD_XREC_ROUNDTRIP
360
2597
  0
DICTIONARY
  5
259E
330
3BE
100
AcDbDictionary
280
     1
281
     1
  3
ACAD_XREC_ROUNDTRIP
360
259F
  0
DICTIONARY
  5
2590
330
3B7
100
AcDbDictionary
280
     1
281
     1
  3
ACAD_XREC_ROUNDTRIP
360
2591
  0
DICTIONARY
  5
2594
330
3B9
100
AcDbDictionary
280
     1
281
     1
  3
ACAD_XREC_ROUNDTRIP
360
2595
  0
DICTIONARY
  5
25A4
330
3C1
100
AcDbDictionary
280
     1
281
     1
  3
ACAD_XREC_ROUNDTRIP
360
25A5
  0
DICTIONARY
  5
259C
330
3BD
100
AcDbDictionary
280
     1
281
     1
  3
ACAD_XREC_ROUNDTRIP
360
259D
  0
DICTIONARY
  5
2580
330
3AF
100
AcDbDictionary
280
     1
281
     1
  3
ACAD_XREC_ROUNDTRIP
360
2581
  0
DICTIONARY
  5
2582
330
3B0
100
AcDbDictionary
280
     1
281
     1
  3
ACAD_XREC_ROUNDTRIP
360
2583
  0
DICTIONARY
  5
2584
330
3B1
100
AcDbDictionary
280
     1
281
     1
  3
ACAD_XREC_ROUNDTRIP
360
2585
  0
DICTIONARY
  5
2586
330
3B2
100
AcDbDictionary
280
     1
281
     1
  3
ACAD_XREC_ROUNDTRIP
360
2587
  0
DICTIONARY
  5
25A0
330
3BF
100
AcDbDictionary
280
     1
281
     1
  3
ACAD_XREC_ROUNDTRIP
360
25A1
  0
DICTIONARY
  5
259A
330
3BC
100
AcDbDictionary
280
     1
281
     1
  3
ACAD_XREC_ROUNDTRIP
360
259B
  0
DICTIONARY
  5
25A2
330
3C0
100
AcDbDictionary
280
     1
281
     1
  3
ACAD_XREC_ROUNDTRIP
360
25A3
  0
DICTIONARY
  5
2592
330
3B8
100
AcDbDictionary
280
     1
281
     1
  3
ACAD_XREC_ROUNDTRIP
360
2593
  0
DICTIONARY
  5
2598
330
3BB
100
AcDbDictionary
280
     1
281
     1
  3
ACAD_XREC_ROUNDTRIP
360
2599
  0
XRECORD
  5
257F
102
{ACAD_REACTORS
330
257E
102
}
330
257E
100
AcDbXrecord
280
     1
102
SHADEPLOT
 70
     0
102
SHADEPLOTRESLEVEL
 70
     2
102
SHADEPLOTCUSTOMDPI
 70
   300
  0
XRECORD
  5
257D
102
{ACAD_REACTORS
330
257C
102
}
330
257C
100
AcDbXrecord
280
     1
102
SHADEPLOT
 70
     0
102
SHADEPLOTRESLEVEL
 70
     2
102
SHADEPLOTCUSTOMDPI
 70
   300
  0
XRECORD
  5
80E
102
{ACAD_REACTORS
330
39F
102
}
330
39F
100
AcDbXrecord
280
     1
102
MATERIAL
148
0.0
149
0.0
149
0.0
 93
        0
 94
      127
282
     0
 72
     0
 77
     0
171
     0
175
     0
179
     0
273
     0
  0
XRECORD
  5
3A1
102
{ACAD_REACTORS
330
39F
102
}
330
39F
100
AcDbXrecord
280
     1
270
     1
271
     1
  0
XRECORD
  5
3A0
102
{ACAD_REACTORS
330
39F
102
}
330
39F
100
AcDbXrecord
280
     1
270
     1
271
     1
  0
XRECORD
  5
3A4
102
{ACAD_REACTORS
330
39F
102
}
330
39F
100
AcDbXrecord
280
     1
270
     1
271
     1
  0
XRECORD
  5
3A3
102
{ACAD_REACTORS
330
39F
102
}
330
39F
100
AcDbXrecord
280
     1
270
     1
271
     1
  0
XRECORD
  5
3A5
102
{ACAD_REACTORS
330
39F
102
}
330
39F
100
AcDbXrecord
280
     1
270
     1
271
     1
  0
XRECORD
  5
3A2
102
{ACAD_REACTORS
330
39F
102
}
330
39F
100
AcDbXrecord
280
     1
270
     1
271
     1
  0
XRECORD
  5
80D
102
{ACAD_REACTORS
330
397
102
}
330
397
100
AcDbXrecord
280
     1
102
MATERIAL
148
0.0
149
0.0
149
0.0
 93
        0
 94
      127
282
     0
 72
     0
 77
     0
171
     0
175
     0
179
     0
273
     0
  0
XRECORD
  5
399
102
{ACAD_REACTORS
330
397
102
}
330
397
100
AcDbXrecord
280
     1
270
     1
271
     1
  0
XRECORD
  5
398
102
{ACAD_REACTORS
330
397
102
}
330
397
100
AcDbXrecord
280
     1
270
     1
271
     1
  0
XRECORD
  5
39C
102
{ACAD_REACTORS
330
397
102
}
330
397
100
AcDbXrecord
280
     1
270
     1
271
     1
  0
XRECORD
  5
39B
102
{ACAD_REACTORS
330
397
102
}
330
397
100
AcDbXrecord
280
     1
270
     1
271
     1
  0
XRECORD
  5
39D
102
{ACAD_REACTORS
330
397
102
}
330
397
100
AcDbXrecord
280
     1
270
     1
271
     1
  0
XRECORD
  5
39A
102
{ACAD_REACTORS
330
397
102
}
330
397
100
AcDbXrecord
280
     1
270
     1
271
     1
  0
XRECORD
  5
80F
102
{ACAD_REACTORS
330
3A7
102
}
330
3A7
100
AcDbXrecord
280
     1
102
MATERIAL
148
0.0
149
0.0
149
0.0
 93
        0
 94
      127
282
     0
 72
     0
 77
     0
171
     0
175
     0
179
     0
273
     0
  0
XRECORD
  5
3A9
102
{ACAD_REACTORS
330
3A7
102
}
330
3A7
100
AcDbXrecord
280
     1
270
     1
271
     1
  0
XRECORD
  5
3A8
102
{ACAD_REACTORS
330
3A7
102
}
330
3A7
100
AcDbXrecord
280
     1
270
     1
271
     1
  0
XRECORD
  5
3AC
102
{ACAD_REACTORS
330
3A7
102
}
330
3A7
100
AcDbXrecord
280
     1
270
     1
271
     1
  0
XRECORD
  5
3AB
102
{ACAD_REACTORS
330
3A7
102
}
330
3A7
100
AcDbXrecord
280
     1
270
     1
271
     1
  0
XRECORD
  5
3AD
102
{ACAD_REACTORS
330
3A7
102
}
330
3A7
100
AcDbXrecord
280
     1
270
     1
271
     1
  0
XRECORD
  5
3AA
102
{ACAD_REACTORS
330
3A7
102
}
330
3A7
100
AcDbXrecord
280
     1
270
     1
271
     1
  0
CELLSTYLEMAP
  5
2574
102
{ACAD_REACTORS
330
805
102
}
330
805
100
AcDbCellStyleMap
 90
        3
300
CELLSTYLE
  1
TABLEFORMAT_BEGIN
 90
        5
170
     1
 91
        0
 92
    32768
 62
   257
 93
        1
300
CONTENTFORMAT
  1
CONTENTFORMAT_BEGIN
 90
        0
 91
        0
 92
      512
 93
        0
300

 40
0.0
140
1.0
 94
        5
 62
     0
340
11
144
6.0
309
CONTENTFORMAT_END
171
     1
301
MARGIN
  1
CELLMARGIN_BEGIN
 40
1.5
 40
1.5
 40
1.5
 40
1.5
 40
0.18
 40
0.18
309
CELLMARGIN_END
 94
        6
 95
        1
302
GRIDFORMAT
  1
GRIDFORMAT_BEGIN
 90
        0
 91
        1
 62
     0
 92
       -2
340
0
 93
        0
 40
1.125
309
GRIDFORMAT_END
 95
        2
302
GRIDFORMAT
  1
GRIDFORMAT_BEGIN
 90
        0
 91
        1
 62
     0
 92
       -2
340
0
 93
        0
 40
1.125
309
GRIDFORMAT_END
 95
        4
302
GRIDFORMAT
  1
GRIDFORMAT_BEGIN
 90
        0
 91
        1
 62
     0
 92
       -2
340
0
 93
        0
 40
1.125
309
GRIDFORMAT_END
 95
        8
302
GRIDFORMAT
  1
GRIDFORMAT_BEGIN
 90
        0
 91
        1
 62
     0
 92
       -2
340
0
 93
        0
 40
1.125
309
GRIDFORMAT_END
 95
       16
302
GRIDFORMAT
  1
GRIDFORMAT_BEGIN
 90
        0
 91
        1
 62
     0
 92
       -2
340
0
 93
        0
 40
1.125
309
GRIDFORMAT_END
 95
       32
302
GRIDFORMAT
  1
GRIDFORMAT_BEGIN
 90
        0
 91
        1
 62
     0
 92
       -2
340
0
 93
        0
 40
1.125
309
GRIDFORMAT_END
309
TABLEFORMAT_END
  1
CELLSTYLE_BEGIN
 90
        1
 91
        1
300
_TITLE
309
CELLSTYLE_END
300
CELLSTYLE
  1
TABLEFORMAT_BEGIN
 90
        5
170
     1
 91
        0
 92
        0
 62
   257
 93
        1
300
CONTENTFORMAT
  1
CONTENTFORMAT_BEGIN
 90
        0
 91
        0
 92
      512
 93
        0
300

 40
0.0
140
1.0
 94
        5
 62
     0
340
11
144
4.5
309
CONTENTFORMAT_END
171
     1
301
MARGIN
  1
CELLMARGIN_BEGIN
 40
1.5
 40
1.5
 40
1.5
 40
1.5
 40
0.18
 40
0.18
309
CELLMARGIN_END
 94
        6
 95
        1
302
GRIDFORMAT
  1
GRIDFORMAT_BEGIN
 90
        0
 91
        1
 62
     0
 92
       -2
340
0
 93
        0
 40
1.125
309
GRIDFORMAT_END
 95
        2
302
GRIDFORMAT
  1
GRIDFORMAT_BEGIN
 90
        0
 91
        1
 62
     0
 92
       -2
340
0
 93
        0
 40
1.125
309
GRIDFORMAT_END
 95
        4
302
GRIDFORMAT
  1
GRIDFORMAT_BEGIN
 90
        0
 91
        1
 62
     0
 92
       -2
340
0
 93
        0
 40
1.125
309
GRIDFORMAT_END
 95
        8
302
GRIDFORMAT
  1
GRIDFORMAT_BEGIN
 90
        0
 91
        1
 62
     0
 92
       -2
340
0
 93
        0
 40
1.125
309
GRIDFORMAT_END
 95
       16
302
GRIDFORMAT
  1
GRIDFORMAT_BEGIN
 90
        0
 91
        1
 62
     0
 92
       -2
340
0
 93
        0
 40
1.125
309
GRIDFORMAT_END
 95
       32
302
GRIDFORMAT
  1
GRIDFORMAT_BEGIN
 90
        0
 91
        1
 62
     0
 92
       -2
340
0
 93
        0
 40
1.125
309
GRIDFORMAT_END
309
TABLEFORMAT_END
  1
CELLSTYLE_BEGIN
 90
        2
 91
        1
300
_HEADER
309
CELLSTYLE_END
300
CELLSTYLE
  1
TABLEFORMAT_BEGIN
 90
        5
170
     1
 91
        0
 92
        0
 62
   257
 93
        1
300
CONTENTFORMAT
  1
CONTENTFORMAT_BEGIN
 90
        0
 91
        0
 92
      512
 93
        0
300

 40
0.0
140
1.0
 94
        2
 62
     0
340
11
144
4.5
309
CONTENTFORMAT_END
171
     1
301
MARGIN
  1
CELLMARGIN_BEGIN
 40
1.5
 40
1.5
 40
1.5
 40
1.5
 40
0.18
 40
0.18
309
CELLMARGIN_END
 94
        6
 95
        1
302
GRIDFORMAT
  1
GRIDFORMAT_BEGIN
 90
        0
 91
        1
 62
     0
 92
       -2
340
0
 93
        0
 40
1.125
309
GRIDFORMAT_END
 95
        2
302
GRIDFORMAT
  1
GRIDFORMAT_BEGIN
 90
        0
 91
        1
 62
     0
 92
       -2
340
0
 93
        0
 40
1.125
309
GRIDFORMAT_END
 95
        4
302
GRIDFORMAT
  1
GRIDFORMAT_BEGIN
 90
        0
 91
        1
 62
     0
 92
       -2
340
0
 93
        0
 40
1.125
309
GRIDFORMAT_END
 95
        8
302
GRIDFORMAT
  1
GRIDFORMAT_BEGIN
 90
        0
 91
        1
 62
     0
 92
       -2
340
0
 93
        0
 40
1.125
309
GRIDFORMAT_END
 95
       16
302
GRIDFORMAT
  1
GRIDFORMAT_BEGIN
 90
        0
 91
        1
 62
     0
 92
       -2
340
0
 93
        0
 40
1.125
309
GRIDFORMAT_END
 95
       32
302
GRIDFORMAT
  1
GRIDFORMAT_BEGIN
 90
        0
 91
        1
 62
     0
 92
       -2
340
0
 93
        0
 40
1.125
309
GRIDFORMAT_END
309
TABLEFORMAT_END
  1
CELLSTYLE_BEGIN
 90
        3
 91
        2
300
_DATA
309
CELLSTYLE_END
  0
XRECORD
  5
25A6
102
{ACAD_REACTORS
330
805
102
}
330
805
100
AcDbXrecord
280
     1
102
ACAD_ROUNDTRIP_PRE2007_TABLESTYLE
 90
      512
 91
        0
  1

 92
      512
 93
        0
  2

 94
      512
 95
        0
  3

  0
XRECORD
  5
258B
102
{ACAD_REACTORS
330
258A
102
}
330
258A
100
AcDbXrecord
280
     1
102
RTVSPropertyOp0
 70
     1
102
RTVSPropertyOp1
 70
     1
102
RTVSPropertyOp2
 70
     1
102
RTVSPropertyOp3
 70
     1
102
RTVSPropertyOp4
 70
     1
102
RTVSPropertyOp5
 70
     1
102
RTVSPropertyOp6
 70
     1
102
RTVSPropertyOp7
 70
     1
102
RTVSPropertyOp8
 70
     1
102
RTVSPropertyOp9
 70
     1
102
RTVSPropertyOp10
 70
     1
102
RTVSPropertyOp11
 70
     1
102
RTVSPropertyOp12
 70
     1
102
RTVSPropertyOp13
 70
     1
102
RTVSPropertyOp14
 70
     1
102
RTVSPropertyOp15
 70
     1
102
RTVSPropertyOp16
 70
     1
102
RTVSPropertyOp17
 70
     1
102
RTVSPropertyOp18
 70
     1
102
RTVSPropertyOp19
 70
     1
102
RTVSPropertyOp20
 70
     1
102
RTVSPropertyOp21
 70
     1
102
RTVSPropertyOp22
 70
     1
102
RTVSPropertyOp23
 70
     1
102
RTVSPropertyOp24
 70
     1
102
RTVSPropertyOp25
 70
     1
102
RTVSPropertyOp26
 70
     1
102
RTVSPropertyOp27
 70
     1
  0
XRECORD
  5
258F
102
{ACAD_REACTORS
330
258E
102
}
330
258E
100
AcDbXrecord
280
     1
102
RTVSPropertyOp0
 70
     1
102
RTVSPropertyOp1
 70
     1
102
RTVSPropertyOp2
 70
     1
102
RTVSPropertyOp3
 70
     1
102
RTVSPropertyOp4
 70
     1
102
RTVSPropertyOp5
 70
     1
102
RTVSPropertyOp6
 70
     1
102
RTVSPropertyOp7
 70
     1
102
RTVSPropertyOp8
 70
     1
102
RTVSPropertyOp9
 70
     1
102
RTVSPropertyOp10
 70
     1
102
RTVSPropertyOp11
 70
     1
102
RTVSPropertyOp12
 70
     1
102
RTVSPropertyOp13
 70
     1
102
RTVSPropertyOp14
 70
     1
102
RTVSPropertyOp15
 70
     1
102
RTVSPropertyOp16
 70
     1
102
RTVSPropertyOp17
 70
     1
102
RTVSPropertyOp18
 70
     1
102
RTVSPropertyOp19
 70
     1
102
RTVSPropertyOp20
 70
     1
102
RTVSPropertyOp21
 70
     1
102
RTVSPropertyOp22
 70
     1
102
RTVSPropertyOp23
 70
     1
102
RTVSPropertyOp24
 70
     1
102
RTVSPropertyOp25
 70
     1
102
RTVSPropertyOp26
 70
     1
102
RTVSPropertyOp27
 70
     1
  0
XRECORD
  5
258D
102
{ACAD_REACTORS
330
258C
102
}
330
258C
100
AcDbXrecord
280
     1
102
RTVSPropertyOp0
 70
     1
102
RTVSPropertyOp1
 70
     1
102
RTVSPropertyOp2
 70
     1
102
RTVSPropertyOp3
 70
     1
102
RTVSPropertyOp4
 70
     1
102
RTVSPropertyOp5
 70
     1
102
RTVSPropertyOp6
 70
     1
102
RTVSPropertyOp7
 70
     1
102
RTVSPropertyOp8
 70
     1
102
RTVSPropertyOp9
 70
     1
102
RTVSPropertyOp10
 70
     1
102
RTVSPropertyOp11
 70
     1
102
RTVSPropertyOp12
 70
     1
102
RTVSPropertyOp13
 70
     1
102
RTVSPropertyOp14
 70
     1
102
RTVSPropertyOp15
 70
     1
102
RTVSPropertyOp16
 70
     1
102
RTVSPropertyOp17
 70
     1
102
RTVSPropertyOp18
 70
     1
102
RTVSPropertyOp19
 70
     1
102
RTVSPropertyOp20
 70
     1
102
RTVSPropertyOp21
 70
     1
102
RTVSPropertyOp22
 70
     1
102
RTVSPropertyOp23
 70
     1
102
RTVSPropertyOp24
 70
     1
102
RTVSPropertyOp25
 70
     1
102
RTVSPropertyOp26
 70
     1
102
RTVSPropertyOp27
 70
     1
  0
XRECORD
  5
2589
102
{ACAD_REACTORS
330
2588
102
}
330
2588
100
AcDbXrecord
280
     1
102
RTVSPropertyOp0
 70
     1
102
RTVSPropertyOp1
 70
     1
102
RTVSPropertyOp2
 70
     1
102
RTVSPropertyOp3
 70
     1
102
RTVSPropertyOp4
 70
     1
102
RTVSPropertyOp5
 70
     1
102
RTVSPropertyOp6
 70
     1
102
RTVSPropertyOp7
 70
     1
102
RTVSPropertyOp8
 70
     1
102
RTVSPropertyOp9
 70
     1
102
RTVSPropertyOp10
 70
     1
102
RTVSPropertyOp11
 70
     1
102
RTVSPropertyOp12
 70
     1
102
RTVSPropertyOp13
 70
     1
102
RTVSPropertyOp14
 70
     1
102
RTVSPropertyOp15
 70
     1
102
RTVSPropertyOp16
 70
     1
102
RTVSPropertyOp17
 70
     1
102
RTVSPropertyOp18
 70
     1
102
RTVSPropertyOp19
 70
     1
102
RTVSPropertyOp20
 70
     1
102
RTVSPropertyOp21
 70
     1
102
RTVSPropertyOp22
 70
     1
102
RTVSPropertyOp23
 70
     1
102
RTVSPropertyOp24
 70
     1
102
RTVSPropertyOp25
 70
     1
102
RTVSPropertyOp26
 70
     1
102
RTVSPropertyOp27
 70
     1
  0
XRECORD
  5
2597
102
{ACAD_REACTORS
330
2596
102
}
330
2596
100
AcDbXrecord
280
     1
102
RTVSPropertyOp0
 70
     1
102
RTVSPropertyOp1
 70
     1
102
RTVSPropertyOp2
 70
     1
102
RTVSPropertyOp3
 70
     1
102
RTVSPropertyOp4
 70
     1
102
RTVSPropertyOp5
 70
     1
102
RTVSPropertyOp6
 70
     1
102
RTVSPropertyOp7
 70
     1
102
RTVSPropertyOp8
 70
     1
102
RTVSPropertyOp9
 70
     1
102
RTVSPropertyOp10
 70
     1
102
RTVSPropertyOp11
 70
     1
102
RTVSPropertyOp12
 70
     1
102
RTVSPropertyOp13
 70
     1
102
RTVSPropertyOp14
 70
     1
102
RTVSPropertyOp15
 70
     1
102
RTVSPropertyOp16
 70
     1
102
RTVSPropertyOp17
 70
     1
102
RTVSPropertyOp18
 70
     1
102
RTVSPropertyOp19
 70
     1
102
RTVSPropertyOp20
 70
     1
102
RTVSPropertyOp21
 70
     1
102
RTVSPropertyOp22
 70
     1
102
RTVSPropertyOp23
 70
     1
102
RTVSPropertyOp24
 70
     1
102
RTVSPropertyOp25
 70
     1
102
RTVSPropertyOp26
 70
     1
102
RTVSPropertyOp27
 70
     1
  0
XRECORD
  5
259F
102
{ACAD_REACTORS
330
259E
102
}
330
259E
100
AcDbXrecord
280
     1
102
RTVSPropertyOp0
 70
     1
102
RTVSPropertyOp1
 70
     1
102
RTVSPropertyOp2
 70
     1
102
RTVSPropertyOp3
 70
     1
102
RTVSPropertyOp4
 70
     1
102
RTVSPropertyOp5
 70
     1
102
RTVSPropertyOp6
 70
     1
102
RTVSPropertyOp7
 70
     1
102
RTVSPropertyOp8
 70
     1
102
RTVSPropertyOp9
 70
     1
102
RTVSPropertyOp10
 70
     1
102
RTVSPropertyOp11
 70
     1
102
RTVSPropertyOp12
 70
     1
102
RTVSPropertyOp13
 70
     1
102
RTVSPropertyOp14
 70
     1
102
RTVSPropertyOp15
 70
     1
102
RTVSPropertyOp16
 70
     1
102
RTVSPropertyOp17
 70
     1
102
RTVSPropertyOp18
 70
     1
102
RTVSPropertyOp19
 70
     1
102
RTVSPropertyOp20
 70
     1
102
RTVSPropertyOp21
 70
     1
102
RTVSPropertyOp22
 70
     1
102
RTVSPropertyOp23
 70
     1
102
RTVSPropertyOp24
 70
     1
102
RTVSPropertyOp25
 70
     1
102
RTVSPropertyOp26
 70
     1
102
RTVSPropertyOp27
 70
     1
  0
XRECORD
  5
2591
102
{ACAD_REACTORS
330
2590
102
}
330
2590
100
AcDbXrecord
280
     1
102
RTVSPropertyOp0
 70
     1
102
RTVSPropertyOp1
 70
     1
102
RTVSPropertyOp2
 70
     1
102
RTVSPropertyOp3
 70
     1
102
RTVSPropertyOp4
 70
     1
102
RTVSPropertyOp5
 70
     1
102
RTVSPropertyOp6
 70
     1
102
RTVSPropertyOp7
 70
     1
102
RTVSPropertyOp8
 70
     1
102
RTVSPropertyOp9
 70
     1
102
RTVSPropertyOp10
 70
     1
102
RTVSPropertyOp11
 70
     1
102
RTVSPropertyOp12
 70
     1
102
RTVSPropertyOp13
 70
     1
102
RTVSPropertyOp14
 70
     1
102
RTVSPropertyOp15
 70
     1
102
RTVSPropertyOp16
 70
     1
102
RTVSPropertyOp17
 70
     1
102
RTVSPropertyOp18
 70
     1
102
RTVSPropertyOp19
 70
     1
102
RTVSPropertyOp20
 70
     1
102
RTVSPropertyOp21
 70
     1
102
RTVSPropertyOp22
 70
     1
102
RTVSPropertyOp23
 70
     1
102
RTVSPropertyOp24
 70
     1
102
RTVSPropertyOp25
 70
     1
102
RTVSPropertyOp26
 70
     1
102
RTVSPropertyOp27
 70
     1
  0
XRECORD
  5
2595
102
{ACAD_REACTORS
330
2594
102
}
330
2594
100
AcDbXrecord
280
     1
102
RTVSPropertyOp0
 70
     1
102
RTVSPropertyOp1
 70
     1
102
RTVSPropertyOp2
 70
     1
102
RTVSPropertyOp3
 70
     1
102
RTVSPropertyOp4
 70
     1
102
RTVSPropertyOp5
 70
     1
102
RTVSPropertyOp6
 70
     1
102
RTVSPropertyOp7
 70
     1
102
RTVSPropertyOp8
 70
     1
102
RTVSPropertyOp9
 70
     1
102
RTVSPropertyOp10
 70
     1
102
RTVSPropertyOp11
 70
     1
102
RTVSPropertyOp12
 70
     1
102
RTVSPropertyOp13
 70
     1
102
RTVSPropertyOp14
 70
     1
102
RTVSPropertyOp15
 70
     1
102
RTVSPropertyOp16
 70
     1
102
RTVSPropertyOp17
 70
     1
102
RTVSPropertyOp18
 70
     1
102
RTVSPropertyOp19
 70
     1
102
RTVSPropertyOp20
 70
     1
102
RTVSPropertyOp21
 70
     1
102
RTVSPropertyOp22
 70
     1
102
RTVSPropertyOp23
 70
     1
102
RTVSPropertyOp24
 70
     1
102
RTVSPropertyOp25
 70
     1
102
RTVSPropertyOp26
 70
     1
102
RTVSPropertyOp27
 70
     1
  0
XRECORD
  5
25A5
102
{ACAD_REACTORS
330
25A4
102
}
330
25A4
100
AcDbXrecord
280
     1
102
RTVSPropertyOp0
 70
     0
102
RTVSPropertyOp1
 70
     0
102
RTVSPropertyOp2
 70
     0
102
RTVSPropertyOp3
 70
     0
102
RTVSPropertyOp4
 70
     0
102
RTVSPropertyOp5
 70
     0
102
RTVSPropertyOp6
 70
     0
102
RTVSPropertyOp7
 70
     0
102
RTVSPropertyOp8
 70
     0
102
RTVSPropertyOp9
 70
     0
102
RTVSPropertyOp10
 70
     0
102
RTVSPropertyOp11
 70
     0
102
RTVSPropertyOp12
 70
     0
102
RTVSPropertyOp13
 70
     0
102
RTVSPropertyOp14
 70
     2
102
RTVSPropertyOp15
 70
     0
102
RTVSPropertyOp16
 70
     0
102
RTVSPropertyOp17
 70
     0
102
RTVSPropertyOp18
 70
     0
102
RTVSPropertyOp19
 70
     0
102
RTVSPropertyOp20
 70
     0
102
RTVSPropertyOp21
 70
     0
102
RTVSPropertyOp22
 70
     0
102
RTVSPropertyOp23
 70
     0
102
RTVSPropertyOp24
 70
     0
102
RTVSPropertyOp25
 70
     0
102
RTVSPropertyOp26
 70
     0
102
RTVSPropertyOp27
 70
     0
  0
XRECORD
  5
259D
102
{ACAD_REACTORS
330
259C
102
}
330
259C
100
AcDbXrecord
280
     1
102
RTVSPropertyOp0
 70
     1
102
RTVSPropertyOp1
 70
     1
102
RTVSPropertyOp2
 70
     1
102
RTVSPropertyOp3
 70
     1
102
RTVSPropertyOp4
 70
     1
102
RTVSPropertyOp5
 70
     1
102
RTVSPropertyOp6
 70
     1
102
RTVSPropertyOp7
 70
     1
102
RTVSPropertyOp8
 70
     1
102
RTVSPropertyOp9
 70
     1
102
RTVSPropertyOp10
 70
     1
102
RTVSPropertyOp11
 70
     1
102
RTVSPropertyOp12
 70
     1
102
RTVSPropertyOp13
 70
     1
102
RTVSPropertyOp14
 70
     1
102
RTVSPropertyOp15
 70
     1
102
RTVSPropertyOp16
 70
     1
102
RTVSPropertyOp17
 70
     1
102
RTVSPropertyOp18
 70
     1
102
RTVSPropertyOp19
 70
     1
102
RTVSPropertyOp20
 70
     1
102
RTVSPropertyOp21
 70
     1
102
RTVSPropertyOp22
 70
     1
102
RTVSPropertyOp23
 70
     1
102
RTVSPropertyOp24
 70
     1
102
RTVSPropertyOp25
 70
     1
102
RTVSPropertyOp26
 70
     1
102
RTVSPropertyOp27
 70
     1
  0
XRECORD
  5
2581
102
{ACAD_REACTORS
330
2580
102
}
330
2580
100
AcDbXrecord
280
     1
102
RTVSPropertyOp0
 70
     1
102
RTVSPropertyOp1
 70
     1
102
RTVSPropertyOp2
 70
     1
102
RTVSPropertyOp3
 70
     1
102
RTVSPropertyOp4
 70
     1
102
RTVSPropertyOp5
 70
     1
102
RTVSPropertyOp6
 70
     1
102
RTVSPropertyOp7
 70
     1
102
RTVSPropertyOp8
 70
     1
102
RTVSPropertyOp9
 70
     1
102
RTVSPropertyOp10
 70
     1
102
RTVSPropertyOp11
 70
     1
102
RTVSPropertyOp12
 70
     1
102
RTVSPropertyOp13
 70
     1
102
RTVSPropertyOp14
 70
     1
102
RTVSPropertyOp15
 70
     1
102
RTVSPropertyOp16
 70
     1
102
RTVSPropertyOp17
 70
     1
102
RTVSPropertyOp18
 70
     1
102
RTVSPropertyOp19
 70
     1
102
RTVSPropertyOp20
 70
     1
102
RTVSPropertyOp21
 70
     1
102
RTVSPropertyOp22
 70
     1
102
RTVSPropertyOp23
 70
     1
102
RTVSPropertyOp24
 70
     1
102
RTVSPropertyOp25
 70
     1
102
RTVSPropertyOp26
 70
     1
102
RTVSPropertyOp27
 70
     1
  0
XRECORD
  5
2583
102
{ACAD_REACTORS
330
2582
102
}
330
2582
100
AcDbXrecord
280
     1
102
RTVSPropertyOp0
 70
     1
102
RTVSPropertyOp1
 70
     1
102
RTVSPropertyOp2
 70
     1
102
RTVSPropertyOp3
 70
     1
102
RTVSPropertyOp4
 70
     1
102
RTVSPropertyOp5
 70
     1
102
RTVSPropertyOp6
 70
     1
102
RTVSPropertyOp7
 70
     1
102
RTVSPropertyOp8
 70
     1
102
RTVSPropertyOp9
 70
     1
102
RTVSPropertyOp10
 70
     1
102
RTVSPropertyOp11
 70
     1
102
RTVSPropertyOp12
 70
     1
102
RTVSPropertyOp13
 70
     1
102
RTVSPropertyOp14
 70
     1
102
RTVSPropertyOp15
 70
     1
102
RTVSPropertyOp16
 70
     1
102
RTVSPropertyOp17
 70
     1
102
RTVSPropertyOp18
 70
     1
102
RTVSPropertyOp19
 70
     1
102
RTVSPropertyOp20
 70
     1
102
RTVSPropertyOp21
 70
     1
102
RTVSPropertyOp22
 70
     1
102
RTVSPropertyOp23
 70
     1
102
RTVSPropertyOp24
 70
     1
102
RTVSPropertyOp25
 70
     1
102
RTVSPropertyOp26
 70
     1
102
RTVSPropertyOp27
 70
     1
  0
XRECORD
  5
2585
102
{ACAD_REACTORS
330
2584
102
}
330
2584
100
AcDbXrecord
280
     1
102
RTVSPropertyOp0
 70
     1
102
RTVSPropertyOp1
 70
     1
102
RTVSPropertyOp2
 70
     1
102
RTVSPropertyOp3
 70
     1
102
RTVSPropertyOp4
 70
     1
102
RTVSPropertyOp5
 70
     1
102
RTVSPropertyOp6
 70
     1
102
RTVSPropertyOp7
 70
     1
102
RTVSPropertyOp8
 70
     1
102
RTVSPropertyOp9
 70
     1
102
RTVSPropertyOp10
 70
     1
102
RTVSPropertyOp11
 70
     1
102
RTVSPropertyOp12
 70
     1
102
RTVSPropertyOp13
 70
     1
102
RTVSPropertyOp14
 70
     1
102
RTVSPropertyOp15
 70
     1
102
RTVSPropertyOp16
 70
     1
102
RTVSPropertyOp17
 70
     1
102
RTVSPropertyOp18
 70
     1
102
RTVSPropertyOp19
 70
     1
102
RTVSPropertyOp20
 70
     1
102
RTVSPropertyOp21
 70
     1
102
RTVSPropertyOp22
 70
     1
102
RTVSPropertyOp23
 70
     1
102
RTVSPropertyOp24
 70
     1
102
RTVSPropertyOp25
 70
     1
102
RTVSPropertyOp26
 70
     1
102
RTVSPropertyOp27
 70
     1
  0
XRECORD
  5
2587
102
{ACAD_REACTORS
330
2586
102
}
330
2586
100
AcDbXrecord
280
     1
102
RTVSPropertyOp0
 70
     1
102
RTVSPropertyOp1
 70
     1
102
RTVSPropertyOp2
 70
     1
102
RTVSPropertyOp3
 70
     1
102
RTVSPropertyOp4
 70
     1
102
RTVSPropertyOp5
 70
     1
102
RTVSPropertyOp6
 70
     1
102
RTVSPropertyOp7
 70
     1
102
RTVSPropertyOp8
 70
     1
102
RTVSPropertyOp9
 70
     1
102
RTVSPropertyOp10
 70
     1
102
RTVSPropertyOp11
 70
     1
102
RTVSPropertyOp12
 70
     1
102
RTVSPropertyOp13
 70
     1
102
RTVSPropertyOp14
 70
     1
102
RTVSPropertyOp15
 70
     1
102
RTVSPropertyOp16
 70
     1
102
RTVSPropertyOp17
 70
     1
102
RTVSPropertyOp18
 70
     1
102
RTVSPropertyOp19
 70
     1
102
RTVSPropertyOp20
 70
     1
102
RTVSPropertyOp21
 70
     1
102
RTVSPropertyOp22
 70
     1
102
RTVSPropertyOp23
 70
     1
102
RTVSPropertyOp24
 70
     1
102
RTVSPropertyOp25
 70
     1
102
RTVSPropertyOp26
 70
     1
102
RTVSPropertyOp27
 70
     1
  0
XRECORD
  5
25A1
102
{ACAD_REACTORS
330
25A0
102
}
330
25A0
100
AcDbXrecord
280
     1
102
RTVSPropertyOp0
 70
     0
102
RTVSPropertyOp1
 70
     0
102
RTVSPropertyOp2
 70
     0
102
RTVSPropertyOp3
 70
     0
102
RTVSPropertyOp4
 70
     0
102
RTVSPropertyOp5
 70
     0
102
RTVSPropertyOp6
 70
     0
102
RTVSPropertyOp7
 70
     0
102
RTVSPropertyOp8
 70
     0
102
RTVSPropertyOp9
 70
     0
102
RTVSPropertyOp10
 70
     0
102
RTVSPropertyOp11
 70
     0
102
RTVSPropertyOp12
 70
     0
102
RTVSPropertyOp13
 70
     0
102
RTVSPropertyOp14
 70
     2
102
RTVSPropertyOp15
 70
     0
102
RTVSPropertyOp16
 70
     0
102
RTVSPropertyOp17
 70
     0
102
RTVSPropertyOp18
 70
     0
102
RTVSPropertyOp19
 70
     0
102
RTVSPropertyOp20
 70
     0
102
RTVSPropertyOp21
 70
     0
102
RTVSPropertyOp22
 70
     0
102
RTVSPropertyOp23
 70
     0
102
RTVSPropertyOp24
 70
     0
102
RTVSPropertyOp25
 70
     0
102
RTVSPropertyOp26
 70
     0
102
RTVSPropertyOp27
 70
     0
  0
XRECORD
  5
259B
102
{ACAD_REACTORS
330
259A
102
}
330
259A
100
AcDbXrecord
280
     1
102
RTVSPropertyOp0
 70
     1
102
RTVSPropertyOp1
 70
     1
102
RTVSPropertyOp2
 70
     1
102
RTVSPropertyOp3
 70
     1
102
RTVSPropertyOp4
 70
     1
102
RTVSPropertyOp5
 70
     1
102
RTVSPropertyOp6
 70
     1
102
RTVSPropertyOp7
 70
     1
102
RTVSPropertyOp8
 70
     1
102
RTVSPropertyOp9
 70
     1
102
RTVSPropertyOp10
 70
     1
102
RTVSPropertyOp11
 70
     1
102
RTVSPropertyOp12
 70
     1
102
RTVSPropertyOp13
 70
     1
102
RTVSPropertyOp14
 70
     1
102
RTVSPropertyOp15
 70
     1
102
RTVSPropertyOp16
 70
     1
102
RTVSPropertyOp17
 70
     1
102
RTVSPropertyOp18
 70
     1
102
RTVSPropertyOp19
 70
     1
102
RTVSPropertyOp20
 70
     1
102
RTVSPropertyOp21
 70
     1
102
RTVSPropertyOp22
 70
     1
102
RTVSPropertyOp23
 70
     1
102
RTVSPropertyOp24
 70
     1
102
RTVSPropertyOp25
 70
     1
102
RTVSPropertyOp26
 70
     1
102
RTVSPropertyOp27
 70
     1
  0
XRECORD
  5
25A3
102
{ACAD_REACTORS
330
25A2
102
}
330
25A2
100
AcDbXrecord
280
     1
102
RTVSPropertyOp0
 70
     0
102
RTVSPropertyOp1
 70
     0
102
RTVSPropertyOp2
 70
     0
102
RTVSPropertyOp3
 70
     0
102
RTVSPropertyOp4
 70
     0
102
RTVSPropertyOp5
 70
     0
102
RTVSPropertyOp6
 70
     0
102
RTVSPropertyOp7
 70
     0
102
RTVSPropertyOp8
 70
     0
102
RTVSPropertyOp9
 70
     0
102
RTVSPropertyOp10
 70
     0
102
RTVSPropertyOp11
 70
     0
102
RTVSPropertyOp12
 70
     0
102
RTVSPropertyOp13
 70
     0
102
RTVSPropertyOp14
 70
     2
102
RTVSPropertyOp15
 70
     0
102
RTVSPropertyOp16
 70
     0
102
RTVSPropertyOp17
 70
     0
102
RTVSPropertyOp18
 70
     0
102
RTVSPropertyOp19
 70
     0
102
RTVSPropertyOp20
 70
     0
102
RTVSPropertyOp21
 70
     0
102
RTVSPropertyOp22
 70
     0
102
RTVSPropertyOp23
 70
     0
102
RTVSPropertyOp24
 70
     0
102
RTVSPropertyOp25
 70
     0
102
RTVSPropertyOp26
 70
     0
102
RTVSPropertyOp27
 70
     0
  0
XRECORD
  5
2593
102
{ACAD_REACTORS
330
2592
102
}
330
2592
100
AcDbXrecord
280
     1
102
RTVSPropertyOp0
 70
     1
102
RTVSPropertyOp1
 70
     1
102
RTVSPropertyOp2
 70
     1
102
RTVSPropertyOp3
 70
     1
102
RTVSPropertyOp4
 70
     1
102
RTVSPropertyOp5
 70
     1
102
RTVSPropertyOp6
 70
     1
102
RTVSPropertyOp7
 70
     1
102
RTVSPropertyOp8
 70
     1
102
RTVSPropertyOp9
 70
     1
102
RTVSPropertyOp10
 70
     1
102
RTVSPropertyOp11
 70
     1
102
RTVSPropertyOp12
 70
     1
102
RTVSPropertyOp13
 70
     1
102
RTVSPropertyOp14
 70
     1
102
RTVSPropertyOp15
 70
     1
102
RTVSPropertyOp16
 70
     1
102
RTVSPropertyOp17
 70
     1
102
RTVSPropertyOp18
 70
     1
102
RTVSPropertyOp19
 70
     1
102
RTVSPropertyOp20
 70
     1
102
RTVSPropertyOp21
 70
     1
102
RTVSPropertyOp22
 70
     1
102
RTVSPropertyOp23
 70
     1
102
RTVSPropertyOp24
 70
     1
102
RTVSPropertyOp25
 70
     1
102
RTVSPropertyOp26
 70
     1
102
RTVSPropertyOp27
 70
     1
  0
XRECORD
  5
2599
102
{ACAD_REACTORS
330
2598
102
}
330
2598
100
AcDbXrecord
280
     1
102
RTVSPropertyOp0
 70
     1
102
RTVSPropertyOp1
 70
     1
102
RTVSPropertyOp2
 70
     1
102
RTVSPropertyOp3
 70
     1
102
RTVSPropertyOp4
 70
     1
102
RTVSPropertyOp5
 70
     1
102
RTVSPropertyOp6
 70
     1
102
RTVSPropertyOp7
 70
     1
102
RTVSPropertyOp8
 70
     1
102
RTVSPropertyOp9
 70
     1
102
RTVSPropertyOp10
 70
     1
102
RTVSPropertyOp11
 70
     1
102
RTVSPropertyOp12
 70
     1
102
RTVSPropertyOp13
 70
     1
102
RTVSPropertyOp14
 70
     1
102
RTVSPropertyOp15
 70
     1
102
RTVSPropertyOp16
 70
     1
102
RTVSPropertyOp17
 70
     1
102
RTVSPropertyOp18
 70
     1
102
RTVSPropertyOp19
 70
     1
102
RTVSPropertyOp20
 70
     1
102
RTVSPropertyOp21
 70
     1
102
RTVSPropertyOp22
 70
     1
102
RTVSPropertyOp23
 70
     1
102
RTVSPropertyOp24
 70
     1
102
RTVSPropertyOp25
 70
     1
102
RTVSPropertyOp26
 70
     1
102
RTVSPropertyOp27
 70
     1
  0
ENDSEC
  0
EOF
