  0
SECTION
  2
HEADER
  9
$ACADVER
  1
AC1015
  9
$ACADMAINTVER
 70
    20
  9
$DWGCODEPAGE
  3
ANSI_1252
  9
$INSBASE
 10
0.0
 20
0.0
 30
0.0
  9
$EXTMIN
 10
-269.4569890877133
 20
130.0207960982493
 30
0.0
  9
$EXTMAX
 10
658.1586820312
 20
290.2776081934
 30
0.0
  9
$LIMMIN
 10
0.0
 20
0.0
  9
$LIMMAX
 10
420.0
 20
297.0
  9
$ORTHOMODE
 70
     0
  9
$REGENMODE
 70
     1
  9
$FILLMODE
 70
     1
  9
$QTEXTMODE
 70
     0
  9
$MIRRTEXT
 70
     0
  9
$LTSCALE
 40
23.1
  9
$ATTMODE
 70
     1
  9
$TEXTSIZE
 40
0.2
  9
$TRACEWID
 40
0.05
  9
$TEXTSTYLE
  7
STANDARD
  9
$CLAYER
  8
0
  9
$CELTYPE
  6
BYLAYER
  9
$CECOLOR
 62
   256
  9
$CELTSCALE
 40
1.0
  9
$DISPSILH
 70
     0
  9
$DIMSCALE
 40
1.0
  9
$DIMASZ
 40
3.5
  9
$DIMEXO
 40
1.5
  9
$DIMDLI
 40
15.96
  9
$DIMRND
 40
0.0
  9
$DIMDLE
 40
0.0
  9
$DIMEXE
 40
1.5
  9
$DIMTP
 40
0.005
  9
$DIMTM
 40
0.005
  9
$DIMTXT
 40
3.5
  9
$DIMCEN
 40
3.779999999999998
  9
$DIMTSZ
 40
0.0
  9
$DIMTOL
 70
     1
  9
$DIMLIM
 70
     0
  9
$DIMTIH
 70
     1
  9
$DIMTOH
 70
     1
  9
$DIMSE1
 70
     0
  9
$DIMSE2
 70
     0
  9
$DIMTAD
 70
     0
  9
$DIMZIN
 70
     0
  9
$DIMBLK
  1
_FILLED
  9
$DIMASO
 70
     1
  9
$DIMSHO
 70
     1
  9
$DIMPOST
  1

  9
$DIMAPOST
  1

  9
$DIMALT
 70
     0
  9
$DIMALTD
 70
     2
  9
$DIMALTF
 40
25.4
  9
$DIMLFAC
 40
1.0
  9
$DIMTOFL
 70
     0
  9
$DIMTVP
 40
0.0
  9
$DIMTIX
 70
     0
  9
$DIMSOXD
 70
     0
  9
$DIMSAH
 70
     0
  9
$DIMBLK1
  1

  9
$DIMBLK2
  1

  9
$DIMSTYLE
  2
STANDARD
  9
$DIMCLRD
 70
     0
  9
$DIMCLRE
 70
     0
  9
$DIMCLRT
 70
     0
  9
$DIMTFAC
 40
1.0
  9
$DIMGAP
 40
0.625
  9
$DIMJUST
 70
     0
  9
$DIMSD1
 70
     0
  9
$DIMSD2
 70
     0
  9
$DIMTOLJ
 70
     1
  9
$DIMTZIN
 70
     0
  9
$DIMALTZ
 70
     0
  9
$DIMALTTZ
 70
     0
  9
$DIMUPT
 70
     0
  9
$DIMDEC
 70
     0
  9
$DIMTDEC
 70
     4
  9
$DIMALTU
 70
     2
  9
$DIMALTTD
 70
     2
  9
$DIMTXSTY
  7
STANDARD
  9
$DIMAUNIT
 70
     0
  9
$DIMADEC
 70
     0
  9
$DIMALTRND
 40
0.0
  9
$DIMAZIN
 70
     0
  9
$DIMDSEP
 70
    46
  9
$DIMATFIT
 70
     3
  9
$DIMFRAC
 70
     0
  9
$DIMLDRBLK
  1

  9
$DIMLUNIT
 70
     2
  9
$DIMLWD
 70
    -2
  9
$DIMLWE
 70
    -2
  9
$DIMTMOVE
 70
     0
  9
$LUNITS
 70
     2
  9
$LUPREC
 70
     2
  9
$SKETCHINC
 40
0.1
  9
$FILLETRAD
 40
0.0
  9
$AUNITS
 70
     0
  9
$AUPREC
 70
     0
  9
$MENU
  1
.
  9
$ELEVATION
 40
0.0
  9
$PELEVATION
 40
0.0
  9
$THICKNESS
 40
0.0
  9
$LIMCHECK
 70
     0
  9
$CHAMFERA
 40
0.0
  9
$CHAMFERB
 40
0.0
  9
$CHAMFERC
 40
0.0
  9
$CHAMFERD
 40
0.0
  9
$SKPOLY
 70
     0
  9
$TDCREATE
 40
2456562.312508970
  9
$TDUCREATE
 40
2456562.270842303
  9
$TDUPDATE
 40
2456671.451454595
  9
$TDUUPDATE
 40
2456671.409787928
  9
$TDINDWG
 40
0.0082160185
  9
$TDUSRTIMER
 40
0.0082160185
  9
$USRTIMER
 70
     1
  9
$ANGBASE
 50
0.0
  9
$ANGDIR
 70
     0
  9
$PDMODE
 70
     3
  9
$PDSIZE
 40
0.3125
  9
$PLINEWID
 40
0.0
  9
$SPLFRAME
 70
     0
  9
$SPLINETYPE
 70
     6
  9
$SPLINESEGS
 70
     8
  9
$HANDSEED
  5
E42
  9
$SURFTAB1
 70
     6
  9
$SURFTAB2
 70
     6
  9
$SURFTYPE
 70
     6
  9
$SURFU
 70
     6
  9
$SURFV
 70
     6
  9
$UCSBASE
  2

  9
$UCSNAME
  2

  9
$UCSORG
 10
0.0
 20
0.0
 30
0.0
  9
$UCSXDIR
 10
1.0
 20
0.0
 30
0.0
  9
$UCSYDIR
 10
0.0
 20
1.0
 30
0.0
  9
$UCSORTHOREF
  2

  9
$UCSORTHOVIEW
 70
     0
  9
$UCSORGTOP
 10
0.0
 20
0.0
 30
0.0
  9
$UCSORGBOTTOM
 10
0.0
 20
0.0
 30
0.0
  9
$UCSORGLEFT
 10
0.0
 20
0.0
 30
0.0
  9
$UCSORGRIGHT
 10
0.0
 20
0.0
 30
0.0
  9
$UCSORGFRONT
 10
0.0
 20
0.0
 30
0.0
  9
$UCSORGBACK
 10
0.0
 20
0.0
 30
0.0
  9
$PUCSBASE
  2

  9
$PUCSNAME
  2

  9
$PUCSORG
 10
0.0
 20
0.0
 30
0.0
  9
$PUCSXDIR
 10
1.0
 20
0.0
 30
0.0
  9
$PUCSYDIR
 10
0.0
 20
1.0
 30
0.0
  9
$PUCSORTHOREF
  2

  9
$PUCSORTHOVIEW
 70
     0
  9
$PUCSORGTOP
 10
0.0
 20
0.0
 30
0.0
  9
$PUCSORGBOTTOM
 10
0.0
 20
0.0
 30
0.0
  9
$PUCSORGLEFT
 10
0.0
 20
0.0
 30
0.0
  9
$PUCSORGRIGHT
 10
0.0
 20
0.0
 30
0.0
  9
$PUCSORGFRONT
 10
0.0
 20
0.0
 30
0.0
  9
$PUCSORGBACK
 10
0.0
 20
0.0
 30
0.0
  9
$USERI1
 70
     0
  9
$USERI2
 70
     0
  9
$USERI3
 70
     0
  9
$USERI4
 70
     0
  9
$USERI5
 70
     0
  9
$USERR1
 40
0.0
  9
$USERR2
 40
0.0
  9
$USERR3
 40
0.0
  9
$USERR4
 40
0.0
  9
$USERR5
 40
0.0
  9
$WORLDVIEW
 70
     1
  9
$SHADEDGE
 70
     3
  9
$SHADEDIF
 70
    70
  9
$TILEMODE
 70
     1
  9
$MAXACTVP
 70
    64
  9
$PINSBASE
 10
0.0
 20
0.0
 30
0.0
  9
$PLIMCHECK
 70
     0
  9
$PEXTMIN
 10
1.000000000000000E+20
 20
1.000000000000000E+20
 30
1.000000000000000E+20
  9
$PEXTMAX
 10
-1.000000000000000E+20
 20
-1.000000000000000E+20
 30
-1.000000000000000E+20
  9
$PLIMMIN
 10
0.0
 20
0.0
  9
$PLIMMAX
 10
12.0
 20
9.0
  9
$UNITMODE
 70
     0
  9
$VISRETAIN
 70
     1
  9
$PLINEGEN
 70
     0
  9
$PSLTSCALE
 70
     1
  9
$TREEDEPTH
 70
  3020
  9
$CMLSTYLE
  2
Standard
  9
$CMLJUST
 70
     0
  9
$CMLSCALE
 40
1.0
  9
$PROXYGRAPHICS
 70
     1
  9
$MEASUREMENT
 70
     1
  9
$CELWEIGHT
370
    -1
  9
$ENDCAPS
280
     0
  9
$JOINSTYLE
280
     0
  9
$LWDISPLAY
290
     0
  9
$INSUNITS
 70
     4
  9
$HYPERLINKBASE
  1

  9
$STYLESHEET
  1

  9
$XEDIT
290
     1
  9
$CEPSNTYPE
380
     0
  9
$PSTYLEMODE
290
     1
  9
$FINGERPRINTGUID
  2
{5D1A4901-6B83-4F17-841B-F7B39D92CEEB}
  9
$VERSIONGUID
  2
{8361AA0C-08A7-4E27-9AE1-756C2E18C030}
  9
$EXTNAMES
290
     1
  9
$PSVPSCALE
 40
0.0
  9
$OLESTARTUP
290
     0
  0
ENDSEC
  0
SECTION
  2
CLASSES
  0
CLASS
  1
ACDBDICTIONARYWDFLT
  2
AcDbDictionaryWithDefault
  3
ObjectDBX Classes
 90
        0
280
     0
281
     0
  0
CLASS
  1
ACDBPLACEHOLDER
  2
AcDbPlaceHolder
  3
ObjectDBX Classes
 90
        0
280
     0
281
     0
  0
CLASS
  1
LAYOUT
  2
AcDbLayout
  3
ObjectDBX Classes
 90
        0
280
     0
281
     0
  0
CLASS
  1
MATERIAL
  2
AcDbMaterial
  3
ObjectDBX Classes
 90
     1153
280
     0
281
     0
  0
CLASS
  1
VISUALSTYLE
  2
AcDbVisualStyle
  3
ObjectDBX Classes
 90
     4095
280
     0
281
     0
  0
CLASS
  1
TABLESTYLE
  2
AcDbTableStyle
  3
ObjectDBX Classes
 90
     4095
280
     0
281
     0
  0
CLASS
  1
SCALE
  2
AcDbScale
  3
ObjectDBX Classes
 90
     1153
280
     0
281
     0
  0
CLASS
  1
MLEADERSTYLE
  2
AcDbMLeaderStyle
  3
ACDB_MLEADERSTYLE_CLASS
 90
     4095
280
     0
281
     0
  0
CLASS
  1
AMGSETTINGSOBJ
  2
AmgSettingsObj
  3
"AcadM|Product Description: AutoCAD Mechanical|Company: Autodesk, Inc."
 90
     1024
280
     0
281
     0
  0
CLASS
  1
ACME_DOCUMENT
  2
AcMeDbDoc
  3
AcMeServices
 90
     1024
280
     0
281
     0
  0
CLASS
  1
ACMESCOPE
  2
AcMeScope
  3
AcMeServices
 90
     1024
280
     0
281
     0
  0
CLASS
  1
ACMECOMMANDHISTORY
  2
AcMeCommandHistory
  3
AcMeServices
 90
     1024
280
     0
281
     0
  0
CLASS
  1
ACIMSYSVARMAN
  2
AcImSysVarManager
  3
AcMeServices
 90
     1024
280
     0
281
     0
  0
CLASS
  1
ACIMINTSYSVAR
  2
AcImIntSysVar
  3
AcMeServices
 90
     1024
280
     0
281
     0
  0
CLASS
  1
ACMEDRAWINGMAN
  2
AcMeDrawingMan
  3
AcMeServices
 90
     1024
280
     0
281
     0
  0
CLASS
  1
ACMEVIEW
  2
AcMeView
  3
AcMeServices
 90
     1024
280
     0
281
     0
  0
CLASS
  1
ACDBENTITYCACHE
  2
AcMeEntityCache
  3
AcMeServices
 90
     1024
280
     0
281
     0
  0
CLASS
  1
ACMESTATEMGR
  2
AcMeStateMgr
  3
AcMeServices
 90
     1024
280
     0
281
     0
  0
CLASS
  1
ACGREFMASTER
  2
AcGrefMaster
  3
AcAttribServices
 90
     1024
280
     0
281
     0
  0
CLASS
  1
AM_DRAWING_MGR
  2
AcDmDwgMgr
  3
AcMechDwgViewMgmt
 90
     1024
280
     0
281
     0
  0
CLASS
  1
AM_DWG_DOCUMENT
  2
AcDmDwgDocument
  3
AcMechDwgViewMgmt
 90
     1024
280
     0
281
     0
  0
CLASS
  1
AM_DWG_SHEET
  2
AcDmSheet
  3
AcMechDwgViewMgmt
 90
     1024
280
     0
281
     0
  0
CLASS
  1
AM_VIEWDIMPARMAP
  2
AcDmViewDimParMap
  3
AcMechDwgViewMgmt
 90
     1024
280
     0
281
     0
  0
CLASS
  1
AMDTINTERNALREACTOR
  2
AmdtInternalReactor
  3
AcMeServices
 90
     1024
280
     0
281
     0
  0
CLASS
  1
ACIMREALSYSVAR
  2
AcImRealSysVar
  3
AcMeServices
 90
     1024
280
     0
281
     0
  0
CLASS
  1
AM_DWGMGR_NAME
  2
AcDmDwgMgrName
  3
AcMechDwgViewMgmt
 90
     1024
280
     0
281
     0
  0
CLASS
  1
ACME_DATABASE
  2
AcMeDbDatabase
  3
AcMeServices
 90
     1024
280
     0
281
     0
  0
CLASS
  1
ACRFINSADJUSTERMGR
  2
AcRfInsAdjusterMgr
  3
AcMeServices
 90
     1024
280
     0
281
     0
  0
CLASS
  1
ACGREFACADMASTER
  2
AcGrefacadMaster
  3
AcGrefServices
 90
     1024
280
     0
281
     0
  0
CLASS
  1
AMDTMENUSTATEMGR
  2
AmdtMenuStateMgr
  3
McadcomServices
 90
     1024
280
     0
281
     0
  0
CLASS
  1
AMDTMCOMMENUSTATE
  2
AmdtMcomMenuState
  3
McadcomServices
 90
     1024
280
     0
281
     0
  0
CLASS
  1
AMIMASTER
  2
AmiMaster
  3
AmiServices
 90
     1024
280
     0
281
     0
  0
CLASS
  1
MAPIAMMOUDLE
  2
MApiAmModule
  3
MApiAmServices
 90
     1024
280
     0
281
     0
  0
CLASS
  1
ACIMSTRSYSVAR
  2
AcImStrSysVar
  3
AcMeServices
 90
     1024
280
     0
281
     0
  0
CLASS
  1
AMDTADMENUSTATE
  2
AmdtAdMenuState
  3
DesignerServices
 90
     1024
280
     0
281
     0
  0
CLASS
  1
ADAPPL
  2
AcAdAppl
  3
DesignerServices
 90
     1024
280
     0
281
     0
  0
CLASS
  1
DEPMGR
  2
AcAdDepMgr
  3
DesignerServices
 90
     1024
280
     0
281
     0
  0
CLASS
  1
PARAMMGR
  2
AcAdParamMgr
  3
DesignerServices
 90
     1024
280
     0
281
     0
  0
CLASS
  1
PARAMSCOPE
  2
AcAdParamScope
  3
DesignerServices
 90
     1024
280
     0
281
     0
  0
CLASS
  1
NAMEDAPPL
  2
AcAdNamedAppl
  3
DesignerServices
 90
     1024
280
     0
281
     0
  0
CLASS
  1
AMDTDMMENUSTATE
  2
AmdtDmMenuState
  3
AcMechDwgViewMgmt
 90
     1024
280
     0
281
     0
  0
CLASS
  1
AMDTAMMENUSTATE
  2
AmdtAmMenuState
  3
DesignerAssemblies
 90
     1024
280
     0
281
     0
  0
CLASS
  1
ACAMPROJECT
  2
AcAmProject
  3
DesignerAssemblies
 90
     1024
280
     0
281
     0
  0
CLASS
  1
ACAMGRCOMPDEF
  2
AcAmGrCompDef
  3
DesignerAssemblies
 90
     1024
280
     0
281
     0
  0
CLASS
  1
ACAMCOMPDEF
  2
AcAmCompDef
  3
DesignerAssemblies
 90
     1024
280
     0
281
     0
  0
CLASS
  1
ACAMCOMPDEFMGR
  2
AcAmCompDefMgr
  3
DesignerAssemblies
 90
     1024
280
     0
281
     0
  0
CLASS
  1
AMCONTEXTMGR
  2
AcAmContextMgr
  3
DesignerAssemblies
 90
     1024
280
     0
281
     0
  0
CLASS
  1
ACAMCONTEXTMODELER
  2
AcAmContextModeler
  3
DesignerAssemblies
 90
     1024
280
     0
281
     0
  0
CLASS
  1
ACMDATADICTIONARY
  2
AcmDataDictionary
  3
"AcmSymBB|Product Description: AutoCAD Mechanical|Company: Autodesk, Inc."
 90
     1024
280
     0
281
     0
  0
CLASS
  1
CATALOGSTATE
  2
AcAmCatalogState
  3
DesignerAssemblies
 90
     1024
280
     0
281
     0
  0
CLASS
  1
ACAMGRCOMPDEFSET
  2
AcAmGrCompDefSet
  3
DesignerAssemblies
 90
     1024
280
     0
281
     0
  0
CLASS
  1
AMDTBROWSERDBTAB
  2
AmdtBrowserDbTab
  3
McadcomServices
 90
     1024
280
     0
281
     0
  0
CLASS
  1
CBROWSERAPPOBJECT
  2
CBrowserAppObject
  3
McadcomServices
 90
     1024
280
     0
281
     0
  0
CLASS
  1
DM_PLACEHOLDER
  2
AcDmSelsetPlaceholder
  3
AcMechDwgViewMgmt
 90
     1024
280
     0
281
     0
  0
CLASS
  1
ACMSTANDARDDIN
  2
AcmStandardDIN
  3
"Amdt_StdImp|Product Description: AutoCAD Mechanical|Company: Autodesk, Inc."
 90
     1024
280
     0
281
     0
  0
CLASS
  1
AMDTEDGESTANDARDDIN13715
  2
AmdtEdgeStdDIN13715
  3
"Amdt_StdImp|Product Description: AutoCAD Mechanical|Company: Autodesk, Inc."
 90
     1024
280
     0
281
     0
  0
CLASS
  1
ACMSURFSTANDARDDIN2002
  2
AcmSurfTextStdDIN2002
  3
"Amdt_StdImp|Product Description: AutoCAD Mechanical|Company: Autodesk, Inc."
 90
     1024
280
     0
281
     0
  0
CLASS
  1
ACMFCFSTANDARDDIN
  2
AcmFCFStdDIN
  3
"Amdt_StdImp|Product Description: AutoCAD Mechanical|Company: Autodesk, Inc."
 90
     1024
280
     0
281
     0
  0
CLASS
  1
ACMWELDSTANDARDDIN
  2
AcmWeldingStdDIN
  3
"Amdt_StdImp|Product Description: AutoCAD Mechanical|Company: Autodesk, Inc."
 90
     1024
280
     0
281
     0
  0
CLASS
  1
ACMIDSTANDARDDIN
  2
AcmIdStdDIN
  3
"Amdt_StdImp|Product Description: AutoCAD Mechanical|Company: Autodesk, Inc."
 90
     1024
280
     0
281
     0
  0
CLASS
  1
ACMDATUMSTANDARDDIN
  2
AcmDatumStdDIN
  3
"Amdt_StdImp|Product Description: AutoCAD Mechanical|Company: Autodesk, Inc."
 90
     1024
280
     0
281
     0
  0
CLASS
  1
ACMBOMSTANDARDDIN
  2
AcmBOMStdDIN
  3
"Amdt_StdImp|Product Description: AutoCAD Mechanical|Company: Autodesk, Inc."
 90
     1024
280
     0
281
     0
  0
CLASS
  1
ACMDETAILSTANDARDDIN
  2
AmdtDetailSymStdDIN
  3
"Amdt_StdImp|Product Description: AutoCAD Mechanical|Company: Autodesk, Inc."
 90
     1024
280
     0
281
     0
  0
CLASS
  1
ACMSECTIONSTANDARDDIN
  2
AmdtSectionSymStdDIN
  3
"Amdt_StdImp|Product Description: AutoCAD Mechanical|Company: Autodesk, Inc."
 90
     1024
280
     0
281
     0
  0
CLASS
  1
ACMCENTERLINESTANDARDDIN
  2
AmdtCenterLineStdDIN
  3
"Amdt_StdImp|Product Description: AutoCAD Mechanical|Company: Autodesk, Inc."
 90
     1024
280
     0
281
     0
  0
CLASS
  1
ACMTHREADLINESTANDARDDIN
  2
AmdtThreadLineStdDIN
  3
"Amdt_StdImp|Product Description: AutoCAD Mechanical|Company: Autodesk, Inc."
 90
     1024
280
     0
281
     0
  0
CLASS
  1
ACMNOTESTANDARDDIN
  2
AmdtNoteStdDIN
  3
"Amdt_StdImp|Product Description: AutoCAD Mechanical|Company: Autodesk, Inc."
 90
     1024
280
     0
281
     0
  0
CLASS
  1
ACMTAPERSTANDARDDIN
  2
AcmTaperStdDIN
  3
"Amdt_StdImp|Product Description: AutoCAD Mechanical|Company: Autodesk, Inc."
 90
     1024
280
     0
281
     0
  0
CLASS
  1
ACMANOOTATIONVIEWSTANDARDDIN
  2
AmdtAnViewStdDIN
  3
"Amdt_StdImp|Product Description: AutoCAD Mechanical|Company: Autodesk, Inc."
 90
     1024
280
     0
281
     0
  0
CLASS
  1
ACAMGLAYSTD
  2
AcAmgLayStd
  3
"AmgLay|Product Description: AutoCAD Mechanical|Company: Autodesk, Inc."
 90
     1024
280
     0
281
     0
  0
CLASS
  1
ACAMGDIMSTD
  2
AcAmgDimStd
  3
"AmgDim|Product Description: AutoCAD Mechanical|Company: Autodesk, Inc."
 90
     1024
280
     0
281
     0
  0
CLASS
  1
AMGOBJPROPCFG
  2
AmgObjPropCfg
  3
"AmgLay|Product Description: AutoCAD Mechanical|Company: Autodesk, Inc."
 90
     1025
280
     0
281
     0
  0
CLASS
  1
ACAMGHOLECHARTSTDDIN
  2
AcAmgHoleChartStdDIN
  3
AmgDim|Product Description: AutoCAD Mechanical|Company: Autodesk, Inc.
 90
     1024
280
     0
281
     0
  0
CLASS
  1
ACAMGTITLESTD
  2
AcAmgTitleStd
  3
"AmgTitle|Product Description: AutoCAD Mechanical|Company: Autodesk, Inc."
 90
     4095
280
     0
281
     0
  0
CLASS
  1
AMDTNOTETEMPLATEDB
  2
AmdtNoteTemplateDB
  3
AcmSymBB|Product Description: AutoCAD Mechanical|Company: Autodesk, Inc.
 90
     1024
280
     0
281
     0
  0
CLASS
  1
ACAMGFILTERDAT
  2
AcAmgFilterDat
  3
"AcadM|Product Description: AutoCAD Mechanical|Company: Autodesk, Inc."
 90
    33792
280
     0
281
     0
  0
CLASS
  1
DICTIONARYVAR
  2
AcDbDictionaryVar
  3
ObjectDBX Classes
 90
        0
280
     0
281
     0
  0
CLASS
  1
CELLSTYLEMAP
  2
AcDbCellStyleMap
  3
ObjectDBX Classes
 90
     1152
280
     0
281
     0
  0
CLASS
  1
EXACXREFPANELOBJECT
  2
ExAcXREFPanelObject
  3
EXAC_ESW
 90
     1025
280
     0
281
     0
  0
CLASS
  1
NPOCOLLECTION
  2
AcDbImpNonPersistentObjectsCollection
  3
ObjectDBX Classes
 90
     1153
280
     0
281
     0
  0
CLASS
  1
DIMASSOC
  2
AcDbDimAssoc
  3
"AcDbDimAssoc|Product Desc:     AcDim ARX App For Dimension|Company:          Autodesk, Inc.|WEB Address:      www.autodesk.com"
 90
        0
280
     0
281
     0
  0
CLASS
  1
AEC_REFEDIT_STATUS_TRACKER
  2
AecDbRefEditStatusTracker
  3
AecArchBase60|Product Desc: Autodesk Architectural Desktop 2007 |Company: Autodesk,Inc. |WEB Address: www.autodesk.com
 90
    32897
280
     0
281
     0
  0
ENDSEC
  0
SECTION
  2
TABLES
  0
TABLE
  2
VPORT
  5
8
330
0
100
AcDbSymbolTable
 70
     1
  0
VPORT
  5
1F4
330
8
100
AcDbSymbolTableRecord
100
AcDbViewportTableRecord
  2
*ACTIVE
 70
     0
 10
0.0
 20
0.0
 11
1.0
 21
1.0
 12
114.3360182058566
 22
83.90356419782262
 13
0.0
 23
0.0
 14
1.0
 24
1.0
 15
0.0
 25
0.0
 16
0.0
 26
0.0
 36
1.0
 17
0.0
 27
0.0
 37
0.0
 40
596.2953738604877
 41
2.140734265734265
 42
50.0
 43
0.0
 44
0.0
 50
0.0
 51
0.0
 71
     0
 72
   100
 73
     1
 74
     1
 75
     0
 76
     0
 77
     0
 78
     0
281
     0
 65
     0
110
0.0
120
0.0
130
0.0
111
1.0
121
0.0
131
0.0
112
0.0
122
1.0
132
0.0
 79
     0
146
0.0
  0
ENDTAB
  0
TABLE
  2
LTYPE
  5
5
330
0
100
AcDbSymbolTable
 70
    22
  0
LTYPE
  5
14
330
5
100
AcDbSymbolTableRecord
100
AcDbLinetypeTableRecord
  2
BYBLOCK
 70
     0
  3

 72
    65
 73
     0
 40
0.0
  0
LTYPE
  5
15
330
5
100
AcDbSymbolTableRecord
100
AcDbLinetypeTableRecord
  2
BYLAYER
 70
     0
  3

 72
    65
 73
     0
 40
0.0
  0
LTYPE
  5
16
330
5
100
AcDbSymbolTableRecord
100
AcDbLinetypeTableRecord
  2
CONTINUOUS
 70
     0
  3
Solid line
 72
    65
 73
     0
 40
0.0
  0
LTYPE
  5
1F5
330
5
100
AcDbSymbolTableRecord
100
AcDbLinetypeTableRecord
  2
CENTER
 70
     0
  3
____ _ ____ _ ____ _ ____ _ ____ _ ____ _ ____
 72
    65
 73
     4
 40
0.6
 49
0.375
 74
     0
 49
-0.075
 74
     0
 49
0.075
 74
     0
 49
-0.075
 74
     0
  0
LTYPE
  5
1F6
330
5
100
AcDbSymbolTableRecord
100
AcDbLinetypeTableRecord
  2
HIDDEN
 70
     0
  3
- - - - - - - - - - - - - - - - - - - -
 72
    65
 73
     2
 40
0.2
 49
0.1
 74
     0
 49
-0.1
 74
     0
  0
LTYPE
  5
1F7
330
5
100
AcDbSymbolTableRecord
100
AcDbLinetypeTableRecord
  2
PHANTOM
 70
     0
  3
_____ _ _ _____ _ _ _____ _ _ _____
 72
    65
 73
     6
 40
0.8
 49
0.45
 74
     0
 49
-0.05
 74
     0
 49
0.1
 74
     0
 49
-0.05
 74
     0
 49
0.1
 74
     0
 49
-0.05
 74
     0
  0
LTYPE
  5
1F8
330
5
100
AcDbSymbolTableRecord
100
AcDbLinetypeTableRecord
  2
DOT
 70
     0
  3
. . . . . . . . . . . . . . . . . . . .
 72
    65
 73
     2
 40
0.2
 49
0.1
 74
     0
 49
-0.1
 74
     0
  0
LTYPE
  5
1F9
330
5
100
AcDbSymbolTableRecord
100
AcDbLinetypeTableRecord
  2
DASHED
 70
     0
  3
- - - - - - - - - - - - - - - - - - - -
 72
    65
 73
     2
 40
0.2
 49
0.1
 74
     0
 49
-0.1
 74
     0
  0
LTYPE
  5
743
330
5
100
AcDbSymbolTableRecord
100
AcDbLinetypeTableRecord
  2
PHANTOM2
 70
     0
  3
Phantom (.5x) ___ _ _ ___ _ _ ___ _ _ ___ _ _
 72
    65
 73
     6
 40
31.75
 49
15.875
 74
     0
 49
-3.174999999999998
 74
     0
 49
3.174999999999998
 74
     0
 49
-3.174999999999998
 74
     0
 49
3.174999999999998
 74
     0
 49
-3.174999999999998
 74
     0
  0
LTYPE
  5
789
330
5
100
AcDbSymbolTableRecord
100
AcDbLinetypeTableRecord
  2
AM_ISO02W050
 70
     0
  3
__ __ __ __ __ __ __ __ __ __ __ __ __ __ __
 72
    65
 73
     2
 40
7.5
 49
6.0
 74
     0
 49
-1.5
 74
     0
  0
LTYPE
  5
78A
330
5
100
AcDbSymbolTableRecord
100
AcDbLinetypeTableRecord
  2
AM_ISO08W050
 70
     0
  3
____ . ____ . ____ . ____ . ____ . ____ . ____
 72
    65
 73
     4
 40
18.0
 49
12.0
 74
     0
 49
-1.5
 74
     0
 49
3.0
 74
     0
 49
-1.5
 74
     0
  0
LTYPE
  5
78B
330
5
100
AcDbSymbolTableRecord
100
AcDbLinetypeTableRecord
  2
AM_ISO09W050
 70
     0
  3
_____ . . _____ . . _____ . . ____ .. ____
 72
    65
 73
     6
 40
22.5
 49
12.0
 74
     0
 49
-1.5
 74
     0
 49
3.0
 74
     0
 49
-1.5
 74
     0
 49
3.0
 74
     0
 49
-1.5
 74
     0
  0
LTYPE
  5
78C
330
5
100
AcDbSymbolTableRecord
100
AcDbLinetypeTableRecord
  2
Amconstr
 70
     0
  3
_______________________
 72
    65
 73
     2
 40
9999.0
 49
9999.0
 74
     0
 49
0.0
 74
     0
  0
LTYPE
  5
78D
330
5
100
AcDbSymbolTableRecord
100
AcDbLinetypeTableRecord
  2
AM_ISO08W050x2
 70
     0
  3
__ . __ . __ . __ . __ . __
 72
    65
 73
     4
 40
9.0
 49
6.0
 74
     0
 49
-0.75
 74
     0
 49
1.5
 74
     0
 49
-0.75
 74
     0
  0
LTYPE
  5
78E
330
5
100
AcDbSymbolTableRecord
100
AcDbLinetypeTableRecord
  2
AM_ISO02W050x2
 70
     0
  3
 _ _ _ _ _ _ _ _ _ _ _ _
 72
    65
 73
     2
 40
3.75
 49
3.0
 74
     0
 49
-0.75
 74
     0
  0
LTYPE
  5
791
330
5
100
AcDbSymbolTableRecord
100
AcDbLinetypeTableRecord
  2
Amzigzag
 70
     0
  3
/\/-/\/-/\/-/\/-/\/-/\/
 72
    65
 73
     2
 40
11.0001
 49
0.0001
 74
     4
 75
   136
340
790
 46
0.04
 50
0.0
 44
0.0
 45
0.0
 49
-11.0
 74
     0
  0
LTYPE
  5
792
330
5
100
AcDbSymbolTableRecord
100
AcDbLinetypeTableRecord
  2
AM_DIN_F_W050
 70
     0
  3
__ __ __ __ __ __ __ __ __ __ __ __ __ __ __
 72
    65
 73
     2
 40
6.25
 49
4.75
 74
     0
 49
-1.5
 74
     0
  0
LTYPE
  5
793
330
5
100
AcDbSymbolTableRecord
100
AcDbLinetypeTableRecord
  2
AM_DIN_G_W050
 70
     0
  3
____ . ____ . ____ . ____ . ____ . ____ . ____
 72
    65
 73
     4
 40
13.75
 49
9.75
 74
     0
 49
-1.5
 74
     0
 49
1.0
 74
     0
 49
-1.5
 74
     0
  0
LTYPE
  5
794
330
5
100
AcDbSymbolTableRecord
100
AcDbLinetypeTableRecord
  2
AM_DIN_K_W050
 70
     0
  3
_____ . . _____ . . _____ . . ____ .. ____
 72
    65
 73
     6
 40
16.25
 49
9.75
 74
     0
 49
-1.5
 74
     0
 49
1.0
 74
     0
 49
-1.5
 74
     0
 49
1.0
 74
     0
 49
-1.5
 74
     0
  0
LTYPE
  5
795
330
5
100
AcDbSymbolTableRecord
100
AcDbLinetypeTableRecord
  2
AM_DIN_G_W050x2
 70
     0
  3
__ . __ . __ . __ . __ . __
 72
    65
 73
     4
 40
6.875
 49
4.75
 74
     0
 49
-0.875
 74
     0
 49
0.375
 74
     0
 49
-0.875
 74
     0
  0
LTYPE
  5
796
330
5
100
AcDbSymbolTableRecord
100
AcDbLinetypeTableRecord
  2
AM_DIN_F_W050x2
 70
     0
  3
 _ _ _ _ _ _ _ _ _ _ _ _
 72
    65
 73
     2
 40
3.125
 49
2.25
 74
     0
 49
-0.875
 74
     0
  0
LTYPE
  5
7A5
330
5
100
AcDbSymbolTableRecord
100
AcDbLinetypeTableRecord
  2
ACDINWELD
 70
     0
  3
_ _ _ _ _
 72
    65
 73
     2
 40
2.0
 49
2.0
 74
     0
 49
-1.0
 74
     0
  0
LTYPE
  5
7A6
330
5
100
AcDbSymbolTableRecord
100
AcDbLinetypeTableRecord
  2
ACDINTGB
 70
     0
  3
__ . . __ . .
 72
    65
 73
     6
 40
9.0
 49
4.0
 74
     0
 49
-1.0
 74
     0
 49
1.0
 74
     0
 49
-1.0
 74
     0
 49
1.0
 74
     0
 49
-1.0
 74
     0
  0
LTYPE
  5
7A7
330
5
100
AcDbSymbolTableRecord
100
AcDbLinetypeTableRecord
  2
ACDINTGL
 70
     0
  3
_ _ _ _ _
 72
    65
 73
     2
 40
3.0
 49
2.0
 74
     0
 49
-1.0
 74
     0
  0
ENDTAB
  0
TABLE
  2
LAYER
  5
2
102
{ACAD_XDICTIONARY
360
A32
102
}
330
0
100
AcDbSymbolTable
 70
    15
  0
LAYER
  5
10
330
2
100
AcDbSymbolTableRecord
100
AcDbLayerTableRecord
  2
0
 70
     0
 62
     7
  6
CONTINUOUS
370
    -3
390
F
  0
LAYER
  5
1FA
330
2
100
AcDbSymbolTableRecord
100
AcDbLayerTableRecord
  2
DEFAULT_1
 70
     0
 62
     7
  6
CENTER
370
    -3
390
F
  0
LAYER
  5
1FB
330
2
100
AcDbSymbolTableRecord
100
AcDbLayerTableRecord
  2
DEFAULT_2
 70
     0
 62
     8
  6
HIDDEN
370
    -3
390
F
  0
LAYER
  5
1FC
330
2
100
AcDbSymbolTableRecord
100
AcDbLayerTableRecord
  2
DEFAULT_3
 70
     0
 62
     7
  6
PHANTOM
370
    -3
390
F
  0
LAYER
  5
1FD
330
2
100
AcDbSymbolTableRecord
100
AcDbLayerTableRecord
  2
BEZUGSACHSEN
 70
     0
 62
     7
  6
CONTINUOUS
370
    -3
390
F
  0
LAYER
  5
1FE
330
2
100
AcDbSymbolTableRecord
100
AcDbLayerTableRecord
  2
BEZUGSEBENEN
 70
     0
 62
     7
  6
CONTINUOUS
370
    -3
390
F
  0
LAYER
  5
1FF
330
2
100
AcDbSymbolTableRecord
100
AcDbLayerTableRecord
  2
BOHRUNGEN
 70
     0
 62
     7
  6
CONTINUOUS
370
    -3
390
F
  0
LAYER
  5
200
330
2
100
AcDbSymbolTableRecord
100
AcDbLayerTableRecord
  2
FASEN
 70
     0
 62
     7
  6
CONTINUOUS
370
    -3
390
F
  0
LAYER
  5
201
330
2
100
AcDbSymbolTableRecord
100
AcDbLayerTableRecord
  2
GEWINDE
 70
     0
 62
     7
  6
CONTINUOUS
370
    -3
390
F
  0
LAYER
  5
202
330
2
100
AcDbSymbolTableRecord
100
AcDbLayerTableRecord
  2
KURVEN
 70
     0
 62
     7
  6
CONTINUOUS
370
    -3
390
F
  0
LAYER
  5
203
330
2
100
AcDbSymbolTableRecord
100
AcDbLayerTableRecord
  2
METAL-STEEL
 70
     0
 62
     7
  6
CONTINUOUS
370
    -3
390
F
  0
LAYER
  5
204
330
2
100
AcDbSymbolTableRecord
100
AcDbLayerTableRecord
  2
ZEICHNUNGSBEMASSUNGEN
 70
     0
 62
     7
  6
CONTINUOUS
370
    -3
390
F
  0
LAYER
  5
7B5
330
2
100
AcDbSymbolTableRecord
100
AcDbLayerTableRecord
  2
Defpoints
 70
     0
 62
     7
  6
CONTINUOUS
290
     0
370
    -3
390
F
  0
LAYER
  5
936
330
2
100
AcDbSymbolTableRecord
100
AcDbLayerTableRecord
  2
AM_5
 70
     0
 62
     3
  6
CONTINUOUS
370
    25
390
F
1001
AcAecLayerStandard
1000

1000

  0
LAYER
  5
A2F
102
{ACAD_XDICTIONARY
360
A30
102
}
330
2
100
AcDbSymbolTableRecord
100
AcDbLayerTableRecord
  2
P-0000
 70
     0
 62
     7
  6
CONTINUOUS
370
    -3
390
F
  0
ENDTAB
  0
TABLE
  2
STYLE
  5
3
330
0
100
AcDbSymbolTable
 70
     6
  0
STYLE
  5
11
330
3
100
AcDbSymbolTableRecord
100
AcDbTextStyleTableRecord
  2
STANDARD
 70
     0
 40
0.0
 41
0.7
 50
0.0
 71
     0
 42
0.2
  3
txt
  4

  0
STYLE
  5
205
330
3
100
AcDbSymbolTableRecord
100
AcDbTextStyleTableRecord
  2
TEXTSTYLE_1
 70
     0
 40
0.0
 41
0.8
 50
0.0
 71
     0
 42
0.2
  3
gdt
  4

  0
STYLE
  5
206
330
3
100
AcDbSymbolTableRecord
100
AcDbTextStyleTableRecord
  2
TEXTSTYLE_2
 70
     0
 40
0.0
 41
0.6
 50
0.0
 71
     0
 42
0.2
  3
txt
  4

  0
STYLE
  5
790
330
3
100
AcDbSymbolTableRecord
100
AcDbTextStyleTableRecord
  2

 70
     1
 40
0.0
 41
1.0
 50
0.0
 71
     0
 42
0.2
  3
genltshp.shx
  4

  0
STYLE
  5
7A3
330
3
100
AcDbSymbolTableRecord
100
AcDbTextStyleTableRecord
  2
ACDINTS
 70
     0
 40
1.0
 41
1.0
 50
0.0
 71
     0
 42
0.2
  3
isocp.shx
  4

  0
STYLE
  5
7A4
330
3
100
AcDbSymbolTableRecord
100
AcDbTextStyleTableRecord
  2
ACDINGDT
 70
     0
 40
0.0
 41
1.0
 50
0.0
 71
     0
 42
0.2
  3
amgdt.shx
  4

  0
ENDTAB
  0
TABLE
  2
VIEW
  5
6
330
0
100
AcDbSymbolTable
 70
     0
  0
ENDTAB
  0
TABLE
  2
UCS
  5
7
330
0
100
AcDbSymbolTable
 70
     0
  0
ENDTAB
  0
TABLE
  2
APPID
  5
9
330
0
100
AcDbSymbolTable
 70
    22
  0
APPID
  5
207
330
9
100
AcDbSymbolTableRecord
100
AcDbRegAppTableRecord
  2
ACAD
 70
     0
  0
APPID
  5
718
330
9
100
AcDbSymbolTableRecord
100
AcDbRegAppTableRecord
  2
MCAD_NO_VIS
 70
     0
  0
APPID
  5
719
330
9
100
AcDbSymbolTableRecord
100
AcDbRegAppTableRecord
  2
ACAD_TEMP_GRAPHIC
 70
     0
  0
APPID
  5
745
330
9
100
AcDbSymbolTableRecord
100
AcDbRegAppTableRecord
  2
AD_DRAW
 70
     0
  0
APPID
  5
748
330
9
100
AcDbSymbolTableRecord
100
AcDbRegAppTableRecord
  2
ACATTRIBSERVICES
 70
     0
  0
APPID
  5
768
330
9
100
AcDbSymbolTableRecord
100
AcDbRegAppTableRecord
  2
DESIGNERASSEMBLIES
 70
     0
  0
APPID
  5
76E
330
9
100
AcDbSymbolTableRecord
100
AcDbRegAppTableRecord
  2
ACADM_DIM_EDIT
 70
     0
  0
APPID
  5
76F
330
9
100
AcDbSymbolTableRecord
100
AcDbRegAppTableRecord
  2
AMDT_DM_ADJ
 70
     0
  0
APPID
  5
786
330
9
100
AcDbSymbolTableRecord
100
AcDbRegAppTableRecord
  2
ACAD_DSTYLE_DIMJAG
 70
     0
  0
APPID
  5
787
330
9
100
AcDbSymbolTableRecord
100
AcDbRegAppTableRecord
  2
ACAD_DSTYLE_DIMBREAK
 70
     0
  0
APPID
  5
7DA
330
9
100
AcDbSymbolTableRecord
100
AcDbRegAppTableRecord
  2
AcAecLayerStandard
 70
     0
  0
APPID
  5
7DB
330
9
100
AcDbSymbolTableRecord
100
AcDbRegAppTableRecord
  2
GENIUS_GENODEF_13
 70
     0
  0
APPID
  5
7DC
330
9
100
AcDbSymbolTableRecord
100
AcDbRegAppTableRecord
  2
GENIUS_GENOBJ-N-HTC_13
 70
     0
  0
APPID
  5
7DD
330
9
100
AcDbSymbolTableRecord
100
AcDbRegAppTableRecord
  2
GENIUS_GENHATCH_13
 70
     0
  0
APPID
  5
7DE
330
9
100
AcDbSymbolTableRecord
100
AcDbRegAppTableRecord
  2
ACAD_EXEMPT_FROM_CAD_STANDARDS
 70
     0
  0
APPID
  5
7DF
330
9
100
AcDbSymbolTableRecord
100
AcDbRegAppTableRecord
  2
ACAD_MLEADERVER
 70
     0
  0
APPID
  5
7E0
330
9
100
AcDbSymbolTableRecord
100
AcDbRegAppTableRecord
  2
ACAD_DSTYLE_DIMJOGGED_JOGANGLE_SYMBOL
 70
     0
  0
APPID
  5
7E1
330
9
100
AcDbSymbolTableRecord
100
AcDbRegAppTableRecord
  2
ACAD_DSTYLE_DIM_LINETYPE
 70
     0
  0
APPID
  5
7E2
330
9
100
AcDbSymbolTableRecord
100
AcDbRegAppTableRecord
  2
ACAD_DSTYLE_DIM_EXT1_LINETYPE
 70
     0
  0
APPID
  5
7E3
330
9
100
AcDbSymbolTableRecord
100
AcDbRegAppTableRecord
  2
ACAD_DSTYLE_DIM_EXT2_LINETYPE
 70
     0
  0
APPID
  5
7E4
330
9
100
AcDbSymbolTableRecord
100
AcDbRegAppTableRecord
  2
ACAD_DSTYLE_DIMINSPECT
 70
     0
  0
APPID
  5
7E5
330
9
100
AcDbSymbolTableRecord
100
AcDbRegAppTableRecord
  2
GENIUS_GENDTOL_13
 70
     0
  0
ENDTAB
  0
TABLE
  2
DIMSTYLE
  5
A
330
0
100
AcDbSymbolTable
 70
    12
100
AcDbDimStyleTable
 71
     3
340
A31
340
20F
340
211
  0
DIMSTYLE
105
20F
330
A
100
AcDbSymbolTableRecord
100
AcDbDimStyleTableRecord
  2
STANDARD
 70
     0
 41
3.5
 42
1.5
 44
1.5
 47
0.005
 48
0.005
 71
     1
 73
     0
 74
     0
 77
     1
 78
     8
140
3.5
147
0.625
178
     5
271
     3
272
     3
284
     8
340
11
341
20A
342
20A
343
20A
344
20A
  0
DIMSTYLE
105
210
330
A
100
AcDbSymbolTableRecord
100
AcDbDimStyleTableRecord
  2
DIMSTYLE_1
 70
     0
 41
3.5
 42
1.5
 44
1.5
 47
0.3
 48
0.3
 73
     0
 74
     0
 77
     1
 78
     8
140
3.5
147
0.875
178
     5
271
     3
272
     3
284
     8
340
11
341
20A
342
20A
343
20A
344
20A
  0
DIMSTYLE
105
211
330
A
100
AcDbSymbolTableRecord
100
AcDbDimStyleTableRecord
  2
DIMSTYLE_2
 70
     0
 41
3.5
 42
1.5
 44
1.5
 48
1.0
 71
     1
 73
     0
 74
     0
 77
     1
 78
     8
140
3.5
146
0.6
147
0.875
178
     5
271
     3
272
     3
284
     8
340
11
341
20A
342
20A
343
20A
344
20A
  0
DIMSTYLE
105
785
102
{ACAD_REACTORS
330
D96
102
}
330
A
100
AcDbSymbolTableRecord
100
AcDbDimStyleTableRecord
  2
AM_DIN
 70
     0
  4
"
 41
3.5
 42
1.0
 43
10.0
 44
1.0
 47
0.1
 48
0.1
 73
     0
 74
     0
 77
     1
 78
     8
 79
     2
140
3.5
141
0.0
143
0.0393701
146
0.71
147
1.5
172
     1
176
   256
177
   256
178
     2
271
     2
272
     3
274
     4
283
     0
284
     8
340
11
371
    -1
372
    -1
1001
ACAD_DSTYLE_DIMJAG
1070
   388
1040
1.5
1001
ACAD_DSTYLE_DIMBREAK
1070
   391
1040
3.75
1001
ACAD_DSTYLE_DIMJOGGED_JOGANGLE_SYMBOL
1070
   384
1040
1.570796326794896
1001
ACAD_DSTYLE_DIM_LINETYPE
1070
   380
1005
14
1001
ACAD_DSTYLE_DIM_EXT1_LINETYPE
1070
   381
1005
14
1001
ACAD_DSTYLE_DIM_EXT2_LINETYPE
1070
   382
1005
14
  0
DIMSTYLE
105
797
330
A
100
AcDbSymbolTableRecord
100
AcDbDimStyleTableRecord
  2
AM_DIN$3
 70
     0
  4
"
 41
3.5
 42
1.0
 43
10.0
 44
1.0
 47
0.1
 48
0.1
 73
     0
 77
     1
 78
     8
 79
     2
140
3.5
141
0.0
143
0.0393701
146
0.71
147
1.5
176
   256
177
   256
178
     2
271
     2
272
     3
274
     4
283
     0
284
     8
288
     1
289
     0
340
11
371
    -1
372
    -1
1001
ACAD_DSTYLE_DIMBREAK
1070
   391
1040
3.75
1001
ACAD_DSTYLE_DIMJAG
1070
   388
1040
1.5
1001
ACAD_DSTYLE_DIMJOGGED_JOGANGLE_SYMBOL
1070
   384
1040
1.570796326794896
1001
ACAD_DSTYLE_DIM_LINETYPE
1070
   380
1005
14
1001
ACAD_DSTYLE_DIM_EXT1_LINETYPE
1070
   381
1005
14
1001
ACAD_DSTYLE_DIM_EXT2_LINETYPE
1070
   382
1005
14
  0
DIMSTYLE
105
798
330
A
100
AcDbSymbolTableRecord
100
AcDbDimStyleTableRecord
  2
AM_DIN$4
 70
     0
  4
"
 41
3.5
 42
1.0
 43
10.0
 44
1.0
 47
0.1
 48
0.1
 73
     0
 77
     1
 78
     8
 79
     2
140
3.5
141
0.0
143
0.0393701
146
0.71
147
1.5
176
   256
177
   256
178
     2
271
     2
272
     3
274
     4
283
     0
284
     8
288
     1
289
     0
340
11
371
    -1
372
    -1
1001
ACAD_DSTYLE_DIMBREAK
1070
   391
1040
3.75
1001
ACAD_DSTYLE_DIMJAG
1070
   388
1040
1.5
1001
ACAD_DSTYLE_DIMJOGGED_JOGANGLE_SYMBOL
1070
   384
1040
1.570796326794896
1001
ACAD_DSTYLE_DIM_LINETYPE
1070
   380
1005
14
1001
ACAD_DSTYLE_DIM_EXT1_LINETYPE
1070
   381
1005
14
1001
ACAD_DSTYLE_DIM_EXT2_LINETYPE
1070
   382
1005
14
  0
DIMSTYLE
105
799
330
A
100
AcDbSymbolTableRecord
100
AcDbDimStyleTableRecord
  2
AM_DIN$6
 70
     0
  4
"
 41
3.5
 42
1.0
 43
10.0
 44
1.0
 47
0.1
 48
0.1
 73
     0
 74
     0
 78
     8
 79
     2
140
3.5
141
0.0
143
0.0393701
146
0.71
147
1.5
172
     1
176
   256
177
   256
178
     2
271
     2
272
     3
274
     4
283
     0
284
     8
340
11
371
    -1
372
    -1
1001
ACAD_DSTYLE_DIMBREAK
1070
   391
1040
3.75
1001
ACAD_DSTYLE_DIMJAG
1070
   388
1040
1.5
1001
ACAD_DSTYLE_DIMJOGGED_JOGANGLE_SYMBOL
1070
   384
1040
1.570796326794896
1001
ACAD_DSTYLE_DIM_LINETYPE
1070
   380
1005
14
1001
ACAD_DSTYLE_DIM_EXT1_LINETYPE
1070
   381
1005
14
1001
ACAD_DSTYLE_DIM_EXT2_LINETYPE
1070
   382
1005
14
  0
DIMSTYLE
105
79A
330
A
100
AcDbSymbolTableRecord
100
AcDbDimStyleTableRecord
  2
AM_DIN$7
 70
     0
  4
"
 41
3.5
 42
1.0
 43
10.0
 44
1.0
 47
0.1
 48
0.1
 73
     0
 74
     0
 77
     1
 78
     8
 79
     2
140
3.5
141
0.0
143
0.0393701
146
0.71
147
1.5
172
     1
176
   256
177
   256
178
     2
271
     2
272
     3
274
     4
283
     0
284
     8
340
11
371
    -1
372
    -1
1001
ACAD_DSTYLE_DIMBREAK
1070
   391
1040
3.75
1001
ACAD_DSTYLE_DIMJAG
1070
   388
1040
1.5
1001
ACAD_DSTYLE_DIMJOGGED_JOGANGLE_SYMBOL
1070
   384
1040
1.570796326794896
1001
ACAD_DSTYLE_DIM_LINETYPE
1070
   380
1005
14
1001
ACAD_DSTYLE_DIM_EXT1_LINETYPE
1070
   381
1005
14
1001
ACAD_DSTYLE_DIM_EXT2_LINETYPE
1070
   382
1005
14
  0
DIMSTYLE
105
79B
330
A
100
AcDbSymbolTableRecord
100
AcDbDimStyleTableRecord
  2
AM_DIN$SF
 70
     0
  4
"
 41
3.5
 42
1.0
 43
10.0
 44
1.0
 47
0.1
 48
0.1
 73
     0
 74
     0
 75
     1
 76
     1
 77
     1
 78
     8
 79
     2
140
3.5
141
0.0
143
0.0393701
146
0.71
147
1.5
172
     1
176
   256
177
   256
178
     2
271
     2
272
     3
274
     4
283
     0
284
     8
340
11
371
    -1
372
    -1
1001
ACAD_DSTYLE_DIMBREAK
1070
   391
1040
3.75
1001
ACAD_DSTYLE_DIMJAG
1070
   388
1040
1.5
1001
ACAD_DSTYLE_DIMJOGGED_JOGANGLE_SYMBOL
1070
   384
1040
1.570796326794896
1001
ACAD_DSTYLE_DIM_LINETYPE
1070
   380
1005
14
1001
ACAD_DSTYLE_DIM_EXT1_LINETYPE
1070
   381
1005
14
1001
ACAD_DSTYLE_DIM_EXT2_LINETYPE
1070
   382
1005
14
  0
DIMSTYLE
105
7A0
330
A
100
AcDbSymbolTableRecord
100
AcDbDimStyleTableRecord
  2
AM_DIN$SH
 70
     0
  4
"
 41
3.5
 42
1.0
 43
10.0
 44
1.0
 47
0.1
 48
0.1
 73
     0
 74
     0
 75
     1
 76
     1
 77
     1
 78
     8
 79
     2
140
3.5
141
0.0
143
0.0393701
144
2.0
146
0.71
147
1.5
172
     1
173
     1
176
   256
177
   256
178
     2
271
     2
272
     3
274
     4
283
     0
284
     8
340
11
343
79C
371
    -1
372
    -1
1001
ACAD_DSTYLE_DIMBREAK
1070
   391
1040
3.75
1001
ACAD_DSTYLE_DIMJAG
1070
   388
1040
1.5
1001
ACAD_DSTYLE_DIMJOGGED_JOGANGLE_SYMBOL
1070
   384
1040
1.570796326794896
1001
ACAD_DSTYLE_DIM_LINETYPE
1070
   380
1005
14
1001
ACAD_DSTYLE_DIM_EXT1_LINETYPE
1070
   381
1005
14
1001
ACAD_DSTYLE_DIM_EXT2_LINETYPE
1070
   382
1005
14
  0
DIMSTYLE
105
937
330
A
100
AcDbSymbolTableRecord
100
AcDbDimStyleTableRecord
  2
STANDARD$0
 70
     0
 41
3.5
 42
1.5
 44
1.5
 47
0.005
 48
0.005
 71
     1
 73
     0
 74
     0
 77
     1
 78
     8
140
3.5
147
0.625
178
     5
271
     3
272
     3
284
     8
340
11
341
20A
342
20A
343
20A
344
20A
1001
ACAD_DSTYLE_DIMBREAK
1070
   391
1040
3.75
1001
ACAD_DSTYLE_DIMJAG
1070
   388
1040
1.5
  0
DIMSTYLE
105
A31
102
{ACAD_REACTORS
330
971
330
939
330
9DB
102
}
330
A
100
AcDbSymbolTableRecord
100
AcDbDimStyleTableRecord
  2
883N99122_001_00149479900
 70
     0
 40
2.0
 41
3.149999999999999
 42
0.0
 43
3.75
 44
2.0
 73
     0
 74
     0
 77
     1
 78
     8
 79
     2
140
3.5
141
0.0
143
0.03937007874016
145
2.0
147
2.0
171
     3
172
     1
173
     1
176
     3
177
     3
178
     2
179
     2
271
     2
272
     2
274
     3
283
     0
284
     8
340
11
341
A2C
  0
ENDTAB
  0
TABLE
  2
BLOCK_RECORD
  5
1
330
0
100
AcDbSymbolTable
 70
    15
  0
BLOCK_RECORD
  5
208
330
1
100
AcDbSymbolTableRecord
100
AcDbBlockTableRecord
  2
*Model_Space
340
6C8
  0
BLOCK_RECORD
  5
209
330
1
100
AcDbSymbolTableRecord
100
AcDbBlockTableRecord
  2
*Paper_Space
340
6C9
  0
BLOCK_RECORD
  5
20A
330
1
100
AcDbSymbolTableRecord
100
AcDbBlockTableRecord
  2
_FILLED
340
0
102
{BLKREFS
331
7F6
331
7F7
331
80C
331
80D
331
822
331
823
331
838
331
839
102
}
  0
BLOCK_RECORD
  5
20B
330
1
100
AcDbSymbolTableRecord
100
AcDbBlockTableRecord
  2
*D1
340
0
  0
BLOCK_RECORD
  5
20C
330
1
100
AcDbSymbolTableRecord
100
AcDbBlockTableRecord
  2
*D2
340
0
  0
BLOCK_RECORD
  5
20D
330
1
100
AcDbSymbolTableRecord
100
AcDbBlockTableRecord
  2
*D3
340
0
  0
BLOCK_RECORD
  5
20E
330
1
100
AcDbSymbolTableRecord
100
AcDbBlockTableRecord
  2
*D4
340
0
  0
BLOCK_RECORD
  5
79C
330
1
100
AcDbSymbolTableRecord
100
AcDbBlockTableRecord
  2
GENAXEH
340
0
  0
BLOCK_RECORD
  5
93A
330
1
100
AcDbSymbolTableRecord
100
AcDbBlockTableRecord
  2
*D6
340
0
  0
BLOCK_RECORD
  5
972
330
1
100
AcDbSymbolTableRecord
100
AcDbBlockTableRecord
  2
*D7
340
0
  0
BLOCK_RECORD
  5
9DC
330
1
100
AcDbSymbolTableRecord
100
AcDbBlockTableRecord
  2
*D8
340
0
  0
BLOCK_RECORD
  5
A14
330
1
100
AcDbSymbolTableRecord
100
AcDbBlockTableRecord
  2
*D9
340
0
  0
BLOCK_RECORD
  5
A20
330
1
100
AcDbSymbolTableRecord
100
AcDbBlockTableRecord
  2
*D10
340
0
  0
BLOCK_RECORD
  5
A2C
330
1
100
AcDbSymbolTableRecord
100
AcDbBlockTableRecord
  2
_None
340
0
  0
BLOCK_RECORD
  5
CB6
330
1
100
AcDbSymbolTableRecord
100
AcDbBlockTableRecord
  2
*D12
340
0
  0
BLOCK_RECORD
  5
CC2
330
1
100
AcDbSymbolTableRecord
100
AcDbBlockTableRecord
  2
*D13
340
0
  0
ENDTAB
  0
ENDSEC
  0
SECTION
  2
BLOCKS
  0
BLOCK
  5
20
330
208
100
AcDbEntity
  8
0
100
AcDbBlockBegin
  2
*Model_Space
 70
     0
 10
0.0
 20
0.0
 30
0.0
  3
*Model_Space
  1

  0
ENDBLK
  5
21
330
208
100
AcDbEntity
  8
0
100
AcDbBlockEnd
  0
BLOCK
  5
1C
330
209
100
AcDbEntity
 67
     1
  8
0
100
AcDbBlockBegin
  2
*Paper_Space
 70
     0
 10
0.0
 20
0.0
 30
0.0
  3
*Paper_Space
  1

  0
ENDBLK
  5
1D
330
209
100
AcDbEntity
 67
     1
  8
0
100
AcDbBlockEnd
  0
BLOCK
  5
212
330
20A
100
AcDbEntity
  8
0
100
AcDbBlockBegin
  2
_FILLED
 70
     0
 10
0.0
 20
0.0
 30
0.0
  3
_FILLED
  1

  0
SOLID
  5
213
330
20A
100
AcDbEntity
  8
0
  6
ByBlock
 62
     0
100
AcDbTrace
 10
0.0
 20
0.0
 30
0.0
 11
-1.0
 21
0.125
 31
0.0
 12
-1.0
 22
-0.125
 32
0.0
 13
-1.0
 23
-0.125
 33
0.0
  0
ENDBLK
  5
214
330
20A
100
AcDbEntity
  8
0
  6
ByBlock
 62
     0
100
AcDbBlockEnd
  0
BLOCK
  5
215
330
20B
100
AcDbEntity
  8
ZEICHNUNGSBEMASSUNGEN
  6
Continuous
 62
     2
100
AcDbBlockBegin
  2
*D1
 70
     1
 10
0.0
 20
0.0
 30
0.0
  3
*D1
  1

  0
LINE
  5
81F
330
20B
100
AcDbEntity
  8
0
  6
Continuous
 62
     0
370
    -2
100
AcDbLine
 10
655.1586820312
 20
276.9432618841999
 30
0.0
 11
655.1586820312
 21
289.1631195889
 31
0.0
  0
LINE
  5
820
330
20B
100
AcDbEntity
  8
0
  6
Continuous
 62
     0
370
    -2
100
AcDbLine
 10
591.1586820312
 20
269.9749897592
 30
0.0
 11
591.1586820312
 21
289.1631195889
 31
0.0
  0
LINE
  5
821
330
20B
100
AcDbEntity
  8
0
  6
Continuous
 62
     0
370
    -2
100
AcDbLine
 10
650.1586820312
 20
287.6631195889
 30
0.0
 11
596.1586820312
 21
287.6631195889
 31
0.0
  0
INSERT
  5
822
330
20B
100
AcDbEntity
  8
0
  6
Continuous
 62
     0
370
    -2
100
AcDbBlockReference
  2
_FILLED
 10
655.1586820312
 20
287.6631195889
 30
0.0
 41
5.0
 42
5.0
 43
5.0
  0
INSERT
  5
823
330
20B
100
AcDbEntity
  8
0
  6
Continuous
 62
     0
370
    -2
100
AcDbBlockReference
  2
_FILLED
 10
591.1586820312
 20
287.6631195889
 30
0.0
 41
5.0
 42
5.0
 43
5.0
 50
180.0
  0
MTEXT
  5
824
330
20B
100
AcDbEntity
  8
0
  6
Continuous
100
AcDbMText
 10
623.1586820311997
 20
296.1631195889
 30
0.0
 40
7.0
 41
0.0
 71
     2
 72
     1
  1
\A1;64
 73
     1
 44
1.0
1001
ACAD
1000
MTEXTBEGIN
1070
    73
1070
     1
1070
    44
1040
1.0
1070
    74
1070
     0
1000
MTEXTEND
  0
POINT
  5
825
330
20B
100
AcDbEntity
  8
Defpoints
  6
Continuous
 62
     0
100
AcDbPoint
 10
655.1586820312
 20
275.4432618841999
 30
0.0
  0
POINT
  5
826
330
20B
100
AcDbEntity
  8
Defpoints
  6
Continuous
 62
     0
100
AcDbPoint
 10
591.1586820312
 20
268.4749897591999
 30
0.0
  0
POINT
  5
827
330
20B
100
AcDbEntity
  8
Defpoints
  6
Continuous
 62
     0
100
AcDbPoint
 10
591.1586820312
 20
287.6631195889
 30
0.0
  0
ENDBLK
  5
21D
330
20B
100
AcDbEntity
  8
0
  6
ByBlock
 62
     0
100
AcDbBlockEnd
  0
BLOCK
  5
21E
330
20C
100
AcDbEntity
  8
ZEICHNUNGSBEMASSUNGEN
  6
Continuous
 62
     2
100
AcDbBlockBegin
  2
*D2
 70
     1
 10
0.0
 20
0.0
 30
0.0
  3
*D2
  1

  0
LINE
  5
835
330
20C
100
AcDbEntity
  8
0
  6
Continuous
 62
     0
370
    -2
100
AcDbLine
 10
656.6586820311997
 20
220.3304617682
 30
0.0
 11
672.0194011276
 21
220.3304617682
 31
0.0
  0
LINE
  5
836
330
20C
100
AcDbEntity
  8
0
  6
Continuous
 62
     0
370
    -2
100
AcDbLine
 10
656.6586820311997
 20
158.8304617682
 30
0.0
 11
672.0194011276
 21
158.8304617682
 31
0.0
  0
LINE
  5
837
330
20C
100
AcDbEntity
  8
0
  6
Continuous
 62
     0
370
    -2
100
AcDbLine
 10
670.5194011276001
 20
215.3304617682
 30
0.0
 11
670.5194011276001
 21
163.8304617682
 31
0.0
  0
INSERT
  5
838
330
20C
100
AcDbEntity
  8
0
  6
Continuous
 62
     0
370
    -2
100
AcDbBlockReference
  2
_FILLED
 10
670.5194011276001
 20
220.3304617682
 30
0.0
 41
5.0
 42
5.0
 43
5.0
 50
90.0
  0
INSERT
  5
839
330
20C
100
AcDbEntity
  8
0
  6
Continuous
 62
     0
370
    -2
100
AcDbBlockReference
  2
_FILLED
 10
670.5194011276001
 20
158.8304617682
 30
0.0
 41
5.0
 42
5.0
 43
5.0
 50
270.0
  0
MTEXT
  5
83A
330
20C
100
AcDbEntity
  8
0
  6
Continuous
100
AcDbMText
 10
662.0194011276001
 20
189.5804617682
 30
0.0
 40
7.0
 41
0.0
 71
     2
 72
     1
  1
\A1;61.5
 11
0.0000000000000001
 21
1.0
 31
0.0
 73
     1
 44
1.0
1001
ACAD
1000
MTEXTBEGIN
1070
    73
1070
     1
1070
    44
1040
1.0
1070
    74
1070
     0
1000
MTEXTEND
  0
POINT
  5
83B
330
20C
100
AcDbEntity
  8
Defpoints
  6
Continuous
 62
     0
100
AcDbPoint
 10
655.1586820312
 20
220.3304617682
 30
0.0
  0
POINT
  5
83C
330
20C
100
AcDbEntity
  8
Defpoints
  6
Continuous
 62
     0
100
AcDbPoint
 10
655.1586820312
 20
158.8304617682
 30
0.0
  0
POINT
  5
83D
330
20C
100
AcDbEntity
  8
Defpoints
  6
Continuous
 62
     0
100
AcDbPoint
 10
670.5194011276001
 20
158.8304617682
 30
0.0
  0
ENDBLK
  5
226
330
20C
100
AcDbEntity
  8
0
  6
ByBlock
 62
     0
100
AcDbBlockEnd
  0
BLOCK
  5
227
330
20D
100
AcDbEntity
  8
0
  6
Continuous
 62
     2
100
AcDbBlockBegin
  2
*D3
 70
     1
 10
0.0
 20
0.0
 30
0.0
  3
*D3
  1

  0
LINE
  5
809
330
20D
100
AcDbEntity
  8
0
  6
Continuous
 62
     0
370
    -2
100
AcDbLine
 10
-222.8413179688
 20
217.8729259073
 30
0.0
 11
-222.8413179688
 21
230.2012449275
 31
0.0
  0
LINE
  5
80A
330
20D
100
AcDbEntity
  8
0
  6
Continuous
 62
     0
370
    -2
100
AcDbLine
 10
655.1586820312
 20
217.8729259073
 30
0.0
 11
655.1586820312
 21
230.2012449275
 31
0.0
  0
LINE
  5
80B
330
20D
100
AcDbEntity
  8
0
  6
Continuous
 62
     0
370
    -2
100
AcDbLine
 10
-217.8413179688
 20
228.7012449275
 30
0.0
 11
650.1586820312
 21
228.7012449275
 31
0.0
  0
INSERT
  5
80C
330
20D
100
AcDbEntity
  8
0
  6
Continuous
 62
     0
370
    -2
100
AcDbBlockReference
  2
_FILLED
 10
-222.8413179688
 20
228.7012449275
 30
0.0
 41
5.0
 42
5.0
 43
5.0
 50
180.0
  0
INSERT
  5
80D
330
20D
100
AcDbEntity
  8
0
  6
Continuous
 62
     0
370
    -2
100
AcDbBlockReference
  2
_FILLED
 10
655.1586820312
 20
228.7012449275
 30
0.0
 41
5.0
 42
5.0
 43
5.0
  0
MTEXT
  5
80E
330
20D
100
AcDbEntity
  8
0
  6
Continuous
100
AcDbMText
 10
216.1586820312
 20
237.2012449275
 30
0.0
 40
7.0
 41
0.0
 71
     2
 72
     1
  1
\A1;878
 73
     1
 44
1.0
1001
ACAD
1000
MTEXTBEGIN
1070
    73
1070
     1
1070
    44
1040
1.0
1070
    74
1070
     0
1000
MTEXTEND
  0
POINT
  5
80F
330
20D
100
AcDbEntity
  8
Defpoints
  6
Continuous
 62
     0
100
AcDbPoint
 10
-222.8413179688
 20
216.3729259073
 30
0.0
  0
POINT
  5
810
330
20D
100
AcDbEntity
  8
Defpoints
  6
Continuous
 62
     0
100
AcDbPoint
 10
655.1586820312
 20
216.3729259073
 30
0.0
  0
POINT
  5
811
330
20D
100
AcDbEntity
  8
Defpoints
  6
Continuous
 62
     0
100
AcDbPoint
 10
655.1586820312
 20
228.7012449275
 30
0.0
  0
ENDBLK
  5
231
330
20D
100
AcDbEntity
  8
0
  6
ByBlock
 62
     0
100
AcDbBlockEnd
  0
BLOCK
  5
232
330
20E
100
AcDbEntity
  8
0
  6
Continuous
 62
     2
100
AcDbBlockBegin
  2
*D4
 70
     1
 10
0.0
 20
0.0
 30
0.0
  3
*D4
  1

  0
LINE
  5
7F3
330
20E
100
AcDbEntity
  8
0
  6
Continuous
 62
     0
370
    -2
100
AcDbLine
 10
-158.8413179688
 20
277.6786447971
 30
0.0
 11
-158.8413179688
 21
289.1631195889
 31
0.0
  0
LINE
  5
7F4
330
20E
100
AcDbEntity
  8
0
  6
Continuous
 62
     0
370
    -2
100
AcDbLine
 10
-222.8413179688
 20
277.6786447971
 30
0.0
 11
-222.8413179688
 21
289.1631195889
 31
0.0
  0
LINE
  5
7F5
330
20E
100
AcDbEntity
  8
0
  6
Continuous
 62
     0
370
    -2
100
AcDbLine
 10
-163.8413179688
 20
287.6631195889
 30
0.0
 11
-217.8413179688
 21
287.6631195889
 31
0.0
  0
INSERT
  5
7F6
330
20E
100
AcDbEntity
  8
0
  6
Continuous
 62
     0
370
    -2
100
AcDbBlockReference
  2
_FILLED
 10
-158.8413179688
 20
287.6631195889
 30
0.0
 41
5.0
 42
5.0
 43
5.0
  0
INSERT
  5
7F7
330
20E
100
AcDbEntity
  8
0
  6
Continuous
 62
     0
370
    -2
100
AcDbBlockReference
  2
_FILLED
 10
-222.8413179688
 20
287.6631195889
 30
0.0
 41
5.0
 42
5.0
 43
5.0
 50
180.0
  0
MTEXT
  5
7F8
330
20E
100
AcDbEntity
  8
0
  6
Continuous
100
AcDbMText
 10
-190.8413179688
 20
296.1631195889
 30
0.0
 40
7.0
 41
0.0
 71
     2
 72
     1
  1
\A1;64
 73
     1
 44
1.0
1001
ACAD
1000
MTEXTBEGIN
1070
    73
1070
     1
1070
    44
1040
1.0
1070
    74
1070
     0
1000
MTEXTEND
  0
POINT
  5
7F9
330
20E
100
AcDbEntity
  8
Defpoints
  6
Continuous
 62
     0
100
AcDbPoint
 10
-158.8413179688
 20
276.1786447971
 30
0.0
  0
POINT
  5
7FA
330
20E
100
AcDbEntity
  8
Defpoints
  6
Continuous
 62
     0
100
AcDbPoint
 10
-222.8413179688
 20
276.1786447971
 30
0.0
  0
POINT
  5
7FB
330
20E
100
AcDbEntity
  8
Defpoints
  6
Continuous
 62
     0
100
AcDbPoint
 10
-222.8413179688
 20
287.6631195889
 30
0.0
  0
ENDBLK
  5
23A
330
20E
100
AcDbEntity
  8
0
  6
ByBlock
 62
     0
100
AcDbBlockEnd
  0
BLOCK
  5
79E
330
79C
100
AcDbEntity
  8
0
100
AcDbBlockBegin
  2
GENAXEH
 70
     0
 10
0.0
 20
0.0
 30
0.0
  3
GENAXEH
  1

  0
LINE
  5
79D
330
79C
100
AcDbEntity
  8
0
100
AcDbLine
 10
-1.0
 20
0.0
 30
0.0
 11
1.0
 21
0.0
 31
0.0
  0
ENDBLK
  5
79F
330
79C
100
AcDbEntity
  8
0
100
AcDbBlockEnd
  0
BLOCK
  5
93B
330
93A
100
AcDbEntity
  8
0
100
AcDbBlockBegin
  2
*D6
 70
     1
 10
0.0
 20
0.0
 30
0.0
  3
*D6
  1

  0
LINE
  5
DCF
330
93A
100
AcDbEntity
  8
P-0000
  6
Continuous
 62
     3
370
    -2
100
AcDbLine
 10
-220.8413179688
 20
262.4786447971
 30
0.0
 11
-262.4569890877133
 21
262.4786447971
 31
0.0
  0
LINE
  5
DD0
330
93A
100
AcDbEntity
  8
P-0000
  6
Continuous
 62
     3
370
    -2
100
AcDbLine
 10
-222.8413179688
 20
277.6776081934
 30
0.0
 11
-262.4569890877133
 21
277.6776081934
 31
0.0
  0
LINE
  5
DD1
330
93A
100
AcDbEntity
  8
P-0000
  6
Continuous
 62
     3
370
    -2
100
AcDbLine
 10
-258.4569890877133
 20
256.1786447971
 30
0.0
 11
-258.4569890877133
 21
249.8786447971
 31
0.0
  0
LINE
  5
DD2
330
93A
100
AcDbEntity
  8
P-0000
  6
Continuous
 62
     3
370
    -2
100
AcDbLine
 10
-258.4569890877133
 20
283.9776081934
 30
0.0
 11
-258.4569890877133
 21
290.2776081934
 31
0.0
  0
LINE
  5
DD3
330
93A
100
AcDbEntity
  8
P-0000
  6
Continuous
 62
     3
370
    -2
100
AcDbLine
 10
-258.4569890877133
 20
262.4786447971
 30
0.0
 11
-258.4569890877133
 21
277.6776081934
 31
0.0
  0
SOLID
  5
DD4
330
93A
100
AcDbEntity
  8
P-0000
  6
Continuous
 62
     3
100
AcDbTrace
 10
-259.5069890877133
 20
256.1786447971
 30
0.0
 11
-257.4069890877133
 21
256.1786447971
 31
0.0
 12
-258.4569890877133
 22
262.4786447971
 32
0.0
 13
-258.4569890877133
 23
262.4786447971
 33
0.0
  0
SOLID
  5
DD5
330
93A
100
AcDbEntity
  8
P-0000
  6
Continuous
 62
     3
100
AcDbTrace
 10
-259.5069890877133
 20
283.9776081934
 30
0.0
 11
-257.4069890877133
 21
283.9776081934
 31
0.0
 12
-258.4569890877133
 22
277.6776081934
 32
0.0
 13
-258.4569890877133
 23
277.6776081934
 33
0.0
  0
MTEXT
  5
DD6
330
93A
100
AcDbEntity
  8
P-0000
  6
Continuous
 62
     2
100
AcDbMText
 10
-265.9569890877133
 20
270.07812649525
 30
0.0
 40
7.0
 41
0.0
 71
     5
 72
     1
  1
15
 11
0.0000000000000001
 21
1.0
 31
0.0
 73
     1
 44
1.0
1001
ACAD
1000
MTEXTBEGIN
1070
    73
1070
     1
1070
    44
1040
1.0
1070
    74
1070
     0
1000
MTEXTEND
  0
POINT
  5
DD7
330
93A
100
AcDbEntity
  8
Defpoints
  6
Continuous
 62
     0
100
AcDbPoint
 10
-220.8413179688
 20
262.4786447971
 30
0.0
  0
POINT
  5
DD8
330
93A
100
AcDbEntity
  8
Defpoints
  6
Continuous
 62
     0
100
AcDbPoint
 10
-222.8413179688
 20
277.6776081934
 30
0.0
  0
POINT
  5
DD9
330
93A
100
AcDbEntity
  8
Defpoints
  6
Continuous
 62
     0
100
AcDbPoint
 10
-258.4569890877133
 20
277.6776081934
 30
0.0
  0
ENDBLK
  5
93C
330
93A
100
AcDbEntity
  8
0
100
AcDbBlockEnd
  0
BLOCK
  5
973
330
972
100
AcDbEntity
  8
0
100
AcDbBlockBegin
  2
*D7
 70
     1
 10
0.0
 20
0.0
 30
0.0
  3
*D7
  1

  0
LINE
  5
DBA
330
972
100
AcDbEntity
  8
P-0000
  6
Continuous
 62
     3
370
    -2
100
AcDbLine
 10
-222.8413179688
 20
220.3305746687
 30
0.0
 11
-262.589622890588
 21
220.3305746687
 31
0.0
  0
LINE
  5
DBB
330
972
100
AcDbEntity
  8
P-0000
  6
Continuous
 62
     3
370
    -2
100
AcDbLine
 10
-222.8413179688
 20
158.8291459545
 30
0.0
 11
-262.589622890588
 21
158.8291459545
 31
0.0
  0
LINE
  5
DBC
330
972
100
AcDbEntity
  8
P-0000
  6
Continuous
 62
     3
370
    -2
100
AcDbLine
 10
-258.589622890588
 20
214.0305746687
 30
0.0
 11
-258.589622890588
 21
197.458686680385
 31
0.0
  0
LINE
  5
DBD
330
972
100
AcDbEntity
  8
P-0000
  6
Continuous
 62
     3
370
    -2
100
AcDbLine
 10
-258.589622890588
 20
165.1291459545
 30
0.0
 11
-258.589622890588
 21
181.2920200137184
 31
0.0
  0
MTEXT
  5
DBE
330
972
100
AcDbEntity
  8
P-0000
  6
Continuous
 62
     2
100
AcDbMText
 10
-258.5896228905881
 20
189.3753533470517
 30
0.0
 40
7.0
 41
0.0
 71
     5
 72
     1
  1
62
 11
0.0000000000000001
 21
1.0
 31
0.0
 73
     1
 44
1.0
1001
ACAD
1000
MTEXTBEGIN
1070
    73
1070
     1
1070
    44
1040
1.0
1070
    74
1070
     0
1000
MTEXTEND
  0
SOLID
  5
DBF
330
972
100
AcDbEntity
  8
P-0000
  6
Continuous
 62
     3
100
AcDbTrace
 10
-259.639622890588
 20
214.0305746687
 30
0.0
 11
-257.539622890588
 21
214.0305746687
 31
0.0
 12
-258.589622890588
 22
220.3305746687
 32
0.0
 13
-258.589622890588
 23
220.3305746687
 33
0.0
  0
SOLID
  5
DC0
330
972
100
AcDbEntity
  8
P-0000
  6
Continuous
 62
     3
100
AcDbTrace
 10
-259.639622890588
 20
165.1291459545
 30
0.0
 11
-257.539622890588
 21
165.1291459545
 31
0.0
 12
-258.589622890588
 22
158.8291459545
 32
0.0
 13
-258.589622890588
 23
158.8291459545
 33
0.0
  0
POINT
  5
DC1
330
972
100
AcDbEntity
  8
Defpoints
  6
Continuous
 62
     0
100
AcDbPoint
 10
-222.8413179688
 20
220.3305746687
 30
0.0
  0
POINT
  5
DC2
330
972
100
AcDbEntity
  8
Defpoints
  6
Continuous
 62
     0
100
AcDbPoint
 10
-222.8413179688
 20
158.8291459545
 30
0.0
  0
POINT
  5
DC3
330
972
100
AcDbEntity
  8
Defpoints
  6
Continuous
 62
     0
100
AcDbPoint
 10
-258.589622890588
 20
158.8291459545
 30
0.0
  0
ENDBLK
  5
974
330
972
100
AcDbEntity
  8
0
100
AcDbBlockEnd
  0
BLOCK
  5
9DD
330
9DC
100
AcDbEntity
  8
0
100
AcDbBlockBegin
  2
*D8
 70
     1
 10
0.0
 20
0.0
 30
0.0
  3
*D8
  1

  0
LINE
  5
CE3
330
9DC
100
AcDbEntity
  8
P-0000
  6
Continuous
 62
     3
370
    -2
100
AcDbLine
 10
-222.8413179688
 20
158.8291459545
 30
0.0
 11
-222.8413179688
 21
130.0207960982493
 31
0.0
  0
LINE
  5
CE4
330
9DC
100
AcDbEntity
  8
P-0000
  6
Continuous
 62
     3
370
    -2
100
AcDbLine
 10
655.1586820312
 20
158.8303488677
 30
0.0
 11
655.1586820312
 21
130.0207960982493
 31
0.0
  0
LINE
  5
CE5
330
9DC
100
AcDbEntity
  8
P-0000
  6
Continuous
 62
     3
370
    -2
100
AcDbLine
 10
-216.5413179688
 20
134.0207960982493
 30
0.0
 11
648.8586820312
 21
134.0207960982493
 31
0.0
  0
SOLID
  5
CE6
330
9DC
100
AcDbEntity
  8
P-0000
  6
Continuous
 62
     3
100
AcDbTrace
 10
-216.5413179688
 20
135.0707960982493
 30
0.0
 11
-216.5413179688
 21
132.9707960982493
 31
0.0
 12
-222.8413179688
 22
134.0207960982493
 32
0.0
 13
-222.8413179688
 23
134.0207960982493
 33
0.0
  0
SOLID
  5
CE7
330
9DC
100
AcDbEntity
  8
P-0000
  6
Continuous
 62
     3
100
AcDbTrace
 10
648.8586820312
 20
135.0707960982493
 30
0.0
 11
648.8586820312
 21
132.9707960982493
 31
0.0
 12
655.1586820312
 22
134.0207960982493
 32
0.0
 13
655.1586820312
 23
134.0207960982493
 33
0.0
  0
MTEXT
  5
CE8
330
9DC
100
AcDbEntity
  8
P-0000
  6
Continuous
 62
     2
100
AcDbMText
 10
216.1586820312
 20
141.5207960982493
 30
0.0
 40
7.0
 41
0.0
 71
     5
 72
     1
  1
878
 73
     1
 44
1.0
1001
ACAD
1000
MTEXTBEGIN
1070
    73
1070
     1
1070
    44
1040
1.0
1070
    74
1070
     0
1000
MTEXTEND
  0
POINT
  5
CE9
330
9DC
100
AcDbEntity
  8
Defpoints
  6
Continuous
 62
     0
100
AcDbPoint
 10
-222.8413179688
 20
158.8291459545
 30
0.0
  0
POINT
  5
CEA
330
9DC
100
AcDbEntity
  8
Defpoints
  6
Continuous
 62
     0
100
AcDbPoint
 10
655.1586820312
 20
158.8303488677
 30
0.0
  0
POINT
  5
CEB
330
9DC
100
AcDbEntity
  8
Defpoints
  6
Continuous
 62
     0
100
AcDbPoint
 10
655.1586820312
 20
134.0207960982493
 30
0.0
  0
ENDBLK
  5
9DE
330
9DC
100
AcDbEntity
  8
0
100
AcDbBlockEnd
  0
BLOCK
  5
A15
330
A14
100
AcDbEntity
  8
0
100
AcDbBlockBegin
  2
*D9
 70
     1
 10
0.0
 20
0.0
 30
0.0
  3
*D9
  1

  0
LINE
  5
A16
330
A14
100
AcDbEntity
  8
P-0000
  6
Continuous
 62
     3
370
    -2
100
AcDbLine
 10
-87.47150100110001
 20
235.8228037264
 30
0.0
 11
-103.4715010011
 21
235.8228037264
 31
0.0
  0
LINE
  5
A17
330
A14
100
AcDbEntity
  8
P-0000
  6
Continuous
 62
     3
370
    -2
100
AcDbLine
 10
-87.47150100110001
 20
174.3232768661
 30
0.0
 11
-103.4715010011
 21
174.3232768661
 31
0.0
  0
LINE
  5
A18
330
A14
100
AcDbEntity
  8
P-0000
  6
Continuous
 62
     3
370
    -2
100
AcDbLine
 10
-99.4715010011
 20
229.5228037264
 30
0.0
 11
-99.4715010011
 21
180.6232768661
 31
0.0
  0
SOLID
  5
A19
330
A14
100
AcDbEntity
  8
P-0000
  6
Continuous
 62
     3
100
AcDbTrace
 10
-100.5215010011
 20
229.5228037264
 30
0.0
 11
-98.42150100110002
 21
229.5228037264
 31
0.0
 12
-99.4715010011
 22
235.8228037264
 32
0.0
 13
-99.4715010011
 23
235.8228037264
 33
0.0
  0
SOLID
  5
A1A
330
A14
100
AcDbEntity
  8
P-0000
  6
Continuous
 62
     3
100
AcDbTrace
 10
-100.5215010011
 20
180.6232768661
 30
0.0
 11
-98.42150100110004
 21
180.6232768661
 31
0.0
 12
-99.4715010011
 22
174.3232768661
 32
0.0
 13
-99.4715010011
 23
174.3232768661
 33
0.0
  0
MTEXT
  5
A1B
330
A14
100
AcDbEntity
  8
P-0000
  6
Continuous
 62
     2
100
AcDbMText
 10
-106.9715010011
 20
205.07304029625
 30
0.0
 40
7.0
 41
0.0
 71
     5
 72
     1
  1
61.5
 11
0.0000000000000001
 21
1.0
 31
0.0
 73
     1
 44
1.0
1001
ACAD
1000
MTEXTBEGIN
1070
    73
1070
     1
1070
    44
1040
1.0
1070
    74
1070
     0
1000
MTEXTEND
  0
POINT
  5
A1C
330
A14
100
AcDbEntity
  8
Defpoints
  6
Continuous
 62
     0
100
AcDbPoint
 10
-87.47150100110001
 20
235.8228037264
 30
0.0
  0
POINT
  5
A1D
330
A14
100
AcDbEntity
  8
Defpoints
  6
Continuous
 62
     0
100
AcDbPoint
 10
-87.47150100110001
 20
174.3232768661
 30
0.0
  0
POINT
  5
A1E
330
A14
100
AcDbEntity
  8
Defpoints
  6
Continuous
 62
     0
100
AcDbPoint
 10
-99.4715010011
 20
174.3232768661
 30
0.0
  0
ENDBLK
  5
A1F
330
A14
100
AcDbEntity
  8
0
100
AcDbBlockEnd
  0
BLOCK
  5
A21
330
A20
100
AcDbEntity
  8
0
100
AcDbBlockBegin
  2
*D10
 70
     1
 10
0.0
 20
0.0
 30
0.0
  3
*D10
  1

  0
LINE
  5
A22
330
A20
100
AcDbEntity
  8
P-0000
  6
Continuous
 62
     3
370
    -2
100
AcDbLine
 10
-87.47150100110001
 20
174.3228037264
 30
0.0
 11
-87.47150100110001
 21
145.1909121658225
 31
0.0
  0
LINE
  5
A23
330
A20
100
AcDbEntity
  8
P-0000
  6
Continuous
 62
     3
370
    -2
100
AcDbLine
 10
490.5284989989
 20
174.3232768661
 30
0.0
 11
490.5284989989
 21
145.1909121658225
 31
0.0
  0
LINE
  5
A24
330
A20
100
AcDbEntity
  8
P-0000
  6
Continuous
 62
     3
370
    -2
100
AcDbLine
 10
-81.1715010011
 20
149.1909121658225
 30
0.0
 11
484.2284989988998
 21
149.1909121658225
 31
0.0
  0
SOLID
  5
A25
330
A20
100
AcDbEntity
  8
P-0000
  6
Continuous
 62
     3
100
AcDbTrace
 10
-81.1715010011
 20
150.2409121658225
 30
0.0
 11
-81.1715010011
 21
148.1409121658225
 31
0.0
 12
-87.47150100110001
 22
149.1909121658225
 32
0.0
 13
-87.47150100110001
 23
149.1909121658225
 33
0.0
  0
SOLID
  5
A26
330
A20
100
AcDbEntity
  8
P-0000
  6
Continuous
 62
     3
100
AcDbTrace
 10
484.2284989988998
 20
150.2409121658225
 30
0.0
 11
484.2284989988998
 21
148.1409121658225
 31
0.0
 12
490.5284989989
 22
149.1909121658225
 32
0.0
 13
490.5284989989
 23
149.1909121658225
 33
0.0
  0
MTEXT
  5
A27
330
A20
100
AcDbEntity
  8
P-0000
  6
Continuous
 62
     2
100
AcDbMText
 10
201.5284989989
 20
156.6909121658225
 30
0.0
 40
7.0
 41
0.0
 71
     5
 72
     1
  1
578
 73
     1
 44
1.0
1001
ACAD
1000
MTEXTBEGIN
1070
    73
1070
     1
1070
    44
1040
1.0
1070
    74
1070
     0
1000
MTEXTEND
  0
POINT
  5
A28
330
A20
100
AcDbEntity
  8
Defpoints
  6
Continuous
 62
     0
100
AcDbPoint
 10
-87.47150100110001
 20
174.3228037264
 30
0.0
  0
POINT
  5
A29
330
A20
100
AcDbEntity
  8
Defpoints
  6
Continuous
 62
     0
100
AcDbPoint
 10
490.5284989989
 20
174.3232768661
 30
0.0
  0
POINT
  5
A2A
330
A20
100
AcDbEntity
  8
Defpoints
  6
Continuous
 62
     0
100
AcDbPoint
 10
490.5284989989
 20
149.1909121658225
 30
0.0
  0
ENDBLK
  5
A2B
330
A20
100
AcDbEntity
  8
0
100
AcDbBlockEnd
  0
BLOCK
  5
A2D
330
A2C
100
AcDbEntity
  8
0
100
AcDbBlockBegin
  2
_None
 70
     0
 10
0.0
 20
0.0
 30
0.0
  3
_None
  1

  0
ENDBLK
  5
A2E
330
A2C
100
AcDbEntity
  8
0
100
AcDbBlockEnd
  0
BLOCK
  5
CB7
330
CB6
100
AcDbEntity
  8
0
100
AcDbBlockBegin
  2
*D12
 70
     1
 10
0.0
 20
0.0
 30
0.0
  3
*D12
  1

  0
LINE
  5
CB9
330
CB6
100
AcDbEntity
  8
P-0000
  6
Continuous
 62
     3
370
    -2
100
AcDbLine
 10
-77.06555237051633
 20
-16.07075214732222
 30
0.0
 11
-93.06555237051631
 21
-16.07075214732222
 31
0.0
  0
LINE
  5
CBA
330
CB6
100
AcDbEntity
  8
P-0000
  6
Continuous
 62
     3
370
    -2
100
AcDbLine
 10
-77.06555237051633
 20
-77.57027900762222
 30
0.0
 11
-93.06555237051631
 21
-77.57027900762222
 31
0.0
  0
LINE
  5
CBB
330
CB6
100
AcDbEntity
  8
P-0000
  6
Continuous
 62
     3
370
    -2
100
AcDbLine
 10
-89.06555237051632
 20
-22.37075214732222
 30
0.0
 11
-89.06555237051632
 21
-71.27027900762222
 31
0.0
  0
SOLID
  5
CBC
330
CB6
100
AcDbEntity
  8
P-0000
  6
Continuous
 62
     3
100
AcDbTrace
 10
-90.11555237051632
 20
-22.37075214732222
 30
0.0
 11
-88.01555237051632
 21
-22.37075214732222
 31
0.0
 12
-89.06555237051632
 22
-16.07075214732222
 32
0.0
 13
-89.06555237051632
 23
-16.07075214732222
 33
0.0
  0
SOLID
  5
CBD
330
CB6
100
AcDbEntity
  8
P-0000
  6
Continuous
 62
     3
100
AcDbTrace
 10
-90.11555237051632
 20
-71.27027900762222
 30
0.0
 11
-88.01555237051632
 21
-71.27027900762222
 31
0.0
 12
-89.06555237051632
 22
-77.57027900762222
 32
0.0
 13
-89.06555237051632
 23
-77.57027900762222
 33
0.0
  0
MTEXT
  5
CBE
330
CB6
100
AcDbEntity
  8
P-0000
  6
Continuous
 62
     2
100
AcDbMText
 10
-96.56555237051632
 20
-46.82051557747223
 30
0.0
 40
7.0
 41
0.0
 71
     5
 72
     1
  1
61.5
 11
0.0000000000000001
 21
1.0
 31
0.0
 73
     1
 44
1.0
1001
ACAD
1000
MTEXTBEGIN
1070
    73
1070
     1
1070
    44
1040
1.0
1070
    74
1070
     0
1000
MTEXTEND
  0
POINT
  5
CBF
330
CB6
100
AcDbEntity
  8
Defpoints
  6
Continuous
 62
     0
100
AcDbPoint
 10
-77.06555237051633
 20
-16.07075214732222
 30
0.0
  0
POINT
  5
CC0
330
CB6
100
AcDbEntity
  8
Defpoints
  6
Continuous
 62
     0
100
AcDbPoint
 10
-77.06555237051633
 20
-77.57027900762222
 30
0.0
  0
POINT
  5
CC1
330
CB6
100
AcDbEntity
  8
Defpoints
  6
Continuous
 62
     0
100
AcDbPoint
 10
-89.06555237051632
 20
-77.57027900762222
 30
0.0
  0
ENDBLK
  5
CB8
330
CB6
100
AcDbEntity
  8
0
100
AcDbBlockEnd
  0
BLOCK
  5
CC3
330
CC2
100
AcDbEntity
  8
0
100
AcDbBlockBegin
  2
*D13
 70
     1
 10
0.0
 20
0.0
 30
0.0
  3
*D13
  1

  0
LINE
  5
CC5
330
CC2
100
AcDbEntity
  8
P-0000
  6
Continuous
 62
     3
370
    -2
100
AcDbLine
 10
-77.06555237051633
 20
-77.57075214732221
 30
0.0
 11
-77.06555237051633
 21
-106.7026437078997
 31
0.0
  0
LINE
  5
CC6
330
CC2
100
AcDbEntity
  8
P-0000
  6
Continuous
 62
     3
370
    -2
100
AcDbLine
 10
500.9344476294836
 20
-77.57027900762222
 30
0.0
 11
500.9344476294836
 21
-106.7026437078997
 31
0.0
  0
LINE
  5
CC7
330
CC2
100
AcDbEntity
  8
P-0000
  6
Continuous
 62
     3
370
    -2
100
AcDbLine
 10
-70.76555237051633
 20
-102.7026437078997
 30
0.0
 11
494.6344476294836
 21
-102.7026437078997
 31
0.0
  0
SOLID
  5
CC8
330
CC2
100
AcDbEntity
  8
P-0000
  6
Continuous
 62
     3
100
AcDbTrace
 10
-70.76555237051633
 20
-101.6526437078997
 30
0.0
 11
-70.76555237051633
 21
-103.7526437078997
 31
0.0
 12
-77.06555237051633
 22
-102.7026437078997
 32
0.0
 13
-77.06555237051633
 23
-102.7026437078997
 33
0.0
  0
SOLID
  5
CC9
330
CC2
100
AcDbEntity
  8
P-0000
  6
Continuous
 62
     3
100
AcDbTrace
 10
494.6344476294836
 20
-101.6526437078997
 30
0.0
 11
494.6344476294836
 21
-103.7526437078997
 31
0.0
 12
500.9344476294836
 22
-102.7026437078997
 32
0.0
 13
500.9344476294836
 23
-102.7026437078997
 33
0.0
  0
MTEXT
  5
CCA
330
CC2
100
AcDbEntity
  8
P-0000
  6
Continuous
 62
     2
100
AcDbMText
 10
211.9344476294837
 20
-95.20264370789972
 30
0.0
 40
7.0
 41
0.0
 71
     5
 72
     1
  1
578
 73
     1
 44
1.0
1001
ACAD
1000
MTEXTBEGIN
1070
    73
1070
     1
1070
    44
1040
1.0
1070
    74
1070
     0
1000
MTEXTEND
  0
POINT
  5
CCB
330
CC2
100
AcDbEntity
  8
Defpoints
  6
Continuous
 62
     0
100
AcDbPoint
 10
-77.06555237051633
 20
-77.57075214732221
 30
0.0
  0
POINT
  5
CCC
330
CC2
100
AcDbEntity
  8
Defpoints
  6
Continuous
 62
     0
100
AcDbPoint
 10
500.9344476294836
 20
-77.57027900762222
 30
0.0
  0
POINT
  5
CCD
330
CC2
100
AcDbEntity
  8
Defpoints
  6
Continuous
 62
     0
100
AcDbPoint
 10
500.9344476294836
 20
-102.7026437078997
 30
0.0
  0
ENDBLK
  5
CC4
330
CC2
100
AcDbEntity
  8
0
100
AcDbBlockEnd
  0
ENDSEC
  0
SECTION
  2
ENTITIES
  0
LINE
  5
23F
102
{ACAD_REACTORS
330
980
102
}
330
208
100
AcDbEntity
  8
0
  6
Continuous
 62
     7
100
AcDbLine
 10
-222.8413179688
 20
158.8303488677
 30
0.0
 11
-222.8413179688
 21
220.3305746687
 31
0.0
  0
LINE
  5
240
330
208
100
AcDbEntity
  8
0
  6
Continuous
 62
     7
100
AcDbLine
 10
-218.0913179688
 20
168.0804617682
 30
0.0
 11
-218.0913179688
 21
174.0804617682
 31
0.0
  0
LINE
  5
241
330
208
100
AcDbEntity
  8
0
  6
Continuous
 62
     7
100
AcDbLine
 10
-218.0913179688
 20
180.5804617682
 30
0.0
 11
-218.0913179688
 21
186.5804617682
 31
0.0
  0
LINE
  5
242
330
208
100
AcDbEntity
  8
0
  6
Continuous
 62
     7
100
AcDbLine
 10
-218.0913179688
 20
193.0804617682
 30
0.0
 11
-218.0913179688
 21
199.0804617682
 31
0.0
  0
LINE
  5
243
330
208
100
AcDbEntity
  8
0
  6
Continuous
 62
     7
100
AcDbLine
 10
-218.0913179688
 20
205.5804617682
 30
0.0
 11
-218.0913179688
 21
211.5804617682
 31
0.0
  0
LINE
  5
244
330
208
100
AcDbEntity
  8
0
  6
Continuous
 62
     7
100
AcDbLine
 10
-212.0913179688
 20
211.5804617682
 30
0.0
 11
-212.0913179688
 21
205.5804617682
 31
0.0
  0
LINE
  5
245
330
208
100
AcDbEntity
  8
0
  6
Continuous
 62
     7
100
AcDbLine
 10
-212.0913179688
 20
199.0804617682
 30
0.0
 11
-212.0913179688
 21
193.0804617682
 31
0.0
  0
LINE
  5
246
330
208
100
AcDbEntity
  8
0
  6
Continuous
 62
     7
100
AcDbLine
 10
-212.0913179688
 20
186.5804617682
 30
0.0
 11
-212.0913179688
 21
180.5804617682
 31
0.0
  0
LINE
  5
247
330
208
100
AcDbEntity
  8
0
  6
Continuous
 62
     7
100
AcDbLine
 10
-212.0913179688
 20
174.0804617682
 30
0.0
 11
-212.0913179688
 21
168.0804617682
 31
0.0
  0
LINE
  5
248
330
208
100
AcDbEntity
  8
0
  6
Continuous
 62
     7
100
AcDbLine
 10
-205.5913179688
 20
168.0804617682
 30
0.0
 11
-205.5913179688
 21
174.0804617682
 31
0.0
  0
LINE
  5
249
330
208
100
AcDbEntity
  8
0
  6
Continuous
 62
     7
100
AcDbLine
 10
-205.5913179688
 20
180.5804617682
 30
0.0
 11
-205.5913179688
 21
186.5804617682
 31
0.0
  0
LINE
  5
24A
330
208
100
AcDbEntity
  8
0
  6
Continuous
 62
     7
100
AcDbLine
 10
-205.5913179688
 20
193.0804617682
 30
0.0
 11
-205.5913179688
 21
199.0804617682
 31
0.0
  0
LINE
  5
24B
330
208
100
AcDbEntity
  8
0
  6
Continuous
 62
     7
100
AcDbLine
 10
-205.5913179688
 20
205.5804617682
 30
0.0
 11
-205.5913179688
 21
211.5804617682
 31
0.0
  0
LINE
  5
24C
330
208
100
AcDbEntity
  8
0
  6
Continuous
 62
     7
100
AcDbLine
 10
-199.5913179688
 20
211.5804617682
 30
0.0
 11
-199.5913179688
 21
205.5804617682
 31
0.0
  0
LINE
  5
24D
330
208
100
AcDbEntity
  8
0
  6
Continuous
 62
     7
100
AcDbLine
 10
-199.5913179688
 20
199.0804617682
 30
0.0
 11
-199.5913179688
 21
193.0804617682
 31
0.0
  0
LINE
  5
24E
330
208
100
AcDbEntity
  8
0
  6
Continuous
 62
     7
100
AcDbLine
 10
-199.5913179688
 20
186.5804617682
 30
0.0
 11
-199.5913179688
 21
180.5804617682
 31
0.0
  0
LINE
  5
24F
330
208
100
AcDbEntity
  8
0
  6
Continuous
 62
     7
100
AcDbLine
 10
-199.5913179688
 20
174.0804617682
 30
0.0
 11
-199.5913179688
 21
168.0804617682
 31
0.0
  0
LINE
  5
250
330
208
100
AcDbEntity
  8
0
  6
Continuous
 62
     7
100
AcDbLine
 10
-193.0913179688
 20
168.0804617682
 30
0.0
 11
-193.0913179688
 21
174.0804617682
 31
0.0
  0
LINE
  5
251
330
208
100
AcDbEntity
  8
0
  6
Continuous
 62
     7
100
AcDbLine
 10
-193.0913179688
 20
180.5804617682
 30
0.0
 11
-193.0913179688
 21
186.5804617682
 31
0.0
  0
LINE
  5
252
330
208
100
AcDbEntity
  8
0
  6
Continuous
 62
     7
100
AcDbLine
 10
-193.0913179688
 20
193.0804617682
 30
0.0
 11
-193.0913179688
 21
199.0804617682
 31
0.0
  0
LINE
  5
253
330
208
100
AcDbEntity
  8
0
  6
Continuous
 62
     7
100
AcDbLine
 10
-193.0913179688
 20
205.5804617682
 30
0.0
 11
-193.0913179688
 21
211.5804617682
 31
0.0
  0
LINE
  5
254
330
208
100
AcDbEntity
  8
0
  6
Continuous
 62
     7
100
AcDbLine
 10
-187.0913179688
 20
211.5804617682
 30
0.0
 11
-187.0913179688
 21
205.5804617682
 31
0.0
  0
LINE
  5
255
330
208
100
AcDbEntity
  8
0
  6
Continuous
 62
     7
100
AcDbLine
 10
-187.0913179688
 20
199.0804617682
 30
0.0
 11
-187.0913179688
 21
193.0804617682
 31
0.0
  0
LINE
  5
256
330
208
100
AcDbEntity
  8
0
  6
Continuous
 62
     7
100
AcDbLine
 10
-187.0913179688
 20
186.5804617682
 30
0.0
 11
-187.0913179688
 21
180.5804617682
 31
0.0
  0
LINE
  5
257
330
208
100
AcDbEntity
  8
0
  6
Continuous
 62
     7
100
AcDbLine
 10
-187.0913179688
 20
174.0804617682
 30
0.0
 11
-187.0913179688
 21
168.0804617682
 31
0.0
  0
LINE
  5
258
330
208
100
AcDbEntity
  8
0
  6
Continuous
 62
     7
100
AcDbLine
 10
-180.5913179688
 20
168.0804617682
 30
0.0
 11
-180.5913179688
 21
174.0804617682
 31
0.0
  0
LINE
  5
259
330
208
100
AcDbEntity
  8
0
  6
Continuous
 62
     7
100
AcDbLine
 10
-180.5913179688
 20
180.5804617682
 30
0.0
 11
-180.5913179688
 21
186.5804617682
 31
0.0
  0
LINE
  5
25A
330
208
100
AcDbEntity
  8
0
  6
Continuous
 62
     7
100
AcDbLine
 10
-180.5913179688
 20
193.0804617682
 30
0.0
 11
-180.5913179688
 21
199.0804617682
 31
0.0
  0
LINE
  5
25B
330
208
100
AcDbEntity
  8
0
  6
Continuous
 62
     7
100
AcDbLine
 10
-180.5913179688
 20
205.5804617682
 30
0.0
 11
-180.5913179688
 21
211.5804617682
 31
0.0
  0
LINE
  5
25C
330
208
100
AcDbEntity
  8
0
  6
Continuous
 62
     7
100
AcDbLine
 10
-174.5913179688
 20
211.5804617682
 30
0.0
 11
-174.5913179688
 21
205.5804617682
 31
0.0
  0
LINE
  5
25D
330
208
100
AcDbEntity
  8
0
  6
Continuous
 62
     7
100
AcDbLine
 10
-174.5913179688
 20
199.0804617682
 30
0.0
 11
-174.5913179688
 21
193.0804617682
 31
0.0
  0
LINE
  5
25E
330
208
100
AcDbEntity
  8
0
  6
Continuous
 62
     7
100
AcDbLine
 10
-174.5913179688
 20
186.5804617682
 30
0.0
 11
-174.5913179688
 21
180.5804617682
 31
0.0
  0
LINE
  5
25F
330
208
100
AcDbEntity
  8
0
  6
Continuous
 62
     7
100
AcDbLine
 10
-174.5913179688
 20
174.0804617682
 30
0.0
 11
-174.5913179688
 21
168.0804617682
 31
0.0
  0
LINE
  5
260
330
208
100
AcDbEntity
  8
0
  6
Continuous
 62
     7
100
AcDbLine
 10
-168.0913179688
 20
168.0804617682
 30
0.0
 11
-168.0913179688
 21
174.0804617682
 31
0.0
  0
LINE
  5
261
330
208
100
AcDbEntity
  8
0
  6
Continuous
 62
     7
100
AcDbLine
 10
-168.0913179688
 20
180.5804617682
 30
0.0
 11
-168.0913179688
 21
186.5804617682
 31
0.0
  0
LINE
  5
262
330
208
100
AcDbEntity
  8
0
  6
Continuous
 62
     7
100
AcDbLine
 10
-168.0913179688
 20
193.0804617682
 30
0.0
 11
-168.0913179688
 21
199.0804617682
 31
0.0
  0
LINE
  5
263
330
208
100
AcDbEntity
  8
0
  6
Continuous
 62
     7
100
AcDbLine
 10
-168.0913179688
 20
205.5804617682
 30
0.0
 11
-168.0913179688
 21
211.5804617682
 31
0.0
  0
LINE
  5
264
330
208
100
AcDbEntity
  8
0
  6
Continuous
 62
     7
100
AcDbLine
 10
-162.0913179688
 20
211.5804617682
 30
0.0
 11
-162.0913179688
 21
205.5804617682
 31
0.0
  0
LINE
  5
265
330
208
100
AcDbEntity
  8
0
  6
Continuous
 62
     7
100
AcDbLine
 10
-162.0913179688
 20
199.0804617682
 30
0.0
 11
-162.0913179688
 21
193.0804617682
 31
0.0
  0
LINE
  5
266
330
208
100
AcDbEntity
  8
0
  6
Continuous
 62
     7
100
AcDbLine
 10
-162.0913179688
 20
186.5804617682
 30
0.0
 11
-162.0913179688
 21
180.5804617682
 31
0.0
  0
LINE
  5
267
330
208
100
AcDbEntity
  8
0
  6
Continuous
 62
     7
100
AcDbLine
 10
-162.0913179688
 20
174.0804617682
 30
0.0
 11
-162.0913179688
 21
168.0804617682
 31
0.0
  0
LINE
  5
268
330
208
100
AcDbEntity
  8
0
  6
Continuous
 62
     7
100
AcDbLine
 10
-155.5913179688
 20
168.0804617682
 30
0.0
 11
-155.5913179688
 21
174.0804617682
 31
0.0
  0
LINE
  5
269
330
208
100
AcDbEntity
  8
0
  6
Continuous
 62
     7
100
AcDbLine
 10
-155.5913179688
 20
180.5804617682
 30
0.0
 11
-155.5913179688
 21
186.5804617682
 31
0.0
  0
LINE
  5
26A
330
208
100
AcDbEntity
  8
0
  6
Continuous
 62
     7
100
AcDbLine
 10
-155.5913179688
 20
193.0804617682
 30
0.0
 11
-155.5913179688
 21
199.0804617682
 31
0.0
  0
LINE
  5
26B
330
208
100
AcDbEntity
  8
0
  6
Continuous
 62
     7
100
AcDbLine
 10
-155.5913179688
 20
205.5804617682
 30
0.0
 11
-155.5913179688
 21
211.5804617682
 31
0.0
  0
LINE
  5
26C
330
208
100
AcDbEntity
  8
0
  6
Continuous
 62
     7
100
AcDbLine
 10
-149.5913179688
 20
211.5804617682
 30
0.0
 11
-149.5913179688
 21
205.5804617682
 31
0.0
  0
LINE
  5
26D
330
208
100
AcDbEntity
  8
0
  6
Continuous
 62
     7
100
AcDbLine
 10
-149.5913179688
 20
199.0804617682
 30
0.0
 11
-149.5913179688
 21
193.0804617682
 31
0.0
  0
LINE
  5
26E
330
208
100
AcDbEntity
  8
0
  6
Continuous
 62
     7
100
AcDbLine
 10
-149.5913179688
 20
186.5804617682
 30
0.0
 11
-149.5913179688
 21
180.5804617682
 31
0.0
  0
LINE
  5
26F
330
208
100
AcDbEntity
  8
0
  6
Continuous
 62
     7
100
AcDbLine
 10
-149.5913179688
 20
174.0804617682
 30
0.0
 11
-149.5913179688
 21
168.0804617682
 31
0.0
  0
LINE
  5
270
330
208
100
AcDbEntity
  8
0
  6
Continuous
 62
     7
100
AcDbLine
 10
-143.0913179688
 20
168.0804617682
 30
0.0
 11
-143.0913179688
 21
174.0804617682
 31
0.0
  0
LINE
  5
271
330
208
100
AcDbEntity
  8
0
  6
Continuous
 62
     7
100
AcDbLine
 10
-143.0913179688
 20
180.5804617682
 30
0.0
 11
-143.0913179688
 21
186.5804617682
 31
0.0
  0
LINE
  5
272
330
208
100
AcDbEntity
  8
0
  6
Continuous
 62
     7
100
AcDbLine
 10
-143.0913179688
 20
193.0804617682
 30
0.0
 11
-143.0913179688
 21
199.0804617682
 31
0.0
  0
LINE
  5
273
330
208
100
AcDbEntity
  8
0
  6
Continuous
 62
     7
100
AcDbLine
 10
-143.0913179688
 20
205.5804617682
 30
0.0
 11
-143.0913179688
 21
211.5804617682
 31
0.0
  0
LINE
  5
274
330
208
100
AcDbEntity
  8
0
  6
Continuous
 62
     7
100
AcDbLine
 10
-137.0913179688
 20
211.5804617682
 30
0.0
 11
-137.0913179688
 21
205.5804617682
 31
0.0
  0
LINE
  5
275
330
208
100
AcDbEntity
  8
0
  6
Continuous
 62
     7
100
AcDbLine
 10
-137.0913179688
 20
199.0804617682
 30
0.0
 11
-137.0913179688
 21
193.0804617682
 31
0.0
  0
LINE
  5
276
330
208
100
AcDbEntity
  8
0
  6
Continuous
 62
     7
100
AcDbLine
 10
-137.0913179688
 20
186.5804617682
 30
0.0
 11
-137.0913179688
 21
180.5804617682
 31
0.0
  0
LINE
  5
277
330
208
100
AcDbEntity
  8
0
  6
Continuous
 62
     7
100
AcDbLine
 10
-137.0913179688
 20
174.0804617682
 30
0.0
 11
-137.0913179688
 21
168.0804617682
 31
0.0
  0
LINE
  5
278
330
208
100
AcDbEntity
  8
0
  6
Continuous
 62
     7
100
AcDbLine
 10
-130.5913179688
 20
168.0804617682
 30
0.0
 11
-130.5913179688
 21
174.0804617682
 31
0.0
  0
LINE
  5
279
330
208
100
AcDbEntity
  8
0
  6
Continuous
 62
     7
100
AcDbLine
 10
-130.5913179688
 20
180.5804617682
 30
0.0
 11
-130.5913179688
 21
186.5804617682
 31
0.0
  0
LINE
  5
27A
330
208
100
AcDbEntity
  8
0
  6
Continuous
 62
     7
100
AcDbLine
 10
-130.5913179688
 20
193.0804617682
 30
0.0
 11
-130.5913179688
 21
199.0804617682
 31
0.0
  0
LINE
  5
27B
330
208
100
AcDbEntity
  8
0
  6
Continuous
 62
     7
100
AcDbLine
 10
-130.5913179688
 20
205.5804617682
 30
0.0
 11
-130.5913179688
 21
211.5804617682
 31
0.0
  0
LINE
  5
27C
330
208
100
AcDbEntity
  8
0
  6
Continuous
 62
     7
100
AcDbLine
 10
-124.5913179688
 20
211.5804617682
 30
0.0
 11
-124.5913179688
 21
205.5804617682
 31
0.0
  0
LINE
  5
27D
330
208
100
AcDbEntity
  8
0
  6
Continuous
 62
     7
100
AcDbLine
 10
-124.5913179688
 20
199.0804617682
 30
0.0
 11
-124.5913179688
 21
193.0804617682
 31
0.0
  0
LINE
  5
27E
330
208
100
AcDbEntity
  8
0
  6
Continuous
 62
     7
100
AcDbLine
 10
-124.5913179688
 20
186.5804617682
 30
0.0
 11
-124.5913179688
 21
180.5804617682
 31
0.0
  0
LINE
  5
27F
330
208
100
AcDbEntity
  8
0
  6
Continuous
 62
     7
100
AcDbLine
 10
-124.5913179688
 20
174.0804617682
 30
0.0
 11
-124.5913179688
 21
168.0804617682
 31
0.0
  0
LINE
  5
280
330
208
100
AcDbEntity
  8
0
  6
Continuous
 62
     7
100
AcDbLine
 10
-118.0913179688
 20
168.0804617682
 30
0.0
 11
-118.0913179688
 21
174.0804617682
 31
0.0
  0
LINE
  5
281
330
208
100
AcDbEntity
  8
0
  6
Continuous
 62
     7
100
AcDbLine
 10
-118.0913179688
 20
180.5804617682
 30
0.0
 11
-118.0913179688
 21
186.5804617682
 31
0.0
  0
LINE
  5
282
330
208
100
AcDbEntity
  8
0
  6
Continuous
 62
     7
100
AcDbLine
 10
-118.0913179688
 20
193.0804617682
 30
0.0
 11
-118.0913179688
 21
199.0804617682
 31
0.0
  0
LINE
  5
283
330
208
100
AcDbEntity
  8
0
  6
Continuous
 62
     7
100
AcDbLine
 10
-118.0913179688
 20
205.5804617682
 30
0.0
 11
-118.0913179688
 21
211.5804617682
 31
0.0
  0
LINE
  5
284
330
208
100
AcDbEntity
  8
0
  6
Continuous
 62
     7
100
AcDbLine
 10
-112.0913179688
 20
211.5804617682
 30
0.0
 11
-112.0913179688
 21
205.5804617682
 31
0.0
  0
LINE
  5
285
330
208
100
AcDbEntity
  8
0
  6
Continuous
 62
     7
100
AcDbLine
 10
-112.0913179688
 20
199.0804617682
 30
0.0
 11
-112.0913179688
 21
193.0804617682
 31
0.0
  0
LINE
  5
286
330
208
100
AcDbEntity
  8
0
  6
Continuous
 62
     7
100
AcDbLine
 10
-112.0913179688
 20
186.5804617682
 30
0.0
 11
-112.0913179688
 21
180.5804617682
 31
0.0
  0
LINE
  5
287
330
208
100
AcDbEntity
  8
0
  6
Continuous
 62
     7
100
AcDbLine
 10
-112.0913179688
 20
174.0804617682
 30
0.0
 11
-112.0913179688
 21
168.0804617682
 31
0.0
  0
LINE
  5
288
330
208
100
AcDbEntity
  8
0
  6
Continuous
 62
     7
100
AcDbLine
 10
-105.5913179688
 20
168.0804617682
 30
0.0
 11
-105.5913179688
 21
174.0804617682
 31
0.0
  0
LINE
  5
289
330
208
100
AcDbEntity
  8
0
  6
Continuous
 62
     7
100
AcDbLine
 10
-105.5913179688
 20
180.5804617682
 30
0.0
 11
-105.5913179688
 21
186.5804617682
 31
0.0
  0
LINE
  5
28A
330
208
100
AcDbEntity
  8
0
  6
Continuous
 62
     7
100
AcDbLine
 10
-105.5913179688
 20
193.0804617682
 30
0.0
 11
-105.5913179688
 21
199.0804617682
 31
0.0
  0
LINE
  5
28B
330
208
100
AcDbEntity
  8
0
  6
Continuous
 62
     7
100
AcDbLine
 10
-105.5913179688
 20
205.5804617682
 30
0.0
 11
-105.5913179688
 21
211.5804617682
 31
0.0
  0
LINE
  5
28C
330
208
100
AcDbEntity
  8
0
  6
Continuous
 62
     7
100
AcDbLine
 10
-99.59131796880001
 20
211.5804617682
 30
0.0
 11
-99.59131796880001
 21
205.5804617682
 31
0.0
  0
LINE
  5
28D
330
208
100
AcDbEntity
  8
0
  6
Continuous
 62
     7
100
AcDbLine
 10
-99.59131796880001
 20
199.0804617682
 30
0.0
 11
-99.59131796880001
 21
193.0804617682
 31
0.0
  0
LINE
  5
28E
330
208
100
AcDbEntity
  8
0
  6
Continuous
 62
     7
100
AcDbLine
 10
-99.59131796880001
 20
186.5804617682
 30
0.0
 11
-99.59131796880001
 21
180.5804617682
 31
0.0
  0
LINE
  5
28F
330
208
100
AcDbEntity
  8
0
  6
Continuous
 62
     7
100
AcDbLine
 10
-99.59131796880001
 20
174.0804617682
 30
0.0
 11
-99.59131796880001
 21
168.0804617682
 31
0.0
  0
LINE
  5
290
330
208
100
AcDbEntity
  8
0
  6
Continuous
 62
     7
100
AcDbLine
 10
-93.0913179688
 20
168.0804617682
 30
0.0
 11
-93.0913179688
 21
174.0804617682
 31
0.0
  0
LINE
  5
291
330
208
100
AcDbEntity
  8
0
  6
Continuous
 62
     7
100
AcDbLine
 10
-93.0913179688
 20
180.5804617682
 30
0.0
 11
-93.0913179688
 21
186.5804617682
 31
0.0
  0
LINE
  5
292
330
208
100
AcDbEntity
  8
0
  6
Continuous
 62
     7
100
AcDbLine
 10
-93.0913179688
 20
193.0804617682
 30
0.0
 11
-93.0913179688
 21
199.0804617682
 31
0.0
  0
LINE
  5
293
330
208
100
AcDbEntity
  8
0
  6
Continuous
 62
     7
100
AcDbLine
 10
-93.0913179688
 20
205.5804617682
 30
0.0
 11
-93.0913179688
 21
211.5804617682
 31
0.0
  0
LINE
  5
294
330
208
100
AcDbEntity
  8
0
  6
Continuous
 62
     7
100
AcDbLine
 10
-87.09131796879999
 20
211.5804617682
 30
0.0
 11
-87.09131796879999
 21
205.5804617682
 31
0.0
  0
LINE
  5
295
330
208
100
AcDbEntity
  8
0
  6
Continuous
 62
     7
100
AcDbLine
 10
-87.09131796879999
 20
199.0804617682
 30
0.0
 11
-87.09131796879999
 21
193.0804617682
 31
0.0
  0
LINE
  5
296
330
208
100
AcDbEntity
  8
0
  6
Continuous
 62
     7
100
AcDbLine
 10
-87.09131796879999
 20
186.5804617682
 30
0.0
 11
-87.09131796879999
 21
180.5804617682
 31
0.0
  0
LINE
  5
297
330
208
100
AcDbEntity
  8
0
  6
Continuous
 62
     7
100
AcDbLine
 10
-87.09131796879999
 20
174.0804617682
 30
0.0
 11
-87.09131796879999
 21
168.0804617682
 31
0.0
  0
LINE
  5
298
330
208
100
AcDbEntity
  8
0
  6
Continuous
 62
     7
100
AcDbLine
 10
-80.5913179688
 20
168.0804617682
 30
0.0
 11
-80.5913179688
 21
174.0804617682
 31
0.0
  0
LINE
  5
299
330
208
100
AcDbEntity
  8
0
  6
Continuous
 62
     7
100
AcDbLine
 10
-80.5913179688
 20
180.5804617682
 30
0.0
 11
-80.5913179688
 21
186.5804617682
 31
0.0
  0
LINE
  5
29A
330
208
100
AcDbEntity
  8
0
  6
Continuous
 62
     7
100
AcDbLine
 10
-80.5913179688
 20
193.0804617682
 30
0.0
 11
-80.5913179688
 21
199.0804617682
 31
0.0
  0
LINE
  5
29B
330
208
100
AcDbEntity
  8
0
  6
Continuous
 62
     7
100
AcDbLine
 10
-80.5913179688
 20
205.5804617682
 30
0.0
 11
-80.5913179688
 21
211.5804617682
 31
0.0
  0
LINE
  5
29C
330
208
100
AcDbEntity
  8
0
  6
Continuous
 62
     7
100
AcDbLine
 10
-74.5913179688
 20
211.5804617682
 30
0.0
 11
-74.5913179688
 21
205.5804617682
 31
0.0
  0
LINE
  5
29D
330
208
100
AcDbEntity
  8
0
  6
Continuous
 62
     7
100
AcDbLine
 10
-74.5913179688
 20
199.0804617682
 30
0.0
 11
-74.5913179688
 21
193.0804617682
 31
0.0
  0
LINE
  5
29E
330
208
100
AcDbEntity
  8
0
  6
Continuous
 62
     7
100
AcDbLine
 10
-74.5913179688
 20
186.5804617682
 30
0.0
 11
-74.5913179688
 21
180.5804617682
 31
0.0
  0
LINE
  5
29F
330
208
100
AcDbEntity
  8
0
  6
Continuous
 62
     7
100
AcDbLine
 10
-74.5913179688
 20
174.0804617682
 30
0.0
 11
-74.5913179688
 21
168.0804617682
 31
0.0
  0
LINE
  5
2A0
330
208
100
AcDbEntity
  8
0
  6
Continuous
 62
     7
100
AcDbLine
 10
-68.0913179688
 20
168.0804617682
 30
0.0
 11
-68.0913179688
 21
174.0804617682
 31
0.0
  0
LINE
  5
2A1
330
208
100
AcDbEntity
  8
0
  6
Continuous
 62
     7
100
AcDbLine
 10
-68.0913179688
 20
180.5804617682
 30
0.0
 11
-68.0913179688
 21
186.5804617682
 31
0.0
  0
LINE
  5
2A2
330
208
100
AcDbEntity
  8
0
  6
Continuous
 62
     7
100
AcDbLine
 10
-68.0913179688
 20
193.0804617682
 30
0.0
 11
-68.0913179688
 21
199.0804617682
 31
0.0
  0
LINE
  5
2A3
330
208
100
AcDbEntity
  8
0
  6
Continuous
 62
     7
100
AcDbLine
 10
-68.0913179688
 20
205.5804617682
 30
0.0
 11
-68.0913179688
 21
211.5804617682
 31
0.0
  0
LINE
  5
2A4
330
208
100
AcDbEntity
  8
0
  6
Continuous
 62
     7
100
AcDbLine
 10
-62.0913179688
 20
211.5804617682
 30
0.0
 11
-62.0913179688
 21
205.5804617682
 31
0.0
  0
LINE
  5
2A5
330
208
100
AcDbEntity
  8
0
  6
Continuous
 62
     7
100
AcDbLine
 10
-62.0913179688
 20
199.0804617682
 30
0.0
 11
-62.0913179688
 21
193.0804617682
 31
0.0
  0
LINE
  5
2A6
330
208
100
AcDbEntity
  8
0
  6
Continuous
 62
     7
100
AcDbLine
 10
-62.0913179688
 20
186.5804617682
 30
0.0
 11
-62.0913179688
 21
180.5804617682
 31
0.0
  0
LINE
  5
2A7
330
208
100
AcDbEntity
  8
0
  6
Continuous
 62
     7
100
AcDbLine
 10
-62.0913179688
 20
174.0804617682
 30
0.0
 11
-62.0913179688
 21
168.0804617682
 31
0.0
  0
LINE
  5
2A8
330
208
100
AcDbEntity
  8
0
  6
Continuous
 62
     7
100
AcDbLine
 10
-55.5913179688
 20
168.0804617682
 30
0.0
 11
-55.5913179688
 21
174.0804617682
 31
0.0
  0
LINE
  5
2A9
330
208
100
AcDbEntity
  8
0
  6
Continuous
 62
     7
100
AcDbLine
 10
-55.5913179688
 20
180.5804617682
 30
0.0
 11
-55.5913179688
 21
186.5804617682
 31
0.0
  0
LINE
  5
2AA
330
208
100
AcDbEntity
  8
0
  6
Continuous
 62
     7
100
AcDbLine
 10
-55.5913179688
 20
193.0804617682
 30
0.0
 11
-55.5913179688
 21
199.0804617682
 31
0.0
  0
LINE
  5
2AB
330
208
100
AcDbEntity
  8
0
  6
Continuous
 62
     7
100
AcDbLine
 10
-55.5913179688
 20
205.5804617682
 30
0.0
 11
-55.5913179688
 21
211.5804617682
 31
0.0
  0
LINE
  5
2AC
330
208
100
AcDbEntity
  8
0
  6
Continuous
 62
     7
100
AcDbLine
 10
-49.5913179688
 20
211.5804617682
 30
0.0
 11
-49.5913179688
 21
205.5804617682
 31
0.0
  0
LINE
  5
2AD
330
208
100
AcDbEntity
  8
0
  6
Continuous
 62
     7
100
AcDbLine
 10
-49.5913179688
 20
199.0804617682
 30
0.0
 11
-49.5913179688
 21
193.0804617682
 31
0.0
  0
LINE
  5
2AE
330
208
100
AcDbEntity
  8
0
  6
Continuous
 62
     7
100
AcDbLine
 10
-49.5913179688
 20
186.5804617682
 30
0.0
 11
-49.5913179688
 21
180.5804617682
 31
0.0
  0
LINE
  5
2AF
330
208
100
AcDbEntity
  8
0
  6
Continuous
 62
     7
100
AcDbLine
 10
-49.5913179688
 20
174.0804617682
 30
0.0
 11
-49.5913179688
 21
168.0804617682
 31
0.0
  0
LINE
  5
2B0
330
208
100
AcDbEntity
  8
0
  6
Continuous
 62
     7
100
AcDbLine
 10
-43.0913179688
 20
168.0804617682
 30
0.0
 11
-43.0913179688
 21
174.0804617682
 31
0.0
  0
LINE
  5
2B1
330
208
100
AcDbEntity
  8
0
  6
Continuous
 62
     7
100
AcDbLine
 10
-43.0913179688
 20
180.5804617682
 30
0.0
 11
-43.0913179688
 21
186.5804617682
 31
0.0
  0
LINE
  5
2B2
330
208
100
AcDbEntity
  8
0
  6
Continuous
 62
     7
100
AcDbLine
 10
-43.0913179688
 20
193.0804617682
 30
0.0
 11
-43.0913179688
 21
199.0804617682
 31
0.0
  0
LINE
  5
2B3
330
208
100
AcDbEntity
  8
0
  6
Continuous
 62
     7
100
AcDbLine
 10
-43.0913179688
 20
205.5804617682
 30
0.0
 11
-43.0913179688
 21
211.5804617682
 31
0.0
  0
LINE
  5
2B4
330
208
100
AcDbEntity
  8
0
  6
Continuous
 62
     7
100
AcDbLine
 10
-37.0913179688
 20
211.5804617682
 30
0.0
 11
-37.0913179688
 21
205.5804617682
 31
0.0
  0
LINE
  5
2B5
330
208
100
AcDbEntity
  8
0
  6
Continuous
 62
     7
100
AcDbLine
 10
-37.0913179688
 20
199.0804617682
 30
0.0
 11
-37.0913179688
 21
193.0804617682
 31
0.0
  0
LINE
  5
2B6
330
208
100
AcDbEntity
  8
0
  6
Continuous
 62
     7
100
AcDbLine
 10
-37.0913179688
 20
186.5804617682
 30
0.0
 11
-37.0913179688
 21
180.5804617682
 31
0.0
  0
LINE
  5
2B7
330
208
100
AcDbEntity
  8
0
  6
Continuous
 62
     7
100
AcDbLine
 10
-37.0913179688
 20
174.0804617682
 30
0.0
 11
-37.0913179688
 21
168.0804617682
 31
0.0
  0
LINE
  5
2B8
330
208
100
AcDbEntity
  8
0
  6
Continuous
 62
     7
100
AcDbLine
 10
-30.5913179688
 20
168.0804617682
 30
0.0
 11
-30.5913179688
 21
174.0804617682
 31
0.0
  0
LINE
  5
2B9
330
208
100
AcDbEntity
  8
0
  6
Continuous
 62
     7
100
AcDbLine
 10
-30.5913179688
 20
180.5804617682
 30
0.0
 11
-30.5913179688
 21
186.5804617682
 31
0.0
  0
LINE
  5
2BA
330
208
100
AcDbEntity
  8
0
  6
Continuous
 62
     7
100
AcDbLine
 10
-30.5913179688
 20
193.0804617682
 30
0.0
 11
-30.5913179688
 21
199.0804617682
 31
0.0
  0
LINE
  5
2BB
330
208
100
AcDbEntity
  8
0
  6
Continuous
 62
     7
100
AcDbLine
 10
-30.5913179688
 20
205.5804617682
 30
0.0
 11
-30.5913179688
 21
211.5804617682
 31
0.0
  0
LINE
  5
2BC
330
208
100
AcDbEntity
  8
0
  6
Continuous
 62
     7
100
AcDbLine
 10
-24.5913179688
 20
211.5804617682
 30
0.0
 11
-24.5913179688
 21
205.5804617682
 31
0.0
  0
LINE
  5
2BD
330
208
100
AcDbEntity
  8
0
  6
Continuous
 62
     7
100
AcDbLine
 10
-24.5913179688
 20
199.0804617682
 30
0.0
 11
-24.5913179688
 21
193.0804617682
 31
0.0
  0
LINE
  5
2BE
330
208
100
AcDbEntity
  8
0
  6
Continuous
 62
     7
100
AcDbLine
 10
-24.5913179688
 20
186.5804617682
 30
0.0
 11
-24.5913179688
 21
180.5804617682
 31
0.0
  0
LINE
  5
2BF
330
208
100
AcDbEntity
  8
0
  6
Continuous
 62
     7
100
AcDbLine
 10
-24.5913179688
 20
174.0804617682
 30
0.0
 11
-24.5913179688
 21
168.0804617682
 31
0.0
  0
LINE
  5
2C0
330
208
100
AcDbEntity
  8
0
  6
Continuous
 62
     7
100
AcDbLine
 10
-18.0913179688
 20
168.0804617682
 30
0.0
 11
-18.0913179688
 21
174.0804617682
 31
0.0
  0
LINE
  5
2C1
330
208
100
AcDbEntity
  8
0
  6
Continuous
 62
     7
100
AcDbLine
 10
-18.0913179688
 20
180.5804617682
 30
0.0
 11
-18.0913179688
 21
186.5804617682
 31
0.0
  0
LINE
  5
2C2
330
208
100
AcDbEntity
  8
0
  6
Continuous
 62
     7
100
AcDbLine
 10
-18.0913179688
 20
193.0804617682
 30
0.0
 11
-18.0913179688
 21
199.0804617682
 31
0.0
  0
LINE
  5
2C3
330
208
100
AcDbEntity
  8
0
  6
Continuous
 62
     7
100
AcDbLine
 10
-18.0913179688
 20
205.5804617682
 30
0.0
 11
-18.0913179688
 21
211.5804617682
 31
0.0
  0
LINE
  5
2C4
330
208
100
AcDbEntity
  8
0
  6
Continuous
 62
     7
100
AcDbLine
 10
-12.0913179688
 20
211.5804617682
 30
0.0
 11
-12.0913179688
 21
205.5804617682
 31
0.0
  0
LINE
  5
2C5
330
208
100
AcDbEntity
  8
0
  6
Continuous
 62
     7
100
AcDbLine
 10
-12.0913179688
 20
199.0804617682
 30
0.0
 11
-12.0913179688
 21
193.0804617682
 31
0.0
  0
LINE
  5
2C6
330
208
100
AcDbEntity
  8
0
  6
Continuous
 62
     7
100
AcDbLine
 10
-12.0913179688
 20
186.5804617682
 30
0.0
 11
-12.0913179688
 21
180.5804617682
 31
0.0
  0
LINE
  5
2C7
330
208
100
AcDbEntity
  8
0
  6
Continuous
 62
     7
100
AcDbLine
 10
-12.0913179688
 20
174.0804617682
 30
0.0
 11
-12.0913179688
 21
168.0804617682
 31
0.0
  0
LINE
  5
2C8
330
208
100
AcDbEntity
  8
0
  6
Continuous
 62
     7
100
AcDbLine
 10
-5.5913179688
 20
168.0804617682
 30
0.0
 11
-5.5913179688
 21
174.0804617682
 31
0.0
  0
LINE
  5
2C9
330
208
100
AcDbEntity
  8
0
  6
Continuous
 62
     7
100
AcDbLine
 10
-5.5913179688
 20
180.5804617682
 30
0.0
 11
-5.5913179688
 21
186.5804617682
 31
0.0
  0
LINE
  5
2CA
330
208
100
AcDbEntity
  8
0
  6
Continuous
 62
     7
100
AcDbLine
 10
-5.5913179688
 20
193.0804617682
 30
0.0
 11
-5.5913179688
 21
199.0804617682
 31
0.0
  0
LINE
  5
2CB
330
208
100
AcDbEntity
  8
0
  6
Continuous
 62
     7
100
AcDbLine
 10
-5.5913179688
 20
205.5804617682
 30
0.0
 11
-5.5913179688
 21
211.5804617682
 31
0.0
  0
LINE
  5
2CC
330
208
100
AcDbEntity
  8
0
  6
Continuous
 62
     7
100
AcDbLine
 10
0.4086820312
 20
211.5804617682
 30
0.0
 11
0.4086820312
 21
205.5804617682
 31
0.0
  0
LINE
  5
2CD
330
208
100
AcDbEntity
  8
0
  6
Continuous
 62
     7
100
AcDbLine
 10
0.4086820312
 20
199.0804617682
 30
0.0
 11
0.4086820312
 21
193.0804617682
 31
0.0
  0
LINE
  5
2CE
330
208
100
AcDbEntity
  8
0
  6
Continuous
 62
     7
100
AcDbLine
 10
0.4086820312
 20
186.5804617682
 30
0.0
 11
0.4086820312
 21
180.5804617682
 31
0.0
  0
LINE
  5
2CF
330
208
100
AcDbEntity
  8
0
  6
Continuous
 62
     7
100
AcDbLine
 10
0.4086820312
 20
174.0804617682
 30
0.0
 11
0.4086820312
 21
168.0804617682
 31
0.0
  0
LINE
  5
2D0
330
208
100
AcDbEntity
  8
0
  6
Continuous
 62
     7
100
AcDbLine
 10
6.908682031199997
 20
168.0804617682
 30
0.0
 11
6.908682031199997
 21
174.0804617682
 31
0.0
  0
LINE
  5
2D1
330
208
100
AcDbEntity
  8
0
  6
Continuous
 62
     7
100
AcDbLine
 10
6.908682031199997
 20
180.5804617682
 30
0.0
 11
6.908682031199997
 21
186.5804617682
 31
0.0
  0
LINE
  5
2D2
330
208
100
AcDbEntity
  8
0
  6
Continuous
 62
     7
100
AcDbLine
 10
6.908682031199997
 20
193.0804617682
 30
0.0
 11
6.908682031199997
 21
199.0804617682
 31
0.0
  0
LINE
  5
2D3
330
208
100
AcDbEntity
  8
0
  6
Continuous
 62
     7
100
AcDbLine
 10
6.908682031199997
 20
205.5804617682
 30
0.0
 11
6.908682031199997
 21
211.5804617682
 31
0.0
  0
LINE
  5
2D4
330
208
100
AcDbEntity
  8
0
  6
Continuous
 62
     7
100
AcDbLine
 10
12.9086820312
 20
211.5804617682
 30
0.0
 11
12.9086820312
 21
205.5804617682
 31
0.0
  0
LINE
  5
2D5
330
208
100
AcDbEntity
  8
0
  6
Continuous
 62
     7
100
AcDbLine
 10
12.9086820312
 20
199.0804617682
 30
0.0
 11
12.9086820312
 21
193.0804617682
 31
0.0
  0
LINE
  5
2D6
330
208
100
AcDbEntity
  8
0
  6
Continuous
 62
     7
100
AcDbLine
 10
12.9086820312
 20
186.5804617682
 30
0.0
 11
12.9086820312
 21
180.5804617682
 31
0.0
  0
LINE
  5
2D7
330
208
100
AcDbEntity
  8
0
  6
Continuous
 62
     7
100
AcDbLine
 10
12.9086820312
 20
174.0804617682
 30
0.0
 11
12.9086820312
 21
168.0804617682
 31
0.0
  0
LINE
  5
2D8
330
208
100
AcDbEntity
  8
0
  6
Continuous
 62
     7
100
AcDbLine
 10
19.4086820312
 20
168.0804617682
 30
0.0
 11
19.4086820312
 21
174.0804617682
 31
0.0
  0
LINE
  5
2D9
330
208
100
AcDbEntity
  8
0
  6
Continuous
 62
     7
100
AcDbLine
 10
19.4086820312
 20
180.5804617682
 30
0.0
 11
19.4086820312
 21
186.5804617682
 31
0.0
  0
LINE
  5
2DA
330
208
100
AcDbEntity
  8
0
  6
Continuous
 62
     7
100
AcDbLine
 10
19.4086820312
 20
193.0804617682
 30
0.0
 11
19.4086820312
 21
199.0804617682
 31
0.0
  0
LINE
  5
2DB
330
208
100
AcDbEntity
  8
0
  6
Continuous
 62
     7
100
AcDbLine
 10
19.4086820312
 20
205.5804617682
 30
0.0
 11
19.4086820312
 21
211.5804617682
 31
0.0
  0
LINE
  5
2DC
330
208
100
AcDbEntity
  8
0
  6
Continuous
 62
     7
100
AcDbLine
 10
25.4086820312
 20
211.5804617682
 30
0.0
 11
25.4086820312
 21
205.5804617682
 31
0.0
  0
LINE
  5
2DD
330
208
100
AcDbEntity
  8
0
  6
Continuous
 62
     7
100
AcDbLine
 10
25.4086820312
 20
199.0804617682
 30
0.0
 11
25.4086820312
 21
193.0804617682
 31
0.0
  0
LINE
  5
2DE
330
208
100
AcDbEntity
  8
0
  6
Continuous
 62
     7
100
AcDbLine
 10
25.4086820312
 20
186.5804617682
 30
0.0
 11
25.4086820312
 21
180.5804617682
 31
0.0
  0
LINE
  5
2DF
330
208
100
AcDbEntity
  8
0
  6
Continuous
 62
     7
100
AcDbLine
 10
25.4086820312
 20
174.0804617682
 30
0.0
 11
25.4086820312
 21
168.0804617682
 31
0.0
  0
LINE
  5
2E0
330
208
100
AcDbEntity
  8
0
  6
Continuous
 62
     7
100
AcDbLine
 10
31.9086820312
 20
168.0804617682
 30
0.0
 11
31.9086820312
 21
174.0804617682
 31
0.0
  0
LINE
  5
2E1
330
208
100
AcDbEntity
  8
0
  6
Continuous
 62
     7
100
AcDbLine
 10
31.9086820312
 20
180.5804617682
 30
0.0
 11
31.9086820312
 21
186.5804617682
 31
0.0
  0
LINE
  5
2E2
330
208
100
AcDbEntity
  8
0
  6
Continuous
 62
     7
100
AcDbLine
 10
31.9086820312
 20
193.0804617682
 30
0.0
 11
31.9086820312
 21
199.0804617682
 31
0.0
  0
LINE
  5
2E3
330
208
100
AcDbEntity
  8
0
  6
Continuous
 62
     7
100
AcDbLine
 10
31.9086820312
 20
205.5804617682
 30
0.0
 11
31.9086820312
 21
211.5804617682
 31
0.0
  0
LINE
  5
2E4
330
208
100
AcDbEntity
  8
0
  6
Continuous
 62
     7
100
AcDbLine
 10
37.9086820312
 20
211.5804617682
 30
0.0
 11
37.9086820312
 21
205.5804617682
 31
0.0
  0
LINE
  5
2E5
330
208
100
AcDbEntity
  8
0
  6
Continuous
 62
     7
100
AcDbLine
 10
37.9086820312
 20
199.0804617682
 30
0.0
 11
37.9086820312
 21
193.0804617682
 31
0.0
  0
LINE
  5
2E6
330
208
100
AcDbEntity
  8
0
  6
Continuous
 62
     7
100
AcDbLine
 10
37.9086820312
 20
186.5804617682
 30
0.0
 11
37.9086820312
 21
180.5804617682
 31
0.0
  0
LINE
  5
2E7
330
208
100
AcDbEntity
  8
0
  6
Continuous
 62
     7
100
AcDbLine
 10
37.9086820312
 20
174.0804617682
 30
0.0
 11
37.9086820312
 21
168.0804617682
 31
0.0
  0
LINE
  5
2E8
330
208
100
AcDbEntity
  8
0
  6
Continuous
 62
     7
100
AcDbLine
 10
44.40868203119999
 20
168.0804617682
 30
0.0
 11
44.40868203119999
 21
174.0804617682
 31
0.0
  0
LINE
  5
2E9
330
208
100
AcDbEntity
  8
0
  6
Continuous
 62
     7
100
AcDbLine
 10
44.40868203119999
 20
180.5804617682
 30
0.0
 11
44.40868203119999
 21
186.5804617682
 31
0.0
  0
LINE
  5
2EA
330
208
100
AcDbEntity
  8
0
  6
Continuous
 62
     7
100
AcDbLine
 10
44.40868203119999
 20
193.0804617682
 30
0.0
 11
44.40868203119999
 21
199.0804617682
 31
0.0
  0
LINE
  5
2EB
330
208
100
AcDbEntity
  8
0
  6
Continuous
 62
     7
100
AcDbLine
 10
44.40868203119999
 20
205.5804617682
 30
0.0
 11
44.40868203119999
 21
211.5804617682
 31
0.0
  0
LINE
  5
2EC
330
208
100
AcDbEntity
  8
0
  6
Continuous
 62
     7
100
AcDbLine
 10
50.4086820312
 20
211.5804617682
 30
0.0
 11
50.4086820312
 21
205.5804617682
 31
0.0
  0
LINE
  5
2ED
330
208
100
AcDbEntity
  8
0
  6
Continuous
 62
     7
100
AcDbLine
 10
50.4086820312
 20
199.0804617682
 30
0.0
 11
50.4086820312
 21
193.0804617682
 31
0.0
  0
LINE
  5
2EE
330
208
100
AcDbEntity
  8
0
  6
Continuous
 62
     7
100
AcDbLine
 10
50.4086820312
 20
186.5804617682
 30
0.0
 11
50.4086820312
 21
180.5804617682
 31
0.0
  0
LINE
  5
2EF
330
208
100
AcDbEntity
  8
0
  6
Continuous
 62
     7
100
AcDbLine
 10
50.4086820312
 20
174.0804617682
 30
0.0
 11
50.4086820312
 21
168.0804617682
 31
0.0
  0
LINE
  5
2F0
330
208
100
AcDbEntity
  8
0
  6
Continuous
 62
     7
100
AcDbLine
 10
56.9086820312
 20
168.0804617682
 30
0.0
 11
56.9086820312
 21
174.0804617682
 31
0.0
  0
LINE
  5
2F1
330
208
100
AcDbEntity
  8
0
  6
Continuous
 62
     7
100
AcDbLine
 10
56.9086820312
 20
180.5804617682
 30
0.0
 11
56.9086820312
 21
186.5804617682
 31
0.0
  0
LINE
  5
2F2
330
208
100
AcDbEntity
  8
0
  6
Continuous
 62
     7
100
AcDbLine
 10
56.9086820312
 20
193.0804617682
 30
0.0
 11
56.9086820312
 21
199.0804617682
 31
0.0
  0
LINE
  5
2F3
330
208
100
AcDbEntity
  8
0
  6
Continuous
 62
     7
100
AcDbLine
 10
56.9086820312
 20
205.5804617682
 30
0.0
 11
56.9086820312
 21
211.5804617682
 31
0.0
  0
LINE
  5
2F4
330
208
100
AcDbEntity
  8
0
  6
Continuous
 62
     7
100
AcDbLine
 10
62.9086820312
 20
211.5804617682
 30
0.0
 11
62.9086820312
 21
205.5804617682
 31
0.0
  0
LINE
  5
2F5
330
208
100
AcDbEntity
  8
0
  6
Continuous
 62
     7
100
AcDbLine
 10
62.9086820312
 20
199.0804617682
 30
0.0
 11
62.9086820312
 21
193.0804617682
 31
0.0
  0
LINE
  5
2F6
330
208
100
AcDbEntity
  8
0
  6
Continuous
 62
     7
100
AcDbLine
 10
62.9086820312
 20
186.5804617682
 30
0.0
 11
62.9086820312
 21
180.5804617682
 31
0.0
  0
LINE
  5
2F7
330
208
100
AcDbEntity
  8
0
  6
Continuous
 62
     7
100
AcDbLine
 10
62.9086820312
 20
174.0804617682
 30
0.0
 11
62.9086820312
 21
168.0804617682
 31
0.0
  0
LINE
  5
2F8
330
208
100
AcDbEntity
  8
0
  6
Continuous
 62
     7
100
AcDbLine
 10
69.4086820312
 20
168.0804617682
 30
0.0
 11
69.4086820312
 21
174.0804617682
 31
0.0
  0
LINE
  5
2F9
330
208
100
AcDbEntity
  8
0
  6
Continuous
 62
     7
100
AcDbLine
 10
69.4086820312
 20
180.5804617682
 30
0.0
 11
69.4086820312
 21
186.5804617682
 31
0.0
  0
LINE
  5
2FA
330
208
100
AcDbEntity
  8
0
  6
Continuous
 62
     7
100
AcDbLine
 10
69.4086820312
 20
193.0804617682
 30
0.0
 11
69.4086820312
 21
199.0804617682
 31
0.0
  0
LINE
  5
2FB
330
208
100
AcDbEntity
  8
0
  6
Continuous
 62
     7
100
AcDbLine
 10
69.4086820312
 20
205.5804617682
 30
0.0
 11
69.4086820312
 21
211.5804617682
 31
0.0
  0
LINE
  5
2FC
330
208
100
AcDbEntity
  8
0
  6
Continuous
 62
     7
100
AcDbLine
 10
75.4086820312
 20
211.5804617682
 30
0.0
 11
75.4086820312
 21
205.5804617682
 31
0.0
  0
LINE
  5
2FD
330
208
100
AcDbEntity
  8
0
  6
Continuous
 62
     7
100
AcDbLine
 10
75.4086820312
 20
199.0804617682
 30
0.0
 11
75.4086820312
 21
193.0804617682
 31
0.0
  0
LINE
  5
2FE
330
208
100
AcDbEntity
  8
0
  6
Continuous
 62
     7
100
AcDbLine
 10
75.4086820312
 20
186.5804617682
 30
0.0
 11
75.4086820312
 21
180.5804617682
 31
0.0
  0
LINE
  5
2FF
330
208
100
AcDbEntity
  8
0
  6
Continuous
 62
     7
100
AcDbLine
 10
75.4086820312
 20
174.0804617682
 30
0.0
 11
75.4086820312
 21
168.0804617682
 31
0.0
  0
LINE
  5
300
330
208
100
AcDbEntity
  8
0
  6
Continuous
 62
     7
100
AcDbLine
 10
81.9086820312
 20
168.0804617682
 30
0.0
 11
81.9086820312
 21
174.0804617682
 31
0.0
  0
LINE
  5
301
330
208
100
AcDbEntity
  8
0
  6
Continuous
 62
     7
100
AcDbLine
 10
81.9086820312
 20
180.5804617682
 30
0.0
 11
81.9086820312
 21
186.5804617682
 31
0.0
  0
LINE
  5
302
330
208
100
AcDbEntity
  8
0
  6
Continuous
 62
     7
100
AcDbLine
 10
81.9086820312
 20
193.0804617682
 30
0.0
 11
81.9086820312
 21
199.0804617682
 31
0.0
  0
LINE
  5
303
330
208
100
AcDbEntity
  8
0
  6
Continuous
 62
     7
100
AcDbLine
 10
81.9086820312
 20
205.5804617682
 30
0.0
 11
81.9086820312
 21
211.5804617682
 31
0.0
  0
LINE
  5
304
330
208
100
AcDbEntity
  8
0
  6
Continuous
 62
     7
100
AcDbLine
 10
87.9086820312
 20
211.5804617682
 30
0.0
 11
87.9086820312
 21
205.5804617682
 31
0.0
  0
LINE
  5
305
330
208
100
AcDbEntity
  8
0
  6
Continuous
 62
     7
100
AcDbLine
 10
87.9086820312
 20
199.0804617682
 30
0.0
 11
87.9086820312
 21
193.0804617682
 31
0.0
  0
LINE
  5
306
330
208
100
AcDbEntity
  8
0
  6
Continuous
 62
     7
100
AcDbLine
 10
87.9086820312
 20
186.5804617682
 30
0.0
 11
87.9086820312
 21
180.5804617682
 31
0.0
  0
LINE
  5
307
330
208
100
AcDbEntity
  8
0
  6
Continuous
 62
     7
100
AcDbLine
 10
87.9086820312
 20
174.0804617682
 30
0.0
 11
87.9086820312
 21
168.0804617682
 31
0.0
  0
LINE
  5
308
330
208
100
AcDbEntity
  8
0
  6
Continuous
 62
     7
100
AcDbLine
 10
94.4086820312
 20
168.0804617682
 30
0.0
 11
94.4086820312
 21
174.0804617682
 31
0.0
  0
LINE
  5
309
330
208
100
AcDbEntity
  8
0
  6
Continuous
 62
     7
100
AcDbLine
 10
94.4086820312
 20
180.5804617682
 30
0.0
 11
94.4086820312
 21
186.5804617682
 31
0.0
  0
LINE
  5
30A
330
208
100
AcDbEntity
  8
0
  6
Continuous
 62
     7
100
AcDbLine
 10
94.4086820312
 20
193.0804617682
 30
0.0
 11
94.4086820312
 21
199.0804617682
 31
0.0
  0
LINE
  5
30B
330
208
100
AcDbEntity
  8
0
  6
Continuous
 62
     7
100
AcDbLine
 10
94.4086820312
 20
205.5804617682
 30
0.0
 11
94.4086820312
 21
211.5804617682
 31
0.0
  0
LINE
  5
30C
330
208
100
AcDbEntity
  8
0
  6
Continuous
 62
     7
100
AcDbLine
 10
100.4086820312
 20
211.5804617682
 30
0.0
 11
100.4086820312
 21
205.5804617682
 31
0.0
  0
LINE
  5
30D
330
208
100
AcDbEntity
  8
0
  6
Continuous
 62
     7
100
AcDbLine
 10
100.4086820312
 20
199.0804617682
 30
0.0
 11
100.4086820312
 21
193.0804617682
 31
0.0
  0
LINE
  5
30E
330
208
100
AcDbEntity
  8
0
  6
Continuous
 62
     7
100
AcDbLine
 10
100.4086820312
 20
186.5804617682
 30
0.0
 11
100.4086820312
 21
180.5804617682
 31
0.0
  0
LINE
  5
30F
330
208
100
AcDbEntity
  8
0
  6
Continuous
 62
     7
100
AcDbLine
 10
100.4086820312
 20
174.0804617682
 30
0.0
 11
100.4086820312
 21
168.0804617682
 31
0.0
  0
LINE
  5
310
330
208
100
AcDbEntity
  8
0
  6
Continuous
 62
     7
100
AcDbLine
 10
106.9086820312
 20
168.0804617682
 30
0.0
 11
106.9086820312
 21
174.0804617682
 31
0.0
  0
LINE
  5
311
330
208
100
AcDbEntity
  8
0
  6
Continuous
 62
     7
100
AcDbLine
 10
106.9086820312
 20
180.5804617682
 30
0.0
 11
106.9086820312
 21
186.5804617682
 31
0.0
  0
LINE
  5
312
330
208
100
AcDbEntity
  8
0
  6
Continuous
 62
     7
100
AcDbLine
 10
106.9086820312
 20
193.0804617682
 30
0.0
 11
106.9086820312
 21
199.0804617682
 31
0.0
  0
LINE
  5
313
330
208
100
AcDbEntity
  8
0
  6
Continuous
 62
     7
100
AcDbLine
 10
106.9086820312
 20
205.5804617682
 30
0.0
 11
106.9086820312
 21
211.5804617682
 31
0.0
  0
LINE
  5
314
330
208
100
AcDbEntity
  8
0
  6
Continuous
 62
     7
100
AcDbLine
 10
112.9086820312
 20
211.5804617682
 30
0.0
 11
112.9086820312
 21
205.5804617682
 31
0.0
  0
LINE
  5
315
330
208
100
AcDbEntity
  8
0
  6
Continuous
 62
     7
100
AcDbLine
 10
112.9086820312
 20
199.0804617682
 30
0.0
 11
112.9086820312
 21
193.0804617682
 31
0.0
  0
LINE
  5
316
330
208
100
AcDbEntity
  8
0
  6
Continuous
 62
     7
100
AcDbLine
 10
112.9086820312
 20
186.5804617682
 30
0.0
 11
112.9086820312
 21
180.5804617682
 31
0.0
  0
LINE
  5
317
330
208
100
AcDbEntity
  8
0
  6
Continuous
 62
     7
100
AcDbLine
 10
112.9086820312
 20
174.0804617682
 30
0.0
 11
112.9086820312
 21
168.0804617682
 31
0.0
  0
LINE
  5
318
330
208
100
AcDbEntity
  8
0
  6
Continuous
 62
     7
100
AcDbLine
 10
119.4086820312
 20
168.0804617682
 30
0.0
 11
119.4086820312
 21
174.0804617682
 31
0.0
  0
LINE
  5
319
330
208
100
AcDbEntity
  8
0
  6
Continuous
 62
     7
100
AcDbLine
 10
119.4086820312
 20
180.5804617682
 30
0.0
 11
119.4086820312
 21
186.5804617682
 31
0.0
  0
LINE
  5
31A
330
208
100
AcDbEntity
  8
0
  6
Continuous
 62
     7
100
AcDbLine
 10
119.4086820312
 20
193.0804617682
 30
0.0
 11
119.4086820312
 21
199.0804617682
 31
0.0
  0
LINE
  5
31B
330
208
100
AcDbEntity
  8
0
  6
Continuous
 62
     7
100
AcDbLine
 10
119.4086820312
 20
205.5804617682
 30
0.0
 11
119.4086820312
 21
211.5804617682
 31
0.0
  0
LINE
  5
31C
330
208
100
AcDbEntity
  8
0
  6
Continuous
 62
     7
100
AcDbLine
 10
125.4086820312
 20
211.5804617682
 30
0.0
 11
125.4086820312
 21
205.5804617682
 31
0.0
  0
LINE
  5
31D
330
208
100
AcDbEntity
  8
0
  6
Continuous
 62
     7
100
AcDbLine
 10
125.4086820312
 20
199.0804617682
 30
0.0
 11
125.4086820312
 21
193.0804617682
 31
0.0
  0
LINE
  5
31E
330
208
100
AcDbEntity
  8
0
  6
Continuous
 62
     7
100
AcDbLine
 10
125.4086820312
 20
186.5804617682
 30
0.0
 11
125.4086820312
 21
180.5804617682
 31
0.0
  0
LINE
  5
31F
330
208
100
AcDbEntity
  8
0
  6
Continuous
 62
     7
100
AcDbLine
 10
125.4086820312
 20
174.0804617682
 30
0.0
 11
125.4086820312
 21
168.0804617682
 31
0.0
  0
LINE
  5
320
330
208
100
AcDbEntity
  8
0
  6
Continuous
 62
     7
100
AcDbLine
 10
131.9086820312
 20
168.0804617682
 30
0.0
 11
131.9086820312
 21
174.0804617682
 31
0.0
  0
LINE
  5
321
330
208
100
AcDbEntity
  8
0
  6
Continuous
 62
     7
100
AcDbLine
 10
131.9086820312
 20
180.5804617682
 30
0.0
 11
131.9086820312
 21
186.5804617682
 31
0.0
  0
LINE
  5
322
330
208
100
AcDbEntity
  8
0
  6
Continuous
 62
     7
100
AcDbLine
 10
131.9086820312
 20
193.0804617682
 30
0.0
 11
131.9086820312
 21
199.0804617682
 31
0.0
  0
LINE
  5
323
330
208
100
AcDbEntity
  8
0
  6
Continuous
 62
     7
100
AcDbLine
 10
131.9086820312
 20
205.5804617682
 30
0.0
 11
131.9086820312
 21
211.5804617682
 31
0.0
  0
LINE
  5
324
330
208
100
AcDbEntity
  8
0
  6
Continuous
 62
     7
100
AcDbLine
 10
137.9086820312
 20
211.5804617682
 30
0.0
 11
137.9086820312
 21
205.5804617682
 31
0.0
  0
LINE
  5
325
330
208
100
AcDbEntity
  8
0
  6
Continuous
 62
     7
100
AcDbLine
 10
137.9086820312
 20
199.0804617682
 30
0.0
 11
137.9086820312
 21
193.0804617682
 31
0.0
  0
LINE
  5
326
330
208
100
AcDbEntity
  8
0
  6
Continuous
 62
     7
100
AcDbLine
 10
137.9086820312
 20
186.5804617682
 30
0.0
 11
137.9086820312
 21
180.5804617682
 31
0.0
  0
LINE
  5
327
330
208
100
AcDbEntity
  8
0
  6
Continuous
 62
     7
100
AcDbLine
 10
137.9086820312
 20
174.0804617682
 30
0.0
 11
137.9086820312
 21
168.0804617682
 31
0.0
  0
LINE
  5
328
330
208
100
AcDbEntity
  8
0
  6
Continuous
 62
     7
100
AcDbLine
 10
144.4086820312
 20
168.0804617682
 30
0.0
 11
144.4086820312
 21
174.0804617682
 31
0.0
  0
LINE
  5
329
330
208
100
AcDbEntity
  8
0
  6
Continuous
 62
     7
100
AcDbLine
 10
144.4086820312
 20
180.5804617682
 30
0.0
 11
144.4086820312
 21
186.5804617682
 31
0.0
  0
LINE
  5
32A
330
208
100
AcDbEntity
  8
0
  6
Continuous
 62
     7
100
AcDbLine
 10
144.4086820312
 20
193.0804617682
 30
0.0
 11
144.4086820312
 21
199.0804617682
 31
0.0
  0
LINE
  5
32B
330
208
100
AcDbEntity
  8
0
  6
Continuous
 62
     7
100
AcDbLine
 10
144.4086820312
 20
205.5804617682
 30
0.0
 11
144.4086820312
 21
211.5804617682
 31
0.0
  0
LINE
  5
32C
330
208
100
AcDbEntity
  8
0
  6
Continuous
 62
     7
100
AcDbLine
 10
150.4086820312
 20
211.5804617682
 30
0.0
 11
150.4086820312
 21
205.5804617682
 31
0.0
  0
LINE
  5
32D
330
208
100
AcDbEntity
  8
0
  6
Continuous
 62
     7
100
AcDbLine
 10
150.4086820312
 20
199.0804617682
 30
0.0
 11
150.4086820312
 21
193.0804617682
 31
0.0
  0
LINE
  5
32E
330
208
100
AcDbEntity
  8
0
  6
Continuous
 62
     7
100
AcDbLine
 10
150.4086820312
 20
186.5804617682
 30
0.0
 11
150.4086820312
 21
180.5804617682
 31
0.0
  0
LINE
  5
32F
330
208
100
AcDbEntity
  8
0
  6
Continuous
 62
     7
100
AcDbLine
 10
150.4086820312
 20
174.0804617682
 30
0.0
 11
150.4086820312
 21
168.0804617682
 31
0.0
  0
LINE
  5
330
330
208
100
AcDbEntity
  8
0
  6
Continuous
 62
     7
100
AcDbLine
 10
156.9086820312
 20
168.0804617682
 30
0.0
 11
156.9086820312
 21
174.0804617682
 31
0.0
  0
LINE
  5
331
330
208
100
AcDbEntity
  8
0
  6
Continuous
 62
     7
100
AcDbLine
 10
156.9086820312
 20
180.5804617682
 30
0.0
 11
156.9086820312
 21
186.5804617682
 31
0.0
  0
LINE
  5
332
330
208
100
AcDbEntity
  8
0
  6
Continuous
 62
     7
100
AcDbLine
 10
156.9086820312
 20
193.0804617682
 30
0.0
 11
156.9086820312
 21
199.0804617682
 31
0.0
  0
LINE
  5
333
330
208
100
AcDbEntity
  8
0
  6
Continuous
 62
     7
100
AcDbLine
 10
156.9086820312
 20
205.5804617682
 30
0.0
 11
156.9086820312
 21
211.5804617682
 31
0.0
  0
LINE
  5
334
330
208
100
AcDbEntity
  8
0
  6
Continuous
 62
     7
100
AcDbLine
 10
162.9086820312
 20
211.5804617682
 30
0.0
 11
162.9086820312
 21
205.5804617682
 31
0.0
  0
LINE
  5
335
330
208
100
AcDbEntity
  8
0
  6
Continuous
 62
     7
100
AcDbLine
 10
162.9086820312
 20
199.0804617682
 30
0.0
 11
162.9086820312
 21
193.0804617682
 31
0.0
  0
LINE
  5
336
330
208
100
AcDbEntity
  8
0
  6
Continuous
 62
     7
100
AcDbLine
 10
162.9086820312
 20
186.5804617682
 30
0.0
 11
162.9086820312
 21
180.5804617682
 31
0.0
  0
LINE
  5
337
330
208
100
AcDbEntity
  8
0
  6
Continuous
 62
     7
100
AcDbLine
 10
162.9086820312
 20
174.0804617682
 30
0.0
 11
162.9086820312
 21
168.0804617682
 31
0.0
  0
LINE
  5
338
330
208
100
AcDbEntity
  8
0
  6
Continuous
 62
     7
100
AcDbLine
 10
169.4086820312
 20
168.0804617682
 30
0.0
 11
169.4086820312
 21
174.0804617682
 31
0.0
  0
LINE
  5
339
330
208
100
AcDbEntity
  8
0
  6
Continuous
 62
     7
100
AcDbLine
 10
169.4086820312
 20
180.5804617682
 30
0.0
 11
169.4086820312
 21
186.5804617682
 31
0.0
  0
LINE
  5
33A
330
208
100
AcDbEntity
  8
0
  6
Continuous
 62
     7
100
AcDbLine
 10
169.4086820312
 20
193.0804617682
 30
0.0
 11
169.4086820312
 21
199.0804617682
 31
0.0
  0
LINE
  5
33B
330
208
100
AcDbEntity
  8
0
  6
Continuous
 62
     7
100
AcDbLine
 10
169.4086820312
 20
205.5804617682
 30
0.0
 11
169.4086820312
 21
211.5804617682
 31
0.0
  0
LINE
  5
33C
330
208
100
AcDbEntity
  8
0
  6
Continuous
 62
     7
100
AcDbLine
 10
175.4086820312
 20
211.5804617682
 30
0.0
 11
175.4086820312
 21
205.5804617682
 31
0.0
  0
LINE
  5
33D
330
208
100
AcDbEntity
  8
0
  6
Continuous
 62
     7
100
AcDbLine
 10
175.4086820312
 20
199.0804617682
 30
0.0
 11
175.4086820312
 21
193.0804617682
 31
0.0
  0
LINE
  5
33E
330
208
100
AcDbEntity
  8
0
  6
Continuous
 62
     7
100
AcDbLine
 10
175.4086820312
 20
186.5804617682
 30
0.0
 11
175.4086820312
 21
180.5804617682
 31
0.0
  0
LINE
  5
33F
330
208
100
AcDbEntity
  8
0
  6
Continuous
 62
     7
100
AcDbLine
 10
175.4086820312
 20
174.0804617682
 30
0.0
 11
175.4086820312
 21
168.0804617682
 31
0.0
  0
LINE
  5
340
330
208
100
AcDbEntity
  8
0
  6
Continuous
 62
     7
100
AcDbLine
 10
181.9086820312
 20
168.0804617682
 30
0.0
 11
181.9086820312
 21
174.0804617682
 31
0.0
  0
LINE
  5
341
330
208
100
AcDbEntity
  8
0
  6
Continuous
 62
     7
100
AcDbLine
 10
181.9086820312
 20
180.5804617682
 30
0.0
 11
181.9086820312
 21
186.5804617682
 31
0.0
  0
LINE
  5
342
330
208
100
AcDbEntity
  8
0
  6
Continuous
 62
     7
100
AcDbLine
 10
181.9086820312
 20
193.0804617682
 30
0.0
 11
181.9086820312
 21
199.0804617682
 31
0.0
  0
LINE
  5
343
330
208
100
AcDbEntity
  8
0
  6
Continuous
 62
     7
100
AcDbLine
 10
181.9086820312
 20
205.5804617682
 30
0.0
 11
181.9086820312
 21
211.5804617682
 31
0.0
  0
LINE
  5
344
330
208
100
AcDbEntity
  8
0
  6
Continuous
 62
     7
100
AcDbLine
 10
187.9086820312
 20
211.5804617682
 30
0.0
 11
187.9086820312
 21
205.5804617682
 31
0.0
  0
LINE
  5
345
330
208
100
AcDbEntity
  8
0
  6
Continuous
 62
     7
100
AcDbLine
 10
187.9086820312
 20
199.0804617682
 30
0.0
 11
187.9086820312
 21
193.0804617682
 31
0.0
  0
LINE
  5
346
330
208
100
AcDbEntity
  8
0
  6
Continuous
 62
     7
100
AcDbLine
 10
187.9086820312
 20
186.5804617682
 30
0.0
 11
187.9086820312
 21
180.5804617682
 31
0.0
  0
LINE
  5
347
330
208
100
AcDbEntity
  8
0
  6
Continuous
 62
     7
100
AcDbLine
 10
187.9086820312
 20
174.0804617682
 30
0.0
 11
187.9086820312
 21
168.0804617682
 31
0.0
  0
LINE
  5
348
102
{ACAD_REACTORS
330
980
102
}
330
208
100
AcDbEntity
  8
0
  6
Continuous
 62
     7
100
AcDbLine
 10
-222.8413179688
 20
158.8291459545
 30
0.0
 11
655.1586820312
 21
158.8291459545
 31
0.0
  0
LINE
  5
349
330
208
100
AcDbEntity
  8
BEZUGSACHSEN
  6
Continuous
 62
     9
100
AcDbLine
 10
-222.8413179688
 20
162.7879976291
 30
0.0
 11
655.1586820312
 21
162.7879976291
 31
0.0
  0
LINE
  5
34A
330
208
100
AcDbEntity
  8
BEZUGSACHSEN
  6
Continuous
 62
     9
100
AcDbLine
 10
-222.8413179688
 20
163.7873596705
 30
0.0
 11
655.1586820312
 21
163.7873596705
 31
0.0
  0
LINE
  5
34B
330
208
100
AcDbEntity
  8
0
  6
Continuous
 62
     7
100
AcDbLine
 10
194.4086820312
 20
168.0804617682
 30
0.0
 11
194.4086820312
 21
174.0804617682
 31
0.0
  0
LINE
  5
34C
330
208
100
AcDbEntity
  8
0
  6
Continuous
 62
     7
100
AcDbLine
 10
194.4086820312
 20
180.5804617682
 30
0.0
 11
194.4086820312
 21
186.5804617682
 31
0.0
  0
LINE
  5
34D
330
208
100
AcDbEntity
  8
0
  6
Continuous
 62
     7
100
AcDbLine
 10
194.4086820312
 20
193.0804617682
 30
0.0
 11
194.4086820312
 21
199.0804617682
 31
0.0
  0
LINE
  5
34E
330
208
100
AcDbEntity
  8
0
  6
Continuous
 62
     7
100
AcDbLine
 10
194.4086820312
 20
205.5804617682
 30
0.0
 11
194.4086820312
 21
211.5804617682
 31
0.0
  0
LINE
  5
34F
330
208
100
AcDbEntity
  8
0
  6
Continuous
 62
     7
100
AcDbLine
 10
200.4086820312
 20
211.5804617682
 30
0.0
 11
200.4086820312
 21
205.5804617682
 31
0.0
  0
LINE
  5
350
330
208
100
AcDbEntity
  8
0
  6
Continuous
 62
     7
100
AcDbLine
 10
200.4086820312
 20
199.0804617682
 30
0.0
 11
200.4086820312
 21
193.0804617682
 31
0.0
  0
LINE
  5
351
330
208
100
AcDbEntity
  8
0
  6
Continuous
 62
     7
100
AcDbLine
 10
200.4086820312
 20
186.5804617682
 30
0.0
 11
200.4086820312
 21
180.5804617682
 31
0.0
  0
LINE
  5
352
330
208
100
AcDbEntity
  8
0
  6
Continuous
 62
     7
100
AcDbLine
 10
200.4086820312
 20
174.0804617682
 30
0.0
 11
200.4086820312
 21
168.0804617682
 31
0.0
  0
LINE
  5
353
330
208
100
AcDbEntity
  8
0
  6
Continuous
 62
     7
100
AcDbLine
 10
206.9086820312
 20
168.0804617682
 30
0.0
 11
206.9086820312
 21
174.0804617682
 31
0.0
  0
LINE
  5
354
330
208
100
AcDbEntity
  8
0
  6
Continuous
 62
     7
100
AcDbLine
 10
206.9086820312
 20
180.5804617682
 30
0.0
 11
206.9086820312
 21
186.5804617682
 31
0.0
  0
LINE
  5
355
330
208
100
AcDbEntity
  8
0
  6
Continuous
 62
     7
100
AcDbLine
 10
206.9086820312
 20
193.0804617682
 30
0.0
 11
206.9086820312
 21
199.0804617682
 31
0.0
  0
LINE
  5
356
330
208
100
AcDbEntity
  8
0
  6
Continuous
 62
     7
100
AcDbLine
 10
206.9086820312
 20
205.5804617682
 30
0.0
 11
206.9086820312
 21
211.5804617682
 31
0.0
  0
LINE
  5
357
330
208
100
AcDbEntity
  8
0
  6
Continuous
 62
     7
100
AcDbLine
 10
212.9086820312
 20
211.5804617682
 30
0.0
 11
212.9086820312
 21
205.5804617682
 31
0.0
  0
LINE
  5
358
330
208
100
AcDbEntity
  8
0
  6
Continuous
 62
     7
100
AcDbLine
 10
212.9086820312
 20
199.0804617682
 30
0.0
 11
212.9086820312
 21
193.0804617682
 31
0.0
  0
LINE
  5
359
330
208
100
AcDbEntity
  8
0
  6
Continuous
 62
     7
100
AcDbLine
 10
212.9086820312
 20
186.5804617682
 30
0.0
 11
212.9086820312
 21
180.5804617682
 31
0.0
  0
LINE
  5
35A
330
208
100
AcDbEntity
  8
0
  6
Continuous
 62
     7
100
AcDbLine
 10
212.9086820312
 20
174.0804617682
 30
0.0
 11
212.9086820312
 21
168.0804617682
 31
0.0
  0
LINE
  5
35B
330
208
100
AcDbEntity
  8
0
  6
Continuous
 62
     7
100
AcDbLine
 10
219.4086820312
 20
168.0804617682
 30
0.0
 11
219.4086820312
 21
174.0804617682
 31
0.0
  0
LINE
  5
35C
330
208
100
AcDbEntity
  8
0
  6
Continuous
 62
     7
100
AcDbLine
 10
219.4086820312
 20
180.5804617682
 30
0.0
 11
219.4086820312
 21
186.5804617682
 31
0.0
  0
LINE
  5
35D
330
208
100
AcDbEntity
  8
0
  6
Continuous
 62
     7
100
AcDbLine
 10
219.4086820312
 20
193.0804617682
 30
0.0
 11
219.4086820312
 21
199.0804617682
 31
0.0
  0
LINE
  5
35E
330
208
100
AcDbEntity
  8
0
  6
Continuous
 62
     7
100
AcDbLine
 10
219.4086820312
 20
205.5804617682
 30
0.0
 11
219.4086820312
 21
211.5804617682
 31
0.0
  0
LINE
  5
35F
330
208
100
AcDbEntity
  8
0
  6
Continuous
 62
     7
100
AcDbLine
 10
630.0827662936
 20
168.0804617682
 30
0.0
 11
630.0816820311998
 21
168.0804617682
 31
0.0
  0
LINE
  5
360
330
208
100
AcDbEntity
  8
0
  6
Continuous
 62
     7
100
AcDbLine
 10
629.1587557520998
 20
168.0804617682
 30
0.0
 11
629.1586820312
 21
168.0804617682
 31
0.0
  0
LINE
  5
361
330
208
100
AcDbEntity
  8
0
  6
Continuous
 62
     7
100
AcDbLine
 10
625.4086820311997
 20
168.0804617682
 30
0.0
 11
619.4086820312
 21
168.0804617682
 31
0.0
  0
LINE
  5
362
330
208
100
AcDbEntity
  8
0
  6
Continuous
 62
     7
100
AcDbLine
 10
612.9086820311997
 20
168.0804617682
 30
0.0
 11
606.9086820312
 21
168.0804617682
 31
0.0
  0
LINE
  5
363
330
208
100
AcDbEntity
  8
0
  6
Continuous
 62
     7
100
AcDbLine
 10
600.4086820311997
 20
168.0804617682
 30
0.0
 11
594.4086820312
 21
168.0804617682
 31
0.0
  0
LINE
  5
364
330
208
100
AcDbEntity
  8
0
  6
Continuous
 62
     7
100
AcDbLine
 10
587.9086820311997
 20
168.0804617682
 30
0.0
 11
581.9086820312
 21
168.0804617682
 31
0.0
  0
LINE
  5
365
330
208
100
AcDbEntity
  8
0
  6
Continuous
 62
     7
100
AcDbLine
 10
575.4086820311997
 20
168.0804617682
 30
0.0
 11
569.4086820312
 21
168.0804617682
 31
0.0
  0
LINE
  5
366
330
208
100
AcDbEntity
  8
0
  6
Continuous
 62
     7
100
AcDbLine
 10
562.9086820311997
 20
168.0804617682
 30
0.0
 11
556.9086820312
 21
168.0804617682
 31
0.0
  0
LINE
  5
367
330
208
100
AcDbEntity
  8
0
  6
Continuous
 62
     7
100
AcDbLine
 10
550.4086820311997
 20
168.0804617682
 30
0.0
 11
544.4086820312
 21
168.0804617682
 31
0.0
  0
LINE
  5
368
330
208
100
AcDbEntity
  8
0
  6
Continuous
 62
     7
100
AcDbLine
 10
537.9086820311997
 20
168.0804617682
 30
0.0
 11
531.9086820312
 21
168.0804617682
 31
0.0
  0
LINE
  5
369
330
208
100
AcDbEntity
  8
0
  6
Continuous
 62
     7
100
AcDbLine
 10
525.4086820311997
 20
168.0804617682
 30
0.0
 11
519.4086820312
 21
168.0804617682
 31
0.0
  0
LINE
  5
36A
330
208
100
AcDbEntity
  8
0
  6
Continuous
 62
     7
100
AcDbLine
 10
512.9086820311997
 20
168.0804617682
 30
0.0
 11
506.9086820312
 21
168.0804617682
 31
0.0
  0
LINE
  5
36B
330
208
100
AcDbEntity
  8
0
  6
Continuous
 62
     7
100
AcDbLine
 10
500.4086820312
 20
168.0804617682
 30
0.0
 11
494.4086820312
 21
168.0804617682
 31
0.0
  0
LINE
  5
36C
330
208
100
AcDbEntity
  8
0
  6
Continuous
 62
     7
100
AcDbLine
 10
487.9086820312
 20
168.0804617682
 30
0.0
 11
481.9086820312
 21
168.0804617682
 31
0.0
  0
LINE
  5
36D
330
208
100
AcDbEntity
  8
0
  6
Continuous
 62
     7
100
AcDbLine
 10
475.4086820312
 20
168.0804617682
 30
0.0
 11
469.4086820312
 21
168.0804617682
 31
0.0
  0
LINE
  5
36E
330
208
100
AcDbEntity
  8
0
  6
Continuous
 62
     7
100
AcDbLine
 10
462.9086820312
 20
168.0804617682
 30
0.0
 11
456.9086820312
 21
168.0804617682
 31
0.0
  0
LINE
  5
36F
330
208
100
AcDbEntity
  8
0
  6
Continuous
 62
     7
100
AcDbLine
 10
450.4086820312
 20
168.0804617682
 30
0.0
 11
444.4086820312
 21
168.0804617682
 31
0.0
  0
LINE
  5
370
330
208
100
AcDbEntity
  8
0
  6
Continuous
 62
     7
100
AcDbLine
 10
437.9086820312
 20
168.0804617682
 30
0.0
 11
431.9086820312
 21
168.0804617682
 31
0.0
  0
LINE
  5
371
330
208
100
AcDbEntity
  8
0
  6
Continuous
 62
     7
100
AcDbLine
 10
425.4086820312
 20
168.0804617682
 30
0.0
 11
419.4086820312
 21
168.0804617682
 31
0.0
  0
LINE
  5
372
330
208
100
AcDbEntity
  8
0
  6
Continuous
 62
     7
100
AcDbLine
 10
412.9086820312
 20
168.0804617682
 30
0.0
 11
406.9086820312
 21
168.0804617682
 31
0.0
  0
LINE
  5
373
330
208
100
AcDbEntity
  8
0
  6
Continuous
 62
     7
100
AcDbLine
 10
400.4086820312
 20
168.0804617682
 30
0.0
 11
394.4086820312
 21
168.0804617682
 31
0.0
  0
LINE
  5
374
330
208
100
AcDbEntity
  8
0
  6
Continuous
 62
     7
100
AcDbLine
 10
387.9086820312
 20
168.0804617682
 30
0.0
 11
381.9086820312
 21
168.0804617682
 31
0.0
  0
LINE
  5
375
330
208
100
AcDbEntity
  8
0
  6
Continuous
 62
     7
100
AcDbLine
 10
375.4086820312001
 20
168.0804617682
 30
0.0
 11
369.4086820312
 21
168.0804617682
 31
0.0
  0
LINE
  5
376
330
208
100
AcDbEntity
  8
0
  6
Continuous
 62
     7
100
AcDbLine
 10
362.9086820312001
 20
168.0804617682
 30
0.0
 11
356.9086820312
 21
168.0804617682
 31
0.0
  0
LINE
  5
377
330
208
100
AcDbEntity
  8
0
  6
Continuous
 62
     7
100
AcDbLine
 10
350.4086820312001
 20
168.0804617682
 30
0.0
 11
344.4086820312
 21
168.0804617682
 31
0.0
  0
LINE
  5
378
330
208
100
AcDbEntity
  8
0
  6
Continuous
 62
     7
100
AcDbLine
 10
337.9086820312
 20
168.0804617682
 30
0.0
 11
331.9086820312
 21
168.0804617682
 31
0.0
  0
LINE
  5
379
330
208
100
AcDbEntity
  8
0
  6
Continuous
 62
     7
100
AcDbLine
 10
325.4086820312
 20
168.0804617682
 30
0.0
 11
319.4086820312
 21
168.0804617682
 31
0.0
  0
LINE
  5
37A
330
208
100
AcDbEntity
  8
0
  6
Continuous
 62
     7
100
AcDbLine
 10
312.9086820312
 20
168.0804617682
 30
0.0
 11
306.9086820312
 21
168.0804617682
 31
0.0
  0
LINE
  5
37B
330
208
100
AcDbEntity
  8
0
  6
Continuous
 62
     7
100
AcDbLine
 10
300.4086820312
 20
168.0804617682
 30
0.0
 11
294.4086820312
 21
168.0804617682
 31
0.0
  0
LINE
  5
37C
330
208
100
AcDbEntity
  8
0
  6
Continuous
 62
     7
100
AcDbLine
 10
287.9086820312
 20
168.0804617682
 30
0.0
 11
281.9086820312
 21
168.0804617682
 31
0.0
  0
LINE
  5
37D
330
208
100
AcDbEntity
  8
0
  6
Continuous
 62
     7
100
AcDbLine
 10
275.4086820312
 20
168.0804617682
 30
0.0
 11
269.4086820312
 21
168.0804617682
 31
0.0
  0
LINE
  5
37E
330
208
100
AcDbEntity
  8
0
  6
Continuous
 62
     7
100
AcDbLine
 10
262.9086820312
 20
168.0804617682
 30
0.0
 11
256.9086820312
 21
168.0804617682
 31
0.0
  0
LINE
  5
37F
330
208
100
AcDbEntity
  8
0
  6
Continuous
 62
     7
100
AcDbLine
 10
250.4086820312
 20
168.0804617682
 30
0.0
 11
244.4086820312
 21
168.0804617682
 31
0.0
  0
LINE
  5
380
330
208
100
AcDbEntity
  8
0
  6
Continuous
 62
     7
100
AcDbLine
 10
237.9086820312
 20
168.0804617682
 30
0.0
 11
231.9086820312
 21
168.0804617682
 31
0.0
  0
LINE
  5
381
330
208
100
AcDbEntity
  8
0
  6
Continuous
 62
     7
100
AcDbLine
 10
225.4086820312
 20
168.0804617682
 30
0.0
 11
219.4086820312
 21
168.0804617682
 31
0.0
  0
LINE
  5
382
330
208
100
AcDbEntity
  8
0
  6
Continuous
 62
     7
100
AcDbLine
 10
212.9086820312
 20
168.0804617682
 30
0.0
 11
206.9086820312
 21
168.0804617682
 31
0.0
  0
LINE
  5
383
330
208
100
AcDbEntity
  8
0
  6
Continuous
 62
     7
100
AcDbLine
 10
200.4086820312
 20
168.0804617682
 30
0.0
 11
194.4086820312
 21
168.0804617682
 31
0.0
  0
LINE
  5
384
330
208
100
AcDbEntity
  8
0
  6
Continuous
 62
     7
100
AcDbLine
 10
187.9086820312
 20
168.0804617682
 30
0.0
 11
181.9086820312
 21
168.0804617682
 31
0.0
  0
LINE
  5
385
330
208
100
AcDbEntity
  8
0
  6
Continuous
 62
     7
100
AcDbLine
 10
175.4086820312
 20
168.0804617682
 30
0.0
 11
169.4086820312
 21
168.0804617682
 31
0.0
  0
LINE
  5
386
330
208
100
AcDbEntity
  8
0
  6
Continuous
 62
     7
100
AcDbLine
 10
162.9086820312
 20
168.0804617682
 30
0.0
 11
156.9086820312
 21
168.0804617682
 31
0.0
  0
LINE
  5
387
330
208
100
AcDbEntity
  8
0
  6
Continuous
 62
     7
100
AcDbLine
 10
150.4086820312
 20
168.0804617682
 30
0.0
 11
144.4086820312
 21
168.0804617682
 31
0.0
  0
LINE
  5
388
330
208
100
AcDbEntity
  8
0
  6
Continuous
 62
     7
100
AcDbLine
 10
137.9086820312
 20
168.0804617682
 30
0.0
 11
131.9086820312
 21
168.0804617682
 31
0.0
  0
LINE
  5
389
330
208
100
AcDbEntity
  8
0
  6
Continuous
 62
     7
100
AcDbLine
 10
125.4086820312
 20
168.0804617682
 30
0.0
 11
119.4086820312
 21
168.0804617682
 31
0.0
  0
LINE
  5
38A
330
208
100
AcDbEntity
  8
0
  6
Continuous
 62
     7
100
AcDbLine
 10
112.9086820312
 20
168.0804617682
 30
0.0
 11
106.9086820312
 21
168.0804617682
 31
0.0
  0
LINE
  5
38B
330
208
100
AcDbEntity
  8
0
  6
Continuous
 62
     7
100
AcDbLine
 10
100.4086820312
 20
168.0804617682
 30
0.0
 11
94.4086820312
 21
168.0804617682
 31
0.0
  0
LINE
  5
38C
330
208
100
AcDbEntity
  8
0
  6
Continuous
 62
     7
100
AcDbLine
 10
87.9086820312
 20
168.0804617682
 30
0.0
 11
81.9086820312
 21
168.0804617682
 31
0.0
  0
LINE
  5
38D
330
208
100
AcDbEntity
  8
0
  6
Continuous
 62
     7
100
AcDbLine
 10
75.4086820312
 20
168.0804617682
 30
0.0
 11
69.4086820312
 21
168.0804617682
 31
0.0
  0
LINE
  5
38E
330
208
100
AcDbEntity
  8
0
  6
Continuous
 62
     7
100
AcDbLine
 10
62.9086820312
 20
168.0804617682
 30
0.0
 11
56.9086820312
 21
168.0804617682
 31
0.0
  0
LINE
  5
38F
330
208
100
AcDbEntity
  8
0
  6
Continuous
 62
     7
100
AcDbLine
 10
50.4086820312
 20
168.0804617682
 30
0.0
 11
44.40868203119999
 21
168.0804617682
 31
0.0
  0
LINE
  5
390
330
208
100
AcDbEntity
  8
0
  6
Continuous
 62
     7
100
AcDbLine
 10
37.9086820312
 20
168.0804617682
 30
0.0
 11
31.9086820312
 21
168.0804617682
 31
0.0
  0
LINE
  5
391
330
208
100
AcDbEntity
  8
0
  6
Continuous
 62
     7
100
AcDbLine
 10
25.4086820312
 20
168.0804617682
 30
0.0
 11
19.4086820312
 21
168.0804617682
 31
0.0
  0
LINE
  5
392
330
208
100
AcDbEntity
  8
0
  6
Continuous
 62
     7
100
AcDbLine
 10
12.9086820312
 20
168.0804617682
 30
0.0
 11
6.908682031199997
 21
168.0804617682
 31
0.0
  0
LINE
  5
393
330
208
100
AcDbEntity
  8
0
  6
Continuous
 62
     7
100
AcDbLine
 10
0.4086820312
 20
168.0804617682
 30
0.0
 11
-5.5913179688
 21
168.0804617682
 31
0.0
  0
LINE
  5
394
330
208
100
AcDbEntity
  8
0
  6
Continuous
 62
     7
100
AcDbLine
 10
-12.0913179688
 20
168.0804617682
 30
0.0
 11
-18.0913179688
 21
168.0804617682
 31
0.0
  0
LINE
  5
395
330
208
100
AcDbEntity
  8
0
  6
Continuous
 62
     7
100
AcDbLine
 10
-24.5913179688
 20
168.0804617682
 30
0.0
 11
-30.5913179688
 21
168.0804617682
 31
0.0
  0
LINE
  5
396
330
208
100
AcDbEntity
  8
0
  6
Continuous
 62
     7
100
AcDbLine
 10
-37.0913179688
 20
168.0804617682
 30
0.0
 11
-43.0913179688
 21
168.0804617682
 31
0.0
  0
LINE
  5
397
330
208
100
AcDbEntity
  8
0
  6
Continuous
 62
     7
100
AcDbLine
 10
-49.5913179688
 20
168.0804617682
 30
0.0
 11
-55.5913179688
 21
168.0804617682
 31
0.0
  0
LINE
  5
398
330
208
100
AcDbEntity
  8
0
  6
Continuous
 62
     7
100
AcDbLine
 10
-62.0913179688
 20
168.0804617682
 30
0.0
 11
-68.0913179688
 21
168.0804617682
 31
0.0
  0
LINE
  5
399
330
208
100
AcDbEntity
  8
0
  6
Continuous
 62
     7
100
AcDbLine
 10
-74.5913179688
 20
168.0804617682
 30
0.0
 11
-80.5913179688
 21
168.0804617682
 31
0.0
  0
LINE
  5
39A
330
208
100
AcDbEntity
  8
0
  6
Continuous
 62
     7
100
AcDbLine
 10
-87.09131796879999
 20
168.0804617682
 30
0.0
 11
-93.0913179688
 21
168.0804617682
 31
0.0
  0
LINE
  5
39B
330
208
100
AcDbEntity
  8
0
  6
Continuous
 62
     7
100
AcDbLine
 10
-99.59131796880001
 20
168.0804617682
 30
0.0
 11
-105.5913179688
 21
168.0804617682
 31
0.0
  0
LINE
  5
39C
330
208
100
AcDbEntity
  8
0
  6
Continuous
 62
     7
100
AcDbLine
 10
-112.0913179688
 20
168.0804617682
 30
0.0
 11
-118.0913179688
 21
168.0804617682
 31
0.0
  0
LINE
  5
39D
330
208
100
AcDbEntity
  8
0
  6
Continuous
 62
     7
100
AcDbLine
 10
-124.5913179688
 20
168.0804617682
 30
0.0
 11
-130.5913179688
 21
168.0804617682
 31
0.0
  0
LINE
  5
39E
330
208
100
AcDbEntity
  8
0
  6
Continuous
 62
     7
100
AcDbLine
 10
-137.0913179688
 20
168.0804617682
 30
0.0
 11
-143.0913179688
 21
168.0804617682
 31
0.0
  0
LINE
  5
39F
330
208
100
AcDbEntity
  8
0
  6
Continuous
 62
     7
100
AcDbLine
 10
-149.5913179688
 20
168.0804617682
 30
0.0
 11
-155.5913179688
 21
168.0804617682
 31
0.0
  0
LINE
  5
3A0
330
208
100
AcDbEntity
  8
0
  6
Continuous
 62
     7
100
AcDbLine
 10
-162.0913179688
 20
168.0804617682
 30
0.0
 11
-168.0913179688
 21
168.0804617682
 31
0.0
  0
LINE
  5
3A1
330
208
100
AcDbEntity
  8
0
  6
Continuous
 62
     7
100
AcDbLine
 10
-174.5913179688
 20
168.0804617682
 30
0.0
 11
-180.5913179688
 21
168.0804617682
 31
0.0
  0
LINE
  5
3A2
330
208
100
AcDbEntity
  8
0
  6
Continuous
 62
     7
100
AcDbLine
 10
-187.0913179688
 20
168.0804617682
 30
0.0
 11
-193.0913179688
 21
168.0804617682
 31
0.0
  0
LINE
  5
3A3
330
208
100
AcDbEntity
  8
0
  6
Continuous
 62
     7
100
AcDbLine
 10
-199.5913179688
 20
168.0804617682
 30
0.0
 11
-205.5913179688
 21
168.0804617682
 31
0.0
  0
LINE
  5
3A4
330
208
100
AcDbEntity
  8
0
  6
Continuous
 62
     7
100
AcDbLine
 10
-212.0913179688
 20
168.0804617682
 30
0.0
 11
-218.0913179688
 21
168.0804617682
 31
0.0
  0
LINE
  5
3A5
330
208
100
AcDbEntity
  8
0
  6
Continuous
 62
     7
100
AcDbLine
 10
629.1587557520998
 20
168.0804617682
 30
0.0
 11
630.0827662936
 21
168.0804617682
 31
0.0
  0
LINE
  5
3A6
330
208
100
AcDbEntity
  8
0
  6
Continuous
 62
     7
100
AcDbLine
 10
634.2365977819
 20
168.0804617682
 30
0.0
 11
634.2366820312
 21
168.0804617682
 31
0.0
  0
LINE
  5
3A7
330
208
100
AcDbEntity
  8
0
  6
Continuous
 62
     7
100
AcDbLine
 10
634.2365977819
 20
168.0804617682
 30
0.0
 11
635.1596083102997
 21
168.0804617682
 31
0.0
  0
LINE
  5
3A8
330
208
100
AcDbEntity
  8
0
  6
Continuous
 62
     7
100
AcDbLine
 10
635.1596083102997
 20
168.0804617682
 30
0.0
 11
635.1596820312001
 21
168.0804617682
 31
0.0
  0
LINE
  5
3A9
330
208
100
AcDbEntity
  8
0
  6
Continuous
 62
     7
100
AcDbLine
 10
634.1784000578
 20
168.9134617682
 30
0.0
 11
634.1776820311999
 21
168.9134617682
 31
0.0
  0
LINE
  5
3AA
330
208
100
AcDbEntity
  8
0
  6
Continuous
 62
     7
100
AcDbLine
 10
630.1409731059
 20
168.9134617682
 30
0.0
 11
630.1396820312
 21
168.9134617682
 31
0.0
  0
LINE
  5
3AB
330
208
100
AcDbEntity
  8
0
  6
Continuous
 62
     7
100
AcDbLine
 10
630.1409731059
 20
168.9134617682
 30
0.0
 11
634.1784000578
 21
168.9134617682
 31
0.0
  0
LINE
  5
3AC
330
208
100
AcDbEntity
  8
0
  6
Continuous
 62
     7
100
AcDbLine
 10
630.3352599164
 20
169.8364617682
 30
0.0
 11
630.3346820312
 21
169.8364617682
 31
0.0
  0
LINE
  5
3AD
330
208
100
AcDbEntity
  8
0
  6
Continuous
 62
     7
100
AcDbLine
 10
633.9841448158997
 20
169.8364617682
 30
0.0
 11
630.3352599164
 21
169.8364617682
 31
0.0
  0
LINE
  5
3AE
330
208
100
AcDbEntity
  8
0
  6
Continuous
 62
     7
100
AcDbLine
 10
-218.0913179688
 20
174.0804617682
 30
0.0
 11
-212.0913179688
 21
174.0804617682
 31
0.0
  0
LINE
  5
3AF
330
208
100
AcDbEntity
  8
0
  6
Continuous
 62
     7
100
AcDbLine
 10
-205.5913179688
 20
174.0804617682
 30
0.0
 11
-199.5913179688
 21
174.0804617682
 31
0.0
  0
LINE
  5
3B0
330
208
100
AcDbEntity
  8
0
  6
Continuous
 62
     7
100
AcDbLine
 10
-193.0913179688
 20
174.0804617682
 30
0.0
 11
-187.0913179688
 21
174.0804617682
 31
0.0
  0
LINE
  5
3B1
330
208
100
AcDbEntity
  8
0
  6
Continuous
 62
     7
100
AcDbLine
 10
-180.5913179688
 20
174.0804617682
 30
0.0
 11
-174.5913179688
 21
174.0804617682
 31
0.0
  0
LINE
  5
3B2
330
208
100
AcDbEntity
  8
0
  6
Continuous
 62
     7
100
AcDbLine
 10
-168.0913179688
 20
174.0804617682
 30
0.0
 11
-162.0913179688
 21
174.0804617682
 31
0.0
  0
LINE
  5
3B3
330
208
100
AcDbEntity
  8
0
  6
Continuous
 62
     7
100
AcDbLine
 10
-155.5913179688
 20
174.0804617682
 30
0.0
 11
-149.5913179688
 21
174.0804617682
 31
0.0
  0
LINE
  5
3B4
330
208
100
AcDbEntity
  8
0
  6
Continuous
 62
     7
100
AcDbLine
 10
-143.0913179688
 20
174.0804617682
 30
0.0
 11
-137.0913179688
 21
174.0804617682
 31
0.0
  0
LINE
  5
3B5
330
208
100
AcDbEntity
  8
0
  6
Continuous
 62
     7
100
AcDbLine
 10
-130.5913179688
 20
174.0804617682
 30
0.0
 11
-124.5913179688
 21
174.0804617682
 31
0.0
  0
LINE
  5
3B6
330
208
100
AcDbEntity
  8
0
  6
Continuous
 62
     7
100
AcDbLine
 10
-118.0913179688
 20
174.0804617682
 30
0.0
 11
-112.0913179688
 21
174.0804617682
 31
0.0
  0
LINE
  5
3B7
330
208
100
AcDbEntity
  8
0
  6
Continuous
 62
     7
100
AcDbLine
 10
-105.5913179688
 20
174.0804617682
 30
0.0
 11
-99.59131796880001
 21
174.0804617682
 31
0.0
  0
LINE
  5
3B8
330
208
100
AcDbEntity
  8
0
  6
Continuous
 62
     7
100
AcDbLine
 10
-93.0913179688
 20
174.0804617682
 30
0.0
 11
-87.09131796879999
 21
174.0804617682
 31
0.0
  0
LINE
  5
3B9
330
208
100
AcDbEntity
  8
0
  6
Continuous
 62
     7
100
AcDbLine
 10
-80.5913179688
 20
174.0804617682
 30
0.0
 11
-74.5913179688
 21
174.0804617682
 31
0.0
  0
LINE
  5
3BA
330
208
100
AcDbEntity
  8
0
  6
Continuous
 62
     7
100
AcDbLine
 10
-68.0913179688
 20
174.0804617682
 30
0.0
 11
-62.0913179688
 21
174.0804617682
 31
0.0
  0
LINE
  5
3BB
330
208
100
AcDbEntity
  8
0
  6
Continuous
 62
     7
100
AcDbLine
 10
-55.5913179688
 20
174.0804617682
 30
0.0
 11
-49.5913179688
 21
174.0804617682
 31
0.0
  0
LINE
  5
3BC
330
208
100
AcDbEntity
  8
0
  6
Continuous
 62
     7
100
AcDbLine
 10
-43.0913179688
 20
174.0804617682
 30
0.0
 11
-37.0913179688
 21
174.0804617682
 31
0.0
  0
LINE
  5
3BD
330
208
100
AcDbEntity
  8
0
  6
Continuous
 62
     7
100
AcDbLine
 10
-30.5913179688
 20
174.0804617682
 30
0.0
 11
-24.5913179688
 21
174.0804617682
 31
0.0
  0
LINE
  5
3BE
330
208
100
AcDbEntity
  8
0
  6
Continuous
 62
     7
100
AcDbLine
 10
-18.0913179688
 20
174.0804617682
 30
0.0
 11
-12.0913179688
 21
174.0804617682
 31
0.0
  0
LINE
  5
3BF
330
208
100
AcDbEntity
  8
0
  6
Continuous
 62
     7
100
AcDbLine
 10
-5.5913179688
 20
174.0804617682
 30
0.0
 11
0.4086820312
 21
174.0804617682
 31
0.0
  0
LINE
  5
3C0
330
208
100
AcDbEntity
  8
0
  6
Continuous
 62
     7
100
AcDbLine
 10
6.908682031199997
 20
174.0804617682
 30
0.0
 11
12.9086820312
 21
174.0804617682
 31
0.0
  0
LINE
  5
3C1
330
208
100
AcDbEntity
  8
0
  6
Continuous
 62
     7
100
AcDbLine
 10
19.4086820312
 20
174.0804617682
 30
0.0
 11
25.4086820312
 21
174.0804617682
 31
0.0
  0
LINE
  5
3C2
330
208
100
AcDbEntity
  8
0
  6
Continuous
 62
     7
100
AcDbLine
 10
31.9086820312
 20
174.0804617682
 30
0.0
 11
37.9086820312
 21
174.0804617682
 31
0.0
  0
LINE
  5
3C3
330
208
100
AcDbEntity
  8
0
  6
Continuous
 62
     7
100
AcDbLine
 10
44.40868203119999
 20
174.0804617682
 30
0.0
 11
50.4086820312
 21
174.0804617682
 31
0.0
  0
LINE
  5
3C4
330
208
100
AcDbEntity
  8
0
  6
Continuous
 62
     7
100
AcDbLine
 10
56.9086820312
 20
174.0804617682
 30
0.0
 11
62.9086820312
 21
174.0804617682
 31
0.0
  0
LINE
  5
3C5
330
208
100
AcDbEntity
  8
0
  6
Continuous
 62
     7
100
AcDbLine
 10
69.4086820312
 20
174.0804617682
 30
0.0
 11
75.4086820312
 21
174.0804617682
 31
0.0
  0
LINE
  5
3C6
330
208
100
AcDbEntity
  8
0
  6
Continuous
 62
     7
100
AcDbLine
 10
81.9086820312
 20
174.0804617682
 30
0.0
 11
87.9086820312
 21
174.0804617682
 31
0.0
  0
LINE
  5
3C7
330
208
100
AcDbEntity
  8
0
  6
Continuous
 62
     7
100
AcDbLine
 10
94.4086820312
 20
174.0804617682
 30
0.0
 11
100.4086820312
 21
174.0804617682
 31
0.0
  0
LINE
  5
3C8
330
208
100
AcDbEntity
  8
0
  6
Continuous
 62
     7
100
AcDbLine
 10
106.9086820312
 20
174.0804617682
 30
0.0
 11
112.9086820312
 21
174.0804617682
 31
0.0
  0
LINE
  5
3C9
330
208
100
AcDbEntity
  8
0
  6
Continuous
 62
     7
100
AcDbLine
 10
119.4086820312
 20
174.0804617682
 30
0.0
 11
125.4086820312
 21
174.0804617682
 31
0.0
  0
LINE
  5
3CA
330
208
100
AcDbEntity
  8
0
  6
Continuous
 62
     7
100
AcDbLine
 10
131.9086820312
 20
174.0804617682
 30
0.0
 11
137.9086820312
 21
174.0804617682
 31
0.0
  0
LINE
  5
3CB
330
208
100
AcDbEntity
  8
0
  6
Continuous
 62
     7
100
AcDbLine
 10
144.4086820312
 20
174.0804617682
 30
0.0
 11
150.4086820312
 21
174.0804617682
 31
0.0
  0
LINE
  5
3CC
330
208
100
AcDbEntity
  8
0
  6
Continuous
 62
     7
100
AcDbLine
 10
156.9086820312
 20
174.0804617682
 30
0.0
 11
162.9086820312
 21
174.0804617682
 31
0.0
  0
LINE
  5
3CD
330
208
100
AcDbEntity
  8
0
  6
Continuous
 62
     7
100
AcDbLine
 10
169.4086820312
 20
174.0804617682
 30
0.0
 11
175.4086820312
 21
174.0804617682
 31
0.0
  0
LINE
  5
3CE
330
208
100
AcDbEntity
  8
0
  6
Continuous
 62
     7
100
AcDbLine
 10
181.9086820312
 20
174.0804617682
 30
0.0
 11
187.9086820312
 21
174.0804617682
 31
0.0
  0
LINE
  5
3CF
330
208
100
AcDbEntity
  8
0
  6
Continuous
 62
     7
100
AcDbLine
 10
194.4086820312
 20
174.0804617682
 30
0.0
 11
200.4086820312
 21
174.0804617682
 31
0.0
  0
LINE
  5
3D0
330
208
100
AcDbEntity
  8
0
  6
Continuous
 62
     7
100
AcDbLine
 10
206.9086820312
 20
174.0804617682
 30
0.0
 11
212.9086820312
 21
174.0804617682
 31
0.0
  0
LINE
  5
3D1
330
208
100
AcDbEntity
  8
0
  6
Continuous
 62
     7
100
AcDbLine
 10
219.4086820312
 20
174.0804617682
 30
0.0
 11
225.4086820312
 21
174.0804617682
 31
0.0
  0
LINE
  5
3D2
330
208
100
AcDbEntity
  8
0
  6
Continuous
 62
     7
100
AcDbLine
 10
231.9086820312
 20
174.0804617682
 30
0.0
 11
237.9086820312
 21
174.0804617682
 31
0.0
  0
LINE
  5
3D3
330
208
100
AcDbEntity
  8
0
  6
Continuous
 62
     7
100
AcDbLine
 10
244.4086820312
 20
174.0804617682
 30
0.0
 11
250.4086820312
 21
174.0804617682
 31
0.0
  0
LINE
  5
3D4
330
208
100
AcDbEntity
  8
0
  6
Continuous
 62
     7
100
AcDbLine
 10
256.9086820312
 20
174.0804617682
 30
0.0
 11
262.9086820312
 21
174.0804617682
 31
0.0
  0
LINE
  5
3D5
330
208
100
AcDbEntity
  8
0
  6
Continuous
 62
     7
100
AcDbLine
 10
269.4086820312
 20
174.0804617682
 30
0.0
 11
275.4086820312
 21
174.0804617682
 31
0.0
  0
LINE
  5
3D6
330
208
100
AcDbEntity
  8
0
  6
Continuous
 62
     7
100
AcDbLine
 10
281.9086820312
 20
174.0804617682
 30
0.0
 11
287.9086820312
 21
174.0804617682
 31
0.0
  0
LINE
  5
3D7
330
208
100
AcDbEntity
  8
0
  6
Continuous
 62
     7
100
AcDbLine
 10
294.4086820312
 20
174.0804617682
 30
0.0
 11
300.4086820312
 21
174.0804617682
 31
0.0
  0
LINE
  5
3D8
330
208
100
AcDbEntity
  8
0
  6
Continuous
 62
     7
100
AcDbLine
 10
306.9086820312
 20
174.0804617682
 30
0.0
 11
312.9086820312
 21
174.0804617682
 31
0.0
  0
LINE
  5
3D9
330
208
100
AcDbEntity
  8
0
  6
Continuous
 62
     7
100
AcDbLine
 10
319.4086820312
 20
174.0804617682
 30
0.0
 11
325.4086820312
 21
174.0804617682
 31
0.0
  0
LINE
  5
3DA
330
208
100
AcDbEntity
  8
0
  6
Continuous
 62
     7
100
AcDbLine
 10
331.9086820312
 20
174.0804617682
 30
0.0
 11
337.9086820312
 21
174.0804617682
 31
0.0
  0
LINE
  5
3DB
330
208
100
AcDbEntity
  8
0
  6
Continuous
 62
     7
100
AcDbLine
 10
344.4086820312
 20
174.0804617682
 30
0.0
 11
350.4086820312001
 21
174.0804617682
 31
0.0
  0
LINE
  5
3DC
330
208
100
AcDbEntity
  8
0
  6
Continuous
 62
     7
100
AcDbLine
 10
356.9086820312
 20
174.0804617682
 30
0.0
 11
362.9086820312001
 21
174.0804617682
 31
0.0
  0
LINE
  5
3DD
330
208
100
AcDbEntity
  8
0
  6
Continuous
 62
     7
100
AcDbLine
 10
369.4086820312
 20
174.0804617682
 30
0.0
 11
375.4086820312001
 21
174.0804617682
 31
0.0
  0
LINE
  5
3DE
330
208
100
AcDbEntity
  8
0
  6
Continuous
 62
     7
100
AcDbLine
 10
381.9086820312
 20
174.0804617682
 30
0.0
 11
387.9086820312
 21
174.0804617682
 31
0.0
  0
LINE
  5
3DF
330
208
100
AcDbEntity
  8
0
  6
Continuous
 62
     7
100
AcDbLine
 10
394.4086820312
 20
174.0804617682
 30
0.0
 11
400.4086820312
 21
174.0804617682
 31
0.0
  0
LINE
  5
3E0
330
208
100
AcDbEntity
  8
0
  6
Continuous
 62
     7
100
AcDbLine
 10
406.9086820312
 20
174.0804617682
 30
0.0
 11
412.9086820312
 21
174.0804617682
 31
0.0
  0
LINE
  5
3E1
330
208
100
AcDbEntity
  8
0
  6
Continuous
 62
     7
100
AcDbLine
 10
419.4086820312
 20
174.0804617682
 30
0.0
 11
425.4086820312
 21
174.0804617682
 31
0.0
  0
LINE
  5
3E2
330
208
100
AcDbEntity
  8
0
  6
Continuous
 62
     7
100
AcDbLine
 10
431.9086820312
 20
174.0804617682
 30
0.0
 11
437.9086820312
 21
174.0804617682
 31
0.0
  0
LINE
  5
3E3
330
208
100
AcDbEntity
  8
0
  6
Continuous
 62
     7
100
AcDbLine
 10
444.4086820312
 20
174.0804617682
 30
0.0
 11
450.4086820312
 21
174.0804617682
 31
0.0
  0
LINE
  5
3E4
330
208
100
AcDbEntity
  8
0
  6
Continuous
 62
     7
100
AcDbLine
 10
456.9086820312
 20
174.0804617682
 30
0.0
 11
462.9086820312
 21
174.0804617682
 31
0.0
  0
LINE
  5
3E5
330
208
100
AcDbEntity
  8
0
  6
Continuous
 62
     7
100
AcDbLine
 10
469.4086820312
 20
174.0804617682
 30
0.0
 11
475.4086820312
 21
174.0804617682
 31
0.0
  0
LINE
  5
3E6
330
208
100
AcDbEntity
  8
0
  6
Continuous
 62
     7
100
AcDbLine
 10
481.9086820312
 20
174.0804617682
 30
0.0
 11
487.9086820312
 21
174.0804617682
 31
0.0
  0
LINE
  5
3E7
330
208
100
AcDbEntity
  8
0
  6
Continuous
 62
     7
100
AcDbLine
 10
494.4086820312
 20
174.0804617682
 30
0.0
 11
500.4086820312
 21
174.0804617682
 31
0.0
  0
LINE
  5
3E8
330
208
100
AcDbEntity
  8
0
  6
Continuous
 62
     7
100
AcDbLine
 10
506.9086820312
 20
174.0804617682
 30
0.0
 11
512.9086820311997
 21
174.0804617682
 31
0.0
  0
LINE
  5
3E9
330
208
100
AcDbEntity
  8
0
  6
Continuous
 62
     7
100
AcDbLine
 10
519.4086820312
 20
174.0804617682
 30
0.0
 11
525.4086820311997
 21
174.0804617682
 31
0.0
  0
LINE
  5
3EA
330
208
100
AcDbEntity
  8
0
  6
Continuous
 62
     7
100
AcDbLine
 10
531.9086820312
 20
174.0804617682
 30
0.0
 11
537.9086820311997
 21
174.0804617682
 31
0.0
  0
LINE
  5
3EB
330
208
100
AcDbEntity
  8
0
  6
Continuous
 62
     7
100
AcDbLine
 10
544.4086820312
 20
174.0804617682
 30
0.0
 11
550.4086820311997
 21
174.0804617682
 31
0.0
  0
LINE
  5
3EC
330
208
100
AcDbEntity
  8
0
  6
Continuous
 62
     7
100
AcDbLine
 10
556.9086820312
 20
174.0804617682
 30
0.0
 11
562.9086820311997
 21
174.0804617682
 31
0.0
  0
LINE
  5
3ED
330
208
100
AcDbEntity
  8
0
  6
Continuous
 62
     7
100
AcDbLine
 10
569.4086820312
 20
174.0804617682
 30
0.0
 11
575.4086820311997
 21
174.0804617682
 31
0.0
  0
LINE
  5
3EE
330
208
100
AcDbEntity
  8
0
  6
Continuous
 62
     7
100
AcDbLine
 10
581.9086820312
 20
174.0804617682
 30
0.0
 11
587.9086820311997
 21
174.0804617682
 31
0.0
  0
LINE
  5
3EF
330
208
100
AcDbEntity
  8
0
  6
Continuous
 62
     7
100
AcDbLine
 10
594.4086820312
 20
174.0804617682
 30
0.0
 11
600.4086820311997
 21
174.0804617682
 31
0.0
  0
LINE
  5
3F0
330
208
100
AcDbEntity
  8
0
  6
Continuous
 62
     7
100
AcDbLine
 10
606.9086820312
 20
174.0804617682
 30
0.0
 11
612.9086820311997
 21
174.0804617682
 31
0.0
  0
LINE
  5
3F1
330
208
100
AcDbEntity
  8
0
  6
Continuous
 62
     7
100
AcDbLine
 10
619.4086820312
 20
174.0804617682
 30
0.0
 11
625.4086820311997
 21
174.0804617682
 31
0.0
  0
LINE
  5
3F2
330
208
100
AcDbEntity
  8
0
  6
Continuous
 62
     7
100
AcDbLine
 10
650.4086820311997
 20
180.5804617682
 30
0.0
 11
644.4086820312
 21
180.5804617682
 31
0.0
  0
LINE
  5
3F3
330
208
100
AcDbEntity
  8
0
  6
Continuous
 62
     7
100
AcDbLine
 10
637.9086820311997
 20
180.5804617682
 30
0.0
 11
631.9086820312
 21
180.5804617682
 31
0.0
  0
LINE
  5
3F4
330
208
100
AcDbEntity
  8
0
  6
Continuous
 62
     7
100
AcDbLine
 10
625.4086820311997
 20
180.5804617682
 30
0.0
 11
619.4086820312
 21
180.5804617682
 31
0.0
  0
LINE
  5
3F5
330
208
100
AcDbEntity
  8
0
  6
Continuous
 62
     7
100
AcDbLine
 10
612.9086820311997
 20
180.5804617682
 30
0.0
 11
606.9086820312
 21
180.5804617682
 31
0.0
  0
LINE
  5
3F6
330
208
100
AcDbEntity
  8
0
  6
Continuous
 62
     7
100
AcDbLine
 10
600.4086820311997
 20
180.5804617682
 30
0.0
 11
594.4086820312
 21
180.5804617682
 31
0.0
  0
LINE
  5
3F7
330
208
100
AcDbEntity
  8
0
  6
Continuous
 62
     7
100
AcDbLine
 10
587.9086820311997
 20
180.5804617682
 30
0.0
 11
581.9086820312
 21
180.5804617682
 31
0.0
  0
LINE
  5
3F8
330
208
100
AcDbEntity
  8
0
  6
Continuous
 62
     7
100
AcDbLine
 10
575.4086820311997
 20
180.5804617682
 30
0.0
 11
569.4086820312
 21
180.5804617682
 31
0.0
  0
LINE
  5
3F9
330
208
100
AcDbEntity
  8
0
  6
Continuous
 62
     7
100
AcDbLine
 10
562.9086820311997
 20
180.5804617682
 30
0.0
 11
556.9086820312
 21
180.5804617682
 31
0.0
  0
LINE
  5
3FA
330
208
100
AcDbEntity
  8
0
  6
Continuous
 62
     7
100
AcDbLine
 10
550.4086820311997
 20
180.5804617682
 30
0.0
 11
544.4086820312
 21
180.5804617682
 31
0.0
  0
LINE
  5
3FB
330
208
100
AcDbEntity
  8
0
  6
Continuous
 62
     7
100
AcDbLine
 10
537.9086820311997
 20
180.5804617682
 30
0.0
 11
531.9086820312
 21
180.5804617682
 31
0.0
  0
LINE
  5
3FC
330
208
100
AcDbEntity
  8
0
  6
Continuous
 62
     7
100
AcDbLine
 10
525.4086820311997
 20
180.5804617682
 30
0.0
 11
519.4086820312
 21
180.5804617682
 31
0.0
  0
LINE
  5
3FD
330
208
100
AcDbEntity
  8
0
  6
Continuous
 62
     7
100
AcDbLine
 10
512.9086820311997
 20
180.5804617682
 30
0.0
 11
506.9086820312
 21
180.5804617682
 31
0.0
  0
LINE
  5
3FE
330
208
100
AcDbEntity
  8
0
  6
Continuous
 62
     7
100
AcDbLine
 10
500.4086820312
 20
180.5804617682
 30
0.0
 11
494.4086820312
 21
180.5804617682
 31
0.0
  0
LINE
  5
3FF
330
208
100
AcDbEntity
  8
0
  6
Continuous
 62
     7
100
AcDbLine
 10
487.9086820312
 20
180.5804617682
 30
0.0
 11
481.9086820312
 21
180.5804617682
 31
0.0
  0
LINE
  5
400
330
208
100
AcDbEntity
  8
0
  6
Continuous
 62
     7
100
AcDbLine
 10
475.4086820312
 20
180.5804617682
 30
0.0
 11
469.4086820312
 21
180.5804617682
 31
0.0
  0
LINE
  5
401
330
208
100
AcDbEntity
  8
0
  6
Continuous
 62
     7
100
AcDbLine
 10
462.9086820312
 20
180.5804617682
 30
0.0
 11
456.9086820312
 21
180.5804617682
 31
0.0
  0
LINE
  5
402
330
208
100
AcDbEntity
  8
0
  6
Continuous
 62
     7
100
AcDbLine
 10
450.4086820312
 20
180.5804617682
 30
0.0
 11
444.4086820312
 21
180.5804617682
 31
0.0
  0
LINE
  5
403
330
208
100
AcDbEntity
  8
0
  6
Continuous
 62
     7
100
AcDbLine
 10
437.9086820312
 20
180.5804617682
 30
0.0
 11
431.9086820312
 21
180.5804617682
 31
0.0
  0
LINE
  5
404
330
208
100
AcDbEntity
  8
0
  6
Continuous
 62
     7
100
AcDbLine
 10
425.4086820312
 20
180.5804617682
 30
0.0
 11
419.4086820312
 21
180.5804617682
 31
0.0
  0
LINE
  5
405
330
208
100
AcDbEntity
  8
0
  6
Continuous
 62
     7
100
AcDbLine
 10
412.9086820312
 20
180.5804617682
 30
0.0
 11
406.9086820312
 21
180.5804617682
 31
0.0
  0
LINE
  5
406
330
208
100
AcDbEntity
  8
0
  6
Continuous
 62
     7
100
AcDbLine
 10
400.4086820312
 20
180.5804617682
 30
0.0
 11
394.4086820312
 21
180.5804617682
 31
0.0
  0
LINE
  5
407
330
208
100
AcDbEntity
  8
0
  6
Continuous
 62
     7
100
AcDbLine
 10
387.9086820312
 20
180.5804617682
 30
0.0
 11
381.9086820312
 21
180.5804617682
 31
0.0
  0
LINE
  5
408
330
208
100
AcDbEntity
  8
0
  6
Continuous
 62
     7
100
AcDbLine
 10
375.4086820312001
 20
180.5804617682
 30
0.0
 11
369.4086820312
 21
180.5804617682
 31
0.0
  0
LINE
  5
409
330
208
100
AcDbEntity
  8
0
  6
Continuous
 62
     7
100
AcDbLine
 10
362.9086820312001
 20
180.5804617682
 30
0.0
 11
356.9086820312
 21
180.5804617682
 31
0.0
  0
LINE
  5
40A
330
208
100
AcDbEntity
  8
0
  6
Continuous
 62
     7
100
AcDbLine
 10
350.4086820312001
 20
180.5804617682
 30
0.0
 11
344.4086820312
 21
180.5804617682
 31
0.0
  0
LINE
  5
40B
330
208
100
AcDbEntity
  8
0
  6
Continuous
 62
     7
100
AcDbLine
 10
337.9086820312
 20
180.5804617682
 30
0.0
 11
331.9086820312
 21
180.5804617682
 31
0.0
  0
LINE
  5
40C
330
208
100
AcDbEntity
  8
0
  6
Continuous
 62
     7
100
AcDbLine
 10
325.4086820312
 20
180.5804617682
 30
0.0
 11
319.4086820312
 21
180.5804617682
 31
0.0
  0
LINE
  5
40D
330
208
100
AcDbEntity
  8
0
  6
Continuous
 62
     7
100
AcDbLine
 10
312.9086820312
 20
180.5804617682
 30
0.0
 11
306.9086820312
 21
180.5804617682
 31
0.0
  0
LINE
  5
40E
330
208
100
AcDbEntity
  8
0
  6
Continuous
 62
     7
100
AcDbLine
 10
300.4086820312
 20
180.5804617682
 30
0.0
 11
294.4086820312
 21
180.5804617682
 31
0.0
  0
LINE
  5
40F
330
208
100
AcDbEntity
  8
0
  6
Continuous
 62
     7
100
AcDbLine
 10
287.9086820312
 20
180.5804617682
 30
0.0
 11
281.9086820312
 21
180.5804617682
 31
0.0
  0
LINE
  5
410
330
208
100
AcDbEntity
  8
0
  6
Continuous
 62
     7
100
AcDbLine
 10
275.4086820312
 20
180.5804617682
 30
0.0
 11
269.4086820312
 21
180.5804617682
 31
0.0
  0
LINE
  5
411
330
208
100
AcDbEntity
  8
0
  6
Continuous
 62
     7
100
AcDbLine
 10
262.9086820312
 20
180.5804617682
 30
0.0
 11
256.9086820312
 21
180.5804617682
 31
0.0
  0
LINE
  5
412
330
208
100
AcDbEntity
  8
0
  6
Continuous
 62
     7
100
AcDbLine
 10
250.4086820312
 20
180.5804617682
 30
0.0
 11
244.4086820312
 21
180.5804617682
 31
0.0
  0
LINE
  5
413
330
208
100
AcDbEntity
  8
0
  6
Continuous
 62
     7
100
AcDbLine
 10
237.9086820312
 20
180.5804617682
 30
0.0
 11
231.9086820312
 21
180.5804617682
 31
0.0
  0
LINE
  5
414
330
208
100
AcDbEntity
  8
0
  6
Continuous
 62
     7
100
AcDbLine
 10
225.4086820312
 20
180.5804617682
 30
0.0
 11
219.4086820312
 21
180.5804617682
 31
0.0
  0
LINE
  5
415
330
208
100
AcDbEntity
  8
0
  6
Continuous
 62
     7
100
AcDbLine
 10
212.9086820312
 20
180.5804617682
 30
0.0
 11
206.9086820312
 21
180.5804617682
 31
0.0
  0
LINE
  5
416
330
208
100
AcDbEntity
  8
0
  6
Continuous
 62
     7
100
AcDbLine
 10
200.4086820312
 20
180.5804617682
 30
0.0
 11
194.4086820312
 21
180.5804617682
 31
0.0
  0
LINE
  5
417
330
208
100
AcDbEntity
  8
0
  6
Continuous
 62
     7
100
AcDbLine
 10
187.9086820312
 20
180.5804617682
 30
0.0
 11
181.9086820312
 21
180.5804617682
 31
0.0
  0
LINE
  5
418
330
208
100
AcDbEntity
  8
0
  6
Continuous
 62
     7
100
AcDbLine
 10
175.4086820312
 20
180.5804617682
 30
0.0
 11
169.4086820312
 21
180.5804617682
 31
0.0
  0
LINE
  5
419
330
208
100
AcDbEntity
  8
0
  6
Continuous
 62
     7
100
AcDbLine
 10
162.9086820312
 20
180.5804617682
 30
0.0
 11
156.9086820312
 21
180.5804617682
 31
0.0
  0
LINE
  5
41A
330
208
100
AcDbEntity
  8
0
  6
Continuous
 62
     7
100
AcDbLine
 10
150.4086820312
 20
180.5804617682
 30
0.0
 11
144.4086820312
 21
180.5804617682
 31
0.0
  0
LINE
  5
41B
330
208
100
AcDbEntity
  8
0
  6
Continuous
 62
     7
100
AcDbLine
 10
137.9086820312
 20
180.5804617682
 30
0.0
 11
131.9086820312
 21
180.5804617682
 31
0.0
  0
LINE
  5
41C
330
208
100
AcDbEntity
  8
0
  6
Continuous
 62
     7
100
AcDbLine
 10
125.4086820312
 20
180.5804617682
 30
0.0
 11
119.4086820312
 21
180.5804617682
 31
0.0
  0
LINE
  5
41D
330
208
100
AcDbEntity
  8
0
  6
Continuous
 62
     7
100
AcDbLine
 10
112.9086820312
 20
180.5804617682
 30
0.0
 11
106.9086820312
 21
180.5804617682
 31
0.0
  0
LINE
  5
41E
330
208
100
AcDbEntity
  8
0
  6
Continuous
 62
     7
100
AcDbLine
 10
100.4086820312
 20
180.5804617682
 30
0.0
 11
94.4086820312
 21
180.5804617682
 31
0.0
  0
LINE
  5
41F
330
208
100
AcDbEntity
  8
0
  6
Continuous
 62
     7
100
AcDbLine
 10
87.9086820312
 20
180.5804617682
 30
0.0
 11
81.9086820312
 21
180.5804617682
 31
0.0
  0
LINE
  5
420
330
208
100
AcDbEntity
  8
0
  6
Continuous
 62
     7
100
AcDbLine
 10
75.4086820312
 20
180.5804617682
 30
0.0
 11
69.4086820312
 21
180.5804617682
 31
0.0
  0
LINE
  5
421
330
208
100
AcDbEntity
  8
0
  6
Continuous
 62
     7
100
AcDbLine
 10
62.9086820312
 20
180.5804617682
 30
0.0
 11
56.9086820312
 21
180.5804617682
 31
0.0
  0
LINE
  5
422
330
208
100
AcDbEntity
  8
0
  6
Continuous
 62
     7
100
AcDbLine
 10
50.4086820312
 20
180.5804617682
 30
0.0
 11
44.40868203119999
 21
180.5804617682
 31
0.0
  0
LINE
  5
423
330
208
100
AcDbEntity
  8
0
  6
Continuous
 62
     7
100
AcDbLine
 10
37.9086820312
 20
180.5804617682
 30
0.0
 11
31.9086820312
 21
180.5804617682
 31
0.0
  0
LINE
  5
424
330
208
100
AcDbEntity
  8
0
  6
Continuous
 62
     7
100
AcDbLine
 10
25.4086820312
 20
180.5804617682
 30
0.0
 11
19.4086820312
 21
180.5804617682
 31
0.0
  0
LINE
  5
425
330
208
100
AcDbEntity
  8
0
  6
Continuous
 62
     7
100
AcDbLine
 10
12.9086820312
 20
180.5804617682
 30
0.0
 11
6.908682031199997
 21
180.5804617682
 31
0.0
  0
LINE
  5
426
330
208
100
AcDbEntity
  8
0
  6
Continuous
 62
     7
100
AcDbLine
 10
0.4086820312
 20
180.5804617682
 30
0.0
 11
-5.5913179688
 21
180.5804617682
 31
0.0
  0
LINE
  5
427
330
208
100
AcDbEntity
  8
0
  6
Continuous
 62
     7
100
AcDbLine
 10
-12.0913179688
 20
180.5804617682
 30
0.0
 11
-18.0913179688
 21
180.5804617682
 31
0.0
  0
LINE
  5
428
330
208
100
AcDbEntity
  8
0
  6
Continuous
 62
     7
100
AcDbLine
 10
-24.5913179688
 20
180.5804617682
 30
0.0
 11
-30.5913179688
 21
180.5804617682
 31
0.0
  0
LINE
  5
429
330
208
100
AcDbEntity
  8
0
  6
Continuous
 62
     7
100
AcDbLine
 10
-37.0913179688
 20
180.5804617682
 30
0.0
 11
-43.0913179688
 21
180.5804617682
 31
0.0
  0
LINE
  5
42A
330
208
100
AcDbEntity
  8
0
  6
Continuous
 62
     7
100
AcDbLine
 10
-49.5913179688
 20
180.5804617682
 30
0.0
 11
-55.5913179688
 21
180.5804617682
 31
0.0
  0
LINE
  5
42B
330
208
100
AcDbEntity
  8
0
  6
Continuous
 62
     7
100
AcDbLine
 10
-62.0913179688
 20
180.5804617682
 30
0.0
 11
-68.0913179688
 21
180.5804617682
 31
0.0
  0
LINE
  5
42C
330
208
100
AcDbEntity
  8
0
  6
Continuous
 62
     7
100
AcDbLine
 10
-74.5913179688
 20
180.5804617682
 30
0.0
 11
-80.5913179688
 21
180.5804617682
 31
0.0
  0
LINE
  5
42D
330
208
100
AcDbEntity
  8
0
  6
Continuous
 62
     7
100
AcDbLine
 10
-87.09131796879999
 20
180.5804617682
 30
0.0
 11
-93.0913179688
 21
180.5804617682
 31
0.0
  0
LINE
  5
42E
330
208
100
AcDbEntity
  8
0
  6
Continuous
 62
     7
100
AcDbLine
 10
-99.59131796880001
 20
180.5804617682
 30
0.0
 11
-105.5913179688
 21
180.5804617682
 31
0.0
  0
LINE
  5
42F
330
208
100
AcDbEntity
  8
0
  6
Continuous
 62
     7
100
AcDbLine
 10
-112.0913179688
 20
180.5804617682
 30
0.0
 11
-118.0913179688
 21
180.5804617682
 31
0.0
  0
LINE
  5
430
330
208
100
AcDbEntity
  8
0
  6
Continuous
 62
     7
100
AcDbLine
 10
-124.5913179688
 20
180.5804617682
 30
0.0
 11
-130.5913179688
 21
180.5804617682
 31
0.0
  0
LINE
  5
431
330
208
100
AcDbEntity
  8
0
  6
Continuous
 62
     7
100
AcDbLine
 10
-137.0913179688
 20
180.5804617682
 30
0.0
 11
-143.0913179688
 21
180.5804617682
 31
0.0
  0
LINE
  5
432
330
208
100
AcDbEntity
  8
0
  6
Continuous
 62
     7
100
AcDbLine
 10
-149.5913179688
 20
180.5804617682
 30
0.0
 11
-155.5913179688
 21
180.5804617682
 31
0.0
  0
LINE
  5
433
330
208
100
AcDbEntity
  8
0
  6
Continuous
 62
     7
100
AcDbLine
 10
-162.0913179688
 20
180.5804617682
 30
0.0
 11
-168.0913179688
 21
180.5804617682
 31
0.0
  0
LINE
  5
434
330
208
100
AcDbEntity
  8
0
  6
Continuous
 62
     7
100
AcDbLine
 10
-174.5913179688
 20
180.5804617682
 30
0.0
 11
-180.5913179688
 21
180.5804617682
 31
0.0
  0
LINE
  5
435
330
208
100
AcDbEntity
  8
0
  6
Continuous
 62
     7
100
AcDbLine
 10
-187.0913179688
 20
180.5804617682
 30
0.0
 11
-193.0913179688
 21
180.5804617682
 31
0.0
  0
LINE
  5
436
330
208
100
AcDbEntity
  8
0
  6
Continuous
 62
     7
100
AcDbLine
 10
-199.5913179688
 20
180.5804617682
 30
0.0
 11
-205.5913179688
 21
180.5804617682
 31
0.0
  0
LINE
  5
437
330
208
100
AcDbEntity
  8
0
  6
Continuous
 62
     7
100
AcDbLine
 10
-212.0913179688
 20
180.5804617682
 30
0.0
 11
-218.0913179688
 21
180.5804617682
 31
0.0
  0
LINE
  5
438
330
208
100
AcDbEntity
  8
0
  6
Continuous
 62
     7
100
AcDbLine
 10
-218.0913179688
 20
186.5804617682
 30
0.0
 11
-212.0913179688
 21
186.5804617682
 31
0.0
  0
LINE
  5
439
330
208
100
AcDbEntity
  8
0
  6
Continuous
 62
     7
100
AcDbLine
 10
-205.5913179688
 20
186.5804617682
 30
0.0
 11
-199.5913179688
 21
186.5804617682
 31
0.0
  0
LINE
  5
43A
330
208
100
AcDbEntity
  8
0
  6
Continuous
 62
     7
100
AcDbLine
 10
-193.0913179688
 20
186.5804617682
 30
0.0
 11
-187.0913179688
 21
186.5804617682
 31
0.0
  0
LINE
  5
43B
330
208
100
AcDbEntity
  8
0
  6
Continuous
 62
     7
100
AcDbLine
 10
-180.5913179688
 20
186.5804617682
 30
0.0
 11
-174.5913179688
 21
186.5804617682
 31
0.0
  0
LINE
  5
43C
330
208
100
AcDbEntity
  8
0
  6
Continuous
 62
     7
100
AcDbLine
 10
-168.0913179688
 20
186.5804617682
 30
0.0
 11
-162.0913179688
 21
186.5804617682
 31
0.0
  0
LINE
  5
43D
330
208
100
AcDbEntity
  8
0
  6
Continuous
 62
     7
100
AcDbLine
 10
-155.5913179688
 20
186.5804617682
 30
0.0
 11
-149.5913179688
 21
186.5804617682
 31
0.0
  0
LINE
  5
43E
330
208
100
AcDbEntity
  8
0
  6
Continuous
 62
     7
100
AcDbLine
 10
-143.0913179688
 20
186.5804617682
 30
0.0
 11
-137.0913179688
 21
186.5804617682
 31
0.0
  0
LINE
  5
43F
330
208
100
AcDbEntity
  8
0
  6
Continuous
 62
     7
100
AcDbLine
 10
-130.5913179688
 20
186.5804617682
 30
0.0
 11
-124.5913179688
 21
186.5804617682
 31
0.0
  0
LINE
  5
440
330
208
100
AcDbEntity
  8
0
  6
Continuous
 62
     7
100
AcDbLine
 10
-118.0913179688
 20
186.5804617682
 30
0.0
 11
-112.0913179688
 21
186.5804617682
 31
0.0
  0
LINE
  5
441
330
208
100
AcDbEntity
  8
0
  6
Continuous
 62
     7
100
AcDbLine
 10
-105.5913179688
 20
186.5804617682
 30
0.0
 11
-99.59131796880001
 21
186.5804617682
 31
0.0
  0
LINE
  5
442
330
208
100
AcDbEntity
  8
0
  6
Continuous
 62
     7
100
AcDbLine
 10
-93.0913179688
 20
186.5804617682
 30
0.0
 11
-87.09131796879999
 21
186.5804617682
 31
0.0
  0
LINE
  5
443
330
208
100
AcDbEntity
  8
0
  6
Continuous
 62
     7
100
AcDbLine
 10
-80.5913179688
 20
186.5804617682
 30
0.0
 11
-74.5913179688
 21
186.5804617682
 31
0.0
  0
LINE
  5
444
330
208
100
AcDbEntity
  8
0
  6
Continuous
 62
     7
100
AcDbLine
 10
-68.0913179688
 20
186.5804617682
 30
0.0
 11
-62.0913179688
 21
186.5804617682
 31
0.0
  0
LINE
  5
445
330
208
100
AcDbEntity
  8
0
  6
Continuous
 62
     7
100
AcDbLine
 10
-55.5913179688
 20
186.5804617682
 30
0.0
 11
-49.5913179688
 21
186.5804617682
 31
0.0
  0
LINE
  5
446
330
208
100
AcDbEntity
  8
0
  6
Continuous
 62
     7
100
AcDbLine
 10
-43.0913179688
 20
186.5804617682
 30
0.0
 11
-37.0913179688
 21
186.5804617682
 31
0.0
  0
LINE
  5
447
330
208
100
AcDbEntity
  8
0
  6
Continuous
 62
     7
100
AcDbLine
 10
-30.5913179688
 20
186.5804617682
 30
0.0
 11
-24.5913179688
 21
186.5804617682
 31
0.0
  0
LINE
  5
448
330
208
100
AcDbEntity
  8
0
  6
Continuous
 62
     7
100
AcDbLine
 10
-18.0913179688
 20
186.5804617682
 30
0.0
 11
-12.0913179688
 21
186.5804617682
 31
0.0
  0
LINE
  5
449
330
208
100
AcDbEntity
  8
0
  6
Continuous
 62
     7
100
AcDbLine
 10
-5.5913179688
 20
186.5804617682
 30
0.0
 11
0.4086820312
 21
186.5804617682
 31
0.0
  0
LINE
  5
44A
330
208
100
AcDbEntity
  8
0
  6
Continuous
 62
     7
100
AcDbLine
 10
6.908682031199997
 20
186.5804617682
 30
0.0
 11
12.9086820312
 21
186.5804617682
 31
0.0
  0
LINE
  5
44B
330
208
100
AcDbEntity
  8
0
  6
Continuous
 62
     7
100
AcDbLine
 10
19.4086820312
 20
186.5804617682
 30
0.0
 11
25.4086820312
 21
186.5804617682
 31
0.0
  0
LINE
  5
44C
330
208
100
AcDbEntity
  8
0
  6
Continuous
 62
     7
100
AcDbLine
 10
31.9086820312
 20
186.5804617682
 30
0.0
 11
37.9086820312
 21
186.5804617682
 31
0.0
  0
LINE
  5
44D
330
208
100
AcDbEntity
  8
0
  6
Continuous
 62
     7
100
AcDbLine
 10
44.40868203119999
 20
186.5804617682
 30
0.0
 11
50.4086820312
 21
186.5804617682
 31
0.0
  0
LINE
  5
44E
330
208
100
AcDbEntity
  8
0
  6
Continuous
 62
     7
100
AcDbLine
 10
56.9086820312
 20
186.5804617682
 30
0.0
 11
62.9086820312
 21
186.5804617682
 31
0.0
  0
LINE
  5
44F
330
208
100
AcDbEntity
  8
0
  6
Continuous
 62
     7
100
AcDbLine
 10
69.4086820312
 20
186.5804617682
 30
0.0
 11
75.4086820312
 21
186.5804617682
 31
0.0
  0
LINE
  5
450
330
208
100
AcDbEntity
  8
0
  6
Continuous
 62
     7
100
AcDbLine
 10
81.9086820312
 20
186.5804617682
 30
0.0
 11
87.9086820312
 21
186.5804617682
 31
0.0
  0
LINE
  5
451
330
208
100
AcDbEntity
  8
0
  6
Continuous
 62
     7
100
AcDbLine
 10
94.4086820312
 20
186.5804617682
 30
0.0
 11
100.4086820312
 21
186.5804617682
 31
0.0
  0
LINE
  5
452
330
208
100
AcDbEntity
  8
0
  6
Continuous
 62
     7
100
AcDbLine
 10
106.9086820312
 20
186.5804617682
 30
0.0
 11
112.9086820312
 21
186.5804617682
 31
0.0
  0
LINE
  5
453
330
208
100
AcDbEntity
  8
0
  6
Continuous
 62
     7
100
AcDbLine
 10
119.4086820312
 20
186.5804617682
 30
0.0
 11
125.4086820312
 21
186.5804617682
 31
0.0
  0
LINE
  5
454
330
208
100
AcDbEntity
  8
0
  6
Continuous
 62
     7
100
AcDbLine
 10
131.9086820312
 20
186.5804617682
 30
0.0
 11
137.9086820312
 21
186.5804617682
 31
0.0
  0
LINE
  5
455
330
208
100
AcDbEntity
  8
0
  6
Continuous
 62
     7
100
AcDbLine
 10
144.4086820312
 20
186.5804617682
 30
0.0
 11
150.4086820312
 21
186.5804617682
 31
0.0
  0
LINE
  5
456
330
208
100
AcDbEntity
  8
0
  6
Continuous
 62
     7
100
AcDbLine
 10
156.9086820312
 20
186.5804617682
 30
0.0
 11
162.9086820312
 21
186.5804617682
 31
0.0
  0
LINE
  5
457
330
208
100
AcDbEntity
  8
0
  6
Continuous
 62
     7
100
AcDbLine
 10
169.4086820312
 20
186.5804617682
 30
0.0
 11
175.4086820312
 21
186.5804617682
 31
0.0
  0
LINE
  5
458
330
208
100
AcDbEntity
  8
0
  6
Continuous
 62
     7
100
AcDbLine
 10
181.9086820312
 20
186.5804617682
 30
0.0
 11
187.9086820312
 21
186.5804617682
 31
0.0
  0
LINE
  5
459
330
208
100
AcDbEntity
  8
0
  6
Continuous
 62
     7
100
AcDbLine
 10
194.4086820312
 20
186.5804617682
 30
0.0
 11
200.4086820312
 21
186.5804617682
 31
0.0
  0
LINE
  5
45A
330
208
100
AcDbEntity
  8
0
  6
Continuous
 62
     7
100
AcDbLine
 10
206.9086820312
 20
186.5804617682
 30
0.0
 11
212.9086820312
 21
186.5804617682
 31
0.0
  0
LINE
  5
45B
330
208
100
AcDbEntity
  8
0
  6
Continuous
 62
     7
100
AcDbLine
 10
219.4086820312
 20
186.5804617682
 30
0.0
 11
225.4086820312
 21
186.5804617682
 31
0.0
  0
LINE
  5
45C
330
208
100
AcDbEntity
  8
0
  6
Continuous
 62
     7
100
AcDbLine
 10
231.9086820312
 20
186.5804617682
 30
0.0
 11
237.9086820312
 21
186.5804617682
 31
0.0
  0
LINE
  5
45D
330
208
100
AcDbEntity
  8
0
  6
Continuous
 62
     7
100
AcDbLine
 10
244.4086820312
 20
186.5804617682
 30
0.0
 11
250.4086820312
 21
186.5804617682
 31
0.0
  0
LINE
  5
45E
330
208
100
AcDbEntity
  8
0
  6
Continuous
 62
     7
100
AcDbLine
 10
256.9086820312
 20
186.5804617682
 30
0.0
 11
262.9086820312
 21
186.5804617682
 31
0.0
  0
LINE
  5
45F
330
208
100
AcDbEntity
  8
0
  6
Continuous
 62
     7
100
AcDbLine
 10
269.4086820312
 20
186.5804617682
 30
0.0
 11
275.4086820312
 21
186.5804617682
 31
0.0
  0
LINE
  5
460
330
208
100
AcDbEntity
  8
0
  6
Continuous
 62
     7
100
AcDbLine
 10
281.9086820312
 20
186.5804617682
 30
0.0
 11
287.9086820312
 21
186.5804617682
 31
0.0
  0
LINE
  5
461
330
208
100
AcDbEntity
  8
0
  6
Continuous
 62
     7
100
AcDbLine
 10
294.4086820312
 20
186.5804617682
 30
0.0
 11
300.4086820312
 21
186.5804617682
 31
0.0
  0
LINE
  5
462
330
208
100
AcDbEntity
  8
0
  6
Continuous
 62
     7
100
AcDbLine
 10
306.9086820312
 20
186.5804617682
 30
0.0
 11
312.9086820312
 21
186.5804617682
 31
0.0
  0
LINE
  5
463
330
208
100
AcDbEntity
  8
0
  6
Continuous
 62
     7
100
AcDbLine
 10
319.4086820312
 20
186.5804617682
 30
0.0
 11
325.4086820312
 21
186.5804617682
 31
0.0
  0
LINE
  5
464
330
208
100
AcDbEntity
  8
0
  6
Continuous
 62
     7
100
AcDbLine
 10
331.9086820312
 20
186.5804617682
 30
0.0
 11
337.9086820312
 21
186.5804617682
 31
0.0
  0
LINE
  5
465
330
208
100
AcDbEntity
  8
0
  6
Continuous
 62
     7
100
AcDbLine
 10
344.4086820312
 20
186.5804617682
 30
0.0
 11
350.4086820312001
 21
186.5804617682
 31
0.0
  0
LINE
  5
466
330
208
100
AcDbEntity
  8
0
  6
Continuous
 62
     7
100
AcDbLine
 10
356.9086820312
 20
186.5804617682
 30
0.0
 11
362.9086820312001
 21
186.5804617682
 31
0.0
  0
LINE
  5
467
330
208
100
AcDbEntity
  8
0
  6
Continuous
 62
     7
100
AcDbLine
 10
369.4086820312
 20
186.5804617682
 30
0.0
 11
375.4086820312001
 21
186.5804617682
 31
0.0
  0
LINE
  5
468
330
208
100
AcDbEntity
  8
0
  6
Continuous
 62
     7
100
AcDbLine
 10
381.9086820312
 20
186.5804617682
 30
0.0
 11
387.9086820312
 21
186.5804617682
 31
0.0
  0
LINE
  5
469
330
208
100
AcDbEntity
  8
0
  6
Continuous
 62
     7
100
AcDbLine
 10
394.4086820312
 20
186.5804617682
 30
0.0
 11
400.4086820312
 21
186.5804617682
 31
0.0
  0
LINE
  5
46A
330
208
100
AcDbEntity
  8
0
  6
Continuous
 62
     7
100
AcDbLine
 10
406.9086820312
 20
186.5804617682
 30
0.0
 11
412.9086820312
 21
186.5804617682
 31
0.0
  0
LINE
  5
46B
330
208
100
AcDbEntity
  8
0
  6
Continuous
 62
     7
100
AcDbLine
 10
419.4086820312
 20
186.5804617682
 30
0.0
 11
425.4086820312
 21
186.5804617682
 31
0.0
  0
LINE
  5
46C
330
208
100
AcDbEntity
  8
0
  6
Continuous
 62
     7
100
AcDbLine
 10
431.9086820312
 20
186.5804617682
 30
0.0
 11
437.9086820312
 21
186.5804617682
 31
0.0
  0
LINE
  5
46D
330
208
100
AcDbEntity
  8
0
  6
Continuous
 62
     7
100
AcDbLine
 10
444.4086820312
 20
186.5804617682
 30
0.0
 11
450.4086820312
 21
186.5804617682
 31
0.0
  0
LINE
  5
46E
330
208
100
AcDbEntity
  8
0
  6
Continuous
 62
     7
100
AcDbLine
 10
456.9086820312
 20
186.5804617682
 30
0.0
 11
462.9086820312
 21
186.5804617682
 31
0.0
  0
LINE
  5
46F
330
208
100
AcDbEntity
  8
0
  6
Continuous
 62
     7
100
AcDbLine
 10
469.4086820312
 20
186.5804617682
 30
0.0
 11
475.4086820312
 21
186.5804617682
 31
0.0
  0
LINE
  5
470
330
208
100
AcDbEntity
  8
0
  6
Continuous
 62
     7
100
AcDbLine
 10
481.9086820312
 20
186.5804617682
 30
0.0
 11
487.9086820312
 21
186.5804617682
 31
0.0
  0
LINE
  5
471
330
208
100
AcDbEntity
  8
0
  6
Continuous
 62
     7
100
AcDbLine
 10
494.4086820312
 20
186.5804617682
 30
0.0
 11
500.4086820312
 21
186.5804617682
 31
0.0
  0
LINE
  5
472
330
208
100
AcDbEntity
  8
0
  6
Continuous
 62
     7
100
AcDbLine
 10
506.9086820312
 20
186.5804617682
 30
0.0
 11
512.9086820311997
 21
186.5804617682
 31
0.0
  0
LINE
  5
473
330
208
100
AcDbEntity
  8
0
  6
Continuous
 62
     7
100
AcDbLine
 10
519.4086820312
 20
186.5804617682
 30
0.0
 11
525.4086820311997
 21
186.5804617682
 31
0.0
  0
LINE
  5
474
330
208
100
AcDbEntity
  8
0
  6
Continuous
 62
     7
100
AcDbLine
 10
531.9086820312
 20
186.5804617682
 30
0.0
 11
537.9086820311997
 21
186.5804617682
 31
0.0
  0
LINE
  5
475
330
208
100
AcDbEntity
  8
0
  6
Continuous
 62
     7
100
AcDbLine
 10
544.4086820312
 20
186.5804617682
 30
0.0
 11
550.4086820311997
 21
186.5804617682
 31
0.0
  0
LINE
  5
476
330
208
100
AcDbEntity
  8
0
  6
Continuous
 62
     7
100
AcDbLine
 10
556.9086820312
 20
186.5804617682
 30
0.0
 11
562.9086820311997
 21
186.5804617682
 31
0.0
  0
LINE
  5
477
330
208
100
AcDbEntity
  8
0
  6
Continuous
 62
     7
100
AcDbLine
 10
569.4086820312
 20
186.5804617682
 30
0.0
 11
575.4086820311997
 21
186.5804617682
 31
0.0
  0
LINE
  5
478
330
208
100
AcDbEntity
  8
0
  6
Continuous
 62
     7
100
AcDbLine
 10
581.9086820312
 20
186.5804617682
 30
0.0
 11
587.9086820311997
 21
186.5804617682
 31
0.0
  0
LINE
  5
479
330
208
100
AcDbEntity
  8
0
  6
Continuous
 62
     7
100
AcDbLine
 10
594.4086820312
 20
186.5804617682
 30
0.0
 11
600.4086820311997
 21
186.5804617682
 31
0.0
  0
LINE
  5
47A
330
208
100
AcDbEntity
  8
0
  6
Continuous
 62
     7
100
AcDbLine
 10
606.9086820312
 20
186.5804617682
 30
0.0
 11
612.9086820311997
 21
186.5804617682
 31
0.0
  0
LINE
  5
47B
330
208
100
AcDbEntity
  8
0
  6
Continuous
 62
     7
100
AcDbLine
 10
619.4086820312
 20
186.5804617682
 30
0.0
 11
625.4086820311997
 21
186.5804617682
 31
0.0
  0
LINE
  5
47C
330
208
100
AcDbEntity
  8
0
  6
Continuous
 62
     7
100
AcDbLine
 10
631.9086820312
 20
186.5804617682
 30
0.0
 11
637.9086820311997
 21
186.5804617682
 31
0.0
  0
LINE
  5
47D
330
208
100
AcDbEntity
  8
0
  6
Continuous
 62
     7
100
AcDbLine
 10
644.4086820312
 20
186.5804617682
 30
0.0
 11
650.4086820311997
 21
186.5804617682
 31
0.0
  0
LINE
  5
47E
330
208
100
AcDbEntity
  8
0
  6
CENTER
100
AcDbLine
 10
-225.8413179688
 20
189.5804617682
 30
0.0
 11
658.1586820312
 21
189.5804617682
 31
0.0
  0
LINE
  5
47F
330
208
100
AcDbEntity
  8
0
  6
Continuous
 62
     7
100
AcDbLine
 10
650.4086820311997
 20
193.0804617682
 30
0.0
 11
644.4086820312
 21
193.0804617682
 31
0.0
  0
LINE
  5
480
330
208
100
AcDbEntity
  8
0
  6
Continuous
 62
     7
100
AcDbLine
 10
637.9086820311997
 20
193.0804617682
 30
0.0
 11
631.9086820312
 21
193.0804617682
 31
0.0
  0
LINE
  5
481
330
208
100
AcDbEntity
  8
0
  6
Continuous
 62
     7
100
AcDbLine
 10
625.4086820311997
 20
193.0804617682
 30
0.0
 11
619.4086820312
 21
193.0804617682
 31
0.0
  0
LINE
  5
482
330
208
100
AcDbEntity
  8
0
  6
Continuous
 62
     7
100
AcDbLine
 10
612.9086820311997
 20
193.0804617682
 30
0.0
 11
606.9086820312
 21
193.0804617682
 31
0.0
  0
LINE
  5
483
330
208
100
AcDbEntity
  8
0
  6
Continuous
 62
     7
100
AcDbLine
 10
600.4086820311997
 20
193.0804617682
 30
0.0
 11
594.4086820312
 21
193.0804617682
 31
0.0
  0
LINE
  5
484
330
208
100
AcDbEntity
  8
0
  6
Continuous
 62
     7
100
AcDbLine
 10
587.9086820311997
 20
193.0804617682
 30
0.0
 11
581.9086820312
 21
193.0804617682
 31
0.0
  0
LINE
  5
485
330
208
100
AcDbEntity
  8
0
  6
Continuous
 62
     7
100
AcDbLine
 10
575.4086820311997
 20
193.0804617682
 30
0.0
 11
569.4086820312
 21
193.0804617682
 31
0.0
  0
LINE
  5
486
330
208
100
AcDbEntity
  8
0
  6
Continuous
 62
     7
100
AcDbLine
 10
562.9086820311997
 20
193.0804617682
 30
0.0
 11
556.9086820312
 21
193.0804617682
 31
0.0
  0
LINE
  5
487
330
208
100
AcDbEntity
  8
0
  6
Continuous
 62
     7
100
AcDbLine
 10
550.4086820311997
 20
193.0804617682
 30
0.0
 11
544.4086820312
 21
193.0804617682
 31
0.0
  0
LINE
  5
488
330
208
100
AcDbEntity
  8
0
  6
Continuous
 62
     7
100
AcDbLine
 10
537.9086820311997
 20
193.0804617682
 30
0.0
 11
531.9086820312
 21
193.0804617682
 31
0.0
  0
LINE
  5
489
330
208
100
AcDbEntity
  8
0
  6
Continuous
 62
     7
100
AcDbLine
 10
525.4086820311997
 20
193.0804617682
 30
0.0
 11
519.4086820312
 21
193.0804617682
 31
0.0
  0
LINE
  5
48A
330
208
100
AcDbEntity
  8
0
  6
Continuous
 62
     7
100
AcDbLine
 10
512.9086820311997
 20
193.0804617682
 30
0.0
 11
506.9086820312
 21
193.0804617682
 31
0.0
  0
LINE
  5
48B
330
208
100
AcDbEntity
  8
0
  6
Continuous
 62
     7
100
AcDbLine
 10
500.4086820312
 20
193.0804617682
 30
0.0
 11
494.4086820312
 21
193.0804617682
 31
0.0
  0
LINE
  5
48C
330
208
100
AcDbEntity
  8
0
  6
Continuous
 62
     7
100
AcDbLine
 10
487.9086820312
 20
193.0804617682
 30
0.0
 11
481.9086820312
 21
193.0804617682
 31
0.0
  0
LINE
  5
48D
330
208
100
AcDbEntity
  8
0
  6
Continuous
 62
     7
100
AcDbLine
 10
475.4086820312
 20
193.0804617682
 30
0.0
 11
469.4086820312
 21
193.0804617682
 31
0.0
  0
LINE
  5
48E
330
208
100
AcDbEntity
  8
0
  6
Continuous
 62
     7
100
AcDbLine
 10
462.9086820312
 20
193.0804617682
 30
0.0
 11
456.9086820312
 21
193.0804617682
 31
0.0
  0
LINE
  5
48F
330
208
100
AcDbEntity
  8
0
  6
Continuous
 62
     7
100
AcDbLine
 10
450.4086820312
 20
193.0804617682
 30
0.0
 11
444.4086820312
 21
193.0804617682
 31
0.0
  0
LINE
  5
490
330
208
100
AcDbEntity
  8
0
  6
Continuous
 62
     7
100
AcDbLine
 10
437.9086820312
 20
193.0804617682
 30
0.0
 11
431.9086820312
 21
193.0804617682
 31
0.0
  0
LINE
  5
491
330
208
100
AcDbEntity
  8
0
  6
Continuous
 62
     7
100
AcDbLine
 10
425.4086820312
 20
193.0804617682
 30
0.0
 11
419.4086820312
 21
193.0804617682
 31
0.0
  0
LINE
  5
492
330
208
100
AcDbEntity
  8
0
  6
Continuous
 62
     7
100
AcDbLine
 10
412.9086820312
 20
193.0804617682
 30
0.0
 11
406.9086820312
 21
193.0804617682
 31
0.0
  0
LINE
  5
493
330
208
100
AcDbEntity
  8
0
  6
Continuous
 62
     7
100
AcDbLine
 10
400.4086820312
 20
193.0804617682
 30
0.0
 11
394.4086820312
 21
193.0804617682
 31
0.0
  0
LINE
  5
494
330
208
100
AcDbEntity
  8
0
  6
Continuous
 62
     7
100
AcDbLine
 10
387.9086820312
 20
193.0804617682
 30
0.0
 11
381.9086820312
 21
193.0804617682
 31
0.0
  0
LINE
  5
495
330
208
100
AcDbEntity
  8
0
  6
Continuous
 62
     7
100
AcDbLine
 10
375.4086820312001
 20
193.0804617682
 30
0.0
 11
369.4086820312
 21
193.0804617682
 31
0.0
  0
LINE
  5
496
330
208
100
AcDbEntity
  8
0
  6
Continuous
 62
     7
100
AcDbLine
 10
362.9086820312001
 20
193.0804617682
 30
0.0
 11
356.9086820312
 21
193.0804617682
 31
0.0
  0
LINE
  5
497
330
208
100
AcDbEntity
  8
0
  6
Continuous
 62
     7
100
AcDbLine
 10
350.4086820312001
 20
193.0804617682
 30
0.0
 11
344.4086820312
 21
193.0804617682
 31
0.0
  0
LINE
  5
498
330
208
100
AcDbEntity
  8
0
  6
Continuous
 62
     7
100
AcDbLine
 10
337.9086820312
 20
193.0804617682
 30
0.0
 11
331.9086820312
 21
193.0804617682
 31
0.0
  0
LINE
  5
499
330
208
100
AcDbEntity
  8
0
  6
Continuous
 62
     7
100
AcDbLine
 10
325.4086820312
 20
193.0804617682
 30
0.0
 11
319.4086820312
 21
193.0804617682
 31
0.0
  0
LINE
  5
49A
330
208
100
AcDbEntity
  8
0
  6
Continuous
 62
     7
100
AcDbLine
 10
312.9086820312
 20
193.0804617682
 30
0.0
 11
306.9086820312
 21
193.0804617682
 31
0.0
  0
LINE
  5
49B
330
208
100
AcDbEntity
  8
0
  6
Continuous
 62
     7
100
AcDbLine
 10
300.4086820312
 20
193.0804617682
 30
0.0
 11
294.4086820312
 21
193.0804617682
 31
0.0
  0
LINE
  5
49C
330
208
100
AcDbEntity
  8
0
  6
Continuous
 62
     7
100
AcDbLine
 10
287.9086820312
 20
193.0804617682
 30
0.0
 11
281.9086820312
 21
193.0804617682
 31
0.0
  0
LINE
  5
49D
330
208
100
AcDbEntity
  8
0
  6
Continuous
 62
     7
100
AcDbLine
 10
275.4086820312
 20
193.0804617682
 30
0.0
 11
269.4086820312
 21
193.0804617682
 31
0.0
  0
LINE
  5
49E
330
208
100
AcDbEntity
  8
0
  6
Continuous
 62
     7
100
AcDbLine
 10
262.9086820312
 20
193.0804617682
 30
0.0
 11
256.9086820312
 21
193.0804617682
 31
0.0
  0
LINE
  5
49F
330
208
100
AcDbEntity
  8
0
  6
Continuous
 62
     7
100
AcDbLine
 10
250.4086820312
 20
193.0804617682
 30
0.0
 11
244.4086820312
 21
193.0804617682
 31
0.0
  0
LINE
  5
4A0
330
208
100
AcDbEntity
  8
0
  6
Continuous
 62
     7
100
AcDbLine
 10
237.9086820312
 20
193.0804617682
 30
0.0
 11
231.9086820312
 21
193.0804617682
 31
0.0
  0
LINE
  5
4A1
330
208
100
AcDbEntity
  8
0
  6
Continuous
 62
     7
100
AcDbLine
 10
225.4086820312
 20
193.0804617682
 30
0.0
 11
219.4086820312
 21
193.0804617682
 31
0.0
  0
LINE
  5
4A2
330
208
100
AcDbEntity
  8
0
  6
Continuous
 62
     7
100
AcDbLine
 10
212.9086820312
 20
193.0804617682
 30
0.0
 11
206.9086820312
 21
193.0804617682
 31
0.0
  0
LINE
  5
4A3
330
208
100
AcDbEntity
  8
0
  6
Continuous
 62
     7
100
AcDbLine
 10
200.4086820312
 20
193.0804617682
 30
0.0
 11
194.4086820312
 21
193.0804617682
 31
0.0
  0
LINE
  5
4A4
330
208
100
AcDbEntity
  8
0
  6
Continuous
 62
     7
100
AcDbLine
 10
187.9086820312
 20
193.0804617682
 30
0.0
 11
181.9086820312
 21
193.0804617682
 31
0.0
  0
LINE
  5
4A5
330
208
100
AcDbEntity
  8
0
  6
Continuous
 62
     7
100
AcDbLine
 10
175.4086820312
 20
193.0804617682
 30
0.0
 11
169.4086820312
 21
193.0804617682
 31
0.0
  0
LINE
  5
4A6
330
208
100
AcDbEntity
  8
0
  6
Continuous
 62
     7
100
AcDbLine
 10
162.9086820312
 20
193.0804617682
 30
0.0
 11
156.9086820312
 21
193.0804617682
 31
0.0
  0
LINE
  5
4A7
330
208
100
AcDbEntity
  8
0
  6
Continuous
 62
     7
100
AcDbLine
 10
150.4086820312
 20
193.0804617682
 30
0.0
 11
144.4086820312
 21
193.0804617682
 31
0.0
  0
LINE
  5
4A8
330
208
100
AcDbEntity
  8
0
  6
Continuous
 62
     7
100
AcDbLine
 10
137.9086820312
 20
193.0804617682
 30
0.0
 11
131.9086820312
 21
193.0804617682
 31
0.0
  0
LINE
  5
4A9
330
208
100
AcDbEntity
  8
0
  6
Continuous
 62
     7
100
AcDbLine
 10
125.4086820312
 20
193.0804617682
 30
0.0
 11
119.4086820312
 21
193.0804617682
 31
0.0
  0
LINE
  5
4AA
330
208
100
AcDbEntity
  8
0
  6
Continuous
 62
     7
100
AcDbLine
 10
112.9086820312
 20
193.0804617682
 30
0.0
 11
106.9086820312
 21
193.0804617682
 31
0.0
  0
LINE
  5
4AB
330
208
100
AcDbEntity
  8
0
  6
Continuous
 62
     7
100
AcDbLine
 10
100.4086820312
 20
193.0804617682
 30
0.0
 11
94.4086820312
 21
193.0804617682
 31
0.0
  0
LINE
  5
4AC
330
208
100
AcDbEntity
  8
0
  6
Continuous
 62
     7
100
AcDbLine
 10
87.9086820312
 20
193.0804617682
 30
0.0
 11
81.9086820312
 21
193.0804617682
 31
0.0
  0
LINE
  5
4AD
330
208
100
AcDbEntity
  8
0
  6
Continuous
 62
     7
100
AcDbLine
 10
75.4086820312
 20
193.0804617682
 30
0.0
 11
69.4086820312
 21
193.0804617682
 31
0.0
  0
LINE
  5
4AE
330
208
100
AcDbEntity
  8
0
  6
Continuous
 62
     7
100
AcDbLine
 10
62.9086820312
 20
193.0804617682
 30
0.0
 11
56.9086820312
 21
193.0804617682
 31
0.0
  0
LINE
  5
4AF
330
208
100
AcDbEntity
  8
0
  6
Continuous
 62
     7
100
AcDbLine
 10
50.4086820312
 20
193.0804617682
 30
0.0
 11
44.40868203119999
 21
193.0804617682
 31
0.0
  0
LINE
  5
4B0
330
208
100
AcDbEntity
  8
0
  6
Continuous
 62
     7
100
AcDbLine
 10
37.9086820312
 20
193.0804617682
 30
0.0
 11
31.9086820312
 21
193.0804617682
 31
0.0
  0
LINE
  5
4B1
330
208
100
AcDbEntity
  8
0
  6
Continuous
 62
     7
100
AcDbLine
 10
25.4086820312
 20
193.0804617682
 30
0.0
 11
19.4086820312
 21
193.0804617682
 31
0.0
  0
LINE
  5
4B2
330
208
100
AcDbEntity
  8
0
  6
Continuous
 62
     7
100
AcDbLine
 10
12.9086820312
 20
193.0804617682
 30
0.0
 11
6.908682031199997
 21
193.0804617682
 31
0.0
  0
LINE
  5
4B3
330
208
100
AcDbEntity
  8
0
  6
Continuous
 62
     7
100
AcDbLine
 10
0.4086820312
 20
193.0804617682
 30
0.0
 11
-5.5913179688
 21
193.0804617682
 31
0.0
  0
LINE
  5
4B4
330
208
100
AcDbEntity
  8
0
  6
Continuous
 62
     7
100
AcDbLine
 10
-12.0913179688
 20
193.0804617682
 30
0.0
 11
-18.0913179688
 21
193.0804617682
 31
0.0
  0
LINE
  5
4B5
330
208
100
AcDbEntity
  8
0
  6
Continuous
 62
     7
100
AcDbLine
 10
-24.5913179688
 20
193.0804617682
 30
0.0
 11
-30.5913179688
 21
193.0804617682
 31
0.0
  0
LINE
  5
4B6
330
208
100
AcDbEntity
  8
0
  6
Continuous
 62
     7
100
AcDbLine
 10
-37.0913179688
 20
193.0804617682
 30
0.0
 11
-43.0913179688
 21
193.0804617682
 31
0.0
  0
LINE
  5
4B7
330
208
100
AcDbEntity
  8
0
  6
Continuous
 62
     7
100
AcDbLine
 10
-49.5913179688
 20
193.0804617682
 30
0.0
 11
-55.5913179688
 21
193.0804617682
 31
0.0
  0
LINE
  5
4B8
330
208
100
AcDbEntity
  8
0
  6
Continuous
 62
     7
100
AcDbLine
 10
-62.0913179688
 20
193.0804617682
 30
0.0
 11
-68.0913179688
 21
193.0804617682
 31
0.0
  0
LINE
  5
4B9
330
208
100
AcDbEntity
  8
0
  6
Continuous
 62
     7
100
AcDbLine
 10
-74.5913179688
 20
193.0804617682
 30
0.0
 11
-80.5913179688
 21
193.0804617682
 31
0.0
  0
LINE
  5
4BA
330
208
100
AcDbEntity
  8
0
  6
Continuous
 62
     7
100
AcDbLine
 10
-87.09131796879999
 20
193.0804617682
 30
0.0
 11
-93.0913179688
 21
193.0804617682
 31
0.0
  0
LINE
  5
4BB
330
208
100
AcDbEntity
  8
0
  6
Continuous
 62
     7
100
AcDbLine
 10
-99.59131796880001
 20
193.0804617682
 30
0.0
 11
-105.5913179688
 21
193.0804617682
 31
0.0
  0
LINE
  5
4BC
330
208
100
AcDbEntity
  8
0
  6
Continuous
 62
     7
100
AcDbLine
 10
-112.0913179688
 20
193.0804617682
 30
0.0
 11
-118.0913179688
 21
193.0804617682
 31
0.0
  0
LINE
  5
4BD
330
208
100
AcDbEntity
  8
0
  6
Continuous
 62
     7
100
AcDbLine
 10
-124.5913179688
 20
193.0804617682
 30
0.0
 11
-130.5913179688
 21
193.0804617682
 31
0.0
  0
LINE
  5
4BE
330
208
100
AcDbEntity
  8
0
  6
Continuous
 62
     7
100
AcDbLine
 10
-137.0913179688
 20
193.0804617682
 30
0.0
 11
-143.0913179688
 21
193.0804617682
 31
0.0
  0
LINE
  5
4BF
330
208
100
AcDbEntity
  8
0
  6
Continuous
 62
     7
100
AcDbLine
 10
-149.5913179688
 20
193.0804617682
 30
0.0
 11
-155.5913179688
 21
193.0804617682
 31
0.0
  0
LINE
  5
4C0
330
208
100
AcDbEntity
  8
0
  6
Continuous
 62
     7
100
AcDbLine
 10
-162.0913179688
 20
193.0804617682
 30
0.0
 11
-168.0913179688
 21
193.0804617682
 31
0.0
  0
LINE
  5
4C1
330
208
100
AcDbEntity
  8
0
  6
Continuous
 62
     7
100
AcDbLine
 10
-174.5913179688
 20
193.0804617682
 30
0.0
 11
-180.5913179688
 21
193.0804617682
 31
0.0
  0
LINE
  5
4C2
330
208
100
AcDbEntity
  8
0
  6
Continuous
 62
     7
100
AcDbLine
 10
-187.0913179688
 20
193.0804617682
 30
0.0
 11
-193.0913179688
 21
193.0804617682
 31
0.0
  0
LINE
  5
4C3
330
208
100
AcDbEntity
  8
0
  6
Continuous
 62
     7
100
AcDbLine
 10
-199.5913179688
 20
193.0804617682
 30
0.0
 11
-205.5913179688
 21
193.0804617682
 31
0.0
  0
LINE
  5
4C4
330
208
100
AcDbEntity
  8
0
  6
Continuous
 62
     7
100
AcDbLine
 10
-212.0913179688
 20
193.0804617682
 30
0.0
 11
-218.0913179688
 21
193.0804617682
 31
0.0
  0
LINE
  5
4C5
330
208
100
AcDbEntity
  8
0
  6
Continuous
 62
     7
100
AcDbLine
 10
225.4086820312
 20
211.5804617682
 30
0.0
 11
225.4086820312
 21
205.5804617682
 31
0.0
  0
LINE
  5
4C6
330
208
100
AcDbEntity
  8
0
  6
Continuous
 62
     7
100
AcDbLine
 10
225.4086820312
 20
199.0804617682
 30
0.0
 11
225.4086820312
 21
193.0804617682
 31
0.0
  0
LINE
  5
4C7
330
208
100
AcDbEntity
  8
0
  6
Continuous
 62
     7
100
AcDbLine
 10
225.4086820312
 20
186.5804617682
 30
0.0
 11
225.4086820312
 21
180.5804617682
 31
0.0
  0
LINE
  5
4C8
330
208
100
AcDbEntity
  8
0
  6
Continuous
 62
     7
100
AcDbLine
 10
225.4086820312
 20
174.0804617682
 30
0.0
 11
225.4086820312
 21
168.0804617682
 31
0.0
  0
LINE
  5
4C9
330
208
100
AcDbEntity
  8
0
  6
Continuous
 62
     7
100
AcDbLine
 10
231.9086820312
 20
168.0804617682
 30
0.0
 11
231.9086820312
 21
174.0804617682
 31
0.0
  0
LINE
  5
4CA
330
208
100
AcDbEntity
  8
0
  6
Continuous
 62
     7
100
AcDbLine
 10
231.9086820312
 20
180.5804617682
 30
0.0
 11
231.9086820312
 21
186.5804617682
 31
0.0
  0
LINE
  5
4CB
330
208
100
AcDbEntity
  8
0
  6
Continuous
 62
     7
100
AcDbLine
 10
231.9086820312
 20
193.0804617682
 30
0.0
 11
231.9086820312
 21
199.0804617682
 31
0.0
  0
LINE
  5
4CC
330
208
100
AcDbEntity
  8
0
  6
Continuous
 62
     7
100
AcDbLine
 10
231.9086820312
 20
205.5804617682
 30
0.0
 11
231.9086820312
 21
211.5804617682
 31
0.0
  0
LINE
  5
4CD
330
208
100
AcDbEntity
  8
0
  6
Continuous
 62
     7
100
AcDbLine
 10
237.9086820312
 20
211.5804617682
 30
0.0
 11
237.9086820312
 21
205.5804617682
 31
0.0
  0
LINE
  5
4CE
330
208
100
AcDbEntity
  8
0
  6
Continuous
 62
     7
100
AcDbLine
 10
237.9086820312
 20
199.0804617682
 30
0.0
 11
237.9086820312
 21
193.0804617682
 31
0.0
  0
LINE
  5
4CF
330
208
100
AcDbEntity
  8
0
  6
Continuous
 62
     7
100
AcDbLine
 10
237.9086820312
 20
186.5804617682
 30
0.0
 11
237.9086820312
 21
180.5804617682
 31
0.0
  0
LINE
  5
4D0
330
208
100
AcDbEntity
  8
0
  6
Continuous
 62
     7
100
AcDbLine
 10
237.9086820312
 20
174.0804617682
 30
0.0
 11
237.9086820312
 21
168.0804617682
 31
0.0
  0
LINE
  5
4D1
330
208
100
AcDbEntity
  8
0
  6
Continuous
 62
     7
100
AcDbLine
 10
244.4086820312
 20
168.0804617682
 30
0.0
 11
244.4086820312
 21
174.0804617682
 31
0.0
  0
LINE
  5
4D2
330
208
100
AcDbEntity
  8
0
  6
Continuous
 62
     7
100
AcDbLine
 10
244.4086820312
 20
180.5804617682
 30
0.0
 11
244.4086820312
 21
186.5804617682
 31
0.0
  0
LINE
  5
4D3
330
208
100
AcDbEntity
  8
0
  6
Continuous
 62
     7
100
AcDbLine
 10
244.4086820312
 20
193.0804617682
 30
0.0
 11
244.4086820312
 21
199.0804617682
 31
0.0
  0
LINE
  5
4D4
330
208
100
AcDbEntity
  8
0
  6
Continuous
 62
     7
100
AcDbLine
 10
244.4086820312
 20
205.5804617682
 30
0.0
 11
244.4086820312
 21
211.5804617682
 31
0.0
  0
LINE
  5
4D5
330
208
100
AcDbEntity
  8
0
  6
Continuous
 62
     7
100
AcDbLine
 10
-218.0913179688
 20
199.0804617682
 30
0.0
 11
-212.0913179688
 21
199.0804617682
 31
0.0
  0
LINE
  5
4D6
330
208
100
AcDbEntity
  8
0
  6
Continuous
 62
     7
100
AcDbLine
 10
-205.5913179688
 20
199.0804617682
 30
0.0
 11
-199.5913179688
 21
199.0804617682
 31
0.0
  0
LINE
  5
4D7
330
208
100
AcDbEntity
  8
0
  6
Continuous
 62
     7
100
AcDbLine
 10
-193.0913179688
 20
199.0804617682
 30
0.0
 11
-187.0913179688
 21
199.0804617682
 31
0.0
  0
LINE
  5
4D8
330
208
100
AcDbEntity
  8
0
  6
Continuous
 62
     7
100
AcDbLine
 10
-180.5913179688
 20
199.0804617682
 30
0.0
 11
-174.5913179688
 21
199.0804617682
 31
0.0
  0
LINE
  5
4D9
330
208
100
AcDbEntity
  8
0
  6
Continuous
 62
     7
100
AcDbLine
 10
-168.0913179688
 20
199.0804617682
 30
0.0
 11
-162.0913179688
 21
199.0804617682
 31
0.0
  0
LINE
  5
4DA
330
208
100
AcDbEntity
  8
0
  6
Continuous
 62
     7
100
AcDbLine
 10
-155.5913179688
 20
199.0804617682
 30
0.0
 11
-149.5913179688
 21
199.0804617682
 31
0.0
  0
LINE
  5
4DB
330
208
100
AcDbEntity
  8
0
  6
Continuous
 62
     7
100
AcDbLine
 10
-143.0913179688
 20
199.0804617682
 30
0.0
 11
-137.0913179688
 21
199.0804617682
 31
0.0
  0
LINE
  5
4DC
330
208
100
AcDbEntity
  8
0
  6
Continuous
 62
     7
100
AcDbLine
 10
-130.5913179688
 20
199.0804617682
 30
0.0
 11
-124.5913179688
 21
199.0804617682
 31
0.0
  0
LINE
  5
4DD
330
208
100
AcDbEntity
  8
0
  6
Continuous
 62
     7
100
AcDbLine
 10
-118.0913179688
 20
199.0804617682
 30
0.0
 11
-112.0913179688
 21
199.0804617682
 31
0.0
  0
LINE
  5
4DE
330
208
100
AcDbEntity
  8
0
  6
Continuous
 62
     7
100
AcDbLine
 10
-105.5913179688
 20
199.0804617682
 30
0.0
 11
-99.59131796880001
 21
199.0804617682
 31
0.0
  0
LINE
  5
4DF
330
208
100
AcDbEntity
  8
0
  6
Continuous
 62
     7
100
AcDbLine
 10
-93.0913179688
 20
199.0804617682
 30
0.0
 11
-87.09131796879999
 21
199.0804617682
 31
0.0
  0
LINE
  5
4E0
330
208
100
AcDbEntity
  8
0
  6
Continuous
 62
     7
100
AcDbLine
 10
-80.5913179688
 20
199.0804617682
 30
0.0
 11
-74.5913179688
 21
199.0804617682
 31
0.0
  0
LINE
  5
4E1
330
208
100
AcDbEntity
  8
0
  6
Continuous
 62
     7
100
AcDbLine
 10
-68.0913179688
 20
199.0804617682
 30
0.0
 11
-62.0913179688
 21
199.0804617682
 31
0.0
  0
LINE
  5
4E2
330
208
100
AcDbEntity
  8
0
  6
Continuous
 62
     7
100
AcDbLine
 10
-55.5913179688
 20
199.0804617682
 30
0.0
 11
-49.5913179688
 21
199.0804617682
 31
0.0
  0
LINE
  5
4E3
330
208
100
AcDbEntity
  8
0
  6
Continuous
 62
     7
100
AcDbLine
 10
-43.0913179688
 20
199.0804617682
 30
0.0
 11
-37.0913179688
 21
199.0804617682
 31
0.0
  0
LINE
  5
4E4
330
208
100
AcDbEntity
  8
0
  6
Continuous
 62
     7
100
AcDbLine
 10
-30.5913179688
 20
199.0804617682
 30
0.0
 11
-24.5913179688
 21
199.0804617682
 31
0.0
  0
LINE
  5
4E5
330
208
100
AcDbEntity
  8
0
  6
Continuous
 62
     7
100
AcDbLine
 10
-18.0913179688
 20
199.0804617682
 30
0.0
 11
-12.0913179688
 21
199.0804617682
 31
0.0
  0
LINE
  5
4E6
330
208
100
AcDbEntity
  8
0
  6
Continuous
 62
     7
100
AcDbLine
 10
-5.5913179688
 20
199.0804617682
 30
0.0
 11
0.4086820312
 21
199.0804617682
 31
0.0
  0
LINE
  5
4E7
330
208
100
AcDbEntity
  8
0
  6
Continuous
 62
     7
100
AcDbLine
 10
6.908682031199997
 20
199.0804617682
 30
0.0
 11
12.9086820312
 21
199.0804617682
 31
0.0
  0
LINE
  5
4E8
330
208
100
AcDbEntity
  8
0
  6
Continuous
 62
     7
100
AcDbLine
 10
19.4086820312
 20
199.0804617682
 30
0.0
 11
25.4086820312
 21
199.0804617682
 31
0.0
  0
LINE
  5
4E9
330
208
100
AcDbEntity
  8
0
  6
Continuous
 62
     7
100
AcDbLine
 10
31.9086820312
 20
199.0804617682
 30
0.0
 11
37.9086820312
 21
199.0804617682
 31
0.0
  0
LINE
  5
4EA
330
208
100
AcDbEntity
  8
0
  6
Continuous
 62
     7
100
AcDbLine
 10
44.40868203119999
 20
199.0804617682
 30
0.0
 11
50.4086820312
 21
199.0804617682
 31
0.0
  0
LINE
  5
4EB
330
208
100
AcDbEntity
  8
0
  6
Continuous
 62
     7
100
AcDbLine
 10
56.9086820312
 20
199.0804617682
 30
0.0
 11
62.9086820312
 21
199.0804617682
 31
0.0
  0
LINE
  5
4EC
330
208
100
AcDbEntity
  8
0
  6
Continuous
 62
     7
100
AcDbLine
 10
69.4086820312
 20
199.0804617682
 30
0.0
 11
75.4086820312
 21
199.0804617682
 31
0.0
  0
LINE
  5
4ED
330
208
100
AcDbEntity
  8
0
  6
Continuous
 62
     7
100
AcDbLine
 10
81.9086820312
 20
199.0804617682
 30
0.0
 11
87.9086820312
 21
199.0804617682
 31
0.0
  0
LINE
  5
4EE
330
208
100
AcDbEntity
  8
0
  6
Continuous
 62
     7
100
AcDbLine
 10
94.4086820312
 20
199.0804617682
 30
0.0
 11
100.4086820312
 21
199.0804617682
 31
0.0
  0
LINE
  5
4EF
330
208
100
AcDbEntity
  8
0
  6
Continuous
 62
     7
100
AcDbLine
 10
106.9086820312
 20
199.0804617682
 30
0.0
 11
112.9086820312
 21
199.0804617682
 31
0.0
  0
LINE
  5
4F0
330
208
100
AcDbEntity
  8
0
  6
Continuous
 62
     7
100
AcDbLine
 10
119.4086820312
 20
199.0804617682
 30
0.0
 11
125.4086820312
 21
199.0804617682
 31
0.0
  0
LINE
  5
4F1
330
208
100
AcDbEntity
  8
0
  6
Continuous
 62
     7
100
AcDbLine
 10
131.9086820312
 20
199.0804617682
 30
0.0
 11
137.9086820312
 21
199.0804617682
 31
0.0
  0
LINE
  5
4F2
330
208
100
AcDbEntity
  8
0
  6
Continuous
 62
     7
100
AcDbLine
 10
144.4086820312
 20
199.0804617682
 30
0.0
 11
150.4086820312
 21
199.0804617682
 31
0.0
  0
LINE
  5
4F3
330
208
100
AcDbEntity
  8
0
  6
Continuous
 62
     7
100
AcDbLine
 10
156.9086820312
 20
199.0804617682
 30
0.0
 11
162.9086820312
 21
199.0804617682
 31
0.0
  0
LINE
  5
4F4
330
208
100
AcDbEntity
  8
0
  6
Continuous
 62
     7
100
AcDbLine
 10
169.4086820312
 20
199.0804617682
 30
0.0
 11
175.4086820312
 21
199.0804617682
 31
0.0
  0
LINE
  5
4F5
330
208
100
AcDbEntity
  8
0
  6
Continuous
 62
     7
100
AcDbLine
 10
181.9086820312
 20
199.0804617682
 30
0.0
 11
187.9086820312
 21
199.0804617682
 31
0.0
  0
LINE
  5
4F6
330
208
100
AcDbEntity
  8
0
  6
Continuous
 62
     7
100
AcDbLine
 10
194.4086820312
 20
199.0804617682
 30
0.0
 11
200.4086820312
 21
199.0804617682
 31
0.0
  0
LINE
  5
4F7
330
208
100
AcDbEntity
  8
0
  6
Continuous
 62
     7
100
AcDbLine
 10
206.9086820312
 20
199.0804617682
 30
0.0
 11
212.9086820312
 21
199.0804617682
 31
0.0
  0
LINE
  5
4F8
330
208
100
AcDbEntity
  8
0
  6
Continuous
 62
     7
100
AcDbLine
 10
219.4086820312
 20
199.0804617682
 30
0.0
 11
225.4086820312
 21
199.0804617682
 31
0.0
  0
LINE
  5
4F9
330
208
100
AcDbEntity
  8
0
  6
Continuous
 62
     7
100
AcDbLine
 10
231.9086820312
 20
199.0804617682
 30
0.0
 11
237.9086820312
 21
199.0804617682
 31
0.0
  0
LINE
  5
4FA
330
208
100
AcDbEntity
  8
0
  6
Continuous
 62
     7
100
AcDbLine
 10
244.4086820312
 20
199.0804617682
 30
0.0
 11
250.4086820312
 21
199.0804617682
 31
0.0
  0
LINE
  5
4FB
330
208
100
AcDbEntity
  8
0
  6
Continuous
 62
     7
100
AcDbLine
 10
256.9086820312
 20
199.0804617682
 30
0.0
 11
262.9086820312
 21
199.0804617682
 31
0.0
  0
LINE
  5
4FC
330
208
100
AcDbEntity
  8
0
  6
Continuous
 62
     7
100
AcDbLine
 10
269.4086820312
 20
199.0804617682
 30
0.0
 11
275.4086820312
 21
199.0804617682
 31
0.0
  0
LINE
  5
4FD
330
208
100
AcDbEntity
  8
0
  6
Continuous
 62
     7
100
AcDbLine
 10
281.9086820312
 20
199.0804617682
 30
0.0
 11
287.9086820312
 21
199.0804617682
 31
0.0
  0
LINE
  5
4FE
330
208
100
AcDbEntity
  8
0
  6
Continuous
 62
     7
100
AcDbLine
 10
294.4086820312
 20
199.0804617682
 30
0.0
 11
300.4086820312
 21
199.0804617682
 31
0.0
  0
LINE
  5
4FF
330
208
100
AcDbEntity
  8
0
  6
Continuous
 62
     7
100
AcDbLine
 10
306.9086820312
 20
199.0804617682
 30
0.0
 11
312.9086820312
 21
199.0804617682
 31
0.0
  0
LINE
  5
500
330
208
100
AcDbEntity
  8
0
  6
Continuous
 62
     7
100
AcDbLine
 10
319.4086820312
 20
199.0804617682
 30
0.0
 11
325.4086820312
 21
199.0804617682
 31
0.0
  0
LINE
  5
501
330
208
100
AcDbEntity
  8
0
  6
Continuous
 62
     7
100
AcDbLine
 10
331.9086820312
 20
199.0804617682
 30
0.0
 11
337.9086820312
 21
199.0804617682
 31
0.0
  0
LINE
  5
502
330
208
100
AcDbEntity
  8
0
  6
Continuous
 62
     7
100
AcDbLine
 10
344.4086820312
 20
199.0804617682
 30
0.0
 11
350.4086820312001
 21
199.0804617682
 31
0.0
  0
LINE
  5
503
330
208
100
AcDbEntity
  8
0
  6
Continuous
 62
     7
100
AcDbLine
 10
356.9086820312
 20
199.0804617682
 30
0.0
 11
362.9086820312001
 21
199.0804617682
 31
0.0
  0
LINE
  5
504
330
208
100
AcDbEntity
  8
0
  6
Continuous
 62
     7
100
AcDbLine
 10
369.4086820312
 20
199.0804617682
 30
0.0
 11
375.4086820312001
 21
199.0804617682
 31
0.0
  0
LINE
  5
505
330
208
100
AcDbEntity
  8
0
  6
Continuous
 62
     7
100
AcDbLine
 10
381.9086820312
 20
199.0804617682
 30
0.0
 11
387.9086820312
 21
199.0804617682
 31
0.0
  0
LINE
  5
506
330
208
100
AcDbEntity
  8
0
  6
Continuous
 62
     7
100
AcDbLine
 10
394.4086820312
 20
199.0804617682
 30
0.0
 11
400.4086820312
 21
199.0804617682
 31
0.0
  0
LINE
  5
507
330
208
100
AcDbEntity
  8
0
  6
Continuous
 62
     7
100
AcDbLine
 10
406.9086820312
 20
199.0804617682
 30
0.0
 11
412.9086820312
 21
199.0804617682
 31
0.0
  0
LINE
  5
508
330
208
100
AcDbEntity
  8
0
  6
Continuous
 62
     7
100
AcDbLine
 10
419.4086820312
 20
199.0804617682
 30
0.0
 11
425.4086820312
 21
199.0804617682
 31
0.0
  0
LINE
  5
509
330
208
100
AcDbEntity
  8
0
  6
Continuous
 62
     7
100
AcDbLine
 10
431.9086820312
 20
199.0804617682
 30
0.0
 11
437.9086820312
 21
199.0804617682
 31
0.0
  0
LINE
  5
50A
330
208
100
AcDbEntity
  8
0
  6
Continuous
 62
     7
100
AcDbLine
 10
444.4086820312
 20
199.0804617682
 30
0.0
 11
450.4086820312
 21
199.0804617682
 31
0.0
  0
LINE
  5
50B
330
208
100
AcDbEntity
  8
0
  6
Continuous
 62
     7
100
AcDbLine
 10
456.9086820312
 20
199.0804617682
 30
0.0
 11
462.9086820312
 21
199.0804617682
 31
0.0
  0
LINE
  5
50C
330
208
100
AcDbEntity
  8
0
  6
Continuous
 62
     7
100
AcDbLine
 10
469.4086820312
 20
199.0804617682
 30
0.0
 11
475.4086820312
 21
199.0804617682
 31
0.0
  0
LINE
  5
50D
330
208
100
AcDbEntity
  8
0
  6
Continuous
 62
     7
100
AcDbLine
 10
481.9086820312
 20
199.0804617682
 30
0.0
 11
487.9086820312
 21
199.0804617682
 31
0.0
  0
LINE
  5
50E
330
208
100
AcDbEntity
  8
0
  6
Continuous
 62
     7
100
AcDbLine
 10
494.4086820312
 20
199.0804617682
 30
0.0
 11
500.4086820312
 21
199.0804617682
 31
0.0
  0
LINE
  5
50F
330
208
100
AcDbEntity
  8
0
  6
Continuous
 62
     7
100
AcDbLine
 10
506.9086820312
 20
199.0804617682
 30
0.0
 11
512.9086820311997
 21
199.0804617682
 31
0.0
  0
LINE
  5
510
330
208
100
AcDbEntity
  8
0
  6
Continuous
 62
     7
100
AcDbLine
 10
519.4086820312
 20
199.0804617682
 30
0.0
 11
525.4086820311997
 21
199.0804617682
 31
0.0
  0
LINE
  5
511
330
208
100
AcDbEntity
  8
0
  6
Continuous
 62
     7
100
AcDbLine
 10
531.9086820312
 20
199.0804617682
 30
0.0
 11
537.9086820311997
 21
199.0804617682
 31
0.0
  0
LINE
  5
512
330
208
100
AcDbEntity
  8
0
  6
Continuous
 62
     7
100
AcDbLine
 10
544.4086820312
 20
199.0804617682
 30
0.0
 11
550.4086820311997
 21
199.0804617682
 31
0.0
  0
LINE
  5
513
330
208
100
AcDbEntity
  8
0
  6
Continuous
 62
     7
100
AcDbLine
 10
556.9086820312
 20
199.0804617682
 30
0.0
 11
562.9086820311997
 21
199.0804617682
 31
0.0
  0
LINE
  5
514
330
208
100
AcDbEntity
  8
0
  6
Continuous
 62
     7
100
AcDbLine
 10
569.4086820312
 20
199.0804617682
 30
0.0
 11
575.4086820311997
 21
199.0804617682
 31
0.0
  0
LINE
  5
515
330
208
100
AcDbEntity
  8
0
  6
Continuous
 62
     7
100
AcDbLine
 10
581.9086820312
 20
199.0804617682
 30
0.0
 11
587.9086820311997
 21
199.0804617682
 31
0.0
  0
LINE
  5
516
330
208
100
AcDbEntity
  8
0
  6
Continuous
 62
     7
100
AcDbLine
 10
594.4086820312
 20
199.0804617682
 30
0.0
 11
600.4086820311997
 21
199.0804617682
 31
0.0
  0
LINE
  5
517
330
208
100
AcDbEntity
  8
0
  6
Continuous
 62
     7
100
AcDbLine
 10
606.9086820312
 20
199.0804617682
 30
0.0
 11
612.9086820311997
 21
199.0804617682
 31
0.0
  0
LINE
  5
518
330
208
100
AcDbEntity
  8
0
  6
Continuous
 62
     7
100
AcDbLine
 10
619.4086820312
 20
199.0804617682
 30
0.0
 11
625.4086820311997
 21
199.0804617682
 31
0.0
  0
LINE
  5
519
330
208
100
AcDbEntity
  8
0
  6
Continuous
 62
     7
100
AcDbLine
 10
631.9086820312
 20
199.0804617682
 30
0.0
 11
637.9086820311997
 21
199.0804617682
 31
0.0
  0
LINE
  5
51A
330
208
100
AcDbEntity
  8
0
  6
Continuous
 62
     7
100
AcDbLine
 10
644.4086820312
 20
199.0804617682
 30
0.0
 11
650.4086820311997
 21
199.0804617682
 31
0.0
  0
LINE
  5
51B
330
208
100
AcDbEntity
  8
0
  6
Continuous
 62
     7
100
AcDbLine
 10
650.4086820311997
 20
205.5804617682
 30
0.0
 11
644.4086820312
 21
205.5804617682
 31
0.0
  0
LINE
  5
51C
330
208
100
AcDbEntity
  8
0
  6
Continuous
 62
     7
100
AcDbLine
 10
637.9086820311997
 20
205.5804617682
 30
0.0
 11
631.9086820312
 21
205.5804617682
 31
0.0
  0
LINE
  5
51D
330
208
100
AcDbEntity
  8
0
  6
Continuous
 62
     7
100
AcDbLine
 10
625.4086820311997
 20
205.5804617682
 30
0.0
 11
619.4086820312
 21
205.5804617682
 31
0.0
  0
LINE
  5
51E
330
208
100
AcDbEntity
  8
0
  6
Continuous
 62
     7
100
AcDbLine
 10
612.9086820311997
 20
205.5804617682
 30
0.0
 11
606.9086820312
 21
205.5804617682
 31
0.0
  0
LINE
  5
51F
330
208
100
AcDbEntity
  8
0
  6
Continuous
 62
     7
100
AcDbLine
 10
600.4086820311997
 20
205.5804617682
 30
0.0
 11
594.4086820312
 21
205.5804617682
 31
0.0
  0
LINE
  5
520
330
208
100
AcDbEntity
  8
0
  6
Continuous
 62
     7
100
AcDbLine
 10
587.9086820311997
 20
205.5804617682
 30
0.0
 11
581.9086820312
 21
205.5804617682
 31
0.0
  0
LINE
  5
521
330
208
100
AcDbEntity
  8
0
  6
Continuous
 62
     7
100
AcDbLine
 10
575.4086820311997
 20
205.5804617682
 30
0.0
 11
569.4086820312
 21
205.5804617682
 31
0.0
  0
LINE
  5
522
330
208
100
AcDbEntity
  8
0
  6
Continuous
 62
     7
100
AcDbLine
 10
562.9086820311997
 20
205.5804617682
 30
0.0
 11
556.9086820312
 21
205.5804617682
 31
0.0
  0
LINE
  5
523
330
208
100
AcDbEntity
  8
0
  6
Continuous
 62
     7
100
AcDbLine
 10
550.4086820311997
 20
205.5804617682
 30
0.0
 11
544.4086820312
 21
205.5804617682
 31
0.0
  0
LINE
  5
524
330
208
100
AcDbEntity
  8
0
  6
Continuous
 62
     7
100
AcDbLine
 10
537.9086820311997
 20
205.5804617682
 30
0.0
 11
531.9086820312
 21
205.5804617682
 31
0.0
  0
LINE
  5
525
330
208
100
AcDbEntity
  8
0
  6
Continuous
 62
     7
100
AcDbLine
 10
525.4086820311997
 20
205.5804617682
 30
0.0
 11
519.4086820312
 21
205.5804617682
 31
0.0
  0
LINE
  5
526
330
208
100
AcDbEntity
  8
0
  6
Continuous
 62
     7
100
AcDbLine
 10
512.9086820311997
 20
205.5804617682
 30
0.0
 11
506.9086820312
 21
205.5804617682
 31
0.0
  0
LINE
  5
527
330
208
100
AcDbEntity
  8
0
  6
Continuous
 62
     7
100
AcDbLine
 10
500.4086820312
 20
205.5804617682
 30
0.0
 11
494.4086820312
 21
205.5804617682
 31
0.0
  0
LINE
  5
528
330
208
100
AcDbEntity
  8
0
  6
Continuous
 62
     7
100
AcDbLine
 10
487.9086820312
 20
205.5804617682
 30
0.0
 11
481.9086820312
 21
205.5804617682
 31
0.0
  0
LINE
  5
529
330
208
100
AcDbEntity
  8
0
  6
Continuous
 62
     7
100
AcDbLine
 10
475.4086820312
 20
205.5804617682
 30
0.0
 11
469.4086820312
 21
205.5804617682
 31
0.0
  0
LINE
  5
52A
330
208
100
AcDbEntity
  8
0
  6
Continuous
 62
     7
100
AcDbLine
 10
462.9086820312
 20
205.5804617682
 30
0.0
 11
456.9086820312
 21
205.5804617682
 31
0.0
  0
LINE
  5
52B
330
208
100
AcDbEntity
  8
0
  6
Continuous
 62
     7
100
AcDbLine
 10
450.4086820312
 20
205.5804617682
 30
0.0
 11
444.4086820312
 21
205.5804617682
 31
0.0
  0
LINE
  5
52C
330
208
100
AcDbEntity
  8
0
  6
Continuous
 62
     7
100
AcDbLine
 10
437.9086820312
 20
205.5804617682
 30
0.0
 11
431.9086820312
 21
205.5804617682
 31
0.0
  0
LINE
  5
52D
330
208
100
AcDbEntity
  8
0
  6
Continuous
 62
     7
100
AcDbLine
 10
425.4086820312
 20
205.5804617682
 30
0.0
 11
419.4086820312
 21
205.5804617682
 31
0.0
  0
LINE
  5
52E
330
208
100
AcDbEntity
  8
0
  6
Continuous
 62
     7
100
AcDbLine
 10
412.9086820312
 20
205.5804617682
 30
0.0
 11
406.9086820312
 21
205.5804617682
 31
0.0
  0
LINE
  5
52F
330
208
100
AcDbEntity
  8
0
  6
Continuous
 62
     7
100
AcDbLine
 10
400.4086820312
 20
205.5804617682
 30
0.0
 11
394.4086820312
 21
205.5804617682
 31
0.0
  0
LINE
  5
530
330
208
100
AcDbEntity
  8
0
  6
Continuous
 62
     7
100
AcDbLine
 10
387.9086820312
 20
205.5804617682
 30
0.0
 11
381.9086820312
 21
205.5804617682
 31
0.0
  0
LINE
  5
531
330
208
100
AcDbEntity
  8
0
  6
Continuous
 62
     7
100
AcDbLine
 10
375.4086820312001
 20
205.5804617682
 30
0.0
 11
369.4086820312
 21
205.5804617682
 31
0.0
  0
LINE
  5
532
330
208
100
AcDbEntity
  8
0
  6
Continuous
 62
     7
100
AcDbLine
 10
362.9086820312001
 20
205.5804617682
 30
0.0
 11
356.9086820312
 21
205.5804617682
 31
0.0
  0
LINE
  5
533
330
208
100
AcDbEntity
  8
0
  6
Continuous
 62
     7
100
AcDbLine
 10
350.4086820312001
 20
205.5804617682
 30
0.0
 11
344.4086820312
 21
205.5804617682
 31
0.0
  0
LINE
  5
534
330
208
100
AcDbEntity
  8
0
  6
Continuous
 62
     7
100
AcDbLine
 10
337.9086820312
 20
205.5804617682
 30
0.0
 11
331.9086820312
 21
205.5804617682
 31
0.0
  0
LINE
  5
535
330
208
100
AcDbEntity
  8
0
  6
Continuous
 62
     7
100
AcDbLine
 10
325.4086820312
 20
205.5804617682
 30
0.0
 11
319.4086820312
 21
205.5804617682
 31
0.0
  0
LINE
  5
536
330
208
100
AcDbEntity
  8
0
  6
Continuous
 62
     7
100
AcDbLine
 10
312.9086820312
 20
205.5804617682
 30
0.0
 11
306.9086820312
 21
205.5804617682
 31
0.0
  0
LINE
  5
537
330
208
100
AcDbEntity
  8
0
  6
Continuous
 62
     7
100
AcDbLine
 10
300.4086820312
 20
205.5804617682
 30
0.0
 11
294.4086820312
 21
205.5804617682
 31
0.0
  0
LINE
  5
538
330
208
100
AcDbEntity
  8
0
  6
Continuous
 62
     7
100
AcDbLine
 10
287.9086820312
 20
205.5804617682
 30
0.0
 11
281.9086820312
 21
205.5804617682
 31
0.0
  0
LINE
  5
539
330
208
100
AcDbEntity
  8
0
  6
Continuous
 62
     7
100
AcDbLine
 10
275.4086820312
 20
205.5804617682
 30
0.0
 11
269.4086820312
 21
205.5804617682
 31
0.0
  0
LINE
  5
53A
330
208
100
AcDbEntity
  8
0
  6
Continuous
 62
     7
100
AcDbLine
 10
262.9086820312
 20
205.5804617682
 30
0.0
 11
256.9086820312
 21
205.5804617682
 31
0.0
  0
LINE
  5
53B
330
208
100
AcDbEntity
  8
0
  6
Continuous
 62
     7
100
AcDbLine
 10
250.4086820312
 20
205.5804617682
 30
0.0
 11
244.4086820312
 21
205.5804617682
 31
0.0
  0
LINE
  5
53C
330
208
100
AcDbEntity
  8
0
  6
Continuous
 62
     7
100
AcDbLine
 10
237.9086820312
 20
205.5804617682
 30
0.0
 11
231.9086820312
 21
205.5804617682
 31
0.0
  0
LINE
  5
53D
330
208
100
AcDbEntity
  8
0
  6
Continuous
 62
     7
100
AcDbLine
 10
225.4086820312
 20
205.5804617682
 30
0.0
 11
219.4086820312
 21
205.5804617682
 31
0.0
  0
LINE
  5
53E
330
208
100
AcDbEntity
  8
0
  6
Continuous
 62
     7
100
AcDbLine
 10
212.9086820312
 20
205.5804617682
 30
0.0
 11
206.9086820312
 21
205.5804617682
 31
0.0
  0
LINE
  5
53F
330
208
100
AcDbEntity
  8
0
  6
Continuous
 62
     7
100
AcDbLine
 10
200.4086820312
 20
205.5804617682
 30
0.0
 11
194.4086820312
 21
205.5804617682
 31
0.0
  0
LINE
  5
540
330
208
100
AcDbEntity
  8
0
  6
Continuous
 62
     7
100
AcDbLine
 10
187.9086820312
 20
205.5804617682
 30
0.0
 11
181.9086820312
 21
205.5804617682
 31
0.0
  0
LINE
  5
541
330
208
100
AcDbEntity
  8
0
  6
Continuous
 62
     7
100
AcDbLine
 10
175.4086820312
 20
205.5804617682
 30
0.0
 11
169.4086820312
 21
205.5804617682
 31
0.0
  0
LINE
  5
542
330
208
100
AcDbEntity
  8
0
  6
Continuous
 62
     7
100
AcDbLine
 10
162.9086820312
 20
205.5804617682
 30
0.0
 11
156.9086820312
 21
205.5804617682
 31
0.0
  0
LINE
  5
543
330
208
100
AcDbEntity
  8
0
  6
Continuous
 62
     7
100
AcDbLine
 10
150.4086820312
 20
205.5804617682
 30
0.0
 11
144.4086820312
 21
205.5804617682
 31
0.0
  0
LINE
  5
544
330
208
100
AcDbEntity
  8
0
  6
Continuous
 62
     7
100
AcDbLine
 10
137.9086820312
 20
205.5804617682
 30
0.0
 11
131.9086820312
 21
205.5804617682
 31
0.0
  0
LINE
  5
545
330
208
100
AcDbEntity
  8
0
  6
Continuous
 62
     7
100
AcDbLine
 10
125.4086820312
 20
205.5804617682
 30
0.0
 11
119.4086820312
 21
205.5804617682
 31
0.0
  0
LINE
  5
546
330
208
100
AcDbEntity
  8
0
  6
Continuous
 62
     7
100
AcDbLine
 10
112.9086820312
 20
205.5804617682
 30
0.0
 11
106.9086820312
 21
205.5804617682
 31
0.0
  0
LINE
  5
547
330
208
100
AcDbEntity
  8
0
  6
Continuous
 62
     7
100
AcDbLine
 10
100.4086820312
 20
205.5804617682
 30
0.0
 11
94.4086820312
 21
205.5804617682
 31
0.0
  0
LINE
  5
548
330
208
100
AcDbEntity
  8
0
  6
Continuous
 62
     7
100
AcDbLine
 10
87.9086820312
 20
205.5804617682
 30
0.0
 11
81.9086820312
 21
205.5804617682
 31
0.0
  0
LINE
  5
549
330
208
100
AcDbEntity
  8
0
  6
Continuous
 62
     7
100
AcDbLine
 10
75.4086820312
 20
205.5804617682
 30
0.0
 11
69.4086820312
 21
205.5804617682
 31
0.0
  0
LINE
  5
54A
330
208
100
AcDbEntity
  8
0
  6
Continuous
 62
     7
100
AcDbLine
 10
62.9086820312
 20
205.5804617682
 30
0.0
 11
56.9086820312
 21
205.5804617682
 31
0.0
  0
LINE
  5
54B
330
208
100
AcDbEntity
  8
0
  6
Continuous
 62
     7
100
AcDbLine
 10
50.4086820312
 20
205.5804617682
 30
0.0
 11
44.40868203119999
 21
205.5804617682
 31
0.0
  0
LINE
  5
54C
330
208
100
AcDbEntity
  8
0
  6
Continuous
 62
     7
100
AcDbLine
 10
37.9086820312
 20
205.5804617682
 30
0.0
 11
31.9086820312
 21
205.5804617682
 31
0.0
  0
LINE
  5
54D
330
208
100
AcDbEntity
  8
0
  6
Continuous
 62
     7
100
AcDbLine
 10
25.4086820312
 20
205.5804617682
 30
0.0
 11
19.4086820312
 21
205.5804617682
 31
0.0
  0
LINE
  5
54E
330
208
100
AcDbEntity
  8
0
  6
Continuous
 62
     7
100
AcDbLine
 10
12.9086820312
 20
205.5804617682
 30
0.0
 11
6.908682031199997
 21
205.5804617682
 31
0.0
  0
LINE
  5
54F
330
208
100
AcDbEntity
  8
0
  6
Continuous
 62
     7
100
AcDbLine
 10
0.4086820312
 20
205.5804617682
 30
0.0
 11
-5.5913179688
 21
205.5804617682
 31
0.0
  0
LINE
  5
550
330
208
100
AcDbEntity
  8
0
  6
Continuous
 62
     7
100
AcDbLine
 10
-12.0913179688
 20
205.5804617682
 30
0.0
 11
-18.0913179688
 21
205.5804617682
 31
0.0
  0
LINE
  5
551
330
208
100
AcDbEntity
  8
0
  6
Continuous
 62
     7
100
AcDbLine
 10
-24.5913179688
 20
205.5804617682
 30
0.0
 11
-30.5913179688
 21
205.5804617682
 31
0.0
  0
LINE
  5
552
330
208
100
AcDbEntity
  8
0
  6
Continuous
 62
     7
100
AcDbLine
 10
-37.0913179688
 20
205.5804617682
 30
0.0
 11
-43.0913179688
 21
205.5804617682
 31
0.0
  0
LINE
  5
553
330
208
100
AcDbEntity
  8
0
  6
Continuous
 62
     7
100
AcDbLine
 10
-49.5913179688
 20
205.5804617682
 30
0.0
 11
-55.5913179688
 21
205.5804617682
 31
0.0
  0
LINE
  5
554
330
208
100
AcDbEntity
  8
0
  6
Continuous
 62
     7
100
AcDbLine
 10
-62.0913179688
 20
205.5804617682
 30
0.0
 11
-68.0913179688
 21
205.5804617682
 31
0.0
  0
LINE
  5
555
330
208
100
AcDbEntity
  8
0
  6
Continuous
 62
     7
100
AcDbLine
 10
-74.5913179688
 20
205.5804617682
 30
0.0
 11
-80.5913179688
 21
205.5804617682
 31
0.0
  0
LINE
  5
556
330
208
100
AcDbEntity
  8
0
  6
Continuous
 62
     7
100
AcDbLine
 10
-87.09131796879999
 20
205.5804617682
 30
0.0
 11
-93.0913179688
 21
205.5804617682
 31
0.0
  0
LINE
  5
557
330
208
100
AcDbEntity
  8
0
  6
Continuous
 62
     7
100
AcDbLine
 10
-99.59131796880001
 20
205.5804617682
 30
0.0
 11
-105.5913179688
 21
205.5804617682
 31
0.0
  0
LINE
  5
558
330
208
100
AcDbEntity
  8
0
  6
Continuous
 62
     7
100
AcDbLine
 10
-112.0913179688
 20
205.5804617682
 30
0.0
 11
-118.0913179688
 21
205.5804617682
 31
0.0
  0
LINE
  5
559
330
208
100
AcDbEntity
  8
0
  6
Continuous
 62
     7
100
AcDbLine
 10
-124.5913179688
 20
205.5804617682
 30
0.0
 11
-130.5913179688
 21
205.5804617682
 31
0.0
  0
LINE
  5
55A
330
208
100
AcDbEntity
  8
0
  6
Continuous
 62
     7
100
AcDbLine
 10
-137.0913179688
 20
205.5804617682
 30
0.0
 11
-143.0913179688
 21
205.5804617682
 31
0.0
  0
LINE
  5
55B
330
208
100
AcDbEntity
  8
0
  6
Continuous
 62
     7
100
AcDbLine
 10
-149.5913179688
 20
205.5804617682
 30
0.0
 11
-155.5913179688
 21
205.5804617682
 31
0.0
  0
LINE
  5
55C
330
208
100
AcDbEntity
  8
0
  6
Continuous
 62
     7
100
AcDbLine
 10
-162.0913179688
 20
205.5804617682
 30
0.0
 11
-168.0913179688
 21
205.5804617682
 31
0.0
  0
LINE
  5
55D
330
208
100
AcDbEntity
  8
0
  6
Continuous
 62
     7
100
AcDbLine
 10
-174.5913179688
 20
205.5804617682
 30
0.0
 11
-180.5913179688
 21
205.5804617682
 31
0.0
  0
LINE
  5
55E
330
208
100
AcDbEntity
  8
0
  6
Continuous
 62
     7
100
AcDbLine
 10
-187.0913179688
 20
205.5804617682
 30
0.0
 11
-193.0913179688
 21
205.5804617682
 31
0.0
  0
LINE
  5
55F
330
208
100
AcDbEntity
  8
0
  6
Continuous
 62
     7
100
AcDbLine
 10
-199.5913179688
 20
205.5804617682
 30
0.0
 11
-205.5913179688
 21
205.5804617682
 31
0.0
  0
LINE
  5
560
330
208
100
AcDbEntity
  8
0
  6
Continuous
 62
     7
100
AcDbLine
 10
-212.0913179688
 20
205.5804617682
 30
0.0
 11
-218.0913179688
 21
205.5804617682
 31
0.0
  0
LINE
  5
561
330
208
100
AcDbEntity
  8
0
  6
Continuous
 62
     7
100
AcDbLine
 10
-218.0913179688
 20
211.5804617682
 30
0.0
 11
-212.0913179688
 21
211.5804617682
 31
0.0
  0
LINE
  5
562
330
208
100
AcDbEntity
  8
0
  6
Continuous
 62
     7
100
AcDbLine
 10
-205.5913179688
 20
211.5804617682
 30
0.0
 11
-199.5913179688
 21
211.5804617682
 31
0.0
  0
LINE
  5
563
330
208
100
AcDbEntity
  8
0
  6
Continuous
 62
     7
100
AcDbLine
 10
-193.0913179688
 20
211.5804617682
 30
0.0
 11
-187.0913179688
 21
211.5804617682
 31
0.0
  0
LINE
  5
564
330
208
100
AcDbEntity
  8
0
  6
Continuous
 62
     7
100
AcDbLine
 10
-180.5913179688
 20
211.5804617682
 30
0.0
 11
-174.5913179688
 21
211.5804617682
 31
0.0
  0
LINE
  5
565
330
208
100
AcDbEntity
  8
0
  6
Continuous
 62
     7
100
AcDbLine
 10
-168.0913179688
 20
211.5804617682
 30
0.0
 11
-162.0913179688
 21
211.5804617682
 31
0.0
  0
LINE
  5
566
330
208
100
AcDbEntity
  8
0
  6
Continuous
 62
     7
100
AcDbLine
 10
-155.5913179688
 20
211.5804617682
 30
0.0
 11
-149.5913179688
 21
211.5804617682
 31
0.0
  0
LINE
  5
567
330
208
100
AcDbEntity
  8
0
  6
Continuous
 62
     7
100
AcDbLine
 10
-143.0913179688
 20
211.5804617682
 30
0.0
 11
-137.0913179688
 21
211.5804617682
 31
0.0
  0
LINE
  5
568
330
208
100
AcDbEntity
  8
0
  6
Continuous
 62
     7
100
AcDbLine
 10
-130.5913179688
 20
211.5804617682
 30
0.0
 11
-124.5913179688
 21
211.5804617682
 31
0.0
  0
LINE
  5
569
330
208
100
AcDbEntity
  8
0
  6
Continuous
 62
     7
100
AcDbLine
 10
-118.0913179688
 20
211.5804617682
 30
0.0
 11
-112.0913179688
 21
211.5804617682
 31
0.0
  0
LINE
  5
56A
330
208
100
AcDbEntity
  8
0
  6
Continuous
 62
     7
100
AcDbLine
 10
-105.5913179688
 20
211.5804617682
 30
0.0
 11
-99.59131796880001
 21
211.5804617682
 31
0.0
  0
LINE
  5
56B
330
208
100
AcDbEntity
  8
0
  6
Continuous
 62
     7
100
AcDbLine
 10
-93.0913179688
 20
211.5804617682
 30
0.0
 11
-87.09131796879999
 21
211.5804617682
 31
0.0
  0
LINE
  5
56C
330
208
100
AcDbEntity
  8
0
  6
Continuous
 62
     7
100
AcDbLine
 10
-80.5913179688
 20
211.5804617682
 30
0.0
 11
-74.5913179688
 21
211.5804617682
 31
0.0
  0
LINE
  5
56D
330
208
100
AcDbEntity
  8
0
  6
Continuous
 62
     7
100
AcDbLine
 10
-68.0913179688
 20
211.5804617682
 30
0.0
 11
-62.0913179688
 21
211.5804617682
 31
0.0
  0
LINE
  5
56E
330
208
100
AcDbEntity
  8
0
  6
Continuous
 62
     7
100
AcDbLine
 10
-55.5913179688
 20
211.5804617682
 30
0.0
 11
-49.5913179688
 21
211.5804617682
 31
0.0
  0
LINE
  5
56F
330
208
100
AcDbEntity
  8
0
  6
Continuous
 62
     7
100
AcDbLine
 10
-43.0913179688
 20
211.5804617682
 30
0.0
 11
-37.0913179688
 21
211.5804617682
 31
0.0
  0
LINE
  5
570
330
208
100
AcDbEntity
  8
0
  6
Continuous
 62
     7
100
AcDbLine
 10
-30.5913179688
 20
211.5804617682
 30
0.0
 11
-24.5913179688
 21
211.5804617682
 31
0.0
  0
LINE
  5
571
330
208
100
AcDbEntity
  8
0
  6
Continuous
 62
     7
100
AcDbLine
 10
-18.0913179688
 20
211.5804617682
 30
0.0
 11
-12.0913179688
 21
211.5804617682
 31
0.0
  0
LINE
  5
572
330
208
100
AcDbEntity
  8
0
  6
Continuous
 62
     7
100
AcDbLine
 10
-5.5913179688
 20
211.5804617682
 30
0.0
 11
0.4086820312
 21
211.5804617682
 31
0.0
  0
LINE
  5
573
330
208
100
AcDbEntity
  8
0
  6
Continuous
 62
     7
100
AcDbLine
 10
6.908682031199997
 20
211.5804617682
 30
0.0
 11
12.9086820312
 21
211.5804617682
 31
0.0
  0
LINE
  5
574
330
208
100
AcDbEntity
  8
0
  6
Continuous
 62
     7
100
AcDbLine
 10
19.4086820312
 20
211.5804617682
 30
0.0
 11
25.4086820312
 21
211.5804617682
 31
0.0
  0
LINE
  5
575
330
208
100
AcDbEntity
  8
0
  6
Continuous
 62
     7
100
AcDbLine
 10
31.9086820312
 20
211.5804617682
 30
0.0
 11
37.9086820312
 21
211.5804617682
 31
0.0
  0
LINE
  5
576
330
208
100
AcDbEntity
  8
0
  6
Continuous
 62
     7
100
AcDbLine
 10
44.40868203119999
 20
211.5804617682
 30
0.0
 11
50.4086820312
 21
211.5804617682
 31
0.0
  0
LINE
  5
577
330
208
100
AcDbEntity
  8
0
  6
Continuous
 62
     7
100
AcDbLine
 10
56.9086820312
 20
211.5804617682
 30
0.0
 11
62.9086820312
 21
211.5804617682
 31
0.0
  0
LINE
  5
578
330
208
100
AcDbEntity
  8
0
  6
Continuous
 62
     7
100
AcDbLine
 10
69.4086820312
 20
211.5804617682
 30
0.0
 11
75.4086820312
 21
211.5804617682
 31
0.0
  0
LINE
  5
579
330
208
100
AcDbEntity
  8
0
  6
Continuous
 62
     7
100
AcDbLine
 10
81.9086820312
 20
211.5804617682
 30
0.0
 11
87.9086820312
 21
211.5804617682
 31
0.0
  0
LINE
  5
57A
330
208
100
AcDbEntity
  8
0
  6
Continuous
 62
     7
100
AcDbLine
 10
94.4086820312
 20
211.5804617682
 30
0.0
 11
100.4086820312
 21
211.5804617682
 31
0.0
  0
LINE
  5
57B
330
208
100
AcDbEntity
  8
0
  6
Continuous
 62
     7
100
AcDbLine
 10
106.9086820312
 20
211.5804617682
 30
0.0
 11
112.9086820312
 21
211.5804617682
 31
0.0
  0
LINE
  5
57C
330
208
100
AcDbEntity
  8
0
  6
Continuous
 62
     7
100
AcDbLine
 10
119.4086820312
 20
211.5804617682
 30
0.0
 11
125.4086820312
 21
211.5804617682
 31
0.0
  0
LINE
  5
57D
330
208
100
AcDbEntity
  8
0
  6
Continuous
 62
     7
100
AcDbLine
 10
131.9086820312
 20
211.5804617682
 30
0.0
 11
137.9086820312
 21
211.5804617682
 31
0.0
  0
LINE
  5
57E
330
208
100
AcDbEntity
  8
0
  6
Continuous
 62
     7
100
AcDbLine
 10
144.4086820312
 20
211.5804617682
 30
0.0
 11
150.4086820312
 21
211.5804617682
 31
0.0
  0
LINE
  5
57F
330
208
100
AcDbEntity
  8
0
  6
Continuous
 62
     7
100
AcDbLine
 10
156.9086820312
 20
211.5804617682
 30
0.0
 11
162.9086820312
 21
211.5804617682
 31
0.0
  0
LINE
  5
580
330
208
100
AcDbEntity
  8
0
  6
Continuous
 62
     7
100
AcDbLine
 10
169.4086820312
 20
211.5804617682
 30
0.0
 11
175.4086820312
 21
211.5804617682
 31
0.0
  0
LINE
  5
581
330
208
100
AcDbEntity
  8
0
  6
Continuous
 62
     7
100
AcDbLine
 10
181.9086820312
 20
211.5804617682
 30
0.0
 11
187.9086820312
 21
211.5804617682
 31
0.0
  0
LINE
  5
582
330
208
100
AcDbEntity
  8
0
  6
Continuous
 62
     7
100
AcDbLine
 10
194.4086820312
 20
211.5804617682
 30
0.0
 11
200.4086820312
 21
211.5804617682
 31
0.0
  0
LINE
  5
583
330
208
100
AcDbEntity
  8
0
  6
Continuous
 62
     7
100
AcDbLine
 10
206.9086820312
 20
211.5804617682
 30
0.0
 11
212.9086820312
 21
211.5804617682
 31
0.0
  0
LINE
  5
584
330
208
100
AcDbEntity
  8
0
  6
Continuous
 62
     7
100
AcDbLine
 10
219.4086820312
 20
211.5804617682
 30
0.0
 11
225.4086820312
 21
211.5804617682
 31
0.0
  0
LINE
  5
585
330
208
100
AcDbEntity
  8
0
  6
Continuous
 62
     7
100
AcDbLine
 10
231.9086820312
 20
211.5804617682
 30
0.0
 11
237.9086820312
 21
211.5804617682
 31
0.0
  0
LINE
  5
586
330
208
100
AcDbEntity
  8
0
  6
Continuous
 62
     7
100
AcDbLine
 10
244.4086820312
 20
211.5804617682
 30
0.0
 11
250.4086820312
 21
211.5804617682
 31
0.0
  0
LINE
  5
587
330
208
100
AcDbEntity
  8
0
  6
Continuous
 62
     7
100
AcDbLine
 10
256.9086820312
 20
211.5804617682
 30
0.0
 11
262.9086820312
 21
211.5804617682
 31
0.0
  0
LINE
  5
588
330
208
100
AcDbEntity
  8
0
  6
Continuous
 62
     7
100
AcDbLine
 10
269.4086820312
 20
211.5804617682
 30
0.0
 11
275.4086820312
 21
211.5804617682
 31
0.0
  0
LINE
  5
589
330
208
100
AcDbEntity
  8
0
  6
Continuous
 62
     7
100
AcDbLine
 10
281.9086820312
 20
211.5804617682
 30
0.0
 11
287.9086820312
 21
211.5804617682
 31
0.0
  0
LINE
  5
58A
330
208
100
AcDbEntity
  8
0
  6
Continuous
 62
     7
100
AcDbLine
 10
294.4086820312
 20
211.5804617682
 30
0.0
 11
300.4086820312
 21
211.5804617682
 31
0.0
  0
LINE
  5
58B
330
208
100
AcDbEntity
  8
0
  6
Continuous
 62
     7
100
AcDbLine
 10
306.9086820312
 20
211.5804617682
 30
0.0
 11
312.9086820312
 21
211.5804617682
 31
0.0
  0
LINE
  5
58C
330
208
100
AcDbEntity
  8
0
  6
Continuous
 62
     7
100
AcDbLine
 10
319.4086820312
 20
211.5804617682
 30
0.0
 11
325.4086820312
 21
211.5804617682
 31
0.0
  0
LINE
  5
58D
330
208
100
AcDbEntity
  8
0
  6
Continuous
 62
     7
100
AcDbLine
 10
331.9086820312
 20
211.5804617682
 30
0.0
 11
337.9086820312
 21
211.5804617682
 31
0.0
  0
LINE
  5
58E
330
208
100
AcDbEntity
  8
0
  6
Continuous
 62
     7
100
AcDbLine
 10
344.4086820312
 20
211.5804617682
 30
0.0
 11
350.4086820312001
 21
211.5804617682
 31
0.0
  0
LINE
  5
58F
330
208
100
AcDbEntity
  8
0
  6
Continuous
 62
     7
100
AcDbLine
 10
356.9086820312
 20
211.5804617682
 30
0.0
 11
362.9086820312001
 21
211.5804617682
 31
0.0
  0
LINE
  5
590
330
208
100
AcDbEntity
  8
0
  6
Continuous
 62
     7
100
AcDbLine
 10
369.4086820312
 20
211.5804617682
 30
0.0
 11
375.4086820312001
 21
211.5804617682
 31
0.0
  0
LINE
  5
591
330
208
100
AcDbEntity
  8
0
  6
Continuous
 62
     7
100
AcDbLine
 10
381.9086820312
 20
211.5804617682
 30
0.0
 11
387.9086820312
 21
211.5804617682
 31
0.0
  0
LINE
  5
592
330
208
100
AcDbEntity
  8
0
  6
Continuous
 62
     7
100
AcDbLine
 10
394.4086820312
 20
211.5804617682
 30
0.0
 11
400.4086820312
 21
211.5804617682
 31
0.0
  0
LINE
  5
593
330
208
100
AcDbEntity
  8
0
  6
Continuous
 62
     7
100
AcDbLine
 10
406.9086820312
 20
211.5804617682
 30
0.0
 11
412.9086820312
 21
211.5804617682
 31
0.0
  0
LINE
  5
594
330
208
100
AcDbEntity
  8
0
  6
Continuous
 62
     7
100
AcDbLine
 10
419.4086820312
 20
211.5804617682
 30
0.0
 11
425.4086820312
 21
211.5804617682
 31
0.0
  0
LINE
  5
595
330
208
100
AcDbEntity
  8
0
  6
Continuous
 62
     7
100
AcDbLine
 10
431.9086820312
 20
211.5804617682
 30
0.0
 11
437.9086820312
 21
211.5804617682
 31
0.0
  0
LINE
  5
596
330
208
100
AcDbEntity
  8
0
  6
Continuous
 62
     7
100
AcDbLine
 10
444.4086820312
 20
211.5804617682
 30
0.0
 11
450.4086820312
 21
211.5804617682
 31
0.0
  0
LINE
  5
597
330
208
100
AcDbEntity
  8
0
  6
Continuous
 62
     7
100
AcDbLine
 10
456.9086820312
 20
211.5804617682
 30
0.0
 11
462.9086820312
 21
211.5804617682
 31
0.0
  0
LINE
  5
598
330
208
100
AcDbEntity
  8
0
  6
Continuous
 62
     7
100
AcDbLine
 10
469.4086820312
 20
211.5804617682
 30
0.0
 11
475.4086820312
 21
211.5804617682
 31
0.0
  0
LINE
  5
599
330
208
100
AcDbEntity
  8
0
  6
Continuous
 62
     7
100
AcDbLine
 10
481.9086820312
 20
211.5804617682
 30
0.0
 11
487.9086820312
 21
211.5804617682
 31
0.0
  0
LINE
  5
59A
330
208
100
AcDbEntity
  8
0
  6
Continuous
 62
     7
100
AcDbLine
 10
494.4086820312
 20
211.5804617682
 30
0.0
 11
500.4086820312
 21
211.5804617682
 31
0.0
  0
LINE
  5
59B
330
208
100
AcDbEntity
  8
0
  6
Continuous
 62
     7
100
AcDbLine
 10
506.9086820312
 20
211.5804617682
 30
0.0
 11
512.9086820311997
 21
211.5804617682
 31
0.0
  0
LINE
  5
59C
330
208
100
AcDbEntity
  8
0
  6
Continuous
 62
     7
100
AcDbLine
 10
519.4086820312
 20
211.5804617682
 30
0.0
 11
525.4086820311997
 21
211.5804617682
 31
0.0
  0
LINE
  5
59D
330
208
100
AcDbEntity
  8
0
  6
Continuous
 62
     7
100
AcDbLine
 10
531.9086820312
 20
211.5804617682
 30
0.0
 11
537.9086820311997
 21
211.5804617682
 31
0.0
  0
LINE
  5
59E
330
208
100
AcDbEntity
  8
0
  6
Continuous
 62
     7
100
AcDbLine
 10
544.4086820312
 20
211.5804617682
 30
0.0
 11
550.4086820311997
 21
211.5804617682
 31
0.0
  0
LINE
  5
59F
330
208
100
AcDbEntity
  8
0
  6
Continuous
 62
     7
100
AcDbLine
 10
556.9086820312
 20
211.5804617682
 30
0.0
 11
562.9086820311997
 21
211.5804617682
 31
0.0
  0
LINE
  5
5A0
330
208
100
AcDbEntity
  8
0
  6
Continuous
 62
     7
100
AcDbLine
 10
569.4086820312
 20
211.5804617682
 30
0.0
 11
575.4086820311997
 21
211.5804617682
 31
0.0
  0
LINE
  5
5A1
330
208
100
AcDbEntity
  8
0
  6
Continuous
 62
     7
100
AcDbLine
 10
581.9086820312
 20
211.5804617682
 30
0.0
 11
587.9086820311997
 21
211.5804617682
 31
0.0
  0
LINE
  5
5A2
330
208
100
AcDbEntity
  8
0
  6
Continuous
 62
     7
100
AcDbLine
 10
594.4086820312
 20
211.5804617682
 30
0.0
 11
600.4086820311997
 21
211.5804617682
 31
0.0
  0
LINE
  5
5A3
330
208
100
AcDbEntity
  8
0
  6
Continuous
 62
     7
100
AcDbLine
 10
606.9086820312
 20
211.5804617682
 30
0.0
 11
612.9086820311997
 21
211.5804617682
 31
0.0
  0
LINE
  5
5A4
330
208
100
AcDbEntity
  8
0
  6
Continuous
 62
     7
100
AcDbLine
 10
619.4086820312
 20
211.5804617682
 30
0.0
 11
625.4086820311997
 21
211.5804617682
 31
0.0
  0
LINE
  5
5A5
330
208
100
AcDbEntity
  8
0
  6
Continuous
 62
     7
100
AcDbLine
 10
631.9086820312
 20
211.5804617682
 30
0.0
 11
637.9086820311997
 21
211.5804617682
 31
0.0
  0
LINE
  5
5A6
330
208
100
AcDbEntity
  8
0
  6
Continuous
 62
     7
100
AcDbLine
 10
644.4086820312
 20
211.5804617682
 30
0.0
 11
650.4086820311997
 21
211.5804617682
 31
0.0
  0
LINE
  5
5A7
330
208
100
AcDbEntity
  8
BEZUGSACHSEN
  6
Continuous
 62
     9
100
AcDbLine
 10
-222.8413179688
 20
215.3735638659
 30
0.0
 11
655.1586820312
 21
215.3735638659
 31
0.0
  0
LINE
  5
5A8
330
208
100
AcDbEntity
  8
BEZUGSACHSEN
  6
Continuous
 62
     9
100
AcDbLine
 10
-222.8413179688
 20
216.3729259073
 30
0.0
 11
655.1586820312
 21
216.3729259073
 31
0.0
  0
LINE
  5
5A9
330
208
100
AcDbEntity
  8
0
  6
Continuous
 62
     7
100
AcDbLine
 10
-222.8413179688
 20
220.3317775818
 30
0.0
 11
655.1586820312
 21
220.3317775818
 31
0.0
  0
LINE
  5
5AA
330
208
100
AcDbEntity
  8
0
  6
Continuous
 62
     7
100
AcDbLine
 10
250.4086820312
 20
211.5804617682
 30
0.0
 11
250.4086820312
 21
205.5804617682
 31
0.0
  0
LINE
  5
5AB
330
208
100
AcDbEntity
  8
0
  6
Continuous
 62
     7
100
AcDbLine
 10
250.4086820312
 20
199.0804617682
 30
0.0
 11
250.4086820312
 21
193.0804617682
 31
0.0
  0
LINE
  5
5AC
330
208
100
AcDbEntity
  8
0
  6
Continuous
 62
     7
100
AcDbLine
 10
250.4086820312
 20
186.5804617682
 30
0.0
 11
250.4086820312
 21
180.5804617682
 31
0.0
  0
LINE
  5
5AD
330
208
100
AcDbEntity
  8
0
  6
Continuous
 62
     7
100
AcDbLine
 10
250.4086820312
 20
174.0804617682
 30
0.0
 11
250.4086820312
 21
168.0804617682
 31
0.0
  0
LINE
  5
5AE
330
208
100
AcDbEntity
  8
0
  6
Continuous
 62
     7
100
AcDbLine
 10
256.9086820312
 20
168.0804617682
 30
0.0
 11
256.9086820312
 21
174.0804617682
 31
0.0
  0
LINE
  5
5AF
330
208
100
AcDbEntity
  8
0
  6
Continuous
 62
     7
100
AcDbLine
 10
256.9086820312
 20
180.5804617682
 30
0.0
 11
256.9086820312
 21
186.5804617682
 31
0.0
  0
LINE
  5
5B0
330
208
100
AcDbEntity
  8
0
  6
Continuous
 62
     7
100
AcDbLine
 10
256.9086820312
 20
193.0804617682
 30
0.0
 11
256.9086820312
 21
199.0804617682
 31
0.0
  0
LINE
  5
5B1
330
208
100
AcDbEntity
  8
0
  6
Continuous
 62
     7
100
AcDbLine
 10
256.9086820312
 20
205.5804617682
 30
0.0
 11
256.9086820312
 21
211.5804617682
 31
0.0
  0
LINE
  5
5B2
330
208
100
AcDbEntity
  8
0
  6
Continuous
 62
     7
100
AcDbLine
 10
262.9086820312
 20
211.5804617682
 30
0.0
 11
262.9086820312
 21
205.5804617682
 31
0.0
  0
LINE
  5
5B3
330
208
100
AcDbEntity
  8
0
  6
Continuous
 62
     7
100
AcDbLine
 10
262.9086820312
 20
199.0804617682
 30
0.0
 11
262.9086820312
 21
193.0804617682
 31
0.0
  0
LINE
  5
5B4
330
208
100
AcDbEntity
  8
0
  6
Continuous
 62
     7
100
AcDbLine
 10
262.9086820312
 20
186.5804617682
 30
0.0
 11
262.9086820312
 21
180.5804617682
 31
0.0
  0
LINE
  5
5B5
330
208
100
AcDbEntity
  8
0
  6
Continuous
 62
     7
100
AcDbLine
 10
262.9086820312
 20
174.0804617682
 30
0.0
 11
262.9086820312
 21
168.0804617682
 31
0.0
  0
LINE
  5
5B6
330
208
100
AcDbEntity
  8
0
  6
Continuous
 62
     7
100
AcDbLine
 10
269.4086820312
 20
168.0804617682
 30
0.0
 11
269.4086820312
 21
174.0804617682
 31
0.0
  0
LINE
  5
5B7
330
208
100
AcDbEntity
  8
0
  6
Continuous
 62
     7
100
AcDbLine
 10
269.4086820312
 20
180.5804617682
 30
0.0
 11
269.4086820312
 21
186.5804617682
 31
0.0
  0
LINE
  5
5B8
330
208
100
AcDbEntity
  8
0
  6
Continuous
 62
     7
100
AcDbLine
 10
269.4086820312
 20
193.0804617682
 30
0.0
 11
269.4086820312
 21
199.0804617682
 31
0.0
  0
LINE
  5
5B9
330
208
100
AcDbEntity
  8
0
  6
Continuous
 62
     7
100
AcDbLine
 10
269.4086820312
 20
205.5804617682
 30
0.0
 11
269.4086820312
 21
211.5804617682
 31
0.0
  0
LINE
  5
5BA
330
208
100
AcDbEntity
  8
0
  6
Continuous
 62
     7
100
AcDbLine
 10
275.4086820312
 20
211.5804617682
 30
0.0
 11
275.4086820312
 21
205.5804617682
 31
0.0
  0
LINE
  5
5BB
330
208
100
AcDbEntity
  8
0
  6
Continuous
 62
     7
100
AcDbLine
 10
275.4086820312
 20
199.0804617682
 30
0.0
 11
275.4086820312
 21
193.0804617682
 31
0.0
  0
LINE
  5
5BC
330
208
100
AcDbEntity
  8
0
  6
Continuous
 62
     7
100
AcDbLine
 10
275.4086820312
 20
186.5804617682
 30
0.0
 11
275.4086820312
 21
180.5804617682
 31
0.0
  0
LINE
  5
5BD
330
208
100
AcDbEntity
  8
0
  6
Continuous
 62
     7
100
AcDbLine
 10
275.4086820312
 20
174.0804617682
 30
0.0
 11
275.4086820312
 21
168.0804617682
 31
0.0
  0
LINE
  5
5BE
330
208
100
AcDbEntity
  8
0
  6
Continuous
 62
     7
100
AcDbLine
 10
281.9086820312
 20
168.0804617682
 30
0.0
 11
281.9086820312
 21
174.0804617682
 31
0.0
  0
LINE
  5
5BF
330
208
100
AcDbEntity
  8
0
  6
Continuous
 62
     7
100
AcDbLine
 10
281.9086820312
 20
180.5804617682
 30
0.0
 11
281.9086820312
 21
186.5804617682
 31
0.0
  0
LINE
  5
5C0
330
208
100
AcDbEntity
  8
0
  6
Continuous
 62
     7
100
AcDbLine
 10
281.9086820312
 20
193.0804617682
 30
0.0
 11
281.9086820312
 21
199.0804617682
 31
0.0
  0
LINE
  5
5C1
330
208
100
AcDbEntity
  8
0
  6
Continuous
 62
     7
100
AcDbLine
 10
281.9086820312
 20
205.5804617682
 30
0.0
 11
281.9086820312
 21
211.5804617682
 31
0.0
  0
LINE
  5
5C2
330
208
100
AcDbEntity
  8
0
  6
Continuous
 62
     7
100
AcDbLine
 10
287.9086820312
 20
211.5804617682
 30
0.0
 11
287.9086820312
 21
205.5804617682
 31
0.0
  0
LINE
  5
5C3
330
208
100
AcDbEntity
  8
0
  6
Continuous
 62
     7
100
AcDbLine
 10
287.9086820312
 20
199.0804617682
 30
0.0
 11
287.9086820312
 21
193.0804617682
 31
0.0
  0
LINE
  5
5C4
330
208
100
AcDbEntity
  8
0
  6
Continuous
 62
     7
100
AcDbLine
 10
287.9086820312
 20
186.5804617682
 30
0.0
 11
287.9086820312
 21
180.5804617682
 31
0.0
  0
LINE
  5
5C5
330
208
100
AcDbEntity
  8
0
  6
Continuous
 62
     7
100
AcDbLine
 10
287.9086820312
 20
174.0804617682
 30
0.0
 11
287.9086820312
 21
168.0804617682
 31
0.0
  0
LINE
  5
5C6
330
208
100
AcDbEntity
  8
0
  6
Continuous
 62
     7
100
AcDbLine
 10
294.4086820312
 20
168.0804617682
 30
0.0
 11
294.4086820312
 21
174.0804617682
 31
0.0
  0
LINE
  5
5C7
330
208
100
AcDbEntity
  8
0
  6
Continuous
 62
     7
100
AcDbLine
 10
294.4086820312
 20
180.5804617682
 30
0.0
 11
294.4086820312
 21
186.5804617682
 31
0.0
  0
LINE
  5
5C8
330
208
100
AcDbEntity
  8
0
  6
Continuous
 62
     7
100
AcDbLine
 10
294.4086820312
 20
193.0804617682
 30
0.0
 11
294.4086820312
 21
199.0804617682
 31
0.0
  0
LINE
  5
5C9
330
208
100
AcDbEntity
  8
0
  6
Continuous
 62
     7
100
AcDbLine
 10
294.4086820312
 20
205.5804617682
 30
0.0
 11
294.4086820312
 21
211.5804617682
 31
0.0
  0
LINE
  5
5CA
330
208
100
AcDbEntity
  8
0
  6
Continuous
 62
     7
100
AcDbLine
 10
300.4086820312
 20
211.5804617682
 30
0.0
 11
300.4086820312
 21
205.5804617682
 31
0.0
  0
LINE
  5
5CB
330
208
100
AcDbEntity
  8
0
  6
Continuous
 62
     7
100
AcDbLine
 10
300.4086820312
 20
199.0804617682
 30
0.0
 11
300.4086820312
 21
193.0804617682
 31
0.0
  0
LINE
  5
5CC
330
208
100
AcDbEntity
  8
0
  6
Continuous
 62
     7
100
AcDbLine
 10
300.4086820312
 20
186.5804617682
 30
0.0
 11
300.4086820312
 21
180.5804617682
 31
0.0
  0
LINE
  5
5CD
330
208
100
AcDbEntity
  8
0
  6
Continuous
 62
     7
100
AcDbLine
 10
300.4086820312
 20
174.0804617682
 30
0.0
 11
300.4086820312
 21
168.0804617682
 31
0.0
  0
LINE
  5
5CE
330
208
100
AcDbEntity
  8
0
  6
Continuous
 62
     7
100
AcDbLine
 10
306.9086820312
 20
168.0804617682
 30
0.0
 11
306.9086820312
 21
174.0804617682
 31
0.0
  0
LINE
  5
5CF
330
208
100
AcDbEntity
  8
0
  6
Continuous
 62
     7
100
AcDbLine
 10
306.9086820312
 20
180.5804617682
 30
0.0
 11
306.9086820312
 21
186.5804617682
 31
0.0
  0
LINE
  5
5D0
330
208
100
AcDbEntity
  8
0
  6
Continuous
 62
     7
100
AcDbLine
 10
306.9086820312
 20
193.0804617682
 30
0.0
 11
306.9086820312
 21
199.0804617682
 31
0.0
  0
LINE
  5
5D1
330
208
100
AcDbEntity
  8
0
  6
Continuous
 62
     7
100
AcDbLine
 10
306.9086820312
 20
205.5804617682
 30
0.0
 11
306.9086820312
 21
211.5804617682
 31
0.0
  0
LINE
  5
5D2
330
208
100
AcDbEntity
  8
0
  6
Continuous
 62
     7
100
AcDbLine
 10
312.9086820312
 20
211.5804617682
 30
0.0
 11
312.9086820312
 21
205.5804617682
 31
0.0
  0
LINE
  5
5D3
330
208
100
AcDbEntity
  8
0
  6
Continuous
 62
     7
100
AcDbLine
 10
312.9086820312
 20
199.0804617682
 30
0.0
 11
312.9086820312
 21
193.0804617682
 31
0.0
  0
LINE
  5
5D4
330
208
100
AcDbEntity
  8
0
  6
Continuous
 62
     7
100
AcDbLine
 10
312.9086820312
 20
186.5804617682
 30
0.0
 11
312.9086820312
 21
180.5804617682
 31
0.0
  0
LINE
  5
5D5
330
208
100
AcDbEntity
  8
0
  6
Continuous
 62
     7
100
AcDbLine
 10
312.9086820312
 20
174.0804617682
 30
0.0
 11
312.9086820312
 21
168.0804617682
 31
0.0
  0
LINE
  5
5D6
330
208
100
AcDbEntity
  8
0
  6
Continuous
 62
     7
100
AcDbLine
 10
319.4086820312
 20
168.0804617682
 30
0.0
 11
319.4086820312
 21
174.0804617682
 31
0.0
  0
LINE
  5
5D7
330
208
100
AcDbEntity
  8
0
  6
Continuous
 62
     7
100
AcDbLine
 10
319.4086820312
 20
180.5804617682
 30
0.0
 11
319.4086820312
 21
186.5804617682
 31
0.0
  0
LINE
  5
5D8
330
208
100
AcDbEntity
  8
0
  6
Continuous
 62
     7
100
AcDbLine
 10
319.4086820312
 20
193.0804617682
 30
0.0
 11
319.4086820312
 21
199.0804617682
 31
0.0
  0
LINE
  5
5D9
330
208
100
AcDbEntity
  8
0
  6
Continuous
 62
     7
100
AcDbLine
 10
319.4086820312
 20
205.5804617682
 30
0.0
 11
319.4086820312
 21
211.5804617682
 31
0.0
  0
LINE
  5
5DA
330
208
100
AcDbEntity
  8
0
  6
Continuous
 62
     7
100
AcDbLine
 10
325.4086820312
 20
211.5804617682
 30
0.0
 11
325.4086820312
 21
205.5804617682
 31
0.0
  0
LINE
  5
5DB
330
208
100
AcDbEntity
  8
0
  6
Continuous
 62
     7
100
AcDbLine
 10
325.4086820312
 20
199.0804617682
 30
0.0
 11
325.4086820312
 21
193.0804617682
 31
0.0
  0
LINE
  5
5DC
330
208
100
AcDbEntity
  8
0
  6
Continuous
 62
     7
100
AcDbLine
 10
325.4086820312
 20
186.5804617682
 30
0.0
 11
325.4086820312
 21
180.5804617682
 31
0.0
  0
LINE
  5
5DD
330
208
100
AcDbEntity
  8
0
  6
Continuous
 62
     7
100
AcDbLine
 10
325.4086820312
 20
174.0804617682
 30
0.0
 11
325.4086820312
 21
168.0804617682
 31
0.0
  0
LINE
  5
5DE
330
208
100
AcDbEntity
  8
0
  6
Continuous
 62
     7
100
AcDbLine
 10
331.9086820312
 20
168.0804617682
 30
0.0
 11
331.9086820312
 21
174.0804617682
 31
0.0
  0
LINE
  5
5DF
330
208
100
AcDbEntity
  8
0
  6
Continuous
 62
     7
100
AcDbLine
 10
331.9086820312
 20
180.5804617682
 30
0.0
 11
331.9086820312
 21
186.5804617682
 31
0.0
  0
LINE
  5
5E0
330
208
100
AcDbEntity
  8
0
  6
Continuous
 62
     7
100
AcDbLine
 10
331.9086820312
 20
193.0804617682
 30
0.0
 11
331.9086820312
 21
199.0804617682
 31
0.0
  0
LINE
  5
5E1
330
208
100
AcDbEntity
  8
0
  6
Continuous
 62
     7
100
AcDbLine
 10
331.9086820312
 20
205.5804617682
 30
0.0
 11
331.9086820312
 21
211.5804617682
 31
0.0
  0
LINE
  5
5E2
330
208
100
AcDbEntity
  8
0
  6
Continuous
 62
     7
100
AcDbLine
 10
337.9086820312
 20
211.5804617682
 30
0.0
 11
337.9086820312
 21
205.5804617682
 31
0.0
  0
LINE
  5
5E3
330
208
100
AcDbEntity
  8
0
  6
Continuous
 62
     7
100
AcDbLine
 10
337.9086820312
 20
199.0804617682
 30
0.0
 11
337.9086820312
 21
193.0804617682
 31
0.0
  0
LINE
  5
5E4
330
208
100
AcDbEntity
  8
0
  6
Continuous
 62
     7
100
AcDbLine
 10
337.9086820312
 20
186.5804617682
 30
0.0
 11
337.9086820312
 21
180.5804617682
 31
0.0
  0
LINE
  5
5E5
330
208
100
AcDbEntity
  8
0
  6
Continuous
 62
     7
100
AcDbLine
 10
337.9086820312
 20
174.0804617682
 30
0.0
 11
337.9086820312
 21
168.0804617682
 31
0.0
  0
LINE
  5
5E6
330
208
100
AcDbEntity
  8
0
  6
Continuous
 62
     7
100
AcDbLine
 10
344.4086820312
 20
168.0804617682
 30
0.0
 11
344.4086820312
 21
174.0804617682
 31
0.0
  0
LINE
  5
5E7
330
208
100
AcDbEntity
  8
0
  6
Continuous
 62
     7
100
AcDbLine
 10
344.4086820312
 20
180.5804617682
 30
0.0
 11
344.4086820312
 21
186.5804617682
 31
0.0
  0
LINE
  5
5E8
330
208
100
AcDbEntity
  8
0
  6
Continuous
 62
     7
100
AcDbLine
 10
344.4086820312
 20
193.0804617682
 30
0.0
 11
344.4086820312
 21
199.0804617682
 31
0.0
  0
LINE
  5
5E9
330
208
100
AcDbEntity
  8
0
  6
Continuous
 62
     7
100
AcDbLine
 10
344.4086820312
 20
205.5804617682
 30
0.0
 11
344.4086820312
 21
211.5804617682
 31
0.0
  0
LINE
  5
5EA
330
208
100
AcDbEntity
  8
0
  6
Continuous
 62
     7
100
AcDbLine
 10
350.4086820312001
 20
211.5804617682
 30
0.0
 11
350.4086820312001
 21
205.5804617682
 31
0.0
  0
LINE
  5
5EB
330
208
100
AcDbEntity
  8
0
  6
Continuous
 62
     7
100
AcDbLine
 10
350.4086820312001
 20
199.0804617682
 30
0.0
 11
350.4086820312001
 21
193.0804617682
 31
0.0
  0
LINE
  5
5EC
330
208
100
AcDbEntity
  8
0
  6
Continuous
 62
     7
100
AcDbLine
 10
350.4086820312001
 20
186.5804617682
 30
0.0
 11
350.4086820312001
 21
180.5804617682
 31
0.0
  0
LINE
  5
5ED
330
208
100
AcDbEntity
  8
0
  6
Continuous
 62
     7
100
AcDbLine
 10
350.4086820312001
 20
174.0804617682
 30
0.0
 11
350.4086820312001
 21
168.0804617682
 31
0.0
  0
LINE
  5
5EE
330
208
100
AcDbEntity
  8
0
  6
Continuous
 62
     7
100
AcDbLine
 10
356.9086820312
 20
168.0804617682
 30
0.0
 11
356.9086820312
 21
174.0804617682
 31
0.0
  0
LINE
  5
5EF
330
208
100
AcDbEntity
  8
0
  6
Continuous
 62
     7
100
AcDbLine
 10
356.9086820312
 20
180.5804617682
 30
0.0
 11
356.9086820312
 21
186.5804617682
 31
0.0
  0
LINE
  5
5F0
330
208
100
AcDbEntity
  8
0
  6
Continuous
 62
     7
100
AcDbLine
 10
356.9086820312
 20
193.0804617682
 30
0.0
 11
356.9086820312
 21
199.0804617682
 31
0.0
  0
LINE
  5
5F1
330
208
100
AcDbEntity
  8
0
  6
Continuous
 62
     7
100
AcDbLine
 10
356.9086820312
 20
205.5804617682
 30
0.0
 11
356.9086820312
 21
211.5804617682
 31
0.0
  0
LINE
  5
5F2
330
208
100
AcDbEntity
  8
0
  6
Continuous
 62
     7
100
AcDbLine
 10
362.9086820312001
 20
211.5804617682
 30
0.0
 11
362.9086820312001
 21
205.5804617682
 31
0.0
  0
LINE
  5
5F3
330
208
100
AcDbEntity
  8
0
  6
Continuous
 62
     7
100
AcDbLine
 10
362.9086820312001
 20
199.0804617682
 30
0.0
 11
362.9086820312001
 21
193.0804617682
 31
0.0
  0
LINE
  5
5F4
330
208
100
AcDbEntity
  8
0
  6
Continuous
 62
     7
100
AcDbLine
 10
362.9086820312001
 20
186.5804617682
 30
0.0
 11
362.9086820312001
 21
180.5804617682
 31
0.0
  0
LINE
  5
5F5
330
208
100
AcDbEntity
  8
0
  6
Continuous
 62
     7
100
AcDbLine
 10
362.9086820312001
 20
174.0804617682
 30
0.0
 11
362.9086820312001
 21
168.0804617682
 31
0.0
  0
LINE
  5
5F6
330
208
100
AcDbEntity
  8
0
  6
Continuous
 62
     7
100
AcDbLine
 10
369.4086820312
 20
168.0804617682
 30
0.0
 11
369.4086820312
 21
174.0804617682
 31
0.0
  0
LINE
  5
5F7
330
208
100
AcDbEntity
  8
0
  6
Continuous
 62
     7
100
AcDbLine
 10
369.4086820312
 20
180.5804617682
 30
0.0
 11
369.4086820312
 21
186.5804617682
 31
0.0
  0
LINE
  5
5F8
330
208
100
AcDbEntity
  8
0
  6
Continuous
 62
     7
100
AcDbLine
 10
369.4086820312
 20
193.0804617682
 30
0.0
 11
369.4086820312
 21
199.0804617682
 31
0.0
  0
LINE
  5
5F9
330
208
100
AcDbEntity
  8
0
  6
Continuous
 62
     7
100
AcDbLine
 10
369.4086820312
 20
205.5804617682
 30
0.0
 11
369.4086820312
 21
211.5804617682
 31
0.0
  0
LINE
  5
5FA
330
208
100
AcDbEntity
  8
0
  6
Continuous
 62
     7
100
AcDbLine
 10
375.4086820312001
 20
211.5804617682
 30
0.0
 11
375.4086820312001
 21
205.5804617682
 31
0.0
  0
LINE
  5
5FB
330
208
100
AcDbEntity
  8
0
  6
Continuous
 62
     7
100
AcDbLine
 10
375.4086820312001
 20
199.0804617682
 30
0.0
 11
375.4086820312001
 21
193.0804617682
 31
0.0
  0
LINE
  5
5FC
330
208
100
AcDbEntity
  8
0
  6
Continuous
 62
     7
100
AcDbLine
 10
375.4086820312001
 20
186.5804617682
 30
0.0
 11
375.4086820312001
 21
180.5804617682
 31
0.0
  0
LINE
  5
5FD
330
208
100
AcDbEntity
  8
0
  6
Continuous
 62
     7
100
AcDbLine
 10
375.4086820312001
 20
174.0804617682
 30
0.0
 11
375.4086820312001
 21
168.0804617682
 31
0.0
  0
LINE
  5
5FE
330
208
100
AcDbEntity
  8
0
  6
Continuous
 62
     7
100
AcDbLine
 10
381.9086820312
 20
168.0804617682
 30
0.0
 11
381.9086820312
 21
174.0804617682
 31
0.0
  0
LINE
  5
5FF
330
208
100
AcDbEntity
  8
0
  6
Continuous
 62
     7
100
AcDbLine
 10
381.9086820312
 20
180.5804617682
 30
0.0
 11
381.9086820312
 21
186.5804617682
 31
0.0
  0
LINE
  5
600
330
208
100
AcDbEntity
  8
0
  6
Continuous
 62
     7
100
AcDbLine
 10
381.9086820312
 20
193.0804617682
 30
0.0
 11
381.9086820312
 21
199.0804617682
 31
0.0
  0
LINE
  5
601
330
208
100
AcDbEntity
  8
0
  6
Continuous
 62
     7
100
AcDbLine
 10
381.9086820312
 20
205.5804617682
 30
0.0
 11
381.9086820312
 21
211.5804617682
 31
0.0
  0
LINE
  5
602
330
208
100
AcDbEntity
  8
0
  6
Continuous
 62
     7
100
AcDbLine
 10
387.9086820312
 20
211.5804617682
 30
0.0
 11
387.9086820312
 21
205.5804617682
 31
0.0
  0
LINE
  5
603
330
208
100
AcDbEntity
  8
0
  6
Continuous
 62
     7
100
AcDbLine
 10
387.9086820312
 20
199.0804617682
 30
0.0
 11
387.9086820312
 21
193.0804617682
 31
0.0
  0
LINE
  5
604
330
208
100
AcDbEntity
  8
0
  6
Continuous
 62
     7
100
AcDbLine
 10
387.9086820312
 20
186.5804617682
 30
0.0
 11
387.9086820312
 21
180.5804617682
 31
0.0
  0
LINE
  5
605
330
208
100
AcDbEntity
  8
0
  6
Continuous
 62
     7
100
AcDbLine
 10
387.9086820312
 20
174.0804617682
 30
0.0
 11
387.9086820312
 21
168.0804617682
 31
0.0
  0
LINE
  5
606
330
208
100
AcDbEntity
  8
0
  6
Continuous
 62
     7
100
AcDbLine
 10
394.4086820312
 20
168.0804617682
 30
0.0
 11
394.4086820312
 21
174.0804617682
 31
0.0
  0
LINE
  5
607
330
208
100
AcDbEntity
  8
0
  6
Continuous
 62
     7
100
AcDbLine
 10
394.4086820312
 20
180.5804617682
 30
0.0
 11
394.4086820312
 21
186.5804617682
 31
0.0
  0
LINE
  5
608
330
208
100
AcDbEntity
  8
0
  6
Continuous
 62
     7
100
AcDbLine
 10
394.4086820312
 20
193.0804617682
 30
0.0
 11
394.4086820312
 21
199.0804617682
 31
0.0
  0
LINE
  5
609
330
208
100
AcDbEntity
  8
0
  6
Continuous
 62
     7
100
AcDbLine
 10
394.4086820312
 20
205.5804617682
 30
0.0
 11
394.4086820312
 21
211.5804617682
 31
0.0
  0
LINE
  5
60A
330
208
100
AcDbEntity
  8
0
  6
Continuous
 62
     7
100
AcDbLine
 10
400.4086820312
 20
211.5804617682
 30
0.0
 11
400.4086820312
 21
205.5804617682
 31
0.0
  0
LINE
  5
60B
330
208
100
AcDbEntity
  8
0
  6
Continuous
 62
     7
100
AcDbLine
 10
400.4086820312
 20
199.0804617682
 30
0.0
 11
400.4086820312
 21
193.0804617682
 31
0.0
  0
LINE
  5
60C
330
208
100
AcDbEntity
  8
0
  6
Continuous
 62
     7
100
AcDbLine
 10
400.4086820312
 20
186.5804617682
 30
0.0
 11
400.4086820312
 21
180.5804617682
 31
0.0
  0
LINE
  5
60D
330
208
100
AcDbEntity
  8
0
  6
Continuous
 62
     7
100
AcDbLine
 10
400.4086820312
 20
174.0804617682
 30
0.0
 11
400.4086820312
 21
168.0804617682
 31
0.0
  0
LINE
  5
60E
330
208
100
AcDbEntity
  8
0
  6
Continuous
 62
     7
100
AcDbLine
 10
406.9086820312
 20
168.0804617682
 30
0.0
 11
406.9086820312
 21
174.0804617682
 31
0.0
  0
LINE
  5
60F
330
208
100
AcDbEntity
  8
0
  6
Continuous
 62
     7
100
AcDbLine
 10
406.9086820312
 20
180.5804617682
 30
0.0
 11
406.9086820312
 21
186.5804617682
 31
0.0
  0
LINE
  5
610
330
208
100
AcDbEntity
  8
0
  6
Continuous
 62
     7
100
AcDbLine
 10
406.9086820312
 20
193.0804617682
 30
0.0
 11
406.9086820312
 21
199.0804617682
 31
0.0
  0
LINE
  5
611
330
208
100
AcDbEntity
  8
0
  6
Continuous
 62
     7
100
AcDbLine
 10
406.9086820312
 20
205.5804617682
 30
0.0
 11
406.9086820312
 21
211.5804617682
 31
0.0
  0
LINE
  5
612
330
208
100
AcDbEntity
  8
0
  6
Continuous
 62
     7
100
AcDbLine
 10
412.9086820312
 20
211.5804617682
 30
0.0
 11
412.9086820312
 21
205.5804617682
 31
0.0
  0
LINE
  5
613
330
208
100
AcDbEntity
  8
0
  6
Continuous
 62
     7
100
AcDbLine
 10
412.9086820312
 20
199.0804617682
 30
0.0
 11
412.9086820312
 21
193.0804617682
 31
0.0
  0
LINE
  5
614
330
208
100
AcDbEntity
  8
0
  6
Continuous
 62
     7
100
AcDbLine
 10
412.9086820312
 20
186.5804617682
 30
0.0
 11
412.9086820312
 21
180.5804617682
 31
0.0
  0
LINE
  5
615
330
208
100
AcDbEntity
  8
0
  6
Continuous
 62
     7
100
AcDbLine
 10
412.9086820312
 20
174.0804617682
 30
0.0
 11
412.9086820312
 21
168.0804617682
 31
0.0
  0
LINE
  5
616
330
208
100
AcDbEntity
  8
0
  6
Continuous
 62
     7
100
AcDbLine
 10
419.4086820312
 20
168.0804617682
 30
0.0
 11
419.4086820312
 21
174.0804617682
 31
0.0
  0
LINE
  5
617
330
208
100
AcDbEntity
  8
0
  6
Continuous
 62
     7
100
AcDbLine
 10
419.4086820312
 20
180.5804617682
 30
0.0
 11
419.4086820312
 21
186.5804617682
 31
0.0
  0
LINE
  5
618
330
208
100
AcDbEntity
  8
0
  6
Continuous
 62
     7
100
AcDbLine
 10
419.4086820312
 20
193.0804617682
 30
0.0
 11
419.4086820312
 21
199.0804617682
 31
0.0
  0
LINE
  5
619
330
208
100
AcDbEntity
  8
0
  6
Continuous
 62
     7
100
AcDbLine
 10
419.4086820312
 20
205.5804617682
 30
0.0
 11
419.4086820312
 21
211.5804617682
 31
0.0
  0
LINE
  5
61A
330
208
100
AcDbEntity
  8
0
  6
Continuous
 62
     7
100
AcDbLine
 10
425.4086820312
 20
211.5804617682
 30
0.0
 11
425.4086820312
 21
205.5804617682
 31
0.0
  0
LINE
  5
61B
330
208
100
AcDbEntity
  8
0
  6
Continuous
 62
     7
100
AcDbLine
 10
425.4086820312
 20
199.0804617682
 30
0.0
 11
425.4086820312
 21
193.0804617682
 31
0.0
  0
LINE
  5
61C
330
208
100
AcDbEntity
  8
0
  6
Continuous
 62
     7
100
AcDbLine
 10
425.4086820312
 20
186.5804617682
 30
0.0
 11
425.4086820312
 21
180.5804617682
 31
0.0
  0
LINE
  5
61D
330
208
100
AcDbEntity
  8
0
  6
Continuous
 62
     7
100
AcDbLine
 10
425.4086820312
 20
174.0804617682
 30
0.0
 11
425.4086820312
 21
168.0804617682
 31
0.0
  0
LINE
  5
61E
330
208
100
AcDbEntity
  8
0
  6
Continuous
 62
     7
100
AcDbLine
 10
643.2586080323
 20
169.6212016264
 30
0.0
 11
642.4592665788
 21
170.0827016298
 31
0.0
  0
LINE
  5
61F
330
208
100
AcDbEntity
  8
0
  6
Continuous
 62
     7
100
AcDbLine
 10
642.4592665788
 20
170.0827016298
 30
0.0
 11
642.4596820312
 21
170.0824617682
 31
0.0
  0
LINE
  5
620
330
208
100
AcDbEntity
  8
0
  6
Continuous
 62
     7
100
AcDbLine
 10
431.9086820312
 20
168.0804617682
 30
0.0
 11
431.9086820312
 21
174.0804617682
 31
0.0
  0
LINE
  5
621
330
208
100
AcDbEntity
  8
0
  6
Continuous
 62
     7
100
AcDbLine
 10
431.9086820312
 20
180.5804617682
 30
0.0
 11
431.9086820312
 21
186.5804617682
 31
0.0
  0
LINE
  5
622
330
208
100
AcDbEntity
  8
0
  6
Continuous
 62
     7
100
AcDbLine
 10
431.9086820312
 20
193.0804617682
 30
0.0
 11
431.9086820312
 21
199.0804617682
 31
0.0
  0
LINE
  5
623
330
208
100
AcDbEntity
  8
0
  6
Continuous
 62
     7
100
AcDbLine
 10
431.9086820312
 20
205.5804617682
 30
0.0
 11
431.9086820312
 21
211.5804617682
 31
0.0
  0
LINE
  5
624
330
208
100
AcDbEntity
  8
0
  6
Continuous
 62
     7
100
AcDbLine
 10
437.9086820312
 20
211.5804617682
 30
0.0
 11
437.9086820312
 21
205.5804617682
 31
0.0
  0
LINE
  5
625
330
208
100
AcDbEntity
  8
0
  6
Continuous
 62
     7
100
AcDbLine
 10
437.9086820312
 20
199.0804617682
 30
0.0
 11
437.9086820312
 21
193.0804617682
 31
0.0
  0
LINE
  5
626
330
208
100
AcDbEntity
  8
0
  6
Continuous
 62
     7
100
AcDbLine
 10
437.9086820312
 20
186.5804617682
 30
0.0
 11
437.9086820312
 21
180.5804617682
 31
0.0
  0
LINE
  5
627
330
208
100
AcDbEntity
  8
0
  6
Continuous
 62
     7
100
AcDbLine
 10
437.9086820312
 20
174.0804617682
 30
0.0
 11
437.9086820312
 21
168.0804617682
 31
0.0
  0
LINE
  5
628
330
208
100
AcDbEntity
  8
0
  6
Continuous
 62
     7
100
AcDbLine
 10
444.4086820312
 20
168.0804617682
 30
0.0
 11
444.4086820312
 21
174.0804617682
 31
0.0
  0
LINE
  5
629
330
208
100
AcDbEntity
  8
0
  6
Continuous
 62
     7
100
AcDbLine
 10
444.4086820312
 20
180.5804617682
 30
0.0
 11
444.4086820312
 21
186.5804617682
 31
0.0
  0
LINE
  5
62A
330
208
100
AcDbEntity
  8
0
  6
Continuous
 62
     7
100
AcDbLine
 10
444.4086820312
 20
193.0804617682
 30
0.0
 11
444.4086820312
 21
199.0804617682
 31
0.0
  0
LINE
  5
62B
330
208
100
AcDbEntity
  8
0
  6
Continuous
 62
     7
100
AcDbLine
 10
444.4086820312
 20
205.5804617682
 30
0.0
 11
444.4086820312
 21
211.5804617682
 31
0.0
  0
LINE
  5
62C
330
208
100
AcDbEntity
  8
0
  6
Continuous
 62
     7
100
AcDbLine
 10
450.4086820312
 20
211.5804617682
 30
0.0
 11
450.4086820312
 21
205.5804617682
 31
0.0
  0
LINE
  5
62D
330
208
100
AcDbEntity
  8
0
  6
Continuous
 62
     7
100
AcDbLine
 10
450.4086820312
 20
199.0804617682
 30
0.0
 11
450.4086820312
 21
193.0804617682
 31
0.0
  0
LINE
  5
62E
330
208
100
AcDbEntity
  8
0
  6
Continuous
 62
     7
100
AcDbLine
 10
450.4086820312
 20
186.5804617682
 30
0.0
 11
450.4086820312
 21
180.5804617682
 31
0.0
  0
LINE
  5
62F
330
208
100
AcDbEntity
  8
0
  6
Continuous
 62
     7
100
AcDbLine
 10
450.4086820312
 20
174.0804617682
 30
0.0
 11
450.4086820312
 21
168.0804617682
 31
0.0
  0
LINE
  5
630
330
208
100
AcDbEntity
  8
0
  6
Continuous
 62
     7
100
AcDbLine
 10
643.2393560131997
 20
172.6545764067
 30
0.0
 11
643.2391574534999
 21
172.6544617682
 31
0.0
  0
LINE
  5
631
330
208
100
AcDbEntity
  8
0
  6
Continuous
 62
     7
100
AcDbLine
 10
642.4399200686
 20
172.1930218488
 30
0.0
 11
643.2393560131997
 21
172.6545764067
 31
0.0
  0
LINE
  5
632
330
208
100
AcDbEntity
  8
0
  6
Continuous
 62
     7
100
AcDbLine
 10
456.9086820312
 20
168.0804617682
 30
0.0
 11
456.9086820312
 21
174.0804617682
 31
0.0
  0
LINE
  5
633
330
208
100
AcDbEntity
  8
0
  6
Continuous
 62
     7
100
AcDbLine
 10
456.9086820312
 20
180.5804617682
 30
0.0
 11
456.9086820312
 21
186.5804617682
 31
0.0
  0
LINE
  5
634
330
208
100
AcDbEntity
  8
0
  6
Continuous
 62
     7
100
AcDbLine
 10
456.9086820312
 20
193.0804617682
 30
0.0
 11
456.9086820312
 21
199.0804617682
 31
0.0
  0
LINE
  5
635
330
208
100
AcDbEntity
  8
0
  6
Continuous
 62
     7
100
AcDbLine
 10
456.9086820312
 20
205.5804617682
 30
0.0
 11
456.9086820312
 21
211.5804617682
 31
0.0
  0
LINE
  5
636
330
208
100
AcDbEntity
  8
0
  6
Continuous
 62
     7
100
AcDbLine
 10
462.9086820312
 20
211.5804617682
 30
0.0
 11
462.9086820312
 21
205.5804617682
 31
0.0
  0
LINE
  5
637
330
208
100
AcDbEntity
  8
0
  6
Continuous
 62
     7
100
AcDbLine
 10
462.9086820312
 20
199.0804617682
 30
0.0
 11
462.9086820312
 21
193.0804617682
 31
0.0
  0
LINE
  5
638
330
208
100
AcDbEntity
  8
0
  6
Continuous
 62
     7
100
AcDbLine
 10
462.9086820312
 20
186.5804617682
 30
0.0
 11
462.9086820312
 21
180.5804617682
 31
0.0
  0
LINE
  5
639
330
208
100
AcDbEntity
  8
0
  6
Continuous
 62
     7
100
AcDbLine
 10
462.9086820312
 20
174.0804617682
 30
0.0
 11
462.9086820312
 21
168.0804617682
 31
0.0
  0
LINE
  5
63A
330
208
100
AcDbEntity
  8
0
  6
Continuous
 62
     7
100
AcDbLine
 10
469.4086820312
 20
168.0804617682
 30
0.0
 11
469.4086820312
 21
174.0804617682
 31
0.0
  0
LINE
  5
63B
330
208
100
AcDbEntity
  8
0
  6
Continuous
 62
     7
100
AcDbLine
 10
469.4086820312
 20
180.5804617682
 30
0.0
 11
469.4086820312
 21
186.5804617682
 31
0.0
  0
LINE
  5
63C
330
208
100
AcDbEntity
  8
0
  6
Continuous
 62
     7
100
AcDbLine
 10
469.4086820312
 20
193.0804617682
 30
0.0
 11
469.4086820312
 21
199.0804617682
 31
0.0
  0
LINE
  5
63D
330
208
100
AcDbEntity
  8
0
  6
Continuous
 62
     7
100
AcDbLine
 10
469.4086820312
 20
205.5804617682
 30
0.0
 11
469.4086820312
 21
211.5804617682
 31
0.0
  0
LINE
  5
63E
330
208
100
AcDbEntity
  8
0
  6
Continuous
 62
     7
100
AcDbLine
 10
475.4086820312
 20
211.5804617682
 30
0.0
 11
475.4086820312
 21
205.5804617682
 31
0.0
  0
LINE
  5
63F
330
208
100
AcDbEntity
  8
0
  6
Continuous
 62
     7
100
AcDbLine
 10
475.4086820312
 20
199.0804617682
 30
0.0
 11
475.4086820312
 21
193.0804617682
 31
0.0
  0
LINE
  5
640
330
208
100
AcDbEntity
  8
0
  6
Continuous
 62
     7
100
AcDbLine
 10
475.4086820312
 20
186.5804617682
 30
0.0
 11
475.4086820312
 21
180.5804617682
 31
0.0
  0
LINE
  5
641
330
208
100
AcDbEntity
  8
0
  6
Continuous
 62
     7
100
AcDbLine
 10
475.4086820312
 20
174.0804617682
 30
0.0
 11
475.4086820312
 21
168.0804617682
 31
0.0
  0
LINE
  5
642
330
208
100
AcDbEntity
  8
0
  6
Continuous
 62
     7
100
AcDbLine
 10
481.9086820312
 20
168.0804617682
 30
0.0
 11
481.9086820312
 21
174.0804617682
 31
0.0
  0
LINE
  5
643
330
208
100
AcDbEntity
  8
0
  6
Continuous
 62
     7
100
AcDbLine
 10
481.9086820312
 20
180.5804617682
 30
0.0
 11
481.9086820312
 21
186.5804617682
 31
0.0
  0
LINE
  5
644
330
208
100
AcDbEntity
  8
0
  6
Continuous
 62
     7
100
AcDbLine
 10
481.9086820312
 20
193.0804617682
 30
0.0
 11
481.9086820312
 21
199.0804617682
 31
0.0
  0
LINE
  5
645
330
208
100
AcDbEntity
  8
0
  6
Continuous
 62
     7
100
AcDbLine
 10
481.9086820312
 20
205.5804617682
 30
0.0
 11
481.9086820312
 21
211.5804617682
 31
0.0
  0
LINE
  5
646
330
208
100
AcDbEntity
  8
0
  6
Continuous
 62
     7
100
AcDbLine
 10
632.1591820312
 20
173.9905574051
 30
0.0
 11
632.160407861
 21
173.9914617682
 31
0.0
  0
LINE
  5
647
330
208
100
AcDbEntity
  8
0
  6
Continuous
 62
     7
100
AcDbLine
 10
487.9086820312
 20
211.5804617682
 30
0.0
 11
487.9086820312
 21
205.5804617682
 31
0.0
  0
LINE
  5
648
330
208
100
AcDbEntity
  8
0
  6
Continuous
 62
     7
100
AcDbLine
 10
487.9086820312
 20
199.0804617682
 30
0.0
 11
487.9086820312
 21
193.0804617682
 31
0.0
  0
LINE
  5
649
330
208
100
AcDbEntity
  8
0
  6
Continuous
 62
     7
100
AcDbLine
 10
487.9086820312
 20
186.5804617682
 30
0.0
 11
487.9086820312
 21
180.5804617682
 31
0.0
  0
LINE
  5
64A
330
208
100
AcDbEntity
  8
0
  6
Continuous
 62
     7
100
AcDbLine
 10
487.9086820312
 20
174.0804617682
 30
0.0
 11
487.9086820312
 21
168.0804617682
 31
0.0
  0
LINE
  5
64B
330
208
100
AcDbEntity
  8
0
  6
Continuous
 62
     7
100
AcDbLine
 10
494.4086820312
 20
168.0804617682
 30
0.0
 11
494.4086820312
 21
174.0804617682
 31
0.0
  0
LINE
  5
64C
330
208
100
AcDbEntity
  8
0
  6
Continuous
 62
     7
100
AcDbLine
 10
494.4086820312
 20
180.5804617682
 30
0.0
 11
494.4086820312
 21
186.5804617682
 31
0.0
  0
LINE
  5
64D
330
208
100
AcDbEntity
  8
0
  6
Continuous
 62
     7
100
AcDbLine
 10
494.4086820312
 20
193.0804617682
 30
0.0
 11
494.4086820312
 21
199.0804617682
 31
0.0
  0
LINE
  5
64E
330
208
100
AcDbEntity
  8
0
  6
Continuous
 62
     7
100
AcDbLine
 10
494.4086820312
 20
205.5804617682
 30
0.0
 11
494.4086820312
 21
211.5804617682
 31
0.0
  0
LINE
  5
64F
330
208
100
AcDbEntity
  8
0
  6
Continuous
 62
     7
100
AcDbLine
 10
500.4086820312
 20
211.5804617682
 30
0.0
 11
500.4086820312
 21
205.5804617682
 31
0.0
  0
LINE
  5
650
330
208
100
AcDbEntity
  8
0
  6
Continuous
 62
     7
100
AcDbLine
 10
500.4086820312
 20
199.0804617682
 30
0.0
 11
500.4086820312
 21
193.0804617682
 31
0.0
  0
LINE
  5
651
330
208
100
AcDbEntity
  8
0
  6
Continuous
 62
     7
100
AcDbLine
 10
500.4086820312
 20
186.5804617682
 30
0.0
 11
500.4086820312
 21
180.5804617682
 31
0.0
  0
LINE
  5
652
330
208
100
AcDbEntity
  8
0
  6
Continuous
 62
     7
100
AcDbLine
 10
500.4086820312
 20
174.0804617682
 30
0.0
 11
500.4086820312
 21
168.0804617682
 31
0.0
  0
LINE
  5
653
330
208
100
AcDbEntity
  8
0
  6
Continuous
 62
     7
100
AcDbLine
 10
506.9086820312
 20
168.0804617682
 30
0.0
 11
506.9086820312
 21
174.0804617682
 31
0.0
  0
LINE
  5
654
330
208
100
AcDbEntity
  8
0
  6
Continuous
 62
     7
100
AcDbLine
 10
506.9086820312
 20
180.5804617682
 30
0.0
 11
506.9086820312
 21
186.5804617682
 31
0.0
  0
LINE
  5
655
330
208
100
AcDbEntity
  8
0
  6
Continuous
 62
     7
100
AcDbLine
 10
506.9086820312
 20
193.0804617682
 30
0.0
 11
506.9086820312
 21
199.0804617682
 31
0.0
  0
LINE
  5
656
330
208
100
AcDbEntity
  8
0
  6
Continuous
 62
     7
100
AcDbLine
 10
506.9086820312
 20
205.5804617682
 30
0.0
 11
506.9086820312
 21
211.5804617682
 31
0.0
  0
LINE
  5
657
330
208
100
AcDbEntity
  8
0
  6
Continuous
 62
     7
100
AcDbLine
 10
512.9086820311997
 20
211.5804617682
 30
0.0
 11
512.9086820311997
 21
205.5804617682
 31
0.0
  0
LINE
  5
658
330
208
100
AcDbEntity
  8
0
  6
Continuous
 62
     7
100
AcDbLine
 10
512.9086820311997
 20
199.0804617682
 30
0.0
 11
512.9086820311997
 21
193.0804617682
 31
0.0
  0
LINE
  5
659
330
208
100
AcDbEntity
  8
0
  6
Continuous
 62
     7
100
AcDbLine
 10
512.9086820311997
 20
186.5804617682
 30
0.0
 11
512.9086820311997
 21
180.5804617682
 31
0.0
  0
LINE
  5
65A
330
208
100
AcDbEntity
  8
0
  6
Continuous
 62
     7
100
AcDbLine
 10
512.9086820311997
 20
174.0804617682
 30
0.0
 11
512.9086820311997
 21
168.0804617682
 31
0.0
  0
LINE
  5
65B
330
208
100
AcDbEntity
  8
0
  6
Continuous
 62
     7
100
AcDbLine
 10
632.1599188343
 20
172.7941759693
 30
0.0
 11
632.1585269544
 21
172.7954617682
 31
0.0
  0
LINE
  5
65C
330
208
100
AcDbEntity
  8
0
  6
Continuous
 62
     7
100
AcDbLine
 10
519.4086820312
 20
168.0804617682
 30
0.0
 11
519.4086820312
 21
174.0804617682
 31
0.0
  0
LINE
  5
65D
330
208
100
AcDbEntity
  8
0
  6
Continuous
 62
     7
100
AcDbLine
 10
519.4086820312
 20
180.5804617682
 30
0.0
 11
519.4086820312
 21
186.5804617682
 31
0.0
  0
LINE
  5
65E
330
208
100
AcDbEntity
  8
0
  6
Continuous
 62
     7
100
AcDbLine
 10
519.4086820312
 20
193.0804617682
 30
0.0
 11
519.4086820312
 21
199.0804617682
 31
0.0
  0
LINE
  5
65F
330
208
100
AcDbEntity
  8
0
  6
Continuous
 62
     7
100
AcDbLine
 10
519.4086820312
 20
205.5804617682
 30
0.0
 11
519.4086820312
 21
211.5804617682
 31
0.0
  0
LINE
  5
660
330
208
100
AcDbEntity
  8
0
  6
Continuous
 62
     7
100
AcDbLine
 10
525.4086820311997
 20
211.5804617682
 30
0.0
 11
525.4086820311997
 21
205.5804617682
 31
0.0
  0
LINE
  5
661
330
208
100
AcDbEntity
  8
0
  6
Continuous
 62
     7
100
AcDbLine
 10
525.4086820311997
 20
199.0804617682
 30
0.0
 11
525.4086820311997
 21
193.0804617682
 31
0.0
  0
LINE
  5
662
330
208
100
AcDbEntity
  8
0
  6
Continuous
 62
     7
100
AcDbLine
 10
525.4086820311997
 20
186.5804617682
 30
0.0
 11
525.4086820311997
 21
180.5804617682
 31
0.0
  0
LINE
  5
663
330
208
100
AcDbEntity
  8
0
  6
Continuous
 62
     7
100
AcDbLine
 10
525.4086820311997
 20
174.0804617682
 30
0.0
 11
525.4086820311997
 21
168.0804617682
 31
0.0
  0
LINE
  5
664
330
208
100
AcDbEntity
  8
0
  6
Continuous
 62
     7
100
AcDbLine
 10
531.9086820312
 20
168.0804617682
 30
0.0
 11
531.9086820312
 21
174.0804617682
 31
0.0
  0
LINE
  5
665
330
208
100
AcDbEntity
  8
0
  6
Continuous
 62
     7
100
AcDbLine
 10
531.9086820312
 20
180.5804617682
 30
0.0
 11
531.9086820312
 21
186.5804617682
 31
0.0
  0
LINE
  5
666
330
208
100
AcDbEntity
  8
0
  6
Continuous
 62
     7
100
AcDbLine
 10
531.9086820312
 20
193.0804617682
 30
0.0
 11
531.9086820312
 21
199.0804617682
 31
0.0
  0
LINE
  5
667
330
208
100
AcDbEntity
  8
0
  6
Continuous
 62
     7
100
AcDbLine
 10
531.9086820312
 20
205.5804617682
 30
0.0
 11
531.9086820312
 21
211.5804617682
 31
0.0
  0
LINE
  5
668
330
208
100
AcDbEntity
  8
0
  6
Continuous
 62
     7
100
AcDbLine
 10
537.9086820311997
 20
211.5804617682
 30
0.0
 11
537.9086820311997
 21
205.5804617682
 31
0.0
  0
LINE
  5
669
330
208
100
AcDbEntity
  8
0
  6
Continuous
 62
     7
100
AcDbLine
 10
537.9086820311997
 20
199.0804617682
 30
0.0
 11
537.9086820311997
 21
193.0804617682
 31
0.0
  0
LINE
  5
66A
330
208
100
AcDbEntity
  8
0
  6
Continuous
 62
     7
100
AcDbLine
 10
537.9086820311997
 20
186.5804617682
 30
0.0
 11
537.9086820311997
 21
180.5804617682
 31
0.0
  0
LINE
  5
66B
330
208
100
AcDbEntity
  8
0
  6
Continuous
 62
     7
100
AcDbLine
 10
537.9086820311997
 20
174.0804617682
 30
0.0
 11
537.9086820311997
 21
168.0804617682
 31
0.0
  0
LINE
  5
66C
330
208
100
AcDbEntity
  8
0
  6
Continuous
 62
     7
100
AcDbLine
 10
544.4086820312
 20
168.0804617682
 30
0.0
 11
544.4086820312
 21
174.0804617682
 31
0.0
  0
LINE
  5
66D
330
208
100
AcDbEntity
  8
0
  6
Continuous
 62
     7
100
AcDbLine
 10
544.4086820312
 20
180.5804617682
 30
0.0
 11
544.4086820312
 21
186.5804617682
 31
0.0
  0
LINE
  5
66E
330
208
100
AcDbEntity
  8
0
  6
Continuous
 62
     7
100
AcDbLine
 10
544.4086820312
 20
193.0804617682
 30
0.0
 11
544.4086820312
 21
199.0804617682
 31
0.0
  0
LINE
  5
66F
330
208
100
AcDbEntity
  8
0
  6
Continuous
 62
     7
100
AcDbLine
 10
544.4086820312
 20
205.5804617682
 30
0.0
 11
544.4086820312
 21
211.5804617682
 31
0.0
  0
LINE
  5
670
330
208
100
AcDbEntity
  8
0
  6
Continuous
 62
     7
100
AcDbLine
 10
550.4086820311997
 20
211.5804617682
 30
0.0
 11
550.4086820311997
 21
205.5804617682
 31
0.0
  0
LINE
  5
671
330
208
100
AcDbEntity
  8
0
  6
Continuous
 62
     7
100
AcDbLine
 10
550.4086820311997
 20
199.0804617682
 30
0.0
 11
550.4086820311997
 21
193.0804617682
 31
0.0
  0
LINE
  5
672
330
208
100
AcDbEntity
  8
0
  6
Continuous
 62
     7
100
AcDbLine
 10
550.4086820311997
 20
186.5804617682
 30
0.0
 11
550.4086820311997
 21
180.5804617682
 31
0.0
  0
LINE
  5
673
330
208
100
AcDbEntity
  8
0
  6
Continuous
 62
     7
100
AcDbLine
 10
550.4086820311997
 20
174.0804617682
 30
0.0
 11
550.4086820311997
 21
168.0804617682
 31
0.0
  0
LINE
  5
674
330
208
100
AcDbEntity
  8
0
  6
Continuous
 62
     7
100
AcDbLine
 10
556.9086820312
 20
168.0804617682
 30
0.0
 11
556.9086820312
 21
174.0804617682
 31
0.0
  0
LINE
  5
675
330
208
100
AcDbEntity
  8
0
  6
Continuous
 62
     7
100
AcDbLine
 10
556.9086820312
 20
180.5804617682
 30
0.0
 11
556.9086820312
 21
186.5804617682
 31
0.0
  0
LINE
  5
676
330
208
100
AcDbEntity
  8
0
  6
Continuous
 62
     7
100
AcDbLine
 10
556.9086820312
 20
193.0804617682
 30
0.0
 11
556.9086820312
 21
199.0804617682
 31
0.0
  0
LINE
  5
677
330
208
100
AcDbEntity
  8
0
  6
Continuous
 62
     7
100
AcDbLine
 10
556.9086820312
 20
205.5804617682
 30
0.0
 11
556.9086820312
 21
211.5804617682
 31
0.0
  0
LINE
  5
678
330
208
100
AcDbEntity
  8
0
  6
Continuous
 62
     7
100
AcDbLine
 10
562.9086820311997
 20
211.5804617682
 30
0.0
 11
562.9086820311997
 21
205.5804617682
 31
0.0
  0
LINE
  5
679
330
208
100
AcDbEntity
  8
0
  6
Continuous
 62
     7
100
AcDbLine
 10
562.9086820311997
 20
199.0804617682
 30
0.0
 11
562.9086820311997
 21
193.0804617682
 31
0.0
  0
LINE
  5
67A
330
208
100
AcDbEntity
  8
0
  6
Continuous
 62
     7
100
AcDbLine
 10
562.9086820311997
 20
186.5804617682
 30
0.0
 11
562.9086820311997
 21
180.5804617682
 31
0.0
  0
LINE
  5
67B
330
208
100
AcDbEntity
  8
0
  6
Continuous
 62
     7
100
AcDbLine
 10
562.9086820311997
 20
174.0804617682
 30
0.0
 11
562.9086820311997
 21
168.0804617682
 31
0.0
  0
LINE
  5
67C
330
208
100
AcDbEntity
  8
0
  6
Continuous
 62
     7
100
AcDbLine
 10
569.4086820312
 20
168.0804617682
 30
0.0
 11
569.4086820312
 21
174.0804617682
 31
0.0
  0
LINE
  5
67D
330
208
100
AcDbEntity
  8
0
  6
Continuous
 62
     7
100
AcDbLine
 10
569.4086820312
 20
180.5804617682
 30
0.0
 11
569.4086820312
 21
186.5804617682
 31
0.0
  0
LINE
  5
67E
330
208
100
AcDbEntity
  8
0
  6
Continuous
 62
     7
100
AcDbLine
 10
569.4086820312
 20
193.0804617682
 30
0.0
 11
569.4086820312
 21
199.0804617682
 31
0.0
  0
LINE
  5
67F
330
208
100
AcDbEntity
  8
0
  6
Continuous
 62
     7
100
AcDbLine
 10
569.4086820312
 20
205.5804617682
 30
0.0
 11
569.4086820312
 21
211.5804617682
 31
0.0
  0
LINE
  5
680
330
208
100
AcDbEntity
  8
0
  6
Continuous
 62
     7
100
AcDbLine
 10
575.4086820311997
 20
211.5804617682
 30
0.0
 11
575.4086820311997
 21
205.5804617682
 31
0.0
  0
LINE
  5
681
330
208
100
AcDbEntity
  8
0
  6
Continuous
 62
     7
100
AcDbLine
 10
575.4086820311997
 20
199.0804617682
 30
0.0
 11
575.4086820311997
 21
193.0804617682
 31
0.0
  0
LINE
  5
682
330
208
100
AcDbEntity
  8
0
  6
Continuous
 62
     7
100
AcDbLine
 10
575.4086820311997
 20
186.5804617682
 30
0.0
 11
575.4086820311997
 21
180.5804617682
 31
0.0
  0
LINE
  5
683
330
208
100
AcDbEntity
  8
0
  6
Continuous
 62
     7
100
AcDbLine
 10
575.4086820311997
 20
174.0804617682
 30
0.0
 11
575.4086820311997
 21
168.0804617682
 31
0.0
  0
LINE
  5
684
330
208
100
AcDbEntity
  8
0
  6
Continuous
 62
     7
100
AcDbLine
 10
581.9086820312
 20
168.0804617682
 30
0.0
 11
581.9086820312
 21
174.0804617682
 31
0.0
  0
LINE
  5
685
330
208
100
AcDbEntity
  8
0
  6
Continuous
 62
     7
100
AcDbLine
 10
581.9086820312
 20
180.5804617682
 30
0.0
 11
581.9086820312
 21
186.5804617682
 31
0.0
  0
LINE
  5
686
330
208
100
AcDbEntity
  8
0
  6
Continuous
 62
     7
100
AcDbLine
 10
581.9086820312
 20
193.0804617682
 30
0.0
 11
581.9086820312
 21
199.0804617682
 31
0.0
  0
LINE
  5
687
330
208
100
AcDbEntity
  8
0
  6
Continuous
 62
     7
100
AcDbLine
 10
581.9086820312
 20
205.5804617682
 30
0.0
 11
581.9086820312
 21
211.5804617682
 31
0.0
  0
LINE
  5
688
330
208
100
AcDbEntity
  8
0
  6
Continuous
 62
     7
100
AcDbLine
 10
587.9086820311997
 20
211.5804617682
 30
0.0
 11
587.9086820311997
 21
205.5804617682
 31
0.0
  0
LINE
  5
689
330
208
100
AcDbEntity
  8
0
  6
Continuous
 62
     7
100
AcDbLine
 10
587.9086820311997
 20
199.0804617682
 30
0.0
 11
587.9086820311997
 21
193.0804617682
 31
0.0
  0
LINE
  5
68A
330
208
100
AcDbEntity
  8
0
  6
Continuous
 62
     7
100
AcDbLine
 10
587.9086820311997
 20
186.5804617682
 30
0.0
 11
587.9086820311997
 21
180.5804617682
 31
0.0
  0
LINE
  5
68B
330
208
100
AcDbEntity
  8
0
  6
Continuous
 62
     7
100
AcDbLine
 10
587.9086820311997
 20
174.0804617682
 30
0.0
 11
587.9086820311997
 21
168.0804617682
 31
0.0
  0
LINE
  5
68C
330
208
100
AcDbEntity
  8
0
  6
Continuous
 62
     7
100
AcDbLine
 10
594.4086820312
 20
168.0804617682
 30
0.0
 11
594.4086820312
 21
174.0804617682
 31
0.0
  0
LINE
  5
68D
330
208
100
AcDbEntity
  8
0
  6
Continuous
 62
     7
100
AcDbLine
 10
594.4086820312
 20
180.5804617682
 30
0.0
 11
594.4086820312
 21
186.5804617682
 31
0.0
  0
LINE
  5
68E
330
208
100
AcDbEntity
  8
0
  6
Continuous
 62
     7
100
AcDbLine
 10
594.4086820312
 20
193.0804617682
 30
0.0
 11
594.4086820312
 21
199.0804617682
 31
0.0
  0
LINE
  5
68F
330
208
100
AcDbEntity
  8
0
  6
Continuous
 62
     7
100
AcDbLine
 10
594.4086820312
 20
205.5804617682
 30
0.0
 11
594.4086820312
 21
211.5804617682
 31
0.0
  0
LINE
  5
690
330
208
100
AcDbEntity
  8
0
  6
Continuous
 62
     7
100
AcDbLine
 10
600.4086820311997
 20
211.5804617682
 30
0.0
 11
600.4086820311997
 21
205.5804617682
 31
0.0
  0
LINE
  5
691
330
208
100
AcDbEntity
  8
0
  6
Continuous
 62
     7
100
AcDbLine
 10
600.4086820311997
 20
199.0804617682
 30
0.0
 11
600.4086820311997
 21
193.0804617682
 31
0.0
  0
LINE
  5
692
330
208
100
AcDbEntity
  8
0
  6
Continuous
 62
     7
100
AcDbLine
 10
600.4086820311997
 20
186.5804617682
 30
0.0
 11
600.4086820311997
 21
180.5804617682
 31
0.0
  0
LINE
  5
693
330
208
100
AcDbEntity
  8
0
  6
Continuous
 62
     7
100
AcDbLine
 10
600.4086820311997
 20
174.0804617682
 30
0.0
 11
600.4086820311997
 21
168.0804617682
 31
0.0
  0
LINE
  5
694
330
208
100
AcDbEntity
  8
0
  6
Continuous
 62
     7
100
AcDbLine
 10
606.9086820312
 20
168.0804617682
 30
0.0
 11
606.9086820312
 21
174.0804617682
 31
0.0
  0
LINE
  5
695
330
208
100
AcDbEntity
  8
0
  6
Continuous
 62
     7
100
AcDbLine
 10
606.9086820312
 20
180.5804617682
 30
0.0
 11
606.9086820312
 21
186.5804617682
 31
0.0
  0
LINE
  5
696
330
208
100
AcDbEntity
  8
0
  6
Continuous
 62
     7
100
AcDbLine
 10
606.9086820312
 20
193.0804617682
 30
0.0
 11
606.9086820312
 21
199.0804617682
 31
0.0
  0
LINE
  5
697
330
208
100
AcDbEntity
  8
0
  6
Continuous
 62
     7
100
AcDbLine
 10
606.9086820312
 20
205.5804617682
 30
0.0
 11
606.9086820312
 21
211.5804617682
 31
0.0
  0
LINE
  5
698
330
208
100
AcDbEntity
  8
0
  6
Continuous
 62
     7
100
AcDbLine
 10
612.9086820311997
 20
211.5804617682
 30
0.0
 11
612.9086820311997
 21
205.5804617682
 31
0.0
  0
LINE
  5
699
330
208
100
AcDbEntity
  8
0
  6
Continuous
 62
     7
100
AcDbLine
 10
612.9086820311997
 20
199.0804617682
 30
0.0
 11
612.9086820311997
 21
193.0804617682
 31
0.0
  0
LINE
  5
69A
330
208
100
AcDbEntity
  8
0
  6
Continuous
 62
     7
100
AcDbLine
 10
612.9086820311997
 20
186.5804617682
 30
0.0
 11
612.9086820311997
 21
180.5804617682
 31
0.0
  0
LINE
  5
69B
330
208
100
AcDbEntity
  8
0
  6
Continuous
 62
     7
100
AcDbLine
 10
612.9086820311997
 20
174.0804617682
 30
0.0
 11
612.9086820311997
 21
168.0804617682
 31
0.0
  0
LINE
  5
69C
330
208
100
AcDbEntity
  8
0
  6
Continuous
 62
     7
100
AcDbLine
 10
619.4086820312
 20
168.0804617682
 30
0.0
 11
619.4086820312
 21
174.0804617682
 31
0.0
  0
LINE
  5
69D
330
208
100
AcDbEntity
  8
0
  6
Continuous
 62
     7
100
AcDbLine
 10
619.4086820312
 20
180.5804617682
 30
0.0
 11
619.4086820312
 21
186.5804617682
 31
0.0
  0
LINE
  5
69E
330
208
100
AcDbEntity
  8
0
  6
Continuous
 62
     7
100
AcDbLine
 10
619.4086820312
 20
193.0804617682
 30
0.0
 11
619.4086820312
 21
199.0804617682
 31
0.0
  0
LINE
  5
69F
330
208
100
AcDbEntity
  8
0
  6
Continuous
 62
     7
100
AcDbLine
 10
619.4086820312
 20
205.5804617682
 30
0.0
 11
619.4086820312
 21
211.5804617682
 31
0.0
  0
LINE
  5
6A0
330
208
100
AcDbEntity
  8
0
  6
Continuous
 62
     7
100
AcDbLine
 10
625.4086820311997
 20
211.5804617682
 30
0.0
 11
625.4086820311997
 21
205.5804617682
 31
0.0
  0
LINE
  5
6A1
330
208
100
AcDbEntity
  8
0
  6
Continuous
 62
     7
100
AcDbLine
 10
625.4086820311997
 20
199.0804617682
 30
0.0
 11
625.4086820311997
 21
193.0804617682
 31
0.0
  0
LINE
  5
6A2
330
208
100
AcDbEntity
  8
0
  6
Continuous
 62
     7
100
AcDbLine
 10
625.4086820311997
 20
186.5804617682
 30
0.0
 11
625.4086820311997
 21
180.5804617682
 31
0.0
  0
LINE
  5
6A3
330
208
100
AcDbEntity
  8
0
  6
Continuous
 62
     7
100
AcDbLine
 10
625.4086820311997
 20
174.0804617682
 30
0.0
 11
625.4086820311997
 21
168.0804617682
 31
0.0
  0
LINE
  5
6A4
330
208
100
AcDbEntity
  8
0
  6
Continuous
 62
     7
100
AcDbLine
 10
631.9086820312
 20
180.5804617682
 30
0.0
 11
631.9086820312
 21
186.5804617682
 31
0.0
  0
LINE
  5
6A5
330
208
100
AcDbEntity
  8
0
  6
Continuous
 62
     7
100
AcDbLine
 10
631.9086820312
 20
193.0804617682
 30
0.0
 11
631.9086820312
 21
199.0804617682
 31
0.0
  0
LINE
  5
6A6
330
208
100
AcDbEntity
  8
0
  6
Continuous
 62
     7
100
AcDbLine
 10
631.9086820312
 20
205.5804617682
 30
0.0
 11
631.9086820312
 21
211.5804617682
 31
0.0
  0
LINE
  5
6A7
330
208
100
AcDbEntity
  8
0
  6
Continuous
 62
     7
100
AcDbLine
 10
637.9086820311997
 20
211.5804617682
 30
0.0
 11
637.9086820311997
 21
205.5804617682
 31
0.0
  0
LINE
  5
6A8
330
208
100
AcDbEntity
  8
0
  6
Continuous
 62
     7
100
AcDbLine
 10
637.9086820311997
 20
199.0804617682
 30
0.0
 11
637.9086820311997
 21
193.0804617682
 31
0.0
  0
LINE
  5
6A9
330
208
100
AcDbEntity
  8
0
  6
Continuous
 62
     7
100
AcDbLine
 10
637.9086820311997
 20
186.5804617682
 30
0.0
 11
637.9086820311997
 21
180.5804617682
 31
0.0
  0
LINE
  5
6AA
330
208
100
AcDbEntity
  8
0
  6
Continuous
 62
     7
100
AcDbLine
 10
644.4086820312
 20
180.5804617682
 30
0.0
 11
644.4086820312
 21
186.5804617682
 31
0.0
  0
LINE
  5
6AB
330
208
100
AcDbEntity
  8
0
  6
Continuous
 62
     7
100
AcDbLine
 10
644.4086820312
 20
193.0804617682
 30
0.0
 11
644.4086820312
 21
199.0804617682
 31
0.0
  0
LINE
  5
6AC
330
208
100
AcDbEntity
  8
0
  6
Continuous
 62
     7
100
AcDbLine
 10
644.4086820312
 20
205.5804617682
 30
0.0
 11
644.4086820312
 21
211.5804617682
 31
0.0
  0
LINE
  5
6AD
330
208
100
AcDbEntity
  8
0
  6
Continuous
 62
     7
100
AcDbLine
 10
650.4086820311997
 20
211.5804617682
 30
0.0
 11
650.4086820311997
 21
205.5804617682
 31
0.0
  0
LINE
  5
6AE
330
208
100
AcDbEntity
  8
0
  6
Continuous
 62
     7
100
AcDbLine
 10
650.4086820311997
 20
199.0804617682
 30
0.0
 11
650.4086820311997
 21
193.0804617682
 31
0.0
  0
LINE
  5
6AF
330
208
100
AcDbEntity
  8
0
  6
Continuous
 62
     7
100
AcDbLine
 10
650.4086820311997
 20
186.5804617682
 30
0.0
 11
650.4086820311997
 21
180.5804617682
 31
0.0
  0
LINE
  5
6B0
102
{ACAD_REACTORS
330
9EA
102
}
330
208
100
AcDbEntity
  8
0
  6
Continuous
 62
     7
100
AcDbLine
 10
655.1586820312
 20
158.8303488677
 30
0.0
 11
655.1586820312
 21
220.3305746687
 31
0.0
  0
LINE
  5
6B1
330
208
100
AcDbEntity
  8
0
  6
Continuous
 62
     7
100
AcDbLine
 10
-222.8413179688
 20
275.4432618841999
 30
0.0
 11
-222.8413179688
 21
264.4774264511
 31
0.0
  0
LINE
  5
6B2
102
{ACAD_REACTORS
330
948
102
}
330
208
100
AcDbEntity
  8
0
  6
Continuous
 62
     7
100
AcDbLine
 10
-222.8413179688
 20
275.4432618841999
 30
0.0
 11
-222.8413179688
 21
277.6776081934
 31
0.0
  0
LINE
  5
6B4
330
208
100
AcDbEntity
  8
0
  6
Continuous
 62
     7
100
AcDbLine
 10
-222.8413179688
 20
264.4774264511
 30
0.0
 11
-220.8413179688
 21
262.4786447971
 31
0.0
  0
LINE
  5
6B5
102
{ACAD_REACTORS
330
948
102
}
330
208
100
AcDbEntity
  8
0
  6
Continuous
 62
     7
100
AcDbLine
 10
-220.8413179688
 20
262.4786447971
 30
0.0
 11
653.1586820312
 21
262.4786447971
 31
0.0
  0
LINE
  5
6B6
330
208
100
AcDbEntity
  8
BEZUGSACHSEN
  6
Continuous
 62
     9
100
AcDbLine
 10
-222.8413179688
 20
275.4432618841999
 30
0.0
 11
655.1586820312
 21
275.4432618841999
 31
0.0
  0
LINE
  5
6B7
330
208
100
AcDbEntity
  8
0
  6
Continuous
 62
     7
100
AcDbLine
 10
-222.8413179688
 20
277.6786447971
 30
0.0
 11
655.1586820312
 21
277.6786447971
 31
0.0
  0
LINE
  5
6B8
330
208
100
AcDbEntity
  8
0
  6
Continuous
 62
     7
100
AcDbLine
 10
653.1586820312
 20
262.4786447971
 30
0.0
 11
655.1586820312
 21
264.4774264511
 31
0.0
  0
LINE
  5
6BA
330
208
100
AcDbEntity
  8
0
  6
Continuous
 62
     7
100
AcDbLine
 10
655.1586820312
 20
277.6776081934
 30
0.0
 11
655.1586820312
 21
275.4432618841999
 31
0.0
  0
LINE
  5
6BB
330
208
100
AcDbEntity
  8
0
  6
Continuous
 62
     7
100
AcDbLine
 10
655.1586820312
 20
275.4432618841999
 30
0.0
 11
655.1586820312
 21
264.4774264511
 31
0.0
  0
ARC
  5
6BC
330
208
100
AcDbEntity
  8
0
  6
Continuous
 62
     7
100
AcDbCircle
 10
636.5446820312
 20
168.0474617682
 30
0.0
 40
7.386
100
AcDbArc
 50
126.4241761856
 51
179.7440066322
  0
ARC
  5
6BD
330
208
100
AcDbEntity
  8
0
  6
Continuous
 62
     7
100
AcDbCircle
 10
627.7736820312
 20
168.0474617682
 30
0.0
 40
7.386
100
AcDbArc
 50
0.2559933678
 51
53.5758238144
  0
ARC
  5
6BE
330
208
100
AcDbEntity
  8
0
  6
Continuous
 62
     7
100
AcDbCircle
 10
627.7736820312
 20
168.0474617682
 30
0.0
 40
6.462999999999999
100
AcDbArc
 50
0.2925528299
 51
7.700422993099999
  0
ARC
  5
6BF
330
208
100
AcDbEntity
  8
0
  6
Continuous
 62
     7
100
AcDbCircle
 10
627.7736820312
 20
168.0474617682
 30
0.0
 40
6.462999999999999
100
AcDbArc
 50
16.0696949621
 51
47.26029003409998
  0
ARC
  5
6C0
330
208
100
AcDbEntity
  8
0
  6
Continuous
 62
     7
100
AcDbCircle
 10
636.5446820312
 20
168.0474617682
 30
0.0
 40
6.462
100
AcDbArc
 50
172.2983781311
 51
179.7074018969
  0
ARC
  5
6C1
330
208
100
AcDbEntity
  8
0
  6
Continuous
 62
     7
100
AcDbCircle
 10
636.5446820312
 20
168.0474617682
 30
0.0
 40
6.462
100
AcDbArc
 50
132.7301138375
 51
163.9277508971
  0
CIRCLE
  5
6C2
330
208
100
AcDbEntity
  8
0
  6
Continuous
 62
     7
100
AcDbCircle
 10
649.1626820311998
 20
171.1214617682
 30
0.0
 40
3.0
  0
ARC
  5
6C3
330
208
100
AcDbEntity
  8
0
  6
Continuous
 62
     7
100
AcDbCircle
 10
640.6606820312
 20
171.1214617682
 30
0.0
 40
3.0
100
AcDbArc
 50
30.7330093499
 51
329.994262887
  0
CIRCLE
  5
6C4
330
208
100
AcDbEntity
  8
0
  6
Continuous
 62
     7
100
AcDbCircle
 10
649.1626820311998
 20
171.1214617682
 30
0.0
 40
2.076999999999999
  0
ARC
  5
6C5
330
208
100
AcDbEntity
  8
0
  6
Continuous
 62
     7
100
AcDbCircle
 10
640.6606820312
 20
171.1214617682
 30
0.0
 40
2.076999999999999
100
AcDbArc
 50
31.05878344739999
 51
329.9917133659
  0
CIRCLE
  5
6C6
330
208
100
AcDbEntity
  8
0
  6
Continuous
 62
     7
100
AcDbCircle
 10
-158.8420250865
 20
268.4741579938
 30
0.0
 40
2.749072991899998
  0
CIRCLE
  5
6C7
330
208
100
AcDbEntity
  8
0
  6
Continuous
 62
     7
100
AcDbCircle
 10
591.1579749133997
 20
268.4741579943
 30
0.0
 40
2.749072991499998
  0
DIMENSION
  5
939
102
{ACAD_XDICTIONARY
360
947
102
}
102
{ACAD_REACTORS
330
948
102
}
330
208
100
AcDbEntity
  8
P-0000
  6
Continuous
100
AcDbDimension
  2
*D6
 10
-258.4569890877133
 20
277.6776081934
 30
0.0
 11
-258.4569890877133
 21
270.07812649525
 31
0.0
 70
   160
 71
     5
 42
15.19896339629997
  3
883N99122_001_00149479900
100
AcDbAlignedDimension
 13
-220.8413179688
 23
262.4786447971
 33
0.0
 14
-222.8413179688
 24
277.6776081934
 34
0.0
 50
90.00000000000005
100
AcDbRotatedDimension
1001
ACAD_DSTYLE_DIMINSPECT
1070
   396
1000
100%
1070
   395
1000

1070
   394
1070
    33
1070
   393
1070
     0
1001
ACAD
1000
DSTYLE
1002
{
1070
   271
1070
     0
1070
   288
1070
     1
1002
}
  0
DIMENSION
  5
971
102
{ACAD_XDICTIONARY
360
97F
102
}
102
{ACAD_REACTORS
330
980
102
}
330
208
100
AcDbEntity
  8
P-0000
  6
Continuous
100
AcDbDimension
  2
*D7
 10
-258.589622890588
 20
158.8291459545
 30
0.0
 11
-258.5896228905881
 21
189.3753533470517
 31
0.0
 70
   160
 71
     5
 42
61.50142871419999
  3
883N99122_001_00149479900
100
AcDbAlignedDimension
 13
-222.8413179688
 23
220.3305746687
 33
0.0
 14
-222.8413179688
 24
158.8291459545
 34
0.0
 50
90.0
100
AcDbRotatedDimension
1001
ACAD_DSTYLE_DIMINSPECT
1070
   396
1000
100%
1070
   395
1000

1070
   394
1070
    33
1070
   393
1070
     0
1001
ACAD
1000
DSTYLE
1002
{
1070
   271
1070
     0
1070
   279
1070
     2
1070
   288
1070
     1
1002
}
  0
DIMENSION
  5
9DB
102
{ACAD_XDICTIONARY
360
9E9
102
}
102
{ACAD_REACTORS
330
9EA
102
}
330
208
100
AcDbEntity
  8
P-0000
  6
Continuous
100
AcDbDimension
  2
*D8
 10
655.1586820312
 20
134.0207960982493
 30
0.0
 11
216.1586820312
 21
141.5207960982493
 31
0.0
 70
    32
 71
     5
 42
878.0
  3
883N99122_001_00149479900
100
AcDbAlignedDimension
 13
-222.8413179688
 23
158.8291459545
 33
0.0
 14
655.1586820312
 24
158.8303488677
 34
0.0
 50
0.0000000000001132
100
AcDbRotatedDimension
1001
ACAD_DSTYLE_DIMINSPECT
1070
   396
1000
100%
1070
   395
1000

1070
   394
1070
    33
1070
   393
1070
     0
1001
ACAD
1000
DSTYLE
1002
{
1070
   279
1070
     2
1070
   288
1070
     1
1002
}
  0
ENDSEC
  0
SECTION
  2
OBJECTS
  0
DICTIONARY
  5
C
330
0
100
AcDbDictionary
281
     1
  3
ACAD_2007HEADERVARS_RT
350
E12
  3
ACAD_COLOR
350
6FA
  3
ACAD_GROUP
350
D
  3
ACAD_LAYOUT
350
1A
  3
ACAD_MATERIAL
350
6CD
  3
ACAD_MLEADERSTYLE
350
70F
  3
ACAD_MLINESTYLE
350
17
  3
ACAD_PLOTSETTINGS
350
19
  3
ACAD_PLOTSTYLENAME
350
E
  3
ACAD_SCALELIST
350
6FD
  3
ACAD_TABLESTYLE
350
6FB
  3
ACAD_VISUALSTYLE
350
6E6
  3
ACDB_RECOMPOSE_DATA
350
E10
  3
AcDbVariableDictionary
350
87D
  3
AcmDictionary
350
769
  3
AEC_PROPERTY_SET_DEFS
350
B75
  3
AMG
350
713
  3
AMGSNAPSETTINGS
350
7AE
  3
DWGPROPS
350
E11
  0
DICTIONARY
  5
A32
330
2
100
AcDbDictionary
280
     1
281
     1
  3
ACAD_LAYERSTATES
360
A33
  0
DICTIONARY
  5
A30
330
A2F
100
AcDbDictionary
280
     1
281
     1
  0
DICTIONARY
  5
947
330
939
100
AcDbDictionary
280
     1
281
     1
  3
ACAD_DIMASSOC
360
948
  0
DICTIONARY
  5
97F
330
971
100
AcDbDictionary
280
     1
281
     1
  3
ACAD_DIMASSOC
360
980
  0
DICTIONARY
  5
9E9
330
9DB
100
AcDbDictionary
280
     1
281
     1
  3
ACAD_DIMASSOC
360
9EA
  0
DICTIONARY
  5
E12
102
{ACAD_REACTORS
330
C
102
}
330
C
100
AcDbDictionary
281
     1
  3
DIMJOGANG
350
E13
  3
DIMLTEX1
350
E15
  3
DIMLTEX2
350
E16
  3
DIMLTYPE
350
E14
  0
DICTIONARY
  5
6FA
102
{ACAD_REACTORS
330
C
102
}
330
C
100
AcDbDictionary
281
     1
  0
DICTIONARY
  5
D
102
{ACAD_REACTORS
330
C
102
}
330
C
100
AcDbDictionary
281
     1
  0
DICTIONARY
  5
1A
102
{ACAD_REACTORS
330
C
102
}
330
C
100
AcDbDictionary
281
     1
  3
Layout1
350
6C9
  3
Model
350
6C8
  0
DICTIONARY
  5
6CD
102
{ACAD_REACTORS
330
C
102
}
330
C
100
AcDbDictionary
281
     1
  3
ByBlock
350
6D6
  3
ByLayer
350
6CE
  3
Global
350
6DE
  0
DICTIONARY
  5
70F
102
{ACAD_REACTORS
330
C
102
}
330
C
100
AcDbDictionary
281
     1
  3
Standard
350
710
  0
DICTIONARY
  5
17
102
{ACAD_REACTORS
330
C
102
}
330
C
100
AcDbDictionary
281
     1
  3
Standard
350
18
  0
DICTIONARY
  5
19
102
{ACAD_REACTORS
330
C
102
}
330
C
100
AcDbDictionary
281
     1
  0
ACDBDICTIONARYWDFLT
  5
E
102
{ACAD_REACTORS
330
C
102
}
330
C
100
AcDbDictionary
281
     1
  3
Normal
350
F
100
AcDbDictionaryWithDefault
340
F
  0
DICTIONARY
  5
6FD
102
{ACAD_REACTORS
330
C
102
}
330
C
100
AcDbDictionary
281
     1
  3
A0
350
6FE
  3
A1
350
6FF
  3
A2
350
700
  3
A3
350
701
  3
A4
350
702
  3
A5
350
703
  3
A6
350
704
  3
A7
350
705
  3
A8
350
706
  3
A9
350
707
  3
B0
350
708
  3
B1
350
709
  3
B2
350
70A
  3
B3
350
70B
  3
B4
350
70C
  3
B5
350
70D
  3
B6
350
70E
  0
DICTIONARY
  5
6FB
102
{ACAD_REACTORS
330
C
102
}
330
C
100
AcDbDictionary
281
     1
  3
Standard
350
6FC
  0
DICTIONARY
  5
6E6
102
{ACAD_REACTORS
330
C
102
}
330
C
100
AcDbDictionary
281
     1
  3
2dWireframe
350
6EC
  3
3D Hidden
350
6EE
  3
3dWireframe
350
6ED
  3
Basic
350
6EB
  3
Brighten
350
6F2
  3
ColorChange
350
6F6
  3
Conceptual
350
6EF
  3
Dim
350
6F1
  3
EdgeColorOff
350
6F9
  3
Facepattern
350
6F5
  3
Flat
350
6E7
  3
FlatWithEdges
350
6E8
  3
Gouraud
350
6E9
  3
GouraudWithEdges
350
6EA
  3
JitterOff
350
6F7
  3
Linepattern
350
6F4
  3
OverhangOff
350
6F8
  3
Realistic
350
6F0
  3
Thicken
350
6F3
  0
XRECORD
  5
E10
102
{ACAD_REACTORS
330
C
102
}
330
C
100
AcDbXrecord
280
     1
 90
        1
330
6FC
  0
DICTIONARY
  5
87D
102
{ACAD_REACTORS
330
C
102
}
330
C
100
AcDbDictionary
281
     1
  3
CANNOSCALE
350
881
  3
CMLEADERSTYLE
350
87F
  3
CTABLESTYLE
350
87E
  3
DIMASSOC
350
888
  3
HIDETEXT
350
887
  3
INDEXCTL
350
886
  3
LAYEREVAL
350
883
  3
LAYERNOTIFY
350
884
  3
LIGHTINGUNITS
350
882
  3
MSLTSCALE
350
880
  3
SORTENTS
350
885
  3
XCLIPFRAME
350
E0E
  0
DICTIONARY
  5
769
102
{ACAD_REACTORS
330
C
102
}
330
C
100
AcDbDictionary
281
     1
  3
AcmStdDictionary
350
773
  0
DICTIONARY
  5
B75
102
{ACAD_REACTORS
330
C
102
}
330
C
100
AcDbDictionary
281
     1
  0
DICTIONARY
  5
713
102
{ACAD_REACTORS
330
C
102
}
330
C
100
AcDbDictionary
281
     1
  0
DICTIONARY
  5
7AE
102
{ACAD_REACTORS
330
C
102
}
330
C
100
AcDbDictionary
281
     1
  0
XRECORD
  5
E11
102
{ACAD_REACTORS
330
C
102
}
330
C
100
AcDbXrecord
280
     1
  1
DWGPROPS COOKIE
  2

  3

  4

  6

  7

  8
MAlaie
  9

300
=
301
=
302
=
303
=
304
=
305
=
306
=
307
=
308
=
309
=
 40
0.008215787037037
 41
2456562.31250897
 42
2456671.451454595
  1

 90
        0
  0
DICTIONARY
  5
A33
102
{ACAD_REACTORS
330
A32
102
}
330
A32
100
AcDbDictionary
281
     1
  0
DIMASSOC
  5
948
102
{ACAD_REACTORS
330
947
102
}
330
947
100
AcDbDimAssoc
330
939
 90
        3
 70
     0
 71
     0
  1
AcDbOsnapPointRef
 72
    13
331
6B5
 73
     0
 91
        0
 40
0.0
 10
0.0
 20
0.0
 30
2.000000000000000E+50
 75
     0
  1
AcDbOsnapPointRef
 72
     1
331
6B2
 73
     0
 91
        0
 40
0.0
 10
0.0
 20
0.0
 30
2.000000000000000E+50
 75
     0
  0
DIMASSOC
  5
980
102
{ACAD_REACTORS
330
97F
102
}
330
97F
100
AcDbDimAssoc
330
971
 90
        3
 70
     0
 71
     0
  1
AcDbOsnapPointRef
 72
     1
331
23F
 73
     0
 91
        0
 40
0.0
 10
0.0
 20
0.0
 30
2.000000000000000E+50
 75
     0
  1
AcDbOsnapPointRef
 72
    13
331
348
 73
     0
 91
        0
 40
0.0
 10
0.0
 20
0.0
 30
2.000000000000000E+50
 75
     0
  0
DIMASSOC
  5
9EA
102
{ACAD_REACTORS
330
9E9
102
}
330
9E9
100
AcDbDimAssoc
330
9DB
 90
        2
 70
     0
 71
     0
  1
AcDbOsnapPointRef
 72
    13
331
6B0
 73
     0
 91
        0
 40
0.0
 10
0.0
 20
0.0
 30
2.000000000000000E+50
 75
     0
  0
XRECORD
  5
E13
102
{ACAD_REACTORS
330
E12
102
}
330
E12
100
AcDbXrecord
280
     1
 40
1.570796326794896
  0
XRECORD
  5
E15
102
{ACAD_REACTORS
330
E12
102
}
330
E12
100
AcDbXrecord
280
     1
340
14
  0
XRECORD
  5
E16
102
{ACAD_REACTORS
330
E12
102
}
330
E12
100
AcDbXrecord
280
     1
340
14
  0
XRECORD
  5
E14
102
{ACAD_REACTORS
330
E12
102
}
330
E12
100
AcDbXrecord
280
     1
340
14
  0
LAYOUT
  5
6C9
102
{ACAD_XDICTIONARY
360
E19
102
}
102
{ACAD_REACTORS
330
1A
102
}
330
1A
100
AcDbPlotSettings
  1

  2
none_device
  4
ISO_A3_(420.00_x_297.00_MM)
  6

 40
0.0
 41
0.0
 42
0.0
 43
0.0
 44
420.0
 45
297.0
 46
0.0
 47
0.0
 48
0.0
 49
0.0
140
0.0
141
0.0
142
1.0
143
1.0
 70
     0
 72
     1
 73
     0
 74
     0
  7

 75
     0
147
1.0
148
0.0
149
0.0
100
AcDbLayout
  1
Layout1
 70
     1
 71
     1
 10
0.0
 20
0.0
 11
12.0
 21
9.0
 12
0.0
 22
0.0
 32
0.0
 14
1.000000000000000E+20
 24
1.000000000000000E+20
 34
1.000000000000000E+20
 15
-1.000000000000000E+20
 25
-1.000000000000000E+20
 35
-1.000000000000000E+20
146
0.0
 13
0.0
 23
0.0
 33
0.0
 16
1.0
 26
0.0
 36
0.0
 17
0.0
 27
1.0
 37
0.0
 76
     0
330
209
  0
LAYOUT
  5
6C8
102
{ACAD_XDICTIONARY
360
E17
102
}
102
{ACAD_REACTORS
330
1A
102
}
330
1A
100
AcDbPlotSettings
  1

  2
none_device
  4
ISO_A3_(420.00_x_297.00_MM)
  6

 40
0.0
 41
0.0
 42
0.0
 43
0.0
 44
420.0
 45
297.0
 46
0.0
 47
0.0
 48
0.0
 49
0.0
140
0.0
141
0.0
142
1.0
143
1.0
 70
  1024
 72
     1
 73
     0
 74
     0
  7

 75
     0
147
1.0
148
0.0
149
0.0
100
AcDbLayout
  1
Model
 70
     0
 71
     0
 10
0.0
 20
0.0
 11
420.0
 21
297.0
 12
0.0
 22
0.0
 32
0.0
 14
0.0
 24
0.0
 34
0.0
 15
0.0
 25
0.0
 35
0.0
146
0.0
 13
0.0
 23
0.0
 33
0.0
 16
1.0
 26
0.0
 36
0.0
 17
0.0
 27
1.0
 37
0.0
 76
     0
330
208
331
1F4
  0
MATERIAL
  5
6D6
102
{ACAD_XDICTIONARY
360
6D7
102
}
102
{ACAD_REACTORS
330
6CD
102
}
330
6CD
100
AcDbMaterial
  1
ByBlock
 72
     0
 43
0.0008202099737533
 43
0.0
 43
0.0
 43
0.0
 43
0.0
 43
0.0008202099737533
 43
0.0
 43
0.0
 43
0.0
 43
0.0
 43
1.0
 43
0.0
 43
0.0
 43
0.0
 43
0.0
 43
1.0
 77
     0
 47
0.0008202099737533
 47
0.0
 47
0.0
 47
0.0
 47
0.0
 47
0.0008202099737533
 47
0.0
 47
0.0
 47
0.0
 47
0.0
 47
1.0
 47
0.0
 47
0.0
 47
0.0
 47
0.0
 47
1.0
171
     0
 49
0.0008202099737533
 49
0.0
 49
0.0
 49
0.0
 49
0.0
 49
0.0008202099737533
 49
0.0
 49
0.0
 49
0.0
 49
0.0
 49
1.0
 49
0.0
 49
0.0
 49
0.0
 49
0.0
 49
1.0
175
     0
142
0.0008202099737533
142
0.0
142
0.0
142
0.0
142
0.0
142
0.0008202099737533
142
0.0
142
0.0
142
0.0
142
0.0
142
1.0
142
0.0
142
0.0
142
0.0
142
0.0
142
1.0
179
     0
144
0.0008202099737533
144
0.0
144
0.0
144
0.0
144
0.0
144
0.0008202099737533
144
0.0
144
0.0
144
0.0
144
0.0
144
1.0
144
0.0
144
0.0
144
0.0
144
0.0
144
1.0
147
0.0008202099737533
147
0.0
147
0.0
147
0.0
147
0.0
147
0.0008202099737533
147
0.0
147
0.0
147
0.0
147
0.0
147
1.0
147
0.0
147
0.0
147
0.0
147
0.0
147
1.0
  0
MATERIAL
  5
6CE
102
{ACAD_XDICTIONARY
360
6CF
102
}
102
{ACAD_REACTORS
330
6CD
102
}
330
6CD
100
AcDbMaterial
  1
ByLayer
 72
     0
 43
0.0008202099737533
 43
0.0
 43
0.0
 43
0.0
 43
0.0
 43
0.0008202099737533
 43
0.0
 43
0.0
 43
0.0
 43
0.0
 43
1.0
 43
0.0
 43
0.0
 43
0.0
 43
0.0
 43
1.0
 77
     0
 47
0.0008202099737533
 47
0.0
 47
0.0
 47
0.0
 47
0.0
 47
0.0008202099737533
 47
0.0
 47
0.0
 47
0.0
 47
0.0
 47
1.0
 47
0.0
 47
0.0
 47
0.0
 47
0.0
 47
1.0
171
     0
 49
0.0008202099737533
 49
0.0
 49
0.0
 49
0.0
 49
0.0
 49
0.0008202099737533
 49
0.0
 49
0.0
 49
0.0
 49
0.0
 49
1.0
 49
0.0
 49
0.0
 49
0.0
 49
0.0
 49
1.0
175
     0
142
0.0008202099737533
142
0.0
142
0.0
142
0.0
142
0.0
142
0.0008202099737533
142
0.0
142
0.0
142
0.0
142
0.0
142
1.0
142
0.0
142
0.0
142
0.0
142
0.0
142
1.0
179
     0
144
0.0008202099737533
144
0.0
144
0.0
144
0.0
144
0.0
144
0.0008202099737533
144
0.0
144
0.0
144
0.0
144
0.0
144
1.0
144
0.0
144
0.0
144
0.0
144
0.0
144
1.0
147
0.0008202099737533
147
0.0
147
0.0
147
0.0
147
0.0
147
0.0008202099737533
147
0.0
147
0.0
147
0.0
147
0.0
147
1.0
147
0.0
147
0.0
147
0.0
147
0.0
147
1.0
  0
MATERIAL
  5
6DE
102
{ACAD_XDICTIONARY
360
6DF
102
}
102
{ACAD_REACTORS
330
6CD
102
}
330
6CD
100
AcDbMaterial
  1
Global
 72
     0
 43
0.0008202099737533
 43
0.0
 43
0.0
 43
0.0
 43
0.0
 43
0.0008202099737533
 43
0.0
 43
0.0
 43
0.0
 43
0.0
 43
1.0
 43
0.0
 43
0.0
 43
0.0
 43
0.0
 43
1.0
 77
     0
 47
0.0008202099737533
 47
0.0
 47
0.0
 47
0.0
 47
0.0
 47
0.0008202099737533
 47
0.0
 47
0.0
 47
0.0
 47
0.0
 47
1.0
 47
0.0
 47
0.0
 47
0.0
 47
0.0
 47
1.0
171
     0
 49
0.0008202099737533
 49
0.0
 49
0.0
 49
0.0
 49
0.0
 49
0.0008202099737533
 49
0.0
 49
0.0
 49
0.0
 49
0.0
 49
1.0
 49
0.0
 49
0.0
 49
0.0
 49
0.0
 49
1.0
175
     0
142
0.0008202099737533
142
0.0
142
0.0
142
0.0
142
0.0
142
0.0008202099737533
142
0.0
142
0.0
142
0.0
142
0.0
142
1.0
142
0.0
142
0.0
142
0.0
142
0.0
142
1.0
179
     0
144
0.0008202099737533
144
0.0
144
0.0
144
0.0
144
0.0
144
0.0008202099737533
144
0.0
144
0.0
144
0.0
144
0.0
144
1.0
144
0.0
144
0.0
144
0.0
144
0.0
144
1.0
147
0.0008202099737533
147
0.0
147
0.0
147
0.0
147
0.0
147
0.0008202099737533
147
0.0
147
0.0
147
0.0
147
0.0
147
1.0
147
0.0
147
0.0
147
0.0
147
0.0
147
1.0
  0
MLEADERSTYLE
  5
710
102
{ACAD_REACTORS
330
70F
102
}
330
70F
100
AcDbMLeaderStyle
170
     2
171
     1
172
     0
 90
        2
 40
0.0
 41
0.0
173
     1
 91
-1056964608
340
14
 92
       -2
290
     1
 42
2.0
291
     1
 43
0.36
  3
Standard
 44
4.0
300

342
11
174
     1
178
     6
175
     1
176
     0
 93
-1056964608
 45
4.0
292
     0
297
     0
 46
4.0
 94
-1056964608
 47
1.0
 49
1.0
140
1.0
293
     1
141
0.0
294
     1
177
     0
142
1.0
295
     0
296
     0
143
0.125
1001
ACAD_MLEADERVER
1070
     2
  0
MLINESTYLE
  5
18
102
{ACAD_REACTORS
330
17
102
}
330
17
100
AcDbMlineStyle
  2
STANDARD
 70
     0
  3

 62
   256
 51
90.0
 52
90.0
 71
     2
 49
0.5
 62
   256
  6
BYLAYER
 49
-0.5
 62
   256
  6
BYLAYER
  0
ACDBPLACEHOLDER
  5
F
102
{ACAD_REACTORS
330
E
102
}
330
E
  0
SCALE
  5
6FE
102
{ACAD_REACTORS
330
6FD
102
}
330
6FD
100
AcDbScale
 70
     0
300
1:1
140
1.0
141
1.0
290
     1
  0
SCALE
  5
6FF
102
{ACAD_REACTORS
330
6FD
102
}
330
6FD
100
AcDbScale
 70
     0
300
1:2
140
1.0
141
2.0
290
     0
  0
SCALE
  5
700
102
{ACAD_REACTORS
330
6FD
102
}
330
6FD
100
AcDbScale
 70
     0
300
1:4
140
1.0
141
4.0
290
     0
  0
SCALE
  5
701
102
{ACAD_REACTORS
330
6FD
102
}
330
6FD
100
AcDbScale
 70
     0
300
1:5
140
1.0
141
5.0
290
     0
  0
SCALE
  5
702
102
{ACAD_REACTORS
330
6FD
102
}
330
6FD
100
AcDbScale
 70
     0
300
1:8
140
1.0
141
8.0
290
     0
  0
SCALE
  5
703
102
{ACAD_REACTORS
330
6FD
102
}
330
6FD
100
AcDbScale
 70
     0
300
1:10
140
1.0
141
10.0
290
     0
  0
SCALE
  5
704
102
{ACAD_REACTORS
330
6FD
102
}
330
6FD
100
AcDbScale
 70
     0
300
1:16
140
1.0
141
16.0
290
     0
  0
SCALE
  5
705
102
{ACAD_REACTORS
330
6FD
102
}
330
6FD
100
AcDbScale
 70
     0
300
1:20
140
1.0
141
20.0
290
     0
  0
SCALE
  5
706
102
{ACAD_REACTORS
330
6FD
102
}
330
6FD
100
AcDbScale
 70
     0
300
1:30
140
1.0
141
30.0
290
     0
  0
SCALE
  5
707
102
{ACAD_REACTORS
330
6FD
102
}
330
6FD
100
AcDbScale
 70
     0
300
1:40
140
1.0
141
40.0
290
     0
  0
SCALE
  5
708
102
{ACAD_REACTORS
330
6FD
102
}
330
6FD
100
AcDbScale
 70
     0
300
1:50
140
1.0
141
50.0
290
     0
  0
SCALE
  5
709
102
{ACAD_REACTORS
330
6FD
102
}
330
6FD
100
AcDbScale
 70
     0
300
1:100
140
1.0
141
100.0
290
     0
  0
SCALE
  5
70A
102
{ACAD_REACTORS
330
6FD
102
}
330
6FD
100
AcDbScale
 70
     0
300
2:1
140
2.0
141
1.0
290
     0
  0
SCALE
  5
70B
102
{ACAD_REACTORS
330
6FD
102
}
330
6FD
100
AcDbScale
 70
     0
300
4:1
140
4.0
141
1.0
290
     0
  0
SCALE
  5
70C
102
{ACAD_REACTORS
330
6FD
102
}
330
6FD
100
AcDbScale
 70
     0
300
8:1
140
8.0
141
1.0
290
     0
  0
SCALE
  5
70D
102
{ACAD_REACTORS
330
6FD
102
}
330
6FD
100
AcDbScale
 70
     0
300
10:1
140
10.0
141
1.0
290
     0
  0
SCALE
  5
70E
102
{ACAD_REACTORS
330
6FD
102
}
330
6FD
100
AcDbScale
 70
     0
300
100:1
140
100.0
141
1.0
290
     0
  0
TABLESTYLE
  5
6FC
102
{ACAD_XDICTIONARY
360
88A
102
}
102
{ACAD_REACTORS
330
6FB
102
}
330
6FB
100
AcDbTableStyle
  3
Standard
 70
     0
 71
     0
 40
1.5
 41
1.5
280
     0
281
     0
  7
STANDARD
140
4.5
170
     2
 62
     0
 63
     7
283
     0
274
    -2
284
     1
 64
     0
275
    -2
285
     1
 65
     0
276
    -2
286
     1
 66
     0
277
    -2
287
     1
 67
     0
278
    -2
288
     1
 68
     0
279
    -2
289
     1
 69
     0
  7
STANDARD
140
6.0
170
     5
 62
     0
 63
     7
283
     0
274
    -2
284
     1
 64
     0
275
    -2
285
     1
 65
     0
276
    -2
286
     1
 66
     0
277
    -2
287
     1
 67
     0
278
    -2
288
     1
 68
     0
279
    -2
289
     1
 69
     0
  7
STANDARD
140
4.5
170
     5
 62
     0
 63
     7
283
     0
274
    -2
284
     1
 64
     0
275
    -2
285
     1
 65
     0
276
    -2
286
     1
 66
     0
277
    -2
287
     1
 67
     0
278
    -2
288
     1
 68
     0
279
    -2
289
     1
 69
     0
  0
VISUALSTYLE
  5
6EC
102
{ACAD_XDICTIONARY
360
E25
102
}
102
{ACAD_REACTORS
330
6E6
102
}
330
6E6
100
AcDbVisualStyle
  2

 70
     4
 71
     0
 72
     2
 73
     0
 90
        0
 40
-0.6
 41
-30.0
 62
     5
 63
     7
 74
     1
 91
        4
 64
     7
 65
   257
 75
     1
175
     1
 42
1.0
 92
        0
 66
   257
 43
1.0
 76
     1
 77
     6
 78
     2
 67
     7
 79
     5
170
     0
171
     0
290
     0
174
     0
 93
        1
 44
0.0
173
     0
291
     0
 45
0.0
1001
ACAD
1000
AcDbSavedByObjectVersion
1070
     0
  0
VISUALSTYLE
  5
6EE
102
{ACAD_XDICTIONARY
360
E29
102
}
102
{ACAD_REACTORS
330
6E6
102
}
330
6E6
100
AcDbVisualStyle
  2

 70
     6
 71
     1
 72
     2
 73
     2
 90
        0
 40
-0.6
 41
-30.0
 62
     5
 63
     7
 74
     2
 91
        2
 64
     7
 65
   257
 75
     2
175
     1
 42
179.0
 92
        0
 66
   257
 43
1.0
 76
     1
 77
     6
 78
     2
 67
     7
 79
     3
170
     0
171
     0
290
     0
174
     0
 93
        1
 44
0.0
173
     0
291
     0
 45
0.0
1001
ACAD
1000
AcDbSavedByObjectVersion
1070
     0
  0
VISUALSTYLE
  5
6ED
102
{ACAD_XDICTIONARY
360
E27
102
}
102
{ACAD_REACTORS
330
6E6
102
}
330
6E6
100
AcDbVisualStyle
  2

 70
     5
 71
     0
 72
     2
 73
     0
 90
        0
 40
-0.6
 41
-30.0
 62
     5
 63
     7
 74
     1
 91
        4
 64
     7
 65
   257
 75
     1
175
     1
 42
1.0
 92
        0
 66
   257
 43
1.0
 76
     1
 77
     6
 78
     2
 67
     7
 79
     5
170
     0
171
     0
290
     0
174
     0
 93
        1
 44
0.0
173
     0
291
     0
 45
0.0
1001
ACAD
1000
AcDbSavedByObjectVersion
1070
     0
  0
VISUALSTYLE
  5
6EB
102
{ACAD_XDICTIONARY
360
E23
102
}
102
{ACAD_REACTORS
330
6E6
102
}
330
6E6
100
AcDbVisualStyle
  2

 70
     7
 71
     1
 72
     0
 73
     1
 90
        0
 40
-0.6
 41
-30.0
 62
     5
 63
     7
 74
     0
 91
        4
 64
     7
 65
   257
 75
     1
175
     1
 42
1.0
 92
        8
 66
     7
 43
1.0
 76
     1
 77
     6
 78
     2
 67
     7
 79
     5
170
     0
171
     0
290
     0
174
     0
 93
        1
 44
0.0
173
     0
291
     1
 45
0.0
1001
ACAD
1000
AcDbSavedByObjectVersion
1070
     0
  0
VISUALSTYLE
  5
6F2
102
{ACAD_XDICTIONARY
360
E31
102
}
102
{ACAD_REACTORS
330
6E6
102
}
330
6E6
100
AcDbVisualStyle
  2

 70
    12
 71
     2
 72
     2
 73
     0
 90
        0
 40
-0.6
 41
-30.0
 62
     5
 63
     7
 74
     1
 91
        4
 64
     7
 65
   257
 75
     1
175
     1
 42
1.0
 92
        8
 66
     7
 43
1.0
 76
     1
 77
     6
 78
     2
 67
     7
 79
     5
170
     0
171
     0
290
     0
174
     0
 93
        1
 44
50.0
173
     0
291
     1
 45
0.0
1001
ACAD
1000
AcDbSavedByObjectVersion
1070
     0
  0
VISUALSTYLE
  5
6F6
102
{ACAD_XDICTIONARY
360
E39
102
}
102
{ACAD_REACTORS
330
6E6
102
}
330
6E6
100
AcDbVisualStyle
  2

 70
    16
 71
     2
 72
     2
 73
     3
 90
        0
 40
-0.6
 41
-30.0
 62
     5
 63
     8
 74
     1
 91
        4
 64
     7
 65
   257
 75
     1
175
     1
 42
1.0
 92
        8
 66
     8
 43
1.0
 76
     1
 77
     6
 78
     2
 67
     7
 79
     5
170
     0
171
     0
290
     0
174
     0
 93
        1
 44
0.0
173
     0
291
     1
 45
0.0
1001
ACAD
1000
AcDbSavedByObjectVersion
1070
     0
  0
VISUALSTYLE
  5
6EF
102
{ACAD_XDICTIONARY
360
E2B
102
}
102
{ACAD_REACTORS
330
6E6
102
}
330
6E6
100
AcDbVisualStyle
  2

 70
     9
 71
     3
 72
     2
 73
     0
 90
        0
 40
-0.6
 41
-30.0
 62
     5
 63
     7
 74
     2
 91
        2
 64
     7
 65
   257
 75
     1
175
     1
 42
179.0
 92
        8
 66
     7
 43
1.0
 76
     1
 77
     6
 78
     2
 67
     7
 79
     3
170
     0
171
     0
290
     0
174
     0
 93
        1
 44
0.0
173
     0
291
     0
 45
0.0
1001
ACAD
1000
AcDbSavedByObjectVersion
1070
     0
  0
VISUALSTYLE
  5
6F1
102
{ACAD_XDICTIONARY
360
E2F
102
}
102
{ACAD_REACTORS
330
6E6
102
}
330
6E6
100
AcDbVisualStyle
  2

 70
    11
 71
     2
 72
     2
 73
     0
 90
        0
 40
-0.6
 41
-30.0
 62
     5
 63
     7
 74
     1
 91
        4
 64
     7
 65
   257
 75
     1
175
     1
 42
1.0
 92
        8
 66
     7
 43
1.0
 76
     1
 77
     6
 78
     2
 67
     7
 79
     5
170
     0
171
     0
290
     0
174
     0
 93
        1
 44
-50.0
173
     0
291
     1
 45
0.0
1001
ACAD
1000
AcDbSavedByObjectVersion
1070
     0
  0
VISUALSTYLE
  5
6F9
102
{ACAD_XDICTIONARY
360
E3F
102
}
102
{ACAD_REACTORS
330
6E6
102
}
330
6E6
100
AcDbVisualStyle
  2

 70
    22
 71
     2
 72
     2
 73
     0
 90
        0
 40
-0.6
 41
-30.0
 62
     5
 63
     7
 74
     1
 91
        4
 64
     7
 65
   257
 75
     1
175
     1
 42
1.0
 92
        8
 66
     7
 43
1.0
 76
     1
 77
     6
 78
     2
 67
     7
 79
     5
170
     0
171
     0
290
     0
174
     0
 93
        1
 44
0.0
173
     0
291
     1
 45
0.0
1001
ACAD
1000
AcDbSavedByObjectVersion
1070
     0
  0
VISUALSTYLE
  5
6F5
102
{ACAD_XDICTIONARY
360
E37
102
}
102
{ACAD_REACTORS
330
6E6
102
}
330
6E6
100
AcDbVisualStyle
  2

 70
    15
 71
     2
 72
     2
 73
     0
 90
        0
 40
-0.6
 41
-30.0
 62
     5
 63
     7
 74
     1
 91
        4
 64
     7
 65
   257
 75
     1
175
     1
 42
1.0
 92
        8
 66
     7
 43
1.0
 76
     1
 77
     6
 78
     2
 67
     7
 79
     5
170
     0
171
     0
290
     0
174
     0
 93
        1
 44
0.0
173
     0
291
     1
 45
0.0
1001
ACAD
1000
AcDbSavedByObjectVersion
1070
     0
  0
VISUALSTYLE
  5
6E7
102
{ACAD_XDICTIONARY
360
E1B
102
}
102
{ACAD_REACTORS
330
6E6
102
}
330
6E6
100
AcDbVisualStyle
  2

 70
     0
 71
     2
 72
     1
 73
     1
 90
        2
 40
-0.6
 41
30.0
 62
     5
 63
     7
 74
     0
 91
        4
 64
     7
 65
   257
 75
     1
175
     1
 42
1.0
 92
        8
 66
     7
 43
1.0
 76
     1
 77
     6
 78
     2
 67
     7
 79
     5
170
     0
171
     0
290
     0
174
     0
 93
       13
 44
0.0
173
     0
291
     1
 45
0.0
1001
ACAD
1000
AcDbSavedByObjectVersion
1070
     0
  0
VISUALSTYLE
  5
6E8
102
{ACAD_XDICTIONARY
360
E1D
102
}
102
{ACAD_REACTORS
330
6E6
102
}
330
6E6
100
AcDbVisualStyle
  2

 70
     1
 71
     2
 72
     1
 73
     1
 90
        2
 40
-0.6
 41
30.0
 62
     5
 63
     7
 74
     1
 91
        4
 64
     7
 65
   257
 75
     1
175
     1
 42
1.0
 92
        0
 66
   257
 43
1.0
 76
     1
 77
     6
 78
     2
 67
     7
 79
     5
170
     0
171
     0
290
     0
174
     0
 93
       13
 44
0.0
173
     0
291
     1
 45
0.0
1001
ACAD
1000
AcDbSavedByObjectVersion
1070
     0
  0
VISUALSTYLE
  5
6E9
102
{ACAD_XDICTIONARY
360
E1F
102
}
102
{ACAD_REACTORS
330
6E6
102
}
330
6E6
100
AcDbVisualStyle
  2

 70
     2
 71
     2
 72
     2
 73
     1
 90
        2
 40
-0.6
 41
30.0
 62
     5
 63
     7
 74
     0
 91
        4
 64
     7
 65
   257
 75
     1
175
     1
 42
1.0
 92
        0
 66
     7
 43
1.0
 76
     1
 77
     6
 78
     2
 67
     7
 79
     5
170
     0
171
     0
290
     0
174
     0
 93
       13
 44
0.0
173
     0
291
     1
 45
0.0
1001
ACAD
1000
AcDbSavedByObjectVersion
1070
     0
  0
VISUALSTYLE
  5
6EA
102
{ACAD_XDICTIONARY
360
E21
102
}
102
{ACAD_REACTORS
330
6E6
102
}
330
6E6
100
AcDbVisualStyle
  2

 70
     3
 71
     2
 72
     2
 73
     1
 90
        2
 40
-0.6
 41
30.0
 62
     5
 63
     7
 74
     1
 91
        4
 64
     7
 65
   257
 75
     1
175
     1
 42
1.0
 92
        0
 66
   257
 43
1.0
 76
     1
 77
     6
 78
     2
 67
     7
 79
     5
170
     0
171
     0
290
     0
174
     0
 93
       13
 44
0.0
173
     0
291
     1
 45
0.0
1001
ACAD
1000
AcDbSavedByObjectVersion
1070
     0
  0
VISUALSTYLE
  5
6F7
102
{ACAD_XDICTIONARY
360
E3B
102
}
102
{ACAD_REACTORS
330
6E6
102
}
330
6E6
100
AcDbVisualStyle
  2

 70
    20
 71
     2
 72
     2
 73
     0
 90
        0
 40
-0.6
 41
-30.0
 62
     5
 63
     7
 74
     1
 91
        4
 64
     7
 65
   257
 75
     1
175
     1
 42
1.0
 92
       10
 66
     7
 43
1.0
 76
     1
 77
     6
 78
     2
 67
     7
 79
     5
170
     0
171
     0
290
     0
174
     0
 93
        1
 44
0.0
173
     0
291
     1
 45
0.0
1001
ACAD
1000
AcDbSavedByObjectVersion
1070
     0
  0
VISUALSTYLE
  5
6F4
102
{ACAD_XDICTIONARY
360
E35
102
}
102
{ACAD_REACTORS
330
6E6
102
}
330
6E6
100
AcDbVisualStyle
  2

 70
    14
 71
     2
 72
     2
 73
     0
 90
        0
 40
-0.6
 41
-30.0
 62
     5
 63
     7
 74
     1
 91
        4
 64
     7
 65
   257
 75
     7
175
     7
 42
1.0
 92
        8
 66
     7
 43
1.0
 76
     1
 77
     6
 78
     2
 67
     7
 79
     5
170
     0
171
     0
290
     0
174
     0
 93
        1
 44
0.0
173
     0
291
     1
 45
0.0
1001
ACAD
1000
AcDbSavedByObjectVersion
1070
     0
  0
VISUALSTYLE
  5
6F8
102
{ACAD_XDICTIONARY
360
E3D
102
}
102
{ACAD_REACTORS
330
6E6
102
}
330
6E6
100
AcDbVisualStyle
  2

 70
    21
 71
     2
 72
     2
 73
     0
 90
        0
 40
-0.6
 41
-30.0
 62
     5
 63
     7
 74
     1
 91
        4
 64
     7
 65
   257
 75
     1
175
     1
 42
1.0
 92
        9
 66
     7
 43
1.0
 76
     1
 77
     6
 78
     2
 67
     7
 79
     5
170
     0
171
     0
290
     0
174
     0
 93
        1
 44
0.0
173
     0
291
     1
 45
0.0
1001
ACAD
1000
AcDbSavedByObjectVersion
1070
     0
  0
VISUALSTYLE
  5
6F0
102
{ACAD_XDICTIONARY
360
E2D
102
}
102
{ACAD_REACTORS
330
6E6
102
}
330
6E6
100
AcDbVisualStyle
  2

 70
     8
 71
     2
 72
     2
 73
     0
 90
        0
 40
-0.6
 41
-30.0
 62
     5
 63
     7
 74
     1
 91
        0
 64
     7
 65
   257
 75
     1
175
     1
 42
1.0
 92
        8
 66
     8
 43
1.0
 76
     1
 77
     6
 78
     2
 67
     7
 79
     5
170
     0
171
     0
290
     0
174
     0
 93
       13
 44
0.0
173
     0
291
     0
 45
0.0
1001
ACAD
1000
AcDbSavedByObjectVersion
1070
     0
  0
VISUALSTYLE
  5
6F3
102
{ACAD_XDICTIONARY
360
E33
102
}
102
{ACAD_REACTORS
330
6E6
102
}
330
6E6
100
AcDbVisualStyle
  2

 70
    13
 71
     2
 72
     2
 73
     0
 90
        0
 40
-0.6
 41
-30.0
 62
     5
 63
     7
 74
     1
 91
        4
 64
     7
 65
   257
 75
     1
175
     1
 42
1.0
 92
       12
 66
     7
 43
1.0
 76
     1
 77
     6
 78
     2
 67
     7
 79
     5
170
     0
171
     0
290
     0
174
     0
 93
        1
 44
0.0
173
     0
291
     1
 45
0.0
1001
ACAD
1000
AcDbSavedByObjectVersion
1070
     0
  0
DICTIONARYVAR
  5
881
102
{ACAD_REACTORS
330
87D
102
}
330
87D
100
DictionaryVariables
280
     0
  1
1:1
  0
DICTIONARYVAR
  5
87F
102
{ACAD_REACTORS
330
87D
102
}
330
87D
100
DictionaryVariables
280
     0
  1
STANDARD
  0
DICTIONARYVAR
  5
87E
102
{ACAD_REACTORS
330
87D
102
}
330
87D
100
DictionaryVariables
280
     0
  1
STANDARD
  0
DICTIONARYVAR
  5
888
102
{ACAD_REACTORS
330
87D
102
}
330
87D
100
DictionaryVariables
280
     0
  1
2
  0
DICTIONARYVAR
  5
887
102
{ACAD_REACTORS
330
87D
102
}
330
87D
100
DictionaryVariables
280
     0
  1
1
  0
DICTIONARYVAR
  5
886
102
{ACAD_REACTORS
330
87D
102
}
330
87D
100
DictionaryVariables
280
     0
  1
0
  0
DICTIONARYVAR
  5
883
102
{ACAD_REACTORS
330
87D
102
}
330
87D
100
DictionaryVariables
280
     0
  1
0
  0
DICTIONARYVAR
  5
884
102
{ACAD_REACTORS
330
87D
102
}
330
87D
100
DictionaryVariables
280
     0
  1
0
  0
DICTIONARYVAR
  5
882
102
{ACAD_REACTORS
330
87D
102
}
330
87D
100
DictionaryVariables
280
     0
  1
2
  0
DICTIONARYVAR
  5
880
102
{ACAD_REACTORS
330
87D
102
}
330
87D
100
DictionaryVariables
280
     0
  1
1
  0
DICTIONARYVAR
  5
885
102
{ACAD_REACTORS
330
87D
102
}
330
87D
100
DictionaryVariables
280
     0
  1
127
  0
DICTIONARYVAR
  5
E0E
102
{ACAD_REACTORS
330
87D
102
}
330
87D
100
DictionaryVariables
280
     0
  1
2
  0
DICTIONARY
  5
773
102
{ACAD_REACTORS
330
769
102
}
330
769
100
AcDbDictionary
281
     1
  0
DICTIONARY
  5
E19
330
6C9
100
AcDbDictionary
280
     1
281
     1
  3
ACAD_XREC_ROUNDTRIP
360
E1A
  0
DICTIONARY
  5
E17
330
6C8
100
AcDbDictionary
280
     1
281
     1
  3
ACAD_XREC_ROUNDTRIP
360
E18
  0
DICTIONARY
  5
6D7
330
6D6
100
AcDbDictionary
280
     1
281
     1
  3
ACAD_XREC_ROUNDTRIP
360
893
  3
BUMPTILE
360
6D9
  3
DIFFUSETILE
360
6D8
  3
OPACITYTILE
360
6DC
  3
REFLECTIONTILE
360
6DB
  3
REFRACTIONTILE
360
6DD
  3
SPECULARTILE
360
6DA
  0
DICTIONARY
  5
6CF
330
6CE
100
AcDbDictionary
280
     1
281
     1
  3
ACAD_XREC_ROUNDTRIP
360
892
  3
BUMPTILE
360
6D1
  3
DIFFUSETILE
360
6D0
  3
OPACITYTILE
360
6D4
  3
REFLECTIONTILE
360
6D3
  3
REFRACTIONTILE
360
6D5
  3
SPECULARTILE
360
6D2
  0
DICTIONARY
  5
6DF
330
6DE
100
AcDbDictionary
280
     1
281
     1
  3
ACAD_XREC_ROUNDTRIP
360
894
  3
BUMPTILE
360
6E1
  3
DIFFUSETILE
360
6E0
  3
OPACITYTILE
360
6E4
  3
REFLECTIONTILE
360
6E3
  3
REFRACTIONTILE
360
6E5
  3
SPECULARTILE
360
6E2
  0
DICTIONARY
  5
88A
330
6FC
100
AcDbDictionary
280
     1
281
     1
  3
ACAD_ROUNDTRIP_2008_TABLESTYLE_CELLSTYLEMAP
360
E0F
  3
ACAD_XREC_ROUNDTRIP
360
E41
  0
DICTIONARY
  5
E25
330
6EC
100
AcDbDictionary
280
     1
281
     1
  3
ACAD_XREC_ROUNDTRIP
360
E26
  0
DICTIONARY
  5
E29
330
6EE
100
AcDbDictionary
280
     1
281
     1
  3
ACAD_XREC_ROUNDTRIP
360
E2A
  0
DICTIONARY
  5
E27
330
6ED
100
AcDbDictionary
280
     1
281
     1
  3
ACAD_XREC_ROUNDTRIP
360
E28
  0
DICTIONARY
  5
E23
330
6EB
100
AcDbDictionary
280
     1
281
     1
  3
ACAD_XREC_ROUNDTRIP
360
E24
  0
DICTIONARY
  5
E31
330
6F2
100
AcDbDictionary
280
     1
281
     1
  3
ACAD_XREC_ROUNDTRIP
360
E32
  0
DICTIONARY
  5
E39
330
6F6
100
AcDbDictionary
280
     1
281
     1
  3
ACAD_XREC_ROUNDTRIP
360
E3A
  0
DICTIONARY
  5
E2B
330
6EF
100
AcDbDictionary
280
     1
281
     1
  3
ACAD_XREC_ROUNDTRIP
360
E2C
  0
DICTIONARY
  5
E2F
330
6F1
100
AcDbDictionary
280
     1
281
     1
  3
ACAD_XREC_ROUNDTRIP
360
E30
  0
DICTIONARY
  5
E3F
330
6F9
100
AcDbDictionary
280
     1
281
     1
  3
ACAD_XREC_ROUNDTRIP
360
E40
  0
DICTIONARY
  5
E37
330
6F5
100
AcDbDictionary
280
     1
281
     1
  3
ACAD_XREC_ROUNDTRIP
360
E38
  0
DICTIONARY
  5
E1B
330
6E7
100
AcDbDictionary
280
     1
281
     1
  3
ACAD_XREC_ROUNDTRIP
360
E1C
  0
DICTIONARY
  5
E1D
330
6E8
100
AcDbDictionary
280
     1
281
     1
  3
ACAD_XREC_ROUNDTRIP
360
E1E
  0
DICTIONARY
  5
E1F
330
6E9
100
AcDbDictionary
280
     1
281
     1
  3
ACAD_XREC_ROUNDTRIP
360
E20
  0
DICTIONARY
  5
E21
330
6EA
100
AcDbDictionary
280
     1
281
     1
  3
ACAD_XREC_ROUNDTRIP
360
E22
  0
DICTIONARY
  5
E3B
330
6F7
100
AcDbDictionary
280
     1
281
     1
  3
ACAD_XREC_ROUNDTRIP
360
E3C
  0
DICTIONARY
  5
E35
330
6F4
100
AcDbDictionary
280
     1
281
     1
  3
ACAD_XREC_ROUNDTRIP
360
E36
  0
DICTIONARY
  5
E3D
330
6F8
100
AcDbDictionary
280
     1
281
     1
  3
ACAD_XREC_ROUNDTRIP
360
E3E
  0
DICTIONARY
  5
E2D
330
6F0
100
AcDbDictionary
280
     1
281
     1
  3
ACAD_XREC_ROUNDTRIP
360
E2E
  0
DICTIONARY
  5
E33
330
6F3
100
AcDbDictionary
280
     1
281
     1
  3
ACAD_XREC_ROUNDTRIP
360
E34
  0
XRECORD
  5
E1A
102
{ACAD_REACTORS
330
E19
102
}
330
E19
100
AcDbXrecord
280
     1
102
SHADEPLOT
 70
     0
102
SHADEPLOTRESLEVEL
 70
     2
102
SHADEPLOTCUSTOMDPI
 70
   300
  0
XRECORD
  5
E18
102
{ACAD_REACTORS
330
E17
102
}
330
E17
100
AcDbXrecord
280
     1
102
SHADEPLOT
 70
     0
102
SHADEPLOTRESLEVEL
 70
     2
102
SHADEPLOTCUSTOMDPI
 70
   300
  0
XRECORD
  5
893
102
{ACAD_REACTORS
330
6D7
102
}
330
6D7
100
AcDbXrecord
280
     1
102
MATERIAL
148
0.0
149
0.0
149
0.0
 93
        0
 94
      127
282
     0
 72
     0
 77
     0
171
     0
175
     0
179
     0
273
     0
  0
XRECORD
  5
6D9
102
{ACAD_REACTORS
330
6D7
102
}
330
6D7
100
AcDbXrecord
280
     1
270
     1
271
     1
  0
XRECORD
  5
6D8
102
{ACAD_REACTORS
330
6D7
102
}
330
6D7
100
AcDbXrecord
280
     1
270
     1
271
     1
  0
XRECORD
  5
6DC
102
{ACAD_REACTORS
330
6D7
102
}
330
6D7
100
AcDbXrecord
280
     1
270
     1
271
     1
  0
XRECORD
  5
6DB
102
{ACAD_REACTORS
330
6D7
102
}
330
6D7
100
AcDbXrecord
280
     1
270
     1
271
     1
  0
XRECORD
  5
6DD
102
{ACAD_REACTORS
330
6D7
102
}
330
6D7
100
AcDbXrecord
280
     1
270
     1
271
     1
  0
XRECORD
  5
6DA
102
{ACAD_REACTORS
330
6D7
102
}
330
6D7
100
AcDbXrecord
280
     1
270
     1
271
     1
  0
XRECORD
  5
892
102
{ACAD_REACTORS
330
6CF
102
}
330
6CF
100
AcDbXrecord
280
     1
102
MATERIAL
148
0.0
149
0.0
149
0.0
 93
        0
 94
      127
282
     0
 72
     0
 77
     0
171
     0
175
     0
179
     0
273
     0
  0
XRECORD
  5
6D1
102
{ACAD_REACTORS
330
6CF
102
}
330
6CF
100
AcDbXrecord
280
     1
270
     1
271
     1
  0
XRECORD
  5
6D0
102
{ACAD_REACTORS
330
6CF
102
}
330
6CF
100
AcDbXrecord
280
     1
270
     1
271
     1
  0
XRECORD
  5
6D4
102
{ACAD_REACTORS
330
6CF
102
}
330
6CF
100
AcDbXrecord
280
     1
270
     1
271
     1
  0
XRECORD
  5
6D3
102
{ACAD_REACTORS
330
6CF
102
}
330
6CF
100
AcDbXrecord
280
     1
270
     1
271
     1
  0
XRECORD
  5
6D5
102
{ACAD_REACTORS
330
6CF
102
}
330
6CF
100
AcDbXrecord
280
     1
270
     1
271
     1
  0
XRECORD
  5
6D2
102
{ACAD_REACTORS
330
6CF
102
}
330
6CF
100
AcDbXrecord
280
     1
270
     1
271
     1
  0
XRECORD
  5
894
102
{ACAD_REACTORS
330
6DF
102
}
330
6DF
100
AcDbXrecord
280
     1
102
MATERIAL
148
0.0
149
0.0
149
0.0
 93
        0
 94
      127
282
     0
 72
     0
 77
     0
171
     0
175
     0
179
     0
273
     0
  0
XRECORD
  5
6E1
102
{ACAD_REACTORS
330
6DF
102
}
330
6DF
100
AcDbXrecord
280
     1
270
     1
271
     1
  0
XRECORD
  5
6E0
102
{ACAD_REACTORS
330
6DF
102
}
330
6DF
100
AcDbXrecord
280
     1
270
     1
271
     1
  0
XRECORD
  5
6E4
102
{ACAD_REACTORS
330
6DF
102
}
330
6DF
100
AcDbXrecord
280
     1
270
     1
271
     1
  0
XRECORD
  5
6E3
102
{ACAD_REACTORS
330
6DF
102
}
330
6DF
100
AcDbXrecord
280
     1
270
     1
271
     1
  0
XRECORD
  5
6E5
102
{ACAD_REACTORS
330
6DF
102
}
330
6DF
100
AcDbXrecord
280
     1
270
     1
271
     1
  0
XRECORD
  5
6E2
102
{ACAD_REACTORS
330
6DF
102
}
330
6DF
100
AcDbXrecord
280
     1
270
     1
271
     1
  0
CELLSTYLEMAP
  5
E0F
102
{ACAD_REACTORS
330
88A
102
}
330
88A
100
AcDbCellStyleMap
 90
        3
300
CELLSTYLE
  1
TABLEFORMAT_BEGIN
 90
        5
170
     1
 91
        0
 92
    32768
 62
   257
 93
        1
300
CONTENTFORMAT
  1
CONTENTFORMAT_BEGIN
 90
        0
 91
        0
 92
      512
 93
        0
300

 40
0.0
140
1.0
 94
        5
 62
     0
340
11
144
6.0
309
CONTENTFORMAT_END
171
     1
301
MARGIN
  1
CELLMARGIN_BEGIN
 40
1.5
 40
1.5
 40
1.5
 40
1.5
 40
0.18
 40
0.18
309
CELLMARGIN_END
 94
        6
 95
        1
302
GRIDFORMAT
  1
GRIDFORMAT_BEGIN
 90
        0
 91
        1
 62
     0
 92
       -2
340
0
 93
        0
 40
1.125
309
GRIDFORMAT_END
 95
        2
302
GRIDFORMAT
  1
GRIDFORMAT_BEGIN
 90
        0
 91
        1
 62
     0
 92
       -2
340
0
 93
        0
 40
1.125
309
GRIDFORMAT_END
 95
        4
302
GRIDFORMAT
  1
GRIDFORMAT_BEGIN
 90
        0
 91
        1
 62
     0
 92
       -2
340
0
 93
        0
 40
1.125
309
GRIDFORMAT_END
 95
        8
302
GRIDFORMAT
  1
GRIDFORMAT_BEGIN
 90
        0
 91
        1
 62
     0
 92
       -2
340
0
 93
        0
 40
1.125
309
GRIDFORMAT_END
 95
       16
302
GRIDFORMAT
  1
GRIDFORMAT_BEGIN
 90
        0
 91
        1
 62
     0
 92
       -2
340
0
 93
        0
 40
1.125
309
GRIDFORMAT_END
 95
       32
302
GRIDFORMAT
  1
GRIDFORMAT_BEGIN
 90
        0
 91
        1
 62
     0
 92
       -2
340
0
 93
        0
 40
1.125
309
GRIDFORMAT_END
309
TABLEFORMAT_END
  1
CELLSTYLE_BEGIN
 90
        1
 91
        1
300
_TITLE
309
CELLSTYLE_END
300
CELLSTYLE
  1
TABLEFORMAT_BEGIN
 90
        5
170
     1
 91
        0
 92
        0
 62
   257
 93
        1
300
CONTENTFORMAT
  1
CONTENTFORMAT_BEGIN
 90
        0
 91
        0
 92
      512
 93
        0
300

 40
0.0
140
1.0
 94
        5
 62
     0
340
11
144
4.5
309
CONTENTFORMAT_END
171
     1
301
MARGIN
  1
CELLMARGIN_BEGIN
 40
1.5
 40
1.5
 40
1.5
 40
1.5
 40
0.18
 40
0.18
309
CELLMARGIN_END
 94
        6
 95
        1
302
GRIDFORMAT
  1
GRIDFORMAT_BEGIN
 90
        0
 91
        1
 62
     0
 92
       -2
340
0
 93
        0
 40
1.125
309
GRIDFORMAT_END
 95
        2
302
GRIDFORMAT
  1
GRIDFORMAT_BEGIN
 90
        0
 91
        1
 62
     0
 92
       -2
340
0
 93
        0
 40
1.125
309
GRIDFORMAT_END
 95
        4
302
GRIDFORMAT
  1
GRIDFORMAT_BEGIN
 90
        0
 91
        1
 62
     0
 92
       -2
340
0
 93
        0
 40
1.125
309
GRIDFORMAT_END
 95
        8
302
GRIDFORMAT
  1
GRIDFORMAT_BEGIN
 90
        0
 91
        1
 62
     0
 92
       -2
340
0
 93
        0
 40
1.125
309
GRIDFORMAT_END
 95
       16
302
GRIDFORMAT
  1
GRIDFORMAT_BEGIN
 90
        0
 91
        1
 62
     0
 92
       -2
340
0
 93
        0
 40
1.125
309
GRIDFORMAT_END
 95
       32
302
GRIDFORMAT
  1
GRIDFORMAT_BEGIN
 90
        0
 91
        1
 62
     0
 92
       -2
340
0
 93
        0
 40
1.125
309
GRIDFORMAT_END
309
TABLEFORMAT_END
  1
CELLSTYLE_BEGIN
 90
        2
 91
        1
300
_HEADER
309
CELLSTYLE_END
300
CELLSTYLE
  1
TABLEFORMAT_BEGIN
 90
        5
170
     1
 91
        0
 92
        0
 62
   257
 93
        1
300
CONTENTFORMAT
  1
CONTENTFORMAT_BEGIN
 90
        0
 91
        0
 92
      512
 93
        0
300

 40
0.0
140
1.0
 94
        2
 62
     0
340
11
144
4.5
309
CONTENTFORMAT_END
171
     1
301
MARGIN
  1
CELLMARGIN_BEGIN
 40
1.5
 40
1.5
 40
1.5
 40
1.5
 40
0.18
 40
0.18
309
CELLMARGIN_END
 94
        6
 95
        1
302
GRIDFORMAT
  1
GRIDFORMAT_BEGIN
 90
        0
 91
        1
 62
     0
 92
       -2
340
0
 93
        0
 40
1.125
309
GRIDFORMAT_END
 95
        2
302
GRIDFORMAT
  1
GRIDFORMAT_BEGIN
 90
        0
 91
        1
 62
     0
 92
       -2
340
0
 93
        0
 40
1.125
309
GRIDFORMAT_END
 95
        4
302
GRIDFORMAT
  1
GRIDFORMAT_BEGIN
 90
        0
 91
        1
 62
     0
 92
       -2
340
0
 93
        0
 40
1.125
309
GRIDFORMAT_END
 95
        8
302
GRIDFORMAT
  1
GRIDFORMAT_BEGIN
 90
        0
 91
        1
 62
     0
 92
       -2
340
0
 93
        0
 40
1.125
309
GRIDFORMAT_END
 95
       16
302
GRIDFORMAT
  1
GRIDFORMAT_BEGIN
 90
        0
 91
        1
 62
     0
 92
       -2
340
0
 93
        0
 40
1.125
309
GRIDFORMAT_END
 95
       32
302
GRIDFORMAT
  1
GRIDFORMAT_BEGIN
 90
        0
 91
        1
 62
     0
 92
       -2
340
0
 93
        0
 40
1.125
309
GRIDFORMAT_END
309
TABLEFORMAT_END
  1
CELLSTYLE_BEGIN
 90
        3
 91
        2
300
_DATA
309
CELLSTYLE_END
  0
XRECORD
  5
E41
102
{ACAD_REACTORS
330
88A
102
}
330
88A
100
AcDbXrecord
280
     1
102
ACAD_ROUNDTRIP_PRE2007_TABLESTYLE
 90
      512
 91
        0
  1

 92
      512
 93
        0
  2

 94
      512
 95
        0
  3

  0
XRECORD
  5
E26
102
{ACAD_REACTORS
330
E25
102
}
330
E25
100
AcDbXrecord
280
     1
102
RTVSPropertyOp0
 70
     1
102
RTVSPropertyOp1
 70
     1
102
RTVSPropertyOp2
 70
     1
102
RTVSPropertyOp3
 70
     1
102
RTVSPropertyOp4
 70
     1
102
RTVSPropertyOp5
 70
     1
102
RTVSPropertyOp6
 70
     1
102
RTVSPropertyOp7
 70
     1
102
RTVSPropertyOp8
 70
     1
102
RTVSPropertyOp9
 70
     1
102
RTVSPropertyOp10
 70
     1
102
RTVSPropertyOp11
 70
     1
102
RTVSPropertyOp12
 70
     1
102
RTVSPropertyOp13
 70
     1
102
RTVSPropertyOp14
 70
     1
102
RTVSPropertyOp15
 70
     1
102
RTVSPropertyOp16
 70
     1
102
RTVSPropertyOp17
 70
     1
102
RTVSPropertyOp18
 70
     1
102
RTVSPropertyOp19
 70
     1
102
RTVSPropertyOp20
 70
     1
102
RTVSPropertyOp21
 70
     1
102
RTVSPropertyOp22
 70
     1
102
RTVSPropertyOp23
 70
     1
102
RTVSPropertyOp24
 70
     1
102
RTVSPropertyOp25
 70
     1
102
RTVSPropertyOp26
 70
     1
102
RTVSPropertyOp27
 70
     1
  0
XRECORD
  5
E2A
102
{ACAD_REACTORS
330
E29
102
}
330
E29
100
AcDbXrecord
280
     1
102
RTVSPropertyOp0
 70
     1
102
RTVSPropertyOp1
 70
     1
102
RTVSPropertyOp2
 70
     1
102
RTVSPropertyOp3
 70
     1
102
RTVSPropertyOp4
 70
     1
102
RTVSPropertyOp5
 70
     1
102
RTVSPropertyOp6
 70
     1
102
RTVSPropertyOp7
 70
     1
102
RTVSPropertyOp8
 70
     1
102
RTVSPropertyOp9
 70
     1
102
RTVSPropertyOp10
 70
     1
102
RTVSPropertyOp11
 70
     1
102
RTVSPropertyOp12
 70
     1
102
RTVSPropertyOp13
 70
     1
102
RTVSPropertyOp14
 70
     1
102
RTVSPropertyOp15
 70
     1
102
RTVSPropertyOp16
 70
     1
102
RTVSPropertyOp17
 70
     1
102
RTVSPropertyOp18
 70
     1
102
RTVSPropertyOp19
 70
     1
102
RTVSPropertyOp20
 70
     1
102
RTVSPropertyOp21
 70
     1
102
RTVSPropertyOp22
 70
     1
102
RTVSPropertyOp23
 70
     1
102
RTVSPropertyOp24
 70
     1
102
RTVSPropertyOp25
 70
     1
102
RTVSPropertyOp26
 70
     1
102
RTVSPropertyOp27
 70
     1
  0
XRECORD
  5
E28
102
{ACAD_REACTORS
330
E27
102
}
330
E27
100
AcDbXrecord
280
     1
102
RTVSPropertyOp0
 70
     1
102
RTVSPropertyOp1
 70
     1
102
RTVSPropertyOp2
 70
     1
102
RTVSPropertyOp3
 70
     1
102
RTVSPropertyOp4
 70
     1
102
RTVSPropertyOp5
 70
     1
102
RTVSPropertyOp6
 70
     1
102
RTVSPropertyOp7
 70
     1
102
RTVSPropertyOp8
 70
     1
102
RTVSPropertyOp9
 70
     1
102
RTVSPropertyOp10
 70
     1
102
RTVSPropertyOp11
 70
     1
102
RTVSPropertyOp12
 70
     1
102
RTVSPropertyOp13
 70
     1
102
RTVSPropertyOp14
 70
     1
102
RTVSPropertyOp15
 70
     1
102
RTVSPropertyOp16
 70
     1
102
RTVSPropertyOp17
 70
     1
102
RTVSPropertyOp18
 70
     1
102
RTVSPropertyOp19
 70
     1
102
RTVSPropertyOp20
 70
     1
102
RTVSPropertyOp21
 70
     1
102
RTVSPropertyOp22
 70
     1
102
RTVSPropertyOp23
 70
     1
102
RTVSPropertyOp24
 70
     1
102
RTVSPropertyOp25
 70
     1
102
RTVSPropertyOp26
 70
     1
102
RTVSPropertyOp27
 70
     1
  0
XRECORD
  5
E24
102
{ACAD_REACTORS
330
E23
102
}
330
E23
100
AcDbXrecord
280
     1
102
RTVSPropertyOp0
 70
     1
102
RTVSPropertyOp1
 70
     1
102
RTVSPropertyOp2
 70
     1
102
RTVSPropertyOp3
 70
     1
102
RTVSPropertyOp4
 70
     1
102
RTVSPropertyOp5
 70
     1
102
RTVSPropertyOp6
 70
     1
102
RTVSPropertyOp7
 70
     1
102
RTVSPropertyOp8
 70
     1
102
RTVSPropertyOp9
 70
     1
102
RTVSPropertyOp10
 70
     1
102
RTVSPropertyOp11
 70
     1
102
RTVSPropertyOp12
 70
     1
102
RTVSPropertyOp13
 70
     1
102
RTVSPropertyOp14
 70
     1
102
RTVSPropertyOp15
 70
     1
102
RTVSPropertyOp16
 70
     1
102
RTVSPropertyOp17
 70
     1
102
RTVSPropertyOp18
 70
     1
102
RTVSPropertyOp19
 70
     1
102
RTVSPropertyOp20
 70
     1
102
RTVSPropertyOp21
 70
     1
102
RTVSPropertyOp22
 70
     1
102
RTVSPropertyOp23
 70
     1
102
RTVSPropertyOp24
 70
     1
102
RTVSPropertyOp25
 70
     1
102
RTVSPropertyOp26
 70
     1
102
RTVSPropertyOp27
 70
     1
  0
XRECORD
  5
E32
102
{ACAD_REACTORS
330
E31
102
}
330
E31
100
AcDbXrecord
280
     1
102
RTVSPropertyOp0
 70
     1
102
RTVSPropertyOp1
 70
     1
102
RTVSPropertyOp2
 70
     1
102
RTVSPropertyOp3
 70
     1
102
RTVSPropertyOp4
 70
     1
102
RTVSPropertyOp5
 70
     1
102
RTVSPropertyOp6
 70
     1
102
RTVSPropertyOp7
 70
     1
102
RTVSPropertyOp8
 70
     1
102
RTVSPropertyOp9
 70
     1
102
RTVSPropertyOp10
 70
     1
102
RTVSPropertyOp11
 70
     1
102
RTVSPropertyOp12
 70
     1
102
RTVSPropertyOp13
 70
     1
102
RTVSPropertyOp14
 70
     1
102
RTVSPropertyOp15
 70
     1
102
RTVSPropertyOp16
 70
     1
102
RTVSPropertyOp17
 70
     1
102
RTVSPropertyOp18
 70
     1
102
RTVSPropertyOp19
 70
     1
102
RTVSPropertyOp20
 70
     1
102
RTVSPropertyOp21
 70
     1
102
RTVSPropertyOp22
 70
     1
102
RTVSPropertyOp23
 70
     1
102
RTVSPropertyOp24
 70
     1
102
RTVSPropertyOp25
 70
     1
102
RTVSPropertyOp26
 70
     1
102
RTVSPropertyOp27
 70
     1
  0
XRECORD
  5
E3A
102
{ACAD_REACTORS
330
E39
102
}
330
E39
100
AcDbXrecord
280
     1
102
RTVSPropertyOp0
 70
     1
102
RTVSPropertyOp1
 70
     1
102
RTVSPropertyOp2
 70
     1
102
RTVSPropertyOp3
 70
     1
102
RTVSPropertyOp4
 70
     1
102
RTVSPropertyOp5
 70
     1
102
RTVSPropertyOp6
 70
     1
102
RTVSPropertyOp7
 70
     1
102
RTVSPropertyOp8
 70
     1
102
RTVSPropertyOp9
 70
     1
102
RTVSPropertyOp10
 70
     1
102
RTVSPropertyOp11
 70
     1
102
RTVSPropertyOp12
 70
     1
102
RTVSPropertyOp13
 70
     1
102
RTVSPropertyOp14
 70
     1
102
RTVSPropertyOp15
 70
     1
102
RTVSPropertyOp16
 70
     1
102
RTVSPropertyOp17
 70
     1
102
RTVSPropertyOp18
 70
     1
102
RTVSPropertyOp19
 70
     1
102
RTVSPropertyOp20
 70
     1
102
RTVSPropertyOp21
 70
     1
102
RTVSPropertyOp22
 70
     1
102
RTVSPropertyOp23
 70
     1
102
RTVSPropertyOp24
 70
     1
102
RTVSPropertyOp25
 70
     1
102
RTVSPropertyOp26
 70
     1
102
RTVSPropertyOp27
 70
     1
  0
XRECORD
  5
E2C
102
{ACAD_REACTORS
330
E2B
102
}
330
E2B
100
AcDbXrecord
280
     1
102
RTVSPropertyOp0
 70
     1
102
RTVSPropertyOp1
 70
     1
102
RTVSPropertyOp2
 70
     1
102
RTVSPropertyOp3
 70
     1
102
RTVSPropertyOp4
 70
     1
102
RTVSPropertyOp5
 70
     1
102
RTVSPropertyOp6
 70
     1
102
RTVSPropertyOp7
 70
     1
102
RTVSPropertyOp8
 70
     1
102
RTVSPropertyOp9
 70
     1
102
RTVSPropertyOp10
 70
     1
102
RTVSPropertyOp11
 70
     1
102
RTVSPropertyOp12
 70
     1
102
RTVSPropertyOp13
 70
     1
102
RTVSPropertyOp14
 70
     1
102
RTVSPropertyOp15
 70
     1
102
RTVSPropertyOp16
 70
     1
102
RTVSPropertyOp17
 70
     1
102
RTVSPropertyOp18
 70
     1
102
RTVSPropertyOp19
 70
     1
102
RTVSPropertyOp20
 70
     1
102
RTVSPropertyOp21
 70
     1
102
RTVSPropertyOp22
 70
     1
102
RTVSPropertyOp23
 70
     1
102
RTVSPropertyOp24
 70
     1
102
RTVSPropertyOp25
 70
     1
102
RTVSPropertyOp26
 70
     1
102
RTVSPropertyOp27
 70
     1
  0
XRECORD
  5
E30
102
{ACAD_REACTORS
330
E2F
102
}
330
E2F
100
AcDbXrecord
280
     1
102
RTVSPropertyOp0
 70
     1
102
RTVSPropertyOp1
 70
     1
102
RTVSPropertyOp2
 70
     1
102
RTVSPropertyOp3
 70
     1
102
RTVSPropertyOp4
 70
     1
102
RTVSPropertyOp5
 70
     1
102
RTVSPropertyOp6
 70
     1
102
RTVSPropertyOp7
 70
     1
102
RTVSPropertyOp8
 70
     1
102
RTVSPropertyOp9
 70
     1
102
RTVSPropertyOp10
 70
     1
102
RTVSPropertyOp11
 70
     1
102
RTVSPropertyOp12
 70
     1
102
RTVSPropertyOp13
 70
     1
102
RTVSPropertyOp14
 70
     1
102
RTVSPropertyOp15
 70
     1
102
RTVSPropertyOp16
 70
     1
102
RTVSPropertyOp17
 70
     1
102
RTVSPropertyOp18
 70
     1
102
RTVSPropertyOp19
 70
     1
102
RTVSPropertyOp20
 70
     1
102
RTVSPropertyOp21
 70
     1
102
RTVSPropertyOp22
 70
     1
102
RTVSPropertyOp23
 70
     1
102
RTVSPropertyOp24
 70
     1
102
RTVSPropertyOp25
 70
     1
102
RTVSPropertyOp26
 70
     1
102
RTVSPropertyOp27
 70
     1
  0
XRECORD
  5
E40
102
{ACAD_REACTORS
330
E3F
102
}
330
E3F
100
AcDbXrecord
280
     1
102
RTVSPropertyOp0
 70
     0
102
RTVSPropertyOp1
 70
     0
102
RTVSPropertyOp2
 70
     0
102
RTVSPropertyOp3
 70
     0
102
RTVSPropertyOp4
 70
     0
102
RTVSPropertyOp5
 70
     0
102
RTVSPropertyOp6
 70
     0
102
RTVSPropertyOp7
 70
     0
102
RTVSPropertyOp8
 70
     0
102
RTVSPropertyOp9
 70
     0
102
RTVSPropertyOp10
 70
     0
102
RTVSPropertyOp11
 70
     0
102
RTVSPropertyOp12
 70
     0
102
RTVSPropertyOp13
 70
     0
102
RTVSPropertyOp14
 70
     2
102
RTVSPropertyOp15
 70
     0
102
RTVSPropertyOp16
 70
     0
102
RTVSPropertyOp17
 70
     0
102
RTVSPropertyOp18
 70
     0
102
RTVSPropertyOp19
 70
     0
102
RTVSPropertyOp20
 70
     0
102
RTVSPropertyOp21
 70
     0
102
RTVSPropertyOp22
 70
     0
102
RTVSPropertyOp23
 70
     0
102
RTVSPropertyOp24
 70
     0
102
RTVSPropertyOp25
 70
     0
102
RTVSPropertyOp26
 70
     0
102
RTVSPropertyOp27
 70
     0
  0
XRECORD
  5
E38
102
{ACAD_REACTORS
330
E37
102
}
330
E37
100
AcDbXrecord
280
     1
102
RTVSPropertyOp0
 70
     1
102
RTVSPropertyOp1
 70
     1
102
RTVSPropertyOp2
 70
     1
102
RTVSPropertyOp3
 70
     1
102
RTVSPropertyOp4
 70
     1
102
RTVSPropertyOp5
 70
     1
102
RTVSPropertyOp6
 70
     1
102
RTVSPropertyOp7
 70
     1
102
RTVSPropertyOp8
 70
     1
102
RTVSPropertyOp9
 70
     1
102
RTVSPropertyOp10
 70
     1
102
RTVSPropertyOp11
 70
     1
102
RTVSPropertyOp12
 70
     1
102
RTVSPropertyOp13
 70
     1
102
RTVSPropertyOp14
 70
     1
102
RTVSPropertyOp15
 70
     1
102
RTVSPropertyOp16
 70
     1
102
RTVSPropertyOp17
 70
     1
102
RTVSPropertyOp18
 70
     1
102
RTVSPropertyOp19
 70
     1
102
RTVSPropertyOp20
 70
     1
102
RTVSPropertyOp21
 70
     1
102
RTVSPropertyOp22
 70
     1
102
RTVSPropertyOp23
 70
     1
102
RTVSPropertyOp24
 70
     1
102
RTVSPropertyOp25
 70
     1
102
RTVSPropertyOp26
 70
     1
102
RTVSPropertyOp27
 70
     1
  0
XRECORD
  5
E1C
102
{ACAD_REACTORS
330
E1B
102
}
330
E1B
100
AcDbXrecord
280
     1
102
RTVSPropertyOp0
 70
     1
102
RTVSPropertyOp1
 70
     1
102
RTVSPropertyOp2
 70
     1
102
RTVSPropertyOp3
 70
     1
102
RTVSPropertyOp4
 70
     1
102
RTVSPropertyOp5
 70
     1
102
RTVSPropertyOp6
 70
     1
102
RTVSPropertyOp7
 70
     1
102
RTVSPropertyOp8
 70
     1
102
RTVSPropertyOp9
 70
     1
102
RTVSPropertyOp10
 70
     1
102
RTVSPropertyOp11
 70
     1
102
RTVSPropertyOp12
 70
     1
102
RTVSPropertyOp13
 70
     1
102
RTVSPropertyOp14
 70
     1
102
RTVSPropertyOp15
 70
     1
102
RTVSPropertyOp16
 70
     1
102
RTVSPropertyOp17
 70
     1
102
RTVSPropertyOp18
 70
     1
102
RTVSPropertyOp19
 70
     1
102
RTVSPropertyOp20
 70
     1
102
RTVSPropertyOp21
 70
     1
102
RTVSPropertyOp22
 70
     1
102
RTVSPropertyOp23
 70
     1
102
RTVSPropertyOp24
 70
     1
102
RTVSPropertyOp25
 70
     1
102
RTVSPropertyOp26
 70
     1
102
RTVSPropertyOp27
 70
     1
  0
XRECORD
  5
E1E
102
{ACAD_REACTORS
330
E1D
102
}
330
E1D
100
AcDbXrecord
280
     1
102
RTVSPropertyOp0
 70
     1
102
RTVSPropertyOp1
 70
     1
102
RTVSPropertyOp2
 70
     1
102
RTVSPropertyOp3
 70
     1
102
RTVSPropertyOp4
 70
     1
102
RTVSPropertyOp5
 70
     1
102
RTVSPropertyOp6
 70
     1
102
RTVSPropertyOp7
 70
     1
102
RTVSPropertyOp8
 70
     1
102
RTVSPropertyOp9
 70
     1
102
RTVSPropertyOp10
 70
     1
102
RTVSPropertyOp11
 70
     1
102
RTVSPropertyOp12
 70
     1
102
RTVSPropertyOp13
 70
     1
102
RTVSPropertyOp14
 70
     1
102
RTVSPropertyOp15
 70
     1
102
RTVSPropertyOp16
 70
     1
102
RTVSPropertyOp17
 70
     1
102
RTVSPropertyOp18
 70
     1
102
RTVSPropertyOp19
 70
     1
102
RTVSPropertyOp20
 70
     1
102
RTVSPropertyOp21
 70
     1
102
RTVSPropertyOp22
 70
     1
102
RTVSPropertyOp23
 70
     1
102
RTVSPropertyOp24
 70
     1
102
RTVSPropertyOp25
 70
     1
102
RTVSPropertyOp26
 70
     1
102
RTVSPropertyOp27
 70
     1
  0
XRECORD
  5
E20
102
{ACAD_REACTORS
330
E1F
102
}
330
E1F
100
AcDbXrecord
280
     1
102
RTVSPropertyOp0
 70
     1
102
RTVSPropertyOp1
 70
     1
102
RTVSPropertyOp2
 70
     1
102
RTVSPropertyOp3
 70
     1
102
RTVSPropertyOp4
 70
     1
102
RTVSPropertyOp5
 70
     1
102
RTVSPropertyOp6
 70
     1
102
RTVSPropertyOp7
 70
     1
102
RTVSPropertyOp8
 70
     1
102
RTVSPropertyOp9
 70
     1
102
RTVSPropertyOp10
 70
     1
102
RTVSPropertyOp11
 70
     1
102
RTVSPropertyOp12
 70
     1
102
RTVSPropertyOp13
 70
     1
102
RTVSPropertyOp14
 70
     1
102
RTVSPropertyOp15
 70
     1
102
RTVSPropertyOp16
 70
     1
102
RTVSPropertyOp17
 70
     1
102
RTVSPropertyOp18
 70
     1
102
RTVSPropertyOp19
 70
     1
102
RTVSPropertyOp20
 70
     1
102
RTVSPropertyOp21
 70
     1
102
RTVSPropertyOp22
 70
     1
102
RTVSPropertyOp23
 70
     1
102
RTVSPropertyOp24
 70
     1
102
RTVSPropertyOp25
 70
     1
102
RTVSPropertyOp26
 70
     1
102
RTVSPropertyOp27
 70
     1
  0
XRECORD
  5
E22
102
{ACAD_REACTORS
330
E21
102
}
330
E21
100
AcDbXrecord
280
     1
102
RTVSPropertyOp0
 70
     1
102
RTVSPropertyOp1
 70
     1
102
RTVSPropertyOp2
 70
     1
102
RTVSPropertyOp3
 70
     1
102
RTVSPropertyOp4
 70
     1
102
RTVSPropertyOp5
 70
     1
102
RTVSPropertyOp6
 70
     1
102
RTVSPropertyOp7
 70
     1
102
RTVSPropertyOp8
 70
     1
102
RTVSPropertyOp9
 70
     1
102
RTVSPropertyOp10
 70
     1
102
RTVSPropertyOp11
 70
     1
102
RTVSPropertyOp12
 70
     1
102
RTVSPropertyOp13
 70
     1
102
RTVSPropertyOp14
 70
     1
102
RTVSPropertyOp15
 70
     1
102
RTVSPropertyOp16
 70
     1
102
RTVSPropertyOp17
 70
     1
102
RTVSPropertyOp18
 70
     1
102
RTVSPropertyOp19
 70
     1
102
RTVSPropertyOp20
 70
     1
102
RTVSPropertyOp21
 70
     1
102
RTVSPropertyOp22
 70
     1
102
RTVSPropertyOp23
 70
     1
102
RTVSPropertyOp24
 70
     1
102
RTVSPropertyOp25
 70
     1
102
RTVSPropertyOp26
 70
     1
102
RTVSPropertyOp27
 70
     1
  0
XRECORD
  5
E3C
102
{ACAD_REACTORS
330
E3B
102
}
330
E3B
100
AcDbXrecord
280
     1
102
RTVSPropertyOp0
 70
     0
102
RTVSPropertyOp1
 70
     0
102
RTVSPropertyOp2
 70
     0
102
RTVSPropertyOp3
 70
     0
102
RTVSPropertyOp4
 70
     0
102
RTVSPropertyOp5
 70
     0
102
RTVSPropertyOp6
 70
     0
102
RTVSPropertyOp7
 70
     0
102
RTVSPropertyOp8
 70
     0
102
RTVSPropertyOp9
 70
     0
102
RTVSPropertyOp10
 70
     0
102
RTVSPropertyOp11
 70
     0
102
RTVSPropertyOp12
 70
     0
102
RTVSPropertyOp13
 70
     0
102
RTVSPropertyOp14
 70
     2
102
RTVSPropertyOp15
 70
     0
102
RTVSPropertyOp16
 70
     0
102
RTVSPropertyOp17
 70
     0
102
RTVSPropertyOp18
 70
     0
102
RTVSPropertyOp19
 70
     0
102
RTVSPropertyOp20
 70
     0
102
RTVSPropertyOp21
 70
     0
102
RTVSPropertyOp22
 70
     0
102
RTVSPropertyOp23
 70
     0
102
RTVSPropertyOp24
 70
     0
102
RTVSPropertyOp25
 70
     0
102
RTVSPropertyOp26
 70
     0
102
RTVSPropertyOp27
 70
     0
  0
XRECORD
  5
E36
102
{ACAD_REACTORS
330
E35
102
}
330
E35
100
AcDbXrecord
280
     1
102
RTVSPropertyOp0
 70
     1
102
RTVSPropertyOp1
 70
     1
102
RTVSPropertyOp2
 70
     1
102
RTVSPropertyOp3
 70
     1
102
RTVSPropertyOp4
 70
     1
102
RTVSPropertyOp5
 70
     1
102
RTVSPropertyOp6
 70
     1
102
RTVSPropertyOp7
 70
     1
102
RTVSPropertyOp8
 70
     1
102
RTVSPropertyOp9
 70
     1
102
RTVSPropertyOp10
 70
     1
102
RTVSPropertyOp11
 70
     1
102
RTVSPropertyOp12
 70
     1
102
RTVSPropertyOp13
 70
     1
102
RTVSPropertyOp14
 70
     1
102
RTVSPropertyOp15
 70
     1
102
RTVSPropertyOp16
 70
     1
102
RTVSPropertyOp17
 70
     1
102
RTVSPropertyOp18
 70
     1
102
RTVSPropertyOp19
 70
     1
102
RTVSPropertyOp20
 70
     1
102
RTVSPropertyOp21
 70
     1
102
RTVSPropertyOp22
 70
     1
102
RTVSPropertyOp23
 70
     1
102
RTVSPropertyOp24
 70
     1
102
RTVSPropertyOp25
 70
     1
102
RTVSPropertyOp26
 70
     1
102
RTVSPropertyOp27
 70
     1
  0
XRECORD
  5
E3E
102
{ACAD_REACTORS
330
E3D
102
}
330
E3D
100
AcDbXrecord
280
     1
102
RTVSPropertyOp0
 70
     0
102
RTVSPropertyOp1
 70
     0
102
RTVSPropertyOp2
 70
     0
102
RTVSPropertyOp3
 70
     0
102
RTVSPropertyOp4
 70
     0
102
RTVSPropertyOp5
 70
     0
102
RTVSPropertyOp6
 70
     0
102
RTVSPropertyOp7
 70
     0
102
RTVSPropertyOp8
 70
     0
102
RTVSPropertyOp9
 70
     0
102
RTVSPropertyOp10
 70
     0
102
RTVSPropertyOp11
 70
     0
102
RTVSPropertyOp12
 70
     0
102
RTVSPropertyOp13
 70
     0
102
RTVSPropertyOp14
 70
     2
102
RTVSPropertyOp15
 70
     0
102
RTVSPropertyOp16
 70
     0
102
RTVSPropertyOp17
 70
     0
102
RTVSPropertyOp18
 70
     0
102
RTVSPropertyOp19
 70
     0
102
RTVSPropertyOp20
 70
     0
102
RTVSPropertyOp21
 70
     0
102
RTVSPropertyOp22
 70
     0
102
RTVSPropertyOp23
 70
     0
102
RTVSPropertyOp24
 70
     0
102
RTVSPropertyOp25
 70
     0
102
RTVSPropertyOp26
 70
     0
102
RTVSPropertyOp27
 70
     0
  0
XRECORD
  5
E2E
102
{ACAD_REACTORS
330
E2D
102
}
330
E2D
100
AcDbXrecord
280
     1
102
RTVSPropertyOp0
 70
     1
102
RTVSPropertyOp1
 70
     1
102
RTVSPropertyOp2
 70
     1
102
RTVSPropertyOp3
 70
     1
102
RTVSPropertyOp4
 70
     1
102
RTVSPropertyOp5
 70
     1
102
RTVSPropertyOp6
 70
     1
102
RTVSPropertyOp7
 70
     1
102
RTVSPropertyOp8
 70
     1
102
RTVSPropertyOp9
 70
     1
102
RTVSPropertyOp10
 70
     1
102
RTVSPropertyOp11
 70
     1
102
RTVSPropertyOp12
 70
     1
102
RTVSPropertyOp13
 70
     1
102
RTVSPropertyOp14
 70
     1
102
RTVSPropertyOp15
 70
     1
102
RTVSPropertyOp16
 70
     1
102
RTVSPropertyOp17
 70
     1
102
RTVSPropertyOp18
 70
     1
102
RTVSPropertyOp19
 70
     1
102
RTVSPropertyOp20
 70
     1
102
RTVSPropertyOp21
 70
     1
102
RTVSPropertyOp22
 70
     1
102
RTVSPropertyOp23
 70
     1
102
RTVSPropertyOp24
 70
     1
102
RTVSPropertyOp25
 70
     1
102
RTVSPropertyOp26
 70
     1
102
RTVSPropertyOp27
 70
     1
  0
XRECORD
  5
E34
102
{ACAD_REACTORS
330
E33
102
}
330
E33
100
AcDbXrecord
280
     1
102
RTVSPropertyOp0
 70
     1
102
RTVSPropertyOp1
 70
     1
102
RTVSPropertyOp2
 70
     1
102
RTVSPropertyOp3
 70
     1
102
RTVSPropertyOp4
 70
     1
102
RTVSPropertyOp5
 70
     1
102
RTVSPropertyOp6
 70
     1
102
RTVSPropertyOp7
 70
     1
102
RTVSPropertyOp8
 70
     1
102
RTVSPropertyOp9
 70
     1
102
RTVSPropertyOp10
 70
     1
102
RTVSPropertyOp11
 70
     1
102
RTVSPropertyOp12
 70
     1
102
RTVSPropertyOp13
 70
     1
102
RTVSPropertyOp14
 70
     1
102
RTVSPropertyOp15
 70
     1
102
RTVSPropertyOp16
 70
     1
102
RTVSPropertyOp17
 70
     1
102
RTVSPropertyOp18
 70
     1
102
RTVSPropertyOp19
 70
     1
102
RTVSPropertyOp20
 70
     1
102
RTVSPropertyOp21
 70
     1
102
RTVSPropertyOp22
 70
     1
102
RTVSPropertyOp23
 70
     1
102
RTVSPropertyOp24
 70
     1
102
RTVSPropertyOp25
 70
     1
102
RTVSPropertyOp26
 70
     1
102
RTVSPropertyOp27
 70
     1
  0
ENDSEC
  0
EOF
