  0
SECTION
  2
HEADER
  9
$ACADVER
  1
AC1015
  9
$ACADMAINTVER
 70
    20
  9
$DWGCODEPAGE
  3
ANSI_1252
  9
$INSBASE
 10
0.0
 20
0.0
 30
0.0
  9
$EXTMIN
 10
-155.8146855530776
 20
129.3176423007242
 30
0.0
  9
$EXTMAX
 10
558.7517782654997
 20
293.8739063015002
 30
0.0
  9
$LIMMIN
 10
0.0
 20
0.0
  9
$LIMMAX
 10
420.0
 20
297.0
  9
$ORTHOMODE
 70
     0
  9
$REGENMODE
 70
     1
  9
$FILLMODE
 70
     1
  9
$QTEXTMODE
 70
     0
  9
$MIRRTEXT
 70
     0
  9
$LTSCALE
 40
23.1
  9
$ATTMODE
 70
     1
  9
$TEXTSIZE
 40
0.2
  9
$TRACEWID
 40
0.05
  9
$TEXTSTYLE
  7
STANDARD
  9
$CLAYER
  8
0
  9
$CELTYPE
  6
BYLAYER
  9
$CECOLOR
 62
   256
  9
$CELTSCALE
 40
1.0
  9
$DISPSILH
 70
     0
  9
$DIMSCALE
 40
1.0
  9
$DIMASZ
 40
3.5
  9
$DIMEXO
 40
1.5
  9
$DIMDLI
 40
15.96
  9
$DIMRND
 40
0.0
  9
$DIMDLE
 40
0.0
  9
$DIMEXE
 40
1.5
  9
$DIMTP
 40
0.005
  9
$DIMTM
 40
0.005
  9
$DIMTXT
 40
3.5
  9
$DIMCEN
 40
3.779999999999998
  9
$DIMTSZ
 40
0.0
  9
$DIMTOL
 70
     1
  9
$DIMLIM
 70
     0
  9
$DIMTIH
 70
     1
  9
$DIMTOH
 70
     1
  9
$DIMSE1
 70
     0
  9
$DIMSE2
 70
     0
  9
$DIMTAD
 70
     0
  9
$DIMZIN
 70
     0
  9
$DIMBLK
  1
_FILLED
  9
$DIMASO
 70
     1
  9
$DIMSHO
 70
     1
  9
$DIMPOST
  1

  9
$DIMAPOST
  1

  9
$DIMALT
 70
     0
  9
$DIMALTD
 70
     2
  9
$DIMALTF
 40
25.4
  9
$DIMLFAC
 40
1.0
  9
$DIMTOFL
 70
     0
  9
$DIMTVP
 40
0.0
  9
$DIMTIX
 70
     0
  9
$DIMSOXD
 70
     0
  9
$DIMSAH
 70
     0
  9
$DIMBLK1
  1

  9
$DIMBLK2
  1

  9
$DIMSTYLE
  2
STANDARD
  9
$DIMCLRD
 70
     0
  9
$DIMCLRE
 70
     0
  9
$DIMCLRT
 70
     0
  9
$DIMTFAC
 40
1.0
  9
$DIMGAP
 40
0.625
  9
$DIMJUST
 70
     0
  9
$DIMSD1
 70
     0
  9
$DIMSD2
 70
     0
  9
$DIMTOLJ
 70
     1
  9
$DIMTZIN
 70
     0
  9
$DIMALTZ
 70
     0
  9
$DIMALTTZ
 70
     0
  9
$DIMUPT
 70
     0
  9
$DIMDEC
 70
     0
  9
$DIMTDEC
 70
     4
  9
$DIMALTU
 70
     2
  9
$DIMALTTD
 70
     2
  9
$DIMTXSTY
  7
STANDARD
  9
$DIMAUNIT
 70
     0
  9
$DIMADEC
 70
     0
  9
$DIMALTRND
 40
0.0
  9
$DIMAZIN
 70
     0
  9
$DIMDSEP
 70
    46
  9
$DIMATFIT
 70
     3
  9
$DIMFRAC
 70
     0
  9
$DIMLDRBLK
  1

  9
$DIMLUNIT
 70
     2
  9
$DIMLWD
 70
    -2
  9
$DIMLWE
 70
    -2
  9
$DIMTMOVE
 70
     0
  9
$LUNITS
 70
     2
  9
$LUPREC
 70
     2
  9
$SKETCHINC
 40
0.1
  9
$FILLETRAD
 40
0.0
  9
$AUNITS
 70
     0
  9
$AUPREC
 70
     0
  9
$MENU
  1
.
  9
$ELEVATION
 40
0.0
  9
$PELEVATION
 40
0.0
  9
$THICKNESS
 40
0.0
  9
$LIMCHECK
 70
     0
  9
$CHAMFERA
 40
0.0
  9
$CHAMFERB
 40
0.0
  9
$CHAMFERC
 40
0.0
  9
$CHAMFERD
 40
0.0
  9
$SKPOLY
 70
     0
  9
$TDCREATE
 40
2456562.307353287
  9
$TDUCREATE
 40
2456562.265686621
  9
$TDUPDATE
 40
2456671.447406620
  9
$TDUUPDATE
 40
2456671.405739954
  9
$TDINDWG
 40
0.0086622106
  9
$TDUSRTIMER
 40
0.0086620255
  9
$USRTIMER
 70
     1
  9
$ANGBASE
 50
0.0
  9
$ANGDIR
 70
     0
  9
$PDMODE
 70
     3
  9
$PDSIZE
 40
0.3125
  9
$PLINEWID
 40
0.0
  9
$SPLFRAME
 70
     0
  9
$SPLINETYPE
 70
     6
  9
$SPLINESEGS
 70
     8
  9
$HANDSEED
  5
D23
  9
$SURFTAB1
 70
     6
  9
$SURFTAB2
 70
     6
  9
$SURFTYPE
 70
     6
  9
$SURFU
 70
     6
  9
$SURFV
 70
     6
  9
$UCSBASE
  2

  9
$UCSNAME
  2

  9
$UCSORG
 10
0.0
 20
0.0
 30
0.0
  9
$UCSXDIR
 10
1.0
 20
0.0
 30
0.0
  9
$UCSYDIR
 10
0.0
 20
1.0
 30
0.0
  9
$UCSORTHOREF
  2

  9
$UCSORTHOVIEW
 70
     0
  9
$UCSORGTOP
 10
0.0
 20
0.0
 30
0.0
  9
$UCSORGBOTTOM
 10
0.0
 20
0.0
 30
0.0
  9
$UCSORGLEFT
 10
0.0
 20
0.0
 30
0.0
  9
$UCSORGRIGHT
 10
0.0
 20
0.0
 30
0.0
  9
$UCSORGFRONT
 10
0.0
 20
0.0
 30
0.0
  9
$UCSORGBACK
 10
0.0
 20
0.0
 30
0.0
  9
$PUCSBASE
  2

  9
$PUCSNAME
  2

  9
$PUCSORG
 10
0.0
 20
0.0
 30
0.0
  9
$PUCSXDIR
 10
1.0
 20
0.0
 30
0.0
  9
$PUCSYDIR
 10
0.0
 20
1.0
 30
0.0
  9
$PUCSORTHOREF
  2

  9
$PUCSORTHOVIEW
 70
     0
  9
$PUCSORGTOP
 10
0.0
 20
0.0
 30
0.0
  9
$PUCSORGBOTTOM
 10
0.0
 20
0.0
 30
0.0
  9
$PUCSORGLEFT
 10
0.0
 20
0.0
 30
0.0
  9
$PUCSORGRIGHT
 10
0.0
 20
0.0
 30
0.0
  9
$PUCSORGFRONT
 10
0.0
 20
0.0
 30
0.0
  9
$PUCSORGBACK
 10
0.0
 20
0.0
 30
0.0
  9
$USERI1
 70
     0
  9
$USERI2
 70
     0
  9
$USERI3
 70
     0
  9
$USERI4
 70
     0
  9
$USERI5
 70
     0
  9
$USERR1
 40
0.0
  9
$USERR2
 40
0.0
  9
$USERR3
 40
0.0
  9
$USERR4
 40
0.0
  9
$USERR5
 40
0.0
  9
$WORLDVIEW
 70
     1
  9
$SHADEDGE
 70
     3
  9
$SHADEDIF
 70
    70
  9
$TILEMODE
 70
     1
  9
$MAXACTVP
 70
    64
  9
$PINSBASE
 10
0.0
 20
0.0
 30
0.0
  9
$PLIMCHECK
 70
     0
  9
$PEXTMIN
 10
1.000000000000000E+20
 20
1.000000000000000E+20
 30
1.000000000000000E+20
  9
$PEXTMAX
 10
-1.000000000000000E+20
 20
-1.000000000000000E+20
 30
-1.000000000000000E+20
  9
$PLIMMIN
 10
0.0
 20
0.0
  9
$PLIMMAX
 10
12.0
 20
9.0
  9
$UNITMODE
 70
     0
  9
$VISRETAIN
 70
     1
  9
$PLINEGEN
 70
     0
  9
$PSLTSCALE
 70
     1
  9
$TREEDEPTH
 70
  3020
  9
$CMLSTYLE
  2
Standard
  9
$CMLJUST
 70
     0
  9
$CMLSCALE
 40
1.0
  9
$PROXYGRAPHICS
 70
     1
  9
$MEASUREMENT
 70
     1
  9
$CELWEIGHT
370
    -1
  9
$ENDCAPS
280
     0
  9
$JOINSTYLE
280
     0
  9
$LWDISPLAY
290
     0
  9
$INSUNITS
 70
     4
  9
$HYPERLINKBASE
  1

  9
$STYLESHEET
  1

  9
$XEDIT
290
     1
  9
$CEPSNTYPE
380
     0
  9
$PSTYLEMODE
290
     1
  9
$FINGERPRINTGUID
  2
{AB42DECE-98CA-42B7-A3ED-A56131072EEB}
  9
$VERSIONGUID
  2
{4D7D456D-3A7C-4239-9BB7-12CCB1DE6C3E}
  9
$EXTNAMES
290
     1
  9
$PSVPSCALE
 40
0.0
  9
$OLESTARTUP
290
     0
  0
ENDSEC
  0
SECTION
  2
CLASSES
  0
CLASS
  1
ACDBDICTIONARYWDFLT
  2
AcDbDictionaryWithDefault
  3
ObjectDBX Classes
 90
        0
280
     0
281
     0
  0
CLASS
  1
ACDBPLACEHOLDER
  2
AcDbPlaceHolder
  3
ObjectDBX Classes
 90
        0
280
     0
281
     0
  0
CLASS
  1
LAYOUT
  2
AcDbLayout
  3
ObjectDBX Classes
 90
        0
280
     0
281
     0
  0
CLASS
  1
MATERIAL
  2
AcDbMaterial
  3
ObjectDBX Classes
 90
     1153
280
     0
281
     0
  0
CLASS
  1
VISUALSTYLE
  2
AcDbVisualStyle
  3
ObjectDBX Classes
 90
     4095
280
     0
281
     0
  0
CLASS
  1
TABLESTYLE
  2
AcDbTableStyle
  3
ObjectDBX Classes
 90
     4095
280
     0
281
     0
  0
CLASS
  1
SCALE
  2
AcDbScale
  3
ObjectDBX Classes
 90
     1153
280
     0
281
     0
  0
CLASS
  1
MLEADERSTYLE
  2
AcDbMLeaderStyle
  3
ACDB_MLEADERSTYLE_CLASS
 90
     4095
280
     0
281
     0
  0
CLASS
  1
AMGSETTINGSOBJ
  2
AmgSettingsObj
  3
"AcadM|Product Description: AutoCAD Mechanical|Company: Autodesk, Inc."
 90
     1024
280
     0
281
     0
  0
CLASS
  1
ACME_DOCUMENT
  2
AcMeDbDoc
  3
AcMeServices
 90
     1024
280
     0
281
     0
  0
CLASS
  1
ACMESCOPE
  2
AcMeScope
  3
AcMeServices
 90
     1024
280
     0
281
     0
  0
CLASS
  1
ACMECOMMANDHISTORY
  2
AcMeCommandHistory
  3
AcMeServices
 90
     1024
280
     0
281
     0
  0
CLASS
  1
ACIMSYSVARMAN
  2
AcImSysVarManager
  3
AcMeServices
 90
     1024
280
     0
281
     0
  0
CLASS
  1
ACIMINTSYSVAR
  2
AcImIntSysVar
  3
AcMeServices
 90
     1024
280
     0
281
     0
  0
CLASS
  1
ACMEDRAWINGMAN
  2
AcMeDrawingMan
  3
AcMeServices
 90
     1024
280
     0
281
     0
  0
CLASS
  1
ACMEVIEW
  2
AcMeView
  3
AcMeServices
 90
     1024
280
     0
281
     0
  0
CLASS
  1
ACDBENTITYCACHE
  2
AcMeEntityCache
  3
AcMeServices
 90
     1024
280
     0
281
     0
  0
CLASS
  1
ACMESTATEMGR
  2
AcMeStateMgr
  3
AcMeServices
 90
     1024
280
     0
281
     0
  0
CLASS
  1
ACGREFMASTER
  2
AcGrefMaster
  3
AcAttribServices
 90
     1024
280
     0
281
     0
  0
CLASS
  1
AM_DRAWING_MGR
  2
AcDmDwgMgr
  3
AcMechDwgViewMgmt
 90
     1024
280
     0
281
     0
  0
CLASS
  1
AM_DWG_DOCUMENT
  2
AcDmDwgDocument
  3
AcMechDwgViewMgmt
 90
     1024
280
     0
281
     0
  0
CLASS
  1
AM_DWG_SHEET
  2
AcDmSheet
  3
AcMechDwgViewMgmt
 90
     1024
280
     0
281
     0
  0
CLASS
  1
AM_VIEWDIMPARMAP
  2
AcDmViewDimParMap
  3
AcMechDwgViewMgmt
 90
     1024
280
     0
281
     0
  0
CLASS
  1
AMDTINTERNALREACTOR
  2
AmdtInternalReactor
  3
AcMeServices
 90
     1024
280
     0
281
     0
  0
CLASS
  1
ACIMREALSYSVAR
  2
AcImRealSysVar
  3
AcMeServices
 90
     1024
280
     0
281
     0
  0
CLASS
  1
AM_DWGMGR_NAME
  2
AcDmDwgMgrName
  3
AcMechDwgViewMgmt
 90
     1024
280
     0
281
     0
  0
CLASS
  1
ACME_DATABASE
  2
AcMeDbDatabase
  3
AcMeServices
 90
     1024
280
     0
281
     0
  0
CLASS
  1
ACRFINSADJUSTERMGR
  2
AcRfInsAdjusterMgr
  3
AcMeServices
 90
     1024
280
     0
281
     0
  0
CLASS
  1
ACGREFACADMASTER
  2
AcGrefacadMaster
  3
AcGrefServices
 90
     1024
280
     0
281
     0
  0
CLASS
  1
AMDTMENUSTATEMGR
  2
AmdtMenuStateMgr
  3
McadcomServices
 90
     1024
280
     0
281
     0
  0
CLASS
  1
AMDTMCOMMENUSTATE
  2
AmdtMcomMenuState
  3
McadcomServices
 90
     1024
280
     0
281
     0
  0
CLASS
  1
AMIMASTER
  2
AmiMaster
  3
AmiServices
 90
     1024
280
     0
281
     0
  0
CLASS
  1
MAPIAMMOUDLE
  2
MApiAmModule
  3
MApiAmServices
 90
     1024
280
     0
281
     0
  0
CLASS
  1
ACIMSTRSYSVAR
  2
AcImStrSysVar
  3
AcMeServices
 90
     1024
280
     0
281
     0
  0
CLASS
  1
AMDTADMENUSTATE
  2
AmdtAdMenuState
  3
DesignerServices
 90
     1024
280
     0
281
     0
  0
CLASS
  1
ADAPPL
  2
AcAdAppl
  3
DesignerServices
 90
     1024
280
     0
281
     0
  0
CLASS
  1
DEPMGR
  2
AcAdDepMgr
  3
DesignerServices
 90
     1024
280
     0
281
     0
  0
CLASS
  1
PARAMMGR
  2
AcAdParamMgr
  3
DesignerServices
 90
     1024
280
     0
281
     0
  0
CLASS
  1
PARAMSCOPE
  2
AcAdParamScope
  3
DesignerServices
 90
     1024
280
     0
281
     0
  0
CLASS
  1
NAMEDAPPL
  2
AcAdNamedAppl
  3
DesignerServices
 90
     1024
280
     0
281
     0
  0
CLASS
  1
AMDTDMMENUSTATE
  2
AmdtDmMenuState
  3
AcMechDwgViewMgmt
 90
     1024
280
     0
281
     0
  0
CLASS
  1
AMDTAMMENUSTATE
  2
AmdtAmMenuState
  3
DesignerAssemblies
 90
     1024
280
     0
281
     0
  0
CLASS
  1
ACAMPROJECT
  2
AcAmProject
  3
DesignerAssemblies
 90
     1024
280
     0
281
     0
  0
CLASS
  1
ACAMGRCOMPDEF
  2
AcAmGrCompDef
  3
DesignerAssemblies
 90
     1024
280
     0
281
     0
  0
CLASS
  1
ACAMCOMPDEF
  2
AcAmCompDef
  3
DesignerAssemblies
 90
     1024
280
     0
281
     0
  0
CLASS
  1
ACAMCOMPDEFMGR
  2
AcAmCompDefMgr
  3
DesignerAssemblies
 90
     1024
280
     0
281
     0
  0
CLASS
  1
AMCONTEXTMGR
  2
AcAmContextMgr
  3
DesignerAssemblies
 90
     1024
280
     0
281
     0
  0
CLASS
  1
ACAMCONTEXTMODELER
  2
AcAmContextModeler
  3
DesignerAssemblies
 90
     1024
280
     0
281
     0
  0
CLASS
  1
ACMDATADICTIONARY
  2
AcmDataDictionary
  3
"AcmSymBB|Product Description: AutoCAD Mechanical|Company: Autodesk, Inc."
 90
     1024
280
     0
281
     0
  0
CLASS
  1
CATALOGSTATE
  2
AcAmCatalogState
  3
DesignerAssemblies
 90
     1024
280
     0
281
     0
  0
CLASS
  1
ACAMGRCOMPDEFSET
  2
AcAmGrCompDefSet
  3
DesignerAssemblies
 90
     1024
280
     0
281
     0
  0
CLASS
  1
AMDTBROWSERDBTAB
  2
AmdtBrowserDbTab
  3
McadcomServices
 90
     1024
280
     0
281
     0
  0
CLASS
  1
CBROWSERAPPOBJECT
  2
CBrowserAppObject
  3
McadcomServices
 90
     1024
280
     0
281
     0
  0
CLASS
  1
DM_PLACEHOLDER
  2
AcDmSelsetPlaceholder
  3
AcMechDwgViewMgmt
 90
     1024
280
     0
281
     0
  0
CLASS
  1
ACMSTANDARDDIN
  2
AcmStandardDIN
  3
"Amdt_StdImp|Product Description: AutoCAD Mechanical|Company: Autodesk, Inc."
 90
     1024
280
     0
281
     0
  0
CLASS
  1
AMDTEDGESTANDARDDIN13715
  2
AmdtEdgeStdDIN13715
  3
"Amdt_StdImp|Product Description: AutoCAD Mechanical|Company: Autodesk, Inc."
 90
     1024
280
     0
281
     0
  0
CLASS
  1
ACMSURFSTANDARDDIN2002
  2
AcmSurfTextStdDIN2002
  3
"Amdt_StdImp|Product Description: AutoCAD Mechanical|Company: Autodesk, Inc."
 90
     1024
280
     0
281
     0
  0
CLASS
  1
ACMFCFSTANDARDDIN
  2
AcmFCFStdDIN
  3
"Amdt_StdImp|Product Description: AutoCAD Mechanical|Company: Autodesk, Inc."
 90
     1024
280
     0
281
     0
  0
CLASS
  1
ACMWELDSTANDARDDIN
  2
AcmWeldingStdDIN
  3
"Amdt_StdImp|Product Description: AutoCAD Mechanical|Company: Autodesk, Inc."
 90
     1024
280
     0
281
     0
  0
CLASS
  1
ACMIDSTANDARDDIN
  2
AcmIdStdDIN
  3
"Amdt_StdImp|Product Description: AutoCAD Mechanical|Company: Autodesk, Inc."
 90
     1024
280
     0
281
     0
  0
CLASS
  1
ACMDATUMSTANDARDDIN
  2
AcmDatumStdDIN
  3
"Amdt_StdImp|Product Description: AutoCAD Mechanical|Company: Autodesk, Inc."
 90
     1024
280
     0
281
     0
  0
CLASS
  1
ACMBOMSTANDARDDIN
  2
AcmBOMStdDIN
  3
"Amdt_StdImp|Product Description: AutoCAD Mechanical|Company: Autodesk, Inc."
 90
     1024
280
     0
281
     0
  0
CLASS
  1
ACMDETAILSTANDARDDIN
  2
AmdtDetailSymStdDIN
  3
"Amdt_StdImp|Product Description: AutoCAD Mechanical|Company: Autodesk, Inc."
 90
     1024
280
     0
281
     0
  0
CLASS
  1
ACMSECTIONSTANDARDDIN
  2
AmdtSectionSymStdDIN
  3
"Amdt_StdImp|Product Description: AutoCAD Mechanical|Company: Autodesk, Inc."
 90
     1024
280
     0
281
     0
  0
CLASS
  1
ACMCENTERLINESTANDARDDIN
  2
AmdtCenterLineStdDIN
  3
"Amdt_StdImp|Product Description: AutoCAD Mechanical|Company: Autodesk, Inc."
 90
     1024
280
     0
281
     0
  0
CLASS
  1
ACMTHREADLINESTANDARDDIN
  2
AmdtThreadLineStdDIN
  3
"Amdt_StdImp|Product Description: AutoCAD Mechanical|Company: Autodesk, Inc."
 90
     1024
280
     0
281
     0
  0
CLASS
  1
ACMNOTESTANDARDDIN
  2
AmdtNoteStdDIN
  3
"Amdt_StdImp|Product Description: AutoCAD Mechanical|Company: Autodesk, Inc."
 90
     1024
280
     0
281
     0
  0
CLASS
  1
ACMTAPERSTANDARDDIN
  2
AcmTaperStdDIN
  3
"Amdt_StdImp|Product Description: AutoCAD Mechanical|Company: Autodesk, Inc."
 90
     1024
280
     0
281
     0
  0
CLASS
  1
ACMANOOTATIONVIEWSTANDARDDIN
  2
AmdtAnViewStdDIN
  3
"Amdt_StdImp|Product Description: AutoCAD Mechanical|Company: Autodesk, Inc."
 90
     1024
280
     0
281
     0
  0
CLASS
  1
ACAMGLAYSTD
  2
AcAmgLayStd
  3
"AmgLay|Product Description: AutoCAD Mechanical|Company: Autodesk, Inc."
 90
     1024
280
     0
281
     0
  0
CLASS
  1
ACAMGDIMSTD
  2
AcAmgDimStd
  3
"AmgDim|Product Description: AutoCAD Mechanical|Company: Autodesk, Inc."
 90
     1024
280
     0
281
     0
  0
CLASS
  1
AMGOBJPROPCFG
  2
AmgObjPropCfg
  3
"AmgLay|Product Description: AutoCAD Mechanical|Company: Autodesk, Inc."
 90
     1025
280
     0
281
     0
  0
CLASS
  1
ACAMGHOLECHARTSTDDIN
  2
AcAmgHoleChartStdDIN
  3
AmgDim|Product Description: AutoCAD Mechanical|Company: Autodesk, Inc.
 90
     1024
280
     0
281
     0
  0
CLASS
  1
ACAMGTITLESTD
  2
AcAmgTitleStd
  3
"AmgTitle|Product Description: AutoCAD Mechanical|Company: Autodesk, Inc."
 90
     4095
280
     0
281
     0
  0
CLASS
  1
AMDTNOTETEMPLATEDB
  2
AmdtNoteTemplateDB
  3
AcmSymBB|Product Description: AutoCAD Mechanical|Company: Autodesk, Inc.
 90
     1024
280
     0
281
     0
  0
CLASS
  1
ACAMGFILTERDAT
  2
AcAmgFilterDat
  3
"AcadM|Product Description: AutoCAD Mechanical|Company: Autodesk, Inc."
 90
    33792
280
     0
281
     0
  0
CLASS
  1
DICTIONARYVAR
  2
AcDbDictionaryVar
  3
ObjectDBX Classes
 90
        0
280
     0
281
     0
  0
CLASS
  1
CELLSTYLEMAP
  2
AcDbCellStyleMap
  3
ObjectDBX Classes
 90
     1152
280
     0
281
     0
  0
CLASS
  1
EXACXREFPANELOBJECT
  2
ExAcXREFPanelObject
  3
EXAC_ESW
 90
     1025
280
     0
281
     0
  0
CLASS
  1
NPOCOLLECTION
  2
AcDbImpNonPersistentObjectsCollection
  3
ObjectDBX Classes
 90
     1153
280
     0
281
     0
  0
CLASS
  1
DIMASSOC
  2
AcDbDimAssoc
  3
"AcDbDimAssoc|Product Desc:     AcDim ARX App For Dimension|Company:          Autodesk, Inc.|WEB Address:      www.autodesk.com"
 90
        0
280
     0
281
     0
  0
CLASS
  1
AEC_REFEDIT_STATUS_TRACKER
  2
AecDbRefEditStatusTracker
  3
AecArchBase60|Product Desc: Autodesk Architectural Desktop 2007 |Company: Autodesk,Inc. |WEB Address: www.autodesk.com
 90
    32897
280
     0
281
     0
  0
CLASS
  1
CAMSSTRUCTBTNSTATE
  2
StructBtnState
  3
DesignerAssemblies
 90
    33792
280
     0
281
     0
  0
ENDSEC
  0
SECTION
  2
TABLES
  0
TABLE
  2
VPORT
  5
8
330
0
100
AcDbSymbolTable
 70
     1
  0
VPORT
  5
1F4
330
8
100
AcDbSymbolTableRecord
100
AcDbViewportTableRecord
  2
*ACTIVE
 70
     0
 10
0.0
 20
0.0
 11
1.0
 21
1.0
 12
134.3803569317607
 22
170.2877374651798
 13
0.0
 23
0.0
 14
1.0
 24
1.0
 15
0.0
 25
0.0
 16
0.0
 26
0.0
 36
1.0
 17
0.0
 27
0.0
 37
0.0
 40
736.1785398339097
 41
2.140734265734265
 42
50.0
 43
0.0
 44
0.0
 50
0.0
 51
0.0
 71
     0
 72
   100
 73
     1
 74
     1
 75
     0
 76
     0
 77
     0
 78
     0
281
     0
 65
     0
110
0.0
120
0.0
130
0.0
111
1.0
121
0.0
131
0.0
112
0.0
122
1.0
132
0.0
 79
     0
146
0.0
  0
ENDTAB
  0
TABLE
  2
LTYPE
  5
5
330
0
100
AcDbSymbolTable
 70
    22
  0
LTYPE
  5
14
330
5
100
AcDbSymbolTableRecord
100
AcDbLinetypeTableRecord
  2
BYBLOCK
 70
     0
  3

 72
    65
 73
     0
 40
0.0
  0
LTYPE
  5
15
330
5
100
AcDbSymbolTableRecord
100
AcDbLinetypeTableRecord
  2
BYLAYER
 70
     0
  3

 72
    65
 73
     0
 40
0.0
  0
LTYPE
  5
16
330
5
100
AcDbSymbolTableRecord
100
AcDbLinetypeTableRecord
  2
CONTINUOUS
 70
     0
  3
Solid line
 72
    65
 73
     0
 40
0.0
  0
LTYPE
  5
1F5
330
5
100
AcDbSymbolTableRecord
100
AcDbLinetypeTableRecord
  2
CENTER
 70
     0
  3
____ _ ____ _ ____ _ ____ _ ____ _ ____ _ ____
 72
    65
 73
     4
 40
0.6
 49
0.375
 74
     0
 49
-0.075
 74
     0
 49
0.075
 74
     0
 49
-0.075
 74
     0
  0
LTYPE
  5
1F6
330
5
100
AcDbSymbolTableRecord
100
AcDbLinetypeTableRecord
  2
HIDDEN
 70
     0
  3
- - - - - - - - - - - - - - - - - - - -
 72
    65
 73
     2
 40
0.2
 49
0.1
 74
     0
 49
-0.1
 74
     0
  0
LTYPE
  5
1F7
330
5
100
AcDbSymbolTableRecord
100
AcDbLinetypeTableRecord
  2
PHANTOM
 70
     0
  3
_____ _ _ _____ _ _ _____ _ _ _____
 72
    65
 73
     6
 40
0.8
 49
0.45
 74
     0
 49
-0.05
 74
     0
 49
0.1
 74
     0
 49
-0.05
 74
     0
 49
0.1
 74
     0
 49
-0.05
 74
     0
  0
LTYPE
  5
1F8
330
5
100
AcDbSymbolTableRecord
100
AcDbLinetypeTableRecord
  2
DOT
 70
     0
  3
. . . . . . . . . . . . . . . . . . . .
 72
    65
 73
     2
 40
0.2
 49
0.1
 74
     0
 49
-0.1
 74
     0
  0
LTYPE
  5
1F9
330
5
100
AcDbSymbolTableRecord
100
AcDbLinetypeTableRecord
  2
DASHED
 70
     0
  3
- - - - - - - - - - - - - - - - - - - -
 72
    65
 73
     2
 40
0.2
 49
0.1
 74
     0
 49
-0.1
 74
     0
  0
LTYPE
  5
643
330
5
100
AcDbSymbolTableRecord
100
AcDbLinetypeTableRecord
  2
PHANTOM2
 70
     0
  3
Phantom (.5x) ___ _ _ ___ _ _ ___ _ _ ___ _ _
 72
    65
 73
     6
 40
31.75
 49
15.875
 74
     0
 49
-3.174999999999998
 74
     0
 49
3.174999999999998
 74
     0
 49
-3.174999999999998
 74
     0
 49
3.174999999999998
 74
     0
 49
-3.174999999999998
 74
     0
  0
LTYPE
  5
689
330
5
100
AcDbSymbolTableRecord
100
AcDbLinetypeTableRecord
  2
AM_ISO02W050
 70
     0
  3
__ __ __ __ __ __ __ __ __ __ __ __ __ __ __
 72
    65
 73
     2
 40
7.5
 49
6.0
 74
     0
 49
-1.5
 74
     0
  0
LTYPE
  5
68A
330
5
100
AcDbSymbolTableRecord
100
AcDbLinetypeTableRecord
  2
AM_ISO08W050
 70
     0
  3
____ . ____ . ____ . ____ . ____ . ____ . ____
 72
    65
 73
     4
 40
18.0
 49
12.0
 74
     0
 49
-1.5
 74
     0
 49
3.0
 74
     0
 49
-1.5
 74
     0
  0
LTYPE
  5
68B
330
5
100
AcDbSymbolTableRecord
100
AcDbLinetypeTableRecord
  2
AM_ISO09W050
 70
     0
  3
_____ . . _____ . . _____ . . ____ .. ____
 72
    65
 73
     6
 40
22.5
 49
12.0
 74
     0
 49
-1.5
 74
     0
 49
3.0
 74
     0
 49
-1.5
 74
     0
 49
3.0
 74
     0
 49
-1.5
 74
     0
  0
LTYPE
  5
68C
330
5
100
AcDbSymbolTableRecord
100
AcDbLinetypeTableRecord
  2
Amconstr
 70
     0
  3
_______________________
 72
    65
 73
     2
 40
9999.0
 49
9999.0
 74
     0
 49
0.0
 74
     0
  0
LTYPE
  5
68D
330
5
100
AcDbSymbolTableRecord
100
AcDbLinetypeTableRecord
  2
AM_ISO08W050x2
 70
     0
  3
__ . __ . __ . __ . __ . __
 72
    65
 73
     4
 40
9.0
 49
6.0
 74
     0
 49
-0.75
 74
     0
 49
1.5
 74
     0
 49
-0.75
 74
     0
  0
LTYPE
  5
68E
330
5
100
AcDbSymbolTableRecord
100
AcDbLinetypeTableRecord
  2
AM_ISO02W050x2
 70
     0
  3
 _ _ _ _ _ _ _ _ _ _ _ _
 72
    65
 73
     2
 40
3.75
 49
3.0
 74
     0
 49
-0.75
 74
     0
  0
LTYPE
  5
691
330
5
100
AcDbSymbolTableRecord
100
AcDbLinetypeTableRecord
  2
Amzigzag
 70
     0
  3
/\/-/\/-/\/-/\/-/\/-/\/
 72
    65
 73
     2
 40
11.0001
 49
0.0001
 74
     4
 75
   136
340
690
 46
0.04
 50
0.0
 44
0.0
 45
0.0
 49
-11.0
 74
     0
  0
LTYPE
  5
692
330
5
100
AcDbSymbolTableRecord
100
AcDbLinetypeTableRecord
  2
AM_DIN_F_W050
 70
     0
  3
__ __ __ __ __ __ __ __ __ __ __ __ __ __ __
 72
    65
 73
     2
 40
6.25
 49
4.75
 74
     0
 49
-1.5
 74
     0
  0
LTYPE
  5
693
330
5
100
AcDbSymbolTableRecord
100
AcDbLinetypeTableRecord
  2
AM_DIN_G_W050
 70
     0
  3
____ . ____ . ____ . ____ . ____ . ____ . ____
 72
    65
 73
     4
 40
13.75
 49
9.75
 74
     0
 49
-1.5
 74
     0
 49
1.0
 74
     0
 49
-1.5
 74
     0
  0
LTYPE
  5
694
330
5
100
AcDbSymbolTableRecord
100
AcDbLinetypeTableRecord
  2
AM_DIN_K_W050
 70
     0
  3
_____ . . _____ . . _____ . . ____ .. ____
 72
    65
 73
     6
 40
16.25
 49
9.75
 74
     0
 49
-1.5
 74
     0
 49
1.0
 74
     0
 49
-1.5
 74
     0
 49
1.0
 74
     0
 49
-1.5
 74
     0
  0
LTYPE
  5
695
330
5
100
AcDbSymbolTableRecord
100
AcDbLinetypeTableRecord
  2
AM_DIN_G_W050x2
 70
     0
  3
__ . __ . __ . __ . __ . __
 72
    65
 73
     4
 40
6.875
 49
4.75
 74
     0
 49
-0.875
 74
     0
 49
0.375
 74
     0
 49
-0.875
 74
     0
  0
LTYPE
  5
696
330
5
100
AcDbSymbolTableRecord
100
AcDbLinetypeTableRecord
  2
AM_DIN_F_W050x2
 70
     0
  3
 _ _ _ _ _ _ _ _ _ _ _ _
 72
    65
 73
     2
 40
3.125
 49
2.25
 74
     0
 49
-0.875
 74
     0
  0
LTYPE
  5
6A5
330
5
100
AcDbSymbolTableRecord
100
AcDbLinetypeTableRecord
  2
ACDINWELD
 70
     0
  3
_ _ _ _ _
 72
    65
 73
     2
 40
2.0
 49
2.0
 74
     0
 49
-1.0
 74
     0
  0
LTYPE
  5
6A6
330
5
100
AcDbSymbolTableRecord
100
AcDbLinetypeTableRecord
  2
ACDINTGB
 70
     0
  3
__ . . __ . .
 72
    65
 73
     6
 40
9.0
 49
4.0
 74
     0
 49
-1.0
 74
     0
 49
1.0
 74
     0
 49
-1.0
 74
     0
 49
1.0
 74
     0
 49
-1.0
 74
     0
  0
LTYPE
  5
6A7
330
5
100
AcDbSymbolTableRecord
100
AcDbLinetypeTableRecord
  2
ACDINTGL
 70
     0
  3
_ _ _ _ _
 72
    65
 73
     2
 40
3.0
 49
2.0
 74
     0
 49
-1.0
 74
     0
  0
ENDTAB
  0
TABLE
  2
LAYER
  5
2
102
{ACAD_XDICTIONARY
360
8DE
102
}
330
0
100
AcDbSymbolTable
 70
    15
  0
LAYER
  5
10
330
2
100
AcDbSymbolTableRecord
100
AcDbLayerTableRecord
  2
0
 70
     0
 62
     7
  6
CONTINUOUS
370
    -3
390
F
  0
LAYER
  5
1FA
330
2
100
AcDbSymbolTableRecord
100
AcDbLayerTableRecord
  2
DEFAULT_1
 70
     0
 62
     7
  6
CENTER
370
    -3
390
F
  0
LAYER
  5
1FB
330
2
100
AcDbSymbolTableRecord
100
AcDbLayerTableRecord
  2
DEFAULT_2
 70
     0
 62
     8
  6
HIDDEN
370
    -3
390
F
  0
LAYER
  5
1FC
330
2
100
AcDbSymbolTableRecord
100
AcDbLayerTableRecord
  2
DEFAULT_3
 70
     0
 62
     7
  6
PHANTOM
370
    -3
390
F
  0
LAYER
  5
1FD
330
2
100
AcDbSymbolTableRecord
100
AcDbLayerTableRecord
  2
BEZUGSACHSEN
 70
     0
 62
     7
  6
CONTINUOUS
370
    -3
390
F
  0
LAYER
  5
1FE
330
2
100
AcDbSymbolTableRecord
100
AcDbLayerTableRecord
  2
BEZUGSEBENEN
 70
     0
 62
     7
  6
CONTINUOUS
370
    -3
390
F
  0
LAYER
  5
1FF
330
2
100
AcDbSymbolTableRecord
100
AcDbLayerTableRecord
  2
BOHRUNGEN
 70
     0
 62
     7
  6
CONTINUOUS
370
    -3
390
F
  0
LAYER
  5
200
330
2
100
AcDbSymbolTableRecord
100
AcDbLayerTableRecord
  2
FASEN
 70
     0
 62
     7
  6
CONTINUOUS
370
    -3
390
F
  0
LAYER
  5
201
330
2
100
AcDbSymbolTableRecord
100
AcDbLayerTableRecord
  2
GEWINDE
 70
     0
 62
     7
  6
CONTINUOUS
370
    -3
390
F
  0
LAYER
  5
202
330
2
100
AcDbSymbolTableRecord
100
AcDbLayerTableRecord
  2
KURVEN
 70
     0
 62
     7
  6
CONTINUOUS
370
    -3
390
F
  0
LAYER
  5
203
330
2
100
AcDbSymbolTableRecord
100
AcDbLayerTableRecord
  2
METAL-STEEL
 70
     0
 62
     7
  6
CONTINUOUS
370
    -3
390
F
  0
LAYER
  5
204
330
2
100
AcDbSymbolTableRecord
100
AcDbLayerTableRecord
  2
ZEICHNUNGSBEMASSUNGEN
 70
     0
 62
     7
  6
CONTINUOUS
370
    -3
390
F
  0
LAYER
  5
6B5
330
2
100
AcDbSymbolTableRecord
100
AcDbLayerTableRecord
  2
Defpoints
 70
     0
 62
     7
  6
CONTINUOUS
290
     0
370
    -3
390
F
  0
LAYER
  5
800
330
2
100
AcDbSymbolTableRecord
100
AcDbLayerTableRecord
  2
AM_5
 70
     0
 62
     3
  6
CONTINUOUS
370
    25
390
F
1001
AcAecLayerStandard
1000

1000

  0
LAYER
  5
8DB
102
{ACAD_XDICTIONARY
360
8DC
102
}
330
2
100
AcDbSymbolTableRecord
100
AcDbLayerTableRecord
  2
P-0000
 70
     0
 62
     7
  6
CONTINUOUS
370
    -3
390
F
  0
ENDTAB
  0
TABLE
  2
STYLE
  5
3
330
0
100
AcDbSymbolTable
 70
     6
  0
STYLE
  5
11
330
3
100
AcDbSymbolTableRecord
100
AcDbTextStyleTableRecord
  2
STANDARD
 70
     0
 40
0.0
 41
0.7
 50
0.0
 71
     0
 42
0.2
  3
txt
  4

  0
STYLE
  5
205
330
3
100
AcDbSymbolTableRecord
100
AcDbTextStyleTableRecord
  2
TEXTSTYLE_1
 70
     0
 40
0.0
 41
0.8
 50
0.0
 71
     0
 42
0.2
  3
gdt
  4

  0
STYLE
  5
206
330
3
100
AcDbSymbolTableRecord
100
AcDbTextStyleTableRecord
  2
TEXTSTYLE_2
 70
     0
 40
0.0
 41
0.6
 50
0.0
 71
     0
 42
0.2
  3
txt
  4

  0
STYLE
  5
690
330
3
100
AcDbSymbolTableRecord
100
AcDbTextStyleTableRecord
  2

 70
     1
 40
0.0
 41
1.0
 50
0.0
 71
     0
 42
0.2
  3
genltshp.shx
  4

  0
STYLE
  5
6A3
330
3
100
AcDbSymbolTableRecord
100
AcDbTextStyleTableRecord
  2
ACDINTS
 70
     0
 40
1.0
 41
1.0
 50
0.0
 71
     0
 42
0.2
  3
isocp.shx
  4

  0
STYLE
  5
6A4
330
3
100
AcDbSymbolTableRecord
100
AcDbTextStyleTableRecord
  2
ACDINGDT
 70
     0
 40
0.0
 41
1.0
 50
0.0
 71
     0
 42
0.2
  3
amgdt.shx
  4

  0
ENDTAB
  0
TABLE
  2
VIEW
  5
6
330
0
100
AcDbSymbolTable
 70
     0
  0
ENDTAB
  0
TABLE
  2
UCS
  5
7
330
0
100
AcDbSymbolTable
 70
     0
  0
ENDTAB
  0
TABLE
  2
APPID
  5
9
330
0
100
AcDbSymbolTable
 70
    22
  0
APPID
  5
207
330
9
100
AcDbSymbolTableRecord
100
AcDbRegAppTableRecord
  2
ACAD
 70
     0
  0
APPID
  5
618
330
9
100
AcDbSymbolTableRecord
100
AcDbRegAppTableRecord
  2
MCAD_NO_VIS
 70
     0
  0
APPID
  5
619
330
9
100
AcDbSymbolTableRecord
100
AcDbRegAppTableRecord
  2
ACAD_TEMP_GRAPHIC
 70
     0
  0
APPID
  5
645
330
9
100
AcDbSymbolTableRecord
100
AcDbRegAppTableRecord
  2
AD_DRAW
 70
     0
  0
APPID
  5
648
330
9
100
AcDbSymbolTableRecord
100
AcDbRegAppTableRecord
  2
ACATTRIBSERVICES
 70
     0
  0
APPID
  5
668
330
9
100
AcDbSymbolTableRecord
100
AcDbRegAppTableRecord
  2
DESIGNERASSEMBLIES
 70
     0
  0
APPID
  5
66E
330
9
100
AcDbSymbolTableRecord
100
AcDbRegAppTableRecord
  2
ACADM_DIM_EDIT
 70
     0
  0
APPID
  5
66F
330
9
100
AcDbSymbolTableRecord
100
AcDbRegAppTableRecord
  2
AMDT_DM_ADJ
 70
     0
  0
APPID
  5
686
330
9
100
AcDbSymbolTableRecord
100
AcDbRegAppTableRecord
  2
ACAD_DSTYLE_DIMJAG
 70
     0
  0
APPID
  5
687
330
9
100
AcDbSymbolTableRecord
100
AcDbRegAppTableRecord
  2
ACAD_DSTYLE_DIMBREAK
 70
     0
  0
APPID
  5
6DA
330
9
100
AcDbSymbolTableRecord
100
AcDbRegAppTableRecord
  2
AcAecLayerStandard
 70
     0
  0
APPID
  5
6DB
330
9
100
AcDbSymbolTableRecord
100
AcDbRegAppTableRecord
  2
GENIUS_GENODEF_13
 70
     0
  0
APPID
  5
6DC
330
9
100
AcDbSymbolTableRecord
100
AcDbRegAppTableRecord
  2
GENIUS_GENOBJ-N-HTC_13
 70
     0
  0
APPID
  5
6DD
330
9
100
AcDbSymbolTableRecord
100
AcDbRegAppTableRecord
  2
GENIUS_GENHATCH_13
 70
     0
  0
APPID
  5
6DE
330
9
100
AcDbSymbolTableRecord
100
AcDbRegAppTableRecord
  2
ACAD_EXEMPT_FROM_CAD_STANDARDS
 70
     0
  0
APPID
  5
6DF
330
9
100
AcDbSymbolTableRecord
100
AcDbRegAppTableRecord
  2
ACAD_MLEADERVER
 70
     0
  0
APPID
  5
6E0
330
9
100
AcDbSymbolTableRecord
100
AcDbRegAppTableRecord
  2
ACAD_DSTYLE_DIMJOGGED_JOGANGLE_SYMBOL
 70
     0
  0
APPID
  5
6E1
330
9
100
AcDbSymbolTableRecord
100
AcDbRegAppTableRecord
  2
ACAD_DSTYLE_DIM_LINETYPE
 70
     0
  0
APPID
  5
6E2
330
9
100
AcDbSymbolTableRecord
100
AcDbRegAppTableRecord
  2
ACAD_DSTYLE_DIM_EXT1_LINETYPE
 70
     0
  0
APPID
  5
6E3
330
9
100
AcDbSymbolTableRecord
100
AcDbRegAppTableRecord
  2
ACAD_DSTYLE_DIM_EXT2_LINETYPE
 70
     0
  0
APPID
  5
6E4
330
9
100
AcDbSymbolTableRecord
100
AcDbRegAppTableRecord
  2
ACAD_DSTYLE_DIMINSPECT
 70
     0
  0
APPID
  5
6E5
330
9
100
AcDbSymbolTableRecord
100
AcDbRegAppTableRecord
  2
GENIUS_GENDTOL_13
 70
     0
  0
ENDTAB
  0
TABLE
  2
DIMSTYLE
  5
A
330
0
100
AcDbSymbolTable
 70
    12
100
AcDbDimStyleTable
 71
     3
340
8DD
340
20F
340
211
  0
DIMSTYLE
105
20F
330
A
100
AcDbSymbolTableRecord
100
AcDbDimStyleTableRecord
  2
STANDARD
 70
     0
 41
3.5
 42
1.5
 44
1.5
 47
0.005
 48
0.005
 71
     1
 73
     0
 74
     0
 77
     1
 78
     8
140
3.5
147
0.625
178
     5
271
     3
272
     3
284
     8
340
11
341
20A
342
20A
343
20A
344
20A
  0
DIMSTYLE
105
210
330
A
100
AcDbSymbolTableRecord
100
AcDbDimStyleTableRecord
  2
DIMSTYLE_1
 70
     0
 41
3.5
 42
1.5
 44
1.5
 47
0.3
 48
0.3
 73
     0
 74
     0
 77
     1
 78
     8
140
3.5
147
0.875
178
     5
271
     3
272
     3
284
     8
340
11
341
20A
342
20A
343
20A
344
20A
  0
DIMSTYLE
105
211
330
A
100
AcDbSymbolTableRecord
100
AcDbDimStyleTableRecord
  2
DIMSTYLE_2
 70
     0
 41
3.5
 42
1.5
 44
1.5
 48
1.0
 71
     1
 73
     0
 74
     0
 77
     1
 78
     8
140
3.5
146
0.6
147
0.875
178
     5
271
     3
272
     3
284
     8
340
11
341
20A
342
20A
343
20A
344
20A
  0
DIMSTYLE
105
685
102
{ACAD_REACTORS
330
CAD
102
}
330
A
100
AcDbSymbolTableRecord
100
AcDbDimStyleTableRecord
  2
AM_DIN
 70
     0
  4
"
 41
3.5
 42
1.0
 43
10.0
 44
1.0
 47
0.1
 48
0.1
 73
     0
 74
     0
 77
     1
 78
     8
 79
     2
140
3.5
141
0.0
143
0.0393701
146
0.71
147
1.5
172
     1
176
   256
177
   256
178
     2
271
     2
272
     3
274
     4
283
     0
284
     8
340
11
371
    -1
372
    -1
1001
ACAD_DSTYLE_DIMJAG
1070
   388
1040
1.5
1001
ACAD_DSTYLE_DIMBREAK
1070
   391
1040
3.75
1001
ACAD_DSTYLE_DIMJOGGED_JOGANGLE_SYMBOL
1070
   384
1040
1.570796326794896
1001
ACAD_DSTYLE_DIM_LINETYPE
1070
   380
1005
14
1001
ACAD_DSTYLE_DIM_EXT1_LINETYPE
1070
   381
1005
14
1001
ACAD_DSTYLE_DIM_EXT2_LINETYPE
1070
   382
1005
14
  0
DIMSTYLE
105
697
330
A
100
AcDbSymbolTableRecord
100
AcDbDimStyleTableRecord
  2
AM_DIN$3
 70
     0
  4
"
 41
3.5
 42
1.0
 43
10.0
 44
1.0
 47
0.1
 48
0.1
 73
     0
 77
     1
 78
     8
 79
     2
140
3.5
141
0.0
143
0.0393701
146
0.71
147
1.5
176
   256
177
   256
178
     2
271
     2
272
     3
274
     4
283
     0
284
     8
288
     1
289
     0
340
11
371
    -1
372
    -1
1001
ACAD_DSTYLE_DIMBREAK
1070
   391
1040
3.75
1001
ACAD_DSTYLE_DIMJAG
1070
   388
1040
1.5
1001
ACAD_DSTYLE_DIMJOGGED_JOGANGLE_SYMBOL
1070
   384
1040
1.570796326794896
1001
ACAD_DSTYLE_DIM_LINETYPE
1070
   380
1005
14
1001
ACAD_DSTYLE_DIM_EXT1_LINETYPE
1070
   381
1005
14
1001
ACAD_DSTYLE_DIM_EXT2_LINETYPE
1070
   382
1005
14
  0
DIMSTYLE
105
698
330
A
100
AcDbSymbolTableRecord
100
AcDbDimStyleTableRecord
  2
AM_DIN$4
 70
     0
  4
"
 41
3.5
 42
1.0
 43
10.0
 44
1.0
 47
0.1
 48
0.1
 73
     0
 77
     1
 78
     8
 79
     2
140
3.5
141
0.0
143
0.0393701
146
0.71
147
1.5
176
   256
177
   256
178
     2
271
     2
272
     3
274
     4
283
     0
284
     8
288
     1
289
     0
340
11
371
    -1
372
    -1
1001
ACAD_DSTYLE_DIMBREAK
1070
   391
1040
3.75
1001
ACAD_DSTYLE_DIMJAG
1070
   388
1040
1.5
1001
ACAD_DSTYLE_DIMJOGGED_JOGANGLE_SYMBOL
1070
   384
1040
1.570796326794896
1001
ACAD_DSTYLE_DIM_LINETYPE
1070
   380
1005
14
1001
ACAD_DSTYLE_DIM_EXT1_LINETYPE
1070
   381
1005
14
1001
ACAD_DSTYLE_DIM_EXT2_LINETYPE
1070
   382
1005
14
  0
DIMSTYLE
105
699
330
A
100
AcDbSymbolTableRecord
100
AcDbDimStyleTableRecord
  2
AM_DIN$6
 70
     0
  4
"
 41
3.5
 42
1.0
 43
10.0
 44
1.0
 47
0.1
 48
0.1
 73
     0
 74
     0
 78
     8
 79
     2
140
3.5
141
0.0
143
0.0393701
146
0.71
147
1.5
172
     1
176
   256
177
   256
178
     2
271
     2
272
     3
274
     4
283
     0
284
     8
340
11
371
    -1
372
    -1
1001
ACAD_DSTYLE_DIMBREAK
1070
   391
1040
3.75
1001
ACAD_DSTYLE_DIMJAG
1070
   388
1040
1.5
1001
ACAD_DSTYLE_DIMJOGGED_JOGANGLE_SYMBOL
1070
   384
1040
1.570796326794896
1001
ACAD_DSTYLE_DIM_LINETYPE
1070
   380
1005
14
1001
ACAD_DSTYLE_DIM_EXT1_LINETYPE
1070
   381
1005
14
1001
ACAD_DSTYLE_DIM_EXT2_LINETYPE
1070
   382
1005
14
  0
DIMSTYLE
105
69A
330
A
100
AcDbSymbolTableRecord
100
AcDbDimStyleTableRecord
  2
AM_DIN$7
 70
     0
  4
"
 41
3.5
 42
1.0
 43
10.0
 44
1.0
 47
0.1
 48
0.1
 73
     0
 74
     0
 77
     1
 78
     8
 79
     2
140
3.5
141
0.0
143
0.0393701
146
0.71
147
1.5
172
     1
176
   256
177
   256
178
     2
271
     2
272
     3
274
     4
283
     0
284
     8
340
11
371
    -1
372
    -1
1001
ACAD_DSTYLE_DIMBREAK
1070
   391
1040
3.75
1001
ACAD_DSTYLE_DIMJAG
1070
   388
1040
1.5
1001
ACAD_DSTYLE_DIMJOGGED_JOGANGLE_SYMBOL
1070
   384
1040
1.570796326794896
1001
ACAD_DSTYLE_DIM_LINETYPE
1070
   380
1005
14
1001
ACAD_DSTYLE_DIM_EXT1_LINETYPE
1070
   381
1005
14
1001
ACAD_DSTYLE_DIM_EXT2_LINETYPE
1070
   382
1005
14
  0
DIMSTYLE
105
69B
330
A
100
AcDbSymbolTableRecord
100
AcDbDimStyleTableRecord
  2
AM_DIN$SF
 70
     0
  4
"
 41
3.5
 42
1.0
 43
10.0
 44
1.0
 47
0.1
 48
0.1
 73
     0
 74
     0
 75
     1
 76
     1
 77
     1
 78
     8
 79
     2
140
3.5
141
0.0
143
0.0393701
146
0.71
147
1.5
172
     1
176
   256
177
   256
178
     2
271
     2
272
     3
274
     4
283
     0
284
     8
340
11
371
    -1
372
    -1
1001
ACAD_DSTYLE_DIMBREAK
1070
   391
1040
3.75
1001
ACAD_DSTYLE_DIMJAG
1070
   388
1040
1.5
1001
ACAD_DSTYLE_DIMJOGGED_JOGANGLE_SYMBOL
1070
   384
1040
1.570796326794896
1001
ACAD_DSTYLE_DIM_LINETYPE
1070
   380
1005
14
1001
ACAD_DSTYLE_DIM_EXT1_LINETYPE
1070
   381
1005
14
1001
ACAD_DSTYLE_DIM_EXT2_LINETYPE
1070
   382
1005
14
  0
DIMSTYLE
105
6A0
330
A
100
AcDbSymbolTableRecord
100
AcDbDimStyleTableRecord
  2
AM_DIN$SH
 70
     0
  4
"
 41
3.5
 42
1.0
 43
10.0
 44
1.0
 47
0.1
 48
0.1
 73
     0
 74
     0
 75
     1
 76
     1
 77
     1
 78
     8
 79
     2
140
3.5
141
0.0
143
0.0393701
144
2.0
146
0.71
147
1.5
172
     1
173
     1
176
   256
177
   256
178
     2
271
     2
272
     3
274
     4
283
     0
284
     8
340
11
343
69C
371
    -1
372
    -1
1001
ACAD_DSTYLE_DIMBREAK
1070
   391
1040
3.75
1001
ACAD_DSTYLE_DIMJAG
1070
   388
1040
1.5
1001
ACAD_DSTYLE_DIMJOGGED_JOGANGLE_SYMBOL
1070
   384
1040
1.570796326794896
1001
ACAD_DSTYLE_DIM_LINETYPE
1070
   380
1005
14
1001
ACAD_DSTYLE_DIM_EXT1_LINETYPE
1070
   381
1005
14
1001
ACAD_DSTYLE_DIM_EXT2_LINETYPE
1070
   382
1005
14
  0
DIMSTYLE
105
801
330
A
100
AcDbSymbolTableRecord
100
AcDbDimStyleTableRecord
  2
STANDARD$0
 70
     0
 41
3.5
 42
1.5
 44
1.5
 47
0.005
 48
0.005
 71
     1
 73
     0
 74
     0
 77
     1
 78
     8
140
3.5
147
0.625
178
     5
271
     3
272
     3
284
     8
340
11
341
20A
342
20A
343
20A
344
20A
1001
ACAD_DSTYLE_DIMBREAK
1070
   391
1040
3.75
1001
ACAD_DSTYLE_DIMJAG
1070
   388
1040
1.5
  0
DIMSTYLE
105
8DD
102
{ACAD_REACTORS
330
803
330
83B
330
887
102
}
330
A
100
AcDbSymbolTableRecord
100
AcDbDimStyleTableRecord
  2
883N99122_001_00149479900
 70
     0
 40
2.0
 41
3.149999999999999
 42
0.0
 43
3.75
 44
2.0
 73
     0
 74
     0
 77
     1
 78
     8
 79
     2
140
3.5
141
0.0
143
0.03937007874016
145
2.0
147
2.0
171
     3
172
     1
173
     1
176
     3
177
     3
178
     2
179
     2
271
     2
272
     2
274
     3
283
     0
284
     8
340
11
341
8D8
  0
ENDTAB
  0
TABLE
  2
BLOCK_RECORD
  5
1
330
0
100
AcDbSymbolTable
 70
    15
  0
BLOCK_RECORD
  5
208
330
1
100
AcDbSymbolTableRecord
100
AcDbBlockTableRecord
  2
*Model_Space
340
5C8
  0
BLOCK_RECORD
  5
209
330
1
100
AcDbSymbolTableRecord
100
AcDbBlockTableRecord
  2
*Paper_Space
340
5C9
  0
BLOCK_RECORD
  5
20A
330
1
100
AcDbSymbolTableRecord
100
AcDbBlockTableRecord
  2
_FILLED
340
0
102
{BLKREFS
331
70C
331
70D
331
722
331
723
331
738
331
739
331
741
331
742
102
}
  0
BLOCK_RECORD
  5
20B
330
1
100
AcDbSymbolTableRecord
100
AcDbBlockTableRecord
  2
*D1
340
0
  0
BLOCK_RECORD
  5
20C
330
1
100
AcDbSymbolTableRecord
100
AcDbBlockTableRecord
  2
*D2
340
0
  0
BLOCK_RECORD
  5
20D
330
1
100
AcDbSymbolTableRecord
100
AcDbBlockTableRecord
  2
*D3
340
0
  0
BLOCK_RECORD
  5
20E
330
1
100
AcDbSymbolTableRecord
100
AcDbBlockTableRecord
  2
*D4
340
0
  0
BLOCK_RECORD
  5
69C
330
1
100
AcDbSymbolTableRecord
100
AcDbBlockTableRecord
  2
GENAXEH
340
0
  0
BLOCK_RECORD
  5
804
330
1
100
AcDbSymbolTableRecord
100
AcDbBlockTableRecord
  2
*D6
340
0
  0
BLOCK_RECORD
  5
83C
330
1
100
AcDbSymbolTableRecord
100
AcDbBlockTableRecord
  2
*D7
340
0
  0
BLOCK_RECORD
  5
888
330
1
100
AcDbSymbolTableRecord
100
AcDbBlockTableRecord
  2
*D8
340
0
  0
BLOCK_RECORD
  5
8C0
330
1
100
AcDbSymbolTableRecord
100
AcDbBlockTableRecord
  2
*D9
340
0
  0
BLOCK_RECORD
  5
8CC
330
1
100
AcDbSymbolTableRecord
100
AcDbBlockTableRecord
  2
*D10
340
0
  0
BLOCK_RECORD
  5
8D8
330
1
100
AcDbSymbolTableRecord
100
AcDbBlockTableRecord
  2
_None
340
0
  0
BLOCK_RECORD
  5
BB2
330
1
100
AcDbSymbolTableRecord
100
AcDbBlockTableRecord
  2
*D12
340
0
  0
BLOCK_RECORD
  5
BBE
330
1
100
AcDbSymbolTableRecord
100
AcDbBlockTableRecord
  2
*D13
340
0
  0
ENDTAB
  0
ENDSEC
  0
SECTION
  2
BLOCKS
  0
BLOCK
  5
20
330
208
100
AcDbEntity
  8
0
100
AcDbBlockBegin
  2
*Model_Space
 70
     0
 10
0.0
 20
0.0
 30
0.0
  3
*Model_Space
  1

  0
ENDBLK
  5
21
330
208
100
AcDbEntity
  8
0
100
AcDbBlockEnd
  0
BLOCK
  5
1C
330
209
100
AcDbEntity
 67
     1
  8
0
100
AcDbBlockBegin
  2
*Paper_Space
 70
     0
 10
0.0
 20
0.0
 30
0.0
  3
*Paper_Space
  1

  0
ENDBLK
  5
1D
330
209
100
AcDbEntity
 67
     1
  8
0
100
AcDbBlockEnd
  0
BLOCK
  5
212
330
20A
100
AcDbEntity
  8
0
100
AcDbBlockBegin
  2
_FILLED
 70
     0
 10
0.0
 20
0.0
 30
0.0
  3
_FILLED
  1

  0
SOLID
  5
213
330
20A
100
AcDbEntity
  8
0
  6
ByBlock
 62
     0
100
AcDbTrace
 10
0.0
 20
0.0
 30
0.0
 11
-1.0
 21
0.125
 31
0.0
 12
-1.0
 22
-0.125
 32
0.0
 13
-1.0
 23
-0.125
 33
0.0
  0
ENDBLK
  5
214
330
20A
100
AcDbEntity
  8
0
  6
ByBlock
 62
     0
100
AcDbBlockEnd
  0
BLOCK
  5
215
330
20B
100
AcDbEntity
  8
ZEICHNUNGSBEMASSUNGEN
  6
Continuous
 62
     2
100
AcDbBlockBegin
  2
*D1
 70
     1
 10
0.0
 20
0.0
 30
0.0
  3
*D1
  1

  0
LINE
  5
71F
330
20B
100
AcDbEntity
  8
0
  6
Continuous
 62
     0
370
    -2
100
AcDbLine
 10
555.7517782655
 20
280.5385233886
 30
0.0
 11
555.7517782655
 21
292.7583810933001
 31
0.0
  0
LINE
  5
720
330
20B
100
AcDbEntity
  8
0
  6
Continuous
 62
     0
370
    -2
100
AcDbLine
 10
491.7517782655
 20
273.5702512636
 30
0.0
 11
491.7517782655
 21
292.7583810933001
 31
0.0
  0
LINE
  5
721
330
20B
100
AcDbEntity
  8
0
  6
Continuous
 62
     0
370
    -2
100
AcDbLine
 10
550.7517782654997
 20
291.2583810933
 30
0.0
 11
496.7517782655
 21
291.2583810933
 31
0.0
  0
INSERT
  5
722
330
20B
100
AcDbEntity
  8
0
  6
Continuous
 62
     0
370
    -2
100
AcDbBlockReference
  2
_FILLED
 10
555.7517782655
 20
291.2583810933
 30
0.0
 41
5.0
 42
5.0
 43
5.0
  0
INSERT
  5
723
330
20B
100
AcDbEntity
  8
0
  6
Continuous
 62
     0
370
    -2
100
AcDbBlockReference
  2
_FILLED
 10
491.7517782655
 20
291.2583810933
 30
0.0
 41
5.0
 42
5.0
 43
5.0
 50
180.0
  0
MTEXT
  5
724
330
20B
100
AcDbEntity
  8
0
  6
Continuous
100
AcDbMText
 10
523.7517782654999
 20
299.7583810933
 30
0.0
 40
7.0
 41
0.0
 71
     2
 72
     1
  1
\A1;64
 73
     1
 44
1.0
1001
ACAD
1000
MTEXTBEGIN
1070
    73
1070
     1
1070
    44
1040
1.0
1070
    74
1070
     0
1000
MTEXTEND
  0
POINT
  5
725
330
20B
100
AcDbEntity
  8
Defpoints
  6
Continuous
 62
     0
100
AcDbPoint
 10
555.7517782655
 20
279.0385233886
 30
0.0
  0
POINT
  5
726
330
20B
100
AcDbEntity
  8
Defpoints
  6
Continuous
 62
     0
100
AcDbPoint
 10
491.7517782655
 20
272.0702512636
 30
0.0
  0
POINT
  5
727
330
20B
100
AcDbEntity
  8
Defpoints
  6
Continuous
 62
     0
100
AcDbPoint
 10
491.7517782655
 20
291.2583810933
 30
0.0
  0
ENDBLK
  5
21D
330
20B
100
AcDbEntity
  8
0
  6
ByBlock
 62
     0
100
AcDbBlockEnd
  0
BLOCK
  5
21E
330
20C
100
AcDbEntity
  8
ZEICHNUNGSBEMASSUNGEN
  6
Continuous
 62
     2
100
AcDbBlockBegin
  2
*D2
 70
     1
 10
0.0
 20
0.0
 30
0.0
  3
*D2
  1

  0
LINE
  5
73E
330
20C
100
AcDbEntity
  8
0
  6
Continuous
 62
     0
370
    -2
100
AcDbLine
 10
557.2517782654997
 20
220.9235580025
 30
0.0
 11
573.5137345914425
 21
220.9235580025
 31
0.0
  0
LINE
  5
73F
330
20C
100
AcDbEntity
  8
0
  6
Continuous
 62
     0
370
    -2
100
AcDbLine
 10
557.2517782654997
 20
159.4235580025
 30
0.0
 11
573.5137345914425
 21
159.4235580025
 31
0.0
  0
LINE
  5
740
330
20C
100
AcDbEntity
  8
0
  6
Continuous
 62
     0
370
    -2
100
AcDbLine
 10
572.0137345914422
 20
215.9235580025
 30
0.0
 11
572.0137345914422
 21
164.4235580025
 31
0.0
  0
INSERT
  5
741
330
20C
100
AcDbEntity
  8
0
  6
Continuous
 62
     0
370
    -2
100
AcDbBlockReference
  2
_FILLED
 10
572.0137345914422
 20
220.9235580025
 30
0.0
 41
5.0
 42
5.0
 43
5.0
 50
90.0
  0
INSERT
  5
742
330
20C
100
AcDbEntity
  8
0
  6
Continuous
 62
     0
370
    -2
100
AcDbBlockReference
  2
_FILLED
 10
572.0137345914422
 20
159.4235580025
 30
0.0
 41
5.0
 42
5.0
 43
5.0
 50
270.0
  0
MTEXT
  5
743
330
20C
100
AcDbEntity
  8
0
  6
Continuous
100
AcDbMText
 10
563.5137345914422
 20
190.1254143168923
 30
0.0
 40
7.0
 41
0.0
 71
     2
 72
     1
  1
\A1;61.5
 11
0.0000000000000001
 21
1.0
 31
0.0
 73
     1
 44
1.0
1001
ACAD
1000
MTEXTBEGIN
1070
    73
1070
     1
1070
    44
1040
1.0
1070
    74
1070
     0
1000
MTEXTEND
  0
POINT
  5
744
330
20C
100
AcDbEntity
  8
Defpoints
  6
Continuous
 62
     0
100
AcDbPoint
 10
555.7517782655
 20
220.9235580025
 30
0.0
  0
POINT
  5
745
330
20C
100
AcDbEntity
  8
Defpoints
  6
Continuous
 62
     0
100
AcDbPoint
 10
555.7517782655
 20
159.4235580025
 30
0.0
  0
POINT
  5
746
330
20C
100
AcDbEntity
  8
Defpoints
  6
Continuous
 62
     0
100
AcDbPoint
 10
572.0137345914422
 20
159.4235580025
 30
0.0
  0
ENDBLK
  5
226
330
20C
100
AcDbEntity
  8
0
  6
ByBlock
 62
     0
100
AcDbBlockEnd
  0
BLOCK
  5
227
330
20D
100
AcDbEntity
  8
0
  6
Continuous
 62
     2
100
AcDbBlockBegin
  2
*D3
 70
     1
 10
0.0
 20
0.0
 30
0.0
  3
*D3
  1

  0
LINE
  5
709
330
20D
100
AcDbEntity
  8
0
  6
Continuous
 62
     0
370
    -2
100
AcDbLine
 10
-122.2482217345
 20
218.4660221416
 30
0.0
 11
-122.2482217345
 21
233.6479050042
 31
0.0
  0
LINE
  5
70A
330
20D
100
AcDbEntity
  8
0
  6
Continuous
 62
     0
370
    -2
100
AcDbLine
 10
555.7517782655
 20
218.4660221416
 30
0.0
 11
555.7517782655
 21
233.6479050042
 31
0.0
  0
LINE
  5
70B
330
20D
100
AcDbEntity
  8
0
  6
Continuous
 62
     0
370
    -2
100
AcDbLine
 10
-117.2482217345
 20
232.1479050042
 30
0.0
 11
550.7517782654997
 21
232.1479050042
 31
0.0
  0
INSERT
  5
70C
330
20D
100
AcDbEntity
  8
0
  6
Continuous
 62
     0
370
    -2
100
AcDbBlockReference
  2
_FILLED
 10
-122.2482217345
 20
232.1479050042
 30
0.0
 41
5.0
 42
5.0
 43
5.0
 50
180.0
  0
INSERT
  5
70D
330
20D
100
AcDbEntity
  8
0
  6
Continuous
 62
     0
370
    -2
100
AcDbBlockReference
  2
_FILLED
 10
555.7517782655
 20
232.1479050042
 30
0.0
 41
5.0
 42
5.0
 43
5.0
  0
MTEXT
  5
70E
330
20D
100
AcDbEntity
  8
0
  6
Continuous
100
AcDbMText
 10
216.7517782655
 20
240.6479050042
 30
0.0
 40
7.0
 41
0.0
 71
     2
 72
     1
  1
\A1;678
 73
     1
 44
1.0
1001
ACAD
1000
MTEXTBEGIN
1070
    73
1070
     1
1070
    44
1040
1.0
1070
    74
1070
     0
1000
MTEXTEND
  0
POINT
  5
70F
330
20D
100
AcDbEntity
  8
Defpoints
  6
Continuous
 62
     0
100
AcDbPoint
 10
-122.2482217345
 20
216.9660221416
 30
0.0
  0
POINT
  5
710
330
20D
100
AcDbEntity
  8
Defpoints
  6
Continuous
 62
     0
100
AcDbPoint
 10
555.7517782655
 20
216.9660221416
 30
0.0
  0
POINT
  5
711
330
20D
100
AcDbEntity
  8
Defpoints
  6
Continuous
 62
     0
100
AcDbPoint
 10
555.7517782655
 20
232.1479050042
 30
0.0
  0
ENDBLK
  5
231
330
20D
100
AcDbEntity
  8
0
  6
ByBlock
 62
     0
100
AcDbBlockEnd
  0
BLOCK
  5
232
330
20E
100
AcDbEntity
  8
0
  6
Continuous
 62
     2
100
AcDbBlockBegin
  2
*D4
 70
     1
 10
0.0
 20
0.0
 30
0.0
  3
*D4
  1

  0
LINE
  5
735
330
20E
100
AcDbEntity
  8
0
  6
Continuous
 62
     0
370
    -2
100
AcDbLine
 10
-58.2482217345
 20
281.2739063015
 30
0.0
 11
-58.2482217345
 21
292.7583810933001
 31
0.0
  0
LINE
  5
736
330
20E
100
AcDbEntity
  8
0
  6
Continuous
 62
     0
370
    -2
100
AcDbLine
 10
-122.2482217345
 20
281.2739063015
 30
0.0
 11
-122.2482217345
 21
292.7583810933001
 31
0.0
  0
LINE
  5
737
330
20E
100
AcDbEntity
  8
0
  6
Continuous
 62
     0
370
    -2
100
AcDbLine
 10
-63.2482217345
 20
291.2583810933
 30
0.0
 11
-117.2482217345
 21
291.2583810933
 31
0.0
  0
INSERT
  5
738
330
20E
100
AcDbEntity
  8
0
  6
Continuous
 62
     0
370
    -2
100
AcDbBlockReference
  2
_FILLED
 10
-58.2482217345
 20
291.2583810933
 30
0.0
 41
5.0
 42
5.0
 43
5.0
  0
INSERT
  5
739
330
20E
100
AcDbEntity
  8
0
  6
Continuous
 62
     0
370
    -2
100
AcDbBlockReference
  2
_FILLED
 10
-122.2482217345
 20
291.2583810933
 30
0.0
 41
5.0
 42
5.0
 43
5.0
 50
180.0
  0
MTEXT
  5
73A
330
20E
100
AcDbEntity
  8
0
  6
Continuous
100
AcDbMText
 10
-90.24822173450001
 20
299.7583810933
 30
0.0
 40
7.0
 41
0.0
 71
     2
 72
     1
  1
\A1;64
 73
     1
 44
1.0
1001
ACAD
1000
MTEXTBEGIN
1070
    73
1070
     1
1070
    44
1040
1.0
1070
    74
1070
     0
1000
MTEXTEND
  0
POINT
  5
73B
330
20E
100
AcDbEntity
  8
Defpoints
  6
Continuous
 62
     0
100
AcDbPoint
 10
-58.2482217345
 20
279.7739063015
 30
0.0
  0
POINT
  5
73C
330
20E
100
AcDbEntity
  8
Defpoints
  6
Continuous
 62
     0
100
AcDbPoint
 10
-122.2482217345
 20
279.7739063015
 30
0.0
  0
POINT
  5
73D
330
20E
100
AcDbEntity
  8
Defpoints
  6
Continuous
 62
     0
100
AcDbPoint
 10
-122.2482217345
 20
291.2583810933
 30
0.0
  0
ENDBLK
  5
23A
330
20E
100
AcDbEntity
  8
0
  6
ByBlock
 62
     0
100
AcDbBlockEnd
  0
BLOCK
  5
69E
330
69C
100
AcDbEntity
  8
0
100
AcDbBlockBegin
  2
GENAXEH
 70
     0
 10
0.0
 20
0.0
 30
0.0
  3
GENAXEH
  1

  0
LINE
  5
69D
330
69C
100
AcDbEntity
  8
0
100
AcDbLine
 10
-1.0
 20
0.0
 30
0.0
 11
1.0
 21
0.0
 31
0.0
  0
ENDBLK
  5
69F
330
69C
100
AcDbEntity
  8
0
100
AcDbBlockEnd
  0
BLOCK
  5
805
330
804
100
AcDbEntity
  8
0
100
AcDbBlockBegin
  2
*D6
 70
     1
 10
0.0
 20
0.0
 30
0.0
  3
*D6
  1

  0
LINE
  5
CE4
330
804
100
AcDbEntity
  8
P-0000
  6
Continuous
 62
     3
370
    -2
100
AcDbLine
 10
-120.2482217345
 20
266.0739063015
 30
0.0
 11
-148.8146855530775
 21
266.0739063015001
 31
0.0
  0
LINE
  5
CE5
330
804
100
AcDbEntity
  8
P-0000
  6
Continuous
 62
     3
370
    -2
100
AcDbLine
 10
-122.2482217345
 20
281.2739063015
 30
0.0
 11
-148.8146855530775
 21
281.2739063015001
 31
0.0
  0
LINE
  5
CE6
330
804
100
AcDbEntity
  8
P-0000
  6
Continuous
 62
     3
370
    -2
100
AcDbLine
 10
-144.8146855530775
 20
259.7739063015001
 30
0.0
 11
-144.8146855530775
 21
253.4739063015
 31
0.0
  0
LINE
  5
CE7
330
804
100
AcDbEntity
  8
P-0000
  6
Continuous
 62
     3
370
    -2
100
AcDbLine
 10
-144.8146855530775
 20
287.5739063015
 30
0.0
 11
-144.8146855530775
 21
293.8739063015001
 31
0.0
  0
LINE
  5
CE8
330
804
100
AcDbEntity
  8
P-0000
  6
Continuous
 62
     3
370
    -2
100
AcDbLine
 10
-144.8146855530775
 20
266.0739063015001
 30
0.0
 11
-144.8146855530775
 21
281.2739063015001
 31
0.0
  0
SOLID
  5
CE9
330
804
100
AcDbEntity
  8
P-0000
  6
Continuous
 62
     3
100
AcDbTrace
 10
-145.8646855530776
 20
259.7739063015001
 30
0.0
 11
-143.7646855530775
 21
259.7739063015001
 31
0.0
 12
-144.8146855530775
 22
266.0739063015001
 32
0.0
 13
-144.8146855530775
 23
266.0739063015001
 33
0.0
  0
SOLID
  5
CEA
330
804
100
AcDbEntity
  8
P-0000
  6
Continuous
 62
     3
100
AcDbTrace
 10
-145.8646855530776
 20
287.5739063015
 30
0.0
 11
-143.7646855530775
 21
287.5739063015
 31
0.0
 12
-144.8146855530775
 22
281.2739063015001
 32
0.0
 13
-144.8146855530775
 23
281.2739063015001
 33
0.0
  0
MTEXT
  5
CEB
330
804
100
AcDbEntity
  8
P-0000
  6
Continuous
 62
     2
100
AcDbMText
 10
-152.3146855530776
 20
273.6739063015
 30
0.0
 40
7.0
 41
0.0
 71
     5
 72
     1
  1
15
 11
0.0000000000000001
 21
1.0
 31
0.0
 73
     1
 44
1.0
1001
ACAD
1000
MTEXTBEGIN
1070
    73
1070
     1
1070
    44
1040
1.0
1070
    74
1070
     0
1000
MTEXTEND
  0
POINT
  5
CEC
330
804
100
AcDbEntity
  8
Defpoints
  6
Continuous
 62
     0
100
AcDbPoint
 10
-120.2482217345
 20
266.0739063015
 30
0.0
  0
POINT
  5
CED
330
804
100
AcDbEntity
  8
Defpoints
  6
Continuous
 62
     0
100
AcDbPoint
 10
-122.2482217345
 20
281.2739063015
 30
0.0
  0
POINT
  5
CEE
330
804
100
AcDbEntity
  8
Defpoints
  6
Continuous
 62
     0
100
AcDbPoint
 10
-144.8146855530775
 20
281.2739063015001
 30
0.0
  0
ENDBLK
  5
806
330
804
100
AcDbEntity
  8
0
100
AcDbBlockEnd
  0
BLOCK
  5
83D
330
83C
100
AcDbEntity
  8
0
100
AcDbBlockBegin
  2
*D7
 70
     1
 10
0.0
 20
0.0
 30
0.0
  3
*D7
  1

  0
LINE
  5
CD0
330
83C
100
AcDbEntity
  8
P-0000
  6
Continuous
 62
     3
370
    -2
100
AcDbLine
 10
-122.2482217345
 20
220.923670903
 30
0.0
 11
-147.5725392100414
 21
220.923670903
 31
0.0
  0
LINE
  5
CD1
330
83C
100
AcDbEntity
  8
P-0000
  6
Continuous
 62
     3
370
    -2
100
AcDbLine
 10
-122.2482217345
 20
159.4222421889
 30
0.0
 11
-147.5725392100414
 21
159.4222421889
 31
0.0
  0
LINE
  5
CD2
330
83C
100
AcDbEntity
  8
P-0000
  6
Continuous
 62
     3
370
    -2
100
AcDbLine
 10
-143.5725392100414
 20
214.623670903
 30
0.0
 11
-143.5725392100414
 21
165.7222421889
 31
0.0
  0
SOLID
  5
CD3
330
83C
100
AcDbEntity
  8
P-0000
  6
Continuous
 62
     3
100
AcDbTrace
 10
-144.6225392100414
 20
214.623670903
 30
0.0
 11
-142.5225392100413
 21
214.623670903
 31
0.0
 12
-143.5725392100414
 22
220.923670903
 32
0.0
 13
-143.5725392100414
 23
220.923670903
 33
0.0
  0
SOLID
  5
CD4
330
83C
100
AcDbEntity
  8
P-0000
  6
Continuous
 62
     3
100
AcDbTrace
 10
-144.6225392100414
 20
165.7222421889
 30
0.0
 11
-142.5225392100414
 21
165.7222421889
 31
0.0
 12
-143.5725392100414
 22
159.4222421889
 32
0.0
 13
-143.5725392100414
 23
159.4222421889
 33
0.0
  0
MTEXT
  5
CD5
330
83C
100
AcDbEntity
  8
P-0000
  6
Continuous
 62
     2
100
AcDbMText
 10
-151.0725392100414
 20
190.1729565459499
 30
0.0
 40
7.0
 41
0.0
 71
     5
 72
     1
  1
62
 11
0.0000000000000001
 21
1.0
 31
0.0
 73
     1
 44
1.0
1001
ACAD
1000
MTEXTBEGIN
1070
    73
1070
     1
1070
    44
1040
1.0
1070
    74
1070
     0
1000
MTEXTEND
  0
POINT
  5
CD6
330
83C
100
AcDbEntity
  8
Defpoints
  6
Continuous
 62
     0
100
AcDbPoint
 10
-122.2482217345
 20
220.923670903
 30
0.0
  0
POINT
  5
CD7
330
83C
100
AcDbEntity
  8
Defpoints
  6
Continuous
 62
     0
100
AcDbPoint
 10
-122.2482217345
 20
159.4222421889
 30
0.0
  0
POINT
  5
CD8
330
83C
100
AcDbEntity
  8
Defpoints
  6
Continuous
 62
     0
100
AcDbPoint
 10
-143.5725392100414
 20
159.4222421889
 30
0.0
  0
ENDBLK
  5
83E
330
83C
100
AcDbEntity
  8
0
100
AcDbBlockEnd
  0
BLOCK
  5
889
330
888
100
AcDbEntity
  8
0
100
AcDbBlockBegin
  2
*D8
 70
     1
 10
0.0
 20
0.0
 30
0.0
  3
*D8
  1

  0
LINE
  5
BDE
330
888
100
AcDbEntity
  8
P-0000
  6
Continuous
 62
     3
370
    -2
100
AcDbLine
 10
-122.2482217345
 20
159.4222421889
 30
0.0
 11
-122.2482217345
 21
129.3176423007242
 31
0.0
  0
LINE
  5
BDF
330
888
100
AcDbEntity
  8
P-0000
  6
Continuous
 62
     3
370
    -2
100
AcDbLine
 10
555.7517782655
 20
159.423445102
 30
0.0
 11
555.7517782655
 21
129.3176423007242
 31
0.0
  0
LINE
  5
BE0
330
888
100
AcDbEntity
  8
P-0000
  6
Continuous
 62
     3
370
    -2
100
AcDbLine
 10
-115.9482217345
 20
133.3176423007242
 30
0.0
 11
549.4517782655
 21
133.3176423007242
 31
0.0
  0
SOLID
  5
BE1
330
888
100
AcDbEntity
  8
P-0000
  6
Continuous
 62
     3
100
AcDbTrace
 10
-115.9482217345
 20
134.3676423007241
 30
0.0
 11
-115.9482217345
 21
132.267642300724
 31
0.0
 12
-122.2482217345
 22
133.3176423007242
 32
0.0
 13
-122.2482217345
 23
133.3176423007242
 33
0.0
  0
SOLID
  5
BE2
330
888
100
AcDbEntity
  8
P-0000
  6
Continuous
 62
     3
100
AcDbTrace
 10
549.4517782655
 20
134.3676423007241
 30
0.0
 11
549.4517782655
 21
132.267642300724
 31
0.0
 12
555.7517782655
 22
133.3176423007242
 32
0.0
 13
555.7517782655
 23
133.3176423007242
 33
0.0
  0
MTEXT
  5
BE3
330
888
100
AcDbEntity
  8
P-0000
  6
Continuous
 62
     2
100
AcDbMText
 10
216.7517782655
 20
140.8176423007241
 30
0.0
 40
7.0
 41
0.0
 71
     5
 72
     1
  1
678
 73
     1
 44
1.0
1001
ACAD
1000
MTEXTBEGIN
1070
    73
1070
     1
1070
    44
1040
1.0
1070
    74
1070
     0
1000
MTEXTEND
  0
POINT
  5
BE4
330
888
100
AcDbEntity
  8
Defpoints
  6
Continuous
 62
     0
100
AcDbPoint
 10
-122.2482217345
 20
159.4222421889
 30
0.0
  0
POINT
  5
BE5
330
888
100
AcDbEntity
  8
Defpoints
  6
Continuous
 62
     0
100
AcDbPoint
 10
555.7517782655
 20
159.423445102
 30
0.0
  0
POINT
  5
BE6
330
888
100
AcDbEntity
  8
Defpoints
  6
Continuous
 62
     0
100
AcDbPoint
 10
555.7517782655
 20
133.3176423007242
 30
0.0
  0
ENDBLK
  5
88A
330
888
100
AcDbEntity
  8
0
100
AcDbBlockEnd
  0
BLOCK
  5
8C1
330
8C0
100
AcDbEntity
  8
0
100
AcDbBlockBegin
  2
*D9
 70
     1
 10
0.0
 20
0.0
 30
0.0
  3
*D9
  1

  0
LINE
  5
8C2
330
8C0
100
AcDbEntity
  8
P-0000
  6
Continuous
 62
     3
370
    -2
100
AcDbLine
 10
-135.7515219216
 20
234.8140669884
 30
0.0
 11
-158.4487198091733
 21
234.8140669884
 31
0.0
  0
LINE
  5
8C3
330
8C0
100
AcDbEntity
  8
P-0000
  6
Continuous
 62
     3
370
    -2
100
AcDbLine
 10
-135.7515219216
 20
173.3145401281
 30
0.0
 11
-158.4487198091733
 21
173.3145401281
 31
0.0
  0
LINE
  5
8C4
330
8C0
100
AcDbEntity
  8
P-0000
  6
Continuous
 62
     3
370
    -2
100
AcDbLine
 10
-154.4487198091733
 20
228.5140669884
 30
0.0
 11
-154.4487198091733
 21
179.6145401281
 31
0.0
  0
SOLID
  5
8C5
330
8C0
100
AcDbEntity
  8
P-0000
  6
Continuous
 62
     3
100
AcDbTrace
 10
-155.4987198091733
 20
228.5140669884
 30
0.0
 11
-153.3987198091733
 21
228.5140669884
 31
0.0
 12
-154.4487198091733
 22
234.8140669884
 32
0.0
 13
-154.4487198091733
 23
234.8140669884
 33
0.0
  0
SOLID
  5
8C6
330
8C0
100
AcDbEntity
  8
P-0000
  6
Continuous
 62
     3
100
AcDbTrace
 10
-155.4987198091733
 20
179.6145401281
 30
0.0
 11
-153.3987198091733
 21
179.6145401281
 31
0.0
 12
-154.4487198091733
 22
173.3145401281
 32
0.0
 13
-154.4487198091733
 23
173.3145401281
 33
0.0
  0
MTEXT
  5
8C7
330
8C0
100
AcDbEntity
  8
P-0000
  6
Continuous
 62
     2
100
AcDbMText
 10
-161.9487198091734
 20
204.06430355825
 30
0.0
 40
7.0
 41
0.0
 71
     5
 72
     1
  1
61.5
 11
0.0000000000000001
 21
1.0
 31
0.0
 73
     1
 44
1.0
1001
ACAD
1000
MTEXTBEGIN
1070
    73
1070
     1
1070
    44
1040
1.0
1070
    74
1070
     0
1000
MTEXTEND
  0
POINT
  5
8C8
330
8C0
100
AcDbEntity
  8
Defpoints
  6
Continuous
 62
     0
100
AcDbPoint
 10
-135.7515219216
 20
234.8140669884
 30
0.0
  0
POINT
  5
8C9
330
8C0
100
AcDbEntity
  8
Defpoints
  6
Continuous
 62
     0
100
AcDbPoint
 10
-135.7515219216
 20
173.3145401281
 30
0.0
  0
POINT
  5
8CA
330
8C0
100
AcDbEntity
  8
Defpoints
  6
Continuous
 62
     0
100
AcDbPoint
 10
-154.4487198091733
 20
173.3145401281
 30
0.0
  0
ENDBLK
  5
8CB
330
8C0
100
AcDbEntity
  8
0
100
AcDbBlockEnd
  0
BLOCK
  5
8CD
330
8CC
100
AcDbEntity
  8
0
100
AcDbBlockBegin
  2
*D10
 70
     1
 10
0.0
 20
0.0
 30
0.0
  3
*D10
  1

  0
LINE
  5
8CE
330
8CC
100
AcDbEntity
  8
P-0000
  6
Continuous
 62
     3
370
    -2
100
AcDbLine
 10
-135.7515219216
 20
173.3145401281
 30
0.0
 11
-135.7515219216
 21
123.6002370578001
 31
0.0
  0
LINE
  5
8CF
330
8CC
100
AcDbEntity
  8
P-0000
  6
Continuous
 62
     3
370
    -2
100
AcDbLine
 10
542.2484780783999
 20
173.3145401281
 30
0.0
 11
542.2484780783999
 21
123.6002370578001
 31
0.0
  0
LINE
  5
8D0
330
8CC
100
AcDbEntity
  8
P-0000
  6
Continuous
 62
     3
370
    -2
100
AcDbLine
 10
-129.4515219216
 20
127.6002370578001
 30
0.0
 11
535.9484780783998
 21
127.6002370578001
 31
0.0
  0
SOLID
  5
8D1
330
8CC
100
AcDbEntity
  8
P-0000
  6
Continuous
 62
     3
100
AcDbTrace
 10
-129.4515219216
 20
128.6502370578001
 30
0.0
 11
-129.4515219216
 21
126.5502370578001
 31
0.0
 12
-135.7515219216
 22
127.6002370578001
 32
0.0
 13
-135.7515219216
 23
127.6002370578001
 33
0.0
  0
SOLID
  5
8D2
330
8CC
100
AcDbEntity
  8
P-0000
  6
Continuous
 62
     3
100
AcDbTrace
 10
535.9484780783998
 20
128.6502370578001
 30
0.0
 11
535.9484780783998
 21
126.5502370578001
 31
0.0
 12
542.2484780783999
 22
127.6002370578001
 32
0.0
 13
542.2484780783999
 23
127.6002370578001
 33
0.0
  0
MTEXT
  5
8D3
330
8CC
100
AcDbEntity
  8
P-0000
  6
Continuous
 62
     2
100
AcDbMText
 10
203.2484780784
 20
135.1002370578001
 30
0.0
 40
7.0
 41
0.0
 71
     5
 72
     1
  1
678
 73
     1
 44
1.0
1001
ACAD
1000
MTEXTBEGIN
1070
    73
1070
     1
1070
    44
1040
1.0
1070
    74
1070
     0
1000
MTEXTEND
  0
POINT
  5
8D4
330
8CC
100
AcDbEntity
  8
Defpoints
  6
Continuous
 62
     0
100
AcDbPoint
 10
-135.7515219216
 20
173.3145401281
 30
0.0
  0
POINT
  5
8D5
330
8CC
100
AcDbEntity
  8
Defpoints
  6
Continuous
 62
     0
100
AcDbPoint
 10
542.2484780783999
 20
173.3145401281
 30
0.0
  0
POINT
  5
8D6
330
8CC
100
AcDbEntity
  8
Defpoints
  6
Continuous
 62
     0
100
AcDbPoint
 10
542.2484780783999
 20
127.6002370578001
 30
0.0
  0
ENDBLK
  5
8D7
330
8CC
100
AcDbEntity
  8
0
100
AcDbBlockEnd
  0
BLOCK
  5
8D9
330
8D8
100
AcDbEntity
  8
0
100
AcDbBlockBegin
  2
_None
 70
     0
 10
0.0
 20
0.0
 30
0.0
  3
_None
  1

  0
ENDBLK
  5
8DA
330
8D8
100
AcDbEntity
  8
0
100
AcDbBlockEnd
  0
BLOCK
  5
BB3
330
BB2
100
AcDbEntity
  8
0
100
AcDbBlockBegin
  2
*D12
 70
     1
 10
0.0
 20
0.0
 30
0.0
  3
*D12
  1

  0
LINE
  5
BF9
330
BB2
100
AcDbEntity
  8
P-0000
  6
Continuous
 62
     3
370
    -2
100
AcDbLine
 10
-43.82659760814861
 20
32.48783094934348
 30
0.0
 11
-66.52379549572195
 21
32.48783094934348
 31
0.0
  0
LINE
  5
BFA
330
BB2
100
AcDbEntity
  8
P-0000
  6
Continuous
 62
     3
370
    -2
100
AcDbLine
 10
-43.82659760814861
 20
-29.01169591095652
 30
0.0
 11
-66.52379549572197
 21
-29.01169591095652
 31
0.0
  0
LINE
  5
BFB
330
BB2
100
AcDbEntity
  8
P-0000
  6
Continuous
 62
     3
370
    -2
100
AcDbLine
 10
-62.52379549572196
 20
26.18783094934349
 30
0.0
 11
-62.52379549572196
 21
-22.71169591095652
 31
0.0
  0
SOLID
  5
BFC
330
BB2
100
AcDbEntity
  8
P-0000
  6
Continuous
 62
     3
100
AcDbTrace
 10
-63.57379549572195
 20
26.18783094934349
 30
0.0
 11
-61.47379549572196
 21
26.18783094934349
 31
0.0
 12
-62.52379549572196
 22
32.48783094934348
 32
0.0
 13
-62.52379549572196
 23
32.48783094934348
 33
0.0
  0
SOLID
  5
BFD
330
BB2
100
AcDbEntity
  8
P-0000
  6
Continuous
 62
     3
100
AcDbTrace
 10
-63.57379549572197
 20
-22.71169591095652
 30
0.0
 11
-61.47379549572197
 21
-22.71169591095652
 31
0.0
 12
-62.52379549572196
 22
-29.01169591095652
 32
0.0
 13
-62.52379549572196
 23
-29.01169591095652
 33
0.0
  0
MTEXT
  5
BFE
330
BB2
100
AcDbEntity
  8
P-0000
  6
Continuous
 62
     2
100
AcDbMText
 10
-70.02379549572196
 20
1.738067519193474
 30
0.0
 40
7.0
 41
0.0
 71
     5
 72
     1
  1
61.5
 11
0.0000000000000001
 21
1.0
 31
0.0
 73
     1
 44
1.0
1001
ACAD
1000
MTEXTBEGIN
1070
    73
1070
     1
1070
    44
1040
1.0
1070
    74
1070
     0
1000
MTEXTEND
  0
POINT
  5
BFF
330
BB2
100
AcDbEntity
  8
Defpoints
  6
Continuous
 62
     0
100
AcDbPoint
 10
-43.82659760814861
 20
32.48783094934348
 30
0.0
  0
POINT
  5
C00
330
BB2
100
AcDbEntity
  8
Defpoints
  6
Continuous
 62
     0
100
AcDbPoint
 10
-43.82659760814861
 20
-29.01169591095652
 30
0.0
  0
POINT
  5
C01
330
BB2
100
AcDbEntity
  8
Defpoints
  6
Continuous
 62
     0
100
AcDbPoint
 10
-62.52379549572196
 20
-29.01169591095652
 30
0.0
  0
ENDBLK
  5
BB4
330
BB2
100
AcDbEntity
  8
0
100
AcDbBlockEnd
  0
BLOCK
  5
BBF
330
BBE
100
AcDbEntity
  8
0
100
AcDbBlockBegin
  2
*D13
 70
     1
 10
0.0
 20
0.0
 30
0.0
  3
*D13
  1

  0
LINE
  5
BC1
330
BBE
100
AcDbEntity
  8
P-0000
  6
Continuous
 62
     3
370
    -2
100
AcDbLine
 10
-43.82659760814861
 20
-29.01169591095652
 30
0.0
 11
-43.82659760814861
 21
-78.72599898125644
 31
0.0
  0
LINE
  5
BC2
330
BBE
100
AcDbEntity
  8
P-0000
  6
Continuous
 62
     3
370
    -2
100
AcDbLine
 10
634.1734023918512
 20
-29.01169591095652
 30
0.0
 11
634.1734023918512
 21
-78.72599898125644
 31
0.0
  0
LINE
  5
BC3
330
BBE
100
AcDbEntity
  8
P-0000
  6
Continuous
 62
     3
370
    -2
100
AcDbLine
 10
-37.52659760814863
 20
-74.72599898125643
 30
0.0
 11
627.8734023918513
 21
-74.72599898125643
 31
0.0
  0
SOLID
  5
BC4
330
BBE
100
AcDbEntity
  8
P-0000
  6
Continuous
 62
     3
100
AcDbTrace
 10
-37.52659760814863
 20
-73.67599898125644
 30
0.0
 11
-37.52659760814863
 21
-75.77599898125644
 31
0.0
 12
-43.82659760814861
 22
-74.72599898125643
 32
0.0
 13
-43.82659760814861
 23
-74.72599898125643
 33
0.0
  0
SOLID
  5
BC5
330
BBE
100
AcDbEntity
  8
P-0000
  6
Continuous
 62
     3
100
AcDbTrace
 10
627.8734023918513
 20
-73.67599898125644
 30
0.0
 11
627.8734023918513
 21
-75.77599898125644
 31
0.0
 12
634.1734023918512
 22
-74.72599898125643
 32
0.0
 13
634.1734023918512
 23
-74.72599898125643
 33
0.0
  0
MTEXT
  5
BC6
330
BBE
100
AcDbEntity
  8
P-0000
  6
Continuous
 62
     2
100
AcDbMText
 10
295.1734023918513
 20
-67.22599898125642
 30
0.0
 40
7.0
 41
0.0
 71
     5
 72
     1
  1
678
 73
     1
 44
1.0
1001
ACAD
1000
MTEXTBEGIN
1070
    73
1070
     1
1070
    44
1040
1.0
1070
    74
1070
     0
1000
MTEXTEND
  0
POINT
  5
BC7
330
BBE
100
AcDbEntity
  8
Defpoints
  6
Continuous
 62
     0
100
AcDbPoint
 10
-43.82659760814861
 20
-29.01169591095652
 30
0.0
  0
POINT
  5
BC8
330
BBE
100
AcDbEntity
  8
Defpoints
  6
Continuous
 62
     0
100
AcDbPoint
 10
634.1734023918512
 20
-29.01169591095652
 30
0.0
  0
POINT
  5
BC9
330
BBE
100
AcDbEntity
  8
Defpoints
  6
Continuous
 62
     0
100
AcDbPoint
 10
634.1734023918512
 20
-74.72599898125643
 30
0.0
  0
ENDBLK
  5
BC0
330
BBE
100
AcDbEntity
  8
0
100
AcDbBlockEnd
  0
ENDSEC
  0
SECTION
  2
ENTITIES
  0
LINE
  5
23F
102
{ACAD_REACTORS
330
84A
102
}
330
208
100
AcDbEntity
  8
0
  6
Continuous
 62
     7
100
AcDbLine
 10
-122.2482217345
 20
159.423445102
 30
0.0
 11
-122.2482217345
 21
220.923670903
 31
0.0
  0
LINE
  5
240
330
208
100
AcDbEntity
  8
0
  6
Continuous
 62
     7
100
AcDbLine
 10
-117.4982217345
 20
168.6735580025
 30
0.0
 11
-117.4982217345
 21
174.6735580025
 31
0.0
  0
LINE
  5
241
330
208
100
AcDbEntity
  8
0
  6
Continuous
 62
     7
100
AcDbLine
 10
-117.4982217345
 20
181.1735580025
 30
0.0
 11
-117.4982217345
 21
187.1735580025
 31
0.0
  0
LINE
  5
242
330
208
100
AcDbEntity
  8
0
  6
Continuous
 62
     7
100
AcDbLine
 10
-117.4982217345
 20
193.6735580025
 30
0.0
 11
-117.4982217345
 21
199.6735580025
 31
0.0
  0
LINE
  5
243
330
208
100
AcDbEntity
  8
0
  6
Continuous
 62
     7
100
AcDbLine
 10
-117.4982217345
 20
206.1735580025
 30
0.0
 11
-117.4982217345
 21
212.1735580025
 31
0.0
  0
LINE
  5
244
330
208
100
AcDbEntity
  8
0
  6
Continuous
 62
     7
100
AcDbLine
 10
-111.4982217345
 20
212.1735580025
 30
0.0
 11
-111.4982217345
 21
206.1735580025
 31
0.0
  0
LINE
  5
245
330
208
100
AcDbEntity
  8
0
  6
Continuous
 62
     7
100
AcDbLine
 10
-111.4982217345
 20
199.6735580025
 30
0.0
 11
-111.4982217345
 21
193.6735580025
 31
0.0
  0
LINE
  5
246
330
208
100
AcDbEntity
  8
0
  6
Continuous
 62
     7
100
AcDbLine
 10
-111.4982217345
 20
187.1735580025
 30
0.0
 11
-111.4982217345
 21
181.1735580025
 31
0.0
  0
LINE
  5
247
330
208
100
AcDbEntity
  8
0
  6
Continuous
 62
     7
100
AcDbLine
 10
-111.4982217345
 20
174.6735580025
 30
0.0
 11
-111.4982217345
 21
168.6735580025
 31
0.0
  0
LINE
  5
248
330
208
100
AcDbEntity
  8
0
  6
Continuous
 62
     7
100
AcDbLine
 10
-104.9982217345
 20
168.6735580025
 30
0.0
 11
-104.9982217345
 21
174.6735580025
 31
0.0
  0
LINE
  5
249
330
208
100
AcDbEntity
  8
0
  6
Continuous
 62
     7
100
AcDbLine
 10
-104.9982217345
 20
181.1735580025
 30
0.0
 11
-104.9982217345
 21
187.1735580025
 31
0.0
  0
LINE
  5
24A
330
208
100
AcDbEntity
  8
0
  6
Continuous
 62
     7
100
AcDbLine
 10
-104.9982217345
 20
193.6735580025
 30
0.0
 11
-104.9982217345
 21
199.6735580025
 31
0.0
  0
LINE
  5
24B
330
208
100
AcDbEntity
  8
0
  6
Continuous
 62
     7
100
AcDbLine
 10
-104.9982217345
 20
206.1735580025
 30
0.0
 11
-104.9982217345
 21
212.1735580025
 31
0.0
  0
LINE
  5
24C
330
208
100
AcDbEntity
  8
0
  6
Continuous
 62
     7
100
AcDbLine
 10
-98.99822173450001
 20
212.1735580025
 30
0.0
 11
-98.99822173450001
 21
206.1735580025
 31
0.0
  0
LINE
  5
24D
330
208
100
AcDbEntity
  8
0
  6
Continuous
 62
     7
100
AcDbLine
 10
-98.99822173450001
 20
199.6735580025
 30
0.0
 11
-98.99822173450001
 21
193.6735580025
 31
0.0
  0
LINE
  5
24E
330
208
100
AcDbEntity
  8
0
  6
Continuous
 62
     7
100
AcDbLine
 10
-98.99822173450001
 20
187.1735580025
 30
0.0
 11
-98.99822173450001
 21
181.1735580025
 31
0.0
  0
LINE
  5
24F
330
208
100
AcDbEntity
  8
0
  6
Continuous
 62
     7
100
AcDbLine
 10
-98.99822173450001
 20
174.6735580025
 30
0.0
 11
-98.99822173450001
 21
168.6735580025
 31
0.0
  0
LINE
  5
250
330
208
100
AcDbEntity
  8
0
  6
Continuous
 62
     7
100
AcDbLine
 10
-92.49822173450001
 20
168.6735580025
 30
0.0
 11
-92.49822173450001
 21
174.6735580025
 31
0.0
  0
LINE
  5
251
330
208
100
AcDbEntity
  8
0
  6
Continuous
 62
     7
100
AcDbLine
 10
-92.49822173450001
 20
181.1735580025
 30
0.0
 11
-92.49822173450001
 21
187.1735580025
 31
0.0
  0
LINE
  5
252
330
208
100
AcDbEntity
  8
0
  6
Continuous
 62
     7
100
AcDbLine
 10
-92.49822173450001
 20
193.6735580025
 30
0.0
 11
-92.49822173450001
 21
199.6735580025
 31
0.0
  0
LINE
  5
253
330
208
100
AcDbEntity
  8
0
  6
Continuous
 62
     7
100
AcDbLine
 10
-92.49822173450001
 20
206.1735580025
 30
0.0
 11
-92.49822173450001
 21
212.1735580025
 31
0.0
  0
LINE
  5
254
330
208
100
AcDbEntity
  8
0
  6
Continuous
 62
     7
100
AcDbLine
 10
-86.49822173450001
 20
212.1735580025
 30
0.0
 11
-86.49822173450001
 21
206.1735580025
 31
0.0
  0
LINE
  5
255
330
208
100
AcDbEntity
  8
0
  6
Continuous
 62
     7
100
AcDbLine
 10
-86.49822173450001
 20
199.6735580025
 30
0.0
 11
-86.49822173450001
 21
193.6735580025
 31
0.0
  0
LINE
  5
256
330
208
100
AcDbEntity
  8
0
  6
Continuous
 62
     7
100
AcDbLine
 10
-86.49822173450001
 20
187.1735580025
 30
0.0
 11
-86.49822173450001
 21
181.1735580025
 31
0.0
  0
LINE
  5
257
330
208
100
AcDbEntity
  8
0
  6
Continuous
 62
     7
100
AcDbLine
 10
-86.49822173450001
 20
174.6735580025
 30
0.0
 11
-86.49822173450001
 21
168.6735580025
 31
0.0
  0
LINE
  5
258
330
208
100
AcDbEntity
  8
0
  6
Continuous
 62
     7
100
AcDbLine
 10
-79.99822173449999
 20
168.6735580025
 30
0.0
 11
-79.99822173449999
 21
174.6735580025
 31
0.0
  0
LINE
  5
259
330
208
100
AcDbEntity
  8
0
  6
Continuous
 62
     7
100
AcDbLine
 10
-79.99822173449999
 20
181.1735580025
 30
0.0
 11
-79.99822173449999
 21
187.1735580025
 31
0.0
  0
LINE
  5
25A
330
208
100
AcDbEntity
  8
0
  6
Continuous
 62
     7
100
AcDbLine
 10
-79.99822173449999
 20
193.6735580025
 30
0.0
 11
-79.99822173449999
 21
199.6735580025
 31
0.0
  0
LINE
  5
25B
330
208
100
AcDbEntity
  8
0
  6
Continuous
 62
     7
100
AcDbLine
 10
-79.99822173449999
 20
206.1735580025
 30
0.0
 11
-79.99822173449999
 21
212.1735580025
 31
0.0
  0
LINE
  5
25C
330
208
100
AcDbEntity
  8
0
  6
Continuous
 62
     7
100
AcDbLine
 10
-73.99822173449999
 20
212.1735580025
 30
0.0
 11
-73.99822173449999
 21
206.1735580025
 31
0.0
  0
LINE
  5
25D
330
208
100
AcDbEntity
  8
0
  6
Continuous
 62
     7
100
AcDbLine
 10
-73.99822173449999
 20
199.6735580025
 30
0.0
 11
-73.99822173449999
 21
193.6735580025
 31
0.0
  0
LINE
  5
25E
330
208
100
AcDbEntity
  8
0
  6
Continuous
 62
     7
100
AcDbLine
 10
-73.99822173449999
 20
187.1735580025
 30
0.0
 11
-73.99822173449999
 21
181.1735580025
 31
0.0
  0
LINE
  5
25F
330
208
100
AcDbEntity
  8
0
  6
Continuous
 62
     7
100
AcDbLine
 10
-73.99822173449999
 20
174.6735580025
 30
0.0
 11
-73.99822173449999
 21
168.6735580025
 31
0.0
  0
LINE
  5
260
330
208
100
AcDbEntity
  8
0
  6
Continuous
 62
     7
100
AcDbLine
 10
-67.49822173449999
 20
168.6735580025
 30
0.0
 11
-67.49822173449999
 21
174.6735580025
 31
0.0
  0
LINE
  5
261
330
208
100
AcDbEntity
  8
0
  6
Continuous
 62
     7
100
AcDbLine
 10
-67.49822173449999
 20
181.1735580025
 30
0.0
 11
-67.49822173449999
 21
187.1735580025
 31
0.0
  0
LINE
  5
262
330
208
100
AcDbEntity
  8
0
  6
Continuous
 62
     7
100
AcDbLine
 10
-67.49822173449999
 20
193.6735580025
 30
0.0
 11
-67.49822173449999
 21
199.6735580025
 31
0.0
  0
LINE
  5
263
330
208
100
AcDbEntity
  8
0
  6
Continuous
 62
     7
100
AcDbLine
 10
-67.49822173449999
 20
206.1735580025
 30
0.0
 11
-67.49822173449999
 21
212.1735580025
 31
0.0
  0
LINE
  5
264
330
208
100
AcDbEntity
  8
0
  6
Continuous
 62
     7
100
AcDbLine
 10
-61.4982217345
 20
212.1735580025
 30
0.0
 11
-61.4982217345
 21
206.1735580025
 31
0.0
  0
LINE
  5
265
330
208
100
AcDbEntity
  8
0
  6
Continuous
 62
     7
100
AcDbLine
 10
-61.4982217345
 20
199.6735580025
 30
0.0
 11
-61.4982217345
 21
193.6735580025
 31
0.0
  0
LINE
  5
266
330
208
100
AcDbEntity
  8
0
  6
Continuous
 62
     7
100
AcDbLine
 10
-61.4982217345
 20
187.1735580025
 30
0.0
 11
-61.4982217345
 21
181.1735580025
 31
0.0
  0
LINE
  5
267
330
208
100
AcDbEntity
  8
0
  6
Continuous
 62
     7
100
AcDbLine
 10
-61.4982217345
 20
174.6735580025
 30
0.0
 11
-61.4982217345
 21
168.6735580025
 31
0.0
  0
LINE
  5
268
330
208
100
AcDbEntity
  8
0
  6
Continuous
 62
     7
100
AcDbLine
 10
-54.9982217345
 20
168.6735580025
 30
0.0
 11
-54.9982217345
 21
174.6735580025
 31
0.0
  0
LINE
  5
269
330
208
100
AcDbEntity
  8
0
  6
Continuous
 62
     7
100
AcDbLine
 10
-54.9982217345
 20
181.1735580025
 30
0.0
 11
-54.9982217345
 21
187.1735580025
 31
0.0
  0
LINE
  5
26A
330
208
100
AcDbEntity
  8
0
  6
Continuous
 62
     7
100
AcDbLine
 10
-54.9982217345
 20
193.6735580025
 30
0.0
 11
-54.9982217345
 21
199.6735580025
 31
0.0
  0
LINE
  5
26B
330
208
100
AcDbEntity
  8
0
  6
Continuous
 62
     7
100
AcDbLine
 10
-54.9982217345
 20
206.1735580025
 30
0.0
 11
-54.9982217345
 21
212.1735580025
 31
0.0
  0
LINE
  5
26C
330
208
100
AcDbEntity
  8
0
  6
Continuous
 62
     7
100
AcDbLine
 10
-48.9982217345
 20
212.1735580025
 30
0.0
 11
-48.9982217345
 21
206.1735580025
 31
0.0
  0
LINE
  5
26D
330
208
100
AcDbEntity
  8
0
  6
Continuous
 62
     7
100
AcDbLine
 10
-48.9982217345
 20
199.6735580025
 30
0.0
 11
-48.9982217345
 21
193.6735580025
 31
0.0
  0
LINE
  5
26E
330
208
100
AcDbEntity
  8
0
  6
Continuous
 62
     7
100
AcDbLine
 10
-48.9982217345
 20
187.1735580025
 30
0.0
 11
-48.9982217345
 21
181.1735580025
 31
0.0
  0
LINE
  5
26F
330
208
100
AcDbEntity
  8
0
  6
Continuous
 62
     7
100
AcDbLine
 10
-48.9982217345
 20
174.6735580025
 30
0.0
 11
-48.9982217345
 21
168.6735580025
 31
0.0
  0
LINE
  5
270
330
208
100
AcDbEntity
  8
0
  6
Continuous
 62
     7
100
AcDbLine
 10
-42.4982217345
 20
168.6735580025
 30
0.0
 11
-42.4982217345
 21
174.6735580025
 31
0.0
  0
LINE
  5
271
330
208
100
AcDbEntity
  8
0
  6
Continuous
 62
     7
100
AcDbLine
 10
-42.4982217345
 20
181.1735580025
 30
0.0
 11
-42.4982217345
 21
187.1735580025
 31
0.0
  0
LINE
  5
272
330
208
100
AcDbEntity
  8
0
  6
Continuous
 62
     7
100
AcDbLine
 10
-42.4982217345
 20
193.6735580025
 30
0.0
 11
-42.4982217345
 21
199.6735580025
 31
0.0
  0
LINE
  5
273
330
208
100
AcDbEntity
  8
0
  6
Continuous
 62
     7
100
AcDbLine
 10
-42.4982217345
 20
206.1735580025
 30
0.0
 11
-42.4982217345
 21
212.1735580025
 31
0.0
  0
LINE
  5
274
330
208
100
AcDbEntity
  8
0
  6
Continuous
 62
     7
100
AcDbLine
 10
-36.4982217345
 20
212.1735580025
 30
0.0
 11
-36.4982217345
 21
206.1735580025
 31
0.0
  0
LINE
  5
275
330
208
100
AcDbEntity
  8
0
  6
Continuous
 62
     7
100
AcDbLine
 10
-36.4982217345
 20
199.6735580025
 30
0.0
 11
-36.4982217345
 21
193.6735580025
 31
0.0
  0
LINE
  5
276
330
208
100
AcDbEntity
  8
0
  6
Continuous
 62
     7
100
AcDbLine
 10
-36.4982217345
 20
187.1735580025
 30
0.0
 11
-36.4982217345
 21
181.1735580025
 31
0.0
  0
LINE
  5
277
330
208
100
AcDbEntity
  8
0
  6
Continuous
 62
     7
100
AcDbLine
 10
-36.4982217345
 20
174.6735580025
 30
0.0
 11
-36.4982217345
 21
168.6735580025
 31
0.0
  0
LINE
  5
278
330
208
100
AcDbEntity
  8
0
  6
Continuous
 62
     7
100
AcDbLine
 10
-29.9982217345
 20
168.6735580025
 30
0.0
 11
-29.9982217345
 21
174.6735580025
 31
0.0
  0
LINE
  5
279
330
208
100
AcDbEntity
  8
0
  6
Continuous
 62
     7
100
AcDbLine
 10
-29.9982217345
 20
181.1735580025
 30
0.0
 11
-29.9982217345
 21
187.1735580025
 31
0.0
  0
LINE
  5
27A
330
208
100
AcDbEntity
  8
0
  6
Continuous
 62
     7
100
AcDbLine
 10
-29.9982217345
 20
193.6735580025
 30
0.0
 11
-29.9982217345
 21
199.6735580025
 31
0.0
  0
LINE
  5
27B
330
208
100
AcDbEntity
  8
0
  6
Continuous
 62
     7
100
AcDbLine
 10
-29.9982217345
 20
206.1735580025
 30
0.0
 11
-29.9982217345
 21
212.1735580025
 31
0.0
  0
LINE
  5
27C
330
208
100
AcDbEntity
  8
0
  6
Continuous
 62
     7
100
AcDbLine
 10
-23.9982217345
 20
212.1735580025
 30
0.0
 11
-23.9982217345
 21
206.1735580025
 31
0.0
  0
LINE
  5
27D
330
208
100
AcDbEntity
  8
0
  6
Continuous
 62
     7
100
AcDbLine
 10
-23.9982217345
 20
199.6735580025
 30
0.0
 11
-23.9982217345
 21
193.6735580025
 31
0.0
  0
LINE
  5
27E
330
208
100
AcDbEntity
  8
0
  6
Continuous
 62
     7
100
AcDbLine
 10
-23.9982217345
 20
187.1735580025
 30
0.0
 11
-23.9982217345
 21
181.1735580025
 31
0.0
  0
LINE
  5
27F
330
208
100
AcDbEntity
  8
0
  6
Continuous
 62
     7
100
AcDbLine
 10
-23.9982217345
 20
174.6735580025
 30
0.0
 11
-23.9982217345
 21
168.6735580025
 31
0.0
  0
LINE
  5
280
330
208
100
AcDbEntity
  8
0
  6
Continuous
 62
     7
100
AcDbLine
 10
-17.4982217345
 20
168.6735580025
 30
0.0
 11
-17.4982217345
 21
174.6735580025
 31
0.0
  0
LINE
  5
281
330
208
100
AcDbEntity
  8
0
  6
Continuous
 62
     7
100
AcDbLine
 10
-17.4982217345
 20
181.1735580025
 30
0.0
 11
-17.4982217345
 21
187.1735580025
 31
0.0
  0
LINE
  5
282
330
208
100
AcDbEntity
  8
0
  6
Continuous
 62
     7
100
AcDbLine
 10
-17.4982217345
 20
193.6735580025
 30
0.0
 11
-17.4982217345
 21
199.6735580025
 31
0.0
  0
LINE
  5
283
330
208
100
AcDbEntity
  8
0
  6
Continuous
 62
     7
100
AcDbLine
 10
-17.4982217345
 20
206.1735580025
 30
0.0
 11
-17.4982217345
 21
212.1735580025
 31
0.0
  0
LINE
  5
284
330
208
100
AcDbEntity
  8
0
  6
Continuous
 62
     7
100
AcDbLine
 10
-11.4982217345
 20
212.1735580025
 30
0.0
 11
-11.4982217345
 21
206.1735580025
 31
0.0
  0
LINE
  5
285
330
208
100
AcDbEntity
  8
0
  6
Continuous
 62
     7
100
AcDbLine
 10
-11.4982217345
 20
199.6735580025
 30
0.0
 11
-11.4982217345
 21
193.6735580025
 31
0.0
  0
LINE
  5
286
330
208
100
AcDbEntity
  8
0
  6
Continuous
 62
     7
100
AcDbLine
 10
-11.4982217345
 20
187.1735580025
 30
0.0
 11
-11.4982217345
 21
181.1735580025
 31
0.0
  0
LINE
  5
287
330
208
100
AcDbEntity
  8
0
  6
Continuous
 62
     7
100
AcDbLine
 10
-11.4982217345
 20
174.6735580025
 30
0.0
 11
-11.4982217345
 21
168.6735580025
 31
0.0
  0
LINE
  5
288
330
208
100
AcDbEntity
  8
0
  6
Continuous
 62
     7
100
AcDbLine
 10
-4.998221734499999
 20
168.6735580025
 30
0.0
 11
-4.998221734499999
 21
174.6735580025
 31
0.0
  0
LINE
  5
289
330
208
100
AcDbEntity
  8
0
  6
Continuous
 62
     7
100
AcDbLine
 10
-4.998221734499999
 20
181.1735580025
 30
0.0
 11
-4.998221734499999
 21
187.1735580025
 31
0.0
  0
LINE
  5
28A
330
208
100
AcDbEntity
  8
0
  6
Continuous
 62
     7
100
AcDbLine
 10
-4.998221734499999
 20
193.6735580025
 30
0.0
 11
-4.998221734499999
 21
199.6735580025
 31
0.0
  0
LINE
  5
28B
330
208
100
AcDbEntity
  8
0
  6
Continuous
 62
     7
100
AcDbLine
 10
-4.998221734499999
 20
206.1735580025
 30
0.0
 11
-4.998221734499999
 21
212.1735580025
 31
0.0
  0
LINE
  5
28C
330
208
100
AcDbEntity
  8
0
  6
Continuous
 62
     7
100
AcDbLine
 10
1.0017782655
 20
212.1735580025
 30
0.0
 11
1.0017782655
 21
206.1735580025
 31
0.0
  0
LINE
  5
28D
330
208
100
AcDbEntity
  8
0
  6
Continuous
 62
     7
100
AcDbLine
 10
1.0017782655
 20
199.6735580025
 30
0.0
 11
1.0017782655
 21
193.6735580025
 31
0.0
  0
LINE
  5
28E
330
208
100
AcDbEntity
  8
0
  6
Continuous
 62
     7
100
AcDbLine
 10
1.0017782655
 20
187.1735580025
 30
0.0
 11
1.0017782655
 21
181.1735580025
 31
0.0
  0
LINE
  5
28F
330
208
100
AcDbEntity
  8
0
  6
Continuous
 62
     7
100
AcDbLine
 10
1.0017782655
 20
174.6735580025
 30
0.0
 11
1.0017782655
 21
168.6735580025
 31
0.0
  0
LINE
  5
290
330
208
100
AcDbEntity
  8
0
  6
Continuous
 62
     7
100
AcDbLine
 10
7.501778265499999
 20
168.6735580025
 30
0.0
 11
7.501778265499999
 21
174.6735580025
 31
0.0
  0
LINE
  5
291
330
208
100
AcDbEntity
  8
0
  6
Continuous
 62
     7
100
AcDbLine
 10
7.501778265499999
 20
181.1735580025
 30
0.0
 11
7.501778265499999
 21
187.1735580025
 31
0.0
  0
LINE
  5
292
330
208
100
AcDbEntity
  8
0
  6
Continuous
 62
     7
100
AcDbLine
 10
7.501778265499999
 20
193.6735580025
 30
0.0
 11
7.501778265499999
 21
199.6735580025
 31
0.0
  0
LINE
  5
293
330
208
100
AcDbEntity
  8
0
  6
Continuous
 62
     7
100
AcDbLine
 10
7.501778265499999
 20
206.1735580025
 30
0.0
 11
7.501778265499999
 21
212.1735580025
 31
0.0
  0
LINE
  5
294
330
208
100
AcDbEntity
  8
0
  6
Continuous
 62
     7
100
AcDbLine
 10
13.5017782655
 20
212.1735580025
 30
0.0
 11
13.5017782655
 21
206.1735580025
 31
0.0
  0
LINE
  5
295
330
208
100
AcDbEntity
  8
0
  6
Continuous
 62
     7
100
AcDbLine
 10
13.5017782655
 20
199.6735580025
 30
0.0
 11
13.5017782655
 21
193.6735580025
 31
0.0
  0
LINE
  5
296
330
208
100
AcDbEntity
  8
0
  6
Continuous
 62
     7
100
AcDbLine
 10
13.5017782655
 20
187.1735580025
 30
0.0
 11
13.5017782655
 21
181.1735580025
 31
0.0
  0
LINE
  5
297
330
208
100
AcDbEntity
  8
0
  6
Continuous
 62
     7
100
AcDbLine
 10
13.5017782655
 20
174.6735580025
 30
0.0
 11
13.5017782655
 21
168.6735580025
 31
0.0
  0
LINE
  5
298
330
208
100
AcDbEntity
  8
0
  6
Continuous
 62
     7
100
AcDbLine
 10
20.0017782655
 20
168.6735580025
 30
0.0
 11
20.0017782655
 21
174.6735580025
 31
0.0
  0
LINE
  5
299
330
208
100
AcDbEntity
  8
0
  6
Continuous
 62
     7
100
AcDbLine
 10
20.0017782655
 20
181.1735580025
 30
0.0
 11
20.0017782655
 21
187.1735580025
 31
0.0
  0
LINE
  5
29A
330
208
100
AcDbEntity
  8
0
  6
Continuous
 62
     7
100
AcDbLine
 10
20.0017782655
 20
193.6735580025
 30
0.0
 11
20.0017782655
 21
199.6735580025
 31
0.0
  0
LINE
  5
29B
330
208
100
AcDbEntity
  8
0
  6
Continuous
 62
     7
100
AcDbLine
 10
20.0017782655
 20
206.1735580025
 30
0.0
 11
20.0017782655
 21
212.1735580025
 31
0.0
  0
LINE
  5
29C
330
208
100
AcDbEntity
  8
0
  6
Continuous
 62
     7
100
AcDbLine
 10
26.0017782655
 20
212.1735580025
 30
0.0
 11
26.0017782655
 21
206.1735580025
 31
0.0
  0
LINE
  5
29D
330
208
100
AcDbEntity
  8
0
  6
Continuous
 62
     7
100
AcDbLine
 10
26.0017782655
 20
199.6735580025
 30
0.0
 11
26.0017782655
 21
193.6735580025
 31
0.0
  0
LINE
  5
29E
330
208
100
AcDbEntity
  8
0
  6
Continuous
 62
     7
100
AcDbLine
 10
26.0017782655
 20
187.1735580025
 30
0.0
 11
26.0017782655
 21
181.1735580025
 31
0.0
  0
LINE
  5
29F
330
208
100
AcDbEntity
  8
0
  6
Continuous
 62
     7
100
AcDbLine
 10
26.0017782655
 20
174.6735580025
 30
0.0
 11
26.0017782655
 21
168.6735580025
 31
0.0
  0
LINE
  5
2A0
330
208
100
AcDbEntity
  8
0
  6
Continuous
 62
     7
100
AcDbLine
 10
32.5017782655
 20
168.6735580025
 30
0.0
 11
32.5017782655
 21
174.6735580025
 31
0.0
  0
LINE
  5
2A1
330
208
100
AcDbEntity
  8
0
  6
Continuous
 62
     7
100
AcDbLine
 10
32.5017782655
 20
181.1735580025
 30
0.0
 11
32.5017782655
 21
187.1735580025
 31
0.0
  0
LINE
  5
2A2
330
208
100
AcDbEntity
  8
0
  6
Continuous
 62
     7
100
AcDbLine
 10
32.5017782655
 20
193.6735580025
 30
0.0
 11
32.5017782655
 21
199.6735580025
 31
0.0
  0
LINE
  5
2A3
330
208
100
AcDbEntity
  8
0
  6
Continuous
 62
     7
100
AcDbLine
 10
32.5017782655
 20
206.1735580025
 30
0.0
 11
32.5017782655
 21
212.1735580025
 31
0.0
  0
LINE
  5
2A4
330
208
100
AcDbEntity
  8
0
  6
Continuous
 62
     7
100
AcDbLine
 10
38.5017782655
 20
212.1735580025
 30
0.0
 11
38.5017782655
 21
206.1735580025
 31
0.0
  0
LINE
  5
2A5
330
208
100
AcDbEntity
  8
0
  6
Continuous
 62
     7
100
AcDbLine
 10
38.5017782655
 20
199.6735580025
 30
0.0
 11
38.5017782655
 21
193.6735580025
 31
0.0
  0
LINE
  5
2A6
330
208
100
AcDbEntity
  8
0
  6
Continuous
 62
     7
100
AcDbLine
 10
38.5017782655
 20
187.1735580025
 30
0.0
 11
38.5017782655
 21
181.1735580025
 31
0.0
  0
LINE
  5
2A7
330
208
100
AcDbEntity
  8
0
  6
Continuous
 62
     7
100
AcDbLine
 10
38.5017782655
 20
174.6735580025
 30
0.0
 11
38.5017782655
 21
168.6735580025
 31
0.0
  0
LINE
  5
2A8
330
208
100
AcDbEntity
  8
0
  6
Continuous
 62
     7
100
AcDbLine
 10
45.00177826549999
 20
168.6735580025
 30
0.0
 11
45.00177826549999
 21
174.6735580025
 31
0.0
  0
LINE
  5
2A9
330
208
100
AcDbEntity
  8
0
  6
Continuous
 62
     7
100
AcDbLine
 10
45.00177826549999
 20
181.1735580025
 30
0.0
 11
45.00177826549999
 21
187.1735580025
 31
0.0
  0
LINE
  5
2AA
330
208
100
AcDbEntity
  8
0
  6
Continuous
 62
     7
100
AcDbLine
 10
45.00177826549999
 20
193.6735580025
 30
0.0
 11
45.00177826549999
 21
199.6735580025
 31
0.0
  0
LINE
  5
2AB
330
208
100
AcDbEntity
  8
0
  6
Continuous
 62
     7
100
AcDbLine
 10
45.00177826549999
 20
206.1735580025
 30
0.0
 11
45.00177826549999
 21
212.1735580025
 31
0.0
  0
LINE
  5
2AC
330
208
100
AcDbEntity
  8
0
  6
Continuous
 62
     7
100
AcDbLine
 10
51.0017782655
 20
212.1735580025
 30
0.0
 11
51.0017782655
 21
206.1735580025
 31
0.0
  0
LINE
  5
2AD
330
208
100
AcDbEntity
  8
0
  6
Continuous
 62
     7
100
AcDbLine
 10
51.0017782655
 20
199.6735580025
 30
0.0
 11
51.0017782655
 21
193.6735580025
 31
0.0
  0
LINE
  5
2AE
330
208
100
AcDbEntity
  8
0
  6
Continuous
 62
     7
100
AcDbLine
 10
51.0017782655
 20
187.1735580025
 30
0.0
 11
51.0017782655
 21
181.1735580025
 31
0.0
  0
LINE
  5
2AF
330
208
100
AcDbEntity
  8
0
  6
Continuous
 62
     7
100
AcDbLine
 10
51.0017782655
 20
174.6735580025
 30
0.0
 11
51.0017782655
 21
168.6735580025
 31
0.0
  0
LINE
  5
2B0
330
208
100
AcDbEntity
  8
0
  6
Continuous
 62
     7
100
AcDbLine
 10
57.5017782655
 20
168.6735580025
 30
0.0
 11
57.5017782655
 21
174.6735580025
 31
0.0
  0
LINE
  5
2B1
330
208
100
AcDbEntity
  8
0
  6
Continuous
 62
     7
100
AcDbLine
 10
57.5017782655
 20
181.1735580025
 30
0.0
 11
57.5017782655
 21
187.1735580025
 31
0.0
  0
LINE
  5
2B2
330
208
100
AcDbEntity
  8
0
  6
Continuous
 62
     7
100
AcDbLine
 10
57.5017782655
 20
193.6735580025
 30
0.0
 11
57.5017782655
 21
199.6735580025
 31
0.0
  0
LINE
  5
2B3
330
208
100
AcDbEntity
  8
0
  6
Continuous
 62
     7
100
AcDbLine
 10
57.5017782655
 20
206.1735580025
 30
0.0
 11
57.5017782655
 21
212.1735580025
 31
0.0
  0
LINE
  5
2B4
330
208
100
AcDbEntity
  8
0
  6
Continuous
 62
     7
100
AcDbLine
 10
63.5017782655
 20
212.1735580025
 30
0.0
 11
63.5017782655
 21
206.1735580025
 31
0.0
  0
LINE
  5
2B5
330
208
100
AcDbEntity
  8
0
  6
Continuous
 62
     7
100
AcDbLine
 10
63.5017782655
 20
199.6735580025
 30
0.0
 11
63.5017782655
 21
193.6735580025
 31
0.0
  0
LINE
  5
2B6
330
208
100
AcDbEntity
  8
0
  6
Continuous
 62
     7
100
AcDbLine
 10
63.5017782655
 20
187.1735580025
 30
0.0
 11
63.5017782655
 21
181.1735580025
 31
0.0
  0
LINE
  5
2B7
330
208
100
AcDbEntity
  8
0
  6
Continuous
 62
     7
100
AcDbLine
 10
63.5017782655
 20
174.6735580025
 30
0.0
 11
63.5017782655
 21
168.6735580025
 31
0.0
  0
LINE
  5
2B8
330
208
100
AcDbEntity
  8
0
  6
Continuous
 62
     7
100
AcDbLine
 10
70.0017782655
 20
168.6735580025
 30
0.0
 11
70.0017782655
 21
174.6735580025
 31
0.0
  0
LINE
  5
2B9
330
208
100
AcDbEntity
  8
0
  6
Continuous
 62
     7
100
AcDbLine
 10
70.0017782655
 20
181.1735580025
 30
0.0
 11
70.0017782655
 21
187.1735580025
 31
0.0
  0
LINE
  5
2BA
330
208
100
AcDbEntity
  8
0
  6
Continuous
 62
     7
100
AcDbLine
 10
70.0017782655
 20
193.6735580025
 30
0.0
 11
70.0017782655
 21
199.6735580025
 31
0.0
  0
LINE
  5
2BB
330
208
100
AcDbEntity
  8
0
  6
Continuous
 62
     7
100
AcDbLine
 10
70.0017782655
 20
206.1735580025
 30
0.0
 11
70.0017782655
 21
212.1735580025
 31
0.0
  0
LINE
  5
2BC
330
208
100
AcDbEntity
  8
0
  6
Continuous
 62
     7
100
AcDbLine
 10
76.00177826550001
 20
212.1735580025
 30
0.0
 11
76.00177826550001
 21
206.1735580025
 31
0.0
  0
LINE
  5
2BD
330
208
100
AcDbEntity
  8
0
  6
Continuous
 62
     7
100
AcDbLine
 10
76.00177826550001
 20
199.6735580025
 30
0.0
 11
76.00177826550001
 21
193.6735580025
 31
0.0
  0
LINE
  5
2BE
330
208
100
AcDbEntity
  8
0
  6
Continuous
 62
     7
100
AcDbLine
 10
76.00177826550001
 20
187.1735580025
 30
0.0
 11
76.00177826550001
 21
181.1735580025
 31
0.0
  0
LINE
  5
2BF
330
208
100
AcDbEntity
  8
0
  6
Continuous
 62
     7
100
AcDbLine
 10
76.00177826550001
 20
174.6735580025
 30
0.0
 11
76.00177826550001
 21
168.6735580025
 31
0.0
  0
LINE
  5
2C0
330
208
100
AcDbEntity
  8
0
  6
Continuous
 62
     7
100
AcDbLine
 10
82.5017782655
 20
168.6735580025
 30
0.0
 11
82.5017782655
 21
174.6735580025
 31
0.0
  0
LINE
  5
2C1
330
208
100
AcDbEntity
  8
0
  6
Continuous
 62
     7
100
AcDbLine
 10
82.5017782655
 20
181.1735580025
 30
0.0
 11
82.5017782655
 21
187.1735580025
 31
0.0
  0
LINE
  5
2C2
330
208
100
AcDbEntity
  8
0
  6
Continuous
 62
     7
100
AcDbLine
 10
82.5017782655
 20
193.6735580025
 30
0.0
 11
82.5017782655
 21
199.6735580025
 31
0.0
  0
LINE
  5
2C3
330
208
100
AcDbEntity
  8
0
  6
Continuous
 62
     7
100
AcDbLine
 10
82.5017782655
 20
206.1735580025
 30
0.0
 11
82.5017782655
 21
212.1735580025
 31
0.0
  0
LINE
  5
2C4
330
208
100
AcDbEntity
  8
0
  6
Continuous
 62
     7
100
AcDbLine
 10
88.5017782655
 20
212.1735580025
 30
0.0
 11
88.5017782655
 21
206.1735580025
 31
0.0
  0
LINE
  5
2C5
330
208
100
AcDbEntity
  8
0
  6
Continuous
 62
     7
100
AcDbLine
 10
88.5017782655
 20
199.6735580025
 30
0.0
 11
88.5017782655
 21
193.6735580025
 31
0.0
  0
LINE
  5
2C6
330
208
100
AcDbEntity
  8
0
  6
Continuous
 62
     7
100
AcDbLine
 10
88.5017782655
 20
187.1735580025
 30
0.0
 11
88.5017782655
 21
181.1735580025
 31
0.0
  0
LINE
  5
2C7
330
208
100
AcDbEntity
  8
0
  6
Continuous
 62
     7
100
AcDbLine
 10
88.5017782655
 20
174.6735580025
 30
0.0
 11
88.5017782655
 21
168.6735580025
 31
0.0
  0
LINE
  5
2C8
330
208
100
AcDbEntity
  8
0
  6
Continuous
 62
     7
100
AcDbLine
 10
95.00177826549998
 20
168.6735580025
 30
0.0
 11
95.00177826549998
 21
174.6735580025
 31
0.0
  0
LINE
  5
2C9
330
208
100
AcDbEntity
  8
0
  6
Continuous
 62
     7
100
AcDbLine
 10
95.00177826549998
 20
181.1735580025
 30
0.0
 11
95.00177826549998
 21
187.1735580025
 31
0.0
  0
LINE
  5
2CA
330
208
100
AcDbEntity
  8
0
  6
Continuous
 62
     7
100
AcDbLine
 10
95.00177826549998
 20
193.6735580025
 30
0.0
 11
95.00177826549998
 21
199.6735580025
 31
0.0
  0
LINE
  5
2CB
330
208
100
AcDbEntity
  8
0
  6
Continuous
 62
     7
100
AcDbLine
 10
95.00177826549998
 20
206.1735580025
 30
0.0
 11
95.00177826549998
 21
212.1735580025
 31
0.0
  0
LINE
  5
2CC
330
208
100
AcDbEntity
  8
0
  6
Continuous
 62
     7
100
AcDbLine
 10
101.0017782655
 20
212.1735580025
 30
0.0
 11
101.0017782655
 21
206.1735580025
 31
0.0
  0
LINE
  5
2CD
330
208
100
AcDbEntity
  8
0
  6
Continuous
 62
     7
100
AcDbLine
 10
101.0017782655
 20
199.6735580025
 30
0.0
 11
101.0017782655
 21
193.6735580025
 31
0.0
  0
LINE
  5
2CE
330
208
100
AcDbEntity
  8
0
  6
Continuous
 62
     7
100
AcDbLine
 10
101.0017782655
 20
187.1735580025
 30
0.0
 11
101.0017782655
 21
181.1735580025
 31
0.0
  0
LINE
  5
2CF
330
208
100
AcDbEntity
  8
0
  6
Continuous
 62
     7
100
AcDbLine
 10
101.0017782655
 20
174.6735580025
 30
0.0
 11
101.0017782655
 21
168.6735580025
 31
0.0
  0
LINE
  5
2D0
330
208
100
AcDbEntity
  8
0
  6
Continuous
 62
     7
100
AcDbLine
 10
107.5017782655
 20
168.6735580025
 30
0.0
 11
107.5017782655
 21
174.6735580025
 31
0.0
  0
LINE
  5
2D1
330
208
100
AcDbEntity
  8
0
  6
Continuous
 62
     7
100
AcDbLine
 10
107.5017782655
 20
181.1735580025
 30
0.0
 11
107.5017782655
 21
187.1735580025
 31
0.0
  0
LINE
  5
2D2
330
208
100
AcDbEntity
  8
0
  6
Continuous
 62
     7
100
AcDbLine
 10
107.5017782655
 20
193.6735580025
 30
0.0
 11
107.5017782655
 21
199.6735580025
 31
0.0
  0
LINE
  5
2D3
330
208
100
AcDbEntity
  8
0
  6
Continuous
 62
     7
100
AcDbLine
 10
107.5017782655
 20
206.1735580025
 30
0.0
 11
107.5017782655
 21
212.1735580025
 31
0.0
  0
LINE
  5
2D4
330
208
100
AcDbEntity
  8
0
  6
Continuous
 62
     7
100
AcDbLine
 10
113.5017782655
 20
212.1735580025
 30
0.0
 11
113.5017782655
 21
206.1735580025
 31
0.0
  0
LINE
  5
2D5
330
208
100
AcDbEntity
  8
0
  6
Continuous
 62
     7
100
AcDbLine
 10
113.5017782655
 20
199.6735580025
 30
0.0
 11
113.5017782655
 21
193.6735580025
 31
0.0
  0
LINE
  5
2D6
330
208
100
AcDbEntity
  8
0
  6
Continuous
 62
     7
100
AcDbLine
 10
113.5017782655
 20
187.1735580025
 30
0.0
 11
113.5017782655
 21
181.1735580025
 31
0.0
  0
LINE
  5
2D7
330
208
100
AcDbEntity
  8
0
  6
Continuous
 62
     7
100
AcDbLine
 10
113.5017782655
 20
174.6735580025
 30
0.0
 11
113.5017782655
 21
168.6735580025
 31
0.0
  0
LINE
  5
2D8
330
208
100
AcDbEntity
  8
0
  6
Continuous
 62
     7
100
AcDbLine
 10
120.0017782655
 20
168.6735580025
 30
0.0
 11
120.0017782655
 21
174.6735580025
 31
0.0
  0
LINE
  5
2D9
330
208
100
AcDbEntity
  8
0
  6
Continuous
 62
     7
100
AcDbLine
 10
120.0017782655
 20
181.1735580025
 30
0.0
 11
120.0017782655
 21
187.1735580025
 31
0.0
  0
LINE
  5
2DA
330
208
100
AcDbEntity
  8
0
  6
Continuous
 62
     7
100
AcDbLine
 10
120.0017782655
 20
193.6735580025
 30
0.0
 11
120.0017782655
 21
199.6735580025
 31
0.0
  0
LINE
  5
2DB
330
208
100
AcDbEntity
  8
0
  6
Continuous
 62
     7
100
AcDbLine
 10
120.0017782655
 20
206.1735580025
 30
0.0
 11
120.0017782655
 21
212.1735580025
 31
0.0
  0
LINE
  5
2DC
330
208
100
AcDbEntity
  8
0
  6
Continuous
 62
     7
100
AcDbLine
 10
126.0017782655
 20
212.1735580025
 30
0.0
 11
126.0017782655
 21
206.1735580025
 31
0.0
  0
LINE
  5
2DD
330
208
100
AcDbEntity
  8
0
  6
Continuous
 62
     7
100
AcDbLine
 10
126.0017782655
 20
199.6735580025
 30
0.0
 11
126.0017782655
 21
193.6735580025
 31
0.0
  0
LINE
  5
2DE
330
208
100
AcDbEntity
  8
0
  6
Continuous
 62
     7
100
AcDbLine
 10
126.0017782655
 20
187.1735580025
 30
0.0
 11
126.0017782655
 21
181.1735580025
 31
0.0
  0
LINE
  5
2DF
330
208
100
AcDbEntity
  8
0
  6
Continuous
 62
     7
100
AcDbLine
 10
126.0017782655
 20
174.6735580025
 30
0.0
 11
126.0017782655
 21
168.6735580025
 31
0.0
  0
LINE
  5
2E0
330
208
100
AcDbEntity
  8
0
  6
Continuous
 62
     7
100
AcDbLine
 10
132.5017782655
 20
168.6735580025
 30
0.0
 11
132.5017782655
 21
174.6735580025
 31
0.0
  0
LINE
  5
2E1
330
208
100
AcDbEntity
  8
0
  6
Continuous
 62
     7
100
AcDbLine
 10
132.5017782655
 20
181.1735580025
 30
0.0
 11
132.5017782655
 21
187.1735580025
 31
0.0
  0
LINE
  5
2E2
330
208
100
AcDbEntity
  8
0
  6
Continuous
 62
     7
100
AcDbLine
 10
132.5017782655
 20
193.6735580025
 30
0.0
 11
132.5017782655
 21
199.6735580025
 31
0.0
  0
LINE
  5
2E3
330
208
100
AcDbEntity
  8
0
  6
Continuous
 62
     7
100
AcDbLine
 10
132.5017782655
 20
206.1735580025
 30
0.0
 11
132.5017782655
 21
212.1735580025
 31
0.0
  0
LINE
  5
2E4
330
208
100
AcDbEntity
  8
0
  6
Continuous
 62
     7
100
AcDbLine
 10
138.5017782655
 20
212.1735580025
 30
0.0
 11
138.5017782655
 21
206.1735580025
 31
0.0
  0
LINE
  5
2E5
330
208
100
AcDbEntity
  8
0
  6
Continuous
 62
     7
100
AcDbLine
 10
138.5017782655
 20
199.6735580025
 30
0.0
 11
138.5017782655
 21
193.6735580025
 31
0.0
  0
LINE
  5
2E6
330
208
100
AcDbEntity
  8
0
  6
Continuous
 62
     7
100
AcDbLine
 10
138.5017782655
 20
187.1735580025
 30
0.0
 11
138.5017782655
 21
181.1735580025
 31
0.0
  0
LINE
  5
2E7
330
208
100
AcDbEntity
  8
0
  6
Continuous
 62
     7
100
AcDbLine
 10
138.5017782655
 20
174.6735580025
 30
0.0
 11
138.5017782655
 21
168.6735580025
 31
0.0
  0
LINE
  5
2E8
330
208
100
AcDbEntity
  8
0
  6
Continuous
 62
     7
100
AcDbLine
 10
145.0017782655
 20
168.6735580025
 30
0.0
 11
145.0017782655
 21
174.6735580025
 31
0.0
  0
LINE
  5
2E9
330
208
100
AcDbEntity
  8
0
  6
Continuous
 62
     7
100
AcDbLine
 10
145.0017782655
 20
181.1735580025
 30
0.0
 11
145.0017782655
 21
187.1735580025
 31
0.0
  0
LINE
  5
2EA
330
208
100
AcDbEntity
  8
0
  6
Continuous
 62
     7
100
AcDbLine
 10
145.0017782655
 20
193.6735580025
 30
0.0
 11
145.0017782655
 21
199.6735580025
 31
0.0
  0
LINE
  5
2EB
330
208
100
AcDbEntity
  8
0
  6
Continuous
 62
     7
100
AcDbLine
 10
145.0017782655
 20
206.1735580025
 30
0.0
 11
145.0017782655
 21
212.1735580025
 31
0.0
  0
LINE
  5
2EC
330
208
100
AcDbEntity
  8
0
  6
Continuous
 62
     7
100
AcDbLine
 10
151.0017782655
 20
212.1735580025
 30
0.0
 11
151.0017782655
 21
206.1735580025
 31
0.0
  0
LINE
  5
2ED
330
208
100
AcDbEntity
  8
0
  6
Continuous
 62
     7
100
AcDbLine
 10
151.0017782655
 20
199.6735580025
 30
0.0
 11
151.0017782655
 21
193.6735580025
 31
0.0
  0
LINE
  5
2EE
330
208
100
AcDbEntity
  8
0
  6
Continuous
 62
     7
100
AcDbLine
 10
151.0017782655
 20
187.1735580025
 30
0.0
 11
151.0017782655
 21
181.1735580025
 31
0.0
  0
LINE
  5
2EF
330
208
100
AcDbEntity
  8
0
  6
Continuous
 62
     7
100
AcDbLine
 10
151.0017782655
 20
174.6735580025
 30
0.0
 11
151.0017782655
 21
168.6735580025
 31
0.0
  0
LINE
  5
2F0
330
208
100
AcDbEntity
  8
0
  6
Continuous
 62
     7
100
AcDbLine
 10
157.5017782655
 20
168.6735580025
 30
0.0
 11
157.5017782655
 21
174.6735580025
 31
0.0
  0
LINE
  5
2F1
330
208
100
AcDbEntity
  8
0
  6
Continuous
 62
     7
100
AcDbLine
 10
157.5017782655
 20
181.1735580025
 30
0.0
 11
157.5017782655
 21
187.1735580025
 31
0.0
  0
LINE
  5
2F2
330
208
100
AcDbEntity
  8
0
  6
Continuous
 62
     7
100
AcDbLine
 10
157.5017782655
 20
193.6735580025
 30
0.0
 11
157.5017782655
 21
199.6735580025
 31
0.0
  0
LINE
  5
2F3
330
208
100
AcDbEntity
  8
0
  6
Continuous
 62
     7
100
AcDbLine
 10
157.5017782655
 20
206.1735580025
 30
0.0
 11
157.5017782655
 21
212.1735580025
 31
0.0
  0
LINE
  5
2F4
330
208
100
AcDbEntity
  8
0
  6
Continuous
 62
     7
100
AcDbLine
 10
163.5017782655
 20
212.1735580025
 30
0.0
 11
163.5017782655
 21
206.1735580025
 31
0.0
  0
LINE
  5
2F5
330
208
100
AcDbEntity
  8
0
  6
Continuous
 62
     7
100
AcDbLine
 10
163.5017782655
 20
199.6735580025
 30
0.0
 11
163.5017782655
 21
193.6735580025
 31
0.0
  0
LINE
  5
2F6
330
208
100
AcDbEntity
  8
0
  6
Continuous
 62
     7
100
AcDbLine
 10
163.5017782655
 20
187.1735580025
 30
0.0
 11
163.5017782655
 21
181.1735580025
 31
0.0
  0
LINE
  5
2F7
330
208
100
AcDbEntity
  8
0
  6
Continuous
 62
     7
100
AcDbLine
 10
163.5017782655
 20
174.6735580025
 30
0.0
 11
163.5017782655
 21
168.6735580025
 31
0.0
  0
LINE
  5
2F8
330
208
100
AcDbEntity
  8
0
  6
Continuous
 62
     7
100
AcDbLine
 10
170.0017782655
 20
168.6735580025
 30
0.0
 11
170.0017782655
 21
174.6735580025
 31
0.0
  0
LINE
  5
2F9
330
208
100
AcDbEntity
  8
0
  6
Continuous
 62
     7
100
AcDbLine
 10
170.0017782655
 20
181.1735580025
 30
0.0
 11
170.0017782655
 21
187.1735580025
 31
0.0
  0
LINE
  5
2FA
330
208
100
AcDbEntity
  8
0
  6
Continuous
 62
     7
100
AcDbLine
 10
170.0017782655
 20
193.6735580025
 30
0.0
 11
170.0017782655
 21
199.6735580025
 31
0.0
  0
LINE
  5
2FB
330
208
100
AcDbEntity
  8
0
  6
Continuous
 62
     7
100
AcDbLine
 10
170.0017782655
 20
206.1735580025
 30
0.0
 11
170.0017782655
 21
212.1735580025
 31
0.0
  0
LINE
  5
2FC
330
208
100
AcDbEntity
  8
0
  6
Continuous
 62
     7
100
AcDbLine
 10
176.0017782655
 20
212.1735580025
 30
0.0
 11
176.0017782655
 21
206.1735580025
 31
0.0
  0
LINE
  5
2FD
330
208
100
AcDbEntity
  8
0
  6
Continuous
 62
     7
100
AcDbLine
 10
176.0017782655
 20
199.6735580025
 30
0.0
 11
176.0017782655
 21
193.6735580025
 31
0.0
  0
LINE
  5
2FE
330
208
100
AcDbEntity
  8
0
  6
Continuous
 62
     7
100
AcDbLine
 10
176.0017782655
 20
187.1735580025
 30
0.0
 11
176.0017782655
 21
181.1735580025
 31
0.0
  0
LINE
  5
2FF
330
208
100
AcDbEntity
  8
0
  6
Continuous
 62
     7
100
AcDbLine
 10
176.0017782655
 20
174.6735580025
 30
0.0
 11
176.0017782655
 21
168.6735580025
 31
0.0
  0
LINE
  5
300
330
208
100
AcDbEntity
  8
0
  6
Continuous
 62
     7
100
AcDbLine
 10
182.5017782655
 20
168.6735580025
 30
0.0
 11
182.5017782655
 21
174.6735580025
 31
0.0
  0
LINE
  5
301
330
208
100
AcDbEntity
  8
0
  6
Continuous
 62
     7
100
AcDbLine
 10
182.5017782655
 20
181.1735580025
 30
0.0
 11
182.5017782655
 21
187.1735580025
 31
0.0
  0
LINE
  5
302
330
208
100
AcDbEntity
  8
0
  6
Continuous
 62
     7
100
AcDbLine
 10
182.5017782655
 20
193.6735580025
 30
0.0
 11
182.5017782655
 21
199.6735580025
 31
0.0
  0
LINE
  5
303
330
208
100
AcDbEntity
  8
0
  6
Continuous
 62
     7
100
AcDbLine
 10
182.5017782655
 20
206.1735580025
 30
0.0
 11
182.5017782655
 21
212.1735580025
 31
0.0
  0
LINE
  5
304
330
208
100
AcDbEntity
  8
0
  6
Continuous
 62
     7
100
AcDbLine
 10
188.5017782655
 20
212.1735580025
 30
0.0
 11
188.5017782655
 21
206.1735580025
 31
0.0
  0
LINE
  5
305
330
208
100
AcDbEntity
  8
0
  6
Continuous
 62
     7
100
AcDbLine
 10
188.5017782655
 20
199.6735580025
 30
0.0
 11
188.5017782655
 21
193.6735580025
 31
0.0
  0
LINE
  5
306
330
208
100
AcDbEntity
  8
0
  6
Continuous
 62
     7
100
AcDbLine
 10
188.5017782655
 20
187.1735580025
 30
0.0
 11
188.5017782655
 21
181.1735580025
 31
0.0
  0
LINE
  5
307
330
208
100
AcDbEntity
  8
0
  6
Continuous
 62
     7
100
AcDbLine
 10
188.5017782655
 20
174.6735580025
 30
0.0
 11
188.5017782655
 21
168.6735580025
 31
0.0
  0
LINE
  5
308
330
208
100
AcDbEntity
  8
0
  6
Continuous
 62
     7
100
AcDbLine
 10
195.0017782655
 20
168.6735580025
 30
0.0
 11
195.0017782655
 21
174.6735580025
 31
0.0
  0
LINE
  5
309
330
208
100
AcDbEntity
  8
0
  6
Continuous
 62
     7
100
AcDbLine
 10
195.0017782655
 20
181.1735580025
 30
0.0
 11
195.0017782655
 21
187.1735580025
 31
0.0
  0
LINE
  5
30A
330
208
100
AcDbEntity
  8
0
  6
Continuous
 62
     7
100
AcDbLine
 10
195.0017782655
 20
193.6735580025
 30
0.0
 11
195.0017782655
 21
199.6735580025
 31
0.0
  0
LINE
  5
30B
330
208
100
AcDbEntity
  8
0
  6
Continuous
 62
     7
100
AcDbLine
 10
195.0017782655
 20
206.1735580025
 30
0.0
 11
195.0017782655
 21
212.1735580025
 31
0.0
  0
LINE
  5
30C
102
{ACAD_REACTORS
330
84A
102
}
330
208
100
AcDbEntity
  8
0
  6
Continuous
 62
     7
100
AcDbLine
 10
-122.2482217345
 20
159.4222421889
 30
0.0
 11
555.7517782655
 21
159.4222421889
 31
0.0
  0
LINE
  5
30D
330
208
100
AcDbEntity
  8
BEZUGSACHSEN
  6
Continuous
 62
     9
100
AcDbLine
 10
-122.2482217345
 20
163.3810938634
 30
0.0
 11
555.7517782655
 21
163.3810938634
 31
0.0
  0
LINE
  5
30E
330
208
100
AcDbEntity
  8
BEZUGSACHSEN
  6
Continuous
 62
     9
100
AcDbLine
 10
-122.2482217345
 20
164.3804559048
 30
0.0
 11
555.7517782655
 21
164.3804559048
 31
0.0
  0
LINE
  5
30F
330
208
100
AcDbEntity
  8
0
  6
Continuous
 62
     7
100
AcDbLine
 10
530.6758625279
 20
168.6735580025
 30
0.0
 11
530.6747782655
 21
168.6735580025
 31
0.0
  0
LINE
  5
310
330
208
100
AcDbEntity
  8
0
  6
Continuous
 62
     7
100
AcDbLine
 10
529.7518519865
 20
168.6735580025
 30
0.0
 11
529.7517782654997
 21
168.6735580025
 31
0.0
  0
LINE
  5
311
330
208
100
AcDbEntity
  8
0
  6
Continuous
 62
     7
100
AcDbLine
 10
526.0017782654997
 20
168.6735580025
 30
0.0
 11
520.0017782655
 21
168.6735580025
 31
0.0
  0
LINE
  5
312
330
208
100
AcDbEntity
  8
0
  6
Continuous
 62
     7
100
AcDbLine
 10
513.5017782654997
 20
168.6735580025
 30
0.0
 11
507.5017782655
 21
168.6735580025
 31
0.0
  0
LINE
  5
313
330
208
100
AcDbEntity
  8
0
  6
Continuous
 62
     7
100
AcDbLine
 10
501.0017782655
 20
168.6735580025
 30
0.0
 11
495.0017782655
 21
168.6735580025
 31
0.0
  0
LINE
  5
314
330
208
100
AcDbEntity
  8
0
  6
Continuous
 62
     7
100
AcDbLine
 10
488.5017782655
 20
168.6735580025
 30
0.0
 11
482.5017782655
 21
168.6735580025
 31
0.0
  0
LINE
  5
315
330
208
100
AcDbEntity
  8
0
  6
Continuous
 62
     7
100
AcDbLine
 10
476.0017782655
 20
168.6735580025
 30
0.0
 11
470.0017782655
 21
168.6735580025
 31
0.0
  0
LINE
  5
316
330
208
100
AcDbEntity
  8
0
  6
Continuous
 62
     7
100
AcDbLine
 10
463.5017782655
 20
168.6735580025
 30
0.0
 11
457.5017782655
 21
168.6735580025
 31
0.0
  0
LINE
  5
317
330
208
100
AcDbEntity
  8
0
  6
Continuous
 62
     7
100
AcDbLine
 10
451.0017782655
 20
168.6735580025
 30
0.0
 11
445.0017782655
 21
168.6735580025
 31
0.0
  0
LINE
  5
318
330
208
100
AcDbEntity
  8
0
  6
Continuous
 62
     7
100
AcDbLine
 10
438.5017782655
 20
168.6735580025
 30
0.0
 11
432.5017782655
 21
168.6735580025
 31
0.0
  0
LINE
  5
319
330
208
100
AcDbEntity
  8
0
  6
Continuous
 62
     7
100
AcDbLine
 10
426.0017782655
 20
168.6735580025
 30
0.0
 11
420.0017782655
 21
168.6735580025
 31
0.0
  0
LINE
  5
31A
330
208
100
AcDbEntity
  8
0
  6
Continuous
 62
     7
100
AcDbLine
 10
413.5017782655
 20
168.6735580025
 30
0.0
 11
407.5017782655
 21
168.6735580025
 31
0.0
  0
LINE
  5
31B
330
208
100
AcDbEntity
  8
0
  6
Continuous
 62
     7
100
AcDbLine
 10
401.0017782655
 20
168.6735580025
 30
0.0
 11
395.0017782655
 21
168.6735580025
 31
0.0
  0
LINE
  5
31C
330
208
100
AcDbEntity
  8
0
  6
Continuous
 62
     7
100
AcDbLine
 10
388.5017782655
 20
168.6735580025
 30
0.0
 11
382.5017782655
 21
168.6735580025
 31
0.0
  0
LINE
  5
31D
330
208
100
AcDbEntity
  8
0
  6
Continuous
 62
     7
100
AcDbLine
 10
376.0017782655
 20
168.6735580025
 30
0.0
 11
370.0017782655
 21
168.6735580025
 31
0.0
  0
LINE
  5
31E
330
208
100
AcDbEntity
  8
0
  6
Continuous
 62
     7
100
AcDbLine
 10
363.5017782655
 20
168.6735580025
 30
0.0
 11
357.5017782655
 21
168.6735580025
 31
0.0
  0
LINE
  5
31F
330
208
100
AcDbEntity
  8
0
  6
Continuous
 62
     7
100
AcDbLine
 10
351.0017782655
 20
168.6735580025
 30
0.0
 11
345.0017782655
 21
168.6735580025
 31
0.0
  0
LINE
  5
320
330
208
100
AcDbEntity
  8
0
  6
Continuous
 62
     7
100
AcDbLine
 10
338.5017782655
 20
168.6735580025
 30
0.0
 11
332.5017782655
 21
168.6735580025
 31
0.0
  0
LINE
  5
321
330
208
100
AcDbEntity
  8
0
  6
Continuous
 62
     7
100
AcDbLine
 10
326.0017782655
 20
168.6735580025
 30
0.0
 11
320.0017782655
 21
168.6735580025
 31
0.0
  0
LINE
  5
322
330
208
100
AcDbEntity
  8
0
  6
Continuous
 62
     7
100
AcDbLine
 10
313.5017782655
 20
168.6735580025
 30
0.0
 11
307.5017782655
 21
168.6735580025
 31
0.0
  0
LINE
  5
323
330
208
100
AcDbEntity
  8
0
  6
Continuous
 62
     7
100
AcDbLine
 10
301.0017782655
 20
168.6735580025
 30
0.0
 11
295.0017782655
 21
168.6735580025
 31
0.0
  0
LINE
  5
324
330
208
100
AcDbEntity
  8
0
  6
Continuous
 62
     7
100
AcDbLine
 10
288.5017782655
 20
168.6735580025
 30
0.0
 11
282.5017782655
 21
168.6735580025
 31
0.0
  0
LINE
  5
325
330
208
100
AcDbEntity
  8
0
  6
Continuous
 62
     7
100
AcDbLine
 10
276.0017782655
 20
168.6735580025
 30
0.0
 11
270.0017782655
 21
168.6735580025
 31
0.0
  0
LINE
  5
326
330
208
100
AcDbEntity
  8
0
  6
Continuous
 62
     7
100
AcDbLine
 10
263.5017782655
 20
168.6735580025
 30
0.0
 11
257.5017782655
 21
168.6735580025
 31
0.0
  0
LINE
  5
327
330
208
100
AcDbEntity
  8
0
  6
Continuous
 62
     7
100
AcDbLine
 10
251.0017782655
 20
168.6735580025
 30
0.0
 11
245.0017782655
 21
168.6735580025
 31
0.0
  0
LINE
  5
328
330
208
100
AcDbEntity
  8
0
  6
Continuous
 62
     7
100
AcDbLine
 10
238.5017782655
 20
168.6735580025
 30
0.0
 11
232.5017782655
 21
168.6735580025
 31
0.0
  0
LINE
  5
329
330
208
100
AcDbEntity
  8
0
  6
Continuous
 62
     7
100
AcDbLine
 10
226.0017782655
 20
168.6735580025
 30
0.0
 11
220.0017782655
 21
168.6735580025
 31
0.0
  0
LINE
  5
32A
330
208
100
AcDbEntity
  8
0
  6
Continuous
 62
     7
100
AcDbLine
 10
213.5017782655
 20
168.6735580025
 30
0.0
 11
207.5017782655
 21
168.6735580025
 31
0.0
  0
LINE
  5
32B
330
208
100
AcDbEntity
  8
0
  6
Continuous
 62
     7
100
AcDbLine
 10
201.0017782655
 20
168.6735580025
 30
0.0
 11
195.0017782655
 21
168.6735580025
 31
0.0
  0
LINE
  5
32C
330
208
100
AcDbEntity
  8
0
  6
Continuous
 62
     7
100
AcDbLine
 10
188.5017782655
 20
168.6735580025
 30
0.0
 11
182.5017782655
 21
168.6735580025
 31
0.0
  0
LINE
  5
32D
330
208
100
AcDbEntity
  8
0
  6
Continuous
 62
     7
100
AcDbLine
 10
176.0017782655
 20
168.6735580025
 30
0.0
 11
170.0017782655
 21
168.6735580025
 31
0.0
  0
LINE
  5
32E
330
208
100
AcDbEntity
  8
0
  6
Continuous
 62
     7
100
AcDbLine
 10
163.5017782655
 20
168.6735580025
 30
0.0
 11
157.5017782655
 21
168.6735580025
 31
0.0
  0
LINE
  5
32F
330
208
100
AcDbEntity
  8
0
  6
Continuous
 62
     7
100
AcDbLine
 10
151.0017782655
 20
168.6735580025
 30
0.0
 11
145.0017782655
 21
168.6735580025
 31
0.0
  0
LINE
  5
330
330
208
100
AcDbEntity
  8
0
  6
Continuous
 62
     7
100
AcDbLine
 10
138.5017782655
 20
168.6735580025
 30
0.0
 11
132.5017782655
 21
168.6735580025
 31
0.0
  0
LINE
  5
331
330
208
100
AcDbEntity
  8
0
  6
Continuous
 62
     7
100
AcDbLine
 10
126.0017782655
 20
168.6735580025
 30
0.0
 11
120.0017782655
 21
168.6735580025
 31
0.0
  0
LINE
  5
332
330
208
100
AcDbEntity
  8
0
  6
Continuous
 62
     7
100
AcDbLine
 10
113.5017782655
 20
168.6735580025
 30
0.0
 11
107.5017782655
 21
168.6735580025
 31
0.0
  0
LINE
  5
333
330
208
100
AcDbEntity
  8
0
  6
Continuous
 62
     7
100
AcDbLine
 10
101.0017782655
 20
168.6735580025
 30
0.0
 11
95.00177826549998
 21
168.6735580025
 31
0.0
  0
LINE
  5
334
330
208
100
AcDbEntity
  8
0
  6
Continuous
 62
     7
100
AcDbLine
 10
88.5017782655
 20
168.6735580025
 30
0.0
 11
82.5017782655
 21
168.6735580025
 31
0.0
  0
LINE
  5
335
330
208
100
AcDbEntity
  8
0
  6
Continuous
 62
     7
100
AcDbLine
 10
76.00177826550001
 20
168.6735580025
 30
0.0
 11
70.0017782655
 21
168.6735580025
 31
0.0
  0
LINE
  5
336
330
208
100
AcDbEntity
  8
0
  6
Continuous
 62
     7
100
AcDbLine
 10
63.5017782655
 20
168.6735580025
 30
0.0
 11
57.5017782655
 21
168.6735580025
 31
0.0
  0
LINE
  5
337
330
208
100
AcDbEntity
  8
0
  6
Continuous
 62
     7
100
AcDbLine
 10
51.0017782655
 20
168.6735580025
 30
0.0
 11
45.00177826549999
 21
168.6735580025
 31
0.0
  0
LINE
  5
338
330
208
100
AcDbEntity
  8
0
  6
Continuous
 62
     7
100
AcDbLine
 10
38.5017782655
 20
168.6735580025
 30
0.0
 11
32.5017782655
 21
168.6735580025
 31
0.0
  0
LINE
  5
339
330
208
100
AcDbEntity
  8
0
  6
Continuous
 62
     7
100
AcDbLine
 10
26.0017782655
 20
168.6735580025
 30
0.0
 11
20.0017782655
 21
168.6735580025
 31
0.0
  0
LINE
  5
33A
330
208
100
AcDbEntity
  8
0
  6
Continuous
 62
     7
100
AcDbLine
 10
13.5017782655
 20
168.6735580025
 30
0.0
 11
7.501778265499999
 21
168.6735580025
 31
0.0
  0
LINE
  5
33B
330
208
100
AcDbEntity
  8
0
  6
Continuous
 62
     7
100
AcDbLine
 10
1.0017782655
 20
168.6735580025
 30
0.0
 11
-4.998221734499999
 21
168.6735580025
 31
0.0
  0
LINE
  5
33C
330
208
100
AcDbEntity
  8
0
  6
Continuous
 62
     7
100
AcDbLine
 10
-11.4982217345
 20
168.6735580025
 30
0.0
 11
-17.4982217345
 21
168.6735580025
 31
0.0
  0
LINE
  5
33D
330
208
100
AcDbEntity
  8
0
  6
Continuous
 62
     7
100
AcDbLine
 10
-23.9982217345
 20
168.6735580025
 30
0.0
 11
-29.9982217345
 21
168.6735580025
 31
0.0
  0
LINE
  5
33E
330
208
100
AcDbEntity
  8
0
  6
Continuous
 62
     7
100
AcDbLine
 10
-36.4982217345
 20
168.6735580025
 30
0.0
 11
-42.4982217345
 21
168.6735580025
 31
0.0
  0
LINE
  5
33F
330
208
100
AcDbEntity
  8
0
  6
Continuous
 62
     7
100
AcDbLine
 10
-48.9982217345
 20
168.6735580025
 30
0.0
 11
-54.9982217345
 21
168.6735580025
 31
0.0
  0
LINE
  5
340
330
208
100
AcDbEntity
  8
0
  6
Continuous
 62
     7
100
AcDbLine
 10
-61.4982217345
 20
168.6735580025
 30
0.0
 11
-67.49822173449999
 21
168.6735580025
 31
0.0
  0
LINE
  5
341
330
208
100
AcDbEntity
  8
0
  6
Continuous
 62
     7
100
AcDbLine
 10
-73.99822173449999
 20
168.6735580025
 30
0.0
 11
-79.99822173449999
 21
168.6735580025
 31
0.0
  0
LINE
  5
342
330
208
100
AcDbEntity
  8
0
  6
Continuous
 62
     7
100
AcDbLine
 10
-86.49822173450001
 20
168.6735580025
 30
0.0
 11
-92.49822173450001
 21
168.6735580025
 31
0.0
  0
LINE
  5
343
330
208
100
AcDbEntity
  8
0
  6
Continuous
 62
     7
100
AcDbLine
 10
-98.99822173450001
 20
168.6735580025
 30
0.0
 11
-104.9982217345
 21
168.6735580025
 31
0.0
  0
LINE
  5
344
330
208
100
AcDbEntity
  8
0
  6
Continuous
 62
     7
100
AcDbLine
 10
-111.4982217345
 20
168.6735580025
 30
0.0
 11
-117.4982217345
 21
168.6735580025
 31
0.0
  0
LINE
  5
345
330
208
100
AcDbEntity
  8
0
  6
Continuous
 62
     7
100
AcDbLine
 10
529.7518519865
 20
168.6735580025
 30
0.0
 11
530.6758625279
 21
168.6735580025
 31
0.0
  0
LINE
  5
346
330
208
100
AcDbEntity
  8
0
  6
Continuous
 62
     7
100
AcDbLine
 10
534.8296940162
 20
168.6735580025
 30
0.0
 11
534.8297782655
 21
168.6735580025
 31
0.0
  0
LINE
  5
347
330
208
100
AcDbEntity
  8
0
  6
Continuous
 62
     7
100
AcDbLine
 10
534.8296940162
 20
168.6735580025
 30
0.0
 11
535.7527045446
 21
168.6735580025
 31
0.0
  0
LINE
  5
348
330
208
100
AcDbEntity
  8
0
  6
Continuous
 62
     7
100
AcDbLine
 10
535.7527045446
 20
168.6735580025
 30
0.0
 11
535.7527782655
 21
168.6735580025
 31
0.0
  0
LINE
  5
349
330
208
100
AcDbEntity
  8
0
  6
Continuous
 62
     7
100
AcDbLine
 10
534.7714962920998
 20
169.5065580025
 30
0.0
 11
534.7707782655
 21
169.5065580025
 31
0.0
  0
LINE
  5
34A
330
208
100
AcDbEntity
  8
0
  6
Continuous
 62
     7
100
AcDbLine
 10
530.7340693401997
 20
169.5065580025
 30
0.0
 11
530.7327782655
 21
169.5065580025
 31
0.0
  0
LINE
  5
34B
330
208
100
AcDbEntity
  8
0
  6
Continuous
 62
     7
100
AcDbLine
 10
530.7340693401997
 20
169.5065580025
 30
0.0
 11
534.7714962920998
 21
169.5065580025
 31
0.0
  0
LINE
  5
34C
330
208
100
AcDbEntity
  8
0
  6
Continuous
 62
     7
100
AcDbLine
 10
530.9283561506998
 20
170.4295580025
 30
0.0
 11
530.9277782655
 21
170.4295580025
 31
0.0
  0
LINE
  5
34D
330
208
100
AcDbEntity
  8
0
  6
Continuous
 62
     7
100
AcDbLine
 10
534.5772410501998
 20
170.4295580025
 30
0.0
 11
530.9283561506998
 21
170.4295580025
 31
0.0
  0
LINE
  5
34E
330
208
100
AcDbEntity
  8
0
  6
Continuous
 62
     7
100
AcDbLine
 10
201.0017782655
 20
212.1735580025
 30
0.0
 11
201.0017782655
 21
206.1735580025
 31
0.0
  0
LINE
  5
34F
330
208
100
AcDbEntity
  8
0
  6
Continuous
 62
     7
100
AcDbLine
 10
201.0017782655
 20
199.6735580025
 30
0.0
 11
201.0017782655
 21
193.6735580025
 31
0.0
  0
LINE
  5
350
330
208
100
AcDbEntity
  8
0
  6
Continuous
 62
     7
100
AcDbLine
 10
201.0017782655
 20
187.1735580025
 30
0.0
 11
201.0017782655
 21
181.1735580025
 31
0.0
  0
LINE
  5
351
330
208
100
AcDbEntity
  8
0
  6
Continuous
 62
     7
100
AcDbLine
 10
201.0017782655
 20
174.6735580025
 30
0.0
 11
201.0017782655
 21
168.6735580025
 31
0.0
  0
LINE
  5
352
330
208
100
AcDbEntity
  8
0
  6
Continuous
 62
     7
100
AcDbLine
 10
207.5017782655
 20
168.6735580025
 30
0.0
 11
207.5017782655
 21
174.6735580025
 31
0.0
  0
LINE
  5
353
330
208
100
AcDbEntity
  8
0
  6
Continuous
 62
     7
100
AcDbLine
 10
207.5017782655
 20
181.1735580025
 30
0.0
 11
207.5017782655
 21
187.1735580025
 31
0.0
  0
LINE
  5
354
330
208
100
AcDbEntity
  8
0
  6
Continuous
 62
     7
100
AcDbLine
 10
207.5017782655
 20
193.6735580025
 30
0.0
 11
207.5017782655
 21
199.6735580025
 31
0.0
  0
LINE
  5
355
330
208
100
AcDbEntity
  8
0
  6
Continuous
 62
     7
100
AcDbLine
 10
207.5017782655
 20
206.1735580025
 30
0.0
 11
207.5017782655
 21
212.1735580025
 31
0.0
  0
LINE
  5
356
330
208
100
AcDbEntity
  8
0
  6
Continuous
 62
     7
100
AcDbLine
 10
213.5017782655
 20
212.1735580025
 30
0.0
 11
213.5017782655
 21
206.1735580025
 31
0.0
  0
LINE
  5
357
330
208
100
AcDbEntity
  8
0
  6
Continuous
 62
     7
100
AcDbLine
 10
213.5017782655
 20
199.6735580025
 30
0.0
 11
213.5017782655
 21
193.6735580025
 31
0.0
  0
LINE
  5
358
330
208
100
AcDbEntity
  8
0
  6
Continuous
 62
     7
100
AcDbLine
 10
213.5017782655
 20
187.1735580025
 30
0.0
 11
213.5017782655
 21
181.1735580025
 31
0.0
  0
LINE
  5
359
330
208
100
AcDbEntity
  8
0
  6
Continuous
 62
     7
100
AcDbLine
 10
213.5017782655
 20
174.6735580025
 30
0.0
 11
213.5017782655
 21
168.6735580025
 31
0.0
  0
LINE
  5
35A
330
208
100
AcDbEntity
  8
0
  6
Continuous
 62
     7
100
AcDbLine
 10
-117.4982217345
 20
174.6735580025
 30
0.0
 11
-111.4982217345
 21
174.6735580025
 31
0.0
  0
LINE
  5
35B
330
208
100
AcDbEntity
  8
0
  6
Continuous
 62
     7
100
AcDbLine
 10
-104.9982217345
 20
174.6735580025
 30
0.0
 11
-98.99822173450001
 21
174.6735580025
 31
0.0
  0
LINE
  5
35C
330
208
100
AcDbEntity
  8
0
  6
Continuous
 62
     7
100
AcDbLine
 10
-92.49822173450001
 20
174.6735580025
 30
0.0
 11
-86.49822173450001
 21
174.6735580025
 31
0.0
  0
LINE
  5
35D
330
208
100
AcDbEntity
  8
0
  6
Continuous
 62
     7
100
AcDbLine
 10
-79.99822173449999
 20
174.6735580025
 30
0.0
 11
-73.99822173449999
 21
174.6735580025
 31
0.0
  0
LINE
  5
35E
330
208
100
AcDbEntity
  8
0
  6
Continuous
 62
     7
100
AcDbLine
 10
-67.49822173449999
 20
174.6735580025
 30
0.0
 11
-61.4982217345
 21
174.6735580025
 31
0.0
  0
LINE
  5
35F
330
208
100
AcDbEntity
  8
0
  6
Continuous
 62
     7
100
AcDbLine
 10
-54.9982217345
 20
174.6735580025
 30
0.0
 11
-48.9982217345
 21
174.6735580025
 31
0.0
  0
LINE
  5
360
330
208
100
AcDbEntity
  8
0
  6
Continuous
 62
     7
100
AcDbLine
 10
-42.4982217345
 20
174.6735580025
 30
0.0
 11
-36.4982217345
 21
174.6735580025
 31
0.0
  0
LINE
  5
361
330
208
100
AcDbEntity
  8
0
  6
Continuous
 62
     7
100
AcDbLine
 10
-29.9982217345
 20
174.6735580025
 30
0.0
 11
-23.9982217345
 21
174.6735580025
 31
0.0
  0
LINE
  5
362
330
208
100
AcDbEntity
  8
0
  6
Continuous
 62
     7
100
AcDbLine
 10
-17.4982217345
 20
174.6735580025
 30
0.0
 11
-11.4982217345
 21
174.6735580025
 31
0.0
  0
LINE
  5
363
330
208
100
AcDbEntity
  8
0
  6
Continuous
 62
     7
100
AcDbLine
 10
-4.998221734499999
 20
174.6735580025
 30
0.0
 11
1.0017782655
 21
174.6735580025
 31
0.0
  0
LINE
  5
364
330
208
100
AcDbEntity
  8
0
  6
Continuous
 62
     7
100
AcDbLine
 10
7.501778265499999
 20
174.6735580025
 30
0.0
 11
13.5017782655
 21
174.6735580025
 31
0.0
  0
LINE
  5
365
330
208
100
AcDbEntity
  8
0
  6
Continuous
 62
     7
100
AcDbLine
 10
20.0017782655
 20
174.6735580025
 30
0.0
 11
26.0017782655
 21
174.6735580025
 31
0.0
  0
LINE
  5
366
330
208
100
AcDbEntity
  8
0
  6
Continuous
 62
     7
100
AcDbLine
 10
32.5017782655
 20
174.6735580025
 30
0.0
 11
38.5017782655
 21
174.6735580025
 31
0.0
  0
LINE
  5
367
330
208
100
AcDbEntity
  8
0
  6
Continuous
 62
     7
100
AcDbLine
 10
45.00177826549999
 20
174.6735580025
 30
0.0
 11
51.0017782655
 21
174.6735580025
 31
0.0
  0
LINE
  5
368
330
208
100
AcDbEntity
  8
0
  6
Continuous
 62
     7
100
AcDbLine
 10
57.5017782655
 20
174.6735580025
 30
0.0
 11
63.5017782655
 21
174.6735580025
 31
0.0
  0
LINE
  5
369
330
208
100
AcDbEntity
  8
0
  6
Continuous
 62
     7
100
AcDbLine
 10
70.0017782655
 20
174.6735580025
 30
0.0
 11
76.00177826550001
 21
174.6735580025
 31
0.0
  0
LINE
  5
36A
330
208
100
AcDbEntity
  8
0
  6
Continuous
 62
     7
100
AcDbLine
 10
82.5017782655
 20
174.6735580025
 30
0.0
 11
88.5017782655
 21
174.6735580025
 31
0.0
  0
LINE
  5
36B
330
208
100
AcDbEntity
  8
0
  6
Continuous
 62
     7
100
AcDbLine
 10
95.00177826549998
 20
174.6735580025
 30
0.0
 11
101.0017782655
 21
174.6735580025
 31
0.0
  0
LINE
  5
36C
330
208
100
AcDbEntity
  8
0
  6
Continuous
 62
     7
100
AcDbLine
 10
107.5017782655
 20
174.6735580025
 30
0.0
 11
113.5017782655
 21
174.6735580025
 31
0.0
  0
LINE
  5
36D
330
208
100
AcDbEntity
  8
0
  6
Continuous
 62
     7
100
AcDbLine
 10
120.0017782655
 20
174.6735580025
 30
0.0
 11
126.0017782655
 21
174.6735580025
 31
0.0
  0
LINE
  5
36E
330
208
100
AcDbEntity
  8
0
  6
Continuous
 62
     7
100
AcDbLine
 10
132.5017782655
 20
174.6735580025
 30
0.0
 11
138.5017782655
 21
174.6735580025
 31
0.0
  0
LINE
  5
36F
330
208
100
AcDbEntity
  8
0
  6
Continuous
 62
     7
100
AcDbLine
 10
145.0017782655
 20
174.6735580025
 30
0.0
 11
151.0017782655
 21
174.6735580025
 31
0.0
  0
LINE
  5
370
330
208
100
AcDbEntity
  8
0
  6
Continuous
 62
     7
100
AcDbLine
 10
157.5017782655
 20
174.6735580025
 30
0.0
 11
163.5017782655
 21
174.6735580025
 31
0.0
  0
LINE
  5
371
330
208
100
AcDbEntity
  8
0
  6
Continuous
 62
     7
100
AcDbLine
 10
170.0017782655
 20
174.6735580025
 30
0.0
 11
176.0017782655
 21
174.6735580025
 31
0.0
  0
LINE
  5
372
330
208
100
AcDbEntity
  8
0
  6
Continuous
 62
     7
100
AcDbLine
 10
182.5017782655
 20
174.6735580025
 30
0.0
 11
188.5017782655
 21
174.6735580025
 31
0.0
  0
LINE
  5
373
330
208
100
AcDbEntity
  8
0
  6
Continuous
 62
     7
100
AcDbLine
 10
195.0017782655
 20
174.6735580025
 30
0.0
 11
201.0017782655
 21
174.6735580025
 31
0.0
  0
LINE
  5
374
330
208
100
AcDbEntity
  8
0
  6
Continuous
 62
     7
100
AcDbLine
 10
207.5017782655
 20
174.6735580025
 30
0.0
 11
213.5017782655
 21
174.6735580025
 31
0.0
  0
LINE
  5
375
330
208
100
AcDbEntity
  8
0
  6
Continuous
 62
     7
100
AcDbLine
 10
220.0017782655
 20
174.6735580025
 30
0.0
 11
226.0017782655
 21
174.6735580025
 31
0.0
  0
LINE
  5
376
330
208
100
AcDbEntity
  8
0
  6
Continuous
 62
     7
100
AcDbLine
 10
232.5017782655
 20
174.6735580025
 30
0.0
 11
238.5017782655
 21
174.6735580025
 31
0.0
  0
LINE
  5
377
330
208
100
AcDbEntity
  8
0
  6
Continuous
 62
     7
100
AcDbLine
 10
245.0017782655
 20
174.6735580025
 30
0.0
 11
251.0017782655
 21
174.6735580025
 31
0.0
  0
LINE
  5
378
330
208
100
AcDbEntity
  8
0
  6
Continuous
 62
     7
100
AcDbLine
 10
257.5017782655
 20
174.6735580025
 30
0.0
 11
263.5017782655
 21
174.6735580025
 31
0.0
  0
LINE
  5
379
330
208
100
AcDbEntity
  8
0
  6
Continuous
 62
     7
100
AcDbLine
 10
270.0017782655
 20
174.6735580025
 30
0.0
 11
276.0017782655
 21
174.6735580025
 31
0.0
  0
LINE
  5
37A
330
208
100
AcDbEntity
  8
0
  6
Continuous
 62
     7
100
AcDbLine
 10
282.5017782655
 20
174.6735580025
 30
0.0
 11
288.5017782655
 21
174.6735580025
 31
0.0
  0
LINE
  5
37B
330
208
100
AcDbEntity
  8
0
  6
Continuous
 62
     7
100
AcDbLine
 10
295.0017782655
 20
174.6735580025
 30
0.0
 11
301.0017782655
 21
174.6735580025
 31
0.0
  0
LINE
  5
37C
330
208
100
AcDbEntity
  8
0
  6
Continuous
 62
     7
100
AcDbLine
 10
307.5017782655
 20
174.6735580025
 30
0.0
 11
313.5017782655
 21
174.6735580025
 31
0.0
  0
LINE
  5
37D
330
208
100
AcDbEntity
  8
0
  6
Continuous
 62
     7
100
AcDbLine
 10
320.0017782655
 20
174.6735580025
 30
0.0
 11
326.0017782655
 21
174.6735580025
 31
0.0
  0
LINE
  5
37E
330
208
100
AcDbEntity
  8
0
  6
Continuous
 62
     7
100
AcDbLine
 10
332.5017782655
 20
174.6735580025
 30
0.0
 11
338.5017782655
 21
174.6735580025
 31
0.0
  0
LINE
  5
37F
330
208
100
AcDbEntity
  8
0
  6
Continuous
 62
     7
100
AcDbLine
 10
345.0017782655
 20
174.6735580025
 30
0.0
 11
351.0017782655
 21
174.6735580025
 31
0.0
  0
LINE
  5
380
330
208
100
AcDbEntity
  8
0
  6
Continuous
 62
     7
100
AcDbLine
 10
357.5017782655
 20
174.6735580025
 30
0.0
 11
363.5017782655
 21
174.6735580025
 31
0.0
  0
LINE
  5
381
330
208
100
AcDbEntity
  8
0
  6
Continuous
 62
     7
100
AcDbLine
 10
370.0017782655
 20
174.6735580025
 30
0.0
 11
376.0017782655
 21
174.6735580025
 31
0.0
  0
LINE
  5
382
330
208
100
AcDbEntity
  8
0
  6
Continuous
 62
     7
100
AcDbLine
 10
382.5017782655
 20
174.6735580025
 30
0.0
 11
388.5017782655
 21
174.6735580025
 31
0.0
  0
LINE
  5
383
330
208
100
AcDbEntity
  8
0
  6
Continuous
 62
     7
100
AcDbLine
 10
395.0017782655
 20
174.6735580025
 30
0.0
 11
401.0017782655
 21
174.6735580025
 31
0.0
  0
LINE
  5
384
330
208
100
AcDbEntity
  8
0
  6
Continuous
 62
     7
100
AcDbLine
 10
407.5017782655
 20
174.6735580025
 30
0.0
 11
413.5017782655
 21
174.6735580025
 31
0.0
  0
LINE
  5
385
330
208
100
AcDbEntity
  8
0
  6
Continuous
 62
     7
100
AcDbLine
 10
420.0017782655
 20
174.6735580025
 30
0.0
 11
426.0017782655
 21
174.6735580025
 31
0.0
  0
LINE
  5
386
330
208
100
AcDbEntity
  8
0
  6
Continuous
 62
     7
100
AcDbLine
 10
432.5017782655
 20
174.6735580025
 30
0.0
 11
438.5017782655
 21
174.6735580025
 31
0.0
  0
LINE
  5
387
330
208
100
AcDbEntity
  8
0
  6
Continuous
 62
     7
100
AcDbLine
 10
445.0017782655
 20
174.6735580025
 30
0.0
 11
451.0017782655
 21
174.6735580025
 31
0.0
  0
LINE
  5
388
330
208
100
AcDbEntity
  8
0
  6
Continuous
 62
     7
100
AcDbLine
 10
457.5017782655
 20
174.6735580025
 30
0.0
 11
463.5017782655
 21
174.6735580025
 31
0.0
  0
LINE
  5
389
330
208
100
AcDbEntity
  8
0
  6
Continuous
 62
     7
100
AcDbLine
 10
470.0017782655
 20
174.6735580025
 30
0.0
 11
476.0017782655
 21
174.6735580025
 31
0.0
  0
LINE
  5
38A
330
208
100
AcDbEntity
  8
0
  6
Continuous
 62
     7
100
AcDbLine
 10
482.5017782655
 20
174.6735580025
 30
0.0
 11
488.5017782655
 21
174.6735580025
 31
0.0
  0
LINE
  5
38B
330
208
100
AcDbEntity
  8
0
  6
Continuous
 62
     7
100
AcDbLine
 10
495.0017782655
 20
174.6735580025
 30
0.0
 11
501.0017782655
 21
174.6735580025
 31
0.0
  0
LINE
  5
38C
330
208
100
AcDbEntity
  8
0
  6
Continuous
 62
     7
100
AcDbLine
 10
507.5017782655
 20
174.6735580025
 30
0.0
 11
513.5017782654997
 21
174.6735580025
 31
0.0
  0
LINE
  5
38D
330
208
100
AcDbEntity
  8
0
  6
Continuous
 62
     7
100
AcDbLine
 10
520.0017782655
 20
174.6735580025
 30
0.0
 11
526.0017782654997
 21
174.6735580025
 31
0.0
  0
LINE
  5
38E
330
208
100
AcDbEntity
  8
0
  6
Continuous
 62
     7
100
AcDbLine
 10
551.0017782654997
 20
181.1735580025
 30
0.0
 11
545.0017782655
 21
181.1735580025
 31
0.0
  0
LINE
  5
38F
330
208
100
AcDbEntity
  8
0
  6
Continuous
 62
     7
100
AcDbLine
 10
538.5017782654997
 20
181.1735580025
 30
0.0
 11
532.5017782655
 21
181.1735580025
 31
0.0
  0
LINE
  5
390
330
208
100
AcDbEntity
  8
0
  6
Continuous
 62
     7
100
AcDbLine
 10
526.0017782654997
 20
181.1735580025
 30
0.0
 11
520.0017782655
 21
181.1735580025
 31
0.0
  0
LINE
  5
391
330
208
100
AcDbEntity
  8
0
  6
Continuous
 62
     7
100
AcDbLine
 10
513.5017782654997
 20
181.1735580025
 30
0.0
 11
507.5017782655
 21
181.1735580025
 31
0.0
  0
LINE
  5
392
330
208
100
AcDbEntity
  8
0
  6
Continuous
 62
     7
100
AcDbLine
 10
501.0017782655
 20
181.1735580025
 30
0.0
 11
495.0017782655
 21
181.1735580025
 31
0.0
  0
LINE
  5
393
330
208
100
AcDbEntity
  8
0
  6
Continuous
 62
     7
100
AcDbLine
 10
488.5017782655
 20
181.1735580025
 30
0.0
 11
482.5017782655
 21
181.1735580025
 31
0.0
  0
LINE
  5
394
330
208
100
AcDbEntity
  8
0
  6
Continuous
 62
     7
100
AcDbLine
 10
476.0017782655
 20
181.1735580025
 30
0.0
 11
470.0017782655
 21
181.1735580025
 31
0.0
  0
LINE
  5
395
330
208
100
AcDbEntity
  8
0
  6
Continuous
 62
     7
100
AcDbLine
 10
463.5017782655
 20
181.1735580025
 30
0.0
 11
457.5017782655
 21
181.1735580025
 31
0.0
  0
LINE
  5
396
330
208
100
AcDbEntity
  8
0
  6
Continuous
 62
     7
100
AcDbLine
 10
451.0017782655
 20
181.1735580025
 30
0.0
 11
445.0017782655
 21
181.1735580025
 31
0.0
  0
LINE
  5
397
330
208
100
AcDbEntity
  8
0
  6
Continuous
 62
     7
100
AcDbLine
 10
438.5017782655
 20
181.1735580025
 30
0.0
 11
432.5017782655
 21
181.1735580025
 31
0.0
  0
LINE
  5
398
330
208
100
AcDbEntity
  8
0
  6
Continuous
 62
     7
100
AcDbLine
 10
426.0017782655
 20
181.1735580025
 30
0.0
 11
420.0017782655
 21
181.1735580025
 31
0.0
  0
LINE
  5
399
330
208
100
AcDbEntity
  8
0
  6
Continuous
 62
     7
100
AcDbLine
 10
413.5017782655
 20
181.1735580025
 30
0.0
 11
407.5017782655
 21
181.1735580025
 31
0.0
  0
LINE
  5
39A
330
208
100
AcDbEntity
  8
0
  6
Continuous
 62
     7
100
AcDbLine
 10
401.0017782655
 20
181.1735580025
 30
0.0
 11
395.0017782655
 21
181.1735580025
 31
0.0
  0
LINE
  5
39B
330
208
100
AcDbEntity
  8
0
  6
Continuous
 62
     7
100
AcDbLine
 10
388.5017782655
 20
181.1735580025
 30
0.0
 11
382.5017782655
 21
181.1735580025
 31
0.0
  0
LINE
  5
39C
330
208
100
AcDbEntity
  8
0
  6
Continuous
 62
     7
100
AcDbLine
 10
376.0017782655
 20
181.1735580025
 30
0.0
 11
370.0017782655
 21
181.1735580025
 31
0.0
  0
LINE
  5
39D
330
208
100
AcDbEntity
  8
0
  6
Continuous
 62
     7
100
AcDbLine
 10
363.5017782655
 20
181.1735580025
 30
0.0
 11
357.5017782655
 21
181.1735580025
 31
0.0
  0
LINE
  5
39E
330
208
100
AcDbEntity
  8
0
  6
Continuous
 62
     7
100
AcDbLine
 10
351.0017782655
 20
181.1735580025
 30
0.0
 11
345.0017782655
 21
181.1735580025
 31
0.0
  0
LINE
  5
39F
330
208
100
AcDbEntity
  8
0
  6
Continuous
 62
     7
100
AcDbLine
 10
338.5017782655
 20
181.1735580025
 30
0.0
 11
332.5017782655
 21
181.1735580025
 31
0.0
  0
LINE
  5
3A0
330
208
100
AcDbEntity
  8
0
  6
Continuous
 62
     7
100
AcDbLine
 10
326.0017782655
 20
181.1735580025
 30
0.0
 11
320.0017782655
 21
181.1735580025
 31
0.0
  0
LINE
  5
3A1
330
208
100
AcDbEntity
  8
0
  6
Continuous
 62
     7
100
AcDbLine
 10
313.5017782655
 20
181.1735580025
 30
0.0
 11
307.5017782655
 21
181.1735580025
 31
0.0
  0
LINE
  5
3A2
330
208
100
AcDbEntity
  8
0
  6
Continuous
 62
     7
100
AcDbLine
 10
301.0017782655
 20
181.1735580025
 30
0.0
 11
295.0017782655
 21
181.1735580025
 31
0.0
  0
LINE
  5
3A3
330
208
100
AcDbEntity
  8
0
  6
Continuous
 62
     7
100
AcDbLine
 10
288.5017782655
 20
181.1735580025
 30
0.0
 11
282.5017782655
 21
181.1735580025
 31
0.0
  0
LINE
  5
3A4
330
208
100
AcDbEntity
  8
0
  6
Continuous
 62
     7
100
AcDbLine
 10
276.0017782655
 20
181.1735580025
 30
0.0
 11
270.0017782655
 21
181.1735580025
 31
0.0
  0
LINE
  5
3A5
330
208
100
AcDbEntity
  8
0
  6
Continuous
 62
     7
100
AcDbLine
 10
263.5017782655
 20
181.1735580025
 30
0.0
 11
257.5017782655
 21
181.1735580025
 31
0.0
  0
LINE
  5
3A6
330
208
100
AcDbEntity
  8
0
  6
Continuous
 62
     7
100
AcDbLine
 10
251.0017782655
 20
181.1735580025
 30
0.0
 11
245.0017782655
 21
181.1735580025
 31
0.0
  0
LINE
  5
3A7
330
208
100
AcDbEntity
  8
0
  6
Continuous
 62
     7
100
AcDbLine
 10
238.5017782655
 20
181.1735580025
 30
0.0
 11
232.5017782655
 21
181.1735580025
 31
0.0
  0
LINE
  5
3A8
330
208
100
AcDbEntity
  8
0
  6
Continuous
 62
     7
100
AcDbLine
 10
226.0017782655
 20
181.1735580025
 30
0.0
 11
220.0017782655
 21
181.1735580025
 31
0.0
  0
LINE
  5
3A9
330
208
100
AcDbEntity
  8
0
  6
Continuous
 62
     7
100
AcDbLine
 10
213.5017782655
 20
181.1735580025
 30
0.0
 11
207.5017782655
 21
181.1735580025
 31
0.0
  0
LINE
  5
3AA
330
208
100
AcDbEntity
  8
0
  6
Continuous
 62
     7
100
AcDbLine
 10
201.0017782655
 20
181.1735580025
 30
0.0
 11
195.0017782655
 21
181.1735580025
 31
0.0
  0
LINE
  5
3AB
330
208
100
AcDbEntity
  8
0
  6
Continuous
 62
     7
100
AcDbLine
 10
188.5017782655
 20
181.1735580025
 30
0.0
 11
182.5017782655
 21
181.1735580025
 31
0.0
  0
LINE
  5
3AC
330
208
100
AcDbEntity
  8
0
  6
Continuous
 62
     7
100
AcDbLine
 10
176.0017782655
 20
181.1735580025
 30
0.0
 11
170.0017782655
 21
181.1735580025
 31
0.0
  0
LINE
  5
3AD
330
208
100
AcDbEntity
  8
0
  6
Continuous
 62
     7
100
AcDbLine
 10
163.5017782655
 20
181.1735580025
 30
0.0
 11
157.5017782655
 21
181.1735580025
 31
0.0
  0
LINE
  5
3AE
330
208
100
AcDbEntity
  8
0
  6
Continuous
 62
     7
100
AcDbLine
 10
151.0017782655
 20
181.1735580025
 30
0.0
 11
145.0017782655
 21
181.1735580025
 31
0.0
  0
LINE
  5
3AF
330
208
100
AcDbEntity
  8
0
  6
Continuous
 62
     7
100
AcDbLine
 10
138.5017782655
 20
181.1735580025
 30
0.0
 11
132.5017782655
 21
181.1735580025
 31
0.0
  0
LINE
  5
3B0
330
208
100
AcDbEntity
  8
0
  6
Continuous
 62
     7
100
AcDbLine
 10
126.0017782655
 20
181.1735580025
 30
0.0
 11
120.0017782655
 21
181.1735580025
 31
0.0
  0
LINE
  5
3B1
330
208
100
AcDbEntity
  8
0
  6
Continuous
 62
     7
100
AcDbLine
 10
113.5017782655
 20
181.1735580025
 30
0.0
 11
107.5017782655
 21
181.1735580025
 31
0.0
  0
LINE
  5
3B2
330
208
100
AcDbEntity
  8
0
  6
Continuous
 62
     7
100
AcDbLine
 10
101.0017782655
 20
181.1735580025
 30
0.0
 11
95.00177826549998
 21
181.1735580025
 31
0.0
  0
LINE
  5
3B3
330
208
100
AcDbEntity
  8
0
  6
Continuous
 62
     7
100
AcDbLine
 10
88.5017782655
 20
181.1735580025
 30
0.0
 11
82.5017782655
 21
181.1735580025
 31
0.0
  0
LINE
  5
3B4
330
208
100
AcDbEntity
  8
0
  6
Continuous
 62
     7
100
AcDbLine
 10
76.00177826550001
 20
181.1735580025
 30
0.0
 11
70.0017782655
 21
181.1735580025
 31
0.0
  0
LINE
  5
3B5
330
208
100
AcDbEntity
  8
0
  6
Continuous
 62
     7
100
AcDbLine
 10
63.5017782655
 20
181.1735580025
 30
0.0
 11
57.5017782655
 21
181.1735580025
 31
0.0
  0
LINE
  5
3B6
330
208
100
AcDbEntity
  8
0
  6
Continuous
 62
     7
100
AcDbLine
 10
51.0017782655
 20
181.1735580025
 30
0.0
 11
45.00177826549999
 21
181.1735580025
 31
0.0
  0
LINE
  5
3B7
330
208
100
AcDbEntity
  8
0
  6
Continuous
 62
     7
100
AcDbLine
 10
38.5017782655
 20
181.1735580025
 30
0.0
 11
32.5017782655
 21
181.1735580025
 31
0.0
  0
LINE
  5
3B8
330
208
100
AcDbEntity
  8
0
  6
Continuous
 62
     7
100
AcDbLine
 10
26.0017782655
 20
181.1735580025
 30
0.0
 11
20.0017782655
 21
181.1735580025
 31
0.0
  0
LINE
  5
3B9
330
208
100
AcDbEntity
  8
0
  6
Continuous
 62
     7
100
AcDbLine
 10
13.5017782655
 20
181.1735580025
 30
0.0
 11
7.501778265499999
 21
181.1735580025
 31
0.0
  0
LINE
  5
3BA
330
208
100
AcDbEntity
  8
0
  6
Continuous
 62
     7
100
AcDbLine
 10
1.0017782655
 20
181.1735580025
 30
0.0
 11
-4.998221734499999
 21
181.1735580025
 31
0.0
  0
LINE
  5
3BB
330
208
100
AcDbEntity
  8
0
  6
Continuous
 62
     7
100
AcDbLine
 10
-11.4982217345
 20
181.1735580025
 30
0.0
 11
-17.4982217345
 21
181.1735580025
 31
0.0
  0
LINE
  5
3BC
330
208
100
AcDbEntity
  8
0
  6
Continuous
 62
     7
100
AcDbLine
 10
-23.9982217345
 20
181.1735580025
 30
0.0
 11
-29.9982217345
 21
181.1735580025
 31
0.0
  0
LINE
  5
3BD
330
208
100
AcDbEntity
  8
0
  6
Continuous
 62
     7
100
AcDbLine
 10
-36.4982217345
 20
181.1735580025
 30
0.0
 11
-42.4982217345
 21
181.1735580025
 31
0.0
  0
LINE
  5
3BE
330
208
100
AcDbEntity
  8
0
  6
Continuous
 62
     7
100
AcDbLine
 10
-48.9982217345
 20
181.1735580025
 30
0.0
 11
-54.9982217345
 21
181.1735580025
 31
0.0
  0
LINE
  5
3BF
330
208
100
AcDbEntity
  8
0
  6
Continuous
 62
     7
100
AcDbLine
 10
-61.4982217345
 20
181.1735580025
 30
0.0
 11
-67.49822173449999
 21
181.1735580025
 31
0.0
  0
LINE
  5
3C0
330
208
100
AcDbEntity
  8
0
  6
Continuous
 62
     7
100
AcDbLine
 10
-73.99822173449999
 20
181.1735580025
 30
0.0
 11
-79.99822173449999
 21
181.1735580025
 31
0.0
  0
LINE
  5
3C1
330
208
100
AcDbEntity
  8
0
  6
Continuous
 62
     7
100
AcDbLine
 10
-86.49822173450001
 20
181.1735580025
 30
0.0
 11
-92.49822173450001
 21
181.1735580025
 31
0.0
  0
LINE
  5
3C2
330
208
100
AcDbEntity
  8
0
  6
Continuous
 62
     7
100
AcDbLine
 10
-98.99822173450001
 20
181.1735580025
 30
0.0
 11
-104.9982217345
 21
181.1735580025
 31
0.0
  0
LINE
  5
3C3
330
208
100
AcDbEntity
  8
0
  6
Continuous
 62
     7
100
AcDbLine
 10
-111.4982217345
 20
181.1735580025
 30
0.0
 11
-117.4982217345
 21
181.1735580025
 31
0.0
  0
LINE
  5
3C4
330
208
100
AcDbEntity
  8
0
  6
Continuous
 62
     7
100
AcDbLine
 10
-117.4982217345
 20
187.1735580025
 30
0.0
 11
-111.4982217345
 21
187.1735580025
 31
0.0
  0
LINE
  5
3C5
330
208
100
AcDbEntity
  8
0
  6
Continuous
 62
     7
100
AcDbLine
 10
-104.9982217345
 20
187.1735580025
 30
0.0
 11
-98.99822173450001
 21
187.1735580025
 31
0.0
  0
LINE
  5
3C6
330
208
100
AcDbEntity
  8
0
  6
Continuous
 62
     7
100
AcDbLine
 10
-92.49822173450001
 20
187.1735580025
 30
0.0
 11
-86.49822173450001
 21
187.1735580025
 31
0.0
  0
LINE
  5
3C7
330
208
100
AcDbEntity
  8
0
  6
Continuous
 62
     7
100
AcDbLine
 10
-79.99822173449999
 20
187.1735580025
 30
0.0
 11
-73.99822173449999
 21
187.1735580025
 31
0.0
  0
LINE
  5
3C8
330
208
100
AcDbEntity
  8
0
  6
Continuous
 62
     7
100
AcDbLine
 10
-67.49822173449999
 20
187.1735580025
 30
0.0
 11
-61.4982217345
 21
187.1735580025
 31
0.0
  0
LINE
  5
3C9
330
208
100
AcDbEntity
  8
0
  6
Continuous
 62
     7
100
AcDbLine
 10
-54.9982217345
 20
187.1735580025
 30
0.0
 11
-48.9982217345
 21
187.1735580025
 31
0.0
  0
LINE
  5
3CA
330
208
100
AcDbEntity
  8
0
  6
Continuous
 62
     7
100
AcDbLine
 10
-42.4982217345
 20
187.1735580025
 30
0.0
 11
-36.4982217345
 21
187.1735580025
 31
0.0
  0
LINE
  5
3CB
330
208
100
AcDbEntity
  8
0
  6
Continuous
 62
     7
100
AcDbLine
 10
-29.9982217345
 20
187.1735580025
 30
0.0
 11
-23.9982217345
 21
187.1735580025
 31
0.0
  0
LINE
  5
3CC
330
208
100
AcDbEntity
  8
0
  6
Continuous
 62
     7
100
AcDbLine
 10
-17.4982217345
 20
187.1735580025
 30
0.0
 11
-11.4982217345
 21
187.1735580025
 31
0.0
  0
LINE
  5
3CD
330
208
100
AcDbEntity
  8
0
  6
Continuous
 62
     7
100
AcDbLine
 10
-4.998221734499999
 20
187.1735580025
 30
0.0
 11
1.0017782655
 21
187.1735580025
 31
0.0
  0
LINE
  5
3CE
330
208
100
AcDbEntity
  8
0
  6
Continuous
 62
     7
100
AcDbLine
 10
7.501778265499999
 20
187.1735580025
 30
0.0
 11
13.5017782655
 21
187.1735580025
 31
0.0
  0
LINE
  5
3CF
330
208
100
AcDbEntity
  8
0
  6
Continuous
 62
     7
100
AcDbLine
 10
20.0017782655
 20
187.1735580025
 30
0.0
 11
26.0017782655
 21
187.1735580025
 31
0.0
  0
LINE
  5
3D0
330
208
100
AcDbEntity
  8
0
  6
Continuous
 62
     7
100
AcDbLine
 10
32.5017782655
 20
187.1735580025
 30
0.0
 11
38.5017782655
 21
187.1735580025
 31
0.0
  0
LINE
  5
3D1
330
208
100
AcDbEntity
  8
0
  6
Continuous
 62
     7
100
AcDbLine
 10
45.00177826549999
 20
187.1735580025
 30
0.0
 11
51.0017782655
 21
187.1735580025
 31
0.0
  0
LINE
  5
3D2
330
208
100
AcDbEntity
  8
0
  6
Continuous
 62
     7
100
AcDbLine
 10
57.5017782655
 20
187.1735580025
 30
0.0
 11
63.5017782655
 21
187.1735580025
 31
0.0
  0
LINE
  5
3D3
330
208
100
AcDbEntity
  8
0
  6
Continuous
 62
     7
100
AcDbLine
 10
70.0017782655
 20
187.1735580025
 30
0.0
 11
76.00177826550001
 21
187.1735580025
 31
0.0
  0
LINE
  5
3D4
330
208
100
AcDbEntity
  8
0
  6
Continuous
 62
     7
100
AcDbLine
 10
82.5017782655
 20
187.1735580025
 30
0.0
 11
88.5017782655
 21
187.1735580025
 31
0.0
  0
LINE
  5
3D5
330
208
100
AcDbEntity
  8
0
  6
Continuous
 62
     7
100
AcDbLine
 10
95.00177826549998
 20
187.1735580025
 30
0.0
 11
101.0017782655
 21
187.1735580025
 31
0.0
  0
LINE
  5
3D6
330
208
100
AcDbEntity
  8
0
  6
Continuous
 62
     7
100
AcDbLine
 10
107.5017782655
 20
187.1735580025
 30
0.0
 11
113.5017782655
 21
187.1735580025
 31
0.0
  0
LINE
  5
3D7
330
208
100
AcDbEntity
  8
0
  6
Continuous
 62
     7
100
AcDbLine
 10
120.0017782655
 20
187.1735580025
 30
0.0
 11
126.0017782655
 21
187.1735580025
 31
0.0
  0
LINE
  5
3D8
330
208
100
AcDbEntity
  8
0
  6
Continuous
 62
     7
100
AcDbLine
 10
132.5017782655
 20
187.1735580025
 30
0.0
 11
138.5017782655
 21
187.1735580025
 31
0.0
  0
LINE
  5
3D9
330
208
100
AcDbEntity
  8
0
  6
Continuous
 62
     7
100
AcDbLine
 10
145.0017782655
 20
187.1735580025
 30
0.0
 11
151.0017782655
 21
187.1735580025
 31
0.0
  0
LINE
  5
3DA
330
208
100
AcDbEntity
  8
0
  6
Continuous
 62
     7
100
AcDbLine
 10
157.5017782655
 20
187.1735580025
 30
0.0
 11
163.5017782655
 21
187.1735580025
 31
0.0
  0
LINE
  5
3DB
330
208
100
AcDbEntity
  8
0
  6
Continuous
 62
     7
100
AcDbLine
 10
170.0017782655
 20
187.1735580025
 30
0.0
 11
176.0017782655
 21
187.1735580025
 31
0.0
  0
LINE
  5
3DC
330
208
100
AcDbEntity
  8
0
  6
Continuous
 62
     7
100
AcDbLine
 10
182.5017782655
 20
187.1735580025
 30
0.0
 11
188.5017782655
 21
187.1735580025
 31
0.0
  0
LINE
  5
3DD
330
208
100
AcDbEntity
  8
0
  6
Continuous
 62
     7
100
AcDbLine
 10
195.0017782655
 20
187.1735580025
 30
0.0
 11
201.0017782655
 21
187.1735580025
 31
0.0
  0
LINE
  5
3DE
330
208
100
AcDbEntity
  8
0
  6
Continuous
 62
     7
100
AcDbLine
 10
207.5017782655
 20
187.1735580025
 30
0.0
 11
213.5017782655
 21
187.1735580025
 31
0.0
  0
LINE
  5
3DF
330
208
100
AcDbEntity
  8
0
  6
Continuous
 62
     7
100
AcDbLine
 10
220.0017782655
 20
187.1735580025
 30
0.0
 11
226.0017782655
 21
187.1735580025
 31
0.0
  0
LINE
  5
3E0
330
208
100
AcDbEntity
  8
0
  6
Continuous
 62
     7
100
AcDbLine
 10
232.5017782655
 20
187.1735580025
 30
0.0
 11
238.5017782655
 21
187.1735580025
 31
0.0
  0
LINE
  5
3E1
330
208
100
AcDbEntity
  8
0
  6
Continuous
 62
     7
100
AcDbLine
 10
245.0017782655
 20
187.1735580025
 30
0.0
 11
251.0017782655
 21
187.1735580025
 31
0.0
  0
LINE
  5
3E2
330
208
100
AcDbEntity
  8
0
  6
Continuous
 62
     7
100
AcDbLine
 10
257.5017782655
 20
187.1735580025
 30
0.0
 11
263.5017782655
 21
187.1735580025
 31
0.0
  0
LINE
  5
3E3
330
208
100
AcDbEntity
  8
0
  6
Continuous
 62
     7
100
AcDbLine
 10
270.0017782655
 20
187.1735580025
 30
0.0
 11
276.0017782655
 21
187.1735580025
 31
0.0
  0
LINE
  5
3E4
330
208
100
AcDbEntity
  8
0
  6
Continuous
 62
     7
100
AcDbLine
 10
282.5017782655
 20
187.1735580025
 30
0.0
 11
288.5017782655
 21
187.1735580025
 31
0.0
  0
LINE
  5
3E5
330
208
100
AcDbEntity
  8
0
  6
Continuous
 62
     7
100
AcDbLine
 10
295.0017782655
 20
187.1735580025
 30
0.0
 11
301.0017782655
 21
187.1735580025
 31
0.0
  0
LINE
  5
3E6
330
208
100
AcDbEntity
  8
0
  6
Continuous
 62
     7
100
AcDbLine
 10
307.5017782655
 20
187.1735580025
 30
0.0
 11
313.5017782655
 21
187.1735580025
 31
0.0
  0
LINE
  5
3E7
330
208
100
AcDbEntity
  8
0
  6
Continuous
 62
     7
100
AcDbLine
 10
320.0017782655
 20
187.1735580025
 30
0.0
 11
326.0017782655
 21
187.1735580025
 31
0.0
  0
LINE
  5
3E8
330
208
100
AcDbEntity
  8
0
  6
Continuous
 62
     7
100
AcDbLine
 10
332.5017782655
 20
187.1735580025
 30
0.0
 11
338.5017782655
 21
187.1735580025
 31
0.0
  0
LINE
  5
3E9
330
208
100
AcDbEntity
  8
0
  6
Continuous
 62
     7
100
AcDbLine
 10
345.0017782655
 20
187.1735580025
 30
0.0
 11
351.0017782655
 21
187.1735580025
 31
0.0
  0
LINE
  5
3EA
330
208
100
AcDbEntity
  8
0
  6
Continuous
 62
     7
100
AcDbLine
 10
357.5017782655
 20
187.1735580025
 30
0.0
 11
363.5017782655
 21
187.1735580025
 31
0.0
  0
LINE
  5
3EB
330
208
100
AcDbEntity
  8
0
  6
Continuous
 62
     7
100
AcDbLine
 10
370.0017782655
 20
187.1735580025
 30
0.0
 11
376.0017782655
 21
187.1735580025
 31
0.0
  0
LINE
  5
3EC
330
208
100
AcDbEntity
  8
0
  6
Continuous
 62
     7
100
AcDbLine
 10
382.5017782655
 20
187.1735580025
 30
0.0
 11
388.5017782655
 21
187.1735580025
 31
0.0
  0
LINE
  5
3ED
330
208
100
AcDbEntity
  8
0
  6
Continuous
 62
     7
100
AcDbLine
 10
395.0017782655
 20
187.1735580025
 30
0.0
 11
401.0017782655
 21
187.1735580025
 31
0.0
  0
LINE
  5
3EE
330
208
100
AcDbEntity
  8
0
  6
Continuous
 62
     7
100
AcDbLine
 10
407.5017782655
 20
187.1735580025
 30
0.0
 11
413.5017782655
 21
187.1735580025
 31
0.0
  0
LINE
  5
3EF
330
208
100
AcDbEntity
  8
0
  6
Continuous
 62
     7
100
AcDbLine
 10
420.0017782655
 20
187.1735580025
 30
0.0
 11
426.0017782655
 21
187.1735580025
 31
0.0
  0
LINE
  5
3F0
330
208
100
AcDbEntity
  8
0
  6
Continuous
 62
     7
100
AcDbLine
 10
432.5017782655
 20
187.1735580025
 30
0.0
 11
438.5017782655
 21
187.1735580025
 31
0.0
  0
LINE
  5
3F1
330
208
100
AcDbEntity
  8
0
  6
Continuous
 62
     7
100
AcDbLine
 10
445.0017782655
 20
187.1735580025
 30
0.0
 11
451.0017782655
 21
187.1735580025
 31
0.0
  0
LINE
  5
3F2
330
208
100
AcDbEntity
  8
0
  6
Continuous
 62
     7
100
AcDbLine
 10
457.5017782655
 20
187.1735580025
 30
0.0
 11
463.5017782655
 21
187.1735580025
 31
0.0
  0
LINE
  5
3F3
330
208
100
AcDbEntity
  8
0
  6
Continuous
 62
     7
100
AcDbLine
 10
470.0017782655
 20
187.1735580025
 30
0.0
 11
476.0017782655
 21
187.1735580025
 31
0.0
  0
LINE
  5
3F4
330
208
100
AcDbEntity
  8
0
  6
Continuous
 62
     7
100
AcDbLine
 10
482.5017782655
 20
187.1735580025
 30
0.0
 11
488.5017782655
 21
187.1735580025
 31
0.0
  0
LINE
  5
3F5
330
208
100
AcDbEntity
  8
0
  6
Continuous
 62
     7
100
AcDbLine
 10
495.0017782655
 20
187.1735580025
 30
0.0
 11
501.0017782655
 21
187.1735580025
 31
0.0
  0
LINE
  5
3F6
330
208
100
AcDbEntity
  8
0
  6
Continuous
 62
     7
100
AcDbLine
 10
507.5017782655
 20
187.1735580025
 30
0.0
 11
513.5017782654997
 21
187.1735580025
 31
0.0
  0
LINE
  5
3F7
330
208
100
AcDbEntity
  8
0
  6
Continuous
 62
     7
100
AcDbLine
 10
520.0017782655
 20
187.1735580025
 30
0.0
 11
526.0017782654997
 21
187.1735580025
 31
0.0
  0
LINE
  5
3F8
330
208
100
AcDbEntity
  8
0
  6
Continuous
 62
     7
100
AcDbLine
 10
532.5017782655
 20
187.1735580025
 30
0.0
 11
538.5017782654997
 21
187.1735580025
 31
0.0
  0
LINE
  5
3F9
330
208
100
AcDbEntity
  8
0
  6
Continuous
 62
     7
100
AcDbLine
 10
545.0017782655
 20
187.1735580025
 30
0.0
 11
551.0017782654997
 21
187.1735580025
 31
0.0
  0
LINE
  5
3FA
330
208
100
AcDbEntity
  8
0
  6
CENTER
100
AcDbLine
 10
-125.2482217345
 20
190.1735580025
 30
0.0
 11
558.7517782654997
 21
190.1735580025
 31
0.0
  0
LINE
  5
3FB
330
208
100
AcDbEntity
  8
0
  6
Continuous
 62
     7
100
AcDbLine
 10
220.0017782655
 20
168.6735580025
 30
0.0
 11
220.0017782655
 21
174.6735580025
 31
0.0
  0
LINE
  5
3FC
330
208
100
AcDbEntity
  8
0
  6
Continuous
 62
     7
100
AcDbLine
 10
220.0017782655
 20
181.1735580025
 30
0.0
 11
220.0017782655
 21
187.1735580025
 31
0.0
  0
LINE
  5
3FD
330
208
100
AcDbEntity
  8
0
  6
Continuous
 62
     7
100
AcDbLine
 10
220.0017782655
 20
193.6735580025
 30
0.0
 11
220.0017782655
 21
199.6735580025
 31
0.0
  0
LINE
  5
3FE
330
208
100
AcDbEntity
  8
0
  6
Continuous
 62
     7
100
AcDbLine
 10
220.0017782655
 20
206.1735580025
 30
0.0
 11
220.0017782655
 21
212.1735580025
 31
0.0
  0
LINE
  5
3FF
330
208
100
AcDbEntity
  8
0
  6
Continuous
 62
     7
100
AcDbLine
 10
226.0017782655
 20
212.1735580025
 30
0.0
 11
226.0017782655
 21
206.1735580025
 31
0.0
  0
LINE
  5
400
330
208
100
AcDbEntity
  8
0
  6
Continuous
 62
     7
100
AcDbLine
 10
226.0017782655
 20
199.6735580025
 30
0.0
 11
226.0017782655
 21
193.6735580025
 31
0.0
  0
LINE
  5
401
330
208
100
AcDbEntity
  8
0
  6
Continuous
 62
     7
100
AcDbLine
 10
226.0017782655
 20
187.1735580025
 30
0.0
 11
226.0017782655
 21
181.1735580025
 31
0.0
  0
LINE
  5
402
330
208
100
AcDbEntity
  8
0
  6
Continuous
 62
     7
100
AcDbLine
 10
226.0017782655
 20
174.6735580025
 30
0.0
 11
226.0017782655
 21
168.6735580025
 31
0.0
  0
LINE
  5
403
330
208
100
AcDbEntity
  8
0
  6
Continuous
 62
     7
100
AcDbLine
 10
232.5017782655
 20
168.6735580025
 30
0.0
 11
232.5017782655
 21
174.6735580025
 31
0.0
  0
LINE
  5
404
330
208
100
AcDbEntity
  8
0
  6
Continuous
 62
     7
100
AcDbLine
 10
232.5017782655
 20
181.1735580025
 30
0.0
 11
232.5017782655
 21
187.1735580025
 31
0.0
  0
LINE
  5
405
330
208
100
AcDbEntity
  8
0
  6
Continuous
 62
     7
100
AcDbLine
 10
232.5017782655
 20
193.6735580025
 30
0.0
 11
232.5017782655
 21
199.6735580025
 31
0.0
  0
LINE
  5
406
330
208
100
AcDbEntity
  8
0
  6
Continuous
 62
     7
100
AcDbLine
 10
232.5017782655
 20
206.1735580025
 30
0.0
 11
232.5017782655
 21
212.1735580025
 31
0.0
  0
LINE
  5
407
330
208
100
AcDbEntity
  8
0
  6
Continuous
 62
     7
100
AcDbLine
 10
238.5017782655
 20
212.1735580025
 30
0.0
 11
238.5017782655
 21
206.1735580025
 31
0.0
  0
LINE
  5
408
330
208
100
AcDbEntity
  8
0
  6
Continuous
 62
     7
100
AcDbLine
 10
238.5017782655
 20
199.6735580025
 30
0.0
 11
238.5017782655
 21
193.6735580025
 31
0.0
  0
LINE
  5
409
330
208
100
AcDbEntity
  8
0
  6
Continuous
 62
     7
100
AcDbLine
 10
238.5017782655
 20
187.1735580025
 30
0.0
 11
238.5017782655
 21
181.1735580025
 31
0.0
  0
LINE
  5
40A
330
208
100
AcDbEntity
  8
0
  6
Continuous
 62
     7
100
AcDbLine
 10
238.5017782655
 20
174.6735580025
 30
0.0
 11
238.5017782655
 21
168.6735580025
 31
0.0
  0
LINE
  5
40B
330
208
100
AcDbEntity
  8
0
  6
Continuous
 62
     7
100
AcDbLine
 10
551.0017782654997
 20
193.6735580025
 30
0.0
 11
545.0017782655
 21
193.6735580025
 31
0.0
  0
LINE
  5
40C
330
208
100
AcDbEntity
  8
0
  6
Continuous
 62
     7
100
AcDbLine
 10
538.5017782654997
 20
193.6735580025
 30
0.0
 11
532.5017782655
 21
193.6735580025
 31
0.0
  0
LINE
  5
40D
330
208
100
AcDbEntity
  8
0
  6
Continuous
 62
     7
100
AcDbLine
 10
526.0017782654997
 20
193.6735580025
 30
0.0
 11
520.0017782655
 21
193.6735580025
 31
0.0
  0
LINE
  5
40E
330
208
100
AcDbEntity
  8
0
  6
Continuous
 62
     7
100
AcDbLine
 10
513.5017782654997
 20
193.6735580025
 30
0.0
 11
507.5017782655
 21
193.6735580025
 31
0.0
  0
LINE
  5
40F
330
208
100
AcDbEntity
  8
0
  6
Continuous
 62
     7
100
AcDbLine
 10
501.0017782655
 20
193.6735580025
 30
0.0
 11
495.0017782655
 21
193.6735580025
 31
0.0
  0
LINE
  5
410
330
208
100
AcDbEntity
  8
0
  6
Continuous
 62
     7
100
AcDbLine
 10
488.5017782655
 20
193.6735580025
 30
0.0
 11
482.5017782655
 21
193.6735580025
 31
0.0
  0
LINE
  5
411
330
208
100
AcDbEntity
  8
0
  6
Continuous
 62
     7
100
AcDbLine
 10
476.0017782655
 20
193.6735580025
 30
0.0
 11
470.0017782655
 21
193.6735580025
 31
0.0
  0
LINE
  5
412
330
208
100
AcDbEntity
  8
0
  6
Continuous
 62
     7
100
AcDbLine
 10
463.5017782655
 20
193.6735580025
 30
0.0
 11
457.5017782655
 21
193.6735580025
 31
0.0
  0
LINE
  5
413
330
208
100
AcDbEntity
  8
0
  6
Continuous
 62
     7
100
AcDbLine
 10
451.0017782655
 20
193.6735580025
 30
0.0
 11
445.0017782655
 21
193.6735580025
 31
0.0
  0
LINE
  5
414
330
208
100
AcDbEntity
  8
0
  6
Continuous
 62
     7
100
AcDbLine
 10
438.5017782655
 20
193.6735580025
 30
0.0
 11
432.5017782655
 21
193.6735580025
 31
0.0
  0
LINE
  5
415
330
208
100
AcDbEntity
  8
0
  6
Continuous
 62
     7
100
AcDbLine
 10
426.0017782655
 20
193.6735580025
 30
0.0
 11
420.0017782655
 21
193.6735580025
 31
0.0
  0
LINE
  5
416
330
208
100
AcDbEntity
  8
0
  6
Continuous
 62
     7
100
AcDbLine
 10
413.5017782655
 20
193.6735580025
 30
0.0
 11
407.5017782655
 21
193.6735580025
 31
0.0
  0
LINE
  5
417
330
208
100
AcDbEntity
  8
0
  6
Continuous
 62
     7
100
AcDbLine
 10
401.0017782655
 20
193.6735580025
 30
0.0
 11
395.0017782655
 21
193.6735580025
 31
0.0
  0
LINE
  5
418
330
208
100
AcDbEntity
  8
0
  6
Continuous
 62
     7
100
AcDbLine
 10
388.5017782655
 20
193.6735580025
 30
0.0
 11
382.5017782655
 21
193.6735580025
 31
0.0
  0
LINE
  5
419
330
208
100
AcDbEntity
  8
0
  6
Continuous
 62
     7
100
AcDbLine
 10
376.0017782655
 20
193.6735580025
 30
0.0
 11
370.0017782655
 21
193.6735580025
 31
0.0
  0
LINE
  5
41A
330
208
100
AcDbEntity
  8
0
  6
Continuous
 62
     7
100
AcDbLine
 10
363.5017782655
 20
193.6735580025
 30
0.0
 11
357.5017782655
 21
193.6735580025
 31
0.0
  0
LINE
  5
41B
330
208
100
AcDbEntity
  8
0
  6
Continuous
 62
     7
100
AcDbLine
 10
351.0017782655
 20
193.6735580025
 30
0.0
 11
345.0017782655
 21
193.6735580025
 31
0.0
  0
LINE
  5
41C
330
208
100
AcDbEntity
  8
0
  6
Continuous
 62
     7
100
AcDbLine
 10
338.5017782655
 20
193.6735580025
 30
0.0
 11
332.5017782655
 21
193.6735580025
 31
0.0
  0
LINE
  5
41D
330
208
100
AcDbEntity
  8
0
  6
Continuous
 62
     7
100
AcDbLine
 10
326.0017782655
 20
193.6735580025
 30
0.0
 11
320.0017782655
 21
193.6735580025
 31
0.0
  0
LINE
  5
41E
330
208
100
AcDbEntity
  8
0
  6
Continuous
 62
     7
100
AcDbLine
 10
313.5017782655
 20
193.6735580025
 30
0.0
 11
307.5017782655
 21
193.6735580025
 31
0.0
  0
LINE
  5
41F
330
208
100
AcDbEntity
  8
0
  6
Continuous
 62
     7
100
AcDbLine
 10
301.0017782655
 20
193.6735580025
 30
0.0
 11
295.0017782655
 21
193.6735580025
 31
0.0
  0
LINE
  5
420
330
208
100
AcDbEntity
  8
0
  6
Continuous
 62
     7
100
AcDbLine
 10
288.5017782655
 20
193.6735580025
 30
0.0
 11
282.5017782655
 21
193.6735580025
 31
0.0
  0
LINE
  5
421
330
208
100
AcDbEntity
  8
0
  6
Continuous
 62
     7
100
AcDbLine
 10
276.0017782655
 20
193.6735580025
 30
0.0
 11
270.0017782655
 21
193.6735580025
 31
0.0
  0
LINE
  5
422
330
208
100
AcDbEntity
  8
0
  6
Continuous
 62
     7
100
AcDbLine
 10
263.5017782655
 20
193.6735580025
 30
0.0
 11
257.5017782655
 21
193.6735580025
 31
0.0
  0
LINE
  5
423
330
208
100
AcDbEntity
  8
0
  6
Continuous
 62
     7
100
AcDbLine
 10
251.0017782655
 20
193.6735580025
 30
0.0
 11
245.0017782655
 21
193.6735580025
 31
0.0
  0
LINE
  5
424
330
208
100
AcDbEntity
  8
0
  6
Continuous
 62
     7
100
AcDbLine
 10
238.5017782655
 20
193.6735580025
 30
0.0
 11
232.5017782655
 21
193.6735580025
 31
0.0
  0
LINE
  5
425
330
208
100
AcDbEntity
  8
0
  6
Continuous
 62
     7
100
AcDbLine
 10
226.0017782655
 20
193.6735580025
 30
0.0
 11
220.0017782655
 21
193.6735580025
 31
0.0
  0
LINE
  5
426
330
208
100
AcDbEntity
  8
0
  6
Continuous
 62
     7
100
AcDbLine
 10
213.5017782655
 20
193.6735580025
 30
0.0
 11
207.5017782655
 21
193.6735580025
 31
0.0
  0
LINE
  5
427
330
208
100
AcDbEntity
  8
0
  6
Continuous
 62
     7
100
AcDbLine
 10
201.0017782655
 20
193.6735580025
 30
0.0
 11
195.0017782655
 21
193.6735580025
 31
0.0
  0
LINE
  5
428
330
208
100
AcDbEntity
  8
0
  6
Continuous
 62
     7
100
AcDbLine
 10
188.5017782655
 20
193.6735580025
 30
0.0
 11
182.5017782655
 21
193.6735580025
 31
0.0
  0
LINE
  5
429
330
208
100
AcDbEntity
  8
0
  6
Continuous
 62
     7
100
AcDbLine
 10
176.0017782655
 20
193.6735580025
 30
0.0
 11
170.0017782655
 21
193.6735580025
 31
0.0
  0
LINE
  5
42A
330
208
100
AcDbEntity
  8
0
  6
Continuous
 62
     7
100
AcDbLine
 10
163.5017782655
 20
193.6735580025
 30
0.0
 11
157.5017782655
 21
193.6735580025
 31
0.0
  0
LINE
  5
42B
330
208
100
AcDbEntity
  8
0
  6
Continuous
 62
     7
100
AcDbLine
 10
151.0017782655
 20
193.6735580025
 30
0.0
 11
145.0017782655
 21
193.6735580025
 31
0.0
  0
LINE
  5
42C
330
208
100
AcDbEntity
  8
0
  6
Continuous
 62
     7
100
AcDbLine
 10
138.5017782655
 20
193.6735580025
 30
0.0
 11
132.5017782655
 21
193.6735580025
 31
0.0
  0
LINE
  5
42D
330
208
100
AcDbEntity
  8
0
  6
Continuous
 62
     7
100
AcDbLine
 10
126.0017782655
 20
193.6735580025
 30
0.0
 11
120.0017782655
 21
193.6735580025
 31
0.0
  0
LINE
  5
42E
330
208
100
AcDbEntity
  8
0
  6
Continuous
 62
     7
100
AcDbLine
 10
113.5017782655
 20
193.6735580025
 30
0.0
 11
107.5017782655
 21
193.6735580025
 31
0.0
  0
LINE
  5
42F
330
208
100
AcDbEntity
  8
0
  6
Continuous
 62
     7
100
AcDbLine
 10
101.0017782655
 20
193.6735580025
 30
0.0
 11
95.00177826549998
 21
193.6735580025
 31
0.0
  0
LINE
  5
430
330
208
100
AcDbEntity
  8
0
  6
Continuous
 62
     7
100
AcDbLine
 10
88.5017782655
 20
193.6735580025
 30
0.0
 11
82.5017782655
 21
193.6735580025
 31
0.0
  0
LINE
  5
431
330
208
100
AcDbEntity
  8
0
  6
Continuous
 62
     7
100
AcDbLine
 10
76.00177826550001
 20
193.6735580025
 30
0.0
 11
70.0017782655
 21
193.6735580025
 31
0.0
  0
LINE
  5
432
330
208
100
AcDbEntity
  8
0
  6
Continuous
 62
     7
100
AcDbLine
 10
63.5017782655
 20
193.6735580025
 30
0.0
 11
57.5017782655
 21
193.6735580025
 31
0.0
  0
LINE
  5
433
330
208
100
AcDbEntity
  8
0
  6
Continuous
 62
     7
100
AcDbLine
 10
51.0017782655
 20
193.6735580025
 30
0.0
 11
45.00177826549999
 21
193.6735580025
 31
0.0
  0
LINE
  5
434
330
208
100
AcDbEntity
  8
0
  6
Continuous
 62
     7
100
AcDbLine
 10
38.5017782655
 20
193.6735580025
 30
0.0
 11
32.5017782655
 21
193.6735580025
 31
0.0
  0
LINE
  5
435
330
208
100
AcDbEntity
  8
0
  6
Continuous
 62
     7
100
AcDbLine
 10
26.0017782655
 20
193.6735580025
 30
0.0
 11
20.0017782655
 21
193.6735580025
 31
0.0
  0
LINE
  5
436
330
208
100
AcDbEntity
  8
0
  6
Continuous
 62
     7
100
AcDbLine
 10
13.5017782655
 20
193.6735580025
 30
0.0
 11
7.501778265499999
 21
193.6735580025
 31
0.0
  0
LINE
  5
437
330
208
100
AcDbEntity
  8
0
  6
Continuous
 62
     7
100
AcDbLine
 10
1.0017782655
 20
193.6735580025
 30
0.0
 11
-4.998221734499999
 21
193.6735580025
 31
0.0
  0
LINE
  5
438
330
208
100
AcDbEntity
  8
0
  6
Continuous
 62
     7
100
AcDbLine
 10
-11.4982217345
 20
193.6735580025
 30
0.0
 11
-17.4982217345
 21
193.6735580025
 31
0.0
  0
LINE
  5
439
330
208
100
AcDbEntity
  8
0
  6
Continuous
 62
     7
100
AcDbLine
 10
-23.9982217345
 20
193.6735580025
 30
0.0
 11
-29.9982217345
 21
193.6735580025
 31
0.0
  0
LINE
  5
43A
330
208
100
AcDbEntity
  8
0
  6
Continuous
 62
     7
100
AcDbLine
 10
-36.4982217345
 20
193.6735580025
 30
0.0
 11
-42.4982217345
 21
193.6735580025
 31
0.0
  0
LINE
  5
43B
330
208
100
AcDbEntity
  8
0
  6
Continuous
 62
     7
100
AcDbLine
 10
-48.9982217345
 20
193.6735580025
 30
0.0
 11
-54.9982217345
 21
193.6735580025
 31
0.0
  0
LINE
  5
43C
330
208
100
AcDbEntity
  8
0
  6
Continuous
 62
     7
100
AcDbLine
 10
-61.4982217345
 20
193.6735580025
 30
0.0
 11
-67.49822173449999
 21
193.6735580025
 31
0.0
  0
LINE
  5
43D
330
208
100
AcDbEntity
  8
0
  6
Continuous
 62
     7
100
AcDbLine
 10
-73.99822173449999
 20
193.6735580025
 30
0.0
 11
-79.99822173449999
 21
193.6735580025
 31
0.0
  0
LINE
  5
43E
330
208
100
AcDbEntity
  8
0
  6
Continuous
 62
     7
100
AcDbLine
 10
-86.49822173450001
 20
193.6735580025
 30
0.0
 11
-92.49822173450001
 21
193.6735580025
 31
0.0
  0
LINE
  5
43F
330
208
100
AcDbEntity
  8
0
  6
Continuous
 62
     7
100
AcDbLine
 10
-98.99822173450001
 20
193.6735580025
 30
0.0
 11
-104.9982217345
 21
193.6735580025
 31
0.0
  0
LINE
  5
440
330
208
100
AcDbEntity
  8
0
  6
Continuous
 62
     7
100
AcDbLine
 10
-111.4982217345
 20
193.6735580025
 30
0.0
 11
-117.4982217345
 21
193.6735580025
 31
0.0
  0
LINE
  5
441
330
208
100
AcDbEntity
  8
0
  6
Continuous
 62
     7
100
AcDbLine
 10
-117.4982217345
 20
199.6735580025
 30
0.0
 11
-111.4982217345
 21
199.6735580025
 31
0.0
  0
LINE
  5
442
330
208
100
AcDbEntity
  8
0
  6
Continuous
 62
     7
100
AcDbLine
 10
-104.9982217345
 20
199.6735580025
 30
0.0
 11
-98.99822173450001
 21
199.6735580025
 31
0.0
  0
LINE
  5
443
330
208
100
AcDbEntity
  8
0
  6
Continuous
 62
     7
100
AcDbLine
 10
-92.49822173450001
 20
199.6735580025
 30
0.0
 11
-86.49822173450001
 21
199.6735580025
 31
0.0
  0
LINE
  5
444
330
208
100
AcDbEntity
  8
0
  6
Continuous
 62
     7
100
AcDbLine
 10
-79.99822173449999
 20
199.6735580025
 30
0.0
 11
-73.99822173449999
 21
199.6735580025
 31
0.0
  0
LINE
  5
445
330
208
100
AcDbEntity
  8
0
  6
Continuous
 62
     7
100
AcDbLine
 10
-67.49822173449999
 20
199.6735580025
 30
0.0
 11
-61.4982217345
 21
199.6735580025
 31
0.0
  0
LINE
  5
446
330
208
100
AcDbEntity
  8
0
  6
Continuous
 62
     7
100
AcDbLine
 10
-54.9982217345
 20
199.6735580025
 30
0.0
 11
-48.9982217345
 21
199.6735580025
 31
0.0
  0
LINE
  5
447
330
208
100
AcDbEntity
  8
0
  6
Continuous
 62
     7
100
AcDbLine
 10
-42.4982217345
 20
199.6735580025
 30
0.0
 11
-36.4982217345
 21
199.6735580025
 31
0.0
  0
LINE
  5
448
330
208
100
AcDbEntity
  8
0
  6
Continuous
 62
     7
100
AcDbLine
 10
-29.9982217345
 20
199.6735580025
 30
0.0
 11
-23.9982217345
 21
199.6735580025
 31
0.0
  0
LINE
  5
449
330
208
100
AcDbEntity
  8
0
  6
Continuous
 62
     7
100
AcDbLine
 10
-17.4982217345
 20
199.6735580025
 30
0.0
 11
-11.4982217345
 21
199.6735580025
 31
0.0
  0
LINE
  5
44A
330
208
100
AcDbEntity
  8
0
  6
Continuous
 62
     7
100
AcDbLine
 10
-4.998221734499999
 20
199.6735580025
 30
0.0
 11
1.0017782655
 21
199.6735580025
 31
0.0
  0
LINE
  5
44B
330
208
100
AcDbEntity
  8
0
  6
Continuous
 62
     7
100
AcDbLine
 10
7.501778265499999
 20
199.6735580025
 30
0.0
 11
13.5017782655
 21
199.6735580025
 31
0.0
  0
LINE
  5
44C
330
208
100
AcDbEntity
  8
0
  6
Continuous
 62
     7
100
AcDbLine
 10
20.0017782655
 20
199.6735580025
 30
0.0
 11
26.0017782655
 21
199.6735580025
 31
0.0
  0
LINE
  5
44D
330
208
100
AcDbEntity
  8
0
  6
Continuous
 62
     7
100
AcDbLine
 10
32.5017782655
 20
199.6735580025
 30
0.0
 11
38.5017782655
 21
199.6735580025
 31
0.0
  0
LINE
  5
44E
330
208
100
AcDbEntity
  8
0
  6
Continuous
 62
     7
100
AcDbLine
 10
45.00177826549999
 20
199.6735580025
 30
0.0
 11
51.0017782655
 21
199.6735580025
 31
0.0
  0
LINE
  5
44F
330
208
100
AcDbEntity
  8
0
  6
Continuous
 62
     7
100
AcDbLine
 10
57.5017782655
 20
199.6735580025
 30
0.0
 11
63.5017782655
 21
199.6735580025
 31
0.0
  0
LINE
  5
450
330
208
100
AcDbEntity
  8
0
  6
Continuous
 62
     7
100
AcDbLine
 10
70.0017782655
 20
199.6735580025
 30
0.0
 11
76.00177826550001
 21
199.6735580025
 31
0.0
  0
LINE
  5
451
330
208
100
AcDbEntity
  8
0
  6
Continuous
 62
     7
100
AcDbLine
 10
82.5017782655
 20
199.6735580025
 30
0.0
 11
88.5017782655
 21
199.6735580025
 31
0.0
  0
LINE
  5
452
330
208
100
AcDbEntity
  8
0
  6
Continuous
 62
     7
100
AcDbLine
 10
95.00177826549998
 20
199.6735580025
 30
0.0
 11
101.0017782655
 21
199.6735580025
 31
0.0
  0
LINE
  5
453
330
208
100
AcDbEntity
  8
0
  6
Continuous
 62
     7
100
AcDbLine
 10
107.5017782655
 20
199.6735580025
 30
0.0
 11
113.5017782655
 21
199.6735580025
 31
0.0
  0
LINE
  5
454
330
208
100
AcDbEntity
  8
0
  6
Continuous
 62
     7
100
AcDbLine
 10
120.0017782655
 20
199.6735580025
 30
0.0
 11
126.0017782655
 21
199.6735580025
 31
0.0
  0
LINE
  5
455
330
208
100
AcDbEntity
  8
0
  6
Continuous
 62
     7
100
AcDbLine
 10
132.5017782655
 20
199.6735580025
 30
0.0
 11
138.5017782655
 21
199.6735580025
 31
0.0
  0
LINE
  5
456
330
208
100
AcDbEntity
  8
0
  6
Continuous
 62
     7
100
AcDbLine
 10
145.0017782655
 20
199.6735580025
 30
0.0
 11
151.0017782655
 21
199.6735580025
 31
0.0
  0
LINE
  5
457
330
208
100
AcDbEntity
  8
0
  6
Continuous
 62
     7
100
AcDbLine
 10
157.5017782655
 20
199.6735580025
 30
0.0
 11
163.5017782655
 21
199.6735580025
 31
0.0
  0
LINE
  5
458
330
208
100
AcDbEntity
  8
0
  6
Continuous
 62
     7
100
AcDbLine
 10
170.0017782655
 20
199.6735580025
 30
0.0
 11
176.0017782655
 21
199.6735580025
 31
0.0
  0
LINE
  5
459
330
208
100
AcDbEntity
  8
0
  6
Continuous
 62
     7
100
AcDbLine
 10
182.5017782655
 20
199.6735580025
 30
0.0
 11
188.5017782655
 21
199.6735580025
 31
0.0
  0
LINE
  5
45A
330
208
100
AcDbEntity
  8
0
  6
Continuous
 62
     7
100
AcDbLine
 10
195.0017782655
 20
199.6735580025
 30
0.0
 11
201.0017782655
 21
199.6735580025
 31
0.0
  0
LINE
  5
45B
330
208
100
AcDbEntity
  8
0
  6
Continuous
 62
     7
100
AcDbLine
 10
207.5017782655
 20
199.6735580025
 30
0.0
 11
213.5017782655
 21
199.6735580025
 31
0.0
  0
LINE
  5
45C
330
208
100
AcDbEntity
  8
0
  6
Continuous
 62
     7
100
AcDbLine
 10
220.0017782655
 20
199.6735580025
 30
0.0
 11
226.0017782655
 21
199.6735580025
 31
0.0
  0
LINE
  5
45D
330
208
100
AcDbEntity
  8
0
  6
Continuous
 62
     7
100
AcDbLine
 10
232.5017782655
 20
199.6735580025
 30
0.0
 11
238.5017782655
 21
199.6735580025
 31
0.0
  0
LINE
  5
45E
330
208
100
AcDbEntity
  8
0
  6
Continuous
 62
     7
100
AcDbLine
 10
245.0017782655
 20
199.6735580025
 30
0.0
 11
251.0017782655
 21
199.6735580025
 31
0.0
  0
LINE
  5
45F
330
208
100
AcDbEntity
  8
0
  6
Continuous
 62
     7
100
AcDbLine
 10
257.5017782655
 20
199.6735580025
 30
0.0
 11
263.5017782655
 21
199.6735580025
 31
0.0
  0
LINE
  5
460
330
208
100
AcDbEntity
  8
0
  6
Continuous
 62
     7
100
AcDbLine
 10
270.0017782655
 20
199.6735580025
 30
0.0
 11
276.0017782655
 21
199.6735580025
 31
0.0
  0
LINE
  5
461
330
208
100
AcDbEntity
  8
0
  6
Continuous
 62
     7
100
AcDbLine
 10
282.5017782655
 20
199.6735580025
 30
0.0
 11
288.5017782655
 21
199.6735580025
 31
0.0
  0
LINE
  5
462
330
208
100
AcDbEntity
  8
0
  6
Continuous
 62
     7
100
AcDbLine
 10
295.0017782655
 20
199.6735580025
 30
0.0
 11
301.0017782655
 21
199.6735580025
 31
0.0
  0
LINE
  5
463
330
208
100
AcDbEntity
  8
0
  6
Continuous
 62
     7
100
AcDbLine
 10
307.5017782655
 20
199.6735580025
 30
0.0
 11
313.5017782655
 21
199.6735580025
 31
0.0
  0
LINE
  5
464
330
208
100
AcDbEntity
  8
0
  6
Continuous
 62
     7
100
AcDbLine
 10
320.0017782655
 20
199.6735580025
 30
0.0
 11
326.0017782655
 21
199.6735580025
 31
0.0
  0
LINE
  5
465
330
208
100
AcDbEntity
  8
0
  6
Continuous
 62
     7
100
AcDbLine
 10
332.5017782655
 20
199.6735580025
 30
0.0
 11
338.5017782655
 21
199.6735580025
 31
0.0
  0
LINE
  5
466
330
208
100
AcDbEntity
  8
0
  6
Continuous
 62
     7
100
AcDbLine
 10
345.0017782655
 20
199.6735580025
 30
0.0
 11
351.0017782655
 21
199.6735580025
 31
0.0
  0
LINE
  5
467
330
208
100
AcDbEntity
  8
0
  6
Continuous
 62
     7
100
AcDbLine
 10
357.5017782655
 20
199.6735580025
 30
0.0
 11
363.5017782655
 21
199.6735580025
 31
0.0
  0
LINE
  5
468
330
208
100
AcDbEntity
  8
0
  6
Continuous
 62
     7
100
AcDbLine
 10
370.0017782655
 20
199.6735580025
 30
0.0
 11
376.0017782655
 21
199.6735580025
 31
0.0
  0
LINE
  5
469
330
208
100
AcDbEntity
  8
0
  6
Continuous
 62
     7
100
AcDbLine
 10
382.5017782655
 20
199.6735580025
 30
0.0
 11
388.5017782655
 21
199.6735580025
 31
0.0
  0
LINE
  5
46A
330
208
100
AcDbEntity
  8
0
  6
Continuous
 62
     7
100
AcDbLine
 10
395.0017782655
 20
199.6735580025
 30
0.0
 11
401.0017782655
 21
199.6735580025
 31
0.0
  0
LINE
  5
46B
330
208
100
AcDbEntity
  8
0
  6
Continuous
 62
     7
100
AcDbLine
 10
407.5017782655
 20
199.6735580025
 30
0.0
 11
413.5017782655
 21
199.6735580025
 31
0.0
  0
LINE
  5
46C
330
208
100
AcDbEntity
  8
0
  6
Continuous
 62
     7
100
AcDbLine
 10
420.0017782655
 20
199.6735580025
 30
0.0
 11
426.0017782655
 21
199.6735580025
 31
0.0
  0
LINE
  5
46D
330
208
100
AcDbEntity
  8
0
  6
Continuous
 62
     7
100
AcDbLine
 10
432.5017782655
 20
199.6735580025
 30
0.0
 11
438.5017782655
 21
199.6735580025
 31
0.0
  0
LINE
  5
46E
330
208
100
AcDbEntity
  8
0
  6
Continuous
 62
     7
100
AcDbLine
 10
445.0017782655
 20
199.6735580025
 30
0.0
 11
451.0017782655
 21
199.6735580025
 31
0.0
  0
LINE
  5
46F
330
208
100
AcDbEntity
  8
0
  6
Continuous
 62
     7
100
AcDbLine
 10
457.5017782655
 20
199.6735580025
 30
0.0
 11
463.5017782655
 21
199.6735580025
 31
0.0
  0
LINE
  5
470
330
208
100
AcDbEntity
  8
0
  6
Continuous
 62
     7
100
AcDbLine
 10
470.0017782655
 20
199.6735580025
 30
0.0
 11
476.0017782655
 21
199.6735580025
 31
0.0
  0
LINE
  5
471
330
208
100
AcDbEntity
  8
0
  6
Continuous
 62
     7
100
AcDbLine
 10
482.5017782655
 20
199.6735580025
 30
0.0
 11
488.5017782655
 21
199.6735580025
 31
0.0
  0
LINE
  5
472
330
208
100
AcDbEntity
  8
0
  6
Continuous
 62
     7
100
AcDbLine
 10
495.0017782655
 20
199.6735580025
 30
0.0
 11
501.0017782655
 21
199.6735580025
 31
0.0
  0
LINE
  5
473
330
208
100
AcDbEntity
  8
0
  6
Continuous
 62
     7
100
AcDbLine
 10
507.5017782655
 20
199.6735580025
 30
0.0
 11
513.5017782654997
 21
199.6735580025
 31
0.0
  0
LINE
  5
474
330
208
100
AcDbEntity
  8
0
  6
Continuous
 62
     7
100
AcDbLine
 10
520.0017782655
 20
199.6735580025
 30
0.0
 11
526.0017782654997
 21
199.6735580025
 31
0.0
  0
LINE
  5
475
330
208
100
AcDbEntity
  8
0
  6
Continuous
 62
     7
100
AcDbLine
 10
532.5017782655
 20
199.6735580025
 30
0.0
 11
538.5017782654997
 21
199.6735580025
 31
0.0
  0
LINE
  5
476
330
208
100
AcDbEntity
  8
0
  6
Continuous
 62
     7
100
AcDbLine
 10
545.0017782655
 20
199.6735580025
 30
0.0
 11
551.0017782654997
 21
199.6735580025
 31
0.0
  0
LINE
  5
477
330
208
100
AcDbEntity
  8
0
  6
Continuous
 62
     7
100
AcDbLine
 10
551.0017782654997
 20
206.1735580025
 30
0.0
 11
545.0017782655
 21
206.1735580025
 31
0.0
  0
LINE
  5
478
330
208
100
AcDbEntity
  8
0
  6
Continuous
 62
     7
100
AcDbLine
 10
538.5017782654997
 20
206.1735580025
 30
0.0
 11
532.5017782655
 21
206.1735580025
 31
0.0
  0
LINE
  5
479
330
208
100
AcDbEntity
  8
0
  6
Continuous
 62
     7
100
AcDbLine
 10
526.0017782654997
 20
206.1735580025
 30
0.0
 11
520.0017782655
 21
206.1735580025
 31
0.0
  0
LINE
  5
47A
330
208
100
AcDbEntity
  8
0
  6
Continuous
 62
     7
100
AcDbLine
 10
513.5017782654997
 20
206.1735580025
 30
0.0
 11
507.5017782655
 21
206.1735580025
 31
0.0
  0
LINE
  5
47B
330
208
100
AcDbEntity
  8
0
  6
Continuous
 62
     7
100
AcDbLine
 10
501.0017782655
 20
206.1735580025
 30
0.0
 11
495.0017782655
 21
206.1735580025
 31
0.0
  0
LINE
  5
47C
330
208
100
AcDbEntity
  8
0
  6
Continuous
 62
     7
100
AcDbLine
 10
488.5017782655
 20
206.1735580025
 30
0.0
 11
482.5017782655
 21
206.1735580025
 31
0.0
  0
LINE
  5
47D
330
208
100
AcDbEntity
  8
0
  6
Continuous
 62
     7
100
AcDbLine
 10
476.0017782655
 20
206.1735580025
 30
0.0
 11
470.0017782655
 21
206.1735580025
 31
0.0
  0
LINE
  5
47E
330
208
100
AcDbEntity
  8
0
  6
Continuous
 62
     7
100
AcDbLine
 10
463.5017782655
 20
206.1735580025
 30
0.0
 11
457.5017782655
 21
206.1735580025
 31
0.0
  0
LINE
  5
47F
330
208
100
AcDbEntity
  8
0
  6
Continuous
 62
     7
100
AcDbLine
 10
451.0017782655
 20
206.1735580025
 30
0.0
 11
445.0017782655
 21
206.1735580025
 31
0.0
  0
LINE
  5
480
330
208
100
AcDbEntity
  8
0
  6
Continuous
 62
     7
100
AcDbLine
 10
438.5017782655
 20
206.1735580025
 30
0.0
 11
432.5017782655
 21
206.1735580025
 31
0.0
  0
LINE
  5
481
330
208
100
AcDbEntity
  8
0
  6
Continuous
 62
     7
100
AcDbLine
 10
426.0017782655
 20
206.1735580025
 30
0.0
 11
420.0017782655
 21
206.1735580025
 31
0.0
  0
LINE
  5
482
330
208
100
AcDbEntity
  8
0
  6
Continuous
 62
     7
100
AcDbLine
 10
413.5017782655
 20
206.1735580025
 30
0.0
 11
407.5017782655
 21
206.1735580025
 31
0.0
  0
LINE
  5
483
330
208
100
AcDbEntity
  8
0
  6
Continuous
 62
     7
100
AcDbLine
 10
401.0017782655
 20
206.1735580025
 30
0.0
 11
395.0017782655
 21
206.1735580025
 31
0.0
  0
LINE
  5
484
330
208
100
AcDbEntity
  8
0
  6
Continuous
 62
     7
100
AcDbLine
 10
388.5017782655
 20
206.1735580025
 30
0.0
 11
382.5017782655
 21
206.1735580025
 31
0.0
  0
LINE
  5
485
330
208
100
AcDbEntity
  8
0
  6
Continuous
 62
     7
100
AcDbLine
 10
376.0017782655
 20
206.1735580025
 30
0.0
 11
370.0017782655
 21
206.1735580025
 31
0.0
  0
LINE
  5
486
330
208
100
AcDbEntity
  8
0
  6
Continuous
 62
     7
100
AcDbLine
 10
363.5017782655
 20
206.1735580025
 30
0.0
 11
357.5017782655
 21
206.1735580025
 31
0.0
  0
LINE
  5
487
330
208
100
AcDbEntity
  8
0
  6
Continuous
 62
     7
100
AcDbLine
 10
351.0017782655
 20
206.1735580025
 30
0.0
 11
345.0017782655
 21
206.1735580025
 31
0.0
  0
LINE
  5
488
330
208
100
AcDbEntity
  8
0
  6
Continuous
 62
     7
100
AcDbLine
 10
338.5017782655
 20
206.1735580025
 30
0.0
 11
332.5017782655
 21
206.1735580025
 31
0.0
  0
LINE
  5
489
330
208
100
AcDbEntity
  8
0
  6
Continuous
 62
     7
100
AcDbLine
 10
326.0017782655
 20
206.1735580025
 30
0.0
 11
320.0017782655
 21
206.1735580025
 31
0.0
  0
LINE
  5
48A
330
208
100
AcDbEntity
  8
0
  6
Continuous
 62
     7
100
AcDbLine
 10
313.5017782655
 20
206.1735580025
 30
0.0
 11
307.5017782655
 21
206.1735580025
 31
0.0
  0
LINE
  5
48B
330
208
100
AcDbEntity
  8
0
  6
Continuous
 62
     7
100
AcDbLine
 10
301.0017782655
 20
206.1735580025
 30
0.0
 11
295.0017782655
 21
206.1735580025
 31
0.0
  0
LINE
  5
48C
330
208
100
AcDbEntity
  8
0
  6
Continuous
 62
     7
100
AcDbLine
 10
288.5017782655
 20
206.1735580025
 30
0.0
 11
282.5017782655
 21
206.1735580025
 31
0.0
  0
LINE
  5
48D
330
208
100
AcDbEntity
  8
0
  6
Continuous
 62
     7
100
AcDbLine
 10
276.0017782655
 20
206.1735580025
 30
0.0
 11
270.0017782655
 21
206.1735580025
 31
0.0
  0
LINE
  5
48E
330
208
100
AcDbEntity
  8
0
  6
Continuous
 62
     7
100
AcDbLine
 10
263.5017782655
 20
206.1735580025
 30
0.0
 11
257.5017782655
 21
206.1735580025
 31
0.0
  0
LINE
  5
48F
330
208
100
AcDbEntity
  8
0
  6
Continuous
 62
     7
100
AcDbLine
 10
251.0017782655
 20
206.1735580025
 30
0.0
 11
245.0017782655
 21
206.1735580025
 31
0.0
  0
LINE
  5
490
330
208
100
AcDbEntity
  8
0
  6
Continuous
 62
     7
100
AcDbLine
 10
238.5017782655
 20
206.1735580025
 30
0.0
 11
232.5017782655
 21
206.1735580025
 31
0.0
  0
LINE
  5
491
330
208
100
AcDbEntity
  8
0
  6
Continuous
 62
     7
100
AcDbLine
 10
226.0017782655
 20
206.1735580025
 30
0.0
 11
220.0017782655
 21
206.1735580025
 31
0.0
  0
LINE
  5
492
330
208
100
AcDbEntity
  8
0
  6
Continuous
 62
     7
100
AcDbLine
 10
213.5017782655
 20
206.1735580025
 30
0.0
 11
207.5017782655
 21
206.1735580025
 31
0.0
  0
LINE
  5
493
330
208
100
AcDbEntity
  8
0
  6
Continuous
 62
     7
100
AcDbLine
 10
201.0017782655
 20
206.1735580025
 30
0.0
 11
195.0017782655
 21
206.1735580025
 31
0.0
  0
LINE
  5
494
330
208
100
AcDbEntity
  8
0
  6
Continuous
 62
     7
100
AcDbLine
 10
188.5017782655
 20
206.1735580025
 30
0.0
 11
182.5017782655
 21
206.1735580025
 31
0.0
  0
LINE
  5
495
330
208
100
AcDbEntity
  8
0
  6
Continuous
 62
     7
100
AcDbLine
 10
176.0017782655
 20
206.1735580025
 30
0.0
 11
170.0017782655
 21
206.1735580025
 31
0.0
  0
LINE
  5
496
330
208
100
AcDbEntity
  8
0
  6
Continuous
 62
     7
100
AcDbLine
 10
163.5017782655
 20
206.1735580025
 30
0.0
 11
157.5017782655
 21
206.1735580025
 31
0.0
  0
LINE
  5
497
330
208
100
AcDbEntity
  8
0
  6
Continuous
 62
     7
100
AcDbLine
 10
151.0017782655
 20
206.1735580025
 30
0.0
 11
145.0017782655
 21
206.1735580025
 31
0.0
  0
LINE
  5
498
330
208
100
AcDbEntity
  8
0
  6
Continuous
 62
     7
100
AcDbLine
 10
138.5017782655
 20
206.1735580025
 30
0.0
 11
132.5017782655
 21
206.1735580025
 31
0.0
  0
LINE
  5
499
330
208
100
AcDbEntity
  8
0
  6
Continuous
 62
     7
100
AcDbLine
 10
126.0017782655
 20
206.1735580025
 30
0.0
 11
120.0017782655
 21
206.1735580025
 31
0.0
  0
LINE
  5
49A
330
208
100
AcDbEntity
  8
0
  6
Continuous
 62
     7
100
AcDbLine
 10
113.5017782655
 20
206.1735580025
 30
0.0
 11
107.5017782655
 21
206.1735580025
 31
0.0
  0
LINE
  5
49B
330
208
100
AcDbEntity
  8
0
  6
Continuous
 62
     7
100
AcDbLine
 10
101.0017782655
 20
206.1735580025
 30
0.0
 11
95.00177826549998
 21
206.1735580025
 31
0.0
  0
LINE
  5
49C
330
208
100
AcDbEntity
  8
0
  6
Continuous
 62
     7
100
AcDbLine
 10
88.5017782655
 20
206.1735580025
 30
0.0
 11
82.5017782655
 21
206.1735580025
 31
0.0
  0
LINE
  5
49D
330
208
100
AcDbEntity
  8
0
  6
Continuous
 62
     7
100
AcDbLine
 10
76.00177826550001
 20
206.1735580025
 30
0.0
 11
70.0017782655
 21
206.1735580025
 31
0.0
  0
LINE
  5
49E
330
208
100
AcDbEntity
  8
0
  6
Continuous
 62
     7
100
AcDbLine
 10
63.5017782655
 20
206.1735580025
 30
0.0
 11
57.5017782655
 21
206.1735580025
 31
0.0
  0
LINE
  5
49F
330
208
100
AcDbEntity
  8
0
  6
Continuous
 62
     7
100
AcDbLine
 10
51.0017782655
 20
206.1735580025
 30
0.0
 11
45.00177826549999
 21
206.1735580025
 31
0.0
  0
LINE
  5
4A0
330
208
100
AcDbEntity
  8
0
  6
Continuous
 62
     7
100
AcDbLine
 10
38.5017782655
 20
206.1735580025
 30
0.0
 11
32.5017782655
 21
206.1735580025
 31
0.0
  0
LINE
  5
4A1
330
208
100
AcDbEntity
  8
0
  6
Continuous
 62
     7
100
AcDbLine
 10
26.0017782655
 20
206.1735580025
 30
0.0
 11
20.0017782655
 21
206.1735580025
 31
0.0
  0
LINE
  5
4A2
330
208
100
AcDbEntity
  8
0
  6
Continuous
 62
     7
100
AcDbLine
 10
13.5017782655
 20
206.1735580025
 30
0.0
 11
7.501778265499999
 21
206.1735580025
 31
0.0
  0
LINE
  5
4A3
330
208
100
AcDbEntity
  8
0
  6
Continuous
 62
     7
100
AcDbLine
 10
1.0017782655
 20
206.1735580025
 30
0.0
 11
-4.998221734499999
 21
206.1735580025
 31
0.0
  0
LINE
  5
4A4
330
208
100
AcDbEntity
  8
0
  6
Continuous
 62
     7
100
AcDbLine
 10
-11.4982217345
 20
206.1735580025
 30
0.0
 11
-17.4982217345
 21
206.1735580025
 31
0.0
  0
LINE
  5
4A5
330
208
100
AcDbEntity
  8
0
  6
Continuous
 62
     7
100
AcDbLine
 10
-23.9982217345
 20
206.1735580025
 30
0.0
 11
-29.9982217345
 21
206.1735580025
 31
0.0
  0
LINE
  5
4A6
330
208
100
AcDbEntity
  8
0
  6
Continuous
 62
     7
100
AcDbLine
 10
-36.4982217345
 20
206.1735580025
 30
0.0
 11
-42.4982217345
 21
206.1735580025
 31
0.0
  0
LINE
  5
4A7
330
208
100
AcDbEntity
  8
0
  6
Continuous
 62
     7
100
AcDbLine
 10
-48.9982217345
 20
206.1735580025
 30
0.0
 11
-54.9982217345
 21
206.1735580025
 31
0.0
  0
LINE
  5
4A8
330
208
100
AcDbEntity
  8
0
  6
Continuous
 62
     7
100
AcDbLine
 10
-61.4982217345
 20
206.1735580025
 30
0.0
 11
-67.49822173449999
 21
206.1735580025
 31
0.0
  0
LINE
  5
4A9
330
208
100
AcDbEntity
  8
0
  6
Continuous
 62
     7
100
AcDbLine
 10
-73.99822173449999
 20
206.1735580025
 30
0.0
 11
-79.99822173449999
 21
206.1735580025
 31
0.0
  0
LINE
  5
4AA
330
208
100
AcDbEntity
  8
0
  6
Continuous
 62
     7
100
AcDbLine
 10
-86.49822173450001
 20
206.1735580025
 30
0.0
 11
-92.49822173450001
 21
206.1735580025
 31
0.0
  0
LINE
  5
4AB
330
208
100
AcDbEntity
  8
0
  6
Continuous
 62
     7
100
AcDbLine
 10
-98.99822173450001
 20
206.1735580025
 30
0.0
 11
-104.9982217345
 21
206.1735580025
 31
0.0
  0
LINE
  5
4AC
330
208
100
AcDbEntity
  8
0
  6
Continuous
 62
     7
100
AcDbLine
 10
-111.4982217345
 20
206.1735580025
 30
0.0
 11
-117.4982217345
 21
206.1735580025
 31
0.0
  0
LINE
  5
4AD
330
208
100
AcDbEntity
  8
0
  6
Continuous
 62
     7
100
AcDbLine
 10
-117.4982217345
 20
212.1735580025
 30
0.0
 11
-111.4982217345
 21
212.1735580025
 31
0.0
  0
LINE
  5
4AE
330
208
100
AcDbEntity
  8
0
  6
Continuous
 62
     7
100
AcDbLine
 10
-104.9982217345
 20
212.1735580025
 30
0.0
 11
-98.99822173450001
 21
212.1735580025
 31
0.0
  0
LINE
  5
4AF
330
208
100
AcDbEntity
  8
0
  6
Continuous
 62
     7
100
AcDbLine
 10
-92.49822173450001
 20
212.1735580025
 30
0.0
 11
-86.49822173450001
 21
212.1735580025
 31
0.0
  0
LINE
  5
4B0
330
208
100
AcDbEntity
  8
0
  6
Continuous
 62
     7
100
AcDbLine
 10
-79.99822173449999
 20
212.1735580025
 30
0.0
 11
-73.99822173449999
 21
212.1735580025
 31
0.0
  0
LINE
  5
4B1
330
208
100
AcDbEntity
  8
0
  6
Continuous
 62
     7
100
AcDbLine
 10
-67.49822173449999
 20
212.1735580025
 30
0.0
 11
-61.4982217345
 21
212.1735580025
 31
0.0
  0
LINE
  5
4B2
330
208
100
AcDbEntity
  8
0
  6
Continuous
 62
     7
100
AcDbLine
 10
-54.9982217345
 20
212.1735580025
 30
0.0
 11
-48.9982217345
 21
212.1735580025
 31
0.0
  0
LINE
  5
4B3
330
208
100
AcDbEntity
  8
0
  6
Continuous
 62
     7
100
AcDbLine
 10
-42.4982217345
 20
212.1735580025
 30
0.0
 11
-36.4982217345
 21
212.1735580025
 31
0.0
  0
LINE
  5
4B4
330
208
100
AcDbEntity
  8
0
  6
Continuous
 62
     7
100
AcDbLine
 10
-29.9982217345
 20
212.1735580025
 30
0.0
 11
-23.9982217345
 21
212.1735580025
 31
0.0
  0
LINE
  5
4B5
330
208
100
AcDbEntity
  8
0
  6
Continuous
 62
     7
100
AcDbLine
 10
-17.4982217345
 20
212.1735580025
 30
0.0
 11
-11.4982217345
 21
212.1735580025
 31
0.0
  0
LINE
  5
4B6
330
208
100
AcDbEntity
  8
0
  6
Continuous
 62
     7
100
AcDbLine
 10
-4.998221734499999
 20
212.1735580025
 30
0.0
 11
1.0017782655
 21
212.1735580025
 31
0.0
  0
LINE
  5
4B7
330
208
100
AcDbEntity
  8
0
  6
Continuous
 62
     7
100
AcDbLine
 10
7.501778265499999
 20
212.1735580025
 30
0.0
 11
13.5017782655
 21
212.1735580025
 31
0.0
  0
LINE
  5
4B8
330
208
100
AcDbEntity
  8
0
  6
Continuous
 62
     7
100
AcDbLine
 10
20.0017782655
 20
212.1735580025
 30
0.0
 11
26.0017782655
 21
212.1735580025
 31
0.0
  0
LINE
  5
4B9
330
208
100
AcDbEntity
  8
0
  6
Continuous
 62
     7
100
AcDbLine
 10
32.5017782655
 20
212.1735580025
 30
0.0
 11
38.5017782655
 21
212.1735580025
 31
0.0
  0
LINE
  5
4BA
330
208
100
AcDbEntity
  8
0
  6
Continuous
 62
     7
100
AcDbLine
 10
45.00177826549999
 20
212.1735580025
 30
0.0
 11
51.0017782655
 21
212.1735580025
 31
0.0
  0
LINE
  5
4BB
330
208
100
AcDbEntity
  8
0
  6
Continuous
 62
     7
100
AcDbLine
 10
57.5017782655
 20
212.1735580025
 30
0.0
 11
63.5017782655
 21
212.1735580025
 31
0.0
  0
LINE
  5
4BC
330
208
100
AcDbEntity
  8
0
  6
Continuous
 62
     7
100
AcDbLine
 10
70.0017782655
 20
212.1735580025
 30
0.0
 11
76.00177826550001
 21
212.1735580025
 31
0.0
  0
LINE
  5
4BD
330
208
100
AcDbEntity
  8
0
  6
Continuous
 62
     7
100
AcDbLine
 10
82.5017782655
 20
212.1735580025
 30
0.0
 11
88.5017782655
 21
212.1735580025
 31
0.0
  0
LINE
  5
4BE
330
208
100
AcDbEntity
  8
0
  6
Continuous
 62
     7
100
AcDbLine
 10
95.00177826549998
 20
212.1735580025
 30
0.0
 11
101.0017782655
 21
212.1735580025
 31
0.0
  0
LINE
  5
4BF
330
208
100
AcDbEntity
  8
0
  6
Continuous
 62
     7
100
AcDbLine
 10
107.5017782655
 20
212.1735580025
 30
0.0
 11
113.5017782655
 21
212.1735580025
 31
0.0
  0
LINE
  5
4C0
330
208
100
AcDbEntity
  8
0
  6
Continuous
 62
     7
100
AcDbLine
 10
120.0017782655
 20
212.1735580025
 30
0.0
 11
126.0017782655
 21
212.1735580025
 31
0.0
  0
LINE
  5
4C1
330
208
100
AcDbEntity
  8
0
  6
Continuous
 62
     7
100
AcDbLine
 10
132.5017782655
 20
212.1735580025
 30
0.0
 11
138.5017782655
 21
212.1735580025
 31
0.0
  0
LINE
  5
4C2
330
208
100
AcDbEntity
  8
0
  6
Continuous
 62
     7
100
AcDbLine
 10
145.0017782655
 20
212.1735580025
 30
0.0
 11
151.0017782655
 21
212.1735580025
 31
0.0
  0
LINE
  5
4C3
330
208
100
AcDbEntity
  8
0
  6
Continuous
 62
     7
100
AcDbLine
 10
157.5017782655
 20
212.1735580025
 30
0.0
 11
163.5017782655
 21
212.1735580025
 31
0.0
  0
LINE
  5
4C4
330
208
100
AcDbEntity
  8
0
  6
Continuous
 62
     7
100
AcDbLine
 10
170.0017782655
 20
212.1735580025
 30
0.0
 11
176.0017782655
 21
212.1735580025
 31
0.0
  0
LINE
  5
4C5
330
208
100
AcDbEntity
  8
0
  6
Continuous
 62
     7
100
AcDbLine
 10
182.5017782655
 20
212.1735580025
 30
0.0
 11
188.5017782655
 21
212.1735580025
 31
0.0
  0
LINE
  5
4C6
330
208
100
AcDbEntity
  8
0
  6
Continuous
 62
     7
100
AcDbLine
 10
195.0017782655
 20
212.1735580025
 30
0.0
 11
201.0017782655
 21
212.1735580025
 31
0.0
  0
LINE
  5
4C7
330
208
100
AcDbEntity
  8
0
  6
Continuous
 62
     7
100
AcDbLine
 10
207.5017782655
 20
212.1735580025
 30
0.0
 11
213.5017782655
 21
212.1735580025
 31
0.0
  0
LINE
  5
4C8
330
208
100
AcDbEntity
  8
0
  6
Continuous
 62
     7
100
AcDbLine
 10
220.0017782655
 20
212.1735580025
 30
0.0
 11
226.0017782655
 21
212.1735580025
 31
0.0
  0
LINE
  5
4C9
330
208
100
AcDbEntity
  8
0
  6
Continuous
 62
     7
100
AcDbLine
 10
232.5017782655
 20
212.1735580025
 30
0.0
 11
238.5017782655
 21
212.1735580025
 31
0.0
  0
LINE
  5
4CA
330
208
100
AcDbEntity
  8
0
  6
Continuous
 62
     7
100
AcDbLine
 10
245.0017782655
 20
212.1735580025
 30
0.0
 11
251.0017782655
 21
212.1735580025
 31
0.0
  0
LINE
  5
4CB
330
208
100
AcDbEntity
  8
0
  6
Continuous
 62
     7
100
AcDbLine
 10
257.5017782655
 20
212.1735580025
 30
0.0
 11
263.5017782655
 21
212.1735580025
 31
0.0
  0
LINE
  5
4CC
330
208
100
AcDbEntity
  8
0
  6
Continuous
 62
     7
100
AcDbLine
 10
270.0017782655
 20
212.1735580025
 30
0.0
 11
276.0017782655
 21
212.1735580025
 31
0.0
  0
LINE
  5
4CD
330
208
100
AcDbEntity
  8
0
  6
Continuous
 62
     7
100
AcDbLine
 10
282.5017782655
 20
212.1735580025
 30
0.0
 11
288.5017782655
 21
212.1735580025
 31
0.0
  0
LINE
  5
4CE
330
208
100
AcDbEntity
  8
0
  6
Continuous
 62
     7
100
AcDbLine
 10
295.0017782655
 20
212.1735580025
 30
0.0
 11
301.0017782655
 21
212.1735580025
 31
0.0
  0
LINE
  5
4CF
330
208
100
AcDbEntity
  8
0
  6
Continuous
 62
     7
100
AcDbLine
 10
307.5017782655
 20
212.1735580025
 30
0.0
 11
313.5017782655
 21
212.1735580025
 31
0.0
  0
LINE
  5
4D0
330
208
100
AcDbEntity
  8
0
  6
Continuous
 62
     7
100
AcDbLine
 10
320.0017782655
 20
212.1735580025
 30
0.0
 11
326.0017782655
 21
212.1735580025
 31
0.0
  0
LINE
  5
4D1
330
208
100
AcDbEntity
  8
0
  6
Continuous
 62
     7
100
AcDbLine
 10
332.5017782655
 20
212.1735580025
 30
0.0
 11
338.5017782655
 21
212.1735580025
 31
0.0
  0
LINE
  5
4D2
330
208
100
AcDbEntity
  8
0
  6
Continuous
 62
     7
100
AcDbLine
 10
345.0017782655
 20
212.1735580025
 30
0.0
 11
351.0017782655
 21
212.1735580025
 31
0.0
  0
LINE
  5
4D3
330
208
100
AcDbEntity
  8
0
  6
Continuous
 62
     7
100
AcDbLine
 10
357.5017782655
 20
212.1735580025
 30
0.0
 11
363.5017782655
 21
212.1735580025
 31
0.0
  0
LINE
  5
4D4
330
208
100
AcDbEntity
  8
0
  6
Continuous
 62
     7
100
AcDbLine
 10
370.0017782655
 20
212.1735580025
 30
0.0
 11
376.0017782655
 21
212.1735580025
 31
0.0
  0
LINE
  5
4D5
330
208
100
AcDbEntity
  8
0
  6
Continuous
 62
     7
100
AcDbLine
 10
382.5017782655
 20
212.1735580025
 30
0.0
 11
388.5017782655
 21
212.1735580025
 31
0.0
  0
LINE
  5
4D6
330
208
100
AcDbEntity
  8
0
  6
Continuous
 62
     7
100
AcDbLine
 10
395.0017782655
 20
212.1735580025
 30
0.0
 11
401.0017782655
 21
212.1735580025
 31
0.0
  0
LINE
  5
4D7
330
208
100
AcDbEntity
  8
0
  6
Continuous
 62
     7
100
AcDbLine
 10
407.5017782655
 20
212.1735580025
 30
0.0
 11
413.5017782655
 21
212.1735580025
 31
0.0
  0
LINE
  5
4D8
330
208
100
AcDbEntity
  8
0
  6
Continuous
 62
     7
100
AcDbLine
 10
420.0017782655
 20
212.1735580025
 30
0.0
 11
426.0017782655
 21
212.1735580025
 31
0.0
  0
LINE
  5
4D9
330
208
100
AcDbEntity
  8
0
  6
Continuous
 62
     7
100
AcDbLine
 10
432.5017782655
 20
212.1735580025
 30
0.0
 11
438.5017782655
 21
212.1735580025
 31
0.0
  0
LINE
  5
4DA
330
208
100
AcDbEntity
  8
0
  6
Continuous
 62
     7
100
AcDbLine
 10
445.0017782655
 20
212.1735580025
 30
0.0
 11
451.0017782655
 21
212.1735580025
 31
0.0
  0
LINE
  5
4DB
330
208
100
AcDbEntity
  8
0
  6
Continuous
 62
     7
100
AcDbLine
 10
457.5017782655
 20
212.1735580025
 30
0.0
 11
463.5017782655
 21
212.1735580025
 31
0.0
  0
LINE
  5
4DC
330
208
100
AcDbEntity
  8
0
  6
Continuous
 62
     7
100
AcDbLine
 10
470.0017782655
 20
212.1735580025
 30
0.0
 11
476.0017782655
 21
212.1735580025
 31
0.0
  0
LINE
  5
4DD
330
208
100
AcDbEntity
  8
0
  6
Continuous
 62
     7
100
AcDbLine
 10
482.5017782655
 20
212.1735580025
 30
0.0
 11
488.5017782655
 21
212.1735580025
 31
0.0
  0
LINE
  5
4DE
330
208
100
AcDbEntity
  8
0
  6
Continuous
 62
     7
100
AcDbLine
 10
495.0017782655
 20
212.1735580025
 30
0.0
 11
501.0017782655
 21
212.1735580025
 31
0.0
  0
LINE
  5
4DF
330
208
100
AcDbEntity
  8
0
  6
Continuous
 62
     7
100
AcDbLine
 10
507.5017782655
 20
212.1735580025
 30
0.0
 11
513.5017782654997
 21
212.1735580025
 31
0.0
  0
LINE
  5
4E0
330
208
100
AcDbEntity
  8
0
  6
Continuous
 62
     7
100
AcDbLine
 10
520.0017782655
 20
212.1735580025
 30
0.0
 11
526.0017782654997
 21
212.1735580025
 31
0.0
  0
LINE
  5
4E1
330
208
100
AcDbEntity
  8
0
  6
Continuous
 62
     7
100
AcDbLine
 10
532.5017782655
 20
212.1735580025
 30
0.0
 11
538.5017782654997
 21
212.1735580025
 31
0.0
  0
LINE
  5
4E2
330
208
100
AcDbEntity
  8
0
  6
Continuous
 62
     7
100
AcDbLine
 10
545.0017782655
 20
212.1735580025
 30
0.0
 11
551.0017782654997
 21
212.1735580025
 31
0.0
  0
LINE
  5
4E3
330
208
100
AcDbEntity
  8
0
  6
Continuous
 62
     7
100
AcDbLine
 10
245.0017782655
 20
168.6735580025
 30
0.0
 11
245.0017782655
 21
174.6735580025
 31
0.0
  0
LINE
  5
4E4
330
208
100
AcDbEntity
  8
0
  6
Continuous
 62
     7
100
AcDbLine
 10
245.0017782655
 20
181.1735580025
 30
0.0
 11
245.0017782655
 21
187.1735580025
 31
0.0
  0
LINE
  5
4E5
330
208
100
AcDbEntity
  8
0
  6
Continuous
 62
     7
100
AcDbLine
 10
245.0017782655
 20
193.6735580025
 30
0.0
 11
245.0017782655
 21
199.6735580025
 31
0.0
  0
LINE
  5
4E6
330
208
100
AcDbEntity
  8
0
  6
Continuous
 62
     7
100
AcDbLine
 10
245.0017782655
 20
206.1735580025
 30
0.0
 11
245.0017782655
 21
212.1735580025
 31
0.0
  0
LINE
  5
4E7
330
208
100
AcDbEntity
  8
0
  6
Continuous
 62
     7
100
AcDbLine
 10
251.0017782655
 20
212.1735580025
 30
0.0
 11
251.0017782655
 21
206.1735580025
 31
0.0
  0
LINE
  5
4E8
330
208
100
AcDbEntity
  8
0
  6
Continuous
 62
     7
100
AcDbLine
 10
251.0017782655
 20
199.6735580025
 30
0.0
 11
251.0017782655
 21
193.6735580025
 31
0.0
  0
LINE
  5
4E9
330
208
100
AcDbEntity
  8
0
  6
Continuous
 62
     7
100
AcDbLine
 10
251.0017782655
 20
187.1735580025
 30
0.0
 11
251.0017782655
 21
181.1735580025
 31
0.0
  0
LINE
  5
4EA
330
208
100
AcDbEntity
  8
0
  6
Continuous
 62
     7
100
AcDbLine
 10
251.0017782655
 20
174.6735580025
 30
0.0
 11
251.0017782655
 21
168.6735580025
 31
0.0
  0
LINE
  5
4EB
330
208
100
AcDbEntity
  8
0
  6
Continuous
 62
     7
100
AcDbLine
 10
257.5017782655
 20
168.6735580025
 30
0.0
 11
257.5017782655
 21
174.6735580025
 31
0.0
  0
LINE
  5
4EC
330
208
100
AcDbEntity
  8
0
  6
Continuous
 62
     7
100
AcDbLine
 10
257.5017782655
 20
181.1735580025
 30
0.0
 11
257.5017782655
 21
187.1735580025
 31
0.0
  0
LINE
  5
4ED
330
208
100
AcDbEntity
  8
0
  6
Continuous
 62
     7
100
AcDbLine
 10
257.5017782655
 20
193.6735580025
 30
0.0
 11
257.5017782655
 21
199.6735580025
 31
0.0
  0
LINE
  5
4EE
330
208
100
AcDbEntity
  8
0
  6
Continuous
 62
     7
100
AcDbLine
 10
257.5017782655
 20
206.1735580025
 30
0.0
 11
257.5017782655
 21
212.1735580025
 31
0.0
  0
LINE
  5
4EF
330
208
100
AcDbEntity
  8
0
  6
Continuous
 62
     7
100
AcDbLine
 10
263.5017782655
 20
212.1735580025
 30
0.0
 11
263.5017782655
 21
206.1735580025
 31
0.0
  0
LINE
  5
4F0
330
208
100
AcDbEntity
  8
0
  6
Continuous
 62
     7
100
AcDbLine
 10
263.5017782655
 20
199.6735580025
 30
0.0
 11
263.5017782655
 21
193.6735580025
 31
0.0
  0
LINE
  5
4F1
330
208
100
AcDbEntity
  8
0
  6
Continuous
 62
     7
100
AcDbLine
 10
263.5017782655
 20
187.1735580025
 30
0.0
 11
263.5017782655
 21
181.1735580025
 31
0.0
  0
LINE
  5
4F2
330
208
100
AcDbEntity
  8
0
  6
Continuous
 62
     7
100
AcDbLine
 10
263.5017782655
 20
174.6735580025
 30
0.0
 11
263.5017782655
 21
168.6735580025
 31
0.0
  0
LINE
  5
4F3
330
208
100
AcDbEntity
  8
BEZUGSACHSEN
  6
Continuous
 62
     9
100
AcDbLine
 10
-122.2482217345
 20
215.9666601002
 30
0.0
 11
555.7517782655
 21
215.9666601002
 31
0.0
  0
LINE
  5
4F4
330
208
100
AcDbEntity
  8
BEZUGSACHSEN
  6
Continuous
 62
     9
100
AcDbLine
 10
-122.2482217345
 20
216.9660221416
 30
0.0
 11
555.7517782655
 21
216.9660221416
 31
0.0
  0
LINE
  5
4F5
330
208
100
AcDbEntity
  8
0
  6
Continuous
 62
     7
100
AcDbLine
 10
-122.2482217345
 20
220.9248738161
 30
0.0
 11
555.7517782655
 21
220.9248738161
 31
0.0
  0
LINE
  5
4F6
330
208
100
AcDbEntity
  8
0
  6
Continuous
 62
     7
100
AcDbLine
 10
270.0017782655
 20
168.6735580025
 30
0.0
 11
270.0017782655
 21
174.6735580025
 31
0.0
  0
LINE
  5
4F7
330
208
100
AcDbEntity
  8
0
  6
Continuous
 62
     7
100
AcDbLine
 10
270.0017782655
 20
181.1735580025
 30
0.0
 11
270.0017782655
 21
187.1735580025
 31
0.0
  0
LINE
  5
4F8
330
208
100
AcDbEntity
  8
0
  6
Continuous
 62
     7
100
AcDbLine
 10
270.0017782655
 20
193.6735580025
 30
0.0
 11
270.0017782655
 21
199.6735580025
 31
0.0
  0
LINE
  5
4F9
330
208
100
AcDbEntity
  8
0
  6
Continuous
 62
     7
100
AcDbLine
 10
270.0017782655
 20
206.1735580025
 30
0.0
 11
270.0017782655
 21
212.1735580025
 31
0.0
  0
LINE
  5
4FA
330
208
100
AcDbEntity
  8
0
  6
Continuous
 62
     7
100
AcDbLine
 10
276.0017782655
 20
212.1735580025
 30
0.0
 11
276.0017782655
 21
206.1735580025
 31
0.0
  0
LINE
  5
4FB
330
208
100
AcDbEntity
  8
0
  6
Continuous
 62
     7
100
AcDbLine
 10
276.0017782655
 20
199.6735580025
 30
0.0
 11
276.0017782655
 21
193.6735580025
 31
0.0
  0
LINE
  5
4FC
330
208
100
AcDbEntity
  8
0
  6
Continuous
 62
     7
100
AcDbLine
 10
276.0017782655
 20
187.1735580025
 30
0.0
 11
276.0017782655
 21
181.1735580025
 31
0.0
  0
LINE
  5
4FD
330
208
100
AcDbEntity
  8
0
  6
Continuous
 62
     7
100
AcDbLine
 10
276.0017782655
 20
174.6735580025
 30
0.0
 11
276.0017782655
 21
168.6735580025
 31
0.0
  0
LINE
  5
4FE
330
208
100
AcDbEntity
  8
0
  6
Continuous
 62
     7
100
AcDbLine
 10
282.5017782655
 20
168.6735580025
 30
0.0
 11
282.5017782655
 21
174.6735580025
 31
0.0
  0
LINE
  5
4FF
330
208
100
AcDbEntity
  8
0
  6
Continuous
 62
     7
100
AcDbLine
 10
282.5017782655
 20
181.1735580025
 30
0.0
 11
282.5017782655
 21
187.1735580025
 31
0.0
  0
LINE
  5
500
330
208
100
AcDbEntity
  8
0
  6
Continuous
 62
     7
100
AcDbLine
 10
282.5017782655
 20
193.6735580025
 30
0.0
 11
282.5017782655
 21
199.6735580025
 31
0.0
  0
LINE
  5
501
330
208
100
AcDbEntity
  8
0
  6
Continuous
 62
     7
100
AcDbLine
 10
282.5017782655
 20
206.1735580025
 30
0.0
 11
282.5017782655
 21
212.1735580025
 31
0.0
  0
LINE
  5
502
330
208
100
AcDbEntity
  8
0
  6
Continuous
 62
     7
100
AcDbLine
 10
288.5017782655
 20
212.1735580025
 30
0.0
 11
288.5017782655
 21
206.1735580025
 31
0.0
  0
LINE
  5
503
330
208
100
AcDbEntity
  8
0
  6
Continuous
 62
     7
100
AcDbLine
 10
288.5017782655
 20
199.6735580025
 30
0.0
 11
288.5017782655
 21
193.6735580025
 31
0.0
  0
LINE
  5
504
330
208
100
AcDbEntity
  8
0
  6
Continuous
 62
     7
100
AcDbLine
 10
288.5017782655
 20
187.1735580025
 30
0.0
 11
288.5017782655
 21
181.1735580025
 31
0.0
  0
LINE
  5
505
330
208
100
AcDbEntity
  8
0
  6
Continuous
 62
     7
100
AcDbLine
 10
288.5017782655
 20
174.6735580025
 30
0.0
 11
288.5017782655
 21
168.6735580025
 31
0.0
  0
LINE
  5
506
330
208
100
AcDbEntity
  8
0
  6
Continuous
 62
     7
100
AcDbLine
 10
295.0017782655
 20
168.6735580025
 30
0.0
 11
295.0017782655
 21
174.6735580025
 31
0.0
  0
LINE
  5
507
330
208
100
AcDbEntity
  8
0
  6
Continuous
 62
     7
100
AcDbLine
 10
295.0017782655
 20
181.1735580025
 30
0.0
 11
295.0017782655
 21
187.1735580025
 31
0.0
  0
LINE
  5
508
330
208
100
AcDbEntity
  8
0
  6
Continuous
 62
     7
100
AcDbLine
 10
295.0017782655
 20
193.6735580025
 30
0.0
 11
295.0017782655
 21
199.6735580025
 31
0.0
  0
LINE
  5
509
330
208
100
AcDbEntity
  8
0
  6
Continuous
 62
     7
100
AcDbLine
 10
295.0017782655
 20
206.1735580025
 30
0.0
 11
295.0017782655
 21
212.1735580025
 31
0.0
  0
LINE
  5
50A
330
208
100
AcDbEntity
  8
0
  6
Continuous
 62
     7
100
AcDbLine
 10
301.0017782655
 20
212.1735580025
 30
0.0
 11
301.0017782655
 21
206.1735580025
 31
0.0
  0
LINE
  5
50B
330
208
100
AcDbEntity
  8
0
  6
Continuous
 62
     7
100
AcDbLine
 10
301.0017782655
 20
199.6735580025
 30
0.0
 11
301.0017782655
 21
193.6735580025
 31
0.0
  0
LINE
  5
50C
330
208
100
AcDbEntity
  8
0
  6
Continuous
 62
     7
100
AcDbLine
 10
301.0017782655
 20
187.1735580025
 30
0.0
 11
301.0017782655
 21
181.1735580025
 31
0.0
  0
LINE
  5
50D
330
208
100
AcDbEntity
  8
0
  6
Continuous
 62
     7
100
AcDbLine
 10
301.0017782655
 20
174.6735580025
 30
0.0
 11
301.0017782655
 21
168.6735580025
 31
0.0
  0
LINE
  5
50E
330
208
100
AcDbEntity
  8
0
  6
Continuous
 62
     7
100
AcDbLine
 10
307.5017782655
 20
168.6735580025
 30
0.0
 11
307.5017782655
 21
174.6735580025
 31
0.0
  0
LINE
  5
50F
330
208
100
AcDbEntity
  8
0
  6
Continuous
 62
     7
100
AcDbLine
 10
307.5017782655
 20
181.1735580025
 30
0.0
 11
307.5017782655
 21
187.1735580025
 31
0.0
  0
LINE
  5
510
330
208
100
AcDbEntity
  8
0
  6
Continuous
 62
     7
100
AcDbLine
 10
307.5017782655
 20
193.6735580025
 30
0.0
 11
307.5017782655
 21
199.6735580025
 31
0.0
  0
LINE
  5
511
330
208
100
AcDbEntity
  8
0
  6
Continuous
 62
     7
100
AcDbLine
 10
307.5017782655
 20
206.1735580025
 30
0.0
 11
307.5017782655
 21
212.1735580025
 31
0.0
  0
LINE
  5
512
330
208
100
AcDbEntity
  8
0
  6
Continuous
 62
     7
100
AcDbLine
 10
313.5017782655
 20
212.1735580025
 30
0.0
 11
313.5017782655
 21
206.1735580025
 31
0.0
  0
LINE
  5
513
330
208
100
AcDbEntity
  8
0
  6
Continuous
 62
     7
100
AcDbLine
 10
313.5017782655
 20
199.6735580025
 30
0.0
 11
313.5017782655
 21
193.6735580025
 31
0.0
  0
LINE
  5
514
330
208
100
AcDbEntity
  8
0
  6
Continuous
 62
     7
100
AcDbLine
 10
313.5017782655
 20
187.1735580025
 30
0.0
 11
313.5017782655
 21
181.1735580025
 31
0.0
  0
LINE
  5
515
330
208
100
AcDbEntity
  8
0
  6
Continuous
 62
     7
100
AcDbLine
 10
313.5017782655
 20
174.6735580025
 30
0.0
 11
313.5017782655
 21
168.6735580025
 31
0.0
  0
LINE
  5
516
330
208
100
AcDbEntity
  8
0
  6
Continuous
 62
     7
100
AcDbLine
 10
320.0017782655
 20
168.6735580025
 30
0.0
 11
320.0017782655
 21
174.6735580025
 31
0.0
  0
LINE
  5
517
330
208
100
AcDbEntity
  8
0
  6
Continuous
 62
     7
100
AcDbLine
 10
320.0017782655
 20
181.1735580025
 30
0.0
 11
320.0017782655
 21
187.1735580025
 31
0.0
  0
LINE
  5
518
330
208
100
AcDbEntity
  8
0
  6
Continuous
 62
     7
100
AcDbLine
 10
320.0017782655
 20
193.6735580025
 30
0.0
 11
320.0017782655
 21
199.6735580025
 31
0.0
  0
LINE
  5
519
330
208
100
AcDbEntity
  8
0
  6
Continuous
 62
     7
100
AcDbLine
 10
320.0017782655
 20
206.1735580025
 30
0.0
 11
320.0017782655
 21
212.1735580025
 31
0.0
  0
LINE
  5
51A
330
208
100
AcDbEntity
  8
0
  6
Continuous
 62
     7
100
AcDbLine
 10
326.0017782655
 20
212.1735580025
 30
0.0
 11
326.0017782655
 21
206.1735580025
 31
0.0
  0
LINE
  5
51B
330
208
100
AcDbEntity
  8
0
  6
Continuous
 62
     7
100
AcDbLine
 10
326.0017782655
 20
199.6735580025
 30
0.0
 11
326.0017782655
 21
193.6735580025
 31
0.0
  0
LINE
  5
51C
330
208
100
AcDbEntity
  8
0
  6
Continuous
 62
     7
100
AcDbLine
 10
326.0017782655
 20
187.1735580025
 30
0.0
 11
326.0017782655
 21
181.1735580025
 31
0.0
  0
LINE
  5
51D
330
208
100
AcDbEntity
  8
0
  6
Continuous
 62
     7
100
AcDbLine
 10
326.0017782655
 20
174.6735580025
 30
0.0
 11
326.0017782655
 21
168.6735580025
 31
0.0
  0
LINE
  5
51E
330
208
100
AcDbEntity
  8
0
  6
Continuous
 62
     7
100
AcDbLine
 10
332.5017782655
 20
168.6735580025
 30
0.0
 11
332.5017782655
 21
174.6735580025
 31
0.0
  0
LINE
  5
51F
330
208
100
AcDbEntity
  8
0
  6
Continuous
 62
     7
100
AcDbLine
 10
332.5017782655
 20
181.1735580025
 30
0.0
 11
332.5017782655
 21
187.1735580025
 31
0.0
  0
LINE
  5
520
330
208
100
AcDbEntity
  8
0
  6
Continuous
 62
     7
100
AcDbLine
 10
332.5017782655
 20
193.6735580025
 30
0.0
 11
332.5017782655
 21
199.6735580025
 31
0.0
  0
LINE
  5
521
330
208
100
AcDbEntity
  8
0
  6
Continuous
 62
     7
100
AcDbLine
 10
332.5017782655
 20
206.1735580025
 30
0.0
 11
332.5017782655
 21
212.1735580025
 31
0.0
  0
LINE
  5
522
330
208
100
AcDbEntity
  8
0
  6
Continuous
 62
     7
100
AcDbLine
 10
338.5017782655
 20
212.1735580025
 30
0.0
 11
338.5017782655
 21
206.1735580025
 31
0.0
  0
LINE
  5
523
330
208
100
AcDbEntity
  8
0
  6
Continuous
 62
     7
100
AcDbLine
 10
338.5017782655
 20
199.6735580025
 30
0.0
 11
338.5017782655
 21
193.6735580025
 31
0.0
  0
LINE
  5
524
330
208
100
AcDbEntity
  8
0
  6
Continuous
 62
     7
100
AcDbLine
 10
338.5017782655
 20
187.1735580025
 30
0.0
 11
338.5017782655
 21
181.1735580025
 31
0.0
  0
LINE
  5
525
330
208
100
AcDbEntity
  8
0
  6
Continuous
 62
     7
100
AcDbLine
 10
338.5017782655
 20
174.6735580025
 30
0.0
 11
338.5017782655
 21
168.6735580025
 31
0.0
  0
LINE
  5
526
330
208
100
AcDbEntity
  8
0
  6
Continuous
 62
     7
100
AcDbLine
 10
345.0017782655
 20
168.6735580025
 30
0.0
 11
345.0017782655
 21
174.6735580025
 31
0.0
  0
LINE
  5
527
330
208
100
AcDbEntity
  8
0
  6
Continuous
 62
     7
100
AcDbLine
 10
345.0017782655
 20
181.1735580025
 30
0.0
 11
345.0017782655
 21
187.1735580025
 31
0.0
  0
LINE
  5
528
330
208
100
AcDbEntity
  8
0
  6
Continuous
 62
     7
100
AcDbLine
 10
345.0017782655
 20
193.6735580025
 30
0.0
 11
345.0017782655
 21
199.6735580025
 31
0.0
  0
LINE
  5
529
330
208
100
AcDbEntity
  8
0
  6
Continuous
 62
     7
100
AcDbLine
 10
345.0017782655
 20
206.1735580025
 30
0.0
 11
345.0017782655
 21
212.1735580025
 31
0.0
  0
LINE
  5
52A
330
208
100
AcDbEntity
  8
0
  6
Continuous
 62
     7
100
AcDbLine
 10
351.0017782655
 20
212.1735580025
 30
0.0
 11
351.0017782655
 21
206.1735580025
 31
0.0
  0
LINE
  5
52B
330
208
100
AcDbEntity
  8
0
  6
Continuous
 62
     7
100
AcDbLine
 10
351.0017782655
 20
199.6735580025
 30
0.0
 11
351.0017782655
 21
193.6735580025
 31
0.0
  0
LINE
  5
52C
330
208
100
AcDbEntity
  8
0
  6
Continuous
 62
     7
100
AcDbLine
 10
351.0017782655
 20
187.1735580025
 30
0.0
 11
351.0017782655
 21
181.1735580025
 31
0.0
  0
LINE
  5
52D
330
208
100
AcDbEntity
  8
0
  6
Continuous
 62
     7
100
AcDbLine
 10
351.0017782655
 20
174.6735580025
 30
0.0
 11
351.0017782655
 21
168.6735580025
 31
0.0
  0
LINE
  5
52E
330
208
100
AcDbEntity
  8
0
  6
Continuous
 62
     7
100
AcDbLine
 10
357.5017782655
 20
168.6735580025
 30
0.0
 11
357.5017782655
 21
174.6735580025
 31
0.0
  0
LINE
  5
52F
330
208
100
AcDbEntity
  8
0
  6
Continuous
 62
     7
100
AcDbLine
 10
357.5017782655
 20
181.1735580025
 30
0.0
 11
357.5017782655
 21
187.1735580025
 31
0.0
  0
LINE
  5
530
330
208
100
AcDbEntity
  8
0
  6
Continuous
 62
     7
100
AcDbLine
 10
357.5017782655
 20
193.6735580025
 30
0.0
 11
357.5017782655
 21
199.6735580025
 31
0.0
  0
LINE
  5
531
330
208
100
AcDbEntity
  8
0
  6
Continuous
 62
     7
100
AcDbLine
 10
357.5017782655
 20
206.1735580025
 30
0.0
 11
357.5017782655
 21
212.1735580025
 31
0.0
  0
LINE
  5
532
330
208
100
AcDbEntity
  8
0
  6
Continuous
 62
     7
100
AcDbLine
 10
363.5017782655
 20
212.1735580025
 30
0.0
 11
363.5017782655
 21
206.1735580025
 31
0.0
  0
LINE
  5
533
330
208
100
AcDbEntity
  8
0
  6
Continuous
 62
     7
100
AcDbLine
 10
363.5017782655
 20
199.6735580025
 30
0.0
 11
363.5017782655
 21
193.6735580025
 31
0.0
  0
LINE
  5
534
330
208
100
AcDbEntity
  8
0
  6
Continuous
 62
     7
100
AcDbLine
 10
363.5017782655
 20
187.1735580025
 30
0.0
 11
363.5017782655
 21
181.1735580025
 31
0.0
  0
LINE
  5
535
330
208
100
AcDbEntity
  8
0
  6
Continuous
 62
     7
100
AcDbLine
 10
363.5017782655
 20
174.6735580025
 30
0.0
 11
363.5017782655
 21
168.6735580025
 31
0.0
  0
LINE
  5
536
330
208
100
AcDbEntity
  8
0
  6
Continuous
 62
     7
100
AcDbLine
 10
370.0017782655
 20
168.6735580025
 30
0.0
 11
370.0017782655
 21
174.6735580025
 31
0.0
  0
LINE
  5
537
330
208
100
AcDbEntity
  8
0
  6
Continuous
 62
     7
100
AcDbLine
 10
370.0017782655
 20
181.1735580025
 30
0.0
 11
370.0017782655
 21
187.1735580025
 31
0.0
  0
LINE
  5
538
330
208
100
AcDbEntity
  8
0
  6
Continuous
 62
     7
100
AcDbLine
 10
370.0017782655
 20
193.6735580025
 30
0.0
 11
370.0017782655
 21
199.6735580025
 31
0.0
  0
LINE
  5
539
330
208
100
AcDbEntity
  8
0
  6
Continuous
 62
     7
100
AcDbLine
 10
370.0017782655
 20
206.1735580025
 30
0.0
 11
370.0017782655
 21
212.1735580025
 31
0.0
  0
LINE
  5
53A
330
208
100
AcDbEntity
  8
0
  6
Continuous
 62
     7
100
AcDbLine
 10
376.0017782655
 20
212.1735580025
 30
0.0
 11
376.0017782655
 21
206.1735580025
 31
0.0
  0
LINE
  5
53B
330
208
100
AcDbEntity
  8
0
  6
Continuous
 62
     7
100
AcDbLine
 10
376.0017782655
 20
199.6735580025
 30
0.0
 11
376.0017782655
 21
193.6735580025
 31
0.0
  0
LINE
  5
53C
330
208
100
AcDbEntity
  8
0
  6
Continuous
 62
     7
100
AcDbLine
 10
376.0017782655
 20
187.1735580025
 30
0.0
 11
376.0017782655
 21
181.1735580025
 31
0.0
  0
LINE
  5
53D
330
208
100
AcDbEntity
  8
0
  6
Continuous
 62
     7
100
AcDbLine
 10
376.0017782655
 20
174.6735580025
 30
0.0
 11
376.0017782655
 21
168.6735580025
 31
0.0
  0
LINE
  5
53E
330
208
100
AcDbEntity
  8
0
  6
Continuous
 62
     7
100
AcDbLine
 10
543.8517042665997
 20
170.2142978607
 30
0.0
 11
543.0523628130998
 21
170.6757978641
 31
0.0
  0
LINE
  5
53F
330
208
100
AcDbEntity
  8
0
  6
Continuous
 62
     7
100
AcDbLine
 10
543.0523628130998
 20
170.6757978641
 30
0.0
 11
543.0527782655
 21
170.6755580025
 31
0.0
  0
LINE
  5
540
330
208
100
AcDbEntity
  8
0
  6
Continuous
 62
     7
100
AcDbLine
 10
382.5017782655
 20
168.6735580025
 30
0.0
 11
382.5017782655
 21
174.6735580025
 31
0.0
  0
LINE
  5
541
330
208
100
AcDbEntity
  8
0
  6
Continuous
 62
     7
100
AcDbLine
 10
382.5017782655
 20
181.1735580025
 30
0.0
 11
382.5017782655
 21
187.1735580025
 31
0.0
  0
LINE
  5
542
330
208
100
AcDbEntity
  8
0
  6
Continuous
 62
     7
100
AcDbLine
 10
382.5017782655
 20
193.6735580025
 30
0.0
 11
382.5017782655
 21
199.6735580025
 31
0.0
  0
LINE
  5
543
330
208
100
AcDbEntity
  8
0
  6
Continuous
 62
     7
100
AcDbLine
 10
382.5017782655
 20
206.1735580025
 30
0.0
 11
382.5017782655
 21
212.1735580025
 31
0.0
  0
LINE
  5
544
330
208
100
AcDbEntity
  8
0
  6
Continuous
 62
     7
100
AcDbLine
 10
388.5017782655
 20
212.1735580025
 30
0.0
 11
388.5017782655
 21
206.1735580025
 31
0.0
  0
LINE
  5
545
330
208
100
AcDbEntity
  8
0
  6
Continuous
 62
     7
100
AcDbLine
 10
388.5017782655
 20
199.6735580025
 30
0.0
 11
388.5017782655
 21
193.6735580025
 31
0.0
  0
LINE
  5
546
330
208
100
AcDbEntity
  8
0
  6
Continuous
 62
     7
100
AcDbLine
 10
388.5017782655
 20
187.1735580025
 30
0.0
 11
388.5017782655
 21
181.1735580025
 31
0.0
  0
LINE
  5
547
330
208
100
AcDbEntity
  8
0
  6
Continuous
 62
     7
100
AcDbLine
 10
388.5017782655
 20
174.6735580025
 30
0.0
 11
388.5017782655
 21
168.6735580025
 31
0.0
  0
LINE
  5
548
330
208
100
AcDbEntity
  8
0
  6
Continuous
 62
     7
100
AcDbLine
 10
395.0017782655
 20
168.6735580025
 30
0.0
 11
395.0017782655
 21
174.6735580025
 31
0.0
  0
LINE
  5
549
330
208
100
AcDbEntity
  8
0
  6
Continuous
 62
     7
100
AcDbLine
 10
395.0017782655
 20
181.1735580025
 30
0.0
 11
395.0017782655
 21
187.1735580025
 31
0.0
  0
LINE
  5
54A
330
208
100
AcDbEntity
  8
0
  6
Continuous
 62
     7
100
AcDbLine
 10
395.0017782655
 20
193.6735580025
 30
0.0
 11
395.0017782655
 21
199.6735580025
 31
0.0
  0
LINE
  5
54B
330
208
100
AcDbEntity
  8
0
  6
Continuous
 62
     7
100
AcDbLine
 10
395.0017782655
 20
206.1735580025
 30
0.0
 11
395.0017782655
 21
212.1735580025
 31
0.0
  0
LINE
  5
54C
330
208
100
AcDbEntity
  8
0
  6
Continuous
 62
     7
100
AcDbLine
 10
401.0017782655
 20
212.1735580025
 30
0.0
 11
401.0017782655
 21
206.1735580025
 31
0.0
  0
LINE
  5
54D
330
208
100
AcDbEntity
  8
0
  6
Continuous
 62
     7
100
AcDbLine
 10
401.0017782655
 20
199.6735580025
 30
0.0
 11
401.0017782655
 21
193.6735580025
 31
0.0
  0
LINE
  5
54E
330
208
100
AcDbEntity
  8
0
  6
Continuous
 62
     7
100
AcDbLine
 10
401.0017782655
 20
187.1735580025
 30
0.0
 11
401.0017782655
 21
181.1735580025
 31
0.0
  0
LINE
  5
54F
330
208
100
AcDbEntity
  8
0
  6
Continuous
 62
     7
100
AcDbLine
 10
401.0017782655
 20
174.6735580025
 30
0.0
 11
401.0017782655
 21
168.6735580025
 31
0.0
  0
LINE
  5
550
330
208
100
AcDbEntity
  8
0
  6
Continuous
 62
     7
100
AcDbLine
 10
543.8324522474998
 20
173.247672641
 30
0.0
 11
543.8322536877999
 21
173.2475580025
 31
0.0
  0
LINE
  5
551
330
208
100
AcDbEntity
  8
0
  6
Continuous
 62
     7
100
AcDbLine
 10
543.0330163029
 20
172.7861180832
 30
0.0
 11
543.8324522474998
 21
173.247672641
 31
0.0
  0
LINE
  5
552
330
208
100
AcDbEntity
  8
0
  6
Continuous
 62
     7
100
AcDbLine
 10
407.5017782655
 20
168.6735580025
 30
0.0
 11
407.5017782655
 21
174.6735580025
 31
0.0
  0
LINE
  5
553
330
208
100
AcDbEntity
  8
0
  6
Continuous
 62
     7
100
AcDbLine
 10
407.5017782655
 20
181.1735580025
 30
0.0
 11
407.5017782655
 21
187.1735580025
 31
0.0
  0
LINE
  5
554
330
208
100
AcDbEntity
  8
0
  6
Continuous
 62
     7
100
AcDbLine
 10
407.5017782655
 20
193.6735580025
 30
0.0
 11
407.5017782655
 21
199.6735580025
 31
0.0
  0
LINE
  5
555
330
208
100
AcDbEntity
  8
0
  6
Continuous
 62
     7
100
AcDbLine
 10
407.5017782655
 20
206.1735580025
 30
0.0
 11
407.5017782655
 21
212.1735580025
 31
0.0
  0
LINE
  5
556
330
208
100
AcDbEntity
  8
0
  6
Continuous
 62
     7
100
AcDbLine
 10
413.5017782655
 20
212.1735580025
 30
0.0
 11
413.5017782655
 21
206.1735580025
 31
0.0
  0
LINE
  5
557
330
208
100
AcDbEntity
  8
0
  6
Continuous
 62
     7
100
AcDbLine
 10
413.5017782655
 20
199.6735580025
 30
0.0
 11
413.5017782655
 21
193.6735580025
 31
0.0
  0
LINE
  5
558
330
208
100
AcDbEntity
  8
0
  6
Continuous
 62
     7
100
AcDbLine
 10
413.5017782655
 20
187.1735580025
 30
0.0
 11
413.5017782655
 21
181.1735580025
 31
0.0
  0
LINE
  5
559
330
208
100
AcDbEntity
  8
0
  6
Continuous
 62
     7
100
AcDbLine
 10
413.5017782655
 20
174.6735580025
 30
0.0
 11
413.5017782655
 21
168.6735580025
 31
0.0
  0
LINE
  5
55A
330
208
100
AcDbEntity
  8
0
  6
Continuous
 62
     7
100
AcDbLine
 10
420.0017782655
 20
168.6735580025
 30
0.0
 11
420.0017782655
 21
174.6735580025
 31
0.0
  0
LINE
  5
55B
330
208
100
AcDbEntity
  8
0
  6
Continuous
 62
     7
100
AcDbLine
 10
420.0017782655
 20
181.1735580025
 30
0.0
 11
420.0017782655
 21
187.1735580025
 31
0.0
  0
LINE
  5
55C
330
208
100
AcDbEntity
  8
0
  6
Continuous
 62
     7
100
AcDbLine
 10
420.0017782655
 20
193.6735580025
 30
0.0
 11
420.0017782655
 21
199.6735580025
 31
0.0
  0
LINE
  5
55D
330
208
100
AcDbEntity
  8
0
  6
Continuous
 62
     7
100
AcDbLine
 10
420.0017782655
 20
206.1735580025
 30
0.0
 11
420.0017782655
 21
212.1735580025
 31
0.0
  0
LINE
  5
55E
330
208
100
AcDbEntity
  8
0
  6
Continuous
 62
     7
100
AcDbLine
 10
532.7522782655001
 20
174.5836536395
 30
0.0
 11
532.7535040952999
 21
174.5845580025
 31
0.0
  0
LINE
  5
55F
330
208
100
AcDbEntity
  8
0
  6
Continuous
 62
     7
100
AcDbLine
 10
532.7530150685999
 20
173.3872722036
 30
0.0
 11
532.7516231887
 21
173.3885580025
 31
0.0
  0
LINE
  5
560
330
208
100
AcDbEntity
  8
0
  6
Continuous
 62
     7
100
AcDbLine
 10
426.0017782655
 20
212.1735580025
 30
0.0
 11
426.0017782655
 21
206.1735580025
 31
0.0
  0
LINE
  5
561
330
208
100
AcDbEntity
  8
0
  6
Continuous
 62
     7
100
AcDbLine
 10
426.0017782655
 20
199.6735580025
 30
0.0
 11
426.0017782655
 21
193.6735580025
 31
0.0
  0
LINE
  5
562
330
208
100
AcDbEntity
  8
0
  6
Continuous
 62
     7
100
AcDbLine
 10
426.0017782655
 20
187.1735580025
 30
0.0
 11
426.0017782655
 21
181.1735580025
 31
0.0
  0
LINE
  5
563
330
208
100
AcDbEntity
  8
0
  6
Continuous
 62
     7
100
AcDbLine
 10
426.0017782655
 20
174.6735580025
 30
0.0
 11
426.0017782655
 21
168.6735580025
 31
0.0
  0
LINE
  5
564
330
208
100
AcDbEntity
  8
0
  6
Continuous
 62
     7
100
AcDbLine
 10
432.5017782655
 20
168.6735580025
 30
0.0
 11
432.5017782655
 21
174.6735580025
 31
0.0
  0
LINE
  5
565
330
208
100
AcDbEntity
  8
0
  6
Continuous
 62
     7
100
AcDbLine
 10
432.5017782655
 20
181.1735580025
 30
0.0
 11
432.5017782655
 21
187.1735580025
 31
0.0
  0
LINE
  5
566
330
208
100
AcDbEntity
  8
0
  6
Continuous
 62
     7
100
AcDbLine
 10
432.5017782655
 20
193.6735580025
 30
0.0
 11
432.5017782655
 21
199.6735580025
 31
0.0
  0
LINE
  5
567
330
208
100
AcDbEntity
  8
0
  6
Continuous
 62
     7
100
AcDbLine
 10
432.5017782655
 20
206.1735580025
 30
0.0
 11
432.5017782655
 21
212.1735580025
 31
0.0
  0
LINE
  5
568
330
208
100
AcDbEntity
  8
0
  6
Continuous
 62
     7
100
AcDbLine
 10
438.5017782655
 20
212.1735580025
 30
0.0
 11
438.5017782655
 21
206.1735580025
 31
0.0
  0
LINE
  5
569
330
208
100
AcDbEntity
  8
0
  6
Continuous
 62
     7
100
AcDbLine
 10
438.5017782655
 20
199.6735580025
 30
0.0
 11
438.5017782655
 21
193.6735580025
 31
0.0
  0
LINE
  5
56A
330
208
100
AcDbEntity
  8
0
  6
Continuous
 62
     7
100
AcDbLine
 10
438.5017782655
 20
187.1735580025
 30
0.0
 11
438.5017782655
 21
181.1735580025
 31
0.0
  0
LINE
  5
56B
330
208
100
AcDbEntity
  8
0
  6
Continuous
 62
     7
100
AcDbLine
 10
438.5017782655
 20
174.6735580025
 30
0.0
 11
438.5017782655
 21
168.6735580025
 31
0.0
  0
LINE
  5
56C
330
208
100
AcDbEntity
  8
0
  6
Continuous
 62
     7
100
AcDbLine
 10
445.0017782655
 20
168.6735580025
 30
0.0
 11
445.0017782655
 21
174.6735580025
 31
0.0
  0
LINE
  5
56D
330
208
100
AcDbEntity
  8
0
  6
Continuous
 62
     7
100
AcDbLine
 10
445.0017782655
 20
181.1735580025
 30
0.0
 11
445.0017782655
 21
187.1735580025
 31
0.0
  0
LINE
  5
56E
330
208
100
AcDbEntity
  8
0
  6
Continuous
 62
     7
100
AcDbLine
 10
445.0017782655
 20
193.6735580025
 30
0.0
 11
445.0017782655
 21
199.6735580025
 31
0.0
  0
LINE
  5
56F
330
208
100
AcDbEntity
  8
0
  6
Continuous
 62
     7
100
AcDbLine
 10
445.0017782655
 20
206.1735580025
 30
0.0
 11
445.0017782655
 21
212.1735580025
 31
0.0
  0
LINE
  5
570
330
208
100
AcDbEntity
  8
0
  6
Continuous
 62
     7
100
AcDbLine
 10
451.0017782655
 20
212.1735580025
 30
0.0
 11
451.0017782655
 21
206.1735580025
 31
0.0
  0
LINE
  5
571
330
208
100
AcDbEntity
  8
0
  6
Continuous
 62
     7
100
AcDbLine
 10
451.0017782655
 20
199.6735580025
 30
0.0
 11
451.0017782655
 21
193.6735580025
 31
0.0
  0
LINE
  5
572
330
208
100
AcDbEntity
  8
0
  6
Continuous
 62
     7
100
AcDbLine
 10
451.0017782655
 20
187.1735580025
 30
0.0
 11
451.0017782655
 21
181.1735580025
 31
0.0
  0
LINE
  5
573
330
208
100
AcDbEntity
  8
0
  6
Continuous
 62
     7
100
AcDbLine
 10
451.0017782655
 20
174.6735580025
 30
0.0
 11
451.0017782655
 21
168.6735580025
 31
0.0
  0
LINE
  5
574
330
208
100
AcDbEntity
  8
0
  6
Continuous
 62
     7
100
AcDbLine
 10
457.5017782655
 20
168.6735580025
 30
0.0
 11
457.5017782655
 21
174.6735580025
 31
0.0
  0
LINE
  5
575
330
208
100
AcDbEntity
  8
0
  6
Continuous
 62
     7
100
AcDbLine
 10
457.5017782655
 20
181.1735580025
 30
0.0
 11
457.5017782655
 21
187.1735580025
 31
0.0
  0
LINE
  5
576
330
208
100
AcDbEntity
  8
0
  6
Continuous
 62
     7
100
AcDbLine
 10
457.5017782655
 20
193.6735580025
 30
0.0
 11
457.5017782655
 21
199.6735580025
 31
0.0
  0
LINE
  5
577
330
208
100
AcDbEntity
  8
0
  6
Continuous
 62
     7
100
AcDbLine
 10
457.5017782655
 20
206.1735580025
 30
0.0
 11
457.5017782655
 21
212.1735580025
 31
0.0
  0
LINE
  5
578
330
208
100
AcDbEntity
  8
0
  6
Continuous
 62
     7
100
AcDbLine
 10
463.5017782655
 20
212.1735580025
 30
0.0
 11
463.5017782655
 21
206.1735580025
 31
0.0
  0
LINE
  5
579
330
208
100
AcDbEntity
  8
0
  6
Continuous
 62
     7
100
AcDbLine
 10
463.5017782655
 20
199.6735580025
 30
0.0
 11
463.5017782655
 21
193.6735580025
 31
0.0
  0
LINE
  5
57A
330
208
100
AcDbEntity
  8
0
  6
Continuous
 62
     7
100
AcDbLine
 10
463.5017782655
 20
187.1735580025
 30
0.0
 11
463.5017782655
 21
181.1735580025
 31
0.0
  0
LINE
  5
57B
330
208
100
AcDbEntity
  8
0
  6
Continuous
 62
     7
100
AcDbLine
 10
463.5017782655
 20
174.6735580025
 30
0.0
 11
463.5017782655
 21
168.6735580025
 31
0.0
  0
LINE
  5
57C
330
208
100
AcDbEntity
  8
0
  6
Continuous
 62
     7
100
AcDbLine
 10
470.0017782655
 20
168.6735580025
 30
0.0
 11
470.0017782655
 21
174.6735580025
 31
0.0
  0
LINE
  5
57D
330
208
100
AcDbEntity
  8
0
  6
Continuous
 62
     7
100
AcDbLine
 10
470.0017782655
 20
181.1735580025
 30
0.0
 11
470.0017782655
 21
187.1735580025
 31
0.0
  0
LINE
  5
57E
330
208
100
AcDbEntity
  8
0
  6
Continuous
 62
     7
100
AcDbLine
 10
470.0017782655
 20
193.6735580025
 30
0.0
 11
470.0017782655
 21
199.6735580025
 31
0.0
  0
LINE
  5
57F
330
208
100
AcDbEntity
  8
0
  6
Continuous
 62
     7
100
AcDbLine
 10
470.0017782655
 20
206.1735580025
 30
0.0
 11
470.0017782655
 21
212.1735580025
 31
0.0
  0
LINE
  5
580
330
208
100
AcDbEntity
  8
0
  6
Continuous
 62
     7
100
AcDbLine
 10
476.0017782655
 20
212.1735580025
 30
0.0
 11
476.0017782655
 21
206.1735580025
 31
0.0
  0
LINE
  5
581
330
208
100
AcDbEntity
  8
0
  6
Continuous
 62
     7
100
AcDbLine
 10
476.0017782655
 20
199.6735580025
 30
0.0
 11
476.0017782655
 21
193.6735580025
 31
0.0
  0
LINE
  5
582
330
208
100
AcDbEntity
  8
0
  6
Continuous
 62
     7
100
AcDbLine
 10
476.0017782655
 20
187.1735580025
 30
0.0
 11
476.0017782655
 21
181.1735580025
 31
0.0
  0
LINE
  5
583
330
208
100
AcDbEntity
  8
0
  6
Continuous
 62
     7
100
AcDbLine
 10
476.0017782655
 20
174.6735580025
 30
0.0
 11
476.0017782655
 21
168.6735580025
 31
0.0
  0
LINE
  5
584
330
208
100
AcDbEntity
  8
0
  6
Continuous
 62
     7
100
AcDbLine
 10
482.5017782655
 20
168.6735580025
 30
0.0
 11
482.5017782655
 21
174.6735580025
 31
0.0
  0
LINE
  5
585
330
208
100
AcDbEntity
  8
0
  6
Continuous
 62
     7
100
AcDbLine
 10
482.5017782655
 20
181.1735580025
 30
0.0
 11
482.5017782655
 21
187.1735580025
 31
0.0
  0
LINE
  5
586
330
208
100
AcDbEntity
  8
0
  6
Continuous
 62
     7
100
AcDbLine
 10
482.5017782655
 20
193.6735580025
 30
0.0
 11
482.5017782655
 21
199.6735580025
 31
0.0
  0
LINE
  5
587
330
208
100
AcDbEntity
  8
0
  6
Continuous
 62
     7
100
AcDbLine
 10
482.5017782655
 20
206.1735580025
 30
0.0
 11
482.5017782655
 21
212.1735580025
 31
0.0
  0
LINE
  5
588
330
208
100
AcDbEntity
  8
0
  6
Continuous
 62
     7
100
AcDbLine
 10
488.5017782655
 20
212.1735580025
 30
0.0
 11
488.5017782655
 21
206.1735580025
 31
0.0
  0
LINE
  5
589
330
208
100
AcDbEntity
  8
0
  6
Continuous
 62
     7
100
AcDbLine
 10
488.5017782655
 20
199.6735580025
 30
0.0
 11
488.5017782655
 21
193.6735580025
 31
0.0
  0
LINE
  5
58A
330
208
100
AcDbEntity
  8
0
  6
Continuous
 62
     7
100
AcDbLine
 10
488.5017782655
 20
187.1735580025
 30
0.0
 11
488.5017782655
 21
181.1735580025
 31
0.0
  0
LINE
  5
58B
330
208
100
AcDbEntity
  8
0
  6
Continuous
 62
     7
100
AcDbLine
 10
488.5017782655
 20
174.6735580025
 30
0.0
 11
488.5017782655
 21
168.6735580025
 31
0.0
  0
LINE
  5
58C
330
208
100
AcDbEntity
  8
0
  6
Continuous
 62
     7
100
AcDbLine
 10
495.0017782655
 20
168.6735580025
 30
0.0
 11
495.0017782655
 21
174.6735580025
 31
0.0
  0
LINE
  5
58D
330
208
100
AcDbEntity
  8
0
  6
Continuous
 62
     7
100
AcDbLine
 10
495.0017782655
 20
181.1735580025
 30
0.0
 11
495.0017782655
 21
187.1735580025
 31
0.0
  0
LINE
  5
58E
330
208
100
AcDbEntity
  8
0
  6
Continuous
 62
     7
100
AcDbLine
 10
495.0017782655
 20
193.6735580025
 30
0.0
 11
495.0017782655
 21
199.6735580025
 31
0.0
  0
LINE
  5
58F
330
208
100
AcDbEntity
  8
0
  6
Continuous
 62
     7
100
AcDbLine
 10
495.0017782655
 20
206.1735580025
 30
0.0
 11
495.0017782655
 21
212.1735580025
 31
0.0
  0
LINE
  5
590
330
208
100
AcDbEntity
  8
0
  6
Continuous
 62
     7
100
AcDbLine
 10
501.0017782655
 20
212.1735580025
 30
0.0
 11
501.0017782655
 21
206.1735580025
 31
0.0
  0
LINE
  5
591
330
208
100
AcDbEntity
  8
0
  6
Continuous
 62
     7
100
AcDbLine
 10
501.0017782655
 20
199.6735580025
 30
0.0
 11
501.0017782655
 21
193.6735580025
 31
0.0
  0
LINE
  5
592
330
208
100
AcDbEntity
  8
0
  6
Continuous
 62
     7
100
AcDbLine
 10
501.0017782655
 20
187.1735580025
 30
0.0
 11
501.0017782655
 21
181.1735580025
 31
0.0
  0
LINE
  5
593
330
208
100
AcDbEntity
  8
0
  6
Continuous
 62
     7
100
AcDbLine
 10
501.0017782655
 20
174.6735580025
 30
0.0
 11
501.0017782655
 21
168.6735580025
 31
0.0
  0
LINE
  5
594
330
208
100
AcDbEntity
  8
0
  6
Continuous
 62
     7
100
AcDbLine
 10
507.5017782655
 20
168.6735580025
 30
0.0
 11
507.5017782655
 21
174.6735580025
 31
0.0
  0
LINE
  5
595
330
208
100
AcDbEntity
  8
0
  6
Continuous
 62
     7
100
AcDbLine
 10
507.5017782655
 20
181.1735580025
 30
0.0
 11
507.5017782655
 21
187.1735580025
 31
0.0
  0
LINE
  5
596
330
208
100
AcDbEntity
  8
0
  6
Continuous
 62
     7
100
AcDbLine
 10
507.5017782655
 20
193.6735580025
 30
0.0
 11
507.5017782655
 21
199.6735580025
 31
0.0
  0
LINE
  5
597
330
208
100
AcDbEntity
  8
0
  6
Continuous
 62
     7
100
AcDbLine
 10
507.5017782655
 20
206.1735580025
 30
0.0
 11
507.5017782655
 21
212.1735580025
 31
0.0
  0
LINE
  5
598
330
208
100
AcDbEntity
  8
0
  6
Continuous
 62
     7
100
AcDbLine
 10
513.5017782654997
 20
212.1735580025
 30
0.0
 11
513.5017782654997
 21
206.1735580025
 31
0.0
  0
LINE
  5
599
330
208
100
AcDbEntity
  8
0
  6
Continuous
 62
     7
100
AcDbLine
 10
513.5017782654997
 20
199.6735580025
 30
0.0
 11
513.5017782654997
 21
193.6735580025
 31
0.0
  0
LINE
  5
59A
330
208
100
AcDbEntity
  8
0
  6
Continuous
 62
     7
100
AcDbLine
 10
513.5017782654997
 20
187.1735580025
 30
0.0
 11
513.5017782654997
 21
181.1735580025
 31
0.0
  0
LINE
  5
59B
330
208
100
AcDbEntity
  8
0
  6
Continuous
 62
     7
100
AcDbLine
 10
513.5017782654997
 20
174.6735580025
 30
0.0
 11
513.5017782654997
 21
168.6735580025
 31
0.0
  0
LINE
  5
59C
330
208
100
AcDbEntity
  8
0
  6
Continuous
 62
     7
100
AcDbLine
 10
520.0017782655
 20
168.6735580025
 30
0.0
 11
520.0017782655
 21
174.6735580025
 31
0.0
  0
LINE
  5
59D
330
208
100
AcDbEntity
  8
0
  6
Continuous
 62
     7
100
AcDbLine
 10
520.0017782655
 20
181.1735580025
 30
0.0
 11
520.0017782655
 21
187.1735580025
 31
0.0
  0
LINE
  5
59E
330
208
100
AcDbEntity
  8
0
  6
Continuous
 62
     7
100
AcDbLine
 10
520.0017782655
 20
193.6735580025
 30
0.0
 11
520.0017782655
 21
199.6735580025
 31
0.0
  0
LINE
  5
59F
330
208
100
AcDbEntity
  8
0
  6
Continuous
 62
     7
100
AcDbLine
 10
520.0017782655
 20
206.1735580025
 30
0.0
 11
520.0017782655
 21
212.1735580025
 31
0.0
  0
LINE
  5
5A0
330
208
100
AcDbEntity
  8
0
  6
Continuous
 62
     7
100
AcDbLine
 10
526.0017782654997
 20
212.1735580025
 30
0.0
 11
526.0017782654997
 21
206.1735580025
 31
0.0
  0
LINE
  5
5A1
330
208
100
AcDbEntity
  8
0
  6
Continuous
 62
     7
100
AcDbLine
 10
526.0017782654997
 20
199.6735580025
 30
0.0
 11
526.0017782654997
 21
193.6735580025
 31
0.0
  0
LINE
  5
5A2
330
208
100
AcDbEntity
  8
0
  6
Continuous
 62
     7
100
AcDbLine
 10
526.0017782654997
 20
187.1735580025
 30
0.0
 11
526.0017782654997
 21
181.1735580025
 31
0.0
  0
LINE
  5
5A3
330
208
100
AcDbEntity
  8
0
  6
Continuous
 62
     7
100
AcDbLine
 10
526.0017782654997
 20
174.6735580025
 30
0.0
 11
526.0017782654997
 21
168.6735580025
 31
0.0
  0
LINE
  5
5A4
330
208
100
AcDbEntity
  8
0
  6
Continuous
 62
     7
100
AcDbLine
 10
532.5017782655
 20
181.1735580025
 30
0.0
 11
532.5017782655
 21
187.1735580025
 31
0.0
  0
LINE
  5
5A5
330
208
100
AcDbEntity
  8
0
  6
Continuous
 62
     7
100
AcDbLine
 10
532.5017782655
 20
193.6735580025
 30
0.0
 11
532.5017782655
 21
199.6735580025
 31
0.0
  0
LINE
  5
5A6
330
208
100
AcDbEntity
  8
0
  6
Continuous
 62
     7
100
AcDbLine
 10
532.5017782655
 20
206.1735580025
 30
0.0
 11
532.5017782655
 21
212.1735580025
 31
0.0
  0
LINE
  5
5A7
330
208
100
AcDbEntity
  8
0
  6
Continuous
 62
     7
100
AcDbLine
 10
538.5017782654997
 20
212.1735580025
 30
0.0
 11
538.5017782654997
 21
206.1735580025
 31
0.0
  0
LINE
  5
5A8
330
208
100
AcDbEntity
  8
0
  6
Continuous
 62
     7
100
AcDbLine
 10
538.5017782654997
 20
199.6735580025
 30
0.0
 11
538.5017782654997
 21
193.6735580025
 31
0.0
  0
LINE
  5
5A9
330
208
100
AcDbEntity
  8
0
  6
Continuous
 62
     7
100
AcDbLine
 10
538.5017782654997
 20
187.1735580025
 30
0.0
 11
538.5017782654997
 21
181.1735580025
 31
0.0
  0
LINE
  5
5AA
330
208
100
AcDbEntity
  8
0
  6
Continuous
 62
     7
100
AcDbLine
 10
545.0017782655
 20
181.1735580025
 30
0.0
 11
545.0017782655
 21
187.1735580025
 31
0.0
  0
LINE
  5
5AB
330
208
100
AcDbEntity
  8
0
  6
Continuous
 62
     7
100
AcDbLine
 10
545.0017782655
 20
193.6735580025
 30
0.0
 11
545.0017782655
 21
199.6735580025
 31
0.0
  0
LINE
  5
5AC
330
208
100
AcDbEntity
  8
0
  6
Continuous
 62
     7
100
AcDbLine
 10
545.0017782655
 20
206.1735580025
 30
0.0
 11
545.0017782655
 21
212.1735580025
 31
0.0
  0
LINE
  5
5AD
330
208
100
AcDbEntity
  8
0
  6
Continuous
 62
     7
100
AcDbLine
 10
551.0017782654997
 20
212.1735580025
 30
0.0
 11
551.0017782654997
 21
206.1735580025
 31
0.0
  0
LINE
  5
5AE
330
208
100
AcDbEntity
  8
0
  6
Continuous
 62
     7
100
AcDbLine
 10
551.0017782654997
 20
199.6735580025
 30
0.0
 11
551.0017782654997
 21
193.6735580025
 31
0.0
  0
LINE
  5
5AF
330
208
100
AcDbEntity
  8
0
  6
Continuous
 62
     7
100
AcDbLine
 10
551.0017782654997
 20
187.1735580025
 30
0.0
 11
551.0017782654997
 21
181.1735580025
 31
0.0
  0
LINE
  5
5B0
102
{ACAD_REACTORS
330
896
102
}
330
208
100
AcDbEntity
  8
0
  6
Continuous
 62
     7
100
AcDbLine
 10
555.7517782655
 20
159.423445102
 30
0.0
 11
555.7517782655
 21
220.923670903
 31
0.0
  0
LINE
  5
5B1
330
208
100
AcDbEntity
  8
0
  6
Continuous
 62
     7
100
AcDbLine
 10
-122.2482217345
 20
279.0385233886
 30
0.0
 11
-122.2482217345
 21
268.0726879555
 31
0.0
  0
LINE
  5
5B2
330
208
100
AcDbEntity
  8
0
  6
Continuous
 62
     7
100
AcDbLine
 10
-122.2482217345
 20
279.0385233886
 30
0.0
 11
-122.2482217345
 21
281.2728696978
 31
0.0
  0
LINE
  5
5B3
330
208
100
AcDbEntity
  8
0
  6
CENTER
100
AcDbLine
 10
-58.2482217345
 20
275.1226005086
 30
0.0
 11
-58.2482217345
 21
269.0702512636
 31
0.0
  0
LINE
  5
5B4
330
208
100
AcDbEntity
  8
0
  6
Continuous
 62
     7
100
AcDbLine
 10
-122.2482217345
 20
268.0726879555
 30
0.0
 11
-120.2482217345
 21
266.0739063015
 31
0.0
  0
LINE
  5
5B5
102
{ACAD_REACTORS
330
812
102
}
330
208
100
AcDbEntity
  8
0
  6
Continuous
 62
     7
100
AcDbLine
 10
-120.2482217345
 20
266.0739063015
 30
0.0
 11
553.7517782654997
 21
266.0739063015
 31
0.0
  0
LINE
  5
5B6
330
208
100
AcDbEntity
  8
BEZUGSACHSEN
  6
Continuous
 62
     9
100
AcDbLine
 10
-122.2482217345
 20
279.0385233886
 30
0.0
 11
555.7517782655
 21
279.0385233886
 31
0.0
  0
LINE
  5
5B7
102
{ACAD_REACTORS
330
812
102
}
330
208
100
AcDbEntity
  8
0
  6
Continuous
 62
     7
100
AcDbLine
 10
-122.2482217345
 20
281.2739063015
 30
0.0
 11
555.7517782655
 21
281.2739063015
 31
0.0
  0
LINE
  5
5B8
330
208
100
AcDbEntity
  8
0
  6
Continuous
 62
     7
100
AcDbLine
 10
553.7517782654997
 20
266.0739063015
 30
0.0
 11
555.7517782655
 21
268.0726879555
 31
0.0
  0
LINE
  5
5B9
330
208
100
AcDbEntity
  8
0
  6
CENTER
100
AcDbLine
 10
491.7517782655
 20
275.1226005086
 30
0.0
 11
491.7517782655
 21
269.0702512636
 31
0.0
  0
LINE
  5
5BA
330
208
100
AcDbEntity
  8
0
  6
Continuous
 62
     7
100
AcDbLine
 10
555.7517782655
 20
281.2728696978
 30
0.0
 11
555.7517782655
 21
279.0385233886
 31
0.0
  0
LINE
  5
5BB
330
208
100
AcDbEntity
  8
0
  6
Continuous
 62
     7
100
AcDbLine
 10
555.7517782655
 20
279.0385233886
 30
0.0
 11
555.7517782655
 21
268.0726879555
 31
0.0
  0
ARC
  5
5BC
330
208
100
AcDbEntity
  8
0
  6
Continuous
 62
     7
100
AcDbCircle
 10
537.1377782655001
 20
168.6405580025
 30
0.0
 40
7.386
100
AcDbArc
 50
126.4241761856
 51
179.7440066322
  0
ARC
  5
5BD
330
208
100
AcDbEntity
  8
0
  6
Continuous
 62
     7
100
AcDbCircle
 10
528.3667782654998
 20
168.6405580025
 30
0.0
 40
7.386
100
AcDbArc
 50
0.2559933678
 51
53.5758238144
  0
ARC
  5
5BE
330
208
100
AcDbEntity
  8
0
  6
Continuous
 62
     7
100
AcDbCircle
 10
528.3667782654998
 20
168.6405580025
 30
0.0
 40
6.462999999999999
100
AcDbArc
 50
0.2925528299
 51
7.700422993099999
  0
ARC
  5
5BF
330
208
100
AcDbEntity
  8
0
  6
Continuous
 62
     7
100
AcDbCircle
 10
528.3667782654998
 20
168.6405580025
 30
0.0
 40
6.462999999999999
100
AcDbArc
 50
16.0696949621
 51
47.26029003409998
  0
ARC
  5
5C0
330
208
100
AcDbEntity
  8
0
  6
Continuous
 62
     7
100
AcDbCircle
 10
537.1377782655001
 20
168.6405580025
 30
0.0
 40
6.462
100
AcDbArc
 50
172.2983781311
 51
179.7074018969
  0
ARC
  5
5C1
330
208
100
AcDbEntity
  8
0
  6
Continuous
 62
     7
100
AcDbCircle
 10
537.1377782655001
 20
168.6405580025
 30
0.0
 40
6.462
100
AcDbArc
 50
132.7301138375
 51
163.9277508971
  0
CIRCLE
  5
5C2
330
208
100
AcDbEntity
  8
0
  6
Continuous
 62
     7
100
AcDbCircle
 10
549.7557782654999
 20
171.7145580025
 30
0.0
 40
3.0
  0
ARC
  5
5C3
330
208
100
AcDbEntity
  8
0
  6
Continuous
 62
     7
100
AcDbCircle
 10
541.2537782655
 20
171.7145580025
 30
0.0
 40
3.0
100
AcDbArc
 50
30.7330093499
 51
329.994262887
  0
CIRCLE
  5
5C4
330
208
100
AcDbEntity
  8
0
  6
Continuous
 62
     7
100
AcDbCircle
 10
549.7557782654999
 20
171.7145580025
 30
0.0
 40
2.076999999999999
  0
ARC
  5
5C5
330
208
100
AcDbEntity
  8
0
  6
Continuous
 62
     7
100
AcDbCircle
 10
541.2537782655
 20
171.7145580025
 30
0.0
 40
2.076999999999999
100
AcDbArc
 50
31.05878344739999
 51
329.9917133659
  0
CIRCLE
  5
5C6
330
208
100
AcDbEntity
  8
0
  6
Continuous
 62
     7
100
AcDbCircle
 10
-58.2473261854
 20
272.0711472832
 30
0.0
 40
2.749162769999998
  0
CIRCLE
  5
5C7
330
208
100
AcDbEntity
  8
0
  6
Continuous
 62
     7
100
AcDbCircle
 10
491.7508827165
 20
272.0711472832
 30
0.0
 40
2.749162769999998
  0
DIMENSION
  5
803
102
{ACAD_XDICTIONARY
360
811
102
}
102
{ACAD_REACTORS
330
812
102
}
330
208
100
AcDbEntity
  8
P-0000
  6
Continuous
100
AcDbDimension
  2
*D6
 10
-144.8146855530775
 20
281.2739063015001
 30
0.0
 11
-144.8146855530776
 21
273.6739063015
 31
0.0
 70
   160
 71
     5
 42
15.19999999999999
  3
883N99122_001_00149479900
100
AcDbAlignedDimension
 13
-120.2482217345
 23
266.0739063015
 33
0.0
 14
-122.2482217345
 24
281.2739063015
 34
0.0
 50
90.00000000000005
100
AcDbRotatedDimension
1001
ACAD_DSTYLE_DIMINSPECT
1070
   396
1000
100%
1070
   395
1000

1070
   394
1070
    33
1070
   393
1070
     0
1001
ACAD
1000
DSTYLE
1002
{
1070
   271
1070
     0
1070
   288
1070
     1
1002
}
  0
DIMENSION
  5
83B
102
{ACAD_XDICTIONARY
360
849
102
}
102
{ACAD_REACTORS
330
84A
102
}
330
208
100
AcDbEntity
  8
P-0000
  6
Continuous
100
AcDbDimension
  2
*D7
 10
-143.5725392100414
 20
159.4222421889
 30
0.0
 11
-151.0725392100414
 21
190.1729565459499
 31
0.0
 70
    32
 71
     5
 42
61.5014287141
  3
883N99122_001_00149479900
100
AcDbAlignedDimension
 13
-122.2482217345
 23
220.923670903
 33
0.0
 14
-122.2482217345
 24
159.4222421889
 34
0.0
 50
90.0
100
AcDbRotatedDimension
1001
ACAD_DSTYLE_DIMINSPECT
1070
   396
1000
100%
1070
   395
1000

1070
   394
1070
    33
1070
   393
1070
     0
1001
ACAD
1000
DSTYLE
1002
{
1070
   271
1070
     0
1070
   279
1070
     2
1070
   288
1070
     1
1002
}
  0
DIMENSION
  5
887
102
{ACAD_XDICTIONARY
360
895
102
}
102
{ACAD_REACTORS
330
896
102
}
330
208
100
AcDbEntity
  8
P-0000
  6
Continuous
100
AcDbDimension
  2
*D8
 10
555.7517782655
 20
133.3176423007242
 30
0.0
 11
216.7517782655
 21
140.8176423007241
 31
0.0
 70
    32
 71
     5
 42
678.0
  3
883N99122_001_00149479900
100
AcDbAlignedDimension
 13
-122.2482217345
 23
159.4222421889
 33
0.0
 14
555.7517782655
 24
159.423445102
 34
0.0
 50
0.0000000000001132
100
AcDbRotatedDimension
1001
ACAD_DSTYLE_DIMINSPECT
1070
   396
1000
100%
1070
   395
1000

1070
   394
1070
    33
1070
   393
1070
     0
1001
ACAD
1000
DSTYLE
1002
{
1070
   279
1070
     2
1070
   288
1070
     1
1002
}
  0
ENDSEC
  0
SECTION
  2
OBJECTS
  0
DICTIONARY
  5
C
330
0
100
AcDbDictionary
281
     1
  3
ACAD_2007HEADERVARS_RT
350
CF3
  3
ACAD_COLOR
350
5FA
  3
ACAD_GROUP
350
D
  3
ACAD_LAYOUT
350
1A
  3
ACAD_MATERIAL
350
5CD
  3
ACAD_MLEADERSTYLE
350
60F
  3
ACAD_MLINESTYLE
350
17
  3
ACAD_PLOTSETTINGS
350
19
  3
ACAD_PLOTSTYLENAME
350
E
  3
ACAD_SCALELIST
350
5FD
  3
ACAD_TABLESTYLE
350
5FB
  3
ACAD_VISUALSTYLE
350
5E6
  3
ACDB_RECOMPOSE_DATA
350
CF1
  3
AcDbVariableDictionary
350
747
  3
AcmDictionary
350
669
  3
AEC_PROPERTY_SET_DEFS
350
A49
  3
AMG
350
613
  3
AMGSNAPSETTINGS
350
6AE
  3
DWGPROPS
350
CF2
  0
DICTIONARY
  5
8DE
330
2
100
AcDbDictionary
280
     1
281
     1
  3
ACAD_LAYERSTATES
360
8DF
  0
DICTIONARY
  5
8DC
330
8DB
100
AcDbDictionary
280
     1
281
     1
  0
DICTIONARY
  5
811
330
803
100
AcDbDictionary
280
     1
281
     1
  3
ACAD_DIMASSOC
360
812
  0
DICTIONARY
  5
849
330
83B
100
AcDbDictionary
280
     1
281
     1
  3
ACAD_DIMASSOC
360
84A
  0
DICTIONARY
  5
895
330
887
100
AcDbDictionary
280
     1
281
     1
  3
ACAD_DIMASSOC
360
896
  0
DICTIONARY
  5
CF3
102
{ACAD_REACTORS
330
C
102
}
330
C
100
AcDbDictionary
281
     1
  3
DIMJOGANG
350
CF4
  3
DIMLTEX1
350
CF6
  3
DIMLTEX2
350
CF7
  3
DIMLTYPE
350
CF5
  0
DICTIONARY
  5
5FA
102
{ACAD_REACTORS
330
C
102
}
330
C
100
AcDbDictionary
281
     1
  0
DICTIONARY
  5
D
102
{ACAD_REACTORS
330
C
102
}
330
C
100
AcDbDictionary
281
     1
  0
DICTIONARY
  5
1A
102
{ACAD_REACTORS
330
C
102
}
330
C
100
AcDbDictionary
281
     1
  3
Layout1
350
5C9
  3
Model
350
5C8
  0
DICTIONARY
  5
5CD
102
{ACAD_REACTORS
330
C
102
}
330
C
100
AcDbDictionary
281
     1
  3
ByBlock
350
5D6
  3
ByLayer
350
5CE
  3
Global
350
5DE
  0
DICTIONARY
  5
60F
102
{ACAD_REACTORS
330
C
102
}
330
C
100
AcDbDictionary
281
     1
  3
Standard
350
610
  0
DICTIONARY
  5
17
102
{ACAD_REACTORS
330
C
102
}
330
C
100
AcDbDictionary
281
     1
  3
Standard
350
18
  0
DICTIONARY
  5
19
102
{ACAD_REACTORS
330
C
102
}
330
C
100
AcDbDictionary
281
     1
  0
ACDBDICTIONARYWDFLT
  5
E
102
{ACAD_REACTORS
330
C
102
}
330
C
100
AcDbDictionary
281
     1
  3
Normal
350
F
100
AcDbDictionaryWithDefault
340
F
  0
DICTIONARY
  5
5FD
102
{ACAD_REACTORS
330
C
102
}
330
C
100
AcDbDictionary
281
     1
  3
A0
350
5FE
  3
A1
350
5FF
  3
A2
350
600
  3
A3
350
601
  3
A4
350
602
  3
A5
350
603
  3
A6
350
604
  3
A7
350
605
  3
A8
350
606
  3
A9
350
607
  3
B0
350
608
  3
B1
350
609
  3
B2
350
60A
  3
B3
350
60B
  3
B4
350
60C
  3
B5
350
60D
  3
B6
350
60E
  0
DICTIONARY
  5
5FB
102
{ACAD_REACTORS
330
C
102
}
330
C
100
AcDbDictionary
281
     1
  3
Standard
350
5FC
  0
DICTIONARY
  5
5E6
102
{ACAD_REACTORS
330
C
102
}
330
C
100
AcDbDictionary
281
     1
  3
2dWireframe
350
5EC
  3
3D Hidden
350
5EE
  3
3dWireframe
350
5ED
  3
Basic
350
5EB
  3
Brighten
350
5F2
  3
ColorChange
350
5F6
  3
Conceptual
350
5EF
  3
Dim
350
5F1
  3
EdgeColorOff
350
5F9
  3
Facepattern
350
5F5
  3
Flat
350
5E7
  3
FlatWithEdges
350
5E8
  3
Gouraud
350
5E9
  3
GouraudWithEdges
350
5EA
  3
JitterOff
350
5F7
  3
Linepattern
350
5F4
  3
OverhangOff
350
5F8
  3
Realistic
350
5F0
  3
Thicken
350
5F3
  0
XRECORD
  5
CF1
102
{ACAD_REACTORS
330
C
102
}
330
C
100
AcDbXrecord
280
     1
 90
        1
330
5FC
  0
DICTIONARY
  5
747
102
{ACAD_REACTORS
330
C
102
}
330
C
100
AcDbDictionary
281
     1
  3
CANNOSCALE
350
74B
  3
CMLEADERSTYLE
350
749
  3
CTABLESTYLE
350
748
  3
DIMASSOC
350
752
  3
HIDETEXT
350
751
  3
INDEXCTL
350
750
  3
LAYEREVAL
350
74D
  3
LAYERNOTIFY
350
74E
  3
LIGHTINGUNITS
350
74C
  3
MSLTSCALE
350
74A
  3
SORTENTS
350
74F
  3
XCLIPFRAME
350
CEF
  0
DICTIONARY
  5
669
102
{ACAD_REACTORS
330
C
102
}
330
C
100
AcDbDictionary
281
     1
  3
AcmStdDictionary
350
673
  0
DICTIONARY
  5
A49
102
{ACAD_REACTORS
330
C
102
}
330
C
100
AcDbDictionary
281
     1
  0
DICTIONARY
  5
613
102
{ACAD_REACTORS
330
C
102
}
330
C
100
AcDbDictionary
281
     1
  0
DICTIONARY
  5
6AE
102
{ACAD_REACTORS
330
C
102
}
330
C
100
AcDbDictionary
281
     1
  0
XRECORD
  5
CF2
102
{ACAD_REACTORS
330
C
102
}
330
C
100
AcDbXrecord
280
     1
  1
DWGPROPS COOKIE
  2

  3

  4

  6

  7

  8
MAlaie
  9

300
=
301
=
302
=
303
=
304
=
305
=
306
=
307
=
308
=
309
=
 40
0.008662025462963
 41
2456562.307353287
 42
2456671.44740662
  1

 90
        0
  0
DICTIONARY
  5
8DF
102
{ACAD_REACTORS
330
8DE
102
}
330
8DE
100
AcDbDictionary
281
     1
  0
DIMASSOC
  5
812
102
{ACAD_REACTORS
330
811
102
}
330
811
100
AcDbDimAssoc
330
803
 90
        3
 70
     0
 71
     0
  1
AcDbOsnapPointRef
 72
    13
331
5B5
 73
     0
 91
        0
 40
0.0
 10
0.0
 20
0.0
 30
2.000000000000000E+50
 75
     0
  1
AcDbOsnapPointRef
 72
    13
331
5B7
 73
     0
 91
        0
 40
0.0
 10
0.0
 20
0.0
 30
2.000000000000000E+50
 75
     0
  0
DIMASSOC
  5
84A
102
{ACAD_REACTORS
330
849
102
}
330
849
100
AcDbDimAssoc
330
83B
 90
        3
 70
     0
 71
     0
  1
AcDbOsnapPointRef
 72
     1
331
23F
 73
     0
 91
        0
 40
0.0
 10
0.0
 20
0.0
 30
2.000000000000000E+50
 75
     0
  1
AcDbOsnapPointRef
 72
    13
331
30C
 73
     0
 91
        0
 40
0.0
 10
0.0
 20
0.0
 30
2.000000000000000E+50
 75
     0
  0
DIMASSOC
  5
896
102
{ACAD_REACTORS
330
895
102
}
330
895
100
AcDbDimAssoc
330
887
 90
        2
 70
     0
 71
     0
  1
AcDbOsnapPointRef
 72
    13
331
5B0
 73
     0
 91
        0
 40
0.0
 10
0.0
 20
0.0
 30
2.000000000000000E+50
 75
     0
  0
XRECORD
  5
CF4
102
{ACAD_REACTORS
330
CF3
102
}
330
CF3
100
AcDbXrecord
280
     1
 40
1.570796326794896
  0
XRECORD
  5
CF6
102
{ACAD_REACTORS
330
CF3
102
}
330
CF3
100
AcDbXrecord
280
     1
340
14
  0
XRECORD
  5
CF7
102
{ACAD_REACTORS
330
CF3
102
}
330
CF3
100
AcDbXrecord
280
     1
340
14
  0
XRECORD
  5
CF5
102
{ACAD_REACTORS
330
CF3
102
}
330
CF3
100
AcDbXrecord
280
     1
340
14
  0
LAYOUT
  5
5C9
102
{ACAD_XDICTIONARY
360
CFA
102
}
102
{ACAD_REACTORS
330
1A
102
}
330
1A
100
AcDbPlotSettings
  1

  2
none_device
  4
ISO_A3_(420.00_x_297.00_MM)
  6

 40
0.0
 41
0.0
 42
0.0
 43
0.0
 44
420.0
 45
297.0
 46
0.0
 47
0.0
 48
0.0
 49
0.0
140
0.0
141
0.0
142
1.0
143
1.0
 70
     0
 72
     1
 73
     0
 74
     0
  7

 75
     0
147
1.0
148
0.0
149
0.0
100
AcDbLayout
  1
Layout1
 70
     1
 71
     1
 10
0.0
 20
0.0
 11
12.0
 21
9.0
 12
0.0
 22
0.0
 32
0.0
 14
1.000000000000000E+20
 24
1.000000000000000E+20
 34
1.000000000000000E+20
 15
-1.000000000000000E+20
 25
-1.000000000000000E+20
 35
-1.000000000000000E+20
146
0.0
 13
0.0
 23
0.0
 33
0.0
 16
1.0
 26
0.0
 36
0.0
 17
0.0
 27
1.0
 37
0.0
 76
     0
330
209
  0
LAYOUT
  5
5C8
102
{ACAD_XDICTIONARY
360
CF8
102
}
102
{ACAD_REACTORS
330
1A
102
}
330
1A
100
AcDbPlotSettings
  1

  2
none_device
  4
ISO_A3_(420.00_x_297.00_MM)
  6

 40
0.0
 41
0.0
 42
0.0
 43
0.0
 44
420.0
 45
297.0
 46
0.0
 47
0.0
 48
0.0
 49
0.0
140
0.0
141
0.0
142
1.0
143
1.0
 70
  1024
 72
     1
 73
     0
 74
     0
  7

 75
     0
147
1.0
148
0.0
149
0.0
100
AcDbLayout
  1
Model
 70
     0
 71
     0
 10
0.0
 20
0.0
 11
420.0
 21
297.0
 12
0.0
 22
0.0
 32
0.0
 14
0.0
 24
0.0
 34
0.0
 15
0.0
 25
0.0
 35
0.0
146
0.0
 13
0.0
 23
0.0
 33
0.0
 16
1.0
 26
0.0
 36
0.0
 17
0.0
 27
1.0
 37
0.0
 76
     0
330
208
331
1F4
  0
MATERIAL
  5
5D6
102
{ACAD_XDICTIONARY
360
5D7
102
}
102
{ACAD_REACTORS
330
5CD
102
}
330
5CD
100
AcDbMaterial
  1
ByBlock
 72
     0
 43
0.0008202099737533
 43
0.0
 43
0.0
 43
0.0
 43
0.0
 43
0.0008202099737533
 43
0.0
 43
0.0
 43
0.0
 43
0.0
 43
1.0
 43
0.0
 43
0.0
 43
0.0
 43
0.0
 43
1.0
 77
     0
 47
0.0008202099737533
 47
0.0
 47
0.0
 47
0.0
 47
0.0
 47
0.0008202099737533
 47
0.0
 47
0.0
 47
0.0
 47
0.0
 47
1.0
 47
0.0
 47
0.0
 47
0.0
 47
0.0
 47
1.0
171
     0
 49
0.0008202099737533
 49
0.0
 49
0.0
 49
0.0
 49
0.0
 49
0.0008202099737533
 49
0.0
 49
0.0
 49
0.0
 49
0.0
 49
1.0
 49
0.0
 49
0.0
 49
0.0
 49
0.0
 49
1.0
175
     0
142
0.0008202099737533
142
0.0
142
0.0
142
0.0
142
0.0
142
0.0008202099737533
142
0.0
142
0.0
142
0.0
142
0.0
142
1.0
142
0.0
142
0.0
142
0.0
142
0.0
142
1.0
179
     0
144
0.0008202099737533
144
0.0
144
0.0
144
0.0
144
0.0
144
0.0008202099737533
144
0.0
144
0.0
144
0.0
144
0.0
144
1.0
144
0.0
144
0.0
144
0.0
144
0.0
144
1.0
147
0.0008202099737533
147
0.0
147
0.0
147
0.0
147
0.0
147
0.0008202099737533
147
0.0
147
0.0
147
0.0
147
0.0
147
1.0
147
0.0
147
0.0
147
0.0
147
0.0
147
1.0
  0
MATERIAL
  5
5CE
102
{ACAD_XDICTIONARY
360
5CF
102
}
102
{ACAD_REACTORS
330
5CD
102
}
330
5CD
100
AcDbMaterial
  1
ByLayer
 72
     0
 43
0.0008202099737533
 43
0.0
 43
0.0
 43
0.0
 43
0.0
 43
0.0008202099737533
 43
0.0
 43
0.0
 43
0.0
 43
0.0
 43
1.0
 43
0.0
 43
0.0
 43
0.0
 43
0.0
 43
1.0
 77
     0
 47
0.0008202099737533
 47
0.0
 47
0.0
 47
0.0
 47
0.0
 47
0.0008202099737533
 47
0.0
 47
0.0
 47
0.0
 47
0.0
 47
1.0
 47
0.0
 47
0.0
 47
0.0
 47
0.0
 47
1.0
171
     0
 49
0.0008202099737533
 49
0.0
 49
0.0
 49
0.0
 49
0.0
 49
0.0008202099737533
 49
0.0
 49
0.0
 49
0.0
 49
0.0
 49
1.0
 49
0.0
 49
0.0
 49
0.0
 49
0.0
 49
1.0
175
     0
142
0.0008202099737533
142
0.0
142
0.0
142
0.0
142
0.0
142
0.0008202099737533
142
0.0
142
0.0
142
0.0
142
0.0
142
1.0
142
0.0
142
0.0
142
0.0
142
0.0
142
1.0
179
     0
144
0.0008202099737533
144
0.0
144
0.0
144
0.0
144
0.0
144
0.0008202099737533
144
0.0
144
0.0
144
0.0
144
0.0
144
1.0
144
0.0
144
0.0
144
0.0
144
0.0
144
1.0
147
0.0008202099737533
147
0.0
147
0.0
147
0.0
147
0.0
147
0.0008202099737533
147
0.0
147
0.0
147
0.0
147
0.0
147
1.0
147
0.0
147
0.0
147
0.0
147
0.0
147
1.0
  0
MATERIAL
  5
5DE
102
{ACAD_XDICTIONARY
360
5DF
102
}
102
{ACAD_REACTORS
330
5CD
102
}
330
5CD
100
AcDbMaterial
  1
Global
 72
     0
 43
0.0008202099737533
 43
0.0
 43
0.0
 43
0.0
 43
0.0
 43
0.0008202099737533
 43
0.0
 43
0.0
 43
0.0
 43
0.0
 43
1.0
 43
0.0
 43
0.0
 43
0.0
 43
0.0
 43
1.0
 77
     0
 47
0.0008202099737533
 47
0.0
 47
0.0
 47
0.0
 47
0.0
 47
0.0008202099737533
 47
0.0
 47
0.0
 47
0.0
 47
0.0
 47
1.0
 47
0.0
 47
0.0
 47
0.0
 47
0.0
 47
1.0
171
     0
 49
0.0008202099737533
 49
0.0
 49
0.0
 49
0.0
 49
0.0
 49
0.0008202099737533
 49
0.0
 49
0.0
 49
0.0
 49
0.0
 49
1.0
 49
0.0
 49
0.0
 49
0.0
 49
0.0
 49
1.0
175
     0
142
0.0008202099737533
142
0.0
142
0.0
142
0.0
142
0.0
142
0.0008202099737533
142
0.0
142
0.0
142
0.0
142
0.0
142
1.0
142
0.0
142
0.0
142
0.0
142
0.0
142
1.0
179
     0
144
0.0008202099737533
144
0.0
144
0.0
144
0.0
144
0.0
144
0.0008202099737533
144
0.0
144
0.0
144
0.0
144
0.0
144
1.0
144
0.0
144
0.0
144
0.0
144
0.0
144
1.0
147
0.0008202099737533
147
0.0
147
0.0
147
0.0
147
0.0
147
0.0008202099737533
147
0.0
147
0.0
147
0.0
147
0.0
147
1.0
147
0.0
147
0.0
147
0.0
147
0.0
147
1.0
  0
MLEADERSTYLE
  5
610
102
{ACAD_REACTORS
330
60F
102
}
330
60F
100
AcDbMLeaderStyle
170
     2
171
     1
172
     0
 90
        2
 40
0.0
 41
0.0
173
     1
 91
-1056964608
340
14
 92
       -2
290
     1
 42
2.0
291
     1
 43
0.36
  3
Standard
 44
4.0
300

342
11
174
     1
178
     6
175
     1
176
     0
 93
-1056964608
 45
4.0
292
     0
297
     0
 46
4.0
 94
-1056964608
 47
1.0
 49
1.0
140
1.0
293
     1
141
0.0
294
     1
177
     0
142
1.0
295
     0
296
     0
143
0.125
1001
ACAD_MLEADERVER
1070
     2
  0
MLINESTYLE
  5
18
102
{ACAD_REACTORS
330
17
102
}
330
17
100
AcDbMlineStyle
  2
STANDARD
 70
     0
  3

 62
   256
 51
90.0
 52
90.0
 71
     2
 49
0.5
 62
   256
  6
BYLAYER
 49
-0.5
 62
   256
  6
BYLAYER
  0
ACDBPLACEHOLDER
  5
F
102
{ACAD_REACTORS
330
E
102
}
330
E
  0
SCALE
  5
5FE
102
{ACAD_REACTORS
330
5FD
102
}
330
5FD
100
AcDbScale
 70
     0
300
1:1
140
1.0
141
1.0
290
     1
  0
SCALE
  5
5FF
102
{ACAD_REACTORS
330
5FD
102
}
330
5FD
100
AcDbScale
 70
     0
300
1:2
140
1.0
141
2.0
290
     0
  0
SCALE
  5
600
102
{ACAD_REACTORS
330
5FD
102
}
330
5FD
100
AcDbScale
 70
     0
300
1:4
140
1.0
141
4.0
290
     0
  0
SCALE
  5
601
102
{ACAD_REACTORS
330
5FD
102
}
330
5FD
100
AcDbScale
 70
     0
300
1:5
140
1.0
141
5.0
290
     0
  0
SCALE
  5
602
102
{ACAD_REACTORS
330
5FD
102
}
330
5FD
100
AcDbScale
 70
     0
300
1:8
140
1.0
141
8.0
290
     0
  0
SCALE
  5
603
102
{ACAD_REACTORS
330
5FD
102
}
330
5FD
100
AcDbScale
 70
     0
300
1:10
140
1.0
141
10.0
290
     0
  0
SCALE
  5
604
102
{ACAD_REACTORS
330
5FD
102
}
330
5FD
100
AcDbScale
 70
     0
300
1:16
140
1.0
141
16.0
290
     0
  0
SCALE
  5
605
102
{ACAD_REACTORS
330
5FD
102
}
330
5FD
100
AcDbScale
 70
     0
300
1:20
140
1.0
141
20.0
290
     0
  0
SCALE
  5
606
102
{ACAD_REACTORS
330
5FD
102
}
330
5FD
100
AcDbScale
 70
     0
300
1:30
140
1.0
141
30.0
290
     0
  0
SCALE
  5
607
102
{ACAD_REACTORS
330
5FD
102
}
330
5FD
100
AcDbScale
 70
     0
300
1:40
140
1.0
141
40.0
290
     0
  0
SCALE
  5
608
102
{ACAD_REACTORS
330
5FD
102
}
330
5FD
100
AcDbScale
 70
     0
300
1:50
140
1.0
141
50.0
290
     0
  0
SCALE
  5
609
102
{ACAD_REACTORS
330
5FD
102
}
330
5FD
100
AcDbScale
 70
     0
300
1:100
140
1.0
141
100.0
290
     0
  0
SCALE
  5
60A
102
{ACAD_REACTORS
330
5FD
102
}
330
5FD
100
AcDbScale
 70
     0
300
2:1
140
2.0
141
1.0
290
     0
  0
SCALE
  5
60B
102
{ACAD_REACTORS
330
5FD
102
}
330
5FD
100
AcDbScale
 70
     0
300
4:1
140
4.0
141
1.0
290
     0
  0
SCALE
  5
60C
102
{ACAD_REACTORS
330
5FD
102
}
330
5FD
100
AcDbScale
 70
     0
300
8:1
140
8.0
141
1.0
290
     0
  0
SCALE
  5
60D
102
{ACAD_REACTORS
330
5FD
102
}
330
5FD
100
AcDbScale
 70
     0
300
10:1
140
10.0
141
1.0
290
     0
  0
SCALE
  5
60E
102
{ACAD_REACTORS
330
5FD
102
}
330
5FD
100
AcDbScale
 70
     0
300
100:1
140
100.0
141
1.0
290
     0
  0
TABLESTYLE
  5
5FC
102
{ACAD_XDICTIONARY
360
754
102
}
102
{ACAD_REACTORS
330
5FB
102
}
330
5FB
100
AcDbTableStyle
  3
Standard
 70
     0
 71
     0
 40
1.5
 41
1.5
280
     0
281
     0
  7
STANDARD
140
4.5
170
     2
 62
     0
 63
     7
283
     0
274
    -2
284
     1
 64
     0
275
    -2
285
     1
 65
     0
276
    -2
286
     1
 66
     0
277
    -2
287
     1
 67
     0
278
    -2
288
     1
 68
     0
279
    -2
289
     1
 69
     0
  7
STANDARD
140
6.0
170
     5
 62
     0
 63
     7
283
     0
274
    -2
284
     1
 64
     0
275
    -2
285
     1
 65
     0
276
    -2
286
     1
 66
     0
277
    -2
287
     1
 67
     0
278
    -2
288
     1
 68
     0
279
    -2
289
     1
 69
     0
  7
STANDARD
140
4.5
170
     5
 62
     0
 63
     7
283
     0
274
    -2
284
     1
 64
     0
275
    -2
285
     1
 65
     0
276
    -2
286
     1
 66
     0
277
    -2
287
     1
 67
     0
278
    -2
288
     1
 68
     0
279
    -2
289
     1
 69
     0
  0
VISUALSTYLE
  5
5EC
102
{ACAD_XDICTIONARY
360
D06
102
}
102
{ACAD_REACTORS
330
5E6
102
}
330
5E6
100
AcDbVisualStyle
  2

 70
     4
 71
     0
 72
     2
 73
     0
 90
        0
 40
-0.6
 41
-30.0
 62
     5
 63
     7
 74
     1
 91
        4
 64
     7
 65
   257
 75
     1
175
     1
 42
1.0
 92
        0
 66
   257
 43
1.0
 76
     1
 77
     6
 78
     2
 67
     7
 79
     5
170
     0
171
     0
290
     0
174
     0
 93
        1
 44
0.0
173
     0
291
     0
 45
0.0
1001
ACAD
1000
AcDbSavedByObjectVersion
1070
     0
  0
VISUALSTYLE
  5
5EE
102
{ACAD_XDICTIONARY
360
D0A
102
}
102
{ACAD_REACTORS
330
5E6
102
}
330
5E6
100
AcDbVisualStyle
  2

 70
     6
 71
     1
 72
     2
 73
     2
 90
        0
 40
-0.6
 41
-30.0
 62
     5
 63
     7
 74
     2
 91
        2
 64
     7
 65
   257
 75
     2
175
     1
 42
179.0
 92
        0
 66
   257
 43
1.0
 76
     1
 77
     6
 78
     2
 67
     7
 79
     3
170
     0
171
     0
290
     0
174
     0
 93
        1
 44
0.0
173
     0
291
     0
 45
0.0
1001
ACAD
1000
AcDbSavedByObjectVersion
1070
     0
  0
VISUALSTYLE
  5
5ED
102
{ACAD_XDICTIONARY
360
D08
102
}
102
{ACAD_REACTORS
330
5E6
102
}
330
5E6
100
AcDbVisualStyle
  2

 70
     5
 71
     0
 72
     2
 73
     0
 90
        0
 40
-0.6
 41
-30.0
 62
     5
 63
     7
 74
     1
 91
        4
 64
     7
 65
   257
 75
     1
175
     1
 42
1.0
 92
        0
 66
   257
 43
1.0
 76
     1
 77
     6
 78
     2
 67
     7
 79
     5
170
     0
171
     0
290
     0
174
     0
 93
        1
 44
0.0
173
     0
291
     0
 45
0.0
1001
ACAD
1000
AcDbSavedByObjectVersion
1070
     0
  0
VISUALSTYLE
  5
5EB
102
{ACAD_XDICTIONARY
360
D04
102
}
102
{ACAD_REACTORS
330
5E6
102
}
330
5E6
100
AcDbVisualStyle
  2

 70
     7
 71
     1
 72
     0
 73
     1
 90
        0
 40
-0.6
 41
-30.0
 62
     5
 63
     7
 74
     0
 91
        4
 64
     7
 65
   257
 75
     1
175
     1
 42
1.0
 92
        8
 66
     7
 43
1.0
 76
     1
 77
     6
 78
     2
 67
     7
 79
     5
170
     0
171
     0
290
     0
174
     0
 93
        1
 44
0.0
173
     0
291
     1
 45
0.0
1001
ACAD
1000
AcDbSavedByObjectVersion
1070
     0
  0
VISUALSTYLE
  5
5F2
102
{ACAD_XDICTIONARY
360
D12
102
}
102
{ACAD_REACTORS
330
5E6
102
}
330
5E6
100
AcDbVisualStyle
  2

 70
    12
 71
     2
 72
     2
 73
     0
 90
        0
 40
-0.6
 41
-30.0
 62
     5
 63
     7
 74
     1
 91
        4
 64
     7
 65
   257
 75
     1
175
     1
 42
1.0
 92
        8
 66
     7
 43
1.0
 76
     1
 77
     6
 78
     2
 67
     7
 79
     5
170
     0
171
     0
290
     0
174
     0
 93
        1
 44
50.0
173
     0
291
     1
 45
0.0
1001
ACAD
1000
AcDbSavedByObjectVersion
1070
     0
  0
VISUALSTYLE
  5
5F6
102
{ACAD_XDICTIONARY
360
D1A
102
}
102
{ACAD_REACTORS
330
5E6
102
}
330
5E6
100
AcDbVisualStyle
  2

 70
    16
 71
     2
 72
     2
 73
     3
 90
        0
 40
-0.6
 41
-30.0
 62
     5
 63
     8
 74
     1
 91
        4
 64
     7
 65
   257
 75
     1
175
     1
 42
1.0
 92
        8
 66
     8
 43
1.0
 76
     1
 77
     6
 78
     2
 67
     7
 79
     5
170
     0
171
     0
290
     0
174
     0
 93
        1
 44
0.0
173
     0
291
     1
 45
0.0
1001
ACAD
1000
AcDbSavedByObjectVersion
1070
     0
  0
VISUALSTYLE
  5
5EF
102
{ACAD_XDICTIONARY
360
D0C
102
}
102
{ACAD_REACTORS
330
5E6
102
}
330
5E6
100
AcDbVisualStyle
  2

 70
     9
 71
     3
 72
     2
 73
     0
 90
        0
 40
-0.6
 41
-30.0
 62
     5
 63
     7
 74
     2
 91
        2
 64
     7
 65
   257
 75
     1
175
     1
 42
179.0
 92
        8
 66
     7
 43
1.0
 76
     1
 77
     6
 78
     2
 67
     7
 79
     3
170
     0
171
     0
290
     0
174
     0
 93
        1
 44
0.0
173
     0
291
     0
 45
0.0
1001
ACAD
1000
AcDbSavedByObjectVersion
1070
     0
  0
VISUALSTYLE
  5
5F1
102
{ACAD_XDICTIONARY
360
D10
102
}
102
{ACAD_REACTORS
330
5E6
102
}
330
5E6
100
AcDbVisualStyle
  2

 70
    11
 71
     2
 72
     2
 73
     0
 90
        0
 40
-0.6
 41
-30.0
 62
     5
 63
     7
 74
     1
 91
        4
 64
     7
 65
   257
 75
     1
175
     1
 42
1.0
 92
        8
 66
     7
 43
1.0
 76
     1
 77
     6
 78
     2
 67
     7
 79
     5
170
     0
171
     0
290
     0
174
     0
 93
        1
 44
-50.0
173
     0
291
     1
 45
0.0
1001
ACAD
1000
AcDbSavedByObjectVersion
1070
     0
  0
VISUALSTYLE
  5
5F9
102
{ACAD_XDICTIONARY
360
D20
102
}
102
{ACAD_REACTORS
330
5E6
102
}
330
5E6
100
AcDbVisualStyle
  2

 70
    22
 71
     2
 72
     2
 73
     0
 90
        0
 40
-0.6
 41
-30.0
 62
     5
 63
     7
 74
     1
 91
        4
 64
     7
 65
   257
 75
     1
175
     1
 42
1.0
 92
        8
 66
     7
 43
1.0
 76
     1
 77
     6
 78
     2
 67
     7
 79
     5
170
     0
171
     0
290
     0
174
     0
 93
        1
 44
0.0
173
     0
291
     1
 45
0.0
1001
ACAD
1000
AcDbSavedByObjectVersion
1070
     0
  0
VISUALSTYLE
  5
5F5
102
{ACAD_XDICTIONARY
360
D18
102
}
102
{ACAD_REACTORS
330
5E6
102
}
330
5E6
100
AcDbVisualStyle
  2

 70
    15
 71
     2
 72
     2
 73
     0
 90
        0
 40
-0.6
 41
-30.0
 62
     5
 63
     7
 74
     1
 91
        4
 64
     7
 65
   257
 75
     1
175
     1
 42
1.0
 92
        8
 66
     7
 43
1.0
 76
     1
 77
     6
 78
     2
 67
     7
 79
     5
170
     0
171
     0
290
     0
174
     0
 93
        1
 44
0.0
173
     0
291
     1
 45
0.0
1001
ACAD
1000
AcDbSavedByObjectVersion
1070
     0
  0
VISUALSTYLE
  5
5E7
102
{ACAD_XDICTIONARY
360
CFC
102
}
102
{ACAD_REACTORS
330
5E6
102
}
330
5E6
100
AcDbVisualStyle
  2

 70
     0
 71
     2
 72
     1
 73
     1
 90
        2
 40
-0.6
 41
30.0
 62
     5
 63
     7
 74
     0
 91
        4
 64
     7
 65
   257
 75
     1
175
     1
 42
1.0
 92
        8
 66
     7
 43
1.0
 76
     1
 77
     6
 78
     2
 67
     7
 79
     5
170
     0
171
     0
290
     0
174
     0
 93
       13
 44
0.0
173
     0
291
     1
 45
0.0
1001
ACAD
1000
AcDbSavedByObjectVersion
1070
     0
  0
VISUALSTYLE
  5
5E8
102
{ACAD_XDICTIONARY
360
CFE
102
}
102
{ACAD_REACTORS
330
5E6
102
}
330
5E6
100
AcDbVisualStyle
  2

 70
     1
 71
     2
 72
     1
 73
     1
 90
        2
 40
-0.6
 41
30.0
 62
     5
 63
     7
 74
     1
 91
        4
 64
     7
 65
   257
 75
     1
175
     1
 42
1.0
 92
        0
 66
   257
 43
1.0
 76
     1
 77
     6
 78
     2
 67
     7
 79
     5
170
     0
171
     0
290
     0
174
     0
 93
       13
 44
0.0
173
     0
291
     1
 45
0.0
1001
ACAD
1000
AcDbSavedByObjectVersion
1070
     0
  0
VISUALSTYLE
  5
5E9
102
{ACAD_XDICTIONARY
360
D00
102
}
102
{ACAD_REACTORS
330
5E6
102
}
330
5E6
100
AcDbVisualStyle
  2

 70
     2
 71
     2
 72
     2
 73
     1
 90
        2
 40
-0.6
 41
30.0
 62
     5
 63
     7
 74
     0
 91
        4
 64
     7
 65
   257
 75
     1
175
     1
 42
1.0
 92
        0
 66
     7
 43
1.0
 76
     1
 77
     6
 78
     2
 67
     7
 79
     5
170
     0
171
     0
290
     0
174
     0
 93
       13
 44
0.0
173
     0
291
     1
 45
0.0
1001
ACAD
1000
AcDbSavedByObjectVersion
1070
     0
  0
VISUALSTYLE
  5
5EA
102
{ACAD_XDICTIONARY
360
D02
102
}
102
{ACAD_REACTORS
330
5E6
102
}
330
5E6
100
AcDbVisualStyle
  2

 70
     3
 71
     2
 72
     2
 73
     1
 90
        2
 40
-0.6
 41
30.0
 62
     5
 63
     7
 74
     1
 91
        4
 64
     7
 65
   257
 75
     1
175
     1
 42
1.0
 92
        0
 66
   257
 43
1.0
 76
     1
 77
     6
 78
     2
 67
     7
 79
     5
170
     0
171
     0
290
     0
174
     0
 93
       13
 44
0.0
173
     0
291
     1
 45
0.0
1001
ACAD
1000
AcDbSavedByObjectVersion
1070
     0
  0
VISUALSTYLE
  5
5F7
102
{ACAD_XDICTIONARY
360
D1C
102
}
102
{ACAD_REACTORS
330
5E6
102
}
330
5E6
100
AcDbVisualStyle
  2

 70
    20
 71
     2
 72
     2
 73
     0
 90
        0
 40
-0.6
 41
-30.0
 62
     5
 63
     7
 74
     1
 91
        4
 64
     7
 65
   257
 75
     1
175
     1
 42
1.0
 92
       10
 66
     7
 43
1.0
 76
     1
 77
     6
 78
     2
 67
     7
 79
     5
170
     0
171
     0
290
     0
174
     0
 93
        1
 44
0.0
173
     0
291
     1
 45
0.0
1001
ACAD
1000
AcDbSavedByObjectVersion
1070
     0
  0
VISUALSTYLE
  5
5F4
102
{ACAD_XDICTIONARY
360
D16
102
}
102
{ACAD_REACTORS
330
5E6
102
}
330
5E6
100
AcDbVisualStyle
  2

 70
    14
 71
     2
 72
     2
 73
     0
 90
        0
 40
-0.6
 41
-30.0
 62
     5
 63
     7
 74
     1
 91
        4
 64
     7
 65
   257
 75
     7
175
     7
 42
1.0
 92
        8
 66
     7
 43
1.0
 76
     1
 77
     6
 78
     2
 67
     7
 79
     5
170
     0
171
     0
290
     0
174
     0
 93
        1
 44
0.0
173
     0
291
     1
 45
0.0
1001
ACAD
1000
AcDbSavedByObjectVersion
1070
     0
  0
VISUALSTYLE
  5
5F8
102
{ACAD_XDICTIONARY
360
D1E
102
}
102
{ACAD_REACTORS
330
5E6
102
}
330
5E6
100
AcDbVisualStyle
  2

 70
    21
 71
     2
 72
     2
 73
     0
 90
        0
 40
-0.6
 41
-30.0
 62
     5
 63
     7
 74
     1
 91
        4
 64
     7
 65
   257
 75
     1
175
     1
 42
1.0
 92
        9
 66
     7
 43
1.0
 76
     1
 77
     6
 78
     2
 67
     7
 79
     5
170
     0
171
     0
290
     0
174
     0
 93
        1
 44
0.0
173
     0
291
     1
 45
0.0
1001
ACAD
1000
AcDbSavedByObjectVersion
1070
     0
  0
VISUALSTYLE
  5
5F0
102
{ACAD_XDICTIONARY
360
D0E
102
}
102
{ACAD_REACTORS
330
5E6
102
}
330
5E6
100
AcDbVisualStyle
  2

 70
     8
 71
     2
 72
     2
 73
     0
 90
        0
 40
-0.6
 41
-30.0
 62
     5
 63
     7
 74
     1
 91
        0
 64
     7
 65
   257
 75
     1
175
     1
 42
1.0
 92
        8
 66
     8
 43
1.0
 76
     1
 77
     6
 78
     2
 67
     7
 79
     5
170
     0
171
     0
290
     0
174
     0
 93
       13
 44
0.0
173
     0
291
     0
 45
0.0
1001
ACAD
1000
AcDbSavedByObjectVersion
1070
     0
  0
VISUALSTYLE
  5
5F3
102
{ACAD_XDICTIONARY
360
D14
102
}
102
{ACAD_REACTORS
330
5E6
102
}
330
5E6
100
AcDbVisualStyle
  2

 70
    13
 71
     2
 72
     2
 73
     0
 90
        0
 40
-0.6
 41
-30.0
 62
     5
 63
     7
 74
     1
 91
        4
 64
     7
 65
   257
 75
     1
175
     1
 42
1.0
 92
       12
 66
     7
 43
1.0
 76
     1
 77
     6
 78
     2
 67
     7
 79
     5
170
     0
171
     0
290
     0
174
     0
 93
        1
 44
0.0
173
     0
291
     1
 45
0.0
1001
ACAD
1000
AcDbSavedByObjectVersion
1070
     0
  0
DICTIONARYVAR
  5
74B
102
{ACAD_REACTORS
330
747
102
}
330
747
100
DictionaryVariables
280
     0
  1
1:1
  0
DICTIONARYVAR
  5
749
102
{ACAD_REACTORS
330
747
102
}
330
747
100
DictionaryVariables
280
     0
  1
STANDARD
  0
DICTIONARYVAR
  5
748
102
{ACAD_REACTORS
330
747
102
}
330
747
100
DictionaryVariables
280
     0
  1
STANDARD
  0
DICTIONARYVAR
  5
752
102
{ACAD_REACTORS
330
747
102
}
330
747
100
DictionaryVariables
280
     0
  1
2
  0
DICTIONARYVAR
  5
751
102
{ACAD_REACTORS
330
747
102
}
330
747
100
DictionaryVariables
280
     0
  1
1
  0
DICTIONARYVAR
  5
750
102
{ACAD_REACTORS
330
747
102
}
330
747
100
DictionaryVariables
280
     0
  1
0
  0
DICTIONARYVAR
  5
74D
102
{ACAD_REACTORS
330
747
102
}
330
747
100
DictionaryVariables
280
     0
  1
0
  0
DICTIONARYVAR
  5
74E
102
{ACAD_REACTORS
330
747
102
}
330
747
100
DictionaryVariables
280
     0
  1
0
  0
DICTIONARYVAR
  5
74C
102
{ACAD_REACTORS
330
747
102
}
330
747
100
DictionaryVariables
280
     0
  1
2
  0
DICTIONARYVAR
  5
74A
102
{ACAD_REACTORS
330
747
102
}
330
747
100
DictionaryVariables
280
     0
  1
1
  0
DICTIONARYVAR
  5
74F
102
{ACAD_REACTORS
330
747
102
}
330
747
100
DictionaryVariables
280
     0
  1
127
  0
DICTIONARYVAR
  5
CEF
102
{ACAD_REACTORS
330
747
102
}
330
747
100
DictionaryVariables
280
     0
  1
2
  0
DICTIONARY
  5
673
102
{ACAD_REACTORS
330
669
102
}
330
669
100
AcDbDictionary
281
     1
  0
DICTIONARY
  5
CFA
330
5C9
100
AcDbDictionary
280
     1
281
     1
  3
ACAD_XREC_ROUNDTRIP
360
CFB
  0
DICTIONARY
  5
CF8
330
5C8
100
AcDbDictionary
280
     1
281
     1
  3
ACAD_XREC_ROUNDTRIP
360
CF9
  0
DICTIONARY
  5
5D7
330
5D6
100
AcDbDictionary
280
     1
281
     1
  3
ACAD_XREC_ROUNDTRIP
360
75D
  3
BUMPTILE
360
5D9
  3
DIFFUSETILE
360
5D8
  3
OPACITYTILE
360
5DC
  3
REFLECTIONTILE
360
5DB
  3
REFRACTIONTILE
360
5DD
  3
SPECULARTILE
360
5DA
  0
DICTIONARY
  5
5CF
330
5CE
100
AcDbDictionary
280
     1
281
     1
  3
ACAD_XREC_ROUNDTRIP
360
75C
  3
BUMPTILE
360
5D1
  3
DIFFUSETILE
360
5D0
  3
OPACITYTILE
360
5D4
  3
REFLECTIONTILE
360
5D3
  3
REFRACTIONTILE
360
5D5
  3
SPECULARTILE
360
5D2
  0
DICTIONARY
  5
5DF
330
5DE
100
AcDbDictionary
280
     1
281
     1
  3
ACAD_XREC_ROUNDTRIP
360
75E
  3
BUMPTILE
360
5E1
  3
DIFFUSETILE
360
5E0
  3
OPACITYTILE
360
5E4
  3
REFLECTIONTILE
360
5E3
  3
REFRACTIONTILE
360
5E5
  3
SPECULARTILE
360
5E2
  0
DICTIONARY
  5
754
330
5FC
100
AcDbDictionary
280
     1
281
     1
  3
ACAD_ROUNDTRIP_2008_TABLESTYLE_CELLSTYLEMAP
360
CF0
  3
ACAD_XREC_ROUNDTRIP
360
D22
  0
DICTIONARY
  5
D06
330
5EC
100
AcDbDictionary
280
     1
281
     1
  3
ACAD_XREC_ROUNDTRIP
360
D07
  0
DICTIONARY
  5
D0A
330
5EE
100
AcDbDictionary
280
     1
281
     1
  3
ACAD_XREC_ROUNDTRIP
360
D0B
  0
DICTIONARY
  5
D08
330
5ED
100
AcDbDictionary
280
     1
281
     1
  3
ACAD_XREC_ROUNDTRIP
360
D09
  0
DICTIONARY
  5
D04
330
5EB
100
AcDbDictionary
280
     1
281
     1
  3
ACAD_XREC_ROUNDTRIP
360
D05
  0
DICTIONARY
  5
D12
330
5F2
100
AcDbDictionary
280
     1
281
     1
  3
ACAD_XREC_ROUNDTRIP
360
D13
  0
DICTIONARY
  5
D1A
330
5F6
100
AcDbDictionary
280
     1
281
     1
  3
ACAD_XREC_ROUNDTRIP
360
D1B
  0
DICTIONARY
  5
D0C
330
5EF
100
AcDbDictionary
280
     1
281
     1
  3
ACAD_XREC_ROUNDTRIP
360
D0D
  0
DICTIONARY
  5
D10
330
5F1
100
AcDbDictionary
280
     1
281
     1
  3
ACAD_XREC_ROUNDTRIP
360
D11
  0
DICTIONARY
  5
D20
330
5F9
100
AcDbDictionary
280
     1
281
     1
  3
ACAD_XREC_ROUNDTRIP
360
D21
  0
DICTIONARY
  5
D18
330
5F5
100
AcDbDictionary
280
     1
281
     1
  3
ACAD_XREC_ROUNDTRIP
360
D19
  0
DICTIONARY
  5
CFC
330
5E7
100
AcDbDictionary
280
     1
281
     1
  3
ACAD_XREC_ROUNDTRIP
360
CFD
  0
DICTIONARY
  5
CFE
330
5E8
100
AcDbDictionary
280
     1
281
     1
  3
ACAD_XREC_ROUNDTRIP
360
CFF
  0
DICTIONARY
  5
D00
330
5E9
100
AcDbDictionary
280
     1
281
     1
  3
ACAD_XREC_ROUNDTRIP
360
D01
  0
DICTIONARY
  5
D02
330
5EA
100
AcDbDictionary
280
     1
281
     1
  3
ACAD_XREC_ROUNDTRIP
360
D03
  0
DICTIONARY
  5
D1C
330
5F7
100
AcDbDictionary
280
     1
281
     1
  3
ACAD_XREC_ROUNDTRIP
360
D1D
  0
DICTIONARY
  5
D16
330
5F4
100
AcDbDictionary
280
     1
281
     1
  3
ACAD_XREC_ROUNDTRIP
360
D17
  0
DICTIONARY
  5
D1E
330
5F8
100
AcDbDictionary
280
     1
281
     1
  3
ACAD_XREC_ROUNDTRIP
360
D1F
  0
DICTIONARY
  5
D0E
330
5F0
100
AcDbDictionary
280
     1
281
     1
  3
ACAD_XREC_ROUNDTRIP
360
D0F
  0
DICTIONARY
  5
D14
330
5F3
100
AcDbDictionary
280
     1
281
     1
  3
ACAD_XREC_ROUNDTRIP
360
D15
  0
XRECORD
  5
CFB
102
{ACAD_REACTORS
330
CFA
102
}
330
CFA
100
AcDbXrecord
280
     1
102
SHADEPLOT
 70
     0
102
SHADEPLOTRESLEVEL
 70
     2
102
SHADEPLOTCUSTOMDPI
 70
   300
  0
XRECORD
  5
CF9
102
{ACAD_REACTORS
330
CF8
102
}
330
CF8
100
AcDbXrecord
280
     1
102
SHADEPLOT
 70
     0
102
SHADEPLOTRESLEVEL
 70
     2
102
SHADEPLOTCUSTOMDPI
 70
   300
  0
XRECORD
  5
75D
102
{ACAD_REACTORS
330
5D7
102
}
330
5D7
100
AcDbXrecord
280
     1
102
MATERIAL
148
0.0
149
0.0
149
0.0
 93
        0
 94
      127
282
     0
 72
     0
 77
     0
171
     0
175
     0
179
     0
273
     0
  0
XRECORD
  5
5D9
102
{ACAD_REACTORS
330
5D7
102
}
330
5D7
100
AcDbXrecord
280
     1
270
     1
271
     1
  0
XRECORD
  5
5D8
102
{ACAD_REACTORS
330
5D7
102
}
330
5D7
100
AcDbXrecord
280
     1
270
     1
271
     1
  0
XRECORD
  5
5DC
102
{ACAD_REACTORS
330
5D7
102
}
330
5D7
100
AcDbXrecord
280
     1
270
     1
271
     1
  0
XRECORD
  5
5DB
102
{ACAD_REACTORS
330
5D7
102
}
330
5D7
100
AcDbXrecord
280
     1
270
     1
271
     1
  0
XRECORD
  5
5DD
102
{ACAD_REACTORS
330
5D7
102
}
330
5D7
100
AcDbXrecord
280
     1
270
     1
271
     1
  0
XRECORD
  5
5DA
102
{ACAD_REACTORS
330
5D7
102
}
330
5D7
100
AcDbXrecord
280
     1
270
     1
271
     1
  0
XRECORD
  5
75C
102
{ACAD_REACTORS
330
5CF
102
}
330
5CF
100
AcDbXrecord
280
     1
102
MATERIAL
148
0.0
149
0.0
149
0.0
 93
        0
 94
      127
282
     0
 72
     0
 77
     0
171
     0
175
     0
179
     0
273
     0
  0
XRECORD
  5
5D1
102
{ACAD_REACTORS
330
5CF
102
}
330
5CF
100
AcDbXrecord
280
     1
270
     1
271
     1
  0
XRECORD
  5
5D0
102
{ACAD_REACTORS
330
5CF
102
}
330
5CF
100
AcDbXrecord
280
     1
270
     1
271
     1
  0
XRECORD
  5
5D4
102
{ACAD_REACTORS
330
5CF
102
}
330
5CF
100
AcDbXrecord
280
     1
270
     1
271
     1
  0
XRECORD
  5
5D3
102
{ACAD_REACTORS
330
5CF
102
}
330
5CF
100
AcDbXrecord
280
     1
270
     1
271
     1
  0
XRECORD
  5
5D5
102
{ACAD_REACTORS
330
5CF
102
}
330
5CF
100
AcDbXrecord
280
     1
270
     1
271
     1
  0
XRECORD
  5
5D2
102
{ACAD_REACTORS
330
5CF
102
}
330
5CF
100
AcDbXrecord
280
     1
270
     1
271
     1
  0
XRECORD
  5
75E
102
{ACAD_REACTORS
330
5DF
102
}
330
5DF
100
AcDbXrecord
280
     1
102
MATERIAL
148
0.0
149
0.0
149
0.0
 93
        0
 94
      127
282
     0
 72
     0
 77
     0
171
     0
175
     0
179
     0
273
     0
  0
XRECORD
  5
5E1
102
{ACAD_REACTORS
330
5DF
102
}
330
5DF
100
AcDbXrecord
280
     1
270
     1
271
     1
  0
XRECORD
  5
5E0
102
{ACAD_REACTORS
330
5DF
102
}
330
5DF
100
AcDbXrecord
280
     1
270
     1
271
     1
  0
XRECORD
  5
5E4
102
{ACAD_REACTORS
330
5DF
102
}
330
5DF
100
AcDbXrecord
280
     1
270
     1
271
     1
  0
XRECORD
  5
5E3
102
{ACAD_REACTORS
330
5DF
102
}
330
5DF
100
AcDbXrecord
280
     1
270
     1
271
     1
  0
XRECORD
  5
5E5
102
{ACAD_REACTORS
330
5DF
102
}
330
5DF
100
AcDbXrecord
280
     1
270
     1
271
     1
  0
XRECORD
  5
5E2
102
{ACAD_REACTORS
330
5DF
102
}
330
5DF
100
AcDbXrecord
280
     1
270
     1
271
     1
  0
CELLSTYLEMAP
  5
CF0
102
{ACAD_REACTORS
330
754
102
}
330
754
100
AcDbCellStyleMap
 90
        3
300
CELLSTYLE
  1
TABLEFORMAT_BEGIN
 90
        5
170
     1
 91
        0
 92
    32768
 62
   257
 93
        1
300
CONTENTFORMAT
  1
CONTENTFORMAT_BEGIN
 90
        0
 91
        0
 92
      512
 93
        0
300

 40
0.0
140
1.0
 94
        5
 62
     0
340
11
144
6.0
309
CONTENTFORMAT_END
171
     1
301
MARGIN
  1
CELLMARGIN_BEGIN
 40
1.5
 40
1.5
 40
1.5
 40
1.5
 40
0.18
 40
0.18
309
CELLMARGIN_END
 94
        6
 95
        1
302
GRIDFORMAT
  1
GRIDFORMAT_BEGIN
 90
        0
 91
        1
 62
     0
 92
       -2
340
0
 93
        0
 40
1.125
309
GRIDFORMAT_END
 95
        2
302
GRIDFORMAT
  1
GRIDFORMAT_BEGIN
 90
        0
 91
        1
 62
     0
 92
       -2
340
0
 93
        0
 40
1.125
309
GRIDFORMAT_END
 95
        4
302
GRIDFORMAT
  1
GRIDFORMAT_BEGIN
 90
        0
 91
        1
 62
     0
 92
       -2
340
0
 93
        0
 40
1.125
309
GRIDFORMAT_END
 95
        8
302
GRIDFORMAT
  1
GRIDFORMAT_BEGIN
 90
        0
 91
        1
 62
     0
 92
       -2
340
0
 93
        0
 40
1.125
309
GRIDFORMAT_END
 95
       16
302
GRIDFORMAT
  1
GRIDFORMAT_BEGIN
 90
        0
 91
        1
 62
     0
 92
       -2
340
0
 93
        0
 40
1.125
309
GRIDFORMAT_END
 95
       32
302
GRIDFORMAT
  1
GRIDFORMAT_BEGIN
 90
        0
 91
        1
 62
     0
 92
       -2
340
0
 93
        0
 40
1.125
309
GRIDFORMAT_END
309
TABLEFORMAT_END
  1
CELLSTYLE_BEGIN
 90
        1
 91
        1
300
_TITLE
309
CELLSTYLE_END
300
CELLSTYLE
  1
TABLEFORMAT_BEGIN
 90
        5
170
     1
 91
        0
 92
        0
 62
   257
 93
        1
300
CONTENTFORMAT
  1
CONTENTFORMAT_BEGIN
 90
        0
 91
        0
 92
      512
 93
        0
300

 40
0.0
140
1.0
 94
        5
 62
     0
340
11
144
4.5
309
CONTENTFORMAT_END
171
     1
301
MARGIN
  1
CELLMARGIN_BEGIN
 40
1.5
 40
1.5
 40
1.5
 40
1.5
 40
0.18
 40
0.18
309
CELLMARGIN_END
 94
        6
 95
        1
302
GRIDFORMAT
  1
GRIDFORMAT_BEGIN
 90
        0
 91
        1
 62
     0
 92
       -2
340
0
 93
        0
 40
1.125
309
GRIDFORMAT_END
 95
        2
302
GRIDFORMAT
  1
GRIDFORMAT_BEGIN
 90
        0
 91
        1
 62
     0
 92
       -2
340
0
 93
        0
 40
1.125
309
GRIDFORMAT_END
 95
        4
302
GRIDFORMAT
  1
GRIDFORMAT_BEGIN
 90
        0
 91
        1
 62
     0
 92
       -2
340
0
 93
        0
 40
1.125
309
GRIDFORMAT_END
 95
        8
302
GRIDFORMAT
  1
GRIDFORMAT_BEGIN
 90
        0
 91
        1
 62
     0
 92
       -2
340
0
 93
        0
 40
1.125
309
GRIDFORMAT_END
 95
       16
302
GRIDFORMAT
  1
GRIDFORMAT_BEGIN
 90
        0
 91
        1
 62
     0
 92
       -2
340
0
 93
        0
 40
1.125
309
GRIDFORMAT_END
 95
       32
302
GRIDFORMAT
  1
GRIDFORMAT_BEGIN
 90
        0
 91
        1
 62
     0
 92
       -2
340
0
 93
        0
 40
1.125
309
GRIDFORMAT_END
309
TABLEFORMAT_END
  1
CELLSTYLE_BEGIN
 90
        2
 91
        1
300
_HEADER
309
CELLSTYLE_END
300
CELLSTYLE
  1
TABLEFORMAT_BEGIN
 90
        5
170
     1
 91
        0
 92
        0
 62
   257
 93
        1
300
CONTENTFORMAT
  1
CONTENTFORMAT_BEGIN
 90
        0
 91
        0
 92
      512
 93
        0
300

 40
0.0
140
1.0
 94
        2
 62
     0
340
11
144
4.5
309
CONTENTFORMAT_END
171
     1
301
MARGIN
  1
CELLMARGIN_BEGIN
 40
1.5
 40
1.5
 40
1.5
 40
1.5
 40
0.18
 40
0.18
309
CELLMARGIN_END
 94
        6
 95
        1
302
GRIDFORMAT
  1
GRIDFORMAT_BEGIN
 90
        0
 91
        1
 62
     0
 92
       -2
340
0
 93
        0
 40
1.125
309
GRIDFORMAT_END
 95
        2
302
GRIDFORMAT
  1
GRIDFORMAT_BEGIN
 90
        0
 91
        1
 62
     0
 92
       -2
340
0
 93
        0
 40
1.125
309
GRIDFORMAT_END
 95
        4
302
GRIDFORMAT
  1
GRIDFORMAT_BEGIN
 90
        0
 91
        1
 62
     0
 92
       -2
340
0
 93
        0
 40
1.125
309
GRIDFORMAT_END
 95
        8
302
GRIDFORMAT
  1
GRIDFORMAT_BEGIN
 90
        0
 91
        1
 62
     0
 92
       -2
340
0
 93
        0
 40
1.125
309
GRIDFORMAT_END
 95
       16
302
GRIDFORMAT
  1
GRIDFORMAT_BEGIN
 90
        0
 91
        1
 62
     0
 92
       -2
340
0
 93
        0
 40
1.125
309
GRIDFORMAT_END
 95
       32
302
GRIDFORMAT
  1
GRIDFORMAT_BEGIN
 90
        0
 91
        1
 62
     0
 92
       -2
340
0
 93
        0
 40
1.125
309
GRIDFORMAT_END
309
TABLEFORMAT_END
  1
CELLSTYLE_BEGIN
 90
        3
 91
        2
300
_DATA
309
CELLSTYLE_END
  0
XRECORD
  5
D22
102
{ACAD_REACTORS
330
754
102
}
330
754
100
AcDbXrecord
280
     1
102
ACAD_ROUNDTRIP_PRE2007_TABLESTYLE
 90
      512
 91
        0
  1

 92
      512
 93
        0
  2

 94
      512
 95
        0
  3

  0
XRECORD
  5
D07
102
{ACAD_REACTORS
330
D06
102
}
330
D06
100
AcDbXrecord
280
     1
102
RTVSPropertyOp0
 70
     1
102
RTVSPropertyOp1
 70
     1
102
RTVSPropertyOp2
 70
     1
102
RTVSPropertyOp3
 70
     1
102
RTVSPropertyOp4
 70
     1
102
RTVSPropertyOp5
 70
     1
102
RTVSPropertyOp6
 70
     1
102
RTVSPropertyOp7
 70
     1
102
RTVSPropertyOp8
 70
     1
102
RTVSPropertyOp9
 70
     1
102
RTVSPropertyOp10
 70
     1
102
RTVSPropertyOp11
 70
     1
102
RTVSPropertyOp12
 70
     1
102
RTVSPropertyOp13
 70
     1
102
RTVSPropertyOp14
 70
     1
102
RTVSPropertyOp15
 70
     1
102
RTVSPropertyOp16
 70
     1
102
RTVSPropertyOp17
 70
     1
102
RTVSPropertyOp18
 70
     1
102
RTVSPropertyOp19
 70
     1
102
RTVSPropertyOp20
 70
     1
102
RTVSPropertyOp21
 70
     1
102
RTVSPropertyOp22
 70
     1
102
RTVSPropertyOp23
 70
     1
102
RTVSPropertyOp24
 70
     1
102
RTVSPropertyOp25
 70
     1
102
RTVSPropertyOp26
 70
     1
102
RTVSPropertyOp27
 70
     1
  0
XRECORD
  5
D0B
102
{ACAD_REACTORS
330
D0A
102
}
330
D0A
100
AcDbXrecord
280
     1
102
RTVSPropertyOp0
 70
     1
102
RTVSPropertyOp1
 70
     1
102
RTVSPropertyOp2
 70
     1
102
RTVSPropertyOp3
 70
     1
102
RTVSPropertyOp4
 70
     1
102
RTVSPropertyOp5
 70
     1
102
RTVSPropertyOp6
 70
     1
102
RTVSPropertyOp7
 70
     1
102
RTVSPropertyOp8
 70
     1
102
RTVSPropertyOp9
 70
     1
102
RTVSPropertyOp10
 70
     1
102
RTVSPropertyOp11
 70
     1
102
RTVSPropertyOp12
 70
     1
102
RTVSPropertyOp13
 70
     1
102
RTVSPropertyOp14
 70
     1
102
RTVSPropertyOp15
 70
     1
102
RTVSPropertyOp16
 70
     1
102
RTVSPropertyOp17
 70
     1
102
RTVSPropertyOp18
 70
     1
102
RTVSPropertyOp19
 70
     1
102
RTVSPropertyOp20
 70
     1
102
RTVSPropertyOp21
 70
     1
102
RTVSPropertyOp22
 70
     1
102
RTVSPropertyOp23
 70
     1
102
RTVSPropertyOp24
 70
     1
102
RTVSPropertyOp25
 70
     1
102
RTVSPropertyOp26
 70
     1
102
RTVSPropertyOp27
 70
     1
  0
XRECORD
  5
D09
102
{ACAD_REACTORS
330
D08
102
}
330
D08
100
AcDbXrecord
280
     1
102
RTVSPropertyOp0
 70
     1
102
RTVSPropertyOp1
 70
     1
102
RTVSPropertyOp2
 70
     1
102
RTVSPropertyOp3
 70
     1
102
RTVSPropertyOp4
 70
     1
102
RTVSPropertyOp5
 70
     1
102
RTVSPropertyOp6
 70
     1
102
RTVSPropertyOp7
 70
     1
102
RTVSPropertyOp8
 70
     1
102
RTVSPropertyOp9
 70
     1
102
RTVSPropertyOp10
 70
     1
102
RTVSPropertyOp11
 70
     1
102
RTVSPropertyOp12
 70
     1
102
RTVSPropertyOp13
 70
     1
102
RTVSPropertyOp14
 70
     1
102
RTVSPropertyOp15
 70
     1
102
RTVSPropertyOp16
 70
     1
102
RTVSPropertyOp17
 70
     1
102
RTVSPropertyOp18
 70
     1
102
RTVSPropertyOp19
 70
     1
102
RTVSPropertyOp20
 70
     1
102
RTVSPropertyOp21
 70
     1
102
RTVSPropertyOp22
 70
     1
102
RTVSPropertyOp23
 70
     1
102
RTVSPropertyOp24
 70
     1
102
RTVSPropertyOp25
 70
     1
102
RTVSPropertyOp26
 70
     1
102
RTVSPropertyOp27
 70
     1
  0
XRECORD
  5
D05
102
{ACAD_REACTORS
330
D04
102
}
330
D04
100
AcDbXrecord
280
     1
102
RTVSPropertyOp0
 70
     1
102
RTVSPropertyOp1
 70
     1
102
RTVSPropertyOp2
 70
     1
102
RTVSPropertyOp3
 70
     1
102
RTVSPropertyOp4
 70
     1
102
RTVSPropertyOp5
 70
     1
102
RTVSPropertyOp6
 70
     1
102
RTVSPropertyOp7
 70
     1
102
RTVSPropertyOp8
 70
     1
102
RTVSPropertyOp9
 70
     1
102
RTVSPropertyOp10
 70
     1
102
RTVSPropertyOp11
 70
     1
102
RTVSPropertyOp12
 70
     1
102
RTVSPropertyOp13
 70
     1
102
RTVSPropertyOp14
 70
     1
102
RTVSPropertyOp15
 70
     1
102
RTVSPropertyOp16
 70
     1
102
RTVSPropertyOp17
 70
     1
102
RTVSPropertyOp18
 70
     1
102
RTVSPropertyOp19
 70
     1
102
RTVSPropertyOp20
 70
     1
102
RTVSPropertyOp21
 70
     1
102
RTVSPropertyOp22
 70
     1
102
RTVSPropertyOp23
 70
     1
102
RTVSPropertyOp24
 70
     1
102
RTVSPropertyOp25
 70
     1
102
RTVSPropertyOp26
 70
     1
102
RTVSPropertyOp27
 70
     1
  0
XRECORD
  5
D13
102
{ACAD_REACTORS
330
D12
102
}
330
D12
100
AcDbXrecord
280
     1
102
RTVSPropertyOp0
 70
     1
102
RTVSPropertyOp1
 70
     1
102
RTVSPropertyOp2
 70
     1
102
RTVSPropertyOp3
 70
     1
102
RTVSPropertyOp4
 70
     1
102
RTVSPropertyOp5
 70
     1
102
RTVSPropertyOp6
 70
     1
102
RTVSPropertyOp7
 70
     1
102
RTVSPropertyOp8
 70
     1
102
RTVSPropertyOp9
 70
     1
102
RTVSPropertyOp10
 70
     1
102
RTVSPropertyOp11
 70
     1
102
RTVSPropertyOp12
 70
     1
102
RTVSPropertyOp13
 70
     1
102
RTVSPropertyOp14
 70
     1
102
RTVSPropertyOp15
 70
     1
102
RTVSPropertyOp16
 70
     1
102
RTVSPropertyOp17
 70
     1
102
RTVSPropertyOp18
 70
     1
102
RTVSPropertyOp19
 70
     1
102
RTVSPropertyOp20
 70
     1
102
RTVSPropertyOp21
 70
     1
102
RTVSPropertyOp22
 70
     1
102
RTVSPropertyOp23
 70
     1
102
RTVSPropertyOp24
 70
     1
102
RTVSPropertyOp25
 70
     1
102
RTVSPropertyOp26
 70
     1
102
RTVSPropertyOp27
 70
     1
  0
XRECORD
  5
D1B
102
{ACAD_REACTORS
330
D1A
102
}
330
D1A
100
AcDbXrecord
280
     1
102
RTVSPropertyOp0
 70
     1
102
RTVSPropertyOp1
 70
     1
102
RTVSPropertyOp2
 70
     1
102
RTVSPropertyOp3
 70
     1
102
RTVSPropertyOp4
 70
     1
102
RTVSPropertyOp5
 70
     1
102
RTVSPropertyOp6
 70
     1
102
RTVSPropertyOp7
 70
     1
102
RTVSPropertyOp8
 70
     1
102
RTVSPropertyOp9
 70
     1
102
RTVSPropertyOp10
 70
     1
102
RTVSPropertyOp11
 70
     1
102
RTVSPropertyOp12
 70
     1
102
RTVSPropertyOp13
 70
     1
102
RTVSPropertyOp14
 70
     1
102
RTVSPropertyOp15
 70
     1
102
RTVSPropertyOp16
 70
     1
102
RTVSPropertyOp17
 70
     1
102
RTVSPropertyOp18
 70
     1
102
RTVSPropertyOp19
 70
     1
102
RTVSPropertyOp20
 70
     1
102
RTVSPropertyOp21
 70
     1
102
RTVSPropertyOp22
 70
     1
102
RTVSPropertyOp23
 70
     1
102
RTVSPropertyOp24
 70
     1
102
RTVSPropertyOp25
 70
     1
102
RTVSPropertyOp26
 70
     1
102
RTVSPropertyOp27
 70
     1
  0
XRECORD
  5
D0D
102
{ACAD_REACTORS
330
D0C
102
}
330
D0C
100
AcDbXrecord
280
     1
102
RTVSPropertyOp0
 70
     1
102
RTVSPropertyOp1
 70
     1
102
RTVSPropertyOp2
 70
     1
102
RTVSPropertyOp3
 70
     1
102
RTVSPropertyOp4
 70
     1
102
RTVSPropertyOp5
 70
     1
102
RTVSPropertyOp6
 70
     1
102
RTVSPropertyOp7
 70
     1
102
RTVSPropertyOp8
 70
     1
102
RTVSPropertyOp9
 70
     1
102
RTVSPropertyOp10
 70
     1
102
RTVSPropertyOp11
 70
     1
102
RTVSPropertyOp12
 70
     1
102
RTVSPropertyOp13
 70
     1
102
RTVSPropertyOp14
 70
     1
102
RTVSPropertyOp15
 70
     1
102
RTVSPropertyOp16
 70
     1
102
RTVSPropertyOp17
 70
     1
102
RTVSPropertyOp18
 70
     1
102
RTVSPropertyOp19
 70
     1
102
RTVSPropertyOp20
 70
     1
102
RTVSPropertyOp21
 70
     1
102
RTVSPropertyOp22
 70
     1
102
RTVSPropertyOp23
 70
     1
102
RTVSPropertyOp24
 70
     1
102
RTVSPropertyOp25
 70
     1
102
RTVSPropertyOp26
 70
     1
102
RTVSPropertyOp27
 70
     1
  0
XRECORD
  5
D11
102
{ACAD_REACTORS
330
D10
102
}
330
D10
100
AcDbXrecord
280
     1
102
RTVSPropertyOp0
 70
     1
102
RTVSPropertyOp1
 70
     1
102
RTVSPropertyOp2
 70
     1
102
RTVSPropertyOp3
 70
     1
102
RTVSPropertyOp4
 70
     1
102
RTVSPropertyOp5
 70
     1
102
RTVSPropertyOp6
 70
     1
102
RTVSPropertyOp7
 70
     1
102
RTVSPropertyOp8
 70
     1
102
RTVSPropertyOp9
 70
     1
102
RTVSPropertyOp10
 70
     1
102
RTVSPropertyOp11
 70
     1
102
RTVSPropertyOp12
 70
     1
102
RTVSPropertyOp13
 70
     1
102
RTVSPropertyOp14
 70
     1
102
RTVSPropertyOp15
 70
     1
102
RTVSPropertyOp16
 70
     1
102
RTVSPropertyOp17
 70
     1
102
RTVSPropertyOp18
 70
     1
102
RTVSPropertyOp19
 70
     1
102
RTVSPropertyOp20
 70
     1
102
RTVSPropertyOp21
 70
     1
102
RTVSPropertyOp22
 70
     1
102
RTVSPropertyOp23
 70
     1
102
RTVSPropertyOp24
 70
     1
102
RTVSPropertyOp25
 70
     1
102
RTVSPropertyOp26
 70
     1
102
RTVSPropertyOp27
 70
     1
  0
XRECORD
  5
D21
102
{ACAD_REACTORS
330
D20
102
}
330
D20
100
AcDbXrecord
280
     1
102
RTVSPropertyOp0
 70
     0
102
RTVSPropertyOp1
 70
     0
102
RTVSPropertyOp2
 70
     0
102
RTVSPropertyOp3
 70
     0
102
RTVSPropertyOp4
 70
     0
102
RTVSPropertyOp5
 70
     0
102
RTVSPropertyOp6
 70
     0
102
RTVSPropertyOp7
 70
     0
102
RTVSPropertyOp8
 70
     0
102
RTVSPropertyOp9
 70
     0
102
RTVSPropertyOp10
 70
     0
102
RTVSPropertyOp11
 70
     0
102
RTVSPropertyOp12
 70
     0
102
RTVSPropertyOp13
 70
     0
102
RTVSPropertyOp14
 70
     2
102
RTVSPropertyOp15
 70
     0
102
RTVSPropertyOp16
 70
     0
102
RTVSPropertyOp17
 70
     0
102
RTVSPropertyOp18
 70
     0
102
RTVSPropertyOp19
 70
     0
102
RTVSPropertyOp20
 70
     0
102
RTVSPropertyOp21
 70
     0
102
RTVSPropertyOp22
 70
     0
102
RTVSPropertyOp23
 70
     0
102
RTVSPropertyOp24
 70
     0
102
RTVSPropertyOp25
 70
     0
102
RTVSPropertyOp26
 70
     0
102
RTVSPropertyOp27
 70
     0
  0
XRECORD
  5
D19
102
{ACAD_REACTORS
330
D18
102
}
330
D18
100
AcDbXrecord
280
     1
102
RTVSPropertyOp0
 70
     1
102
RTVSPropertyOp1
 70
     1
102
RTVSPropertyOp2
 70
     1
102
RTVSPropertyOp3
 70
     1
102
RTVSPropertyOp4
 70
     1
102
RTVSPropertyOp5
 70
     1
102
RTVSPropertyOp6
 70
     1
102
RTVSPropertyOp7
 70
     1
102
RTVSPropertyOp8
 70
     1
102
RTVSPropertyOp9
 70
     1
102
RTVSPropertyOp10
 70
     1
102
RTVSPropertyOp11
 70
     1
102
RTVSPropertyOp12
 70
     1
102
RTVSPropertyOp13
 70
     1
102
RTVSPropertyOp14
 70
     1
102
RTVSPropertyOp15
 70
     1
102
RTVSPropertyOp16
 70
     1
102
RTVSPropertyOp17
 70
     1
102
RTVSPropertyOp18
 70
     1
102
RTVSPropertyOp19
 70
     1
102
RTVSPropertyOp20
 70
     1
102
RTVSPropertyOp21
 70
     1
102
RTVSPropertyOp22
 70
     1
102
RTVSPropertyOp23
 70
     1
102
RTVSPropertyOp24
 70
     1
102
RTVSPropertyOp25
 70
     1
102
RTVSPropertyOp26
 70
     1
102
RTVSPropertyOp27
 70
     1
  0
XRECORD
  5
CFD
102
{ACAD_REACTORS
330
CFC
102
}
330
CFC
100
AcDbXrecord
280
     1
102
RTVSPropertyOp0
 70
     1
102
RTVSPropertyOp1
 70
     1
102
RTVSPropertyOp2
 70
     1
102
RTVSPropertyOp3
 70
     1
102
RTVSPropertyOp4
 70
     1
102
RTVSPropertyOp5
 70
     1
102
RTVSPropertyOp6
 70
     1
102
RTVSPropertyOp7
 70
     1
102
RTVSPropertyOp8
 70
     1
102
RTVSPropertyOp9
 70
     1
102
RTVSPropertyOp10
 70
     1
102
RTVSPropertyOp11
 70
     1
102
RTVSPropertyOp12
 70
     1
102
RTVSPropertyOp13
 70
     1
102
RTVSPropertyOp14
 70
     1
102
RTVSPropertyOp15
 70
     1
102
RTVSPropertyOp16
 70
     1
102
RTVSPropertyOp17
 70
     1
102
RTVSPropertyOp18
 70
     1
102
RTVSPropertyOp19
 70
     1
102
RTVSPropertyOp20
 70
     1
102
RTVSPropertyOp21
 70
     1
102
RTVSPropertyOp22
 70
     1
102
RTVSPropertyOp23
 70
     1
102
RTVSPropertyOp24
 70
     1
102
RTVSPropertyOp25
 70
     1
102
RTVSPropertyOp26
 70
     1
102
RTVSPropertyOp27
 70
     1
  0
XRECORD
  5
CFF
102
{ACAD_REACTORS
330
CFE
102
}
330
CFE
100
AcDbXrecord
280
     1
102
RTVSPropertyOp0
 70
     1
102
RTVSPropertyOp1
 70
     1
102
RTVSPropertyOp2
 70
     1
102
RTVSPropertyOp3
 70
     1
102
RTVSPropertyOp4
 70
     1
102
RTVSPropertyOp5
 70
     1
102
RTVSPropertyOp6
 70
     1
102
RTVSPropertyOp7
 70
     1
102
RTVSPropertyOp8
 70
     1
102
RTVSPropertyOp9
 70
     1
102
RTVSPropertyOp10
 70
     1
102
RTVSPropertyOp11
 70
     1
102
RTVSPropertyOp12
 70
     1
102
RTVSPropertyOp13
 70
     1
102
RTVSPropertyOp14
 70
     1
102
RTVSPropertyOp15
 70
     1
102
RTVSPropertyOp16
 70
     1
102
RTVSPropertyOp17
 70
     1
102
RTVSPropertyOp18
 70
     1
102
RTVSPropertyOp19
 70
     1
102
RTVSPropertyOp20
 70
     1
102
RTVSPropertyOp21
 70
     1
102
RTVSPropertyOp22
 70
     1
102
RTVSPropertyOp23
 70
     1
102
RTVSPropertyOp24
 70
     1
102
RTVSPropertyOp25
 70
     1
102
RTVSPropertyOp26
 70
     1
102
RTVSPropertyOp27
 70
     1
  0
XRECORD
  5
D01
102
{ACAD_REACTORS
330
D00
102
}
330
D00
100
AcDbXrecord
280
     1
102
RTVSPropertyOp0
 70
     1
102
RTVSPropertyOp1
 70
     1
102
RTVSPropertyOp2
 70
     1
102
RTVSPropertyOp3
 70
     1
102
RTVSPropertyOp4
 70
     1
102
RTVSPropertyOp5
 70
     1
102
RTVSPropertyOp6
 70
     1
102
RTVSPropertyOp7
 70
     1
102
RTVSPropertyOp8
 70
     1
102
RTVSPropertyOp9
 70
     1
102
RTVSPropertyOp10
 70
     1
102
RTVSPropertyOp11
 70
     1
102
RTVSPropertyOp12
 70
     1
102
RTVSPropertyOp13
 70
     1
102
RTVSPropertyOp14
 70
     1
102
RTVSPropertyOp15
 70
     1
102
RTVSPropertyOp16
 70
     1
102
RTVSPropertyOp17
 70
     1
102
RTVSPropertyOp18
 70
     1
102
RTVSPropertyOp19
 70
     1
102
RTVSPropertyOp20
 70
     1
102
RTVSPropertyOp21
 70
     1
102
RTVSPropertyOp22
 70
     1
102
RTVSPropertyOp23
 70
     1
102
RTVSPropertyOp24
 70
     1
102
RTVSPropertyOp25
 70
     1
102
RTVSPropertyOp26
 70
     1
102
RTVSPropertyOp27
 70
     1
  0
XRECORD
  5
D03
102
{ACAD_REACTORS
330
D02
102
}
330
D02
100
AcDbXrecord
280
     1
102
RTVSPropertyOp0
 70
     1
102
RTVSPropertyOp1
 70
     1
102
RTVSPropertyOp2
 70
     1
102
RTVSPropertyOp3
 70
     1
102
RTVSPropertyOp4
 70
     1
102
RTVSPropertyOp5
 70
     1
102
RTVSPropertyOp6
 70
     1
102
RTVSPropertyOp7
 70
     1
102
RTVSPropertyOp8
 70
     1
102
RTVSPropertyOp9
 70
     1
102
RTVSPropertyOp10
 70
     1
102
RTVSPropertyOp11
 70
     1
102
RTVSPropertyOp12
 70
     1
102
RTVSPropertyOp13
 70
     1
102
RTVSPropertyOp14
 70
     1
102
RTVSPropertyOp15
 70
     1
102
RTVSPropertyOp16
 70
     1
102
RTVSPropertyOp17
 70
     1
102
RTVSPropertyOp18
 70
     1
102
RTVSPropertyOp19
 70
     1
102
RTVSPropertyOp20
 70
     1
102
RTVSPropertyOp21
 70
     1
102
RTVSPropertyOp22
 70
     1
102
RTVSPropertyOp23
 70
     1
102
RTVSPropertyOp24
 70
     1
102
RTVSPropertyOp25
 70
     1
102
RTVSPropertyOp26
 70
     1
102
RTVSPropertyOp27
 70
     1
  0
XRECORD
  5
D1D
102
{ACAD_REACTORS
330
D1C
102
}
330
D1C
100
AcDbXrecord
280
     1
102
RTVSPropertyOp0
 70
     0
102
RTVSPropertyOp1
 70
     0
102
RTVSPropertyOp2
 70
     0
102
RTVSPropertyOp3
 70
     0
102
RTVSPropertyOp4
 70
     0
102
RTVSPropertyOp5
 70
     0
102
RTVSPropertyOp6
 70
     0
102
RTVSPropertyOp7
 70
     0
102
RTVSPropertyOp8
 70
     0
102
RTVSPropertyOp9
 70
     0
102
RTVSPropertyOp10
 70
     0
102
RTVSPropertyOp11
 70
     0
102
RTVSPropertyOp12
 70
     0
102
RTVSPropertyOp13
 70
     0
102
RTVSPropertyOp14
 70
     2
102
RTVSPropertyOp15
 70
     0
102
RTVSPropertyOp16
 70
     0
102
RTVSPropertyOp17
 70
     0
102
RTVSPropertyOp18
 70
     0
102
RTVSPropertyOp19
 70
     0
102
RTVSPropertyOp20
 70
     0
102
RTVSPropertyOp21
 70
     0
102
RTVSPropertyOp22
 70
     0
102
RTVSPropertyOp23
 70
     0
102
RTVSPropertyOp24
 70
     0
102
RTVSPropertyOp25
 70
     0
102
RTVSPropertyOp26
 70
     0
102
RTVSPropertyOp27
 70
     0
  0
XRECORD
  5
D17
102
{ACAD_REACTORS
330
D16
102
}
330
D16
100
AcDbXrecord
280
     1
102
RTVSPropertyOp0
 70
     1
102
RTVSPropertyOp1
 70
     1
102
RTVSPropertyOp2
 70
     1
102
RTVSPropertyOp3
 70
     1
102
RTVSPropertyOp4
 70
     1
102
RTVSPropertyOp5
 70
     1
102
RTVSPropertyOp6
 70
     1
102
RTVSPropertyOp7
 70
     1
102
RTVSPropertyOp8
 70
     1
102
RTVSPropertyOp9
 70
     1
102
RTVSPropertyOp10
 70
     1
102
RTVSPropertyOp11
 70
     1
102
RTVSPropertyOp12
 70
     1
102
RTVSPropertyOp13
 70
     1
102
RTVSPropertyOp14
 70
     1
102
RTVSPropertyOp15
 70
     1
102
RTVSPropertyOp16
 70
     1
102
RTVSPropertyOp17
 70
     1
102
RTVSPropertyOp18
 70
     1
102
RTVSPropertyOp19
 70
     1
102
RTVSPropertyOp20
 70
     1
102
RTVSPropertyOp21
 70
     1
102
RTVSPropertyOp22
 70
     1
102
RTVSPropertyOp23
 70
     1
102
RTVSPropertyOp24
 70
     1
102
RTVSPropertyOp25
 70
     1
102
RTVSPropertyOp26
 70
     1
102
RTVSPropertyOp27
 70
     1
  0
XRECORD
  5
D1F
102
{ACAD_REACTORS
330
D1E
102
}
330
D1E
100
AcDbXrecord
280
     1
102
RTVSPropertyOp0
 70
     0
102
RTVSPropertyOp1
 70
     0
102
RTVSPropertyOp2
 70
     0
102
RTVSPropertyOp3
 70
     0
102
RTVSPropertyOp4
 70
     0
102
RTVSPropertyOp5
 70
     0
102
RTVSPropertyOp6
 70
     0
102
RTVSPropertyOp7
 70
     0
102
RTVSPropertyOp8
 70
     0
102
RTVSPropertyOp9
 70
     0
102
RTVSPropertyOp10
 70
     0
102
RTVSPropertyOp11
 70
     0
102
RTVSPropertyOp12
 70
     0
102
RTVSPropertyOp13
 70
     0
102
RTVSPropertyOp14
 70
     2
102
RTVSPropertyOp15
 70
     0
102
RTVSPropertyOp16
 70
     0
102
RTVSPropertyOp17
 70
     0
102
RTVSPropertyOp18
 70
     0
102
RTVSPropertyOp19
 70
     0
102
RTVSPropertyOp20
 70
     0
102
RTVSPropertyOp21
 70
     0
102
RTVSPropertyOp22
 70
     0
102
RTVSPropertyOp23
 70
     0
102
RTVSPropertyOp24
 70
     0
102
RTVSPropertyOp25
 70
     0
102
RTVSPropertyOp26
 70
     0
102
RTVSPropertyOp27
 70
     0
  0
XRECORD
  5
D0F
102
{ACAD_REACTORS
330
D0E
102
}
330
D0E
100
AcDbXrecord
280
     1
102
RTVSPropertyOp0
 70
     1
102
RTVSPropertyOp1
 70
     1
102
RTVSPropertyOp2
 70
     1
102
RTVSPropertyOp3
 70
     1
102
RTVSPropertyOp4
 70
     1
102
RTVSPropertyOp5
 70
     1
102
RTVSPropertyOp6
 70
     1
102
RTVSPropertyOp7
 70
     1
102
RTVSPropertyOp8
 70
     1
102
RTVSPropertyOp9
 70
     1
102
RTVSPropertyOp10
 70
     1
102
RTVSPropertyOp11
 70
     1
102
RTVSPropertyOp12
 70
     1
102
RTVSPropertyOp13
 70
     1
102
RTVSPropertyOp14
 70
     1
102
RTVSPropertyOp15
 70
     1
102
RTVSPropertyOp16
 70
     1
102
RTVSPropertyOp17
 70
     1
102
RTVSPropertyOp18
 70
     1
102
RTVSPropertyOp19
 70
     1
102
RTVSPropertyOp20
 70
     1
102
RTVSPropertyOp21
 70
     1
102
RTVSPropertyOp22
 70
     1
102
RTVSPropertyOp23
 70
     1
102
RTVSPropertyOp24
 70
     1
102
RTVSPropertyOp25
 70
     1
102
RTVSPropertyOp26
 70
     1
102
RTVSPropertyOp27
 70
     1
  0
XRECORD
  5
D15
102
{ACAD_REACTORS
330
D14
102
}
330
D14
100
AcDbXrecord
280
     1
102
RTVSPropertyOp0
 70
     1
102
RTVSPropertyOp1
 70
     1
102
RTVSPropertyOp2
 70
     1
102
RTVSPropertyOp3
 70
     1
102
RTVSPropertyOp4
 70
     1
102
RTVSPropertyOp5
 70
     1
102
RTVSPropertyOp6
 70
     1
102
RTVSPropertyOp7
 70
     1
102
RTVSPropertyOp8
 70
     1
102
RTVSPropertyOp9
 70
     1
102
RTVSPropertyOp10
 70
     1
102
RTVSPropertyOp11
 70
     1
102
RTVSPropertyOp12
 70
     1
102
RTVSPropertyOp13
 70
     1
102
RTVSPropertyOp14
 70
     1
102
RTVSPropertyOp15
 70
     1
102
RTVSPropertyOp16
 70
     1
102
RTVSPropertyOp17
 70
     1
102
RTVSPropertyOp18
 70
     1
102
RTVSPropertyOp19
 70
     1
102
RTVSPropertyOp20
 70
     1
102
RTVSPropertyOp21
 70
     1
102
RTVSPropertyOp22
 70
     1
102
RTVSPropertyOp23
 70
     1
102
RTVSPropertyOp24
 70
     1
102
RTVSPropertyOp25
 70
     1
102
RTVSPropertyOp26
 70
     1
102
RTVSPropertyOp27
 70
     1
  0
ENDSEC
  0
EOF
