  0
SECTION
  2
HEADER
  9
$ACADVER
  1
AC1015
  9
$ACADMAINTVER
 70
    20
  9
$DWGCODEPAGE
  3
ANSI_1252
  9
$INSBASE
 10
0.0
 20
0.0
 30
0.0
  9
$EXTMIN
 10
-197.6891857818681
 20
91.75161235097425
 30
0.0
  9
$EXTMAX
 10
614.0853378676381
 20
308.9562769480439
 30
0.0
  9
$LIMMIN
 10
0.0
 20
0.0
  9
$LIMMAX
 10
420.0
 20
297.0
  9
$ORTHOMODE
 70
     0
  9
$REGENMODE
 70
     1
  9
$FILLMODE
 70
     1
  9
$QTEXTMODE
 70
     0
  9
$MIRRTEXT
 70
     0
  9
$LTSCALE
 40
23.1
  9
$ATTMODE
 70
     1
  9
$TEXTSIZE
 40
0.2
  9
$TRACEWID
 40
0.05
  9
$TEXTSTYLE
  7
STANDARD
  9
$CLAYER
  8
0
  9
$CELTYPE
  6
BYLAYER
  9
$CECOLOR
 62
   256
  9
$CELTSCALE
 40
1.0
  9
$DISPSILH
 70
     0
  9
$DIMSCALE
 40
1.0
  9
$DIMASZ
 40
3.5
  9
$DIMEXO
 40
1.5
  9
$DIMDLI
 40
15.96
  9
$DIMRND
 40
0.0
  9
$DIMDLE
 40
0.0
  9
$DIMEXE
 40
1.5
  9
$DIMTP
 40
0.005
  9
$DIMTM
 40
0.005
  9
$DIMTXT
 40
3.5
  9
$DIMCEN
 40
3.779999999999998
  9
$DIMTSZ
 40
0.0
  9
$DIMTOL
 70
     1
  9
$DIMLIM
 70
     0
  9
$DIMTIH
 70
     1
  9
$DIMTOH
 70
     1
  9
$DIMSE1
 70
     0
  9
$DIMSE2
 70
     0
  9
$DIMTAD
 70
     0
  9
$DIMZIN
 70
     0
  9
$DIMBLK
  1
_FILLED
  9
$DIMASO
 70
     1
  9
$DIMSHO
 70
     1
  9
$DIMPOST
  1

  9
$DIMAPOST
  1

  9
$DIMALT
 70
     0
  9
$DIMALTD
 70
     2
  9
$DIMALTF
 40
25.4
  9
$DIMLFAC
 40
1.0
  9
$DIMTOFL
 70
     0
  9
$DIMTVP
 40
0.0
  9
$DIMTIX
 70
     0
  9
$DIMSOXD
 70
     0
  9
$DIMSAH
 70
     0
  9
$DIMBLK1
  1

  9
$DIMBLK2
  1

  9
$DIMSTYLE
  2
STANDARD
  9
$DIMCLRD
 70
     0
  9
$DIMCLRE
 70
     0
  9
$DIMCLRT
 70
     0
  9
$DIMTFAC
 40
1.0
  9
$DIMGAP
 40
0.625
  9
$DIMJUST
 70
     0
  9
$DIMSD1
 70
     0
  9
$DIMSD2
 70
     0
  9
$DIMTOLJ
 70
     1
  9
$DIMTZIN
 70
     0
  9
$DIMALTZ
 70
     0
  9
$DIMALTTZ
 70
     0
  9
$DIMUPT
 70
     0
  9
$DIMDEC
 70
     0
  9
$DIMTDEC
 70
     4
  9
$DIMALTU
 70
     2
  9
$DIMALTTD
 70
     2
  9
$DIMTXSTY
  7
STANDARD
  9
$DIMAUNIT
 70
     0
  9
$DIMADEC
 70
     0
  9
$DIMALTRND
 40
0.0
  9
$DIMAZIN
 70
     0
  9
$DIMDSEP
 70
    46
  9
$DIMATFIT
 70
     3
  9
$DIMFRAC
 70
     0
  9
$DIMLDRBLK
  1

  9
$DIMLUNIT
 70
     2
  9
$DIMLWD
 70
    -2
  9
$DIMLWE
 70
    -2
  9
$DIMTMOVE
 70
     0
  9
$LUNITS
 70
     2
  9
$LUPREC
 70
     2
  9
$SKETCHINC
 40
0.1
  9
$FILLETRAD
 40
0.0
  9
$AUNITS
 70
     0
  9
$AUPREC
 70
     0
  9
$MENU
  1
.
  9
$ELEVATION
 40
0.0
  9
$PELEVATION
 40
0.0
  9
$THICKNESS
 40
0.0
  9
$LIMCHECK
 70
     0
  9
$CHAMFERA
 40
0.0
  9
$CHAMFERB
 40
0.0
  9
$CHAMFERC
 40
0.0
  9
$CHAMFERD
 40
0.0
  9
$SKPOLY
 70
     0
  9
$TDCREATE
 40
2456632.609323530
  9
$TDUCREATE
 40
2456632.567656864
  9
$TDUPDATE
 40
2456671.664634329
  9
$TDUUPDATE
 40
2456671.622967662
  9
$TDINDWG
 40
0.0112831597
  9
$TDUSRTIMER
 40
0.0112829861
  9
$USRTIMER
 70
     1
  9
$ANGBASE
 50
0.0
  9
$ANGDIR
 70
     0
  9
$PDMODE
 70
     3
  9
$PDSIZE
 40
0.3125
  9
$PLINEWID
 40
0.0
  9
$SPLFRAME
 70
     0
  9
$SPLINETYPE
 70
     6
  9
$SPLINESEGS
 70
     8
  9
$HANDSEED
  5
EF0
  9
$SURFTAB1
 70
     6
  9
$SURFTAB2
 70
     6
  9
$SURFTYPE
 70
     6
  9
$SURFU
 70
     6
  9
$SURFV
 70
     6
  9
$UCSBASE
  2

  9
$UCSNAME
  2

  9
$UCSORG
 10
0.0
 20
0.0
 30
0.0
  9
$UCSXDIR
 10
1.0
 20
0.0
 30
0.0
  9
$UCSYDIR
 10
0.0
 20
1.0
 30
0.0
  9
$UCSORTHOREF
  2

  9
$UCSORTHOVIEW
 70
     0
  9
$UCSORGTOP
 10
0.0
 20
0.0
 30
0.0
  9
$UCSORGBOTTOM
 10
0.0
 20
0.0
 30
0.0
  9
$UCSORGLEFT
 10
0.0
 20
0.0
 30
0.0
  9
$UCSORGRIGHT
 10
0.0
 20
0.0
 30
0.0
  9
$UCSORGFRONT
 10
0.0
 20
0.0
 30
0.0
  9
$UCSORGBACK
 10
0.0
 20
0.0
 30
0.0
  9
$PUCSBASE
  2

  9
$PUCSNAME
  2

  9
$PUCSORG
 10
0.0
 20
0.0
 30
0.0
  9
$PUCSXDIR
 10
1.0
 20
0.0
 30
0.0
  9
$PUCSYDIR
 10
0.0
 20
1.0
 30
0.0
  9
$PUCSORTHOREF
  2

  9
$PUCSORTHOVIEW
 70
     0
  9
$PUCSORGTOP
 10
0.0
 20
0.0
 30
0.0
  9
$PUCSORGBOTTOM
 10
0.0
 20
0.0
 30
0.0
  9
$PUCSORGLEFT
 10
0.0
 20
0.0
 30
0.0
  9
$PUCSORGRIGHT
 10
0.0
 20
0.0
 30
0.0
  9
$PUCSORGFRONT
 10
0.0
 20
0.0
 30
0.0
  9
$PUCSORGBACK
 10
0.0
 20
0.0
 30
0.0
  9
$USERI1
 70
     0
  9
$USERI2
 70
     0
  9
$USERI3
 70
     0
  9
$USERI4
 70
     0
  9
$USERI5
 70
     0
  9
$USERR1
 40
0.0
  9
$USERR2
 40
0.0
  9
$USERR3
 40
0.0
  9
$USERR4
 40
0.0
  9
$USERR5
 40
0.0
  9
$WORLDVIEW
 70
     1
  9
$SHADEDGE
 70
     3
  9
$SHADEDIF
 70
    70
  9
$TILEMODE
 70
     1
  9
$MAXACTVP
 70
    64
  9
$PINSBASE
 10
0.0
 20
0.0
 30
0.0
  9
$PLIMCHECK
 70
     0
  9
$PEXTMIN
 10
1.000000000000000E+20
 20
1.000000000000000E+20
 30
1.000000000000000E+20
  9
$PEXTMAX
 10
-1.000000000000000E+20
 20
-1.000000000000000E+20
 30
-1.000000000000000E+20
  9
$PLIMMIN
 10
0.0
 20
0.0
  9
$PLIMMAX
 10
12.0
 20
9.0
  9
$UNITMODE
 70
     0
  9
$VISRETAIN
 70
     1
  9
$PLINEGEN
 70
     0
  9
$PSLTSCALE
 70
     1
  9
$TREEDEPTH
 70
  3020
  9
$CMLSTYLE
  2
Standard
  9
$CMLJUST
 70
     0
  9
$CMLSCALE
 40
1.0
  9
$PROXYGRAPHICS
 70
     1
  9
$MEASUREMENT
 70
     1
  9
$CELWEIGHT
370
    -1
  9
$ENDCAPS
280
     0
  9
$JOINSTYLE
280
     0
  9
$LWDISPLAY
290
     0
  9
$INSUNITS
 70
     4
  9
$HYPERLINKBASE
  1

  9
$STYLESHEET
  1

  9
$XEDIT
290
     1
  9
$CEPSNTYPE
380
     0
  9
$PSTYLEMODE
290
     1
  9
$FINGERPRINTGUID
  2
{1C67FD93-5AA7-46B9-B962-E6493D8FC284}
  9
$VERSIONGUID
  2
{D41EA66F-7066-4D17-91A8-43EA0F93F056}
  9
$EXTNAMES
290
     1
  9
$PSVPSCALE
 40
0.0
  9
$OLESTARTUP
290
     0
  0
ENDSEC
  0
SECTION
  2
CLASSES
  0
CLASS
  1
ACDBDICTIONARYWDFLT
  2
AcDbDictionaryWithDefault
  3
ObjectDBX Classes
 90
        0
280
     0
281
     0
  0
CLASS
  1
ACDBPLACEHOLDER
  2
AcDbPlaceHolder
  3
ObjectDBX Classes
 90
        0
280
     0
281
     0
  0
CLASS
  1
LAYOUT
  2
AcDbLayout
  3
ObjectDBX Classes
 90
        0
280
     0
281
     0
  0
CLASS
  1
MATERIAL
  2
AcDbMaterial
  3
ObjectDBX Classes
 90
     1153
280
     0
281
     0
  0
CLASS
  1
VISUALSTYLE
  2
AcDbVisualStyle
  3
ObjectDBX Classes
 90
     4095
280
     0
281
     0
  0
CLASS
  1
TABLESTYLE
  2
AcDbTableStyle
  3
ObjectDBX Classes
 90
     4095
280
     0
281
     0
  0
CLASS
  1
SCALE
  2
AcDbScale
  3
ObjectDBX Classes
 90
     1153
280
     0
281
     0
  0
CLASS
  1
MLEADERSTYLE
  2
AcDbMLeaderStyle
  3
ACDB_MLEADERSTYLE_CLASS
 90
     4095
280
     0
281
     0
  0
CLASS
  1
AMGSETTINGSOBJ
  2
AmgSettingsObj
  3
"AcadM|Product Description: AutoCAD Mechanical|Company: Autodesk, Inc."
 90
     1024
280
     0
281
     0
  0
CLASS
  1
ACME_DOCUMENT
  2
AcMeDbDoc
  3
AcMeServices
 90
     1024
280
     0
281
     0
  0
CLASS
  1
ACMESCOPE
  2
AcMeScope
  3
AcMeServices
 90
     1024
280
     0
281
     0
  0
CLASS
  1
ACMECOMMANDHISTORY
  2
AcMeCommandHistory
  3
AcMeServices
 90
     1024
280
     0
281
     0
  0
CLASS
  1
ACIMSYSVARMAN
  2
AcImSysVarManager
  3
AcMeServices
 90
     1024
280
     0
281
     0
  0
CLASS
  1
ACIMINTSYSVAR
  2
AcImIntSysVar
  3
AcMeServices
 90
     1024
280
     0
281
     0
  0
CLASS
  1
ACMEDRAWINGMAN
  2
AcMeDrawingMan
  3
AcMeServices
 90
     1024
280
     0
281
     0
  0
CLASS
  1
ACMEVIEW
  2
AcMeView
  3
AcMeServices
 90
     1024
280
     0
281
     0
  0
CLASS
  1
ACDBENTITYCACHE
  2
AcMeEntityCache
  3
AcMeServices
 90
     1024
280
     0
281
     0
  0
CLASS
  1
ACMESTATEMGR
  2
AcMeStateMgr
  3
AcMeServices
 90
     1024
280
     0
281
     0
  0
CLASS
  1
ACGREFMASTER
  2
AcGrefMaster
  3
AcAttribServices
 90
     1024
280
     0
281
     0
  0
CLASS
  1
AM_DRAWING_MGR
  2
AcDmDwgMgr
  3
AcMechDwgViewMgmt
 90
     1024
280
     0
281
     0
  0
CLASS
  1
AM_DWG_DOCUMENT
  2
AcDmDwgDocument
  3
AcMechDwgViewMgmt
 90
     1024
280
     0
281
     0
  0
CLASS
  1
AM_DWG_SHEET
  2
AcDmSheet
  3
AcMechDwgViewMgmt
 90
     1024
280
     0
281
     0
  0
CLASS
  1
AM_VIEWDIMPARMAP
  2
AcDmViewDimParMap
  3
AcMechDwgViewMgmt
 90
     1024
280
     0
281
     0
  0
CLASS
  1
AMDTINTERNALREACTOR
  2
AmdtInternalReactor
  3
AcMeServices
 90
     1024
280
     0
281
     0
  0
CLASS
  1
ACIMREALSYSVAR
  2
AcImRealSysVar
  3
AcMeServices
 90
     1024
280
     0
281
     0
  0
CLASS
  1
AM_DWGMGR_NAME
  2
AcDmDwgMgrName
  3
AcMechDwgViewMgmt
 90
     1024
280
     0
281
     0
  0
CLASS
  1
ACME_DATABASE
  2
AcMeDbDatabase
  3
AcMeServices
 90
     1024
280
     0
281
     0
  0
CLASS
  1
ACRFINSADJUSTERMGR
  2
AcRfInsAdjusterMgr
  3
AcMeServices
 90
     1024
280
     0
281
     0
  0
CLASS
  1
ACGREFACADMASTER
  2
AcGrefacadMaster
  3
AcGrefServices
 90
     1024
280
     0
281
     0
  0
CLASS
  1
AMDTMENUSTATEMGR
  2
AmdtMenuStateMgr
  3
McadcomServices
 90
     1024
280
     0
281
     0
  0
CLASS
  1
AMDTMCOMMENUSTATE
  2
AmdtMcomMenuState
  3
McadcomServices
 90
     1024
280
     0
281
     0
  0
CLASS
  1
AMIMASTER
  2
AmiMaster
  3
AmiServices
 90
     1024
280
     0
281
     0
  0
CLASS
  1
MAPIAMMOUDLE
  2
MApiAmModule
  3
MApiAmServices
 90
     1024
280
     0
281
     0
  0
CLASS
  1
ACIMSTRSYSVAR
  2
AcImStrSysVar
  3
AcMeServices
 90
     1024
280
     0
281
     0
  0
CLASS
  1
AMDTADMENUSTATE
  2
AmdtAdMenuState
  3
DesignerServices
 90
     1024
280
     0
281
     0
  0
CLASS
  1
ADAPPL
  2
AcAdAppl
  3
DesignerServices
 90
     1024
280
     0
281
     0
  0
CLASS
  1
DEPMGR
  2
AcAdDepMgr
  3
DesignerServices
 90
     1024
280
     0
281
     0
  0
CLASS
  1
PARAMMGR
  2
AcAdParamMgr
  3
DesignerServices
 90
     1024
280
     0
281
     0
  0
CLASS
  1
PARAMSCOPE
  2
AcAdParamScope
  3
DesignerServices
 90
     1024
280
     0
281
     0
  0
CLASS
  1
NAMEDAPPL
  2
AcAdNamedAppl
  3
DesignerServices
 90
     1024
280
     0
281
     0
  0
CLASS
  1
AMDTDMMENUSTATE
  2
AmdtDmMenuState
  3
AcMechDwgViewMgmt
 90
     1024
280
     0
281
     0
  0
CLASS
  1
AMDTAMMENUSTATE
  2
AmdtAmMenuState
  3
DesignerAssemblies
 90
     1024
280
     0
281
     0
  0
CLASS
  1
ACAMPROJECT
  2
AcAmProject
  3
DesignerAssemblies
 90
     1024
280
     0
281
     0
  0
CLASS
  1
ACAMGRCOMPDEF
  2
AcAmGrCompDef
  3
DesignerAssemblies
 90
     1024
280
     0
281
     0
  0
CLASS
  1
ACAMCOMPDEF
  2
AcAmCompDef
  3
DesignerAssemblies
 90
     1024
280
     0
281
     0
  0
CLASS
  1
ACAMCOMPDEFMGR
  2
AcAmCompDefMgr
  3
DesignerAssemblies
 90
     1024
280
     0
281
     0
  0
CLASS
  1
AMCONTEXTMGR
  2
AcAmContextMgr
  3
DesignerAssemblies
 90
     1024
280
     0
281
     0
  0
CLASS
  1
ACAMCONTEXTMODELER
  2
AcAmContextModeler
  3
DesignerAssemblies
 90
     1024
280
     0
281
     0
  0
CLASS
  1
ACMDATADICTIONARY
  2
AcmDataDictionary
  3
"AcmSymBB|Product Description: AutoCAD Mechanical|Company: Autodesk, Inc."
 90
     1024
280
     0
281
     0
  0
CLASS
  1
CATALOGSTATE
  2
AcAmCatalogState
  3
DesignerAssemblies
 90
     1024
280
     0
281
     0
  0
CLASS
  1
ACAMGRCOMPDEFSET
  2
AcAmGrCompDefSet
  3
DesignerAssemblies
 90
     1024
280
     0
281
     0
  0
CLASS
  1
AMDTBROWSERDBTAB
  2
AmdtBrowserDbTab
  3
McadcomServices
 90
     1024
280
     0
281
     0
  0
CLASS
  1
CBROWSERAPPOBJECT
  2
CBrowserAppObject
  3
McadcomServices
 90
     1024
280
     0
281
     0
  0
CLASS
  1
DM_PLACEHOLDER
  2
AcDmSelsetPlaceholder
  3
AcMechDwgViewMgmt
 90
     1024
280
     0
281
     0
  0
CLASS
  1
EXACXREFPANELOBJECT
  2
ExAcXREFPanelObject
  3
EXAC_ESW
 90
     1025
280
     0
281
     0
  0
CLASS
  1
NPOCOLLECTION
  2
AcDbImpNonPersistentObjectsCollection
  3
ObjectDBX Classes
 90
     1153
280
     0
281
     0
  0
CLASS
  1
ACMSTANDARDDIN
  2
AcmStandardDIN
  3
"Amdt_StdImp|Product Description: AutoCAD Mechanical|Company: Autodesk, Inc."
 90
     1024
280
     0
281
     0
  0
CLASS
  1
AMDTEDGESTANDARDDIN13715
  2
AmdtEdgeStdDIN13715
  3
"Amdt_StdImp|Product Description: AutoCAD Mechanical|Company: Autodesk, Inc."
 90
     1024
280
     0
281
     0
  0
CLASS
  1
ACMSURFSTANDARDDIN2002
  2
AcmSurfTextStdDIN2002
  3
"Amdt_StdImp|Product Description: AutoCAD Mechanical|Company: Autodesk, Inc."
 90
     1024
280
     0
281
     0
  0
CLASS
  1
ACMFCFSTANDARDDIN
  2
AcmFCFStdDIN
  3
"Amdt_StdImp|Product Description: AutoCAD Mechanical|Company: Autodesk, Inc."
 90
     1024
280
     0
281
     0
  0
CLASS
  1
ACMWELDSTANDARDDIN
  2
AcmWeldingStdDIN
  3
"Amdt_StdImp|Product Description: AutoCAD Mechanical|Company: Autodesk, Inc."
 90
     1024
280
     0
281
     0
  0
CLASS
  1
ACMIDSTANDARDDIN
  2
AcmIdStdDIN
  3
"Amdt_StdImp|Product Description: AutoCAD Mechanical|Company: Autodesk, Inc."
 90
     1024
280
     0
281
     0
  0
CLASS
  1
ACMDATUMSTANDARDDIN
  2
AcmDatumStdDIN
  3
"Amdt_StdImp|Product Description: AutoCAD Mechanical|Company: Autodesk, Inc."
 90
     1024
280
     0
281
     0
  0
CLASS
  1
ACMBOMSTANDARDDIN
  2
AcmBOMStdDIN
  3
"Amdt_StdImp|Product Description: AutoCAD Mechanical|Company: Autodesk, Inc."
 90
     1024
280
     0
281
     0
  0
CLASS
  1
ACMDETAILSTANDARDDIN
  2
AmdtDetailSymStdDIN
  3
"Amdt_StdImp|Product Description: AutoCAD Mechanical|Company: Autodesk, Inc."
 90
     1024
280
     0
281
     0
  0
CLASS
  1
ACMSECTIONSTANDARDDIN
  2
AmdtSectionSymStdDIN
  3
"Amdt_StdImp|Product Description: AutoCAD Mechanical|Company: Autodesk, Inc."
 90
     1024
280
     0
281
     0
  0
CLASS
  1
ACMCENTERLINESTANDARDDIN
  2
AmdtCenterLineStdDIN
  3
"Amdt_StdImp|Product Description: AutoCAD Mechanical|Company: Autodesk, Inc."
 90
     1024
280
     0
281
     0
  0
CLASS
  1
ACMTHREADLINESTANDARDDIN
  2
AmdtThreadLineStdDIN
  3
"Amdt_StdImp|Product Description: AutoCAD Mechanical|Company: Autodesk, Inc."
 90
     1024
280
     0
281
     0
  0
CLASS
  1
ACMNOTESTANDARDDIN
  2
AmdtNoteStdDIN
  3
"Amdt_StdImp|Product Description: AutoCAD Mechanical|Company: Autodesk, Inc."
 90
     1024
280
     0
281
     0
  0
CLASS
  1
ACMTAPERSTANDARDDIN
  2
AcmTaperStdDIN
  3
"Amdt_StdImp|Product Description: AutoCAD Mechanical|Company: Autodesk, Inc."
 90
     1024
280
     0
281
     0
  0
CLASS
  1
ACMANOOTATIONVIEWSTANDARDDIN
  2
AmdtAnViewStdDIN
  3
"Amdt_StdImp|Product Description: AutoCAD Mechanical|Company: Autodesk, Inc."
 90
     1024
280
     0
281
     0
  0
CLASS
  1
ACAMGLAYSTD
  2
AcAmgLayStd
  3
"AmgLay|Product Description: AutoCAD Mechanical|Company: Autodesk, Inc."
 90
     1024
280
     0
281
     0
  0
CLASS
  1
ACAMGDIMSTD
  2
AcAmgDimStd
  3
"AmgDim|Product Description: AutoCAD Mechanical|Company: Autodesk, Inc."
 90
     1024
280
     0
281
     0
  0
CLASS
  1
AMGOBJPROPCFG
  2
AmgObjPropCfg
  3
"AmgLay|Product Description: AutoCAD Mechanical|Company: Autodesk, Inc."
 90
     1025
280
     0
281
     0
  0
CLASS
  1
ACAMGHOLECHARTSTDDIN
  2
AcAmgHoleChartStdDIN
  3
AmgDim|Product Description: AutoCAD Mechanical|Company: Autodesk, Inc.
 90
     1024
280
     0
281
     0
  0
CLASS
  1
ACAMGTITLESTD
  2
AcAmgTitleStd
  3
"AmgTitle|Product Description: AutoCAD Mechanical|Company: Autodesk, Inc."
 90
     4095
280
     0
281
     0
  0
CLASS
  1
AMDTNOTETEMPLATEDB
  2
AmdtNoteTemplateDB
  3
AcmSymBB|Product Description: AutoCAD Mechanical|Company: Autodesk, Inc.
 90
     1024
280
     0
281
     0
  0
CLASS
  1
ACAMGFILTERDAT
  2
AcAmgFilterDat
  3
"AcadM|Product Description: AutoCAD Mechanical|Company: Autodesk, Inc."
 90
    33792
280
     0
281
     0
  0
CLASS
  1
DIMASSOC
  2
AcDbDimAssoc
  3
"AcDbDimAssoc|Product Desc:     AcDim ARX App For Dimension|Company:          Autodesk, Inc.|WEB Address:      www.autodesk.com"
 90
        0
280
     0
281
     0
  0
CLASS
  1
DICTIONARYVAR
  2
AcDbDictionaryVar
  3
ObjectDBX Classes
 90
        0
280
     0
281
     0
  0
CLASS
  1
CELLSTYLEMAP
  2
AcDbCellStyleMap
  3
ObjectDBX Classes
 90
     1152
280
     0
281
     0
  0
CLASS
  1
AEC_REFEDIT_STATUS_TRACKER
  2
AecDbRefEditStatusTracker
  3
AecArchBase60|Product Desc: Autodesk Architectural Desktop 2007 |Company: Autodesk,Inc. |WEB Address: www.autodesk.com
 90
    32897
280
     0
281
     0
  0
ENDSEC
  0
SECTION
  2
TABLES
  0
TABLE
  2
VPORT
  5
8
330
0
100
AcDbSymbolTable
 70
     1
  0
VPORT
  5
1F4
330
8
100
AcDbSymbolTableRecord
100
AcDbViewportTableRecord
  2
*ACTIVE
 70
     0
 10
0.0
 20
0.0
 11
1.0
 21
1.0
 12
119.1580107840991
 22
171.123817896675
 13
0.0
 23
0.0
 14
1.0
 24
1.0
 15
0.0
 25
0.0
 16
0.0
 26
0.0
 36
1.0
 17
0.0
 27
0.0
 37
0.0
 40
533.2243852589327
 41
1.812625250501002
 42
50.0
 43
0.0
 44
0.0
 50
0.0
 51
0.0
 71
     0
 72
   100
 73
     1
 74
     1
 75
     0
 76
     0
 77
     0
 78
     0
281
     0
 65
     0
110
0.0
120
0.0
130
0.0
111
1.0
121
0.0
131
0.0
112
0.0
122
1.0
132
0.0
 79
     0
146
0.0
  0
ENDTAB
  0
TABLE
  2
LTYPE
  5
5
330
0
100
AcDbSymbolTable
 70
    22
  0
LTYPE
  5
14
330
5
100
AcDbSymbolTableRecord
100
AcDbLinetypeTableRecord
  2
BYBLOCK
 70
     0
  3

 72
    65
 73
     0
 40
0.0
  0
LTYPE
  5
15
330
5
100
AcDbSymbolTableRecord
100
AcDbLinetypeTableRecord
  2
BYLAYER
 70
     0
  3

 72
    65
 73
     0
 40
0.0
  0
LTYPE
  5
16
330
5
100
AcDbSymbolTableRecord
100
AcDbLinetypeTableRecord
  2
CONTINUOUS
 70
     0
  3
Solid line
 72
    65
 73
     0
 40
0.0
  0
LTYPE
  5
1F5
330
5
100
AcDbSymbolTableRecord
100
AcDbLinetypeTableRecord
  2
CENTER
 70
     0
  3
____ _ ____ _ ____ _ ____ _ ____ _ ____ _ ____
 72
    65
 73
     4
 40
0.6
 49
0.375
 74
     0
 49
-0.075
 74
     0
 49
0.075
 74
     0
 49
-0.075
 74
     0
  0
LTYPE
  5
1F6
330
5
100
AcDbSymbolTableRecord
100
AcDbLinetypeTableRecord
  2
HIDDEN
 70
     0
  3
- - - - - - - - - - - - - - - - - - - -
 72
    65
 73
     2
 40
0.2
 49
0.1
 74
     0
 49
-0.1
 74
     0
  0
LTYPE
  5
1F7
330
5
100
AcDbSymbolTableRecord
100
AcDbLinetypeTableRecord
  2
PHANTOM
 70
     0
  3
_____ _ _ _____ _ _ _____ _ _ _____
 72
    65
 73
     6
 40
0.8
 49
0.45
 74
     0
 49
-0.05
 74
     0
 49
0.1
 74
     0
 49
-0.05
 74
     0
 49
0.1
 74
     0
 49
-0.05
 74
     0
  0
LTYPE
  5
1F8
330
5
100
AcDbSymbolTableRecord
100
AcDbLinetypeTableRecord
  2
DOT
 70
     0
  3
. . . . . . . . . . . . . . . . . . . .
 72
    65
 73
     2
 40
0.2
 49
0.1
 74
     0
 49
-0.1
 74
     0
  0
LTYPE
  5
1F9
330
5
100
AcDbSymbolTableRecord
100
AcDbLinetypeTableRecord
  2
DASHED
 70
     0
  3
- - - - - - - - - - - - - - - - - - - -
 72
    65
 73
     2
 40
0.2
 49
0.1
 74
     0
 49
-0.1
 74
     0
  0
LTYPE
  5
463
330
5
100
AcDbSymbolTableRecord
100
AcDbLinetypeTableRecord
  2
PHANTOM2
 70
     0
  3
Phantom (.5x) ___ _ _ ___ _ _ ___ _ _ ___ _ _
 72
    65
 73
     6
 40
31.75
 49
15.875
 74
     0
 49
-3.174999999999998
 74
     0
 49
3.174999999999998
 74
     0
 49
-3.174999999999998
 74
     0
 49
3.174999999999998
 74
     0
 49
-3.174999999999998
 74
     0
  0
LTYPE
  5
4AB
330
5
100
AcDbSymbolTableRecord
100
AcDbLinetypeTableRecord
  2
AM_ISO02W050
 70
     0
  3
__ __ __ __ __ __ __ __ __ __ __ __ __ __ __
 72
    65
 73
     2
 40
7.5
 49
6.0
 74
     0
 49
-1.5
 74
     0
  0
LTYPE
  5
4AC
330
5
100
AcDbSymbolTableRecord
100
AcDbLinetypeTableRecord
  2
AM_ISO08W050
 70
     0
  3
____ . ____ . ____ . ____ . ____ . ____ . ____
 72
    65
 73
     4
 40
18.0
 49
12.0
 74
     0
 49
-1.5
 74
     0
 49
3.0
 74
     0
 49
-1.5
 74
     0
  0
LTYPE
  5
4AD
330
5
100
AcDbSymbolTableRecord
100
AcDbLinetypeTableRecord
  2
AM_ISO09W050
 70
     0
  3
_____ . . _____ . . _____ . . ____ .. ____
 72
    65
 73
     6
 40
22.5
 49
12.0
 74
     0
 49
-1.5
 74
     0
 49
3.0
 74
     0
 49
-1.5
 74
     0
 49
3.0
 74
     0
 49
-1.5
 74
     0
  0
LTYPE
  5
4AE
330
5
100
AcDbSymbolTableRecord
100
AcDbLinetypeTableRecord
  2
Amconstr
 70
     0
  3
_______________________
 72
    65
 73
     2
 40
9999.0
 49
9999.0
 74
     0
 49
0.0
 74
     0
  0
LTYPE
  5
4AF
330
5
100
AcDbSymbolTableRecord
100
AcDbLinetypeTableRecord
  2
AM_ISO08W050x2
 70
     0
  3
__ . __ . __ . __ . __ . __
 72
    65
 73
     4
 40
9.0
 49
6.0
 74
     0
 49
-0.75
 74
     0
 49
1.5
 74
     0
 49
-0.75
 74
     0
  0
LTYPE
  5
4B0
330
5
100
AcDbSymbolTableRecord
100
AcDbLinetypeTableRecord
  2
AM_ISO02W050x2
 70
     0
  3
 _ _ _ _ _ _ _ _ _ _ _ _
 72
    65
 73
     2
 40
3.75
 49
3.0
 74
     0
 49
-0.75
 74
     0
  0
LTYPE
  5
4B3
330
5
100
AcDbSymbolTableRecord
100
AcDbLinetypeTableRecord
  2
Amzigzag
 70
     0
  3
/\/-/\/-/\/-/\/-/\/-/\/
 72
    65
 73
     2
 40
11.0001
 49
0.0001
 74
     4
 75
   136
340
4B2
 46
0.04
 50
0.0
 44
0.0
 45
0.0
 49
-11.0
 74
     0
  0
LTYPE
  5
4B4
330
5
100
AcDbSymbolTableRecord
100
AcDbLinetypeTableRecord
  2
AM_DIN_F_W050
 70
     0
  3
__ __ __ __ __ __ __ __ __ __ __ __ __ __ __
 72
    65
 73
     2
 40
6.25
 49
4.75
 74
     0
 49
-1.5
 74
     0
  0
LTYPE
  5
4B5
330
5
100
AcDbSymbolTableRecord
100
AcDbLinetypeTableRecord
  2
AM_DIN_G_W050
 70
     0
  3
____ . ____ . ____ . ____ . ____ . ____ . ____
 72
    65
 73
     4
 40
13.75
 49
9.75
 74
     0
 49
-1.5
 74
     0
 49
1.0
 74
     0
 49
-1.5
 74
     0
  0
LTYPE
  5
4B6
330
5
100
AcDbSymbolTableRecord
100
AcDbLinetypeTableRecord
  2
AM_DIN_K_W050
 70
     0
  3
_____ . . _____ . . _____ . . ____ .. ____
 72
    65
 73
     6
 40
16.25
 49
9.75
 74
     0
 49
-1.5
 74
     0
 49
1.0
 74
     0
 49
-1.5
 74
     0
 49
1.0
 74
     0
 49
-1.5
 74
     0
  0
LTYPE
  5
4B7
330
5
100
AcDbSymbolTableRecord
100
AcDbLinetypeTableRecord
  2
AM_DIN_G_W050x2
 70
     0
  3
__ . __ . __ . __ . __ . __
 72
    65
 73
     4
 40
6.875
 49
4.75
 74
     0
 49
-0.875
 74
     0
 49
0.375
 74
     0
 49
-0.875
 74
     0
  0
LTYPE
  5
4B8
330
5
100
AcDbSymbolTableRecord
100
AcDbLinetypeTableRecord
  2
AM_DIN_F_W050x2
 70
     0
  3
 _ _ _ _ _ _ _ _ _ _ _ _
 72
    65
 73
     2
 40
3.125
 49
2.25
 74
     0
 49
-0.875
 74
     0
  0
LTYPE
  5
4C7
330
5
100
AcDbSymbolTableRecord
100
AcDbLinetypeTableRecord
  2
ACDINWELD
 70
     0
  3
_ _ _ _ _
 72
    65
 73
     2
 40
2.0
 49
2.0
 74
     0
 49
-1.0
 74
     0
  0
LTYPE
  5
4C8
330
5
100
AcDbSymbolTableRecord
100
AcDbLinetypeTableRecord
  2
ACDINTGB
 70
     0
  3
__ . . __ . .
 72
    65
 73
     6
 40
9.0
 49
4.0
 74
     0
 49
-1.0
 74
     0
 49
1.0
 74
     0
 49
-1.0
 74
     0
 49
1.0
 74
     0
 49
-1.0
 74
     0
  0
LTYPE
  5
4C9
330
5
100
AcDbSymbolTableRecord
100
AcDbLinetypeTableRecord
  2
ACDINTGL
 70
     0
  3
_ _ _ _ _
 72
    65
 73
     2
 40
3.0
 49
2.0
 74
     0
 49
-1.0
 74
     0
  0
ENDTAB
  0
TABLE
  2
LAYER
  5
2
102
{ACAD_XDICTIONARY
360
7F0
102
}
330
0
100
AcDbSymbolTable
 70
    18
  0
LAYER
  5
10
330
2
100
AcDbSymbolTableRecord
100
AcDbLayerTableRecord
  2
0
 70
     0
 62
     7
  6
CONTINUOUS
370
    -3
390
F
  0
LAYER
  5
1FA
330
2
100
AcDbSymbolTableRecord
100
AcDbLayerTableRecord
  2
DEFAULT_1
 70
     0
 62
     7
  6
CENTER
370
    -3
390
F
  0
LAYER
  5
1FB
330
2
100
AcDbSymbolTableRecord
100
AcDbLayerTableRecord
  2
DEFAULT_2
 70
     0
 62
     8
  6
HIDDEN
370
    -3
390
F
  0
LAYER
  5
1FC
330
2
100
AcDbSymbolTableRecord
100
AcDbLayerTableRecord
  2
DEFAULT_3
 70
     0
 62
     7
  6
PHANTOM
370
    -3
390
F
  0
LAYER
  5
1FD
330
2
100
AcDbSymbolTableRecord
100
AcDbLayerTableRecord
  2
BEZUGSACHSEN
 70
     0
 62
     7
  6
CONTINUOUS
370
    -3
390
F
  0
LAYER
  5
1FE
330
2
100
AcDbSymbolTableRecord
100
AcDbLayerTableRecord
  2
BEZUGSEBENEN
 70
     0
 62
     7
  6
CONTINUOUS
370
    -3
390
F
  0
LAYER
  5
1FF
330
2
100
AcDbSymbolTableRecord
100
AcDbLayerTableRecord
  2
BOHRUNGEN
 70
     0
 62
     7
  6
CONTINUOUS
370
    -3
390
F
  0
LAYER
  5
200
330
2
100
AcDbSymbolTableRecord
100
AcDbLayerTableRecord
  2
FASEN
 70
     0
 62
     7
  6
CONTINUOUS
370
    -3
390
F
  0
LAYER
  5
201
330
2
100
AcDbSymbolTableRecord
100
AcDbLayerTableRecord
  2
HILFEN
 70
     0
 62
     7
  6
CONTINUOUS
370
    -3
390
F
  0
LAYER
  5
202
330
2
100
AcDbSymbolTableRecord
100
AcDbLayerTableRecord
  2
KURVEN
 70
     0
 62
     7
  6
CONTINUOUS
370
    -3
390
F
  0
LAYER
  5
203
330
2
100
AcDbSymbolTableRecord
100
AcDbLayerTableRecord
  2
LAY0001
 70
     0
 62
     7
  6
CONTINUOUS
370
    -3
390
F
  0
LAYER
  5
204
330
2
100
AcDbSymbolTableRecord
100
AcDbLayerTableRecord
  2
PLATZIERUNG
 70
     0
 62
     7
  6
CONTINUOUS
370
    -3
390
F
  0
LAYER
  5
205
330
2
100
AcDbSymbolTableRecord
100
AcDbLayerTableRecord
  2
TEIL_STARTBEZUEGE
 70
     0
 62
     7
  6
CONTINUOUS
370
    -3
390
F
  0
LAYER
  5
206
330
2
100
AcDbSymbolTableRecord
100
AcDbLayerTableRecord
  2
XSEC_DATUMS
 70
     0
 62
     7
  6
CONTINUOUS
370
    -3
390
F
  0
LAYER
  5
207
330
2
100
AcDbSymbolTableRecord
100
AcDbLayerTableRecord
  2
ZEICHNUNGSBEMASSUNGEN
 70
     0
 62
     7
  6
CONTINUOUS
370
    -3
390
F
  0
LAYER
  5
4D0
330
2
100
AcDbSymbolTableRecord
100
AcDbLayerTableRecord
  2
AM_5
 70
     0
 62
     3
  6
CONTINUOUS
370
    25
390
F
1001
AcAecLayerStandard
1000

1000

  0
LAYER
  5
596
330
2
100
AcDbSymbolTableRecord
100
AcDbLayerTableRecord
  2
Defpoints
 70
     0
 62
     7
  6
CONTINUOUS
290
     0
370
    -3
390
F
  0
LAYER
  5
7ED
102
{ACAD_XDICTIONARY
360
7EE
102
}
330
2
100
AcDbSymbolTableRecord
100
AcDbLayerTableRecord
  2
P-0000
 70
     0
 62
     7
  6
CONTINUOUS
370
    -3
390
F
  0
ENDTAB
  0
TABLE
  2
STYLE
  5
3
330
0
100
AcDbSymbolTable
 70
     6
  0
STYLE
  5
11
330
3
100
AcDbSymbolTableRecord
100
AcDbTextStyleTableRecord
  2
STANDARD
 70
     0
 40
0.0
 41
0.7
 50
0.0
 71
     0
 42
0.2
  3
txt
  4

  0
STYLE
  5
208
330
3
100
AcDbSymbolTableRecord
100
AcDbTextStyleTableRecord
  2
TEXTSTYLE_1
 70
     0
 40
0.0
 41
0.8
 50
0.0
 71
     0
 42
0.2
  3
gdt
  4

  0
STYLE
  5
209
330
3
100
AcDbSymbolTableRecord
100
AcDbTextStyleTableRecord
  2
TEXTSTYLE_2
 70
     0
 40
0.0
 41
0.6
 50
0.0
 71
     0
 42
0.2
  3
txt
  4

  0
STYLE
  5
4B2
330
3
100
AcDbSymbolTableRecord
100
AcDbTextStyleTableRecord
  2

 70
     1
 40
0.0
 41
1.0
 50
0.0
 71
     0
 42
0.2
  3
genltshp.shx
  4

  0
STYLE
  5
4C5
330
3
100
AcDbSymbolTableRecord
100
AcDbTextStyleTableRecord
  2
ACDINTS
 70
     0
 40
1.0
 41
1.0
 50
0.0
 71
     0
 42
0.2
  3
isocp.shx
  4

  0
STYLE
  5
4C6
330
3
100
AcDbSymbolTableRecord
100
AcDbTextStyleTableRecord
  2
ACDINGDT
 70
     0
 40
0.0
 41
1.0
 50
0.0
 71
     0
 42
0.2
  3
amgdt.shx
  4

  0
ENDTAB
  0
TABLE
  2
VIEW
  5
6
330
0
100
AcDbSymbolTable
 70
     0
  0
ENDTAB
  0
TABLE
  2
UCS
  5
7
330
0
100
AcDbSymbolTable
 70
     0
  0
ENDTAB
  0
TABLE
  2
APPID
  5
9
330
0
100
AcDbSymbolTable
 70
    18
  0
APPID
  5
20A
330
9
100
AcDbSymbolTableRecord
100
AcDbRegAppTableRecord
  2
ACAD
 70
     0
  0
APPID
  5
438
330
9
100
AcDbSymbolTableRecord
100
AcDbRegAppTableRecord
  2
MCAD_NO_VIS
 70
     0
  0
APPID
  5
439
330
9
100
AcDbSymbolTableRecord
100
AcDbRegAppTableRecord
  2
ACAD_TEMP_GRAPHIC
 70
     0
  0
APPID
  5
465
330
9
100
AcDbSymbolTableRecord
100
AcDbRegAppTableRecord
  2
AD_DRAW
 70
     0
  0
APPID
  5
468
330
9
100
AcDbSymbolTableRecord
100
AcDbRegAppTableRecord
  2
ACATTRIBSERVICES
 70
     0
  0
APPID
  5
488
330
9
100
AcDbSymbolTableRecord
100
AcDbRegAppTableRecord
  2
DESIGNERASSEMBLIES
 70
     0
  0
APPID
  5
48E
330
9
100
AcDbSymbolTableRecord
100
AcDbRegAppTableRecord
  2
ACADM_DIM_EDIT
 70
     0
  0
APPID
  5
48F
330
9
100
AcDbSymbolTableRecord
100
AcDbRegAppTableRecord
  2
AMDT_DM_ADJ
 70
     0
  0
APPID
  5
4A8
330
9
100
AcDbSymbolTableRecord
100
AcDbRegAppTableRecord
  2
ACAD_DSTYLE_DIMJAG
 70
     0
  0
APPID
  5
4A9
330
9
100
AcDbSymbolTableRecord
100
AcDbRegAppTableRecord
  2
ACAD_DSTYLE_DIMBREAK
 70
     0
  0
APPID
  5
4D1
330
9
100
AcDbSymbolTableRecord
100
AcDbRegAppTableRecord
  2
AcAecLayerStandard
 70
     0
  0
APPID
  5
62C
330
9
100
AcDbSymbolTableRecord
100
AcDbRegAppTableRecord
  2
ACAD_MLEADERVER
 70
     0
  0
APPID
  5
62D
330
9
100
AcDbSymbolTableRecord
100
AcDbRegAppTableRecord
  2
ACAD_DSTYLE_DIMJOGGED_JOGANGLE_SYMBOL
 70
     0
  0
APPID
  5
62E
330
9
100
AcDbSymbolTableRecord
100
AcDbRegAppTableRecord
  2
ACAD_DSTYLE_DIM_LINETYPE
 70
     0
  0
APPID
  5
62F
330
9
100
AcDbSymbolTableRecord
100
AcDbRegAppTableRecord
  2
ACAD_DSTYLE_DIM_EXT1_LINETYPE
 70
     0
  0
APPID
  5
630
330
9
100
AcDbSymbolTableRecord
100
AcDbRegAppTableRecord
  2
ACAD_DSTYLE_DIM_EXT2_LINETYPE
 70
     0
  0
APPID
  5
6C7
330
9
100
AcDbSymbolTableRecord
100
AcDbRegAppTableRecord
  2
GENIUS_GENDTOL_13
 70
     0
  0
APPID
  5
6C8
330
9
100
AcDbSymbolTableRecord
100
AcDbRegAppTableRecord
  2
ACAD_DSTYLE_DIMINSPECT
 70
     0
  0
ENDTAB
  0
TABLE
  2
DIMSTYLE
  5
A
330
0
100
AcDbSymbolTable
 70
    13
100
AcDbDimStyleTable
 71
     2
340
212
340
7EF
  0
DIMSTYLE
105
212
330
A
100
AcDbSymbolTableRecord
100
AcDbDimStyleTableRecord
  2
STANDARD
 70
     0
 41
3.5
 42
1.5
 44
1.5
 47
0.005
 48
0.005
 71
     1
 73
     0
 74
     0
 77
     1
 78
     8
140
3.5
147
0.625
178
     5
271
     3
272
     3
284
     8
340
11
341
20D
342
20D
343
20D
344
20D
  0
DIMSTYLE
105
213
330
A
100
AcDbSymbolTableRecord
100
AcDbDimStyleTableRecord
  2
DIMSTYLE_1
 70
     0
 41
3.5
 42
1.5
 44
1.5
 47
0.3
 48
0.3
 73
     0
 74
     0
 77
     1
 78
     8
140
3.5
144
2.5
147
0.875
178
     5
271
     1
272
     1
284
     8
340
11
341
20D
342
20D
343
20D
344
20D
  0
DIMSTYLE
105
214
330
A
100
AcDbSymbolTableRecord
100
AcDbDimStyleTableRecord
  2
DIMSTYLE_2
 70
     0
 41
3.5
 42
1.5
 44
1.5
 48
1.0
 71
     1
 73
     0
 74
     0
 77
     1
 78
     8
140
3.5
144
2.5
146
0.6
147
0.875
178
     5
271
     3
272
     3
284
     8
340
11
341
20D
342
20D
343
20D
344
20D
  0
DIMSTYLE
105
215
330
A
100
AcDbSymbolTableRecord
100
AcDbDimStyleTableRecord
  2
DIMSTYLE_3
 70
     0
 41
3.5
 42
1.5
 44
1.5
 47
0.3
 48
0.3
 73
     0
 74
     0
 77
     1
 78
     8
140
3.5
144
2.5
147
0.875
178
     5
271
     3
272
     3
284
     8
340
11
341
20D
342
20D
343
20D
344
20D
  0
DIMSTYLE
105
4A7
102
{ACAD_REACTORS
330
EA2
102
}
330
A
100
AcDbSymbolTableRecord
100
AcDbDimStyleTableRecord
  2
AM_DIN
 70
     0
  4
"
 41
3.5
 42
1.0
 43
10.0
 44
1.0
 47
0.1
 48
0.1
 73
     0
 74
     0
 77
     1
 78
     8
 79
     2
140
3.5
141
0.0
143
0.0393701
146
0.71
147
1.5
172
     1
176
   256
177
   256
178
     2
271
     2
272
     3
274
     4
283
     0
284
     8
340
11
371
    -1
372
    -1
1001
ACAD_DSTYLE_DIMJAG
1070
   388
1040
1.5
1001
ACAD_DSTYLE_DIMBREAK
1070
   391
1040
3.75
1001
ACAD_DSTYLE_DIMJOGGED_JOGANGLE_SYMBOL
1070
   384
1040
1.570796326794896
1001
ACAD_DSTYLE_DIM_LINETYPE
1070
   380
1005
14
1001
ACAD_DSTYLE_DIM_EXT1_LINETYPE
1070
   381
1005
14
1001
ACAD_DSTYLE_DIM_EXT2_LINETYPE
1070
   382
1005
14
  0
DIMSTYLE
105
4B9
330
A
100
AcDbSymbolTableRecord
100
AcDbDimStyleTableRecord
  2
AM_DIN$3
 70
     0
  4
"
 41
3.5
 42
1.0
 43
10.0
 44
1.0
 47
0.1
 48
0.1
 73
     0
 77
     1
 78
     8
 79
     2
140
3.5
141
0.0
143
0.0393701
146
0.71
147
1.5
176
   256
177
   256
178
     2
271
     2
272
     3
274
     4
283
     0
284
     8
288
     1
289
     0
340
11
371
    -1
372
    -1
1001
ACAD_DSTYLE_DIMBREAK
1070
   391
1040
3.75
1001
ACAD_DSTYLE_DIMJAG
1070
   388
1040
1.5
1001
ACAD_DSTYLE_DIMJOGGED_JOGANGLE_SYMBOL
1070
   384
1040
1.570796326794896
1001
ACAD_DSTYLE_DIM_LINETYPE
1070
   380
1005
14
1001
ACAD_DSTYLE_DIM_EXT1_LINETYPE
1070
   381
1005
14
1001
ACAD_DSTYLE_DIM_EXT2_LINETYPE
1070
   382
1005
14
  0
DIMSTYLE
105
4BA
330
A
100
AcDbSymbolTableRecord
100
AcDbDimStyleTableRecord
  2
AM_DIN$4
 70
     0
  4
"
 41
3.5
 42
1.0
 43
10.0
 44
1.0
 47
0.1
 48
0.1
 73
     0
 77
     1
 78
     8
 79
     2
140
3.5
141
0.0
143
0.0393701
146
0.71
147
1.5
176
   256
177
   256
178
     2
271
     2
272
     3
274
     4
283
     0
284
     8
288
     1
289
     0
340
11
371
    -1
372
    -1
1001
ACAD_DSTYLE_DIMBREAK
1070
   391
1040
3.75
1001
ACAD_DSTYLE_DIMJAG
1070
   388
1040
1.5
1001
ACAD_DSTYLE_DIMJOGGED_JOGANGLE_SYMBOL
1070
   384
1040
1.570796326794896
1001
ACAD_DSTYLE_DIM_LINETYPE
1070
   380
1005
14
1001
ACAD_DSTYLE_DIM_EXT1_LINETYPE
1070
   381
1005
14
1001
ACAD_DSTYLE_DIM_EXT2_LINETYPE
1070
   382
1005
14
  0
DIMSTYLE
105
4BB
330
A
100
AcDbSymbolTableRecord
100
AcDbDimStyleTableRecord
  2
AM_DIN$6
 70
     0
  4
"
 41
3.5
 42
1.0
 43
10.0
 44
1.0
 47
0.1
 48
0.1
 73
     0
 74
     0
 78
     8
 79
     2
140
3.5
141
0.0
143
0.0393701
146
0.71
147
1.5
172
     1
176
   256
177
   256
178
     2
271
     2
272
     3
274
     4
283
     0
284
     8
340
11
371
    -1
372
    -1
1001
ACAD_DSTYLE_DIMBREAK
1070
   391
1040
3.75
1001
ACAD_DSTYLE_DIMJAG
1070
   388
1040
1.5
1001
ACAD_DSTYLE_DIMJOGGED_JOGANGLE_SYMBOL
1070
   384
1040
1.570796326794896
1001
ACAD_DSTYLE_DIM_LINETYPE
1070
   380
1005
14
1001
ACAD_DSTYLE_DIM_EXT1_LINETYPE
1070
   381
1005
14
1001
ACAD_DSTYLE_DIM_EXT2_LINETYPE
1070
   382
1005
14
  0
DIMSTYLE
105
4BC
330
A
100
AcDbSymbolTableRecord
100
AcDbDimStyleTableRecord
  2
AM_DIN$7
 70
     0
  4
"
 41
3.5
 42
1.0
 43
10.0
 44
1.0
 47
0.1
 48
0.1
 73
     0
 74
     0
 77
     1
 78
     8
 79
     2
140
3.5
141
0.0
143
0.0393701
146
0.71
147
1.5
172
     1
176
   256
177
   256
178
     2
271
     2
272
     3
274
     4
283
     0
284
     8
340
11
371
    -1
372
    -1
1001
ACAD_DSTYLE_DIMBREAK
1070
   391
1040
3.75
1001
ACAD_DSTYLE_DIMJAG
1070
   388
1040
1.5
1001
ACAD_DSTYLE_DIMJOGGED_JOGANGLE_SYMBOL
1070
   384
1040
1.570796326794896
1001
ACAD_DSTYLE_DIM_LINETYPE
1070
   380
1005
14
1001
ACAD_DSTYLE_DIM_EXT1_LINETYPE
1070
   381
1005
14
1001
ACAD_DSTYLE_DIM_EXT2_LINETYPE
1070
   382
1005
14
  0
DIMSTYLE
105
4BD
330
A
100
AcDbSymbolTableRecord
100
AcDbDimStyleTableRecord
  2
AM_DIN$SF
 70
     0
  4
"
 41
3.5
 42
1.0
 43
10.0
 44
1.0
 47
0.1
 48
0.1
 73
     0
 74
     0
 75
     1
 76
     1
 77
     1
 78
     8
 79
     2
140
3.5
141
0.0
143
0.0393701
146
0.71
147
1.5
172
     1
176
   256
177
   256
178
     2
271
     2
272
     3
274
     4
283
     0
284
     8
340
11
371
    -1
372
    -1
1001
ACAD_DSTYLE_DIMBREAK
1070
   391
1040
3.75
1001
ACAD_DSTYLE_DIMJAG
1070
   388
1040
1.5
1001
ACAD_DSTYLE_DIMJOGGED_JOGANGLE_SYMBOL
1070
   384
1040
1.570796326794896
1001
ACAD_DSTYLE_DIM_LINETYPE
1070
   380
1005
14
1001
ACAD_DSTYLE_DIM_EXT1_LINETYPE
1070
   381
1005
14
1001
ACAD_DSTYLE_DIM_EXT2_LINETYPE
1070
   382
1005
14
  0
DIMSTYLE
105
4C2
330
A
100
AcDbSymbolTableRecord
100
AcDbDimStyleTableRecord
  2
AM_DIN$SH
 70
     0
  4
"
 41
3.5
 42
1.0
 43
10.0
 44
1.0
 47
0.1
 48
0.1
 73
     0
 74
     0
 75
     1
 76
     1
 77
     1
 78
     8
 79
     2
140
3.5
141
0.0
143
0.0393701
144
2.0
146
0.71
147
1.5
172
     1
173
     1
176
   256
177
   256
178
     2
271
     2
272
     3
274
     4
283
     0
284
     8
340
11
343
4BE
371
    -1
372
    -1
1001
ACAD_DSTYLE_DIMBREAK
1070
   391
1040
3.75
1001
ACAD_DSTYLE_DIMJAG
1070
   388
1040
1.5
1001
ACAD_DSTYLE_DIMJOGGED_JOGANGLE_SYMBOL
1070
   384
1040
1.570796326794896
1001
ACAD_DSTYLE_DIM_LINETYPE
1070
   380
1005
14
1001
ACAD_DSTYLE_DIM_EXT1_LINETYPE
1070
   381
1005
14
1001
ACAD_DSTYLE_DIM_EXT2_LINETYPE
1070
   382
1005
14
  0
DIMSTYLE
105
6AB
330
A
100
AcDbSymbolTableRecord
100
AcDbDimStyleTableRecord
  2
STANDARD$0
 70
     0
 41
3.5
 42
1.5
 44
1.5
 47
0.005
 48
0.005
 71
     1
 73
     0
 74
     0
 77
     1
 78
     8
140
3.5
147
0.625
178
     5
271
     3
272
     3
284
     8
340
11
341
20D
342
20D
343
20D
344
20D
1001
ACAD_DSTYLE_DIMBREAK
1070
   391
1040
3.75
1001
ACAD_DSTYLE_DIMJAG
1070
   388
1040
1.5
  0
DIMSTYLE
105
7EF
102
{ACAD_REACTORS
330
953
330
956
330
73D
330
799
330
6AD
102
}
330
A
100
AcDbSymbolTableRecord
100
AcDbDimStyleTableRecord
  2
883N99122_001_00149479900
 70
     0
 40
2.0
 41
3.149999999999999
 42
0.0
 43
3.75
 44
2.0
 73
     0
 74
     0
 77
     1
 78
     8
 79
     2
140
3.5
141
0.0
143
0.03937007874016
145
2.0
147
2.0
171
     3
172
     1
173
     1
176
     3
177
     3
178
     2
179
     2
271
     2
272
     2
274
     3
283
     0
284
     8
340
11
341
7EA
  0
ENDTAB
  0
TABLE
  2
BLOCK_RECORD
  5
1
330
0
100
AcDbSymbolTable
 70
    21
  0
BLOCK_RECORD
  5
20B
330
1
100
AcDbSymbolTableRecord
100
AcDbBlockTableRecord
  2
*Model_Space
340
3E8
  0
BLOCK_RECORD
  5
20C
330
1
100
AcDbSymbolTableRecord
100
AcDbBlockTableRecord
  2
*Paper_Space
340
3E9
  0
BLOCK_RECORD
  5
20D
330
1
100
AcDbSymbolTableRecord
100
AcDbBlockTableRecord
  2
_FILLED
340
0
102
{BLKREFS
331
59A
331
59B
331
5A3
331
5A4
331
5AC
331
5AD
331
5B5
331
5B6
331
705
331
706
331
737
331
738
331
793
331
794
102
}
  0
BLOCK_RECORD
  5
20E
330
1
100
AcDbSymbolTableRecord
100
AcDbBlockTableRecord
  2
*D1
340
0
  0
BLOCK_RECORD
  5
20F
330
1
100
AcDbSymbolTableRecord
100
AcDbBlockTableRecord
  2
*D2
340
0
  0
BLOCK_RECORD
  5
210
330
1
100
AcDbSymbolTableRecord
100
AcDbBlockTableRecord
  2
*D3
340
0
  0
BLOCK_RECORD
  5
211
330
1
100
AcDbSymbolTableRecord
100
AcDbBlockTableRecord
  2
*D4
340
0
  0
BLOCK_RECORD
  5
4BE
330
1
100
AcDbSymbolTableRecord
100
AcDbBlockTableRecord
  2
GENAXEH
340
0
  0
BLOCK_RECORD
  5
6AE
330
1
100
AcDbSymbolTableRecord
100
AcDbBlockTableRecord
  2
*D6
340
0
  0
BLOCK_RECORD
  5
6E8
330
1
100
AcDbSymbolTableRecord
100
AcDbBlockTableRecord
  2
*D7
340
0
  0
BLOCK_RECORD
  5
70C
330
1
100
AcDbSymbolTableRecord
100
AcDbBlockTableRecord
  2
*D8
340
0
  0
BLOCK_RECORD
  5
73E
330
1
100
AcDbSymbolTableRecord
100
AcDbBlockTableRecord
  2
*D9
340
0
  0
BLOCK_RECORD
  5
776
330
1
100
AcDbSymbolTableRecord
100
AcDbBlockTableRecord
  2
*D10
340
0
  0
BLOCK_RECORD
  5
79A
330
1
100
AcDbSymbolTableRecord
100
AcDbBlockTableRecord
  2
*D11
340
0
  0
BLOCK_RECORD
  5
7D2
330
1
100
AcDbSymbolTableRecord
100
AcDbBlockTableRecord
  2
*D12
340
0
  0
BLOCK_RECORD
  5
7DE
330
1
100
AcDbSymbolTableRecord
100
AcDbBlockTableRecord
  2
*D13
340
0
  0
BLOCK_RECORD
  5
7EA
330
1
100
AcDbSymbolTableRecord
100
AcDbBlockTableRecord
  2
_None
340
0
  0
BLOCK_RECORD
  5
7F2
330
1
100
AcDbSymbolTableRecord
100
AcDbBlockTableRecord
  2
A$C62E64871
340
0
1001
ACAD
1000
DesignCenter Data
1002
{
1070
     1
1070
     4
1002
}
  0
BLOCK_RECORD
  5
95D
330
1
100
AcDbSymbolTableRecord
100
AcDbBlockTableRecord
  2
*D16
340
0
  0
BLOCK_RECORD
  5
969
330
1
100
AcDbSymbolTableRecord
100
AcDbBlockTableRecord
  2
*D17
340
0
  0
BLOCK_RECORD
  5
C46
330
1
100
AcDbSymbolTableRecord
100
AcDbBlockTableRecord
  2
*D18
340
0
  0
BLOCK_RECORD
  5
C52
330
1
100
AcDbSymbolTableRecord
100
AcDbBlockTableRecord
  2
*D19
340
0
  0
ENDTAB
  0
ENDSEC
  0
SECTION
  2
BLOCKS
  0
BLOCK
  5
20
330
20B
100
AcDbEntity
  8
0
100
AcDbBlockBegin
  2
*Model_Space
 70
     0
 10
0.0
 20
0.0
 30
0.0
  3
*Model_Space
  1

  0
ENDBLK
  5
21
330
20B
100
AcDbEntity
  8
0
100
AcDbBlockEnd
  0
BLOCK
  5
1C
330
20C
100
AcDbEntity
 67
     1
  8
0
100
AcDbBlockBegin
  2
*Paper_Space
 70
     0
 10
0.0
 20
0.0
 30
0.0
  3
*Paper_Space
  1

  0
ENDBLK
  5
1D
330
20C
100
AcDbEntity
 67
     1
  8
0
100
AcDbBlockEnd
  0
BLOCK
  5
216
330
20D
100
AcDbEntity
  8
0
100
AcDbBlockBegin
  2
_FILLED
 70
     0
 10
0.0
 20
0.0
 30
0.0
  3
_FILLED
  1

  0
SOLID
  5
217
330
20D
100
AcDbEntity
  8
0
  6
ByBlock
 62
     0
100
AcDbTrace
 10
0.0
 20
0.0
 30
0.0
 11
-1.0
 21
0.125
 31
0.0
 12
-1.0
 22
-0.125
 32
0.0
 13
-1.0
 23
-0.125
 33
0.0
  0
ENDBLK
  5
218
330
20D
100
AcDbEntity
  8
0
  6
ByBlock
 62
     0
100
AcDbBlockEnd
  0
BLOCK
  5
219
330
20E
100
AcDbEntity
  8
ZEICHNUNGSBEMASSUNGEN
  6
Continuous
 62
     2
100
AcDbBlockBegin
  2
*D1
 70
     1
 10
0.0
 20
0.0
 30
0.0
  3
*D1
  1

  0
LINE
  5
597
330
20E
100
AcDbEntity
  8
ZEICHNUNGSBEMASSUNGEN
  6
Continuous
 62
     0
370
    -2
100
AcDbLine
 10
615.5853378676381
 20
188.1050878620439
 30
0.0
 11
645.6404220046381
 21
188.1050878620439
 31
0.0
  0
LINE
  5
598
330
20E
100
AcDbEntity
  8
ZEICHNUNGSBEMASSUNGEN
  6
Continuous
 62
     0
370
    -2
100
AcDbLine
 10
615.5853378676381
 20
126.6077073060439
 30
0.0
 11
645.6404220046381
 21
126.6077073060439
 31
0.0
  0
LINE
  5
599
330
20E
100
AcDbEntity
  8
ZEICHNUNGSBEMASSUNGEN
  6
Continuous
 62
     0
370
    -2
100
AcDbLine
 10
644.1404220046381
 20
184.6050878620439
 30
0.0
 11
644.1404220046381
 21
130.1077073060439
 31
0.0
  0
INSERT
  5
59A
330
20E
100
AcDbEntity
  8
ZEICHNUNGSBEMASSUNGEN
  6
Continuous
 62
     0
370
    -2
100
AcDbBlockReference
  2
_FILLED
 10
644.1404220046381
 20
188.1050878620439
 30
0.0
 41
3.5
 42
3.5
 43
3.5
 50
90.0
  0
INSERT
  5
59B
330
20E
100
AcDbEntity
  8
ZEICHNUNGSBEMASSUNGEN
  6
Continuous
 62
     0
370
    -2
100
AcDbBlockReference
  2
_FILLED
 10
644.1404220046381
 20
126.6077073060439
 30
0.0
 41
3.5
 42
3.5
 43
3.5
 50
270.0
  0
MTEXT
  5
59C
330
20E
100
AcDbEntity
  8
ZEICHNUNGSBEMASSUNGEN
  6
Continuous
 62
     5
100
AcDbMText
 10
639.7654220046381
 20
157.3563975840439
 30
0.0
 40
3.5
 41
0.0
 71
     2
 72
     1
  1
\A1;153.7
 11
0.0000000000000001
 21
1.0
 31
0.0
 73
     1
 44
1.0
1001
ACAD
1000
MTEXTBEGIN
1070
    73
1070
     1
1070
    44
1040
1.0
1070
    74
1070
     0
1000
MTEXTEND
  0
POINT
  5
59D
330
20E
100
AcDbEntity
  8
Defpoints
  6
Continuous
 62
     0
100
AcDbPoint
 10
614.0853378676381
 20
188.1050878620439
 30
0.0
  0
POINT
  5
59E
330
20E
100
AcDbEntity
  8
Defpoints
  6
Continuous
 62
     0
100
AcDbPoint
 10
614.0853378676381
 20
126.6077073060439
 30
0.0
  0
POINT
  5
59F
330
20E
100
AcDbEntity
  8
Defpoints
  6
Continuous
 62
     0
100
AcDbPoint
 10
644.1404220046381
 20
126.6077073060439
 30
0.0
  0
ENDBLK
  5
223
330
20E
100
AcDbEntity
  8
0
  6
ByBlock
 62
     0
100
AcDbBlockEnd
  0
BLOCK
  5
224
330
20F
100
AcDbEntity
  8
0
  6
Continuous
 62
     2
100
AcDbBlockBegin
  2
*D2
 70
     1
 10
0.0
 20
0.0
 30
0.0
  3
*D2
  1

  0
LINE
  5
5A0
330
20F
100
AcDbEntity
  8
0
  6
Continuous
 62
     0
370
    -2
100
AcDbLine
 10
614.0853378676381
 20
125.1077073060439
 30
0.0
 11
614.0853378676381
 21
103.4616520922939
 31
0.0
  0
LINE
  5
5A1
330
20F
100
AcDbEntity
  8
0
  6
Continuous
 62
     0
370
    -2
100
AcDbLine
 10
-163.9146621323618
 20
125.1077073060439
 30
0.0
 11
-163.9146621323618
 21
103.4616520922939
 31
0.0
  0
LINE
  5
5A2
330
20F
100
AcDbEntity
  8
0
  6
Continuous
 62
     0
370
    -2
100
AcDbLine
 10
610.5853378676381
 20
104.9616520922939
 30
0.0
 11
-160.4146621323618
 21
104.9616520922939
 31
0.0
  0
INSERT
  5
5A3
330
20F
100
AcDbEntity
  8
0
  6
Continuous
 62
     0
370
    -2
100
AcDbBlockReference
  2
_FILLED
 10
614.0853378676381
 20
104.9616520922939
 30
0.0
 41
3.5
 42
3.5
 43
3.5
  0
INSERT
  5
5A4
330
20F
100
AcDbEntity
  8
0
  6
Continuous
 62
     0
370
    -2
100
AcDbBlockReference
  2
_FILLED
 10
-163.9146621323618
 20
104.9616520922939
 30
0.0
 41
3.5
 42
3.5
 43
3.5
 50
180.0
  0
MTEXT
  5
5A5
330
20F
100
AcDbEntity
  8
0
  6
Continuous
 62
     5
100
AcDbMText
 10
221.6478378676383
 20
110.7366520922939
 30
0.0
 40
3.5
 41
0.0
 71
     2
 72
     1
  1
\A1;1945{\H2.100000;\S 0^ -1;} 
 73
     1
 44
1.0
1001
ACAD
1000
MTEXTBEGIN
1070
    73
1070
     1
1070
    44
1040
1.0
1070
    74
1070
     0
1000
MTEXTEND
  0
POINT
  5
5A6
330
20F
100
AcDbEntity
  8
Defpoints
  6
Continuous
 62
     0
100
AcDbPoint
 10
614.0853378676381
 20
126.6077073060439
 30
0.0
  0
POINT
  5
5A7
330
20F
100
AcDbEntity
  8
Defpoints
  6
Continuous
 62
     0
100
AcDbPoint
 10
-163.9146621323618
 20
126.6077073060439
 30
0.0
  0
POINT
  5
5A8
330
20F
100
AcDbEntity
  8
Defpoints
  6
Continuous
 62
     0
100
AcDbPoint
 10
-163.9146621323618
 20
104.9616520922939
 30
0.0
  0
ENDBLK
  5
22F
330
20F
100
AcDbEntity
  8
0
  6
ByBlock
 62
     0
100
AcDbBlockEnd
  0
BLOCK
  5
230
330
210
100
AcDbEntity
  8
0
  6
Continuous
 62
     2
100
AcDbBlockBegin
  2
*D3
 70
     1
 10
0.0
 20
0.0
 30
0.0
  3
*D3
  1

  0
LINE
  5
5A9
330
210
100
AcDbEntity
  8
0
  6
Continuous
 62
     0
370
    -2
100
AcDbLine
 10
545.0853378676383
 20
292.631257923794
 30
0.0
 11
545.0853378676383
 21
261.222634924544
 31
0.0
  0
LINE
  5
5AA
330
210
100
AcDbEntity
  8
0
  6
Continuous
 62
     0
370
    -2
100
AcDbLine
 10
614.0853378676381
 20
292.631257923794
 30
0.0
 11
614.0853378676381
 21
261.222634924544
 31
0.0
  0
LINE
  5
5AB
330
210
100
AcDbEntity
  8
0
  6
Continuous
 62
     0
370
    -2
100
AcDbLine
 10
548.5853378676381
 20
262.7226349245439
 30
0.0
 11
610.5853378676381
 21
262.7226349245439
 31
0.0
  0
INSERT
  5
5AC
330
210
100
AcDbEntity
  8
0
  6
Continuous
 62
     0
370
    -2
100
AcDbBlockReference
  2
_FILLED
 10
545.0853378676383
 20
262.7226349245439
 30
0.0
 41
3.5
 42
3.5
 43
3.5
 50
180.0
  0
INSERT
  5
5AD
330
210
100
AcDbEntity
  8
0
  6
Continuous
 62
     0
370
    -2
100
AcDbBlockReference
  2
_FILLED
 10
614.0853378676381
 20
262.7226349245439
 30
0.0
 41
3.5
 42
3.5
 43
3.5
  0
MTEXT
  5
5AE
330
210
100
AcDbEntity
  8
0
  6
Continuous
 62
     5
100
AcDbMText
 10
579.5853378676381
 20
267.097634924544
 30
0.0
 40
3.5
 41
0.0
 71
     2
 72
     1
  1
\A1;172.5
 73
     1
 44
1.0
1001
ACAD
1000
MTEXTBEGIN
1070
    73
1070
     1
1070
    44
1040
1.0
1070
    74
1070
     0
1000
MTEXTEND
  0
POINT
  5
5AF
330
210
100
AcDbEntity
  8
Defpoints
  6
Continuous
 62
     0
100
AcDbPoint
 10
545.0853378676383
 20
294.131257923794
 30
0.0
  0
POINT
  5
5B0
330
210
100
AcDbEntity
  8
Defpoints
  6
Continuous
 62
     0
100
AcDbPoint
 10
614.0853378676381
 20
294.131257923794
 30
0.0
  0
POINT
  5
5B1
330
210
100
AcDbEntity
  8
Defpoints
  6
Continuous
 62
     0
100
AcDbPoint
 10
614.0853378676381
 20
262.7226349245439
 30
0.0
  0
ENDBLK
  5
238
330
210
100
AcDbEntity
  8
0
  6
ByBlock
 62
     0
100
AcDbBlockEnd
  0
BLOCK
  5
239
330
211
100
AcDbEntity
  8
0
  6
Continuous
 62
     2
100
AcDbBlockBegin
  2
*D4
 70
     1
 10
0.0
 20
0.0
 30
0.0
  3
*D4
  1

  0
LINE
  5
5B2
330
211
100
AcDbEntity
  8
0
  6
Continuous
 62
     0
370
    -2
100
AcDbLine
 10
-94.91466213236185
 20
292.631257923794
 30
0.0
 11
-94.91466213236185
 21
259.002087454794
 31
0.0
  0
LINE
  5
5B3
330
211
100
AcDbEntity
  8
0
  6
Continuous
 62
     0
370
    -2
100
AcDbLine
 10
-163.9146621323618
 20
292.631257923794
 30
0.0
 11
-163.9146621323618
 21
259.002087454794
 31
0.0
  0
LINE
  5
5B4
330
211
100
AcDbEntity
  8
0
  6
Continuous
 62
     0
370
    -2
100
AcDbLine
 10
-98.41466213236186
 20
260.502087454794
 30
0.0
 11
-160.4146621323618
 21
260.502087454794
 31
0.0
  0
INSERT
  5
5B5
330
211
100
AcDbEntity
  8
0
  6
Continuous
 62
     0
370
    -2
100
AcDbBlockReference
  2
_FILLED
 10
-94.91466213236185
 20
260.502087454794
 30
0.0
 41
3.5
 42
3.5
 43
3.5
  0
INSERT
  5
5B6
330
211
100
AcDbEntity
  8
0
  6
Continuous
 62
     0
370
    -2
100
AcDbBlockReference
  2
_FILLED
 10
-163.9146621323618
 20
260.502087454794
 30
0.0
 41
3.5
 42
3.5
 43
3.5
 50
180.0
  0
MTEXT
  5
5B7
330
211
100
AcDbEntity
  8
0
  6
Continuous
 62
     5
100
AcDbMText
 10
-129.4146621323618
 20
264.877087454794
 30
0.0
 40
3.5
 41
0.0
 71
     2
 72
     1
  1
\A1;172.5
 73
     1
 44
1.0
1001
ACAD
1000
MTEXTBEGIN
1070
    73
1070
     1
1070
    44
1040
1.0
1070
    74
1070
     0
1000
MTEXTEND
  0
POINT
  5
5B8
330
211
100
AcDbEntity
  8
Defpoints
  6
Continuous
 62
     0
100
AcDbPoint
 10
-94.91466213236185
 20
294.131257923794
 30
0.0
  0
POINT
  5
5B9
330
211
100
AcDbEntity
  8
Defpoints
  6
Continuous
 62
     0
100
AcDbPoint
 10
-163.9146621323618
 20
294.131257923794
 30
0.0
  0
POINT
  5
5BA
330
211
100
AcDbEntity
  8
Defpoints
  6
Continuous
 62
     0
100
AcDbPoint
 10
-163.9146621323618
 20
260.502087454794
 30
0.0
  0
ENDBLK
  5
241
330
211
100
AcDbEntity
  8
0
  6
ByBlock
 62
     0
100
AcDbBlockEnd
  0
BLOCK
  5
4C0
330
4BE
100
AcDbEntity
  8
0
100
AcDbBlockBegin
  2
GENAXEH
 70
     0
 10
0.0
 20
0.0
 30
0.0
  3
GENAXEH
  1

  0
LINE
  5
4BF
330
4BE
100
AcDbEntity
  8
0
100
AcDbLine
 10
-1.0
 20
0.0
 30
0.0
 11
1.0
 21
0.0
 31
0.0
  0
ENDBLK
  5
4C1
330
4BE
100
AcDbEntity
  8
0
100
AcDbBlockEnd
  0
BLOCK
  5
6AF
330
6AE
100
AcDbEntity
  8
0
100
AcDbBlockBegin
  2
*D6
 70
     1
 10
0.0
 20
0.0
 30
0.0
  3
*D6
  1

  0
LINE
  5
D34
330
6AE
100
AcDbEntity
  8
P-0000
  6
Continuous
 62
     3
370
    -2
100
AcDbLine
 10
-163.9146621323618
 20
296.3562769480438
 30
0.0
 11
-188.8008771563827
 21
296.3562769480438
 31
0.0
  0
LINE
  5
D35
330
6AE
100
AcDbEntity
  8
P-0000
  6
Continuous
 62
     3
370
    -2
100
AcDbLine
 10
-161.9146621323618
 20
281.156291841544
 30
0.0
 11
-188.8008771563827
 21
281.156291841544
 31
0.0
  0
LINE
  5
D36
330
6AE
100
AcDbEntity
  8
P-0000
  6
Continuous
 62
     3
370
    -2
100
AcDbLine
 10
-184.8008771563827
 20
302.6562769480439
 30
0.0
 11
-184.8008771563827
 21
308.9562769480439
 31
0.0
  0
LINE
  5
D37
330
6AE
100
AcDbEntity
  8
P-0000
  6
Continuous
 62
     3
370
    -2
100
AcDbLine
 10
-184.8008771563827
 20
274.856291841544
 30
0.0
 11
-184.8008771563827
 21
268.556291841544
 31
0.0
  0
LINE
  5
D38
330
6AE
100
AcDbEntity
  8
P-0000
  6
Continuous
 62
     3
370
    -2
100
AcDbLine
 10
-184.8008771563827
 20
296.3562769480438
 30
0.0
 11
-184.8008771563827
 21
281.156291841544
 31
0.0
  0
SOLID
  5
D39
330
6AE
100
AcDbEntity
  8
P-0000
  6
Continuous
 62
     3
100
AcDbTrace
 10
-185.8508771563826
 20
302.6562769480439
 30
0.0
 11
-183.7508771563826
 21
302.6562769480439
 31
0.0
 12
-184.8008771563827
 22
296.3562769480438
 32
0.0
 13
-184.8008771563827
 23
296.3562769480438
 33
0.0
  0
SOLID
  5
D3A
330
6AE
100
AcDbEntity
  8
P-0000
  6
Continuous
 62
     3
100
AcDbTrace
 10
-185.8508771563826
 20
274.856291841544
 30
0.0
 11
-183.7508771563826
 21
274.856291841544
 31
0.0
 12
-184.8008771563827
 22
281.156291841544
 32
0.0
 13
-184.8008771563827
 23
281.156291841544
 33
0.0
  0
MTEXT
  5
D3B
330
6AE
100
AcDbEntity
  8
P-0000
  6
Continuous
 62
     2
100
AcDbMText
 10
-192.3008771563827
 20
288.7562843947939
 30
0.0
 40
7.0
 41
0.0
 71
     5
 72
     1
  1
15
 11
0.0000000000000001
 21
1.0
 31
0.0
 73
     1
 44
1.0
1001
ACAD
1000
MTEXTBEGIN
1070
    73
1070
     1
1070
    44
1040
1.0
1070
    74
1070
     0
1000
MTEXTEND
  0
POINT
  5
D3C
330
6AE
100
AcDbEntity
  8
Defpoints
  6
Continuous
 62
     0
100
AcDbPoint
 10
-163.9146621323618
 20
296.3562769480438
 30
0.0
  0
POINT
  5
D3D
330
6AE
100
AcDbEntity
  8
Defpoints
  6
Continuous
 62
     0
100
AcDbPoint
 10
-161.9146621323618
 20
281.156291841544
 30
0.0
  0
POINT
  5
D3E
330
6AE
100
AcDbEntity
  8
Defpoints
  6
Continuous
 62
     0
100
AcDbPoint
 10
-184.8008771563827
 20
281.156291841544
 30
0.0
  0
ENDBLK
  5
6B0
330
6AE
100
AcDbEntity
  8
0
100
AcDbBlockEnd
  0
BLOCK
  5
6E9
330
6E8
100
AcDbEntity
  8
0
100
AcDbBlockBegin
  2
*D7
 70
     1
 10
0.0
 20
0.0
 30
0.0
  3
*D7
  1

  0
LINE
  5
701
330
6E8
100
AcDbEntity
  8
AM_5
  6
ByBlock
 62
     0
370
    -2
100
AcDbLine
 10
-165.4146621323618
 20
126.6063975840439
 30
0.0
 11
-188.5846524227527
 21
126.6063975840439
 31
0.0
  0
LINE
  5
702
330
6E8
100
AcDbEntity
  8
AM_5
  6
ByBlock
 62
     0
370
    -2
100
AcDbLine
 10
-165.4146621323618
 20
188.1059244442939
 30
0.0
 11
-188.5846524227527
 21
188.1059244442939
 31
0.0
  0
LINE
  5
703
330
6E8
100
AcDbEntity
  8
AM_5
  6
ByBlock
 62
     0
370
    -2
100
AcDbLine
 10
-187.0846524227527
 20
130.1063975840439
 30
0.0
 11
-187.0846524227527
 21
154.9811610141689
 31
0.0
  0
LINE
  5
704
330
6E8
100
AcDbEntity
  8
AM_5
  6
ByBlock
 62
     0
370
    -2
100
AcDbLine
 10
-187.0846524227527
 20
184.6059244442939
 30
0.0
 11
-187.0846524227527
 21
159.7311610141689
 31
0.0
  0
INSERT
  5
705
330
6E8
100
AcDbEntity
  8
AM_5
 62
     0
370
    -2
100
AcDbBlockReference
  2
_FILLED
 10
-187.0846524227527
 20
126.6063975840439
 30
0.0
 41
3.5
 42
3.5
 43
3.5
 50
270.0
  0
INSERT
  5
706
330
6E8
100
AcDbEntity
  8
AM_5
 62
     0
370
    -2
100
AcDbBlockReference
  2
_FILLED
 10
-187.0846524227527
 20
188.1059244442939
 30
0.0
 41
3.5
 42
3.5
 43
3.5
 50
90.0
  0
MTEXT
  5
707
330
6E8
100
AcDbEntity
  8
AM_5
 62
     0
100
AcDbMText
 10
-187.0846524227527
 20
157.3561610141688
 30
0.0
 40
3.5
 41
0.0
 71
     5
 72
     1
  1
\A1;61.4995
 73
     1
 44
1.0
1001
ACAD
1000
MTEXTBEGIN
1070
    73
1070
     1
1070
    44
1040
1.0
1070
    74
1070
     0
1000
MTEXTEND
  0
POINT
  5
708
330
6E8
100
AcDbEntity
  8
Defpoints
 62
     0
100
AcDbPoint
 10
-163.9146621323618
 20
126.6063975840439
 30
0.0
  0
POINT
  5
709
330
6E8
100
AcDbEntity
  8
Defpoints
 62
     0
100
AcDbPoint
 10
-163.9146621323618
 20
188.1059244442939
 30
0.0
  0
POINT
  5
70A
330
6E8
100
AcDbEntity
  8
Defpoints
 62
     0
100
AcDbPoint
 10
-187.0846524227527
 20
188.1059244442939
 30
0.0
  0
ENDBLK
  5
6EA
330
6E8
100
AcDbEntity
  8
0
100
AcDbBlockEnd
  0
BLOCK
  5
70D
330
70C
100
AcDbEntity
  8
0
100
AcDbBlockBegin
  2
*D8
 70
     1
 10
0.0
 20
0.0
 30
0.0
  3
*D8
  1

  0
LINE
  5
732
330
70C
100
AcDbEntity
  8
AM_5
  6
ByBlock
 62
     0
370
    -2
100
AcDbLine
 10
-188.5846524227527
 20
154.9811610141689
 30
0.0
 11
-193.3302298210005
 21
154.9811610141689
 31
0.0
  0
LINE
  5
733
330
70C
100
AcDbEntity
  8
AM_5
  6
ByBlock
 62
     0
370
    -2
100
AcDbLine
 10
-188.5846524227527
 20
154.9811610141689
 30
0.0
 11
-193.3302298210005
 21
154.9811610141689
 31
0.0
  0
LINE
  5
734
330
70C
100
AcDbEntity
  8
AM_5
  6
ByBlock
 62
     0
370
    -2
100
AcDbLine
 10
-191.8302298210005
 20
151.4811610141689
 30
0.0
 11
-191.8302298210005
 21
147.9811610141689
 31
0.0
  0
LINE
  5
735
330
70C
100
AcDbEntity
  8
AM_5
  6
ByBlock
 62
     0
370
    -2
100
AcDbLine
 10
-191.8302298210005
 20
158.4811610141689
 30
0.0
 11
-191.8302298210005
 21
161.9811610141689
 31
0.0
  0
LINE
  5
736
330
70C
100
AcDbEntity
  8
AM_5
  6
ByBlock
 62
     0
370
    -2
100
AcDbLine
 10
-191.8302298210005
 20
161.9811610141689
 30
0.0
 11
-188.3302298210005
 21
161.9811610141689
 31
0.0
  0
INSERT
  5
737
330
70C
100
AcDbEntity
  8
AM_5
 62
     0
370
    -2
100
AcDbBlockReference
  2
_FILLED
 10
-191.8302298210005
 20
154.9811610141689
 30
0.0
 41
3.5
 42
3.5
 43
3.5
 50
90.0
  0
INSERT
  5
738
330
70C
100
AcDbEntity
  8
AM_5
 62
     0
370
    -2
100
AcDbBlockReference
  2
_FILLED
 10
-191.8302298210005
 20
154.9811610141689
 30
0.0
 41
3.5
 42
3.5
 43
3.5
 50
270.0
  0
MTEXT
  5
739
330
70C
100
AcDbEntity
  8
AM_5
 62
     0
100
AcDbMText
 10
-182.6010631543339
 20
161.9811610141688
 30
0.0
 40
3.5
 41
0.0
 71
     5
 72
     1
  1
\A1;0.0000
 73
     1
 44
1.0
1001
ACAD
1000
MTEXTBEGIN
1070
    73
1070
     1
1070
    44
1040
1.0
1070
    74
1070
     0
1000
MTEXTEND
  0
POINT
  5
73A
330
70C
100
AcDbEntity
  8
Defpoints
 62
     0
100
AcDbPoint
 10
-187.0846524227527
 20
154.9811610141689
 30
0.0
  0
POINT
  5
73B
330
70C
100
AcDbEntity
  8
Defpoints
 62
     0
100
AcDbPoint
 10
-187.0846524227527
 20
154.9811610141689
 30
0.0
  0
POINT
  5
73C
330
70C
100
AcDbEntity
  8
Defpoints
 62
     0
100
AcDbPoint
 10
-191.8302298210005
 20
154.9811610141689
 30
0.0
  0
ENDBLK
  5
70E
330
70C
100
AcDbEntity
  8
0
100
AcDbBlockEnd
  0
BLOCK
  5
73F
330
73E
100
AcDbEntity
  8
0
100
AcDbBlockBegin
  2
*D9
 70
     1
 10
0.0
 20
0.0
 30
0.0
  3
*D9
  1

  0
LINE
  5
E05
330
73E
100
AcDbEntity
  8
P-0000
  6
Continuous
 62
     3
370
    -2
100
AcDbLine
 10
-163.9146621323618
 20
188.1063975840439
 30
0.0
 11
-190.6891857818681
 21
188.1063975840439
 31
0.0
  0
LINE
  5
E06
330
73E
100
AcDbEntity
  8
P-0000
  6
Continuous
 62
     3
370
    -2
100
AcDbLine
 10
-163.9146621323618
 20
126.6063975840439
 30
0.0
 11
-190.6891857818681
 21
126.6063975840439
 31
0.0
  0
LINE
  5
E07
330
73E
100
AcDbEntity
  8
P-0000
  6
Continuous
 62
     3
370
    -2
100
AcDbLine
 10
-186.6891857818681
 20
181.8063975840439
 30
0.0
 11
-186.6891857818681
 21
132.9063975840439
 31
0.0
  0
SOLID
  5
E08
330
73E
100
AcDbEntity
  8
P-0000
  6
Continuous
 62
     3
100
AcDbTrace
 10
-187.7391857818681
 20
181.8063975840439
 30
0.0
 11
-185.6391857818681
 21
181.8063975840439
 31
0.0
 12
-186.6891857818681
 22
188.1063975840439
 32
0.0
 13
-186.6891857818681
 23
188.1063975840439
 33
0.0
  0
SOLID
  5
E09
330
73E
100
AcDbEntity
  8
P-0000
  6
Continuous
 62
     3
100
AcDbTrace
 10
-187.7391857818681
 20
132.9063975840439
 30
0.0
 11
-185.6391857818681
 21
132.9063975840439
 31
0.0
 12
-186.6891857818681
 22
126.6063975840439
 32
0.0
 13
-186.6891857818681
 23
126.6063975840439
 33
0.0
  0
MTEXT
  5
E0A
330
73E
100
AcDbEntity
  8
P-0000
  6
Continuous
 62
     2
100
AcDbMText
 10
-194.1891857818681
 20
157.3563975840438
 30
0.0
 40
7.0
 41
0.0
 71
     5
 72
     1
  1
62
 11
0.0000000000000001
 21
1.0
 31
0.0
 73
     1
 44
1.0
1001
ACAD
1000
MTEXTBEGIN
1070
    73
1070
     1
1070
    44
1040
1.0
1070
    74
1070
     0
1000
MTEXTEND
  0
POINT
  5
E0B
330
73E
100
AcDbEntity
  8
Defpoints
  6
Continuous
 62
     0
100
AcDbPoint
 10
-163.9146621323618
 20
188.1063975840439
 30
0.0
  0
POINT
  5
E0C
330
73E
100
AcDbEntity
  8
Defpoints
  6
Continuous
 62
     0
100
AcDbPoint
 10
-163.9146621323618
 20
126.6063975840439
 30
0.0
  0
POINT
  5
E0D
330
73E
100
AcDbEntity
  8
Defpoints
  6
Continuous
 62
     0
100
AcDbPoint
 10
-186.6891857818681
 20
126.6063975840439
 30
0.0
  0
ENDBLK
  5
740
330
73E
100
AcDbEntity
  8
0
100
AcDbBlockEnd
  0
BLOCK
  5
777
330
776
100
AcDbEntity
  8
0
100
AcDbBlockBegin
  2
*D10
 70
     1
 10
0.0
 20
0.0
 30
0.0
  3
*D10
  1

  0
LINE
  5
78F
330
776
100
AcDbEntity
  8
AM_5
  6
ByBlock
 62
     0
370
    -2
100
AcDbLine
 10
-163.9146621323618
 20
125.1063975840439
 30
0.0
 11
-163.9146621323618
 21
82.39661675012278
 31
0.0
  0
LINE
  5
790
330
776
100
AcDbEntity
  8
AM_5
  6
ByBlock
 62
     0
370
    -2
100
AcDbLine
 10
614.0853378676381
 20
125.106870723794
 30
0.0
 11
614.0853378676381
 21
82.39661675012278
 31
0.0
  0
LINE
  5
791
330
776
100
AcDbEntity
  8
AM_5
  6
ByBlock
 62
     0
370
    -2
100
AcDbLine
 10
-160.4146621323618
 20
83.89661675012279
 30
0.0
 11
216.7020045343048
 21
83.89661675012279
 31
0.0
  0
LINE
  5
792
330
776
100
AcDbEntity
  8
AM_5
  6
ByBlock
 62
     0
370
    -2
100
AcDbLine
 10
610.5853378676381
 20
83.89661675012279
 30
0.0
 11
233.4686712009715
 21
83.89661675012279
 31
0.0
  0
INSERT
  5
793
330
776
100
AcDbEntity
  8
AM_5
 62
     0
370
    -2
100
AcDbBlockReference
  2
_FILLED
 10
-163.9146621323618
 20
83.89661675012279
 30
0.0
 41
3.5
 42
3.5
 43
3.5
 50
180.0
  0
INSERT
  5
794
330
776
100
AcDbEntity
  8
AM_5
 62
     0
370
    -2
100
AcDbBlockReference
  2
_FILLED
 10
614.0853378676381
 20
83.89661675012279
 30
0.0
 41
3.5
 42
3.5
 43
3.5
  0
MTEXT
  5
795
330
776
100
AcDbEntity
  8
AM_5
 62
     0
100
AcDbMText
 10
225.0853378676382
 20
83.89661675012279
 30
0.0
 40
3.5
 41
0.0
 71
     5
 72
     1
  1
\A1;778.0000
 73
     1
 44
1.0
1001
ACAD
1000
MTEXTBEGIN
1070
    73
1070
     1
1070
    44
1040
1.0
1070
    74
1070
     0
1000
MTEXTEND
  0
POINT
  5
796
330
776
100
AcDbEntity
  8
Defpoints
 62
     0
100
AcDbPoint
 10
-163.9146621323618
 20
126.6063975840439
 30
0.0
  0
POINT
  5
797
330
776
100
AcDbEntity
  8
Defpoints
 62
     0
100
AcDbPoint
 10
614.0853378676381
 20
126.606870723794
 30
0.0
  0
POINT
  5
798
330
776
100
AcDbEntity
  8
Defpoints
 62
     0
100
AcDbPoint
 10
614.0853378676381
 20
83.89661675012279
 30
0.0
  0
ENDBLK
  5
778
330
776
100
AcDbEntity
  8
0
100
AcDbBlockEnd
  0
BLOCK
  5
79B
330
79A
100
AcDbEntity
  8
0
100
AcDbBlockBegin
  2
*D11
 70
     1
 10
0.0
 20
0.0
 30
0.0
  3
*D11
  1

  0
LINE
  5
C67
330
79A
100
AcDbEntity
  8
P-0000
  6
Continuous
 62
     3
370
    -2
100
AcDbLine
 10
-163.9146621323618
 20
126.6063975840439
 30
0.0
 11
-163.9146621323618
 21
91.75161235097425
 31
0.0
  0
LINE
  5
C68
330
79A
100
AcDbEntity
  8
P-0000
  6
Continuous
 62
     3
370
    -2
100
AcDbLine
 10
614.0853378676381
 20
126.6063975840439
 30
0.0
 11
614.0853378676381
 21
91.75161235097425
 31
0.0
  0
LINE
  5
C69
330
79A
100
AcDbEntity
  8
P-0000
  6
Continuous
 62
     3
370
    -2
100
AcDbLine
 10
-157.6146621323618
 20
95.75161235097423
 30
0.0
 11
607.7853378676381
 21
95.75161235097423
 31
0.0
  0
SOLID
  5
C6A
330
79A
100
AcDbEntity
  8
P-0000
  6
Continuous
 62
     3
100
AcDbTrace
 10
-157.6146621323618
 20
96.80161235097424
 30
0.0
 11
-157.6146621323618
 21
94.70161235097426
 31
0.0
 12
-163.9146621323618
 22
95.75161235097423
 32
0.0
 13
-163.9146621323618
 23
95.75161235097423
 33
0.0
  0
SOLID
  5
C6B
330
79A
100
AcDbEntity
  8
P-0000
  6
Continuous
 62
     3
100
AcDbTrace
 10
607.7853378676381
 20
96.80161235097424
 30
0.0
 11
607.7853378676381
 21
94.70161235097426
 31
0.0
 12
614.0853378676381
 22
95.75161235097423
 32
0.0
 13
614.0853378676381
 23
95.75161235097423
 33
0.0
  0
MTEXT
  5
C6C
330
79A
100
AcDbEntity
  8
P-0000
  6
Continuous
 62
     2
100
AcDbMText
 10
225.0853378676382
 20
103.2516123509742
 30
0.0
 40
7.0
 41
0.0
 71
     5
 72
     1
  1
778
 73
     1
 44
1.0
1001
ACAD
1000
MTEXTBEGIN
1070
    73
1070
     1
1070
    44
1040
1.0
1070
    74
1070
     0
1000
MTEXTEND
  0
POINT
  5
C6D
330
79A
100
AcDbEntity
  8
Defpoints
  6
Continuous
 62
     0
100
AcDbPoint
 10
-163.9146621323618
 20
126.6063975840439
 30
0.0
  0
POINT
  5
C6E
330
79A
100
AcDbEntity
  8
Defpoints
  6
Continuous
 62
     0
100
AcDbPoint
 10
614.0853378676381
 20
126.6063975840439
 30
0.0
  0
POINT
  5
C6F
330
79A
100
AcDbEntity
  8
Defpoints
  6
Continuous
 62
     0
100
AcDbPoint
 10
614.0853378676381
 20
95.75161235097423
 30
0.0
  0
ENDBLK
  5
79C
330
79A
100
AcDbEntity
  8
0
100
AcDbBlockEnd
  0
BLOCK
  5
7D3
330
7D2
100
AcDbEntity
  8
0
100
AcDbBlockBegin
  2
*D12
 70
     1
 10
0.0
 20
0.0
 30
0.0
  3
*D12
  1

  0
LINE
  5
7D4
330
7D2
100
AcDbEntity
  8
P-0000
  6
Continuous
 62
     3
370
    -2
100
AcDbLine
 10
-135.7515219216
 20
234.8140669884
 30
0.0
 11
-158.4487198091733
 21
234.8140669884
 31
0.0
  0
LINE
  5
7D5
330
7D2
100
AcDbEntity
  8
P-0000
  6
Continuous
 62
     3
370
    -2
100
AcDbLine
 10
-135.7515219216
 20
173.3145401281
 30
0.0
 11
-158.4487198091733
 21
173.3145401281
 31
0.0
  0
LINE
  5
7D6
330
7D2
100
AcDbEntity
  8
P-0000
  6
Continuous
 62
     3
370
    -2
100
AcDbLine
 10
-154.4487198091733
 20
228.5140669884
 30
0.0
 11
-154.4487198091733
 21
179.6145401281
 31
0.0
  0
SOLID
  5
7D7
330
7D2
100
AcDbEntity
  8
P-0000
  6
Continuous
 62
     3
100
AcDbTrace
 10
-155.4987198091733
 20
228.5140669884
 30
0.0
 11
-153.3987198091733
 21
228.5140669884
 31
0.0
 12
-154.4487198091733
 22
234.8140669884
 32
0.0
 13
-154.4487198091733
 23
234.8140669884
 33
0.0
  0
SOLID
  5
7D8
330
7D2
100
AcDbEntity
  8
P-0000
  6
Continuous
 62
     3
100
AcDbTrace
 10
-155.4987198091733
 20
179.6145401281
 30
0.0
 11
-153.3987198091733
 21
179.6145401281
 31
0.0
 12
-154.4487198091733
 22
173.3145401281
 32
0.0
 13
-154.4487198091733
 23
173.3145401281
 33
0.0
  0
MTEXT
  5
7D9
330
7D2
100
AcDbEntity
  8
P-0000
  6
Continuous
 62
     2
100
AcDbMText
 10
-161.9487198091734
 20
204.06430355825
 30
0.0
 40
7.0
 41
0.0
 71
     5
 72
     1
  1
61.5
 11
0.0000000000000001
 21
1.0
 31
0.0
 73
     1
 44
1.0
1001
ACAD
1000
MTEXTBEGIN
1070
    73
1070
     1
1070
    44
1040
1.0
1070
    74
1070
     0
1000
MTEXTEND
  0
POINT
  5
7DA
330
7D2
100
AcDbEntity
  8
Defpoints
  6
Continuous
 62
     0
100
AcDbPoint
 10
-135.7515219216
 20
234.8140669884
 30
0.0
  0
POINT
  5
7DB
330
7D2
100
AcDbEntity
  8
Defpoints
  6
Continuous
 62
     0
100
AcDbPoint
 10
-135.7515219216
 20
173.3145401281
 30
0.0
  0
POINT
  5
7DC
330
7D2
100
AcDbEntity
  8
Defpoints
  6
Continuous
 62
     0
100
AcDbPoint
 10
-154.4487198091733
 20
173.3145401281
 30
0.0
  0
ENDBLK
  5
7DD
330
7D2
100
AcDbEntity
  8
0
100
AcDbBlockEnd
  0
BLOCK
  5
7DF
330
7DE
100
AcDbEntity
  8
0
100
AcDbBlockBegin
  2
*D13
 70
     1
 10
0.0
 20
0.0
 30
0.0
  3
*D13
  1

  0
LINE
  5
7E0
330
7DE
100
AcDbEntity
  8
P-0000
  6
Continuous
 62
     3
370
    -2
100
AcDbLine
 10
-135.7515219216
 20
173.3145401281
 30
0.0
 11
-135.7515219216
 21
123.6002370578001
 31
0.0
  0
LINE
  5
7E1
330
7DE
100
AcDbEntity
  8
P-0000
  6
Continuous
 62
     3
370
    -2
100
AcDbLine
 10
542.2484780783999
 20
173.3145401281
 30
0.0
 11
542.2484780783999
 21
123.6002370578001
 31
0.0
  0
LINE
  5
7E2
330
7DE
100
AcDbEntity
  8
P-0000
  6
Continuous
 62
     3
370
    -2
100
AcDbLine
 10
-129.4515219216
 20
127.6002370578001
 30
0.0
 11
535.9484780783998
 21
127.6002370578001
 31
0.0
  0
SOLID
  5
7E3
330
7DE
100
AcDbEntity
  8
P-0000
  6
Continuous
 62
     3
100
AcDbTrace
 10
-129.4515219216
 20
128.6502370578001
 30
0.0
 11
-129.4515219216
 21
126.5502370578001
 31
0.0
 12
-135.7515219216
 22
127.6002370578001
 32
0.0
 13
-135.7515219216
 23
127.6002370578001
 33
0.0
  0
SOLID
  5
7E4
330
7DE
100
AcDbEntity
  8
P-0000
  6
Continuous
 62
     3
100
AcDbTrace
 10
535.9484780783998
 20
128.6502370578001
 30
0.0
 11
535.9484780783998
 21
126.5502370578001
 31
0.0
 12
542.2484780783999
 22
127.6002370578001
 32
0.0
 13
542.2484780783999
 23
127.6002370578001
 33
0.0
  0
MTEXT
  5
7E5
330
7DE
100
AcDbEntity
  8
P-0000
  6
Continuous
 62
     2
100
AcDbMText
 10
203.2484780784
 20
135.1002370578001
 30
0.0
 40
7.0
 41
0.0
 71
     5
 72
     1
  1
678
 73
     1
 44
1.0
1001
ACAD
1000
MTEXTBEGIN
1070
    73
1070
     1
1070
    44
1040
1.0
1070
    74
1070
     0
1000
MTEXTEND
  0
POINT
  5
7E6
330
7DE
100
AcDbEntity
  8
Defpoints
  6
Continuous
 62
     0
100
AcDbPoint
 10
-135.7515219216
 20
173.3145401281
 30
0.0
  0
POINT
  5
7E7
330
7DE
100
AcDbEntity
  8
Defpoints
  6
Continuous
 62
     0
100
AcDbPoint
 10
542.2484780783999
 20
173.3145401281
 30
0.0
  0
POINT
  5
7E8
330
7DE
100
AcDbEntity
  8
Defpoints
  6
Continuous
 62
     0
100
AcDbPoint
 10
542.2484780783999
 20
127.6002370578001
 30
0.0
  0
ENDBLK
  5
7E9
330
7DE
100
AcDbEntity
  8
0
100
AcDbBlockEnd
  0
BLOCK
  5
7EB
330
7EA
100
AcDbEntity
  8
0
100
AcDbBlockBegin
  2
_None
 70
     0
 10
0.0
 20
0.0
 30
0.0
  3
_None
  1

  0
ENDBLK
  5
7EC
330
7EA
100
AcDbEntity
  8
0
100
AcDbBlockEnd
  0
BLOCK
  5
959
330
7F2
100
AcDbEntity
  8
0
100
AcDbBlockBegin
  2
A$C62E64871
 70
     0
 10
0.0
 20
0.0
 30
0.0
  3
A$C62E64871
  1

  0
LINE
  5
7F3
102
{ACAD_REACTORS
330
955
102
}
330
7F2
100
AcDbEntity
  8
0
  6
Continuous
 62
     7
100
AcDbLine
 10
29.69719938131106
 20
49.71477603062556
 30
0.0
 11
29.69719938131106
 21
111.2138297513255
 31
0.0
  0
LINE
  5
7F4
330
7F2
100
AcDbEntity
  8
0
  6
Continuous
 62
     7
100
AcDbLine
 10
38.19719938131104
 20
102.9643028910255
 30
0.0
 11
38.19719938131104
 21
70.96430289102556
 31
0.0
  0
LINE
  5
7F5
330
7F2
100
AcDbEntity
  8
0
  6
Continuous
 62
     7
100
AcDbLine
 10
38.19719938131104
 20
61.96430289102558
 30
0.0
 11
38.19719938131104
 21
57.96430289102556
 31
0.0
  0
LINE
  5
7F6
330
7F2
100
AcDbEntity
  8
0
  6
Continuous
 62
     7
100
AcDbLine
 10
43.19719938131103
 20
57.96430289102556
 30
0.0
 11
43.19719938131103
 21
61.96430289102558
 31
0.0
  0
LINE
  5
7F7
330
7F2
100
AcDbEntity
  8
0
  6
Continuous
 62
     7
100
AcDbLine
 10
43.19719938131103
 20
70.96430289102556
 30
0.0
 11
43.19719938131103
 21
102.9643028910255
 31
0.0
  0
LINE
  5
7F8
330
7F2
100
AcDbEntity
  8
0
  6
Continuous
 62
     7
100
AcDbLine
 10
54.19719938131104
 20
102.9643028910255
 30
0.0
 11
54.19719938131104
 21
71.96430289102557
 31
0.0
  0
LINE
  5
7F9
330
7F2
100
AcDbEntity
  8
0
  6
Continuous
 62
     7
100
AcDbLine
 10
54.19719938131104
 20
62.96430289102556
 30
0.0
 11
54.19719938131104
 21
57.96430289102556
 31
0.0
  0
LINE
  5
7FA
330
7F2
100
AcDbEntity
  8
0
  6
Continuous
 62
     7
100
AcDbLine
 10
59.19719938131104
 20
57.96430289102556
 30
0.0
 11
59.19719938131104
 21
62.96430289102556
 31
0.0
  0
LINE
  5
7FB
330
7F2
100
AcDbEntity
  8
BEZUGSACHSEN
  6
Continuous
 62
     9
100
AcDbLine
 10
59.19719938131104
 20
71.96430289102557
 30
0.0
 11
59.19719938131104
 21
102.9643028910255
 31
0.0
  0
LINE
  5
7FC
330
7F2
100
AcDbEntity
  8
0
  6
Continuous
 62
     7
100
AcDbLine
 10
70.19719938131105
 20
102.9643028910255
 30
0.0
 11
70.19719938131105
 21
73.96430289102557
 31
0.0
  0
LINE
  5
7FD
330
7F2
100
AcDbEntity
  8
0
  6
Continuous
 62
     7
100
AcDbLine
 10
70.19719938131105
 20
64.96430289102557
 30
0.0
 11
70.19719938131105
 21
57.96430289102556
 31
0.0
  0
LINE
  5
7FE
330
7F2
100
AcDbEntity
  8
0
  6
Continuous
 62
     7
100
AcDbLine
 10
75.19719938131105
 20
57.96430289102556
 30
0.0
 11
75.19719938131105
 21
64.96430289102557
 31
0.0
  0
LINE
  5
7FF
330
7F2
100
AcDbEntity
  8
0
  6
Continuous
 62
     7
100
AcDbLine
 10
75.19719938131105
 20
73.96430289102557
 30
0.0
 11
75.19719938131105
 21
102.9643028910255
 31
0.0
  0
LINE
  5
800
330
7F2
100
AcDbEntity
  8
0
  6
Continuous
 62
     7
100
AcDbLine
 10
86.19719938131105
 20
102.9643028910255
 30
0.0
 11
86.19719938131105
 21
77.96430289102556
 31
0.0
  0
LINE
  5
801
330
7F2
100
AcDbEntity
  8
0
  6
Continuous
 62
     7
100
AcDbLine
 10
86.19719938131105
 20
68.96430289102557
 30
0.0
 11
86.19719938131105
 21
57.96430289102556
 31
0.0
  0
LINE
  5
802
330
7F2
100
AcDbEntity
  8
0
  6
Continuous
 62
     7
100
AcDbLine
 10
91.19719938131105
 20
57.96430289102556
 30
0.0
 11
91.19719938131105
 21
68.96430289102557
 31
0.0
  0
LINE
  5
803
330
7F2
100
AcDbEntity
  8
0
  6
Continuous
 62
     7
100
AcDbLine
 10
91.19719938131105
 20
77.96430289102556
 30
0.0
 11
91.19719938131105
 21
102.9643028910255
 31
0.0
  0
LINE
  5
804
330
7F2
100
AcDbEntity
  8
0
  6
Continuous
 62
     7
100
AcDbLine
 10
102.197199381311
 20
102.9643028910255
 30
0.0
 11
102.197199381311
 21
81.96430289102556
 31
0.0
  0
LINE
  5
805
330
7F2
100
AcDbEntity
  8
0
  6
Continuous
 62
     7
100
AcDbLine
 10
102.197199381311
 20
72.96430289102556
 30
0.0
 11
102.197199381311
 21
57.96430289102556
 31
0.0
  0
LINE
  5
806
330
7F2
100
AcDbEntity
  8
0
  6
Continuous
 62
     7
100
AcDbLine
 10
107.197199381311
 20
57.96430289102556
 30
0.0
 11
107.197199381311
 21
72.96430289102556
 31
0.0
  0
LINE
  5
807
330
7F2
100
AcDbEntity
  8
0
  6
Continuous
 62
     7
100
AcDbLine
 10
107.197199381311
 20
81.96430289102556
 30
0.0
 11
107.197199381311
 21
102.9643028910255
 31
0.0
  0
LINE
  5
808
330
7F2
100
AcDbEntity
  8
0
  6
Continuous
 62
     7
100
AcDbLine
 10
118.197199381311
 20
102.9643028910255
 30
0.0
 11
118.197199381311
 21
87.96430289102557
 31
0.0
  0
LINE
  5
809
330
7F2
100
AcDbEntity
  8
0
  6
Continuous
 62
     7
100
AcDbLine
 10
118.197199381311
 20
78.96430289102557
 30
0.0
 11
118.197199381311
 21
57.96430289102556
 31
0.0
  0
LINE
  5
80A
330
7F2
100
AcDbEntity
  8
0
  6
Continuous
 62
     7
100
AcDbLine
 10
123.197199381311
 20
57.96430289102556
 30
0.0
 11
123.197199381311
 21
78.96430289102557
 31
0.0
  0
LINE
  5
80B
330
7F2
100
AcDbEntity
  8
0
  6
Continuous
 62
     7
100
AcDbLine
 10
123.197199381311
 20
87.96430289102557
 30
0.0
 11
123.197199381311
 21
102.9643028910255
 31
0.0
  0
LINE
  5
80C
330
7F2
100
AcDbEntity
  8
0
  6
Continuous
 62
     7
100
AcDbLine
 10
134.197199381311
 20
102.9643028910255
 30
0.0
 11
134.197199381311
 21
91.96430289102556
 31
0.0
  0
LINE
  5
80D
330
7F2
100
AcDbEntity
  8
0
  6
Continuous
 62
     7
100
AcDbLine
 10
134.197199381311
 20
82.96430289102557
 30
0.0
 11
134.197199381311
 21
57.96430289102556
 31
0.0
  0
LINE
  5
80E
330
7F2
100
AcDbEntity
  8
0
  6
Continuous
 62
     7
100
AcDbLine
 10
139.197199381311
 20
57.96430289102556
 30
0.0
 11
139.197199381311
 21
82.96430289102557
 31
0.0
  0
LINE
  5
80F
330
7F2
100
AcDbEntity
  8
0
  6
Continuous
 62
     7
100
AcDbLine
 10
139.197199381311
 20
91.96430289102556
 30
0.0
 11
139.197199381311
 21
102.9643028910255
 31
0.0
  0
LINE
  5
810
330
7F2
100
AcDbEntity
  8
0
  6
Continuous
 62
     7
100
AcDbLine
 10
150.197199381311
 20
102.9643028910255
 30
0.0
 11
150.197199381311
 21
95.96430289102556
 31
0.0
  0
LINE
  5
811
330
7F2
100
AcDbEntity
  8
0
  6
Continuous
 62
     7
100
AcDbLine
 10
150.197199381311
 20
86.96430289102556
 30
0.0
 11
150.197199381311
 21
57.96430289102556
 31
0.0
  0
LINE
  5
812
330
7F2
100
AcDbEntity
  8
0
  6
Continuous
 62
     7
100
AcDbLine
 10
155.197199381311
 20
57.96430289102556
 30
0.0
 11
155.197199381311
 21
86.96430289102556
 31
0.0
  0
LINE
  5
813
330
7F2
100
AcDbEntity
  8
0
  6
Continuous
 62
     7
100
AcDbLine
 10
155.197199381311
 20
95.96430289102556
 30
0.0
 11
155.197199381311
 21
102.9643028910255
 31
0.0
  0
LINE
  5
814
330
7F2
100
AcDbEntity
  8
0
  6
Continuous
 62
     7
100
AcDbLine
 10
166.1971993813111
 20
102.9643028910255
 30
0.0
 11
166.1971993813111
 21
97.96430289102557
 31
0.0
  0
LINE
  5
815
330
7F2
100
AcDbEntity
  8
0
  6
Continuous
 62
     7
100
AcDbLine
 10
166.1971993813111
 20
88.96430289102557
 30
0.0
 11
166.1971993813111
 21
57.96430289102556
 31
0.0
  0
LINE
  5
816
330
7F2
100
AcDbEntity
  8
0
  6
Continuous
 62
     7
100
AcDbLine
 10
171.197199381311
 20
57.96430289102556
 30
0.0
 11
171.197199381311
 21
88.96430289102557
 31
0.0
  0
LINE
  5
817
330
7F2
100
AcDbEntity
  8
0
  6
Continuous
 62
     7
100
AcDbLine
 10
171.197199381311
 20
97.96430289102557
 30
0.0
 11
171.197199381311
 21
102.9643028910255
 31
0.0
  0
LINE
  5
818
330
7F2
100
AcDbEntity
  8
0
  6
Continuous
 62
     7
100
AcDbLine
 10
182.1971993813111
 20
102.9643028910255
 30
0.0
 11
182.1971993813111
 21
98.96430289102557
 31
0.0
  0
LINE
  5
819
330
7F2
100
AcDbEntity
  8
0
  6
Continuous
 62
     7
100
AcDbLine
 10
182.1971993813111
 20
89.96430289102557
 30
0.0
 11
182.1971993813111
 21
57.96430289102556
 31
0.0
  0
LINE
  5
81A
330
7F2
100
AcDbEntity
  8
0
  6
Continuous
 62
     7
100
AcDbLine
 10
187.1971993813111
 20
57.96430289102556
 30
0.0
 11
187.1971993813111
 21
89.96430289102557
 31
0.0
  0
LINE
  5
81B
330
7F2
100
AcDbEntity
  8
0
  6
Continuous
 62
     7
100
AcDbLine
 10
187.1971993813111
 20
98.96430289102557
 30
0.0
 11
187.1971993813111
 21
102.9643028910255
 31
0.0
  0
LINE
  5
81C
330
7F2
100
AcDbEntity
  8
0
  6
Continuous
 62
     7
100
AcDbLine
 10
198.197199381311
 20
102.9643028910255
 30
0.0
 11
198.197199381311
 21
99.96430289102557
 31
0.0
  0
LINE
  5
81D
330
7F2
100
AcDbEntity
  8
0
  6
Continuous
 62
     7
100
AcDbLine
 10
198.197199381311
 20
90.96430289102556
 30
0.0
 11
198.197199381311
 21
57.96430289102556
 31
0.0
  0
LINE
  5
81E
330
7F2
100
AcDbEntity
  8
0
  6
Continuous
 62
     7
100
AcDbLine
 10
203.1971993813111
 20
57.96430289102556
 30
0.0
 11
203.1971993813111
 21
90.96430289102556
 31
0.0
  0
LINE
  5
81F
330
7F2
100
AcDbEntity
  8
0
  6
Continuous
 62
     7
100
AcDbLine
 10
203.1971993813111
 20
99.96430289102557
 30
0.0
 11
203.1971993813111
 21
102.9643028910255
 31
0.0
  0
LINE
  5
820
330
7F2
100
AcDbEntity
  8
0
  6
Continuous
 62
     7
100
AcDbLine
 10
214.1971993813111
 20
102.9643028910255
 30
0.0
 11
214.1971993813111
 21
98.96430289102557
 31
0.0
  0
LINE
  5
821
330
7F2
100
AcDbEntity
  8
0
  6
Continuous
 62
     7
100
AcDbLine
 10
214.1971993813111
 20
89.96430289102557
 30
0.0
 11
214.1971993813111
 21
57.96430289102556
 31
0.0
  0
LINE
  5
822
330
7F2
100
AcDbEntity
  8
0
  6
Continuous
 62
     7
100
AcDbLine
 10
219.1971993813111
 20
57.96430289102556
 30
0.0
 11
219.1971993813111
 21
89.96430289102557
 31
0.0
  0
LINE
  5
823
330
7F2
100
AcDbEntity
  8
0
  6
Continuous
 62
     7
100
AcDbLine
 10
219.1971993813111
 20
98.96430289102557
 30
0.0
 11
219.1971993813111
 21
102.9643028910255
 31
0.0
  0
LINE
  5
824
330
7F2
100
AcDbEntity
  8
0
  6
Continuous
 62
     7
100
AcDbLine
 10
230.1971993813111
 20
102.9643028910255
 30
0.0
 11
230.1971993813111
 21
97.96430289102557
 31
0.0
  0
LINE
  5
825
330
7F2
100
AcDbEntity
  8
0
  6
Continuous
 62
     7
100
AcDbLine
 10
230.1971993813111
 20
88.96430289102557
 30
0.0
 11
230.1971993813111
 21
57.96430289102556
 31
0.0
  0
LINE
  5
826
330
7F2
100
AcDbEntity
  8
0
  6
Continuous
 62
     7
100
AcDbLine
 10
235.1971993813111
 20
57.96430289102556
 30
0.0
 11
235.1971993813111
 21
88.96430289102557
 31
0.0
  0
LINE
  5
827
330
7F2
100
AcDbEntity
  8
0
  6
Continuous
 62
     7
100
AcDbLine
 10
235.1971993813111
 20
97.96430289102557
 30
0.0
 11
235.1971993813111
 21
102.9643028910255
 31
0.0
  0
LINE
  5
828
330
7F2
100
AcDbEntity
  8
0
  6
Continuous
 62
     7
100
AcDbLine
 10
246.1971993813111
 20
102.9643028910255
 30
0.0
 11
246.1971993813111
 21
95.96430289102556
 31
0.0
  0
LINE
  5
829
330
7F2
100
AcDbEntity
  8
0
  6
Continuous
 62
     7
100
AcDbLine
 10
246.1971993813111
 20
86.96430289102556
 30
0.0
 11
246.1971993813111
 21
57.96430289102556
 31
0.0
  0
LINE
  5
82A
330
7F2
100
AcDbEntity
  8
0
  6
Continuous
 62
     7
100
AcDbLine
 10
251.197199381311
 20
57.96430289102556
 30
0.0
 11
251.197199381311
 21
86.96430289102556
 31
0.0
  0
LINE
  5
82B
330
7F2
100
AcDbEntity
  8
0
  6
Continuous
 62
     7
100
AcDbLine
 10
251.197199381311
 20
95.96430289102556
 30
0.0
 11
251.197199381311
 21
102.9643028910255
 31
0.0
  0
LINE
  5
82C
330
7F2
100
AcDbEntity
  8
0
  6
Continuous
 62
     7
100
AcDbLine
 10
262.1971993813111
 20
102.9643028910255
 30
0.0
 11
262.1971993813111
 21
91.96430289102556
 31
0.0
  0
LINE
  5
82D
330
7F2
100
AcDbEntity
  8
0
  6
Continuous
 62
     7
100
AcDbLine
 10
262.1971993813111
 20
82.96430289102557
 30
0.0
 11
262.1971993813111
 21
57.96430289102556
 31
0.0
  0
LINE
  5
82E
330
7F2
100
AcDbEntity
  8
0
  6
Continuous
 62
     7
100
AcDbLine
 10
267.1971993813111
 20
57.96430289102556
 30
0.0
 11
267.1971993813111
 21
82.96430289102557
 31
0.0
  0
LINE
  5
82F
330
7F2
100
AcDbEntity
  8
0
  6
Continuous
 62
     7
100
AcDbLine
 10
267.1971993813111
 20
91.96430289102556
 30
0.0
 11
267.1971993813111
 21
102.9643028910255
 31
0.0
  0
LINE
  5
830
330
7F2
100
AcDbEntity
  8
0
  6
Continuous
 62
     7
100
AcDbLine
 10
278.1971993813111
 20
102.9643028910255
 30
0.0
 11
278.1971993813111
 21
87.96430289102557
 31
0.0
  0
LINE
  5
831
330
7F2
100
AcDbEntity
  8
0
  6
Continuous
 62
     7
100
AcDbLine
 10
278.1971993813111
 20
78.96430289102557
 30
0.0
 11
278.1971993813111
 21
57.96430289102556
 31
0.0
  0
LINE
  5
832
330
7F2
100
AcDbEntity
  8
0
  6
Continuous
 62
     7
100
AcDbLine
 10
283.1971993813111
 20
57.96430289102556
 30
0.0
 11
283.1971993813111
 21
78.96430289102557
 31
0.0
  0
LINE
  5
833
330
7F2
100
AcDbEntity
  8
0
  6
Continuous
 62
     7
100
AcDbLine
 10
283.1971993813111
 20
87.96430289102557
 30
0.0
 11
283.1971993813111
 21
102.9643028910255
 31
0.0
  0
LINE
  5
834
330
7F2
100
AcDbEntity
  8
0
  6
Continuous
 62
     7
100
AcDbLine
 10
294.197199381311
 20
102.9643028910255
 30
0.0
 11
294.197199381311
 21
81.96430289102556
 31
0.0
  0
LINE
  5
835
330
7F2
100
AcDbEntity
  8
0
  6
Continuous
 62
     7
100
AcDbLine
 10
294.197199381311
 20
72.96430289102556
 30
0.0
 11
294.197199381311
 21
57.96430289102556
 31
0.0
  0
LINE
  5
836
330
7F2
100
AcDbEntity
  8
0
  6
Continuous
 62
     7
100
AcDbLine
 10
299.1971993813111
 20
57.96430289102556
 30
0.0
 11
299.1971993813111
 21
72.96430289102556
 31
0.0
  0
LINE
  5
837
330
7F2
100
AcDbEntity
  8
0
  6
Continuous
 62
     7
100
AcDbLine
 10
299.1971993813111
 20
81.96430289102556
 30
0.0
 11
299.1971993813111
 21
102.9643028910255
 31
0.0
  0
LINE
  5
838
330
7F2
100
AcDbEntity
  8
0
  6
Continuous
 62
     7
100
AcDbLine
 10
310.1971993813111
 20
102.9643028910255
 30
0.0
 11
310.1971993813111
 21
77.96430289102556
 31
0.0
  0
LINE
  5
839
330
7F2
100
AcDbEntity
  8
0
  6
Continuous
 62
     7
100
AcDbLine
 10
310.1971993813111
 20
68.96430289102557
 30
0.0
 11
310.1971993813111
 21
57.96430289102556
 31
0.0
  0
LINE
  5
83A
330
7F2
100
AcDbEntity
  8
0
  6
Continuous
 62
     7
100
AcDbLine
 10
315.197199381311
 20
57.96430289102556
 30
0.0
 11
315.197199381311
 21
68.96430289102557
 31
0.0
  0
LINE
  5
83B
330
7F2
100
AcDbEntity
  8
0
  6
Continuous
 62
     7
100
AcDbLine
 10
315.197199381311
 20
77.96430289102556
 30
0.0
 11
315.197199381311
 21
102.9643028910255
 31
0.0
  0
LINE
  5
83C
330
7F2
100
AcDbEntity
  8
0
  6
Continuous
 62
     7
100
AcDbLine
 10
326.1971993813111
 20
102.9643028910255
 30
0.0
 11
326.1971993813111
 21
73.96430289102557
 31
0.0
  0
LINE
  5
83D
330
7F2
100
AcDbEntity
  8
0
  6
Continuous
 62
     7
100
AcDbLine
 10
326.1971993813111
 20
64.96430289102557
 30
0.0
 11
326.1971993813111
 21
57.96430289102556
 31
0.0
  0
LINE
  5
83E
330
7F2
100
AcDbEntity
  8
0
  6
Continuous
 62
     7
100
AcDbLine
 10
331.1971993813111
 20
57.96430289102556
 30
0.0
 11
331.1971993813111
 21
64.96430289102557
 31
0.0
  0
LINE
  5
83F
330
7F2
100
AcDbEntity
  8
0
  6
Continuous
 62
     7
100
AcDbLine
 10
331.1971993813111
 20
73.96430289102557
 30
0.0
 11
331.1971993813111
 21
102.9643028910255
 31
0.0
  0
LINE
  5
840
330
7F2
100
AcDbEntity
  8
0
  6
Continuous
 62
     7
100
AcDbLine
 10
342.1971993813111
 20
102.9643028910255
 30
0.0
 11
342.1971993813111
 21
71.96430289102557
 31
0.0
  0
LINE
  5
841
330
7F2
100
AcDbEntity
  8
0
  6
Continuous
 62
     7
100
AcDbLine
 10
342.1971993813111
 20
62.96430289102556
 30
0.0
 11
342.1971993813111
 21
57.96430289102556
 31
0.0
  0
LINE
  5
842
330
7F2
100
AcDbEntity
  8
0
  6
Continuous
 62
     7
100
AcDbLine
 10
347.1971993813111
 20
57.96430289102556
 30
0.0
 11
347.1971993813111
 21
62.96430289102556
 31
0.0
  0
LINE
  5
843
330
7F2
100
AcDbEntity
  8
0
  6
Continuous
 62
     7
100
AcDbLine
 10
347.1971993813111
 20
71.96430289102557
 30
0.0
 11
347.1971993813111
 21
102.9643028910255
 31
0.0
  0
LINE
  5
844
102
{ACAD_REACTORS
330
955
330
958
102
}
330
7F2
100
AcDbEntity
  8
0
  6
Continuous
 62
     7
100
AcDbLine
 10
707.6971993813107
 20
49.71430289102556
 30
0.0
 11
29.69719938131106
 21
49.71430289102556
 31
0.0
  0
LINE
  5
845
330
7F2
100
AcDbEntity
  8
BEZUGSACHSEN
  6
Continuous
 62
     9
100
AcDbLine
 10
707.6971993813107
 20
53.65672773242557
 30
0.0
 11
29.69719938131106
 21
53.65672773242557
 31
0.0
  0
LINE
  5
846
330
7F2
100
AcDbEntity
  8
BEZUGSACHSEN
  6
Continuous
 62
     9
100
AcDbLine
 10
707.6971993813107
 20
54.65715089972555
 30
0.0
 11
29.69719938131106
 21
54.65715089972555
 31
0.0
  0
LINE
  5
847
330
7F2
100
AcDbEntity
  8
0
  6
Continuous
 62
     7
100
AcDbLine
 10
678.6972731022107
 20
56.46430289102557
 30
0.0
 11
679.6212836436108
 21
56.46430289102557
 31
0.0
  0
LINE
  5
848
330
7F2
100
AcDbEntity
  8
0
  6
Continuous
 62
     7
100
AcDbLine
 10
683.775115131911
 20
56.46430289102557
 30
0.0
 11
684.6981256603108
 21
56.46430289102557
 31
0.0
  0
LINE
  5
849
330
7F2
100
AcDbEntity
  8
0
  6
Continuous
 62
     7
100
AcDbLine
 10
679.6794904560107
 20
57.29730289102556
 30
0.0
 11
683.716917407811
 21
57.29730289102556
 31
0.0
  0
LINE
  5
84A
330
7F2
100
AcDbEntity
  8
0
  6
Continuous
 62
     7
100
AcDbLine
 10
683.5226621659111
 20
58.22030289102556
 30
0.0
 11
679.873777266411
 21
58.22030289102556
 31
0.0
  0
LINE
  5
84B
330
7F2
100
AcDbEntity
  8
0
  6
Continuous
 62
     7
100
AcDbLine
 10
358.1971993813111
 20
102.9643028910255
 30
0.0
 11
358.1971993813111
 21
70.96430289102556
 31
0.0
  0
LINE
  5
84C
330
7F2
100
AcDbEntity
  8
0
  6
Continuous
 62
     7
100
AcDbLine
 10
358.1971993813111
 20
61.96430289102558
 30
0.0
 11
358.1971993813111
 21
57.96430289102556
 31
0.0
  0
LINE
  5
84D
330
7F2
100
AcDbEntity
  8
0
  6
Continuous
 62
     7
100
AcDbLine
 10
363.197199381311
 20
57.96430289102556
 30
0.0
 11
363.197199381311
 21
61.96430289102558
 31
0.0
  0
LINE
  5
84E
330
7F2
100
AcDbEntity
  8
0
  6
Continuous
 62
     7
100
AcDbLine
 10
363.197199381311
 20
70.96430289102556
 30
0.0
 11
363.197199381311
 21
102.9643028910255
 31
0.0
  0
LINE
  5
84F
330
7F2
100
AcDbEntity
  8
0
  6
Continuous
 62
     7
100
AcDbLine
 10
374.1971993813111
 20
102.9643028910255
 30
0.0
 11
374.1971993813111
 21
69.96430289102557
 31
0.0
  0
LINE
  5
850
330
7F2
100
AcDbEntity
  8
0
  6
Continuous
 62
     7
100
AcDbLine
 10
374.1971993813111
 20
60.96430289102556
 30
0.0
 11
374.1971993813111
 21
57.96430289102556
 31
0.0
  0
LINE
  5
851
330
7F2
100
AcDbEntity
  8
0
  6
Continuous
 62
     7
100
AcDbLine
 10
379.1971993813111
 20
57.96430289102556
 30
0.0
 11
379.1971993813111
 21
60.96430289102556
 31
0.0
  0
LINE
  5
852
330
7F2
100
AcDbEntity
  8
0
  6
Continuous
 62
     7
100
AcDbLine
 10
379.1971993813111
 20
69.96430289102557
 30
0.0
 11
379.1971993813111
 21
102.9643028910255
 31
0.0
  0
LINE
  5
853
330
7F2
100
AcDbEntity
  8
0
  6
Continuous
 62
     7
100
AcDbLine
 10
390.1971993813111
 20
102.9643028910255
 30
0.0
 11
390.1971993813111
 21
70.96430289102556
 31
0.0
  0
LINE
  5
854
330
7F2
100
AcDbEntity
  8
0
  6
Continuous
 62
     7
100
AcDbLine
 10
390.1971993813111
 20
61.96430289102558
 30
0.0
 11
390.1971993813111
 21
57.96430289102556
 31
0.0
  0
LINE
  5
855
330
7F2
100
AcDbEntity
  8
0
  6
Continuous
 62
     7
100
AcDbLine
 10
395.1971993813111
 20
57.96430289102556
 30
0.0
 11
395.1971993813111
 21
61.96430289102558
 31
0.0
  0
LINE
  5
856
330
7F2
100
AcDbEntity
  8
0
  6
Continuous
 62
     7
100
AcDbLine
 10
395.1971993813111
 20
70.96430289102556
 30
0.0
 11
395.1971993813111
 21
102.9643028910255
 31
0.0
  0
LINE
  5
857
330
7F2
100
AcDbEntity
  8
0
  6
Continuous
 62
     7
100
AcDbLine
 10
406.1971993813108
 20
102.9643028910255
 30
0.0
 11
406.1971993813108
 21
71.96430289102557
 31
0.0
  0
LINE
  5
858
330
7F2
100
AcDbEntity
  8
0
  6
Continuous
 62
     7
100
AcDbLine
 10
406.1971993813108
 20
62.96430289102556
 30
0.0
 11
406.1971993813108
 21
57.96430289102556
 31
0.0
  0
LINE
  5
859
330
7F2
100
AcDbEntity
  8
0
  6
Continuous
 62
     7
100
AcDbLine
 10
411.197199381311
 20
57.96430289102556
 30
0.0
 11
411.197199381311
 21
62.96430289102556
 31
0.0
  0
LINE
  5
85A
330
7F2
100
AcDbEntity
  8
0
  6
Continuous
 62
     7
100
AcDbLine
 10
411.197199381311
 20
71.96430289102557
 30
0.0
 11
411.197199381311
 21
102.9643028910255
 31
0.0
  0
LINE
  5
85B
330
7F2
100
AcDbEntity
  8
BEZUGSACHSEN
  6
Continuous
 62
     9
100
AcDbLine
 10
707.6971993813107
 20
106.2714548822255
 30
0.0
 11
29.69719938131106
 21
106.2714548822255
 31
0.0
  0
LINE
  5
85C
330
7F2
100
AcDbEntity
  8
BEZUGSACHSEN
  6
Continuous
 62
     9
100
AcDbLine
 10
707.6971993813107
 20
107.2718780495255
 30
0.0
 11
29.69719938131106
 21
107.2718780495255
 31
0.0
  0
LINE
  5
85D
330
7F2
100
AcDbEntity
  8
0
  6
Continuous
 62
     7
100
AcDbLine
 10
707.6971993813107
 20
111.2143028910255
 30
0.0
 11
29.69719938131106
 21
111.2143028910255
 31
0.0
  0
LINE
  5
85E
330
7F2
100
AcDbEntity
  8
0
  6
Continuous
 62
     7
100
AcDbLine
 10
422.1971993813109
 20
102.9643028910255
 30
0.0
 11
422.1971993813109
 21
73.96430289102557
 31
0.0
  0
LINE
  5
85F
330
7F2
100
AcDbEntity
  8
0
  6
Continuous
 62
     7
100
AcDbLine
 10
422.1971993813109
 20
64.96430289102557
 30
0.0
 11
422.1971993813109
 21
57.96430289102556
 31
0.0
  0
LINE
  5
860
330
7F2
100
AcDbEntity
  8
0
  6
Continuous
 62
     7
100
AcDbLine
 10
427.1971993813107
 20
57.96430289102556
 30
0.0
 11
427.1971993813107
 21
64.96430289102557
 31
0.0
  0
LINE
  5
861
330
7F2
100
AcDbEntity
  8
0
  6
Continuous
 62
     7
100
AcDbLine
 10
427.1971993813107
 20
73.96430289102557
 30
0.0
 11
427.1971993813107
 21
102.9643028910255
 31
0.0
  0
LINE
  5
862
330
7F2
100
AcDbEntity
  8
0
  6
Continuous
 62
     7
100
AcDbLine
 10
438.197199381311
 20
102.9643028910255
 30
0.0
 11
438.197199381311
 21
77.96430289102556
 31
0.0
  0
LINE
  5
863
330
7F2
100
AcDbEntity
  8
0
  6
Continuous
 62
     7
100
AcDbLine
 10
438.197199381311
 20
68.96430289102557
 30
0.0
 11
438.197199381311
 21
57.96430289102556
 31
0.0
  0
LINE
  5
864
330
7F2
100
AcDbEntity
  8
0
  6
Continuous
 62
     7
100
AcDbLine
 10
443.1971993813109
 20
57.96430289102556
 30
0.0
 11
443.1971993813109
 21
68.96430289102557
 31
0.0
  0
LINE
  5
865
330
7F2
100
AcDbEntity
  8
0
  6
Continuous
 62
     7
100
AcDbLine
 10
443.1971993813109
 20
77.96430289102556
 30
0.0
 11
443.1971993813109
 21
102.9643028910255
 31
0.0
  0
LINE
  5
866
330
7F2
100
AcDbEntity
  8
0
  6
Continuous
 62
     7
100
AcDbLine
 10
454.1971993813111
 20
102.9643028910255
 30
0.0
 11
454.1971993813111
 21
81.96430289102556
 31
0.0
  0
LINE
  5
867
330
7F2
100
AcDbEntity
  8
0
  6
Continuous
 62
     7
100
AcDbLine
 10
454.1971993813111
 20
72.96430289102556
 30
0.0
 11
454.1971993813111
 21
57.96430289102556
 31
0.0
  0
LINE
  5
868
330
7F2
100
AcDbEntity
  8
0
  6
Continuous
 62
     7
100
AcDbLine
 10
459.197199381311
 20
57.96430289102556
 30
0.0
 11
459.197199381311
 21
72.96430289102556
 31
0.0
  0
LINE
  5
869
330
7F2
100
AcDbEntity
  8
0
  6
Continuous
 62
     7
100
AcDbLine
 10
459.197199381311
 20
81.96430289102556
 30
0.0
 11
459.197199381311
 21
102.9643028910255
 31
0.0
  0
LINE
  5
86A
330
7F2
100
AcDbEntity
  8
0
  6
Continuous
 62
     7
100
AcDbLine
 10
470.197199381311
 20
102.9643028910255
 30
0.0
 11
470.197199381311
 21
87.96430289102557
 31
0.0
  0
LINE
  5
86B
330
7F2
100
AcDbEntity
  8
0
  6
Continuous
 62
     7
100
AcDbLine
 10
470.197199381311
 20
78.96430289102557
 30
0.0
 11
470.197199381311
 21
57.96430289102556
 31
0.0
  0
LINE
  5
86C
330
7F2
100
AcDbEntity
  8
0
  6
Continuous
 62
     7
100
AcDbLine
 10
475.1971993813111
 20
57.96430289102556
 30
0.0
 11
475.1971993813111
 21
78.96430289102557
 31
0.0
  0
LINE
  5
86D
330
7F2
100
AcDbEntity
  8
0
  6
Continuous
 62
     7
100
AcDbLine
 10
475.1971993813111
 20
87.96430289102557
 30
0.0
 11
475.1971993813111
 21
102.9643028910255
 31
0.0
  0
LINE
  5
86E
330
7F2
100
AcDbEntity
  8
0
  6
Continuous
 62
     7
100
AcDbLine
 10
486.197199381311
 20
102.9643028910255
 30
0.0
 11
486.197199381311
 21
91.96430289102556
 31
0.0
  0
LINE
  5
86F
330
7F2
100
AcDbEntity
  8
0
  6
Continuous
 62
     7
100
AcDbLine
 10
486.197199381311
 20
82.96430289102557
 30
0.0
 11
486.197199381311
 21
57.96430289102556
 31
0.0
  0
LINE
  5
870
330
7F2
100
AcDbEntity
  8
0
  6
Continuous
 62
     7
100
AcDbLine
 10
491.197199381311
 20
57.96430289102556
 30
0.0
 11
491.197199381311
 21
82.96430289102557
 31
0.0
  0
LINE
  5
871
330
7F2
100
AcDbEntity
  8
0
  6
Continuous
 62
     7
100
AcDbLine
 10
491.197199381311
 20
91.96430289102556
 30
0.0
 11
491.197199381311
 21
102.9643028910255
 31
0.0
  0
LINE
  5
872
330
7F2
100
AcDbEntity
  8
0
  6
Continuous
 62
     7
100
AcDbLine
 10
502.1971993813107
 20
102.9643028910255
 30
0.0
 11
502.1971993813107
 21
95.96430289102556
 31
0.0
  0
LINE
  5
873
330
7F2
100
AcDbEntity
  8
0
  6
Continuous
 62
     7
100
AcDbLine
 10
502.1971993813107
 20
86.96430289102556
 30
0.0
 11
502.1971993813107
 21
57.96430289102556
 31
0.0
  0
LINE
  5
874
330
7F2
100
AcDbEntity
  8
0
  6
Continuous
 62
     7
100
AcDbLine
 10
507.197199381311
 20
57.96430289102556
 30
0.0
 11
507.197199381311
 21
86.96430289102556
 31
0.0
  0
LINE
  5
875
330
7F2
100
AcDbEntity
  8
0
  6
Continuous
 62
     7
100
AcDbLine
 10
507.197199381311
 20
95.96430289102556
 30
0.0
 11
507.197199381311
 21
102.9643028910255
 31
0.0
  0
LINE
  5
876
330
7F2
100
AcDbEntity
  8
0
  6
Continuous
 62
     7
100
AcDbLine
 10
518.1971993813108
 20
102.9643028910255
 30
0.0
 11
518.1971993813108
 21
97.96430289102557
 31
0.0
  0
LINE
  5
877
330
7F2
100
AcDbEntity
  8
0
  6
Continuous
 62
     7
100
AcDbLine
 10
518.1971993813108
 20
88.96430289102557
 30
0.0
 11
518.1971993813108
 21
57.96430289102556
 31
0.0
  0
LINE
  5
878
330
7F2
100
AcDbEntity
  8
0
  6
Continuous
 62
     7
100
AcDbLine
 10
523.197199381311
 20
57.96430289102556
 30
0.0
 11
523.197199381311
 21
88.96430289102557
 31
0.0
  0
LINE
  5
879
330
7F2
100
AcDbEntity
  8
0
  6
Continuous
 62
     7
100
AcDbLine
 10
523.197199381311
 20
97.96430289102557
 30
0.0
 11
523.197199381311
 21
102.9643028910255
 31
0.0
  0
LINE
  5
87A
330
7F2
100
AcDbEntity
  8
0
  6
Continuous
 62
     7
100
AcDbLine
 10
692.797558395011
 20
58.00479274922555
 30
0.0
 11
691.9977839288109
 21
58.46654275262557
 31
0.0
  0
LINE
  5
87B
330
7F2
100
AcDbEntity
  8
0
  6
Continuous
 62
     7
100
AcDbLine
 10
534.197199381311
 20
102.9643028910255
 30
0.0
 11
534.197199381311
 21
98.96430289102557
 31
0.0
  0
LINE
  5
87C
330
7F2
100
AcDbEntity
  8
0
  6
Continuous
 62
     7
100
AcDbLine
 10
534.197199381311
 20
89.96430289102557
 30
0.0
 11
534.197199381311
 21
57.96430289102556
 31
0.0
  0
LINE
  5
87D
330
7F2
100
AcDbEntity
  8
0
  6
Continuous
 62
     7
100
AcDbLine
 10
539.1971993813108
 20
57.96430289102556
 30
0.0
 11
539.1971993813108
 21
89.96430289102557
 31
0.0
  0
LINE
  5
87E
330
7F2
100
AcDbEntity
  8
0
  6
Continuous
 62
     7
100
AcDbLine
 10
539.1971993813108
 20
98.96430289102557
 30
0.0
 11
539.1971993813108
 21
102.9643028910255
 31
0.0
  0
LINE
  5
87F
330
7F2
100
AcDbEntity
  8
0
  6
Continuous
 62
     7
100
AcDbLine
 10
550.1971993813111
 20
102.9643028910255
 30
0.0
 11
550.1971993813111
 21
99.96430289102557
 31
0.0
  0
LINE
  5
880
330
7F2
100
AcDbEntity
  8
0
  6
Continuous
 62
     7
100
AcDbLine
 10
550.1971993813111
 20
90.96430289102556
 30
0.0
 11
550.1971993813111
 21
57.96430289102556
 31
0.0
  0
LINE
  5
881
330
7F2
100
AcDbEntity
  8
0
  6
Continuous
 62
     7
100
AcDbLine
 10
691.9784374186107
 20
60.57686297162553
 30
0.0
 11
692.778306411411
 21
61.03866754992555
 31
0.0
  0
LINE
  5
882
330
7F2
100
AcDbEntity
  8
0
  6
Continuous
 62
     7
100
AcDbLine
 10
555.197199381311
 20
57.96430289102556
 30
0.0
 11
555.197199381311
 21
90.96430289102556
 31
0.0
  0
LINE
  5
883
330
7F2
100
AcDbEntity
  8
0
  6
Continuous
 62
     7
100
AcDbLine
 10
555.197199381311
 20
99.96430289102557
 30
0.0
 11
555.197199381311
 21
102.9643028910255
 31
0.0
  0
LINE
  5
884
330
7F2
100
AcDbEntity
  8
0
  6
Continuous
 62
     7
100
AcDbLine
 10
566.1971993813107
 20
102.9643028910255
 30
0.0
 11
566.1971993813107
 21
98.96430289102557
 31
0.0
  0
LINE
  5
885
330
7F2
100
AcDbEntity
  8
0
  6
Continuous
 62
     7
100
AcDbLine
 10
566.1971993813107
 20
89.96430289102557
 30
0.0
 11
566.1971993813107
 21
57.96430289102556
 31
0.0
  0
LINE
  5
886
330
7F2
100
AcDbEntity
  8
0
  6
Continuous
 62
     7
100
AcDbLine
 10
571.1971993813107
 20
57.96430289102556
 30
0.0
 11
571.1971993813107
 21
89.96430289102557
 31
0.0
  0
LINE
  5
887
330
7F2
100
AcDbEntity
  8
0
  6
Continuous
 62
     7
100
AcDbLine
 10
571.1971993813107
 20
98.96430289102557
 30
0.0
 11
571.1971993813107
 21
102.9643028910255
 31
0.0
  0
LINE
  5
888
330
7F2
100
AcDbEntity
  8
0
  6
Continuous
 62
     7
100
AcDbLine
 10
582.1971993813106
 20
102.9643028910255
 30
0.0
 11
582.1971993813106
 21
97.96430289102557
 31
0.0
  0
LINE
  5
889
330
7F2
100
AcDbEntity
  8
0
  6
Continuous
 62
     7
100
AcDbLine
 10
582.1971993813106
 20
88.96430289102557
 30
0.0
 11
582.1971993813106
 21
57.96430289102556
 31
0.0
  0
LINE
  5
88A
330
7F2
100
AcDbEntity
  8
0
  6
Continuous
 62
     7
100
AcDbLine
 10
587.1971993813107
 20
57.96430289102556
 30
0.0
 11
587.1971993813107
 21
88.96430289102557
 31
0.0
  0
LINE
  5
88B
330
7F2
100
AcDbEntity
  8
0
  6
Continuous
 62
     7
100
AcDbLine
 10
587.1971993813107
 20
97.96430289102557
 30
0.0
 11
587.1971993813107
 21
102.9643028910255
 31
0.0
  0
LINE
  5
88C
330
7F2
100
AcDbEntity
  8
0
  6
Continuous
 62
     7
100
AcDbLine
 10
598.1971993813107
 20
102.9643028910255
 30
0.0
 11
598.1971993813107
 21
95.96430289102556
 31
0.0
  0
LINE
  5
88D
330
7F2
100
AcDbEntity
  8
0
  6
Continuous
 62
     7
100
AcDbLine
 10
598.1971993813107
 20
86.96430289102556
 30
0.0
 11
598.1971993813107
 21
57.96430289102556
 31
0.0
  0
LINE
  5
88E
330
7F2
100
AcDbEntity
  8
0
  6
Continuous
 62
     7
100
AcDbLine
 10
603.197199381311
 20
57.96430289102556
 30
0.0
 11
603.197199381311
 21
86.96430289102556
 31
0.0
  0
LINE
  5
88F
330
7F2
100
AcDbEntity
  8
0
  6
Continuous
 62
     7
100
AcDbLine
 10
603.197199381311
 20
95.96430289102556
 30
0.0
 11
603.197199381311
 21
102.9643028910255
 31
0.0
  0
LINE
  5
890
330
7F2
100
AcDbEntity
  8
0
  6
Continuous
 62
     7
100
AcDbLine
 10
614.1971993813107
 20
102.9643028910255
 30
0.0
 11
614.1971993813107
 21
91.96430289102556
 31
0.0
  0
LINE
  5
891
330
7F2
100
AcDbEntity
  8
0
  6
Continuous
 62
     7
100
AcDbLine
 10
614.1971993813107
 20
82.96430289102557
 30
0.0
 11
614.1971993813107
 21
57.96430289102556
 31
0.0
  0
LINE
  5
892
330
7F2
100
AcDbEntity
  8
0
  6
Continuous
 62
     7
100
AcDbLine
 10
619.1971993813107
 20
57.96430289102556
 30
0.0
 11
619.1971993813107
 21
82.96430289102557
 31
0.0
  0
LINE
  5
893
330
7F2
100
AcDbEntity
  8
0
  6
Continuous
 62
     7
100
AcDbLine
 10
619.1971993813107
 20
91.96430289102556
 30
0.0
 11
619.1971993813107
 21
102.9643028910255
 31
0.0
  0
LINE
  5
894
330
7F2
100
AcDbEntity
  8
0
  6
Continuous
 62
     7
100
AcDbLine
 10
630.1971993813107
 20
102.9643028910255
 30
0.0
 11
630.1971993813107
 21
87.96430289102557
 31
0.0
  0
LINE
  5
895
330
7F2
100
AcDbEntity
  8
0
  6
Continuous
 62
     7
100
AcDbLine
 10
630.1971993813107
 20
78.96430289102557
 30
0.0
 11
630.1971993813107
 21
57.96430289102556
 31
0.0
  0
LINE
  5
896
330
7F2
100
AcDbEntity
  8
0
  6
Continuous
 62
     7
100
AcDbLine
 10
635.1971993813107
 20
57.96430289102556
 30
0.0
 11
635.1971993813107
 21
78.96430289102557
 31
0.0
  0
LINE
  5
897
330
7F2
100
AcDbEntity
  8
0
  6
Continuous
 62
     7
100
AcDbLine
 10
635.1971993813107
 20
87.96430289102557
 30
0.0
 11
635.1971993813107
 21
102.9643028910255
 31
0.0
  0
LINE
  5
898
330
7F2
100
AcDbEntity
  8
0
  6
Continuous
 62
     7
100
AcDbLine
 10
646.1971993813107
 20
102.9643028910255
 30
0.0
 11
646.1971993813107
 21
81.96430289102556
 31
0.0
  0
LINE
  5
899
330
7F2
100
AcDbEntity
  8
0
  6
Continuous
 62
     7
100
AcDbLine
 10
646.1971993813107
 20
72.96430289102556
 30
0.0
 11
646.1971993813107
 21
57.96430289102556
 31
0.0
  0
LINE
  5
89A
330
7F2
100
AcDbEntity
  8
0
  6
Continuous
 62
     7
100
AcDbLine
 10
651.1971993813107
 20
57.96430289102556
 30
0.0
 11
651.1971993813107
 21
72.96430289102556
 31
0.0
  0
LINE
  5
89B
330
7F2
100
AcDbEntity
  8
0
  6
Continuous
 62
     7
100
AcDbLine
 10
651.1971993813107
 20
81.96430289102556
 30
0.0
 11
651.1971993813107
 21
102.9643028910255
 31
0.0
  0
LINE
  5
89C
330
7F2
100
AcDbEntity
  8
0
  6
Continuous
 62
     7
100
AcDbLine
 10
662.1971993813107
 20
102.9643028910255
 30
0.0
 11
662.1971993813107
 21
77.96430289102556
 31
0.0
  0
LINE
  5
89D
330
7F2
100
AcDbEntity
  8
0
  6
Continuous
 62
     7
100
AcDbLine
 10
662.1971993813107
 20
68.96430289102557
 30
0.0
 11
662.1971993813107
 21
57.96430289102556
 31
0.0
  0
LINE
  5
89E
330
7F2
100
AcDbEntity
  8
0
  6
Continuous
 62
     7
100
AcDbLine
 10
667.1971993813107
 20
57.96430289102556
 30
0.0
 11
667.1971993813107
 21
68.96430289102557
 31
0.0
  0
LINE
  5
89F
330
7F2
100
AcDbEntity
  8
0
  6
Continuous
 62
     7
100
AcDbLine
 10
667.1971993813107
 20
77.96430289102556
 30
0.0
 11
667.1971993813107
 21
102.9643028910255
 31
0.0
  0
LINE
  5
8A0
330
7F2
100
AcDbEntity
  8
0
  6
Continuous
 62
     7
100
AcDbLine
 10
678.197199381311
 20
102.9643028910255
 30
0.0
 11
678.197199381311
 21
73.96430289102557
 31
0.0
  0
LINE
  5
8A1
330
7F2
100
AcDbEntity
  8
0
  6
Continuous
 62
     7
100
AcDbLine
 10
683.1971993813107
 20
73.96430289102557
 30
0.0
 11
683.1971993813107
 21
102.9643028910255
 31
0.0
  0
LINE
  5
8A2
330
7F2
100
AcDbEntity
  8
0
  6
Continuous
 62
     7
100
AcDbLine
 10
694.197199381311
 20
102.9643028910255
 30
0.0
 11
694.197199381311
 21
71.96430289102557
 31
0.0
  0
LINE
  5
8A3
330
7F2
100
AcDbEntity
  8
0
  6
Continuous
 62
     7
100
AcDbLine
 10
699.197199381311
 20
71.96430289102557
 30
0.0
 11
699.197199381311
 21
102.9643028910255
 31
0.0
  0
LINE
  5
8A4
330
7F2
100
AcDbEntity
  8
0
  6
Continuous
 62
     7
100
AcDbLine
 10
707.6971993813107
 20
49.71477603062556
 30
0.0
 11
707.6971993813107
 21
111.2138297513255
 31
0.0
  0
ARC
  5
8A5
330
7F2
100
AcDbEntity
  8
0
  6
Continuous
 62
     7
100
AcDbCircle
 10
184.697199381311
 20
57.96430289102556
 30
0.0
 40
2.5
100
AcDbArc
 50
180.0
 51
0.0
  0
ARC
  5
8A6
330
7F2
100
AcDbEntity
  8
0
  6
Continuous
 62
     7
100
AcDbCircle
 10
168.697199381311
 20
57.96430289102556
 30
0.0
 40
2.5
100
AcDbArc
 50
180.0
 51
0.0
  0
ARC
  5
8A7
330
7F2
100
AcDbEntity
  8
0
  6
Continuous
 62
     7
100
AcDbCircle
 10
152.697199381311
 20
57.96430289102556
 30
0.0
 40
2.5
100
AcDbArc
 50
180.0
 51
0.0
  0
ARC
  5
8A8
330
7F2
100
AcDbEntity
  8
0
  6
Continuous
 62
     7
100
AcDbCircle
 10
136.697199381311
 20
57.96430289102556
 30
0.0
 40
2.5
100
AcDbArc
 50
180.0
 51
0.0
  0
ARC
  5
8A9
330
7F2
100
AcDbEntity
  8
0
  6
Continuous
 62
     7
100
AcDbCircle
 10
120.697199381311
 20
57.96430289102556
 30
0.0
 40
2.5
100
AcDbArc
 50
180.0
 51
0.0
  0
ARC
  5
8AA
330
7F2
100
AcDbEntity
  8
0
  6
Continuous
 62
     7
100
AcDbCircle
 10
104.697199381311
 20
57.96430289102556
 30
0.0
 40
2.5
100
AcDbArc
 50
180.0
 51
0.0
  0
ARC
  5
8AB
330
7F2
100
AcDbEntity
  8
0
  6
Continuous
 62
     7
100
AcDbCircle
 10
88.69719938131105
 20
57.96430289102556
 30
0.0
 40
2.5
100
AcDbArc
 50
180.0
 51
0.0
  0
ARC
  5
8AC
330
7F2
100
AcDbEntity
  8
0
  6
Continuous
 62
     7
100
AcDbCircle
 10
72.69719938131105
 20
64.96430289102557
 30
0.0
 40
2.5
100
AcDbArc
 50
0.0
 51
180.0
  0
ARC
  5
8AD
330
7F2
100
AcDbEntity
  8
0
  6
Continuous
 62
     7
100
AcDbCircle
 10
72.69719938131105
 20
57.96430289102556
 30
0.0
 40
2.5
100
AcDbArc
 50
180.0
 51
0.0
  0
ARC
  5
8AE
330
7F2
100
AcDbEntity
  8
0
  6
Continuous
 62
     7
100
AcDbCircle
 10
56.69719938131104
 20
62.96430289102556
 30
0.0
 40
2.5
100
AcDbArc
 50
0.0
 51
180.0
  0
ARC
  5
8AF
330
7F2
100
AcDbEntity
  8
0
  6
Continuous
 62
     7
100
AcDbCircle
 10
56.69719938131104
 20
57.96430289102556
 30
0.0
 40
2.5
100
AcDbArc
 50
180.0
 51
0.0
  0
ARC
  5
8B0
330
7F2
100
AcDbEntity
  8
0
  6
Continuous
 62
     7
100
AcDbCircle
 10
40.69719938131103
 20
61.96430289102558
 30
0.0
 40
2.5
100
AcDbArc
 50
0.0
 51
180.0
  0
ARC
  5
8B1
330
7F2
100
AcDbEntity
  8
0
  6
Continuous
 62
     7
100
AcDbCircle
 10
40.69719938131103
 20
57.96430289102556
 30
0.0
 40
2.5
100
AcDbArc
 50
180.0
 51
0.0
  0
ARC
  5
8B2
330
7F2
100
AcDbEntity
  8
0
  6
Continuous
 62
     7
100
AcDbCircle
 10
120.697199381311
 20
78.96430289102557
 30
0.0
 40
2.5
100
AcDbArc
 50
0.0
 51
180.0
  0
ARC
  5
8B3
330
7F2
100
AcDbEntity
  8
0
  6
Continuous
 62
     7
100
AcDbCircle
 10
104.697199381311
 20
72.96430289102556
 30
0.0
 40
2.5
100
AcDbArc
 50
0.0
 51
180.0
  0
ARC
  5
8B4
330
7F2
100
AcDbEntity
  8
0
  6
Continuous
 62
     7
100
AcDbCircle
 10
88.69719938131105
 20
68.96430289102557
 30
0.0
 40
2.5
100
AcDbArc
 50
0.0
 51
180.0
  0
ARC
  5
8B5
330
7F2
100
AcDbEntity
  8
0
  6
Continuous
 62
     7
100
AcDbCircle
 10
40.69719938131103
 20
70.96430289102556
 30
0.0
 40
2.5
100
AcDbArc
 50
180.0
 51
0.0
  0
ARC
  5
8B6
330
7F2
100
AcDbEntity
  8
0
  6
Continuous
 62
     7
100
AcDbCircle
 10
56.69719938131104
 20
71.96430289102557
 30
0.0
 40
2.5
100
AcDbArc
 50
180.0
 51
0.0
  0
ARC
  5
8B7
330
7F2
100
AcDbEntity
  8
0
  6
Continuous
 62
     7
100
AcDbCircle
 10
72.69719938131105
 20
73.96430289102557
 30
0.0
 40
2.5
100
AcDbArc
 50
180.0
 51
0.0
  0
ARC
  5
8B8
330
7F2
100
AcDbEntity
  8
0
  6
Continuous
 62
     7
100
AcDbCircle
 10
88.69719938131105
 20
77.96430289102556
 30
0.0
 40
2.5
100
AcDbArc
 50
180.0
 51
0.0
  0
ARC
  5
8B9
330
7F2
100
AcDbEntity
  8
0
  6
Continuous
 62
     7
100
AcDbCircle
 10
360.6971993813111
 20
61.96430289102558
 30
0.0
 40
2.5
100
AcDbArc
 50
0.0
 51
180.0
  0
ARC
  5
8BA
330
7F2
100
AcDbEntity
  8
0
  6
Continuous
 62
     7
100
AcDbCircle
 10
360.6971993813111
 20
57.96430289102556
 30
0.0
 40
2.5
100
AcDbArc
 50
180.0
 51
0.0
  0
ARC
  5
8BB
330
7F2
100
AcDbEntity
  8
0
  6
Continuous
 62
     7
100
AcDbCircle
 10
344.6971993813111
 20
62.96430289102556
 30
0.0
 40
2.5
100
AcDbArc
 50
0.0
 51
180.0
  0
ARC
  5
8BC
330
7F2
100
AcDbEntity
  8
0
  6
Continuous
 62
     7
100
AcDbCircle
 10
344.6971993813111
 20
57.96430289102556
 30
0.0
 40
2.5
100
AcDbArc
 50
180.0
 51
0.0
  0
ARC
  5
8BD
330
7F2
100
AcDbEntity
  8
0
  6
Continuous
 62
     7
100
AcDbCircle
 10
328.6971993813111
 20
64.96430289102557
 30
0.0
 40
2.5
100
AcDbArc
 50
0.0
 51
180.0
  0
ARC
  5
8BE
330
7F2
100
AcDbEntity
  8
0
  6
Continuous
 62
     7
100
AcDbCircle
 10
328.6971993813111
 20
57.96430289102556
 30
0.0
 40
2.5
100
AcDbArc
 50
180.0
 51
0.0
  0
ARC
  5
8BF
330
7F2
100
AcDbEntity
  8
0
  6
Continuous
 62
     7
100
AcDbCircle
 10
312.6971993813111
 20
57.96430289102556
 30
0.0
 40
2.5
100
AcDbArc
 50
180.0
 51
0.0
  0
ARC
  5
8C0
330
7F2
100
AcDbEntity
  8
0
  6
Continuous
 62
     7
100
AcDbCircle
 10
296.697199381311
 20
57.96430289102556
 30
0.0
 40
2.5
100
AcDbArc
 50
180.0
 51
0.0
  0
ARC
  5
8C1
330
7F2
100
AcDbEntity
  8
0
  6
Continuous
 62
     7
100
AcDbCircle
 10
280.6971993813111
 20
57.96430289102556
 30
0.0
 40
2.5
100
AcDbArc
 50
180.0
 51
0.0
  0
ARC
  5
8C2
330
7F2
100
AcDbEntity
  8
0
  6
Continuous
 62
     7
100
AcDbCircle
 10
264.6971993813111
 20
57.96430289102556
 30
0.0
 40
2.5
100
AcDbArc
 50
180.0
 51
0.0
  0
ARC
  5
8C3
330
7F2
100
AcDbEntity
  8
0
  6
Continuous
 62
     7
100
AcDbCircle
 10
248.697199381311
 20
57.96430289102556
 30
0.0
 40
2.5
100
AcDbArc
 50
180.0
 51
0.0
  0
ARC
  5
8C4
330
7F2
100
AcDbEntity
  8
0
  6
Continuous
 62
     7
100
AcDbCircle
 10
232.6971993813111
 20
57.96430289102556
 30
0.0
 40
2.5
100
AcDbArc
 50
180.0
 51
0.0
  0
ARC
  5
8C5
330
7F2
100
AcDbEntity
  8
0
  6
Continuous
 62
     7
100
AcDbCircle
 10
216.6971993813111
 20
57.96430289102556
 30
0.0
 40
2.5
100
AcDbArc
 50
180.0
 51
0.0
  0
ARC
  5
8C6
330
7F2
100
AcDbEntity
  8
0
  6
Continuous
 62
     7
100
AcDbCircle
 10
200.697199381311
 20
57.96430289102556
 30
0.0
 40
2.5
100
AcDbArc
 50
180.0
 51
0.0
  0
ARC
  5
8C7
330
7F2
100
AcDbEntity
  8
0
  6
Continuous
 62
     7
100
AcDbCircle
 10
312.6971993813111
 20
68.96430289102557
 30
0.0
 40
2.5
100
AcDbArc
 50
0.0
 51
180.0
  0
ARC
  5
8C8
330
7F2
100
AcDbEntity
  8
0
  6
Continuous
 62
     7
100
AcDbCircle
 10
296.697199381311
 20
72.96430289102556
 30
0.0
 40
2.5
100
AcDbArc
 50
0.0
 51
180.0
  0
ARC
  5
8C9
330
7F2
100
AcDbEntity
  8
0
  6
Continuous
 62
     7
100
AcDbCircle
 10
280.6971993813111
 20
78.96430289102557
 30
0.0
 40
2.5
100
AcDbArc
 50
0.0
 51
180.0
  0
ARC
  5
8CA
330
7F2
100
AcDbEntity
  8
0
  6
Continuous
 62
     7
100
AcDbCircle
 10
312.6971993813111
 20
77.96430289102556
 30
0.0
 40
2.5
100
AcDbArc
 50
180.0
 51
0.0
  0
ARC
  5
8CB
330
7F2
100
AcDbEntity
  8
0
  6
Continuous
 62
     7
100
AcDbCircle
 10
328.6971993813111
 20
73.96430289102557
 30
0.0
 40
2.5
100
AcDbArc
 50
180.0
 51
0.0
  0
ARC
  5
8CC
330
7F2
100
AcDbEntity
  8
0
  6
Continuous
 62
     7
100
AcDbCircle
 10
344.6971993813111
 20
71.96430289102557
 30
0.0
 40
2.5
100
AcDbArc
 50
180.0
 51
0.0
  0
ARC
  5
8CD
330
7F2
100
AcDbEntity
  8
0
  6
Continuous
 62
     7
100
AcDbCircle
 10
360.6971993813111
 20
70.96430289102556
 30
0.0
 40
2.5
100
AcDbArc
 50
180.0
 51
0.0
  0
ARC
  5
8CE
330
7F2
100
AcDbEntity
  8
0
  6
Continuous
 62
     7
100
AcDbCircle
 10
184.697199381311
 20
89.96430289102557
 30
0.0
 40
2.5
100
AcDbArc
 50
0.0
 51
180.0
  0
ARC
  5
8CF
330
7F2
100
AcDbEntity
  8
0
  6
Continuous
 62
     7
100
AcDbCircle
 10
168.697199381311
 20
88.96430289102557
 30
0.0
 40
2.5
100
AcDbArc
 50
0.0
 51
180.0
  0
ARC
  5
8D0
330
7F2
100
AcDbEntity
  8
0
  6
Continuous
 62
     7
100
AcDbCircle
 10
152.697199381311
 20
86.96430289102556
 30
0.0
 40
2.5
100
AcDbArc
 50
0.0
 51
180.0
  0
ARC
  5
8D1
330
7F2
100
AcDbEntity
  8
0
  6
Continuous
 62
     7
100
AcDbCircle
 10
136.697199381311
 20
82.96430289102557
 30
0.0
 40
2.5
100
AcDbArc
 50
0.0
 51
180.0
  0
ARC
  5
8D2
330
7F2
100
AcDbEntity
  8
0
  6
Continuous
 62
     7
100
AcDbCircle
 10
104.697199381311
 20
81.96430289102556
 30
0.0
 40
2.5
100
AcDbArc
 50
180.0
 51
0.0
  0
ARC
  5
8D3
330
7F2
100
AcDbEntity
  8
0
  6
Continuous
 62
     7
100
AcDbCircle
 10
120.697199381311
 20
87.96430289102557
 30
0.0
 40
2.5
100
AcDbArc
 50
180.0
 51
0.0
  0
ARC
  5
8D4
330
7F2
100
AcDbEntity
  8
0
  6
Continuous
 62
     7
100
AcDbCircle
 10
136.697199381311
 20
91.96430289102556
 30
0.0
 40
2.5
100
AcDbArc
 50
180.0
 51
0.0
  0
ARC
  5
8D5
330
7F2
100
AcDbEntity
  8
0
  6
Continuous
 62
     7
100
AcDbCircle
 10
40.69719938131103
 20
102.9643028910255
 30
0.0
 40
2.5
100
AcDbArc
 50
0.0
 51
180.0
  0
ARC
  5
8D6
330
7F2
100
AcDbEntity
  8
0
  6
Continuous
 62
     7
100
AcDbCircle
 10
56.69719938131104
 20
102.9643028910255
 30
0.0
 40
2.5
100
AcDbArc
 50
0.0
 51
180.0
  0
ARC
  5
8D7
330
7F2
100
AcDbEntity
  8
0
  6
Continuous
 62
     7
100
AcDbCircle
 10
72.69719938131105
 20
102.9643028910255
 30
0.0
 40
2.5
100
AcDbArc
 50
0.0
 51
180.0
  0
ARC
  5
8D8
330
7F2
100
AcDbEntity
  8
0
  6
Continuous
 62
     7
100
AcDbCircle
 10
88.69719938131105
 20
102.9643028910255
 30
0.0
 40
2.5
100
AcDbArc
 50
0.0
 51
180.0
  0
ARC
  5
8D9
330
7F2
100
AcDbEntity
  8
0
  6
Continuous
 62
     7
100
AcDbCircle
 10
104.697199381311
 20
102.9643028910255
 30
0.0
 40
2.5
100
AcDbArc
 50
0.0
 51
180.0
  0
ARC
  5
8DA
330
7F2
100
AcDbEntity
  8
0
  6
Continuous
 62
     7
100
AcDbCircle
 10
120.697199381311
 20
102.9643028910255
 30
0.0
 40
2.5
100
AcDbArc
 50
0.0
 51
180.0
  0
ARC
  5
8DB
330
7F2
100
AcDbEntity
  8
0
  6
Continuous
 62
     7
100
AcDbCircle
 10
136.697199381311
 20
102.9643028910255
 30
0.0
 40
2.5
100
AcDbArc
 50
0.0
 51
180.0
  0
ARC
  5
8DC
330
7F2
100
AcDbEntity
  8
0
  6
Continuous
 62
     7
100
AcDbCircle
 10
152.697199381311
 20
95.96430289102556
 30
0.0
 40
2.5
100
AcDbArc
 50
180.0
 51
0.0
  0
ARC
  5
8DD
330
7F2
100
AcDbEntity
  8
0
  6
Continuous
 62
     7
100
AcDbCircle
 10
152.697199381311
 20
102.9643028910255
 30
0.0
 40
2.5
100
AcDbArc
 50
0.0
 51
180.0
  0
ARC
  5
8DE
330
7F2
100
AcDbEntity
  8
0
  6
Continuous
 62
     7
100
AcDbCircle
 10
168.697199381311
 20
97.96430289102557
 30
0.0
 40
2.5
100
AcDbArc
 50
180.0
 51
0.0
  0
ARC
  5
8DF
330
7F2
100
AcDbEntity
  8
0
  6
Continuous
 62
     7
100
AcDbCircle
 10
168.697199381311
 20
102.9643028910255
 30
0.0
 40
2.5
100
AcDbArc
 50
0.0
 51
180.0
  0
ARC
  5
8E0
330
7F2
100
AcDbEntity
  8
0
  6
Continuous
 62
     7
100
AcDbCircle
 10
184.697199381311
 20
98.96430289102557
 30
0.0
 40
2.5
100
AcDbArc
 50
180.0
 51
0.0
  0
ARC
  5
8E1
330
7F2
100
AcDbEntity
  8
0
  6
Continuous
 62
     7
100
AcDbCircle
 10
184.697199381311
 20
102.9643028910255
 30
0.0
 40
2.5
100
AcDbArc
 50
0.0
 51
180.0
  0
ARC
  5
8E2
330
7F2
100
AcDbEntity
  8
0
  6
Continuous
 62
     7
100
AcDbCircle
 10
264.6971993813111
 20
82.96430289102557
 30
0.0
 40
2.5
100
AcDbArc
 50
0.0
 51
180.0
  0
ARC
  5
8E3
330
7F2
100
AcDbEntity
  8
0
  6
Continuous
 62
     7
100
AcDbCircle
 10
248.697199381311
 20
86.96430289102556
 30
0.0
 40
2.5
100
AcDbArc
 50
0.0
 51
180.0
  0
ARC
  5
8E4
330
7F2
100
AcDbEntity
  8
0
  6
Continuous
 62
     7
100
AcDbCircle
 10
232.6971993813111
 20
88.96430289102557
 30
0.0
 40
2.5
100
AcDbArc
 50
0.0
 51
180.0
  0
ARC
  5
8E5
330
7F2
100
AcDbEntity
  8
0
  6
Continuous
 62
     7
100
AcDbCircle
 10
216.6971993813111
 20
89.96430289102557
 30
0.0
 40
2.5
100
AcDbArc
 50
0.0
 51
180.0
  0
ARC
  5
8E6
330
7F2
100
AcDbEntity
  8
0
  6
Continuous
 62
     7
100
AcDbCircle
 10
200.697199381311
 20
90.96430289102556
 30
0.0
 40
2.5
100
AcDbArc
 50
0.0
 51
180.0
  0
ARC
  5
8E7
330
7F2
100
AcDbEntity
  8
0
  6
Continuous
 62
     7
100
AcDbCircle
 10
264.6971993813111
 20
91.96430289102556
 30
0.0
 40
2.5
100
AcDbArc
 50
180.0
 51
0.0
  0
ARC
  5
8E8
330
7F2
100
AcDbEntity
  8
0
  6
Continuous
 62
     7
100
AcDbCircle
 10
280.6971993813111
 20
87.96430289102557
 30
0.0
 40
2.5
100
AcDbArc
 50
180.0
 51
0.0
  0
ARC
  5
8E9
330
7F2
100
AcDbEntity
  8
0
  6
Continuous
 62
     7
100
AcDbCircle
 10
296.697199381311
 20
81.96430289102556
 30
0.0
 40
2.5
100
AcDbArc
 50
180.0
 51
0.0
  0
ARC
  5
8EA
330
7F2
100
AcDbEntity
  8
0
  6
Continuous
 62
     7
100
AcDbCircle
 10
200.697199381311
 20
99.96430289102557
 30
0.0
 40
2.5
100
AcDbArc
 50
180.0
 51
0.0
  0
ARC
  5
8EB
330
7F2
100
AcDbEntity
  8
0
  6
Continuous
 62
     7
100
AcDbCircle
 10
200.697199381311
 20
102.9643028910255
 30
0.0
 40
2.5
100
AcDbArc
 50
0.0
 51
180.0
  0
ARC
  5
8EC
330
7F2
100
AcDbEntity
  8
0
  6
Continuous
 62
     7
100
AcDbCircle
 10
216.6971993813111
 20
98.96430289102557
 30
0.0
 40
2.5
100
AcDbArc
 50
180.0
 51
0.0
  0
ARC
  5
8ED
330
7F2
100
AcDbEntity
  8
0
  6
Continuous
 62
     7
100
AcDbCircle
 10
216.6971993813111
 20
102.9643028910255
 30
0.0
 40
2.5
100
AcDbArc
 50
0.0
 51
180.0
  0
ARC
  5
8EE
330
7F2
100
AcDbEntity
  8
0
  6
Continuous
 62
     7
100
AcDbCircle
 10
232.6971993813111
 20
97.96430289102557
 30
0.0
 40
2.5
100
AcDbArc
 50
180.0
 51
0.0
  0
ARC
  5
8EF
330
7F2
100
AcDbEntity
  8
0
  6
Continuous
 62
     7
100
AcDbCircle
 10
232.6971993813111
 20
102.9643028910255
 30
0.0
 40
2.5
100
AcDbArc
 50
0.0
 51
180.0
  0
ARC
  5
8F0
330
7F2
100
AcDbEntity
  8
0
  6
Continuous
 62
     7
100
AcDbCircle
 10
248.697199381311
 20
95.96430289102556
 30
0.0
 40
2.5
100
AcDbArc
 50
180.0
 51
0.0
  0
ARC
  5
8F1
330
7F2
100
AcDbEntity
  8
0
  6
Continuous
 62
     7
100
AcDbCircle
 10
248.697199381311
 20
102.9643028910255
 30
0.0
 40
2.5
100
AcDbArc
 50
0.0
 51
180.0
  0
ARC
  5
8F2
330
7F2
100
AcDbEntity
  8
0
  6
Continuous
 62
     7
100
AcDbCircle
 10
264.6971993813111
 20
102.9643028910255
 30
0.0
 40
2.5
100
AcDbArc
 50
0.0
 51
180.0
  0
ARC
  5
8F3
330
7F2
100
AcDbEntity
  8
0
  6
Continuous
 62
     7
100
AcDbCircle
 10
280.6971993813111
 20
102.9643028910255
 30
0.0
 40
2.5
100
AcDbArc
 50
0.0
 51
180.0
  0
ARC
  5
8F4
330
7F2
100
AcDbEntity
  8
0
  6
Continuous
 62
     7
100
AcDbCircle
 10
296.697199381311
 20
102.9643028910255
 30
0.0
 40
2.5
100
AcDbArc
 50
0.0
 51
180.0
  0
ARC
  5
8F5
330
7F2
100
AcDbEntity
  8
0
  6
Continuous
 62
     7
100
AcDbCircle
 10
312.6971993813111
 20
102.9643028910255
 30
0.0
 40
2.5
100
AcDbArc
 50
0.0
 51
180.0
  0
ARC
  5
8F6
330
7F2
100
AcDbEntity
  8
0
  6
Continuous
 62
     7
100
AcDbCircle
 10
328.6971993813111
 20
102.9643028910255
 30
0.0
 40
2.5
100
AcDbArc
 50
0.0
 51
180.0
  0
ARC
  5
8F7
330
7F2
100
AcDbEntity
  8
0
  6
Continuous
 62
     7
100
AcDbCircle
 10
344.6971993813111
 20
102.9643028910255
 30
0.0
 40
2.5
100
AcDbArc
 50
0.0
 51
180.0
  0
ARC
  5
8F8
330
7F2
100
AcDbEntity
  8
0
  6
Continuous
 62
     7
100
AcDbCircle
 10
360.6971993813111
 20
102.9643028910255
 30
0.0
 40
2.5
100
AcDbArc
 50
0.0
 51
180.0
  0
ARC
  5
8F9
330
7F2
100
AcDbEntity
  8
0
  6
Continuous
 62
     7
100
AcDbCircle
 10
536.697199381311
 20
57.96430289102556
 30
0.0
 40
2.5
100
AcDbArc
 50
180.0
 51
0.0
  0
ARC
  5
8FA
330
7F2
100
AcDbEntity
  8
0
  6
Continuous
 62
     7
100
AcDbCircle
 10
520.6971993813108
 20
57.96430289102556
 30
0.0
 40
2.5
100
AcDbArc
 50
180.0
 51
0.0
  0
ARC
  5
8FB
330
7F2
100
AcDbEntity
  8
0
  6
Continuous
 62
     7
100
AcDbCircle
 10
504.6971993813111
 20
57.96430289102556
 30
0.0
 40
2.5
100
AcDbArc
 50
180.0
 51
0.0
  0
ARC
  5
8FC
330
7F2
100
AcDbEntity
  8
0
  6
Continuous
 62
     7
100
AcDbCircle
 10
488.6971993813109
 20
57.96430289102556
 30
0.0
 40
2.5
100
AcDbArc
 50
180.0
 51
0.0
  0
ARC
  5
8FD
330
7F2
100
AcDbEntity
  8
0
  6
Continuous
 62
     7
100
AcDbCircle
 10
472.6971993813108
 20
57.96430289102556
 30
0.0
 40
2.5
100
AcDbArc
 50
180.0
 51
0.0
  0
ARC
  5
8FE
330
7F2
100
AcDbEntity
  8
0
  6
Continuous
 62
     7
100
AcDbCircle
 10
456.697199381311
 20
57.96430289102556
 30
0.0
 40
2.5
100
AcDbArc
 50
180.0
 51
0.0
  0
ARC
  5
8FF
330
7F2
100
AcDbEntity
  8
0
  6
Continuous
 62
     7
100
AcDbCircle
 10
440.697199381311
 20
57.96430289102556
 30
0.0
 40
2.5
100
AcDbArc
 50
180.0
 51
0.0
  0
ARC
  5
900
330
7F2
100
AcDbEntity
  8
0
  6
Continuous
 62
     7
100
AcDbCircle
 10
424.697199381311
 20
64.96430289102557
 30
0.0
 40
2.5
100
AcDbArc
 50
0.0
 51
180.0
  0
ARC
  5
901
330
7F2
100
AcDbEntity
  8
0
  6
Continuous
 62
     7
100
AcDbCircle
 10
424.697199381311
 20
57.96430289102556
 30
0.0
 40
2.5
100
AcDbArc
 50
180.0
 51
0.0
  0
ARC
  5
902
330
7F2
100
AcDbEntity
  8
0
  6
Continuous
 62
     7
100
AcDbCircle
 10
408.6971993813111
 20
62.96430289102556
 30
0.0
 40
2.5
100
AcDbArc
 50
0.0
 51
180.0
  0
ARC
  5
903
330
7F2
100
AcDbEntity
  8
0
  6
Continuous
 62
     7
100
AcDbCircle
 10
408.6971993813111
 20
57.96430289102556
 30
0.0
 40
2.5
100
AcDbArc
 50
180.0
 51
0.0
  0
ARC
  5
904
330
7F2
100
AcDbEntity
  8
0
  6
Continuous
 62
     7
100
AcDbCircle
 10
392.6971993813111
 20
61.96430289102558
 30
0.0
 40
2.5
100
AcDbArc
 50
0.0
 51
180.0
  0
ARC
  5
905
330
7F2
100
AcDbEntity
  8
0
  6
Continuous
 62
     7
100
AcDbCircle
 10
392.6971993813111
 20
57.96430289102556
 30
0.0
 40
2.5
100
AcDbArc
 50
180.0
 51
0.0
  0
ARC
  5
906
330
7F2
100
AcDbEntity
  8
0
  6
Continuous
 62
     7
100
AcDbCircle
 10
376.6971993813111
 20
60.96430289102556
 30
0.0
 40
2.5
100
AcDbArc
 50
0.0
 51
180.0
  0
ARC
  5
907
330
7F2
100
AcDbEntity
  8
0
  6
Continuous
 62
     7
100
AcDbCircle
 10
376.6971993813111
 20
57.96430289102556
 30
0.0
 40
2.5
100
AcDbArc
 50
180.0
 51
0.0
  0
ARC
  5
908
330
7F2
100
AcDbEntity
  8
0
  6
Continuous
 62
     7
100
AcDbCircle
 10
472.6971993813108
 20
78.96430289102557
 30
0.0
 40
2.5
100
AcDbArc
 50
0.0
 51
180.0
  0
ARC
  5
909
330
7F2
100
AcDbEntity
  8
0
  6
Continuous
 62
     7
100
AcDbCircle
 10
456.697199381311
 20
72.96430289102556
 30
0.0
 40
2.5
100
AcDbArc
 50
0.0
 51
180.0
  0
ARC
  5
90A
330
7F2
100
AcDbEntity
  8
0
  6
Continuous
 62
     7
100
AcDbCircle
 10
440.697199381311
 20
68.96430289102557
 30
0.0
 40
2.5
100
AcDbArc
 50
0.0
 51
180.0
  0
ARC
  5
90B
330
7F2
100
AcDbEntity
  8
0
  6
Continuous
 62
     7
100
AcDbCircle
 10
376.6971993813111
 20
69.96430289102557
 30
0.0
 40
2.5
100
AcDbArc
 50
180.0
 51
0.0
  0
ARC
  5
90C
330
7F2
100
AcDbEntity
  8
0
  6
Continuous
 62
     7
100
AcDbCircle
 10
392.6971993813111
 20
70.96430289102556
 30
0.0
 40
2.5
100
AcDbArc
 50
180.0
 51
0.0
  0
ARC
  5
90D
330
7F2
100
AcDbEntity
  8
0
  6
Continuous
 62
     7
100
AcDbCircle
 10
408.6971993813111
 20
71.96430289102557
 30
0.0
 40
2.5
100
AcDbArc
 50
180.0
 51
0.0
  0
ARC
  5
90E
330
7F2
100
AcDbEntity
  8
0
  6
Continuous
 62
     7
100
AcDbCircle
 10
424.697199381311
 20
73.96430289102557
 30
0.0
 40
2.5
100
AcDbArc
 50
180.0
 51
0.0
  0
ARC
  5
90F
330
7F2
100
AcDbEntity
  8
0
  6
Continuous
 62
     7
100
AcDbCircle
 10
440.697199381311
 20
77.96430289102556
 30
0.0
 40
2.5
100
AcDbArc
 50
180.0
 51
0.0
  0
ARC
  5
910
330
7F2
100
AcDbEntity
  8
0
  6
Continuous
 62
     7
100
AcDbCircle
 10
686.0831993813109
 20
56.43130289102554
 30
0.0
 40
7.386
100
AcDbArc
 50
126.4241761856003
 51
179.7440066322
  0
ARC
  5
911
330
7F2
100
AcDbEntity
  8
0
  6
Continuous
 62
     7
100
AcDbCircle
 10
677.3121993813107
 20
56.43130289102554
 30
0.0
 40
7.386
100
AcDbArc
 50
0.2559933677999258
 51
53.57582381439963
  0
ARC
  5
912
330
7F2
100
AcDbEntity
  8
0
  6
Continuous
 62
     7
100
AcDbCircle
 10
677.3121993813107
 20
56.43130289102554
 30
0.0
 40
6.462999999999999
100
AcDbArc
 50
0.2925528299001623
 51
7.700422993100023
  0
ARC
  5
913
330
7F2
100
AcDbEntity
  8
0
  6
Continuous
 62
     7
100
AcDbCircle
 10
677.3121993813107
 20
56.43130289102554
 30
0.0
 40
6.462999999999999
100
AcDbArc
 50
16.06969496209985
 51
47.26029003410043
  0
ARC
  5
914
330
7F2
100
AcDbEntity
  8
0
  6
Continuous
 62
     7
100
AcDbCircle
 10
686.0831993813109
 20
56.43130289102554
 30
0.0
 40
6.462
100
AcDbArc
 50
172.2983781310999
 51
179.7074018969003
  0
ARC
  5
915
330
7F2
100
AcDbEntity
  8
0
  6
Continuous
 62
     7
100
AcDbCircle
 10
686.0831993813109
 20
56.43130289102554
 30
0.0
 40
6.462
100
AcDbArc
 50
132.7301138374997
 51
163.9277508971001
  0
CIRCLE
  5
916
330
7F2
100
AcDbEntity
  8
0
  6
Continuous
 62
     7
100
AcDbCircle
 10
698.7011993813109
 20
59.50530289102556
 30
0.0
 40
3.0005
  0
ARC
  5
917
330
7F2
100
AcDbEntity
  8
0
  6
Continuous
 62
     7
100
AcDbCircle
 10
690.1991993813107
 20
59.50530289102556
 30
0.0
 40
3.0005
100
AcDbArc
 50
30.73288719529986
 51
329.9942638431005
  0
ARC
  5
918
330
7F2
100
AcDbEntity
  8
0
  6
Continuous
 62
     7
100
AcDbCircle
 10
664.6971993813107
 20
57.96430289102556
 30
0.0
 40
2.5
100
AcDbArc
 50
180.0
 51
0.0
  0
ARC
  5
919
330
7F2
100
AcDbEntity
  8
0
  6
Continuous
 62
     7
100
AcDbCircle
 10
648.6971993813106
 20
57.96430289102556
 30
0.0
 40
2.5
100
AcDbArc
 50
180.0
 51
0.0
  0
ARC
  5
91A
330
7F2
100
AcDbEntity
  8
0
  6
Continuous
 62
     7
100
AcDbCircle
 10
632.6971993813107
 20
57.96430289102556
 30
0.0
 40
2.5
100
AcDbArc
 50
180.0
 51
0.0
  0
ARC
  5
91B
330
7F2
100
AcDbEntity
  8
0
  6
Continuous
 62
     7
100
AcDbCircle
 10
616.6971993813107
 20
57.96430289102556
 30
0.0
 40
2.5
100
AcDbArc
 50
180.0
 51
0.0
  0
ARC
  5
91C
330
7F2
100
AcDbEntity
  8
0
  6
Continuous
 62
     7
100
AcDbCircle
 10
600.6971993813107
 20
57.96430289102556
 30
0.0
 40
2.5
100
AcDbArc
 50
180.0
 51
0.0
  0
ARC
  5
91D
330
7F2
100
AcDbEntity
  8
0
  6
Continuous
 62
     7
100
AcDbCircle
 10
584.6971993813107
 20
57.96430289102556
 30
0.0
 40
2.5
100
AcDbArc
 50
180.0
 51
0.0
  0
ARC
  5
91E
330
7F2
100
AcDbEntity
  8
0
  6
Continuous
 62
     7
100
AcDbCircle
 10
568.6971993813107
 20
57.96430289102556
 30
0.0
 40
2.5
100
AcDbArc
 50
180.0
 51
0.0
  0
ARC
  5
91F
330
7F2
100
AcDbEntity
  8
0
  6
Continuous
 62
     7
100
AcDbCircle
 10
552.697199381311
 20
57.96430289102556
 30
0.0
 40
2.5
100
AcDbArc
 50
180.0
 51
0.0
  0
CIRCLE
  5
920
330
7F2
100
AcDbEntity
  8
0
  6
Continuous
 62
     7
100
AcDbCircle
 10
698.7011993813109
 20
59.50530289102556
 30
0.0
 40
2.076999999999999
  0
ARC
  5
921
330
7F2
100
AcDbEntity
  8
0
  6
Continuous
 62
     7
100
AcDbCircle
 10
690.1991993813107
 20
59.50530289102556
 30
0.0
 40
2.076999999999999
100
AcDbArc
 50
31.05878344739972
 51
329.9917133659003
  0
ARC
  5
922
330
7F2
100
AcDbEntity
  8
0
  6
Continuous
 62
     7
100
AcDbCircle
 10
664.6971993813107
 20
68.96430289102557
 30
0.0
 40
2.5
100
AcDbArc
 50
0.0
 51
180.0
  0
ARC
  5
923
330
7F2
100
AcDbEntity
  8
0
  6
Continuous
 62
     7
100
AcDbCircle
 10
648.6971993813106
 20
72.96430289102556
 30
0.0
 40
2.5
100
AcDbArc
 50
0.0
 51
180.0
  0
ARC
  5
924
330
7F2
100
AcDbEntity
  8
0
  6
Continuous
 62
     7
100
AcDbCircle
 10
632.6971993813107
 20
78.96430289102557
 30
0.0
 40
2.5
100
AcDbArc
 50
0.0
 51
180.0
  0
ARC
  5
925
330
7F2
100
AcDbEntity
  8
0
  6
Continuous
 62
     7
100
AcDbCircle
 10
664.6971993813107
 20
77.96430289102556
 30
0.0
 40
2.5
100
AcDbArc
 50
180.0
 51
0.0
  0
ARC
  5
926
330
7F2
100
AcDbEntity
  8
0
  6
Continuous
 62
     7
100
AcDbCircle
 10
680.697199381311
 20
73.96430289102557
 30
0.0
 40
2.5
100
AcDbArc
 50
180.0
 51
0.0
  0
ARC
  5
927
330
7F2
100
AcDbEntity
  8
0
  6
Continuous
 62
     7
100
AcDbCircle
 10
696.697199381311
 20
71.96430289102557
 30
0.0
 40
2.5
100
AcDbArc
 50
180.0
 51
0.0
  0
ARC
  5
928
330
7F2
100
AcDbEntity
  8
0
  6
Continuous
 62
     7
100
AcDbCircle
 10
520.6971993813108
 20
88.96430289102557
 30
0.0
 40
2.5
100
AcDbArc
 50
0.0
 51
180.0
  0
ARC
  5
929
330
7F2
100
AcDbEntity
  8
0
  6
Continuous
 62
     7
100
AcDbCircle
 10
504.6971993813111
 20
86.96430289102556
 30
0.0
 40
2.5
100
AcDbArc
 50
0.0
 51
180.0
  0
ARC
  5
92A
330
7F2
100
AcDbEntity
  8
0
  6
Continuous
 62
     7
100
AcDbCircle
 10
488.6971993813109
 20
82.96430289102557
 30
0.0
 40
2.5
100
AcDbArc
 50
0.0
 51
180.0
  0
ARC
  5
92B
330
7F2
100
AcDbEntity
  8
0
  6
Continuous
 62
     7
100
AcDbCircle
 10
456.697199381311
 20
81.96430289102556
 30
0.0
 40
2.5
100
AcDbArc
 50
180.0
 51
0.0
  0
ARC
  5
92C
330
7F2
100
AcDbEntity
  8
0
  6
Continuous
 62
     7
100
AcDbCircle
 10
472.6971993813108
 20
87.96430289102557
 30
0.0
 40
2.5
100
AcDbArc
 50
180.0
 51
0.0
  0
ARC
  5
92D
330
7F2
100
AcDbEntity
  8
0
  6
Continuous
 62
     7
100
AcDbCircle
 10
488.6971993813109
 20
91.96430289102556
 30
0.0
 40
2.5
100
AcDbArc
 50
180.0
 51
0.0
  0
ARC
  5
92E
330
7F2
100
AcDbEntity
  8
0
  6
Continuous
 62
     7
100
AcDbCircle
 10
376.6971993813111
 20
102.9643028910255
 30
0.0
 40
2.5
100
AcDbArc
 50
0.0
 51
180.0
  0
ARC
  5
92F
330
7F2
100
AcDbEntity
  8
0
  6
Continuous
 62
     7
100
AcDbCircle
 10
392.6971993813111
 20
102.9643028910255
 30
0.0
 40
2.5
100
AcDbArc
 50
0.0
 51
180.0
  0
ARC
  5
930
330
7F2
100
AcDbEntity
  8
0
  6
Continuous
 62
     7
100
AcDbCircle
 10
408.6971993813111
 20
102.9643028910255
 30
0.0
 40
2.5
100
AcDbArc
 50
0.0
 51
180.0
  0
ARC
  5
931
330
7F2
100
AcDbEntity
  8
0
  6
Continuous
 62
     7
100
AcDbCircle
 10
424.697199381311
 20
102.9643028910255
 30
0.0
 40
2.5
100
AcDbArc
 50
0.0
 51
180.0
  0
ARC
  5
932
330
7F2
100
AcDbEntity
  8
0
  6
Continuous
 62
     7
100
AcDbCircle
 10
440.697199381311
 20
102.9643028910255
 30
0.0
 40
2.5
100
AcDbArc
 50
0.0
 51
180.0
  0
ARC
  5
933
330
7F2
100
AcDbEntity
  8
0
  6
Continuous
 62
     7
100
AcDbCircle
 10
456.697199381311
 20
102.9643028910255
 30
0.0
 40
2.5
100
AcDbArc
 50
0.0
 51
180.0
  0
ARC
  5
934
330
7F2
100
AcDbEntity
  8
0
  6
Continuous
 62
     7
100
AcDbCircle
 10
472.6971993813108
 20
102.9643028910255
 30
0.0
 40
2.5
100
AcDbArc
 50
0.0
 51
180.0
  0
ARC
  5
935
330
7F2
100
AcDbEntity
  8
0
  6
Continuous
 62
     7
100
AcDbCircle
 10
488.6971993813109
 20
102.9643028910255
 30
0.0
 40
2.5
100
AcDbArc
 50
0.0
 51
180.0
  0
ARC
  5
936
330
7F2
100
AcDbEntity
  8
0
  6
Continuous
 62
     7
100
AcDbCircle
 10
504.6971993813111
 20
95.96430289102556
 30
0.0
 40
2.5
100
AcDbArc
 50
180.0
 51
0.0
  0
ARC
  5
937
330
7F2
100
AcDbEntity
  8
0
  6
Continuous
 62
     7
100
AcDbCircle
 10
504.6971993813111
 20
102.9643028910255
 30
0.0
 40
2.5
100
AcDbArc
 50
0.0
 51
180.0
  0
ARC
  5
938
330
7F2
100
AcDbEntity
  8
0
  6
Continuous
 62
     7
100
AcDbCircle
 10
520.6971993813108
 20
97.96430289102557
 30
0.0
 40
2.5
100
AcDbArc
 50
180.0
 51
0.0
  0
ARC
  5
939
330
7F2
100
AcDbEntity
  8
0
  6
Continuous
 62
     7
100
AcDbCircle
 10
520.6971993813108
 20
102.9643028910255
 30
0.0
 40
2.5
100
AcDbArc
 50
0.0
 51
180.0
  0
ARC
  5
93A
330
7F2
100
AcDbEntity
  8
0
  6
Continuous
 62
     7
100
AcDbCircle
 10
536.697199381311
 20
89.96430289102557
 30
0.0
 40
2.5
100
AcDbArc
 50
0.0
 51
180.0
  0
ARC
  5
93B
330
7F2
100
AcDbEntity
  8
0
  6
Continuous
 62
     7
100
AcDbCircle
 10
616.6971993813107
 20
82.96430289102557
 30
0.0
 40
2.5
100
AcDbArc
 50
0.0
 51
180.0
  0
ARC
  5
93C
330
7F2
100
AcDbEntity
  8
0
  6
Continuous
 62
     7
100
AcDbCircle
 10
600.6971993813107
 20
86.96430289102556
 30
0.0
 40
2.5
100
AcDbArc
 50
0.0
 51
180.0
  0
ARC
  5
93D
330
7F2
100
AcDbEntity
  8
0
  6
Continuous
 62
     7
100
AcDbCircle
 10
584.6971993813107
 20
88.96430289102557
 30
0.0
 40
2.5
100
AcDbArc
 50
0.0
 51
180.0
  0
ARC
  5
93E
330
7F2
100
AcDbEntity
  8
0
  6
Continuous
 62
     7
100
AcDbCircle
 10
568.6971993813107
 20
89.96430289102557
 30
0.0
 40
2.5
100
AcDbArc
 50
0.0
 51
180.0
  0
ARC
  5
93F
330
7F2
100
AcDbEntity
  8
0
  6
Continuous
 62
     7
100
AcDbCircle
 10
552.697199381311
 20
90.96430289102556
 30
0.0
 40
2.5
100
AcDbArc
 50
0.0
 51
180.0
  0
ARC
  5
940
330
7F2
100
AcDbEntity
  8
0
  6
Continuous
 62
     7
100
AcDbCircle
 10
616.6971993813107
 20
91.96430289102556
 30
0.0
 40
2.5
100
AcDbArc
 50
180.0
 51
0.0
  0
ARC
  5
941
330
7F2
100
AcDbEntity
  8
0
  6
Continuous
 62
     7
100
AcDbCircle
 10
632.6971993813107
 20
87.96430289102557
 30
0.0
 40
2.5
100
AcDbArc
 50
180.0
 51
0.0
  0
ARC
  5
942
330
7F2
100
AcDbEntity
  8
0
  6
Continuous
 62
     7
100
AcDbCircle
 10
648.6971993813106
 20
81.96430289102556
 30
0.0
 40
2.5
100
AcDbArc
 50
180.0
 51
0.0
  0
ARC
  5
943
330
7F2
100
AcDbEntity
  8
0
  6
Continuous
 62
     7
100
AcDbCircle
 10
552.697199381311
 20
99.96430289102557
 30
0.0
 40
2.5
100
AcDbArc
 50
180.0
 51
0.0
  0
ARC
  5
944
330
7F2
100
AcDbEntity
  8
0
  6
Continuous
 62
     7
100
AcDbCircle
 10
552.697199381311
 20
102.9643028910255
 30
0.0
 40
2.5
100
AcDbArc
 50
0.0
 51
180.0
  0
ARC
  5
945
330
7F2
100
AcDbEntity
  8
0
  6
Continuous
 62
     7
100
AcDbCircle
 10
568.6971993813107
 20
98.96430289102557
 30
0.0
 40
2.5
100
AcDbArc
 50
180.0
 51
0.0
  0
ARC
  5
946
330
7F2
100
AcDbEntity
  8
0
  6
Continuous
 62
     7
100
AcDbCircle
 10
568.6971993813107
 20
102.9643028910255
 30
0.0
 40
2.5
100
AcDbArc
 50
0.0
 51
180.0
  0
ARC
  5
947
330
7F2
100
AcDbEntity
  8
0
  6
Continuous
 62
     7
100
AcDbCircle
 10
584.6971993813107
 20
97.96430289102557
 30
0.0
 40
2.5
100
AcDbArc
 50
180.0
 51
0.0
  0
ARC
  5
948
330
7F2
100
AcDbEntity
  8
0
  6
Continuous
 62
     7
100
AcDbCircle
 10
584.6971993813107
 20
102.9643028910255
 30
0.0
 40
2.5
100
AcDbArc
 50
0.0
 51
180.0
  0
ARC
  5
949
330
7F2
100
AcDbEntity
  8
0
  6
Continuous
 62
     7
100
AcDbCircle
 10
600.6971993813107
 20
95.96430289102556
 30
0.0
 40
2.5
100
AcDbArc
 50
180.0
 51
0.0
  0
ARC
  5
94A
330
7F2
100
AcDbEntity
  8
0
  6
Continuous
 62
     7
100
AcDbCircle
 10
600.6971993813107
 20
102.9643028910255
 30
0.0
 40
2.5
100
AcDbArc
 50
0.0
 51
180.0
  0
ARC
  5
94B
330
7F2
100
AcDbEntity
  8
0
  6
Continuous
 62
     7
100
AcDbCircle
 10
616.6971993813107
 20
102.9643028910255
 30
0.0
 40
2.5
100
AcDbArc
 50
0.0
 51
180.0
  0
ARC
  5
94C
330
7F2
100
AcDbEntity
  8
0
  6
Continuous
 62
     7
100
AcDbCircle
 10
632.6971993813107
 20
102.9643028910255
 30
0.0
 40
2.5
100
AcDbArc
 50
0.0
 51
180.0
  0
ARC
  5
94D
330
7F2
100
AcDbEntity
  8
0
  6
Continuous
 62
     7
100
AcDbCircle
 10
648.6971993813106
 20
102.9643028910255
 30
0.0
 40
2.5
100
AcDbArc
 50
0.0
 51
180.0
  0
ARC
  5
94E
330
7F2
100
AcDbEntity
  8
0
  6
Continuous
 62
     7
100
AcDbCircle
 10
664.6971993813107
 20
102.9643028910255
 30
0.0
 40
2.5
100
AcDbArc
 50
0.0
 51
180.0
  0
ARC
  5
94F
330
7F2
100
AcDbEntity
  8
0
  6
Continuous
 62
     7
100
AcDbCircle
 10
680.697199381311
 20
102.9643028910255
 30
0.0
 40
2.5
100
AcDbArc
 50
0.0
 51
180.0
  0
ARC
  5
950
330
7F2
100
AcDbEntity
  8
0
  6
Continuous
 62
     7
100
AcDbCircle
 10
696.697199381311
 20
102.9643028910255
 30
0.0
 40
2.5
100
AcDbArc
 50
0.0
 51
180.0
  0
ARC
  5
951
330
7F2
100
AcDbEntity
  8
0
  6
Continuous
 62
     7
100
AcDbCircle
 10
536.697199381311
 20
98.96430289102557
 30
0.0
 40
2.5
100
AcDbArc
 50
180.0
 51
0.0
  0
ARC
  5
952
330
7F2
100
AcDbEntity
  8
0
  6
Continuous
 62
     7
100
AcDbCircle
 10
536.697199381311
 20
102.9643028910255
 30
0.0
 40
2.5
100
AcDbArc
 50
0.0
 51
180.0
  0
DIMENSION
  5
953
102
{ACAD_XDICTIONARY
360
954
102
}
102
{ACAD_REACTORS
330
955
330
958
102
}
330
7F2
100
AcDbEntity
  8
P-0000
  6
Continuous
100
AcDbDimension
  2
*D12
 10
11.00000149373772
 20
49.71430289102556
 30
0.0
 11
3.500001493737642
 21
80.46406632117555
 31
0.0
 12
165.448721302911
 22
-123.6002372370744
 32
0.0
 71
     5
 42
61.49952686029998
  3
883N99122_001_00149479900
100
AcDbAlignedDimension
 13
29.69719938131106
 23
111.2138297513255
 33
0.0
 14
29.69719938131106
 24
49.71430289102556
 34
0.0
 50
90.0
100
AcDbRotatedDimension
1001
ACAD_DSTYLE_DIMINSPECT
1070
   396
1000
100%
1070
   395
1000

1070
   394
1070
    33
1070
   393
1070
     0
1001
ACAD
1000
DSTYLE
1002
{
1070
   279
1070
     2
1070
   288
1070
     1
1002
}
  0
DIMENSION
  5
956
102
{ACAD_XDICTIONARY
360
957
102
}
102
{ACAD_REACTORS
330
958
102
}
330
7F2
100
AcDbEntity
  8
P-0000
  6
Continuous
100
AcDbDimension
  2
*D13
 10
707.6971993813107
 20
3.999999820725647
 30
0.0
 11
368.6971993813111
 21
11.49999982072566
 31
0.0
 12
165.448721302911
 22
-123.6002372370744
 32
0.0
 71
     5
 42
677.9999999999999
  3
883N99122_001_00149479900
100
AcDbAlignedDimension
 13
29.69719938131106
 23
49.71430289102556
 33
0.0
 14
707.6971993813107
 24
49.71430289102556
 34
0.0
100
AcDbRotatedDimension
1001
ACAD_DSTYLE_DIMINSPECT
1070
   396
1000
100%
1070
   395
1000

1070
   394
1070
    33
1070
   393
1070
     0
1001
ACAD
1000
DSTYLE
1002
{
1070
   279
1070
     2
1070
   288
1070
     1
1002
}
  0
ENDBLK
  5
95A
330
7F2
100
AcDbEntity
  8
0
100
AcDbBlockEnd
  0
BLOCK
  5
95E
330
95D
100
AcDbEntity
  8
0
100
AcDbBlockBegin
  2
*D16
 70
     1
 10
0.0
 20
0.0
 30
0.0
  3
*D16
  1

  0
LINE
  5
95F
330
95D
100
AcDbEntity
  8
P-0000
  6
Continuous
 62
     3
370
    -2
100
AcDbLine
 10
-135.7515219216
 20
234.8140669884
 30
0.0
 11
-158.4487198091733
 21
234.8140669884
 31
0.0
  0
LINE
  5
960
330
95D
100
AcDbEntity
  8
P-0000
  6
Continuous
 62
     3
370
    -2
100
AcDbLine
 10
-135.7515219216
 20
173.3145401281
 30
0.0
 11
-158.4487198091733
 21
173.3145401281
 31
0.0
  0
LINE
  5
961
330
95D
100
AcDbEntity
  8
P-0000
  6
Continuous
 62
     3
370
    -2
100
AcDbLine
 10
-154.4487198091733
 20
228.5140669884
 30
0.0
 11
-154.4487198091733
 21
179.6145401281
 31
0.0
  0
SOLID
  5
962
330
95D
100
AcDbEntity
  8
P-0000
  6
Continuous
 62
     3
100
AcDbTrace
 10
-155.4987198091733
 20
228.5140669884
 30
0.0
 11
-153.3987198091733
 21
228.5140669884
 31
0.0
 12
-154.4487198091733
 22
234.8140669884
 32
0.0
 13
-154.4487198091733
 23
234.8140669884
 33
0.0
  0
SOLID
  5
963
330
95D
100
AcDbEntity
  8
P-0000
  6
Continuous
 62
     3
100
AcDbTrace
 10
-155.4987198091733
 20
179.6145401281
 30
0.0
 11
-153.3987198091733
 21
179.6145401281
 31
0.0
 12
-154.4487198091733
 22
173.3145401281
 32
0.0
 13
-154.4487198091733
 23
173.3145401281
 33
0.0
  0
MTEXT
  5
964
330
95D
100
AcDbEntity
  8
P-0000
  6
Continuous
 62
     2
100
AcDbMText
 10
-161.9487198091734
 20
204.06430355825
 30
0.0
 40
7.0
 41
0.0
 71
     5
 72
     1
  1
61.5
 11
0.0000000000000001
 21
1.0
 31
0.0
 73
     1
 44
1.0
1001
ACAD
1000
MTEXTBEGIN
1070
    73
1070
     1
1070
    44
1040
1.0
1070
    74
1070
     0
1000
MTEXTEND
  0
POINT
  5
965
330
95D
100
AcDbEntity
  8
Defpoints
  6
Continuous
 62
     0
100
AcDbPoint
 10
-135.7515219216
 20
234.8140669884
 30
0.0
  0
POINT
  5
966
330
95D
100
AcDbEntity
  8
Defpoints
  6
Continuous
 62
     0
100
AcDbPoint
 10
-135.7515219216
 20
173.3145401281
 30
0.0
  0
POINT
  5
967
330
95D
100
AcDbEntity
  8
Defpoints
  6
Continuous
 62
     0
100
AcDbPoint
 10
-154.4487198091733
 20
173.3145401281
 30
0.0
  0
ENDBLK
  5
968
330
95D
100
AcDbEntity
  8
0
100
AcDbBlockEnd
  0
BLOCK
  5
96A
330
969
100
AcDbEntity
  8
0
100
AcDbBlockBegin
  2
*D17
 70
     1
 10
0.0
 20
0.0
 30
0.0
  3
*D17
  1

  0
LINE
  5
96B
330
969
100
AcDbEntity
  8
P-0000
  6
Continuous
 62
     3
370
    -2
100
AcDbLine
 10
-135.7515219216
 20
173.3145401281
 30
0.0
 11
-135.7515219216
 21
123.6002370578001
 31
0.0
  0
LINE
  5
96C
330
969
100
AcDbEntity
  8
P-0000
  6
Continuous
 62
     3
370
    -2
100
AcDbLine
 10
542.2484780783999
 20
173.3145401281
 30
0.0
 11
542.2484780783999
 21
123.6002370578001
 31
0.0
  0
LINE
  5
96D
330
969
100
AcDbEntity
  8
P-0000
  6
Continuous
 62
     3
370
    -2
100
AcDbLine
 10
-129.4515219216
 20
127.6002370578001
 30
0.0
 11
535.9484780783998
 21
127.6002370578001
 31
0.0
  0
SOLID
  5
96E
330
969
100
AcDbEntity
  8
P-0000
  6
Continuous
 62
     3
100
AcDbTrace
 10
-129.4515219216
 20
128.6502370578001
 30
0.0
 11
-129.4515219216
 21
126.5502370578001
 31
0.0
 12
-135.7515219216
 22
127.6002370578001
 32
0.0
 13
-135.7515219216
 23
127.6002370578001
 33
0.0
  0
SOLID
  5
96F
330
969
100
AcDbEntity
  8
P-0000
  6
Continuous
 62
     3
100
AcDbTrace
 10
535.9484780783998
 20
128.6502370578001
 30
0.0
 11
535.9484780783998
 21
126.5502370578001
 31
0.0
 12
542.2484780783999
 22
127.6002370578001
 32
0.0
 13
542.2484780783999
 23
127.6002370578001
 33
0.0
  0
MTEXT
  5
970
330
969
100
AcDbEntity
  8
P-0000
  6
Continuous
 62
     2
100
AcDbMText
 10
203.2484780784
 20
135.1002370578001
 30
0.0
 40
7.0
 41
0.0
 71
     5
 72
     1
  1
678
 73
     1
 44
1.0
1001
ACAD
1000
MTEXTBEGIN
1070
    73
1070
     1
1070
    44
1040
1.0
1070
    74
1070
     0
1000
MTEXTEND
  0
POINT
  5
971
330
969
100
AcDbEntity
  8
Defpoints
  6
Continuous
 62
     0
100
AcDbPoint
 10
-135.7515219216
 20
173.3145401281
 30
0.0
  0
POINT
  5
972
330
969
100
AcDbEntity
  8
Defpoints
  6
Continuous
 62
     0
100
AcDbPoint
 10
542.2484780783999
 20
173.3145401281
 30
0.0
  0
POINT
  5
973
330
969
100
AcDbEntity
  8
Defpoints
  6
Continuous
 62
     0
100
AcDbPoint
 10
542.2484780783999
 20
127.6002370578001
 30
0.0
  0
ENDBLK
  5
974
330
969
100
AcDbEntity
  8
0
100
AcDbBlockEnd
  0
BLOCK
  5
C47
330
C46
100
AcDbEntity
  8
0
100
AcDbBlockBegin
  2
*D18
 70
     1
 10
0.0
 20
0.0
 30
0.0
  3
*D18
  1

  0
LINE
  5
C49
330
C46
100
AcDbEntity
  8
P-0000
  6
Continuous
 62
     3
370
    -2
100
AcDbLine
 10
-92.12947084930716
 20
46.01541050577239
 30
0.0
 11
-114.8266687368804
 21
46.0154105057724
 31
0.0
  0
LINE
  5
C4A
330
C46
100
AcDbEntity
  8
P-0000
  6
Continuous
 62
     3
370
    -2
100
AcDbLine
 10
-92.12947084930716
 20
-15.4841163545276
 30
0.0
 11
-114.8266687368805
 21
-15.48411635452759
 31
0.0
  0
LINE
  5
C4B
330
C46
100
AcDbEntity
  8
P-0000
  6
Continuous
 62
     3
370
    -2
100
AcDbLine
 10
-110.8266687368804
 20
39.7154105057724
 30
0.0
 11
-110.8266687368805
 21
-9.184116354527596
 31
0.0
  0
SOLID
  5
C4C
330
C46
100
AcDbEntity
  8
P-0000
  6
Continuous
 62
     3
100
AcDbTrace
 10
-111.8766687368804
 20
39.7154105057724
 30
0.0
 11
-109.7766687368805
 21
39.7154105057724
 31
0.0
 12
-110.8266687368804
 22
46.01541050577239
 32
0.0
 13
-110.8266687368804
 23
46.01541050577239
 33
0.0
  0
SOLID
  5
C4D
330
C46
100
AcDbEntity
  8
P-0000
  6
Continuous
 62
     3
100
AcDbTrace
 10
-111.8766687368805
 20
-9.184116354527596
 30
0.0
 11
-109.7766687368805
 21
-9.184116354527596
 31
0.0
 12
-110.8266687368805
 22
-15.48411635452759
 32
0.0
 13
-110.8266687368805
 23
-15.48411635452759
 33
0.0
  0
MTEXT
  5
C4E
330
C46
100
AcDbEntity
  8
P-0000
  6
Continuous
 62
     2
100
AcDbMText
 10
-118.3266687368805
 20
15.26564707562238
 30
0.0
 40
7.0
 41
0.0
 71
     5
 72
     1
  1
61.5
 11
0.0000000000000001
 21
1.0
 31
0.0
 73
     1
 44
1.0
1001
ACAD
1000
MTEXTBEGIN
1070
    73
1070
     1
1070
    44
1040
1.0
1070
    74
1070
     0
1000
MTEXTEND
  0
POINT
  5
C4F
330
C46
100
AcDbEntity
  8
Defpoints
  6
Continuous
 62
     0
100
AcDbPoint
 10
-92.12947084930716
 20
46.01541050577239
 30
0.0
  0
POINT
  5
C50
330
C46
100
AcDbEntity
  8
Defpoints
  6
Continuous
 62
     0
100
AcDbPoint
 10
-92.12947084930716
 20
-15.4841163545276
 30
0.0
  0
POINT
  5
C51
330
C46
100
AcDbEntity
  8
Defpoints
  6
Continuous
 62
     0
100
AcDbPoint
 10
-110.8266687368805
 20
-15.48411635452759
 30
0.0
  0
ENDBLK
  5
C48
330
C46
100
AcDbEntity
  8
0
100
AcDbBlockEnd
  0
BLOCK
  5
C53
330
C52
100
AcDbEntity
  8
0
100
AcDbBlockBegin
  2
*D19
 70
     1
 10
0.0
 20
0.0
 30
0.0
  3
*D19
  1

  0
LINE
  5
C55
330
C52
100
AcDbEntity
  8
P-0000
  6
Continuous
 62
     3
370
    -2
100
AcDbLine
 10
-92.12947084930716
 20
-15.4841163545276
 30
0.0
 11
-92.12947084930716
 21
-65.19841942482753
 31
0.0
  0
LINE
  5
C56
330
C52
100
AcDbEntity
  8
P-0000
  6
Continuous
 62
     3
370
    -2
100
AcDbLine
 10
585.8705291506927
 20
-15.4841163545276
 30
0.0
 11
585.8705291506927
 21
-65.19841942482753
 31
0.0
  0
LINE
  5
C57
330
C52
100
AcDbEntity
  8
P-0000
  6
Continuous
 62
     3
370
    -2
100
AcDbLine
 10
-85.82947084930715
 20
-61.19841942482753
 30
0.0
 11
579.5705291506927
 21
-61.19841942482753
 31
0.0
  0
SOLID
  5
C58
330
C52
100
AcDbEntity
  8
P-0000
  6
Continuous
 62
     3
100
AcDbTrace
 10
-85.82947084930715
 20
-60.14841942482753
 30
0.0
 11
-85.82947084930715
 21
-62.24841942482751
 31
0.0
 12
-92.12947084930716
 22
-61.19841942482753
 32
0.0
 13
-92.12947084930716
 23
-61.19841942482753
 33
0.0
  0
SOLID
  5
C59
330
C52
100
AcDbEntity
  8
P-0000
  6
Continuous
 62
     3
100
AcDbTrace
 10
579.5705291506927
 20
-60.14841942482753
 30
0.0
 11
579.5705291506927
 21
-62.24841942482751
 31
0.0
 12
585.8705291506927
 22
-61.19841942482753
 32
0.0
 13
585.8705291506927
 23
-61.19841942482753
 33
0.0
  0
MTEXT
  5
C5A
330
C52
100
AcDbEntity
  8
P-0000
  6
Continuous
 62
     2
100
AcDbMText
 10
246.8705291506928
 20
-53.69841942482753
 30
0.0
 40
7.0
 41
0.0
 71
     5
 72
     1
  1
678
 73
     1
 44
1.0
1001
ACAD
1000
MTEXTBEGIN
1070
    73
1070
     1
1070
    44
1040
1.0
1070
    74
1070
     0
1000
MTEXTEND
  0
POINT
  5
C5B
330
C52
100
AcDbEntity
  8
Defpoints
  6
Continuous
 62
     0
100
AcDbPoint
 10
-92.12947084930716
 20
-15.4841163545276
 30
0.0
  0
POINT
  5
C5C
330
C52
100
AcDbEntity
  8
Defpoints
  6
Continuous
 62
     0
100
AcDbPoint
 10
585.8705291506927
 20
-15.4841163545276
 30
0.0
  0
POINT
  5
C5D
330
C52
100
AcDbEntity
  8
Defpoints
  6
Continuous
 62
     0
100
AcDbPoint
 10
585.8705291506927
 20
-61.19841942482753
 30
0.0
  0
ENDBLK
  5
C54
330
C52
100
AcDbEntity
  8
0
100
AcDbBlockEnd
  0
ENDSEC
  0
SECTION
  2
ENTITIES
  0
LINE
  5
246
330
20B
100
AcDbEntity
  8
BEZUGSACHSEN
  6
Continuous
 62
     9
100
AcDbLine
 10
-163.9146621323618
 20
126.6063975840439
 30
0.0
 11
-163.9146621323618
 21
188.1063975840439
 31
0.0
  0
LINE
  5
247
330
20B
100
AcDbEntity
  8
BEZUGSACHSEN
  6
Continuous
 62
     9
100
AcDbLine
 10
-153.4146621323618
 20
179.8563975840439
 30
0.0
 11
-153.4146621323618
 21
148.856397584044
 31
0.0
  0
LINE
  5
248
330
20B
100
AcDbEntity
  8
BEZUGSACHSEN
  6
Continuous
 62
     9
100
AcDbLine
 10
-153.4146621323618
 20
139.8563975840439
 30
0.0
 11
-153.4146621323618
 21
134.8563975840439
 31
0.0
  0
LINE
  5
249
330
20B
100
AcDbEntity
  8
BEZUGSACHSEN
  6
Continuous
 62
     9
100
AcDbLine
 10
-148.4146621323618
 20
134.8563975840439
 30
0.0
 11
-148.4146621323618
 21
139.8563975840439
 31
0.0
  0
LINE
  5
24A
330
20B
100
AcDbEntity
  8
BEZUGSACHSEN
  6
Continuous
 62
     9
100
AcDbLine
 10
-148.4146621323618
 20
148.856397584044
 30
0.0
 11
-148.4146621323618
 21
179.8563975840439
 31
0.0
  0
LINE
  5
24B
330
20B
100
AcDbEntity
  8
BEZUGSACHSEN
  6
Continuous
 62
     9
100
AcDbLine
 10
-137.4146621323618
 20
179.8563975840439
 30
0.0
 11
-137.4146621323618
 21
147.856397584044
 31
0.0
  0
LINE
  5
24C
330
20B
100
AcDbEntity
  8
BEZUGSACHSEN
  6
Continuous
 62
     9
100
AcDbLine
 10
-137.4146621323618
 20
138.856397584044
 30
0.0
 11
-137.4146621323618
 21
134.8563975840439
 31
0.0
  0
LINE
  5
24D
330
20B
100
AcDbEntity
  8
BEZUGSACHSEN
  6
Continuous
 62
     9
100
AcDbLine
 10
-132.4146621323618
 20
134.8563975840439
 30
0.0
 11
-132.4146621323618
 21
138.856397584044
 31
0.0
  0
LINE
  5
24E
330
20B
100
AcDbEntity
  8
BEZUGSACHSEN
  6
Continuous
 62
     9
100
AcDbLine
 10
-132.4146621323618
 20
147.856397584044
 30
0.0
 11
-132.4146621323618
 21
179.8563975840439
 31
0.0
  0
LINE
  5
24F
330
20B
100
AcDbEntity
  8
BEZUGSACHSEN
  6
Continuous
 62
     9
100
AcDbLine
 10
-121.4146621323618
 20
179.8563975840439
 30
0.0
 11
-121.4146621323618
 21
146.856397584044
 31
0.0
  0
LINE
  5
250
330
20B
100
AcDbEntity
  8
BEZUGSACHSEN
  6
Continuous
 62
     9
100
AcDbLine
 10
-121.4146621323618
 20
137.8563975840439
 30
0.0
 11
-121.4146621323618
 21
134.8563975840439
 31
0.0
  0
LINE
  5
251
330
20B
100
AcDbEntity
  8
BEZUGSACHSEN
  6
Continuous
 62
     9
100
AcDbLine
 10
-116.4146621323618
 20
134.8563975840439
 30
0.0
 11
-116.4146621323618
 21
137.8563975840439
 31
0.0
  0
LINE
  5
252
330
20B
100
AcDbEntity
  8
BEZUGSACHSEN
  6
Continuous
 62
     9
100
AcDbLine
 10
-116.4146621323618
 20
146.856397584044
 30
0.0
 11
-116.4146621323618
 21
179.8563975840439
 31
0.0
  0
LINE
  5
253
330
20B
100
AcDbEntity
  8
BEZUGSACHSEN
  6
Continuous
 62
     9
100
AcDbLine
 10
-105.4146621323618
 20
179.8563975840439
 30
0.0
 11
-105.4146621323618
 21
147.856397584044
 31
0.0
  0
LINE
  5
254
330
20B
100
AcDbEntity
  8
BEZUGSACHSEN
  6
Continuous
 62
     9
100
AcDbLine
 10
-105.4146621323618
 20
138.856397584044
 30
0.0
 11
-105.4146621323618
 21
134.8563975840439
 31
0.0
  0
LINE
  5
255
330
20B
100
AcDbEntity
  8
BEZUGSACHSEN
  6
Continuous
 62
     9
100
AcDbLine
 10
-100.4146621323618
 20
134.8563975840439
 30
0.0
 11
-100.4146621323618
 21
138.856397584044
 31
0.0
  0
LINE
  5
256
330
20B
100
AcDbEntity
  8
BEZUGSACHSEN
  6
Continuous
 62
     9
100
AcDbLine
 10
-100.4146621323618
 20
147.856397584044
 30
0.0
 11
-100.4146621323618
 21
179.8563975840439
 31
0.0
  0
LINE
  5
257
330
20B
100
AcDbEntity
  8
BEZUGSACHSEN
  6
Continuous
 62
     9
100
AcDbLine
 10
-89.4146621323618
 20
179.8563975840439
 30
0.0
 11
-89.4146621323618
 21
148.856397584044
 31
0.0
  0
LINE
  5
258
330
20B
100
AcDbEntity
  8
BEZUGSACHSEN
  6
Continuous
 62
     9
100
AcDbLine
 10
-89.4146621323618
 20
139.8563975840439
 30
0.0
 11
-89.4146621323618
 21
134.8563975840439
 31
0.0
  0
LINE
  5
259
330
20B
100
AcDbEntity
  8
BEZUGSACHSEN
  6
Continuous
 62
     9
100
AcDbLine
 10
-84.4146621323618
 20
134.8563975840439
 30
0.0
 11
-84.4146621323618
 21
139.8563975840439
 31
0.0
  0
LINE
  5
25A
330
20B
100
AcDbEntity
  8
BEZUGSACHSEN
  6
Continuous
 62
     9
100
AcDbLine
 10
-84.4146621323618
 20
148.856397584044
 30
0.0
 11
-84.4146621323618
 21
179.8563975840439
 31
0.0
  0
LINE
  5
25B
330
20B
100
AcDbEntity
  8
BEZUGSACHSEN
  6
Continuous
 62
     9
100
AcDbLine
 10
-73.41466213236184
 20
179.8563975840439
 30
0.0
 11
-73.41466213236184
 21
150.856397584044
 31
0.0
  0
LINE
  5
25C
330
20B
100
AcDbEntity
  8
BEZUGSACHSEN
  6
Continuous
 62
     9
100
AcDbLine
 10
-73.41466213236184
 20
141.856397584044
 30
0.0
 11
-73.41466213236184
 21
134.8563975840439
 31
0.0
  0
LINE
  5
25D
330
20B
100
AcDbEntity
  8
BEZUGSACHSEN
  6
Continuous
 62
     9
100
AcDbLine
 10
-68.41466213236185
 20
134.8563975840439
 30
0.0
 11
-68.41466213236185
 21
141.856397584044
 31
0.0
  0
LINE
  5
25E
330
20B
100
AcDbEntity
  8
BEZUGSACHSEN
  6
Continuous
 62
     9
100
AcDbLine
 10
-68.41466213236185
 20
150.856397584044
 30
0.0
 11
-68.41466213236185
 21
179.8563975840439
 31
0.0
  0
LINE
  5
25F
330
20B
100
AcDbEntity
  8
BEZUGSACHSEN
  6
Continuous
 62
     9
100
AcDbLine
 10
-57.41466213236186
 20
179.8563975840439
 30
0.0
 11
-57.41466213236186
 21
154.8563975840439
 31
0.0
  0
LINE
  5
260
330
20B
100
AcDbEntity
  8
BEZUGSACHSEN
  6
Continuous
 62
     9
100
AcDbLine
 10
-57.41466213236186
 20
145.856397584044
 30
0.0
 11
-57.41466213236186
 21
134.8563975840439
 31
0.0
  0
LINE
  5
261
330
20B
100
AcDbEntity
  8
BEZUGSACHSEN
  6
Continuous
 62
     9
100
AcDbLine
 10
-52.41466213236186
 20
134.8563975840439
 30
0.0
 11
-52.41466213236186
 21
145.856397584044
 31
0.0
  0
LINE
  5
262
330
20B
100
AcDbEntity
  8
BEZUGSACHSEN
  6
Continuous
 62
     9
100
AcDbLine
 10
-52.41466213236186
 20
154.8563975840439
 30
0.0
 11
-52.41466213236186
 21
179.8563975840439
 31
0.0
  0
LINE
  5
263
330
20B
100
AcDbEntity
  8
BEZUGSACHSEN
  6
Continuous
 62
     9
100
AcDbLine
 10
-41.41466213236184
 20
179.8563975840439
 30
0.0
 11
-41.41466213236184
 21
158.856397584044
 31
0.0
  0
LINE
  5
264
330
20B
100
AcDbEntity
  8
BEZUGSACHSEN
  6
Continuous
 62
     9
100
AcDbLine
 10
-41.41466213236184
 20
149.8563975840439
 30
0.0
 11
-41.41466213236184
 21
134.8563975840439
 31
0.0
  0
LINE
  5
265
330
20B
100
AcDbEntity
  8
BEZUGSACHSEN
  6
Continuous
 62
     9
100
AcDbLine
 10
-36.41466213236185
 20
134.8563975840439
 30
0.0
 11
-36.41466213236185
 21
149.8563975840439
 31
0.0
  0
LINE
  5
266
330
20B
100
AcDbEntity
  8
BEZUGSACHSEN
  6
Continuous
 62
     9
100
AcDbLine
 10
-36.41466213236185
 20
158.856397584044
 30
0.0
 11
-36.41466213236185
 21
179.8563975840439
 31
0.0
  0
LINE
  5
267
330
20B
100
AcDbEntity
  8
BEZUGSACHSEN
  6
Continuous
 62
     9
100
AcDbLine
 10
-25.41466213236186
 20
179.8563975840439
 30
0.0
 11
-25.41466213236186
 21
164.8563975840439
 31
0.0
  0
LINE
  5
268
330
20B
100
AcDbEntity
  8
BEZUGSACHSEN
  6
Continuous
 62
     9
100
AcDbLine
 10
-25.41466213236186
 20
155.8563975840439
 30
0.0
 11
-25.41466213236186
 21
134.8563975840439
 31
0.0
  0
LINE
  5
269
330
20B
100
AcDbEntity
  8
BEZUGSACHSEN
  6
Continuous
 62
     9
100
AcDbLine
 10
-20.41466213236185
 20
134.8563975840439
 30
0.0
 11
-20.41466213236185
 21
155.8563975840439
 31
0.0
  0
LINE
  5
26A
330
20B
100
AcDbEntity
  8
BEZUGSACHSEN
  6
Continuous
 62
     9
100
AcDbLine
 10
-20.41466213236185
 20
164.8563975840439
 30
0.0
 11
-20.41466213236185
 21
179.8563975840439
 31
0.0
  0
LINE
  5
26B
330
20B
100
AcDbEntity
  8
BEZUGSACHSEN
  6
Continuous
 62
     9
100
AcDbLine
 10
-9.414662132361851
 20
179.8563975840439
 30
0.0
 11
-9.414662132361851
 21
168.856397584044
 31
0.0
  0
LINE
  5
26C
330
20B
100
AcDbEntity
  8
BEZUGSACHSEN
  6
Continuous
 62
     9
100
AcDbLine
 10
-9.414662132361851
 20
159.8563975840439
 30
0.0
 11
-9.414662132361851
 21
134.8563975840439
 31
0.0
  0
LINE
  5
26D
330
20B
100
AcDbEntity
  8
BEZUGSACHSEN
  6
Continuous
 62
     9
100
AcDbLine
 10
-4.414662132361853
 20
134.8563975840439
 30
0.0
 11
-4.414662132361853
 21
159.8563975840439
 31
0.0
  0
LINE
  5
26E
330
20B
100
AcDbEntity
  8
BEZUGSACHSEN
  6
Continuous
 62
     9
100
AcDbLine
 10
-4.414662132361853
 20
168.856397584044
 30
0.0
 11
-4.414662132361853
 21
179.8563975840439
 31
0.0
  0
LINE
  5
26F
330
20B
100
AcDbEntity
  8
BEZUGSACHSEN
  6
Continuous
 62
     9
100
AcDbLine
 10
6.585337867638141
 20
179.8563975840439
 30
0.0
 11
6.585337867638141
 21
172.856397584044
 31
0.0
  0
LINE
  5
270
330
20B
100
AcDbEntity
  8
BEZUGSACHSEN
  6
Continuous
 62
     9
100
AcDbLine
 10
6.585337867638141
 20
163.856397584044
 30
0.0
 11
6.585337867638141
 21
134.8563975840439
 31
0.0
  0
LINE
  5
271
330
20B
100
AcDbEntity
  8
BEZUGSACHSEN
  6
Continuous
 62
     9
100
AcDbLine
 10
11.58533786763814
 20
134.8563975840439
 30
0.0
 11
11.58533786763814
 21
163.856397584044
 31
0.0
  0
LINE
  5
272
330
20B
100
AcDbEntity
  8
BEZUGSACHSEN
  6
Continuous
 62
     9
100
AcDbLine
 10
11.58533786763814
 20
172.856397584044
 30
0.0
 11
11.58533786763814
 21
179.8563975840439
 31
0.0
  0
LINE
  5
273
330
20B
100
AcDbEntity
  8
BEZUGSACHSEN
  6
Continuous
 62
     9
100
AcDbLine
 10
22.58533786763814
 20
179.8563975840439
 30
0.0
 11
22.58533786763814
 21
174.8563975840439
 31
0.0
  0
LINE
  5
274
330
20B
100
AcDbEntity
  8
BEZUGSACHSEN
  6
Continuous
 62
     9
100
AcDbLine
 10
22.58533786763814
 20
165.8563975840439
 30
0.0
 11
22.58533786763814
 21
134.8563975840439
 31
0.0
  0
LINE
  5
275
330
20B
100
AcDbEntity
  8
BEZUGSACHSEN
  6
Continuous
 62
     9
100
AcDbLine
 10
27.58533786763815
 20
134.8563975840439
 30
0.0
 11
27.58533786763815
 21
165.8563975840439
 31
0.0
  0
LINE
  5
276
330
20B
100
AcDbEntity
  8
BEZUGSACHSEN
  6
Continuous
 62
     9
100
AcDbLine
 10
27.58533786763815
 20
174.8563975840439
 30
0.0
 11
27.58533786763815
 21
179.8563975840439
 31
0.0
  0
LINE
  5
277
330
20B
100
AcDbEntity
  8
BEZUGSACHSEN
  6
Continuous
 62
     9
100
AcDbLine
 10
38.58533786763814
 20
179.8563975840439
 30
0.0
 11
38.58533786763814
 21
175.8563975840439
 31
0.0
  0
LINE
  5
278
330
20B
100
AcDbEntity
  8
BEZUGSACHSEN
  6
Continuous
 62
     9
100
AcDbLine
 10
38.58533786763814
 20
166.8563975840439
 30
0.0
 11
38.58533786763814
 21
134.8563975840439
 31
0.0
  0
LINE
  5
279
330
20B
100
AcDbEntity
  8
BEZUGSACHSEN
  6
Continuous
 62
     9
100
AcDbLine
 10
43.58533786763813
 20
134.8563975840439
 30
0.0
 11
43.58533786763813
 21
166.8563975840439
 31
0.0
  0
LINE
  5
27A
330
20B
100
AcDbEntity
  8
BEZUGSACHSEN
  6
Continuous
 62
     9
100
AcDbLine
 10
43.58533786763813
 20
175.8563975840439
 30
0.0
 11
43.58533786763813
 21
179.8563975840439
 31
0.0
  0
LINE
  5
27B
330
20B
100
AcDbEntity
  8
BEZUGSACHSEN
  6
Continuous
 62
     9
100
AcDbLine
 10
54.58533786763815
 20
179.8563975840439
 30
0.0
 11
54.58533786763815
 21
176.8563975840439
 31
0.0
  0
LINE
  5
27C
330
20B
100
AcDbEntity
  8
BEZUGSACHSEN
  6
Continuous
 62
     9
100
AcDbLine
 10
54.58533786763815
 20
167.856397584044
 30
0.0
 11
54.58533786763815
 21
134.8563975840439
 31
0.0
  0
LINE
  5
27D
330
20B
100
AcDbEntity
  8
BEZUGSACHSEN
  6
Continuous
 62
     9
100
AcDbLine
 10
59.58533786763815
 20
134.8563975840439
 30
0.0
 11
59.58533786763815
 21
167.856397584044
 31
0.0
  0
LINE
  5
27E
330
20B
100
AcDbEntity
  8
BEZUGSACHSEN
  6
Continuous
 62
     9
100
AcDbLine
 10
59.58533786763815
 20
176.8563975840439
 30
0.0
 11
59.58533786763815
 21
179.8563975840439
 31
0.0
  0
LINE
  5
27F
330
20B
100
AcDbEntity
  8
BEZUGSACHSEN
  6
Continuous
 62
     9
100
AcDbLine
 10
70.58533786763814
 20
179.8563975840439
 30
0.0
 11
70.58533786763814
 21
175.8563975840439
 31
0.0
  0
LINE
  5
280
330
20B
100
AcDbEntity
  8
BEZUGSACHSEN
  6
Continuous
 62
     9
100
AcDbLine
 10
70.58533786763814
 20
166.8563975840439
 30
0.0
 11
70.58533786763814
 21
134.8563975840439
 31
0.0
  0
LINE
  5
281
330
20B
100
AcDbEntity
  8
BEZUGSACHSEN
  6
Continuous
 62
     9
100
AcDbLine
 10
75.58533786763814
 20
134.8563975840439
 30
0.0
 11
75.58533786763814
 21
166.8563975840439
 31
0.0
  0
LINE
  5
282
330
20B
100
AcDbEntity
  8
BEZUGSACHSEN
  6
Continuous
 62
     9
100
AcDbLine
 10
75.58533786763814
 20
175.8563975840439
 30
0.0
 11
75.58533786763814
 21
179.8563975840439
 31
0.0
  0
LINE
  5
283
330
20B
100
AcDbEntity
  8
BEZUGSACHSEN
  6
Continuous
 62
     9
100
AcDbLine
 10
86.58533786763815
 20
179.8563975840439
 30
0.0
 11
86.58533786763815
 21
174.8563975840439
 31
0.0
  0
LINE
  5
284
330
20B
100
AcDbEntity
  8
BEZUGSACHSEN
  6
Continuous
 62
     9
100
AcDbLine
 10
86.58533786763815
 20
165.8563975840439
 30
0.0
 11
86.58533786763815
 21
134.8563975840439
 31
0.0
  0
LINE
  5
285
330
20B
100
AcDbEntity
  8
BEZUGSACHSEN
  6
Continuous
 62
     9
100
AcDbLine
 10
91.58533786763815
 20
134.8563975840439
 30
0.0
 11
91.58533786763815
 21
165.8563975840439
 31
0.0
  0
LINE
  5
286
330
20B
100
AcDbEntity
  8
BEZUGSACHSEN
  6
Continuous
 62
     9
100
AcDbLine
 10
91.58533786763815
 20
174.8563975840439
 30
0.0
 11
91.58533786763815
 21
179.8563975840439
 31
0.0
  0
LINE
  5
287
330
20B
100
AcDbEntity
  8
BEZUGSACHSEN
  6
Continuous
 62
     9
100
AcDbLine
 10
102.5853378676381
 20
179.8563975840439
 30
0.0
 11
102.5853378676381
 21
172.856397584044
 31
0.0
  0
LINE
  5
288
330
20B
100
AcDbEntity
  8
BEZUGSACHSEN
  6
Continuous
 62
     9
100
AcDbLine
 10
102.5853378676381
 20
163.856397584044
 30
0.0
 11
102.5853378676381
 21
134.8563975840439
 31
0.0
  0
LINE
  5
289
330
20B
100
AcDbEntity
  8
BEZUGSACHSEN
  6
Continuous
 62
     9
100
AcDbLine
 10
107.5853378676381
 20
134.8563975840439
 30
0.0
 11
107.5853378676381
 21
163.856397584044
 31
0.0
  0
LINE
  5
28A
330
20B
100
AcDbEntity
  8
BEZUGSACHSEN
  6
Continuous
 62
     9
100
AcDbLine
 10
107.5853378676381
 20
172.856397584044
 30
0.0
 11
107.5853378676381
 21
179.8563975840439
 31
0.0
  0
LINE
  5
28B
330
20B
100
AcDbEntity
  8
BEZUGSACHSEN
  6
Continuous
 62
     9
100
AcDbLine
 10
118.5853378676381
 20
179.8563975840439
 30
0.0
 11
118.5853378676381
 21
168.856397584044
 31
0.0
  0
LINE
  5
28C
330
20B
100
AcDbEntity
  8
BEZUGSACHSEN
  6
Continuous
 62
     9
100
AcDbLine
 10
118.5853378676381
 20
159.8563975840439
 30
0.0
 11
118.5853378676381
 21
134.8563975840439
 31
0.0
  0
LINE
  5
28D
330
20B
100
AcDbEntity
  8
BEZUGSACHSEN
  6
Continuous
 62
     9
100
AcDbLine
 10
123.5853378676381
 20
134.8563975840439
 30
0.0
 11
123.5853378676381
 21
159.8563975840439
 31
0.0
  0
LINE
  5
28E
330
20B
100
AcDbEntity
  8
BEZUGSACHSEN
  6
Continuous
 62
     9
100
AcDbLine
 10
123.5853378676381
 20
168.856397584044
 30
0.0
 11
123.5853378676381
 21
179.8563975840439
 31
0.0
  0
LINE
  5
28F
330
20B
100
AcDbEntity
  8
BEZUGSACHSEN
  6
Continuous
 62
     9
100
AcDbLine
 10
134.5853378676382
 20
179.8563975840439
 30
0.0
 11
134.5853378676382
 21
164.8563975840439
 31
0.0
  0
LINE
  5
290
330
20B
100
AcDbEntity
  8
BEZUGSACHSEN
  6
Continuous
 62
     9
100
AcDbLine
 10
134.5853378676382
 20
155.8563975840439
 30
0.0
 11
134.5853378676382
 21
134.8563975840439
 31
0.0
  0
LINE
  5
291
330
20B
100
AcDbEntity
  8
BEZUGSACHSEN
  6
Continuous
 62
     9
100
AcDbLine
 10
139.5853378676382
 20
134.8563975840439
 30
0.0
 11
139.5853378676382
 21
155.8563975840439
 31
0.0
  0
LINE
  5
292
330
20B
100
AcDbEntity
  8
BEZUGSACHSEN
  6
Continuous
 62
     9
100
AcDbLine
 10
139.5853378676382
 20
164.8563975840439
 30
0.0
 11
139.5853378676382
 21
179.8563975840439
 31
0.0
  0
LINE
  5
293
330
20B
100
AcDbEntity
  8
BEZUGSACHSEN
  6
Continuous
 62
     9
100
AcDbLine
 10
150.5853378676381
 20
179.8563975840439
 30
0.0
 11
150.5853378676381
 21
158.856397584044
 31
0.0
  0
LINE
  5
294
330
20B
100
AcDbEntity
  8
BEZUGSACHSEN
  6
Continuous
 62
     9
100
AcDbLine
 10
150.5853378676381
 20
149.8563975840439
 30
0.0
 11
150.5853378676381
 21
134.8563975840439
 31
0.0
  0
LINE
  5
295
330
20B
100
AcDbEntity
  8
BEZUGSACHSEN
  6
Continuous
 62
     9
100
AcDbLine
 10
155.5853378676381
 20
134.8563975840439
 30
0.0
 11
155.5853378676381
 21
149.8563975840439
 31
0.0
  0
LINE
  5
296
330
20B
100
AcDbEntity
  8
BEZUGSACHSEN
  6
Continuous
 62
     9
100
AcDbLine
 10
155.5853378676381
 20
158.856397584044
 30
0.0
 11
155.5853378676381
 21
179.8563975840439
 31
0.0
  0
LINE
  5
297
330
20B
100
AcDbEntity
  8
BEZUGSACHSEN
  6
Continuous
 62
     9
100
AcDbLine
 10
166.5853378676382
 20
179.8563975840439
 30
0.0
 11
166.5853378676382
 21
154.8563975840439
 31
0.0
  0
LINE
  5
298
330
20B
100
AcDbEntity
  8
BEZUGSACHSEN
  6
Continuous
 62
     9
100
AcDbLine
 10
166.5853378676382
 20
145.856397584044
 30
0.0
 11
166.5853378676382
 21
134.8563975840439
 31
0.0
  0
LINE
  5
299
330
20B
100
AcDbEntity
  8
BEZUGSACHSEN
  6
Continuous
 62
     9
100
AcDbLine
 10
171.5853378676382
 20
134.8563975840439
 30
0.0
 11
171.5853378676382
 21
145.856397584044
 31
0.0
  0
LINE
  5
29A
330
20B
100
AcDbEntity
  8
BEZUGSACHSEN
  6
Continuous
 62
     9
100
AcDbLine
 10
171.5853378676382
 20
154.8563975840439
 30
0.0
 11
171.5853378676382
 21
179.8563975840439
 31
0.0
  0
LINE
  5
29B
330
20B
100
AcDbEntity
  8
BEZUGSACHSEN
  6
Continuous
 62
     9
100
AcDbLine
 10
182.5853378676382
 20
179.8563975840439
 30
0.0
 11
182.5853378676382
 21
150.856397584044
 31
0.0
  0
LINE
  5
29C
330
20B
100
AcDbEntity
  8
BEZUGSACHSEN
  6
Continuous
 62
     9
100
AcDbLine
 10
182.5853378676382
 20
141.856397584044
 30
0.0
 11
182.5853378676382
 21
134.8563975840439
 31
0.0
  0
LINE
  5
29D
330
20B
100
AcDbEntity
  8
BEZUGSACHSEN
  6
Continuous
 62
     9
100
AcDbLine
 10
187.5853378676382
 20
134.8563975840439
 30
0.0
 11
187.5853378676382
 21
141.856397584044
 31
0.0
  0
LINE
  5
29E
330
20B
100
AcDbEntity
  8
BEZUGSACHSEN
  6
Continuous
 62
     9
100
AcDbLine
 10
187.5853378676382
 20
150.856397584044
 30
0.0
 11
187.5853378676382
 21
179.8563975840439
 31
0.0
  0
LINE
  5
29F
330
20B
100
AcDbEntity
  8
BEZUGSACHSEN
  6
Continuous
 62
     9
100
AcDbLine
 10
198.5853378676381
 20
179.8563975840439
 30
0.0
 11
198.5853378676381
 21
148.856397584044
 31
0.0
  0
LINE
  5
2A0
330
20B
100
AcDbEntity
  8
BEZUGSACHSEN
  6
Continuous
 62
     9
100
AcDbLine
 10
198.5853378676381
 20
139.8563975840439
 30
0.0
 11
198.5853378676381
 21
134.8563975840439
 31
0.0
  0
LINE
  5
2A1
102
{ACAD_REACTORS
330
74C
330
7A8
102
}
330
20B
100
AcDbEntity
  8
BEZUGSACHSEN
  6
Continuous
 62
     9
100
AcDbLine
 10
614.0853378676381
 20
126.6063975840439
 30
0.0
 11
-163.9146621323618
 21
126.6063975840439
 31
0.0
  0
LINE
  5
2A2
330
20B
100
AcDbEntity
  8
BEZUGSACHSEN
  6
Continuous
 62
     9
100
AcDbLine
 10
614.0853378676381
 20
130.5488224255439
 30
0.0
 11
-163.9146621323618
 21
130.5488224255439
 31
0.0
  0
LINE
  5
2A3
330
20B
100
AcDbEntity
  8
BEZUGSACHSEN
  6
Continuous
 62
     9
100
AcDbLine
 10
614.0853378676381
 20
131.5492455927939
 30
0.0
 11
-163.9146621323618
 21
131.5492455927939
 31
0.0
  0
LINE
  5
2A4
330
20B
100
AcDbEntity
  8
0
  6
Continuous
 62
     3
100
AcDbLine
 10
585.0854115883882
 20
133.356397584044
 30
0.0
 11
586.0094221298882
 21
133.356397584044
 31
0.0
  0
LINE
  5
2A5
330
20B
100
AcDbEntity
  8
0
  6
Continuous
 62
     3
100
AcDbLine
 10
590.1632536181381
 20
133.356397584044
 30
0.0
 11
591.0862641466382
 21
133.356397584044
 31
0.0
  0
LINE
  5
2A6
330
20B
100
AcDbEntity
  8
BEZUGSACHSEN
  6
Continuous
 62
     9
100
AcDbLine
 10
586.0676289423881
 20
134.189397584044
 30
0.0
 11
590.1050558941382
 21
134.189397584044
 31
0.0
  0
LINE
  5
2A7
330
20B
100
AcDbEntity
  8
BEZUGSACHSEN
  6
Continuous
 62
     9
100
AcDbLine
 10
203.5853378676381
 20
134.8563975840439
 30
0.0
 11
203.5853378676381
 21
139.8563975840439
 31
0.0
  0
LINE
  5
2A8
330
20B
100
AcDbEntity
  8
BEZUGSACHSEN
  6
Continuous
 62
     9
100
AcDbLine
 10
203.5853378676381
 20
148.856397584044
 30
0.0
 11
203.5853378676381
 21
179.8563975840439
 31
0.0
  0
LINE
  5
2A9
330
20B
100
AcDbEntity
  8
BEZUGSACHSEN
  6
Continuous
 62
     9
100
AcDbLine
 10
214.5853378676382
 20
179.8563975840439
 30
0.0
 11
214.5853378676382
 21
147.856397584044
 31
0.0
  0
LINE
  5
2AA
330
20B
100
AcDbEntity
  8
BEZUGSACHSEN
  6
Continuous
 62
     9
100
AcDbLine
 10
214.5853378676382
 20
138.856397584044
 30
0.0
 11
214.5853378676382
 21
134.8563975840439
 31
0.0
  0
LINE
  5
2AB
330
20B
100
AcDbEntity
  8
BEZUGSACHSEN
  6
Continuous
 62
     9
100
AcDbLine
 10
219.5853378676381
 20
134.8563975840439
 30
0.0
 11
219.5853378676381
 21
138.856397584044
 31
0.0
  0
LINE
  5
2AC
330
20B
100
AcDbEntity
  8
BEZUGSACHSEN
  6
Continuous
 62
     9
100
AcDbLine
 10
219.5853378676381
 20
147.856397584044
 30
0.0
 11
219.5853378676381
 21
179.8563975840439
 31
0.0
  0
LINE
  5
2AD
330
20B
100
AcDbEntity
  8
BEZUGSACHSEN
  6
Continuous
 62
     9
100
AcDbLine
 10
589.9108006523881
 20
135.112397584044
 30
0.0
 11
586.2619157528881
 21
135.112397584044
 31
0.0
  0
LINE
  5
2AF
330
20B
100
AcDbEntity
  8
BEZUGSACHSEN
  6
Continuous
 62
     9
100
AcDbLine
 10
230.5853378676383
 20
179.8563975840439
 30
0.0
 11
230.5853378676383
 21
146.856397584044
 31
0.0
  0
LINE
  5
2B0
330
20B
100
AcDbEntity
  8
BEZUGSACHSEN
  6
Continuous
 62
     9
100
AcDbLine
 10
230.5853378676383
 20
137.8563975840439
 30
0.0
 11
230.5853378676383
 21
134.8563975840439
 31
0.0
  0
LINE
  5
2B1
330
20B
100
AcDbEntity
  8
BEZUGSACHSEN
  6
Continuous
 62
     9
100
AcDbLine
 10
235.5853378676382
 20
134.8563975840439
 30
0.0
 11
235.5853378676382
 21
137.8563975840439
 31
0.0
  0
LINE
  5
2B2
330
20B
100
AcDbEntity
  8
BEZUGSACHSEN
  6
Continuous
 62
     9
100
AcDbLine
 10
235.5853378676382
 20
146.856397584044
 30
0.0
 11
235.5853378676382
 21
179.8563975840439
 31
0.0
  0
LINE
  5
2B3
330
20B
100
AcDbEntity
  8
BEZUGSACHSEN
  6
Continuous
 62
     9
100
AcDbLine
 10
246.5853378676383
 20
179.8563975840439
 30
0.0
 11
246.5853378676383
 21
147.856397584044
 31
0.0
  0
LINE
  5
2B4
330
20B
100
AcDbEntity
  8
BEZUGSACHSEN
  6
Continuous
 62
     9
100
AcDbLine
 10
246.5853378676383
 20
138.856397584044
 30
0.0
 11
246.5853378676383
 21
134.8563975840439
 31
0.0
  0
LINE
  5
2B5
330
20B
100
AcDbEntity
  8
BEZUGSACHSEN
  6
Continuous
 62
     9
100
AcDbLine
 10
251.5853378676383
 20
134.8563975840439
 30
0.0
 11
251.5853378676383
 21
138.856397584044
 31
0.0
  0
LINE
  5
2B6
330
20B
100
AcDbEntity
  8
BEZUGSACHSEN
  6
Continuous
 62
     9
100
AcDbLine
 10
251.5853378676383
 20
147.856397584044
 30
0.0
 11
251.5853378676383
 21
179.8563975840439
 31
0.0
  0
LINE
  5
2B7
330
20B
100
AcDbEntity
  8
BEZUGSACHSEN
  6
Continuous
 62
     9
100
AcDbLine
 10
614.0853378676381
 20
183.1635495752939
 30
0.0
 11
-163.9146621323618
 21
183.1635495752939
 31
0.0
  0
LINE
  5
2B8
330
20B
100
AcDbEntity
  8
BEZUGSACHSEN
  6
Continuous
 62
     9
100
AcDbLine
 10
614.0853378676381
 20
184.163972742544
 30
0.0
 11
-163.9146621323618
 21
184.163972742544
 31
0.0
  0
LINE
  5
2B9
330
20B
100
AcDbEntity
  8
BEZUGSACHSEN
  6
Continuous
 62
     9
100
AcDbLine
 10
262.5853378676382
 20
179.8563975840439
 30
0.0
 11
262.5853378676382
 21
148.856397584044
 31
0.0
  0
LINE
  5
2BA
330
20B
100
AcDbEntity
  8
BEZUGSACHSEN
  6
Continuous
 62
     9
100
AcDbLine
 10
262.5853378676382
 20
139.8563975840439
 30
0.0
 11
262.5853378676382
 21
134.8563975840439
 31
0.0
  0
LINE
  5
2BB
330
20B
100
AcDbEntity
  8
BEZUGSACHSEN
  6
Continuous
 62
     9
100
AcDbLine
 10
267.5853378676383
 20
134.8563975840439
 30
0.0
 11
267.5853378676383
 21
139.8563975840439
 31
0.0
  0
LINE
  5
2BC
330
20B
100
AcDbEntity
  8
BEZUGSACHSEN
  6
Continuous
 62
     9
100
AcDbLine
 10
267.5853378676383
 20
148.856397584044
 30
0.0
 11
267.5853378676383
 21
179.8563975840439
 31
0.0
  0
LINE
  5
2BD
330
20B
100
AcDbEntity
  8
BEZUGSACHSEN
  6
Continuous
 62
     9
100
AcDbLine
 10
278.5853378676382
 20
179.8563975840439
 30
0.0
 11
278.5853378676382
 21
150.856397584044
 31
0.0
  0
LINE
  5
2BE
330
20B
100
AcDbEntity
  8
BEZUGSACHSEN
  6
Continuous
 62
     9
100
AcDbLine
 10
278.5853378676382
 20
141.856397584044
 30
0.0
 11
278.5853378676382
 21
134.8563975840439
 31
0.0
  0
LINE
  5
2BF
330
20B
100
AcDbEntity
  8
BEZUGSACHSEN
  6
Continuous
 62
     9
100
AcDbLine
 10
614.0853378676381
 20
188.1063975840439
 30
0.0
 11
-163.9146621323618
 21
188.1063975840439
 31
0.0
  0
LINE
  5
2C0
330
20B
100
AcDbEntity
  8
BEZUGSACHSEN
  6
Continuous
 62
     9
100
AcDbLine
 10
283.5853378676381
 20
134.8563975840439
 30
0.0
 11
283.5853378676381
 21
141.856397584044
 31
0.0
  0
LINE
  5
2C1
330
20B
100
AcDbEntity
  8
BEZUGSACHSEN
  6
Continuous
 62
     9
100
AcDbLine
 10
283.5853378676381
 20
150.856397584044
 30
0.0
 11
283.5853378676381
 21
179.8563975840439
 31
0.0
  0
LINE
  5
2C2
330
20B
100
AcDbEntity
  8
BEZUGSACHSEN
  6
Continuous
 62
     9
100
AcDbLine
 10
294.5853378676381
 20
179.8563975840439
 30
0.0
 11
294.5853378676381
 21
154.8563975840439
 31
0.0
  0
LINE
  5
2C3
330
20B
100
AcDbEntity
  8
BEZUGSACHSEN
  6
Continuous
 62
     9
100
AcDbLine
 10
294.5853378676381
 20
145.856397584044
 30
0.0
 11
294.5853378676381
 21
134.8563975840439
 31
0.0
  0
LINE
  5
2C4
330
20B
100
AcDbEntity
  8
BEZUGSACHSEN
  6
Continuous
 62
     9
100
AcDbLine
 10
299.5853378676382
 20
134.8563975840439
 30
0.0
 11
299.5853378676382
 21
145.856397584044
 31
0.0
  0
LINE
  5
2C5
330
20B
100
AcDbEntity
  8
BEZUGSACHSEN
  6
Continuous
 62
     9
100
AcDbLine
 10
299.5853378676382
 20
154.8563975840439
 30
0.0
 11
299.5853378676382
 21
179.8563975840439
 31
0.0
  0
LINE
  5
2C6
330
20B
100
AcDbEntity
  8
BEZUGSACHSEN
  6
Continuous
 62
     9
100
AcDbLine
 10
310.5853378676382
 20
179.8563975840439
 30
0.0
 11
310.5853378676382
 21
158.856397584044
 31
0.0
  0
LINE
  5
2C7
330
20B
100
AcDbEntity
  8
BEZUGSACHSEN
  6
Continuous
 62
     9
100
AcDbLine
 10
310.5853378676382
 20
149.8563975840439
 30
0.0
 11
310.5853378676382
 21
134.8563975840439
 31
0.0
  0
LINE
  5
2C8
330
20B
100
AcDbEntity
  8
BEZUGSACHSEN
  6
Continuous
 62
     9
100
AcDbLine
 10
315.5853378676383
 20
134.8563975840439
 30
0.0
 11
315.5853378676383
 21
149.8563975840439
 31
0.0
  0
LINE
  5
2C9
330
20B
100
AcDbEntity
  8
BEZUGSACHSEN
  6
Continuous
 62
     9
100
AcDbLine
 10
315.5853378676383
 20
158.856397584044
 30
0.0
 11
315.5853378676383
 21
179.8563975840439
 31
0.0
  0
LINE
  5
2CA
330
20B
100
AcDbEntity
  8
BEZUGSACHSEN
  6
Continuous
 62
     9
100
AcDbLine
 10
326.5853378676383
 20
179.8563975840439
 30
0.0
 11
326.5853378676383
 21
164.8563975840439
 31
0.0
  0
LINE
  5
2CB
330
20B
100
AcDbEntity
  8
BEZUGSACHSEN
  6
Continuous
 62
     9
100
AcDbLine
 10
326.5853378676383
 20
155.8563975840439
 30
0.0
 11
326.5853378676383
 21
134.8563975840439
 31
0.0
  0
LINE
  5
2CC
330
20B
100
AcDbEntity
  8
BEZUGSACHSEN
  6
Continuous
 62
     9
100
AcDbLine
 10
331.5853378676383
 20
134.8563975840439
 30
0.0
 11
331.5853378676383
 21
155.8563975840439
 31
0.0
  0
LINE
  5
2CD
330
20B
100
AcDbEntity
  8
BEZUGSACHSEN
  6
Continuous
 62
     9
100
AcDbLine
 10
331.5853378676383
 20
164.8563975840439
 30
0.0
 11
331.5853378676383
 21
179.8563975840439
 31
0.0
  0
LINE
  5
2CE
330
20B
100
AcDbEntity
  8
BEZUGSACHSEN
  6
Continuous
 62
     9
100
AcDbLine
 10
342.5853378676383
 20
179.8563975840439
 30
0.0
 11
342.5853378676383
 21
168.856397584044
 31
0.0
  0
LINE
  5
2CF
330
20B
100
AcDbEntity
  8
BEZUGSACHSEN
  6
Continuous
 62
     9
100
AcDbLine
 10
342.5853378676383
 20
159.8563975840439
 30
0.0
 11
342.5853378676383
 21
134.8563975840439
 31
0.0
  0
LINE
  5
2D0
330
20B
100
AcDbEntity
  8
BEZUGSACHSEN
  6
Continuous
 62
     9
100
AcDbLine
 10
347.5853378676382
 20
134.8563975840439
 30
0.0
 11
347.5853378676382
 21
159.8563975840439
 31
0.0
  0
LINE
  5
2D1
330
20B
100
AcDbEntity
  8
BEZUGSACHSEN
  6
Continuous
 62
     9
100
AcDbLine
 10
347.5853378676382
 20
168.856397584044
 30
0.0
 11
347.5853378676382
 21
179.8563975840439
 31
0.0
  0
LINE
  5
2D2
330
20B
100
AcDbEntity
  8
BEZUGSACHSEN
  6
Continuous
 62
     9
100
AcDbLine
 10
358.5853378676381
 20
179.8563975840439
 30
0.0
 11
358.5853378676381
 21
172.856397584044
 31
0.0
  0
LINE
  5
2D3
330
20B
100
AcDbEntity
  8
BEZUGSACHSEN
  6
Continuous
 62
     9
100
AcDbLine
 10
358.5853378676381
 20
163.856397584044
 30
0.0
 11
358.5853378676381
 21
134.8563975840439
 31
0.0
  0
LINE
  5
2D4
330
20B
100
AcDbEntity
  8
BEZUGSACHSEN
  6
Continuous
 62
     9
100
AcDbLine
 10
363.5853378676381
 20
134.8563975840439
 30
0.0
 11
363.5853378676381
 21
163.856397584044
 31
0.0
  0
LINE
  5
2D5
330
20B
100
AcDbEntity
  8
BEZUGSACHSEN
  6
Continuous
 62
     9
100
AcDbLine
 10
363.5853378676381
 20
172.856397584044
 30
0.0
 11
363.5853378676381
 21
179.8563975840439
 31
0.0
  0
LINE
  5
2D6
330
20B
100
AcDbEntity
  8
BEZUGSACHSEN
  6
Continuous
 62
     9
100
AcDbLine
 10
374.5853378676383
 20
179.8563975840439
 30
0.0
 11
374.5853378676383
 21
174.8563975840439
 31
0.0
  0
LINE
  5
2D7
330
20B
100
AcDbEntity
  8
BEZUGSACHSEN
  6
Continuous
 62
     9
100
AcDbLine
 10
374.5853378676383
 20
165.8563975840439
 30
0.0
 11
374.5853378676383
 21
134.8563975840439
 31
0.0
  0
LINE
  5
2D8
330
20B
100
AcDbEntity
  8
BEZUGSACHSEN
  6
Continuous
 62
     9
100
AcDbLine
 10
379.5853378676383
 20
134.8563975840439
 30
0.0
 11
379.5853378676383
 21
165.8563975840439
 31
0.0
  0
LINE
  5
2D9
330
20B
100
AcDbEntity
  8
BEZUGSACHSEN
  6
Continuous
 62
     9
100
AcDbLine
 10
379.5853378676383
 20
174.8563975840439
 30
0.0
 11
379.5853378676383
 21
179.8563975840439
 31
0.0
  0
LINE
  5
2DA
330
20B
100
AcDbEntity
  8
BEZUGSACHSEN
  6
Continuous
 62
     9
100
AcDbLine
 10
390.5853378676383
 20
179.8563975840439
 30
0.0
 11
390.5853378676383
 21
175.8563975840439
 31
0.0
  0
LINE
  5
2DB
330
20B
100
AcDbEntity
  8
BEZUGSACHSEN
  6
Continuous
 62
     9
100
AcDbLine
 10
390.5853378676383
 20
166.8563975840439
 30
0.0
 11
390.5853378676383
 21
134.8563975840439
 31
0.0
  0
LINE
  5
2DC
330
20B
100
AcDbEntity
  8
BEZUGSACHSEN
  6
Continuous
 62
     9
100
AcDbLine
 10
395.5853378676382
 20
134.8563975840439
 30
0.0
 11
395.5853378676382
 21
166.8563975840439
 31
0.0
  0
LINE
  5
2DD
330
20B
100
AcDbEntity
  8
BEZUGSACHSEN
  6
Continuous
 62
     9
100
AcDbLine
 10
395.5853378676382
 20
175.8563975840439
 30
0.0
 11
395.5853378676382
 21
179.8563975840439
 31
0.0
  0
LINE
  5
2DE
330
20B
100
AcDbEntity
  8
BEZUGSACHSEN
  6
Continuous
 62
     9
100
AcDbLine
 10
406.585337867638
 20
179.8563975840439
 30
0.0
 11
406.585337867638
 21
176.8563975840439
 31
0.0
  0
LINE
  5
2DF
330
20B
100
AcDbEntity
  8
BEZUGSACHSEN
  6
Continuous
 62
     9
100
AcDbLine
 10
406.585337867638
 20
167.856397584044
 30
0.0
 11
406.585337867638
 21
134.8563975840439
 31
0.0
  0
LINE
  5
2E0
330
20B
100
AcDbEntity
  8
BEZUGSACHSEN
  6
Continuous
 62
     9
100
AcDbLine
 10
599.1856968813882
 20
134.896887442294
 30
0.0
 11
598.3859224151379
 21
135.3586374455439
 31
0.0
  0
LINE
  5
2E1
330
20B
100
AcDbEntity
  8
BEZUGSACHSEN
  6
Continuous
 62
     9
100
AcDbLine
 10
411.5853378676381
 20
134.8563975840439
 30
0.0
 11
411.5853378676381
 21
167.856397584044
 31
0.0
  0
LINE
  5
2E2
330
20B
100
AcDbEntity
  8
BEZUGSACHSEN
  6
Continuous
 62
     9
100
AcDbLine
 10
411.5853378676381
 20
176.8563975840439
 30
0.0
 11
411.5853378676381
 21
179.8563975840439
 31
0.0
  0
LINE
  5
2E3
330
20B
100
AcDbEntity
  8
BEZUGSACHSEN
  6
Continuous
 62
     9
100
AcDbLine
 10
422.585337867638
 20
179.8563975840439
 30
0.0
 11
422.585337867638
 21
175.8563975840439
 31
0.0
  0
LINE
  5
2E4
330
20B
100
AcDbEntity
  8
BEZUGSACHSEN
  6
Continuous
 62
     9
100
AcDbLine
 10
422.585337867638
 20
166.8563975840439
 30
0.0
 11
422.585337867638
 21
134.8563975840439
 31
0.0
  0
LINE
  5
2E5
330
20B
100
AcDbEntity
  8
BEZUGSACHSEN
  6
Continuous
 62
     9
100
AcDbLine
 10
427.585337867638
 20
134.8563975840439
 30
0.0
 11
427.585337867638
 21
166.8563975840439
 31
0.0
  0
LINE
  5
2E6
330
20B
100
AcDbEntity
  8
BEZUGSACHSEN
  6
Continuous
 62
     9
100
AcDbLine
 10
427.585337867638
 20
175.8563975840439
 30
0.0
 11
427.585337867638
 21
179.8563975840439
 31
0.0
  0
LINE
  5
2E7
330
20B
100
AcDbEntity
  8
BEZUGSACHSEN
  6
Continuous
 62
     9
100
AcDbLine
 10
598.3665759048882
 20
137.4689576647939
 30
0.0
 11
599.1664448976382
 21
137.930762243044
 31
0.0
  0
LINE
  5
2E8
330
20B
100
AcDbEntity
  8
BEZUGSACHSEN
  6
Continuous
 62
     9
100
AcDbLine
 10
438.585337867638
 20
179.8563975840439
 30
0.0
 11
438.585337867638
 21
174.8563975840439
 31
0.0
  0
LINE
  5
2E9
330
20B
100
AcDbEntity
  8
BEZUGSACHSEN
  6
Continuous
 62
     9
100
AcDbLine
 10
438.585337867638
 20
165.8563975840439
 30
0.0
 11
438.585337867638
 21
134.8563975840439
 31
0.0
  0
LINE
  5
2EA
330
20B
100
AcDbEntity
  8
BEZUGSACHSEN
  6
Continuous
 62
     9
100
AcDbLine
 10
443.585337867638
 20
134.8563975840439
 30
0.0
 11
443.585337867638
 21
165.8563975840439
 31
0.0
  0
LINE
  5
2EB
330
20B
100
AcDbEntity
  8
BEZUGSACHSEN
  6
Continuous
 62
     9
100
AcDbLine
 10
443.585337867638
 20
174.8563975840439
 30
0.0
 11
443.585337867638
 21
179.8563975840439
 31
0.0
  0
LINE
  5
2EC
330
20B
100
AcDbEntity
  8
BEZUGSACHSEN
  6
Continuous
 62
     9
100
AcDbLine
 10
454.5853378676381
 20
179.8563975840439
 30
0.0
 11
454.5853378676381
 21
172.856397584044
 31
0.0
  0
LINE
  5
2ED
330
20B
100
AcDbEntity
  8
BEZUGSACHSEN
  6
Continuous
 62
     9
100
AcDbLine
 10
454.5853378676381
 20
163.856397584044
 30
0.0
 11
454.5853378676381
 21
134.8563975840439
 31
0.0
  0
LINE
  5
2EE
330
20B
100
AcDbEntity
  8
BEZUGSACHSEN
  6
Continuous
 62
     9
100
AcDbLine
 10
459.5853378676379
 20
134.8563975840439
 30
0.0
 11
459.5853378676379
 21
163.856397584044
 31
0.0
  0
LINE
  5
2EF
330
20B
100
AcDbEntity
  8
BEZUGSACHSEN
  6
Continuous
 62
     9
100
AcDbLine
 10
459.5853378676379
 20
172.856397584044
 30
0.0
 11
459.5853378676379
 21
179.8563975840439
 31
0.0
  0
LINE
  5
2F0
330
20B
100
AcDbEntity
  8
BEZUGSACHSEN
  6
Continuous
 62
     9
100
AcDbLine
 10
470.5853378676381
 20
179.8563975840439
 30
0.0
 11
470.5853378676381
 21
168.856397584044
 31
0.0
  0
LINE
  5
2F1
330
20B
100
AcDbEntity
  8
BEZUGSACHSEN
  6
Continuous
 62
     9
100
AcDbLine
 10
470.5853378676381
 20
159.8563975840439
 30
0.0
 11
470.5853378676381
 21
134.8563975840439
 31
0.0
  0
LINE
  5
2F2
330
20B
100
AcDbEntity
  8
BEZUGSACHSEN
  6
Continuous
 62
     9
100
AcDbLine
 10
475.5853378676381
 20
134.8563975840439
 30
0.0
 11
475.5853378676381
 21
159.8563975840439
 31
0.0
  0
LINE
  5
2F3
330
20B
100
AcDbEntity
  8
BEZUGSACHSEN
  6
Continuous
 62
     9
100
AcDbLine
 10
475.5853378676381
 20
168.856397584044
 30
0.0
 11
475.5853378676381
 21
179.8563975840439
 31
0.0
  0
LINE
  5
2F4
330
20B
100
AcDbEntity
  8
BEZUGSACHSEN
  6
Continuous
 62
     9
100
AcDbLine
 10
486.5853378676381
 20
179.8563975840439
 30
0.0
 11
486.5853378676381
 21
164.8563975840439
 31
0.0
  0
LINE
  5
2F5
330
20B
100
AcDbEntity
  8
BEZUGSACHSEN
  6
Continuous
 62
     9
100
AcDbLine
 10
486.5853378676381
 20
155.8563975840439
 30
0.0
 11
486.5853378676381
 21
134.8563975840439
 31
0.0
  0
LINE
  5
2F6
330
20B
100
AcDbEntity
  8
BEZUGSACHSEN
  6
Continuous
 62
     9
100
AcDbLine
 10
491.5853378676381
 20
134.8563975840439
 30
0.0
 11
491.5853378676381
 21
155.8563975840439
 31
0.0
  0
LINE
  5
2F7
330
20B
100
AcDbEntity
  8
BEZUGSACHSEN
  6
Continuous
 62
     9
100
AcDbLine
 10
491.5853378676381
 20
164.8563975840439
 30
0.0
 11
491.5853378676381
 21
179.8563975840439
 31
0.0
  0
LINE
  5
2F8
330
20B
100
AcDbEntity
  8
BEZUGSACHSEN
  6
Continuous
 62
     9
100
AcDbLine
 10
502.585337867638
 20
179.8563975840439
 30
0.0
 11
502.585337867638
 21
158.856397584044
 31
0.0
  0
LINE
  5
2F9
330
20B
100
AcDbEntity
  8
BEZUGSACHSEN
  6
Continuous
 62
     9
100
AcDbLine
 10
502.585337867638
 20
149.8563975840439
 30
0.0
 11
502.585337867638
 21
134.8563975840439
 31
0.0
  0
LINE
  5
2FA
330
20B
100
AcDbEntity
  8
BEZUGSACHSEN
  6
Continuous
 62
     9
100
AcDbLine
 10
507.5853378676383
 20
134.8563975840439
 30
0.0
 11
507.5853378676383
 21
149.8563975840439
 31
0.0
  0
LINE
  5
2FB
330
20B
100
AcDbEntity
  8
BEZUGSACHSEN
  6
Continuous
 62
     9
100
AcDbLine
 10
507.5853378676383
 20
158.856397584044
 30
0.0
 11
507.5853378676383
 21
179.8563975840439
 31
0.0
  0
LINE
  5
2FC
330
20B
100
AcDbEntity
  8
BEZUGSACHSEN
  6
Continuous
 62
     9
100
AcDbLine
 10
518.5853378676381
 20
179.8563975840439
 30
0.0
 11
518.5853378676381
 21
154.8563975840439
 31
0.0
  0
LINE
  5
2FD
330
20B
100
AcDbEntity
  8
BEZUGSACHSEN
  6
Continuous
 62
     9
100
AcDbLine
 10
518.5853378676381
 20
145.856397584044
 30
0.0
 11
518.5853378676381
 21
134.8563975840439
 31
0.0
  0
LINE
  5
2FE
330
20B
100
AcDbEntity
  8
BEZUGSACHSEN
  6
Continuous
 62
     9
100
AcDbLine
 10
523.5853378676381
 20
134.8563975840439
 30
0.0
 11
523.5853378676381
 21
145.856397584044
 31
0.0
  0
LINE
  5
2FF
330
20B
100
AcDbEntity
  8
BEZUGSACHSEN
  6
Continuous
 62
     9
100
AcDbLine
 10
523.5853378676381
 20
154.8563975840439
 30
0.0
 11
523.5853378676381
 21
179.8563975840439
 31
0.0
  0
LINE
  5
300
330
20B
100
AcDbEntity
  8
BEZUGSACHSEN
  6
Continuous
 62
     9
100
AcDbLine
 10
534.5853378676381
 20
179.8563975840439
 30
0.0
 11
534.5853378676381
 21
150.856397584044
 31
0.0
  0
LINE
  5
301
330
20B
100
AcDbEntity
  8
BEZUGSACHSEN
  6
Continuous
 62
     9
100
AcDbLine
 10
534.5853378676381
 20
141.856397584044
 30
0.0
 11
534.5853378676381
 21
134.8563975840439
 31
0.0
  0
LINE
  5
302
330
20B
100
AcDbEntity
  8
BEZUGSACHSEN
  6
Continuous
 62
     9
100
AcDbLine
 10
539.5853378676381
 20
134.8563975840439
 30
0.0
 11
539.5853378676381
 21
141.856397584044
 31
0.0
  0
LINE
  5
303
330
20B
100
AcDbEntity
  8
BEZUGSACHSEN
  6
Continuous
 62
     9
100
AcDbLine
 10
539.5853378676381
 20
150.856397584044
 30
0.0
 11
539.5853378676381
 21
179.8563975840439
 31
0.0
  0
LINE
  5
304
330
20B
100
AcDbEntity
  8
BEZUGSACHSEN
  6
Continuous
 62
     9
100
AcDbLine
 10
550.5853378676381
 20
179.8563975840439
 30
0.0
 11
550.5853378676381
 21
148.856397584044
 31
0.0
  0
LINE
  5
305
330
20B
100
AcDbEntity
  8
BEZUGSACHSEN
  6
Continuous
 62
     9
100
AcDbLine
 10
550.5853378676381
 20
139.8563975840439
 30
0.0
 11
550.5853378676381
 21
134.8563975840439
 31
0.0
  0
LINE
  5
306
330
20B
100
AcDbEntity
  8
BEZUGSACHSEN
  6
Continuous
 62
     9
100
AcDbLine
 10
555.585337867638
 20
134.8563975840439
 30
0.0
 11
555.585337867638
 21
139.8563975840439
 31
0.0
  0
LINE
  5
307
330
20B
100
AcDbEntity
  8
BEZUGSACHSEN
  6
Continuous
 62
     9
100
AcDbLine
 10
555.585337867638
 20
148.856397584044
 30
0.0
 11
555.585337867638
 21
179.8563975840439
 31
0.0
  0
LINE
  5
308
330
20B
100
AcDbEntity
  8
BEZUGSACHSEN
  6
Continuous
 62
     9
100
AcDbLine
 10
566.5853378676381
 20
179.8563975840439
 30
0.0
 11
566.5853378676381
 21
147.856397584044
 31
0.0
  0
LINE
  5
309
330
20B
100
AcDbEntity
  8
BEZUGSACHSEN
  6
Continuous
 62
     9
100
AcDbLine
 10
566.5853378676381
 20
138.856397584044
 30
0.0
 11
566.5853378676381
 21
134.8563975840439
 31
0.0
  0
LINE
  5
30A
330
20B
100
AcDbEntity
  8
BEZUGSACHSEN
  6
Continuous
 62
     9
100
AcDbLine
 10
571.5853378676381
 20
134.8563975840439
 30
0.0
 11
571.5853378676381
 21
138.856397584044
 31
0.0
  0
LINE
  5
30B
330
20B
100
AcDbEntity
  8
BEZUGSACHSEN
  6
Continuous
 62
     9
100
AcDbLine
 10
571.5853378676381
 20
147.856397584044
 30
0.0
 11
571.5853378676381
 21
179.8563975840439
 31
0.0
  0
LINE
  5
30C
330
20B
100
AcDbEntity
  8
BEZUGSACHSEN
  6
Continuous
 62
     9
100
AcDbLine
 10
582.585337867638
 20
179.8563975840439
 30
0.0
 11
582.585337867638
 21
146.856397584044
 31
0.0
  0
LINE
  5
30D
330
20B
100
AcDbEntity
  8
BEZUGSACHSEN
  6
Continuous
 62
     9
100
AcDbLine
 10
587.585337867638
 20
146.856397584044
 30
0.0
 11
587.585337867638
 21
179.8563975840439
 31
0.0
  0
LINE
  5
30E
330
20B
100
AcDbEntity
  8
BEZUGSACHSEN
  6
Continuous
 62
     9
100
AcDbLine
 10
598.585337867638
 20
179.8563975840439
 30
0.0
 11
598.585337867638
 21
147.856397584044
 31
0.0
  0
LINE
  5
30F
330
20B
100
AcDbEntity
  8
BEZUGSACHSEN
  6
Continuous
 62
     9
100
AcDbLine
 10
603.585337867638
 20
147.856397584044
 30
0.0
 11
603.585337867638
 21
179.8563975840439
 31
0.0
  0
LINE
  5
310
330
20B
100
AcDbEntity
  8
BEZUGSACHSEN
  6
Continuous
 62
     9
100
AcDbLine
 10
614.0853378676381
 20
126.606870723794
 30
0.0
 11
614.0853378676381
 21
188.1059244442939
 31
0.0
  0
LINE
  5
311
330
20B
100
AcDbEntity
  8
BEZUGSACHSEN
  6
Continuous
 62
     9
100
AcDbLine
 10
-163.9146621323618
 20
283.1550734957939
 30
0.0
 11
-163.9146621323618
 21
294.131257923794
 31
0.0
  0
LINE
  5
312
102
{ACAD_REACTORS
330
6BC
102
}
330
20B
100
AcDbEntity
  8
BEZUGSACHSEN
  6
Continuous
 62
     3
100
AcDbLine
 10
-163.9146621323618
 20
294.131257923794
 30
0.0
 11
-163.9146621323618
 21
296.3562769480438
 31
0.0
  0
LINE
  5
314
330
20B
100
AcDbEntity
  8
BEZUGSACHSEN
  6
Continuous
 62
     9
100
AcDbLine
 10
-94.91466213236185
 20
284.404312029544
 30
0.0
 11
-94.91466213236185
 21
284.4566612745439
 31
0.0
  0
LINE
  5
315
330
20B
100
AcDbEntity
  8
FASEN
  6
Continuous
 62
     3
100
AcDbLine
 10
-163.9146621323618
 20
283.1550734957939
 30
0.0
 11
-161.9146621323618
 21
281.156291841544
 31
0.0
  0
LINE
  5
316
102
{ACAD_REACTORS
330
6BC
102
}
330
20B
100
AcDbEntity
  8
BEZUGSACHSEN
  6
Continuous
 62
     9
100
AcDbLine
 10
612.0853378676381
 20
281.156291841544
 30
0.0
 11
-161.9146621323618
 21
281.156291841544
 31
0.0
  0
LINE
  5
317
330
20B
100
AcDbEntity
  8
BEZUGSACHSEN
  6
Continuous
 62
     9
100
AcDbLine
 10
614.0853378676381
 20
294.131257923794
 30
0.0
 11
-163.9146621323618
 21
294.131257923794
 31
0.0
  0
LINE
  5
318
330
20B
100
AcDbEntity
  8
BEZUGSACHSEN
  6
Continuous
 62
     9
100
AcDbLine
 10
614.0853378676381
 20
296.356291841544
 30
0.0
 11
-163.9146621323618
 21
296.356291841544
 31
0.0
  0
LINE
  5
319
330
20B
100
AcDbEntity
  8
BEZUGSACHSEN
  6
Continuous
 62
     9
100
AcDbLine
 10
612.0853378676381
 20
281.156291841544
 30
0.0
 11
614.0853378676381
 21
283.1550734957939
 31
0.0
  0
LINE
  5
31B
330
20B
100
AcDbEntity
  8
BEZUGSACHSEN
  6
Continuous
 62
     9
100
AcDbLine
 10
545.0853378676383
 20
284.404312029544
 30
0.0
 11
545.0853378676383
 21
284.4566612745439
 31
0.0
  0
LINE
  5
31C
330
20B
100
AcDbEntity
  8
BEZUGSACHSEN
  6
Continuous
 62
     9
100
AcDbLine
 10
614.0853378676381
 20
283.1550734957939
 30
0.0
 11
614.0853378676381
 21
294.131257923794
 31
0.0
  0
LINE
  5
31D
330
20B
100
AcDbEntity
  8
BEZUGSACHSEN
  6
Continuous
 62
     9
100
AcDbLine
 10
614.0853378676381
 20
294.131257923794
 30
0.0
 11
614.0853378676381
 21
296.3562769480438
 31
0.0
  0
ARC
  5
31E
330
20B
100
AcDbEntity
  8
BEZUGSACHSEN
  6
Continuous
 62
     9
100
AcDbCircle
 10
25.08533786763815
 20
134.8563975840439
 30
0.0
 40
2.5
100
AcDbArc
 50
180.0
 51
0.0
  0
ARC
  5
31F
330
20B
100
AcDbEntity
  8
BEZUGSACHSEN
  6
Continuous
 62
     9
100
AcDbCircle
 10
9.085337867638145
 20
134.8563975840439
 30
0.0
 40
2.5
100
AcDbArc
 50
180.0
 51
0.0
  0
ARC
  5
320
330
20B
100
AcDbEntity
  8
BEZUGSACHSEN
  6
Continuous
 62
     9
100
AcDbCircle
 10
-6.914662132361852
 20
134.8563975840439
 30
0.0
 40
2.5
100
AcDbArc
 50
180.0
 51
0.0
  0
ARC
  5
321
330
20B
100
AcDbEntity
  8
BEZUGSACHSEN
  6
Continuous
 62
     9
100
AcDbCircle
 10
-22.91466213236185
 20
134.8563975840439
 30
0.0
 40
2.5
100
AcDbArc
 50
180.0
 51
0.0
  0
ARC
  5
322
330
20B
100
AcDbEntity
  8
BEZUGSACHSEN
  6
Continuous
 62
     9
100
AcDbCircle
 10
-38.91466213236185
 20
134.8563975840439
 30
0.0
 40
2.5
100
AcDbArc
 50
180.0
 51
0.0
  0
ARC
  5
323
330
20B
100
AcDbEntity
  8
BEZUGSACHSEN
  6
Continuous
 62
     9
100
AcDbCircle
 10
-54.91466213236186
 20
134.8563975840439
 30
0.0
 40
2.5
100
AcDbArc
 50
180.0
 51
0.0
  0
ARC
  5
324
330
20B
100
AcDbEntity
  8
BEZUGSACHSEN
  6
Continuous
 62
     9
100
AcDbCircle
 10
-70.91466213236184
 20
141.856397584044
 30
0.0
 40
2.5
100
AcDbArc
 50
0.0
 51
180.0
  0
ARC
  5
325
330
20B
100
AcDbEntity
  8
BEZUGSACHSEN
  6
Continuous
 62
     9
100
AcDbCircle
 10
-70.91466213236184
 20
134.8563975840439
 30
0.0
 40
2.5
100
AcDbArc
 50
180.0
 51
0.0
  0
ARC
  5
326
330
20B
100
AcDbEntity
  8
BEZUGSACHSEN
  6
Continuous
 62
     9
100
AcDbCircle
 10
-86.9146621323618
 20
139.8563975840439
 30
0.0
 40
2.5
100
AcDbArc
 50
0.0
 51
180.0
  0
ARC
  5
327
330
20B
100
AcDbEntity
  8
BEZUGSACHSEN
  6
Continuous
 62
     9
100
AcDbCircle
 10
-86.9146621323618
 20
134.8563975840439
 30
0.0
 40
2.5
100
AcDbArc
 50
180.0
 51
0.0
  0
ARC
  5
328
330
20B
100
AcDbEntity
  8
BEZUGSACHSEN
  6
Continuous
 62
     9
100
AcDbCircle
 10
-102.9146621323618
 20
138.856397584044
 30
0.0
 40
2.5
100
AcDbArc
 50
0.0
 51
180.0
  0
ARC
  5
329
330
20B
100
AcDbEntity
  8
BEZUGSACHSEN
  6
Continuous
 62
     9
100
AcDbCircle
 10
-102.9146621323618
 20
134.8563975840439
 30
0.0
 40
2.5
100
AcDbArc
 50
180.0
 51
0.0
  0
ARC
  5
32A
330
20B
100
AcDbEntity
  8
BEZUGSACHSEN
  6
Continuous
 62
     9
100
AcDbCircle
 10
-118.9146621323618
 20
137.8563975840439
 30
0.0
 40
2.5
100
AcDbArc
 50
0.0
 51
180.0
  0
ARC
  5
32B
330
20B
100
AcDbEntity
  8
BEZUGSACHSEN
  6
Continuous
 62
     9
100
AcDbCircle
 10
-118.9146621323618
 20
134.8563975840439
 30
0.0
 40
2.5
100
AcDbArc
 50
180.0
 51
0.0
  0
ARC
  5
32C
330
20B
100
AcDbEntity
  8
BEZUGSACHSEN
  6
Continuous
 62
     9
100
AcDbCircle
 10
-134.9146621323618
 20
138.856397584044
 30
0.0
 40
2.5
100
AcDbArc
 50
0.0
 51
180.0
  0
ARC
  5
32D
330
20B
100
AcDbEntity
  8
BEZUGSACHSEN
  6
Continuous
 62
     9
100
AcDbCircle
 10
-134.9146621323618
 20
134.8563975840439
 30
0.0
 40
2.5
100
AcDbArc
 50
180.0
 51
0.0
  0
ARC
  5
32E
330
20B
100
AcDbEntity
  8
BEZUGSACHSEN
  6
Continuous
 62
     9
100
AcDbCircle
 10
-150.9146621323618
 20
139.8563975840439
 30
0.0
 40
2.5
100
AcDbArc
 50
0.0
 51
180.0
  0
ARC
  5
32F
330
20B
100
AcDbEntity
  8
BEZUGSACHSEN
  6
Continuous
 62
     9
100
AcDbCircle
 10
-150.9146621323618
 20
134.8563975840439
 30
0.0
 40
2.5
100
AcDbArc
 50
180.0
 51
0.0
  0
ARC
  5
330
330
20B
100
AcDbEntity
  8
BEZUGSACHSEN
  6
Continuous
 62
     9
100
AcDbCircle
 10
-22.91466213236185
 20
155.8563975840439
 30
0.0
 40
2.5
100
AcDbArc
 50
0.0
 51
180.0
  0
ARC
  5
331
330
20B
100
AcDbEntity
  8
BEZUGSACHSEN
  6
Continuous
 62
     9
100
AcDbCircle
 10
-38.91466213236185
 20
149.8563975840439
 30
0.0
 40
2.5
100
AcDbArc
 50
0.0
 51
180.0
  0
ARC
  5
332
330
20B
100
AcDbEntity
  8
BEZUGSACHSEN
  6
Continuous
 62
     9
100
AcDbCircle
 10
-54.91466213236186
 20
145.856397584044
 30
0.0
 40
2.5
100
AcDbArc
 50
0.0
 51
180.0
  0
ARC
  5
333
330
20B
100
AcDbEntity
  8
BEZUGSACHSEN
  6
Continuous
 62
     9
100
AcDbCircle
 10
-150.9146621323618
 20
148.856397584044
 30
0.0
 40
2.5
100
AcDbArc
 50
180.0
 51
0.0
  0
ARC
  5
334
330
20B
100
AcDbEntity
  8
BEZUGSACHSEN
  6
Continuous
 62
     9
100
AcDbCircle
 10
-134.9146621323618
 20
147.856397584044
 30
0.0
 40
2.5
100
AcDbArc
 50
180.0
 51
0.0
  0
ARC
  5
335
330
20B
100
AcDbEntity
  8
BEZUGSACHSEN
  6
Continuous
 62
     9
100
AcDbCircle
 10
-118.9146621323618
 20
146.856397584044
 30
0.0
 40
2.5
100
AcDbArc
 50
180.0
 51
0.0
  0
ARC
  5
336
330
20B
100
AcDbEntity
  8
BEZUGSACHSEN
  6
Continuous
 62
     9
100
AcDbCircle
 10
-102.9146621323618
 20
147.856397584044
 30
0.0
 40
2.5
100
AcDbArc
 50
180.0
 51
0.0
  0
ARC
  5
337
330
20B
100
AcDbEntity
  8
BEZUGSACHSEN
  6
Continuous
 62
     9
100
AcDbCircle
 10
-86.9146621323618
 20
148.856397584044
 30
0.0
 40
2.5
100
AcDbArc
 50
180.0
 51
0.0
  0
ARC
  5
338
330
20B
100
AcDbEntity
  8
BEZUGSACHSEN
  6
Continuous
 62
     9
100
AcDbCircle
 10
-70.91466213236184
 20
150.856397584044
 30
0.0
 40
2.5
100
AcDbArc
 50
180.0
 51
0.0
  0
ARC
  5
339
330
20B
100
AcDbEntity
  8
BEZUGSACHSEN
  6
Continuous
 62
     9
100
AcDbCircle
 10
-54.91466213236186
 20
154.8563975840439
 30
0.0
 40
2.5
100
AcDbArc
 50
180.0
 51
0.0
  0
ARC
  5
33A
330
20B
100
AcDbEntity
  8
BEZUGSACHSEN
  6
Continuous
 62
     9
100
AcDbCircle
 10
41.08533786763813
 20
134.8563975840439
 30
0.0
 40
2.5
100
AcDbArc
 50
180.0
 51
0.0
  0
ARC
  5
33B
330
20B
100
AcDbEntity
  8
BEZUGSACHSEN
  6
Continuous
 62
     9
100
AcDbCircle
 10
217.0853378676381
 20
138.856397584044
 30
0.0
 40
2.5
100
AcDbArc
 50
0.0
 51
180.0
  0
ARC
  5
33C
330
20B
100
AcDbEntity
  8
BEZUGSACHSEN
  6
Continuous
 62
     9
100
AcDbCircle
 10
217.0853378676381
 20
134.8563975840439
 30
0.0
 40
2.5
100
AcDbArc
 50
180.0
 51
0.0
  0
ARC
  5
33D
330
20B
100
AcDbEntity
  8
BEZUGSACHSEN
  6
Continuous
 62
     9
100
AcDbCircle
 10
201.0853378676381
 20
139.8563975840439
 30
0.0
 40
2.5
100
AcDbArc
 50
0.0
 51
180.0
  0
ARC
  5
33E
330
20B
100
AcDbEntity
  8
BEZUGSACHSEN
  6
Continuous
 62
     9
100
AcDbCircle
 10
201.0853378676381
 20
134.8563975840439
 30
0.0
 40
2.5
100
AcDbArc
 50
180.0
 51
0.0
  0
ARC
  5
33F
330
20B
100
AcDbEntity
  8
BEZUGSACHSEN
  6
Continuous
 62
     9
100
AcDbCircle
 10
185.0853378676382
 20
141.856397584044
 30
0.0
 40
2.5
100
AcDbArc
 50
0.0
 51
180.0
  0
ARC
  5
340
330
20B
100
AcDbEntity
  8
BEZUGSACHSEN
  6
Continuous
 62
     9
100
AcDbCircle
 10
185.0853378676382
 20
134.8563975840439
 30
0.0
 40
2.5
100
AcDbArc
 50
180.0
 51
0.0
  0
ARC
  5
341
330
20B
100
AcDbEntity
  8
BEZUGSACHSEN
  6
Continuous
 62
     9
100
AcDbCircle
 10
169.0853378676381
 20
134.8563975840439
 30
0.0
 40
2.5
100
AcDbArc
 50
180.0
 51
0.0
  0
ARC
  5
342
330
20B
100
AcDbEntity
  8
BEZUGSACHSEN
  6
Continuous
 62
     9
100
AcDbCircle
 10
153.0853378676382
 20
134.8563975840439
 30
0.0
 40
2.5
100
AcDbArc
 50
180.0
 51
0.0
  0
ARC
  5
343
330
20B
100
AcDbEntity
  8
BEZUGSACHSEN
  6
Continuous
 62
     9
100
AcDbCircle
 10
137.0853378676382
 20
134.8563975840439
 30
0.0
 40
2.5
100
AcDbArc
 50
180.0
 51
0.0
  0
ARC
  5
344
330
20B
100
AcDbEntity
  8
BEZUGSACHSEN
  6
Continuous
 62
     9
100
AcDbCircle
 10
121.0853378676381
 20
134.8563975840439
 30
0.0
 40
2.5
100
AcDbArc
 50
180.0
 51
0.0
  0
ARC
  5
345
330
20B
100
AcDbEntity
  8
BEZUGSACHSEN
  6
Continuous
 62
     9
100
AcDbCircle
 10
105.0853378676381
 20
134.8563975840439
 30
0.0
 40
2.5
100
AcDbArc
 50
180.0
 51
0.0
  0
ARC
  5
346
330
20B
100
AcDbEntity
  8
BEZUGSACHSEN
  6
Continuous
 62
     9
100
AcDbCircle
 10
89.08533786763815
 20
134.8563975840439
 30
0.0
 40
2.5
100
AcDbArc
 50
180.0
 51
0.0
  0
ARC
  5
347
330
20B
100
AcDbEntity
  8
BEZUGSACHSEN
  6
Continuous
 62
     9
100
AcDbCircle
 10
73.08533786763814
 20
134.8563975840439
 30
0.0
 40
2.5
100
AcDbArc
 50
180.0
 51
0.0
  0
ARC
  5
348
330
20B
100
AcDbEntity
  8
BEZUGSACHSEN
  6
Continuous
 62
     9
100
AcDbCircle
 10
57.08533786763815
 20
134.8563975840439
 30
0.0
 40
2.5
100
AcDbArc
 50
180.0
 51
0.0
  0
ARC
  5
349
330
20B
100
AcDbEntity
  8
BEZUGSACHSEN
  6
Continuous
 62
     9
100
AcDbCircle
 10
169.0853378676381
 20
145.856397584044
 30
0.0
 40
2.5
100
AcDbArc
 50
0.0
 51
180.0
  0
ARC
  5
34A
330
20B
100
AcDbEntity
  8
BEZUGSACHSEN
  6
Continuous
 62
     9
100
AcDbCircle
 10
153.0853378676382
 20
149.8563975840439
 30
0.0
 40
2.5
100
AcDbArc
 50
0.0
 51
180.0
  0
ARC
  5
34B
330
20B
100
AcDbEntity
  8
BEZUGSACHSEN
  6
Continuous
 62
     9
100
AcDbCircle
 10
137.0853378676382
 20
155.8563975840439
 30
0.0
 40
2.5
100
AcDbArc
 50
0.0
 51
180.0
  0
ARC
  5
34C
330
20B
100
AcDbEntity
  8
BEZUGSACHSEN
  6
Continuous
 62
     9
100
AcDbCircle
 10
169.0853378676381
 20
154.8563975840439
 30
0.0
 40
2.5
100
AcDbArc
 50
180.0
 51
0.0
  0
ARC
  5
34D
330
20B
100
AcDbEntity
  8
BEZUGSACHSEN
  6
Continuous
 62
     9
100
AcDbCircle
 10
185.0853378676382
 20
150.856397584044
 30
0.0
 40
2.5
100
AcDbArc
 50
180.0
 51
0.0
  0
ARC
  5
34E
330
20B
100
AcDbEntity
  8
BEZUGSACHSEN
  6
Continuous
 62
     9
100
AcDbCircle
 10
201.0853378676381
 20
148.856397584044
 30
0.0
 40
2.5
100
AcDbArc
 50
180.0
 51
0.0
  0
ARC
  5
34F
330
20B
100
AcDbEntity
  8
BEZUGSACHSEN
  6
Continuous
 62
     9
100
AcDbCircle
 10
217.0853378676381
 20
147.856397584044
 30
0.0
 40
2.5
100
AcDbArc
 50
180.0
 51
0.0
  0
ARC
  5
350
330
20B
100
AcDbEntity
  8
BEZUGSACHSEN
  6
Continuous
 62
     9
100
AcDbCircle
 10
25.08533786763815
 20
165.8563975840439
 30
0.0
 40
2.5
100
AcDbArc
 50
0.0
 51
180.0
  0
ARC
  5
351
330
20B
100
AcDbEntity
  8
BEZUGSACHSEN
  6
Continuous
 62
     9
100
AcDbCircle
 10
9.085337867638145
 20
163.856397584044
 30
0.0
 40
2.5
100
AcDbArc
 50
0.0
 51
180.0
  0
ARC
  5
352
330
20B
100
AcDbEntity
  8
BEZUGSACHSEN
  6
Continuous
 62
     9
100
AcDbCircle
 10
-6.914662132361852
 20
159.8563975840439
 30
0.0
 40
2.5
100
AcDbArc
 50
0.0
 51
180.0
  0
ARC
  5
353
330
20B
100
AcDbEntity
  8
BEZUGSACHSEN
  6
Continuous
 62
     9
100
AcDbCircle
 10
-38.91466213236185
 20
158.856397584044
 30
0.0
 40
2.5
100
AcDbArc
 50
180.0
 51
0.0
  0
ARC
  5
354
330
20B
100
AcDbEntity
  8
BEZUGSACHSEN
  6
Continuous
 62
     9
100
AcDbCircle
 10
-22.91466213236185
 20
164.8563975840439
 30
0.0
 40
2.5
100
AcDbArc
 50
180.0
 51
0.0
  0
ARC
  5
355
330
20B
100
AcDbEntity
  8
BEZUGSACHSEN
  6
Continuous
 62
     9
100
AcDbCircle
 10
-6.914662132361852
 20
168.856397584044
 30
0.0
 40
2.5
100
AcDbArc
 50
180.0
 51
0.0
  0
ARC
  5
356
330
20B
100
AcDbEntity
  8
BEZUGSACHSEN
  6
Continuous
 62
     9
100
AcDbCircle
 10
-150.9146621323618
 20
179.8563975840439
 30
0.0
 40
2.5
100
AcDbArc
 50
0.0
 51
180.0
  0
ARC
  5
357
330
20B
100
AcDbEntity
  8
BEZUGSACHSEN
  6
Continuous
 62
     9
100
AcDbCircle
 10
-134.9146621323618
 20
179.8563975840439
 30
0.0
 40
2.5
100
AcDbArc
 50
0.0
 51
180.0
  0
ARC
  5
358
330
20B
100
AcDbEntity
  8
BEZUGSACHSEN
  6
Continuous
 62
     9
100
AcDbCircle
 10
-118.9146621323618
 20
179.8563975840439
 30
0.0
 40
2.5
100
AcDbArc
 50
0.0
 51
180.0
  0
ARC
  5
359
330
20B
100
AcDbEntity
  8
BEZUGSACHSEN
  6
Continuous
 62
     9
100
AcDbCircle
 10
-102.9146621323618
 20
179.8563975840439
 30
0.0
 40
2.5
100
AcDbArc
 50
0.0
 51
180.0
  0
ARC
  5
35A
330
20B
100
AcDbEntity
  8
BEZUGSACHSEN
  6
Continuous
 62
     9
100
AcDbCircle
 10
-86.9146621323618
 20
179.8563975840439
 30
0.0
 40
2.5
100
AcDbArc
 50
0.0
 51
180.0
  0
ARC
  5
35B
330
20B
100
AcDbEntity
  8
BEZUGSACHSEN
  6
Continuous
 62
     9
100
AcDbCircle
 10
-70.91466213236184
 20
179.8563975840439
 30
0.0
 40
2.5
100
AcDbArc
 50
0.0
 51
180.0
  0
ARC
  5
35C
330
20B
100
AcDbEntity
  8
BEZUGSACHSEN
  6
Continuous
 62
     9
100
AcDbCircle
 10
-54.91466213236186
 20
179.8563975840439
 30
0.0
 40
2.5
100
AcDbArc
 50
0.0
 51
180.0
  0
ARC
  5
35D
330
20B
100
AcDbEntity
  8
BEZUGSACHSEN
  6
Continuous
 62
     9
100
AcDbCircle
 10
-38.91466213236185
 20
179.8563975840439
 30
0.0
 40
2.5
100
AcDbArc
 50
0.0
 51
180.0
  0
ARC
  5
35E
330
20B
100
AcDbEntity
  8
BEZUGSACHSEN
  6
Continuous
 62
     9
100
AcDbCircle
 10
-22.91466213236185
 20
179.8563975840439
 30
0.0
 40
2.5
100
AcDbArc
 50
0.0
 51
180.0
  0
ARC
  5
35F
330
20B
100
AcDbEntity
  8
BEZUGSACHSEN
  6
Continuous
 62
     9
100
AcDbCircle
 10
-6.914662132361852
 20
179.8563975840439
 30
0.0
 40
2.5
100
AcDbArc
 50
0.0
 51
180.0
  0
ARC
  5
360
330
20B
100
AcDbEntity
  8
BEZUGSACHSEN
  6
Continuous
 62
     9
100
AcDbCircle
 10
9.085337867638145
 20
172.856397584044
 30
0.0
 40
2.5
100
AcDbArc
 50
180.0
 51
0.0
  0
ARC
  5
361
330
20B
100
AcDbEntity
  8
BEZUGSACHSEN
  6
Continuous
 62
     9
100
AcDbCircle
 10
9.085337867638145
 20
179.8563975840439
 30
0.0
 40
2.5
100
AcDbArc
 50
0.0
 51
180.0
  0
ARC
  5
362
330
20B
100
AcDbEntity
  8
BEZUGSACHSEN
  6
Continuous
 62
     9
100
AcDbCircle
 10
25.08533786763815
 20
174.8563975840439
 30
0.0
 40
2.5
100
AcDbArc
 50
180.0
 51
0.0
  0
ARC
  5
363
330
20B
100
AcDbEntity
  8
BEZUGSACHSEN
  6
Continuous
 62
     9
100
AcDbCircle
 10
25.08533786763815
 20
179.8563975840439
 30
0.0
 40
2.5
100
AcDbArc
 50
0.0
 51
180.0
  0
ARC
  5
364
330
20B
100
AcDbEntity
  8
BEZUGSACHSEN
  6
Continuous
 62
     9
100
AcDbCircle
 10
41.08533786763813
 20
166.8563975840439
 30
0.0
 40
2.5
100
AcDbArc
 50
0.0
 51
180.0
  0
ARC
  5
365
330
20B
100
AcDbEntity
  8
BEZUGSACHSEN
  6
Continuous
 62
     9
100
AcDbCircle
 10
121.0853378676381
 20
159.8563975840439
 30
0.0
 40
2.5
100
AcDbArc
 50
0.0
 51
180.0
  0
ARC
  5
366
330
20B
100
AcDbEntity
  8
BEZUGSACHSEN
  6
Continuous
 62
     9
100
AcDbCircle
 10
105.0853378676381
 20
163.856397584044
 30
0.0
 40
2.5
100
AcDbArc
 50
0.0
 51
180.0
  0
ARC
  5
367
330
20B
100
AcDbEntity
  8
BEZUGSACHSEN
  6
Continuous
 62
     9
100
AcDbCircle
 10
89.08533786763815
 20
165.8563975840439
 30
0.0
 40
2.5
100
AcDbArc
 50
0.0
 51
180.0
  0
ARC
  5
368
330
20B
100
AcDbEntity
  8
BEZUGSACHSEN
  6
Continuous
 62
     9
100
AcDbCircle
 10
73.08533786763814
 20
166.8563975840439
 30
0.0
 40
2.5
100
AcDbArc
 50
0.0
 51
180.0
  0
ARC
  5
369
330
20B
100
AcDbEntity
  8
BEZUGSACHSEN
  6
Continuous
 62
     9
100
AcDbCircle
 10
57.08533786763815
 20
167.856397584044
 30
0.0
 40
2.5
100
AcDbArc
 50
0.0
 51
180.0
  0
ARC
  5
36A
330
20B
100
AcDbEntity
  8
BEZUGSACHSEN
  6
Continuous
 62
     9
100
AcDbCircle
 10
121.0853378676381
 20
168.856397584044
 30
0.0
 40
2.5
100
AcDbArc
 50
180.0
 51
0.0
  0
ARC
  5
36B
330
20B
100
AcDbEntity
  8
BEZUGSACHSEN
  6
Continuous
 62
     9
100
AcDbCircle
 10
137.0853378676382
 20
164.8563975840439
 30
0.0
 40
2.5
100
AcDbArc
 50
180.0
 51
0.0
  0
ARC
  5
36C
330
20B
100
AcDbEntity
  8
BEZUGSACHSEN
  6
Continuous
 62
     9
100
AcDbCircle
 10
153.0853378676382
 20
158.856397584044
 30
0.0
 40
2.5
100
AcDbArc
 50
180.0
 51
0.0
  0
ARC
  5
36D
330
20B
100
AcDbEntity
  8
BEZUGSACHSEN
  6
Continuous
 62
     9
100
AcDbCircle
 10
57.08533786763815
 20
176.8563975840439
 30
0.0
 40
2.5
100
AcDbArc
 50
180.0
 51
0.0
  0
ARC
  5
36E
330
20B
100
AcDbEntity
  8
BEZUGSACHSEN
  6
Continuous
 62
     9
100
AcDbCircle
 10
57.08533786763815
 20
179.8563975840439
 30
0.0
 40
2.5
100
AcDbArc
 50
0.0
 51
180.0
  0
ARC
  5
36F
330
20B
100
AcDbEntity
  8
BEZUGSACHSEN
  6
Continuous
 62
     9
100
AcDbCircle
 10
73.08533786763814
 20
175.8563975840439
 30
0.0
 40
2.5
100
AcDbArc
 50
180.0
 51
0.0
  0
ARC
  5
370
330
20B
100
AcDbEntity
  8
BEZUGSACHSEN
  6
Continuous
 62
     9
100
AcDbCircle
 10
73.08533786763814
 20
179.8563975840439
 30
0.0
 40
2.5
100
AcDbArc
 50
0.0
 51
180.0
  0
ARC
  5
371
330
20B
100
AcDbEntity
  8
BEZUGSACHSEN
  6
Continuous
 62
     9
100
AcDbCircle
 10
89.08533786763815
 20
174.8563975840439
 30
0.0
 40
2.5
100
AcDbArc
 50
180.0
 51
0.0
  0
ARC
  5
372
330
20B
100
AcDbEntity
  8
BEZUGSACHSEN
  6
Continuous
 62
     9
100
AcDbCircle
 10
89.08533786763815
 20
179.8563975840439
 30
0.0
 40
2.5
100
AcDbArc
 50
0.0
 51
180.0
  0
ARC
  5
373
330
20B
100
AcDbEntity
  8
BEZUGSACHSEN
  6
Continuous
 62
     9
100
AcDbCircle
 10
105.0853378676381
 20
172.856397584044
 30
0.0
 40
2.5
100
AcDbArc
 50
180.0
 51
0.0
  0
ARC
  5
374
330
20B
100
AcDbEntity
  8
BEZUGSACHSEN
  6
Continuous
 62
     9
100
AcDbCircle
 10
105.0853378676381
 20
179.8563975840439
 30
0.0
 40
2.5
100
AcDbArc
 50
0.0
 51
180.0
  0
ARC
  5
375
330
20B
100
AcDbEntity
  8
BEZUGSACHSEN
  6
Continuous
 62
     9
100
AcDbCircle
 10
121.0853378676381
 20
179.8563975840439
 30
0.0
 40
2.5
100
AcDbArc
 50
0.0
 51
180.0
  0
ARC
  5
376
330
20B
100
AcDbEntity
  8
BEZUGSACHSEN
  6
Continuous
 62
     9
100
AcDbCircle
 10
137.0853378676382
 20
179.8563975840439
 30
0.0
 40
2.5
100
AcDbArc
 50
0.0
 51
180.0
  0
ARC
  5
377
330
20B
100
AcDbEntity
  8
BEZUGSACHSEN
  6
Continuous
 62
     9
100
AcDbCircle
 10
153.0853378676382
 20
179.8563975840439
 30
0.0
 40
2.5
100
AcDbArc
 50
0.0
 51
180.0
  0
ARC
  5
378
330
20B
100
AcDbEntity
  8
BEZUGSACHSEN
  6
Continuous
 62
     9
100
AcDbCircle
 10
169.0853378676381
 20
179.8563975840439
 30
0.0
 40
2.5
100
AcDbArc
 50
0.0
 51
180.0
  0
ARC
  5
379
330
20B
100
AcDbEntity
  8
BEZUGSACHSEN
  6
Continuous
 62
     9
100
AcDbCircle
 10
185.0853378676382
 20
179.8563975840439
 30
0.0
 40
2.5
100
AcDbArc
 50
0.0
 51
180.0
  0
ARC
  5
37A
330
20B
100
AcDbEntity
  8
BEZUGSACHSEN
  6
Continuous
 62
     9
100
AcDbCircle
 10
201.0853378676381
 20
179.8563975840439
 30
0.0
 40
2.5
100
AcDbArc
 50
0.0
 51
180.0
  0
ARC
  5
37B
330
20B
100
AcDbEntity
  8
BEZUGSACHSEN
  6
Continuous
 62
     9
100
AcDbCircle
 10
217.0853378676381
 20
179.8563975840439
 30
0.0
 40
2.5
100
AcDbArc
 50
0.0
 51
180.0
  0
ARC
  5
37C
330
20B
100
AcDbEntity
  8
BEZUGSACHSEN
  6
Continuous
 62
     9
100
AcDbCircle
 10
41.08533786763813
 20
175.8563975840439
 30
0.0
 40
2.5
100
AcDbArc
 50
180.0
 51
0.0
  0
ARC
  5
37D
330
20B
100
AcDbEntity
  8
BEZUGSACHSEN
  6
Continuous
 62
     9
100
AcDbCircle
 10
41.08533786763813
 20
179.8563975840439
 30
0.0
 40
2.5
100
AcDbArc
 50
0.0
 51
180.0
  0
ARC
  5
37E
330
20B
100
AcDbEntity
  8
BEZUGSACHSEN
  6
Continuous
 62
     9
100
AcDbCircle
 10
393.0853378676383
 20
134.8563975840439
 30
0.0
 40
2.5
100
AcDbArc
 50
180.0
 51
0.0
  0
ARC
  5
37F
330
20B
100
AcDbEntity
  8
BEZUGSACHSEN
  6
Continuous
 62
     9
100
AcDbCircle
 10
377.0853378676382
 20
134.8563975840439
 30
0.0
 40
2.5
100
AcDbArc
 50
180.0
 51
0.0
  0
ARC
  5
380
330
20B
100
AcDbEntity
  8
BEZUGSACHSEN
  6
Continuous
 62
     9
100
AcDbCircle
 10
361.0853378676381
 20
134.8563975840439
 30
0.0
 40
2.5
100
AcDbArc
 50
180.0
 51
0.0
  0
ARC
  5
381
330
20B
100
AcDbEntity
  8
BEZUGSACHSEN
  6
Continuous
 62
     9
100
AcDbCircle
 10
345.0853378676383
 20
134.8563975840439
 30
0.0
 40
2.5
100
AcDbArc
 50
180.0
 51
0.0
  0
ARC
  5
382
330
20B
100
AcDbEntity
  8
BEZUGSACHSEN
  6
Continuous
 62
     9
100
AcDbCircle
 10
329.0853378676382
 20
134.8563975840439
 30
0.0
 40
2.5
100
AcDbArc
 50
180.0
 51
0.0
  0
ARC
  5
383
330
20B
100
AcDbEntity
  8
BEZUGSACHSEN
  6
Continuous
 62
     9
100
AcDbCircle
 10
313.0853378676383
 20
134.8563975840439
 30
0.0
 40
2.5
100
AcDbArc
 50
180.0
 51
0.0
  0
ARC
  5
384
330
20B
100
AcDbEntity
  8
BEZUGSACHSEN
  6
Continuous
 62
     9
100
AcDbCircle
 10
297.0853378676381
 20
134.8563975840439
 30
0.0
 40
2.5
100
AcDbArc
 50
180.0
 51
0.0
  0
ARC
  5
385
330
20B
100
AcDbEntity
  8
BEZUGSACHSEN
  6
Continuous
 62
     9
100
AcDbCircle
 10
281.0853378676382
 20
141.856397584044
 30
0.0
 40
2.5
100
AcDbArc
 50
0.0
 51
180.0
  0
ARC
  5
386
330
20B
100
AcDbEntity
  8
BEZUGSACHSEN
  6
Continuous
 62
     9
100
AcDbCircle
 10
281.0853378676382
 20
134.8563975840439
 30
0.0
 40
2.5
100
AcDbArc
 50
180.0
 51
0.0
  0
ARC
  5
387
330
20B
100
AcDbEntity
  8
BEZUGSACHSEN
  6
Continuous
 62
     9
100
AcDbCircle
 10
265.0853378676383
 20
139.8563975840439
 30
0.0
 40
2.5
100
AcDbArc
 50
0.0
 51
180.0
  0
ARC
  5
388
330
20B
100
AcDbEntity
  8
BEZUGSACHSEN
  6
Continuous
 62
     9
100
AcDbCircle
 10
265.0853378676383
 20
134.8563975840439
 30
0.0
 40
2.5
100
AcDbArc
 50
180.0
 51
0.0
  0
ARC
  5
389
330
20B
100
AcDbEntity
  8
BEZUGSACHSEN
  6
Continuous
 62
     9
100
AcDbCircle
 10
249.0853378676383
 20
138.856397584044
 30
0.0
 40
2.5
100
AcDbArc
 50
0.0
 51
180.0
  0
ARC
  5
38A
330
20B
100
AcDbEntity
  8
BEZUGSACHSEN
  6
Continuous
 62
     9
100
AcDbCircle
 10
249.0853378676383
 20
134.8563975840439
 30
0.0
 40
2.5
100
AcDbArc
 50
180.0
 51
0.0
  0
ARC
  5
38B
330
20B
100
AcDbEntity
  8
BEZUGSACHSEN
  6
Continuous
 62
     9
100
AcDbCircle
 10
233.0853378676382
 20
137.8563975840439
 30
0.0
 40
2.5
100
AcDbArc
 50
0.0
 51
180.0
  0
ARC
  5
38C
330
20B
100
AcDbEntity
  8
BEZUGSACHSEN
  6
Continuous
 62
     9
100
AcDbCircle
 10
233.0853378676382
 20
134.8563975840439
 30
0.0
 40
2.5
100
AcDbArc
 50
180.0
 51
0.0
  0
ARC
  5
38D
330
20B
100
AcDbEntity
  8
BEZUGSACHSEN
  6
Continuous
 62
     9
100
AcDbCircle
 10
409.085337867638
 20
134.8563975840439
 30
0.0
 40
2.5
100
AcDbArc
 50
180.0
 51
0.0
  0
ARC
  5
38E
330
20B
100
AcDbEntity
  8
BEZUGSACHSEN
  6
Continuous
 62
     9
100
AcDbCircle
 10
329.0853378676382
 20
155.8563975840439
 30
0.0
 40
2.5
100
AcDbArc
 50
0.0
 51
180.0
  0
ARC
  5
38F
330
20B
100
AcDbEntity
  8
BEZUGSACHSEN
  6
Continuous
 62
     9
100
AcDbCircle
 10
313.0853378676383
 20
149.8563975840439
 30
0.0
 40
2.5
100
AcDbArc
 50
0.0
 51
180.0
  0
ARC
  5
390
330
20B
100
AcDbEntity
  8
BEZUGSACHSEN
  6
Continuous
 62
     9
100
AcDbCircle
 10
297.0853378676381
 20
145.856397584044
 30
0.0
 40
2.5
100
AcDbArc
 50
0.0
 51
180.0
  0
ARC
  5
391
330
20B
100
AcDbEntity
  8
BEZUGSACHSEN
  6
Continuous
 62
     9
100
AcDbCircle
 10
233.0853378676382
 20
146.856397584044
 30
0.0
 40
2.5
100
AcDbArc
 50
180.0
 51
0.0
  0
ARC
  5
392
330
20B
100
AcDbEntity
  8
BEZUGSACHSEN
  6
Continuous
 62
     9
100
AcDbCircle
 10
249.0853378676383
 20
147.856397584044
 30
0.0
 40
2.5
100
AcDbArc
 50
180.0
 51
0.0
  0
ARC
  5
393
330
20B
100
AcDbEntity
  8
BEZUGSACHSEN
  6
Continuous
 62
     9
100
AcDbCircle
 10
265.0853378676383
 20
148.856397584044
 30
0.0
 40
2.5
100
AcDbArc
 50
180.0
 51
0.0
  0
ARC
  5
394
330
20B
100
AcDbEntity
  8
BEZUGSACHSEN
  6
Continuous
 62
     9
100
AcDbCircle
 10
281.0853378676382
 20
150.856397584044
 30
0.0
 40
2.5
100
AcDbArc
 50
180.0
 51
0.0
  0
ARC
  5
395
330
20B
100
AcDbEntity
  8
BEZUGSACHSEN
  6
Continuous
 62
     9
100
AcDbCircle
 10
297.0853378676381
 20
154.8563975840439
 30
0.0
 40
2.5
100
AcDbArc
 50
180.0
 51
0.0
  0
ARC
  5
396
330
20B
100
AcDbEntity
  8
BEZUGSACHSEN
  6
Continuous
 62
     9
100
AcDbCircle
 10
592.4713378676381
 20
133.323397584044
 30
0.0
 40
7.386
100
AcDbArc
 50
126.4241761855994
 51
179.7440066322002
  0
ARC
  5
397
330
20B
100
AcDbEntity
  8
BEZUGSACHSEN
  6
Continuous
 62
     9
100
AcDbCircle
 10
583.700337867638
 20
133.323397584044
 30
0.0
 40
7.386
100
AcDbArc
 50
0.2559933677997615
 51
53.57582381440053
  0
ARC
  5
398
330
20B
100
AcDbEntity
  8
BEZUGSACHSEN
  6
Continuous
 62
     9
100
AcDbCircle
 10
583.700337867638
 20
133.323397584044
 30
0.0
 40
6.462999999999999
100
AcDbArc
 50
0.2925528298996754
 51
7.700422993099462
  0
ARC
  5
399
330
20B
100
AcDbEntity
  8
BEZUGSACHSEN
  6
Continuous
 62
     9
100
AcDbCircle
 10
583.700337867638
 20
133.323397584044
 30
0.0
 40
6.462999999999999
100
AcDbArc
 50
16.06969496210047
 51
47.26029003409963
  0
ARC
  5
39A
330
20B
100
AcDbEntity
  8
BEZUGSACHSEN
  6
Continuous
 62
     9
100
AcDbCircle
 10
592.4713378676381
 20
133.323397584044
 30
0.0
 40
6.461999999999997
100
AcDbArc
 50
172.2983781311005
 51
179.7074018969001
  0
ARC
  5
39B
330
20B
100
AcDbEntity
  8
BEZUGSACHSEN
  6
Continuous
 62
     9
100
AcDbCircle
 10
592.4713378676381
 20
133.323397584044
 30
0.0
 40
6.461999999999997
100
AcDbArc
 50
132.7301138375001
 51
163.9277508971001
  0
CIRCLE
  5
39C
330
20B
100
AcDbEntity
  8
BEZUGSACHSEN
  6
Continuous
 62
     9
100
AcDbCircle
 10
605.089337867638
 20
136.397397584044
 30
0.0
 40
3.000499999999998
  0
ARC
  5
39D
330
20B
100
AcDbEntity
  8
BEZUGSACHSEN
  6
Continuous
 62
     9
100
AcDbCircle
 10
596.5873378676381
 20
136.397397584044
 30
0.0
 40
3.000499999999998
100
AcDbArc
 50
30.73288719530081
 51
329.9942638431001
  0
ARC
  5
39E
330
20B
100
AcDbEntity
  8
BEZUGSACHSEN
  6
Continuous
 62
     9
100
AcDbCircle
 10
569.0853378676381
 20
138.856397584044
 30
0.0
 40
2.5
100
AcDbArc
 50
0.0
 51
180.0
  0
ARC
  5
39F
330
20B
100
AcDbEntity
  8
BEZUGSACHSEN
  6
Continuous
 62
     9
100
AcDbCircle
 10
569.0853378676381
 20
134.8563975840439
 30
0.0
 40
2.5
100
AcDbArc
 50
180.0
 51
0.0
  0
ARC
  5
3A0
330
20B
100
AcDbEntity
  8
BEZUGSACHSEN
  6
Continuous
 62
     9
100
AcDbCircle
 10
553.0853378676381
 20
139.8563975840439
 30
0.0
 40
2.5
100
AcDbArc
 50
0.0
 51
180.0
  0
ARC
  5
3A1
330
20B
100
AcDbEntity
  8
BEZUGSACHSEN
  6
Continuous
 62
     9
100
AcDbCircle
 10
553.0853378676381
 20
134.8563975840439
 30
0.0
 40
2.5
100
AcDbArc
 50
180.0
 51
0.0
  0
ARC
  5
3A2
330
20B
100
AcDbEntity
  8
BEZUGSACHSEN
  6
Continuous
 62
     9
100
AcDbCircle
 10
537.0853378676383
 20
141.856397584044
 30
0.0
 40
2.5
100
AcDbArc
 50
0.0
 51
180.0
  0
ARC
  5
3A3
330
20B
100
AcDbEntity
  8
BEZUGSACHSEN
  6
Continuous
 62
     9
100
AcDbCircle
 10
537.0853378676383
 20
134.8563975840439
 30
0.0
 40
2.5
100
AcDbArc
 50
180.0
 51
0.0
  0
ARC
  5
3A4
330
20B
100
AcDbEntity
  8
BEZUGSACHSEN
  6
Continuous
 62
     9
100
AcDbCircle
 10
521.0853378676381
 20
134.8563975840439
 30
0.0
 40
2.5
100
AcDbArc
 50
180.0
 51
0.0
  0
ARC
  5
3A5
330
20B
100
AcDbEntity
  8
BEZUGSACHSEN
  6
Continuous
 62
     9
100
AcDbCircle
 10
505.085337867638
 20
134.8563975840439
 30
0.0
 40
2.5
100
AcDbArc
 50
180.0
 51
0.0
  0
ARC
  5
3A6
330
20B
100
AcDbEntity
  8
BEZUGSACHSEN
  6
Continuous
 62
     9
100
AcDbCircle
 10
489.085337867638
 20
134.8563975840439
 30
0.0
 40
2.5
100
AcDbArc
 50
180.0
 51
0.0
  0
ARC
  5
3A7
330
20B
100
AcDbEntity
  8
BEZUGSACHSEN
  6
Continuous
 62
     9
100
AcDbCircle
 10
473.085337867638
 20
134.8563975840439
 30
0.0
 40
2.5
100
AcDbArc
 50
180.0
 51
0.0
  0
ARC
  5
3A8
330
20B
100
AcDbEntity
  8
BEZUGSACHSEN
  6
Continuous
 62
     9
100
AcDbCircle
 10
457.0853378676381
 20
134.8563975840439
 30
0.0
 40
2.5
100
AcDbArc
 50
180.0
 51
0.0
  0
ARC
  5
3A9
330
20B
100
AcDbEntity
  8
BEZUGSACHSEN
  6
Continuous
 62
     9
100
AcDbCircle
 10
441.0853378676381
 20
134.8563975840439
 30
0.0
 40
2.5
100
AcDbArc
 50
180.0
 51
0.0
  0
ARC
  5
3AA
330
20B
100
AcDbEntity
  8
BEZUGSACHSEN
  6
Continuous
 62
     9
100
AcDbCircle
 10
425.0853378676381
 20
134.8563975840439
 30
0.0
 40
2.5
100
AcDbArc
 50
180.0
 51
0.0
  0
CIRCLE
  5
3AB
330
20B
100
AcDbEntity
  8
BEZUGSACHSEN
  6
Continuous
 62
     9
100
AcDbCircle
 10
605.089337867638
 20
136.397397584044
 30
0.0
 40
2.076999999999999
  0
ARC
  5
3AC
330
20B
100
AcDbEntity
  8
BEZUGSACHSEN
  6
Continuous
 62
     9
100
AcDbCircle
 10
596.5873378676381
 20
136.397397584044
 30
0.0
 40
2.076999999999999
100
AcDbArc
 50
31.05878344740045
 51
329.9917133659003
  0
ARC
  5
3AD
330
20B
100
AcDbEntity
  8
BEZUGSACHSEN
  6
Continuous
 62
     9
100
AcDbCircle
 10
521.0853378676381
 20
145.856397584044
 30
0.0
 40
2.5
100
AcDbArc
 50
0.0
 51
180.0
  0
ARC
  5
3AE
330
20B
100
AcDbEntity
  8
BEZUGSACHSEN
  6
Continuous
 62
     9
100
AcDbCircle
 10
505.085337867638
 20
149.8563975840439
 30
0.0
 40
2.5
100
AcDbArc
 50
0.0
 51
180.0
  0
ARC
  5
3AF
330
20B
100
AcDbEntity
  8
BEZUGSACHSEN
  6
Continuous
 62
     9
100
AcDbCircle
 10
489.085337867638
 20
155.8563975840439
 30
0.0
 40
2.5
100
AcDbArc
 50
0.0
 51
180.0
  0
ARC
  5
3B0
330
20B
100
AcDbEntity
  8
BEZUGSACHSEN
  6
Continuous
 62
     9
100
AcDbCircle
 10
521.0853378676381
 20
154.8563975840439
 30
0.0
 40
2.5
100
AcDbArc
 50
180.0
 51
0.0
  0
ARC
  5
3B1
330
20B
100
AcDbEntity
  8
BEZUGSACHSEN
  6
Continuous
 62
     9
100
AcDbCircle
 10
537.0853378676383
 20
150.856397584044
 30
0.0
 40
2.5
100
AcDbArc
 50
180.0
 51
0.0
  0
ARC
  5
3B2
330
20B
100
AcDbEntity
  8
BEZUGSACHSEN
  6
Continuous
 62
     9
100
AcDbCircle
 10
553.0853378676381
 20
148.856397584044
 30
0.0
 40
2.5
100
AcDbArc
 50
180.0
 51
0.0
  0
ARC
  5
3B3
330
20B
100
AcDbEntity
  8
BEZUGSACHSEN
  6
Continuous
 62
     9
100
AcDbCircle
 10
569.0853378676381
 20
147.856397584044
 30
0.0
 40
2.5
100
AcDbArc
 50
180.0
 51
0.0
  0
ARC
  5
3B4
330
20B
100
AcDbEntity
  8
BEZUGSACHSEN
  6
Continuous
 62
     9
100
AcDbCircle
 10
585.085337867638
 20
146.856397584044
 30
0.0
 40
2.5
100
AcDbArc
 50
180.0
 51
0.0
  0
ARC
  5
3B5
330
20B
100
AcDbEntity
  8
BEZUGSACHSEN
  6
Continuous
 62
     9
100
AcDbCircle
 10
601.085337867638
 20
147.856397584044
 30
0.0
 40
2.5
100
AcDbArc
 50
180.0
 51
0.0
  0
ARC
  5
3B6
330
20B
100
AcDbEntity
  8
BEZUGSACHSEN
  6
Continuous
 62
     9
100
AcDbCircle
 10
393.0853378676383
 20
166.8563975840439
 30
0.0
 40
2.5
100
AcDbArc
 50
0.0
 51
180.0
  0
ARC
  5
3B7
330
20B
100
AcDbEntity
  8
BEZUGSACHSEN
  6
Continuous
 62
     9
100
AcDbCircle
 10
377.0853378676382
 20
165.8563975840439
 30
0.0
 40
2.5
100
AcDbArc
 50
0.0
 51
180.0
  0
ARC
  5
3B8
330
20B
100
AcDbEntity
  8
BEZUGSACHSEN
  6
Continuous
 62
     9
100
AcDbCircle
 10
361.0853378676381
 20
163.856397584044
 30
0.0
 40
2.5
100
AcDbArc
 50
0.0
 51
180.0
  0
ARC
  5
3B9
330
20B
100
AcDbEntity
  8
BEZUGSACHSEN
  6
Continuous
 62
     9
100
AcDbCircle
 10
345.0853378676383
 20
159.8563975840439
 30
0.0
 40
2.5
100
AcDbArc
 50
0.0
 51
180.0
  0
ARC
  5
3BA
330
20B
100
AcDbEntity
  8
BEZUGSACHSEN
  6
Continuous
 62
     9
100
AcDbCircle
 10
409.085337867638
 20
167.856397584044
 30
0.0
 40
2.5
100
AcDbArc
 50
0.0
 51
180.0
  0
ARC
  5
3BB
330
20B
100
AcDbEntity
  8
BEZUGSACHSEN
  6
Continuous
 62
     9
100
AcDbCircle
 10
313.0853378676383
 20
158.856397584044
 30
0.0
 40
2.5
100
AcDbArc
 50
180.0
 51
0.0
  0
ARC
  5
3BC
330
20B
100
AcDbEntity
  8
BEZUGSACHSEN
  6
Continuous
 62
     9
100
AcDbCircle
 10
329.0853378676382
 20
164.8563975840439
 30
0.0
 40
2.5
100
AcDbArc
 50
180.0
 51
0.0
  0
ARC
  5
3BD
330
20B
100
AcDbEntity
  8
BEZUGSACHSEN
  6
Continuous
 62
     9
100
AcDbCircle
 10
345.0853378676383
 20
168.856397584044
 30
0.0
 40
2.5
100
AcDbArc
 50
180.0
 51
0.0
  0
ARC
  5
3BE
330
20B
100
AcDbEntity
  8
BEZUGSACHSEN
  6
Continuous
 62
     9
100
AcDbCircle
 10
409.085337867638
 20
176.8563975840439
 30
0.0
 40
2.5
100
AcDbArc
 50
180.0
 51
0.0
  0
ARC
  5
3BF
330
20B
100
AcDbEntity
  8
BEZUGSACHSEN
  6
Continuous
 62
     9
100
AcDbCircle
 10
409.085337867638
 20
179.8563975840439
 30
0.0
 40
2.5
100
AcDbArc
 50
0.0
 51
180.0
  0
ARC
  5
3C0
330
20B
100
AcDbEntity
  8
BEZUGSACHSEN
  6
Continuous
 62
     9
100
AcDbCircle
 10
233.0853378676382
 20
179.8563975840439
 30
0.0
 40
2.5
100
AcDbArc
 50
0.0
 51
180.0
  0
ARC
  5
3C1
330
20B
100
AcDbEntity
  8
BEZUGSACHSEN
  6
Continuous
 62
     9
100
AcDbCircle
 10
249.0853378676383
 20
179.8563975840439
 30
0.0
 40
2.5
100
AcDbArc
 50
0.0
 51
180.0
  0
ARC
  5
3C2
330
20B
100
AcDbEntity
  8
BEZUGSACHSEN
  6
Continuous
 62
     9
100
AcDbCircle
 10
265.0853378676383
 20
179.8563975840439
 30
0.0
 40
2.5
100
AcDbArc
 50
0.0
 51
180.0
  0
ARC
  5
3C3
330
20B
100
AcDbEntity
  8
BEZUGSACHSEN
  6
Continuous
 62
     9
100
AcDbCircle
 10
281.0853378676382
 20
179.8563975840439
 30
0.0
 40
2.5
100
AcDbArc
 50
0.0
 51
180.0
  0
ARC
  5
3C4
330
20B
100
AcDbEntity
  8
BEZUGSACHSEN
  6
Continuous
 62
     9
100
AcDbCircle
 10
297.0853378676381
 20
179.8563975840439
 30
0.0
 40
2.5
100
AcDbArc
 50
0.0
 51
180.0
  0
ARC
  5
3C5
330
20B
100
AcDbEntity
  8
BEZUGSACHSEN
  6
Continuous
 62
     9
100
AcDbCircle
 10
313.0853378676383
 20
179.8563975840439
 30
0.0
 40
2.5
100
AcDbArc
 50
0.0
 51
180.0
  0
ARC
  5
3C6
330
20B
100
AcDbEntity
  8
BEZUGSACHSEN
  6
Continuous
 62
     9
100
AcDbCircle
 10
329.0853378676382
 20
179.8563975840439
 30
0.0
 40
2.5
100
AcDbArc
 50
0.0
 51
180.0
  0
ARC
  5
3C7
330
20B
100
AcDbEntity
  8
BEZUGSACHSEN
  6
Continuous
 62
     9
100
AcDbCircle
 10
345.0853378676383
 20
179.8563975840439
 30
0.0
 40
2.5
100
AcDbArc
 50
0.0
 51
180.0
  0
ARC
  5
3C8
330
20B
100
AcDbEntity
  8
BEZUGSACHSEN
  6
Continuous
 62
     9
100
AcDbCircle
 10
361.0853378676381
 20
172.856397584044
 30
0.0
 40
2.5
100
AcDbArc
 50
180.0
 51
0.0
  0
ARC
  5
3C9
330
20B
100
AcDbEntity
  8
BEZUGSACHSEN
  6
Continuous
 62
     9
100
AcDbCircle
 10
361.0853378676381
 20
179.8563975840439
 30
0.0
 40
2.5
100
AcDbArc
 50
0.0
 51
180.0
  0
ARC
  5
3CA
330
20B
100
AcDbEntity
  8
BEZUGSACHSEN
  6
Continuous
 62
     9
100
AcDbCircle
 10
377.0853378676382
 20
174.8563975840439
 30
0.0
 40
2.5
100
AcDbArc
 50
180.0
 51
0.0
  0
ARC
  5
3CB
330
20B
100
AcDbEntity
  8
BEZUGSACHSEN
  6
Continuous
 62
     9
100
AcDbCircle
 10
377.0853378676382
 20
179.8563975840439
 30
0.0
 40
2.5
100
AcDbArc
 50
0.0
 51
180.0
  0
ARC
  5
3CC
330
20B
100
AcDbEntity
  8
BEZUGSACHSEN
  6
Continuous
 62
     9
100
AcDbCircle
 10
393.0853378676383
 20
175.8563975840439
 30
0.0
 40
2.5
100
AcDbArc
 50
180.0
 51
0.0
  0
ARC
  5
3CD
330
20B
100
AcDbEntity
  8
BEZUGSACHSEN
  6
Continuous
 62
     9
100
AcDbCircle
 10
393.0853378676383
 20
179.8563975840439
 30
0.0
 40
2.5
100
AcDbArc
 50
0.0
 51
180.0
  0
ARC
  5
3CE
330
20B
100
AcDbEntity
  8
BEZUGSACHSEN
  6
Continuous
 62
     9
100
AcDbCircle
 10
473.085337867638
 20
159.8563975840439
 30
0.0
 40
2.5
100
AcDbArc
 50
0.0
 51
180.0
  0
ARC
  5
3CF
330
20B
100
AcDbEntity
  8
BEZUGSACHSEN
  6
Continuous
 62
     9
100
AcDbCircle
 10
457.0853378676381
 20
163.856397584044
 30
0.0
 40
2.5
100
AcDbArc
 50
0.0
 51
180.0
  0
ARC
  5
3D0
330
20B
100
AcDbEntity
  8
BEZUGSACHSEN
  6
Continuous
 62
     9
100
AcDbCircle
 10
441.0853378676381
 20
165.8563975840439
 30
0.0
 40
2.5
100
AcDbArc
 50
0.0
 51
180.0
  0
ARC
  5
3D1
330
20B
100
AcDbEntity
  8
BEZUGSACHSEN
  6
Continuous
 62
     9
100
AcDbCircle
 10
425.0853378676381
 20
166.8563975840439
 30
0.0
 40
2.5
100
AcDbArc
 50
0.0
 51
180.0
  0
ARC
  5
3D2
330
20B
100
AcDbEntity
  8
BEZUGSACHSEN
  6
Continuous
 62
     9
100
AcDbCircle
 10
473.085337867638
 20
168.856397584044
 30
0.0
 40
2.5
100
AcDbArc
 50
180.0
 51
0.0
  0
ARC
  5
3D3
330
20B
100
AcDbEntity
  8
BEZUGSACHSEN
  6
Continuous
 62
     9
100
AcDbCircle
 10
489.085337867638
 20
164.8563975840439
 30
0.0
 40
2.5
100
AcDbArc
 50
180.0
 51
0.0
  0
ARC
  5
3D4
330
20B
100
AcDbEntity
  8
BEZUGSACHSEN
  6
Continuous
 62
     9
100
AcDbCircle
 10
505.085337867638
 20
158.856397584044
 30
0.0
 40
2.5
100
AcDbArc
 50
180.0
 51
0.0
  0
ARC
  5
3D5
330
20B
100
AcDbEntity
  8
BEZUGSACHSEN
  6
Continuous
 62
     9
100
AcDbCircle
 10
425.0853378676381
 20
175.8563975840439
 30
0.0
 40
2.5
100
AcDbArc
 50
180.0
 51
0.0
  0
ARC
  5
3D6
330
20B
100
AcDbEntity
  8
BEZUGSACHSEN
  6
Continuous
 62
     9
100
AcDbCircle
 10
425.0853378676381
 20
179.8563975840439
 30
0.0
 40
2.5
100
AcDbArc
 50
0.0
 51
180.0
  0
ARC
  5
3D7
330
20B
100
AcDbEntity
  8
BEZUGSACHSEN
  6
Continuous
 62
     9
100
AcDbCircle
 10
441.0853378676381
 20
174.8563975840439
 30
0.0
 40
2.5
100
AcDbArc
 50
180.0
 51
0.0
  0
ARC
  5
3D8
330
20B
100
AcDbEntity
  8
BEZUGSACHSEN
  6
Continuous
 62
     9
100
AcDbCircle
 10
441.0853378676381
 20
179.8563975840439
 30
0.0
 40
2.5
100
AcDbArc
 50
0.0
 51
180.0
  0
ARC
  5
3D9
330
20B
100
AcDbEntity
  8
BEZUGSACHSEN
  6
Continuous
 62
     9
100
AcDbCircle
 10
457.0853378676381
 20
172.856397584044
 30
0.0
 40
2.5
100
AcDbArc
 50
180.0
 51
0.0
  0
ARC
  5
3DA
330
20B
100
AcDbEntity
  8
BEZUGSACHSEN
  6
Continuous
 62
     9
100
AcDbCircle
 10
457.0853378676381
 20
179.8563975840439
 30
0.0
 40
2.5
100
AcDbArc
 50
0.0
 51
180.0
  0
ARC
  5
3DB
330
20B
100
AcDbEntity
  8
BEZUGSACHSEN
  6
Continuous
 62
     9
100
AcDbCircle
 10
473.085337867638
 20
179.8563975840439
 30
0.0
 40
2.5
100
AcDbArc
 50
0.0
 51
180.0
  0
ARC
  5
3DC
330
20B
100
AcDbEntity
  8
BEZUGSACHSEN
  6
Continuous
 62
     9
100
AcDbCircle
 10
489.085337867638
 20
179.8563975840439
 30
0.0
 40
2.5
100
AcDbArc
 50
0.0
 51
180.0
  0
ARC
  5
3DD
330
20B
100
AcDbEntity
  8
BEZUGSACHSEN
  6
Continuous
 62
     9
100
AcDbCircle
 10
505.085337867638
 20
179.8563975840439
 30
0.0
 40
2.5
100
AcDbArc
 50
0.0
 51
180.0
  0
ARC
  5
3DE
330
20B
100
AcDbEntity
  8
BEZUGSACHSEN
  6
Continuous
 62
     9
100
AcDbCircle
 10
521.0853378676381
 20
179.8563975840439
 30
0.0
 40
2.5
100
AcDbArc
 50
0.0
 51
180.0
  0
ARC
  5
3DF
330
20B
100
AcDbEntity
  8
BEZUGSACHSEN
  6
Continuous
 62
     9
100
AcDbCircle
 10
537.0853378676383
 20
179.8563975840439
 30
0.0
 40
2.5
100
AcDbArc
 50
0.0
 51
180.0
  0
ARC
  5
3E0
330
20B
100
AcDbEntity
  8
BEZUGSACHSEN
  6
Continuous
 62
     9
100
AcDbCircle
 10
553.0853378676381
 20
179.8563975840439
 30
0.0
 40
2.5
100
AcDbArc
 50
0.0
 51
180.0
  0
ARC
  5
3E1
330
20B
100
AcDbEntity
  8
BEZUGSACHSEN
  6
Continuous
 62
     9
100
AcDbCircle
 10
569.0853378676381
 20
179.8563975840439
 30
0.0
 40
2.5
100
AcDbArc
 50
0.0
 51
180.0
  0
ARC
  5
3E2
330
20B
100
AcDbEntity
  8
BEZUGSACHSEN
  6
Continuous
 62
     9
100
AcDbCircle
 10
585.085337867638
 20
179.8563975840439
 30
0.0
 40
2.5
100
AcDbArc
 50
0.0
 51
180.0
  0
ARC
  5
3E3
330
20B
100
AcDbEntity
  8
BEZUGSACHSEN
  6
Continuous
 62
     9
100
AcDbCircle
 10
601.085337867638
 20
179.8563975840439
 30
0.0
 40
2.5
100
AcDbArc
 50
0.0
 51
180.0
  0
ARC
  5
3E4
330
20B
100
AcDbEntity
  8
BEZUGSACHSEN
  6
Continuous
 62
     9
100
AcDbCircle
 10
-94.91553439561185
 20
287.2059174155439
 30
0.0
 40
2.749199146749998
100
AcDbArc
 50
181.1095800488005
 51
358.8904199511995
  0
ARC
  5
3E5
330
20B
100
AcDbEntity
  8
BEZUGSACHSEN
  6
Continuous
 62
     9
100
AcDbCircle
 10
545.0844656043881
 20
287.2059174155439
 30
0.0
 40
2.749199146749998
100
AcDbArc
 50
181.1095800488005
 51
358.8904199511995
  0
CIRCLE
  5
3E6
330
20B
100
AcDbEntity
  8
BEZUGSACHSEN
  6
Continuous
 62
     9
100
AcDbCircle
 10
545.084443316388
 20
287.1535326280439
 30
0.0
 40
2.749161367499998
  0
CIRCLE
  5
3E7
330
20B
100
AcDbEntity
  8
BEZUGSACHSEN
  6
Continuous
 62
     9
100
AcDbCircle
 10
-94.91555668361185
 20
287.1535326280439
 30
0.0
 40
2.749161367499998
  0
DIMENSION
  5
6AD
102
{ACAD_XDICTIONARY
360
6BB
102
}
102
{ACAD_REACTORS
330
6BC
102
}
330
20B
100
AcDbEntity
  8
P-0000
  6
Continuous
100
AcDbDimension
  2
*D6
 10
-184.8008771563827
 20
281.156291841544
 30
0.0
 11
-192.3008771563827
 21
288.7562843947939
 31
0.0
 70
    32
 71
     5
 42
15.19998510649986
  3
883N99122_001_00149479900
100
AcDbAlignedDimension
 13
-163.9146621323618
 23
296.3562769480438
 33
0.0
 14
-161.9146621323618
 24
281.156291841544
 34
0.0
 50
90.0
100
AcDbRotatedDimension
1001
ACAD_DSTYLE_DIMINSPECT
1070
   396
1000
100%
1070
   395
1000

1070
   394
1070
    33
1070
   393
1070
     0
1001
ACAD
1000
DSTYLE
1002
{
1070
   271
1070
     0
1070
   279
1070
     2
1070
   288
1070
     1
1002
}
  0
DIMENSION
  5
73D
102
{ACAD_XDICTIONARY
360
74B
102
}
102
{ACAD_REACTORS
330
74C
102
}
330
20B
100
AcDbEntity
  8
P-0000
  6
Continuous
100
AcDbDimension
  2
*D9
 10
-186.6891857818681
 20
126.6063975840439
 30
0.0
 11
-194.1891857818681
 21
157.3563975840438
 31
0.0
 70
    32
 71
     5
 42
61.50000000000003
  3
883N99122_001_00149479900
100
AcDbAlignedDimension
 13
-163.9146621323618
 23
188.1063975840439
 33
0.0
 14
-163.9146621323618
 24
126.6063975840439
 34
0.0
 50
90.0
100
AcDbRotatedDimension
1001
ACAD_DSTYLE_DIMINSPECT
1070
   396
1000
100%
1070
   395
1000

1070
   394
1070
    33
1070
   393
1070
     0
1001
ACAD
1000
DSTYLE
1002
{
1070
   271
1070
     0
1070
   279
1070
     2
1070
   288
1070
     1
1002
}
  0
DIMENSION
  5
799
102
{ACAD_XDICTIONARY
360
7A7
102
}
102
{ACAD_REACTORS
330
7A8
102
}
330
20B
100
AcDbEntity
  8
P-0000
  6
Continuous
100
AcDbDimension
  2
*D11
 10
614.0853378676381
 20
95.75161235097423
 30
0.0
 11
225.0853378676382
 21
103.2516123509742
 31
0.0
 70
    32
 71
     5
 42
778.0
  3
883N99122_001_00149479900
100
AcDbAlignedDimension
 13
-163.9146621323618
 23
126.6063975840439
 33
0.0
 14
614.0853378676381
 24
126.6063975840439
 34
0.0
 50
0.0000000000001132
100
AcDbRotatedDimension
1001
ACAD_DSTYLE_DIMINSPECT
1070
   396
1000
100%
1070
   395
1000

1070
   394
1070
    33
1070
   393
1070
     0
1001
ACAD
1000
DSTYLE
1002
{
1070
   279
1070
     2
1070
   288
1070
     1
1002
}
  0
ENDSEC
  0
SECTION
  2
OBJECTS
  0
DICTIONARY
  5
C
330
0
100
AcDbDictionary
281
     1
  3
ACAD_2007HEADERVARS_RT
350
EC0
  3
ACAD_COLOR
350
41A
  3
ACAD_GROUP
350
D
  3
ACAD_LAYOUT
350
1A
  3
ACAD_MATERIAL
350
3ED
  3
ACAD_MLEADERSTYLE
350
42F
  3
ACAD_MLINESTYLE
350
17
  3
ACAD_PLOTSETTINGS
350
19
  3
ACAD_PLOTSTYLENAME
350
E
  3
ACAD_SCALELIST
350
41D
  3
ACAD_TABLESTYLE
350
41B
  3
ACAD_VISUALSTYLE
350
406
  3
ACDB_RECOMPOSE_DATA
350
EBE
  3
AcDbVariableDictionary
350
5ED
  3
AcmDictionary
350
489
  3
AEC_PROPERTY_SET_DEFS
350
95B
  3
AMG
350
433
  3
AMGSNAPSETTINGS
350
4D2
  3
DWGPROPS
350
EBF
  0
DICTIONARY
  5
7F0
330
2
100
AcDbDictionary
280
     1
281
     1
  3
ACAD_LAYERSTATES
360
7F1
  0
DICTIONARY
  5
7EE
330
7ED
100
AcDbDictionary
280
     1
281
     1
  0
DICTIONARY
  5
954
330
953
100
AcDbDictionary
280
     1
281
     1
  3
ACAD_DIMASSOC
360
955
  0
DICTIONARY
  5
957
330
956
100
AcDbDictionary
280
     1
281
     1
  3
ACAD_DIMASSOC
360
958
  0
DICTIONARY
  5
6BB
330
6AD
100
AcDbDictionary
280
     1
281
     1
  3
ACAD_DIMASSOC
360
6BC
  0
DICTIONARY
  5
74B
330
73D
100
AcDbDictionary
280
     1
281
     1
  3
ACAD_DIMASSOC
360
74C
  0
DICTIONARY
  5
7A7
330
799
100
AcDbDictionary
280
     1
281
     1
  3
ACAD_DIMASSOC
360
7A8
  0
DICTIONARY
  5
EC0
102
{ACAD_REACTORS
330
C
102
}
330
C
100
AcDbDictionary
281
     1
  3
DIMJOGANG
350
EC1
  3
DIMLTEX1
350
EC3
  3
DIMLTEX2
350
EC4
  3
DIMLTYPE
350
EC2
  0
DICTIONARY
  5
41A
102
{ACAD_REACTORS
330
C
102
}
330
C
100
AcDbDictionary
281
     1
  0
DICTIONARY
  5
D
102
{ACAD_REACTORS
330
C
102
}
330
C
100
AcDbDictionary
281
     1
  0
DICTIONARY
  5
1A
102
{ACAD_REACTORS
330
C
102
}
330
C
100
AcDbDictionary
281
     1
  3
Layout1
350
3E9
  3
Model
350
3E8
  0
DICTIONARY
  5
3ED
102
{ACAD_REACTORS
330
C
102
}
330
C
100
AcDbDictionary
281
     1
  3
ByBlock
350
3F6
  3
ByLayer
350
3EE
  3
Global
350
3FE
  0
DICTIONARY
  5
42F
102
{ACAD_REACTORS
330
C
102
}
330
C
100
AcDbDictionary
281
     1
  3
Standard
350
430
  0
DICTIONARY
  5
17
102
{ACAD_REACTORS
330
C
102
}
330
C
100
AcDbDictionary
281
     1
  3
Standard
350
18
  0
DICTIONARY
  5
19
102
{ACAD_REACTORS
330
C
102
}
330
C
100
AcDbDictionary
281
     1
  0
ACDBDICTIONARYWDFLT
  5
E
102
{ACAD_REACTORS
330
C
102
}
330
C
100
AcDbDictionary
281
     1
  3
Normal
350
F
100
AcDbDictionaryWithDefault
340
F
  0
DICTIONARY
  5
41D
102
{ACAD_REACTORS
330
C
102
}
330
C
100
AcDbDictionary
281
     1
  3
A0
350
41E
  3
A1
350
41F
  3
A2
350
420
  3
A3
350
421
  3
A4
350
422
  3
A5
350
423
  3
A6
350
424
  3
A7
350
425
  3
A8
350
426
  3
A9
350
427
  3
B0
350
428
  3
B1
350
429
  3
B2
350
42A
  3
B3
350
42B
  3
B4
350
42C
  3
B5
350
42D
  3
B6
350
42E
  0
DICTIONARY
  5
41B
102
{ACAD_REACTORS
330
C
102
}
330
C
100
AcDbDictionary
281
     1
  3
Standard
350
41C
  0
DICTIONARY
  5
406
102
{ACAD_REACTORS
330
C
102
}
330
C
100
AcDbDictionary
281
     1
  3
2dWireframe
350
40C
  3
3D Hidden
350
40E
  3
3dWireframe
350
40D
  3
Basic
350
40B
  3
Brighten
350
412
  3
ColorChange
350
416
  3
Conceptual
350
40F
  3
Dim
350
411
  3
EdgeColorOff
350
419
  3
Facepattern
350
415
  3
Flat
350
407
  3
FlatWithEdges
350
408
  3
Gouraud
350
409
  3
GouraudWithEdges
350
40A
  3
JitterOff
350
417
  3
Linepattern
350
414
  3
OverhangOff
350
418
  3
Realistic
350
410
  3
Thicken
350
413
  0
XRECORD
  5
EBE
102
{ACAD_REACTORS
330
C
102
}
330
C
100
AcDbXrecord
280
     1
 90
        1
330
41C
  0
DICTIONARY
  5
5ED
102
{ACAD_REACTORS
330
C
102
}
330
C
100
AcDbDictionary
281
     1
  3
CANNOSCALE
350
5F1
  3
CMLEADERSTYLE
350
5EF
  3
CTABLESTYLE
350
5EE
  3
DIMASSOC
350
5F8
  3
HIDETEXT
350
5F7
  3
INDEXCTL
350
5F6
  3
LAYEREVAL
350
5F3
  3
LAYERNOTIFY
350
5F4
  3
LIGHTINGUNITS
350
5F2
  3
MSLTSCALE
350
5F0
  3
SORTENTS
350
5F5
  3
XCLIPFRAME
350
EBC
  0
DICTIONARY
  5
489
102
{ACAD_REACTORS
330
C
102
}
330
C
100
AcDbDictionary
281
     1
  3
AcmStdDictionary
350
495
  0
DICTIONARY
  5
95B
102
{ACAD_REACTORS
330
C
102
}
330
C
100
AcDbDictionary
281
     1
  0
DICTIONARY
  5
433
102
{ACAD_REACTORS
330
C
102
}
330
C
100
AcDbDictionary
281
     1
  0
DICTIONARY
  5
4D2
102
{ACAD_REACTORS
330
C
102
}
330
C
100
AcDbDictionary
281
     1
  0
XRECORD
  5
EBF
102
{ACAD_REACTORS
330
C
102
}
330
C
100
AcDbXrecord
280
     1
  1
DWGPROPS COOKIE
  2

  3

  4

  6

  7

  8
atittmar
  9

300
=
301
=
302
=
303
=
304
=
305
=
306
=
307
=
308
=
309
=
 40
0.0112826157407408
 41
2456632.60932353
 42
2456671.664634329
  1

 90
        0
  0
DICTIONARY
  5
7F1
102
{ACAD_REACTORS
330
7F0
102
}
330
7F0
100
AcDbDictionary
281
     1
  0
DIMASSOC
  5
955
102
{ACAD_REACTORS
330
954
102
}
330
954
100
AcDbDimAssoc
330
953
 90
        3
 70
     0
 71
     0
  1
AcDbOsnapPointRef
 72
     1
331
7F3
 73
     0
 91
        0
 40
0.0
 10
0.0
 20
0.0
 30
2.000000000000000E+50
 75
     0
  1
AcDbOsnapPointRef
 72
     1
331
844
 73
     0
 91
        0
 40
0.0
 10
0.0
 20
0.0
 30
2.000000000000000E+50
 75
     0
  0
DIMASSOC
  5
958
102
{ACAD_REACTORS
330
957
102
}
330
957
100
AcDbDimAssoc
330
956
 90
        2
 70
     0
 71
     0
  1
AcDbOsnapPointRef
 72
    13
331
844
 73
     0
 91
        0
 40
0.0
 10
0.0
 20
0.0
 30
2.000000000000000E+50
 75
     0
  0
DIMASSOC
  5
6BC
102
{ACAD_REACTORS
330
6BB
102
}
330
6BB
100
AcDbDimAssoc
330
6AD
 90
        3
 70
     0
 71
     0
  1
AcDbOsnapPointRef
 72
     1
331
312
 73
     0
 91
        0
 40
0.0
 10
0.0
 20
0.0
 30
2.000000000000000E+50
 75
     0
  1
AcDbOsnapPointRef
 72
     1
331
316
 73
     0
 91
        0
 40
0.0
 10
0.0
 20
0.0
 30
2.000000000000000E+50
 75
     0
  0
DIMASSOC
  5
74C
102
{ACAD_REACTORS
330
74B
102
}
330
74B
100
AcDbDimAssoc
330
73D
 90
        2
 70
     0
 71
     0
  1
AcDbOsnapPointRef
 72
     1
331
2A1
 73
     0
 91
        0
 40
0.0
 10
0.0
 20
0.0
 30
2.000000000000000E+50
 75
     0
  0
DIMASSOC
  5
7A8
102
{ACAD_REACTORS
330
7A7
102
}
330
7A7
100
AcDbDimAssoc
330
799
 90
        2
 70
     0
 71
     0
  1
AcDbOsnapPointRef
 72
    13
331
2A1
 73
     0
 91
        0
 40
0.0
 10
0.0
 20
0.0
 30
2.000000000000000E+50
 75
     0
  0
XRECORD
  5
EC1
102
{ACAD_REACTORS
330
EC0
102
}
330
EC0
100
AcDbXrecord
280
     1
 40
1.570796326794896
  0
XRECORD
  5
EC3
102
{ACAD_REACTORS
330
EC0
102
}
330
EC0
100
AcDbXrecord
280
     1
340
14
  0
XRECORD
  5
EC4
102
{ACAD_REACTORS
330
EC0
102
}
330
EC0
100
AcDbXrecord
280
     1
340
14
  0
XRECORD
  5
EC2
102
{ACAD_REACTORS
330
EC0
102
}
330
EC0
100
AcDbXrecord
280
     1
340
14
  0
LAYOUT
  5
3E9
102
{ACAD_XDICTIONARY
360
EC7
102
}
102
{ACAD_REACTORS
330
1A
102
}
330
1A
100
AcDbPlotSettings
  1

  2
none_device
  4
ISO_A3_(420.00_x_297.00_MM)
  6

 40
0.0
 41
0.0
 42
0.0
 43
0.0
 44
420.0
 45
297.0
 46
0.0
 47
0.0
 48
0.0
 49
0.0
140
0.0
141
0.0
142
1.0
143
1.0
 70
     0
 72
     1
 73
     0
 74
     0
  7

 75
     0
147
1.0
148
0.0
149
0.0
100
AcDbLayout
  1
Layout1
 70
     1
 71
     1
 10
0.0
 20
0.0
 11
12.0
 21
9.0
 12
0.0
 22
0.0
 32
0.0
 14
1.000000000000000E+20
 24
1.000000000000000E+20
 34
1.000000000000000E+20
 15
-1.000000000000000E+20
 25
-1.000000000000000E+20
 35
-1.000000000000000E+20
146
0.0
 13
0.0
 23
0.0
 33
0.0
 16
1.0
 26
0.0
 36
0.0
 17
0.0
 27
1.0
 37
0.0
 76
     0
330
20C
  0
LAYOUT
  5
3E8
102
{ACAD_XDICTIONARY
360
EC5
102
}
102
{ACAD_REACTORS
330
1A
102
}
330
1A
100
AcDbPlotSettings
  1

  2
none_device
  4
ISO_A3_(420.00_x_297.00_MM)
  6

 40
0.0
 41
0.0
 42
0.0
 43
0.0
 44
420.0
 45
297.0
 46
0.0
 47
0.0
 48
0.0
 49
0.0
140
0.0
141
0.0
142
1.0
143
1.0
 70
  1024
 72
     1
 73
     0
 74
     0
  7

 75
     0
147
1.0
148
0.0
149
0.0
100
AcDbLayout
  1
Model
 70
     0
 71
     0
 10
0.0
 20
0.0
 11
420.0
 21
297.0
 12
0.0
 22
0.0
 32
0.0
 14
0.0
 24
0.0
 34
0.0
 15
0.0
 25
0.0
 35
0.0
146
0.0
 13
0.0
 23
0.0
 33
0.0
 16
1.0
 26
0.0
 36
0.0
 17
0.0
 27
1.0
 37
0.0
 76
     0
330
20B
331
1F4
  0
MATERIAL
  5
3F6
102
{ACAD_XDICTIONARY
360
3F7
102
}
102
{ACAD_REACTORS
330
3ED
102
}
330
3ED
100
AcDbMaterial
  1
ByBlock
 72
     0
 43
0.0008202099737533
 43
0.0
 43
0.0
 43
0.0
 43
0.0
 43
0.0008202099737533
 43
0.0
 43
0.0
 43
0.0
 43
0.0
 43
1.0
 43
0.0
 43
0.0
 43
0.0
 43
0.0
 43
1.0
 77
     0
 47
0.0008202099737533
 47
0.0
 47
0.0
 47
0.0
 47
0.0
 47
0.0008202099737533
 47
0.0
 47
0.0
 47
0.0
 47
0.0
 47
1.0
 47
0.0
 47
0.0
 47
0.0
 47
0.0
 47
1.0
171
     0
 49
0.0008202099737533
 49
0.0
 49
0.0
 49
0.0
 49
0.0
 49
0.0008202099737533
 49
0.0
 49
0.0
 49
0.0
 49
0.0
 49
1.0
 49
0.0
 49
0.0
 49
0.0
 49
0.0
 49
1.0
175
     0
142
0.0008202099737533
142
0.0
142
0.0
142
0.0
142
0.0
142
0.0008202099737533
142
0.0
142
0.0
142
0.0
142
0.0
142
1.0
142
0.0
142
0.0
142
0.0
142
0.0
142
1.0
179
     0
144
0.0008202099737533
144
0.0
144
0.0
144
0.0
144
0.0
144
0.0008202099737533
144
0.0
144
0.0
144
0.0
144
0.0
144
1.0
144
0.0
144
0.0
144
0.0
144
0.0
144
1.0
147
0.0008202099737533
147
0.0
147
0.0
147
0.0
147
0.0
147
0.0008202099737533
147
0.0
147
0.0
147
0.0
147
0.0
147
1.0
147
0.0
147
0.0
147
0.0
147
0.0
147
1.0
  0
MATERIAL
  5
3EE
102
{ACAD_XDICTIONARY
360
3EF
102
}
102
{ACAD_REACTORS
330
3ED
102
}
330
3ED
100
AcDbMaterial
  1
ByLayer
 72
     0
 43
0.0008202099737533
 43
0.0
 43
0.0
 43
0.0
 43
0.0
 43
0.0008202099737533
 43
0.0
 43
0.0
 43
0.0
 43
0.0
 43
1.0
 43
0.0
 43
0.0
 43
0.0
 43
0.0
 43
1.0
 77
     0
 47
0.0008202099737533
 47
0.0
 47
0.0
 47
0.0
 47
0.0
 47
0.0008202099737533
 47
0.0
 47
0.0
 47
0.0
 47
0.0
 47
1.0
 47
0.0
 47
0.0
 47
0.0
 47
0.0
 47
1.0
171
     0
 49
0.0008202099737533
 49
0.0
 49
0.0
 49
0.0
 49
0.0
 49
0.0008202099737533
 49
0.0
 49
0.0
 49
0.0
 49
0.0
 49
1.0
 49
0.0
 49
0.0
 49
0.0
 49
0.0
 49
1.0
175
     0
142
0.0008202099737533
142
0.0
142
0.0
142
0.0
142
0.0
142
0.0008202099737533
142
0.0
142
0.0
142
0.0
142
0.0
142
1.0
142
0.0
142
0.0
142
0.0
142
0.0
142
1.0
179
     0
144
0.0008202099737533
144
0.0
144
0.0
144
0.0
144
0.0
144
0.0008202099737533
144
0.0
144
0.0
144
0.0
144
0.0
144
1.0
144
0.0
144
0.0
144
0.0
144
0.0
144
1.0
147
0.0008202099737533
147
0.0
147
0.0
147
0.0
147
0.0
147
0.0008202099737533
147
0.0
147
0.0
147
0.0
147
0.0
147
1.0
147
0.0
147
0.0
147
0.0
147
0.0
147
1.0
  0
MATERIAL
  5
3FE
102
{ACAD_XDICTIONARY
360
3FF
102
}
102
{ACAD_REACTORS
330
3ED
102
}
330
3ED
100
AcDbMaterial
  1
Global
 72
     0
 43
0.0008202099737533
 43
0.0
 43
0.0
 43
0.0
 43
0.0
 43
0.0008202099737533
 43
0.0
 43
0.0
 43
0.0
 43
0.0
 43
1.0
 43
0.0
 43
0.0
 43
0.0
 43
0.0
 43
1.0
 77
     0
 47
0.0008202099737533
 47
0.0
 47
0.0
 47
0.0
 47
0.0
 47
0.0008202099737533
 47
0.0
 47
0.0
 47
0.0
 47
0.0
 47
1.0
 47
0.0
 47
0.0
 47
0.0
 47
0.0
 47
1.0
171
     0
 49
0.0008202099737533
 49
0.0
 49
0.0
 49
0.0
 49
0.0
 49
0.0008202099737533
 49
0.0
 49
0.0
 49
0.0
 49
0.0
 49
1.0
 49
0.0
 49
0.0
 49
0.0
 49
0.0
 49
1.0
175
     0
142
0.0008202099737533
142
0.0
142
0.0
142
0.0
142
0.0
142
0.0008202099737533
142
0.0
142
0.0
142
0.0
142
0.0
142
1.0
142
0.0
142
0.0
142
0.0
142
0.0
142
1.0
179
     0
144
0.0008202099737533
144
0.0
144
0.0
144
0.0
144
0.0
144
0.0008202099737533
144
0.0
144
0.0
144
0.0
144
0.0
144
1.0
144
0.0
144
0.0
144
0.0
144
0.0
144
1.0
147
0.0008202099737533
147
0.0
147
0.0
147
0.0
147
0.0
147
0.0008202099737533
147
0.0
147
0.0
147
0.0
147
0.0
147
1.0
147
0.0
147
0.0
147
0.0
147
0.0
147
1.0
  0
MLEADERSTYLE
  5
430
102
{ACAD_REACTORS
330
42F
102
}
330
42F
100
AcDbMLeaderStyle
170
     2
171
     1
172
     0
 90
        2
 40
0.0
 41
0.0
173
     1
 91
-1056964608
340
14
 92
       -2
290
     1
 42
2.0
291
     1
 43
0.36
  3
Standard
 44
4.0
300

342
11
174
     1
178
     6
175
     1
176
     0
 93
-1056964608
 45
4.0
292
     0
297
     0
 46
4.0
 94
-1056964608
 47
1.0
 49
1.0
140
1.0
293
     1
141
0.0
294
     1
177
     0
142
1.0
295
     0
296
     0
143
0.125
1001
ACAD_MLEADERVER
1070
     2
  0
MLINESTYLE
  5
18
102
{ACAD_REACTORS
330
17
102
}
330
17
100
AcDbMlineStyle
  2
STANDARD
 70
     0
  3

 62
   256
 51
90.0
 52
90.0
 71
     2
 49
0.5
 62
   256
  6
BYLAYER
 49
-0.5
 62
   256
  6
BYLAYER
  0
ACDBPLACEHOLDER
  5
F
102
{ACAD_REACTORS
330
E
102
}
330
E
  0
SCALE
  5
41E
102
{ACAD_REACTORS
330
41D
102
}
330
41D
100
AcDbScale
 70
     0
300
1:1
140
1.0
141
1.0
290
     1
  0
SCALE
  5
41F
102
{ACAD_REACTORS
330
41D
102
}
330
41D
100
AcDbScale
 70
     0
300
1:2
140
1.0
141
2.0
290
     0
  0
SCALE
  5
420
102
{ACAD_REACTORS
330
41D
102
}
330
41D
100
AcDbScale
 70
     0
300
1:4
140
1.0
141
4.0
290
     0
  0
SCALE
  5
421
102
{ACAD_REACTORS
330
41D
102
}
330
41D
100
AcDbScale
 70
     0
300
1:5
140
1.0
141
5.0
290
     0
  0
SCALE
  5
422
102
{ACAD_REACTORS
330
41D
102
}
330
41D
100
AcDbScale
 70
     0
300
1:8
140
1.0
141
8.0
290
     0
  0
SCALE
  5
423
102
{ACAD_REACTORS
330
41D
102
}
330
41D
100
AcDbScale
 70
     0
300
1:10
140
1.0
141
10.0
290
     0
  0
SCALE
  5
424
102
{ACAD_REACTORS
330
41D
102
}
330
41D
100
AcDbScale
 70
     0
300
1:16
140
1.0
141
16.0
290
     0
  0
SCALE
  5
425
102
{ACAD_REACTORS
330
41D
102
}
330
41D
100
AcDbScale
 70
     0
300
1:20
140
1.0
141
20.0
290
     0
  0
SCALE
  5
426
102
{ACAD_REACTORS
330
41D
102
}
330
41D
100
AcDbScale
 70
     0
300
1:30
140
1.0
141
30.0
290
     0
  0
SCALE
  5
427
102
{ACAD_REACTORS
330
41D
102
}
330
41D
100
AcDbScale
 70
     0
300
1:40
140
1.0
141
40.0
290
     0
  0
SCALE
  5
428
102
{ACAD_REACTORS
330
41D
102
}
330
41D
100
AcDbScale
 70
     0
300
1:50
140
1.0
141
50.0
290
     0
  0
SCALE
  5
429
102
{ACAD_REACTORS
330
41D
102
}
330
41D
100
AcDbScale
 70
     0
300
1:100
140
1.0
141
100.0
290
     0
  0
SCALE
  5
42A
102
{ACAD_REACTORS
330
41D
102
}
330
41D
100
AcDbScale
 70
     0
300
2:1
140
2.0
141
1.0
290
     0
  0
SCALE
  5
42B
102
{ACAD_REACTORS
330
41D
102
}
330
41D
100
AcDbScale
 70
     0
300
4:1
140
4.0
141
1.0
290
     0
  0
SCALE
  5
42C
102
{ACAD_REACTORS
330
41D
102
}
330
41D
100
AcDbScale
 70
     0
300
8:1
140
8.0
141
1.0
290
     0
  0
SCALE
  5
42D
102
{ACAD_REACTORS
330
41D
102
}
330
41D
100
AcDbScale
 70
     0
300
10:1
140
10.0
141
1.0
290
     0
  0
SCALE
  5
42E
102
{ACAD_REACTORS
330
41D
102
}
330
41D
100
AcDbScale
 70
     0
300
100:1
140
100.0
141
1.0
290
     0
  0
TABLESTYLE
  5
41C
102
{ACAD_XDICTIONARY
360
5FA
102
}
102
{ACAD_REACTORS
330
41B
102
}
330
41B
100
AcDbTableStyle
  3
Standard
 70
     0
 71
     0
 40
1.5
 41
1.5
280
     0
281
     0
  7
STANDARD
140
4.5
170
     2
 62
     0
 63
     7
283
     0
274
    -2
284
     1
 64
     0
275
    -2
285
     1
 65
     0
276
    -2
286
     1
 66
     0
277
    -2
287
     1
 67
     0
278
    -2
288
     1
 68
     0
279
    -2
289
     1
 69
     0
  7
STANDARD
140
6.0
170
     5
 62
     0
 63
     7
283
     0
274
    -2
284
     1
 64
     0
275
    -2
285
     1
 65
     0
276
    -2
286
     1
 66
     0
277
    -2
287
     1
 67
     0
278
    -2
288
     1
 68
     0
279
    -2
289
     1
 69
     0
  7
STANDARD
140
4.5
170
     5
 62
     0
 63
     7
283
     0
274
    -2
284
     1
 64
     0
275
    -2
285
     1
 65
     0
276
    -2
286
     1
 66
     0
277
    -2
287
     1
 67
     0
278
    -2
288
     1
 68
     0
279
    -2
289
     1
 69
     0
  0
VISUALSTYLE
  5
40C
102
{ACAD_XDICTIONARY
360
ED3
102
}
102
{ACAD_REACTORS
330
406
102
}
330
406
100
AcDbVisualStyle
  2

 70
     4
 71
     0
 72
     2
 73
     0
 90
        0
 40
-0.6
 41
-30.0
 62
     5
 63
     7
 74
     1
 91
        4
 64
     7
 65
   257
 75
     1
175
     1
 42
1.0
 92
        0
 66
   257
 43
1.0
 76
     1
 77
     6
 78
     2
 67
     7
 79
     5
170
     0
171
     0
290
     0
174
     0
 93
        1
 44
0.0
173
     0
291
     0
 45
0.0
1001
ACAD
1000
AcDbSavedByObjectVersion
1070
     0
  0
VISUALSTYLE
  5
40E
102
{ACAD_XDICTIONARY
360
ED7
102
}
102
{ACAD_REACTORS
330
406
102
}
330
406
100
AcDbVisualStyle
  2

 70
     6
 71
     1
 72
     2
 73
     2
 90
        0
 40
-0.6
 41
-30.0
 62
     5
 63
     7
 74
     2
 91
        2
 64
     7
 65
   257
 75
     2
175
     1
 42
179.0
 92
        0
 66
   257
 43
1.0
 76
     1
 77
     6
 78
     2
 67
     7
 79
     3
170
     0
171
     0
290
     0
174
     0
 93
        1
 44
0.0
173
     0
291
     0
 45
0.0
1001
ACAD
1000
AcDbSavedByObjectVersion
1070
     0
  0
VISUALSTYLE
  5
40D
102
{ACAD_XDICTIONARY
360
ED5
102
}
102
{ACAD_REACTORS
330
406
102
}
330
406
100
AcDbVisualStyle
  2

 70
     5
 71
     0
 72
     2
 73
     0
 90
        0
 40
-0.6
 41
-30.0
 62
     5
 63
     7
 74
     1
 91
        4
 64
     7
 65
   257
 75
     1
175
     1
 42
1.0
 92
        0
 66
   257
 43
1.0
 76
     1
 77
     6
 78
     2
 67
     7
 79
     5
170
     0
171
     0
290
     0
174
     0
 93
        1
 44
0.0
173
     0
291
     0
 45
0.0
1001
ACAD
1000
AcDbSavedByObjectVersion
1070
     0
  0
VISUALSTYLE
  5
40B
102
{ACAD_XDICTIONARY
360
ED1
102
}
102
{ACAD_REACTORS
330
406
102
}
330
406
100
AcDbVisualStyle
  2

 70
     7
 71
     1
 72
     0
 73
     1
 90
        0
 40
-0.6
 41
-30.0
 62
     5
 63
     7
 74
     0
 91
        4
 64
     7
 65
   257
 75
     1
175
     1
 42
1.0
 92
        8
 66
     7
 43
1.0
 76
     1
 77
     6
 78
     2
 67
     7
 79
     5
170
     0
171
     0
290
     0
174
     0
 93
        1
 44
0.0
173
     0
291
     1
 45
0.0
1001
ACAD
1000
AcDbSavedByObjectVersion
1070
     0
  0
VISUALSTYLE
  5
412
102
{ACAD_XDICTIONARY
360
EDF
102
}
102
{ACAD_REACTORS
330
406
102
}
330
406
100
AcDbVisualStyle
  2

 70
    12
 71
     2
 72
     2
 73
     0
 90
        0
 40
-0.6
 41
-30.0
 62
     5
 63
     7
 74
     1
 91
        4
 64
     7
 65
   257
 75
     1
175
     1
 42
1.0
 92
        8
 66
     7
 43
1.0
 76
     1
 77
     6
 78
     2
 67
     7
 79
     5
170
     0
171
     0
290
     0
174
     0
 93
        1
 44
50.0
173
     0
291
     1
 45
0.0
1001
ACAD
1000
AcDbSavedByObjectVersion
1070
     0
  0
VISUALSTYLE
  5
416
102
{ACAD_XDICTIONARY
360
EE7
102
}
102
{ACAD_REACTORS
330
406
102
}
330
406
100
AcDbVisualStyle
  2

 70
    16
 71
     2
 72
     2
 73
     3
 90
        0
 40
-0.6
 41
-30.0
 62
     5
 63
     8
 74
     1
 91
        4
 64
     7
 65
   257
 75
     1
175
     1
 42
1.0
 92
        8
 66
     8
 43
1.0
 76
     1
 77
     6
 78
     2
 67
     7
 79
     5
170
     0
171
     0
290
     0
174
     0
 93
        1
 44
0.0
173
     0
291
     1
 45
0.0
1001
ACAD
1000
AcDbSavedByObjectVersion
1070
     0
  0
VISUALSTYLE
  5
40F
102
{ACAD_XDICTIONARY
360
ED9
102
}
102
{ACAD_REACTORS
330
406
102
}
330
406
100
AcDbVisualStyle
  2

 70
     9
 71
     3
 72
     2
 73
     0
 90
        0
 40
-0.6
 41
-30.0
 62
     5
 63
     7
 74
     2
 91
        2
 64
     7
 65
   257
 75
     1
175
     1
 42
179.0
 92
        8
 66
     7
 43
1.0
 76
     1
 77
     6
 78
     2
 67
     7
 79
     3
170
     0
171
     0
290
     0
174
     0
 93
        1
 44
0.0
173
     0
291
     0
 45
0.0
1001
ACAD
1000
AcDbSavedByObjectVersion
1070
     0
  0
VISUALSTYLE
  5
411
102
{ACAD_XDICTIONARY
360
EDD
102
}
102
{ACAD_REACTORS
330
406
102
}
330
406
100
AcDbVisualStyle
  2

 70
    11
 71
     2
 72
     2
 73
     0
 90
        0
 40
-0.6
 41
-30.0
 62
     5
 63
     7
 74
     1
 91
        4
 64
     7
 65
   257
 75
     1
175
     1
 42
1.0
 92
        8
 66
     7
 43
1.0
 76
     1
 77
     6
 78
     2
 67
     7
 79
     5
170
     0
171
     0
290
     0
174
     0
 93
        1
 44
-50.0
173
     0
291
     1
 45
0.0
1001
ACAD
1000
AcDbSavedByObjectVersion
1070
     0
  0
VISUALSTYLE
  5
419
102
{ACAD_XDICTIONARY
360
EED
102
}
102
{ACAD_REACTORS
330
406
102
}
330
406
100
AcDbVisualStyle
  2

 70
    22
 71
     2
 72
     2
 73
     0
 90
        0
 40
-0.6
 41
-30.0
 62
     5
 63
     7
 74
     1
 91
        4
 64
     7
 65
   257
 75
     1
175
     1
 42
1.0
 92
        8
 66
     7
 43
1.0
 76
     1
 77
     6
 78
     2
 67
     7
 79
     5
170
     0
171
     0
290
     0
174
     0
 93
        1
 44
0.0
173
     0
291
     1
 45
0.0
1001
ACAD
1000
AcDbSavedByObjectVersion
1070
     0
  0
VISUALSTYLE
  5
415
102
{ACAD_XDICTIONARY
360
EE5
102
}
102
{ACAD_REACTORS
330
406
102
}
330
406
100
AcDbVisualStyle
  2

 70
    15
 71
     2
 72
     2
 73
     0
 90
        0
 40
-0.6
 41
-30.0
 62
     5
 63
     7
 74
     1
 91
        4
 64
     7
 65
   257
 75
     1
175
     1
 42
1.0
 92
        8
 66
     7
 43
1.0
 76
     1
 77
     6
 78
     2
 67
     7
 79
     5
170
     0
171
     0
290
     0
174
     0
 93
        1
 44
0.0
173
     0
291
     1
 45
0.0
1001
ACAD
1000
AcDbSavedByObjectVersion
1070
     0
  0
VISUALSTYLE
  5
407
102
{ACAD_XDICTIONARY
360
EC9
102
}
102
{ACAD_REACTORS
330
406
102
}
330
406
100
AcDbVisualStyle
  2

 70
     0
 71
     2
 72
     1
 73
     1
 90
        2
 40
-0.6
 41
30.0
 62
     5
 63
     7
 74
     0
 91
        4
 64
     7
 65
   257
 75
     1
175
     1
 42
1.0
 92
        8
 66
     7
 43
1.0
 76
     1
 77
     6
 78
     2
 67
     7
 79
     5
170
     0
171
     0
290
     0
174
     0
 93
       13
 44
0.0
173
     0
291
     1
 45
0.0
1001
ACAD
1000
AcDbSavedByObjectVersion
1070
     0
  0
VISUALSTYLE
  5
408
102
{ACAD_XDICTIONARY
360
ECB
102
}
102
{ACAD_REACTORS
330
406
102
}
330
406
100
AcDbVisualStyle
  2

 70
     1
 71
     2
 72
     1
 73
     1
 90
        2
 40
-0.6
 41
30.0
 62
     5
 63
     7
 74
     1
 91
        4
 64
     7
 65
   257
 75
     1
175
     1
 42
1.0
 92
        0
 66
   257
 43
1.0
 76
     1
 77
     6
 78
     2
 67
     7
 79
     5
170
     0
171
     0
290
     0
174
     0
 93
       13
 44
0.0
173
     0
291
     1
 45
0.0
1001
ACAD
1000
AcDbSavedByObjectVersion
1070
     0
  0
VISUALSTYLE
  5
409
102
{ACAD_XDICTIONARY
360
ECD
102
}
102
{ACAD_REACTORS
330
406
102
}
330
406
100
AcDbVisualStyle
  2

 70
     2
 71
     2
 72
     2
 73
     1
 90
        2
 40
-0.6
 41
30.0
 62
     5
 63
     7
 74
     0
 91
        4
 64
     7
 65
   257
 75
     1
175
     1
 42
1.0
 92
        0
 66
     7
 43
1.0
 76
     1
 77
     6
 78
     2
 67
     7
 79
     5
170
     0
171
     0
290
     0
174
     0
 93
       13
 44
0.0
173
     0
291
     1
 45
0.0
1001
ACAD
1000
AcDbSavedByObjectVersion
1070
     0
  0
VISUALSTYLE
  5
40A
102
{ACAD_XDICTIONARY
360
ECF
102
}
102
{ACAD_REACTORS
330
406
102
}
330
406
100
AcDbVisualStyle
  2

 70
     3
 71
     2
 72
     2
 73
     1
 90
        2
 40
-0.6
 41
30.0
 62
     5
 63
     7
 74
     1
 91
        4
 64
     7
 65
   257
 75
     1
175
     1
 42
1.0
 92
        0
 66
   257
 43
1.0
 76
     1
 77
     6
 78
     2
 67
     7
 79
     5
170
     0
171
     0
290
     0
174
     0
 93
       13
 44
0.0
173
     0
291
     1
 45
0.0
1001
ACAD
1000
AcDbSavedByObjectVersion
1070
     0
  0
VISUALSTYLE
  5
417
102
{ACAD_XDICTIONARY
360
EE9
102
}
102
{ACAD_REACTORS
330
406
102
}
330
406
100
AcDbVisualStyle
  2

 70
    20
 71
     2
 72
     2
 73
     0
 90
        0
 40
-0.6
 41
-30.0
 62
     5
 63
     7
 74
     1
 91
        4
 64
     7
 65
   257
 75
     1
175
     1
 42
1.0
 92
       10
 66
     7
 43
1.0
 76
     1
 77
     6
 78
     2
 67
     7
 79
     5
170
     0
171
     0
290
     0
174
     0
 93
        1
 44
0.0
173
     0
291
     1
 45
0.0
1001
ACAD
1000
AcDbSavedByObjectVersion
1070
     0
  0
VISUALSTYLE
  5
414
102
{ACAD_XDICTIONARY
360
EE3
102
}
102
{ACAD_REACTORS
330
406
102
}
330
406
100
AcDbVisualStyle
  2

 70
    14
 71
     2
 72
     2
 73
     0
 90
        0
 40
-0.6
 41
-30.0
 62
     5
 63
     7
 74
     1
 91
        4
 64
     7
 65
   257
 75
     7
175
     7
 42
1.0
 92
        8
 66
     7
 43
1.0
 76
     1
 77
     6
 78
     2
 67
     7
 79
     5
170
     0
171
     0
290
     0
174
     0
 93
        1
 44
0.0
173
     0
291
     1
 45
0.0
1001
ACAD
1000
AcDbSavedByObjectVersion
1070
     0
  0
VISUALSTYLE
  5
418
102
{ACAD_XDICTIONARY
360
EEB
102
}
102
{ACAD_REACTORS
330
406
102
}
330
406
100
AcDbVisualStyle
  2

 70
    21
 71
     2
 72
     2
 73
     0
 90
        0
 40
-0.6
 41
-30.0
 62
     5
 63
     7
 74
     1
 91
        4
 64
     7
 65
   257
 75
     1
175
     1
 42
1.0
 92
        9
 66
     7
 43
1.0
 76
     1
 77
     6
 78
     2
 67
     7
 79
     5
170
     0
171
     0
290
     0
174
     0
 93
        1
 44
0.0
173
     0
291
     1
 45
0.0
1001
ACAD
1000
AcDbSavedByObjectVersion
1070
     0
  0
VISUALSTYLE
  5
410
102
{ACAD_XDICTIONARY
360
EDB
102
}
102
{ACAD_REACTORS
330
406
102
}
330
406
100
AcDbVisualStyle
  2

 70
     8
 71
     2
 72
     2
 73
     0
 90
        0
 40
-0.6
 41
-30.0
 62
     5
 63
     7
 74
     1
 91
        0
 64
     7
 65
   257
 75
     1
175
     1
 42
1.0
 92
        8
 66
     8
 43
1.0
 76
     1
 77
     6
 78
     2
 67
     7
 79
     5
170
     0
171
     0
290
     0
174
     0
 93
       13
 44
0.0
173
     0
291
     0
 45
0.0
1001
ACAD
1000
AcDbSavedByObjectVersion
1070
     0
  0
VISUALSTYLE
  5
413
102
{ACAD_XDICTIONARY
360
EE1
102
}
102
{ACAD_REACTORS
330
406
102
}
330
406
100
AcDbVisualStyle
  2

 70
    13
 71
     2
 72
     2
 73
     0
 90
        0
 40
-0.6
 41
-30.0
 62
     5
 63
     7
 74
     1
 91
        4
 64
     7
 65
   257
 75
     1
175
     1
 42
1.0
 92
       12
 66
     7
 43
1.0
 76
     1
 77
     6
 78
     2
 67
     7
 79
     5
170
     0
171
     0
290
     0
174
     0
 93
        1
 44
0.0
173
     0
291
     1
 45
0.0
1001
ACAD
1000
AcDbSavedByObjectVersion
1070
     0
  0
DICTIONARYVAR
  5
5F1
102
{ACAD_REACTORS
330
5ED
102
}
330
5ED
100
DictionaryVariables
280
     0
  1
1:1
  0
DICTIONARYVAR
  5
5EF
102
{ACAD_REACTORS
330
5ED
102
}
330
5ED
100
DictionaryVariables
280
     0
  1
STANDARD
  0
DICTIONARYVAR
  5
5EE
102
{ACAD_REACTORS
330
5ED
102
}
330
5ED
100
DictionaryVariables
280
     0
  1
STANDARD
  0
DICTIONARYVAR
  5
5F8
102
{ACAD_REACTORS
330
5ED
102
}
330
5ED
100
DictionaryVariables
280
     0
  1
2
  0
DICTIONARYVAR
  5
5F7
102
{ACAD_REACTORS
330
5ED
102
}
330
5ED
100
DictionaryVariables
280
     0
  1
1
  0
DICTIONARYVAR
  5
5F6
102
{ACAD_REACTORS
330
5ED
102
}
330
5ED
100
DictionaryVariables
280
     0
  1
0
  0
DICTIONARYVAR
  5
5F3
102
{ACAD_REACTORS
330
5ED
102
}
330
5ED
100
DictionaryVariables
280
     0
  1
0
  0
DICTIONARYVAR
  5
5F4
102
{ACAD_REACTORS
330
5ED
102
}
330
5ED
100
DictionaryVariables
280
     0
  1
0
  0
DICTIONARYVAR
  5
5F2
102
{ACAD_REACTORS
330
5ED
102
}
330
5ED
100
DictionaryVariables
280
     0
  1
2
  0
DICTIONARYVAR
  5
5F0
102
{ACAD_REACTORS
330
5ED
102
}
330
5ED
100
DictionaryVariables
280
     0
  1
1
  0
DICTIONARYVAR
  5
5F5
102
{ACAD_REACTORS
330
5ED
102
}
330
5ED
100
DictionaryVariables
280
     0
  1
127
  0
DICTIONARYVAR
  5
EBC
102
{ACAD_REACTORS
330
5ED
102
}
330
5ED
100
DictionaryVariables
280
     0
  1
2
  0
DICTIONARY
  5
495
102
{ACAD_REACTORS
330
489
102
}
330
489
100
AcDbDictionary
281
     1
  0
DICTIONARY
  5
EC7
330
3E9
100
AcDbDictionary
280
     1
281
     1
  3
ACAD_XREC_ROUNDTRIP
360
EC8
  0
DICTIONARY
  5
EC5
330
3E8
100
AcDbDictionary
280
     1
281
     1
  3
ACAD_XREC_ROUNDTRIP
360
EC6
  0
DICTIONARY
  5
3F7
330
3F6
100
AcDbDictionary
280
     1
281
     1
  3
ACAD_XREC_ROUNDTRIP
360
603
  3
BUMPTILE
360
3F9
  3
DIFFUSETILE
360
3F8
  3
OPACITYTILE
360
3FC
  3
REFLECTIONTILE
360
3FB
  3
REFRACTIONTILE
360
3FD
  3
SPECULARTILE
360
3FA
  0
DICTIONARY
  5
3EF
330
3EE
100
AcDbDictionary
280
     1
281
     1
  3
ACAD_XREC_ROUNDTRIP
360
602
  3
BUMPTILE
360
3F1
  3
DIFFUSETILE
360
3F0
  3
OPACITYTILE
360
3F4
  3
REFLECTIONTILE
360
3F3
  3
REFRACTIONTILE
360
3F5
  3
SPECULARTILE
360
3F2
  0
DICTIONARY
  5
3FF
330
3FE
100
AcDbDictionary
280
     1
281
     1
  3
ACAD_XREC_ROUNDTRIP
360
604
  3
BUMPTILE
360
401
  3
DIFFUSETILE
360
400
  3
OPACITYTILE
360
404
  3
REFLECTIONTILE
360
403
  3
REFRACTIONTILE
360
405
  3
SPECULARTILE
360
402
  0
DICTIONARY
  5
5FA
330
41C
100
AcDbDictionary
280
     1
281
     1
  3
ACAD_ROUNDTRIP_2008_TABLESTYLE_CELLSTYLEMAP
360
EBD
  3
ACAD_XREC_ROUNDTRIP
360
EEF
  0
DICTIONARY
  5
ED3
330
40C
100
AcDbDictionary
280
     1
281
     1
  3
ACAD_XREC_ROUNDTRIP
360
ED4
  0
DICTIONARY
  5
ED7
330
40E
100
AcDbDictionary
280
     1
281
     1
  3
ACAD_XREC_ROUNDTRIP
360
ED8
  0
DICTIONARY
  5
ED5
330
40D
100
AcDbDictionary
280
     1
281
     1
  3
ACAD_XREC_ROUNDTRIP
360
ED6
  0
DICTIONARY
  5
ED1
330
40B
100
AcDbDictionary
280
     1
281
     1
  3
ACAD_XREC_ROUNDTRIP
360
ED2
  0
DICTIONARY
  5
EDF
330
412
100
AcDbDictionary
280
     1
281
     1
  3
ACAD_XREC_ROUNDTRIP
360
EE0
  0
DICTIONARY
  5
EE7
330
416
100
AcDbDictionary
280
     1
281
     1
  3
ACAD_XREC_ROUNDTRIP
360
EE8
  0
DICTIONARY
  5
ED9
330
40F
100
AcDbDictionary
280
     1
281
     1
  3
ACAD_XREC_ROUNDTRIP
360
EDA
  0
DICTIONARY
  5
EDD
330
411
100
AcDbDictionary
280
     1
281
     1
  3
ACAD_XREC_ROUNDTRIP
360
EDE
  0
DICTIONARY
  5
EED
330
419
100
AcDbDictionary
280
     1
281
     1
  3
ACAD_XREC_ROUNDTRIP
360
EEE
  0
DICTIONARY
  5
EE5
330
415
100
AcDbDictionary
280
     1
281
     1
  3
ACAD_XREC_ROUNDTRIP
360
EE6
  0
DICTIONARY
  5
EC9
330
407
100
AcDbDictionary
280
     1
281
     1
  3
ACAD_XREC_ROUNDTRIP
360
ECA
  0
DICTIONARY
  5
ECB
330
408
100
AcDbDictionary
280
     1
281
     1
  3
ACAD_XREC_ROUNDTRIP
360
ECC
  0
DICTIONARY
  5
ECD
330
409
100
AcDbDictionary
280
     1
281
     1
  3
ACAD_XREC_ROUNDTRIP
360
ECE
  0
DICTIONARY
  5
ECF
330
40A
100
AcDbDictionary
280
     1
281
     1
  3
ACAD_XREC_ROUNDTRIP
360
ED0
  0
DICTIONARY
  5
EE9
330
417
100
AcDbDictionary
280
     1
281
     1
  3
ACAD_XREC_ROUNDTRIP
360
EEA
  0
DICTIONARY
  5
EE3
330
414
100
AcDbDictionary
280
     1
281
     1
  3
ACAD_XREC_ROUNDTRIP
360
EE4
  0
DICTIONARY
  5
EEB
330
418
100
AcDbDictionary
280
     1
281
     1
  3
ACAD_XREC_ROUNDTRIP
360
EEC
  0
DICTIONARY
  5
EDB
330
410
100
AcDbDictionary
280
     1
281
     1
  3
ACAD_XREC_ROUNDTRIP
360
EDC
  0
DICTIONARY
  5
EE1
330
413
100
AcDbDictionary
280
     1
281
     1
  3
ACAD_XREC_ROUNDTRIP
360
EE2
  0
XRECORD
  5
EC8
102
{ACAD_REACTORS
330
EC7
102
}
330
EC7
100
AcDbXrecord
280
     1
102
SHADEPLOT
 70
     0
102
SHADEPLOTRESLEVEL
 70
     2
102
SHADEPLOTCUSTOMDPI
 70
   300
  0
XRECORD
  5
EC6
102
{ACAD_REACTORS
330
EC5
102
}
330
EC5
100
AcDbXrecord
280
     1
102
SHADEPLOT
 70
     0
102
SHADEPLOTRESLEVEL
 70
     2
102
SHADEPLOTCUSTOMDPI
 70
   300
  0
XRECORD
  5
603
102
{ACAD_REACTORS
330
3F7
102
}
330
3F7
100
AcDbXrecord
280
     1
102
MATERIAL
148
0.0
149
0.0
149
0.0
 93
        0
 94
      127
282
     0
 72
     0
 77
     0
171
     0
175
     0
179
     0
273
     0
  0
XRECORD
  5
3F9
102
{ACAD_REACTORS
330
3F7
102
}
330
3F7
100
AcDbXrecord
280
     1
270
     1
271
     1
  0
XRECORD
  5
3F8
102
{ACAD_REACTORS
330
3F7
102
}
330
3F7
100
AcDbXrecord
280
     1
270
     1
271
     1
  0
XRECORD
  5
3FC
102
{ACAD_REACTORS
330
3F7
102
}
330
3F7
100
AcDbXrecord
280
     1
270
     1
271
     1
  0
XRECORD
  5
3FB
102
{ACAD_REACTORS
330
3F7
102
}
330
3F7
100
AcDbXrecord
280
     1
270
     1
271
     1
  0
XRECORD
  5
3FD
102
{ACAD_REACTORS
330
3F7
102
}
330
3F7
100
AcDbXrecord
280
     1
270
     1
271
     1
  0
XRECORD
  5
3FA
102
{ACAD_REACTORS
330
3F7
102
}
330
3F7
100
AcDbXrecord
280
     1
270
     1
271
     1
  0
XRECORD
  5
602
102
{ACAD_REACTORS
330
3EF
102
}
330
3EF
100
AcDbXrecord
280
     1
102
MATERIAL
148
0.0
149
0.0
149
0.0
 93
        0
 94
      127
282
     0
 72
     0
 77
     0
171
     0
175
     0
179
     0
273
     0
  0
XRECORD
  5
3F1
102
{ACAD_REACTORS
330
3EF
102
}
330
3EF
100
AcDbXrecord
280
     1
270
     1
271
     1
  0
XRECORD
  5
3F0
102
{ACAD_REACTORS
330
3EF
102
}
330
3EF
100
AcDbXrecord
280
     1
270
     1
271
     1
  0
XRECORD
  5
3F4
102
{ACAD_REACTORS
330
3EF
102
}
330
3EF
100
AcDbXrecord
280
     1
270
     1
271
     1
  0
XRECORD
  5
3F3
102
{ACAD_REACTORS
330
3EF
102
}
330
3EF
100
AcDbXrecord
280
     1
270
     1
271
     1
  0
XRECORD
  5
3F5
102
{ACAD_REACTORS
330
3EF
102
}
330
3EF
100
AcDbXrecord
280
     1
270
     1
271
     1
  0
XRECORD
  5
3F2
102
{ACAD_REACTORS
330
3EF
102
}
330
3EF
100
AcDbXrecord
280
     1
270
     1
271
     1
  0
XRECORD
  5
604
102
{ACAD_REACTORS
330
3FF
102
}
330
3FF
100
AcDbXrecord
280
     1
102
MATERIAL
148
0.0
149
0.0
149
0.0
 93
        0
 94
      127
282
     0
 72
     0
 77
     0
171
     0
175
     0
179
     0
273
     0
  0
XRECORD
  5
401
102
{ACAD_REACTORS
330
3FF
102
}
330
3FF
100
AcDbXrecord
280
     1
270
     1
271
     1
  0
XRECORD
  5
400
102
{ACAD_REACTORS
330
3FF
102
}
330
3FF
100
AcDbXrecord
280
     1
270
     1
271
     1
  0
XRECORD
  5
404
102
{ACAD_REACTORS
330
3FF
102
}
330
3FF
100
AcDbXrecord
280
     1
270
     1
271
     1
  0
XRECORD
  5
403
102
{ACAD_REACTORS
330
3FF
102
}
330
3FF
100
AcDbXrecord
280
     1
270
     1
271
     1
  0
XRECORD
  5
405
102
{ACAD_REACTORS
330
3FF
102
}
330
3FF
100
AcDbXrecord
280
     1
270
     1
271
     1
  0
XRECORD
  5
402
102
{ACAD_REACTORS
330
3FF
102
}
330
3FF
100
AcDbXrecord
280
     1
270
     1
271
     1
  0
CELLSTYLEMAP
  5
EBD
102
{ACAD_REACTORS
330
5FA
102
}
330
5FA
100
AcDbCellStyleMap
 90
        3
300
CELLSTYLE
  1
TABLEFORMAT_BEGIN
 90
        5
170
     1
 91
        0
 92
    32768
 62
   257
 93
        1
300
CONTENTFORMAT
  1
CONTENTFORMAT_BEGIN
 90
        0
 91
        0
 92
      512
 93
        0
300

 40
0.0
140
1.0
 94
        5
 62
     0
340
11
144
6.0
309
CONTENTFORMAT_END
171
     1
301
MARGIN
  1
CELLMARGIN_BEGIN
 40
1.5
 40
1.5
 40
1.5
 40
1.5
 40
0.18
 40
0.18
309
CELLMARGIN_END
 94
        6
 95
        1
302
GRIDFORMAT
  1
GRIDFORMAT_BEGIN
 90
        0
 91
        1
 62
     0
 92
       -2
340
0
 93
        0
 40
1.125
309
GRIDFORMAT_END
 95
        2
302
GRIDFORMAT
  1
GRIDFORMAT_BEGIN
 90
        0
 91
        1
 62
     0
 92
       -2
340
0
 93
        0
 40
1.125
309
GRIDFORMAT_END
 95
        4
302
GRIDFORMAT
  1
GRIDFORMAT_BEGIN
 90
        0
 91
        1
 62
     0
 92
       -2
340
0
 93
        0
 40
1.125
309
GRIDFORMAT_END
 95
        8
302
GRIDFORMAT
  1
GRIDFORMAT_BEGIN
 90
        0
 91
        1
 62
     0
 92
       -2
340
0
 93
        0
 40
1.125
309
GRIDFORMAT_END
 95
       16
302
GRIDFORMAT
  1
GRIDFORMAT_BEGIN
 90
        0
 91
        1
 62
     0
 92
       -2
340
0
 93
        0
 40
1.125
309
GRIDFORMAT_END
 95
       32
302
GRIDFORMAT
  1
GRIDFORMAT_BEGIN
 90
        0
 91
        1
 62
     0
 92
       -2
340
0
 93
        0
 40
1.125
309
GRIDFORMAT_END
309
TABLEFORMAT_END
  1
CELLSTYLE_BEGIN
 90
        1
 91
        1
300
_TITLE
309
CELLSTYLE_END
300
CELLSTYLE
  1
TABLEFORMAT_BEGIN
 90
        5
170
     1
 91
        0
 92
        0
 62
   257
 93
        1
300
CONTENTFORMAT
  1
CONTENTFORMAT_BEGIN
 90
        0
 91
        0
 92
      512
 93
        0
300

 40
0.0
140
1.0
 94
        5
 62
     0
340
11
144
4.5
309
CONTENTFORMAT_END
171
     1
301
MARGIN
  1
CELLMARGIN_BEGIN
 40
1.5
 40
1.5
 40
1.5
 40
1.5
 40
0.18
 40
0.18
309
CELLMARGIN_END
 94
        6
 95
        1
302
GRIDFORMAT
  1
GRIDFORMAT_BEGIN
 90
        0
 91
        1
 62
     0
 92
       -2
340
0
 93
        0
 40
1.125
309
GRIDFORMAT_END
 95
        2
302
GRIDFORMAT
  1
GRIDFORMAT_BEGIN
 90
        0
 91
        1
 62
     0
 92
       -2
340
0
 93
        0
 40
1.125
309
GRIDFORMAT_END
 95
        4
302
GRIDFORMAT
  1
GRIDFORMAT_BEGIN
 90
        0
 91
        1
 62
     0
 92
       -2
340
0
 93
        0
 40
1.125
309
GRIDFORMAT_END
 95
        8
302
GRIDFORMAT
  1
GRIDFORMAT_BEGIN
 90
        0
 91
        1
 62
     0
 92
       -2
340
0
 93
        0
 40
1.125
309
GRIDFORMAT_END
 95
       16
302
GRIDFORMAT
  1
GRIDFORMAT_BEGIN
 90
        0
 91
        1
 62
     0
 92
       -2
340
0
 93
        0
 40
1.125
309
GRIDFORMAT_END
 95
       32
302
GRIDFORMAT
  1
GRIDFORMAT_BEGIN
 90
        0
 91
        1
 62
     0
 92
       -2
340
0
 93
        0
 40
1.125
309
GRIDFORMAT_END
309
TABLEFORMAT_END
  1
CELLSTYLE_BEGIN
 90
        2
 91
        1
300
_HEADER
309
CELLSTYLE_END
300
CELLSTYLE
  1
TABLEFORMAT_BEGIN
 90
        5
170
     1
 91
        0
 92
        0
 62
   257
 93
        1
300
CONTENTFORMAT
  1
CONTENTFORMAT_BEGIN
 90
        0
 91
        0
 92
      512
 93
        0
300

 40
0.0
140
1.0
 94
        2
 62
     0
340
11
144
4.5
309
CONTENTFORMAT_END
171
     1
301
MARGIN
  1
CELLMARGIN_BEGIN
 40
1.5
 40
1.5
 40
1.5
 40
1.5
 40
0.18
 40
0.18
309
CELLMARGIN_END
 94
        6
 95
        1
302
GRIDFORMAT
  1
GRIDFORMAT_BEGIN
 90
        0
 91
        1
 62
     0
 92
       -2
340
0
 93
        0
 40
1.125
309
GRIDFORMAT_END
 95
        2
302
GRIDFORMAT
  1
GRIDFORMAT_BEGIN
 90
        0
 91
        1
 62
     0
 92
       -2
340
0
 93
        0
 40
1.125
309
GRIDFORMAT_END
 95
        4
302
GRIDFORMAT
  1
GRIDFORMAT_BEGIN
 90
        0
 91
        1
 62
     0
 92
       -2
340
0
 93
        0
 40
1.125
309
GRIDFORMAT_END
 95
        8
302
GRIDFORMAT
  1
GRIDFORMAT_BEGIN
 90
        0
 91
        1
 62
     0
 92
       -2
340
0
 93
        0
 40
1.125
309
GRIDFORMAT_END
 95
       16
302
GRIDFORMAT
  1
GRIDFORMAT_BEGIN
 90
        0
 91
        1
 62
     0
 92
       -2
340
0
 93
        0
 40
1.125
309
GRIDFORMAT_END
 95
       32
302
GRIDFORMAT
  1
GRIDFORMAT_BEGIN
 90
        0
 91
        1
 62
     0
 92
       -2
340
0
 93
        0
 40
1.125
309
GRIDFORMAT_END
309
TABLEFORMAT_END
  1
CELLSTYLE_BEGIN
 90
        3
 91
        2
300
_DATA
309
CELLSTYLE_END
  0
XRECORD
  5
EEF
102
{ACAD_REACTORS
330
5FA
102
}
330
5FA
100
AcDbXrecord
280
     1
102
ACAD_ROUNDTRIP_PRE2007_TABLESTYLE
 90
      512
 91
        0
  1

 92
      512
 93
        0
  2

 94
      512
 95
        0
  3

  0
XRECORD
  5
ED4
102
{ACAD_REACTORS
330
ED3
102
}
330
ED3
100
AcDbXrecord
280
     1
102
RTVSPropertyOp0
 70
     1
102
RTVSPropertyOp1
 70
     1
102
RTVSPropertyOp2
 70
     1
102
RTVSPropertyOp3
 70
     1
102
RTVSPropertyOp4
 70
     1
102
RTVSPropertyOp5
 70
     1
102
RTVSPropertyOp6
 70
     1
102
RTVSPropertyOp7
 70
     1
102
RTVSPropertyOp8
 70
     1
102
RTVSPropertyOp9
 70
     1
102
RTVSPropertyOp10
 70
     1
102
RTVSPropertyOp11
 70
     1
102
RTVSPropertyOp12
 70
     1
102
RTVSPropertyOp13
 70
     1
102
RTVSPropertyOp14
 70
     1
102
RTVSPropertyOp15
 70
     1
102
RTVSPropertyOp16
 70
     1
102
RTVSPropertyOp17
 70
     1
102
RTVSPropertyOp18
 70
     1
102
RTVSPropertyOp19
 70
     1
102
RTVSPropertyOp20
 70
     1
102
RTVSPropertyOp21
 70
     1
102
RTVSPropertyOp22
 70
     1
102
RTVSPropertyOp23
 70
     1
102
RTVSPropertyOp24
 70
     1
102
RTVSPropertyOp25
 70
     1
102
RTVSPropertyOp26
 70
     1
102
RTVSPropertyOp27
 70
     1
  0
XRECORD
  5
ED8
102
{ACAD_REACTORS
330
ED7
102
}
330
ED7
100
AcDbXrecord
280
     1
102
RTVSPropertyOp0
 70
     1
102
RTVSPropertyOp1
 70
     1
102
RTVSPropertyOp2
 70
     1
102
RTVSPropertyOp3
 70
     1
102
RTVSPropertyOp4
 70
     1
102
RTVSPropertyOp5
 70
     1
102
RTVSPropertyOp6
 70
     1
102
RTVSPropertyOp7
 70
     1
102
RTVSPropertyOp8
 70
     1
102
RTVSPropertyOp9
 70
     1
102
RTVSPropertyOp10
 70
     1
102
RTVSPropertyOp11
 70
     1
102
RTVSPropertyOp12
 70
     1
102
RTVSPropertyOp13
 70
     1
102
RTVSPropertyOp14
 70
     1
102
RTVSPropertyOp15
 70
     1
102
RTVSPropertyOp16
 70
     1
102
RTVSPropertyOp17
 70
     1
102
RTVSPropertyOp18
 70
     1
102
RTVSPropertyOp19
 70
     1
102
RTVSPropertyOp20
 70
     1
102
RTVSPropertyOp21
 70
     1
102
RTVSPropertyOp22
 70
     1
102
RTVSPropertyOp23
 70
     1
102
RTVSPropertyOp24
 70
     1
102
RTVSPropertyOp25
 70
     1
102
RTVSPropertyOp26
 70
     1
102
RTVSPropertyOp27
 70
     1
  0
XRECORD
  5
ED6
102
{ACAD_REACTORS
330
ED5
102
}
330
ED5
100
AcDbXrecord
280
     1
102
RTVSPropertyOp0
 70
     1
102
RTVSPropertyOp1
 70
     1
102
RTVSPropertyOp2
 70
     1
102
RTVSPropertyOp3
 70
     1
102
RTVSPropertyOp4
 70
     1
102
RTVSPropertyOp5
 70
     1
102
RTVSPropertyOp6
 70
     1
102
RTVSPropertyOp7
 70
     1
102
RTVSPropertyOp8
 70
     1
102
RTVSPropertyOp9
 70
     1
102
RTVSPropertyOp10
 70
     1
102
RTVSPropertyOp11
 70
     1
102
RTVSPropertyOp12
 70
     1
102
RTVSPropertyOp13
 70
     1
102
RTVSPropertyOp14
 70
     1
102
RTVSPropertyOp15
 70
     1
102
RTVSPropertyOp16
 70
     1
102
RTVSPropertyOp17
 70
     1
102
RTVSPropertyOp18
 70
     1
102
RTVSPropertyOp19
 70
     1
102
RTVSPropertyOp20
 70
     1
102
RTVSPropertyOp21
 70
     1
102
RTVSPropertyOp22
 70
     1
102
RTVSPropertyOp23
 70
     1
102
RTVSPropertyOp24
 70
     1
102
RTVSPropertyOp25
 70
     1
102
RTVSPropertyOp26
 70
     1
102
RTVSPropertyOp27
 70
     1
  0
XRECORD
  5
ED2
102
{ACAD_REACTORS
330
ED1
102
}
330
ED1
100
AcDbXrecord
280
     1
102
RTVSPropertyOp0
 70
     1
102
RTVSPropertyOp1
 70
     1
102
RTVSPropertyOp2
 70
     1
102
RTVSPropertyOp3
 70
     1
102
RTVSPropertyOp4
 70
     1
102
RTVSPropertyOp5
 70
     1
102
RTVSPropertyOp6
 70
     1
102
RTVSPropertyOp7
 70
     1
102
RTVSPropertyOp8
 70
     1
102
RTVSPropertyOp9
 70
     1
102
RTVSPropertyOp10
 70
     1
102
RTVSPropertyOp11
 70
     1
102
RTVSPropertyOp12
 70
     1
102
RTVSPropertyOp13
 70
     1
102
RTVSPropertyOp14
 70
     1
102
RTVSPropertyOp15
 70
     1
102
RTVSPropertyOp16
 70
     1
102
RTVSPropertyOp17
 70
     1
102
RTVSPropertyOp18
 70
     1
102
RTVSPropertyOp19
 70
     1
102
RTVSPropertyOp20
 70
     1
102
RTVSPropertyOp21
 70
     1
102
RTVSPropertyOp22
 70
     1
102
RTVSPropertyOp23
 70
     1
102
RTVSPropertyOp24
 70
     1
102
RTVSPropertyOp25
 70
     1
102
RTVSPropertyOp26
 70
     1
102
RTVSPropertyOp27
 70
     1
  0
XRECORD
  5
EE0
102
{ACAD_REACTORS
330
EDF
102
}
330
EDF
100
AcDbXrecord
280
     1
102
RTVSPropertyOp0
 70
     1
102
RTVSPropertyOp1
 70
     1
102
RTVSPropertyOp2
 70
     1
102
RTVSPropertyOp3
 70
     1
102
RTVSPropertyOp4
 70
     1
102
RTVSPropertyOp5
 70
     1
102
RTVSPropertyOp6
 70
     1
102
RTVSPropertyOp7
 70
     1
102
RTVSPropertyOp8
 70
     1
102
RTVSPropertyOp9
 70
     1
102
RTVSPropertyOp10
 70
     1
102
RTVSPropertyOp11
 70
     1
102
RTVSPropertyOp12
 70
     1
102
RTVSPropertyOp13
 70
     1
102
RTVSPropertyOp14
 70
     1
102
RTVSPropertyOp15
 70
     1
102
RTVSPropertyOp16
 70
     1
102
RTVSPropertyOp17
 70
     1
102
RTVSPropertyOp18
 70
     1
102
RTVSPropertyOp19
 70
     1
102
RTVSPropertyOp20
 70
     1
102
RTVSPropertyOp21
 70
     1
102
RTVSPropertyOp22
 70
     1
102
RTVSPropertyOp23
 70
     1
102
RTVSPropertyOp24
 70
     1
102
RTVSPropertyOp25
 70
     1
102
RTVSPropertyOp26
 70
     1
102
RTVSPropertyOp27
 70
     1
  0
XRECORD
  5
EE8
102
{ACAD_REACTORS
330
EE7
102
}
330
EE7
100
AcDbXrecord
280
     1
102
RTVSPropertyOp0
 70
     1
102
RTVSPropertyOp1
 70
     1
102
RTVSPropertyOp2
 70
     1
102
RTVSPropertyOp3
 70
     1
102
RTVSPropertyOp4
 70
     1
102
RTVSPropertyOp5
 70
     1
102
RTVSPropertyOp6
 70
     1
102
RTVSPropertyOp7
 70
     1
102
RTVSPropertyOp8
 70
     1
102
RTVSPropertyOp9
 70
     1
102
RTVSPropertyOp10
 70
     1
102
RTVSPropertyOp11
 70
     1
102
RTVSPropertyOp12
 70
     1
102
RTVSPropertyOp13
 70
     1
102
RTVSPropertyOp14
 70
     1
102
RTVSPropertyOp15
 70
     1
102
RTVSPropertyOp16
 70
     1
102
RTVSPropertyOp17
 70
     1
102
RTVSPropertyOp18
 70
     1
102
RTVSPropertyOp19
 70
     1
102
RTVSPropertyOp20
 70
     1
102
RTVSPropertyOp21
 70
     1
102
RTVSPropertyOp22
 70
     1
102
RTVSPropertyOp23
 70
     1
102
RTVSPropertyOp24
 70
     1
102
RTVSPropertyOp25
 70
     1
102
RTVSPropertyOp26
 70
     1
102
RTVSPropertyOp27
 70
     1
  0
XRECORD
  5
EDA
102
{ACAD_REACTORS
330
ED9
102
}
330
ED9
100
AcDbXrecord
280
     1
102
RTVSPropertyOp0
 70
     1
102
RTVSPropertyOp1
 70
     1
102
RTVSPropertyOp2
 70
     1
102
RTVSPropertyOp3
 70
     1
102
RTVSPropertyOp4
 70
     1
102
RTVSPropertyOp5
 70
     1
102
RTVSPropertyOp6
 70
     1
102
RTVSPropertyOp7
 70
     1
102
RTVSPropertyOp8
 70
     1
102
RTVSPropertyOp9
 70
     1
102
RTVSPropertyOp10
 70
     1
102
RTVSPropertyOp11
 70
     1
102
RTVSPropertyOp12
 70
     1
102
RTVSPropertyOp13
 70
     1
102
RTVSPropertyOp14
 70
     1
102
RTVSPropertyOp15
 70
     1
102
RTVSPropertyOp16
 70
     1
102
RTVSPropertyOp17
 70
     1
102
RTVSPropertyOp18
 70
     1
102
RTVSPropertyOp19
 70
     1
102
RTVSPropertyOp20
 70
     1
102
RTVSPropertyOp21
 70
     1
102
RTVSPropertyOp22
 70
     1
102
RTVSPropertyOp23
 70
     1
102
RTVSPropertyOp24
 70
     1
102
RTVSPropertyOp25
 70
     1
102
RTVSPropertyOp26
 70
     1
102
RTVSPropertyOp27
 70
     1
  0
XRECORD
  5
EDE
102
{ACAD_REACTORS
330
EDD
102
}
330
EDD
100
AcDbXrecord
280
     1
102
RTVSPropertyOp0
 70
     1
102
RTVSPropertyOp1
 70
     1
102
RTVSPropertyOp2
 70
     1
102
RTVSPropertyOp3
 70
     1
102
RTVSPropertyOp4
 70
     1
102
RTVSPropertyOp5
 70
     1
102
RTVSPropertyOp6
 70
     1
102
RTVSPropertyOp7
 70
     1
102
RTVSPropertyOp8
 70
     1
102
RTVSPropertyOp9
 70
     1
102
RTVSPropertyOp10
 70
     1
102
RTVSPropertyOp11
 70
     1
102
RTVSPropertyOp12
 70
     1
102
RTVSPropertyOp13
 70
     1
102
RTVSPropertyOp14
 70
     1
102
RTVSPropertyOp15
 70
     1
102
RTVSPropertyOp16
 70
     1
102
RTVSPropertyOp17
 70
     1
102
RTVSPropertyOp18
 70
     1
102
RTVSPropertyOp19
 70
     1
102
RTVSPropertyOp20
 70
     1
102
RTVSPropertyOp21
 70
     1
102
RTVSPropertyOp22
 70
     1
102
RTVSPropertyOp23
 70
     1
102
RTVSPropertyOp24
 70
     1
102
RTVSPropertyOp25
 70
     1
102
RTVSPropertyOp26
 70
     1
102
RTVSPropertyOp27
 70
     1
  0
XRECORD
  5
EEE
102
{ACAD_REACTORS
330
EED
102
}
330
EED
100
AcDbXrecord
280
     1
102
RTVSPropertyOp0
 70
     0
102
RTVSPropertyOp1
 70
     0
102
RTVSPropertyOp2
 70
     0
102
RTVSPropertyOp3
 70
     0
102
RTVSPropertyOp4
 70
     0
102
RTVSPropertyOp5
 70
     0
102
RTVSPropertyOp6
 70
     0
102
RTVSPropertyOp7
 70
     0
102
RTVSPropertyOp8
 70
     0
102
RTVSPropertyOp9
 70
     0
102
RTVSPropertyOp10
 70
     0
102
RTVSPropertyOp11
 70
     0
102
RTVSPropertyOp12
 70
     0
102
RTVSPropertyOp13
 70
     0
102
RTVSPropertyOp14
 70
     2
102
RTVSPropertyOp15
 70
     0
102
RTVSPropertyOp16
 70
     0
102
RTVSPropertyOp17
 70
     0
102
RTVSPropertyOp18
 70
     0
102
RTVSPropertyOp19
 70
     0
102
RTVSPropertyOp20
 70
     0
102
RTVSPropertyOp21
 70
     0
102
RTVSPropertyOp22
 70
     0
102
RTVSPropertyOp23
 70
     0
102
RTVSPropertyOp24
 70
     0
102
RTVSPropertyOp25
 70
     0
102
RTVSPropertyOp26
 70
     0
102
RTVSPropertyOp27
 70
     0
  0
XRECORD
  5
EE6
102
{ACAD_REACTORS
330
EE5
102
}
330
EE5
100
AcDbXrecord
280
     1
102
RTVSPropertyOp0
 70
     1
102
RTVSPropertyOp1
 70
     1
102
RTVSPropertyOp2
 70
     1
102
RTVSPropertyOp3
 70
     1
102
RTVSPropertyOp4
 70
     1
102
RTVSPropertyOp5
 70
     1
102
RTVSPropertyOp6
 70
     1
102
RTVSPropertyOp7
 70
     1
102
RTVSPropertyOp8
 70
     1
102
RTVSPropertyOp9
 70
     1
102
RTVSPropertyOp10
 70
     1
102
RTVSPropertyOp11
 70
     1
102
RTVSPropertyOp12
 70
     1
102
RTVSPropertyOp13
 70
     1
102
RTVSPropertyOp14
 70
     1
102
RTVSPropertyOp15
 70
     1
102
RTVSPropertyOp16
 70
     1
102
RTVSPropertyOp17
 70
     1
102
RTVSPropertyOp18
 70
     1
102
RTVSPropertyOp19
 70
     1
102
RTVSPropertyOp20
 70
     1
102
RTVSPropertyOp21
 70
     1
102
RTVSPropertyOp22
 70
     1
102
RTVSPropertyOp23
 70
     1
102
RTVSPropertyOp24
 70
     1
102
RTVSPropertyOp25
 70
     1
102
RTVSPropertyOp26
 70
     1
102
RTVSPropertyOp27
 70
     1
  0
XRECORD
  5
ECA
102
{ACAD_REACTORS
330
EC9
102
}
330
EC9
100
AcDbXrecord
280
     1
102
RTVSPropertyOp0
 70
     1
102
RTVSPropertyOp1
 70
     1
102
RTVSPropertyOp2
 70
     1
102
RTVSPropertyOp3
 70
     1
102
RTVSPropertyOp4
 70
     1
102
RTVSPropertyOp5
 70
     1
102
RTVSPropertyOp6
 70
     1
102
RTVSPropertyOp7
 70
     1
102
RTVSPropertyOp8
 70
     1
102
RTVSPropertyOp9
 70
     1
102
RTVSPropertyOp10
 70
     1
102
RTVSPropertyOp11
 70
     1
102
RTVSPropertyOp12
 70
     1
102
RTVSPropertyOp13
 70
     1
102
RTVSPropertyOp14
 70
     1
102
RTVSPropertyOp15
 70
     1
102
RTVSPropertyOp16
 70
     1
102
RTVSPropertyOp17
 70
     1
102
RTVSPropertyOp18
 70
     1
102
RTVSPropertyOp19
 70
     1
102
RTVSPropertyOp20
 70
     1
102
RTVSPropertyOp21
 70
     1
102
RTVSPropertyOp22
 70
     1
102
RTVSPropertyOp23
 70
     1
102
RTVSPropertyOp24
 70
     1
102
RTVSPropertyOp25
 70
     1
102
RTVSPropertyOp26
 70
     1
102
RTVSPropertyOp27
 70
     1
  0
XRECORD
  5
ECC
102
{ACAD_REACTORS
330
ECB
102
}
330
ECB
100
AcDbXrecord
280
     1
102
RTVSPropertyOp0
 70
     1
102
RTVSPropertyOp1
 70
     1
102
RTVSPropertyOp2
 70
     1
102
RTVSPropertyOp3
 70
     1
102
RTVSPropertyOp4
 70
     1
102
RTVSPropertyOp5
 70
     1
102
RTVSPropertyOp6
 70
     1
102
RTVSPropertyOp7
 70
     1
102
RTVSPropertyOp8
 70
     1
102
RTVSPropertyOp9
 70
     1
102
RTVSPropertyOp10
 70
     1
102
RTVSPropertyOp11
 70
     1
102
RTVSPropertyOp12
 70
     1
102
RTVSPropertyOp13
 70
     1
102
RTVSPropertyOp14
 70
     1
102
RTVSPropertyOp15
 70
     1
102
RTVSPropertyOp16
 70
     1
102
RTVSPropertyOp17
 70
     1
102
RTVSPropertyOp18
 70
     1
102
RTVSPropertyOp19
 70
     1
102
RTVSPropertyOp20
 70
     1
102
RTVSPropertyOp21
 70
     1
102
RTVSPropertyOp22
 70
     1
102
RTVSPropertyOp23
 70
     1
102
RTVSPropertyOp24
 70
     1
102
RTVSPropertyOp25
 70
     1
102
RTVSPropertyOp26
 70
     1
102
RTVSPropertyOp27
 70
     1
  0
XRECORD
  5
ECE
102
{ACAD_REACTORS
330
ECD
102
}
330
ECD
100
AcDbXrecord
280
     1
102
RTVSPropertyOp0
 70
     1
102
RTVSPropertyOp1
 70
     1
102
RTVSPropertyOp2
 70
     1
102
RTVSPropertyOp3
 70
     1
102
RTVSPropertyOp4
 70
     1
102
RTVSPropertyOp5
 70
     1
102
RTVSPropertyOp6
 70
     1
102
RTVSPropertyOp7
 70
     1
102
RTVSPropertyOp8
 70
     1
102
RTVSPropertyOp9
 70
     1
102
RTVSPropertyOp10
 70
     1
102
RTVSPropertyOp11
 70
     1
102
RTVSPropertyOp12
 70
     1
102
RTVSPropertyOp13
 70
     1
102
RTVSPropertyOp14
 70
     1
102
RTVSPropertyOp15
 70
     1
102
RTVSPropertyOp16
 70
     1
102
RTVSPropertyOp17
 70
     1
102
RTVSPropertyOp18
 70
     1
102
RTVSPropertyOp19
 70
     1
102
RTVSPropertyOp20
 70
     1
102
RTVSPropertyOp21
 70
     1
102
RTVSPropertyOp22
 70
     1
102
RTVSPropertyOp23
 70
     1
102
RTVSPropertyOp24
 70
     1
102
RTVSPropertyOp25
 70
     1
102
RTVSPropertyOp26
 70
     1
102
RTVSPropertyOp27
 70
     1
  0
XRECORD
  5
ED0
102
{ACAD_REACTORS
330
ECF
102
}
330
ECF
100
AcDbXrecord
280
     1
102
RTVSPropertyOp0
 70
     1
102
RTVSPropertyOp1
 70
     1
102
RTVSPropertyOp2
 70
     1
102
RTVSPropertyOp3
 70
     1
102
RTVSPropertyOp4
 70
     1
102
RTVSPropertyOp5
 70
     1
102
RTVSPropertyOp6
 70
     1
102
RTVSPropertyOp7
 70
     1
102
RTVSPropertyOp8
 70
     1
102
RTVSPropertyOp9
 70
     1
102
RTVSPropertyOp10
 70
     1
102
RTVSPropertyOp11
 70
     1
102
RTVSPropertyOp12
 70
     1
102
RTVSPropertyOp13
 70
     1
102
RTVSPropertyOp14
 70
     1
102
RTVSPropertyOp15
 70
     1
102
RTVSPropertyOp16
 70
     1
102
RTVSPropertyOp17
 70
     1
102
RTVSPropertyOp18
 70
     1
102
RTVSPropertyOp19
 70
     1
102
RTVSPropertyOp20
 70
     1
102
RTVSPropertyOp21
 70
     1
102
RTVSPropertyOp22
 70
     1
102
RTVSPropertyOp23
 70
     1
102
RTVSPropertyOp24
 70
     1
102
RTVSPropertyOp25
 70
     1
102
RTVSPropertyOp26
 70
     1
102
RTVSPropertyOp27
 70
     1
  0
XRECORD
  5
EEA
102
{ACAD_REACTORS
330
EE9
102
}
330
EE9
100
AcDbXrecord
280
     1
102
RTVSPropertyOp0
 70
     0
102
RTVSPropertyOp1
 70
     0
102
RTVSPropertyOp2
 70
     0
102
RTVSPropertyOp3
 70
     0
102
RTVSPropertyOp4
 70
     0
102
RTVSPropertyOp5
 70
     0
102
RTVSPropertyOp6
 70
     0
102
RTVSPropertyOp7
 70
     0
102
RTVSPropertyOp8
 70
     0
102
RTVSPropertyOp9
 70
     0
102
RTVSPropertyOp10
 70
     0
102
RTVSPropertyOp11
 70
     0
102
RTVSPropertyOp12
 70
     0
102
RTVSPropertyOp13
 70
     0
102
RTVSPropertyOp14
 70
     2
102
RTVSPropertyOp15
 70
     0
102
RTVSPropertyOp16
 70
     0
102
RTVSPropertyOp17
 70
     0
102
RTVSPropertyOp18
 70
     0
102
RTVSPropertyOp19
 70
     0
102
RTVSPropertyOp20
 70
     0
102
RTVSPropertyOp21
 70
     0
102
RTVSPropertyOp22
 70
     0
102
RTVSPropertyOp23
 70
     0
102
RTVSPropertyOp24
 70
     0
102
RTVSPropertyOp25
 70
     0
102
RTVSPropertyOp26
 70
     0
102
RTVSPropertyOp27
 70
     0
  0
XRECORD
  5
EE4
102
{ACAD_REACTORS
330
EE3
102
}
330
EE3
100
AcDbXrecord
280
     1
102
RTVSPropertyOp0
 70
     1
102
RTVSPropertyOp1
 70
     1
102
RTVSPropertyOp2
 70
     1
102
RTVSPropertyOp3
 70
     1
102
RTVSPropertyOp4
 70
     1
102
RTVSPropertyOp5
 70
     1
102
RTVSPropertyOp6
 70
     1
102
RTVSPropertyOp7
 70
     1
102
RTVSPropertyOp8
 70
     1
102
RTVSPropertyOp9
 70
     1
102
RTVSPropertyOp10
 70
     1
102
RTVSPropertyOp11
 70
     1
102
RTVSPropertyOp12
 70
     1
102
RTVSPropertyOp13
 70
     1
102
RTVSPropertyOp14
 70
     1
102
RTVSPropertyOp15
 70
     1
102
RTVSPropertyOp16
 70
     1
102
RTVSPropertyOp17
 70
     1
102
RTVSPropertyOp18
 70
     1
102
RTVSPropertyOp19
 70
     1
102
RTVSPropertyOp20
 70
     1
102
RTVSPropertyOp21
 70
     1
102
RTVSPropertyOp22
 70
     1
102
RTVSPropertyOp23
 70
     1
102
RTVSPropertyOp24
 70
     1
102
RTVSPropertyOp25
 70
     1
102
RTVSPropertyOp26
 70
     1
102
RTVSPropertyOp27
 70
     1
  0
XRECORD
  5
EEC
102
{ACAD_REACTORS
330
EEB
102
}
330
EEB
100
AcDbXrecord
280
     1
102
RTVSPropertyOp0
 70
     0
102
RTVSPropertyOp1
 70
     0
102
RTVSPropertyOp2
 70
     0
102
RTVSPropertyOp3
 70
     0
102
RTVSPropertyOp4
 70
     0
102
RTVSPropertyOp5
 70
     0
102
RTVSPropertyOp6
 70
     0
102
RTVSPropertyOp7
 70
     0
102
RTVSPropertyOp8
 70
     0
102
RTVSPropertyOp9
 70
     0
102
RTVSPropertyOp10
 70
     0
102
RTVSPropertyOp11
 70
     0
102
RTVSPropertyOp12
 70
     0
102
RTVSPropertyOp13
 70
     0
102
RTVSPropertyOp14
 70
     2
102
RTVSPropertyOp15
 70
     0
102
RTVSPropertyOp16
 70
     0
102
RTVSPropertyOp17
 70
     0
102
RTVSPropertyOp18
 70
     0
102
RTVSPropertyOp19
 70
     0
102
RTVSPropertyOp20
 70
     0
102
RTVSPropertyOp21
 70
     0
102
RTVSPropertyOp22
 70
     0
102
RTVSPropertyOp23
 70
     0
102
RTVSPropertyOp24
 70
     0
102
RTVSPropertyOp25
 70
     0
102
RTVSPropertyOp26
 70
     0
102
RTVSPropertyOp27
 70
     0
  0
XRECORD
  5
EDC
102
{ACAD_REACTORS
330
EDB
102
}
330
EDB
100
AcDbXrecord
280
     1
102
RTVSPropertyOp0
 70
     1
102
RTVSPropertyOp1
 70
     1
102
RTVSPropertyOp2
 70
     1
102
RTVSPropertyOp3
 70
     1
102
RTVSPropertyOp4
 70
     1
102
RTVSPropertyOp5
 70
     1
102
RTVSPropertyOp6
 70
     1
102
RTVSPropertyOp7
 70
     1
102
RTVSPropertyOp8
 70
     1
102
RTVSPropertyOp9
 70
     1
102
RTVSPropertyOp10
 70
     1
102
RTVSPropertyOp11
 70
     1
102
RTVSPropertyOp12
 70
     1
102
RTVSPropertyOp13
 70
     1
102
RTVSPropertyOp14
 70
     1
102
RTVSPropertyOp15
 70
     1
102
RTVSPropertyOp16
 70
     1
102
RTVSPropertyOp17
 70
     1
102
RTVSPropertyOp18
 70
     1
102
RTVSPropertyOp19
 70
     1
102
RTVSPropertyOp20
 70
     1
102
RTVSPropertyOp21
 70
     1
102
RTVSPropertyOp22
 70
     1
102
RTVSPropertyOp23
 70
     1
102
RTVSPropertyOp24
 70
     1
102
RTVSPropertyOp25
 70
     1
102
RTVSPropertyOp26
 70
     1
102
RTVSPropertyOp27
 70
     1
  0
XRECORD
  5
EE2
102
{ACAD_REACTORS
330
EE1
102
}
330
EE1
100
AcDbXrecord
280
     1
102
RTVSPropertyOp0
 70
     1
102
RTVSPropertyOp1
 70
     1
102
RTVSPropertyOp2
 70
     1
102
RTVSPropertyOp3
 70
     1
102
RTVSPropertyOp4
 70
     1
102
RTVSPropertyOp5
 70
     1
102
RTVSPropertyOp6
 70
     1
102
RTVSPropertyOp7
 70
     1
102
RTVSPropertyOp8
 70
     1
102
RTVSPropertyOp9
 70
     1
102
RTVSPropertyOp10
 70
     1
102
RTVSPropertyOp11
 70
     1
102
RTVSPropertyOp12
 70
     1
102
RTVSPropertyOp13
 70
     1
102
RTVSPropertyOp14
 70
     1
102
RTVSPropertyOp15
 70
     1
102
RTVSPropertyOp16
 70
     1
102
RTVSPropertyOp17
 70
     1
102
RTVSPropertyOp18
 70
     1
102
RTVSPropertyOp19
 70
     1
102
RTVSPropertyOp20
 70
     1
102
RTVSPropertyOp21
 70
     1
102
RTVSPropertyOp22
 70
     1
102
RTVSPropertyOp23
 70
     1
102
RTVSPropertyOp24
 70
     1
102
RTVSPropertyOp25
 70
     1
102
RTVSPropertyOp26
 70
     1
102
RTVSPropertyOp27
 70
     1
  0
ENDSEC
  0
EOF
