  0
SECTION
  2
HEADER
  9
$ACADVER
  1
AC1024
  9
$ACADMAINTVER
 70
   157
  9
$DWGCODEPAGE
  3
ANSI_1252
  9
$LASTSAVEDBY
  1
sbittorf
  9
$CUSTOMPROPERTYTAG
  1
AmdtFileType
  9
$CUSTOMPROPERTY
  1
84
  9
$INSBASE
 10
0.0
 20
0.0
 30
0.0
  9
$EXTMIN
 10
16.0548826113466
 20
44.49894046154247
 30
0.0
  9
$EXTMAX
 10
1019.36111698083
 20
463.4080467259993
 30
0.0
  9
$LIMMIN
 10
0.0
 20
0.0
  9
$LIMMAX
 10
420.0
 20
297.0
  9
$ORTHOMODE
 70
     0
  9
$REGENMODE
 70
     1
  9
$FILLMODE
 70
     1
  9
$QTEXTMODE
 70
     0
  9
$MIRRTEXT
 70
     1
  9
$LTSCALE
 40
1.0
  9
$ATTMODE
 70
     1
  9
$TEXTSIZE
 40
2.5
  9
$TRACEWID
 40
1.0
  9
$TEXTSTYLE
  7
STANDARD
  9
$CLAYER
  8
0
  9
$CELTYPE
  6
ByLayer
  9
$CECOLOR
 62
   256
  9
$CELTSCALE
 40
1.0
  9
$DISPSILH
 70
     0
  9
$DIMSCALE
 40
1.0
  9
$DIMASZ
 40
2.5
  9
$DIMEXO
 40
1.0
  9
$DIMDLI
 40
10.0
  9
$DIMRND
 40
0.0
  9
$DIMDLE
 40
0.0
  9
$DIMEXE
 40
1.0
  9
$DIMTP
 40
0.1
  9
$DIMTM
 40
0.1
  9
$DIMTXT
 40
3.5
  9
$DIMCEN
 40
0.0
  9
$DIMTSZ
 40
0.0
  9
$DIMTOL
 70
     0
  9
$DIMLIM
 70
     0
  9
$DIMTIH
 70
     0
  9
$DIMTOH
 70
     0
  9
$DIMSE1
 70
     0
  9
$DIMSE2
 70
     0
  9
$DIMTAD
 70
     1
  9
$DIMZIN
 70
     8
  9
$DIMBLK
  1

  9
$DIMASO
 70
     1
  9
$DIMSHO
 70
     1
  9
$DIMPOST
  1

  9
$DIMAPOST
  1
"
  9
$DIMALT
 70
     0
  9
$DIMALTD
 70
     2
  9
$DIMALTF
 40
0.0393701
  9
$DIMLFAC
 40
1.0
  9
$DIMTOFL
 70
     1
  9
$DIMTVP
 40
0.0
  9
$DIMTIX
 70
     0
  9
$DIMSOXD
 70
     0
  9
$DIMSAH
 70
     0
  9
$DIMBLK1
  1

  9
$DIMBLK2
  1

  9
$DIMSTYLE
  2
AM_DIN
  9
$DIMCLRD
 70
   256
  9
$DIMCLRE
 70
   256
  9
$DIMCLRT
 70
     2
  9
$DIMTFAC
 40
0.71
  9
$DIMGAP
 40
1.5
  9
$DIMJUST
 70
     0
  9
$DIMSD1
 70
     0
  9
$DIMSD2
 70
     0
  9
$DIMTOLJ
 70
     0
  9
$DIMTZIN
 70
     8
  9
$DIMALTZ
 70
     0
  9
$DIMALTTZ
 70
     0
  9
$DIMUPT
 70
     0
  9
$DIMDEC
 70
     2
  9
$DIMTDEC
 70
     3
  9
$DIMALTU
 70
     2
  9
$DIMALTTD
 70
     4
  9
$DIMTXSTY
  7
STANDARD
  9
$DIMAUNIT
 70
     0
  9
$DIMADEC
 70
     0
  9
$DIMALTRND
 40
0.0
  9
$DIMAZIN
 70
     2
  9
$DIMDSEP
 70
    46
  9
$DIMATFIT
 70
     3
  9
$DIMFRAC
 70
     0
  9
$DIMLDRBLK
  1

  9
$DIMLUNIT
 70
     2
  9
$DIMLWD
 70
    -1
  9
$DIMLWE
 70
    -1
  9
$DIMTMOVE
 70
     0
  9
$DIMFXL
 40
1.0
  9
$DIMFXLON
 70
     0
  9
$DIMJOGANG
 40
1.570796326794896
  9
$DIMTFILL
 70
     0
  9
$DIMTFILLCLR
 70
     0
  9
$DIMARCSYM
 70
     0
  9
$DIMLTYPE
  6

  9
$DIMLTEX1
  6

  9
$DIMLTEX2
  6

  9
$DIMTXTDIRECTION
 70
     0
  9
$LUNITS
 70
     2
  9
$LUPREC
 70
     2
  9
$SKETCHINC
 40
1.0
  9
$FILLETRAD
 40
0.0
  9
$AUNITS
 70
     0
  9
$AUPREC
 70
     0
  9
$MENU
  1
.
  9
$ELEVATION
 40
0.0
  9
$PELEVATION
 40
0.0
  9
$THICKNESS
 40
0.0
  9
$LIMCHECK
 70
     0
  9
$CHAMFERA
 40
2.5
  9
$CHAMFERB
 40
2.5
  9
$CHAMFERC
 40
20.0
  9
$CHAMFERD
 40
0.0
  9
$SKPOLY
 70
     0
  9
$TDCREATE
 40
2457921.315895336
  9
$TDUCREATE
 40
2457921.232562002
  9
$TDUPDATE
 40
2457921.318735926
  9
$TDUUPDATE
 40
2457921.235402593
  9
$TDINDWG
 40
0.0028410880
  9
$TDUSRTIMER
 40
0.0028409838
  9
$USRTIMER
 70
     1
  9
$ANGBASE
 50
0.0
  9
$ANGDIR
 70
     0
  9
$PDMODE
 70
     0
  9
$PDSIZE
 40
0.0
  9
$PLINEWID
 40
0.0
  9
$SPLFRAME
 70
     0
  9
$SPLINETYPE
 70
     6
  9
$SPLINESEGS
 70
     8
  9
$HANDSEED
  5
B8A
  9
$SURFTAB1
 70
     6
  9
$SURFTAB2
 70
     6
  9
$SURFTYPE
 70
     6
  9
$SURFU
 70
     6
  9
$SURFV
 70
     6
  9
$UCSBASE
  2

  9
$UCSNAME
  2

  9
$UCSORG
 10
0.0
 20
0.0
 30
0.0
  9
$UCSXDIR
 10
1.0
 20
0.0
 30
0.0
  9
$UCSYDIR
 10
0.0
 20
1.0
 30
0.0
  9
$UCSORTHOREF
  2

  9
$UCSORTHOVIEW
 70
     0
  9
$UCSORGTOP
 10
0.0
 20
0.0
 30
0.0
  9
$UCSORGBOTTOM
 10
0.0
 20
0.0
 30
0.0
  9
$UCSORGLEFT
 10
0.0
 20
0.0
 30
0.0
  9
$UCSORGRIGHT
 10
0.0
 20
0.0
 30
0.0
  9
$UCSORGFRONT
 10
0.0
 20
0.0
 30
0.0
  9
$UCSORGBACK
 10
0.0
 20
0.0
 30
0.0
  9
$PUCSBASE
  2

  9
$PUCSNAME
  2

  9
$PUCSORG
 10
0.0
 20
0.0
 30
0.0
  9
$PUCSXDIR
 10
1.0
 20
0.0
 30
0.0
  9
$PUCSYDIR
 10
0.0
 20
1.0
 30
0.0
  9
$PUCSORTHOREF
  2

  9
$PUCSORTHOVIEW
 70
     0
  9
$PUCSORGTOP
 10
0.0
 20
0.0
 30
0.0
  9
$PUCSORGBOTTOM
 10
0.0
 20
0.0
 30
0.0
  9
$PUCSORGLEFT
 10
0.0
 20
0.0
 30
0.0
  9
$PUCSORGRIGHT
 10
0.0
 20
0.0
 30
0.0
  9
$PUCSORGFRONT
 10
0.0
 20
0.0
 30
0.0
  9
$PUCSORGBACK
 10
0.0
 20
0.0
 30
0.0
  9
$USERI1
 70
     0
  9
$USERI2
 70
     0
  9
$USERI3
 70
     0
  9
$USERI4
 70
     0
  9
$USERI5
 70
     0
  9
$USERR1
 40
0.0
  9
$USERR2
 40
0.0
  9
$USERR3
 40
0.0
  9
$USERR4
 40
0.0
  9
$USERR5
 40
0.0
  9
$WORLDVIEW
 70
     1
  9
$SHADEDGE
 70
     3
  9
$SHADEDIF
 70
    70
  9
$TILEMODE
 70
     1
  9
$MAXACTVP
 70
    64
  9
$PINSBASE
 10
0.0
 20
0.0
 30
0.0
  9
$PLIMCHECK
 70
     0
  9
$PEXTMIN
 10
1.000000000000000E+20
 20
1.000000000000000E+20
 30
1.000000000000000E+20
  9
$PEXTMAX
 10
-1.000000000000000E+20
 20
-1.000000000000000E+20
 30
-1.000000000000000E+20
  9
$PLIMMIN
 10
0.0
 20
0.0
  9
$PLIMMAX
 10
420.0
 20
297.0
  9
$UNITMODE
 70
     0
  9
$VISRETAIN
 70
     1
  9
$PLINEGEN
 70
     0
  9
$PSLTSCALE
 70
     1
  9
$TREEDEPTH
 70
  3020
  9
$CMLSTYLE
  2
Standard
  9
$CMLJUST
 70
     0
  9
$CMLSCALE
 40
20.0
  9
$PROXYGRAPHICS
 70
     1
  9
$MEASUREMENT
 70
     1
  9
$CELWEIGHT
370
    -1
  9
$ENDCAPS
280
     0
  9
$JOINSTYLE
280
     0
  9
$LWDISPLAY
290
     0
  9
$INSUNITS
 70
     4
  9
$HYPERLINKBASE
  1

  9
$STYLESHEET
  1

  9
$XEDIT
290
     1
  9
$CEPSNTYPE
380
     0
  9
$PSTYLEMODE
290
     1
  9
$FINGERPRINTGUID
  2
{8F64A232-F8A5-4495-B0BC-137805D8C8BE}
  9
$VERSIONGUID
  2
{732A1C76-C652-4CF8-BF9E-F20D5E3B9FC1}
  9
$EXTNAMES
290
     1
  9
$PSVPSCALE
 40
0.0
  9
$OLESTARTUP
290
     0
  9
$SORTENTS
280
   127
  9
$INDEXCTL
280
     0
  9
$HIDETEXT
280
     0
  9
$XCLIPFRAME
280
     0
  9
$HALOGAP
280
     0
  9
$OBSCOLOR
 70
   257
  9
$OBSLTYPE
280
     0
  9
$INTERSECTIONDISPLAY
280
     0
  9
$INTERSECTIONCOLOR
 70
   257
  9
$DIMASSOC
280
     2
  9
$PROJECTNAME
  1

  9
$CAMERADISPLAY
290
     0
  9
$LENSLENGTH
 40
50.0
  9
$CAMERAHEIGHT
 40
0.0
  9
$STEPSPERSEC
 40
2.0
  9
$STEPSIZE
 40
6.0
  9
$3DDWFPREC
 40
2.0
  9
$PSOLWIDTH
 40
0.25
  9
$PSOLHEIGHT
 40
4.0
  9
$LOFTANG1
 40
1.570796326794896
  9
$LOFTANG2
 40
1.570796326794896
  9
$LOFTMAG1
 40
0.0
  9
$LOFTMAG2
 40
0.0
  9
$LOFTPARAM
 70
     7
  9
$LOFTNORMALS
280
     1
  9
$LATITUDE
 40
37.795
  9
$LONGITUDE
 40
-122.394
  9
$NORTHDIRECTION
 40
0.0
  9
$TIMEZONE
 70
 -8000
  9
$LIGHTGLYPHDISPLAY
280
     1
  9
$TILEMODELIGHTSYNCH
280
     1
  9
$CMATERIAL
347
3B4
  9
$SOLIDHIST
280
     1
  9
$SHOWHIST
280
     1
  9
$DWFFRAME
280
     2
  9
$DGNFRAME
280
     0
  9
$REALWORLDSCALE
290
     1
  9
$INTERFERECOLOR
 62
     1
  9
$INTERFEREOBJVS
345
3D6
  9
$INTERFEREVPVS
346
5E6
  9
$CSHADOW
280
     0
  9
$SHADOWPLANELOCATION
 40
0.0
  0
ENDSEC
  0
SECTION
  2
CLASSES
  0
CLASS
  1
ACDBDICTIONARYWDFLT
  2
AcDbDictionaryWithDefault
  3
ObjectDBX Classes
 90
        0
 91
        1
280
     0
281
     0
  0
CLASS
  1
ACME_DOCUMENT
  2
AcMeDbDoc
  3
AcMeServices
 90
     1024
 91
        2
280
     0
281
     0
  0
CLASS
  1
AMGSETTINGSOBJ
  2
AmgSettingsObj
  3
"AcadM|Product Description: AutoCAD Mechanical|Company: Autodesk, Inc."
 90
     1024
 91
        4
280
     0
281
     0
  0
CLASS
  1
ACMESCOPE
  2
AcMeScope
  3
AcMeServices
 90
     1024
 91
        1
280
     0
281
     0
  0
CLASS
  1
ACMECOMMANDHISTORY
  2
AcMeCommandHistory
  3
AcMeServices
 90
     1024
 91
        1
280
     0
281
     0
  0
CLASS
  1
ACIMSYSVARMAN
  2
AcImSysVarManager
  3
AcMeServices
 90
     1024
 91
        5
280
     0
281
     0
  0
CLASS
  1
ACIMREALSYSVAR
  2
AcImRealSysVar
  3
AcMeServices
 90
     1024
 91
        3
280
     0
281
     0
  0
CLASS
  1
ACIMINTSYSVAR
  2
AcImIntSysVar
  3
AcMeServices
 90
     1024
 91
       27
280
     0
281
     0
  0
CLASS
  1
ACMEDRAWINGMAN
  2
AcMeDrawingMan
  3
AcMeServices
 90
     1024
 91
        0
280
     0
281
     0
  0
CLASS
  1
ACMEVIEW
  2
AcMeView
  3
AcMeServices
 90
     1024
 91
        0
280
     0
281
     0
  0
CLASS
  1
ACDBENTITYCACHE
  2
AcMeEntityCache
  3
AcMeServices
 90
     1024
 91
        1
280
     0
281
     0
  0
CLASS
  1
GSMANAGER
  2
AcMeGSManager
  3
AcMeServices
 90
     1024
 91
        0
280
     0
281
     0
  0
CLASS
  1
AMDTINTERNALREACTOR
  2
AmdtInternalReactor
  3
AcMeServices
 90
     1024
 91
        1
280
     0
281
     0
  0
CLASS
  1
ACMESTATEMGR
  2
AcMeStateMgr
  3
AcMeServices
 90
     1024
 91
        1
280
     0
281
     0
  0
CLASS
  1
ACGREFMASTER
  2
AcGrefMaster
  3
AcAttribServices
 90
     1024
 91
        1
280
     0
281
     0
  0
CLASS
  1
ACME_DATABASE
  2
AcMeDbDatabase
  3
AcMeServices
 90
     1024
 91
        2
280
     0
281
     0
  0
CLASS
  1
ACRFINSADJUSTERMGR
  2
AcRfInsAdjusterMgr
  3
AcMeServices
 90
     1024
 91
        1
280
     0
281
     0
  0
CLASS
  1
ACGREFACADMASTER
  2
AcGrefacadMaster
  3
AcGrefServices
 90
     1024
 91
        1
280
     0
281
     0
  0
CLASS
  1
AMIMASTER
  2
AmiMaster
  3
AmiServices
 90
     1024
 91
        1
280
     0
281
     0
  0
CLASS
  1
ACMDATADICTIONARY
  2
AcmDataDictionary
  3
"AcmSymBB|Product Description: AutoCAD Mechanical|Company: Autodesk, Inc."
 90
     1024
 91
        1
280
     0
281
     0
  0
CLASS
  1
ACMDATAENTRYBLOCK
  2
AcmDataEntryBlock
  3
AcmSymBB|Product Description: AutoCAD Mechanical|Company: Autodesk, Inc.
 90
     1024
 91
        1
280
     0
281
     0
  0
CLASS
  1
ACIMSTRSYSVAR
  2
AcImStrSysVar
  3
AcMeServices
 90
     1024
 91
        5
280
     0
281
     0
  0
CLASS
  1
ACMSTANDARDISO
  2
AcmStandardISO
  3
"Amdt_StdImp|Product Description: AutoCAD Mechanical|Company: Autodesk, Inc."
 90
     1024
 91
        1
280
     0
281
     0
  0
CLASS
  1
AMGOBJPROPCFG
  2
AmgObjPropCfg
  3
"AmgLay|Product Description: AutoCAD Mechanical|Company: Autodesk, Inc."
 90
     1024
 91
        1
280
     0
281
     0
  0
CLASS
  1
AMDTEDGESTANDARDISO
  2
AmdtEdgeStdISO
  3
"Amdt_StdImp|Product Description: AutoCAD Mechanical|Company: Autodesk, Inc."
 90
     1024
 91
        1
280
     0
281
     0
  0
CLASS
  1
ACMSURFSTANDARDISO
  2
AcmSurfTextStdISO
  3
"Amdt_StdImp|Product Description: AutoCAD Mechanical|Company: Autodesk, Inc."
 90
     1024
 91
        1
280
     0
281
     0
  0
CLASS
  1
ACMFCFSTANDARDISO
  2
AcmFCFStdISO
  3
"Amdt_StdImp|Product Description: AutoCAD Mechanical|Company: Autodesk, Inc."
 90
     1024
 91
        1
280
     0
281
     0
  0
CLASS
  1
ACMWELDSTANDARDISO
  2
AcmWeldingStdISO
  3
"Amdt_StdImp|Product Description: AutoCAD Mechanical|Company: Autodesk, Inc."
 90
     1024
 91
        1
280
     0
281
     0
  0
CLASS
  1
ACMIDSTANDARDISO
  2
AcmIdStdISO
  3
"Amdt_StdImp|Product Description: AutoCAD Mechanical|Company: Autodesk, Inc."
 90
     1024
 91
        1
280
     0
281
     0
  0
CLASS
  1
ACMDATUMSTANDARDISO
  2
AcmDatumStdISO
  3
"Amdt_StdImp|Product Description: AutoCAD Mechanical|Company: Autodesk, Inc."
 90
     1024
 91
        1
280
     0
281
     0
  0
CLASS
  1
ACMBOMSTANDARDISO
  2
AcmBOMStdISO
  3
"Amdt_StdImp|Product Description: AutoCAD Mechanical|Company: Autodesk, Inc."
 90
     1024
 91
        1
280
     0
281
     0
  0
CLASS
  1
ACMDETAILSTANDARDISO
  2
AmdtDetailSymStdISO
  3
"Amdt_StdImp|Product Description: AutoCAD Mechanical|Company: Autodesk, Inc."
 90
     1024
 91
        1
280
     0
281
     0
  0
CLASS
  1
ACMSECTIONSTANDARDISO
  2
AmdtSectionSymStdISO
  3
"Amdt_StdImp|Product Description: AutoCAD Mechanical|Company: Autodesk, Inc."
 90
     1024
 91
        1
280
     0
281
     0
  0
CLASS
  1
ACMCENTERLINESTANDARDISO
  2
AmdtCenterLineStdISO
  3
"Amdt_StdImp|Product Description: AutoCAD Mechanical|Company: Autodesk, Inc."
 90
     1024
 91
        1
280
     0
281
     0
  0
CLASS
  1
ACMNOTESTANDARDISO
  2
AmdtNoteStdISO
  3
"Amdt_StdImp|Product Description: AutoCAD Mechanical|Company: Autodesk, Inc."
 90
     1024
 91
        1
280
     0
281
     0
  0
CLASS
  1
ACAMGLAYSTD
  2
AcAmgLayStd
  3
"AmgLay|Product Description: AutoCAD Mechanical|Company: Autodesk, Inc."
 90
     1024
 91
        2
280
     0
281
     0
  0
CLASS
  1
ACAMGDIMSTD
  2
AcAmgDimStd
  3
"AmgDim|Product Description: AutoCAD Mechanical|Company: Autodesk, Inc."
 90
     1024
 91
        2
280
     0
281
     0
  0
CLASS
  1
ACAMGHOLECHARTSTDISO
  2
AcAmgHoleChartStdISO
  3
AmgDim|Product Description: AutoCAD Mechanical|Company: Autodesk, Inc.
 90
     1024
 91
        1
280
     0
281
     0
  0
CLASS
  1
ACAMGTITLESTD
  2
AcAmgTitleStd
  3
"AmgTitle|Product Description: AutoCAD Mechanical|Company: Autodesk, Inc."
 90
     1024
 91
        2
280
     0
281
     0
  0
CLASS
  1
LAYER_INDEX
  2
AcDbLayerIndex
  3
ObjectDBX Classes
 90
        0
 91
        0
280
     0
281
     0
  0
CLASS
  1
IDBUFFER
  2
AcDbIdBuffer
  3
ObjectDBX Classes
 90
        0
 91
        0
280
     0
281
     0
  0
CLASS
  1
DICTIONARYVAR
  2
AcDbDictionaryVar
  3
ObjectDBX Classes
 90
        0
 91
       11
280
     0
281
     0
  0
CLASS
  1
AM_DRAWING_MGR
  2
AcDmDwgMgr
  3
AcMechDwgViewMgmt
 90
     1024
 91
        1
280
     0
281
     0
  0
CLASS
  1
AM_DWG_DOCUMENT
  2
AcDmDwgDocument
  3
AcMechDwgViewMgmt
 90
     1024
 91
        1
280
     0
281
     0
  0
CLASS
  1
AM_DWG_SHEET
  2
AcDmSheet
  3
AcMechDwgViewMgmt
 90
     1024
 91
        2
280
     0
281
     0
  0
CLASS
  1
AM_VIEWDIMPARMAP
  2
AcDmViewDimParMap
  3
AcMechDwgViewMgmt
 90
     1024
 91
        2
280
     0
281
     0
  0
CLASS
  1
AM_DWGMGR_NAME
  2
AcDmDwgMgrName
  3
AcMechDwgViewMgmt
 90
     1024
 91
        1
280
     0
281
     0
  0
CLASS
  1
AMDTMENUSTATEMGR
  2
AmdtMenuStateMgr
  3
McadcomServices
 90
     1024
 91
        1
280
     0
281
     0
  0
CLASS
  1
AMDTMCOMMENUSTATE
  2
AmdtMcomMenuState
  3
McadcomServices
 90
     1024
 91
        1
280
     0
281
     0
  0
CLASS
  1
MAPIAMMOUDLE
  2
MApiAmModule
  3
MApiAmServices
 90
     1024
 91
        1
280
     0
281
     0
  0
CLASS
  1
AMDTADMENUSTATE
  2
AmdtAdMenuState
  3
DesignerServices
 90
     1024
 91
        0
280
     0
281
     0
  0
CLASS
  1
ADAPPL
  2
AcAdAppl
  3
DesignerAssemblies
 90
     1024
 91
        0
280
     0
281
     0
  0
CLASS
  1
DEPMGR
  2
AcAdDepMgr
  3
DesignerAssemblies
 90
     1024
 91
        0
280
     0
281
     0
  0
CLASS
  1
PARAMMGR
  2
AcAdParamMgr
  3
DesignerAssemblies
 90
     1024
 91
        0
280
     0
281
     0
  0
CLASS
  1
PARAMSCOPE
  2
AcAdParamScope
  3
DesignerAssemblies
 90
     1024
 91
        0
280
     0
281
     0
  0
CLASS
  1
NAMEDAPPL
  2
AcAdNamedAppl
  3
DesignerAssemblies
 90
     1024
 91
        0
280
     0
281
     0
  0
CLASS
  1
AMDTDMMENUSTATE
  2
AmdtDmMenuState
  3
AcMechDwgViewMgmt
 90
     1024
 91
        0
280
     0
281
     0
  0
CLASS
  1
AMDTAMMENUSTATE
  2
AmdtAmMenuState
  3
DesignerAssemblies
 90
     1024
 91
        1
280
     0
281
     0
  0
CLASS
  1
ACAMPROJECT
  2
AcAmProject
  3
DesignerAssemblies
 90
     1024
 91
        1
280
     0
281
     0
  0
CLASS
  1
ACAMGRCOMPDEF
  2
AcAmGrCompDef
  3
DesignerAssemblies
 90
     1024
 91
        1
280
     0
281
     0
  0
CLASS
  1
ACCMCONTEXT
  2
AcCmContext
  3
DesignerAssemblies
 90
     1024
 91
        1
280
     0
281
     0
  0
CLASS
  1
ACAMCOMPDEF
  2
AcAmCompDef
  3
DesignerAssemblies
 90
     1024
 91
        1
280
     0
281
     0
  0
CLASS
  1
ACAMCOMPDEFMGR
  2
AcAmCompDefMgr
  3
DesignerAssemblies
 90
     1024
 91
        1
280
     0
281
     0
  0
CLASS
  1
AMCONTEXTMGR
  2
AcAmContextMgr
  3
DesignerAssemblies
 90
     1024
 91
        1
280
     0
281
     0
  0
CLASS
  1
ACAMCONTEXTMODELER
  2
AcAmContextModeler
  3
DesignerAssemblies
 90
     1024
 91
        1
280
     0
281
     0
  0
CLASS
  1
ACMTHREADLINESTANDARDISO
  2
AmdtThreadLineStdISO
  3
"Amdt_StdImp|Product Description: AutoCAD Mechanical|Company: Autodesk, Inc."
 90
     1024
 91
        1
280
     0
281
     0
  0
CLASS
  1
CATALOGSTATE
  2
AcAmCatalogState
  3
DesignerAssemblies
 90
     1024
 91
        0
280
     0
281
     0
  0
CLASS
  1
ACAMGRCOMPDEFSET
  2
AcAmGrCompDefSet
  3
DesignerAssemblies
 90
     1024
 91
        1
280
     0
281
     0
  0
CLASS
  1
AMDTBROWSERDBTAB
  2
AmdtBrowserDbTab
  3
McadcomServices
 90
     1024
 91
        1
280
     0
281
     0
  0
CLASS
  1
CBROWSERAPPOBJECT
  2
CBrowserAppObject
  3
McadcomServices
 90
     1024
 91
        2
280
     0
281
     0
  0
CLASS
  1
DM_PLACEHOLDER
  2
AcDmSelsetPlaceholder
  3
McadcomServices
 90
     1024
 91
        1
280
     0
281
     0
  0
CLASS
  1
TABLESTYLE
  2
AcDbTableStyle
  3
ObjectDBX Classes
 90
     4095
 91
        1
280
     0
281
     0
  0
CLASS
  1
VAACXREFPANELOBJECT
  2
VaAcXREFPanelObject
  3
VAAC_ADDIN
 90
        0
 91
        0
280
     0
281
     0
  0
CLASS
  1
VAACIMAGEINVENTORY
  2
VaAcImageInventory
  3
VAAC_ADDIN
 90
        0
 91
        0
280
     0
281
     0
  0
CLASS
  1
AMDTNOTETEMPLATEDB
  2
AmdtNoteTemplateDB
  3
AcmSymBB|Product Description: AutoCAD Mechanical|Company: Autodesk, Inc.
 90
     1024
 91
       12
280
     0
281
     0
  0
CLASS
  1
ACAMGFILTERDAT
  2
AcAmgFilterDat
  3
"AcadM|Product Description: AutoCAD Mechanical|Company: Autodesk, Inc."
 90
     1024
 91
        6
280
     0
281
     0
  0
CLASS
  1
ACMBOM
  2
AcmBom
  3
"AcmSymBB|Product Description: AutoCAD Mechanical|Company: Autodesk, Inc."
 90
     1024
 91
        0
280
     0
281
     0
  0
CLASS
  1
AMDTFORMULAUPDATEDISPATCHER
  2
AmdtFormulaUpdateDispatcher
  3
AcMeServices
 90
     1024
 91
        0
280
     0
281
     0
  0
CLASS
  1
ACMSTANDARDDIN
  2
AcmStandardDIN
  3
"Amdt_StdImp|Product Description: AutoCAD Mechanical|Company: Autodesk, Inc."
 90
     1024
 91
        1
280
     0
281
     0
  0
CLASS
  1
AMDTEDGESTANDARDDIN13715
  2
AmdtEdgeStdDIN13715
  3
"Amdt_StdImp|Product Description: AutoCAD Mechanical|Company: Autodesk, Inc."
 90
     1024
 91
        1
280
     0
281
     0
  0
CLASS
  1
ACMSURFSTANDARDDIN
  2
AcmSurfTextStdDIN
  3
"Amdt_StdImp|Product Description: AutoCAD Mechanical|Company: Autodesk, Inc."
 90
     1024
 91
        1
280
     0
281
     0
  0
CLASS
  1
ACMFCFSTANDARDDIN
  2
AcmFCFStdDIN
  3
"Amdt_StdImp|Product Description: AutoCAD Mechanical|Company: Autodesk, Inc."
 90
     1024
 91
        1
280
     0
281
     0
  0
CLASS
  1
ACMWELDSTANDARDDIN
  2
AcmWeldingStdDIN
  3
"Amdt_StdImp|Product Description: AutoCAD Mechanical|Company: Autodesk, Inc."
 90
     1024
 91
        1
280
     0
281
     0
  0
CLASS
  1
ACMIDSTANDARDDIN
  2
AcmIdStdDIN
  3
"Amdt_StdImp|Product Description: AutoCAD Mechanical|Company: Autodesk, Inc."
 90
     1024
 91
        1
280
     0
281
     0
  0
CLASS
  1
ACMDATUMSTANDARDDIN
  2
AcmDatumStdDIN
  3
"Amdt_StdImp|Product Description: AutoCAD Mechanical|Company: Autodesk, Inc."
 90
     1024
 91
        1
280
     0
281
     0
  0
CLASS
  1
ACMBOMSTANDARDDIN
  2
AcmBOMStdDIN
  3
"Amdt_StdImp|Product Description: AutoCAD Mechanical|Company: Autodesk, Inc."
 90
     1024
 91
        1
280
     0
281
     0
  0
CLASS
  1
ACMDETAILSTANDARDDIN
  2
AmdtDetailSymStdDIN
  3
"Amdt_StdImp|Product Description: AutoCAD Mechanical|Company: Autodesk, Inc."
 90
     1024
 91
        1
280
     0
281
     0
  0
CLASS
  1
ACMSECTIONSTANDARDDIN
  2
AmdtSectionSymStdDIN
  3
"Amdt_StdImp|Product Description: AutoCAD Mechanical|Company: Autodesk, Inc."
 90
     1024
 91
        1
280
     0
281
     0
  0
CLASS
  1
ACMCENTERLINESTANDARDDIN
  2
AmdtCenterLineStdDIN
  3
"Amdt_StdImp|Product Description: AutoCAD Mechanical|Company: Autodesk, Inc."
 90
     1024
 91
        1
280
     0
281
     0
  0
CLASS
  1
ACMTHREADLINESTANDARDDIN
  2
AmdtThreadLineStdDIN
  3
"Amdt_StdImp|Product Description: AutoCAD Mechanical|Company: Autodesk, Inc."
 90
     1024
 91
        1
280
     0
281
     0
  0
CLASS
  1
ACMNOTESTANDARDDIN
  2
AmdtNoteStdDIN
  3
"Amdt_StdImp|Product Description: AutoCAD Mechanical|Company: Autodesk, Inc."
 90
     1024
 91
        1
280
     0
281
     0
  0
CLASS
  1
ACAMGHOLECHARTSTDDIN
  2
AcAmgHoleChartStdDIN
  3
AmgDim|Product Description: AutoCAD Mechanical|Company: Autodesk, Inc.
 90
     1024
 91
        1
280
     0
281
     0
  0
CLASS
  1
MATERIAL
  2
AcDbMaterial
  3
ObjectDBX Classes
 90
     1153
 91
        3
280
     0
281
     0
  0
CLASS
  1
VISUALSTYLE
  2
AcDbVisualStyle
  3
ObjectDBX Classes
 90
     4095
 91
       26
280
     0
281
     0
  0
CLASS
  1
SCALE
  2
AcDbScale
  3
ObjectDBX Classes
 90
     1153
 91
       17
280
     0
281
     0
  0
CLASS
  1
MLEADERSTYLE
  2
AcDbMLeaderStyle
  3
ACDB_MLEADERSTYLE_CLASS
 90
     4095
 91
        1
280
     0
281
     0
  0
CLASS
  1
ACRFATTGENMGR
  2
AcRfAttGeneralMgr
  3
AcAttribServices
 90
     1024
 91
        1
280
     0
281
     0
  0
CLASS
  1
ACRFOBJATTMGR
  2
AcRfObjAttGroupMgr
  3
AcAttribServices
 90
     1024
 91
        1
280
     0
281
     0
  0
CLASS
  1
ACRFMCADAPIATTHOLDER
  2
AcRfMCADAPIAttHolder
  3
AcAttribServices
 90
     1024
 91
        1
280
     0
281
     0
  0
CLASS
  1
AMDTSYSATTR
  2
AmdtSystemAttribute
  3
AcAttribServices
 90
     1024
 91
        1
280
     0
281
     0
  0
CLASS
  1
ACMTAPERSTANDARDISO
  2
AcmTaperStdISO
  3
"Amdt_StdImp|Product Description: AutoCAD Mechanical|Company: Autodesk, Inc."
 90
     1024
 91
        1
280
     0
281
     0
  0
CLASS
  1
ACMANOOTATIONVIEWSTANDARDISO
  2
AmdtAnViewStdISO
  3
"Amdt_StdImp|Product Description: AutoCAD Mechanical|Company: Autodesk, Inc."
 90
     1024
 91
        1
280
     0
281
     0
  0
CLASS
  1
ACMTAPERSTANDARDDIN
  2
AcmTaperStdDIN
  3
"Amdt_StdImp|Product Description: AutoCAD Mechanical|Company: Autodesk, Inc."
 90
     1024
 91
        1
280
     0
281
     0
  0
CLASS
  1
ACMANOOTATIONVIEWSTANDARDDIN
  2
AmdtAnViewStdDIN
  3
"Amdt_StdImp|Product Description: AutoCAD Mechanical|Company: Autodesk, Inc."
 90
     1024
 91
        1
280
     0
281
     0
  0
CLASS
  1
EXACXREFPANELOBJECT
  2
ExAcXREFPanelObject
  3
EXAC_ESW
 90
     1025
 91
        0
280
     0
281
     0
  0
CLASS
  1
NPOCOLLECTION
  2
AcDbImpNonPersistentObjectsCollection
  3
ObjectDBX Classes
 90
     1153
 91
        0
280
     0
281
     0
  0
CLASS
  1
CAMSSTRUCTBTNSTATE
  2
StructBtnState
  3
DesignerAssemblies
 90
     1024
 91
        1
280
     0
281
     0
  0
CLASS
  1
CELLSTYLEMAP
  2
AcDbCellStyleMap
  3
ObjectDBX Classes
 90
     1152
 91
        2
280
     0
281
     0
  0
CLASS
  1
AEC_REFEDIT_STATUS_TRACKER
  2
AecDbRefEditStatusTracker
  3
AecArchBase60|Product Desc: Autodesk Architectural Desktop 2007 |Company: Autodesk,Inc. |WEB Address: www.autodesk.com
 90
      129
 91
        0
280
     0
281
     0
  0
CLASS
  1
IMAGE
  2
AcDbRasterImage
  3
ISM
 90
     2175
 91
        0
280
     0
281
     1
  0
CLASS
  1
IMAGEDEF_REACTOR
  2
AcDbRasterImageDefReactor
  3
ISM
 90
        1
 91
        0
280
     0
281
     0
  0
CLASS
  1
IMAGEDEF
  2
AcDbRasterImageDef
  3
ISM
 90
        0
 91
        0
280
     0
281
     0
  0
CLASS
  1
RASTERVARIABLES
  2
AcDbRasterVariables
  3
ISM
 90
        0
 91
        0
280
     0
281
     0
  0
CLASS
  1
ACDBSECTIONVIEWSTYLE
  2
AcDbSectionViewStyle
  3
ObjectDBX Classes
 90
     1025
 91
        4
280
     0
281
     0
  0
CLASS
  1
ACDBDETAILVIEWSTYLE
  2
AcDbDetailViewStyle
  3
ObjectDBX Classes
 90
     1025
 91
        3
280
     0
281
     0
  0
CLASS
  1
ACMSECTIONSTANDARDCUSTOM
  2
AmdtSectionSymStdCustom
  3
"Amdt_StdImp|Product Description: AutoCAD Mechanical|Company: Autodesk, Inc."
 90
     1024
 91
        4
280
     0
281
     0
  0
CLASS
  1
ACMDETAILTANDARDCUSTOM
  2
AmdtDetailSymStdCustom
  3
"Amdt_StdImp|Product Description: AutoCAD Mechanical|Company: Autodesk, Inc."
 90
     1024
 91
        2
280
     0
281
     0
  0
CLASS
  1
FIELD
  2
AcDbField
  3
ObjectDBX Classes
 90
     1152
 91
       12
280
     0
281
     0
  0
CLASS
  1
FIELDLIST
  2
AcDbFieldList
  3
ObjectDBX Classes
 90
     1152
 91
        1
280
     0
281
     0
  0
CLASS
  1
DIMASSOC
  2
AcDbDimAssoc
  3
"AcDbDimAssoc|Product Desc:     AcDim ARX App For Dimension|Company:          Autodesk, Inc.|WEB Address:      www.autodesk.com"
 90
        0
 91
        4
280
     0
281
     0
  0
CLASS
  1
SORTENTSTABLE
  2
AcDbSortentsTable
  3
ObjectDBX Classes
 90
        0
 91
        1
280
     0
281
     0
  0
ENDSEC
  0
SECTION
  2
TABLES
  0
TABLE
  2
VPORT
  5
8
330
0
100
AcDbSymbolTable
 70
     1
  0
VPORT
  5
3B2
330
8
100
AcDbSymbolTableRecord
100
AcDbViewportTableRecord
  2
*Active
 70
     0
 10
0.0
 20
0.0
 11
1.0
 21
1.0
 12
536.0604691544844
 22
255.5806190229668
 13
0.0
 23
0.0
 14
2.5
 24
2.5
 15
10.0
 25
10.0
 16
0.0
 26
0.0
 36
1.0
 17
0.0
 27
0.0
 37
0.0
 40
465.6420708739619
 41
2.362857142857142
 42
50.0
 43
0.0
 44
0.0
 50
0.0
 51
0.0
 71
     0
 72
   100
 73
     1
 74
     3
 75
     0
 76
     0
 77
     0
 78
     0
281
     0
 65
     1
110
0.0
120
0.0
130
0.0
111
1.0
121
0.0
131
0.0
112
0.0
122
1.0
132
0.0
 79
     0
146
0.0
348
3D2
 60
     3
 61
     5
292
     1
282
     1
141
0.0
142
0.0
 63
   250
421
  3355443
1001
ACAD_NAV_VCDISPLAY
1070
     3
  0
ENDTAB
  0
TABLE
  2
LTYPE
  5
5
330
0
100
AcDbSymbolTable
 70
    22
  0
LTYPE
  5
14
330
5
100
AcDbSymbolTableRecord
100
AcDbLinetypeTableRecord
  2
ByBlock
 70
     0
  3

 72
    65
 73
     0
 40
0.0
  0
LTYPE
  5
15
330
5
100
AcDbSymbolTableRecord
100
AcDbLinetypeTableRecord
  2
ByLayer
 70
     0
  3

 72
    65
 73
     0
 40
0.0
  0
LTYPE
  5
16
330
5
100
AcDbSymbolTableRecord
100
AcDbLinetypeTableRecord
  2
Continuous
 70
     0
  3
Solid line
 72
    65
 73
     0
 40
0.0
  0
LTYPE
  5
64
330
5
100
AcDbSymbolTableRecord
100
AcDbLinetypeTableRecord
  2
AM_ISO02W050
 70
     0
  3
__ __ __ __ __ __ __ __ __ __ __ __ __ __ __
 72
    65
 73
     2
 40
7.5
 49
6.0
 74
     0
 49
-1.5
 74
     0
  0
LTYPE
  5
65
330
5
100
AcDbSymbolTableRecord
100
AcDbLinetypeTableRecord
  2
AM_ISO08W050
 70
     0
  3
____ . ____ . ____ . ____ . ____ . ____ . ____
 72
    65
 73
     4
 40
18.0
 49
12.0
 74
     0
 49
-1.5
 74
     0
 49
3.0
 74
     0
 49
-1.5
 74
     0
  0
LTYPE
  5
66
330
5
100
AcDbSymbolTableRecord
100
AcDbLinetypeTableRecord
  2
AM_ISO09W050
 70
     0
  3
_____ . . _____ . . _____ . . ____ .. ____
 72
    65
 73
     6
 40
22.5
 49
12.0
 74
     0
 49
-1.5
 74
     0
 49
3.0
 74
     0
 49
-1.5
 74
     0
 49
3.0
 74
     0
 49
-1.5
 74
     0
  0
LTYPE
  5
67
330
5
100
AcDbSymbolTableRecord
100
AcDbLinetypeTableRecord
  2
Amconstr
 70
     0
  3
_______________________
 72
    65
 73
     2
 40
9999.0
 49
9999.0
 74
     0
 49
0.0
 74
     0
  0
LTYPE
  5
68
330
5
100
AcDbSymbolTableRecord
100
AcDbLinetypeTableRecord
  2
AM_ISO08W050x2
 70
     0
  3
__ . __ . __ . __ . __ . __
 72
    65
 73
     4
 40
9.0
 49
6.0
 74
     0
 49
-0.75
 74
     0
 49
1.5
 74
     0
 49
-0.75
 74
     0
  0
LTYPE
  5
69
330
5
100
AcDbSymbolTableRecord
100
AcDbLinetypeTableRecord
  2
AM_ISO02W050x2
 70
     0
  3
 _ _ _ _ _ _ _ _ _ _ _ _
 72
    65
 73
     2
 40
3.75
 49
3.0
 74
     0
 49
-0.75
 74
     0
  0
LTYPE
  5
6C
330
5
100
AcDbSymbolTableRecord
100
AcDbLinetypeTableRecord
  2
Amzigzag
 70
     0
  3
/\/-/\/-/\/-/\/-/\/-/\/
 72
    65
 73
     2
 40
11.0001
 49
0.0001
 74
     4
 75
   136
340
22C
 46
0.04
 50
0.0
 44
0.0
 45
0.0
 49
-11.0
 74
     0
  0
LTYPE
  5
7A
330
5
100
AcDbSymbolTableRecord
100
AcDbLinetypeTableRecord
  2
ACISOWELD
 70
     0
  3
_ _ _ _ _
 72
    65
 73
     2
 40
2.0
 49
2.0
 74
     0
 49
-1.0
 74
     0
  0
LTYPE
  5
7B
330
5
100
AcDbSymbolTableRecord
100
AcDbLinetypeTableRecord
  2
ACISOTGB
 70
     0
  3
__ . . __ . .
 72
    65
 73
     6
 40
9.0
 49
4.0
 74
     0
 49
-1.0
 74
     0
 49
1.0
 74
     0
 49
-1.0
 74
     0
 49
1.0
 74
     0
 49
-1.0
 74
     0
  0
LTYPE
  5
7C
330
5
100
AcDbSymbolTableRecord
100
AcDbLinetypeTableRecord
  2
ACISOTGL
 70
     0
  3
_ _ _ _ _
 72
    65
 73
     2
 40
3.0
 49
2.0
 74
     0
 49
-1.0
 74
     0
  0
LTYPE
  5
7E
330
5
100
AcDbSymbolTableRecord
100
AcDbLinetypeTableRecord
  2
CENTER
 70
     0
  3
__ . __
 72
    65
 73
     4
 40
7.0
 49
4.0
 74
     0
 49
-1.0
 74
     0
 49
1.0
 74
     0
 49
-1.0
 74
     0
  0
LTYPE
  5
D8
330
5
100
AcDbSymbolTableRecord
100
AcDbLinetypeTableRecord
  2
HIDDEN
 70
     0
  3
Hidden __ __ __ __ __ __ __ __ __ __ __ __ __ _
 72
    65
 73
     2
 40
9.524999999999998
 49
6.349999999999999
 74
     0
 49
-3.174999999999999
 74
     0
  0
LTYPE
  5
D9
330
5
100
AcDbSymbolTableRecord
100
AcDbLinetypeTableRecord
  2
PHANTOM2
 70
     0
  3
Phantom (.5x) ___ _ _ ___ _ _ ___ _ _ ___ _ _
 72
    65
 73
     6
 40
31.75
 49
15.875
 74
     0
 49
-3.174999999999999
 74
     0
 49
3.174999999999999
 74
     0
 49
-3.174999999999999
 74
     0
 49
3.174999999999999
 74
     0
 49
-3.174999999999999
 74
     0
  0
LTYPE
  5
2E5
330
5
100
AcDbSymbolTableRecord
100
AcDbLinetypeTableRecord
  2
ACDINWELD
 70
     0
  3
_ _ _ _ _
 72
    65
 73
     2
 40
2.0
 49
2.0
 74
     0
 49
-1.0
 74
     0
  0
LTYPE
  5
2E6
330
5
100
AcDbSymbolTableRecord
100
AcDbLinetypeTableRecord
  2
ACDINTGB
 70
     0
  3
__ . . __ . .
 72
    65
 73
     6
 40
9.0
 49
4.0
 74
     0
 49
-1.0
 74
     0
 49
1.0
 74
     0
 49
-1.0
 74
     0
 49
1.0
 74
     0
 49
-1.0
 74
     0
  0
LTYPE
  5
2E7
330
5
100
AcDbSymbolTableRecord
100
AcDbLinetypeTableRecord
  2
ACDINTGL
 70
     0
  3
_ _ _ _ _
 72
    65
 73
     2
 40
3.0
 49
2.0
 74
     0
 49
-1.0
 74
     0
  0
LTYPE
  5
321
330
5
100
AcDbSymbolTableRecord
100
AcDbLinetypeTableRecord
  2
AM_DIN_F_W050
 70
     0
  3
__ __ __ __ __ __ __ __ __ __ __ __ __ __ __
 72
    65
 73
     2
 40
6.25
 49
4.75
 74
     0
 49
-1.5
 74
     0
  0
LTYPE
  5
322
330
5
100
AcDbSymbolTableRecord
100
AcDbLinetypeTableRecord
  2
AM_DIN_G_W050
 70
     0
  3
____ . ____ . ____ . ____ . ____ . ____ . ____
 72
    65
 73
     4
 40
13.75
 49
9.75
 74
     0
 49
-1.5
 74
     0
 49
1.0
 74
     0
 49
-1.5
 74
     0
  0
LTYPE
  5
323
330
5
100
AcDbSymbolTableRecord
100
AcDbLinetypeTableRecord
  2
AM_DIN_K_W050
 70
     0
  3
_____ . . _____ . . _____ . . ____ .. ____
 72
    65
 73
     6
 40
16.25
 49
9.75
 74
     0
 49
-1.5
 74
     0
 49
1.0
 74
     0
 49
-1.5
 74
     0
 49
1.0
 74
     0
 49
-1.5
 74
     0
  0
LTYPE
  5
324
330
5
100
AcDbSymbolTableRecord
100
AcDbLinetypeTableRecord
  2
AM_DIN_G_W050x2
 70
     0
  3
__ . __ . __ . __ . __ . __
 72
    65
 73
     4
 40
6.875
 49
4.75
 74
     0
 49
-0.875
 74
     0
 49
0.375
 74
     0
 49
-0.875
 74
     0
  0
LTYPE
  5
325
330
5
100
AcDbSymbolTableRecord
100
AcDbLinetypeTableRecord
  2
AM_DIN_F_W050x2
 70
     0
  3
 _ _ _ _ _ _ _ _ _ _ _ _
 72
    65
 73
     2
 40
3.125
 49
2.25
 74
     0
 49
-0.875
 74
     0
  0
ENDTAB
  0
TABLE
  2
LAYER
  5
2
102
{ACAD_XDICTIONARY
360
5DD
102
}
330
0
100
AcDbSymbolTable
 70
     8
  0
LAYER
  5
10
102
{ACAD_XDICTIONARY
360
B41
102
}
330
2
100
AcDbSymbolTableRecord
100
AcDbLayerTableRecord
  2
0
 70
     0
 62
     7
  6
Continuous
370
    -3
390
F
347
3C4
  0
LAYER
  5
6B1
102
{ACAD_XDICTIONARY
360
6B2
102
}
330
2
100
AcDbSymbolTableRecord
100
AcDbLayerTableRecord
  2
BEZUGSACHSEN
 70
     0
 62
     7
  6
Continuous
370
    -3
390
F
347
3C4
  0
LAYER
  5
6B3
102
{ACAD_XDICTIONARY
360
6B4
102
}
330
2
100
AcDbSymbolTableRecord
100
AcDbLayerTableRecord
  2
BG_STARTBEZUEGE
 70
     0
 62
     7
  6
Continuous
370
    -3
390
F
347
3C4
  0
LAYER
  5
6B5
102
{ACAD_XDICTIONARY
360
6B6
102
}
330
2
100
AcDbSymbolTableRecord
100
AcDbLayerTableRecord
  2
FASEN
 70
     0
 62
     7
  6
Continuous
370
    -3
390
F
347
3C4
  0
LAYER
  5
6B7
102
{ACAD_XDICTIONARY
360
6B8
102
}
330
2
100
AcDbSymbolTableRecord
100
AcDbLayerTableRecord
  2
RUNDUNGEN
 70
     0
 62
     7
  6
Continuous
370
    -3
390
F
347
3C4
  0
LAYER
  5
6B9
102
{ACAD_XDICTIONARY
360
6BA
102
}
330
2
100
AcDbSymbolTableRecord
100
AcDbLayerTableRecord
  2
TEIL_STARTBEZUEGE
 70
     0
 62
     7
  6
Continuous
370
    -3
390
F
347
3C4
  0
LAYER
  5
6BB
330
2
100
AcDbSymbolTableRecord
100
AcDbLayerTableRecord
  2
Defpoints
 70
     0
 62
     7
  6
Continuous
290
     0
370
    -3
390
F
347
3C4
  0
LAYER
  5
6BC
102
{ACAD_XDICTIONARY
360
6BD
102
}
330
2
100
AcDbSymbolTableRecord
100
AcDbLayerTableRecord
  2
P-0000
 70
     0
 62
     7
  6
Continuous
370
    -3
390
F
347
3C4
  0
ENDTAB
  0
TABLE
  2
STYLE
  5
3
330
0
100
AcDbSymbolTable
 70
    10
  0
STYLE
  5
11
330
3
100
AcDbSymbolTableRecord
100
AcDbTextStyleTableRecord
  2
STANDARD
 70
     0
 40
0.0
 41
1.0
 50
0.0
 71
     0
 42
2.5
  3
ISOCP.SHX
  4

  0
STYLE
  5
6B
330
3
100
AcDbSymbolTableRecord
100
AcDbTextStyleTableRecord
  2

 70
     1
 40
0.0
 41
1.0
 50
0.0
 71
     0
 42
2.5
  3
ltypeshp.shx
  4

  0
STYLE
  5
6D
330
3
100
AcDbSymbolTableRecord
100
AcDbTextStyleTableRecord
  2
ACISOTS
 70
     0
 40
1.0
 41
1.0
 50
0.0
 71
     0
 42
2.5
  3
isocp.shx
  4
bigfont.shx
  0
STYLE
  5
79
330
3
100
AcDbSymbolTableRecord
100
AcDbTextStyleTableRecord
  2
ACISOGDT
 70
     0
 40
0.0
 41
1.0
 50
0.0
 71
     0
 42
2.5
  3
AMGDT
  4
bigfont.shx
  0
STYLE
  5
1ED
330
3
100
AcDbSymbolTableRecord
100
AcDbTextStyleTableRecord
  2
USER1
 70
     0
 40
0.0
 41
1.0
 50
0.0
 71
     0
 42
2.5
  3
TXT.SHX
  4
bigfont.shx
  0
STYLE
  5
1EE
330
3
100
AcDbSymbolTableRecord
100
AcDbTextStyleTableRecord
  2
USER2
 70
     0
 40
0.0
 41
1.0
 50
0.0
 71
     0
 42
2.5
  3
SIMPLEX.SHX
  4
bigfont.shx
  0
STYLE
  5
1EF
330
3
100
AcDbSymbolTableRecord
100
AcDbTextStyleTableRecord
  2
USER3
 70
     0
 40
0.0
 41
1.0
 50
0.0
 71
     0
 42
2.5
  3
ITALIC.SHX
  4
bigfont.shx
  0
STYLE
  5
22C
330
3
100
AcDbSymbolTableRecord
100
AcDbTextStyleTableRecord
  2

 70
     1
 40
0.0
 41
1.0
 50
0.0
 71
     0
 42
2.5
  3
genltshp.shx
  4

  0
STYLE
  5
2D7
330
3
100
AcDbSymbolTableRecord
100
AcDbTextStyleTableRecord
  2
ACDINTS
 70
     0
 40
1.0
 41
1.0
 50
0.0
 71
     0
 42
2.5
  3
isocp.shx
  4

  0
STYLE
  5
2E4
330
3
100
AcDbSymbolTableRecord
100
AcDbTextStyleTableRecord
  2
ACDINGDT
 70
     0
 40
0.0
 41
1.0
 50
0.0
 71
     0
 42
2.5
  3
AMGDT
  4

  0
ENDTAB
  0
TABLE
  2
VIEW
  5
6
330
0
100
AcDbSymbolTable
 70
     0
  0
ENDTAB
  0
TABLE
  2
UCS
  5
7
330
0
100
AcDbSymbolTable
 70
     0
  0
ENDTAB
  0
TABLE
  2
APPID
  5
9
330
0
100
AcDbSymbolTable
 70
    15
  0
APPID
  5
12
330
9
100
AcDbSymbolTableRecord
100
AcDbRegAppTableRecord
  2
ACAD
 70
     0
  0
APPID
  5
46
330
9
100
AcDbSymbolTableRecord
100
AcDbRegAppTableRecord
  2
MCAD_NO_VIS
 70
     0
  0
APPID
  5
47
330
9
100
AcDbSymbolTableRecord
100
AcDbRegAppTableRecord
  2
ACAD_TEMP_GRAPHIC
 70
     0
  0
APPID
  5
58
330
9
100
AcDbSymbolTableRecord
100
AcDbRegAppTableRecord
  2
ACATTRIBSERVICES
 70
     0
  0
APPID
  5
EE
330
9
100
AcDbSymbolTableRecord
100
AcDbRegAppTableRecord
  2
AD_DRAW
 70
     0
  0
APPID
  5
10C
330
9
100
AcDbSymbolTableRecord
100
AcDbRegAppTableRecord
  2
DESIGNERASSEMBLIES
 70
     0
  0
APPID
  5
111
330
9
100
AcDbSymbolTableRecord
100
AcDbRegAppTableRecord
  2
ACADM_DIM_EDIT
 70
     0
  0
APPID
  5
112
330
9
100
AcDbSymbolTableRecord
100
AcDbRegAppTableRecord
  2
AMDT_DM_ADJ
 70
     0
  0
APPID
  5
1A3
330
9
100
AcDbSymbolTableRecord
100
AcDbRegAppTableRecord
  2
ACAD_DSTYLE_DIMARC_LENGTH_SYMBOL
 70
     0
  0
APPID
  5
1A4
330
9
100
AcDbSymbolTableRecord
100
AcDbRegAppTableRecord
  2
ACAD_DSTYLE_DIMJOGGED_JOGANGLE_SYMBOL
 70
     0
  0
APPID
  5
3F1
330
9
100
AcDbSymbolTableRecord
100
AcDbRegAppTableRecord
  2
ACAD_MLEADERVER
 70
     0
  0
APPID
  5
629
330
9
100
AcDbSymbolTableRecord
100
AcDbRegAppTableRecord
  2
ACAD_NAV_VCDISPLAY
 70
     0
  0
APPID
  5
6C0
330
9
100
AcDbSymbolTableRecord
100
AcDbRegAppTableRecord
  2
ACAD_DSTYLE_DIMJAG
 70
     0
  0
APPID
  5
6C1
330
9
100
AcDbSymbolTableRecord
100
AcDbRegAppTableRecord
  2
ACAD_DSTYLE_DIMBREAK
 70
     0
  0
APPID
  5
6C2
330
9
100
AcDbSymbolTableRecord
100
AcDbRegAppTableRecord
  2
ACAD_DSTYLE_DIMINSPECT
 70
     0
  0
ENDTAB
  0
TABLE
  2
DIMSTYLE
  5
A
330
0
100
AcDbSymbolTable
 70
    17
100
AcDbDimStyleTable
 71
     2
340
2F0
340
81
  0
DIMSTYLE
105
27
330
A
100
AcDbSymbolTableRecord
100
AcDbDimStyleTableRecord
  2
ISO-25
 70
     0
 41
2.5
 42
0.625
 43
3.75
 44
1.25
 73
     0
 74
     0
 77
     1
 78
     8
140
2.5
141
2.5
143
0.03937007874016
147
0.625
171
     3
172
     1
271
     2
272
     2
274
     3
278
    44
283
     0
284
     8
340
11
  0
DIMSTYLE
105
81
330
A
100
AcDbSymbolTableRecord
100
AcDbDimStyleTableRecord
  2
AM_ISO
 70
     0
  4
"
 41
2.5
 42
1.0
 43
10.0
 44
1.0
 47
0.1
 48
0.1
 73
     0
 74
     0
 77
     1
 78
     8
 79
     2
 90
     1
140
3.5
141
0.0
143
0.0393701
146
0.71
147
1.5
172
     1
176
   256
177
   256
178
     2
271
     2
272
     3
274
     4
283
     0
284
     8
340
11
371
    -1
372
    -1
1001
ACAD_DSTYLE_DIMJOGGED_JOGANGLE_SYMBOL
1070
   384
1040
0.7853981633974483
  0
DIMSTYLE
105
82
330
A
100
AcDbSymbolTableRecord
100
AcDbDimStyleTableRecord
  2
AM_ISO$3
 70
     0
  4
"
 41
2.5
 42
1.0
 43
10.0
 44
1.0
 47
0.1
 48
0.1
 73
     0
 77
     1
 78
     8
 79
     2
 90
     1
140
3.5
141
0.0
143
0.0393701
146
0.71
147
1.5
176
   256
177
   256
178
     2
271
     2
272
     3
274
     4
283
     0
284
     8
288
     1
289
     0
340
11
371
    -1
372
    -1
1001
ACAD_DSTYLE_DIMJOGGED_JOGANGLE_SYMBOL
1070
   384
1040
0.7853981633974483
  0
DIMSTYLE
105
83
330
A
100
AcDbSymbolTableRecord
100
AcDbDimStyleTableRecord
  2
AM_ISO$4
 70
     0
  4
"
 41
2.5
 42
1.0
 43
10.0
 44
1.0
 47
0.1
 48
0.1
 73
     0
 77
     1
 78
     8
 79
     2
 90
     1
140
3.5
141
0.0
143
0.0393701
146
0.71
147
1.5
176
   256
177
   256
178
     2
271
     2
272
     3
274
     4
283
     0
284
     8
288
     1
289
     0
340
11
371
    -1
372
    -1
1001
ACAD_DSTYLE_DIMJOGGED_JOGANGLE_SYMBOL
1070
   384
1040
0.7853981633974483
  0
DIMSTYLE
105
84
330
A
100
AcDbSymbolTableRecord
100
AcDbDimStyleTableRecord
  2
AM_ISO$6
 70
     0
  4
"
 41
2.5
 42
1.0
 43
10.0
 44
1.0
 47
0.1
 48
0.1
 73
     0
 74
     0
 78
     8
 79
     2
 90
     1
140
3.5
141
0.0
143
0.0393701
146
0.71
147
1.5
172
     1
176
   256
177
   256
178
     2
271
     2
272
     3
274
     4
283
     0
284
     8
340
11
371
    -1
372
    -1
1001
ACAD_DSTYLE_DIMJOGGED_JOGANGLE_SYMBOL
1070
   384
1040
0.7853981633974483
  0
DIMSTYLE
105
85
330
A
100
AcDbSymbolTableRecord
100
AcDbDimStyleTableRecord
  2
AM_ISO$7
 70
     0
  4
"
 41
2.5
 42
1.0
 43
10.0
 44
1.0
 47
0.1
 48
0.1
 73
     0
 74
     0
 77
     1
 78
     8
 79
     2
 90
     1
140
5.0
141
0.0
143
0.0393701
146
0.71
147
1.5
172
     1
176
   256
177
   256
178
     2
271
     2
272
     3
274
     4
283
     0
284
     8
340
11
371
    -1
372
    -1
1001
ACAD_DSTYLE_DIMJOGGED_JOGANGLE_SYMBOL
1070
   384
1040
0.7853981633974483
  0
DIMSTYLE
105
86
330
A
100
AcDbSymbolTableRecord
100
AcDbDimStyleTableRecord
  2
AM_ISO$SF
 70
     0
  4
"
 41
2.5
 42
1.0
 43
10.0
 44
1.0
 47
0.1
 48
0.1
 73
     0
 74
     0
 75
     1
 76
     1
 77
     1
 78
     8
 79
     2
 90
     1
140
3.5
141
0.0
143
0.0393701
146
0.71
147
1.5
172
     1
176
   256
177
   256
178
     2
271
     2
272
     3
274
     4
283
     0
284
     8
340
11
371
    -1
372
    -1
1001
ACAD_DSTYLE_DIMJOGGED_JOGANGLE_SYMBOL
1070
   384
1040
0.7853981633974483
  0
DIMSTYLE
105
8B
330
A
100
AcDbSymbolTableRecord
100
AcDbDimStyleTableRecord
  2
AM_ISO$SH
 70
     0
  4
"
 41
2.5
 42
1.0
 43
10.0
 44
1.0
 47
0.1
 48
0.1
 73
     0
 74
     0
 75
     1
 76
     1
 77
     1
 78
     8
 79
     2
 90
     1
140
3.5
141
0.0
143
0.0393701
144
2.0
146
0.71
147
1.5
172
     1
173
     1
176
   256
177
   256
178
     2
271
     2
272
     3
274
     4
283
     0
284
     8
340
11
343
87
371
    -1
372
    -1
1001
ACAD_DSTYLE_DIMJOGGED_JOGANGLE_SYMBOL
1070
   384
1040
0.7853981633974483
  0
DIMSTYLE
105
2F0
330
A
100
AcDbSymbolTableRecord
100
AcDbDimStyleTableRecord
  2
AM_DIN
 70
     0
  4
"
 41
2.5
 42
1.0
 43
10.0
 44
1.0
 47
0.1
 48
0.1
 50
90.0
 73
     0
 74
     0
 77
     1
 78
     8
 79
     2
140
3.5
141
0.0
143
0.0393701
146
0.71
147
1.5
172
     1
176
   256
177
   256
178
     2
271
     2
272
     3
274
     4
283
     0
284
     8
340
11
371
    -1
372
    -1
1001
ACAD_DSTYLE_DIMJOGGED_JOGANGLE_SYMBOL
1070
   384
1040
1.570796326794896
  0
DIMSTYLE
105
301
330
A
100
AcDbSymbolTableRecord
100
AcDbDimStyleTableRecord
  2
AM_DIN$3
 70
     0
  4
"
 41
2.5
 42
1.0
 43
10.0
 44
1.0
 47
0.1
 48
0.1
 50
90.0
 73
     0
 77
     1
 78
     8
 79
     2
140
3.5
141
0.0
143
0.0393701
146
0.71
147
1.5
176
   256
177
   256
178
     2
271
     2
272
     3
274
     4
283
     0
284
     8
288
     1
289
     0
340
11
371
    -1
372
    -1
1001
ACAD_DSTYLE_DIMJOGGED_JOGANGLE_SYMBOL
1070
   384
1040
1.570796326794896
  0
DIMSTYLE
105
306
330
A
100
AcDbSymbolTableRecord
100
AcDbDimStyleTableRecord
  2
AM_DIN$4
 70
     0
  4
"
 41
2.5
 42
1.0
 43
10.0
 44
1.0
 47
0.1
 48
0.1
 50
90.0
 73
     0
 77
     1
 78
     8
 79
     2
140
3.5
141
0.0
143
0.0393701
146
0.71
147
1.5
176
   256
177
   256
178
     2
271
     2
272
     3
274
     4
283
     0
284
     8
288
     1
289
     0
340
11
371
    -1
372
    -1
1001
ACAD_DSTYLE_DIMJOGGED_JOGANGLE_SYMBOL
1070
   384
1040
1.570796326794896
  0
DIMSTYLE
105
30B
330
A
100
AcDbSymbolTableRecord
100
AcDbDimStyleTableRecord
  2
AM_DIN$6
 70
     0
  4
"
 41
2.5
 42
1.0
 43
10.0
 44
1.0
 47
0.1
 48
0.1
 50
90.0
 73
     0
 74
     0
 78
     8
 79
     2
140
3.5
141
0.0
143
0.0393701
146
0.71
147
1.5
172
     1
176
   256
177
   256
178
     2
271
     2
272
     3
274
     4
283
     0
284
     8
340
11
371
    -1
372
    -1
1001
ACAD_DSTYLE_DIMJOGGED_JOGANGLE_SYMBOL
1070
   384
1040
1.570796326794896
  0
DIMSTYLE
105
310
330
A
100
AcDbSymbolTableRecord
100
AcDbDimStyleTableRecord
  2
AM_DIN$7
 70
     0
  4
"
 41
2.5
 42
1.0
 43
10.0
 44
1.0
 47
0.1
 48
0.1
 50
90.0
 73
     0
 74
     0
 77
     1
 78
     8
 79
     2
140
5.0
141
0.0
143
0.0393701
146
0.71
147
1.5
172
     1
176
   256
177
   256
178
     2
271
     2
272
     3
274
     4
283
     0
284
     8
340
11
371
    -1
372
    -1
1001
ACAD_DSTYLE_DIMJOGGED_JOGANGLE_SYMBOL
1070
   384
1040
1.570796326794896
  0
DIMSTYLE
105
315
330
A
100
AcDbSymbolTableRecord
100
AcDbDimStyleTableRecord
  2
AM_DIN$SF
 70
     0
  4
"
 41
2.5
 42
1.0
 43
10.0
 44
1.0
 47
0.1
 48
0.1
 50
90.0
 73
     0
 74
     0
 75
     1
 76
     1
 77
     1
 78
     8
 79
     2
140
3.5
141
0.0
143
0.0393701
146
0.71
147
1.5
172
     1
176
   256
177
   256
178
     2
271
     2
272
     3
274
     4
283
     0
284
     8
340
11
371
    -1
372
    -1
1001
ACAD_DSTYLE_DIMJOGGED_JOGANGLE_SYMBOL
1070
   384
1040
1.570796326794896
  0
DIMSTYLE
105
31A
330
A
100
AcDbSymbolTableRecord
100
AcDbDimStyleTableRecord
  2
AM_DIN$SH
 70
     0
  4
"
 41
2.5
 42
1.0
 43
10.0
 44
1.0
 47
0.1
 48
0.1
 50
90.0
 73
     0
 74
     0
 75
     1
 76
     1
 77
     1
 78
     8
 79
     2
140
3.5
141
0.0
143
0.0393701
144
2.0
146
0.71
147
1.5
172
     1
173
     1
176
   256
177
   256
178
     2
271
     2
272
     3
274
     4
283
     0
284
     8
340
11
343
87
371
    -1
372
    -1
1001
ACAD_DSTYLE_DIMJOGGED_JOGANGLE_SYMBOL
1070
   384
1040
1.570796326794896
  0
DIMSTYLE
105
6BE
330
A
100
AcDbSymbolTableRecord
100
AcDbDimStyleTableRecord
  2
STANDARD
 70
     0
 41
3.5
 42
1.5
 44
1.5
 47
0.005
 48
0.005
 71
     1
 73
     0
 74
     0
 77
     1
 78
     8
140
3.5
147
0.625
178
     5
271
     3
272
     3
284
     8
340
11
341
656
342
656
343
656
344
656
  0
DIMSTYLE
105
6BF
102
{ACAD_REACTORS
330
892
330
893
330
894
330
895
330
896
330
899
330
89A
330
A6C
330
A6D
330
A6E
330
A6F
330
A70
330
A73
330
A74
102
}
330
A
100
AcDbSymbolTableRecord
100
AcDbDimStyleTableRecord
  2
883N99122_001_00149479900
 70
     0
 40
2.0
 41
3.149999999999999
 42
0.0
 43
3.75
 44
2.0
 73
     0
 74
     0
 77
     1
 78
     8
 79
     2
140
3.5
141
0.0
143
0.03937007874016
145
2.0
147
2.0
171
     3
172
     1
173
     1
176
     3
177
     3
178
     2
179
     2
271
     2
272
     2
274
     3
283
     0
284
     8
340
11
341
65A
  0
ENDTAB
  0
TABLE
  2
BLOCK_RECORD
  5
1
330
0
100
AcDbSymbolTable
 70
    22
  0
BLOCK_RECORD
  5
1F
102
{ACAD_XDICTIONARY
360
8F
102
}
330
1
100
AcDbSymbolTableRecord
100
AcDbBlockTableRecord
  2
*Model_Space
340
22
 70
     0
280
     1
281
     0
  0
BLOCK_RECORD
  5
1B
330
1
100
AcDbSymbolTableRecord
100
AcDbBlockTableRecord
  2
*Paper_Space
340
1E
 70
     0
280
     1
281
     0
  0
BLOCK_RECORD
  5
23
330
1
100
AcDbSymbolTableRecord
100
AcDbBlockTableRecord
  2
*Paper_Space0
340
26
 70
     0
280
     1
281
     0
  0
BLOCK_RECORD
  5
87
330
1
100
AcDbSymbolTableRecord
100
AcDbBlockTableRecord
  2
GENAXEH
340
0
 70
     0
280
     1
281
     0
  0
BLOCK_RECORD
  5
609
330
1
100
AcDbSymbolTableRecord
100
AcDbBlockTableRecord
  2
_ACMFILLED15
340
0
 70
     0
280
     1
281
     0
  0
BLOCK_RECORD
  5
61B
330
1
100
AcDbSymbolTableRecord
100
AcDbBlockTableRecord
  2
_ACMFILLED30
340
0
 70
     0
280
     1
281
     0
  0
BLOCK_RECORD
  5
656
330
1
100
AcDbSymbolTableRecord
100
AcDbBlockTableRecord
  2
_FILLED
340
0
 70
     0
280
     1
281
     0
  0
BLOCK_RECORD
  5
65A
330
1
100
AcDbSymbolTableRecord
100
AcDbBlockTableRecord
  2
_None
340
0
 70
     0
280
     1
281
     0
  0
BLOCK_RECORD
  5
65D
330
1
100
AcDbSymbolTableRecord
100
AcDbBlockTableRecord
  2
*D7
340
0
 70
     0
280
     1
281
     0
  0
BLOCK_RECORD
  5
669
330
1
100
AcDbSymbolTableRecord
100
AcDbBlockTableRecord
  2
*D8
340
0
 70
     0
280
     1
281
     0
  0
BLOCK_RECORD
  5
675
330
1
100
AcDbSymbolTableRecord
100
AcDbBlockTableRecord
  2
*D9
340
0
 70
     0
280
     1
281
     0
  0
BLOCK_RECORD
  5
681
330
1
100
AcDbSymbolTableRecord
100
AcDbBlockTableRecord
  2
*D10
340
0
 70
     0
280
     1
281
     0
  0
BLOCK_RECORD
  5
68D
330
1
100
AcDbSymbolTableRecord
100
AcDbBlockTableRecord
  2
*D11
340
0
 70
     0
280
     1
281
     0
  0
BLOCK_RECORD
  5
699
330
1
100
AcDbSymbolTableRecord
100
AcDbBlockTableRecord
  2
*D12
340
0
 70
     0
280
     1
281
     0
  0
BLOCK_RECORD
  5
6A5
330
1
100
AcDbSymbolTableRecord
100
AcDbBlockTableRecord
  2
*D13
340
0
 70
     0
280
     1
281
     0
  0
BLOCK_RECORD
  5
A77
330
1
100
AcDbSymbolTableRecord
100
AcDbBlockTableRecord
  2
*D15
340
0
 70
     0
280
     1
281
     0
  0
BLOCK_RECORD
  5
A83
330
1
100
AcDbSymbolTableRecord
100
AcDbBlockTableRecord
  2
*D16
340
0
 70
     0
280
     1
281
     0
  0
BLOCK_RECORD
  5
A8F
330
1
100
AcDbSymbolTableRecord
100
AcDbBlockTableRecord
  2
*D17
340
0
 70
     0
280
     1
281
     0
  0
BLOCK_RECORD
  5
A9B
330
1
100
AcDbSymbolTableRecord
100
AcDbBlockTableRecord
  2
*D18
340
0
 70
     0
280
     1
281
     0
  0
BLOCK_RECORD
  5
AA7
330
1
100
AcDbSymbolTableRecord
100
AcDbBlockTableRecord
  2
*D19
340
0
 70
     0
280
     1
281
     0
  0
BLOCK_RECORD
  5
AD7
330
1
100
AcDbSymbolTableRecord
100
AcDbBlockTableRecord
  2
*D20
340
0
 70
     0
280
     1
281
     0
  0
BLOCK_RECORD
  5
AEC
330
1
100
AcDbSymbolTableRecord
100
AcDbBlockTableRecord
  2
*D21
340
0
 70
     0
280
     1
281
     0
  0
ENDTAB
  0
ENDSEC
  0
SECTION
  2
BLOCKS
  0
BLOCK
  5
20
330
1F
100
AcDbEntity
  8
0
100
AcDbBlockBegin
  2
*Model_Space
 70
     0
 10
0.0
 20
0.0
 30
0.0
  3
*Model_Space
  1

  0
ENDBLK
  5
21
330
1F
100
AcDbEntity
  8
0
100
AcDbBlockEnd
  0
BLOCK
  5
1C
330
1B
100
AcDbEntity
 67
     1
  8
0
100
AcDbBlockBegin
  2
*Paper_Space
 70
     0
 10
0.0
 20
0.0
 30
0.0
  3
*Paper_Space
  1

  0
ENDBLK
  5
1D
330
1B
100
AcDbEntity
 67
     1
  8
0
100
AcDbBlockEnd
  0
BLOCK
  5
24
330
23
100
AcDbEntity
 67
     1
  8
0
100
AcDbBlockBegin
  2
*Paper_Space0
 70
     0
 10
0.0
 20
0.0
 30
0.0
  3
*Paper_Space0
  1

  0
ENDBLK
  5
25
330
23
100
AcDbEntity
 67
     1
  8
0
100
AcDbBlockEnd
  0
BLOCK
  5
89
330
87
100
AcDbEntity
  8
0
100
AcDbBlockBegin
  2
GENAXEH
 70
     0
 10
0.0
 20
0.0
 30
0.0
  3
GENAXEH
  1

  0
LINE
  5
88
330
87
100
AcDbEntity
  8
0
100
AcDbLine
 10
-1.0
 20
0.0
 30
0.0
 11
1.0
 21
0.0
 31
0.0
  0
ENDBLK
  5
8A
330
87
100
AcDbEntity
  8
0
100
AcDbBlockEnd
  0
BLOCK
  5
60A
330
609
100
AcDbEntity
  8
0
100
AcDbBlockBegin
  2
_ACMFILLED15
 70
     0
 10
0.0
 20
0.0
 30
0.0
  3
_ACMFILLED15
  1

  0
TRACE
  5
60C
330
609
100
AcDbEntity
  8
0
 62
     0
100
AcDbTrace
 10
-1.0
 20
-0.131652497
 30
0.0
 11
-1.0
 21
0.131652497
 31
0.0
 12
0.0
 22
0.0
 32
0.0
 13
0.0
 23
0.0
 33
0.0
  0
ENDBLK
  5
60B
330
609
100
AcDbEntity
  8
0
100
AcDbBlockEnd
  0
BLOCK
  5
61C
330
61B
100
AcDbEntity
  8
0
100
AcDbBlockBegin
  2
_ACMFILLED30
 70
     0
 10
0.0
 20
0.0
 30
0.0
  3
_ACMFILLED30
  1

  0
TRACE
  5
61E
330
61B
100
AcDbEntity
  8
0
 62
     0
100
AcDbTrace
 10
-1.0
 20
-0.26794919
 30
0.0
 11
-1.0
 21
0.26794919
 31
0.0
 12
0.0
 22
0.0
 32
0.0
 13
0.0
 23
0.0
 33
0.0
  0
ENDBLK
  5
61D
330
61B
100
AcDbEntity
  8
0
100
AcDbBlockEnd
  0
BLOCK
  5
657
330
656
100
AcDbEntity
  8
0
100
AcDbBlockBegin
  2
_FILLED
 70
     0
 10
0.0
 20
0.0
 30
0.0
  3
_FILLED
  1

  0
SOLID
  5
658
330
656
100
AcDbEntity
  8
0
  6
ByBlock
 62
     0
100
AcDbTrace
 10
0.0
 20
0.0
 30
0.0
 11
-1.0
 21
0.125
 31
0.0
 12
-1.0
 22
-0.125
 32
0.0
 13
-1.0
 23
-0.125
 33
0.0
  0
ENDBLK
  5
659
330
656
100
AcDbEntity
  8
0
  6
ByBlock
 62
     0
100
AcDbBlockEnd
  0
BLOCK
  5
65B
330
65A
100
AcDbEntity
  8
0
100
AcDbBlockBegin
  2
_None
 70
     0
 10
0.0
 20
0.0
 30
0.0
  3
_None
  1

  0
ENDBLK
  5
65C
330
65A
100
AcDbEntity
  8
0
100
AcDbBlockEnd
  0
BLOCK
  5
65E
330
65D
100
AcDbEntity
  8
0
100
AcDbBlockBegin
  2
*D7
 70
     1
 10
0.0
 20
0.0
 30
0.0
  3
*D7
  1

  0
LINE
  5
65F
330
65D
100
AcDbEntity
  8
P-0000
  6
Continuous
 62
     3
440
 16777216
370
    -2
100
AcDbLine
 10
-1536.575332197737
 20
-472.5259105440072
 30
0.0
 11
-1595.728183054083
 21
-472.5259105440072
 31
0.0
  0
LINE
  5
660
330
65D
100
AcDbEntity
  8
P-0000
  6
Continuous
 62
     3
440
 16777216
370
    -2
100
AcDbLine
 10
-1124.005432098487
 20
-569.7259105440072
 30
0.0
 11
-1595.728183054083
 21
-569.725910544007
 31
0.0
  0
LINE
  5
661
330
65D
100
AcDbEntity
  8
P-0000
  6
Continuous
 62
     3
440
 16777216
370
    -2
100
AcDbLine
 10
-1591.728183054082
 20
-478.8259105440072
 30
0.0
 11
-1591.728183054083
 21
-563.4259105440071
 31
0.0
  0
SOLID
  5
662
330
65D
100
AcDbEntity
  8
P-0000
  6
Continuous
 62
     3
440
 16777216
100
AcDbTrace
 10
-1592.778183054083
 20
-478.8259105440072
 30
0.0
 11
-1590.678183054083
 21
-478.8259105440072
 31
0.0
 12
-1591.728183054082
 22
-472.5259105440072
 32
0.0
 13
-1591.728183054082
 23
-472.5259105440072
 33
0.0
  0
SOLID
  5
663
330
65D
100
AcDbEntity
  8
P-0000
  6
Continuous
 62
     3
440
 16777216
100
AcDbTrace
 10
-1592.778183054083
 20
-563.4259105440071
 30
0.0
 11
-1590.678183054083
 21
-563.4259105440071
 31
0.0
 12
-1591.728183054083
 22
-569.725910544007
 32
0.0
 13
-1591.728183054083
 23
-569.725910544007
 33
0.0
  0
MTEXT
  5
664
330
65D
100
AcDbEntity
  8
P-0000
  6
Continuous
 62
     2
440
 16777216
100
AcDbMText
 10
-1602.728183054083
 20
-522.0477378713519
 30
0.0
 40
7.0
 41
0.0
 46
0.0
 71
     2
 72
     1
  1
97
 11
0.0000000000000001
 21
1.0
 31
0.0
 73
     1
 44
1.0
  0
POINT
  5
665
330
65D
100
AcDbEntity
  8
Defpoints
  6
Continuous
 62
     0
440
 16777216
100
AcDbPoint
 10
-1536.575332197737
 20
-472.5259105440072
 30
0.0
  0
POINT
  5
666
330
65D
100
AcDbEntity
  8
Defpoints
  6
Continuous
 62
     0
440
 16777216
100
AcDbPoint
 10
-1124.005432098487
 20
-569.7259105440072
 30
0.0
  0
POINT
  5
667
330
65D
100
AcDbEntity
  8
Defpoints
  6
Continuous
 62
     0
440
 16777216
100
AcDbPoint
 10
-1591.728183054083
 20
-569.725910544007
 30
0.0
  0
ENDBLK
  5
668
330
65D
100
AcDbEntity
  8
0
100
AcDbBlockEnd
  0
BLOCK
  5
66A
330
669
100
AcDbEntity
  8
0
100
AcDbBlockBegin
  2
*D8
 70
     1
 10
0.0
 20
0.0
 30
0.0
  3
*D8
  1

  0
LINE
  5
66B
330
669
100
AcDbEntity
  8
P-0000
  6
Continuous
 62
     3
440
 16777216
370
    -2
100
AcDbLine
 10
-1513.575332197737
 20
-678.8620277991071
 30
0.0
 11
-1570.202030518717
 21
-678.8620277991071
 31
0.0
  0
LINE
  5
66C
330
669
100
AcDbEntity
  8
P-0000
  6
Continuous
 62
     3
440
 16777216
370
    -2
100
AcDbLine
 10
-1513.575332197737
 20
-742.9497513865072
 30
0.0
 11
-1570.202030518717
 21
-742.9497513865072
 31
0.0
  0
LINE
  5
66D
330
669
100
AcDbEntity
  8
P-0000
  6
Continuous
 62
     3
440
 16777216
370
    -2
100
AcDbLine
 10
-1566.202030518717
 20
-685.1620277991071
 30
0.0
 11
-1566.202030518717
 21
-736.6497513865073
 31
0.0
  0
SOLID
  5
66E
330
669
100
AcDbEntity
  8
P-0000
  6
Continuous
 62
     3
440
 16777216
100
AcDbTrace
 10
-1567.252030518717
 20
-685.1620277991071
 30
0.0
 11
-1565.152030518717
 21
-685.1620277991071
 31
0.0
 12
-1566.202030518717
 22
-678.8620277991071
 32
0.0
 13
-1566.202030518717
 23
-678.8620277991071
 33
0.0
  0
SOLID
  5
66F
330
669
100
AcDbEntity
  8
P-0000
  6
Continuous
 62
     3
440
 16777216
100
AcDbTrace
 10
-1567.252030518717
 20
-736.6497513865073
 30
0.0
 11
-1565.152030518717
 21
-736.6497513865073
 31
0.0
 12
-1566.202030518717
 22
-742.9497513865072
 32
0.0
 13
-1566.202030518717
 23
-742.9497513865072
 33
0.0
  0
MTEXT
  5
670
330
669
100
AcDbEntity
  8
P-0000
  6
Continuous
 62
     2
440
 16777216
100
AcDbMText
 10
-1577.202030518717
 20
-709.5169038181475
 30
0.0
 40
7.0
 41
0.0
 46
0.0
 71
     2
 72
     1
  1
64
 11
0.0000000000000001
 21
1.0
 31
0.0
 73
     1
 44
1.0
  0
POINT
  5
671
330
669
100
AcDbEntity
  8
Defpoints
  6
Continuous
 62
     0
440
 16777216
100
AcDbPoint
 10
-1513.575332197737
 20
-678.8620277991071
 30
0.0
  0
POINT
  5
672
330
669
100
AcDbEntity
  8
Defpoints
  6
Continuous
 62
     0
440
 16777216
100
AcDbPoint
 10
-1513.575332197737
 20
-742.9497513865072
 30
0.0
  0
POINT
  5
673
330
669
100
AcDbEntity
  8
Defpoints
  6
Continuous
 62
     0
440
 16777216
100
AcDbPoint
 10
-1566.202030518717
 20
-742.9497513865072
 30
0.0
  0
ENDBLK
  5
674
330
669
100
AcDbEntity
  8
0
100
AcDbBlockEnd
  0
BLOCK
  5
676
330
675
100
AcDbEntity
  8
0
100
AcDbBlockBegin
  2
*D9
 70
     1
 10
0.0
 20
0.0
 30
0.0
  3
*D9
  1

  0
LINE
  5
677
330
675
100
AcDbEntity
  8
P-0000
  6
Continuous
 62
     3
440
 16777216
370
    -2
100
AcDbLine
 10
-1546.075332197737
 20
-664.8620277991072
 30
0.0
 11
-1594.808656911619
 21
-664.8620277991072
 31
0.0
  0
LINE
  5
678
330
675
100
AcDbEntity
  8
P-0000
  6
Continuous
 62
     3
440
 16777216
370
    -2
100
AcDbLine
 10
-1524.825332197737
 20
-776.8620277991072
 30
0.0
 11
-1594.808656911619
 21
-776.8620277991072
 31
0.0
  0
LINE
  5
679
330
675
100
AcDbEntity
  8
P-0000
  6
Continuous
 62
     3
440
 16777216
370
    -2
100
AcDbLine
 10
-1590.808656911619
 20
-671.1620277991071
 30
0.0
 11
-1590.808656911619
 21
-770.5620277991072
 31
0.0
  0
SOLID
  5
67A
330
675
100
AcDbEntity
  8
P-0000
  6
Continuous
 62
     3
440
 16777216
100
AcDbTrace
 10
-1591.858656911619
 20
-671.1620277991071
 30
0.0
 11
-1589.758656911619
 21
-671.1620277991071
 31
0.0
 12
-1590.808656911619
 22
-664.8620277991072
 32
0.0
 13
-1590.808656911619
 23
-664.8620277991072
 33
0.0
  0
SOLID
  5
67B
330
675
100
AcDbEntity
  8
P-0000
  6
Continuous
 62
     3
440
 16777216
100
AcDbTrace
 10
-1591.858656911619
 20
-770.5620277991072
 30
0.0
 11
-1589.758656911619
 21
-770.5620277991072
 31
0.0
 12
-1590.808656911619
 22
-776.8620277991072
 32
0.0
 13
-1590.808656911619
 23
-776.8620277991072
 33
0.0
  0
MTEXT
  5
67C
330
675
100
AcDbEntity
  8
P-0000
  6
Continuous
 62
     2
440
 16777216
100
AcDbMText
 10
-1601.808656911618
 20
-716.1750409483797
 30
0.0
 40
7.0
 41
0.0
 46
0.0
 71
     2
 72
     1
  1
112
 11
0.0000000000000001
 21
1.0
 31
0.0
 73
     1
 44
1.0
  0
POINT
  5
67D
330
675
100
AcDbEntity
  8
Defpoints
  6
Continuous
 62
     0
440
 16777216
100
AcDbPoint
 10
-1546.075332197737
 20
-664.8620277991072
 30
0.0
  0
POINT
  5
67E
330
675
100
AcDbEntity
  8
Defpoints
  6
Continuous
 62
     0
440
 16777216
100
AcDbPoint
 10
-1524.825332197737
 20
-776.8620277991072
 30
0.0
  0
POINT
  5
67F
330
675
100
AcDbEntity
  8
Defpoints
  6
Continuous
 62
     0
440
 16777216
100
AcDbPoint
 10
-1590.808656911619
 20
-776.8620277991072
 30
0.0
  0
ENDBLK
  5
680
330
675
100
AcDbEntity
  8
0
100
AcDbBlockEnd
  0
BLOCK
  5
682
330
681
100
AcDbEntity
  8
0
100
AcDbBlockBegin
  2
*D10
 70
     1
 10
0.0
 20
0.0
 30
0.0
  3
*D10
  1

  0
LINE
  5
683
330
681
100
AcDbEntity
  8
P-0000
  6
Continuous
 62
     3
440
 16777216
370
    -2
100
AcDbLine
 10
-1536.575332197737
 20
-472.5259105440072
 30
0.0
 11
-1571.111935275682
 21
-472.5259105440072
 31
0.0
  0
LINE
  5
684
330
681
100
AcDbEntity
  8
P-0000
  6
Continuous
 62
     3
440
 16777216
370
    -2
100
AcDbLine
 10
-1515.075332197737
 20
-502.5259105440071
 30
0.0
 11
-1571.111935275682
 21
-502.5259105440071
 31
0.0
  0
LINE
  5
685
330
681
100
AcDbEntity
  8
P-0000
  6
Continuous
 62
     3
440
 16777216
370
    -2
100
AcDbLine
 10
-1567.111935275682
 20
-478.8259105440072
 30
0.0
 11
-1567.111935275682
 21
-496.2259105440072
 31
0.0
  0
SOLID
  5
686
330
681
100
AcDbEntity
  8
P-0000
  6
Continuous
 62
     3
440
 16777216
100
AcDbTrace
 10
-1568.161935275682
 20
-478.8259105440072
 30
0.0
 11
-1566.061935275682
 21
-478.8259105440072
 31
0.0
 12
-1567.111935275682
 22
-472.5259105440072
 32
0.0
 13
-1567.111935275682
 23
-472.5259105440072
 33
0.0
  0
SOLID
  5
687
330
681
100
AcDbEntity
  8
P-0000
  6
Continuous
 62
     3
440
 16777216
100
AcDbTrace
 10
-1568.161935275682
 20
-496.2259105440072
 30
0.0
 11
-1566.061935275682
 21
-496.2259105440072
 31
0.0
 12
-1567.111935275682
 22
-502.5259105440071
 32
0.0
 13
-1567.111935275682
 23
-502.5259105440071
 33
0.0
  0
MTEXT
  5
688
330
681
100
AcDbEntity
  8
P-0000
  6
Continuous
 62
     2
440
 16777216
100
AcDbMText
 10
-1578.111935275682
 20
-489.2803400236106
 30
0.0
 40
7.0
 41
0.0
 46
0.0
 71
     2
 72
     1
  1
30
 11
0.0000000000000001
 21
1.0
 31
0.0
 73
     1
 44
1.0
  0
POINT
  5
689
330
681
100
AcDbEntity
  8
Defpoints
  6
Continuous
 62
     0
440
 16777216
100
AcDbPoint
 10
-1536.575332197737
 20
-472.5259105440072
 30
0.0
  0
POINT
  5
68A
330
681
100
AcDbEntity
  8
Defpoints
  6
Continuous
 62
     0
440
 16777216
100
AcDbPoint
 10
-1515.075332197737
 20
-502.5259105440071
 30
0.0
  0
POINT
  5
68B
330
681
100
AcDbEntity
  8
Defpoints
  6
Continuous
 62
     0
440
 16777216
100
AcDbPoint
 10
-1567.111935275682
 20
-502.5259105440071
 30
0.0
  0
ENDBLK
  5
68C
330
681
100
AcDbEntity
  8
0
100
AcDbBlockEnd
  0
BLOCK
  5
68E
330
68D
100
AcDbEntity
  8
0
100
AcDbBlockBegin
  2
*D11
 70
     1
 10
0.0
 20
0.0
 30
0.0
  3
*D11
  1

  0
LINE
  5
68F
330
68D
100
AcDbEntity
  8
P-0000
  6
Continuous
 62
     3
440
 16777216
370
    -2
100
AcDbLine
 10
-1514.075332197737
 20
-509.7759105440072
 30
0.0
 11
-1514.075332197737
 21
-443.3830070124757
 31
0.0
  0
LINE
  5
690
330
68D
100
AcDbEntity
  8
P-0000
  6
Continuous
 62
     3
440
 16777216
370
    -2
100
AcDbLine
 10
-634.0753321977372
 20
-508.5259105440072
 30
0.0
 11
-634.0753321977372
 21
-443.3830070124757
 31
0.0
  0
LINE
  5
691
330
68D
100
AcDbEntity
  8
P-0000
  6
Continuous
 62
     3
440
 16777216
370
    -2
100
AcDbLine
 10
-1507.775332197737
 20
-447.3830070124757
 30
0.0
 11
-640.3753321977371
 21
-447.3830070124757
 31
0.0
  0
SOLID
  5
692
330
68D
100
AcDbEntity
  8
P-0000
  6
Continuous
 62
     3
440
 16777216
100
AcDbTrace
 10
-1507.775332197737
 20
-446.3330070124756
 30
0.0
 11
-1507.775332197737
 21
-448.4330070124756
 31
0.0
 12
-1514.075332197737
 22
-447.3830070124757
 32
0.0
 13
-1514.075332197737
 23
-447.3830070124757
 33
0.0
  0
SOLID
  5
693
330
68D
100
AcDbEntity
  8
P-0000
  6
Continuous
 62
     3
440
 16777216
100
AcDbTrace
 10
-640.3753321977371
 20
-446.3330070124756
 30
0.0
 11
-640.3753321977371
 21
-448.4330070124756
 31
0.0
 12
-634.0753321977372
 22
-447.3830070124757
 32
0.0
 13
-634.0753321977372
 23
-447.3830070124757
 33
0.0
  0
MTEXT
  5
694
330
68D
100
AcDbEntity
  8
P-0000
  6
Continuous
 62
     2
440
 16777216
100
AcDbMText
 10
-1074.075332197737
 20
-439.8830070124756
 30
0.0
 40
7.0
 41
0.0
 46
0.0
 71
     5
 72
     1
  1
880
 73
     1
 44
1.0
  0
POINT
  5
695
330
68D
100
AcDbEntity
  8
Defpoints
  6
Continuous
 62
     0
440
 16777216
100
AcDbPoint
 10
-1514.075332197737
 20
-509.7759105440072
 30
0.0
  0
POINT
  5
696
330
68D
100
AcDbEntity
  8
Defpoints
  6
Continuous
 62
     0
440
 16777216
100
AcDbPoint
 10
-634.0753321977372
 20
-508.5259105440072
 30
0.0
  0
POINT
  5
697
330
68D
100
AcDbEntity
  8
Defpoints
  6
Continuous
 62
     0
440
 16777216
100
AcDbPoint
 10
-634.0753321977372
 20
-447.3830070124757
 30
0.0
  0
ENDBLK
  5
698
330
68D
100
AcDbEntity
  8
0
100
AcDbBlockEnd
  0
BLOCK
  5
69A
330
699
100
AcDbEntity
  8
0
100
AcDbBlockBegin
  2
*D12
 70
     1
 10
0.0
 20
0.0
 30
0.0
  3
*D12
  1

  0
LINE
  5
69B
330
699
100
AcDbEntity
  8
P-0000
  6
Continuous
 62
     3
440
 16777216
370
    -2
100
AcDbLine
 10
-632.0753321977372
 20
-509.0259105440073
 30
0.0
 11
-632.0753321977372
 21
-429.5446570816397
 31
0.0
  0
LINE
  5
69C
330
699
100
AcDbEntity
  8
P-0000
  6
Continuous
 62
     3
440
 16777216
370
    -2
100
AcDbLine
 10
-1516.075332197737
 20
-509.0259105440073
 30
0.0
 11
-1516.075332197737
 21
-429.5446570816397
 31
0.0
  0
LINE
  5
69D
330
699
100
AcDbEntity
  8
P-0000
  6
Continuous
 62
     3
440
 16777216
370
    -2
100
AcDbLine
 10
-638.3753321977372
 20
-433.5446570816397
 30
0.0
 11
-1509.775332197737
 21
-433.5446570816397
 31
0.0
  0
SOLID
  5
69E
330
699
100
AcDbEntity
  8
P-0000
  6
Continuous
 62
     3
440
 16777216
100
AcDbTrace
 10
-638.3753321977372
 20
-432.4946570816398
 30
0.0
 11
-638.3753321977372
 21
-434.5946570816398
 31
0.0
 12
-632.0753321977372
 22
-433.5446570816397
 32
0.0
 13
-632.0753321977372
 23
-433.5446570816397
 33
0.0
  0
SOLID
  5
69F
330
699
100
AcDbEntity
  8
P-0000
  6
Continuous
 62
     3
440
 16777216
100
AcDbTrace
 10
-1509.775332197737
 20
-432.4946570816398
 30
0.0
 11
-1509.775332197737
 21
-434.5946570816398
 31
0.0
 12
-1516.075332197737
 22
-433.5446570816397
 32
0.0
 13
-1516.075332197737
 23
-433.5446570816397
 33
0.0
  0
MTEXT
  5
6A0
330
699
100
AcDbEntity
  8
P-0000
  6
Continuous
 62
     2
440
 16777216
100
AcDbMText
 10
-1074.075332197737
 20
-426.0446570816397
 30
0.0
 40
7.0
 41
0.0
 46
0.0
 71
     5
 72
     1
  1
884
 73
     1
 44
1.0
  0
POINT
  5
6A1
330
699
100
AcDbEntity
  8
Defpoints
  6
Continuous
 62
     0
440
 16777216
100
AcDbPoint
 10
-632.0753321977372
 20
-509.0259105440073
 30
0.0
  0
POINT
  5
6A2
330
699
100
AcDbEntity
  8
Defpoints
  6
Continuous
 62
     0
440
 16777216
100
AcDbPoint
 10
-1516.075332197737
 20
-509.0259105440073
 30
0.0
  0
POINT
  5
6A3
330
699
100
AcDbEntity
  8
Defpoints
  6
Continuous
 62
     0
440
 16777216
100
AcDbPoint
 10
-1516.075332197737
 20
-433.5446570816397
 30
0.0
  0
ENDBLK
  5
6A4
330
699
100
AcDbEntity
  8
0
100
AcDbBlockEnd
  0
BLOCK
  5
6A6
330
6A5
100
AcDbEntity
  8
0
100
AcDbBlockBegin
  2
*D13
 70
     1
 10
0.0
 20
0.0
 30
0.0
  3
*D13
  1

  0
LINE
  5
6A7
330
6A5
100
AcDbEntity
  8
P-0000
  6
Continuous
 62
     3
440
 16777216
370
    -2
100
AcDbLine
 10
-601.5753321977373
 20
-498.5259105440072
 30
0.0
 11
-601.5753321977373
 21
-415.7063050477884
 31
0.0
  0
LINE
  5
6A8
330
6A5
100
AcDbEntity
  8
P-0000
  6
Continuous
 62
     3
440
 16777216
370
    -2
100
AcDbLine
 10
-1546.575332197737
 20
-498.5259105440072
 30
0.0
 11
-1546.575332197737
 21
-415.7063050477884
 31
0.0
  0
LINE
  5
6A9
330
6A5
100
AcDbEntity
  8
P-0000
  6
Continuous
 62
     3
440
 16777216
370
    -2
100
AcDbLine
 10
-607.8753321977373
 20
-419.7063050477884
 30
0.0
 11
-1540.275332197737
 21
-419.7063050477884
 31
0.0
  0
SOLID
  5
6AA
330
6A5
100
AcDbEntity
  8
P-0000
  6
Continuous
 62
     3
440
 16777216
100
AcDbTrace
 10
-607.8753321977373
 20
-418.6563050477884
 30
0.0
 11
-607.8753321977373
 21
-420.7563050477884
 31
0.0
 12
-601.5753321977373
 22
-419.7063050477884
 32
0.0
 13
-601.5753321977373
 23
-419.7063050477884
 33
0.0
  0
SOLID
  5
6AB
330
6A5
100
AcDbEntity
  8
P-0000
  6
Continuous
 62
     3
440
 16777216
100
AcDbTrace
 10
-1540.275332197737
 20
-418.6563050477884
 30
0.0
 11
-1540.275332197737
 21
-420.7563050477884
 31
0.0
 12
-1546.575332197737
 22
-419.7063050477884
 32
0.0
 13
-1546.575332197737
 23
-419.7063050477884
 33
0.0
  0
MTEXT
  5
6AC
330
6A5
100
AcDbEntity
  8
P-0000
  6
Continuous
 62
     2
440
 16777216
100
AcDbMText
 10
-1074.075332197737
 20
-412.2063050477883
 30
0.0
 40
7.0
 41
0.0
 46
0.0
 71
     5
 72
     1
  1
945
 73
     1
 44
1.0
  0
POINT
  5
6AD
330
6A5
100
AcDbEntity
  8
Defpoints
  6
Continuous
 62
     0
440
 16777216
100
AcDbPoint
 10
-601.5753321977373
 20
-498.5259105440072
 30
0.0
  0
POINT
  5
6AE
330
6A5
100
AcDbEntity
  8
Defpoints
  6
Continuous
 62
     0
440
 16777216
100
AcDbPoint
 10
-1546.575332197737
 20
-498.5259105440072
 30
0.0
  0
POINT
  5
6AF
330
6A5
100
AcDbEntity
  8
Defpoints
  6
Continuous
 62
     0
440
 16777216
100
AcDbPoint
 10
-1546.575332197737
 20
-419.7063050477884
 30
0.0
  0
ENDBLK
  5
6B0
330
6A5
100
AcDbEntity
  8
0
100
AcDbBlockEnd
  0
BLOCK
  5
A78
330
A77
100
AcDbEntity
  8
0
100
AcDbBlockBegin
  2
*D15
 70
     1
 10
0.0
 20
0.0
 30
0.0
  3
*D15
  1

  0
LINE
  5
AB3
330
A77
100
AcDbEntity
  8
P-0000
  6
Continuous
 62
     3
440
 16777216
370
    -2
100
AcDbLine
 10
81.86111698083005
 20
399.9350577166424
 30
0.0
 11
22.70826612448452
 21
399.9350577166424
 31
0.0
  0
LINE
  5
AB4
330
A77
100
AcDbEntity
  8
P-0000
  6
Continuous
 62
     3
440
 16777216
370
    -2
100
AcDbLine
 10
494.4310170800799
 20
302.7350577166425
 30
0.0
 11
22.70826612448452
 21
302.7350577166426
 31
0.0
  0
LINE
  5
AB5
330
A77
100
AcDbEntity
  8
P-0000
  6
Continuous
 62
     3
440
 16777216
370
    -2
100
AcDbLine
 10
26.70826612448452
 20
393.6350577166424
 30
0.0
 11
26.7082661244845
 21
309.0350577166427
 31
0.0
  0
SOLID
  5
AB6
330
A77
100
AcDbEntity
  8
P-0000
  6
Continuous
 62
     3
440
 16777216
100
AcDbTrace
 10
25.65826612448452
 20
393.6350577166424
 30
0.0
 11
27.75826612448452
 21
393.6350577166424
 31
0.0
 12
26.70826612448452
 22
399.9350577166424
 32
0.0
 13
26.70826612448452
 23
399.9350577166424
 33
0.0
  0
SOLID
  5
AB7
330
A77
100
AcDbEntity
  8
P-0000
  6
Continuous
 62
     3
440
 16777216
100
AcDbTrace
 10
25.6582661244845
 20
309.0350577166427
 30
0.0
 11
27.7582661244845
 21
309.0350577166427
 31
0.0
 12
26.7082661244845
 22
302.7350577166426
 32
0.0
 13
26.7082661244845
 23
302.7350577166426
 33
0.0
  0
MTEXT
  5
AB8
330
A77
100
AcDbEntity
  8
P-0000
  6
Continuous
 62
     2
440
 16777216
100
AcDbMText
 10
15.70826612448445
 20
350.4132303892977
 30
0.0
 40
7.0
 41
0.0
 46
0.0
 71
     2
 72
     1
  1
97
 11
0.0000000000000001
 21
1.0
 31
0.0
 73
     1
 44
1.0
  0
POINT
  5
AB9
330
A77
100
AcDbEntity
  8
Defpoints
  6
Continuous
 62
     0
440
 16777216
100
AcDbPoint
 10
81.86111698083005
 20
399.9350577166424
 30
0.0
  0
POINT
  5
ABA
330
A77
100
AcDbEntity
  8
Defpoints
  6
Continuous
 62
     0
440
 16777216
100
AcDbPoint
 10
494.4310170800799
 20
302.7350577166425
 30
0.0
  0
POINT
  5
ABB
330
A77
100
AcDbEntity
  8
Defpoints
  6
Continuous
 62
     0
440
 16777216
100
AcDbPoint
 10
26.7082661244845
 20
302.7350577166426
 30
0.0
  0
ENDBLK
  5
A79
330
A77
100
AcDbEntity
  8
0
100
AcDbBlockEnd
  0
BLOCK
  5
A84
330
A83
100
AcDbEntity
  8
0
100
AcDbBlockBegin
  2
*D16
 70
     1
 10
0.0
 20
0.0
 30
0.0
  3
*D16
  1

  0
LINE
  5
ABC
330
A83
100
AcDbEntity
  8
P-0000
  6
Continuous
 62
     3
440
 16777216
370
    -2
100
AcDbLine
 10
104.86111698083
 20
193.5989404615425
 30
0.0
 11
48.23441865985049
 21
193.5989404615425
 31
0.0
  0
LINE
  5
ABD
330
A83
100
AcDbEntity
  8
P-0000
  6
Continuous
 62
     3
440
 16777216
370
    -2
100
AcDbLine
 10
104.86111698083
 20
129.5112168741424
 30
0.0
 11
48.23441865985048
 21
129.5112168741424
 31
0.0
  0
LINE
  5
ABE
330
A83
100
AcDbEntity
  8
P-0000
  6
Continuous
 62
     3
440
 16777216
370
    -2
100
AcDbLine
 10
52.2344186598505
 20
187.2989404615425
 30
0.0
 11
52.23441865985048
 21
135.8112168741424
 31
0.0
  0
SOLID
  5
ABF
330
A83
100
AcDbEntity
  8
P-0000
  6
Continuous
 62
     3
440
 16777216
100
AcDbTrace
 10
51.1844186598505
 20
187.2989404615425
 30
0.0
 11
53.28441865985049
 21
187.2989404615425
 31
0.0
 12
52.2344186598505
 22
193.5989404615425
 32
0.0
 13
52.2344186598505
 23
193.5989404615425
 33
0.0
  0
SOLID
  5
AC0
330
A83
100
AcDbEntity
  8
P-0000
  6
Continuous
 62
     3
440
 16777216
100
AcDbTrace
 10
51.18441865985048
 20
135.8112168741424
 30
0.0
 11
53.28441865985048
 21
135.8112168741424
 31
0.0
 12
52.23441865985048
 22
129.5112168741424
 32
0.0
 13
52.23441865985048
 23
129.5112168741424
 33
0.0
  0
MTEXT
  5
AC1
330
A83
100
AcDbEntity
  8
P-0000
  6
Continuous
 62
     2
440
 16777216
100
AcDbMText
 10
41.23441865985046
 20
162.9440644425022
 30
0.0
 40
7.0
 41
0.0
 46
0.0
 71
     2
 72
     1
  1
64
 11
0.0000000000000001
 21
1.0
 31
0.0
 73
     1
 44
1.0
  0
POINT
  5
AC2
330
A83
100
AcDbEntity
  8
Defpoints
  6
Continuous
 62
     0
440
 16777216
100
AcDbPoint
 10
104.86111698083
 20
193.5989404615425
 30
0.0
  0
POINT
  5
AC3
330
A83
100
AcDbEntity
  8
Defpoints
  6
Continuous
 62
     0
440
 16777216
100
AcDbPoint
 10
104.86111698083
 20
129.5112168741424
 30
0.0
  0
POINT
  5
AC4
330
A83
100
AcDbEntity
  8
Defpoints
  6
Continuous
 62
     0
440
 16777216
100
AcDbPoint
 10
52.23441865985048
 20
129.5112168741424
 30
0.0
  0
ENDBLK
  5
A85
330
A83
100
AcDbEntity
  8
0
100
AcDbBlockEnd
  0
BLOCK
  5
A90
330
A8F
100
AcDbEntity
  8
0
100
AcDbBlockBegin
  2
*D17
 70
     1
 10
0.0
 20
0.0
 30
0.0
  3
*D17
  1

  0
LINE
  5
AC5
330
A8F
100
AcDbEntity
  8
P-0000
  6
Continuous
 62
     3
440
 16777216
370
    -2
100
AcDbLine
 10
72.36111698083004
 20
207.5989404615425
 30
0.0
 11
23.62779226694878
 21
207.5989404615425
 31
0.0
  0
LINE
  5
AC6
330
A8F
100
AcDbEntity
  8
P-0000
  6
Continuous
 62
     3
440
 16777216
370
    -2
100
AcDbLine
 10
93.61111698083005
 20
95.5989404615425
 30
0.0
 11
23.62779226694875
 21
95.59894046154251
 31
0.0
  0
LINE
  5
AC7
330
A8F
100
AcDbEntity
  8
P-0000
  6
Continuous
 62
     3
440
 16777216
370
    -2
100
AcDbLine
 10
27.62779226694878
 20
201.2989404615425
 30
0.0
 11
27.62779226694876
 21
101.8989404615425
 31
0.0
  0
SOLID
  5
AC8
330
A8F
100
AcDbEntity
  8
P-0000
  6
Continuous
 62
     3
440
 16777216
100
AcDbTrace
 10
26.57779226694878
 20
201.2989404615425
 30
0.0
 11
28.67779226694878
 21
201.2989404615425
 31
0.0
 12
27.62779226694878
 22
207.5989404615425
 32
0.0
 13
27.62779226694878
 23
207.5989404615425
 33
0.0
  0
SOLID
  5
AC9
330
A8F
100
AcDbEntity
  8
P-0000
  6
Continuous
 62
     3
440
 16777216
100
AcDbTrace
 10
26.57779226694876
 20
101.8989404615425
 30
0.0
 11
28.67779226694876
 21
101.8989404615425
 31
0.0
 12
27.62779226694876
 22
95.59894046154251
 32
0.0
 13
27.62779226694876
 23
95.59894046154251
 33
0.0
  0
MTEXT
  5
ACA
330
A8F
100
AcDbEntity
  8
P-0000
  6
Continuous
 62
     2
440
 16777216
100
AcDbMText
 10
16.62641431419284
 20
156.2859273122699
 30
0.0
 40
7.0
 41
0.0
 46
0.0
 71
     2
 72
     1
  1
112
 11
0.0000000000000001
 21
1.0
 31
0.0
 73
     1
 44
1.0
  0
POINT
  5
ACB
330
A8F
100
AcDbEntity
  8
Defpoints
  6
Continuous
 62
     0
440
 16777216
100
AcDbPoint
 10
72.36111698083004
 20
207.5989404615425
 30
0.0
  0
POINT
  5
ACC
330
A8F
100
AcDbEntity
  8
Defpoints
  6
Continuous
 62
     0
440
 16777216
100
AcDbPoint
 10
93.61111698083005
 20
95.5989404615425
 30
0.0
  0
POINT
  5
ACD
330
A8F
100
AcDbEntity
  8
Defpoints
  6
Continuous
 62
     0
440
 16777216
100
AcDbPoint
 10
27.62779226694876
 20
95.59894046154251
 30
0.0
  0
ENDBLK
  5
A91
330
A8F
100
AcDbEntity
  8
0
100
AcDbBlockEnd
  0
BLOCK
  5
A9C
330
A9B
100
AcDbEntity
  8
0
100
AcDbBlockBegin
  2
*D18
 70
     1
 10
0.0
 20
0.0
 30
0.0
  3
*D18
  1

  0
LINE
  5
ACE
330
A9B
100
AcDbEntity
  8
P-0000
  6
Continuous
 62
     3
440
 16777216
370
    -2
100
AcDbLine
 10
81.86111698083005
 20
399.9350577166424
 30
0.0
 11
47.32451390288549
 21
399.9350577166424
 31
0.0
  0
LINE
  5
ACF
330
A9B
100
AcDbEntity
  8
P-0000
  6
Continuous
 62
     3
440
 16777216
370
    -2
100
AcDbLine
 10
103.36111698083
 20
369.9350577166425
 30
0.0
 11
47.32451390288549
 21
369.9350577166425
 31
0.0
  0
LINE
  5
AD0
330
A9B
100
AcDbEntity
  8
P-0000
  6
Continuous
 62
     3
440
 16777216
370
    -2
100
AcDbLine
 10
51.32451390288549
 20
393.6350577166424
 30
0.0
 11
51.32451390288549
 21
376.2350577166425
 31
0.0
  0
SOLID
  5
AD1
330
A9B
100
AcDbEntity
  8
P-0000
  6
Continuous
 62
     3
440
 16777216
100
AcDbTrace
 10
50.2745139028855
 20
393.6350577166424
 30
0.0
 11
52.37451390288549
 21
393.6350577166424
 31
0.0
 12
51.32451390288549
 22
399.9350577166424
 32
0.0
 13
51.32451390288549
 23
399.9350577166424
 33
0.0
  0
SOLID
  5
AD2
330
A9B
100
AcDbEntity
  8
P-0000
  6
Continuous
 62
     3
440
 16777216
100
AcDbTrace
 10
50.2745139028855
 20
376.2350577166425
 30
0.0
 11
52.37451390288549
 21
376.2350577166425
 31
0.0
 12
51.32451390288549
 22
369.9350577166425
 32
0.0
 13
51.32451390288549
 23
369.9350577166425
 33
0.0
  0
MTEXT
  5
AD3
330
A9B
100
AcDbEntity
  8
P-0000
  6
Continuous
 62
     2
440
 16777216
100
AcDbMText
 10
40.32451390288542
 20
383.180628237039
 30
0.0
 40
7.0
 41
0.0
 46
0.0
 71
     2
 72
     1
  1
30
 11
0.0000000000000001
 21
1.0
 31
0.0
 73
     1
 44
1.0
  0
POINT
  5
AD4
330
A9B
100
AcDbEntity
  8
Defpoints
  6
Continuous
 62
     0
440
 16777216
100
AcDbPoint
 10
81.86111698083005
 20
399.9350577166424
 30
0.0
  0
POINT
  5
AD5
330
A9B
100
AcDbEntity
  8
Defpoints
  6
Continuous
 62
     0
440
 16777216
100
AcDbPoint
 10
103.36111698083
 20
369.9350577166425
 30
0.0
  0
POINT
  5
AD6
330
A9B
100
AcDbEntity
  8
Defpoints
  6
Continuous
 62
     0
440
 16777216
100
AcDbPoint
 10
51.32451390288549
 20
369.9350577166425
 30
0.0
  0
ENDBLK
  5
A9D
330
A9B
100
AcDbEntity
  8
0
100
AcDbBlockEnd
  0
BLOCK
  5
AA8
330
AA7
100
AcDbEntity
  8
0
100
AcDbBlockBegin
  2
*D19
 70
     1
 10
0.0
 20
0.0
 30
0.0
  3
*D19
  1

  0
LINE
  5
AE3
330
AA7
100
AcDbEntity
  8
P-0000
  6
Continuous
 62
     3
440
 16777216
370
    -2
100
AcDbLine
 10
986.3611169808301
 20
363.4350577166424
 30
0.0
 11
986.3611169808301
 21
442.9163111790098
 31
0.0
  0
LINE
  5
AE4
330
AA7
100
AcDbEntity
  8
P-0000
  6
Continuous
 62
     3
440
 16777216
370
    -2
100
AcDbLine
 10
102.36111698083
 20
363.4350577166424
 30
0.0
 11
102.36111698083
 21
442.9163111790098
 31
0.0
  0
LINE
  5
AE5
330
AA7
100
AcDbEntity
  8
P-0000
  6
Continuous
 62
     3
440
 16777216
370
    -2
100
AcDbLine
 10
980.06111698083
 20
438.9163111790098
 30
0.0
 11
108.66111698083
 21
438.9163111790098
 31
0.0
  0
SOLID
  5
AE6
330
AA7
100
AcDbEntity
  8
P-0000
  6
Continuous
 62
     3
440
 16777216
100
AcDbTrace
 10
980.06111698083
 20
439.9663111790099
 30
0.0
 11
980.06111698083
 21
437.8663111790098
 31
0.0
 12
986.3611169808301
 22
438.9163111790098
 32
0.0
 13
986.3611169808301
 23
438.9163111790098
 33
0.0
  0
SOLID
  5
AE7
330
AA7
100
AcDbEntity
  8
P-0000
  6
Continuous
 62
     3
440
 16777216
100
AcDbTrace
 10
108.66111698083
 20
439.9663111790099
 30
0.0
 11
108.66111698083
 21
437.8663111790098
 31
0.0
 12
102.36111698083
 22
438.9163111790098
 32
0.0
 13
102.36111698083
 23
438.9163111790098
 33
0.0
  0
MTEXT
  5
AE8
330
AA7
100
AcDbEntity
  8
P-0000
  6
Continuous
 62
     2
440
 16777216
100
AcDbMText
 10
544.36111698083
 20
446.4163111790099
 30
0.0
 40
7.0
 41
0.0
 46
0.0
 71
     5
 72
     1
  1
884
 73
     1
 44
1.0
  0
POINT
  5
AE9
330
AA7
100
AcDbEntity
  8
Defpoints
  6
Continuous
 62
     0
440
 16777216
100
AcDbPoint
 10
986.3611169808301
 20
363.4350577166424
 30
0.0
  0
POINT
  5
AEA
330
AA7
100
AcDbEntity
  8
Defpoints
  6
Continuous
 62
     0
440
 16777216
100
AcDbPoint
 10
102.36111698083
 20
363.4350577166424
 30
0.0
  0
POINT
  5
AEB
330
AA7
100
AcDbEntity
  8
Defpoints
  6
Continuous
 62
     0
440
 16777216
100
AcDbPoint
 10
102.36111698083
 20
438.9163111790098
 30
0.0
  0
ENDBLK
  5
AA9
330
AA7
100
AcDbEntity
  8
0
100
AcDbBlockEnd
  0
BLOCK
  5
AD8
330
AD7
100
AcDbEntity
  8
0
100
AcDbBlockBegin
  2
*D20
 70
     1
 10
0.0
 20
0.0
 30
0.0
  3
*D20
  1

  0
LINE
  5
ADA
330
AD7
100
AcDbEntity
  8
P-0000
  6
Continuous
 62
     3
440
 16777216
370
    -2
100
AcDbLine
 10
104.36111698083
 20
362.6850577166424
 30
0.0
 11
104.36111698083
 21
429.077961248174
 31
0.0
  0
LINE
  5
ADB
330
AD7
100
AcDbEntity
  8
P-0000
  6
Continuous
 62
     3
440
 16777216
370
    -2
100
AcDbLine
 10
984.3611169808299
 20
363.9350577166424
 30
0.0
 11
984.3611169808299
 21
429.077961248174
 31
0.0
  0
LINE
  5
ADC
330
AD7
100
AcDbEntity
  8
P-0000
  6
Continuous
 62
     3
440
 16777216
370
    -2
100
AcDbLine
 10
110.66111698083
 20
425.077961248174
 30
0.0
 11
978.0611169808301
 21
425.077961248174
 31
0.0
  0
SOLID
  5
ADD
330
AD7
100
AcDbEntity
  8
P-0000
  6
Continuous
 62
     3
440
 16777216
100
AcDbTrace
 10
110.66111698083
 20
426.127961248174
 30
0.0
 11
110.66111698083
 21
424.027961248174
 31
0.0
 12
104.36111698083
 22
425.077961248174
 32
0.0
 13
104.36111698083
 23
425.077961248174
 33
0.0
  0
SOLID
  5
ADE
330
AD7
100
AcDbEntity
  8
P-0000
  6
Continuous
 62
     3
440
 16777216
100
AcDbTrace
 10
978.0611169808301
 20
426.127961248174
 30
0.0
 11
978.0611169808301
 21
424.027961248174
 31
0.0
 12
984.3611169808299
 22
425.077961248174
 32
0.0
 13
984.3611169808299
 23
425.077961248174
 33
0.0
  0
MTEXT
  5
ADF
330
AD7
100
AcDbEntity
  8
P-0000
  6
Continuous
 62
     2
440
 16777216
100
AcDbMText
 10
544.36111698083
 20
432.5779612481739
 30
0.0
 40
7.0
 41
0.0
 46
0.0
 71
     5
 72
     1
  1
880
 73
     1
 44
1.0
  0
POINT
  5
AE0
330
AD7
100
AcDbEntity
  8
Defpoints
  6
Continuous
 62
     0
440
 16777216
100
AcDbPoint
 10
104.36111698083
 20
362.6850577166424
 30
0.0
  0
POINT
  5
AE1
330
AD7
100
AcDbEntity
  8
Defpoints
  6
Continuous
 62
     0
440
 16777216
100
AcDbPoint
 10
984.3611169808299
 20
363.9350577166424
 30
0.0
  0
POINT
  5
AE2
330
AD7
100
AcDbEntity
  8
Defpoints
  6
Continuous
 62
     0
440
 16777216
100
AcDbPoint
 10
984.3611169808299
 20
425.077961248174
 30
0.0
  0
ENDBLK
  5
AD9
330
AD7
100
AcDbEntity
  8
0
100
AcDbBlockEnd
  0
BLOCK
  5
AED
330
AEC
100
AcDbEntity
  8
0
100
AcDbBlockBegin
  2
*D21
 70
     1
 10
0.0
 20
0.0
 30
0.0
  3
*D21
  1

  0
LINE
  5
AEF
330
AEC
100
AcDbEntity
  8
P-0000
  6
Continuous
 62
     3
440
 16777216
370
    -2
100
AcDbLine
 10
1016.86111698083
 20
373.9350577166424
 30
0.0
 11
1016.86111698083
 21
456.7546632128612
 31
0.0
  0
LINE
  5
AF0
330
AEC
100
AcDbEntity
  8
P-0000
  6
Continuous
 62
     3
440
 16777216
370
    -2
100
AcDbLine
 10
71.86111698083005
 20
373.9350577166424
 30
0.0
 11
71.86111698083005
 21
456.7546632128612
 31
0.0
  0
LINE
  5
AF1
330
AEC
100
AcDbEntity
  8
P-0000
  6
Continuous
 62
     3
440
 16777216
370
    -2
100
AcDbLine
 10
1010.56111698083
 20
452.7546632128612
 30
0.0
 11
78.16111698083004
 21
452.7546632128612
 31
0.0
  0
SOLID
  5
AF2
330
AEC
100
AcDbEntity
  8
P-0000
  6
Continuous
 62
     3
440
 16777216
100
AcDbTrace
 10
1010.56111698083
 20
453.8046632128613
 30
0.0
 11
1010.56111698083
 21
451.7046632128612
 31
0.0
 12
1016.86111698083
 22
452.7546632128612
 32
0.0
 13
1016.86111698083
 23
452.7546632128612
 33
0.0
  0
SOLID
  5
AF3
330
AEC
100
AcDbEntity
  8
P-0000
  6
Continuous
 62
     3
440
 16777216
100
AcDbTrace
 10
78.16111698083004
 20
453.8046632128613
 30
0.0
 11
78.16111698083004
 21
451.7046632128612
 31
0.0
 12
71.86111698083005
 22
452.7546632128612
 32
0.0
 13
71.86111698083005
 23
452.7546632128612
 33
0.0
  0
MTEXT
  5
AF4
330
AEC
100
AcDbEntity
  8
P-0000
  6
Continuous
 62
     2
440
 16777216
100
AcDbMText
 10
544.36111698083
 20
460.2546632128612
 30
0.0
 40
7.0
 41
0.0
 46
0.0
 71
     5
 72
     1
  1
945
 73
     1
 44
1.0
  0
POINT
  5
AF5
330
AEC
100
AcDbEntity
  8
Defpoints
  6
Continuous
 62
     0
440
 16777216
100
AcDbPoint
 10
1016.86111698083
 20
373.9350577166424
 30
0.0
  0
POINT
  5
AF6
330
AEC
100
AcDbEntity
  8
Defpoints
  6
Continuous
 62
     0
440
 16777216
100
AcDbPoint
 10
71.86111698083005
 20
373.9350577166424
 30
0.0
  0
POINT
  5
AF7
330
AEC
100
AcDbEntity
  8
Defpoints
  6
Continuous
 62
     0
440
 16777216
100
AcDbPoint
 10
71.86111698083005
 20
452.7546632128612
 30
0.0
  0
ENDBLK
  5
AEE
330
AEC
100
AcDbEntity
  8
0
100
AcDbBlockEnd
  0
ENDSEC
  0
SECTION
  2
ENTITIES
  0
LINE
  5
8A4
330
1F
100
AcDbEntity
  8
0
  6
Continuous
 62
     7
100
AcDbLine
 10
71.86111698083005
 20
356.9350577166424
 30
0.0
 11
71.86111698083005
 21
354.9350577166424
 31
0.0
  0
LINE
  5
8A5
330
1F
100
AcDbEntity
  8
RUNDUNGEN
  6
Continuous
 62
     7
100
AcDbLine
 10
71.86111698083005
 20
356.9350577166424
 30
0.0
 11
71.86111698083005
 21
357.9350577166424
 31
0.0
  0
LINE
  5
8A6
102
{ACAD_REACTORS
330
A76
102
}
330
1F
100
AcDbEntity
  8
0
  6
Continuous
 62
     7
100
AcDbLine
 10
71.86111698083005
 20
357.9350577166424
 30
0.0
 11
71.86111698083005
 21
389.9350577166424
 31
0.0
  0
LINE
  5
8A7
330
1F
100
AcDbEntity
  8
RUNDUNGEN
  6
Continuous
 62
     9
100
AcDbLine
 10
81.86111698083005
 20
356.9350577166424
 30
0.0
 11
81.86111698083005
 21
357.9350577166424
 31
0.0
  0
LINE
  5
8A8
330
1F
100
AcDbEntity
  8
RUNDUNGEN
  6
Continuous
 62
     7
100
AcDbLine
 10
102.36111698083
 20
348.9350577166424
 30
0.0
 11
102.36111698083
 21
356.9350577166424
 31
0.0
  0
LINE
  5
8A9
330
1F
100
AcDbEntity
  8
RUNDUNGEN
  6
Continuous
 62
     7
100
AcDbLine
 10
102.36111698083
 20
357.9350577166424
 30
0.0
 11
102.36111698083
 21
368.9350577166425
 31
0.0
  0
LINE
  5
8AA
330
1F
100
AcDbEntity
  8
0
  6
Continuous
 62
     7
100
AcDbLine
 10
104.0611169808301
 20
369.6436297491424
 30
0.0
 11
104.0611169808301
 21
370.7850577166424
 31
0.0
  0
LINE
  5
8AB
330
1F
100
AcDbEntity
  8
0
  6
Continuous
 62
     7
100
AcDbLine
 10
104.36111698083
 20
370.8169794644425
 30
0.0
 11
104.36111698083
 21
369.0090828652424
 31
0.0
  0
LINE
  5
8AC
102
{ACAD_REACTORS
330
A72
102
}
330
1F
100
AcDbEntity
  8
0
  6
Continuous
 62
     7
100
AcDbLine
 10
104.36111698083
 20
368.4350577166425
 30
0.0
 11
104.36111698083
 21
356.9350577166424
 31
0.0
  0
LINE
  5
8AD
330
1F
100
AcDbEntity
  8
RUNDUNGEN
  6
Continuous
 62
     7
100
AcDbLine
 10
104.36111698083
 20
348.9350577166424
 30
0.0
 11
104.36111698083
 21
356.9350577166424
 31
0.0
  0
LINE
  5
8AE
330
1F
100
AcDbEntity
  8
0
  6
Continuous
 62
     3
100
AcDbLine
 10
104.36111698083
 20
355.6798845218425
 30
0.0
 11
104.36111698083
 21
356.9350577166424
 31
0.0
  0
LINE
  5
8AF
330
1F
100
AcDbEntity
  8
RUNDUNGEN
  6
Continuous
 62
     7
100
AcDbLine
 10
104.36111698083
 20
358.9350577166424
 30
0.0
 11
104.36111698083
 21
368.9350577166425
 31
0.0
  0
LINE
  5
8B0
330
1F
100
AcDbEntity
  8
FASEN
  6
Continuous
 62
     3
100
AcDbLine
 10
115.36111698083
 20
351.3777161203425
 30
0.0
 11
115.36111698083
 21
350.5556707006424
 31
0.0
  0
LINE
  5
8B1
330
1F
100
AcDbEntity
  8
FASEN
  6
Continuous
 62
     7
100
AcDbLine
 10
115.36111698083
 20
349.5572790301425
 30
0.0
 11
115.36111698083
 21
350.5556707006424
 31
0.0
  0
LINE
  5
8B2
330
1F
100
AcDbEntity
  8
FASEN
  6
Continuous
 62
     7
100
AcDbLine
 10
117.8611169808298
 20
349.4155470612425
 30
0.0
 11
117.8611169808298
 21
350.4139387317425
 31
0.0
  0
LINE
  5
8B3
330
1F
100
AcDbEntity
  8
BEZUGSACHSEN
  6
Continuous
 62
     3
100
AcDbLine
 10
122.12906617323
 20
351.1084253794424
 30
0.0
 11
122.12906617323
 21
350.8249614416425
 31
0.0
  0
LINE
  5
8B4
330
1F
100
AcDbEntity
  8
BEZUGSACHSEN
  6
Continuous
 62
     9
100
AcDbLine
 10
123.86111698083
 20
351.9163551126425
 30
0.0
 11
123.86111698083
 21
351.8233531121425
 31
0.0
  0
LINE
  5
8B5
330
1F
100
AcDbEntity
  8
BEZUGSACHSEN
  6
Continuous
 62
     9
100
AcDbLine
 10
126.8611169808298
 20
351.8233531121425
 30
0.0
 11
126.8611169808298
 21
351.9163551126425
 31
0.0
  0
LINE
  5
8B6
330
1F
100
AcDbEntity
  8
BEZUGSACHSEN
  6
Continuous
 62
     3
100
AcDbLine
 10
128.59316778833
 20
350.8249614416425
 30
0.0
 11
128.59316778833
 21
351.1084253794424
 31
0.0
  0
LINE
  5
8B7
330
1F
100
AcDbEntity
  8
BEZUGSACHSEN
  6
Continuous
 62
     3
100
AcDbLine
 10
122.12906617323
 20
351.1084253794424
 30
0.0
 11
122.1310223616301
 21
351.1144321589425
 31
0.0
  0
LINE
  5
8B8
330
1F
100
AcDbEntity
  8
BEZUGSACHSEN
  6
Continuous
 62
     3
100
AcDbLine
 10
142.12906617323
 20
351.1084253794424
 30
0.0
 11
142.12906617323
 21
350.8249614416425
 31
0.0
  0
LINE
  5
8B9
330
1F
100
AcDbEntity
  8
BEZUGSACHSEN
  6
Continuous
 62
     9
100
AcDbLine
 10
143.8611169808298
 20
351.9163551129425
 30
0.0
 11
143.8611169808298
 21
351.8233531121425
 31
0.0
  0
LINE
  5
8BA
330
1F
100
AcDbEntity
  8
BEZUGSACHSEN
  6
Continuous
 62
     9
100
AcDbLine
 10
146.86111698083
 20
351.8233531121425
 30
0.0
 11
146.86111698083
 21
351.9163551130426
 31
0.0
  0
LINE
  5
8BB
330
1F
100
AcDbEntity
  8
BEZUGSACHSEN
  6
Continuous
 62
     3
100
AcDbLine
 10
148.59316778833
 20
350.8249614416425
 30
0.0
 11
148.59316778833
 21
351.1084253794424
 31
0.0
  0
LINE
  5
8BC
330
1F
100
AcDbEntity
  8
BEZUGSACHSEN
  6
Continuous
 62
     3
100
AcDbLine
 10
142.12906617323
 20
351.1084253794424
 30
0.0
 11
142.1310223616301
 21
351.1144321589425
 31
0.0
  0
LINE
  5
8BD
330
1F
100
AcDbEntity
  8
BEZUGSACHSEN
  6
Continuous
 62
     3
100
AcDbLine
 10
128.5912115999301
 20
351.1144321589425
 30
0.0
 11
128.59316778833
 21
351.1084253794424
 31
0.0
  0
LINE
  5
8BE
330
1F
100
AcDbEntity
  8
0
  6
Continuous
 62
     3
100
AcDbLine
 10
160.36111698083
 20
350.8603944338424
 30
0.0
 11
160.36111698083
 21
351.0729923871425
 31
0.0
  0
LINE
  5
8BF
330
1F
100
AcDbEntity
  8
0
  6
Continuous
 62
     3
100
AcDbLine
 10
161.61111698083
 20
351.0729923871425
 30
0.0
 11
161.61111698083
 21
350.8603944338424
 31
0.0
  0
LINE
  5
8C0
330
1F
100
AcDbEntity
  8
BEZUGSACHSEN
  6
Continuous
 62
     3
100
AcDbLine
 10
148.5912115999301
 20
351.1144321589425
 30
0.0
 11
148.59316778833
 21
351.1084253794424
 31
0.0
  0
LINE
  5
8C1
330
1F
100
AcDbEntity
  8
0
  6
Continuous
 62
     9
100
AcDbLine
 10
219.9731437799301
 20
351.5194480892425
 30
0.0
 11
219.9731437799301
 21
349.4155470612425
 31
0.0
  0
LINE
  5
8C2
330
1F
100
AcDbEntity
  8
0
  6
Continuous
 62
     9
100
AcDbLine
 10
220.21989966823
 20
351.5503206854424
 30
0.0
 11
220.21989966823
 21
350.4448113279425
 31
0.0
  0
LINE
  5
8C3
330
1F
100
AcDbEntity
  8
0
  6
Continuous
 62
     9
100
AcDbLine
 10
221.6312415677298
 20
351.9091121660424
 30
0.0
 11
221.6312415677298
 21
350.8036028085424
 31
0.0
  0
LINE
  5
8C4
330
1F
100
AcDbEntity
  8
0
  6
Continuous
 62
     9
100
AcDbLine
 10
222.6182651211302
 20
351.9091121660424
 30
0.0
 11
222.6182651211302
 21
350.8036028085424
 31
0.0
  0
LINE
  5
8C5
330
1F
100
AcDbEntity
  8
0
  6
Continuous
 62
     9
100
AcDbLine
 10
225.8052701833299
 20
351.0989114162425
 30
0.0
 11
225.8052701833299
 21
349.9934020588424
 31
0.0
  0
LINE
  5
8C6
330
1F
100
AcDbEntity
  8
0
  6
Continuous
 62
     9
100
AcDbLine
 10
226.2987819600298
 20
351.0989114162425
 30
0.0
 11
226.2987819600298
 21
349.9934020588424
 31
0.0
  0
LINE
  5
8C7
330
1F
100
AcDbEntity
  8
0
  6
Continuous
 62
     9
100
AcDbLine
 10
229.48578702233
 20
351.9091121660424
 30
0.0
 11
229.48578702233
 21
350.8036028085424
 31
0.0
  0
LINE
  5
8C8
330
1F
100
AcDbEntity
  8
0
  6
Continuous
 62
     9
100
AcDbLine
 10
230.4728105756301
 20
351.9091121660424
 30
0.0
 11
230.4728105756301
 21
350.8036028085424
 31
0.0
  0
LINE
  5
8C9
330
1F
100
AcDbEntity
  8
0
  6
Continuous
 62
     9
100
AcDbLine
 10
233.65981563793
 20
351.0989114162425
 30
0.0
 11
233.65981563793
 21
349.9934020588424
 31
0.0
  0
LINE
  5
8CA
330
1F
100
AcDbEntity
  8
0
  6
Continuous
 62
     9
100
AcDbLine
 10
234.15332741463
 20
351.0989114162425
 30
0.0
 11
234.15332741463
 21
349.9934020588424
 31
0.0
  0
LINE
  5
8CB
330
1F
100
AcDbEntity
  8
0
  6
Continuous
 62
     9
100
AcDbLine
 10
237.3403324768301
 20
351.9091121660424
 30
0.0
 11
237.3403324768301
 21
350.8036028085424
 31
0.0
  0
LINE
  5
8CC
330
1F
100
AcDbEntity
  8
0
  6
Continuous
 62
     9
100
AcDbLine
 10
238.32735603023
 20
351.9091121660424
 30
0.0
 11
238.32735603023
 21
350.8036028085424
 31
0.0
  0
LINE
  5
8CD
330
1F
100
AcDbEntity
  8
FASEN
  6
Continuous
 62
     3
100
AcDbLine
 10
241.8844949249301
 20
350.8630839869425
 30
0.0
 11
241.8844949249301
 21
350.0410385673424
 31
0.0
  0
LINE
  5
8CE
330
1F
100
AcDbEntity
  8
0
  6
Continuous
 62
     9
100
AcDbLine
 10
222.6182651211302
 20
350.8036028085424
 30
0.0
 11
222.37150923273
 21
349.8360837341425
 31
0.0
  0
LINE
  5
8CF
330
1F
100
AcDbEntity
  8
0
  6
Continuous
 62
     9
100
AcDbLine
 10
225.8052701833299
 20
349.9934020588424
 30
0.0
 11
225.5585142950299
 21
349.0258829844425
 31
0.0
  0
LINE
  5
8D0
330
1F
100
AcDbEntity
  8
0
  6
Continuous
 62
     9
100
AcDbLine
 10
230.4728105756301
 20
350.8036028085424
 30
0.0
 11
230.2260546873299
 21
349.8360837341425
 31
0.0
  0
LINE
  5
8D1
330
1F
100
AcDbEntity
  8
0
  6
Continuous
 62
     9
100
AcDbLine
 10
233.65981563793
 20
349.9934020588424
 30
0.0
 11
233.41305974953
 21
349.0258829844425
 31
0.0
  0
LINE
  5
8D2
330
1F
100
AcDbEntity
  8
0
  6
Continuous
 62
     9
100
AcDbLine
 10
238.32735603023
 20
350.8036028085424
 30
0.0
 11
238.08060014183
 21
349.8360837341425
 31
0.0
  0
LINE
  5
8D3
330
1F
100
AcDbEntity
  8
FASEN
  6
Continuous
 62
     7
100
AcDbLine
 10
239.2150448602301
 20
349.5476850829425
 30
0.0
 11
239.4618007485301
 21
350.5152041573425
 31
0.0
  0
LINE
  5
8D4
330
1F
100
AcDbEntity
  8
0
  6
Continuous
 62
     9
100
AcDbLine
 10
220.21989966823
 20
350.4448113279425
 30
0.0
 11
220.46665555663
 21
349.4772922535425
 31
0.0
  0
LINE
  5
8D5
330
1F
100
AcDbEntity
  8
0
  6
Continuous
 62
     9
100
AcDbLine
 10
221.6312415677298
 20
350.8036028085424
 30
0.0
 11
221.8779974561298
 21
349.8360837341425
 31
0.0
  0
LINE
  5
8D6
330
1F
100
AcDbEntity
  8
0
  6
Continuous
 62
     9
100
AcDbLine
 10
226.2987819600298
 20
349.9934020588424
 30
0.0
 11
226.5455378483302
 21
349.0258829844425
 31
0.0
  0
LINE
  5
8D7
330
1F
100
AcDbEntity
  8
0
  6
Continuous
 62
     9
100
AcDbLine
 10
229.48578702233
 20
350.8036028085424
 30
0.0
 11
229.73254291063
 21
349.8360837341425
 31
0.0
  0
LINE
  5
8D8
330
1F
100
AcDbEntity
  8
0
  6
Continuous
 62
     9
100
AcDbLine
 10
234.15332741463
 20
349.9934020588424
 30
0.0
 11
234.40008330293
 21
349.0258829844425
 31
0.0
  0
LINE
  5
8D9
330
1F
100
AcDbEntity
  8
0
  6
Continuous
 62
     9
100
AcDbLine
 10
237.3403324768301
 20
350.8036028085424
 30
0.0
 11
237.5870883652301
 21
349.8360837341425
 31
0.0
  0
LINE
  5
8DA
330
1F
100
AcDbEntity
  8
FASEN
  6
Continuous
 62
     7
100
AcDbLine
 10
241.6377390366301
 20
349.0735194929424
 30
0.0
 11
241.8844949249301
 21
350.0410385673424
 31
0.0
  0
LINE
  5
8DB
330
1F
100
AcDbEntity
  8
0
  6
Continuous
 62
     7
100
AcDbLine
 10
442.2611169808301
 20
314.7350577166425
 30
0.0
 11
442.2611169808301
 21
347.9179660326424
 31
0.0
  0
LINE
  5
8DC
330
1F
100
AcDbEntity
  8
0
  6
Continuous
 62
     3
100
AcDbLine
 10
443.36111698083
 20
347.9179660326424
 30
0.0
 11
443.36111698083
 21
349.9131332716424
 31
0.0
  0
LINE
  5
8DD
330
1F
100
AcDbEntity
  8
RUNDUNGEN
  6
Continuous
 62
     9
100
AcDbLine
 10
471.36111698083
 20
302.7350577166425
 30
0.0
 11
471.3611169809301
 21
314.7350577166425
 31
0.0
  0
LINE
  5
8DE
330
1F
100
AcDbEntity
  8
0
  6
Continuous
 62
     9
100
AcDbLine
 10
471.36111698083
 20
314.7350577166425
 30
0.0
 11
471.36111698083
 21
347.9179660326424
 31
0.0
  0
LINE
  5
8DF
330
1F
100
AcDbEntity
  8
RUNDUNGEN
  6
Continuous
 62
     9
100
AcDbLine
 10
471.3611698997299
 20
347.9179660312425
 30
0.0
 11
471.36111698083
 21
353.6134400665425
 31
0.0
  0
LINE
  5
8E0
330
1F
100
AcDbEntity
  8
TEIL_STARTBEZUEGE
  6
CENTER
 62
     7
100
AcDbLine
 10
486.36111698083
 20
327.7350577166425
 30
0.0
 11
486.36111698083
 21
324.7349577166424
 31
0.0
  0
LINE
  5
8E1
330
1F
100
AcDbEntity
  8
TEIL_STARTBEZUEGE
  6
CENTER
 62
     7
100
AcDbLine
 10
486.36111698083
 20
327.7350577166425
 30
0.0
 11
486.36111698083
 21
330.7351577166425
 31
0.0
  0
LINE
  5
8E2
330
1F
100
AcDbEntity
  8
0
  6
Continuous
 62
     7
100
AcDbLine
 10
863.1637196665298
 20
349.0258829844425
 30
0.0
 11
866.3507247288301
 21
349.8360837341425
 31
0.0
  0
LINE
  5
8E3
330
1F
100
AcDbEntity
  8
0
  6
Continuous
 62
     7
100
AcDbLine
 10
863.1637196665298
 20
350.1313923418424
 30
0.0
 11
866.3507247288301
 21
350.9415930916424
 31
0.0
  0
LINE
  5
8E4
330
1F
100
AcDbEntity
  8
0
  6
Continuous
 62
     7
100
AcDbLine
 10
855.3091742120299
 20
349.0258829844425
 30
0.0
 11
858.49617927423
 21
349.8360837341425
 31
0.0
  0
LINE
  5
8E5
330
1F
100
AcDbEntity
  8
0
  6
Continuous
 62
     3
100
AcDbLine
 10
862.9169637782299
 20
351.0989114162425
 30
0.0
 11
866.1039688405299
 21
351.9091121660424
 31
0.0
  0
LINE
  5
8E6
330
1F
100
AcDbEntity
  8
RUNDUNGEN
  6
Continuous
 62
     7
100
AcDbLine
 10
634.4611166147299
 20
302.7350577166425
 30
0.0
 11
554.1213171440301
 21
302.7350577166425
 31
0.0
  0
LINE
  5
8E7
330
1F
100
AcDbEntity
  8
RUNDUNGEN
  6
Continuous
 62
     7
100
AcDbLine
 10
534.60091681333
 20
302.7350577166425
 30
0.0
 11
454.2611173468299
 21
302.7350577166425
 31
0.0
  0
LINE
  5
8E8
330
1F
100
AcDbEntity
  8
0
  6
Continuous
 62
     7
100
AcDbLine
 10
225.5585142950299
 20
349.0258829844425
 30
0.0
 11
222.37150923273
 21
349.8360837341425
 31
0.0
  0
LINE
  5
8E9
330
1F
100
AcDbEntity
  8
0
  6
Continuous
 62
     3
100
AcDbLine
 10
225.8052701833299
 20
349.9934020588424
 30
0.0
 11
222.6182651211302
 21
350.8036028085424
 31
0.0
  0
LINE
  5
8EA
330
1F
100
AcDbEntity
  8
0
  6
Continuous
 62
     7
100
AcDbLine
 10
233.41305974953
 20
349.0258829844425
 30
0.0
 11
230.2260546873299
 21
349.8360837341425
 31
0.0
  0
LINE
  5
8EB
330
1F
100
AcDbEntity
  8
0
  6
Continuous
 62
     3
100
AcDbLine
 10
225.8052701833299
 20
351.0989114162425
 30
0.0
 11
222.6182651211302
 21
351.9091121660424
 31
0.0
  0
LINE
  5
8EC
330
1F
100
AcDbEntity
  8
FASEN
  6
Continuous
 62
     3
100
AcDbLine
 10
241.8844949249301
 20
350.8630839869425
 30
0.0
 11
239.4618007485301
 21
351.6207135148424
 31
0.0
  0
LINE
  5
8ED
330
1F
100
AcDbEntity
  8
0
  6
Continuous
 62
     7
100
AcDbLine
 10
855.3091742120299
 20
350.1313923418424
 30
0.0
 11
858.49617927423
 21
350.9415930916424
 31
0.0
  0
LINE
  5
8EE
330
1F
100
AcDbEntity
  8
FASEN
  6
Continuous
 62
     7
100
AcDbLine
 10
849.5071891013299
 20
349.5476850829425
 30
0.0
 11
850.6416338197301
 21
349.8360837341425
 31
0.0
  0
LINE
  5
8EF
330
1F
100
AcDbEntity
  8
0
  6
Continuous
 62
     3
100
AcDbLine
 10
855.0624183236299
 20
351.0989114162425
 30
0.0
 11
858.24942338593
 21
351.9091121660424
 31
0.0
  0
LINE
  5
8F0
330
1F
100
AcDbEntity
  8
FASEN
  6
Continuous
 62
     7
100
AcDbLine
 10
849.5071891013299
 20
350.6531944404425
 30
0.0
 11
850.6416338197301
 21
350.9415930916424
 31
0.0
  0
LINE
  5
8F1
330
1F
100
AcDbEntity
  8
FASEN
  6
Continuous
 62
     3
100
AcDbLine
 10
849.26043321303
 20
351.6207135148424
 30
0.0
 11
850.3948779314299
 21
351.9091121660424
 31
0.0
  0
LINE
  5
8F2
330
1F
100
AcDbEntity
  8
FASEN
  6
Continuous
 62
     7
100
AcDbLine
 10
847.0844949249299
 20
349.0735194929424
 30
0.0
 11
849.5071891013299
 21
349.5476850829425
 31
0.0
  0
LINE
  5
8F3
330
1F
100
AcDbEntity
  8
0
  6
Continuous
 62
     9
100
AcDbLine
 10
529.49361162293
 20
314.7350577166425
 30
0.0
 11
559.22862233453
 21
314.7350577166425
 31
0.0
  0
LINE
  5
8F4
330
1F
100
AcDbEntity
  8
RUNDUNGEN
  6
Continuous
 62
     9
100
AcDbLine
 10
646.4611169808299
 20
314.7350577166425
 30
0.0
 11
566.7945066879298
 21
314.7350512592425
 31
0.0
  0
LINE
  5
8F5
330
1F
100
AcDbEntity
  8
RUNDUNGEN
  6
Continuous
 62
     9
100
AcDbLine
 10
521.9277272253298
 20
314.7350513586424
 30
0.0
 11
442.2611169808301
 21
314.7350577166425
 31
0.0
  0
LINE
  5
8F6
330
1F
100
AcDbEntity
  8
TEIL_STARTBEZUEGE
  6
CENTER
 62
     7
100
AcDbLine
 10
544.36111698083
 20
325.7350577166425
 30
0.0
 11
554.2546912277298
 21
325.7350577166425
 31
0.0
  0
LINE
  5
8F7
330
1F
100
AcDbEntity
  8
TEIL_STARTBEZUEGE
  6
CENTER
 62
     7
100
AcDbLine
 10
544.36111698083
 20
325.7350577166425
 30
0.0
 11
534.4675427339297
 21
325.7350577166425
 31
0.0
  0
LINE
  5
8F8
330
1F
100
AcDbEntity
  8
TEIL_STARTBEZUEGE
  6
CENTER
 62
     7
100
AcDbLine
 10
486.36111698083
 20
327.7350577166425
 30
0.0
 11
489.3612169808302
 21
327.7350577166425
 31
0.0
  0
LINE
  5
8F9
330
1F
100
AcDbEntity
  8
TEIL_STARTBEZUEGE
  6
CENTER
 62
     7
100
AcDbLine
 10
486.36111698083
 20
327.7350577166425
 30
0.0
 11
483.3610169808298
 21
327.7350577166425
 31
0.0
  0
LINE
  5
8FA
330
1F
100
AcDbEntity
  8
FASEN
  6
Continuous
 62
     7
100
AcDbLine
 10
241.6377390366301
 20
349.0735194929424
 30
0.0
 11
239.2150448602301
 21
349.5476850829425
 31
0.0
  0
LINE
  5
8FB
330
1F
100
AcDbEntity
  8
FASEN
  6
Continuous
 62
     3
100
AcDbLine
 10
239.4618007485301
 20
350.5152041573425
 30
0.0
 11
241.8844949249301
 21
350.0410385673424
 31
0.0
  0
LINE
  5
8FC
330
1F
100
AcDbEntity
  8
0
  6
Continuous
 62
     3
100
AcDbLine
 10
233.65981563793
 20
349.9934020588424
 30
0.0
 11
230.4728105756301
 21
350.8036028085424
 31
0.0
  0
LINE
  5
8FD
330
1F
100
AcDbEntity
  8
FASEN
  6
Continuous
 62
     7
100
AcDbLine
 10
239.2150448602301
 20
349.5476850829425
 30
0.0
 11
238.08060014183
 21
349.8360837341425
 31
0.0
  0
LINE
  5
8FE
330
1F
100
AcDbEntity
  8
0
  6
Continuous
 62
     3
100
AcDbLine
 10
233.65981563793
 20
351.0989114162425
 30
0.0
 11
230.4728105756301
 21
351.9091121660424
 31
0.0
  0
LINE
  5
8FF
330
1F
100
AcDbEntity
  8
FASEN
  6
Continuous
 62
     3
100
AcDbLine
 10
239.4618007485301
 20
350.5152041573425
 30
0.0
 11
238.32735603023
 21
350.8036028085424
 31
0.0
  0
LINE
  5
900
330
1F
100
AcDbEntity
  8
FASEN
  6
Continuous
 62
     3
100
AcDbLine
 10
239.4618007485301
 20
351.6207135148424
 30
0.0
 11
238.32735603023
 21
351.9091121660424
 31
0.0
  0
LINE
  5
901
330
1F
100
AcDbEntity
  8
TEIL_STARTBEZUEGE
  6
CENTER
 62
     7
100
AcDbLine
 10
544.36111698083
 20
325.7350577166425
 30
0.0
 11
544.36111698083
 21
315.8414834697425
 31
0.0
  0
LINE
  5
902
330
1F
100
AcDbEntity
  8
TEIL_STARTBEZUEGE
  6
CENTER
 62
     7
100
AcDbLine
 10
544.36111698083
 20
325.7350577166425
 30
0.0
 11
544.36111698083
 21
335.6286319635425
 31
0.0
  0
LINE
  5
903
330
1F
100
AcDbEntity
  8
FASEN
  6
Continuous
 62
     7
100
AcDbLine
 10
970.86111698083
 20
349.4155470612425
 30
0.0
 11
973.36111698083
 21
349.5572790301425
 31
0.0
  0
LINE
  5
904
330
1F
100
AcDbEntity
  8
0
  6
Continuous
 62
     7
100
AcDbLine
 10
442.2611169808301
 20
347.9179660326424
 30
0.0
 11
532.8607124949298
 21
347.9179660326424
 31
0.0
  0
LINE
  5
905
330
1F
100
AcDbEntity
  8
0
  6
Continuous
 62
     7
100
AcDbLine
 10
555.8615214655301
 20
347.9179660326424
 30
0.0
 11
646.4611169808299
 21
347.9179660326424
 31
0.0
  0
LINE
  5
906
330
1F
100
AcDbEntity
  8
0
  6
Continuous
 62
     7
100
AcDbLine
 10
986.3611169808301
 20
348.9350577166424
 30
0.0
 11
984.3611169808299
 21
348.9350577166424
 31
0.0
  0
LINE
  5
907
330
1F
100
AcDbEntity
  8
0
  6
Continuous
 62
     7
100
AcDbLine
 10
104.36111698083
 20
348.9350577166424
 30
0.0
 11
102.36111698083
 21
348.9350577166424
 31
0.0
  0
LINE
  5
908
330
1F
100
AcDbEntity
  8
FASEN
  6
Continuous
 62
     7
100
AcDbLine
 10
868.74909018163
 20
349.4155470612425
 30
0.0
 11
970.86111698083
 21
349.4155470612425
 31
0.0
  0
LINE
  5
909
330
1F
100
AcDbEntity
  8
FASEN
  6
Continuous
 62
     7
100
AcDbLine
 10
219.9731437799301
 20
349.4155470612425
 30
0.0
 11
117.8611169808298
 21
349.4155470612425
 31
0.0
  0
LINE
  5
90A
330
1F
100
AcDbEntity
  8
FASEN
  6
Continuous
 62
     3
100
AcDbLine
 10
219.9731437799301
 20
350.4139387317425
 30
0.0
 11
117.8611169808298
 21
350.4139387317425
 31
0.0
  0
LINE
  5
90B
330
1F
100
AcDbEntity
  8
FASEN
  6
Continuous
 62
     7
100
AcDbLine
 10
868.74909018163
 20
350.5210564187424
 30
0.0
 11
970.86111698083
 21
350.5210564187424
 31
0.0
  0
LINE
  5
90C
330
1F
100
AcDbEntity
  8
RUNDUNGEN
  6
Continuous
 62
     9
100
AcDbLine
 10
102.36111698083
 20
350.7018037851425
 30
0.0
 11
104.36111698083
 21
350.7018037851425
 31
0.0
  0
LINE
  5
90D
330
1F
100
AcDbEntity
  8
RUNDUNGEN
  6
Continuous
 62
     9
100
AcDbLine
 10
984.3611169808299
 20
350.7018037851425
 30
0.0
 11
986.3611169808301
 21
350.7018037851425
 31
0.0
  0
LINE
  5
90E
330
1F
100
AcDbEntity
  8
FASEN
  6
Continuous
 62
     3
100
AcDbLine
 10
868.74909018163
 20
351.5194480892425
 30
0.0
 11
970.86111698083
 21
351.5194480892425
 31
0.0
  0
LINE
  5
90F
330
1F
100
AcDbEntity
  8
FASEN
  6
Continuous
 62
     3
100
AcDbLine
 10
219.9731437799301
 20
351.5194480892425
 30
0.0
 11
148.27998202563
 21
351.5194480892425
 31
0.0
  0
LINE
  5
910
330
1F
100
AcDbEntity
  8
FASEN
  6
Continuous
 62
     3
100
AcDbLine
 10
142.4424484953297
 20
351.5194480892425
 30
0.0
 11
128.2799820256298
 21
351.5194480892425
 31
0.0
  0
LINE
  5
911
330
1F
100
AcDbEntity
  8
FASEN
  6
Continuous
 62
     3
100
AcDbLine
 10
122.4424484953299
 20
351.5194480892425
 30
0.0
 11
117.8611169808298
 21
351.5194480892425
 31
0.0
  0
LINE
  5
912
330
1F
100
AcDbEntity
  8
RUNDUNGEN
  6
Continuous
 62
     9
100
AcDbLine
 10
617.3609806939301
 20
351.6166567254424
 30
0.0
 11
471.3612677650298
 21
351.6166567254424
 31
0.0
  0
LINE
  5
913
330
1F
100
AcDbEntity
  8
RUNDUNGEN
  6
Continuous
 62
     3
100
AcDbLine
 10
984.3611169808299
 20
351.9163551122424
 30
0.0
 11
965.72735387603
 21
351.9163551119425
 31
0.0
  0
LINE
  5
914
330
1F
100
AcDbEntity
  8
RUNDUNGEN
  6
Continuous
 62
     3
100
AcDbLine
 10
960.9948124102301
 20
351.9163551118424
 30
0.0
 11
945.7273538767299
 21
351.9163551115424
 31
0.0
  0
LINE
  5
915
330
1F
100
AcDbEntity
  8
RUNDUNGEN
  6
Continuous
 62
     3
100
AcDbLine
 10
940.9948124095299
 20
351.9163551114425
 30
0.0
 11
867.09099239383
 21
351.9163551101425
 31
0.0
  0
LINE
  5
916
330
1F
100
AcDbEntity
  8
RUNDUNGEN
  6
Continuous
 62
     3
100
AcDbLine
 10
866.1039688405299
 20
351.9163551101425
 30
0.0
 11
859.2364469393299
 21
351.9163551100425
 31
0.0
  0
LINE
  5
917
330
1F
100
AcDbEntity
  8
RUNDUNGEN
  6
Continuous
 62
     3
100
AcDbLine
 10
858.24942338593
 20
351.9163551099425
 30
0.0
 11
851.38190148473
 21
351.9163551098425
 31
0.0
  0
LINE
  5
918
330
1F
100
AcDbEntity
  8
RUNDUNGEN
  6
Continuous
 62
     3
100
AcDbLine
 10
850.3948779314299
 20
351.9163551098425
 30
0.0
 11
844.569363063958
 21
351.9163551097315
 31
0.0
  0
LINE
  5
919
330
1F
100
AcDbEntity
  8
RUNDUNGEN
  6
Continuous
 62
     3
100
AcDbLine
 10
844.569363063958
 20
351.9163551125966
 30
0.0
 11
647.36090271133
 21
351.9163551088425
 31
0.0
  0
LINE
  5
91A
330
1F
100
AcDbEntity
  8
RUNDUNGEN
  6
Continuous
 62
     3
100
AcDbLine
 10
441.36133125593
 20
351.9163551156424
 30
0.0
 11
278.8163965821268
 21
351.9163551126798
 31
0.0
  0
LINE
  5
91B
330
1F
100
AcDbEntity
  8
RUNDUNGEN
  6
Continuous
 62
     3
100
AcDbLine
 10
278.8163965821268
 20
351.9163551154229
 30
0.0
 11
104.36111698083
 21
351.9163551122424
 31
0.0
  0
LINE
  5
91C
330
1F
100
AcDbEntity
  8
RUNDUNGEN
  6
Continuous
 62
     9
100
AcDbLine
 10
102.36111698083
 20
352.6985871263424
 30
0.0
 11
104.36111698083
 21
352.6985871263424
 31
0.0
  0
LINE
  5
91D
330
1F
100
AcDbEntity
  8
RUNDUNGEN
  6
Continuous
 62
     9
100
AcDbLine
 10
984.3611169808299
 20
352.6985871263424
 30
0.0
 11
986.3611169808301
 21
352.6985871263424
 31
0.0
  0
LINE
  5
91E
330
1F
100
AcDbEntity
  8
FASEN
  6
Continuous
 62
     7
100
AcDbLine
 10
117.8611169808298
 20
349.4155470612425
 30
0.0
 11
115.36111698083
 21
349.5572790301425
 31
0.0
  0
LINE
  5
91F
330
1F
100
AcDbEntity
  8
FASEN
  6
Continuous
 62
     3
100
AcDbLine
 10
115.36111698083
 20
350.5556707006424
 30
0.0
 11
117.8611169808298
 21
350.4139387317425
 31
0.0
  0
LINE
  5
920
330
1F
100
AcDbEntity
  8
FASEN
  6
Continuous
 62
     3
100
AcDbLine
 10
117.8611169808298
 20
351.5194480892425
 30
0.0
 11
115.36111698083
 21
351.3777161203425
 31
0.0
  0
LINE
  5
921
330
1F
100
AcDbEntity
  8
RUNDUNGEN
  6
Continuous
 62
     9
100
AcDbLine
 10
617.36111698083
 20
353.6134400665425
 30
0.0
 11
471.36111698083
 21
353.6134400665425
 31
0.0
  0
LINE
  5
922
330
1F
100
AcDbEntity
  8
0
  6
Continuous
 62
     9
100
AcDbLine
 10
984.3611169808299
 20
353.6831011807424
 30
0.0
 11
844.569363063958
 21
353.6831011807424
 31
0.0
  0
LINE
  5
923
330
1F
100
AcDbEntity
  8
0
  6
Continuous
 62
     9
100
AcDbLine
 10
844.5693630639578
 20
353.6831011807422
 30
0.0
 11
278.8163965821268
 21
353.6831011807425
 31
0.0
  0
LINE
  5
924
330
1F
100
AcDbEntity
  8
0
  6
Continuous
 62
     9
100
AcDbLine
 10
278.8163965821268
 20
353.6831011807425
 30
0.0
 11
104.36111698083
 21
353.6831011807424
 31
0.0
  0
LINE
  5
925
330
1F
100
AcDbEntity
  8
0
  6
Continuous
 62
     7
100
AcDbLine
 10
71.86111698083005
 20
354.9350577166424
 30
0.0
 11
102.36111698083
 21
354.9350577166424
 31
0.0
  0
LINE
  5
926
330
1F
100
AcDbEntity
  8
0
  6
Continuous
 62
     7
100
AcDbLine
 10
986.3611169808301
 20
354.9350577166424
 30
0.0
 11
1016.86111698083
 21
354.9350577166424
 31
0.0
  0
LINE
  5
927
330
1F
100
AcDbEntity
  8
0
  6
Continuous
 62
     9
100
AcDbLine
 10
984.3611169808299
 20
355.6798845218425
 30
0.0
 11
844.569363063958
 21
355.6798845218425
 31
0.0
  0
LINE
  5
928
330
1F
100
AcDbEntity
  8
0
  6
Continuous
 62
     9
100
AcDbLine
 10
844.5693630639578
 20
355.6798845218424
 30
0.0
 11
278.8163965821268
 21
355.6798845218425
 31
0.0
  0
LINE
  5
929
330
1F
100
AcDbEntity
  8
0
  6
Continuous
 62
     9
100
AcDbLine
 10
278.8163965821268
 20
355.6798845218425
 30
0.0
 11
104.36111698083
 21
355.6798845218425
 31
0.0
  0
LINE
  5
92A
330
1F
100
AcDbEntity
  8
RUNDUNGEN
  6
Continuous
 62
     7
100
AcDbLine
 10
1016.86111698083
 20
356.9350577166424
 30
0.0
 11
984.3611169808299
 21
356.9350577166424
 31
0.0
  0
LINE
  5
92B
330
1F
100
AcDbEntity
  8
0
  6
Continuous
 62
     3
100
AcDbLine
 10
984.3611169808299
 20
356.9350577166424
 30
0.0
 11
844.569363063958
 21
356.9350577166424
 31
0.0
  0
LINE
  5
92C
330
1F
100
AcDbEntity
  8
0
  6
Continuous
 62
     3
100
AcDbLine
 10
844.5693630639578
 20
356.9350577166424
 30
0.0
 11
278.8163965821268
 21
356.9350577166423
 31
0.0
  0
LINE
  5
92D
330
1F
100
AcDbEntity
  8
0
  6
Continuous
 62
     3
100
AcDbLine
 10
278.8163965821268
 20
356.9350577166424
 30
0.0
 11
104.36111698083
 21
356.9350577166424
 31
0.0
  0
LINE
  5
92E
330
1F
100
AcDbEntity
  8
RUNDUNGEN
  6
Continuous
 62
     7
100
AcDbLine
 10
104.36111698083
 20
356.9350577166424
 30
0.0
 11
71.86111698083005
 21
356.9350577166424
 31
0.0
  0
LINE
  5
92F
330
1F
100
AcDbEntity
  8
RUNDUNGEN
  6
Continuous
 62
     7
100
AcDbLine
 10
984.3611169808299
 20
357.9350577166424
 30
0.0
 11
1016.86111698083
 21
357.9350577166424
 31
0.0
  0
LINE
  5
930
330
1F
100
AcDbEntity
  8
0
  6
Continuous
 62
     7
100
AcDbLine
 10
984.3611169808299
 20
357.9350577166424
 30
0.0
 11
844.569363063958
 21
357.9350577166424
 31
0.0
  0
LINE
  5
931
330
1F
100
AcDbEntity
  8
0
  6
Continuous
 62
     7
100
AcDbLine
 10
844.5693630639578
 20
357.9350577166423
 30
0.0
 11
278.8163965821268
 21
357.9350577166424
 31
0.0
  0
LINE
  5
932
330
1F
100
AcDbEntity
  8
0
  6
Continuous
 62
     7
100
AcDbLine
 10
278.8163965821268
 20
357.9350577166424
 30
0.0
 11
104.36111698083
 21
357.9350577166424
 31
0.0
  0
LINE
  5
933
330
1F
100
AcDbEntity
  8
RUNDUNGEN
  6
Continuous
 62
     7
100
AcDbLine
 10
104.36111698083
 20
357.9350577166424
 30
0.0
 11
71.86111698083005
 21
357.9350577166424
 31
0.0
  0
LINE
  5
934
330
1F
100
AcDbEntity
  8
0
  6
Continuous
 62
     9
100
AcDbLine
 10
984.3611169808299
 20
358.9350577166424
 30
0.0
 11
844.569363063958
 21
358.9350577166424
 31
0.0
  0
LINE
  5
935
330
1F
100
AcDbEntity
  8
0
  6
Continuous
 62
     9
100
AcDbLine
 10
844.5693630639578
 20
358.9350577166424
 30
0.0
 11
278.8163965821268
 21
358.9350577166424
 31
0.0
  0
LINE
  5
936
330
1F
100
AcDbEntity
  8
0
  6
Continuous
 62
     9
100
AcDbLine
 10
278.8163965821268
 20
358.9350577166424
 30
0.0
 11
104.36111698083
 21
358.9350577166424
 31
0.0
  0
LINE
  5
937
330
1F
100
AcDbEntity
  8
0
  6
Continuous
 62
     9
100
AcDbLine
 10
984.3611169808299
 20
368.4350577166425
 30
0.0
 11
844.569363063958
 21
368.4350577166425
 31
0.0
  0
LINE
  5
938
330
1F
100
AcDbEntity
  8
0
  6
Continuous
 62
     9
100
AcDbLine
 10
844.5693630639578
 20
368.4350577166424
 30
0.0
 11
278.8163965821268
 21
368.4350577166424
 31
0.0
  0
LINE
  5
939
330
1F
100
AcDbEntity
  8
0
  6
Continuous
 62
     9
100
AcDbLine
 10
278.8163965821268
 20
368.4350577166425
 30
0.0
 11
104.36111698083
 21
368.4350577166425
 31
0.0
  0
LINE
  5
93A
330
1F
100
AcDbEntity
  8
0
  6
Continuous
 62
     7
100
AcDbLine
 10
984.3611169808299
 20
369.9350577166425
 30
0.0
 11
844.569363063958
 21
369.9350577166425
 31
0.0
  0
LINE
  5
93B
330
1F
100
AcDbEntity
  8
0
  6
Continuous
 62
     7
100
AcDbLine
 10
844.5693630639578
 20
369.9350577166424
 30
0.0
 11
278.8163965821268
 21
369.9350577166424
 31
0.0
  0
LINE
  5
93C
330
1F
100
AcDbEntity
  8
0
  6
Continuous
 62
     7
100
AcDbLine
 10
278.8163965821268
 20
369.9350577166425
 30
0.0
 11
104.36111698083
 21
369.9350577166425
 31
0.0
  0
LINE
  5
93D
330
1F
100
AcDbEntity
  8
0
  6
Continuous
 62
     9
100
AcDbLine
 10
104.2111169808299
 20
370.9350577166425
 30
0.0
 11
278.8163965821268
 21
370.9350577166425
 31
0.0
  0
LINE
  5
93E
330
1F
100
AcDbEntity
  8
0
  6
Continuous
 62
     9
100
AcDbLine
 10
278.8163965821268
 20
370.9350577166425
 30
0.0
 11
844.5693630639578
 21
370.9350577166424
 31
0.0
  0
LINE
  5
93F
330
1F
100
AcDbEntity
  8
0
  6
Continuous
 62
     9
100
AcDbLine
 10
844.569363063958
 20
370.9350577166425
 30
0.0
 11
984.51111698083
 21
370.9350577166425
 31
0.0
  0
LINE
  5
940
330
1F
100
AcDbEntity
  8
FASEN
  6
Continuous
 62
     7
100
AcDbLine
 10
973.36111698083
 20
350.3793244497424
 30
0.0
 11
970.86111698083
 21
350.5210564187424
 31
0.0
  0
LINE
  5
941
330
1F
100
AcDbEntity
  8
FASEN
  6
Continuous
 62
     3
100
AcDbLine
 10
970.86111698083
 20
351.5194480892425
 30
0.0
 11
973.36111698083
 21
351.3777161203425
 31
0.0
  0
LINE
  5
942
330
1F
100
AcDbEntity
  8
FASEN
  6
Continuous
 62
     3
100
AcDbLine
 10
846.8377390366301
 20
350.8630839869425
 30
0.0
 11
849.26043321303
 21
351.6207135148424
 31
0.0
  0
LINE
  5
943
330
1F
100
AcDbEntity
  8
FASEN
  6
Continuous
 62
     7
100
AcDbLine
 10
849.5071891013299
 20
350.6531944404425
 30
0.0
 11
847.0844949249299
 21
349.8955649125425
 31
0.0
  0
LINE
  5
944
330
1F
100
AcDbEntity
  8
0
  6
Continuous
 62
     7
100
AcDbLine
 10
237.5870883652301
 20
349.8360837341425
 30
0.0
 11
234.40008330293
 21
349.0258829844425
 31
0.0
  0
LINE
  5
945
330
1F
100
AcDbEntity
  8
0
  6
Continuous
 62
     3
100
AcDbLine
 10
237.3403324768301
 20
350.8036028085424
 30
0.0
 11
234.15332741463
 21
349.9934020588424
 31
0.0
  0
LINE
  5
946
330
1F
100
AcDbEntity
  8
0
  6
Continuous
 62
     7
100
AcDbLine
 10
229.73254291063
 20
349.8360837341425
 30
0.0
 11
226.5455378483302
 21
349.0258829844425
 31
0.0
  0
LINE
  5
947
330
1F
100
AcDbEntity
  8
0
  6
Continuous
 62
     3
100
AcDbLine
 10
237.3403324768301
 20
351.9091121660424
 30
0.0
 11
234.15332741463
 21
351.0989114162425
 31
0.0
  0
LINE
  5
948
330
1F
100
AcDbEntity
  8
0
  6
Continuous
 62
     3
100
AcDbLine
 10
229.48578702233
 20
350.8036028085424
 30
0.0
 11
226.2987819600298
 21
349.9934020588424
 31
0.0
  0
LINE
  5
949
330
1F
100
AcDbEntity
  8
0
  6
Continuous
 62
     7
100
AcDbLine
 10
221.8779974561298
 20
349.8360837341425
 30
0.0
 11
220.46665555663
 21
349.4772922535425
 31
0.0
  0
LINE
  5
94A
330
1F
100
AcDbEntity
  8
0
  6
Continuous
 62
     3
100
AcDbLine
 10
229.48578702233
 20
351.9091121660424
 30
0.0
 11
226.2987819600298
 21
351.0989114162425
 31
0.0
  0
LINE
  5
94B
330
1F
100
AcDbEntity
  8
0
  6
Continuous
 62
     3
100
AcDbLine
 10
221.6312415677298
 20
350.8036028085424
 30
0.0
 11
220.21989966823
 21
350.4448113279425
 31
0.0
  0
LINE
  5
94C
330
1F
100
AcDbEntity
  8
0
  6
Continuous
 62
     3
100
AcDbLine
 10
221.6312415677298
 20
351.9091121660424
 30
0.0
 11
220.21989966823
 21
351.5503206854424
 31
0.0
  0
LINE
  5
94D
330
1F
100
AcDbEntity
  8
0
  6
Continuous
 62
     7
100
AcDbLine
 10
851.13514559643
 20
349.8360837341425
 30
0.0
 11
854.3221506586299
 21
349.0258829844425
 31
0.0
  0
LINE
  5
94E
330
1F
100
AcDbEntity
  8
0
  6
Continuous
 62
     7
100
AcDbLine
 10
851.13514559643
 20
350.9415930916424
 30
0.0
 11
854.3221506586299
 21
350.1313923418424
 31
0.0
  0
LINE
  5
94F
330
1F
100
AcDbEntity
  8
0
  6
Continuous
 62
     7
100
AcDbLine
 10
858.9896910509299
 20
349.8360837341425
 30
0.0
 11
862.17669611323
 21
349.0258829844425
 31
0.0
  0
LINE
  5
950
330
1F
100
AcDbEntity
  8
0
  6
Continuous
 62
     3
100
AcDbLine
 10
851.38190148473
 20
351.9091121660424
 30
0.0
 11
854.56890654703
 21
351.0989114162425
 31
0.0
  0
LINE
  5
951
330
1F
100
AcDbEntity
  8
0
  6
Continuous
 62
     7
100
AcDbLine
 10
858.9896910509299
 20
350.9415930916424
 30
0.0
 11
862.17669611323
 21
350.1313923418424
 31
0.0
  0
LINE
  5
952
330
1F
100
AcDbEntity
  8
0
  6
Continuous
 62
     7
100
AcDbLine
 10
866.84423650553
 20
349.8360837341425
 30
0.0
 11
868.2555784050299
 21
349.4772922535425
 31
0.0
  0
LINE
  5
953
330
1F
100
AcDbEntity
  8
0
  6
Continuous
 62
     3
100
AcDbLine
 10
859.2364469393299
 20
351.9091121660424
 30
0.0
 11
862.4234520015299
 21
351.0989114162425
 31
0.0
  0
LINE
  5
954
330
1F
100
AcDbEntity
  8
0
  6
Continuous
 62
     7
100
AcDbLine
 10
866.84423650553
 20
350.9415930916424
 30
0.0
 11
868.2555784050299
 21
350.5828016110424
 31
0.0
  0
LINE
  5
955
330
1F
100
AcDbEntity
  8
0
  6
Continuous
 62
     3
100
AcDbLine
 10
867.09099239383
 20
351.9091121660424
 30
0.0
 11
868.50233429333
 21
351.5503206854424
 31
0.0
  0
LINE
  5
956
330
1F
100
AcDbEntity
  8
0
  6
Continuous
 62
     7
100
AcDbLine
 10
81.86111698083005
 20
399.9350577166424
 30
0.0
 11
278.8163965821268
 21
399.9350577166424
 31
0.0
  0
LINE
  5
957
330
1F
100
AcDbEntity
  8
0
  6
Continuous
 62
     7
100
AcDbLine
 10
278.8163965821268
 20
399.9350577166424
 30
0.0
 11
844.5693630639578
 21
399.9350577166424
 31
0.0
  0
LINE
  5
958
330
1F
100
AcDbEntity
  8
0
  6
Continuous
 62
     7
100
AcDbLine
 10
844.569363063958
 20
399.9350577166424
 30
0.0
 11
1006.86111698083
 21
399.9350577166424
 31
0.0
  0
LINE
  5
959
330
1F
100
AcDbEntity
  8
RUNDUNGEN
  6
Continuous
 62
     9
100
AcDbLine
 10
617.36111698083
 20
353.6134400665425
 30
0.0
 11
617.3610691498301
 21
347.9179660314425
 31
0.0
  0
LINE
  5
95A
330
1F
100
AcDbEntity
  8
RUNDUNGEN
  6
Continuous
 62
     9
100
AcDbLine
 10
617.36111698083
 20
302.7350577166425
 30
0.0
 11
617.36111698083
 21
314.7350577166425
 31
0.0
  0
LINE
  5
95B
330
1F
100
AcDbEntity
  8
0
  6
Continuous
 62
     9
100
AcDbLine
 10
617.36111698083
 20
314.7350577166425
 30
0.0
 11
617.36111698083
 21
347.9179660326424
 31
0.0
  0
LINE
  5
95C
330
1F
100
AcDbEntity
  8
0
  6
Continuous
 62
     3
100
AcDbLine
 10
645.36111698083
 20
347.9179660326424
 30
0.0
 11
645.36111698083
 21
349.9131332716424
 31
0.0
  0
LINE
  5
95D
330
1F
100
AcDbEntity
  8
0
  6
Continuous
 62
     7
100
AcDbLine
 10
646.4611169808299
 20
314.7350577166425
 30
0.0
 11
646.4611169808299
 21
347.9179660326424
 31
0.0
  0
LINE
  5
95E
330
1F
100
AcDbEntity
  8
BEZUGSACHSEN
  6
Continuous
 62
     3
100
AcDbLine
 10
943.3611169808299
 20
352.4975606387425
 30
0.0
 11
942.77778100253
 21
352.1887140413424
 31
0.0
  0
LINE
  5
95F
330
1F
100
AcDbEntity
  8
BEZUGSACHSEN
  6
Continuous
 62
     3
100
AcDbLine
 10
962.77778100253
 20
352.1887140413424
 30
0.0
 11
963.36111698083
 21
352.4975606387425
 31
0.0
  0
LINE
  5
960
330
1F
100
AcDbEntity
  8
BEZUGSACHSEN
  6
Continuous
 62
     3
100
AcDbLine
 10
943.3611169808299
 20
352.4975606387425
 30
0.0
 11
943.94457347043
 21
352.1886502367424
 31
0.0
  0
LINE
  5
961
330
1F
100
AcDbEntity
  8
BEZUGSACHSEN
  6
Continuous
 62
     3
100
AcDbLine
 10
963.9445734704299
 20
352.1886502367424
 30
0.0
 11
963.36111698083
 21
352.4975606387425
 31
0.0
  0
LINE
  5
962
330
1F
100
AcDbEntity
  8
FASEN
  6
Continuous
 62
     3
100
AcDbLine
 10
846.8377390366301
 20
350.8630839869425
 30
0.0
 11
846.8377390366301
 21
350.0410385673424
 31
0.0
  0
LINE
  5
963
330
1F
100
AcDbEntity
  8
FASEN
  6
Continuous
 62
     7
100
AcDbLine
 10
847.0844949249299
 20
349.8955649125425
 30
0.0
 11
847.0844949249299
 21
349.0735194929424
 31
0.0
  0
LINE
  5
964
330
1F
100
AcDbEntity
  8
0
  6
Continuous
 62
     9
100
AcDbLine
 10
851.38190148473
 20
351.9091121660424
 30
0.0
 11
851.13514559643
 21
350.9415930916424
 31
0.0
  0
LINE
  5
965
330
1F
100
AcDbEntity
  8
0
  6
Continuous
 62
     9
100
AcDbLine
 10
854.56890654703
 20
351.0989114162425
 30
0.0
 11
854.3221506586299
 21
350.1313923418424
 31
0.0
  0
LINE
  5
966
330
1F
100
AcDbEntity
  8
FASEN
  6
Continuous
 62
     7
100
AcDbLine
 10
847.0844949249299
 20
349.0735194929424
 30
0.0
 11
846.8377390366301
 21
350.0410385673424
 31
0.0
  0
LINE
  5
967
330
1F
100
AcDbEntity
  8
FASEN
  6
Continuous
 62
     7
100
AcDbLine
 10
847.0844949249299
 20
349.8955649125425
 30
0.0
 11
846.8377390366301
 21
350.8630839869425
 31
0.0
  0
LINE
  5
968
330
1F
100
AcDbEntity
  8
FASEN
  6
Continuous
 62
     7
100
AcDbLine
 10
849.5071891013299
 20
350.6531944404425
 30
0.0
 11
849.26043321303
 21
351.6207135148424
 31
0.0
  0
LINE
  5
969
330
1F
100
AcDbEntity
  8
0
  6
Continuous
 62
     9
100
AcDbLine
 10
850.3948779314299
 20
351.9091121660424
 30
0.0
 11
850.6416338197301
 21
350.9415930916424
 31
0.0
  0
LINE
  5
96A
330
1F
100
AcDbEntity
  8
0
  6
Continuous
 62
     9
100
AcDbLine
 10
850.6416338197301
 20
350.9415930916424
 30
0.0
 11
850.6416338197301
 21
349.8360837341425
 31
0.0
  0
LINE
  5
96B
330
1F
100
AcDbEntity
  8
0
  6
Continuous
 62
     9
100
AcDbLine
 10
851.13514559643
 20
350.9415930916424
 30
0.0
 11
851.13514559643
 21
349.8360837341425
 31
0.0
  0
LINE
  5
96C
330
1F
100
AcDbEntity
  8
0
  6
Continuous
 62
     9
100
AcDbLine
 10
854.3221506586299
 20
350.1313923418424
 30
0.0
 11
854.3221506586299
 21
349.0258829844425
 31
0.0
  0
LINE
  5
96D
330
1F
100
AcDbEntity
  8
0
  6
Continuous
 62
     9
100
AcDbLine
 10
855.3091742120299
 20
350.1313923418424
 30
0.0
 11
855.3091742120299
 21
349.0258829844425
 31
0.0
  0
LINE
  5
96E
330
1F
100
AcDbEntity
  8
0
  6
Continuous
 62
     9
100
AcDbLine
 10
858.49617927423
 20
350.9415930916424
 30
0.0
 11
858.49617927423
 21
349.8360837341425
 31
0.0
  0
LINE
  5
96F
330
1F
100
AcDbEntity
  8
0
  6
Continuous
 62
     9
100
AcDbLine
 10
858.9896910509299
 20
350.9415930916424
 30
0.0
 11
858.9896910509299
 21
349.8360837341425
 31
0.0
  0
LINE
  5
970
330
1F
100
AcDbEntity
  8
0
  6
Continuous
 62
     9
100
AcDbLine
 10
862.17669611323
 20
350.1313923418424
 30
0.0
 11
862.17669611323
 21
349.0258829844425
 31
0.0
  0
LINE
  5
971
330
1F
100
AcDbEntity
  8
0
  6
Continuous
 62
     9
100
AcDbLine
 10
863.1637196665298
 20
350.1313923418424
 30
0.0
 11
863.1637196665298
 21
349.0258829844425
 31
0.0
  0
LINE
  5
972
330
1F
100
AcDbEntity
  8
0
  6
Continuous
 62
     9
100
AcDbLine
 10
866.3507247288301
 20
350.9415930916424
 30
0.0
 11
866.3507247288301
 21
349.8360837341425
 31
0.0
  0
LINE
  5
973
330
1F
100
AcDbEntity
  8
0
  6
Continuous
 62
     9
100
AcDbLine
 10
866.84423650553
 20
350.9415930916424
 30
0.0
 11
866.84423650553
 21
349.8360837341425
 31
0.0
  0
LINE
  5
974
330
1F
100
AcDbEntity
  8
0
  6
Continuous
 62
     9
100
AcDbLine
 10
868.2555784050299
 20
350.5828016110424
 30
0.0
 11
868.2555784050299
 21
349.4772922535425
 31
0.0
  0
LINE
  5
975
330
1F
100
AcDbEntity
  8
0
  6
Continuous
 62
     9
100
AcDbLine
 10
868.74909018163
 20
351.5194480892425
 30
0.0
 11
868.74909018163
 21
349.4155470612425
 31
0.0
  0
LINE
  5
976
330
1F
100
AcDbEntity
  8
0
  6
Continuous
 62
     9
100
AcDbLine
 10
859.2364469393299
 20
351.9091121660424
 30
0.0
 11
858.9896910509299
 21
350.9415930916424
 31
0.0
  0
LINE
  5
977
330
1F
100
AcDbEntity
  8
0
  6
Continuous
 62
     9
100
AcDbLine
 10
862.4234520015299
 20
351.0989114162425
 30
0.0
 11
862.17669611323
 21
350.1313923418424
 31
0.0
  0
LINE
  5
978
330
1F
100
AcDbEntity
  8
0
  6
Continuous
 62
     9
100
AcDbLine
 10
867.09099239383
 20
351.9091121660424
 30
0.0
 11
866.84423650553
 21
350.9415930916424
 31
0.0
  0
LINE
  5
979
330
1F
100
AcDbEntity
  8
0
  6
Continuous
 62
     9
100
AcDbLine
 10
868.50233429333
 20
351.5503206854424
 30
0.0
 11
868.2555784050299
 21
350.5828016110424
 31
0.0
  0
LINE
  5
97A
330
1F
100
AcDbEntity
  8
0
  6
Continuous
 62
     9
100
AcDbLine
 10
855.0624183236299
 20
351.0989114162425
 30
0.0
 11
855.3091742120299
 21
350.1313923418424
 31
0.0
  0
LINE
  5
97B
330
1F
100
AcDbEntity
  8
0
  6
Continuous
 62
     9
100
AcDbLine
 10
858.24942338593
 20
351.9091121660424
 30
0.0
 11
858.49617927423
 21
350.9415930916424
 31
0.0
  0
LINE
  5
97C
330
1F
100
AcDbEntity
  8
0
  6
Continuous
 62
     9
100
AcDbLine
 10
862.9169637782299
 20
351.0989114162425
 30
0.0
 11
863.1637196665298
 21
350.1313923418424
 31
0.0
  0
LINE
  5
97D
330
1F
100
AcDbEntity
  8
0
  6
Continuous
 62
     9
100
AcDbLine
 10
866.1039688405299
 20
351.9091121660424
 30
0.0
 11
866.3507247288301
 21
350.9415930916424
 31
0.0
  0
LINE
  5
97E
330
1F
100
AcDbEntity
  8
0
  6
Continuous
 62
     7
100
AcDbLine
 10
927.11111698083
 20
350.0746007166424
 30
0.0
 11
927.11111698083
 21
349.8620027632425
 31
0.0
  0
LINE
  5
97F
330
1F
100
AcDbEntity
  8
0
  6
Continuous
 62
     7
100
AcDbLine
 10
928.3611169808301
 20
349.8620027632425
 30
0.0
 11
928.3611169808301
 21
350.0746007166424
 31
0.0
  0
LINE
  5
980
330
1F
100
AcDbEntity
  8
BEZUGSACHSEN
  6
Continuous
 62
     7
100
AcDbLine
 10
940.8611169808301
 20
349.8265697710425
 30
0.0
 11
940.8611169808301
 21
350.1100337088425
 31
0.0
  0
LINE
  5
981
330
1F
100
AcDbEntity
  8
BEZUGSACHSEN
  6
Continuous
 62
     7
100
AcDbLine
 10
945.86111698083
 20
350.1100337088425
 30
0.0
 11
945.86111698083
 21
349.8265697710425
 31
0.0
  0
LINE
  5
982
330
1F
100
AcDbEntity
  8
BEZUGSACHSEN
  6
Continuous
 62
     7
100
AcDbLine
 10
960.86111698083
 20
349.8265697710425
 30
0.0
 11
960.86111698083
 21
350.1100337088425
 31
0.0
  0
LINE
  5
983
330
1F
100
AcDbEntity
  8
BEZUGSACHSEN
  6
Continuous
 62
     7
100
AcDbLine
 10
965.8611169808301
 20
350.1100337088425
 30
0.0
 11
965.8611169808301
 21
349.8265697710425
 31
0.0
  0
LINE
  5
984
330
1F
100
AcDbEntity
  8
FASEN
  6
Continuous
 62
     7
100
AcDbLine
 10
970.86111698083
 20
350.5210564187424
 30
0.0
 11
970.86111698083
 21
351.5194480892425
 31
0.0
  0
LINE
  5
985
330
1F
100
AcDbEntity
  8
FASEN
  6
Continuous
 62
     7
100
AcDbLine
 10
973.36111698083
 20
349.5572790301425
 30
0.0
 11
973.36111698083
 21
351.3777161203425
 31
0.0
  0
LINE
  5
986
330
1F
100
AcDbEntity
  8
0
  6
Continuous
 62
     7
100
AcDbLine
 10
984.3611169808299
 20
370.8169794644425
 30
0.0
 11
984.3611169808299
 21
369.0090828652424
 31
0.0
  0
LINE
  5
987
330
1F
100
AcDbEntity
  8
RUNDUNGEN
  6
Continuous
 62
     7
100
AcDbLine
 10
984.3611169808299
 20
348.9350577166424
 30
0.0
 11
984.3611169808299
 21
356.9350577166424
 31
0.0
  0
LINE
  5
988
330
1F
100
AcDbEntity
  8
0
  6
Continuous
 62
     3
100
AcDbLine
 10
984.3611169808299
 20
355.6798845218425
 30
0.0
 11
984.3611169808299
 21
356.9350577166424
 31
0.0
  0
LINE
  5
989
330
1F
100
AcDbEntity
  8
0
  6
Continuous
 62
     7
100
AcDbLine
 10
984.3611169808299
 20
356.9350577166424
 30
0.0
 11
984.3611169808299
 21
368.4350577166425
 31
0.0
  0
LINE
  5
98A
102
{ACAD_REACTORS
330
A72
102
}
330
1F
100
AcDbEntity
  8
RUNDUNGEN
  6
Continuous
 62
     7
100
AcDbLine
 10
984.3611169808299
 20
358.9350577166424
 30
0.0
 11
984.3611169808299
 21
368.9350577166425
 31
0.0
  0
LINE
  5
98B
330
1F
100
AcDbEntity
  8
0
  6
Continuous
 62
     7
100
AcDbLine
 10
984.66111698083
 20
369.6436297491424
 30
0.0
 11
984.66111698083
 21
370.7850577166424
 31
0.0
  0
LINE
  5
98C
330
1F
100
AcDbEntity
  8
RUNDUNGEN
  6
Continuous
 62
     7
100
AcDbLine
 10
986.3611169808301
 20
348.9350577166424
 30
0.0
 11
986.3611169808301
 21
356.9350577166424
 31
0.0
  0
LINE
  5
98D
330
1F
100
AcDbEntity
  8
RUNDUNGEN
  6
Continuous
 62
     7
100
AcDbLine
 10
986.3611169808301
 20
357.9350577166424
 30
0.0
 11
986.3611169808301
 21
368.9350577166425
 31
0.0
  0
LINE
  5
98E
330
1F
100
AcDbEntity
  8
RUNDUNGEN
  6
Continuous
 62
     9
100
AcDbLine
 10
1006.86111698083
 20
357.9350577166424
 30
0.0
 11
1006.86111698083
 21
356.9350577166424
 31
0.0
  0
LINE
  5
98F
330
1F
100
AcDbEntity
  8
RUNDUNGEN
  6
Continuous
 62
     7
100
AcDbLine
 10
1016.86111698083
 20
357.9350577166424
 30
0.0
 11
1016.86111698083
 21
356.9350577166424
 31
0.0
  0
LINE
  5
990
330
1F
100
AcDbEntity
  8
0
  6
Continuous
 62
     7
100
AcDbLine
 10
1016.86111698083
 20
354.9350577166424
 30
0.0
 11
1016.86111698083
 21
356.9350577166424
 31
0.0
  0
LINE
  5
991
102
{ACAD_REACTORS
330
A76
102
}
330
1F
100
AcDbEntity
  8
0
  6
Continuous
 62
     7
100
AcDbLine
 10
1016.86111698083
 20
357.9350577166424
 30
0.0
 11
1016.86111698083
 21
389.9350577166424
 31
0.0
  0
LINE
  5
992
330
1F
100
AcDbEntity
  8
RUNDUNGEN
  6
Continuous
 62
     7
100
AcDbLine
 10
72.36111698083004
 20
206.5989404615425
 30
0.0
 11
72.36111698083004
 21
105.5989404615425
 31
0.0
  0
LINE
  5
993
330
1F
100
AcDbEntity
  8
0
  6
Continuous
 62
     7
100
AcDbLine
 10
72.36111698083004
 20
206.5989404615425
 30
0.0
 11
72.36111698083004
 21
207.5989404615425
 31
0.0
  0
LINE
  5
994
330
1F
100
AcDbEntity
  8
0
  6
Continuous
 62
     9
100
AcDbLine
 10
82.36111698083005
 20
206.5989404615425
 30
0.0
 11
82.36111698083005
 21
207.5989404615425
 31
0.0
  0
LINE
  5
995
330
1F
100
AcDbEntity
  8
RUNDUNGEN
  6
Continuous
 62
     7
100
AcDbLine
 10
102.86111698083
 20
206.5989404615425
 30
0.0
 11
102.86111698083
 21
126.5989404615425
 31
0.0
  0
LINE
  5
996
330
1F
100
AcDbEntity
  8
0
  6
Continuous
 62
     7
100
AcDbLine
 10
104.86111698083
 20
129.5112168741424
 30
0.0
 11
104.86111698083
 21
126.6866640489425
 31
0.0
  0
LINE
  5
997
330
1F
100
AcDbEntity
  8
0
  6
Continuous
 62
     7
100
AcDbLine
 10
104.86111698083
 20
126.5989404615425
 30
0.0
 11
104.86111698083
 21
95.5989404615425
 31
0.0
  0
LINE
  5
998
330
1F
100
AcDbEntity
  8
RUNDUNGEN
  6
Continuous
 62
     7
100
AcDbLine
 10
104.86111698083
 20
126.5989404615425
 30
0.0
 11
104.86111698083
 21
126.6866640489425
 31
0.0
  0
LINE
  5
999
330
1F
100
AcDbEntity
  8
RUNDUNGEN
  6
Continuous
 62
     7
100
AcDbLine
 10
104.86111698083
 20
129.5112168741424
 30
0.0
 11
104.86111698083
 21
193.5989404615425
 31
0.0
  0
LINE
  5
99A
330
1F
100
AcDbEntity
  8
0
  6
Continuous
 62
     7
100
AcDbLine
 10
104.86111698083
 20
193.8668896539425
 30
0.0
 11
104.86111698083
 21
206.5919447547424
 31
0.0
  0
LINE
  5
99B
330
1F
100
AcDbEntity
  8
RUNDUNGEN
  6
Continuous
 62
     9
100
AcDbLine
 10
471.36111698083
 20
191.4288620988425
 30
0.0
 11
471.36111698083
 21
188.5989404615425
 31
0.0
  0
LINE
  5
99C
330
1F
100
AcDbEntity
  8
0
  6
Continuous
 62
     9
100
AcDbLine
 10
471.36111698083
 20
144.4989404615425
 30
0.0
 11
471.36111698083
 21
134.5989404615425
 31
0.0
  0
LINE
  5
99D
330
1F
100
AcDbEntity
  8
RUNDUNGEN
  6
Continuous
 62
     9
100
AcDbLine
 10
471.36111698083
 20
131.7690188242425
 30
0.0
 11
471.36111698083
 21
134.5989404615425
 31
0.0
  0
LINE
  5
99E
330
1F
100
AcDbEntity
  8
0
  6
Continuous
 62
     9
100
AcDbLine
 10
471.36111698083
 20
178.6989404615424
 30
0.0
 11
471.36111698083
 21
188.5989404615425
 31
0.0
  0
LINE
  5
99F
330
1F
100
AcDbEntity
  8
0
  6
Continuous
 62
     7
100
AcDbLine
 10
568.3304417159299
 20
47.49894046154247
 30
0.0
 11
520.3917922457299
 21
47.49894046154247
 31
0.0
  0
LINE
  5
9A0
330
1F
100
AcDbEntity
  8
RUNDUNGEN
  6
Continuous
 62
     9
100
AcDbLine
 10
519.42269315983
 20
52.19919376754251
 30
0.0
 11
569.29954080183
 21
52.19919376754251
 31
0.0
  0
LINE
  5
9A1
330
1F
100
AcDbEntity
  8
RUNDUNGEN
  6
Continuous
 62
     9
100
AcDbLine
 10
519.3608913316302
 20
52.80499200384247
 30
0.0
 11
569.3613426299298
 21
52.80499200384247
 31
0.0
  0
LINE
  5
9A2
330
1F
100
AcDbEntity
  8
0
  6
Continuous
 62
     9
100
AcDbLine
 10
519.81093461823
 20
165.0487327702424
 30
0.0
 11
519.34881720663
 21
164.6572978753424
 31
0.0
  0
LINE
  5
9A3
330
1F
100
AcDbEntity
  8
0
  6
Continuous
 62
     9
100
AcDbLine
 10
519.5887971053298
 20
165.4659325014424
 30
0.0
 11
519.0141172316298
 21
164.9971153657425
 31
0.0
  0
LINE
  5
9A4
330
1F
100
AcDbEntity
  8
RUNDUNGEN
  6
Continuous
 62
     7
100
AcDbLine
 10
519.3608913316302
 20
52.80499200384247
 30
0.0
 11
519.42269315983
 21
52.19919376754251
 31
0.0
  0
LINE
  5
9A5
330
1F
100
AcDbEntity
  8
0
  6
Continuous
 62
     7
100
AcDbLine
 10
519.3608913316302
 20
96.0989404615425
 30
0.0
 11
519.3608913316302
 21
52.80499200384247
 31
0.0
  0
LINE
  5
9A6
330
1F
100
AcDbEntity
  8
RUNDUNGEN
  6
Continuous
 62
     7
100
AcDbLine
 10
983.86111698083
 20
95.5989404615425
 30
0.0
 11
1006.36111698083
 21
95.5989404615425
 31
0.0
  0
LINE
  5
9A7
330
1F
100
AcDbEntity
  8
RUNDUNGEN
  6
Continuous
 62
     7
100
AcDbLine
 10
104.86111698083
 20
95.5989404615425
 30
0.0
 11
82.36111698083005
 21
95.5989404615425
 31
0.0
  0
LINE
  5
9A8
330
1F
100
AcDbEntity
  8
0
  6
Continuous
 62
     7
100
AcDbLine
 10
983.86111698083
 20
96.0989404615425
 30
0.0
 11
844.0693630639581
 21
96.0989404615425
 31
0.0
  0
LINE
  5
9A9
330
1F
100
AcDbEntity
  8
0
  6
Continuous
 62
     7
100
AcDbLine
 10
844.5693630639578
 20
96.09894046154238
 30
0.0
 11
278.8163965821268
 21
96.09894046154238
 31
0.0
  0
LINE
  5
9AA
330
1F
100
AcDbEntity
  8
0
  6
Continuous
 62
     7
100
AcDbLine
 10
279.3163965821268
 20
96.0989404615425
 30
0.0
 11
104.86111698083
 21
96.0989404615425
 31
0.0
  0
LINE
  5
9AB
330
1F
100
AcDbEntity
  8
0
  6
Continuous
 62
     7
100
AcDbLine
 10
519.42269315983
 20
52.19919376754251
 30
0.0
 11
520.3917922457299
 21
47.49894046154247
 31
0.0
  0
LINE
  5
9AC
330
1F
100
AcDbEntity
  8
RUNDUNGEN
  6
Continuous
 62
     7
100
AcDbLine
 10
520.3917922457299
 20
47.49894046154247
 30
0.0
 11
519.42269315983
 21
52.19919376754251
 31
0.0
  0
LINE
  5
9AD
330
1F
100
AcDbEntity
  8
TEIL_STARTBEZUEGE
  6
CENTER
 62
     7
100
AcDbLine
 10
544.36111698083
 20
44.49894046154247
 30
0.0
 11
544.36111698083
 21
162.3598647394424
 31
0.0
  0
LINE
  5
9AE
330
1F
100
AcDbEntity
  8
0
  6
Continuous
 62
     9
100
AcDbLine
 10
563.81093461823
 20
165.0487327702424
 30
0.0
 11
563.3488172066299
 21
164.6572978753424
 31
0.0
  0
LINE
  5
9AF
330
1F
100
AcDbEntity
  8
0
  6
Continuous
 62
     9
100
AcDbLine
 10
563.5887971053298
 20
165.4659325014424
 30
0.0
 11
563.0141172316298
 21
164.9971153657425
 31
0.0
  0
LINE
  5
9B0
330
1F
100
AcDbEntity
  8
0
  6
Continuous
 62
     9
100
AcDbLine
 10
983.86111698083
 20
125.5989404615425
 30
0.0
 11
844.0693630639581
 21
125.5989404615425
 31
0.0
  0
LINE
  5
9B1
330
1F
100
AcDbEntity
  8
0
  6
Continuous
 62
     9
100
AcDbLine
 10
844.5693630639578
 20
125.5989404615424
 30
0.0
 11
278.8163965821268
 21
125.5989404615424
 31
0.0
  0
LINE
  5
9B2
330
1F
100
AcDbEntity
  8
0
  6
Continuous
 62
     9
100
AcDbLine
 10
279.3163965821268
 20
125.5989404615425
 30
0.0
 11
104.86111698083
 21
125.5989404615425
 31
0.0
  0
LINE
  5
9B3
330
1F
100
AcDbEntity
  8
RUNDUNGEN
  6
Continuous
 62
     7
100
AcDbLine
 10
985.86111698083
 20
126.5989404615425
 30
0.0
 11
983.86111698083
 21
126.5989404615425
 31
0.0
  0
LINE
  5
9B4
330
1F
100
AcDbEntity
  8
0
  6
Continuous
 62
     7
100
AcDbLine
 10
983.86111698083
 20
126.5989404615425
 30
0.0
 11
844.0693630639581
 21
126.5989404615425
 31
0.0
  0
LINE
  5
9B5
330
1F
100
AcDbEntity
  8
0
  6
Continuous
 62
     7
100
AcDbLine
 10
844.5693630639578
 20
126.5989404615424
 30
0.0
 11
278.8163965821268
 21
126.5989404615424
 31
0.0
  0
LINE
  5
9B6
330
1F
100
AcDbEntity
  8
0
  6
Continuous
 62
     7
100
AcDbLine
 10
279.3163965821268
 20
126.5989404615425
 30
0.0
 11
104.86111698083
 21
126.5989404615425
 31
0.0
  0
LINE
  5
9B7
330
1F
100
AcDbEntity
  8
RUNDUNGEN
  6
Continuous
 62
     7
100
AcDbLine
 10
104.86111698083
 20
126.5989404615425
 30
0.0
 11
102.86111698083
 21
126.5989404615425
 31
0.0
  0
LINE
  5
9B8
330
1F
100
AcDbEntity
  8
0
  6
Continuous
 62
     7
100
AcDbLine
 10
983.86111698083
 20
129.5989404615425
 30
0.0
 11
844.0693630639581
 21
129.5989404615425
 31
0.0
  0
LINE
  5
9B9
330
1F
100
AcDbEntity
  8
0
  6
Continuous
 62
     7
100
AcDbLine
 10
844.5693630639578
 20
129.5989404615424
 30
0.0
 11
278.8163965821268
 21
129.5989404615424
 31
0.0
  0
LINE
  5
9BA
330
1F
100
AcDbEntity
  8
0
  6
Continuous
 62
     7
100
AcDbLine
 10
279.3163965821268
 20
129.5989404615425
 30
0.0
 11
104.86111698083
 21
129.5989404615425
 31
0.0
  0
LINE
  5
9BB
330
1F
100
AcDbEntity
  8
0
  6
Continuous
 62
     7
100
AcDbLine
 10
569.3613426299298
 20
96.0989404615425
 30
0.0
 11
569.3613426299298
 21
52.80499200384247
 31
0.0
  0
LINE
  5
9BC
330
1F
100
AcDbEntity
  8
RUNDUNGEN
  6
Continuous
 62
     7
100
AcDbLine
 10
569.3613426299298
 20
52.80499200384247
 30
0.0
 11
569.3613426299298
 21
96.0989404615425
 31
0.0
  0
LINE
  5
9BD
330
1F
100
AcDbEntity
  8
0
  6
Continuous
 62
     9
100
AcDbLine
 10
983.86111698083
 20
130.5422476739425
 30
0.0
 11
844.0693630639581
 21
130.5422476739425
 31
0.0
  0
LINE
  5
9BE
330
1F
100
AcDbEntity
  8
0
  6
Continuous
 62
     9
100
AcDbLine
 10
844.5693630639578
 20
130.5422476739424
 30
0.0
 11
278.8163965821268
 21
130.5422476739425
 31
0.0
  0
LINE
  5
9BF
330
1F
100
AcDbEntity
  8
0
  6
Continuous
 62
     9
100
AcDbLine
 10
279.3163965821268
 20
130.5422476739425
 30
0.0
 11
104.86111698083
 21
130.5422476739425
 31
0.0
  0
LINE
  5
9C0
330
1F
100
AcDbEntity
  8
RUNDUNGEN
  6
Continuous
 62
     9
100
AcDbLine
 10
617.36111698083
 20
131.7690188242425
 30
0.0
 11
471.36111698083
 21
131.7690188242425
 31
0.0
  0
LINE
  5
9C1
330
1F
100
AcDbEntity
  8
RUNDUNGEN
  6
Continuous
 62
     7
100
AcDbLine
 10
617.3609843903299
 20
134.5989404615425
 30
0.0
 11
471.3612633278301
 21
134.5989404615425
 31
0.0
  0
LINE
  5
9C2
330
1F
100
AcDbEntity
  8
0
  6
Continuous
 62
     9
100
AcDbLine
 10
617.36111698083
 20
144.4989404615425
 30
0.0
 11
471.36111698083
 21
144.4989404615425
 31
0.0
  0
LINE
  5
9C3
330
1F
100
AcDbEntity
  8
RUNDUNGEN
  6
Continuous
 62
     7
100
AcDbLine
 10
569.3613426299298
 20
52.80499200384247
 30
0.0
 11
569.29954080183
 21
52.19919376754251
 31
0.0
  0
LINE
  5
9C4
330
1F
100
AcDbEntity
  8
RUNDUNGEN
  6
Continuous
 62
     7
100
AcDbLine
 10
568.3304417159299
 20
47.49894046154247
 30
0.0
 11
569.29954080183
 21
52.19919376754251
 31
0.0
  0
LINE
  5
9C5
330
1F
100
AcDbEntity
  8
0
  6
Continuous
 62
     7
100
AcDbLine
 10
569.29954080183
 20
52.19919376754251
 30
0.0
 11
568.3304417159299
 21
47.49894046154247
 31
0.0
  0
LINE
  5
9C6
330
1F
100
AcDbEntity
  8
RUNDUNGEN
  6
Continuous
 62
     7
100
AcDbLine
 10
983.86111698083
 20
161.5989404615425
 30
0.0
 11
844.0693630639581
 21
161.5989403655248
 31
0.0
  0
LINE
  5
9C7
330
1F
100
AcDbEntity
  8
RUNDUNGEN
  6
Continuous
 62
     7
100
AcDbLine
 10
844.5693630639578
 20
161.5989404688976
 30
0.0
 11
647.3606348724299
 21
161.5989403334424
 31
0.0
  0
LINE
  5
9C8
330
1F
100
AcDbEntity
  8
BG_STARTBEZUEGE
  6
CENTER
 62
     7
100
AcDbLine
 10
1019.36111698083
 20
161.5989404615425
 30
0.0
 11
844.0693630639581
 21
161.5989404615425
 31
0.0
  0
LINE
  5
9C9
330
1F
100
AcDbEntity
  8
BG_STARTBEZUEGE
  6
CENTER
 62
     7
100
AcDbLine
 10
644.3611169808291
 20
161.5989473398395
 30
0.0
 11
69.36111698082982
 21
161.5989404615425
 31
0.0
  0
LINE
  5
9CA
330
1F
100
AcDbEntity
  8
RUNDUNGEN
  6
Continuous
 62
     7
100
AcDbLine
 10
441.3615991019301
 20
161.5989405912424
 30
0.0
 11
278.8163965821268
 21
161.5989404782023
 31
0.0
  0
LINE
  5
9CB
330
1F
100
AcDbEntity
  8
RUNDUNGEN
  6
Continuous
 62
     7
100
AcDbLine
 10
279.3163965821268
 20
161.5989405828656
 30
0.0
 11
104.86111698083
 21
161.5989404615425
 31
0.0
  0
LINE
  5
9CC
330
1F
100
AcDbEntity
  8
0
  6
Continuous
 62
     9
100
AcDbLine
 10
471.36111698083
 20
178.6989404615424
 30
0.0
 11
617.36111698083
 21
178.6989404615424
 31
0.0
  0
LINE
  5
9CD
330
1F
100
AcDbEntity
  8
RUNDUNGEN
  6
Continuous
 62
     7
100
AcDbLine
 10
471.36124957123
 20
188.5989404615425
 30
0.0
 11
617.3609706338301
 21
188.5989404615425
 31
0.0
  0
LINE
  5
9CE
330
1F
100
AcDbEntity
  8
RUNDUNGEN
  6
Continuous
 62
     9
100
AcDbLine
 10
471.36111698083
 20
191.4288620988425
 30
0.0
 11
617.36111698083
 21
191.4288620988425
 31
0.0
  0
LINE
  5
9CF
330
1F
100
AcDbEntity
  8
0
  6
Continuous
 62
     9
100
AcDbLine
 10
983.86111698083
 20
192.6556332491425
 30
0.0
 11
844.0693630639581
 21
192.6556332491425
 31
0.0
  0
LINE
  5
9D0
330
1F
100
AcDbEntity
  8
0
  6
Continuous
 62
     9
100
AcDbLine
 10
844.5693630639578
 20
192.6556332491425
 30
0.0
 11
278.8163965821268
 21
192.6556332491424
 31
0.0
  0
LINE
  5
9D1
330
1F
100
AcDbEntity
  8
0
  6
Continuous
 62
     9
100
AcDbLine
 10
279.3163965821268
 20
192.6556332491425
 30
0.0
 11
104.86111698083
 21
192.6556332491425
 31
0.0
  0
LINE
  5
9D2
330
1F
100
AcDbEntity
  8
0
  6
Continuous
 62
     7
100
AcDbLine
 10
983.86111698083
 20
193.5989404615425
 30
0.0
 11
844.0693630639581
 21
193.5989404615425
 31
0.0
  0
LINE
  5
9D3
330
1F
100
AcDbEntity
  8
0
  6
Continuous
 62
     7
100
AcDbLine
 10
844.5693630639578
 20
193.5989404615424
 30
0.0
 11
278.8163965821268
 21
193.5989404615424
 31
0.0
  0
LINE
  5
9D4
330
1F
100
AcDbEntity
  8
0
  6
Continuous
 62
     7
100
AcDbLine
 10
279.3163965821268
 20
193.5989404615425
 30
0.0
 11
104.86111698083
 21
193.5989404615425
 31
0.0
  0
LINE
  5
9D5
330
1F
100
AcDbEntity
  8
0
  6
Continuous
 62
     9
100
AcDbLine
 10
983.86111698083
 20
195.5989404615425
 30
0.0
 11
844.0693630639581
 21
195.5989404615425
 31
0.0
  0
LINE
  5
9D6
330
1F
100
AcDbEntity
  8
0
  6
Continuous
 62
     9
100
AcDbLine
 10
844.5693630639578
 20
195.5989404615424
 30
0.0
 11
278.8163965821268
 21
195.5989404615424
 31
0.0
  0
LINE
  5
9D7
330
1F
100
AcDbEntity
  8
0
  6
Continuous
 62
     9
100
AcDbLine
 10
279.3163965821268
 20
195.5989404615425
 30
0.0
 11
104.86111698083
 21
195.5989404615425
 31
0.0
  0
LINE
  5
9D8
330
1F
100
AcDbEntity
  8
RUNDUNGEN
  6
Continuous
 62
     9
100
AcDbLine
 10
617.36111698083
 20
191.4288620988425
 30
0.0
 11
617.36111698083
 21
188.5989404615425
 31
0.0
  0
LINE
  5
9D9
330
1F
100
AcDbEntity
  8
0
  6
Continuous
 62
     9
100
AcDbLine
 10
617.36111698083
 20
144.4989404615425
 30
0.0
 11
617.36111698083
 21
134.5989404615425
 31
0.0
  0
LINE
  5
9DA
330
1F
100
AcDbEntity
  8
RUNDUNGEN
  6
Continuous
 62
     9
100
AcDbLine
 10
617.36111698083
 20
131.7690188242425
 30
0.0
 11
617.36111698083
 21
134.5989404615425
 31
0.0
  0
LINE
  5
9DB
330
1F
100
AcDbEntity
  8
0
  6
Continuous
 62
     9
100
AcDbLine
 10
617.36111698083
 20
178.6989404615424
 30
0.0
 11
617.36111698083
 21
188.5989404615425
 31
0.0
  0
LINE
  5
9DC
330
1F
100
AcDbEntity
  8
0
  6
Continuous
 62
     9
100
AcDbLine
 10
104.86111698083
 20
205.5989404615425
 30
0.0
 11
279.3163965821268
 21
205.5989404615425
 31
0.0
  0
LINE
  5
9DD
330
1F
100
AcDbEntity
  8
0
  6
Continuous
 62
     9
100
AcDbLine
 10
278.8163965821268
 20
205.5989404615426
 30
0.0
 11
844.5693630639578
 21
205.5989404615424
 31
0.0
  0
LINE
  5
9DE
330
1F
100
AcDbEntity
  8
0
  6
Continuous
 62
     9
100
AcDbLine
 10
844.0693630639581
 20
205.5989404615425
 30
0.0
 11
983.86111698083
 21
205.5989404615425
 31
0.0
  0
LINE
  5
9DF
330
1F
100
AcDbEntity
  8
0
  6
Continuous
 62
     7
100
AcDbLine
 10
1016.36111698083
 20
206.5989404615425
 30
0.0
 11
844.0693630639581
 21
206.5989404615425
 31
0.0
  0
LINE
  5
9E0
330
1F
100
AcDbEntity
  8
0
  6
Continuous
 62
     7
100
AcDbLine
 10
844.5693630639578
 20
206.5989404615425
 30
0.0
 11
278.8163965821268
 21
206.5989404615424
 31
0.0
  0
LINE
  5
9E1
330
1F
100
AcDbEntity
  8
0
  6
Continuous
 62
     7
100
AcDbLine
 10
279.3163965821268
 20
206.5989404615425
 30
0.0
 11
72.36111698083004
 21
206.5989404615425
 31
0.0
  0
LINE
  5
9E2
330
1F
100
AcDbEntity
  8
0
  6
Continuous
 62
     3
100
AcDbLine
 10
1016.36111698083
 20
207.5989404615425
 30
0.0
 11
844.0693630639581
 21
207.5989404615425
 31
0.0
  0
LINE
  5
9E3
330
1F
100
AcDbEntity
  8
0
  6
Continuous
 62
     3
100
AcDbLine
 10
844.5693630639578
 20
207.5989404615424
 30
0.0
 11
278.8163965821268
 21
207.5989404615424
 31
0.0
  0
LINE
  5
9E4
330
1F
100
AcDbEntity
  8
0
  6
Continuous
 62
     3
100
AcDbLine
 10
279.3163965821268
 20
207.5989404615425
 30
0.0
 11
72.36111698083004
 21
207.5989404615425
 31
0.0
  0
LINE
  5
9E5
330
1F
100
AcDbEntity
  8
0
  6
Continuous
 62
     7
100
AcDbLine
 10
983.86111698083
 20
206.5919447547424
 30
0.0
 11
983.86111698083
 21
193.8668896539425
 31
0.0
  0
LINE
  5
9E6
330
1F
100
AcDbEntity
  8
RUNDUNGEN
  6
Continuous
 62
     7
100
AcDbLine
 10
983.86111698083
 20
193.8668896539425
 30
0.0
 11
983.86111698083
 21
129.5112168741424
 31
0.0
  0
LINE
  5
9E7
330
1F
100
AcDbEntity
  8
0
  6
Continuous
 62
     7
100
AcDbLine
 10
983.86111698083
 20
129.5112168741424
 30
0.0
 11
983.86111698083
 21
126.6866640489425
 31
0.0
  0
LINE
  5
9E8
330
1F
100
AcDbEntity
  8
RUNDUNGEN
  6
Continuous
 62
     7
100
AcDbLine
 10
983.86111698083
 20
126.6866640489425
 30
0.0
 11
983.86111698083
 21
126.5989404615425
 31
0.0
  0
LINE
  5
9E9
330
1F
100
AcDbEntity
  8
0
  6
Continuous
 62
     7
100
AcDbLine
 10
983.86111698083
 20
126.5989404615425
 30
0.0
 11
983.86111698083
 21
95.5989404615425
 31
0.0
  0
LINE
  5
9EA
330
1F
100
AcDbEntity
  8
RUNDUNGEN
  6
Continuous
 62
     7
100
AcDbLine
 10
985.86111698083
 20
126.5989404615425
 30
0.0
 11
985.86111698083
 21
206.5989404615425
 31
0.0
  0
LINE
  5
9EB
330
1F
100
AcDbEntity
  8
0
  6
Continuous
 62
     9
100
AcDbLine
 10
1006.36111698083
 20
206.5989404615425
 30
0.0
 11
1006.36111698083
 21
207.5989404615425
 31
0.0
  0
LINE
  5
9EC
330
1F
100
AcDbEntity
  8
0
  6
Continuous
 62
     7
100
AcDbLine
 10
1016.36111698083
 20
207.5989404615425
 30
0.0
 11
1016.36111698083
 21
206.5989404615425
 31
0.0
  0
LINE
  5
9ED
330
1F
100
AcDbEntity
  8
RUNDUNGEN
  6
Continuous
 62
     7
100
AcDbLine
 10
1016.36111698083
 20
105.5989404615425
 30
0.0
 11
1016.36111698083
 21
206.5989404615425
 31
0.0
  0
ARC
  5
9EE
330
1F
100
AcDbEntity
  8
RUNDUNGEN
  6
Continuous
 62
     7
100
AcDbCircle
 10
454.2611169808301
 20
314.7350577166425
 30
0.0
 40
12.0
100
AcDbArc
 50
180.0
 51
270.0000017476982
  0
CIRCLE
  5
9EF
330
1F
100
AcDbEntity
  8
FASEN
  6
Continuous
 62
     7
100
AcDbCircle
 10
486.36111698083
 20
327.7350577166425
 30
0.0
 40
4.0
  0
ARC
  5
9F0
330
1F
100
AcDbEntity
  8
FASEN
  6
Continuous
 62
     7
100
AcDbCircle
 10
486.36111698083
 20
327.7350577166425
 30
0.0
 40
3.375
100
AcDbArc
 50
90.0
 51
89.78036400280162
  0
ARC
  5
9F1
330
1F
100
AcDbEntity
  8
0
  6
Continuous
 62
     2
100
AcDbCircle
 10
486.36111698083
 20
327.7350577166425
 30
0.0
 40
3.234999999999998
100
AcDbArc
 50
255.0000000000056
 51
195.0000000000008
  0
ARC
  5
9F2
330
1F
100
AcDbEntity
  8
0
  6
Continuous
 62
     7
100
AcDbCircle
 10
219.97219037583
 20
351.4262896435424
 30
0.0
 40
2.010742808399998
100
AcDbArc
 50
270.0271670921988
 51
284.2357187134043
  0
ARC
  5
9F3
330
1F
100
AcDbEntity
  8
0
  6
Continuous
 62
     7
100
AcDbCircle
 10
226.0520260717299
 20
350.9671358965424
 30
0.0
 40
2.0030019327
100
AcDbArc
 50
255.7362389759988
 51
284.2637610240013
  0
ARC
  5
9F4
330
1F
100
AcDbEntity
  8
0
  6
Continuous
 62
     7
100
AcDbCircle
 10
233.90657152623
 20
350.9671358965424
 30
0.0
 40
2.0030019327
100
AcDbArc
 50
255.7362389759988
 51
284.2637610240013
  0
ARC
  5
9F5
330
1F
100
AcDbEntity
  8
0
  6
Continuous
 62
     3
100
AcDbCircle
 10
222.1247533444302
 20
348.8623498964424
 30
0.0
 40
2.0030019327
100
AcDbArc
 50
75.73623897599874
 51
104.2637610240012
  0
ARC
  5
9F6
330
1F
100
AcDbEntity
  8
0
  6
Continuous
 62
     3
100
AcDbCircle
 10
229.9792987989299
 20
348.8623498964424
 30
0.0
 40
2.0030019327
100
AcDbArc
 50
75.73623897599874
 51
104.2637610240012
  0
ARC
  5
9F7
330
1F
100
AcDbEntity
  8
0
  6
Continuous
 62
     3
100
AcDbCircle
 10
237.8338442535301
 20
348.8623498964424
 30
0.0
 40
2.0030019327
100
AcDbArc
 50
75.73623897599874
 51
104.2637610240012
  0
ARC
  5
9F8
330
1F
100
AcDbEntity
  8
RUNDUNGEN
  6
Continuous
 62
     7
100
AcDbCircle
 10
441.3595596582299
 20
349.9150384313425
 30
0.0
 40
2.001435087499999
100
AcDbArc
 50
359.9454636770987
 51
89.94928094960057
  0
ARC
  5
9F9
330
1F
100
AcDbEntity
  8
BEZUGSACHSEN
  6
Continuous
 62
     9
100
AcDbCircle
 10
143.8604765171298
 20
349.8227343320425
 30
0.0
 40
2.000591840999998
100
AcDbArc
 50
89.98165774360542
 51
149.9355899165007
  0
ARC
  5
9FA
330
1F
100
AcDbEntity
  8
BEZUGSACHSEN
  6
Continuous
 62
     9
100
AcDbCircle
 10
146.8617574539298
 20
349.8227343265424
 30
0.0
 40
2.000591840999998
100
AcDbArc
 50
30.06441035460328
 51
90.01834252760216
  0
ARC
  5
9FB
330
1F
100
AcDbEntity
  8
BEZUGSACHSEN
  6
Continuous
 62
     9
100
AcDbCircle
 10
123.8604765171299
 20
349.8227343320425
 30
0.0
 40
2.000591840999998
100
AcDbArc
 50
89.98165774360542
 51
149.9355899165007
  0
ARC
  5
9FC
330
1F
100
AcDbEntity
  8
BEZUGSACHSEN
  6
Continuous
 62
     9
100
AcDbCircle
 10
126.86175745393
 20
349.8227343265424
 30
0.0
 40
2.000591840999998
100
AcDbArc
 50
30.06441035460328
 51
90.01834252760216
  0
ARC
  5
9FD
330
1F
100
AcDbEntity
  8
BEZUGSACHSEN
  6
Continuous
 62
     9
100
AcDbCircle
 10
146.8631354628301
 20
350.1076864408425
 30
0.0
 40
1.998622092999998
100
AcDbArc
 50
30.04727812159984
 51
65.04985780769512
  0
ARC
  5
9FE
330
1F
100
AcDbEntity
  8
BEZUGSACHSEN
  6
Continuous
 62
     9
100
AcDbCircle
 10
126.8631354628301
 20
350.1076864408425
 30
0.0
 40
1.998622092999998
100
AcDbArc
 50
30.04727812159984
 51
65.04985778390062
  0
ARC
  5
9FF
330
1F
100
AcDbEntity
  8
BEZUGSACHSEN
  6
Continuous
 62
     9
100
AcDbCircle
 10
123.85909849583
 20
350.1076864443425
 30
0.0
 40
1.9986220887
100
AcDbArc
 50
114.9501438395951
 51
149.9527219241035
  0
ARC
  5
A00
330
1F
100
AcDbEntity
  8
BEZUGSACHSEN
  6
Continuous
 62
     9
100
AcDbCircle
 10
143.85909849583
 20
350.1076864443425
 30
0.0
 40
1.9986220887
100
AcDbArc
 50
114.9501438159025
 51
149.9527219241035
  0
ARC
  5
A01
330
1F
100
AcDbEntity
  8
0
  6
Continuous
 62
     3
100
AcDbCircle
 10
222.1228556072301
 20
349.9752662916425
 30
0.0
 40
1.995355664999999
100
AcDbArc
 50
103.2521426962977
 51
104.2633520598041
  0
ARC
  5
A02
330
1F
100
AcDbEntity
  8
0
  6
Continuous
 62
     3
100
AcDbCircle
 10
222.1266510816302
 20
349.9752662916425
 30
0.0
 40
1.995355664999999
100
AcDbArc
 50
75.73664794019588
 51
76.7478573060975
  0
ARC
  5
A03
330
1F
100
AcDbEntity
  8
0
  6
Continuous
 62
     3
100
AcDbCircle
 10
229.9774010619301
 20
349.9752662911425
 30
0.0
 40
1.9953556655
100
AcDbArc
 50
103.2521426763949
 51
104.2633520596967
  0
ARC
  5
A04
330
1F
100
AcDbEntity
  8
0
  6
Continuous
 62
     3
100
AcDbCircle
 10
229.9811965362301
 20
349.9752662919425
 30
0.0
 40
1.995355664699999
100
AcDbArc
 50
75.73664794010108
 51
76.74785732620105
  0
ARC
  5
A05
330
1F
100
AcDbEntity
  8
0
  6
Continuous
 62
     3
100
AcDbCircle
 10
237.83194651643
 20
349.9752662913425
 30
0.0
 40
1.995355665299999
100
AcDbArc
 50
103.2521426563056
 51
104.2633520598041
  0
ARC
  5
A06
330
1F
100
AcDbEntity
  8
0
  6
Continuous
 62
     3
100
AcDbCircle
 10
237.8357419906299
 20
349.9752662914425
 30
0.0
 40
1.9953556652
100
AcDbArc
 50
75.7366479403033
 51
76.74785734610236
  0
ARC
  5
A07
330
1F
100
AcDbEntity
  8
0
  6
Continuous
 62
     3
100
AcDbCircle
 10
219.97266707783
 20
352.5248193804424
 30
0.0
 40
1.005371404199999
100
AcDbArc
 50
270.027167092303
 51
284.2357187134043
  0
ARC
  5
A08
330
1F
100
AcDbEntity
  8
0
  6
Continuous
 62
     3
100
AcDbCircle
 10
219.97266707783
 20
351.4193100229424
 30
0.0
 40
1.005371404199999
100
AcDbArc
 50
270.0271670921988
 51
284.2357187134043
  0
ARC
  5
A09
330
1F
100
AcDbEntity
  8
RUNDUNGEN
  6
Continuous
 62
     7
100
AcDbCircle
 10
103.36111698083
 20
368.9350577166425
 30
0.0
 40
1.0
100
AcDbArc
 50
0.0
 51
180.0
  0
ARC
  5
A0A
330
1F
100
AcDbEntity
  8
0
  6
Continuous
 62
     7
100
AcDbCircle
 10
104.2111169808299
 20
370.7850577166424
 30
0.0
 40
0.15
100
AcDbArc
 50
90.0
 51
180.0
  0
ARC
  5
A0B
330
1F
100
AcDbEntity
  8
0
  6
Continuous
 62
     7
100
AcDbCircle
 10
81.86111698083005
 20
389.9350577166424
 30
0.0
 40
10.0
100
AcDbArc
 50
90.0
 51
180.0
  0
CIRCLE
  5
A0C
330
1F
100
AcDbEntity
  8
RUNDUNGEN
  6
Continuous
 62
     7
100
AcDbCircle
 10
544.36111698083
 20
325.7350577166425
 30
0.0
 40
25.0002256492
  0
CIRCLE
  5
A0D
330
1F
100
AcDbEntity
  8
RUNDUNGEN
  6
Continuous
 62
     9
100
AcDbCircle
 10
544.36111698083
 20
325.7350577166425
 30
0.0
 40
24.938423821
  0
CIRCLE
  5
A0E
330
1F
100
AcDbEntity
  8
0
  6
Continuous
 62
     7
100
AcDbCircle
 10
544.36111698083
 20
325.7350577166425
 30
0.0
 40
23.9693247351
  0
CIRCLE
  5
A0F
330
1F
100
AcDbEntity
  8
0
  6
Continuous
 62
     7
100
AcDbCircle
 10
544.36111698083
 20
325.7350577166425
 30
0.0
 40
22.5002256492
  0
CIRCLE
  5
A10
330
1F
100
AcDbEntity
  8
RUNDUNGEN
  6
Continuous
 62
     9
100
AcDbCircle
 10
544.36111698083
 20
325.7350577166425
 30
0.0
 40
18.7307877184
  0
CIRCLE
  5
A11
330
1F
100
AcDbEntity
  8
RUNDUNGEN
  6
Continuous
 62
     7
100
AcDbCircle
 10
544.36111698083
 20
325.7350577166425
 30
0.0
 40
18.5
  0
ARC
  5
A12
330
1F
100
AcDbEntity
  8
RUNDUNGEN
  6
Continuous
 62
     7
100
AcDbCircle
 10
634.4611169808299
 20
314.7350577166425
 30
0.0
 40
12.0
100
AcDbArc
 50
269.9999982523018
 51
0.0
  0
ARC
  5
A13
330
1F
100
AcDbEntity
  8
0
  6
Continuous
 62
     7
100
AcDbCircle
 10
868.75004358583
 20
351.4262896435424
 30
0.0
 40
2.010742808399998
100
AcDbArc
 50
255.7642812865958
 51
269.9728329078012
  0
ARC
  5
A14
330
1F
100
AcDbEntity
  8
0
  6
Continuous
 62
     7
100
AcDbCircle
 10
868.75004358583
 20
352.5317990010425
 30
0.0
 40
2.010742808399998
100
AcDbArc
 50
255.7642812865958
 51
269.9728329078012
  0
ARC
  5
A15
330
1F
100
AcDbEntity
  8
0
  6
Continuous
 62
     7
100
AcDbCircle
 10
862.6702078899299
 20
350.9671358965424
 30
0.0
 40
2.0030019327
100
AcDbArc
 50
255.7362389759988
 51
284.2637610240013
  0
ARC
  5
A16
330
1F
100
AcDbEntity
  8
0
  6
Continuous
 62
     7
100
AcDbCircle
 10
854.81566243533
 20
350.9671358965424
 30
0.0
 40
2.0030019327
100
AcDbArc
 50
255.7362389759988
 51
284.2637610240013
  0
ARC
  5
A17
330
1F
100
AcDbEntity
  8
0
  6
Continuous
 62
     7
100
AcDbCircle
 10
862.6702078899299
 20
352.0726452539425
 30
0.0
 40
2.0030019327
100
AcDbArc
 50
255.7362389759988
 51
284.2637610240013
  0
ARC
  5
A18
330
1F
100
AcDbEntity
  8
0
  6
Continuous
 62
     7
100
AcDbCircle
 10
854.81566243533
 20
352.0726452539425
 30
0.0
 40
2.0030019327
100
AcDbArc
 50
255.7362389759988
 51
284.2637610240013
  0
ARC
  5
A19
330
1F
100
AcDbEntity
  8
0
  6
Continuous
 62
     3
100
AcDbCircle
 10
866.59748061713
 20
349.9678592539425
 30
0.0
 40
2.0030019327
100
AcDbArc
 50
75.73623897599874
 51
104.2637610240012
  0
ARC
  5
A1A
330
1F
100
AcDbEntity
  8
0
  6
Continuous
 62
     3
100
AcDbCircle
 10
858.7429351626299
 20
349.9678592539425
 30
0.0
 40
2.0030019327
100
AcDbArc
 50
75.73623897599874
 51
104.2637610240012
  0
ARC
  5
A1B
330
1F
100
AcDbEntity
  8
0
  6
Continuous
 62
     3
100
AcDbCircle
 10
850.88838970803
 20
349.9678592539425
 30
0.0
 40
2.0030019327
100
AcDbArc
 50
75.73623897599874
 51
104.2637610240012
  0
ARC
  5
A1C
330
1F
100
AcDbEntity
  8
RUNDUNGEN
  6
Continuous
 62
     7
100
AcDbCircle
 10
647.3626743070298
 20
349.9150384276425
 30
0.0
 40
2.001435087499999
100
AcDbArc
 50
90.0507191557924
 51
180.0545362173976
  0
ARC
  5
A1D
330
1F
100
AcDbEntity
  8
0
  6
Continuous
 62
     3
100
AcDbCircle
 10
868.74956688373
 20
352.5248193804424
 30
0.0
 40
1.005371404199999
100
AcDbArc
 50
255.7642812865958
 51
269.9728329078012
  0
ARC
  5
A1E
330
1F
100
AcDbEntity
  8
BEZUGSACHSEN
  6
Continuous
 62
     9
100
AcDbCircle
 10
961.8652941987299
 20
349.8254048367424
 30
0.0
 40
1.0041778936
100
AcDbArc
 50
161.9292553365961
 51
179.9335318641982
  0
ARC
  5
A1F
330
1F
100
AcDbEntity
  8
BEZUGSACHSEN
  6
Continuous
 62
     9
100
AcDbCircle
 10
941.86529419873
 20
349.8254048367424
 30
0.0
 40
1.0041778936
100
AcDbArc
 50
161.9292553365961
 51
179.9335318641982
  0
ARC
  5
A20
330
1F
100
AcDbEntity
  8
BEZUGSACHSEN
  6
Continuous
 62
     9
100
AcDbCircle
 10
964.8569397921299
 20
349.8254048418425
 30
0.0
 40
1.004177864399999
100
AcDbArc
 50
0.0664678458017864
 51
18.07074658229797
  0
ARC
  5
A21
330
1F
100
AcDbEntity
  8
BEZUGSACHSEN
  6
Continuous
 62
     9
100
AcDbCircle
 10
944.85693979213
 20
349.8254048418425
 30
0.0
 40
1.004177864399999
100
AcDbArc
 50
0.0664678458017864
 51
18.07074658229797
  0
ARC
  5
A22
330
1F
100
AcDbEntity
  8
RUNDUNGEN
  6
Continuous
 62
     7
100
AcDbCircle
 10
985.3611169808301
 20
368.9350577166425
 30
0.0
 40
1.0
100
AcDbArc
 50
0.0
 51
180.0
  0
ARC
  5
A23
330
1F
100
AcDbEntity
  8
0
  6
Continuous
 62
     7
100
AcDbCircle
 10
984.51111698083
 20
370.7850577166424
 30
0.0
 40
0.15
100
AcDbArc
 50
0.0
 51
90.0
  0
ARC
  5
A24
330
1F
100
AcDbEntity
  8
0
  6
Continuous
 62
     7
100
AcDbCircle
 10
1006.86111698083
 20
389.9350577166424
 30
0.0
 40
10.0
100
AcDbArc
 50
0.0
 51
90.0
  0
ARC
  5
A25
330
1F
100
AcDbEntity
  8
RUNDUNGEN
  6
Continuous
 62
     9
100
AcDbCircle
 10
471.3611173635299
 20
161.7690192147424
 30
0.0
 40
30.00000039050001
100
AcDbArc
 50
180.3248279826025
 51
269.999999268998
  0
ARC
  5
A26
330
1F
100
AcDbEntity
  8
RUNDUNGEN
  6
Continuous
 62
     9
100
AcDbCircle
 10
617.3611165980299
 20
161.4288617083424
 30
0.0
 40
30.00000039050001
100
AcDbArc
 50
0.3248279826025074
 51
89.999999268998
  0
ARC
  5
A27
330
1F
100
AcDbEntity
  8
RUNDUNGEN
  6
Continuous
 62
     9
100
AcDbCircle
 10
617.3611169426298
 20
161.7690188568424
 30
0.0
 40
30.0000000326
100
AcDbArc
 50
270.000000072798
 51
359.6751722045999
  0
ARC
  5
A28
330
1F
100
AcDbEntity
  8
RUNDUNGEN
  6
Continuous
 62
     9
100
AcDbCircle
 10
471.3611170189299
 20
161.4288620662424
 30
0.0
 40
30.0000000326
100
AcDbArc
 50
90.00000007279798
 51
179.6751722045999
  0
ARC
  5
A29
330
1F
100
AcDbEntity
  8
RUNDUNGEN
  6
Continuous
 62
     7
100
AcDbCircle
 10
471.36111698083
 20
161.5989404615425
 30
0.0
 40
27.0
100
AcDbArc
 50
89.99971863439776
 51
270.0003105580013
  0
ARC
  5
A2A
330
1F
100
AcDbEntity
  8
RUNDUNGEN
  6
Continuous
 62
     7
100
AcDbCircle
 10
617.36111698083
 20
161.5989404615425
 30
0.0
 40
27.0
100
AcDbArc
 50
269.9997186343978
 51
90.00031055800125
  0
ARC
  5
A2B
330
1F
100
AcDbEntity
  8
0
  6
Continuous
 62
     9
100
AcDbCircle
 10
471.36111698083
 20
161.5989404615425
 30
0.0
 40
17.1
100
AcDbArc
 50
90.0
 51
270.0
  0
ARC
  5
A2C
330
1F
100
AcDbEntity
  8
0
  6
Continuous
 62
     9
100
AcDbCircle
 10
617.36111698083
 20
161.5989404615425
 30
0.0
 40
17.1
100
AcDbArc
 50
270.0
 51
90.0
  0
ARC
  5
A2D
330
1F
100
AcDbEntity
  8
RUNDUNGEN
  6
Continuous
 62
     7
100
AcDbCircle
 10
82.36111698083005
 20
105.5989404615425
 30
0.0
 40
10.0
100
AcDbArc
 50
180.0
 51
270.0
  0
ARC
  5
A2E
330
1F
100
AcDbEntity
  8
RUNDUNGEN
  6
Continuous
 62
     7
100
AcDbCircle
 10
1006.36111698083
 20
105.5989404615425
 30
0.0
 40
10.0
100
AcDbArc
 50
270.0
 51
0.0
  0
ARC
  5
A2F
330
1F
100
AcDbEntity
  8
0
  6
Continuous
 62
     9
100
AcDbCircle
 10
522.36111698083
 20
161.5989404615425
 30
0.0
 40
4.769696007099999
100
AcDbArc
 50
134.5653093812027
 51
125.6374560332
  0
ARC
  5
A30
330
1F
100
AcDbEntity
  8
0
  6
Continuous
 62
     9
100
AcDbCircle
 10
566.36111698083
 20
161.5989404615425
 30
0.0
 40
4.769696007099999
100
AcDbArc
 50
134.5653093812027
 51
125.6374560332
  0
ARC
  5
A31
330
1F
100
AcDbEntity
  8
0
  6
Continuous
 62
     9
100
AcDbCircle
 10
522.36111698083
 20
161.5989404615425
 30
0.0
 40
4.292726406399999
100
AcDbArc
 50
134.5653093812027
 51
126.4728417343045
  0
ARC
  5
A32
330
1F
100
AcDbEntity
  8
0
  6
Continuous
 62
     9
100
AcDbCircle
 10
566.36111698083
 20
161.5989404615425
 30
0.0
 40
4.292726406399999
100
AcDbArc
 50
134.5653093812027
 51
126.4728417343045
  0
ARC
  5
A33
330
1F
100
AcDbEntity
  8
RUNDUNGEN
  6
Continuous
 62
     7
100
AcDbCircle
 10
522.3608913316302
 20
52.80499200384247
 30
0.0
 40
3.0
100
AcDbArc
 50
180.0
 51
191.6500035256025
  0
ARC
  5
A34
330
1F
100
AcDbEntity
  8
RUNDUNGEN
  6
Continuous
 62
     7
100
AcDbCircle
 10
566.3613426299298
 20
52.80499200384247
 30
0.0
 40
3.0
100
AcDbArc
 50
348.3499964743974
 51
0.0
  0
SPLINE
  5
A35
330
1F
100
AcDbEntity
  8
0
  6
Continuous
 62
     7
100
AcDbSpline
210
0.0
220
0.0
230
1.0
 70
     8
 71
     3
 72
     8
 73
     4
 74
     0
 42
0.000000001
 43
0.0000000001
 40
0.0
 40
0.0
 40
0.0
 40
0.0
 40
1.0
 40
1.0
 40
1.0
 40
1.0
 10
221.8779974561298
 20
349.8360837341425
 30
0.0
 10
222.0374301383299
 20
349.8766147268425
 30
0.0
 10
222.2120765505301
 20
349.8766147268425
 30
0.0
 10
222.37150923273
 20
349.8360837341425
 30
0.0
  0
SPLINE
  5
A36
330
1F
100
AcDbEntity
  8
0
  6
Continuous
 62
     7
100
AcDbSpline
210
0.0
220
0.0
230
1.0
 70
     8
 71
     3
 72
     8
 73
     4
 74
     0
 42
0.000000001
 43
0.0000000001
 40
0.0
 40
0.0
 40
0.0
 40
0.0
 40
1.0
 40
1.0
 40
1.0
 40
1.0
 10
229.73254291063
 20
349.8360837341425
 30
0.0
 10
229.89197559283
 20
349.8766147268425
 30
0.0
 10
230.0666220051298
 20
349.8766147268425
 30
0.0
 10
230.2260546873299
 20
349.8360837341425
 30
0.0
  0
SPLINE
  5
A37
330
1F
100
AcDbEntity
  8
0
  6
Continuous
 62
     7
100
AcDbSpline
210
0.0
220
0.0
230
1.0
 70
     8
 71
     3
 72
     8
 73
     4
 74
     0
 42
0.000000001
 43
0.0000000001
 40
0.0
 40
0.0
 40
0.0
 40
0.0
 40
1.0
 40
1.0
 40
1.0
 40
1.0
 10
237.5870883652301
 20
349.8360837341425
 30
0.0
 10
237.7465210474302
 20
349.8766147268425
 30
0.0
 10
237.9211674596302
 20
349.8766147268425
 30
0.0
 10
238.08060014183
 20
349.8360837341425
 30
0.0
  0
SPLINE
  5
A38
330
1F
100
AcDbEntity
  8
0
  6
Continuous
 62
     7
100
AcDbSpline
210
0.0
220
0.0
230
1.0
 70
     8
 71
     3
 72
    23
 73
    19
 74
     0
 42
0.000000001
 43
0.0000000001
 40
0.0
 40
0.0
 40
0.0
 40
0.0
 40
0.0036582121
 40
0.0113290881
 40
0.0400990389
 40
0.0863145472
 40
0.1482898633
 40
0.2237168888
 40
0.3097176538
 40
0.5
 40
0.6902823462000001
 40
0.7762831112000002
 40
0.8517101367
 40
0.9136854528
 40
0.9599009610999999
 40
0.9886709119
 40
0.9963417879000001
 40
1.0
 40
1.0
 40
1.0
 40
1.0
 10
927.11111698083
 20
350.0746007166424
 30
0.0
 10
927.11111698083
 20
350.0761335123425
 30
0.0
 10
927.1158775689299
 20
350.0794547003425
 30
0.0
 10
927.13106548133
 20
350.0839202559424
 30
0.0
 10
927.1662649939299
 20
350.0897269685424
 30
0.0
 10
927.22285507643
 20
350.0951346324424
 30
0.0
 10
927.2998553144301
 20
350.1002931319424
 30
0.0
 10
927.3932909640301
 20
350.1044839107424
 30
0.0
 10
927.5406308425299
 20
350.1088459909424
 30
0.0
 10
927.7361169808299
 20
350.1108491618424
 30
0.0
 10
927.9316031190299
 20
350.1088459909424
 30
0.0
 10
928.07894299753
 20
350.1044839107424
 30
0.0
 10
928.17237864723
 20
350.1002931319424
 30
0.0
 10
928.2493788852301
 20
350.0951346324424
 30
0.0
 10
928.3059689676299
 20
350.0897269685424
 30
0.0
 10
928.3411684802299
 20
350.0839202559424
 30
0.0
 10
928.35635639263
 20
350.0794547003425
 30
0.0
 10
928.3611169808301
 20
350.0761335123425
 30
0.0
 10
928.3611169808301
 20
350.0746007166424
 30
0.0
  0
SPLINE
  5
A39
330
1F
100
AcDbEntity
  8
BEZUGSACHSEN
  6
Continuous
 62
     7
100
AcDbSpline
210
0.0
220
0.0
230
1.0
 70
     8
 71
     3
 72
    29
 73
    25
 74
     0
 42
0.000000001
 43
0.0000000001
 40
0.0
 40
0.0
 40
0.0
 40
0.0
 40
0.0036561834
 40
0.0113186728
 40
0.0234757075
 40
0.0401175972
 40
0.0611270874
 40
0.0863243887
 40
0.148302964
 40
0.2237253554
 40
0.3097206052
 40
0.4030023954
 40
0.5
 40
0.5969976046
 40
0.6902793948000002
 40
0.7762746446
 40
0.8516970359999998
 40
0.9136756113
 40
0.9388729126000001
 40
0.9598824028000001
 40
0.9765242924999999
 40
0.9886813271999999
 40
0.9963438165999999
 40
1.0
 40
1.0
 40
1.0
 40
1.0
 10
895.0611169808299
 20
349.9683017399425
 30
0.0
 10
895.0611169808299
 20
349.9756555035425
 30
0.0
 10
895.0383525622299
 20
349.9916773804424
 30
0.0
 10
894.9959422434302
 20
350.0040873833425
 30
0.0
 10
894.9227731240299
 20
350.0205047270424
 30
0.0
 10
894.82428595803
 20
350.0350775039425
 30
0.0
 10
894.69849765873
 20
350.0499615340425
 30
0.0
 10
894.4819194112298
 20
350.0699803371424
 30
0.0
 10
894.1554760385299
 20
350.0915106321424
 30
0.0
 10
893.70662199763
 20
350.1117763998425
 30
0.0
 10
893.1945358029299
 20
350.1269212300424
 30
0.0
 10
892.63892749243
 20
350.1362836524425
 30
0.0
 10
892.0611169808299
 20
350.1394487976424
 30
0.0
 10
891.48330646913
 20
350.1362836524425
 30
0.0
 10
890.92769815863
 20
350.1269212300424
 30
0.0
 10
890.4156119639299
 20
350.1117763998425
 30
0.0
 10
889.96675792303
 20
350.0915106321424
 30
0.0
 10
889.6403145503299
 20
350.0699803371424
 30
0.0
 10
889.4237363028299
 20
350.0499615340425
 30
0.0
 10
889.2979480036299
 20
350.0350775039425
 30
0.0
 10
889.1994608375298
 20
350.0205047270424
 30
0.0
 10
889.12629171813
 20
350.0040873833425
 30
0.0
 10
889.0838813993299
 20
349.9916773804424
 30
0.0
 10
889.06111698083
 20
349.9756555035425
 30
0.0
 10
889.06111698083
 20
349.9683017399425
 30
0.0
  0
SPLINE
  5
A3A
330
1F
100
AcDbEntity
  8
0
  6
Continuous
 62
     7
100
AcDbSpline
210
0.0
220
0.0
230
1.0
 70
     8
 71
     3
 72
     8
 73
     4
 74
     0
 42
0.000000001
 43
0.0000000001
 40
0.0
 40
0.0
 40
0.0
 40
0.0
 40
1.0
 40
1.0
 40
1.0
 40
1.0
 10
866.84423650553
 20
349.8360837341425
 30
0.0
 10
866.6848038232298
 20
349.8766147268425
 30
0.0
 10
866.5101574110298
 20
349.8766147268425
 30
0.0
 10
866.3507247288301
 20
349.8360837341425
 30
0.0
  0
SPLINE
  5
A3B
330
1F
100
AcDbEntity
  8
0
  6
Continuous
 62
     7
100
AcDbSpline
210
0.0
220
0.0
230
1.0
 70
     8
 71
     3
 72
     8
 73
     4
 74
     0
 42
0.000000001
 43
0.0000000001
 40
0.0
 40
0.0
 40
0.0
 40
0.0
 40
1.0
 40
1.0
 40
1.0
 40
1.0
 10
858.9896910509299
 20
349.8360837341425
 30
0.0
 10
858.8302583687299
 20
349.8766147268425
 30
0.0
 10
858.6556119565299
 20
349.8766147268425
 30
0.0
 10
858.49617927423
 20
349.8360837341425
 30
0.0
  0
SPLINE
  5
A3C
330
1F
100
AcDbEntity
  8
0
  6
Continuous
 62
     7
100
AcDbSpline
210
0.0
220
0.0
230
1.0
 70
     8
 71
     3
 72
     8
 73
     4
 74
     0
 42
0.000000001
 43
0.0000000001
 40
0.0
 40
0.0
 40
0.0
 40
0.0
 40
1.0
 40
1.0
 40
1.0
 40
1.0
 10
851.13514559643
 20
349.8360837341425
 30
0.0
 10
850.9757129142299
 20
349.8766147268425
 30
0.0
 10
850.80106650193
 20
349.8766147268425
 30
0.0
 10
850.6416338197301
 20
349.8360837341425
 30
0.0
  0
SPLINE
  5
A3D
330
1F
100
AcDbEntity
  8
BEZUGSACHSEN
  6
Continuous
 62
     7
100
AcDbSpline
210
0.0
220
0.0
230
1.0
 70
     8
 71
     3
 72
    29
 73
    25
 74
     0
 42
0.000000001
 43
0.0000000001
 40
0.0
 40
0.0
 40
0.0
 40
0.0
 40
0.0036562871
 40
0.0113188553
 40
0.0234749074
 40
0.040119465
 40
0.0611260063
 40
0.0863246365
 40
0.1483016966
 40
0.2237245545
 40
0.3097192975
 40
0.4030041862
 40
0.5
 40
0.5969958138
 40
0.6902807025
 40
0.7762754455
 40
0.8516983034
 40
0.9136753634999998
 40
0.9388739937
 40
0.9598805350000001
 40
0.9765250926
 40
0.9886811446999999
 40
0.9963437129
 40
1.0
 40
1.0
 40
1.0
 40
1.0
 10
965.8611169808301
 20
350.1100337088425
 30
0.0
 10
965.8611169808301
 20
350.1161620119425
 30
0.0
 10
965.84213856373
 20
350.1295070773425
 30
0.0
 10
965.80680393443
 20
350.1398532216424
 30
0.0
 10
965.74582523833
 20
350.1535391723424
 30
0.0
 10
965.66375517283
 20
350.1656786464425
 30
0.0
 10
965.5589301920299
 20
350.1780867241424
 30
0.0
 10
965.3784532276299
 20
350.1947618654424
 30
0.0
 10
965.1064173753299
 20
350.2127095312425
 30
0.0
 10
964.7323752572299
 20
350.2295965868425
 30
0.0
 10
964.3056321465298
 20
350.2422172485425
 30
0.0
 10
963.8426243706298
 20
350.2500173689425
 30
0.0
 10
963.36111698083
 20
350.2526552017424
 30
0.0
 10
962.8796095909299
 20
350.2500173689425
 30
0.0
 10
962.4166018150299
 20
350.2422172485425
 30
0.0
 10
961.9898587043298
 20
350.2295965868425
 30
0.0
 10
961.61581658623
 20
350.2127095312425
 30
0.0
 10
961.34378073393
 20
350.1947618654424
 30
0.0
 10
961.16330376953
 20
350.1780867241424
 30
0.0
 10
961.0584787888299
 20
350.1656786464425
 30
0.0
 10
960.9764087233299
 20
350.1535391723424
 30
0.0
 10
960.9154300271299
 20
350.1398532216424
 30
0.0
 10
960.8800953978301
 20
350.1295070773425
 30
0.0
 10
960.86111698083
 20
350.1161620119425
 30
0.0
 10
960.86111698083
 20
350.1100337088425
 30
0.0
  0
SPLINE
  5
A3E
330
1F
100
AcDbEntity
  8
BEZUGSACHSEN
  6
Continuous
 62
     7
100
AcDbSpline
210
0.0
220
0.0
230
1.0
 70
     8
 71
     3
 72
    29
 73
    25
 74
     0
 42
0.000000001
 43
0.0000000001
 40
0.0
 40
0.0
 40
0.0
 40
0.0
 40
0.0036562871
 40
0.0113188553
 40
0.0234749074
 40
0.040119465
 40
0.0611260063
 40
0.0863246365
 40
0.1483016966
 40
0.2237245545
 40
0.3097192975
 40
0.4030041862
 40
0.5
 40
0.5969958138
 40
0.6902807025
 40
0.7762754455
 40
0.8516983034
 40
0.9136753634999998
 40
0.9388739937
 40
0.9598805350000001
 40
0.9765250926
 40
0.9886811446999999
 40
0.9963437129
 40
1.0
 40
1.0
 40
1.0
 40
1.0
 10
945.86111698083
 20
350.1100337088425
 30
0.0
 10
945.86111698083
 20
350.1161620119425
 30
0.0
 10
945.8421385637301
 20
350.1295070773425
 30
0.0
 10
945.8068039344301
 20
350.1398532216424
 30
0.0
 10
945.74582523833
 20
350.1535391723424
 30
0.0
 10
945.6637551728299
 20
350.1656786464425
 30
0.0
 10
945.55893019203
 20
350.1780867241424
 30
0.0
 10
945.37845322763
 20
350.1947618654424
 30
0.0
 10
945.10641737533
 20
350.2127095312425
 30
0.0
 10
944.73237525723
 20
350.2295965868425
 30
0.0
 10
944.3056321465299
 20
350.2422172485425
 30
0.0
 10
943.8426243706299
 20
350.2500173689425
 30
0.0
 10
943.3611169808299
 20
350.2526552017424
 30
0.0
 10
942.8796095909298
 20
350.2500173689425
 30
0.0
 10
942.41660181503
 20
350.2422172485425
 30
0.0
 10
941.9898587043299
 20
350.2295965868425
 30
0.0
 10
941.6158165862301
 20
350.2127095312425
 30
0.0
 10
941.3437807339299
 20
350.1947618654424
 30
0.0
 10
941.1633037695299
 20
350.1780867241424
 30
0.0
 10
941.0584787888298
 20
350.1656786464425
 30
0.0
 10
940.97640872333
 20
350.1535391723424
 30
0.0
 10
940.91543002713
 20
350.1398532216424
 30
0.0
 10
940.88009539783
 20
350.1295070773425
 30
0.0
 10
940.8611169808301
 20
350.1161620119425
 30
0.0
 10
940.8611169808301
 20
350.1100337088425
 30
0.0
  0
SPLINE
  5
A3F
330
1F
100
AcDbEntity
  8
BEZUGSACHSEN
  6
Continuous
 62
     7
100
AcDbSpline
210
0.0
220
0.0
230
1.0
 70
     8
 71
     3
 72
    29
 73
    25
 74
     0
 42
0.000000001
 43
0.0000000001
 40
0.0
 40
0.0
 40
0.0
 40
0.0
 40
0.0036561834
 40
0.0113186728
 40
0.0234757075
 40
0.0401175972
 40
0.0611270874
 40
0.0863243887
 40
0.148302964
 40
0.2237253554
 40
0.3097206052
 40
0.4030023954
 40
0.5
 40
0.5969976046
 40
0.6902793948000002
 40
0.7762746446
 40
0.8516970359999998
 40
0.9136756113
 40
0.9388729126000001
 40
0.9598824028000001
 40
0.9765242924999999
 40
0.9886813271999999
 40
0.9963438165999999
 40
1.0
 40
1.0
 40
1.0
 40
1.0
 10
889.06111698083
 20
349.9683017399425
 30
0.0
 10
889.06111698083
 20
349.9609479764424
 30
0.0
 10
889.0838813993299
 20
349.9449260994424
 30
0.0
 10
889.12629171813
 20
349.9325160965425
 30
0.0
 10
889.1994608375298
 20
349.9160987528425
 30
0.0
 10
889.2979480036299
 20
349.9015259759424
 30
0.0
 10
889.4237363028299
 20
349.8866419458425
 30
0.0
 10
889.6403145503299
 20
349.8666231427425
 30
0.0
 10
889.96675792303
 20
349.8450928477424
 30
0.0
 10
890.4156119639299
 20
349.8248270800425
 30
0.0
 10
890.92769815863
 20
349.8096822499424
 30
0.0
 10
891.48330646913
 20
349.8003198274424
 30
0.0
 10
892.0611169808299
 20
349.7971546822424
 30
0.0
 10
892.63892749243
 20
349.8003198274424
 30
0.0
 10
893.1945358029299
 20
349.8096822499424
 30
0.0
 10
893.70662199763
 20
349.8248270800425
 30
0.0
 10
894.1554760385299
 20
349.8450928477424
 30
0.0
 10
894.4819194112298
 20
349.8666231427425
 30
0.0
 10
894.69849765873
 20
349.8866419458425
 30
0.0
 10
894.82428595803
 20
349.9015259759424
 30
0.0
 10
894.9227731240299
 20
349.9160987528425
 30
0.0
 10
894.9959422434302
 20
349.9325160965425
 30
0.0
 10
895.0383525622299
 20
349.9449260994424
 30
0.0
 10
895.0611169808299
 20
349.9609479764424
 30
0.0
 10
895.0611169808299
 20
349.9683017399425
 30
0.0
  0
SPLINE
  5
A40
330
1F
100
AcDbEntity
  8
0
  6
Continuous
 62
     7
100
AcDbSpline
210
0.0
220
0.0
230
1.0
 70
     8
 71
     3
 72
     8
 73
     4
 74
     0
 42
0.000000001
 43
0.0000000001
 40
0.0
 40
0.0
 40
0.0
 40
0.0
 40
1.0
 40
1.0
 40
1.0
 40
1.0
 10
866.84423650553
 20
350.9415930916424
 30
0.0
 10
866.6848038232298
 20
350.9821240842425
 30
0.0
 10
866.5101574110298
 20
350.9821240842425
 30
0.0
 10
866.3507247288301
 20
350.9415930916424
 30
0.0
  0
SPLINE
  5
A41
330
1F
100
AcDbEntity
  8
BEZUGSACHSEN
  6
Continuous
 62
     7
100
AcDbSpline
210
0.0
220
0.0
230
1.0
 70
     8
 71
     3
 72
    29
 73
    25
 74
     0
 42
0.000000001
 43
0.0000000001
 40
0.0
 40
0.0
 40
0.0
 40
0.0
 40
0.0036562871
 40
0.0113188553
 40
0.0234749074
 40
0.040119465
 40
0.0611260063
 40
0.0863246365
 40
0.1483016966
 40
0.2237245545
 40
0.3097192975
 40
0.4030041862
 40
0.5
 40
0.5969958138
 40
0.6902807025
 40
0.7762754455
 40
0.8516983034
 40
0.9136753634999998
 40
0.9388739937
 40
0.9598805350000001
 40
0.9765250926
 40
0.9886811446999999
 40
0.9963437129
 40
1.0
 40
1.0
 40
1.0
 40
1.0
 10
960.86111698083
 20
349.8265697710425
 30
0.0
 10
960.86111698083
 20
349.8204414679424
 30
0.0
 10
960.8800953978301
 20
349.8070964025425
 30
0.0
 10
960.9154300271299
 20
349.7967502582425
 30
0.0
 10
960.9764087233299
 20
349.7830643075424
 30
0.0
 10
961.0584787888299
 20
349.7709248334424
 30
0.0
 10
961.16330376953
 20
349.7585167557425
 30
0.0
 10
961.34378073393
 20
349.7418416144425
 30
0.0
 10
961.61581658623
 20
349.7238939486424
 30
0.0
 10
961.9898587043298
 20
349.7070068930425
 30
0.0
 10
962.4166018150299
 20
349.6943862313424
 30
0.0
 10
962.8796095909299
 20
349.6865861109425
 30
0.0
 10
963.36111698083
 20
349.6839482781425
 30
0.0
 10
963.8426243706298
 20
349.6865861109425
 30
0.0
 10
964.3056321465298
 20
349.6943862313424
 30
0.0
 10
964.7323752572299
 20
349.7070068930425
 30
0.0
 10
965.1064173753299
 20
349.7238939486424
 30
0.0
 10
965.3784532276299
 20
349.7418416144425
 30
0.0
 10
965.5589301920299
 20
349.7585167557425
 30
0.0
 10
965.66375517283
 20
349.7709248334424
 30
0.0
 10
965.74582523833
 20
349.7830643075424
 30
0.0
 10
965.80680393443
 20
349.7967502582425
 30
0.0
 10
965.84213856373
 20
349.8070964025425
 30
0.0
 10
965.8611169808301
 20
349.8204414679424
 30
0.0
 10
965.8611169808301
 20
349.8265697710425
 30
0.0
  0
SPLINE
  5
A42
330
1F
100
AcDbEntity
  8
0
  6
Continuous
 62
     7
100
AcDbSpline
210
0.0
220
0.0
230
1.0
 70
     8
 71
     3
 72
    23
 73
    19
 74
     0
 42
0.000000001
 43
0.0000000001
 40
0.0
 40
0.0
 40
0.0
 40
0.0
 40
0.0036582121
 40
0.0113290881
 40
0.0400990389
 40
0.0863145472
 40
0.1482898633
 40
0.2237168888
 40
0.3097176538
 40
0.5
 40
0.6902823462000001
 40
0.7762831112000002
 40
0.8517101367
 40
0.9136854528
 40
0.9599009610999999
 40
0.9886709119
 40
0.9963417879000001
 40
1.0
 40
1.0
 40
1.0
 40
1.0
 10
928.3611169808301
 20
349.8620027632425
 30
0.0
 10
928.3611169808301
 20
349.8604699675425
 30
0.0
 10
928.35635639263
 20
349.8571487795425
 30
0.0
 10
928.3411684802299
 20
349.8526832239424
 30
0.0
 10
928.3059689676299
 20
349.8468765113424
 30
0.0
 10
928.2493788852301
 20
349.8414688474424
 30
0.0
 10
928.17237864723
 20
349.8363103479424
 30
0.0
 10
928.07894299753
 20
349.8321195691424
 30
0.0
 10
927.9316031190299
 20
349.8277574889424
 30
0.0
 10
927.7361169808299
 20
349.8257543180425
 30
0.0
 10
927.5406308425299
 20
349.8277574889424
 30
0.0
 10
927.3932909640301
 20
349.8321195691424
 30
0.0
 10
927.2998553144301
 20
349.8363103479424
 30
0.0
 10
927.22285507643
 20
349.8414688474424
 30
0.0
 10
927.1662649939299
 20
349.8468765113424
 30
0.0
 10
927.13106548133
 20
349.8526832239424
 30
0.0
 10
927.1158775689299
 20
349.8571487795425
 30
0.0
 10
927.11111698083
 20
349.8604699675425
 30
0.0
 10
927.11111698083
 20
349.8620027632425
 30
0.0
  0
SPLINE
  5
A43
330
1F
100
AcDbEntity
  8
0
  6
Continuous
 62
     7
100
AcDbSpline
210
0.0
220
0.0
230
1.0
 70
     8
 71
     3
 72
     8
 73
     4
 74
     0
 42
0.000000001
 43
0.0000000001
 40
0.0
 40
0.0
 40
0.0
 40
0.0
 40
1.0
 40
1.0
 40
1.0
 40
1.0
 10
858.9896910509299
 20
350.9415930916424
 30
0.0
 10
858.8302583687299
 20
350.9821240842425
 30
0.0
 10
858.6556119565299
 20
350.9821240842425
 30
0.0
 10
858.49617927423
 20
350.9415930916424
 30
0.0
  0
SPLINE
  5
A44
330
1F
100
AcDbEntity
  8
BEZUGSACHSEN
  6
Continuous
 62
     7
100
AcDbSpline
210
0.0
220
0.0
230
1.0
 70
     8
 71
     3
 72
    29
 73
    25
 74
     0
 42
0.000000001
 43
0.0000000001
 40
0.0
 40
0.0
 40
0.0
 40
0.0
 40
0.0036562871
 40
0.0113188553
 40
0.0234749074
 40
0.040119465
 40
0.0611260063
 40
0.0863246365
 40
0.1483016966
 40
0.2237245545
 40
0.3097192975
 40
0.4030041862
 40
0.5
 40
0.5969958138
 40
0.6902807025
 40
0.7762754455
 40
0.8516983034
 40
0.9136753634999998
 40
0.9388739937
 40
0.9598805350000001
 40
0.9765250926
 40
0.9886811446999999
 40
0.9963437129
 40
1.0
 40
1.0
 40
1.0
 40
1.0
 10
940.8611169808301
 20
349.8265697710425
 30
0.0
 10
940.8611169808301
 20
349.8204414679424
 30
0.0
 10
940.88009539783
 20
349.8070964025425
 30
0.0
 10
940.91543002713
 20
349.7967502582425
 30
0.0
 10
940.97640872333
 20
349.7830643075424
 30
0.0
 10
941.0584787888298
 20
349.7709248334424
 30
0.0
 10
941.1633037695299
 20
349.7585167557425
 30
0.0
 10
941.3437807339299
 20
349.7418416144425
 30
0.0
 10
941.6158165862301
 20
349.7238939486424
 30
0.0
 10
941.9898587043299
 20
349.7070068930425
 30
0.0
 10
942.41660181503
 20
349.6943862313424
 30
0.0
 10
942.8796095909298
 20
349.6865861109425
 30
0.0
 10
943.3611169808299
 20
349.6839482781425
 30
0.0
 10
943.8426243706299
 20
349.6865861109425
 30
0.0
 10
944.3056321465299
 20
349.6943862313424
 30
0.0
 10
944.73237525723
 20
349.7070068930425
 30
0.0
 10
945.10641737533
 20
349.7238939486424
 30
0.0
 10
945.37845322763
 20
349.7418416144425
 30
0.0
 10
945.55893019203
 20
349.7585167557425
 30
0.0
 10
945.6637551728299
 20
349.7709248334424
 30
0.0
 10
945.74582523833
 20
349.7830643075424
 30
0.0
 10
945.8068039344301
 20
349.7967502582425
 30
0.0
 10
945.8421385637301
 20
349.8070964025425
 30
0.0
 10
945.86111698083
 20
349.8204414679424
 30
0.0
 10
945.86111698083
 20
349.8265697710425
 30
0.0
  0
SPLINE
  5
A45
330
1F
100
AcDbEntity
  8
0
  6
Continuous
 62
     7
100
AcDbSpline
210
0.0
220
0.0
230
1.0
 70
     8
 71
     3
 72
     8
 73
     4
 74
     0
 42
0.000000001
 43
0.0000000001
 40
0.0
 40
0.0
 40
0.0
 40
0.0
 40
1.0
 40
1.0
 40
1.0
 40
1.0
 10
851.13514559643
 20
350.9415930916424
 30
0.0
 10
850.9757129142299
 20
350.9821240842425
 30
0.0
 10
850.80106650193
 20
350.9821240842425
 30
0.0
 10
850.6416338197301
 20
350.9415930916424
 30
0.0
  0
SPLINE
  5
A46
330
1F
100
AcDbEntity
  8
0
  6
Continuous
 62
     7
100
AcDbSpline
210
0.0
220
0.0
230
1.0
 70
     8
 71
     3
 72
    10
 73
     6
 74
     0
 42
0.000000001
 43
0.0000000001
 40
0.0
 40
0.0
 40
0.0
 40
0.0
 40
0.498943255
 40
0.7503616529000002
 40
1.0
 40
1.0
 40
1.0
 40
1.0
 10
104.2111169808299
 20
370.9350577166425
 30
0.0
 10
104.2457979664298
 20
370.9350577166425
 30
0.0
 10
104.3003433303299
 20
370.9203134364425
 30
0.0
 10
104.3502135394301
 20
370.8695807565425
 30
0.0
 10
104.36111698083
 20
370.8343315457424
 30
0.0
 10
104.36111698083
 20
370.8169794644425
 30
0.0
  0
SPLINE
  5
A47
330
1F
100
AcDbEntity
  8
0
  6
Continuous
 62
     7
100
AcDbSpline
210
0.0
220
0.0
230
1.0
 70
     8
 71
     3
 72
    10
 73
     6
 74
     0
 42
0.000000001
 43
0.0000000001
 40
0.0
 40
0.0
 40
0.0
 40
0.0
 40
0.498943255
 40
0.7503616529000002
 40
1.0
 40
1.0
 40
1.0
 40
1.0
 10
984.51111698083
 20
370.9350577166425
 30
0.0
 10
984.47643599513
 20
370.9350577166425
 30
0.0
 10
984.4218906312299
 20
370.9203134364425
 30
0.0
 10
984.3720204221298
 20
370.8695807565425
 30
0.0
 10
984.3611169808299
 20
370.8343315457424
 30
0.0
 10
984.3611169808299
 20
370.8169794644425
 30
0.0
  0
SPLINE
  5
A48
330
1F
100
AcDbEntity
  8
0
  6
Continuous
 62
     3
100
AcDbSpline
210
0.0
220
0.0
230
1.0
 70
     8
 71
     3
 72
     8
 73
     4
 74
     0
 42
0.000000001
 43
0.0000000001
 40
0.0
 40
0.0
 40
0.0
 40
0.0
 40
1.0
 40
1.0
 40
1.0
 40
1.0
 10
225.8052701833299
 20
351.0989114162425
 30
0.0
 10
225.96470286563
 20
351.0583804236425
 30
0.0
 10
226.13934927783
 20
351.0583804236425
 30
0.0
 10
226.2987819600298
 20
351.0989114162425
 30
0.0
  0
SPLINE
  5
A49
330
1F
100
AcDbEntity
  8
0
  6
Continuous
 62
     3
100
AcDbSpline
210
0.0
220
0.0
230
1.0
 70
     8
 71
     3
 72
     8
 73
     4
 74
     0
 42
0.000000001
 43
0.0000000001
 40
0.0
 40
0.0
 40
0.0
 40
0.0
 40
1.0
 40
1.0
 40
1.0
 40
1.0
 10
233.65981563793
 20
351.0989114162425
 30
0.0
 10
233.8192483201299
 20
351.0583804236425
 30
0.0
 10
233.9938947323298
 20
351.0583804236425
 30
0.0
 10
234.15332741463
 20
351.0989114162425
 30
0.0
  0
SPLINE
  5
A4A
330
1F
100
AcDbEntity
  8
BEZUGSACHSEN
  6
Continuous
 62
     3
100
AcDbSpline
210
0.0
220
0.0
230
1.0
 70
     8
 71
     3
 72
    29
 73
    25
 74
     0
 42
0.000000001
 43
0.0000000001
 40
0.0
 40
0.0
 40
0.0
 40
0.0
 40
0.0036561834
 40
0.0113186728
 40
0.0234757075
 40
0.0401175972
 40
0.0611270874
 40
0.0863243887
 40
0.148302964
 40
0.2237253554
 40
0.3097206052
 40
0.4030023954
 40
0.5
 40
0.5969976046
 40
0.6902793948000002
 40
0.7762746446
 40
0.8516970359999998
 40
0.9136756113
 40
0.9388729126000001
 40
0.9598824028000001
 40
0.9765242924999999
 40
0.9886813271999999
 40
0.9963438165999999
 40
1.0
 40
1.0
 40
1.0
 40
1.0
 10
199.6611169808302
 20
350.9666934105425
 30
0.0
 10
199.6611169808302
 20
350.9593396469425
 30
0.0
 10
199.63835256223
 20
350.9433177700424
 30
0.0
 10
199.5959422434298
 20
350.9309077671425
 30
0.0
 10
199.5227731240297
 20
350.9144904233424
 30
0.0
 10
199.4242859580299
 20
350.8999176464424
 30
0.0
 10
199.2984976587299
 20
350.8850336163424
 30
0.0
 10
199.08191941123
 20
350.8650148132424
 30
0.0
 10
198.7554760385301
 20
350.8434845182425
 30
0.0
 10
198.3066219976299
 20
350.8232187506425
 30
0.0
 10
197.7945358029301
 20
350.8080739204424
 30
0.0
 10
197.2389274924298
 20
350.7987114980425
 30
0.0
 10
196.6611169808302
 20
350.7955463527425
 30
0.0
 10
196.0833064691301
 20
350.7987114980425
 30
0.0
 10
195.5276981586298
 20
350.8080739204424
 30
0.0
 10
195.01561196393
 20
350.8232187506425
 30
0.0
 10
194.5667579230303
 20
350.8434845182425
 30
0.0
 10
194.2403145503299
 20
350.8650148132424
 30
0.0
 10
194.02373630283
 20
350.8850336163424
 30
0.0
 10
193.89794800363
 20
350.8999176464424
 30
0.0
 10
193.79946083753
 20
350.9144904233424
 30
0.0
 10
193.7262917181299
 20
350.9309077671425
 30
0.0
 10
193.6838813993299
 20
350.9433177700424
 30
0.0
 10
193.66111698083
 20
350.9593396469425
 30
0.0
 10
193.66111698083
 20
350.9666934105425
 30
0.0
  0
SPLINE
  5
A4B
330
1F
100
AcDbEntity
  8
BEZUGSACHSEN
  6
Continuous
 62
     3
100
AcDbSpline
210
0.0
220
0.0
230
1.0
 70
     8
 71
     3
 72
     9
 73
     5
 74
     0
 42
0.000000001
 43
0.0000000001
 40
0.0
 40
0.0
 40
0.0
 40
0.0
 40
0.5020157287
 40
1.0
 40
1.0
 40
1.0
 40
1.0
 10
122.13080356353
 20
351.1144325812424
 30
0.0
 10
122.2307628881299
 20
351.2871958337424
 30
0.0
 10
122.48296343183
 20
351.6032848427424
 30
0.0
 10
122.8168451800302
 20
351.8308524131425
 30
0.0
 10
122.9948190647301
 20
351.9176107905424
 30
0.0
  0
SPLINE
  5
A4C
330
1F
100
AcDbEntity
  8
BEZUGSACHSEN
  6
Continuous
 62
     3
100
AcDbSpline
210
0.0
220
0.0
230
1.0
 70
     8
 71
     3
 72
     9
 73
     5
 74
     0
 42
0.000000001
 43
0.0000000001
 40
0.0
 40
0.0
 40
0.0
 40
0.0
 40
0.4979350155
 40
1.0
 40
1.0
 40
1.0
 40
1.0
 10
127.7276507379301
 20
351.9175185782424
 30
0.0
 10
127.9055463198299
 20
351.8307373053425
 30
0.0
 10
128.2393452433298
 20
351.6032146083424
 30
0.0
 10
128.4914818486299
 20
351.2871772106424
 30
0.0
 10
128.5914303980303
 20
351.1144325812424
 30
0.0
  0
SPLINE
  5
A4D
330
1F
100
AcDbEntity
  8
BEZUGSACHSEN
  6
Continuous
 62
     3
100
AcDbSpline
210
0.0
220
0.0
230
1.0
 70
     8
 71
     3
 72
     9
 73
     5
 74
     0
 42
0.000000001
 43
0.0000000001
 40
0.0
 40
0.0
 40
0.0
 40
0.0
 40
0.5020157287
 40
1.0
 40
1.0
 40
1.0
 40
1.0
 10
142.13080356353
 20
351.1144325812424
 30
0.0
 10
142.2307628882299
 20
351.2871958338425
 30
0.0
 10
142.4829634321299
 20
351.6032848431424
 30
0.0
 10
142.81684518063
 20
351.8308524135425
 30
0.0
 10
142.9948190654299
 20
351.9176107908425
 30
0.0
  0
SPLINE
  5
A4E
330
1F
100
AcDbEntity
  8
BEZUGSACHSEN
  6
Continuous
 62
     3
100
AcDbSpline
210
0.0
220
0.0
230
1.0
 70
     8
 71
     3
 72
     9
 73
     5
 74
     0
 42
0.000000001
 43
0.0000000001
 40
0.0
 40
0.0
 40
0.0
 40
0.0
 40
0.4979350155
 40
1.0
 40
1.0
 40
1.0
 40
1.0
 10
147.7276507372301
 20
351.9175185785425
 30
0.0
 10
147.9055463193301
 20
351.8307373057425
 30
0.0
 10
148.2393452431299
 20
351.6032146086425
 30
0.0
 10
148.4914818485299
 20
351.2871772107425
 30
0.0
 10
148.5914303980298
 20
351.1144325812424
 30
0.0
  0
SPLINE
  5
A4F
330
1F
100
AcDbEntity
  8
0
  6
Continuous
 62
     3
100
AcDbSpline
210
0.0
220
0.0
230
1.0
 70
     8
 71
     3
 72
    23
 73
    19
 74
     0
 42
0.000000001
 43
0.0000000001
 40
0.0
 40
0.0
 40
0.0
 40
0.0
 40
0.0036582121
 40
0.0113290881
 40
0.0400990389
 40
0.0863145472
 40
0.1482898633
 40
0.2237168888
 40
0.3097176538
 40
0.5
 40
0.6902823462000001
 40
0.7762831112000002
 40
0.8517101367
 40
0.9136854528
 40
0.9599009610999999
 40
0.9886709119
 40
0.9963417879000001
 40
1.0
 40
1.0
 40
1.0
 40
1.0
 10
160.36111698083
 20
350.8603944338424
 30
0.0
 10
160.36111698083
 20
350.8588616381425
 30
0.0
 10
160.36587756893
 20
350.8555404500425
 30
0.0
 10
160.3810654813301
 20
350.8510748945424
 30
0.0
 10
160.4162649939301
 20
350.8452681819424
 30
0.0
 10
160.4728550764298
 20
350.8398605180425
 30
0.0
 10
160.5498553144302
 20
350.8347020184424
 30
0.0
 10
160.6432909640298
 20
350.8305112396424
 30
0.0
 10
160.7906308425299
 20
350.8261491594425
 30
0.0
 10
160.98611698083
 20
350.8241459885425
 30
0.0
 10
161.1816031190299
 20
350.8261491594425
 30
0.0
 10
161.3289429975298
 20
350.8305112396424
 30
0.0
 10
161.4223786472298
 20
350.8347020184424
 30
0.0
 10
161.4993788852302
 20
350.8398605180425
 30
0.0
 10
161.5559689676302
 20
350.8452681819424
 30
0.0
 10
161.5911684802299
 20
350.8510748945424
 30
0.0
 10
161.60635639263
 20
350.8555404500425
 30
0.0
 10
161.61111698083
 20
350.8588616381425
 30
0.0
 10
161.61111698083
 20
350.8603944338424
 30
0.0
  0
SPLINE
  5
A50
330
1F
100
AcDbEntity
  8
BEZUGSACHSEN
  6
Continuous
 62
     3
100
AcDbSpline
210
0.0
220
0.0
230
1.0
 70
     8
 71
     3
 72
    29
 73
    25
 74
     0
 42
0.000000001
 43
0.0000000001
 40
0.0
 40
0.0
 40
0.0
 40
0.0
 40
0.0036561834
 40
0.0113186728
 40
0.0234757075
 40
0.0401175972
 40
0.0611270874
 40
0.0863243887
 40
0.148302964
 40
0.2237253554
 40
0.3097206052
 40
0.4030023954
 40
0.5
 40
0.5969976046
 40
0.6902793948000002
 40
0.7762746446
 40
0.8516970359999998
 40
0.9136756113
 40
0.9388729126000001
 40
0.9598824028000001
 40
0.9765242924999999
 40
0.9886813271999999
 40
0.9963438165999999
 40
1.0
 40
1.0
 40
1.0
 40
1.0
 10
193.66111698083
 20
350.9666934105425
 30
0.0
 10
193.66111698083
 20
350.9740471740424
 30
0.0
 10
193.6838813993299
 20
350.9900690509425
 30
0.0
 10
193.7262917181299
 20
351.0024790538424
 30
0.0
 10
193.79946083753
 20
351.0188963976425
 30
0.0
 10
193.89794800363
 20
351.0334691745425
 30
0.0
 10
194.02373630283
 20
351.0483532046425
 30
0.0
 10
194.2403145503299
 20
351.0683720077425
 30
0.0
 10
194.5667579230303
 20
351.0899023027424
 30
0.0
 10
195.01561196393
 20
351.1101680704424
 30
0.0
 10
195.5276981586298
 20
351.1253129005424
 30
0.0
 10
196.0833064691301
 20
351.1346753230425
 30
0.0
 10
196.6611169808302
 20
351.1378404682424
 30
0.0
 10
197.2389274924298
 20
351.1346753230425
 30
0.0
 10
197.7945358029301
 20
351.1253129005424
 30
0.0
 10
198.3066219976299
 20
351.1101680704424
 30
0.0
 10
198.7554760385301
 20
351.0899023027424
 30
0.0
 10
199.08191941123
 20
351.0683720077425
 30
0.0
 10
199.2984976587299
 20
351.0483532046425
 30
0.0
 10
199.4242859580299
 20
351.0334691745425
 30
0.0
 10
199.5227731240297
 20
351.0188963976425
 30
0.0
 10
199.5959422434298
 20
351.0024790538424
 30
0.0
 10
199.63835256223
 20
350.9900690509425
 30
0.0
 10
199.6611169808302
 20
350.9740471740424
 30
0.0
 10
199.6611169808302
 20
350.9666934105425
 30
0.0
  0
SPLINE
  5
A51
330
1F
100
AcDbEntity
  8
0
  6
Continuous
 62
     3
100
AcDbSpline
210
0.0
220
0.0
230
1.0
 70
     8
 71
     3
 72
     8
 73
     4
 74
     0
 42
0.000000001
 43
0.0000000001
 40
0.0
 40
0.0
 40
0.0
 40
0.0
 40
1.0
 40
1.0
 40
1.0
 40
1.0
 10
225.8052701833299
 20
349.9934020588424
 30
0.0
 10
225.96470286563
 20
349.9528710661425
 30
0.0
 10
226.13934927783
 20
349.9528710661425
 30
0.0
 10
226.2987819600298
 20
349.9934020588424
 30
0.0
  0
SPLINE
  5
A52
330
1F
100
AcDbEntity
  8
0
  6
Continuous
 62
     3
100
AcDbSpline
210
0.0
220
0.0
230
1.0
 70
     8
 71
     3
 72
     8
 73
     4
 74
     0
 42
0.000000001
 43
0.0000000001
 40
0.0
 40
0.0
 40
0.0
 40
0.0
 40
1.0
 40
1.0
 40
1.0
 40
1.0
 10
233.65981563793
 20
349.9934020588424
 30
0.0
 10
233.8192483201299
 20
349.9528710661425
 30
0.0
 10
233.9938947323298
 20
349.9528710661425
 30
0.0
 10
234.15332741463
 20
349.9934020588424
 30
0.0
  0
SPLINE
  5
A53
330
1F
100
AcDbEntity
  8
BEZUGSACHSEN
  6
Continuous
 62
     3
100
AcDbSpline
210
0.0
220
0.0
230
1.0
 70
     8
 71
     3
 72
    29
 73
    25
 74
     0
 42
0.000000001
 43
0.0000000001
 40
0.0
 40
0.0
 40
0.0
 40
0.0
 40
0.003656186
 40
0.0113186246
 40
0.0234754393
 40
0.0401170575
 40
0.0611265811
 40
0.0863239488
 40
0.148301888
 40
0.223724245
 40
0.3097200002
 40
0.4030015526
 40
0.5
 40
0.5969984474000001
 40
0.6902799998
 40
0.776275755
 40
0.851698112
 40
0.9136760512
 40
0.9388734188999999
 40
0.9598829424999999
 40
0.9765245606999998
 40
0.9886813754000002
 40
0.996343814
 40
1.0
 40
1.0
 40
1.0
 40
1.0
 10
128.59316778833
 20
350.8249614416425
 30
0.0
 10
128.59316778833
 20
350.8170388568424
 30
0.0
 10
128.5686425912299
 20
350.7997777916425
 30
0.0
 10
128.52295240993
 20
350.7864079191425
 30
0.0
 10
128.44412483843
 20
350.7687208027424
 30
0.0
 10
128.3380206586298
 20
350.7530208252424
 30
0.0
 10
128.2025029492299
 20
350.7369857070425
 30
0.0
 10
127.9691734961302
 20
350.7154183535424
 30
0.0
 10
127.6174809646299
 20
350.6922224403425
 30
0.0
 10
127.1339082895297
 20
350.6703893825425
 30
0.0
 10
126.5822115977303
 20
350.6540727052425
 30
0.0
 10
125.9836244266298
 20
350.6439861716424
 30
0.0
 10
125.36111698083
 20
350.6405760613425
 30
0.0
 10
124.7386095349302
 20
350.6439861716424
 30
0.0
 10
124.14002236383
 20
350.6540727052425
 30
0.0
 10
123.5883256720299
 20
350.6703893825425
 30
0.0
 10
123.10475299693
 20
350.6922224403425
 30
0.0
 10
122.7530604654303
 20
350.7154183535424
 30
0.0
 10
122.5197310123299
 20
350.7369857070425
 30
0.0
 10
122.3842133030302
 20
350.7530208252424
 30
0.0
 10
122.2781091231299
 20
350.7687208027424
 30
0.0
 10
122.1992815517296
 20
350.7864079191425
 30
0.0
 10
122.1535913703301
 20
350.7997777916425
 30
0.0
 10
122.12906617323
 20
350.8170388568424
 30
0.0
 10
122.12906617323
 20
350.8249614416425
 30
0.0
  0
SPLINE
  5
A54
330
1F
100
AcDbEntity
  8
BEZUGSACHSEN
  6
Continuous
 62
     3
100
AcDbSpline
210
0.0
220
0.0
230
1.0
 70
     8
 71
     3
 72
    29
 73
    25
 74
     0
 42
0.000000001
 43
0.0000000001
 40
0.0
 40
0.0
 40
0.0
 40
0.0
 40
0.003656186
 40
0.0113186246
 40
0.0234754393
 40
0.0401170575
 40
0.0611265811
 40
0.0863239488
 40
0.148301888
 40
0.223724245
 40
0.3097200002
 40
0.4030015526
 40
0.5
 40
0.5969984474000001
 40
0.6902799998
 40
0.776275755
 40
0.851698112
 40
0.9136760512
 40
0.9388734188999999
 40
0.9598829424999999
 40
0.9765245606999998
 40
0.9886813754000002
 40
0.996343814
 40
1.0
 40
1.0
 40
1.0
 40
1.0
 10
148.59316778833
 20
350.8249614416425
 30
0.0
 10
148.59316778833
 20
350.8170388568424
 30
0.0
 10
148.5686425912299
 20
350.7997777916425
 30
0.0
 10
148.5229524099302
 20
350.7864079191425
 30
0.0
 10
148.4441248384301
 20
350.7687208027424
 30
0.0
 10
148.3380206586298
 20
350.7530208252424
 30
0.0
 10
148.2025029492299
 20
350.7369857070425
 30
0.0
 10
147.9691734961302
 20
350.7154183535424
 30
0.0
 10
147.61748096463
 20
350.6922224403425
 30
0.0
 10
147.1339082895299
 20
350.6703893825425
 30
0.0
 10
146.5822115977298
 20
350.6540727052425
 30
0.0
 10
145.9836244266303
 20
350.6439861716424
 30
0.0
 10
145.36111698083
 20
350.6405760613425
 30
0.0
 10
144.73860953493
 20
350.6439861716424
 30
0.0
 10
144.1400223638302
 20
350.6540727052425
 30
0.0
 10
143.5883256720299
 20
350.6703893825425
 30
0.0
 10
143.1047529969301
 20
350.6922224403425
 30
0.0
 10
142.75306046543
 20
350.7154183535424
 30
0.0
 10
142.5197310123299
 20
350.7369857070425
 30
0.0
 10
142.38421330303
 20
350.7530208252424
 30
0.0
 10
142.27810912313
 20
350.7687208027424
 30
0.0
 10
142.1992815517299
 20
350.7864079191425
 30
0.0
 10
142.1535913703301
 20
350.7997777916425
 30
0.0
 10
142.12906617323
 20
350.8170388568424
 30
0.0
 10
142.12906617323
 20
350.8249614416425
 30
0.0
  0
SPLINE
  5
A55
330
1F
100
AcDbEntity
  8
0
  6
Continuous
 62
     3
100
AcDbSpline
210
0.0
220
0.0
230
1.0
 70
     8
 71
     3
 72
    23
 73
    19
 74
     0
 42
0.000000001
 43
0.0000000001
 40
0.0
 40
0.0
 40
0.0
 40
0.0
 40
0.0036582121
 40
0.0113290881
 40
0.0400990389
 40
0.0863145472
 40
0.1482898633
 40
0.2237168888
 40
0.3097176538
 40
0.5
 40
0.6902823462000001
 40
0.7762831112000002
 40
0.8517101367
 40
0.9136854528
 40
0.9599009610999999
 40
0.9886709119
 40
0.9963417879000001
 40
1.0
 40
1.0
 40
1.0
 40
1.0
 10
161.61111698083
 20
351.0729923871425
 30
0.0
 10
161.61111698083
 20
351.0745251828424
 30
0.0
 10
161.60635639263
 20
351.0778463709424
 30
0.0
 10
161.5911684802299
 20
351.0823119264425
 30
0.0
 10
161.5559689676302
 20
351.0881186390425
 30
0.0
 10
161.4993788852302
 20
351.0935263030425
 30
0.0
 10
161.4223786472298
 20
351.0986848025425
 30
0.0
 10
161.3289429975298
 20
351.1028755813425
 30
0.0
 10
161.1816031190299
 20
351.1072376615425
 30
0.0
 10
160.98611698083
 20
351.1092408324424
 30
0.0
 10
160.7906308425299
 20
351.1072376615425
 30
0.0
 10
160.6432909640298
 20
351.1028755813425
 30
0.0
 10
160.5498553144302
 20
351.0986848025425
 30
0.0
 10
160.4728550764298
 20
351.0935263030425
 30
0.0
 10
160.4162649939301
 20
351.0881186390425
 30
0.0
 10
160.3810654813301
 20
351.0823119264425
 30
0.0
 10
160.36587756893
 20
351.0778463709424
 30
0.0
 10
160.36111698083
 20
351.0745251828424
 30
0.0
 10
160.36111698083
 20
351.0729923871425
 30
0.0
  0
SPLINE
  5
A56
330
1F
100
AcDbEntity
  8
BEZUGSACHSEN
  6
Continuous
 62
     9
100
AcDbSpline
210
0.0
220
0.0
230
1.0
 70
     8
 71
     3
 72
    27
 73
    23
 74
     0
 42
0.000000001
 43
0.0000000001
 40
0.0
 40
0.0
 40
0.0
 40
0.0
 40
0.0036561991
 40
0.0113184899
 40
0.023474122
 40
0.0401179409
 40
0.0863202219
 40
0.148297262
 40
0.223719385
 40
0.3097168377
 40
0.4030008657
 40
0.4999992756000001
 40
0.5969977612
 40
0.6902819859
 40
0.77627969
 40
0.8517020650999999
 40
0.9136793104999998
 40
0.9598817647
 40
0.9765257018999999
 40
0.988681388
 40
0.9963437622
 40
1.0
 40
1.0
 40
1.0
 40
1.0
 10
143.8611169808298
 20
351.8233531121425
 30
0.0
 10
143.8611169808298
 20
351.8196762449425
 30
0.0
 10
143.8725030808302
 20
351.8116691656425
 30
0.0
 10
143.8937040011301
 20
351.8054616319424
 30
0.0
 10
143.93028380753
 20
351.7972510904424
 30
0.0
 10
144.00448386323
 20
351.7862763706424
 30
0.0
 10
144.1297701166302
 20
351.7738903334424
 30
0.0
 10
144.3138767670298
 20
351.7617543015424
 30
0.0
 10
144.5383735115299
 20
351.7516135227424
 30
0.0
 10
144.79439540063
 20
351.7440438949425
 30
0.0
 10
145.07220951323
 20
351.7393625265424
 30
0.0
 10
145.36111485013
 20
351.7377805870424
 30
0.0
 10
145.6500203850301
 20
351.7393624874425
 30
0.0
 10
145.9278350252302
 20
351.7440438195424
 30
0.0
 10
146.1838576190298
 20
351.7516134112425
 30
0.0
 10
146.4083550800301
 20
351.7617541787424
 30
0.0
 10
146.59246235933
 20
351.7738902093424
 30
0.0
 10
146.7177491278298
 20
351.7862762711425
 30
0.0
 10
146.79194951623
 20
351.7972509445424
 30
0.0
 10
146.82852961713
 20
351.8054615653425
 30
0.0
 10
146.8497306030301
 20
351.8116691699424
 30
0.0
 10
146.86111698083
 20
351.8196762059424
 30
0.0
 10
146.86111698083
 20
351.8233531121425
 30
0.0
  0
SPLINE
  5
A57
330
1F
100
AcDbEntity
  8
BEZUGSACHSEN
  6
Continuous
 62
     3
100
AcDbSpline
210
0.0
220
0.0
230
1.0
 70
     8
 71
     3
 72
     9
 73
     5
 74
     0
 42
0.000000001
 43
0.0000000001
 40
0.0
 40
0.0
 40
0.0
 40
0.0
 40
0.5
 40
1.0
 40
1.0
 40
1.0
 40
1.0
 10
145.8678320256299
 20
351.9162104094424
 30
0.0
 10
145.6990005306302
 20
351.9105870869424
 30
0.0
 10
145.3611169810301
 20
351.9061975001425
 30
0.0
 10
145.0232334315299
 20
351.9105870868425
 30
0.0
 10
144.8544019365299
 20
351.9162104094424
 30
0.0
  0
SPLINE
  5
A58
330
1F
100
AcDbEntity
  8
BEZUGSACHSEN
  6
Continuous
 62
     9
100
AcDbSpline
210
0.0
220
0.0
230
1.0
 70
     8
 71
     3
 72
    27
 73
    23
 74
     0
 42
0.000000001
 43
0.0000000001
 40
0.0
 40
0.0
 40
0.0
 40
0.0
 40
0.0036561991
 40
0.0113184899
 40
0.023474122
 40
0.0401179409
 40
0.0863202219
 40
0.148297262
 40
0.223719385
 40
0.3097168377
 40
0.4030008657
 40
0.4999992756000001
 40
0.5969977612
 40
0.6902819859
 40
0.77627969
 40
0.8517020650999999
 40
0.9136793104999998
 40
0.9598817647
 40
0.9765257018999999
 40
0.988681388
 40
0.9963437622
 40
1.0
 40
1.0
 40
1.0
 40
1.0
 10
123.86111698083
 20
351.8233531121425
 30
0.0
 10
123.86111698083
 20
351.8196762449425
 30
0.0
 10
123.87250308083
 20
351.8116691656425
 30
0.0
 10
123.8937040011301
 20
351.8054616319424
 30
0.0
 10
123.93028380753
 20
351.7972510904424
 30
0.0
 10
124.00448386323
 20
351.7862763706424
 30
0.0
 10
124.12977011663
 20
351.7738903334424
 30
0.0
 10
124.3138767670298
 20
351.7617543015424
 30
0.0
 10
124.5383735115299
 20
351.7516135227424
 30
0.0
 10
124.7943954006298
 20
351.7440438949425
 30
0.0
 10
125.07220951323
 20
351.7393625265424
 30
0.0
 10
125.3611148501299
 20
351.7377805870424
 30
0.0
 10
125.6500203850301
 20
351.7393624874425
 30
0.0
 10
125.92783502523
 20
351.7440438195424
 30
0.0
 10
126.1838576190298
 20
351.7516134112425
 30
0.0
 10
126.4083550800301
 20
351.7617541787424
 30
0.0
 10
126.59246235933
 20
351.7738902093424
 30
0.0
 10
126.7177491278298
 20
351.7862762711425
 30
0.0
 10
126.79194951623
 20
351.7972509445424
 30
0.0
 10
126.8285296171302
 20
351.8054615653425
 30
0.0
 10
126.8497306030299
 20
351.8116691699424
 30
0.0
 10
126.8611169808298
 20
351.8196762059424
 30
0.0
 10
126.8611169808298
 20
351.8233531121425
 30
0.0
  0
SPLINE
  5
A59
330
1F
100
AcDbEntity
  8
BEZUGSACHSEN
  6
Continuous
 62
     3
100
AcDbSpline
210
0.0
220
0.0
230
1.0
 70
     8
 71
     3
 72
     9
 73
     5
 74
     0
 42
0.000000001
 43
0.0000000001
 40
0.0
 40
0.0
 40
0.0
 40
0.0
 40
0.5
 40
1.0
 40
1.0
 40
1.0
 40
1.0
 10
124.8544019471301
 20
351.9162104090425
 30
0.0
 10
125.0232334387299
 20
351.9105870868425
 30
0.0
 10
125.3611169810301
 20
351.9061975001425
 30
0.0
 10
125.6990005234299
 20
351.9105870868425
 30
0.0
 10
125.8678320149301
 20
351.9162104090425
 30
0.0
  0
SPLINE
  5
A5A
330
1F
100
AcDbEntity
  8
0
  6
Continuous
 62
     3
100
AcDbSpline
210
0.0
220
0.0
230
1.0
 70
     8
 71
     3
 72
     8
 73
     4
 74
     0
 42
0.000000001
 43
0.0000000001
 40
0.0
 40
0.0
 40
0.0
 40
0.0
 40
1.0
 40
1.0
 40
1.0
 40
1.0
 10
862.9169637782299
 20
351.0989114162425
 30
0.0
 10
862.7575310960299
 20
351.0583804236425
 30
0.0
 10
862.5828846837299
 20
351.0583804236425
 30
0.0
 10
862.4234520015299
 20
351.0989114162425
 30
0.0
  0
SPLINE
  5
A5B
330
1F
100
AcDbEntity
  8
0
  6
Continuous
 62
     3
100
AcDbSpline
210
0.0
220
0.0
230
1.0
 70
     8
 71
     3
 72
     8
 73
     4
 74
     0
 42
0.000000001
 43
0.0000000001
 40
0.0
 40
0.0
 40
0.0
 40
0.0
 40
1.0
 40
1.0
 40
1.0
 40
1.0
 10
855.0624183236299
 20
351.0989114162425
 30
0.0
 10
854.90298564143
 20
351.0583804236425
 30
0.0
 10
854.72833922923
 20
351.0583804236425
 30
0.0
 10
854.56890654703
 20
351.0989114162425
 30
0.0
  0
SPLINE
  5
A5C
330
1F
100
AcDbEntity
  8
BEZUGSACHSEN
  6
Continuous
 62
     3
100
AcDbSpline
210
0.0
220
0.0
230
1.0
 70
     8
 71
     3
 72
    21
 73
    17
 74
     0
 42
0.000000001
 43
0.0000000001
 40
0.0
 40
0.0
 40
0.0
 40
0.0
 40
0.070664155
 40
0.1402658048
 40
0.2033927929
 40
0.2539983079
 40
0.304663601
 40
0.3632550177
 40
0.5001306548
 40
0.6369324181
 40
0.6954707994
 40
0.7461172826000002
 40
0.796695787
 40
0.8597937514999999
 40
0.9293527953999999
 40
1.0
 40
1.0
 40
1.0
 40
1.0
 10
966.2811273665299
 20
351.5208150750425
 30
0.0
 10
966.1789966585299
 20
351.6241282156425
 30
0.0
 10
965.9532226619299
 20
351.8077553258424
 30
0.0
 10
965.57751753213
 20
351.9980721805425
 30
0.0
 10
965.2124411861301
 20
352.0995849510425
 30
0.0
 10
964.87696401113
 20
352.1439319761424
 30
0.0
 10
964.5491258553299
 20
352.1677935380425
 30
0.0
 10
964.0435477780298
 20
352.1897486289424
 30
0.0
 10
963.36039787463
 20
352.1988133511424
 30
0.0
 10
962.6773569745299
 20
352.1897140431424
 30
0.0
 10
962.1720802308301
 20
352.1677398228425
 30
0.0
 10
961.8444459924299
 20
352.1438465665424
 30
0.0
 10
961.50914393993
 20
352.0993672140424
 30
0.0
 10
961.14427104563
 20
351.9978927482424
 30
0.0
 10
960.76877272633
 20
351.8075716140424
 30
0.0
 10
960.5431042028298
 20
351.6240149270425
 30
0.0
 10
960.4410071989299
 20
351.5207174688425
 30
0.0
  0
SPLINE
  5
A5D
330
1F
100
AcDbEntity
  8
BEZUGSACHSEN
  6
Continuous
 62
     3
100
AcDbSpline
210
0.0
220
0.0
230
1.0
 70
     8
 71
     3
 72
    21
 73
    17
 74
     0
 42
0.000000001
 43
0.0000000001
 40
0.0
 40
0.0
 40
0.0
 40
0.0
 40
0.070664155
 40
0.1402658048
 40
0.2033927929
 40
0.2539983079
 40
0.304663601
 40
0.3632550177
 40
0.5001306548
 40
0.6369324181
 40
0.6954707994
 40
0.7461172826000002
 40
0.796695787
 40
0.8597937514999999
 40
0.9293527953999999
 40
1.0
 40
1.0
 40
1.0
 40
1.0
 10
946.28112736653
 20
351.5208150750425
 30
0.0
 10
946.17899665853
 20
351.6241282156425
 30
0.0
 10
945.95322266193
 20
351.8077553258424
 30
0.0
 10
945.5775175321301
 20
351.9980721805425
 30
0.0
 10
945.21244118613
 20
352.0995849510425
 30
0.0
 10
944.8769640111299
 20
352.1439319761424
 30
0.0
 10
944.54912585533
 20
352.1677935380425
 30
0.0
 10
944.0435477780299
 20
352.1897486289424
 30
0.0
 10
943.3603978746301
 20
352.1988133511424
 30
0.0
 10
942.67735697453
 20
352.1897140431424
 30
0.0
 10
942.17208023083
 20
352.1677398228425
 30
0.0
 10
941.84444599243
 20
352.1438465665424
 30
0.0
 10
941.5091439399301
 20
352.0993672140424
 30
0.0
 10
941.1442710456299
 20
351.9978927482424
 30
0.0
 10
940.7687727263299
 20
351.8075716140424
 30
0.0
 10
940.5431042028299
 20
351.6240149270425
 30
0.0
 10
940.4410071989298
 20
351.5207174688425
 30
0.0
  0
SPLINE
  5
A5E
330
1F
100
AcDbEntity
  8
0
  6
Continuous
 62
     3
100
AcDbSpline
210
0.0
220
0.0
230
1.0
 70
     8
 71
     3
 72
    11
 73
     7
 74
     0
 42
0.000000001
 43
0.0000000001
 40
0.0
 40
0.0
 40
0.0
 40
0.0
 40
0.248388576
 40
0.4987983677
 40
0.7495623548000001
 40
1.0
 40
1.0
 40
1.0
 40
1.0
 10
104.2111169808299
 20
370.9350577166425
 30
0.0
 10
104.2335054653299
 20
370.9350577166425
 30
0.0
 10
104.2785500275299
 20
370.9168344220424
 30
0.0
 10
104.3224228921299
 20
370.8636937060425
 30
0.0
 10
104.3487173062299
 20
370.8005579936424
 30
0.0
 10
104.3572499911299
 20
370.7558866113424
 30
0.0
 10
104.3594367073299
 20
370.7334195998425
 30
0.0
  0
SPLINE
  5
A5F
330
1F
100
AcDbEntity
  8
0
  6
Continuous
 62
     3
100
AcDbSpline
210
0.0
220
0.0
230
1.0
 70
     8
 71
     3
 72
    11
 73
     7
 74
     0
 42
0.000000001
 43
0.0000000001
 40
0.0
 40
0.0
 40
0.0
 40
0.0
 40
0.248388576
 40
0.4987983677
 40
0.7495623548000001
 40
1.0
 40
1.0
 40
1.0
 40
1.0
 10
984.51111698083
 20
370.9350577166425
 30
0.0
 10
984.48872849623
 20
370.9350577166425
 30
0.0
 10
984.4436839341298
 20
370.9168344220424
 30
0.0
 10
984.3998110694299
 20
370.8636937060425
 30
0.0
 10
984.3735166554299
 20
370.8005579936424
 30
0.0
 10
984.36498397053
 20
370.7558866113424
 30
0.0
 10
984.36279725433
 20
370.7334195998425
 30
0.0
  0
SPLINE
  5
A60
330
1F
100
AcDbEntity
  8
RUNDUNGEN
  6
Continuous
 62
     9
100
AcDbSpline
210
0.0
220
0.0
230
1.0
 70
     8
 71
     3
 72
    25
 73
    21
 74
     0
 42
0.000000001
 43
0.0000000001
 40
0.0
 40
0.0
 40
0.0
 40
0.0
 40
0.0030838934
 40
0.0051795302
 40
0.0077505134
 40
0.0144545416
 40
0.0233521318
 40
0.0344877309
 40
0.0478676779
 40
0.0634786211
 40
0.0812956115
 40
0.1234003618
 40
0.1738237466
 40
0.2321091546
 40
0.2977164326
 40
0.3700303308
 40
0.4483677901
 40
0.6200852321000001
 40
0.8063357015999999
 40
1.0
 40
1.0
 40
1.0
 40
1.0
 10
647.3609027057299
 20
351.9163551156424
 30
0.0
 10
647.3588412578298
 20
351.9473030739425
 30
0.0
 10
647.3286195760299
 20
351.9959374826425
 30
0.0
 10
647.2690200393302
 20
352.0452560071425
 30
0.0
 10
647.1712618801301
 20
352.1057818645425
 30
0.0
 10
647.0021378594299
 20
352.1766015375424
 30
0.0
 10
646.7452318104299
 20
352.2566438271424
 30
0.0
 10
646.4185540565299
 20
352.3362107886425
 30
0.0
 10
646.0227387490299
 20
352.4153238752424
 30
0.0
 10
645.55844132533
 20
352.4935014710425
 30
0.0
 10
644.80654691303
 20
352.6023014345425
 30
0.0
 10
643.7039756829299
 20
352.7304799964424
 30
0.0
 10
642.1935567610298
 20
352.8705270432424
 30
0.0
 10
640.4452282807301
 20
353.0021127876424
 30
0.0
 10
638.47557711903
 20
353.1238540232424
 30
0.0
 10
636.3033101993299
 20
353.2344008953424
 30
0.0
 10
633.0638344446299
 20
353.3694458865425
 30
0.0
 10
628.67739707023
 20
353.4990118784424
 30
0.0
 10
623.12997962383
 20
353.5925205490424
 30
0.0
 10
619.30891333553
 20
353.6134379783425
 30
0.0
 10
617.36111698083
 20
353.6134400665425
 30
0.0
  0
SPLINE
  5
A61
330
1F
100
AcDbEntity
  8
RUNDUNGEN
  6
Continuous
 62
     9
100
AcDbSpline
210
0.0
220
0.0
230
1.0
 70
     8
 71
     3
 72
    24
 73
    20
 74
     0
 42
0.000000001
 43
0.0000000001
 40
0.0
 40
0.0
 40
0.0
 40
0.0
 40
0.1939599812
 40
0.3804578957
 40
0.5523317126000002
 40
0.7030142774
 40
0.7685855662000001
 40
0.8267988754999999
 40
0.8771150458999999
 40
0.9190805676
 40
0.9368179730999999
 40
0.9523443628
 40
0.9656369575999999
 40
0.9766859133
 40
0.9855037987000001
 40
0.9921476978999999
 40
0.9947048742999999
 40
0.9968059356999999
 40
1.0
 40
1.0
 40
1.0
 40
1.0
 10
471.3612677650298
 20
351.6166571218424
 30
0.0
 10
469.5387721902299
 20
351.6166559074425
 30
0.0
 10
465.96385978703
 20
351.5956134141425
 30
0.0
 10
460.7747203144299
 20
351.5017554456424
 30
0.0
 10
455.9937873125299
 20
351.3497022438424
 30
0.0
 10
452.3508218946298
 20
351.1735380537425
 30
0.0
 10
449.7774703364298
 20
351.0025494350424
 30
0.0
 10
448.1468405758301
 20
350.8704197347424
 30
0.0
 10
446.7396732726299
 20
350.7298520833424
 30
0.0
 10
445.71373342283
 20
350.6011927314424
 30
0.0
 10
445.0152950305301
 20
350.4919784311425
 30
0.0
 10
444.5848614168299
 20
350.4135447940424
 30
0.0
 10
444.2186819941301
 20
350.3341888049424
 30
0.0
 10
443.9172947066299
 20
350.2543649751425
 30
0.0
 10
443.68131785803
 20
350.1740897945424
 30
0.0
 10
443.5268866635299
 20
350.1029082362425
 30
0.0
 10
443.4390635778299
 20
350.0422236684424
 30
0.0
 10
443.38547075873
 20
349.9920105348425
 30
0.0
 10
443.3611167335298
 20
349.9431454838425
 30
0.0
 10
443.36111698083
 20
349.9131332716424
 30
0.0
  0
SPLINE
  5
A62
330
1F
100
AcDbEntity
  8
RUNDUNGEN
  6
Continuous
 62
     9
100
AcDbSpline
210
0.0
220
0.0
230
1.0
 70
     8
 71
     3
 72
    24
 73
    20
 74
     0
 42
0.000000001
 43
0.0000000001
 40
0.0
 40
0.0
 40
0.0
 40
0.0
 40
0.0031940693
 40
0.0052951249
 40
0.0078522956
 40
0.0144961944
 40
0.0233140825
 40
0.0343630367
 40
0.0476556298
 40
0.0631820184
 40
0.0809194225
 40
0.1228849408
 40
0.1732011076
 40
0.2314144132
 40
0.2969856991
 40
0.4476682606000001
 40
0.6195420827
 40
0.8060400140999998
 40
1.0
 40
1.0
 40
1.0
 40
1.0
 10
645.36111698083
 20
349.9131332716424
 30
0.0
 10
645.36111673353
 20
349.9431455150425
 30
0.0
 10
645.33676292163
 20
349.9920103245425
 30
0.0
 10
645.2831703209301
 20
350.0422236499425
 30
0.0
 10
645.19534745913
 20
350.1029082229424
 30
0.0
 10
645.0409163318299
 20
350.1740896968424
 30
0.0
 10
644.8049396125299
 20
350.2543648384424
 30
0.0
 10
644.5035524920299
 20
350.3341886642425
 30
0.0
 10
644.1373733057299
 20
350.4135446318425
 30
0.0
 10
643.7069399587301
 20
350.4919782449424
 30
0.0
 10
643.00850198953
 20
350.6011925188425
 30
0.0
 10
641.9825627567299
 20
350.7298518419425
 30
0.0
 10
640.5753962895301
 20
350.8704194668425
 30
0.0
 10
638.9447674758299
 20
351.0025491490424
 30
0.0
 10
636.3714173518299
 20
351.1735377571424
 30
0.0
 10
632.72845383913
 20
351.3497019600425
 30
0.0
 10
627.9475231460298
 20
351.5017552291424
 30
0.0
 10
622.7583861177301
 20
351.5956132624424
 30
0.0
 10
619.1834753671299
 20
351.6166559858425
 30
0.0
 10
617.3609806939301
 20
351.6166570836424
 30
0.0
  0
SPLINE
  5
A63
330
1F
100
AcDbEntity
  8
RUNDUNGEN
  6
Continuous
 62
     9
100
AcDbSpline
210
0.0
220
0.0
230
1.0
 70
     8
 71
     3
 72
    25
 73
    21
 74
     0
 42
0.000000001
 43
0.0000000001
 40
0.0
 40
0.0
 40
0.0
 40
0.0
 40
0.1936643122
 40
0.3799147768
 40
0.5516322137
 40
0.6299696716
 40
0.7022835678
 40
0.7678908441
 40
0.8261762511
 40
0.8765996351
 40
0.918704385
 40
0.9365213751
 40
0.9521323179999999
 40
0.9655122659999999
 40
0.9766478659
 40
0.9855454519
 40
0.9922494805999999
 40
0.9948204712999999
 40
0.9969161156999998
 40
1.0
 40
1.0
 40
1.0
 40
1.0
 10
471.36111698083
 20
353.6134400665425
 30
0.0
 10
469.4133204695299
 20
353.6134376835424
 30
0.0
 10
465.59225405713
 20
353.5925206118425
 30
0.0
 10
460.0448365218301
 20
353.4990118233425
 30
0.0
 10
455.6583992219298
 20
353.3694458594425
 30
0.0
 10
452.41892352383
 20
353.2344008671424
 30
0.0
 10
450.2466566349299
 20
353.1238539971425
 30
0.0
 10
448.27700550303
 20
353.0021127634425
 30
0.0
 10
446.52867704203
 20
352.8705270214425
 30
0.0
 10
445.0182581286301
 20
352.7304799762425
 30
0.0
 10
443.9156869026301
 20
352.6023014175424
 30
0.0
 10
443.1637924926301
 20
352.4935014568424
 30
0.0
 10
442.6994950622299
 20
352.4153238563424
 30
0.0
 10
442.3036797336298
 20
352.3362107722424
 30
0.0
 10
441.97700200023
 20
352.2566438459425
 30
0.0
 10
441.7200959665299
 20
352.1766015191424
 30
0.0
 10
441.5509719872302
 20
352.1057817528424
 30
0.0
 10
441.4532135672302
 20
352.0452559547425
 30
0.0
 10
441.39361381553
 20
351.9959377968425
 30
0.0
 10
441.3633918227301
 20
351.9473030341425
 30
0.0
 10
441.36133125023
 20
351.9163551088425
 30
0.0
  0
SPLINE
  5
A64
330
1F
100
AcDbEntity
  8
0
  6
Continuous
 62
     9
100
AcDbSpline
210
0.0
220
0.0
230
1.0
 70
     8
 71
     3
 72
    15
 73
    11
 74
     0
 42
0.000000001
 43
0.0000000001
 40
0.0
 40
0.0
 40
0.0
 40
0.0
 40
0.1165875701
 40
0.2405244673
 40
0.369084355
 40
0.4999984988000001
 40
0.6309127022
 40
0.7594683662000002
 40
0.8834072828
 40
1.0
 40
1.0
 40
1.0
 40
1.0
 10
531.5816905913302
 20
134.5978554845425
 30
0.0
 10
532.5569845341301
 20
134.9041918254424
 30
0.0
 10
534.55835595503
 20
135.5693061714424
 30
0.0
 10
537.6516074297301
 20
136.5233585471425
 30
0.0
 10
540.9351410254298
 20
137.2726477611424
 30
0.0
 10
544.3608473782301
 20
137.5698822873424
 30
0.0
 10
547.7865279624297
 20
137.2727545207424
 30
0.0
 10
551.0700558240301
 20
136.5235189805424
 30
0.0
 10
554.1633401002299
 20
135.5694844586424
 30
0.0
 10
556.1647728333301
 20
134.9043559461424
 30
0.0
 10
557.14010556383
 20
134.5979924903424
 30
0.0
  0
SPLINE
  5
A65
330
1F
100
AcDbEntity
  8
0
  6
Continuous
 62
     9
100
AcDbSpline
210
0.0
220
0.0
230
1.0
 70
     8
 71
     3
 72
    13
 73
     9
 74
     0
 42
0.000000001
 43
0.0000000001
 40
0.0
 40
0.0
 40
0.0
 40
0.0
 40
0.245598235
 40
0.3721970652
 40
0.5000019422
 40
0.6278059287
 40
0.7544031820999999
 40
1.0
 40
1.0
 40
1.0
 40
1.0
 10
537.1453729224299
 20
134.5998750845424
 30
0.0
 10
538.2798352724298
 20
135.0381191600424
 30
0.0
 10
540.0305841138301
 20
135.6375540071424
 30
0.0
 10
542.4665240639298
 20
136.1069120663425
 30
0.0
 10
544.3604156734299
 20
136.2350997728424
 30
0.0
 10
546.2543137606298
 20
136.1071310515424
 30
0.0
 10
548.6902871521299
 20
135.6380035676425
 30
0.0
 10
550.44100504173
 20
135.0385261985425
 30
0.0
 10
551.5755105896301
 20
134.6004134420425
 30
0.0
  0
LINE
  5
A66
330
1F
100
AcDbEntity
  8
RUNDUNGEN
  6
Continuous
 62
     7
100
AcDbLine
 10
444.3611170050298
 20
161.5989404615425
 30
0.0
 11
443.48372629643
 21
161.5989389065424
 31
0.0
  0
LINE
  5
A67
330
1F
100
AcDbEntity
  8
RUNDUNGEN
  6
Continuous
 62
     7
100
AcDbLine
 10
443.48372629643
 20
161.5989389065424
 30
0.0
 11
443.3108393187299
 21
161.5989390992424
 31
0.0
  0
LINE
  5
A68
330
1F
100
AcDbEntity
  8
RUNDUNGEN
  6
Continuous
 62
     7
100
AcDbLine
 10
443.3108393187299
 20
161.5989390992424
 30
0.0
 11
441.36159909553
 21
161.5989404600425
 31
0.0
  0
LINE
  5
A69
330
1F
100
AcDbEntity
  8
RUNDUNGEN
  6
Continuous
 62
     7
100
AcDbLine
 10
644.36111695663
 20
161.5989404615425
 30
0.0
 11
645.2385076652301
 21
161.5989420165424
 31
0.0
  0
LINE
  5
A6A
330
1F
100
AcDbEntity
  8
RUNDUNGEN
  6
Continuous
 62
     7
100
AcDbLine
 10
645.2385076652301
 20
161.5989420165424
 30
0.0
 11
645.4113946428299
 21
161.5989418238424
 31
0.0
  0
LINE
  5
A6B
330
1F
100
AcDbEntity
  8
RUNDUNGEN
  6
Continuous
 62
     7
100
AcDbLine
 10
645.4113946428299
 20
161.5989418238424
 30
0.0
 11
647.3606348661299
 21
161.5989404630425
 31
0.0
  0
DIMENSION
  5
A6C
330
1F
100
AcDbEntity
  8
P-0000
  6
Continuous
100
AcDbDimension
280
     0
  2
*D15
 10
26.7082661244845
 20
302.7350577166426
 30
0.0
 11
26.70826612448446
 21
350.4132303892977
 31
0.0
 70
   160
 71
     2
 42
97.19999999999988
 73
     0
 74
     0
 75
     0
  3
883N99122_001_00149479900
100
AcDbAlignedDimension
 13
81.86111698083005
 23
399.9350577166424
 33
0.0
 14
494.4310170800799
 24
302.7350577166425
 34
0.0
 50
270.0
100
AcDbRotatedDimension
1001
ACAD_DSTYLE_DIMINSPECT
1070
   396
1000
100%
1070
   395
1000

1070
   394
1070
    33
1070
   393
1070
     0
1001
ACAD
1000
DSTYLE
1002
{
1070
   271
1070
     0
1070
   288
1070
     1
1002
}
  0
DIMENSION
  5
A6D
330
1F
100
AcDbEntity
  8
P-0000
  6
Continuous
100
AcDbDimension
280
     0
  2
*D16
 10
52.23441865985048
 20
129.5112168741424
 30
0.0
 11
52.23441865985046
 21
162.9440644425022
 31
0.0
 70
   160
  1
<>
 71
     2
 42
64.08772358740009
 73
     0
 74
     0
 75
     0
  3
883N99122_001_00149479900
100
AcDbAlignedDimension
 13
104.86111698083
 23
193.5989404615425
 33
0.0
 14
104.86111698083
 24
129.5112168741424
 34
0.0
 50
270.0
100
AcDbRotatedDimension
1001
ACAD_DSTYLE_DIMINSPECT
1070
   396
1000
100%
1070
   395
1000

1070
   394
1070
    33
1070
   393
1070
     0
1001
ACAD
1000
DSTYLE
1002
{
1070
   271
1070
     0
1070
   288
1070
     1
1002
}
  0
DIMENSION
  5
A6E
330
1F
100
AcDbEntity
  8
P-0000
  6
Continuous
100
AcDbDimension
280
     0
  2
*D17
 10
27.62779226694876
 20
95.59894046154251
 30
0.0
 11
27.62779226694874
 21
156.2859273122699
 31
0.0
 70
   160
  1
<>
 71
     2
 42
112.0
 73
     0
 74
     0
 75
     0
  3
883N99122_001_00149479900
100
AcDbAlignedDimension
 13
72.36111698083004
 23
207.5989404615425
 33
0.0
 14
93.61111698083005
 24
95.5989404615425
 34
0.0
 50
270.0
100
AcDbRotatedDimension
1001
ACAD_DSTYLE_DIMINSPECT
1070
   396
1000
100%
1070
   395
1000

1070
   394
1070
    33
1070
   393
1070
     0
1001
ACAD
1000
DSTYLE
1002
{
1070
   271
1070
     0
1070
   288
1070
     1
1002
}
  0
DIMENSION
  5
A6F
330
1F
100
AcDbEntity
  8
P-0000
  6
Continuous
100
AcDbDimension
280
     0
  2
*D18
 10
51.32451390288549
 20
369.9350577166425
 30
0.0
 11
51.32451390288543
 21
383.180628237039
 31
0.0
 70
   160
 71
     2
 42
30.0
 73
     0
 74
     0
 75
     0
  3
883N99122_001_00149479900
100
AcDbAlignedDimension
 13
81.86111698083005
 23
399.9350577166424
 33
0.0
 14
103.36111698083
 24
369.9350577166425
 34
0.0
 50
270.0
100
AcDbRotatedDimension
1001
ACAD_DSTYLE_DIMINSPECT
1070
   396
1000
100%
1070
   395
1000

1070
   394
1070
    33
1070
   393
1070
     0
1001
ACAD
1000
DSTYLE
1002
{
1070
   271
1070
     0
1070
   288
1070
     1
1002
}
  0
DIMENSION
  5
A70
102
{ACAD_XDICTIONARY
360
A71
102
}
102
{ACAD_REACTORS
330
A72
102
}
330
1F
100
AcDbEntity
  8
P-0000
  6
Continuous
100
AcDbDimension
280
     0
  2
*D20
 10
984.3611169808299
 20
425.077961248174
 30
0.0
 11
544.36111698083
 21
432.5779612481739
 31
0.0
 70
    32
  1
<>
 71
     5
 42
880.0
 73
     0
 74
     0
 75
     0
  3
883N99122_001_00149479900
100
AcDbAlignedDimension
 13
104.36111698083
 23
362.6850577166424
 33
0.0
 14
984.3611169808299
 24
363.9350577166424
 34
0.0
100
AcDbRotatedDimension
1001
ACAD
1000
DSTYLE
1002
{
1070
   271
1070
     0
1070
   288
1070
     1
1002
}
1001
ACAD_DSTYLE_DIMINSPECT
1070
   396
1000
100%
1070
   395
1000

1070
   394
1070
    33
1070
   393
1070
     0
  0
DIMENSION
  5
A73
330
1F
100
AcDbEntity
  8
P-0000
  6
Continuous
100
AcDbDimension
280
     0
  2
*D19
 10
102.36111698083
 20
438.9163111790098
 30
0.0
 11
544.36111698083
 21
446.4163111790099
 31
0.0
 70
    32
 71
     5
 42
884.0
 73
     0
 74
     0
 75
     0
  3
883N99122_001_00149479900
100
AcDbAlignedDimension
 13
986.3611169808301
 23
363.4350577166424
 33
0.0
 14
102.36111698083
 24
363.4350577166424
 34
0.0
100
AcDbRotatedDimension
1001
ACAD
1000
DSTYLE
1002
{
1070
   271
1070
     0
1070
   288
1070
     1
1002
}
1001
ACAD_DSTYLE_DIMINSPECT
1070
   396
1000
100%
1070
   395
1000

1070
   394
1070
    33
1070
   393
1070
     0
  0
DIMENSION
  5
A74
102
{ACAD_XDICTIONARY
360
A75
102
}
102
{ACAD_REACTORS
330
A76
102
}
330
1F
100
AcDbEntity
  8
P-0000
  6
Continuous
100
AcDbDimension
280
     0
  2
*D21
 10
71.86111698083005
 20
452.7546632128612
 30
0.0
 11
544.36111698083
 21
460.2546632128612
 31
0.0
 70
    32
 71
     5
 42
944.9999999999999
 73
     0
 74
     0
 75
     0
  3
883N99122_001_00149479900
100
AcDbAlignedDimension
 13
1016.86111698083
 23
373.9350577166424
 33
0.0
 14
71.86111698083005
 24
373.9350577166424
 34
0.0
100
AcDbRotatedDimension
1001
ACAD
1000
DSTYLE
1002
{
1070
   271
1070
     0
1070
   288
1070
     1
1002
}
1001
ACAD_DSTYLE_DIMINSPECT
1070
   396
1000
100%
1070
   395
1000

1070
   394
1070
    33
1070
   393
1070
     0
  0
ENDSEC
  0
SECTION
  2
OBJECTS
  0
DICTIONARY
  5
C
330
0
100
AcDbDictionary
281
     1
  3
ACAD_CIP_PREVIOUS_PRODUCT_INFO
350
5FA
  3
ACAD_COLOR
350
BE
  3
ACAD_DETAILVIEWSTYLE
350
5EF
  3
ACAD_FIELDLIST
350
612
  3
ACAD_GROUP
350
D
  3
ACAD_LAYOUT
350
1A
  3
ACAD_MATERIAL
350
BD
  3
ACAD_MLEADERSTYLE
350
3EF
  3
ACAD_MLINESTYLE
350
17
  3
ACAD_PLOTSETTINGS
350
19
  3
ACAD_PLOTSTYLENAME
350
E
  3
ACAD_SCALELIST
350
3DD
  3
ACAD_SECTIONVIEWSTYLE
350
5ED
  3
ACAD_TABLESTYLE
350
11A
  3
ACAD_VISUALSTYLE
350
3CC
  3
ACDB_RECOMPOSE_DATA
350
B4A
  3
AcDbVariableDictionary
350
94
  3
AcDsDecomposeData
350
B50
  3
AcmDictionary
350
5B
  3
AMG
350
41
  3
AMGSNAPSETTINGS
350
26B
  0
DICTIONARY
  5
5DD
330
2
100
AcDbDictionary
280
     1
281
     1
  3
ACAD_LAYERSTATES
360
5DE
  0
DICTIONARY
  5
B41
330
10
100
AcDbDictionary
280
     1
281
     1
  3
ADSK_XREC_LAYER_RECONCILED
360
B42
  0
DICTIONARY
  5
6B2
330
6B1
100
AcDbDictionary
280
     1
281
     1
  3
ADSK_XREC_LAYER_RECONCILED
360
B43
  0
DICTIONARY
  5
6B4
330
6B3
100
AcDbDictionary
280
     1
281
     1
  3
ADSK_XREC_LAYER_RECONCILED
360
B44
  0
DICTIONARY
  5
6B6
330
6B5
100
AcDbDictionary
280
     1
281
     1
  3
ADSK_XREC_LAYER_RECONCILED
360
B45
  0
DICTIONARY
  5
6B8
330
6B7
100
AcDbDictionary
280
     1
281
     1
  3
ADSK_XREC_LAYER_RECONCILED
360
B46
  0
DICTIONARY
  5
6BA
330
6B9
100
AcDbDictionary
280
     1
281
     1
  3
ADSK_XREC_LAYER_RECONCILED
360
B47
  0
DICTIONARY
  5
6BD
330
6BC
100
AcDbDictionary
280
     1
281
     1
  3
ADSK_XREC_LAYER_RECONCILED
360
B48
  0
DICTIONARY
  5
8F
330
1F
100
AcDbDictionary
280
     1
281
     1
  0
DICTIONARY
  5
A71
330
A70
100
AcDbDictionary
280
     1
281
     1
  3
ACAD_DIMASSOC
360
A72
  0
DICTIONARY
  5
A75
330
A74
100
AcDbDictionary
280
     1
281
     1
  3
ACAD_DIMASSOC
360
A76
  0
XRECORD
  5
5FA
102
{ACAD_REACTORS
330
C
102
}
330
C
100
AcDbXrecord
280
     1
300
AMECH_PP
300
2014
300
86138AMECH_PP_2014_0F
  0
DICTIONARY
  5
BE
102
{ACAD_REACTORS
330
C
102
}
330
C
100
AcDbDictionary
281
     1
  0
DICTIONARY
  5
5EF
102
{ACAD_REACTORS
330
C
102
}
330
C
100
AcDbDictionary
281
     1
  3
Metric50
350
5F0
  0
FIELDLIST
  5
612
102
{ACAD_REACTORS
330
C
102
}
330
C
100
AcDbIdSet
 90
       12
330
6C6
330
6C7
330
6C8
330
610
330
611
330
613
330
617
330
618
330
619
330
621
330
622
330
623
100
AcDbFieldList
  0
DICTIONARY
  5
D
102
{ACAD_REACTORS
330
C
102
}
330
C
100
AcDbDictionary
281
     1
  0
DICTIONARY
  5
1A
102
{ACAD_REACTORS
330
C
102
}
330
C
100
AcDbDictionary
281
     1
  3
Layout1
350
1E
  3
Layout2
350
26
  3
Model
350
22
  0
DICTIONARY
  5
BD
102
{ACAD_REACTORS
330
C
102
}
330
C
100
AcDbDictionary
281
     1
  3
ByBlock
350
3BC
  3
ByLayer
350
3B4
  3
Global
350
3C4
  0
DICTIONARY
  5
3EF
102
{ACAD_REACTORS
330
C
102
}
330
C
100
AcDbDictionary
281
     1
  3
Standard
350
3F0
  0
DICTIONARY
  5
17
102
{ACAD_REACTORS
330
C
102
}
330
C
100
AcDbDictionary
281
     1
  3
Standard
350
18
  0
DICTIONARY
  5
19
102
{ACAD_REACTORS
330
C
102
}
330
C
100
AcDbDictionary
281
     1
  0
ACDBDICTIONARYWDFLT
  5
E
102
{ACAD_REACTORS
330
C
102
}
330
C
100
AcDbDictionary
281
     1
  3
Normal
350
F
100
AcDbDictionaryWithDefault
340
F
  0
DICTIONARY
  5
3DD
102
{ACAD_REACTORS
330
C
102
}
330
C
100
AcDbDictionary
281
     1
  3
A0
350
3DE
  3
A1
350
3DF
  3
A2
350
3E0
  3
A3
350
3E1
  3
A4
350
3E2
  3
A5
350
3E3
  3
A6
350
3E4
  3
A7
350
3E5
  3
A8
350
3E6
  3
A9
350
3E7
  3
B0
350
3E8
  3
B1
350
3E9
  3
B2
350
3EA
  3
B3
350
3EB
  3
B4
350
3EC
  3
B5
350
3ED
  3
B6
350
3EE
  0
DICTIONARY
  5
5ED
102
{ACAD_REACTORS
330
C
102
}
330
C
100
AcDbDictionary
281
     1
  3
ISO 128-40_2001(E)
350
6C3
  3
Metric50
350
5EE
  0
DICTIONARY
  5
11A
102
{ACAD_REACTORS
330
C
102
}
330
C
100
AcDbDictionary
281
     1
  3
Standard
350
11B
  0
DICTIONARY
  5
3CC
102
{ACAD_REACTORS
330
C
102
}
330
C
100
AcDbDictionary
281
     1
  3
2dWireframe
350
3D2
  3
3D Hidden
350
3D4
  3
3dWireframe
350
3D3
  3
Basic
350
3D1
  3
Brighten
350
3D8
  3
ColorChange
350
3DC
  3
Conceptual
350
3D5
  3
Dim
350
3D7
  3
EdgeColorOff
350
5A4
  3
Facepattern
350
3DB
  3
Flat
350
3CD
  3
FlatWithEdges
350
3CE
  3
Gouraud
350
3CF
  3
GouraudWithEdges
350
3D0
  3
Hidden
350
5E7
  3
JitterOff
350
5A2
  3
Linepattern
350
3DA
  3
OverhangOff
350
5A3
  3
Realistic
350
3D6
  3
Shaded
350
5EC
  3
Shaded with edges
350
5EB
  3
Shades of Gray
350
5E8
  3
Sketchy
350
5E9
  3
Thicken
350
3D9
  3
Wireframe
350
5E6
  3
X-Ray
350
5EA
  0
XRECORD
  5
B4A
102
{ACAD_REACTORS
330
C
102
}
330
C
100
AcDbXrecord
280
     1
 90
        1
330
11B
  0
DICTIONARY
  5
94
102
{ACAD_REACTORS
330
C
102
}
330
C
100
AcDbDictionary
281
     1
  3
CANNOSCALE
350
420
  3
CMLEADERSTYLE
350
41E
  3
CTABLESTYLE
350
138
  3
CVIEWDETAILSTYLE
350
63B
  3
CVIEWSECTIONSTYLE
350
63C
  3
DIMASSOC
350
96
  3
INDEXCTL
350
95
  3
LAYEREVAL
350
422
  3
LAYERNOTIFY
350
423
  3
LIGHTINGUNITS
350
421
  3
MSLTSCALE
350
41F
  0
DICTIONARY
  5
B50
102
{ACAD_REACTORS
330
C
102
}
330
C
100
AcDbDictionary
281
     1
  3
AcDsRecords
350
B52
  3
AcDsSchemas
350
B51
1001
ACAD
1070
     2
  0
DICTIONARY
  5
5B
102
{ACAD_REACTORS
330
C
102
}
330
C
100
AcDbDictionary
281
     1
  3
AcmBOM
350
272
  3
AcmStdDictionary
350
61
  3
AMDTSECTSYM_ARROWCOLOR
350
123
  0
DICTIONARY
  5
41
102
{ACAD_REACTORS
330
C
102
}
330
C
100
AcDbDictionary
281
     1
  0
DICTIONARY
  5
26B
102
{ACAD_REACTORS
330
C
102
}
330
C
100
AcDbDictionary
281
     1
  0
DICTIONARY
  5
5DE
102
{ACAD_REACTORS
330
5DD
102
}
330
5DD
100
AcDbDictionary
281
     1
  0
XRECORD
  5
B42
102
{ACAD_REACTORS
330
B41
102
}
330
B41
100
AcDbXrecord
280
     1
290
     1
  0
XRECORD
  5
B43
102
{ACAD_REACTORS
330
6B2
102
}
330
6B2
100
AcDbXrecord
280
     1
290
     1
  0
XRECORD
  5
B44
102
{ACAD_REACTORS
330
6B4
102
}
330
6B4
100
AcDbXrecord
280
     1
290
     1
  0
XRECORD
  5
B45
102
{ACAD_REACTORS
330
6B6
102
}
330
6B6
100
AcDbXrecord
280
     1
290
     1
  0
XRECORD
  5
B46
102
{ACAD_REACTORS
330
6B8
102
}
330
6B8
100
AcDbXrecord
280
     1
290
     1
  0
XRECORD
  5
B47
102
{ACAD_REACTORS
330
6BA
102
}
330
6BA
100
AcDbXrecord
280
     1
290
     1
  0
XRECORD
  5
B48
102
{ACAD_REACTORS
330
6BD
102
}
330
6BD
100
AcDbXrecord
280
     1
290
     1
  0
DIMASSOC
  5
A72
102
{ACAD_REACTORS
330
A71
102
}
330
A71
100
AcDbDimAssoc
330
A70
 90
        3
 70
     0
 71
     0
  1
AcDbOsnapPointRef
 72
     2
331
8AC
 73
     0
 91
        0
 40
0.0
 10
0.0
 20
0.0
 30
0.0
 75
     0
  1
AcDbOsnapPointRef
 72
     2
331
98A
 73
     0
 91
        0
 40
0.0
 10
0.0
 20
0.0
 30
0.0
 75
     0
  0
DIMASSOC
  5
A76
102
{ACAD_REACTORS
330
A75
102
}
330
A75
100
AcDbDimAssoc
330
A74
 90
        3
 70
     0
 71
     0
  1
AcDbOsnapPointRef
 72
     2
331
991
 73
     0
 91
        0
 40
0.0
 10
0.0
 20
0.0
 30
0.0
 75
     0
  1
AcDbOsnapPointRef
 72
     2
331
8A6
 73
     0
 91
        0
 40
0.0
 10
0.0
 20
0.0
 30
0.0
 75
     0
  0
ACDBDETAILVIEWSTYLE
  5
5F0
102
{ACAD_XDICTIONARY
360
633
102
}
102
{ACAD_REACTORS
330
5EF
330
605
330
607
102
}
330
5EF
100
AcDbModelDocViewStyle
 70
     0
  3
Metric50
290
     0
100
AcDbDetailViewStyle
 70
     0
 71
     0
 90
        3
 71
     1
340
11
 62
   256
 40
5.0
340
0
 62
   256
 40
5.0
300

 40
0.0
280
     1
 71
     2
340
16
 90
       25
 62
   256
 71
     3
340
11
 62
   256
 40
5.0
 90
        0
 40
15.0
 90
        1
300
%<\AcVar ViewDetailId>% (%<\AcVar ViewScale \f "%sn">%)
 71
     4
340
16
 90
       25
 62
   256
340
16
 90
       25
 62
   256
280
     0
  0
LAYOUT
  5
1E
102
{ACAD_REACTORS
330
1A
102
}
330
1A
100
AcDbPlotSettings
  1

  2

  4

  6

 40
0.0
 41
0.0
 42
0.0
 43
0.0
 44
0.0
 45
0.0
 46
0.0
 47
0.0
 48
0.0
 49
0.0
140
0.0
141
0.0
142
1.0
143
1.0
 70
   688
 72
     0
 73
     0
 74
     5
  7

 75
    16
147
1.0
 76
     0
 77
     2
 78
   300
148
0.0
149
0.0
100
AcDbLayout
  1
Layout1
 70
     1
 71
     1
 10
0.0
 20
0.0
 11
420.0
 21
297.0
 12
0.0
 22
0.0
 32
0.0
 14
1.000000000000000E+20
 24
1.000000000000000E+20
 34
1.000000000000000E+20
 15
-1.000000000000000E+20
 25
-1.000000000000000E+20
 35
-1.000000000000000E+20
146
0.0
 13
0.0
 23
0.0
 33
0.0
 16
1.0
 26
0.0
 36
0.0
 17
0.0
 27
1.0
 37
0.0
 76
     0
330
1B
  0
LAYOUT
  5
26
102
{ACAD_REACTORS
330
1A
102
}
330
1A
100
AcDbPlotSettings
  1

  2

  4

  6

 40
0.0
 41
0.0
 42
0.0
 43
0.0
 44
0.0
 45
0.0
 46
0.0
 47
0.0
 48
0.0
 49
0.0
140
0.0
141
0.0
142
1.0
143
1.0
 70
   688
 72
     0
 73
     0
 74
     5
  7

 75
    16
147
1.0
 76
     0
 77
     2
 78
   300
148
0.0
149
0.0
100
AcDbLayout
  1
Layout2
 70
     1
 71
     2
 10
0.0
 20
0.0
 11
12.0
 21
9.0
 12
0.0
 22
0.0
 32
0.0
 14
0.0
 24
0.0
 34
0.0
 15
0.0
 25
0.0
 35
0.0
146
0.0
 13
0.0
 23
0.0
 33
0.0
 16
1.0
 26
0.0
 36
0.0
 17
0.0
 27
1.0
 37
0.0
 76
     0
330
23
  0
LAYOUT
  5
22
102
{ACAD_XDICTIONARY
360
5E3
102
}
102
{ACAD_REACTORS
330
1A
102
}
330
1A
100
AcDbPlotSettings
  1

  2

  4

  6

 40
0.0
 41
0.0
 42
0.0
 43
0.0
 44
0.0
 45
0.0
 46
0.0
 47
0.0
 48
0.0
 49
0.0
140
0.0
141
0.0
142
1.0
143
1.0
 70
  1712
 72
     0
 73
     0
 74
     0
  7

 75
     0
147
1.0
 76
     0
 77
     2
 78
   300
148
0.0
149
0.0
100
AcDbLayout
  1
Model
 70
     1
 71
     0
 10
0.0
 20
0.0
 11
12.0
 21
9.0
 12
0.0
 22
0.0
 32
0.0
 14
0.0
 24
0.0
 34
0.0
 15
0.0
 25
0.0
 35
0.0
146
0.0
 13
0.0
 23
0.0
 33
0.0
 16
1.0
 26
0.0
 36
0.0
 17
0.0
 27
1.0
 37
0.0
 76
     0
330
1F
331
3B2
  0
MATERIAL
  5
3BC
102
{ACAD_XDICTIONARY
360
3BD
102
}
102
{ACAD_REACTORS
330
BD
102
}
330
BD
100
AcDbMaterial
  1
ByBlock
 72
     0
 43
0.0008202099737533
 43
0.0
 43
0.0
 43
0.0
 43
0.0
 43
0.0008202099737533
 43
0.0
 43
0.0
 43
0.0
 43
0.0
 43
1.0
 43
0.0
 43
0.0
 43
0.0
 43
0.0
 43
1.0
 77
     0
 47
0.0008202099737533
 47
0.0
 47
0.0
 47
0.0
 47
0.0
 47
0.0008202099737533
 47
0.0
 47
0.0
 47
0.0
 47
0.0
 47
1.0
 47
0.0
 47
0.0
 47
0.0
 47
0.0
 47
1.0
171
     0
 49
0.0008202099737533
 49
0.0
 49
0.0
 49
0.0
 49
0.0
 49
0.0008202099737533
 49
0.0
 49
0.0
 49
0.0
 49
0.0
 49
1.0
 49
0.0
 49
0.0
 49
0.0
 49
0.0
 49
1.0
175
     0
142
0.0008202099737533
142
0.0
142
0.0
142
0.0
142
0.0
142
0.0008202099737533
142
0.0
142
0.0
142
0.0
142
0.0
142
1.0
142
0.0
142
0.0
142
0.0
142
0.0
142
1.0
179
     0
144
0.0008202099737533
144
0.0
144
0.0
144
0.0
144
0.0
144
0.0008202099737533
144
0.0
144
0.0
144
0.0
144
0.0
144
1.0
144
0.0
144
0.0
144
0.0
144
0.0
144
1.0
147
0.0008202099737533
147
0.0
147
0.0
147
0.0
147
0.0
147
0.0008202099737533
147
0.0
147
0.0
147
0.0
147
0.0
147
1.0
147
0.0
147
0.0
147
0.0
147
0.0
147
1.0
  0
MATERIAL
  5
3B4
102
{ACAD_XDICTIONARY
360
3B5
102
}
102
{ACAD_REACTORS
330
BD
102
}
330
BD
100
AcDbMaterial
  1
ByLayer
 72
     0
 43
0.0008202099737533
 43
0.0
 43
0.0
 43
0.0
 43
0.0
 43
0.0008202099737533
 43
0.0
 43
0.0
 43
0.0
 43
0.0
 43
1.0
 43
0.0
 43
0.0
 43
0.0
 43
0.0
 43
1.0
 77
     0
 47
0.0008202099737533
 47
0.0
 47
0.0
 47
0.0
 47
0.0
 47
0.0008202099737533
 47
0.0
 47
0.0
 47
0.0
 47
0.0
 47
1.0
 47
0.0
 47
0.0
 47
0.0
 47
0.0
 47
1.0
171
     0
 49
0.0008202099737533
 49
0.0
 49
0.0
 49
0.0
 49
0.0
 49
0.0008202099737533
 49
0.0
 49
0.0
 49
0.0
 49
0.0
 49
1.0
 49
0.0
 49
0.0
 49
0.0
 49
0.0
 49
1.0
175
     0
142
0.0008202099737533
142
0.0
142
0.0
142
0.0
142
0.0
142
0.0008202099737533
142
0.0
142
0.0
142
0.0
142
0.0
142
1.0
142
0.0
142
0.0
142
0.0
142
0.0
142
1.0
179
     0
144
0.0008202099737533
144
0.0
144
0.0
144
0.0
144
0.0
144
0.0008202099737533
144
0.0
144
0.0
144
0.0
144
0.0
144
1.0
144
0.0
144
0.0
144
0.0
144
0.0
144
1.0
147
0.0008202099737533
147
0.0
147
0.0
147
0.0
147
0.0
147
0.0008202099737533
147
0.0
147
0.0
147
0.0
147
0.0
147
1.0
147
0.0
147
0.0
147
0.0
147
0.0
147
1.0
  0
MATERIAL
  5
3C4
102
{ACAD_XDICTIONARY
360
3C5
102
}
102
{ACAD_REACTORS
330
BD
102
}
330
BD
100
AcDbMaterial
  1
Global
 72
     0
 43
0.0008202099737533
 43
0.0
 43
0.0
 43
0.0
 43
0.0
 43
0.0008202099737533
 43
0.0
 43
0.0
 43
0.0
 43
0.0
 43
1.0
 43
0.0
 43
0.0
 43
0.0
 43
0.0
 43
1.0
 77
     0
 47
0.0008202099737533
 47
0.0
 47
0.0
 47
0.0
 47
0.0
 47
0.0008202099737533
 47
0.0
 47
0.0
 47
0.0
 47
0.0
 47
1.0
 47
0.0
 47
0.0
 47
0.0
 47
0.0
 47
1.0
171
     0
 49
0.0008202099737533
 49
0.0
 49
0.0
 49
0.0
 49
0.0
 49
0.0008202099737533
 49
0.0
 49
0.0
 49
0.0
 49
0.0
 49
1.0
 49
0.0
 49
0.0
 49
0.0
 49
0.0
 49
1.0
175
     0
142
0.0008202099737533
142
0.0
142
0.0
142
0.0
142
0.0
142
0.0008202099737533
142
0.0
142
0.0
142
0.0
142
0.0
142
1.0
142
0.0
142
0.0
142
0.0
142
0.0
142
1.0
179
     0
144
0.0008202099737533
144
0.0
144
0.0
144
0.0
144
0.0
144
0.0008202099737533
144
0.0
144
0.0
144
0.0
144
0.0
144
1.0
144
0.0
144
0.0
144
0.0
144
0.0
144
1.0
147
0.0008202099737533
147
0.0
147
0.0
147
0.0
147
0.0
147
0.0008202099737533
147
0.0
147
0.0
147
0.0
147
0.0
147
1.0
147
0.0
147
0.0
147
0.0
147
0.0
147
1.0
  0
MLEADERSTYLE
  5
3F0
102
{ACAD_REACTORS
330
3EF
102
}
330
3EF
100
AcDbMLeaderStyle
179
     2
170
     2
171
     1
172
     0
 90
        2
 40
0.0
 41
0.0
173
     1
 91
-1056964608
340
14
 92
       -2
290
     1
 42
2.0
291
     1
 43
0.36
  3
Standard
 44
4.0
300

342
11
174
     1
178
     6
175
     1
176
     0
 93
-1056964608
 45
4.0
292
     0
297
     0
 46
4.0
 94
-1056964608
 47
1.0
 49
1.0
140
1.0
293
     1
141
0.0
294
     1
177
     0
142
1.0
295
     0
296
     0
143
0.125
271
     0
272
     9
273
     9
  0
MLINESTYLE
  5
18
102
{ACAD_REACTORS
330
17
102
}
330
17
100
AcDbMlineStyle
  2
STANDARD
 70
     0
  3

 62
   256
 51
90.0
 52
90.0
 71
     2
 49
0.5
 62
   256
  6
BYLAYER
 49
-0.5
 62
   256
  6
BYLAYER
  0
ACDBPLACEHOLDER
  5
F
102
{ACAD_REACTORS
330
E
102
}
330
E
  0
SCALE
  5
3DE
102
{ACAD_REACTORS
330
3DD
102
}
330
3DD
100
AcDbScale
 70
     0
300
1:1
140
1.0
141
1.0
290
     1
  0
SCALE
  5
3DF
102
{ACAD_REACTORS
330
3DD
102
}
330
3DD
100
AcDbScale
 70
     0
300
1:2
140
1.0
141
2.0
290
     0
  0
SCALE
  5
3E0
102
{ACAD_REACTORS
330
3DD
102
}
330
3DD
100
AcDbScale
 70
     0
300
1:4
140
1.0
141
4.0
290
     0
  0
SCALE
  5
3E1
102
{ACAD_REACTORS
330
3DD
102
}
330
3DD
100
AcDbScale
 70
     0
300
1:5
140
1.0
141
5.0
290
     0
  0
SCALE
  5
3E2
102
{ACAD_REACTORS
330
3DD
102
}
330
3DD
100
AcDbScale
 70
     0
300
1:8
140
1.0
141
8.0
290
     0
  0
SCALE
  5
3E3
102
{ACAD_REACTORS
330
3DD
102
}
330
3DD
100
AcDbScale
 70
     0
300
1:10
140
1.0
141
10.0
290
     0
  0
SCALE
  5
3E4
102
{ACAD_REACTORS
330
3DD
102
}
330
3DD
100
AcDbScale
 70
     0
300
1:16
140
1.0
141
16.0
290
     0
  0
SCALE
  5
3E5
102
{ACAD_REACTORS
330
3DD
102
}
330
3DD
100
AcDbScale
 70
     0
300
1:20
140
1.0
141
20.0
290
     0
  0
SCALE
  5
3E6
102
{ACAD_REACTORS
330
3DD
102
}
330
3DD
100
AcDbScale
 70
     0
300
1:30
140
1.0
141
30.0
290
     0
  0
SCALE
  5
3E7
102
{ACAD_REACTORS
330
3DD
102
}
330
3DD
100
AcDbScale
 70
     0
300
1:40
140
1.0
141
40.0
290
     0
  0
SCALE
  5
3E8
102
{ACAD_REACTORS
330
3DD
102
}
330
3DD
100
AcDbScale
 70
     0
300
1:50
140
1.0
141
50.0
290
     0
  0
SCALE
  5
3E9
102
{ACAD_REACTORS
330
3DD
102
}
330
3DD
100
AcDbScale
 70
     0
300
1:100
140
1.0
141
100.0
290
     0
  0
SCALE
  5
3EA
102
{ACAD_REACTORS
330
3DD
102
}
330
3DD
100
AcDbScale
 70
     0
300
2:1
140
2.0
141
1.0
290
     0
  0
SCALE
  5
3EB
102
{ACAD_REACTORS
330
3DD
102
}
330
3DD
100
AcDbScale
 70
     0
300
4:1
140
4.0
141
1.0
290
     0
  0
SCALE
  5
3EC
102
{ACAD_REACTORS
330
3DD
102
}
330
3DD
100
AcDbScale
 70
     0
300
8:1
140
8.0
141
1.0
290
     0
  0
SCALE
  5
3ED
102
{ACAD_REACTORS
330
3DD
102
}
330
3DD
100
AcDbScale
 70
     0
300
10:1
140
10.0
141
1.0
290
     0
  0
SCALE
  5
3EE
102
{ACAD_REACTORS
330
3DD
102
}
330
3DD
100
AcDbScale
 70
     0
300
100:1
140
100.0
141
1.0
290
     0
  0
ACDBSECTIONVIEWSTYLE
  5
6C3
102
{ACAD_XDICTIONARY
360
6C4
102
}
102
{ACAD_REACTORS
330
5ED
330
8A1
330
8A2
102
}
330
5ED
100
AcDbModelDocViewStyle
 70
     0
  3

290
     0
100
AcDbSectionViewStyle
 70
     0
 71
     0
 90
      102
 71
     1
340
11
 62
     7
 40
5.0
340
0
340
0
 62
     7
 40
5.0
300
I,O,Q,S,X,Z
 40
10.0
 90
        0
 40
2.5
 90
        0
 71
     2
340
16
 90
       50
 62
     1
340
16
 90
       50
 62
     7
 40
10.0
 40
5.0
 40
10.0
 71
     3
340
11
 62
     7
 40
5.0
 90
        0
 40
5.25
 90
        1
300
%<\AcVar ViewSectionStartId>%-%<\AcVar ViewSectionEndId>%
 71
     4
 62
   256
 62
   257
300
ANSI31
 40
1.0
 90
        0
290
     0
290
     0
 90
        6
 40
0.0
 40
1.570796326794896
 40
0.2617993877991494
 40
1.308996938995747
 40
-0.2617993877991494
 40
1.832595714594046
  0
ACDBSECTIONVIEWSTYLE
  5
5EE
102
{ACAD_XDICTIONARY
360
631
102
}
102
{ACAD_REACTORS
330
5ED
330
604
330
606
102
}
330
5ED
100
AcDbModelDocViewStyle
 70
     0
  3
Metric50
290
     0
100
AcDbSectionViewStyle
 70
     0
 71
     0
 90
      102
 71
     1
340
11
 62
   256
 40
5.0
340
0
340
0
 62
   256
 40
5.0
300
I, O, Q, S, X, Z
 40
10.0
 90
        0
 40
2.5
 90
        0
 71
     2
340
16
 90
       25
 62
   256
340
16
 90
       50
 62
   256
 40
5.0
 40
2.5
 40
5.0
 71
     3
340
11
 62
   256
 40
5.0
 90
        0
 40
15.0
 90
        1
300
%<\AcVar ViewSectionStartId>%-%<\AcVar ViewSectionEndId>% (%<\AcVar ViewScale \f "%sn">%)
 71
     4
 62
   256
 62
   257
300
ANSI31
 40
1.0
 90
        0
290
     0
290
     0
 90
        6
 40
0.0
 40
1.570796326794896
 40
0.2617993877991494
 40
1.308996938995747
 40
-0.2617993877991494
 40
1.832595714594046
  0
TABLESTYLE
  5
11B
102
{ACAD_XDICTIONARY
360
41B
102
}
102
{ACAD_REACTORS
330
11A
102
}
330
11A
100
AcDbTableStyle
280
     0
  3
Standard
 70
     0
 71
     0
 40
1.5
 41
1.5
280
     0
281
     0
  7
STANDARD
140
4.5
170
     2
 62
     0
 63
     7
283
     0
 90
        4
 91
        0
  1

274
    -2
284
     1
 64
     0
275
    -2
285
     1
 65
     0
276
    -2
286
     1
 66
     0
277
    -2
287
     1
 67
     0
278
    -2
288
     1
 68
     0
279
    -2
289
     1
 69
     0
  7
STANDARD
140
6.0
170
     5
 62
     0
 63
     7
283
     0
 90
        4
 91
        0
  1

274
    -2
284
     1
 64
     0
275
    -2
285
     1
 65
     0
276
    -2
286
     1
 66
     0
277
    -2
287
     1
 67
     0
278
    -2
288
     1
 68
     0
279
    -2
289
     1
 69
     0
  7
STANDARD
140
4.5
170
     5
 62
     0
 63
     7
283
     0
 90
        4
 91
        0
  1

274
    -2
284
     1
 64
     0
275
    -2
285
     1
 65
     0
276
    -2
286
     1
 66
     0
277
    -2
287
     1
 67
     0
278
    -2
288
     1
 68
     0
279
    -2
289
     1
 69
     0
  0
VISUALSTYLE
  5
3D2
102
{ACAD_XDICTIONARY
360
B5D
102
}
102
{ACAD_REACTORS
330
3CC
102
}
330
3CC
100
AcDbVisualStyle
  2
2dWireframe
 70
     4
177
     2
291
     0
 71
     0
176
     1
 72
     2
176
     1
 73
     0
176
     1
 90
        0
176
     1
 40
0.6
176
     1
 41
30.0
176
     1
 63
     7
421
 16777215
176
     1
 74
     1
176
     1
 91
        4
176
     1
 64
     7
176
     1
 65
   257
176
     1
 75
     1
176
     1
175
     1
176
     1
 42
1.0
176
     1
 92
        0
176
     1
 66
   257
176
     1
 43
1.0
176
     1
 76
     1
176
     1
 77
     6
176
     1
 78
     2
176
     1
 67
     7
176
     1
 79
     5
176
     1
170
     0
176
     1
171
     0
176
     1
290
     0
176
     1
 93
        1
176
     1
 44
0.0
176
     1
173
     0
176
     1
1001
ACAD
1000
AcDbSavedByObjectVersion
1070
     0
  0
VISUALSTYLE
  5
3D4
102
{ACAD_XDICTIONARY
360
B61
102
}
102
{ACAD_REACTORS
330
3CC
102
}
330
3CC
100
AcDbVisualStyle
  2
3D Hidden
 70
     6
177
     2
291
     0
 71
     1
176
     1
 72
     2
176
     1
 73
     2
176
     1
 90
        0
176
     1
 40
0.6
176
     1
 41
30.0
176
     1
 63
     7
421
 16777215
176
     1
 74
     2
176
     1
 91
        2
176
     1
 64
     7
176
     1
 65
   257
176
     1
 75
     2
176
     1
175
     1
176
     1
 42
40.0
176
     1
 92
        0
176
     1
 66
   257
176
     1
 43
1.0
176
     1
 76
     1
176
     1
 77
     6
176
     1
 78
     2
176
     1
 67
     7
176
     1
 79
     3
176
     1
170
     0
176
     1
171
     0
176
     1
290
     0
176
     1
 93
        1
176
     1
 44
0.0
176
     1
173
     0
176
     1
1001
ACAD
1000
AcDbSavedByObjectVersion
1070
     0
  0
VISUALSTYLE
  5
3D3
102
{ACAD_XDICTIONARY
360
B5F
102
}
102
{ACAD_REACTORS
330
3CC
102
}
330
3CC
100
AcDbVisualStyle
  2
3dWireframe
 70
     5
177
     2
291
     0
 71
     0
176
     1
 72
     2
176
     1
 73
     0
176
     1
 90
        0
176
     1
 40
0.6
176
     1
 41
30.0
176
     1
 63
     7
421
 16777215
176
     1
 74
     1
176
     1
 91
        4
176
     1
 64
     7
176
     1
 65
   257
176
     1
 75
     1
176
     1
175
     1
176
     1
 42
1.0
176
     1
 92
        0
176
     1
 66
   257
176
     1
 43
1.0
176
     1
 76
     1
176
     1
 77
     6
176
     1
 78
     2
176
     1
 67
     7
176
     1
 79
     5
176
     1
170
     0
176
     1
171
     0
176
     1
290
     0
176
     1
 93
        1
176
     1
 44
0.0
176
     1
173
     0
176
     1
1001
ACAD
1000
AcDbSavedByObjectVersion
1070
     0
  0
VISUALSTYLE
  5
3D1
102
{ACAD_XDICTIONARY
360
B5B
102
}
102
{ACAD_REACTORS
330
3CC
102
}
330
3CC
100
AcDbVisualStyle
  2
Basic
 70
     7
177
     2
291
     1
 71
     1
176
     1
 72
     0
176
     1
 73
     1
176
     1
 90
        0
176
     1
 40
0.6
176
     1
 41
30.0
176
     1
 63
     7
421
 16777215
176
     1
 74
     0
176
     1
 91
        4
176
     1
 64
     7
176
     1
 65
   257
176
     1
 75
     1
176
     1
175
     1
176
     1
 42
1.0
176
     1
 92
        8
176
     1
 66
     7
176
     1
 43
1.0
176
     1
 76
     1
176
     1
 77
     6
176
     1
 78
     2
176
     1
 67
     7
176
     1
 79
     5
176
     1
170
     0
176
     1
171
     0
176
     1
290
     0
176
     1
 93
        1
176
     1
 44
0.0
176
     1
173
     0
176
     1
1001
ACAD
1000
AcDbSavedByObjectVersion
1070
     0
  0
VISUALSTYLE
  5
3D8
102
{ACAD_XDICTIONARY
360
B69
102
}
102
{ACAD_REACTORS
330
3CC
102
}
330
3CC
100
AcDbVisualStyle
  2
Brighten
 70
    12
177
     2
291
     1
 71
     2
176
     1
 72
     2
176
     1
 73
     0
176
     1
 90
        0
176
     1
 40
0.6
176
     1
 41
30.0
176
     1
 63
     7
421
 16777215
176
     1
 74
     1
176
     1
 91
        4
176
     1
 64
     7
176
     1
 65
   257
176
     1
 75
     1
176
     1
175
     1
176
     1
 42
1.0
176
     1
 92
        8
176
     1
 66
     7
176
     1
 43
1.0
176
     1
 76
     1
176
     1
 77
     6
176
     1
 78
     2
176
     1
 67
     7
176
     1
 79
     5
176
     1
170
     0
176
     1
171
     0
176
     1
290
     0
176
     1
 93
        1
176
     1
 44
50.0
176
     1
173
     0
176
     1
1001
ACAD
1000
AcDbSavedByObjectVersion
1070
     0
  0
VISUALSTYLE
  5
3DC
102
{ACAD_XDICTIONARY
360
B71
102
}
102
{ACAD_REACTORS
330
3CC
102
}
330
3CC
100
AcDbVisualStyle
  2
ColorChange
 70
    16
177
     2
291
     1
 71
     2
176
     1
 72
     2
176
     1
 73
     3
176
     1
 90
        0
176
     1
 40
0.6
176
     1
 41
30.0
176
     1
 63
     8
421
  8421504
176
     1
 74
     1
176
     1
 91
        4
176
     1
 64
     7
176
     1
 65
   257
176
     1
 75
     1
176
     1
175
     1
176
     1
 42
1.0
176
     1
 92
        8
176
     1
 66
     8
424
  8421504
176
     1
 43
1.0
176
     1
 76
     1
176
     1
 77
     6
176
     1
 78
     2
176
     1
 67
     7
176
     1
 79
     5
176
     1
170
     0
176
     1
171
     0
176
     1
290
     0
176
     1
 93
        1
176
     1
 44
0.0
176
     1
173
     0
176
     1
1001
ACAD
1000
AcDbSavedByObjectVersion
1070
     0
  0
VISUALSTYLE
  5
3D5
102
{ACAD_XDICTIONARY
360
B63
102
}
102
{ACAD_REACTORS
330
3CC
102
}
330
3CC
100
AcDbVisualStyle
  2
Conceptual
 70
     9
177
     2
291
     0
 71
     3
176
     1
 72
     2
176
     1
 73
     0
176
     1
 90
        0
176
     1
 40
0.6
176
     1
 41
30.0
176
     1
 63
     7
421
 16777215
176
     1
 74
     2
176
     1
 91
        2
176
     1
 64
     7
176
     1
 65
   257
176
     1
 75
     1
176
     1
175
     1
176
     1
 42
40.0
176
     1
 92
        8
176
     1
 66
     7
176
     1
 43
1.0
176
     1
 76
     1
176
     1
 77
     6
176
     1
 78
     2
176
     1
 67
     7
176
     1
 79
     3
176
     1
170
     0
176
     1
171
     0
176
     1
290
     0
176
     1
 93
        1
176
     1
 44
0.0
176
     1
173
     0
176
     1
1001
ACAD
1000
AcDbSavedByObjectVersion
1070
     0
  0
VISUALSTYLE
  5
3D7
102
{ACAD_XDICTIONARY
360
B67
102
}
102
{ACAD_REACTORS
330
3CC
102
}
330
3CC
100
AcDbVisualStyle
  2
Dim
 70
    11
177
     2
291
     1
 71
     2
176
     1
 72
     2
176
     1
 73
     0
176
     1
 90
        0
176
     1
 40
0.6
176
     1
 41
30.0
176
     1
 63
     7
421
 16777215
176
     1
 74
     1
176
     1
 91
        4
176
     1
 64
     7
176
     1
 65
   257
176
     1
 75
     1
176
     1
175
     1
176
     1
 42
1.0
176
     1
 92
        8
176
     1
 66
     7
176
     1
 43
1.0
176
     1
 76
     1
176
     1
 77
     6
176
     1
 78
     2
176
     1
 67
     7
176
     1
 79
     5
176
     1
170
     0
176
     1
171
     0
176
     1
290
     0
176
     1
 93
        1
176
     1
 44
-50.0
176
     1
173
     0
176
     1
1001
ACAD
1000
AcDbSavedByObjectVersion
1070
     0
  0
VISUALSTYLE
  5
5A4
102
{ACAD_XDICTIONARY
360
B77
102
}
102
{ACAD_REACTORS
330
3CC
102
}
330
3CC
100
AcDbVisualStyle
  2
EdgeColorOff
 70
    22
177
     2
291
     1
 71
     2
176
     0
 72
     2
176
     0
 73
     0
176
     0
 90
        0
176
     0
 40
0.6
176
     0
 41
30.0
176
     0
 63
     7
421
 16777215
176
     0
 74
     1
176
     0
 91
        4
176
     0
 64
     7
176
     0
 65
   257
176
     0
 75
     1
176
     0
175
     1
176
     0
 42
1.0
176
     0
 92
        8
176
     2
 66
     7
176
     0
 43
1.0
176
     0
 76
     1
176
     0
 77
     6
176
     0
 78
     2
176
     0
 67
     7
176
     0
 79
     5
176
     0
170
     0
176
     0
171
     0
176
     0
290
     0
176
     0
 93
        1
176
     0
 44
0.0
176
     0
173
     0
176
     0
1001
ACAD
1000
AcDbSavedByObjectVersion
1070
     0
  0
VISUALSTYLE
  5
3DB
102
{ACAD_XDICTIONARY
360
B6F
102
}
102
{ACAD_REACTORS
330
3CC
102
}
330
3CC
100
AcDbVisualStyle
  2
Facepattern
 70
    15
177
     2
291
     1
 71
     2
176
     1
 72
     2
176
     1
 73
     0
176
     1
 90
        0
176
     1
 40
0.6
176
     1
 41
30.0
176
     1
 63
     7
421
 16777215
176
     1
 74
     1
176
     1
 91
        4
176
     1
 64
     7
176
     1
 65
   257
176
     1
 75
     1
176
     1
175
     1
176
     1
 42
1.0
176
     1
 92
        8
176
     1
 66
     7
176
     1
 43
1.0
176
     1
 76
     1
176
     1
 77
     6
176
     1
 78
     2
176
     1
 67
     7
176
     1
 79
     5
176
     1
170
     0
176
     1
171
     0
176
     1
290
     0
176
     1
 93
        1
176
     1
 44
0.0
176
     1
173
     0
176
     1
1001
ACAD
1000
AcDbSavedByObjectVersion
1070
     0
  0
VISUALSTYLE
  5
3CD
102
{ACAD_XDICTIONARY
360
B53
102
}
102
{ACAD_REACTORS
330
3CC
102
}
330
3CC
100
AcDbVisualStyle
  2
Flat
 70
     0
177
     2
291
     1
 71
     2
176
     1
 72
     1
176
     1
 73
     1
176
     1
 90
        2
176
     1
 40
0.6
176
     1
 41
30.0
176
     1
 63
     7
421
 16777215
176
     1
 74
     0
176
     1
 91
        4
176
     1
 64
     7
176
     1
 65
   257
176
     1
 75
     1
176
     1
175
     1
176
     1
 42
1.0
176
     1
 92
        8
176
     1
 66
     7
176
     1
 43
1.0
176
     1
 76
     1
176
     1
 77
     6
176
     1
 78
     2
176
     1
 67
     7
176
     1
 79
     5
176
     1
170
     0
176
     1
171
     0
176
     1
290
     0
176
     1
 93
       13
176
     1
 44
0.0
176
     1
173
     0
176
     1
1001
ACAD
1000
AcDbSavedByObjectVersion
1070
     0
  0
VISUALSTYLE
  5
3CE
102
{ACAD_XDICTIONARY
360
B55
102
}
102
{ACAD_REACTORS
330
3CC
102
}
330
3CC
100
AcDbVisualStyle
  2
FlatWithEdges
 70
     1
177
     2
291
     1
 71
     2
176
     1
 72
     1
176
     1
 73
     1
176
     1
 90
        2
176
     1
 40
0.6
176
     1
 41
30.0
176
     1
 63
     7
421
 16777215
176
     1
 74
     1
176
     1
 91
        4
176
     1
 64
     7
176
     1
 65
   257
176
     1
 75
     1
176
     1
175
     1
176
     1
 42
1.0
176
     1
 92
        0
176
     1
 66
   257
176
     1
 43
1.0
176
     1
 76
     1
176
     1
 77
     6
176
     1
 78
     2
176
     1
 67
     7
176
     1
 79
     5
176
     1
170
     0
176
     1
171
     0
176
     1
290
     0
176
     1
 93
       13
176
     1
 44
0.0
176
     1
173
     0
176
     1
1001
ACAD
1000
AcDbSavedByObjectVersion
1070
     0
  0
VISUALSTYLE
  5
3CF
102
{ACAD_XDICTIONARY
360
B57
102
}
102
{ACAD_REACTORS
330
3CC
102
}
330
3CC
100
AcDbVisualStyle
  2
Gouraud
 70
     2
177
     2
291
     1
 71
     2
176
     1
 72
     2
176
     1
 73
     1
176
     1
 90
        2
176
     1
 40
0.6
176
     1
 41
30.0
176
     1
 63
     7
421
 16777215
176
     1
 74
     0
176
     1
 91
        4
176
     1
 64
     7
176
     1
 65
   257
176
     1
 75
     1
176
     1
175
     1
176
     1
 42
1.0
176
     1
 92
        0
176
     1
 66
     7
176
     1
 43
1.0
176
     1
 76
     1
176
     1
 77
     6
176
     1
 78
     2
176
     1
 67
     7
176
     1
 79
     5
176
     1
170
     0
176
     1
171
     0
176
     1
290
     0
176
     1
 93
       13
176
     1
 44
0.0
176
     1
173
     0
176
     1
1001
ACAD
1000
AcDbSavedByObjectVersion
1070
     0
  0
VISUALSTYLE
  5
3D0
102
{ACAD_XDICTIONARY
360
B59
102
}
102
{ACAD_REACTORS
330
3CC
102
}
330
3CC
100
AcDbVisualStyle
  2
GouraudWithEdges
 70
     3
177
     2
291
     1
 71
     2
176
     1
 72
     2
176
     1
 73
     1
176
     1
 90
        2
176
     1
 40
0.6
176
     1
 41
30.0
176
     1
 63
     7
421
 16777215
176
     1
 74
     1
176
     1
 91
        4
176
     1
 64
     7
176
     1
 65
   257
176
     1
 75
     1
176
     1
175
     1
176
     1
 42
1.0
176
     1
 92
        0
176
     1
 66
   257
176
     1
 43
1.0
176
     1
 76
     1
176
     1
 77
     6
176
     1
 78
     2
176
     1
 67
     7
176
     1
 79
     5
176
     1
170
     0
176
     1
171
     0
176
     1
290
     0
176
     1
 93
       13
176
     1
 44
0.0
176
     1
173
     0
176
     1
1001
ACAD
1000
AcDbSavedByObjectVersion
1070
     0
  0
VISUALSTYLE
  5
5E7
102
{ACAD_XDICTIONARY
360
B7B
102
}
102
{ACAD_REACTORS
330
3CC
102
}
330
3CC
100
AcDbVisualStyle
  2
Hidden
 70
     6
177
     2
291
     0
 71
     1
176
     1
 72
     2
176
     1
 73
     2
176
     1
 90
        0
176
     1
 40
0.6
176
     1
 41
30.0
176
     1
 63
     7
421
 16777215
176
     1
 74
     2
176
     1
 91
        2
176
     1
 64
     7
176
     1
 65
   257
176
     1
 75
     2
176
     1
175
     1
176
     1
 42
40.0
176
     1
 92
        0
176
     1
 66
   257
176
     1
 43
1.0
176
     1
 76
     1
176
     1
 77
     6
176
     1
 78
     2
176
     1
 67
     7
176
     1
 79
     3
176
     1
170
     0
176
     1
171
     0
176
     1
290
     0
176
     1
 93
        1
176
     1
 44
0.0
176
     1
173
     0
176
     1
1001
ACAD
1000
AcDbSavedByObjectVersion
1070
     0
  0
VISUALSTYLE
  5
5A2
102
{ACAD_XDICTIONARY
360
B73
102
}
102
{ACAD_REACTORS
330
3CC
102
}
330
3CC
100
AcDbVisualStyle
  2
JitterOff
 70
    20
177
     2
291
     1
 71
     2
176
     0
 72
     2
176
     0
 73
     0
176
     0
 90
        0
176
     0
 40
0.6
176
     0
 41
30.0
176
     0
 63
     7
421
 16777215
176
     0
 74
     1
176
     0
 91
        4
176
     0
 64
     7
176
     0
 65
   257
176
     0
 75
     1
176
     0
175
     1
176
     0
 42
1.0
176
     0
 92
       10
176
     2
 66
     7
176
     0
 43
1.0
176
     0
 76
     1
176
     0
 77
     6
176
     0
 78
     2
176
     0
 67
     7
176
     0
 79
     5
176
     0
170
     0
176
     0
171
     0
176
     0
290
     0
176
     0
 93
        1
176
     0
 44
0.0
176
     0
173
     0
176
     0
1001
ACAD
1000
AcDbSavedByObjectVersion
1070
     0
  0
VISUALSTYLE
  5
3DA
102
{ACAD_XDICTIONARY
360
B6D
102
}
102
{ACAD_REACTORS
330
3CC
102
}
330
3CC
100
AcDbVisualStyle
  2
Linepattern
 70
    14
177
     2
291
     1
 71
     2
176
     1
 72
     2
176
     1
 73
     0
176
     1
 90
        0
176
     1
 40
0.6
176
     1
 41
30.0
176
     1
 63
     7
421
 16777215
176
     1
 74
     1
176
     1
 91
        4
176
     1
 64
     7
176
     1
 65
   257
176
     1
 75
     7
176
     1
175
     7
176
     1
 42
1.0
176
     1
 92
        8
176
     1
 66
     7
176
     1
 43
1.0
176
     1
 76
     1
176
     1
 77
     6
176
     1
 78
     2
176
     1
 67
     7
176
     1
 79
     5
176
     1
170
     0
176
     1
171
     0
176
     1
290
     0
176
     1
 93
        1
176
     1
 44
0.0
176
     1
173
     0
176
     1
1001
ACAD
1000
AcDbSavedByObjectVersion
1070
     0
  0
VISUALSTYLE
  5
5A3
102
{ACAD_XDICTIONARY
360
B75
102
}
102
{ACAD_REACTORS
330
3CC
102
}
330
3CC
100
AcDbVisualStyle
  2
OverhangOff
 70
    21
177
     2
291
     1
 71
     2
176
     0
 72
     2
176
     0
 73
     0
176
     0
 90
        0
176
     0
 40
0.6
176
     0
 41
30.0
176
     0
 63
     7
421
 16777215
176
     0
 74
     1
176
     0
 91
        4
176
     0
 64
     7
176
     0
 65
   257
176
     0
 75
     1
176
     0
175
     1
176
     0
 42
1.0
176
     0
 92
        9
176
     2
 66
     7
176
     0
 43
1.0
176
     0
 76
     1
176
     0
 77
     6
176
     0
 78
     2
176
     0
 67
     7
176
     0
 79
     5
176
     0
170
     0
176
     0
171
     0
176
     0
290
     0
176
     0
 93
        1
176
     0
 44
0.0
176
     0
173
     0
176
     0
1001
ACAD
1000
AcDbSavedByObjectVersion
1070
     0
  0
VISUALSTYLE
  5
3D6
102
{ACAD_XDICTIONARY
360
B65
102
}
102
{ACAD_REACTORS
330
3CC
102
}
330
3CC
100
AcDbVisualStyle
  2
Realistic
 70
     8
177
     2
291
     0
 71
     2
176
     1
 72
     2
176
     1
 73
     0
176
     1
 90
        0
176
     1
 40
0.6
176
     1
 41
30.0
176
     1
 63
     7
421
 16777215
176
     1
 74
     1
176
     1
 91
        0
176
     1
 64
     7
176
     1
 65
   257
176
     1
 75
     1
176
     1
175
     1
176
     1
 42
1.0
176
     1
 92
        8
176
     1
 66
     8
424
  7895160
176
     1
 43
1.0
176
     1
 76
     1
176
     1
 77
     6
176
     1
 78
     2
176
     1
 67
     7
176
     1
 79
     5
176
     1
170
     0
176
     1
171
     0
176
     1
290
     0
176
     1
 93
       13
176
     1
 44
0.0
176
     1
173
     0
176
     1
1001
ACAD
1000
AcDbSavedByObjectVersion
1070
     0
  0
VISUALSTYLE
  5
5EC
102
{ACAD_XDICTIONARY
360
B85
102
}
102
{ACAD_REACTORS
330
3CC
102
}
330
3CC
100
AcDbVisualStyle
  2
Shaded
 70
    27
177
     2
291
     0
 71
     2
176
     1
 72
     2
176
     1
 73
     1
176
     1
 90
        2
176
     1
 40
0.6
176
     1
 41
30.0
176
     1
 63
     7
421
 16777215
176
     1
 74
     0
176
     1
 91
        4
176
     1
 64
     7
176
     1
 65
   257
176
     1
 75
     1
176
     1
175
     1
176
     1
 42
1.0
176
     1
 92
        8
176
     1
 66
   257
176
     1
 43
1.0
176
     1
 76
     1
176
     1
 77
     6
176
     1
 78
     2
176
     1
 67
     8
425
  7895160
176
     1
 79
     3
176
     1
170
     0
176
     1
171
     0
176
     1
290
     0
176
     1
 93
        5
176
     1
 44
0.0
176
     1
173
     0
176
     1
1001
ACAD
1000
AcDbSavedByObjectVersion
1070
     0
  0
VISUALSTYLE
  5
5EB
102
{ACAD_XDICTIONARY
360
B83
102
}
102
{ACAD_REACTORS
330
3CC
102
}
330
3CC
100
AcDbVisualStyle
  2
Shaded with edges
 70
    26
177
     2
291
     0
 71
     2
176
     1
 72
     2
176
     1
 73
     1
176
     1
 90
        2
176
     1
 40
0.6
176
     1
 41
30.0
176
     1
 63
     7
421
 16777215
176
     1
 74
     1
176
     1
 91
       10
176
     1
 64
     7
176
     1
 65
   257
176
     1
 75
     2
176
     1
175
     1
176
     1
 42
1.0
176
     1
 92
        8
176
     1
 66
   257
176
     1
 43
1.0
176
     1
 76
     1
176
     1
 77
     6
176
     1
 78
     2
176
     1
 67
     7
176
     1
 79
     3
176
     1
170
     0
176
     1
171
     0
176
     1
290
     0
176
     1
 93
        5
176
     1
 44
0.0
176
     1
173
     0
176
     1
1001
ACAD
1000
AcDbSavedByObjectVersion
1070
     0
  0
VISUALSTYLE
  5
5E8
102
{ACAD_XDICTIONARY
360
B7D
102
}
102
{ACAD_REACTORS
330
3CC
102
}
330
3CC
100
AcDbVisualStyle
  2
Shades of Gray
 70
    23
177
     2
291
     0
 71
     2
176
     1
 72
     2
176
     1
 73
     3
176
     1
 90
        0
176
     1
 40
0.6
176
     1
 41
30.0
176
     1
 63
     7
421
 16777215
176
     1
 74
     2
176
     1
 91
        2
176
     1
 64
     7
176
     1
 65
     7
176
     1
 75
     1
176
     1
175
     1
176
     1
 42
40.0
176
     1
 92
        8
176
     1
 66
     7
176
     1
 43
1.0
176
     1
 76
     1
176
     1
 77
     6
176
     1
 78
     2
176
     1
 67
     7
176
     1
 79
     3
176
     1
170
     0
176
     1
171
     0
176
     1
290
     0
176
     1
 93
        1
176
     1
 44
0.0
176
     1
173
     0
176
     1
1001
ACAD
1000
AcDbSavedByObjectVersion
1070
     0
  0
VISUALSTYLE
  5
5E9
102
{ACAD_XDICTIONARY
360
B7F
102
}
102
{ACAD_REACTORS
330
3CC
102
}
330
3CC
100
AcDbVisualStyle
  2
Sketchy
 70
    24
177
     2
291
     0
 71
     1
176
     1
 72
     2
176
     1
 73
     2
176
     1
 90
        0
176
     1
 40
0.6
176
     1
 41
30.0
176
     1
 63
     7
421
 16777215
176
     1
 74
     2
176
     1
 91
        2
176
     1
 64
     7
176
     1
 65
     7
176
     1
 75
     1
176
     1
175
     1
176
     1
 42
40.0
176
     1
 92
       11
176
     1
 66
     7
176
     1
 43
1.0
176
     1
 76
     1
176
     1
 77
     6
176
     1
 78
     2
176
     1
 67
     7
176
     1
 79
     6
176
     1
170
     0
176
     1
171
     0
176
     1
290
     0
176
     1
 93
        1
176
     1
 44
0.0
176
     1
173
     0
176
     1
1001
ACAD
1000
AcDbSavedByObjectVersion
1070
     0
  0
VISUALSTYLE
  5
3D9
102
{ACAD_XDICTIONARY
360
B6B
102
}
102
{ACAD_REACTORS
330
3CC
102
}
330
3CC
100
AcDbVisualStyle
  2
Thicken
 70
    13
177
     2
291
     1
 71
     2
176
     1
 72
     2
176
     1
 73
     0
176
     1
 90
        0
176
     1
 40
0.6
176
     1
 41
30.0
176
     1
 63
     7
421
 16777215
176
     1
 74
     1
176
     1
 91
        4
176
     1
 64
     7
176
     1
 65
   257
176
     1
 75
     1
176
     1
175
     1
176
     1
 42
1.0
176
     1
 92
       12
176
     1
 66
     7
176
     1
 43
1.0
176
     1
 76
     1
176
     1
 77
     6
176
     1
 78
     2
176
     1
 67
     7
176
     1
 79
     5
176
     1
170
     0
176
     1
171
     0
176
     1
290
     0
176
     1
 93
        1
176
     1
 44
0.0
176
     1
173
     0
176
     1
1001
ACAD
1000
AcDbSavedByObjectVersion
1070
     0
  0
VISUALSTYLE
  5
5E6
102
{ACAD_XDICTIONARY
360
B79
102
}
102
{ACAD_REACTORS
330
3CC
102
}
330
3CC
100
AcDbVisualStyle
  2
Wireframe
 70
     5
177
     2
291
     0
 71
     0
176
     1
 72
     2
176
     1
 73
     0
176
     1
 90
        0
176
     1
 40
0.6
176
     1
 41
30.0
176
     1
 63
     7
421
 16777215
176
     1
 74
     1
176
     1
 91
        4
176
     1
 64
     7
176
     1
 65
   257
176
     1
 75
     1
176
     1
175
     1
176
     1
 42
1.0
176
     1
 92
        0
176
     1
 66
   257
176
     1
 43
1.0
176
     1
 76
     1
176
     1
 77
     6
176
     1
 78
     2
176
     1
 67
     7
176
     1
 79
     3
176
     1
170
     0
176
     1
171
     0
176
     1
290
     0
176
     1
 93
        1
176
     1
 44
0.0
176
     1
173
     0
176
     1
1001
ACAD
1000
AcDbSavedByObjectVersion
1070
     0
  0
VISUALSTYLE
  5
5EA
102
{ACAD_XDICTIONARY
360
B81
102
}
102
{ACAD_REACTORS
330
3CC
102
}
330
3CC
100
AcDbVisualStyle
  2
X-Ray
 70
    25
177
     2
291
     0
 71
     2
176
     1
 72
     2
176
     1
 73
     1
176
     1
 90
        1
176
     1
 40
0.5
176
     1
 41
30.0
176
     1
 63
     7
421
 16777215
176
     1
 74
     1
176
     1
 91
        0
176
     1
 64
     7
176
     1
 65
   257
176
     1
 75
     1
176
     1
175
     1
176
     1
 42
1.0
176
     1
 92
        8
176
     1
 66
     7
176
     1
 43
1.0
176
     1
 76
     1
176
     1
 77
     6
176
     1
 78
     2
176
     1
 67
     7
176
     1
 79
     3
176
     1
170
     0
176
     1
171
     0
176
     1
290
     0
176
     1
 93
       13
176
     1
 44
0.0
176
     1
173
     0
176
     1
1001
ACAD
1000
AcDbSavedByObjectVersion
1070
     0
  0
DICTIONARYVAR
  5
420
102
{ACAD_REACTORS
330
94
102
}
330
94
100
DictionaryVariables
280
     0
  1
1:1
  0
DICTIONARYVAR
  5
41E
102
{ACAD_REACTORS
330
94
102
}
330
94
100
DictionaryVariables
280
     0
  1
STANDARD
  0
DICTIONARYVAR
  5
138
102
{ACAD_REACTORS
330
94
102
}
330
94
100
DictionaryVariables
280
     0
  1
STANDARD
  0
DICTIONARYVAR
  5
63B
102
{ACAD_REACTORS
330
94
102
}
330
94
100
DictionaryVariables
280
     0
  1
Metric50
  0
DICTIONARYVAR
  5
63C
102
{ACAD_REACTORS
330
94
102
}
330
94
100
DictionaryVariables
280
     0
  1
Metric50
  0
DICTIONARYVAR
  5
96
102
{ACAD_REACTORS
330
94
102
}
330
94
100
DictionaryVariables
280
     0
  1
2
  0
DICTIONARYVAR
  5
95
102
{ACAD_REACTORS
330
94
102
}
330
94
100
DictionaryVariables
280
     0
  1
1
  0
DICTIONARYVAR
  5
422
102
{ACAD_REACTORS
330
94
102
}
330
94
100
DictionaryVariables
280
     0
  1
1
  0
DICTIONARYVAR
  5
423
102
{ACAD_REACTORS
330
94
102
}
330
94
100
DictionaryVariables
280
     0
  1
15
  0
DICTIONARYVAR
  5
421
102
{ACAD_REACTORS
330
94
102
}
330
94
100
DictionaryVariables
280
     0
  1
0
  0
DICTIONARYVAR
  5
41F
102
{ACAD_REACTORS
330
94
102
}
330
94
100
DictionaryVariables
280
     0
  1
0
  0
DICTIONARY
  5
B52
102
{ACAD_REACTORS
330
B50
102
}
330
B50
100
AcDbDictionary
281
     1
  0
DICTIONARY
  5
B51
102
{ACAD_REACTORS
330
B50
102
}
330
B50
100
AcDbDictionary
281
     1
  3
8796082693808
350
B4B
  3
8796082693824
350
B4C
  3
8796082693840
350
B4D
  3
8796082693856
350
B4E
  3
8796082693872
350
B4F
  0
DICTIONARY
  5
272
102
{ACAD_REACTORS
330
5B
102
}
330
5B
100
AcDbDictionary
281
     1
  0
DICTIONARY
  5
61
102
{ACAD_REACTORS
330
5B
102
}
330
5B
100
AcDbDictionary
281
     1
  0
XRECORD
  5
123
102
{ACAD_REACTORS
330
5B
102
}
330
5B
100
AcDbXrecord
280
     1
 90
-1023410169
  0
DICTIONARY
  5
633
330
5F0
100
AcDbDictionary
280
     1
281
     1
  3
ACAD_XREC_ROUNDTRIP
360
B88
  0
DICTIONARY
  5
5E3
330
22
100
AcDbDictionary
280
     1
281
     1
  0
DICTIONARY
  5
3BD
330
3BC
100
AcDbDictionary
280
     1
281
     1
  3
BUMPTILE
360
3BF
  3
DIFFUSETILE
360
3BE
  3
OPACITYTILE
360
3C2
  3
REFLECTIONTILE
360
3C1
  3
REFRACTIONTILE
360
3C3
  3
SPECULARTILE
360
3C0
  0
DICTIONARY
  5
3B5
330
3B4
100
AcDbDictionary
280
     1
281
     1
  3
BUMPTILE
360
3B7
  3
DIFFUSETILE
360
3B6
  3
OPACITYTILE
360
3BA
  3
REFLECTIONTILE
360
3B9
  3
REFRACTIONTILE
360
3BB
  3
SPECULARTILE
360
3B8
  0
DICTIONARY
  5
3C5
330
3C4
100
AcDbDictionary
280
     1
281
     1
  3
BUMPTILE
360
3C7
  3
DIFFUSETILE
360
3C6
  3
OPACITYTILE
360
3CA
  3
REFLECTIONTILE
360
3C9
  3
REFRACTIONTILE
360
3CB
  3
SPECULARTILE
360
3C8
  0
DICTIONARY
  5
6C4
330
6C3
100
AcDbDictionary
280
     1
281
     1
  3
ACAD_FIELD
360
6C5
  3
ACAD_XREC_ROUNDTRIP
360
B89
  0
DICTIONARY
  5
631
330
5EE
100
AcDbDictionary
280
     1
281
     1
  3
ACAD_XREC_ROUNDTRIP
360
B87
  0
DICTIONARY
  5
41B
330
11B
100
AcDbDictionary
280
     1
281
     1
  3
ACAD_ROUNDTRIP_2008_TABLESTYLE_CELLSTYLEMAP
360
B49
  0
DICTIONARY
  5
B5D
330
3D2
100
AcDbDictionary
280
     1
281
     1
  3
ACAD_XREC_ROUNDTRIP
360
B5E
  0
DICTIONARY
  5
B61
330
3D4
100
AcDbDictionary
280
     1
281
     1
  3
ACAD_XREC_ROUNDTRIP
360
B62
  0
DICTIONARY
  5
B5F
330
3D3
100
AcDbDictionary
280
     1
281
     1
  3
ACAD_XREC_ROUNDTRIP
360
B60
  0
DICTIONARY
  5
B5B
330
3D1
100
AcDbDictionary
280
     1
281
     1
  3
ACAD_XREC_ROUNDTRIP
360
B5C
  0
DICTIONARY
  5
B69
330
3D8
100
AcDbDictionary
280
     1
281
     1
  3
ACAD_XREC_ROUNDTRIP
360
B6A
  0
DICTIONARY
  5
B71
330
3DC
100
AcDbDictionary
280
     1
281
     1
  3
ACAD_XREC_ROUNDTRIP
360
B72
  0
DICTIONARY
  5
B63
330
3D5
100
AcDbDictionary
280
     1
281
     1
  3
ACAD_XREC_ROUNDTRIP
360
B64
  0
DICTIONARY
  5
B67
330
3D7
100
AcDbDictionary
280
     1
281
     1
  3
ACAD_XREC_ROUNDTRIP
360
B68
  0
DICTIONARY
  5
B77
330
5A4
100
AcDbDictionary
280
     1
281
     1
  3
ACAD_XREC_ROUNDTRIP
360
B78
  0
DICTIONARY
  5
B6F
330
3DB
100
AcDbDictionary
280
     1
281
     1
  3
ACAD_XREC_ROUNDTRIP
360
B70
  0
DICTIONARY
  5
B53
330
3CD
100
AcDbDictionary
280
     1
281
     1
  3
ACAD_XREC_ROUNDTRIP
360
B54
  0
DICTIONARY
  5
B55
330
3CE
100
AcDbDictionary
280
     1
281
     1
  3
ACAD_XREC_ROUNDTRIP
360
B56
  0
DICTIONARY
  5
B57
330
3CF
100
AcDbDictionary
280
     1
281
     1
  3
ACAD_XREC_ROUNDTRIP
360
B58
  0
DICTIONARY
  5
B59
330
3D0
100
AcDbDictionary
280
     1
281
     1
  3
ACAD_XREC_ROUNDTRIP
360
B5A
  0
DICTIONARY
  5
B7B
330
5E7
100
AcDbDictionary
280
     1
281
     1
  3
ACAD_XREC_ROUNDTRIP
360
B7C
  0
DICTIONARY
  5
B73
330
5A2
100
AcDbDictionary
280
     1
281
     1
  3
ACAD_XREC_ROUNDTRIP
360
B74
  0
DICTIONARY
  5
B6D
330
3DA
100
AcDbDictionary
280
     1
281
     1
  3
ACAD_XREC_ROUNDTRIP
360
B6E
  0
DICTIONARY
  5
B75
330
5A3
100
AcDbDictionary
280
     1
281
     1
  3
ACAD_XREC_ROUNDTRIP
360
B76
  0
DICTIONARY
  5
B65
330
3D6
100
AcDbDictionary
280
     1
281
     1
  3
ACAD_XREC_ROUNDTRIP
360
B66
  0
DICTIONARY
  5
B85
330
5EC
100
AcDbDictionary
280
     1
281
     1
  3
ACAD_XREC_ROUNDTRIP
360
B86
  0
DICTIONARY
  5
B83
330
5EB
100
AcDbDictionary
280
     1
281
     1
  3
ACAD_XREC_ROUNDTRIP
360
B84
  0
DICTIONARY
  5
B7D
330
5E8
100
AcDbDictionary
280
     1
281
     1
  3
ACAD_XREC_ROUNDTRIP
360
B7E
  0
DICTIONARY
  5
B7F
330
5E9
100
AcDbDictionary
280
     1
281
     1
  3
ACAD_XREC_ROUNDTRIP
360
B80
  0
DICTIONARY
  5
B6B
330
3D9
100
AcDbDictionary
280
     1
281
     1
  3
ACAD_XREC_ROUNDTRIP
360
B6C
  0
DICTIONARY
  5
B79
330
5E6
100
AcDbDictionary
280
     1
281
     1
  3
ACAD_XREC_ROUNDTRIP
360
B7A
  0
DICTIONARY
  5
B81
330
5EA
100
AcDbDictionary
280
     1
281
     1
  3
ACAD_XREC_ROUNDTRIP
360
B82
  0
XRECORD
  5
B4B
102
{ACAD_REACTORS
330
B51
102
}
330
B51
100
AcDbXrecord
280
     1
  1
AcDb_Thumbnail_Schema
102
{ATTRRECORD
341
B4C
  2
AcDbDs::TreatedAsObjectData
280
     1
291
     1
102
ATTRRECORD}
102
{ATTRRECORD
341
B4D
  2
AcDbDs::Legacy
280
     1
291
     1
102
ATTRRECORD}
  2
AcDbDs::ID
280
    10
 91
        8
102
{ATTRRECORD
341
B4E
  2
AcDs:Indexable
280
     1
291
     1
102
ATTRRECORD}
102
{ATTRRECORD
341
B4F
  2
AcDbDs::HandleAttribute
280
     7
282
     1
102
ATTRRECORD}
  2
Thumbnail_Data
280
    15
 91
        0
  0
XRECORD
  5
B4C
102
{ACAD_REACTORS
330
B51
102
}
330
B51
100
AcDbXrecord
280
     1
  1
AcDbDs::TreatedAsObjectDataSchema
  2
AcDbDs::TreatedAsObjectData
280
     1
 91
        0
  0
XRECORD
  5
B4D
102
{ACAD_REACTORS
330
B51
102
}
330
B51
100
AcDbXrecord
280
     1
  1
AcDbDs::LegacySchema
  2
AcDbDs::Legacy
280
     1
 91
        0
  0
XRECORD
  5
B4E
102
{ACAD_REACTORS
330
B51
102
}
330
B51
100
AcDbXrecord
280
     1
  1
AcDbDs::IndexedPropertySchema
  2
AcDs:Indexable
280
     1
 91
        0
  0
XRECORD
  5
B4F
102
{ACAD_REACTORS
330
B51
102
}
330
B51
100
AcDbXrecord
280
     1
  1
AcDbDs::HandleAttributeSchema
  2
AcDbDs::HandleAttribute
280
     7
 91
        1
284
     1
  0
XRECORD
  5
B88
102
{ACAD_REACTORS
330
633
102
}
330
633
100
AcDbXrecord
280
     1
102
DISPLAYNAME
  1
Metric50
102
FLAGS
 90
        0
  0
XRECORD
  5
3BF
102
{ACAD_REACTORS
330
3BD
102
}
330
3BD
100
AcDbXrecord
280
     1
270
     1
271
     1
  0
XRECORD
  5
3BE
102
{ACAD_REACTORS
330
3BD
102
}
330
3BD
100
AcDbXrecord
280
     1
270
     1
271
     1
  0
XRECORD
  5
3C2
102
{ACAD_REACTORS
330
3BD
102
}
330
3BD
100
AcDbXrecord
280
     1
270
     1
271
     1
  0
XRECORD
  5
3C1
102
{ACAD_REACTORS
330
3BD
102
}
330
3BD
100
AcDbXrecord
280
     1
270
     1
271
     1
  0
XRECORD
  5
3C3
102
{ACAD_REACTORS
330
3BD
102
}
330
3BD
100
AcDbXrecord
280
     1
270
     1
271
     1
  0
XRECORD
  5
3C0
102
{ACAD_REACTORS
330
3BD
102
}
330
3BD
100
AcDbXrecord
280
     1
270
     1
271
     1
  0
XRECORD
  5
3B7
102
{ACAD_REACTORS
330
3B5
102
}
330
3B5
100
AcDbXrecord
280
     1
270
     1
271
     1
  0
XRECORD
  5
3B6
102
{ACAD_REACTORS
330
3B5
102
}
330
3B5
100
AcDbXrecord
280
     1
270
     1
271
     1
  0
XRECORD
  5
3BA
102
{ACAD_REACTORS
330
3B5
102
}
330
3B5
100
AcDbXrecord
280
     1
270
     1
271
     1
  0
XRECORD
  5
3B9
102
{ACAD_REACTORS
330
3B5
102
}
330
3B5
100
AcDbXrecord
280
     1
270
     1
271
     1
  0
XRECORD
  5
3BB
102
{ACAD_REACTORS
330
3B5
102
}
330
3B5
100
AcDbXrecord
280
     1
270
     1
271
     1
  0
XRECORD
  5
3B8
102
{ACAD_REACTORS
330
3B5
102
}
330
3B5
100
AcDbXrecord
280
     1
270
     1
271
     1
  0
XRECORD
  5
3C7
102
{ACAD_REACTORS
330
3C5
102
}
330
3C5
100
AcDbXrecord
280
     1
270
     1
271
     1
  0
XRECORD
  5
3C6
102
{ACAD_REACTORS
330
3C5
102
}
330
3C5
100
AcDbXrecord
280
     1
270
     1
271
     1
  0
XRECORD
  5
3CA
102
{ACAD_REACTORS
330
3C5
102
}
330
3C5
100
AcDbXrecord
280
     1
270
     1
271
     1
  0
XRECORD
  5
3C9
102
{ACAD_REACTORS
330
3C5
102
}
330
3C5
100
AcDbXrecord
280
     1
270
     1
271
     1
  0
XRECORD
  5
3CB
102
{ACAD_REACTORS
330
3C5
102
}
330
3C5
100
AcDbXrecord
280
     1
270
     1
271
     1
  0
XRECORD
  5
3C8
102
{ACAD_REACTORS
330
3C5
102
}
330
3C5
100
AcDbXrecord
280
     1
270
     1
271
     1
  0
DICTIONARY
  5
6C5
102
{ACAD_REACTORS
330
6C4
102
}
330
6C4
100
AcDbDictionary
280
     1
281
     1
  3
TEXT
360
6C6
  0
XRECORD
  5
B89
102
{ACAD_REACTORS
330
6C4
102
}
330
6C4
100
AcDbXrecord
280
     1
102
DISPLAYNAME
  1
ISO 128-40:2001(E)
102
FLAGS
 90
        0
  0
XRECORD
  5
B87
102
{ACAD_REACTORS
330
631
102
}
330
631
100
AcDbXrecord
280
     1
102
DISPLAYNAME
  1
Metric50
102
FLAGS
 90
        0
  0
CELLSTYLEMAP
  5
B49
102
{ACAD_REACTORS
330
41B
102
}
330
41B
100
AcDbCellStyleMap
 90
        3
300
CELLSTYLE
  1
TABLEFORMAT_BEGIN
 90
        5
170
     1
 91
        0
 92
    32768
 62
   257
 93
        1
300
CONTENTFORMAT
  1
CONTENTFORMAT_BEGIN
 90
        0
 91
        0
 92
        4
 93
        0
300

 40
0.0
140
1.0
 94
        5
 62
     0
340
11
144
6.0
309
CONTENTFORMAT_END
171
     1
301
MARGIN
  1
CELLMARGIN_BEGIN
 40
1.5
 40
1.5
 40
1.5
 40
1.5
 40
0.18
 40
0.18
309
CELLMARGIN_END
 94
        6
 95
        1
302
GRIDFORMAT
  1
GRIDFORMAT_BEGIN
 90
        0
 91
        1
 62
     0
 92
       -2
340
0
 93
        0
 40
0.045
309
GRIDFORMAT_END
 95
        2
302
GRIDFORMAT
  1
GRIDFORMAT_BEGIN
 90
        0
 91
        1
 62
     0
 92
       -2
340
0
 93
        0
 40
0.045
309
GRIDFORMAT_END
 95
        4
302
GRIDFORMAT
  1
GRIDFORMAT_BEGIN
 90
        0
 91
        1
 62
     0
 92
       -2
340
0
 93
        0
 40
0.045
309
GRIDFORMAT_END
 95
        8
302
GRIDFORMAT
  1
GRIDFORMAT_BEGIN
 90
        0
 91
        1
 62
     0
 92
       -2
340
0
 93
        0
 40
0.045
309
GRIDFORMAT_END
 95
       16
302
GRIDFORMAT
  1
GRIDFORMAT_BEGIN
 90
        0
 91
        1
 62
     0
 92
       -2
340
0
 93
        0
 40
0.045
309
GRIDFORMAT_END
 95
       32
302
GRIDFORMAT
  1
GRIDFORMAT_BEGIN
 90
        0
 91
        1
 62
     0
 92
       -2
340
0
 93
        0
 40
0.045
309
GRIDFORMAT_END
309
TABLEFORMAT_END
  1
CELLSTYLE_BEGIN
 90
        1
 91
        1
300
_TITLE
309
CELLSTYLE_END
300
CELLSTYLE
  1
TABLEFORMAT_BEGIN
 90
        5
170
     1
 91
        0
 92
        0
 62
   257
 93
        1
300
CONTENTFORMAT
  1
CONTENTFORMAT_BEGIN
 90
        0
 91
        0
 92
        4
 93
        0
300

 40
0.0
140
1.0
 94
        5
 62
     0
340
11
144
4.5
309
CONTENTFORMAT_END
171
     1
301
MARGIN
  1
CELLMARGIN_BEGIN
 40
1.5
 40
1.5
 40
1.5
 40
1.5
 40
0.18
 40
0.18
309
CELLMARGIN_END
 94
        6
 95
        1
302
GRIDFORMAT
  1
GRIDFORMAT_BEGIN
 90
        0
 91
        1
 62
     0
 92
       -2
340
0
 93
        0
 40
0.045
309
GRIDFORMAT_END
 95
        2
302
GRIDFORMAT
  1
GRIDFORMAT_BEGIN
 90
        0
 91
        1
 62
     0
 92
       -2
340
0
 93
        0
 40
0.045
309
GRIDFORMAT_END
 95
        4
302
GRIDFORMAT
  1
GRIDFORMAT_BEGIN
 90
        0
 91
        1
 62
     0
 92
       -2
340
0
 93
        0
 40
0.045
309
GRIDFORMAT_END
 95
        8
302
GRIDFORMAT
  1
GRIDFORMAT_BEGIN
 90
        0
 91
        1
 62
     0
 92
       -2
340
0
 93
        0
 40
0.045
309
GRIDFORMAT_END
 95
       16
302
GRIDFORMAT
  1
GRIDFORMAT_BEGIN
 90
        0
 91
        1
 62
     0
 92
       -2
340
0
 93
        0
 40
0.045
309
GRIDFORMAT_END
 95
       32
302
GRIDFORMAT
  1
GRIDFORMAT_BEGIN
 90
        0
 91
        1
 62
     0
 92
       -2
340
0
 93
        0
 40
0.045
309
GRIDFORMAT_END
309
TABLEFORMAT_END
  1
CELLSTYLE_BEGIN
 90
        2
 91
        1
300
_HEADER
309
CELLSTYLE_END
300
CELLSTYLE
  1
TABLEFORMAT_BEGIN
 90
        5
170
     1
 91
        0
 92
        0
 62
   257
 93
        1
300
CONTENTFORMAT
  1
CONTENTFORMAT_BEGIN
 90
        0
 91
        0
 92
        4
 93
        0
300

 40
0.0
140
1.0
 94
        2
 62
     0
340
11
144
4.5
309
CONTENTFORMAT_END
171
     1
301
MARGIN
  1
CELLMARGIN_BEGIN
 40
1.5
 40
1.5
 40
1.5
 40
1.5
 40
0.18
 40
0.18
309
CELLMARGIN_END
 94
        6
 95
        1
302
GRIDFORMAT
  1
GRIDFORMAT_BEGIN
 90
        0
 91
        1
 62
     0
 92
       -2
340
0
 93
        0
 40
0.045
309
GRIDFORMAT_END
 95
        2
302
GRIDFORMAT
  1
GRIDFORMAT_BEGIN
 90
        0
 91
        1
 62
     0
 92
       -2
340
0
 93
        0
 40
0.045
309
GRIDFORMAT_END
 95
        4
302
GRIDFORMAT
  1
GRIDFORMAT_BEGIN
 90
        0
 91
        1
 62
     0
 92
       -2
340
0
 93
        0
 40
0.045
309
GRIDFORMAT_END
 95
        8
302
GRIDFORMAT
  1
GRIDFORMAT_BEGIN
 90
        0
 91
        1
 62
     0
 92
       -2
340
0
 93
        0
 40
0.045
309
GRIDFORMAT_END
 95
       16
302
GRIDFORMAT
  1
GRIDFORMAT_BEGIN
 90
        0
 91
        1
 62
     0
 92
       -2
340
0
 93
        0
 40
0.045
309
GRIDFORMAT_END
 95
       32
302
GRIDFORMAT
  1
GRIDFORMAT_BEGIN
 90
        0
 91
        1
 62
     0
 92
       -2
340
0
 93
        0
 40
0.045
309
GRIDFORMAT_END
309
TABLEFORMAT_END
  1
CELLSTYLE_BEGIN
 90
        3
 91
        2
300
_DATA
309
CELLSTYLE_END
  0
XRECORD
  5
B5E
102
{ACAD_REACTORS
330
B5D
102
}
330
B5D
100
AcDbXrecord
280
     1
102
RTVSPost2010Prop28
280
     1
102
RTVSPost2010PropOp28
 70
     1
102
RTVSPost2010Prop29
280
     1
102
RTVSPost2010PropOp29
 70
     1
102
RTVSPost2010Prop30
280
     0
102
RTVSPost2010PropOp30
 70
     1
102
RTVSPost2010Prop31
280
     0
102
RTVSPost2010PropOp31
 70
     1
102
RTVSPost2010Prop32
280
     0
102
RTVSPost2010PropOp32
 70
     1
102
RTVSPost2010Prop33
280
     0
102
RTVSPost2010PropOp33
 70
     1
102
RTVSPost2010Prop34
280
     0
102
RTVSPost2010PropOp34
 70
     1
102
RTVSPost2010Prop35
280
     0
102
RTVSPost2010PropOp35
 70
     1
102
RTVSPost2010Prop36
280
     0
102
RTVSPost2010PropOp36
 70
     1
102
RTVSPost2010Prop37
 90
       50
102
RTVSPost2010PropOp37
 70
     1
102
RTVSPost2010Prop38
140
0.0
102
RTVSPost2010PropOp38
 70
     1
102
RTVSPost2010Prop39
140
1.0
102
RTVSPost2010PropOp39
 70
     1
102
RTVSPost2010Prop40
 90
        0
102
RTVSPost2010PropOp40
 70
     1
102
RTVSPost2010Prop41ColorIndex
 90
       18
102
RTVSPost2010Prop41ColorRGB
 90
        0
102
RTVSPost2010PropOp41
 70
     1
102
RTVSPost2010Prop42
 90
       50
102
RTVSPost2010PropOp42
 70
     1
102
RTVSPost2010Prop43
 90
        3
102
RTVSPost2010PropOp43
 70
     1
102
RTVSPost2010Prop44ColorIndex
 90
        5
102
RTVSPost2010Prop44ColorRGB
 90
      255
102
RTVSPost2010PropOp44
 70
     1
102
RTVSPost2010Prop45
280
     0
102
RTVSPost2010PropOp45
 70
     1
102
RTVSPost2010Prop46
 90
       50
102
RTVSPost2010PropOp46
 70
     1
102
RTVSPost2010Prop47
 90
       50
102
RTVSPost2010PropOp47
 70
     1
102
RTVSPost2010Prop48
 90
       50
102
RTVSPost2010PropOp48
 70
     1
102
RTVSPost2010Prop49
280
     0
102
RTVSPost2010PropOp49
 70
     1
102
RTVSPost2010Prop50
 90
       50
102
RTVSPost2010PropOp50
 70
     1
102
RTVSPost2010Prop51ColorIndex
 90
      256
102
RTVSPost2010Prop51ColorRGB
 90
-16777216
102
RTVSPost2010PropOp51
 70
     0
102
RTVSPost2010Prop52
140
1.0
102
RTVSPost2010PropOp52
 70
     0
102
RTVSPost2010Prop53
 90
        2
102
RTVSPost2010PropOp53
 70
     1
102
RTVSPost2010Prop54
  1
strokes_ogs.tif
102
RTVSPost2010PropOp54
 70
     1
102
RTVSPost2010Prop55
280
     0
102
RTVSPost2010PropOp55
 70
     1
102
RTVSPost2010Prop56
140
1.0
102
RTVSPost2010PropOp56
 70
     1
102
RTVSPost2010Prop57
140
1.0
102
RTVSPost2010PropOp57
 70
     1
  0
XRECORD
  5
B62
102
{ACAD_REACTORS
330
B61
102
}
330
B61
100
AcDbXrecord
280
     1
102
RTVSPost2010Prop28
280
     0
102
RTVSPost2010PropOp28
 70
     1
102
RTVSPost2010Prop29
280
     1
102
RTVSPost2010PropOp29
 70
     1
102
RTVSPost2010Prop30
280
     1
102
RTVSPost2010PropOp30
 70
     1
102
RTVSPost2010Prop31
280
     0
102
RTVSPost2010PropOp31
 70
     1
102
RTVSPost2010Prop32
280
     0
102
RTVSPost2010PropOp32
 70
     1
102
RTVSPost2010Prop33
280
     0
102
RTVSPost2010PropOp33
 70
     1
102
RTVSPost2010Prop34
280
     0
102
RTVSPost2010PropOp34
 70
     1
102
RTVSPost2010Prop35
280
     0
102
RTVSPost2010PropOp35
 70
     1
102
RTVSPost2010Prop36
280
     0
102
RTVSPost2010PropOp36
 70
     1
102
RTVSPost2010Prop37
 90
       50
102
RTVSPost2010PropOp37
 70
     1
102
RTVSPost2010Prop38
140
0.0
102
RTVSPost2010PropOp38
 70
     1
102
RTVSPost2010Prop39
140
1.0
102
RTVSPost2010PropOp39
 70
     1
102
RTVSPost2010Prop40
 90
        0
102
RTVSPost2010PropOp40
 70
     1
102
RTVSPost2010Prop41ColorIndex
 90
       18
102
RTVSPost2010Prop41ColorRGB
 90
        0
102
RTVSPost2010PropOp41
 70
     1
102
RTVSPost2010Prop42
 90
       50
102
RTVSPost2010PropOp42
 70
     1
102
RTVSPost2010Prop43
 90
        3
102
RTVSPost2010PropOp43
 70
     1
102
RTVSPost2010Prop44ColorIndex
 90
        5
102
RTVSPost2010Prop44ColorRGB
 90
      255
102
RTVSPost2010PropOp44
 70
     1
102
RTVSPost2010Prop45
280
     0
102
RTVSPost2010PropOp45
 70
     1
102
RTVSPost2010Prop46
 90
       50
102
RTVSPost2010PropOp46
 70
     1
102
RTVSPost2010Prop47
 90
       50
102
RTVSPost2010PropOp47
 70
     1
102
RTVSPost2010Prop48
 90
       50
102
RTVSPost2010PropOp48
 70
     1
102
RTVSPost2010Prop49
280
     0
102
RTVSPost2010PropOp49
 70
     1
102
RTVSPost2010Prop50
 90
       50
102
RTVSPost2010PropOp50
 70
     1
102
RTVSPost2010Prop51ColorIndex
 90
      256
102
RTVSPost2010Prop51ColorRGB
 90
-16777216
102
RTVSPost2010PropOp51
 70
     0
102
RTVSPost2010Prop52
140
1.0
102
RTVSPost2010PropOp52
 70
     0
102
RTVSPost2010Prop53
 90
        2
102
RTVSPost2010PropOp53
 70
     1
102
RTVSPost2010Prop54
  1
strokes_ogs.tif
102
RTVSPost2010PropOp54
 70
     1
102
RTVSPost2010Prop55
280
     0
102
RTVSPost2010PropOp55
 70
     1
102
RTVSPost2010Prop56
140
1.0
102
RTVSPost2010PropOp56
 70
     1
102
RTVSPost2010Prop57
140
1.0
102
RTVSPost2010PropOp57
 70
     1
  0
XRECORD
  5
B60
102
{ACAD_REACTORS
330
B5F
102
}
330
B5F
100
AcDbXrecord
280
     1
102
RTVSPost2010Prop28
280
     0
102
RTVSPost2010PropOp28
 70
     1
102
RTVSPost2010Prop29
280
     1
102
RTVSPost2010PropOp29
 70
     1
102
RTVSPost2010Prop30
280
     1
102
RTVSPost2010PropOp30
 70
     1
102
RTVSPost2010Prop31
280
     0
102
RTVSPost2010PropOp31
 70
     1
102
RTVSPost2010Prop32
280
     0
102
RTVSPost2010PropOp32
 70
     1
102
RTVSPost2010Prop33
280
     0
102
RTVSPost2010PropOp33
 70
     1
102
RTVSPost2010Prop34
280
     0
102
RTVSPost2010PropOp34
 70
     1
102
RTVSPost2010Prop35
280
     0
102
RTVSPost2010PropOp35
 70
     1
102
RTVSPost2010Prop36
280
     0
102
RTVSPost2010PropOp36
 70
     1
102
RTVSPost2010Prop37
 90
       50
102
RTVSPost2010PropOp37
 70
     1
102
RTVSPost2010Prop38
140
0.0
102
RTVSPost2010PropOp38
 70
     1
102
RTVSPost2010Prop39
140
1.0
102
RTVSPost2010PropOp39
 70
     1
102
RTVSPost2010Prop40
 90
        0
102
RTVSPost2010PropOp40
 70
     1
102
RTVSPost2010Prop41ColorIndex
 90
       18
102
RTVSPost2010Prop41ColorRGB
 90
        0
102
RTVSPost2010PropOp41
 70
     1
102
RTVSPost2010Prop42
 90
       50
102
RTVSPost2010PropOp42
 70
     1
102
RTVSPost2010Prop43
 90
        3
102
RTVSPost2010PropOp43
 70
     1
102
RTVSPost2010Prop44ColorIndex
 90
        5
102
RTVSPost2010Prop44ColorRGB
 90
      255
102
RTVSPost2010PropOp44
 70
     1
102
RTVSPost2010Prop45
280
     0
102
RTVSPost2010PropOp45
 70
     1
102
RTVSPost2010Prop46
 90
       50
102
RTVSPost2010PropOp46
 70
     1
102
RTVSPost2010Prop47
 90
       50
102
RTVSPost2010PropOp47
 70
     1
102
RTVSPost2010Prop48
 90
       50
102
RTVSPost2010PropOp48
 70
     1
102
RTVSPost2010Prop49
280
     0
102
RTVSPost2010PropOp49
 70
     1
102
RTVSPost2010Prop50
 90
       50
102
RTVSPost2010PropOp50
 70
     1
102
RTVSPost2010Prop51ColorIndex
 90
      256
102
RTVSPost2010Prop51ColorRGB
 90
-16777216
102
RTVSPost2010PropOp51
 70
     0
102
RTVSPost2010Prop52
140
1.0
102
RTVSPost2010PropOp52
 70
     0
102
RTVSPost2010Prop53
 90
        2
102
RTVSPost2010PropOp53
 70
     1
102
RTVSPost2010Prop54
  1
strokes_ogs.tif
102
RTVSPost2010PropOp54
 70
     1
102
RTVSPost2010Prop55
280
     0
102
RTVSPost2010PropOp55
 70
     1
102
RTVSPost2010Prop56
140
1.0
102
RTVSPost2010PropOp56
 70
     1
102
RTVSPost2010Prop57
140
1.0
102
RTVSPost2010PropOp57
 70
     1
  0
XRECORD
  5
B5C
102
{ACAD_REACTORS
330
B5B
102
}
330
B5B
100
AcDbXrecord
280
     1
102
RTVSPost2010Prop28
280
     0
102
RTVSPost2010PropOp28
 70
     1
102
RTVSPost2010Prop29
280
     1
102
RTVSPost2010PropOp29
 70
     1
102
RTVSPost2010Prop30
280
     1
102
RTVSPost2010PropOp30
 70
     1
102
RTVSPost2010Prop31
280
     0
102
RTVSPost2010PropOp31
 70
     1
102
RTVSPost2010Prop32
280
     0
102
RTVSPost2010PropOp32
 70
     1
102
RTVSPost2010Prop33
280
     0
102
RTVSPost2010PropOp33
 70
     1
102
RTVSPost2010Prop34
280
     0
102
RTVSPost2010PropOp34
 70
     1
102
RTVSPost2010Prop35
280
     0
102
RTVSPost2010PropOp35
 70
     1
102
RTVSPost2010Prop36
280
     0
102
RTVSPost2010PropOp36
 70
     1
102
RTVSPost2010Prop37
 90
       50
102
RTVSPost2010PropOp37
 70
     1
102
RTVSPost2010Prop38
140
0.0
102
RTVSPost2010PropOp38
 70
     1
102
RTVSPost2010Prop39
140
1.0
102
RTVSPost2010PropOp39
 70
     1
102
RTVSPost2010Prop40
 90
        0
102
RTVSPost2010PropOp40
 70
     1
102
RTVSPost2010Prop41ColorIndex
 90
       18
102
RTVSPost2010Prop41ColorRGB
 90
        0
102
RTVSPost2010PropOp41
 70
     1
102
RTVSPost2010Prop42
 90
       50
102
RTVSPost2010PropOp42
 70
     1
102
RTVSPost2010Prop43
 90
        3
102
RTVSPost2010PropOp43
 70
     1
102
RTVSPost2010Prop44ColorIndex
 90
        5
102
RTVSPost2010Prop44ColorRGB
 90
      255
102
RTVSPost2010PropOp44
 70
     1
102
RTVSPost2010Prop45
280
     0
102
RTVSPost2010PropOp45
 70
     1
102
RTVSPost2010Prop46
 90
       50
102
RTVSPost2010PropOp46
 70
     1
102
RTVSPost2010Prop47
 90
       50
102
RTVSPost2010PropOp47
 70
     1
102
RTVSPost2010Prop48
 90
       50
102
RTVSPost2010PropOp48
 70
     1
102
RTVSPost2010Prop49
280
     0
102
RTVSPost2010PropOp49
 70
     1
102
RTVSPost2010Prop50
 90
       50
102
RTVSPost2010PropOp50
 70
     1
102
RTVSPost2010Prop51ColorIndex
 90
      256
102
RTVSPost2010Prop51ColorRGB
 90
-16777216
102
RTVSPost2010PropOp51
 70
     0
102
RTVSPost2010Prop52
140
1.0
102
RTVSPost2010PropOp52
 70
     0
102
RTVSPost2010Prop53
 90
        2
102
RTVSPost2010PropOp53
 70
     1
102
RTVSPost2010Prop54
  1
strokes_ogs.tif
102
RTVSPost2010PropOp54
 70
     1
102
RTVSPost2010Prop55
280
     0
102
RTVSPost2010PropOp55
 70
     1
102
RTVSPost2010Prop56
140
1.0
102
RTVSPost2010PropOp56
 70
     1
102
RTVSPost2010Prop57
140
1.0
102
RTVSPost2010PropOp57
 70
     1
  0
XRECORD
  5
B6A
102
{ACAD_REACTORS
330
B69
102
}
330
B69
100
AcDbXrecord
280
     1
102
RTVSPost2010Prop28
280
     0
102
RTVSPost2010PropOp28
 70
     1
102
RTVSPost2010Prop29
280
     1
102
RTVSPost2010PropOp29
 70
     1
102
RTVSPost2010Prop30
280
     1
102
RTVSPost2010PropOp30
 70
     1
102
RTVSPost2010Prop31
280
     0
102
RTVSPost2010PropOp31
 70
     1
102
RTVSPost2010Prop32
280
     0
102
RTVSPost2010PropOp32
 70
     1
102
RTVSPost2010Prop33
280
     0
102
RTVSPost2010PropOp33
 70
     1
102
RTVSPost2010Prop34
280
     0
102
RTVSPost2010PropOp34
 70
     1
102
RTVSPost2010Prop35
280
     0
102
RTVSPost2010PropOp35
 70
     1
102
RTVSPost2010Prop36
280
     0
102
RTVSPost2010PropOp36
 70
     1
102
RTVSPost2010Prop37
 90
       50
102
RTVSPost2010PropOp37
 70
     1
102
RTVSPost2010Prop38
140
0.0
102
RTVSPost2010PropOp38
 70
     1
102
RTVSPost2010Prop39
140
1.0
102
RTVSPost2010PropOp39
 70
     1
102
RTVSPost2010Prop40
 90
        0
102
RTVSPost2010PropOp40
 70
     1
102
RTVSPost2010Prop41ColorIndex
 90
       18
102
RTVSPost2010Prop41ColorRGB
 90
        0
102
RTVSPost2010PropOp41
 70
     1
102
RTVSPost2010Prop42
 90
       50
102
RTVSPost2010PropOp42
 70
     1
102
RTVSPost2010Prop43
 90
        3
102
RTVSPost2010PropOp43
 70
     1
102
RTVSPost2010Prop44ColorIndex
 90
        5
102
RTVSPost2010Prop44ColorRGB
 90
      255
102
RTVSPost2010PropOp44
 70
     1
102
RTVSPost2010Prop45
280
     0
102
RTVSPost2010PropOp45
 70
     1
102
RTVSPost2010Prop46
 90
       50
102
RTVSPost2010PropOp46
 70
     1
102
RTVSPost2010Prop47
 90
       50
102
RTVSPost2010PropOp47
 70
     1
102
RTVSPost2010Prop48
 90
       50
102
RTVSPost2010PropOp48
 70
     1
102
RTVSPost2010Prop49
280
     0
102
RTVSPost2010PropOp49
 70
     1
102
RTVSPost2010Prop50
 90
       50
102
RTVSPost2010PropOp50
 70
     1
102
RTVSPost2010Prop51ColorIndex
 90
      256
102
RTVSPost2010Prop51ColorRGB
 90
-16777216
102
RTVSPost2010PropOp51
 70
     0
102
RTVSPost2010Prop52
140
1.0
102
RTVSPost2010PropOp52
 70
     0
102
RTVSPost2010Prop53
 90
        2
102
RTVSPost2010PropOp53
 70
     1
102
RTVSPost2010Prop54
  1
strokes_ogs.tif
102
RTVSPost2010PropOp54
 70
     1
102
RTVSPost2010Prop55
280
     0
102
RTVSPost2010PropOp55
 70
     1
102
RTVSPost2010Prop56
140
1.0
102
RTVSPost2010PropOp56
 70
     1
102
RTVSPost2010Prop57
140
1.0
102
RTVSPost2010PropOp57
 70
     1
  0
XRECORD
  5
B72
102
{ACAD_REACTORS
330
B71
102
}
330
B71
100
AcDbXrecord
280
     1
102
RTVSPost2010Prop28
280
     0
102
RTVSPost2010PropOp28
 70
     1
102
RTVSPost2010Prop29
280
     1
102
RTVSPost2010PropOp29
 70
     1
102
RTVSPost2010Prop30
280
     1
102
RTVSPost2010PropOp30
 70
     1
102
RTVSPost2010Prop31
280
     0
102
RTVSPost2010PropOp31
 70
     1
102
RTVSPost2010Prop32
280
     0
102
RTVSPost2010PropOp32
 70
     1
102
RTVSPost2010Prop33
280
     0
102
RTVSPost2010PropOp33
 70
     1
102
RTVSPost2010Prop34
280
     0
102
RTVSPost2010PropOp34
 70
     1
102
RTVSPost2010Prop35
280
     0
102
RTVSPost2010PropOp35
 70
     1
102
RTVSPost2010Prop36
280
     0
102
RTVSPost2010PropOp36
 70
     1
102
RTVSPost2010Prop37
 90
       50
102
RTVSPost2010PropOp37
 70
     1
102
RTVSPost2010Prop38
140
0.0
102
RTVSPost2010PropOp38
 70
     1
102
RTVSPost2010Prop39
140
1.0
102
RTVSPost2010PropOp39
 70
     1
102
RTVSPost2010Prop40
 90
        0
102
RTVSPost2010PropOp40
 70
     1
102
RTVSPost2010Prop41ColorIndex
 90
       18
102
RTVSPost2010Prop41ColorRGB
 90
        0
102
RTVSPost2010PropOp41
 70
     1
102
RTVSPost2010Prop42
 90
       50
102
RTVSPost2010PropOp42
 70
     1
102
RTVSPost2010Prop43
 90
        3
102
RTVSPost2010PropOp43
 70
     1
102
RTVSPost2010Prop44ColorIndex
 90
        5
102
RTVSPost2010Prop44ColorRGB
 90
      255
102
RTVSPost2010PropOp44
 70
     1
102
RTVSPost2010Prop45
280
     0
102
RTVSPost2010PropOp45
 70
     1
102
RTVSPost2010Prop46
 90
       50
102
RTVSPost2010PropOp46
 70
     1
102
RTVSPost2010Prop47
 90
       50
102
RTVSPost2010PropOp47
 70
     1
102
RTVSPost2010Prop48
 90
       50
102
RTVSPost2010PropOp48
 70
     1
102
RTVSPost2010Prop49
280
     0
102
RTVSPost2010PropOp49
 70
     1
102
RTVSPost2010Prop50
 90
       50
102
RTVSPost2010PropOp50
 70
     1
102
RTVSPost2010Prop51ColorIndex
 90
      256
102
RTVSPost2010Prop51ColorRGB
 90
-16777216
102
RTVSPost2010PropOp51
 70
     0
102
RTVSPost2010Prop52
140
1.0
102
RTVSPost2010PropOp52
 70
     0
102
RTVSPost2010Prop53
 90
        2
102
RTVSPost2010PropOp53
 70
     1
102
RTVSPost2010Prop54
  1
strokes_ogs.tif
102
RTVSPost2010PropOp54
 70
     1
102
RTVSPost2010Prop55
280
     0
102
RTVSPost2010PropOp55
 70
     1
102
RTVSPost2010Prop56
140
1.0
102
RTVSPost2010PropOp56
 70
     1
102
RTVSPost2010Prop57
140
1.0
102
RTVSPost2010PropOp57
 70
     1
  0
XRECORD
  5
B64
102
{ACAD_REACTORS
330
B63
102
}
330
B63
100
AcDbXrecord
280
     1
102
RTVSPost2010Prop28
280
     0
102
RTVSPost2010PropOp28
 70
     1
102
RTVSPost2010Prop29
280
     1
102
RTVSPost2010PropOp29
 70
     1
102
RTVSPost2010Prop30
280
     1
102
RTVSPost2010PropOp30
 70
     1
102
RTVSPost2010Prop31
280
     0
102
RTVSPost2010PropOp31
 70
     1
102
RTVSPost2010Prop32
280
     0
102
RTVSPost2010PropOp32
 70
     1
102
RTVSPost2010Prop33
280
     0
102
RTVSPost2010PropOp33
 70
     1
102
RTVSPost2010Prop34
280
     0
102
RTVSPost2010PropOp34
 70
     1
102
RTVSPost2010Prop35
280
     0
102
RTVSPost2010PropOp35
 70
     1
102
RTVSPost2010Prop36
280
     0
102
RTVSPost2010PropOp36
 70
     1
102
RTVSPost2010Prop37
 90
       50
102
RTVSPost2010PropOp37
 70
     1
102
RTVSPost2010Prop38
140
0.0
102
RTVSPost2010PropOp38
 70
     1
102
RTVSPost2010Prop39
140
1.0
102
RTVSPost2010PropOp39
 70
     1
102
RTVSPost2010Prop40
 90
        0
102
RTVSPost2010PropOp40
 70
     1
102
RTVSPost2010Prop41ColorIndex
 90
       18
102
RTVSPost2010Prop41ColorRGB
 90
        0
102
RTVSPost2010PropOp41
 70
     1
102
RTVSPost2010Prop42
 90
       50
102
RTVSPost2010PropOp42
 70
     1
102
RTVSPost2010Prop43
 90
        3
102
RTVSPost2010PropOp43
 70
     1
102
RTVSPost2010Prop44ColorIndex
 90
        5
102
RTVSPost2010Prop44ColorRGB
 90
      255
102
RTVSPost2010PropOp44
 70
     1
102
RTVSPost2010Prop45
280
     0
102
RTVSPost2010PropOp45
 70
     1
102
RTVSPost2010Prop46
 90
       50
102
RTVSPost2010PropOp46
 70
     1
102
RTVSPost2010Prop47
 90
       50
102
RTVSPost2010PropOp47
 70
     1
102
RTVSPost2010Prop48
 90
       50
102
RTVSPost2010PropOp48
 70
     1
102
RTVSPost2010Prop49
280
     0
102
RTVSPost2010PropOp49
 70
     1
102
RTVSPost2010Prop50
 90
       50
102
RTVSPost2010PropOp50
 70
     1
102
RTVSPost2010Prop51ColorIndex
 90
      256
102
RTVSPost2010Prop51ColorRGB
 90
-16777216
102
RTVSPost2010PropOp51
 70
     0
102
RTVSPost2010Prop52
140
1.0
102
RTVSPost2010PropOp52
 70
     0
102
RTVSPost2010Prop53
 90
        2
102
RTVSPost2010PropOp53
 70
     1
102
RTVSPost2010Prop54
  1
strokes_ogs.tif
102
RTVSPost2010PropOp54
 70
     1
102
RTVSPost2010Prop55
280
     0
102
RTVSPost2010PropOp55
 70
     1
102
RTVSPost2010Prop56
140
1.0
102
RTVSPost2010PropOp56
 70
     1
102
RTVSPost2010Prop57
140
1.0
102
RTVSPost2010PropOp57
 70
     1
  0
XRECORD
  5
B68
102
{ACAD_REACTORS
330
B67
102
}
330
B67
100
AcDbXrecord
280
     1
102
RTVSPost2010Prop28
280
     0
102
RTVSPost2010PropOp28
 70
     1
102
RTVSPost2010Prop29
280
     1
102
RTVSPost2010PropOp29
 70
     1
102
RTVSPost2010Prop30
280
     1
102
RTVSPost2010PropOp30
 70
     1
102
RTVSPost2010Prop31
280
     0
102
RTVSPost2010PropOp31
 70
     1
102
RTVSPost2010Prop32
280
     0
102
RTVSPost2010PropOp32
 70
     1
102
RTVSPost2010Prop33
280
     0
102
RTVSPost2010PropOp33
 70
     1
102
RTVSPost2010Prop34
280
     0
102
RTVSPost2010PropOp34
 70
     1
102
RTVSPost2010Prop35
280
     0
102
RTVSPost2010PropOp35
 70
     1
102
RTVSPost2010Prop36
280
     0
102
RTVSPost2010PropOp36
 70
     1
102
RTVSPost2010Prop37
 90
       50
102
RTVSPost2010PropOp37
 70
     1
102
RTVSPost2010Prop38
140
0.0
102
RTVSPost2010PropOp38
 70
     1
102
RTVSPost2010Prop39
140
1.0
102
RTVSPost2010PropOp39
 70
     1
102
RTVSPost2010Prop40
 90
        0
102
RTVSPost2010PropOp40
 70
     1
102
RTVSPost2010Prop41ColorIndex
 90
       18
102
RTVSPost2010Prop41ColorRGB
 90
        0
102
RTVSPost2010PropOp41
 70
     1
102
RTVSPost2010Prop42
 90
       50
102
RTVSPost2010PropOp42
 70
     1
102
RTVSPost2010Prop43
 90
        3
102
RTVSPost2010PropOp43
 70
     1
102
RTVSPost2010Prop44ColorIndex
 90
        5
102
RTVSPost2010Prop44ColorRGB
 90
      255
102
RTVSPost2010PropOp44
 70
     1
102
RTVSPost2010Prop45
280
     0
102
RTVSPost2010PropOp45
 70
     1
102
RTVSPost2010Prop46
 90
       50
102
RTVSPost2010PropOp46
 70
     1
102
RTVSPost2010Prop47
 90
       50
102
RTVSPost2010PropOp47
 70
     1
102
RTVSPost2010Prop48
 90
       50
102
RTVSPost2010PropOp48
 70
     1
102
RTVSPost2010Prop49
280
     0
102
RTVSPost2010PropOp49
 70
     1
102
RTVSPost2010Prop50
 90
       50
102
RTVSPost2010PropOp50
 70
     1
102
RTVSPost2010Prop51ColorIndex
 90
      256
102
RTVSPost2010Prop51ColorRGB
 90
-16777216
102
RTVSPost2010PropOp51
 70
     0
102
RTVSPost2010Prop52
140
1.0
102
RTVSPost2010PropOp52
 70
     0
102
RTVSPost2010Prop53
 90
        2
102
RTVSPost2010PropOp53
 70
     1
102
RTVSPost2010Prop54
  1
strokes_ogs.tif
102
RTVSPost2010PropOp54
 70
     1
102
RTVSPost2010Prop55
280
     0
102
RTVSPost2010PropOp55
 70
     1
102
RTVSPost2010Prop56
140
1.0
102
RTVSPost2010PropOp56
 70
     1
102
RTVSPost2010Prop57
140
1.0
102
RTVSPost2010PropOp57
 70
     1
  0
XRECORD
  5
B78
102
{ACAD_REACTORS
330
B77
102
}
330
B77
100
AcDbXrecord
280
     1
102
RTVSPost2010Prop28
280
     0
102
RTVSPost2010PropOp28
 70
     1
102
RTVSPost2010Prop29
280
     1
102
RTVSPost2010PropOp29
 70
     1
102
RTVSPost2010Prop30
280
     1
102
RTVSPost2010PropOp30
 70
     1
102
RTVSPost2010Prop31
280
     0
102
RTVSPost2010PropOp31
 70
     1
102
RTVSPost2010Prop32
280
     0
102
RTVSPost2010PropOp32
 70
     1
102
RTVSPost2010Prop33
280
     0
102
RTVSPost2010PropOp33
 70
     1
102
RTVSPost2010Prop34
280
     0
102
RTVSPost2010PropOp34
 70
     1
102
RTVSPost2010Prop35
280
     0
102
RTVSPost2010PropOp35
 70
     1
102
RTVSPost2010Prop36
280
     0
102
RTVSPost2010PropOp36
 70
     1
102
RTVSPost2010Prop37
 90
       50
102
RTVSPost2010PropOp37
 70
     1
102
RTVSPost2010Prop38
140
0.0
102
RTVSPost2010PropOp38
 70
     1
102
RTVSPost2010Prop39
140
1.0
102
RTVSPost2010PropOp39
 70
     1
102
RTVSPost2010Prop40
 90
        0
102
RTVSPost2010PropOp40
 70
     1
102
RTVSPost2010Prop41ColorIndex
 90
       18
102
RTVSPost2010Prop41ColorRGB
 90
        0
102
RTVSPost2010PropOp41
 70
     1
102
RTVSPost2010Prop42
 90
       50
102
RTVSPost2010PropOp42
 70
     1
102
RTVSPost2010Prop43
 90
        3
102
RTVSPost2010PropOp43
 70
     1
102
RTVSPost2010Prop44ColorIndex
 90
        5
102
RTVSPost2010Prop44ColorRGB
 90
      255
102
RTVSPost2010PropOp44
 70
     1
102
RTVSPost2010Prop45
280
     0
102
RTVSPost2010PropOp45
 70
     1
102
RTVSPost2010Prop46
 90
       50
102
RTVSPost2010PropOp46
 70
     1
102
RTVSPost2010Prop47
 90
       50
102
RTVSPost2010PropOp47
 70
     1
102
RTVSPost2010Prop48
 90
       50
102
RTVSPost2010PropOp48
 70
     1
102
RTVSPost2010Prop49
280
     0
102
RTVSPost2010PropOp49
 70
     1
102
RTVSPost2010Prop50
 90
       50
102
RTVSPost2010PropOp50
 70
     1
102
RTVSPost2010Prop51ColorIndex
 90
      256
102
RTVSPost2010Prop51ColorRGB
 90
-16777216
102
RTVSPost2010PropOp51
 70
     0
102
RTVSPost2010Prop52
140
1.0
102
RTVSPost2010PropOp52
 70
     0
102
RTVSPost2010Prop53
 90
        2
102
RTVSPost2010PropOp53
 70
     1
102
RTVSPost2010Prop54
  1
strokes_ogs.tif
102
RTVSPost2010PropOp54
 70
     1
102
RTVSPost2010Prop55
280
     0
102
RTVSPost2010PropOp55
 70
     1
102
RTVSPost2010Prop56
140
1.0
102
RTVSPost2010PropOp56
 70
     1
102
RTVSPost2010Prop57
140
1.0
102
RTVSPost2010PropOp57
 70
     1
  0
XRECORD
  5
B70
102
{ACAD_REACTORS
330
B6F
102
}
330
B6F
100
AcDbXrecord
280
     1
102
RTVSPost2010Prop28
280
     0
102
RTVSPost2010PropOp28
 70
     1
102
RTVSPost2010Prop29
280
     1
102
RTVSPost2010PropOp29
 70
     1
102
RTVSPost2010Prop30
280
     1
102
RTVSPost2010PropOp30
 70
     1
102
RTVSPost2010Prop31
280
     0
102
RTVSPost2010PropOp31
 70
     1
102
RTVSPost2010Prop32
280
     0
102
RTVSPost2010PropOp32
 70
     1
102
RTVSPost2010Prop33
280
     0
102
RTVSPost2010PropOp33
 70
     1
102
RTVSPost2010Prop34
280
     0
102
RTVSPost2010PropOp34
 70
     1
102
RTVSPost2010Prop35
280
     0
102
RTVSPost2010PropOp35
 70
     1
102
RTVSPost2010Prop36
280
     0
102
RTVSPost2010PropOp36
 70
     1
102
RTVSPost2010Prop37
 90
       50
102
RTVSPost2010PropOp37
 70
     1
102
RTVSPost2010Prop38
140
0.0
102
RTVSPost2010PropOp38
 70
     1
102
RTVSPost2010Prop39
140
1.0
102
RTVSPost2010PropOp39
 70
     1
102
RTVSPost2010Prop40
 90
        0
102
RTVSPost2010PropOp40
 70
     1
102
RTVSPost2010Prop41ColorIndex
 90
       18
102
RTVSPost2010Prop41ColorRGB
 90
        0
102
RTVSPost2010PropOp41
 70
     1
102
RTVSPost2010Prop42
 90
       50
102
RTVSPost2010PropOp42
 70
     1
102
RTVSPost2010Prop43
 90
        3
102
RTVSPost2010PropOp43
 70
     1
102
RTVSPost2010Prop44ColorIndex
 90
        5
102
RTVSPost2010Prop44ColorRGB
 90
      255
102
RTVSPost2010PropOp44
 70
     1
102
RTVSPost2010Prop45
280
     0
102
RTVSPost2010PropOp45
 70
     1
102
RTVSPost2010Prop46
 90
       50
102
RTVSPost2010PropOp46
 70
     1
102
RTVSPost2010Prop47
 90
       50
102
RTVSPost2010PropOp47
 70
     1
102
RTVSPost2010Prop48
 90
       50
102
RTVSPost2010PropOp48
 70
     1
102
RTVSPost2010Prop49
280
     0
102
RTVSPost2010PropOp49
 70
     1
102
RTVSPost2010Prop50
 90
       50
102
RTVSPost2010PropOp50
 70
     1
102
RTVSPost2010Prop51ColorIndex
 90
      256
102
RTVSPost2010Prop51ColorRGB
 90
-16777216
102
RTVSPost2010PropOp51
 70
     0
102
RTVSPost2010Prop52
140
1.0
102
RTVSPost2010PropOp52
 70
     0
102
RTVSPost2010Prop53
 90
        2
102
RTVSPost2010PropOp53
 70
     1
102
RTVSPost2010Prop54
  1
strokes_ogs.tif
102
RTVSPost2010PropOp54
 70
     1
102
RTVSPost2010Prop55
280
     0
102
RTVSPost2010PropOp55
 70
     1
102
RTVSPost2010Prop56
140
1.0
102
RTVSPost2010PropOp56
 70
     1
102
RTVSPost2010Prop57
140
1.0
102
RTVSPost2010PropOp57
 70
     1
  0
XRECORD
  5
B54
102
{ACAD_REACTORS
330
B53
102
}
330
B53
100
AcDbXrecord
280
     1
102
RTVSPost2010Prop28
280
     0
102
RTVSPost2010PropOp28
 70
     1
102
RTVSPost2010Prop29
280
     1
102
RTVSPost2010PropOp29
 70
     1
102
RTVSPost2010Prop30
280
     1
102
RTVSPost2010PropOp30
 70
     1
102
RTVSPost2010Prop31
280
     0
102
RTVSPost2010PropOp31
 70
     1
102
RTVSPost2010Prop32
280
     0
102
RTVSPost2010PropOp32
 70
     1
102
RTVSPost2010Prop33
280
     0
102
RTVSPost2010PropOp33
 70
     1
102
RTVSPost2010Prop34
280
     0
102
RTVSPost2010PropOp34
 70
     1
102
RTVSPost2010Prop35
280
     0
102
RTVSPost2010PropOp35
 70
     1
102
RTVSPost2010Prop36
280
     0
102
RTVSPost2010PropOp36
 70
     1
102
RTVSPost2010Prop37
 90
       50
102
RTVSPost2010PropOp37
 70
     1
102
RTVSPost2010Prop38
140
0.0
102
RTVSPost2010PropOp38
 70
     1
102
RTVSPost2010Prop39
140
1.0
102
RTVSPost2010PropOp39
 70
     1
102
RTVSPost2010Prop40
 90
        0
102
RTVSPost2010PropOp40
 70
     1
102
RTVSPost2010Prop41ColorIndex
 90
       18
102
RTVSPost2010Prop41ColorRGB
 90
        0
102
RTVSPost2010PropOp41
 70
     1
102
RTVSPost2010Prop42
 90
       50
102
RTVSPost2010PropOp42
 70
     1
102
RTVSPost2010Prop43
 90
        3
102
RTVSPost2010PropOp43
 70
     1
102
RTVSPost2010Prop44ColorIndex
 90
        5
102
RTVSPost2010Prop44ColorRGB
 90
      255
102
RTVSPost2010PropOp44
 70
     1
102
RTVSPost2010Prop45
280
     0
102
RTVSPost2010PropOp45
 70
     1
102
RTVSPost2010Prop46
 90
       50
102
RTVSPost2010PropOp46
 70
     1
102
RTVSPost2010Prop47
 90
       50
102
RTVSPost2010PropOp47
 70
     1
102
RTVSPost2010Prop48
 90
       50
102
RTVSPost2010PropOp48
 70
     1
102
RTVSPost2010Prop49
280
     0
102
RTVSPost2010PropOp49
 70
     1
102
RTVSPost2010Prop50
 90
       50
102
RTVSPost2010PropOp50
 70
     1
102
RTVSPost2010Prop51ColorIndex
 90
      256
102
RTVSPost2010Prop51ColorRGB
 90
-16777216
102
RTVSPost2010PropOp51
 70
     0
102
RTVSPost2010Prop52
140
1.0
102
RTVSPost2010PropOp52
 70
     0
102
RTVSPost2010Prop53
 90
        2
102
RTVSPost2010PropOp53
 70
     1
102
RTVSPost2010Prop54
  1
strokes_ogs.tif
102
RTVSPost2010PropOp54
 70
     1
102
RTVSPost2010Prop55
280
     0
102
RTVSPost2010PropOp55
 70
     1
102
RTVSPost2010Prop56
140
1.0
102
RTVSPost2010PropOp56
 70
     1
102
RTVSPost2010Prop57
140
1.0
102
RTVSPost2010PropOp57
 70
     1
  0
XRECORD
  5
B56
102
{ACAD_REACTORS
330
B55
102
}
330
B55
100
AcDbXrecord
280
     1
102
RTVSPost2010Prop28
280
     0
102
RTVSPost2010PropOp28
 70
     1
102
RTVSPost2010Prop29
280
     1
102
RTVSPost2010PropOp29
 70
     1
102
RTVSPost2010Prop30
280
     1
102
RTVSPost2010PropOp30
 70
     1
102
RTVSPost2010Prop31
280
     0
102
RTVSPost2010PropOp31
 70
     1
102
RTVSPost2010Prop32
280
     0
102
RTVSPost2010PropOp32
 70
     1
102
RTVSPost2010Prop33
280
     0
102
RTVSPost2010PropOp33
 70
     1
102
RTVSPost2010Prop34
280
     0
102
RTVSPost2010PropOp34
 70
     1
102
RTVSPost2010Prop35
280
     0
102
RTVSPost2010PropOp35
 70
     1
102
RTVSPost2010Prop36
280
     0
102
RTVSPost2010PropOp36
 70
     1
102
RTVSPost2010Prop37
 90
       50
102
RTVSPost2010PropOp37
 70
     1
102
RTVSPost2010Prop38
140
0.0
102
RTVSPost2010PropOp38
 70
     1
102
RTVSPost2010Prop39
140
1.0
102
RTVSPost2010PropOp39
 70
     1
102
RTVSPost2010Prop40
 90
        0
102
RTVSPost2010PropOp40
 70
     1
102
RTVSPost2010Prop41ColorIndex
 90
       18
102
RTVSPost2010Prop41ColorRGB
 90
        0
102
RTVSPost2010PropOp41
 70
     1
102
RTVSPost2010Prop42
 90
       50
102
RTVSPost2010PropOp42
 70
     1
102
RTVSPost2010Prop43
 90
        3
102
RTVSPost2010PropOp43
 70
     1
102
RTVSPost2010Prop44ColorIndex
 90
        5
102
RTVSPost2010Prop44ColorRGB
 90
      255
102
RTVSPost2010PropOp44
 70
     1
102
RTVSPost2010Prop45
280
     0
102
RTVSPost2010PropOp45
 70
     1
102
RTVSPost2010Prop46
 90
       50
102
RTVSPost2010PropOp46
 70
     1
102
RTVSPost2010Prop47
 90
       50
102
RTVSPost2010PropOp47
 70
     1
102
RTVSPost2010Prop48
 90
       50
102
RTVSPost2010PropOp48
 70
     1
102
RTVSPost2010Prop49
280
     0
102
RTVSPost2010PropOp49
 70
     1
102
RTVSPost2010Prop50
 90
       50
102
RTVSPost2010PropOp50
 70
     1
102
RTVSPost2010Prop51ColorIndex
 90
      256
102
RTVSPost2010Prop51ColorRGB
 90
-16777216
102
RTVSPost2010PropOp51
 70
     0
102
RTVSPost2010Prop52
140
1.0
102
RTVSPost2010PropOp52
 70
     0
102
RTVSPost2010Prop53
 90
        2
102
RTVSPost2010PropOp53
 70
     1
102
RTVSPost2010Prop54
  1
strokes_ogs.tif
102
RTVSPost2010PropOp54
 70
     1
102
RTVSPost2010Prop55
280
     0
102
RTVSPost2010PropOp55
 70
     1
102
RTVSPost2010Prop56
140
1.0
102
RTVSPost2010PropOp56
 70
     1
102
RTVSPost2010Prop57
140
1.0
102
RTVSPost2010PropOp57
 70
     1
  0
XRECORD
  5
B58
102
{ACAD_REACTORS
330
B57
102
}
330
B57
100
AcDbXrecord
280
     1
102
RTVSPost2010Prop28
280
     0
102
RTVSPost2010PropOp28
 70
     1
102
RTVSPost2010Prop29
280
     1
102
RTVSPost2010PropOp29
 70
     1
102
RTVSPost2010Prop30
280
     1
102
RTVSPost2010PropOp30
 70
     1
102
RTVSPost2010Prop31
280
     0
102
RTVSPost2010PropOp31
 70
     1
102
RTVSPost2010Prop32
280
     0
102
RTVSPost2010PropOp32
 70
     1
102
RTVSPost2010Prop33
280
     0
102
RTVSPost2010PropOp33
 70
     1
102
RTVSPost2010Prop34
280
     0
102
RTVSPost2010PropOp34
 70
     1
102
RTVSPost2010Prop35
280
     0
102
RTVSPost2010PropOp35
 70
     1
102
RTVSPost2010Prop36
280
     0
102
RTVSPost2010PropOp36
 70
     1
102
RTVSPost2010Prop37
 90
       50
102
RTVSPost2010PropOp37
 70
     1
102
RTVSPost2010Prop38
140
0.0
102
RTVSPost2010PropOp38
 70
     1
102
RTVSPost2010Prop39
140
1.0
102
RTVSPost2010PropOp39
 70
     1
102
RTVSPost2010Prop40
 90
        0
102
RTVSPost2010PropOp40
 70
     1
102
RTVSPost2010Prop41ColorIndex
 90
       18
102
RTVSPost2010Prop41ColorRGB
 90
        0
102
RTVSPost2010PropOp41
 70
     1
102
RTVSPost2010Prop42
 90
       50
102
RTVSPost2010PropOp42
 70
     1
102
RTVSPost2010Prop43
 90
        3
102
RTVSPost2010PropOp43
 70
     1
102
RTVSPost2010Prop44ColorIndex
 90
        5
102
RTVSPost2010Prop44ColorRGB
 90
      255
102
RTVSPost2010PropOp44
 70
     1
102
RTVSPost2010Prop45
280
     0
102
RTVSPost2010PropOp45
 70
     1
102
RTVSPost2010Prop46
 90
       50
102
RTVSPost2010PropOp46
 70
     1
102
RTVSPost2010Prop47
 90
       50
102
RTVSPost2010PropOp47
 70
     1
102
RTVSPost2010Prop48
 90
       50
102
RTVSPost2010PropOp48
 70
     1
102
RTVSPost2010Prop49
280
     0
102
RTVSPost2010PropOp49
 70
     1
102
RTVSPost2010Prop50
 90
       50
102
RTVSPost2010PropOp50
 70
     1
102
RTVSPost2010Prop51ColorIndex
 90
      256
102
RTVSPost2010Prop51ColorRGB
 90
-16777216
102
RTVSPost2010PropOp51
 70
     0
102
RTVSPost2010Prop52
140
1.0
102
RTVSPost2010PropOp52
 70
     0
102
RTVSPost2010Prop53
 90
        2
102
RTVSPost2010PropOp53
 70
     1
102
RTVSPost2010Prop54
  1
strokes_ogs.tif
102
RTVSPost2010PropOp54
 70
     1
102
RTVSPost2010Prop55
280
     0
102
RTVSPost2010PropOp55
 70
     1
102
RTVSPost2010Prop56
140
1.0
102
RTVSPost2010PropOp56
 70
     1
102
RTVSPost2010Prop57
140
1.0
102
RTVSPost2010PropOp57
 70
     1
  0
XRECORD
  5
B5A
102
{ACAD_REACTORS
330
B59
102
}
330
B59
100
AcDbXrecord
280
     1
102
RTVSPost2010Prop28
280
     0
102
RTVSPost2010PropOp28
 70
     1
102
RTVSPost2010Prop29
280
     1
102
RTVSPost2010PropOp29
 70
     1
102
RTVSPost2010Prop30
280
     1
102
RTVSPost2010PropOp30
 70
     1
102
RTVSPost2010Prop31
280
     0
102
RTVSPost2010PropOp31
 70
     1
102
RTVSPost2010Prop32
280
     0
102
RTVSPost2010PropOp32
 70
     1
102
RTVSPost2010Prop33
280
     0
102
RTVSPost2010PropOp33
 70
     1
102
RTVSPost2010Prop34
280
     0
102
RTVSPost2010PropOp34
 70
     1
102
RTVSPost2010Prop35
280
     0
102
RTVSPost2010PropOp35
 70
     1
102
RTVSPost2010Prop36
280
     0
102
RTVSPost2010PropOp36
 70
     1
102
RTVSPost2010Prop37
 90
       50
102
RTVSPost2010PropOp37
 70
     1
102
RTVSPost2010Prop38
140
0.0
102
RTVSPost2010PropOp38
 70
     1
102
RTVSPost2010Prop39
140
1.0
102
RTVSPost2010PropOp39
 70
     1
102
RTVSPost2010Prop40
 90
        0
102
RTVSPost2010PropOp40
 70
     1
102
RTVSPost2010Prop41ColorIndex
 90
       18
102
RTVSPost2010Prop41ColorRGB
 90
        0
102
RTVSPost2010PropOp41
 70
     1
102
RTVSPost2010Prop42
 90
       50
102
RTVSPost2010PropOp42
 70
     1
102
RTVSPost2010Prop43
 90
        3
102
RTVSPost2010PropOp43
 70
     1
102
RTVSPost2010Prop44ColorIndex
 90
        5
102
RTVSPost2010Prop44ColorRGB
 90
      255
102
RTVSPost2010PropOp44
 70
     1
102
RTVSPost2010Prop45
280
     0
102
RTVSPost2010PropOp45
 70
     1
102
RTVSPost2010Prop46
 90
       50
102
RTVSPost2010PropOp46
 70
     1
102
RTVSPost2010Prop47
 90
       50
102
RTVSPost2010PropOp47
 70
     1
102
RTVSPost2010Prop48
 90
       50
102
RTVSPost2010PropOp48
 70
     1
102
RTVSPost2010Prop49
280
     0
102
RTVSPost2010PropOp49
 70
     1
102
RTVSPost2010Prop50
 90
       50
102
RTVSPost2010PropOp50
 70
     1
102
RTVSPost2010Prop51ColorIndex
 90
      256
102
RTVSPost2010Prop51ColorRGB
 90
-16777216
102
RTVSPost2010PropOp51
 70
     0
102
RTVSPost2010Prop52
140
1.0
102
RTVSPost2010PropOp52
 70
     0
102
RTVSPost2010Prop53
 90
        2
102
RTVSPost2010PropOp53
 70
     1
102
RTVSPost2010Prop54
  1
strokes_ogs.tif
102
RTVSPost2010PropOp54
 70
     1
102
RTVSPost2010Prop55
280
     0
102
RTVSPost2010PropOp55
 70
     1
102
RTVSPost2010Prop56
140
1.0
102
RTVSPost2010PropOp56
 70
     1
102
RTVSPost2010Prop57
140
1.0
102
RTVSPost2010PropOp57
 70
     1
  0
XRECORD
  5
B7C
102
{ACAD_REACTORS
330
B7B
102
}
330
B7B
100
AcDbXrecord
280
     1
102
RTVSPost2010Prop28
280
     0
102
RTVSPost2010PropOp28
 70
     1
102
RTVSPost2010Prop29
280
     1
102
RTVSPost2010PropOp29
 70
     1
102
RTVSPost2010Prop30
280
     1
102
RTVSPost2010PropOp30
 70
     1
102
RTVSPost2010Prop31
280
     0
102
RTVSPost2010PropOp31
 70
     1
102
RTVSPost2010Prop32
280
     0
102
RTVSPost2010PropOp32
 70
     1
102
RTVSPost2010Prop33
280
     0
102
RTVSPost2010PropOp33
 70
     1
102
RTVSPost2010Prop34
280
     0
102
RTVSPost2010PropOp34
 70
     1
102
RTVSPost2010Prop35
280
     0
102
RTVSPost2010PropOp35
 70
     1
102
RTVSPost2010Prop36
280
     0
102
RTVSPost2010PropOp36
 70
     1
102
RTVSPost2010Prop37
 90
       50
102
RTVSPost2010PropOp37
 70
     1
102
RTVSPost2010Prop38
140
0.0
102
RTVSPost2010PropOp38
 70
     1
102
RTVSPost2010Prop39
140
1.0
102
RTVSPost2010PropOp39
 70
     1
102
RTVSPost2010Prop40
 90
        0
102
RTVSPost2010PropOp40
 70
     1
102
RTVSPost2010Prop41ColorIndex
 90
       18
102
RTVSPost2010Prop41ColorRGB
 90
        0
102
RTVSPost2010PropOp41
 70
     1
102
RTVSPost2010Prop42
 90
       50
102
RTVSPost2010PropOp42
 70
     1
102
RTVSPost2010Prop43
 90
        3
102
RTVSPost2010PropOp43
 70
     1
102
RTVSPost2010Prop44ColorIndex
 90
        5
102
RTVSPost2010Prop44ColorRGB
 90
      255
102
RTVSPost2010PropOp44
 70
     1
102
RTVSPost2010Prop45
280
     0
102
RTVSPost2010PropOp45
 70
     1
102
RTVSPost2010Prop46
 90
       50
102
RTVSPost2010PropOp46
 70
     1
102
RTVSPost2010Prop47
 90
       50
102
RTVSPost2010PropOp47
 70
     1
102
RTVSPost2010Prop48
 90
       50
102
RTVSPost2010PropOp48
 70
     1
102
RTVSPost2010Prop49
280
     0
102
RTVSPost2010PropOp49
 70
     1
102
RTVSPost2010Prop50
 90
       50
102
RTVSPost2010PropOp50
 70
     1
102
RTVSPost2010Prop51ColorIndex
 90
      256
102
RTVSPost2010Prop51ColorRGB
 90
-16777216
102
RTVSPost2010PropOp51
 70
     0
102
RTVSPost2010Prop52
140
1.0
102
RTVSPost2010PropOp52
 70
     0
102
RTVSPost2010Prop53
 90
        2
102
RTVSPost2010PropOp53
 70
     1
102
RTVSPost2010Prop54
  1
strokes_ogs.tif
102
RTVSPost2010PropOp54
 70
     1
102
RTVSPost2010Prop55
280
     0
102
RTVSPost2010PropOp55
 70
     1
102
RTVSPost2010Prop56
140
1.0
102
RTVSPost2010PropOp56
 70
     1
102
RTVSPost2010Prop57
140
1.0
102
RTVSPost2010PropOp57
 70
     1
  0
XRECORD
  5
B74
102
{ACAD_REACTORS
330
B73
102
}
330
B73
100
AcDbXrecord
280
     1
102
RTVSPost2010Prop28
280
     0
102
RTVSPost2010PropOp28
 70
     1
102
RTVSPost2010Prop29
280
     1
102
RTVSPost2010PropOp29
 70
     1
102
RTVSPost2010Prop30
280
     1
102
RTVSPost2010PropOp30
 70
     1
102
RTVSPost2010Prop31
280
     0
102
RTVSPost2010PropOp31
 70
     1
102
RTVSPost2010Prop32
280
     0
102
RTVSPost2010PropOp32
 70
     1
102
RTVSPost2010Prop33
280
     0
102
RTVSPost2010PropOp33
 70
     1
102
RTVSPost2010Prop34
280
     0
102
RTVSPost2010PropOp34
 70
     1
102
RTVSPost2010Prop35
280
     0
102
RTVSPost2010PropOp35
 70
     1
102
RTVSPost2010Prop36
280
     0
102
RTVSPost2010PropOp36
 70
     1
102
RTVSPost2010Prop37
 90
       50
102
RTVSPost2010PropOp37
 70
     1
102
RTVSPost2010Prop38
140
0.0
102
RTVSPost2010PropOp38
 70
     1
102
RTVSPost2010Prop39
140
1.0
102
RTVSPost2010PropOp39
 70
     1
102
RTVSPost2010Prop40
 90
        0
102
RTVSPost2010PropOp40
 70
     1
102
RTVSPost2010Prop41ColorIndex
 90
       18
102
RTVSPost2010Prop41ColorRGB
 90
        0
102
RTVSPost2010PropOp41
 70
     1
102
RTVSPost2010Prop42
 90
       50
102
RTVSPost2010PropOp42
 70
     1
102
RTVSPost2010Prop43
 90
        3
102
RTVSPost2010PropOp43
 70
     1
102
RTVSPost2010Prop44ColorIndex
 90
        5
102
RTVSPost2010Prop44ColorRGB
 90
      255
102
RTVSPost2010PropOp44
 70
     1
102
RTVSPost2010Prop45
280
     0
102
RTVSPost2010PropOp45
 70
     1
102
RTVSPost2010Prop46
 90
       50
102
RTVSPost2010PropOp46
 70
     1
102
RTVSPost2010Prop47
 90
       50
102
RTVSPost2010PropOp47
 70
     1
102
RTVSPost2010Prop48
 90
       50
102
RTVSPost2010PropOp48
 70
     1
102
RTVSPost2010Prop49
280
     0
102
RTVSPost2010PropOp49
 70
     1
102
RTVSPost2010Prop50
 90
       50
102
RTVSPost2010PropOp50
 70
     1
102
RTVSPost2010Prop51ColorIndex
 90
      256
102
RTVSPost2010Prop51ColorRGB
 90
-16777216
102
RTVSPost2010PropOp51
 70
     0
102
RTVSPost2010Prop52
140
1.0
102
RTVSPost2010PropOp52
 70
     0
102
RTVSPost2010Prop53
 90
        2
102
RTVSPost2010PropOp53
 70
     1
102
RTVSPost2010Prop54
  1
strokes_ogs.tif
102
RTVSPost2010PropOp54
 70
     1
102
RTVSPost2010Prop55
280
     0
102
RTVSPost2010PropOp55
 70
     1
102
RTVSPost2010Prop56
140
1.0
102
RTVSPost2010PropOp56
 70
     1
102
RTVSPost2010Prop57
140
1.0
102
RTVSPost2010PropOp57
 70
     1
  0
XRECORD
  5
B6E
102
{ACAD_REACTORS
330
B6D
102
}
330
B6D
100
AcDbXrecord
280
     1
102
RTVSPost2010Prop28
280
     0
102
RTVSPost2010PropOp28
 70
     1
102
RTVSPost2010Prop29
280
     1
102
RTVSPost2010PropOp29
 70
     1
102
RTVSPost2010Prop30
280
     1
102
RTVSPost2010PropOp30
 70
     1
102
RTVSPost2010Prop31
280
     0
102
RTVSPost2010PropOp31
 70
     1
102
RTVSPost2010Prop32
280
     0
102
RTVSPost2010PropOp32
 70
     1
102
RTVSPost2010Prop33
280
     0
102
RTVSPost2010PropOp33
 70
     1
102
RTVSPost2010Prop34
280
     0
102
RTVSPost2010PropOp34
 70
     1
102
RTVSPost2010Prop35
280
     0
102
RTVSPost2010PropOp35
 70
     1
102
RTVSPost2010Prop36
280
     0
102
RTVSPost2010PropOp36
 70
     1
102
RTVSPost2010Prop37
 90
       50
102
RTVSPost2010PropOp37
 70
     1
102
RTVSPost2010Prop38
140
0.0
102
RTVSPost2010PropOp38
 70
     1
102
RTVSPost2010Prop39
140
1.0
102
RTVSPost2010PropOp39
 70
     1
102
RTVSPost2010Prop40
 90
        0
102
RTVSPost2010PropOp40
 70
     1
102
RTVSPost2010Prop41ColorIndex
 90
       18
102
RTVSPost2010Prop41ColorRGB
 90
        0
102
RTVSPost2010PropOp41
 70
     1
102
RTVSPost2010Prop42
 90
       50
102
RTVSPost2010PropOp42
 70
     1
102
RTVSPost2010Prop43
 90
        3
102
RTVSPost2010PropOp43
 70
     1
102
RTVSPost2010Prop44ColorIndex
 90
        5
102
RTVSPost2010Prop44ColorRGB
 90
      255
102
RTVSPost2010PropOp44
 70
     1
102
RTVSPost2010Prop45
280
     0
102
RTVSPost2010PropOp45
 70
     1
102
RTVSPost2010Prop46
 90
       50
102
RTVSPost2010PropOp46
 70
     1
102
RTVSPost2010Prop47
 90
       50
102
RTVSPost2010PropOp47
 70
     1
102
RTVSPost2010Prop48
 90
       50
102
RTVSPost2010PropOp48
 70
     1
102
RTVSPost2010Prop49
280
     0
102
RTVSPost2010PropOp49
 70
     1
102
RTVSPost2010Prop50
 90
       50
102
RTVSPost2010PropOp50
 70
     1
102
RTVSPost2010Prop51ColorIndex
 90
      256
102
RTVSPost2010Prop51ColorRGB
 90
-16777216
102
RTVSPost2010PropOp51
 70
     0
102
RTVSPost2010Prop52
140
1.0
102
RTVSPost2010PropOp52
 70
     0
102
RTVSPost2010Prop53
 90
        2
102
RTVSPost2010PropOp53
 70
     1
102
RTVSPost2010Prop54
  1
strokes_ogs.tif
102
RTVSPost2010PropOp54
 70
     1
102
RTVSPost2010Prop55
280
     0
102
RTVSPost2010PropOp55
 70
     1
102
RTVSPost2010Prop56
140
1.0
102
RTVSPost2010PropOp56
 70
     1
102
RTVSPost2010Prop57
140
1.0
102
RTVSPost2010PropOp57
 70
     1
  0
XRECORD
  5
B76
102
{ACAD_REACTORS
330
B75
102
}
330
B75
100
AcDbXrecord
280
     1
102
RTVSPost2010Prop28
280
     0
102
RTVSPost2010PropOp28
 70
     1
102
RTVSPost2010Prop29
280
     1
102
RTVSPost2010PropOp29
 70
     1
102
RTVSPost2010Prop30
280
     1
102
RTVSPost2010PropOp30
 70
     1
102
RTVSPost2010Prop31
280
     0
102
RTVSPost2010PropOp31
 70
     1
102
RTVSPost2010Prop32
280
     0
102
RTVSPost2010PropOp32
 70
     1
102
RTVSPost2010Prop33
280
     0
102
RTVSPost2010PropOp33
 70
     1
102
RTVSPost2010Prop34
280
     0
102
RTVSPost2010PropOp34
 70
     1
102
RTVSPost2010Prop35
280
     0
102
RTVSPost2010PropOp35
 70
     1
102
RTVSPost2010Prop36
280
     0
102
RTVSPost2010PropOp36
 70
     1
102
RTVSPost2010Prop37
 90
       50
102
RTVSPost2010PropOp37
 70
     1
102
RTVSPost2010Prop38
140
0.0
102
RTVSPost2010PropOp38
 70
     1
102
RTVSPost2010Prop39
140
1.0
102
RTVSPost2010PropOp39
 70
     1
102
RTVSPost2010Prop40
 90
        0
102
RTVSPost2010PropOp40
 70
     1
102
RTVSPost2010Prop41ColorIndex
 90
       18
102
RTVSPost2010Prop41ColorRGB
 90
        0
102
RTVSPost2010PropOp41
 70
     1
102
RTVSPost2010Prop42
 90
       50
102
RTVSPost2010PropOp42
 70
     1
102
RTVSPost2010Prop43
 90
        3
102
RTVSPost2010PropOp43
 70
     1
102
RTVSPost2010Prop44ColorIndex
 90
        5
102
RTVSPost2010Prop44ColorRGB
 90
      255
102
RTVSPost2010PropOp44
 70
     1
102
RTVSPost2010Prop45
280
     0
102
RTVSPost2010PropOp45
 70
     1
102
RTVSPost2010Prop46
 90
       50
102
RTVSPost2010PropOp46
 70
     1
102
RTVSPost2010Prop47
 90
       50
102
RTVSPost2010PropOp47
 70
     1
102
RTVSPost2010Prop48
 90
       50
102
RTVSPost2010PropOp48
 70
     1
102
RTVSPost2010Prop49
280
     0
102
RTVSPost2010PropOp49
 70
     1
102
RTVSPost2010Prop50
 90
       50
102
RTVSPost2010PropOp50
 70
     1
102
RTVSPost2010Prop51ColorIndex
 90
      256
102
RTVSPost2010Prop51ColorRGB
 90
-16777216
102
RTVSPost2010PropOp51
 70
     0
102
RTVSPost2010Prop52
140
1.0
102
RTVSPost2010PropOp52
 70
     0
102
RTVSPost2010Prop53
 90
        2
102
RTVSPost2010PropOp53
 70
     1
102
RTVSPost2010Prop54
  1
strokes_ogs.tif
102
RTVSPost2010PropOp54
 70
     1
102
RTVSPost2010Prop55
280
     0
102
RTVSPost2010PropOp55
 70
     1
102
RTVSPost2010Prop56
140
1.0
102
RTVSPost2010PropOp56
 70
     1
102
RTVSPost2010Prop57
140
1.0
102
RTVSPost2010PropOp57
 70
     1
  0
XRECORD
  5
B66
102
{ACAD_REACTORS
330
B65
102
}
330
B65
100
AcDbXrecord
280
     1
102
RTVSPost2010Prop28
280
     0
102
RTVSPost2010PropOp28
 70
     1
102
RTVSPost2010Prop29
280
     1
102
RTVSPost2010PropOp29
 70
     1
102
RTVSPost2010Prop30
280
     1
102
RTVSPost2010PropOp30
 70
     1
102
RTVSPost2010Prop31
280
     0
102
RTVSPost2010PropOp31
 70
     1
102
RTVSPost2010Prop32
280
     0
102
RTVSPost2010PropOp32
 70
     1
102
RTVSPost2010Prop33
280
     0
102
RTVSPost2010PropOp33
 70
     1
102
RTVSPost2010Prop34
280
     0
102
RTVSPost2010PropOp34
 70
     1
102
RTVSPost2010Prop35
280
     0
102
RTVSPost2010PropOp35
 70
     1
102
RTVSPost2010Prop36
280
     0
102
RTVSPost2010PropOp36
 70
     1
102
RTVSPost2010Prop37
 90
       50
102
RTVSPost2010PropOp37
 70
     1
102
RTVSPost2010Prop38
140
0.0
102
RTVSPost2010PropOp38
 70
     1
102
RTVSPost2010Prop39
140
1.0
102
RTVSPost2010PropOp39
 70
     1
102
RTVSPost2010Prop40
 90
        0
102
RTVSPost2010PropOp40
 70
     1
102
RTVSPost2010Prop41ColorIndex
 90
       18
102
RTVSPost2010Prop41ColorRGB
 90
        0
102
RTVSPost2010PropOp41
 70
     1
102
RTVSPost2010Prop42
 90
       50
102
RTVSPost2010PropOp42
 70
     1
102
RTVSPost2010Prop43
 90
        3
102
RTVSPost2010PropOp43
 70
     1
102
RTVSPost2010Prop44ColorIndex
 90
        5
102
RTVSPost2010Prop44ColorRGB
 90
      255
102
RTVSPost2010PropOp44
 70
     1
102
RTVSPost2010Prop45
280
     0
102
RTVSPost2010PropOp45
 70
     1
102
RTVSPost2010Prop46
 90
       50
102
RTVSPost2010PropOp46
 70
     1
102
RTVSPost2010Prop47
 90
       50
102
RTVSPost2010PropOp47
 70
     1
102
RTVSPost2010Prop48
 90
       50
102
RTVSPost2010PropOp48
 70
     1
102
RTVSPost2010Prop49
280
     0
102
RTVSPost2010PropOp49
 70
     1
102
RTVSPost2010Prop50
 90
       50
102
RTVSPost2010PropOp50
 70
     1
102
RTVSPost2010Prop51ColorIndex
 90
      256
102
RTVSPost2010Prop51ColorRGB
 90
-16777216
102
RTVSPost2010PropOp51
 70
     0
102
RTVSPost2010Prop52
140
1.0
102
RTVSPost2010PropOp52
 70
     0
102
RTVSPost2010Prop53
 90
        2
102
RTVSPost2010PropOp53
 70
     1
102
RTVSPost2010Prop54
  1
strokes_ogs.tif
102
RTVSPost2010PropOp54
 70
     1
102
RTVSPost2010Prop55
280
     0
102
RTVSPost2010PropOp55
 70
     1
102
RTVSPost2010Prop56
140
1.0
102
RTVSPost2010PropOp56
 70
     1
102
RTVSPost2010Prop57
140
1.0
102
RTVSPost2010PropOp57
 70
     1
  0
XRECORD
  5
B86
102
{ACAD_REACTORS
330
B85
102
}
330
B85
100
AcDbXrecord
280
     1
102
RTVSPost2010Prop28
280
     0
102
RTVSPost2010PropOp28
 70
     1
102
RTVSPost2010Prop29
280
     1
102
RTVSPost2010PropOp29
 70
     1
102
RTVSPost2010Prop30
280
     1
102
RTVSPost2010PropOp30
 70
     1
102
RTVSPost2010Prop31
280
     0
102
RTVSPost2010PropOp31
 70
     1
102
RTVSPost2010Prop32
280
     0
102
RTVSPost2010PropOp32
 70
     1
102
RTVSPost2010Prop33
280
     0
102
RTVSPost2010PropOp33
 70
     1
102
RTVSPost2010Prop34
280
     0
102
RTVSPost2010PropOp34
 70
     1
102
RTVSPost2010Prop35
280
     0
102
RTVSPost2010PropOp35
 70
     1
102
RTVSPost2010Prop36
280
     0
102
RTVSPost2010PropOp36
 70
     1
102
RTVSPost2010Prop37
 90
       50
102
RTVSPost2010PropOp37
 70
     1
102
RTVSPost2010Prop38
140
0.0
102
RTVSPost2010PropOp38
 70
     1
102
RTVSPost2010Prop39
140
1.0
102
RTVSPost2010PropOp39
 70
     1
102
RTVSPost2010Prop40
 90
        0
102
RTVSPost2010PropOp40
 70
     1
102
RTVSPost2010Prop41ColorIndex
 90
       18
102
RTVSPost2010Prop41ColorRGB
 90
        0
102
RTVSPost2010PropOp41
 70
     1
102
RTVSPost2010Prop42
 90
       50
102
RTVSPost2010PropOp42
 70
     1
102
RTVSPost2010Prop43
 90
        3
102
RTVSPost2010PropOp43
 70
     1
102
RTVSPost2010Prop44ColorIndex
 90
        5
102
RTVSPost2010Prop44ColorRGB
 90
      255
102
RTVSPost2010PropOp44
 70
     1
102
RTVSPost2010Prop45
280
     0
102
RTVSPost2010PropOp45
 70
     1
102
RTVSPost2010Prop46
 90
       50
102
RTVSPost2010PropOp46
 70
     1
102
RTVSPost2010Prop47
 90
       50
102
RTVSPost2010PropOp47
 70
     1
102
RTVSPost2010Prop48
 90
       50
102
RTVSPost2010PropOp48
 70
     1
102
RTVSPost2010Prop49
280
     0
102
RTVSPost2010PropOp49
 70
     1
102
RTVSPost2010Prop50
 90
       50
102
RTVSPost2010PropOp50
 70
     1
102
RTVSPost2010Prop51ColorIndex
 90
      256
102
RTVSPost2010Prop51ColorRGB
 90
-16777216
102
RTVSPost2010PropOp51
 70
     0
102
RTVSPost2010Prop52
140
1.0
102
RTVSPost2010PropOp52
 70
     0
102
RTVSPost2010Prop53
 90
        2
102
RTVSPost2010PropOp53
 70
     1
102
RTVSPost2010Prop54
  1
strokes_ogs.tif
102
RTVSPost2010PropOp54
 70
     1
102
RTVSPost2010Prop55
280
     0
102
RTVSPost2010PropOp55
 70
     1
102
RTVSPost2010Prop56
140
1.0
102
RTVSPost2010PropOp56
 70
     1
102
RTVSPost2010Prop57
140
1.0
102
RTVSPost2010PropOp57
 70
     1
  0
XRECORD
  5
B84
102
{ACAD_REACTORS
330
B83
102
}
330
B83
100
AcDbXrecord
280
     1
102
RTVSPost2010Prop28
280
     0
102
RTVSPost2010PropOp28
 70
     1
102
RTVSPost2010Prop29
280
     1
102
RTVSPost2010PropOp29
 70
     1
102
RTVSPost2010Prop30
280
     1
102
RTVSPost2010PropOp30
 70
     1
102
RTVSPost2010Prop31
280
     0
102
RTVSPost2010PropOp31
 70
     1
102
RTVSPost2010Prop32
280
     0
102
RTVSPost2010PropOp32
 70
     1
102
RTVSPost2010Prop33
280
     0
102
RTVSPost2010PropOp33
 70
     1
102
RTVSPost2010Prop34
280
     0
102
RTVSPost2010PropOp34
 70
     1
102
RTVSPost2010Prop35
280
     0
102
RTVSPost2010PropOp35
 70
     1
102
RTVSPost2010Prop36
280
     0
102
RTVSPost2010PropOp36
 70
     1
102
RTVSPost2010Prop37
 90
       50
102
RTVSPost2010PropOp37
 70
     1
102
RTVSPost2010Prop38
140
0.0
102
RTVSPost2010PropOp38
 70
     1
102
RTVSPost2010Prop39
140
1.0
102
RTVSPost2010PropOp39
 70
     1
102
RTVSPost2010Prop40
 90
        0
102
RTVSPost2010PropOp40
 70
     1
102
RTVSPost2010Prop41ColorIndex
 90
       18
102
RTVSPost2010Prop41ColorRGB
 90
        0
102
RTVSPost2010PropOp41
 70
     1
102
RTVSPost2010Prop42
 90
       50
102
RTVSPost2010PropOp42
 70
     1
102
RTVSPost2010Prop43
 90
        3
102
RTVSPost2010PropOp43
 70
     1
102
RTVSPost2010Prop44ColorIndex
 90
        5
102
RTVSPost2010Prop44ColorRGB
 90
      255
102
RTVSPost2010PropOp44
 70
     1
102
RTVSPost2010Prop45
280
     0
102
RTVSPost2010PropOp45
 70
     1
102
RTVSPost2010Prop46
 90
       50
102
RTVSPost2010PropOp46
 70
     1
102
RTVSPost2010Prop47
 90
       50
102
RTVSPost2010PropOp47
 70
     1
102
RTVSPost2010Prop48
 90
       50
102
RTVSPost2010PropOp48
 70
     1
102
RTVSPost2010Prop49
280
     0
102
RTVSPost2010PropOp49
 70
     1
102
RTVSPost2010Prop50
 90
       50
102
RTVSPost2010PropOp50
 70
     1
102
RTVSPost2010Prop51ColorIndex
 90
      256
102
RTVSPost2010Prop51ColorRGB
 90
-16777216
102
RTVSPost2010PropOp51
 70
     0
102
RTVSPost2010Prop52
140
1.0
102
RTVSPost2010PropOp52
 70
     0
102
RTVSPost2010Prop53
 90
        2
102
RTVSPost2010PropOp53
 70
     1
102
RTVSPost2010Prop54
  1
strokes_ogs.tif
102
RTVSPost2010PropOp54
 70
     1
102
RTVSPost2010Prop55
280
     0
102
RTVSPost2010PropOp55
 70
     1
102
RTVSPost2010Prop56
140
1.0
102
RTVSPost2010PropOp56
 70
     1
102
RTVSPost2010Prop57
140
1.0
102
RTVSPost2010PropOp57
 70
     1
  0
XRECORD
  5
B7E
102
{ACAD_REACTORS
330
B7D
102
}
330
B7D
100
AcDbXrecord
280
     1
102
RTVSPost2010Prop28
280
     0
102
RTVSPost2010PropOp28
 70
     1
102
RTVSPost2010Prop29
280
     1
102
RTVSPost2010PropOp29
 70
     1
102
RTVSPost2010Prop30
280
     1
102
RTVSPost2010PropOp30
 70
     1
102
RTVSPost2010Prop31
280
     0
102
RTVSPost2010PropOp31
 70
     1
102
RTVSPost2010Prop32
280
     0
102
RTVSPost2010PropOp32
 70
     1
102
RTVSPost2010Prop33
280
     0
102
RTVSPost2010PropOp33
 70
     1
102
RTVSPost2010Prop34
280
     0
102
RTVSPost2010PropOp34
 70
     1
102
RTVSPost2010Prop35
280
     0
102
RTVSPost2010PropOp35
 70
     1
102
RTVSPost2010Prop36
280
     0
102
RTVSPost2010PropOp36
 70
     1
102
RTVSPost2010Prop37
 90
       50
102
RTVSPost2010PropOp37
 70
     1
102
RTVSPost2010Prop38
140
0.0
102
RTVSPost2010PropOp38
 70
     1
102
RTVSPost2010Prop39
140
1.0
102
RTVSPost2010PropOp39
 70
     1
102
RTVSPost2010Prop40
 90
        0
102
RTVSPost2010PropOp40
 70
     1
102
RTVSPost2010Prop41ColorIndex
 90
       18
102
RTVSPost2010Prop41ColorRGB
 90
        0
102
RTVSPost2010PropOp41
 70
     1
102
RTVSPost2010Prop42
 90
       50
102
RTVSPost2010PropOp42
 70
     1
102
RTVSPost2010Prop43
 90
        3
102
RTVSPost2010PropOp43
 70
     1
102
RTVSPost2010Prop44ColorIndex
 90
        5
102
RTVSPost2010Prop44ColorRGB
 90
      255
102
RTVSPost2010PropOp44
 70
     1
102
RTVSPost2010Prop45
280
     0
102
RTVSPost2010PropOp45
 70
     1
102
RTVSPost2010Prop46
 90
       50
102
RTVSPost2010PropOp46
 70
     1
102
RTVSPost2010Prop47
 90
       50
102
RTVSPost2010PropOp47
 70
     1
102
RTVSPost2010Prop48
 90
       50
102
RTVSPost2010PropOp48
 70
     1
102
RTVSPost2010Prop49
280
     0
102
RTVSPost2010PropOp49
 70
     1
102
RTVSPost2010Prop50
 90
       50
102
RTVSPost2010PropOp50
 70
     1
102
RTVSPost2010Prop51ColorIndex
 90
      256
102
RTVSPost2010Prop51ColorRGB
 90
-16777216
102
RTVSPost2010PropOp51
 70
     0
102
RTVSPost2010Prop52
140
1.0
102
RTVSPost2010PropOp52
 70
     0
102
RTVSPost2010Prop53
 90
        2
102
RTVSPost2010PropOp53
 70
     1
102
RTVSPost2010Prop54
  1
strokes_ogs.tif
102
RTVSPost2010PropOp54
 70
     1
102
RTVSPost2010Prop55
280
     0
102
RTVSPost2010PropOp55
 70
     1
102
RTVSPost2010Prop56
140
1.0
102
RTVSPost2010PropOp56
 70
     1
102
RTVSPost2010Prop57
140
1.0
102
RTVSPost2010PropOp57
 70
     1
  0
XRECORD
  5
B80
102
{ACAD_REACTORS
330
B7F
102
}
330
B7F
100
AcDbXrecord
280
     1
102
RTVSPost2010Prop28
280
     0
102
RTVSPost2010PropOp28
 70
     1
102
RTVSPost2010Prop29
280
     1
102
RTVSPost2010PropOp29
 70
     1
102
RTVSPost2010Prop30
280
     1
102
RTVSPost2010PropOp30
 70
     1
102
RTVSPost2010Prop31
280
     0
102
RTVSPost2010PropOp31
 70
     1
102
RTVSPost2010Prop32
280
     0
102
RTVSPost2010PropOp32
 70
     1
102
RTVSPost2010Prop33
280
     0
102
RTVSPost2010PropOp33
 70
     1
102
RTVSPost2010Prop34
280
     0
102
RTVSPost2010PropOp34
 70
     1
102
RTVSPost2010Prop35
280
     0
102
RTVSPost2010PropOp35
 70
     1
102
RTVSPost2010Prop36
280
     0
102
RTVSPost2010PropOp36
 70
     1
102
RTVSPost2010Prop37
 90
       50
102
RTVSPost2010PropOp37
 70
     1
102
RTVSPost2010Prop38
140
0.0
102
RTVSPost2010PropOp38
 70
     1
102
RTVSPost2010Prop39
140
1.0
102
RTVSPost2010PropOp39
 70
     1
102
RTVSPost2010Prop40
 90
        0
102
RTVSPost2010PropOp40
 70
     1
102
RTVSPost2010Prop41ColorIndex
 90
       18
102
RTVSPost2010Prop41ColorRGB
 90
        0
102
RTVSPost2010PropOp41
 70
     1
102
RTVSPost2010Prop42
 90
       50
102
RTVSPost2010PropOp42
 70
     1
102
RTVSPost2010Prop43
 90
        3
102
RTVSPost2010PropOp43
 70
     1
102
RTVSPost2010Prop44ColorIndex
 90
        5
102
RTVSPost2010Prop44ColorRGB
 90
      255
102
RTVSPost2010PropOp44
 70
     1
102
RTVSPost2010Prop45
280
     0
102
RTVSPost2010PropOp45
 70
     1
102
RTVSPost2010Prop46
 90
       50
102
RTVSPost2010PropOp46
 70
     1
102
RTVSPost2010Prop47
 90
       50
102
RTVSPost2010PropOp47
 70
     1
102
RTVSPost2010Prop48
 90
       50
102
RTVSPost2010PropOp48
 70
     1
102
RTVSPost2010Prop49
280
     0
102
RTVSPost2010PropOp49
 70
     1
102
RTVSPost2010Prop50
 90
       50
102
RTVSPost2010PropOp50
 70
     1
102
RTVSPost2010Prop51ColorIndex
 90
      256
102
RTVSPost2010Prop51ColorRGB
 90
-16777216
102
RTVSPost2010PropOp51
 70
     0
102
RTVSPost2010Prop52
140
1.0
102
RTVSPost2010PropOp52
 70
     0
102
RTVSPost2010Prop53
 90
        2
102
RTVSPost2010PropOp53
 70
     1
102
RTVSPost2010Prop54
  1
strokes_ogs.tif
102
RTVSPost2010PropOp54
 70
     1
102
RTVSPost2010Prop55
280
     0
102
RTVSPost2010PropOp55
 70
     1
102
RTVSPost2010Prop56
140
1.0
102
RTVSPost2010PropOp56
 70
     1
102
RTVSPost2010Prop57
140
1.0
102
RTVSPost2010PropOp57
 70
     1
  0
XRECORD
  5
B6C
102
{ACAD_REACTORS
330
B6B
102
}
330
B6B
100
AcDbXrecord
280
     1
102
RTVSPost2010Prop28
280
     0
102
RTVSPost2010PropOp28
 70
     1
102
RTVSPost2010Prop29
280
     1
102
RTVSPost2010PropOp29
 70
     1
102
RTVSPost2010Prop30
280
     1
102
RTVSPost2010PropOp30
 70
     1
102
RTVSPost2010Prop31
280
     0
102
RTVSPost2010PropOp31
 70
     1
102
RTVSPost2010Prop32
280
     0
102
RTVSPost2010PropOp32
 70
     1
102
RTVSPost2010Prop33
280
     0
102
RTVSPost2010PropOp33
 70
     1
102
RTVSPost2010Prop34
280
     0
102
RTVSPost2010PropOp34
 70
     1
102
RTVSPost2010Prop35
280
     0
102
RTVSPost2010PropOp35
 70
     1
102
RTVSPost2010Prop36
280
     0
102
RTVSPost2010PropOp36
 70
     1
102
RTVSPost2010Prop37
 90
       50
102
RTVSPost2010PropOp37
 70
     1
102
RTVSPost2010Prop38
140
0.0
102
RTVSPost2010PropOp38
 70
     1
102
RTVSPost2010Prop39
140
1.0
102
RTVSPost2010PropOp39
 70
     1
102
RTVSPost2010Prop40
 90
        0
102
RTVSPost2010PropOp40
 70
     1
102
RTVSPost2010Prop41ColorIndex
 90
       18
102
RTVSPost2010Prop41ColorRGB
 90
        0
102
RTVSPost2010PropOp41
 70
     1
102
RTVSPost2010Prop42
 90
       50
102
RTVSPost2010PropOp42
 70
     1
102
RTVSPost2010Prop43
 90
        3
102
RTVSPost2010PropOp43
 70
     1
102
RTVSPost2010Prop44ColorIndex
 90
        5
102
RTVSPost2010Prop44ColorRGB
 90
      255
102
RTVSPost2010PropOp44
 70
     1
102
RTVSPost2010Prop45
280
     0
102
RTVSPost2010PropOp45
 70
     1
102
RTVSPost2010Prop46
 90
       50
102
RTVSPost2010PropOp46
 70
     1
102
RTVSPost2010Prop47
 90
       50
102
RTVSPost2010PropOp47
 70
     1
102
RTVSPost2010Prop48
 90
       50
102
RTVSPost2010PropOp48
 70
     1
102
RTVSPost2010Prop49
280
     0
102
RTVSPost2010PropOp49
 70
     1
102
RTVSPost2010Prop50
 90
       50
102
RTVSPost2010PropOp50
 70
     1
102
RTVSPost2010Prop51ColorIndex
 90
      256
102
RTVSPost2010Prop51ColorRGB
 90
-16777216
102
RTVSPost2010PropOp51
 70
     0
102
RTVSPost2010Prop52
140
1.0
102
RTVSPost2010PropOp52
 70
     0
102
RTVSPost2010Prop53
 90
        2
102
RTVSPost2010PropOp53
 70
     1
102
RTVSPost2010Prop54
  1
strokes_ogs.tif
102
RTVSPost2010PropOp54
 70
     1
102
RTVSPost2010Prop55
280
     0
102
RTVSPost2010PropOp55
 70
     1
102
RTVSPost2010Prop56
140
1.0
102
RTVSPost2010PropOp56
 70
     1
102
RTVSPost2010Prop57
140
1.0
102
RTVSPost2010PropOp57
 70
     1
  0
XRECORD
  5
B7A
102
{ACAD_REACTORS
330
B79
102
}
330
B79
100
AcDbXrecord
280
     1
102
RTVSPost2010Prop28
280
     0
102
RTVSPost2010PropOp28
 70
     1
102
RTVSPost2010Prop29
280
     1
102
RTVSPost2010PropOp29
 70
     1
102
RTVSPost2010Prop30
280
     1
102
RTVSPost2010PropOp30
 70
     1
102
RTVSPost2010Prop31
280
     0
102
RTVSPost2010PropOp31
 70
     1
102
RTVSPost2010Prop32
280
     0
102
RTVSPost2010PropOp32
 70
     1
102
RTVSPost2010Prop33
280
     0
102
RTVSPost2010PropOp33
 70
     1
102
RTVSPost2010Prop34
280
     0
102
RTVSPost2010PropOp34
 70
     1
102
RTVSPost2010Prop35
280
     0
102
RTVSPost2010PropOp35
 70
     1
102
RTVSPost2010Prop36
280
     0
102
RTVSPost2010PropOp36
 70
     1
102
RTVSPost2010Prop37
 90
       50
102
RTVSPost2010PropOp37
 70
     1
102
RTVSPost2010Prop38
140
0.0
102
RTVSPost2010PropOp38
 70
     1
102
RTVSPost2010Prop39
140
1.0
102
RTVSPost2010PropOp39
 70
     1
102
RTVSPost2010Prop40
 90
        0
102
RTVSPost2010PropOp40
 70
     1
102
RTVSPost2010Prop41ColorIndex
 90
       18
102
RTVSPost2010Prop41ColorRGB
 90
        0
102
RTVSPost2010PropOp41
 70
     1
102
RTVSPost2010Prop42
 90
       50
102
RTVSPost2010PropOp42
 70
     1
102
RTVSPost2010Prop43
 90
        3
102
RTVSPost2010PropOp43
 70
     1
102
RTVSPost2010Prop44ColorIndex
 90
        5
102
RTVSPost2010Prop44ColorRGB
 90
      255
102
RTVSPost2010PropOp44
 70
     1
102
RTVSPost2010Prop45
280
     0
102
RTVSPost2010PropOp45
 70
     1
102
RTVSPost2010Prop46
 90
       50
102
RTVSPost2010PropOp46
 70
     1
102
RTVSPost2010Prop47
 90
       50
102
RTVSPost2010PropOp47
 70
     1
102
RTVSPost2010Prop48
 90
       50
102
RTVSPost2010PropOp48
 70
     1
102
RTVSPost2010Prop49
280
     0
102
RTVSPost2010PropOp49
 70
     1
102
RTVSPost2010Prop50
 90
       50
102
RTVSPost2010PropOp50
 70
     1
102
RTVSPost2010Prop51ColorIndex
 90
      256
102
RTVSPost2010Prop51ColorRGB
 90
-16777216
102
RTVSPost2010PropOp51
 70
     0
102
RTVSPost2010Prop52
140
1.0
102
RTVSPost2010PropOp52
 70
     0
102
RTVSPost2010Prop53
 90
        2
102
RTVSPost2010PropOp53
 70
     1
102
RTVSPost2010Prop54
  1
strokes_ogs.tif
102
RTVSPost2010PropOp54
 70
     1
102
RTVSPost2010Prop55
280
     0
102
RTVSPost2010PropOp55
 70
     1
102
RTVSPost2010Prop56
140
1.0
102
RTVSPost2010PropOp56
 70
     1
102
RTVSPost2010Prop57
140
1.0
102
RTVSPost2010PropOp57
 70
     1
  0
XRECORD
  5
B82
102
{ACAD_REACTORS
330
B81
102
}
330
B81
100
AcDbXrecord
280
     1
102
RTVSPost2010Prop28
280
     0
102
RTVSPost2010PropOp28
 70
     1
102
RTVSPost2010Prop29
280
     1
102
RTVSPost2010PropOp29
 70
     1
102
RTVSPost2010Prop30
280
     1
102
RTVSPost2010PropOp30
 70
     1
102
RTVSPost2010Prop31
280
     0
102
RTVSPost2010PropOp31
 70
     1
102
RTVSPost2010Prop32
280
     0
102
RTVSPost2010PropOp32
 70
     1
102
RTVSPost2010Prop33
280
     0
102
RTVSPost2010PropOp33
 70
     1
102
RTVSPost2010Prop34
280
     0
102
RTVSPost2010PropOp34
 70
     1
102
RTVSPost2010Prop35
280
     0
102
RTVSPost2010PropOp35
 70
     1
102
RTVSPost2010Prop36
280
     0
102
RTVSPost2010PropOp36
 70
     1
102
RTVSPost2010Prop37
 90
       50
102
RTVSPost2010PropOp37
 70
     1
102
RTVSPost2010Prop38
140
0.0
102
RTVSPost2010PropOp38
 70
     1
102
RTVSPost2010Prop39
140
1.0
102
RTVSPost2010PropOp39
 70
     1
102
RTVSPost2010Prop40
 90
        0
102
RTVSPost2010PropOp40
 70
     1
102
RTVSPost2010Prop41ColorIndex
 90
       18
102
RTVSPost2010Prop41ColorRGB
 90
        0
102
RTVSPost2010PropOp41
 70
     1
102
RTVSPost2010Prop42
 90
       50
102
RTVSPost2010PropOp42
 70
     1
102
RTVSPost2010Prop43
 90
        3
102
RTVSPost2010PropOp43
 70
     1
102
RTVSPost2010Prop44ColorIndex
 90
        5
102
RTVSPost2010Prop44ColorRGB
 90
      255
102
RTVSPost2010PropOp44
 70
     1
102
RTVSPost2010Prop45
280
     0
102
RTVSPost2010PropOp45
 70
     1
102
RTVSPost2010Prop46
 90
       50
102
RTVSPost2010PropOp46
 70
     1
102
RTVSPost2010Prop47
 90
       50
102
RTVSPost2010PropOp47
 70
     1
102
RTVSPost2010Prop48
 90
       50
102
RTVSPost2010PropOp48
 70
     1
102
RTVSPost2010Prop49
280
     0
102
RTVSPost2010PropOp49
 70
     1
102
RTVSPost2010Prop50
 90
       50
102
RTVSPost2010PropOp50
 70
     1
102
RTVSPost2010Prop51ColorIndex
 90
      256
102
RTVSPost2010Prop51ColorRGB
 90
-16777216
102
RTVSPost2010PropOp51
 70
     0
102
RTVSPost2010Prop52
140
1.0
102
RTVSPost2010PropOp52
 70
     0
102
RTVSPost2010Prop53
 90
        2
102
RTVSPost2010PropOp53
 70
     1
102
RTVSPost2010Prop54
  1
strokes_ogs.tif
102
RTVSPost2010PropOp54
 70
     1
102
RTVSPost2010Prop55
280
     0
102
RTVSPost2010PropOp55
 70
     1
102
RTVSPost2010Prop56
140
1.0
102
RTVSPost2010PropOp56
 70
     1
102
RTVSPost2010Prop57
140
1.0
102
RTVSPost2010PropOp57
 70
     1
  0
FIELD
  5
6C6
102
{ACAD_REACTORS
330
6C5
102
}
330
6C5
100
AcDbField
  1
_text
  2
%<\_FldIdx 0>%-%<\_FldIdx 1>%
 90
        2
360
6C7
360
6C8
 97
        0
 91
       63
 92
        0
 94
        9
 95
        2
 96
        0
300

 93
        0
  7
ACFD_FIELD_VALUE
 93
        3
 90
        0
 94
        0
300

302

304
ACVALUE_END
301

 98
        0
  0
FIELD
  5
6C7
330
6C6
100
AcDbField
  1
AcVar
  2
\AcVar ViewSectionStartId
 90
        0
 97
        0
 91
       63
 92
        0
 94
       43
 95
        2
 96
        0
300

 93
        1
  6
Variable
 93
        2
 90
        4
  1
ViewSectionStartId
 94
        0
300

302

304
ACVALUE_END
  7
ACFD_FIELD_VALUE
 93
        1
 90
        0
 94
        0
300

302

304
ACVALUE_END
301
----
 98
        4
  0
FIELD
  5
6C8
330
6C6
100
AcDbField
  1
AcVar
  2
\AcVar ViewSectionEndId
 90
        0
 97
        0
 91
       63
 92
        0
 94
       43
 95
        2
 96
        0
300

 93
        1
  6
Variable
 93
        2
 90
        4
  1
ViewSectionEndId
 94
        0
300

302

304
ACVALUE_END
  7
ACFD_FIELD_VALUE
 93
        1
 90
        0
 94
        0
300

302

304
ACVALUE_END
301
----
 98
        4
  0
ENDSEC
  0
EOF
