  0
SECTION
  2
HEADER
  9
$ACADVER
  1
AC1024
  9
$ACADMAINTVER
 70
   157
  9
$DWGCODEPAGE
  3
ANSI_1252
  9
$LASTSAVEDBY
  1
sbittorf
  9
$CUSTOMPROPERTYTAG
  1
AmdtFileType
  9
$CUSTOMPROPERTY
  1
84
  9
$INSBASE
 10
0.0
 20
0.0
 30
0.0
  9
$EXTMIN
 10
57.58572348699562
 20
22.35117048536026
 30
0.0
  9
$EXTMAX
 10
760.891957856479
 20
441.2568932366792
 30
0.0
  9
$LIMMIN
 10
0.0
 20
0.0
  9
$LIMMAX
 10
420.0
 20
297.0
  9
$ORTHOMODE
 70
     0
  9
$REGENMODE
 70
     1
  9
$FILLMODE
 70
     1
  9
$QTEXTMODE
 70
     0
  9
$MIRRTEXT
 70
     1
  9
$LTSCALE
 40
1.0
  9
$ATTMODE
 70
     1
  9
$TEXTSIZE
 40
2.5
  9
$TRACEWID
 40
1.0
  9
$TEXTSTYLE
  7
STANDARD
  9
$CLAYER
  8
0
  9
$CELTYPE
  6
ByLayer
  9
$CECOLOR
 62
   256
  9
$CELTSCALE
 40
1.0
  9
$DISPSILH
 70
     0
  9
$DIMSCALE
 40
1.0
  9
$DIMASZ
 40
2.5
  9
$DIMEXO
 40
1.0
  9
$DIMDLI
 40
10.0
  9
$DIMRND
 40
0.0
  9
$DIMDLE
 40
0.0
  9
$DIMEXE
 40
1.0
  9
$DIMTP
 40
0.1
  9
$DIMTM
 40
0.1
  9
$DIMTXT
 40
3.5
  9
$DIMCEN
 40
0.0
  9
$DIMTSZ
 40
0.0
  9
$DIMTOL
 70
     0
  9
$DIMLIM
 70
     0
  9
$DIMTIH
 70
     0
  9
$DIMTOH
 70
     0
  9
$DIMSE1
 70
     0
  9
$DIMSE2
 70
     0
  9
$DIMTAD
 70
     1
  9
$DIMZIN
 70
     8
  9
$DIMBLK
  1

  9
$DIMASO
 70
     1
  9
$DIMSHO
 70
     1
  9
$DIMPOST
  1

  9
$DIMAPOST
  1
"
  9
$DIMALT
 70
     0
  9
$DIMALTD
 70
     2
  9
$DIMALTF
 40
0.0393701
  9
$DIMLFAC
 40
1.0
  9
$DIMTOFL
 70
     1
  9
$DIMTVP
 40
0.0
  9
$DIMTIX
 70
     0
  9
$DIMSOXD
 70
     0
  9
$DIMSAH
 70
     0
  9
$DIMBLK1
  1

  9
$DIMBLK2
  1

  9
$DIMSTYLE
  2
AM_DIN
  9
$DIMCLRD
 70
   256
  9
$DIMCLRE
 70
   256
  9
$DIMCLRT
 70
     2
  9
$DIMTFAC
 40
0.71
  9
$DIMGAP
 40
1.5
  9
$DIMJUST
 70
     0
  9
$DIMSD1
 70
     0
  9
$DIMSD2
 70
     0
  9
$DIMTOLJ
 70
     0
  9
$DIMTZIN
 70
     8
  9
$DIMALTZ
 70
     0
  9
$DIMALTTZ
 70
     0
  9
$DIMUPT
 70
     0
  9
$DIMDEC
 70
     2
  9
$DIMTDEC
 70
     3
  9
$DIMALTU
 70
     2
  9
$DIMALTTD
 70
     4
  9
$DIMTXSTY
  7
STANDARD
  9
$DIMAUNIT
 70
     0
  9
$DIMADEC
 70
     0
  9
$DIMALTRND
 40
0.0
  9
$DIMAZIN
 70
     2
  9
$DIMDSEP
 70
    46
  9
$DIMATFIT
 70
     3
  9
$DIMFRAC
 70
     0
  9
$DIMLDRBLK
  1

  9
$DIMLUNIT
 70
     2
  9
$DIMLWD
 70
    -1
  9
$DIMLWE
 70
    -1
  9
$DIMTMOVE
 70
     0
  9
$DIMFXL
 40
1.0
  9
$DIMFXLON
 70
     0
  9
$DIMJOGANG
 40
1.570796326794896
  9
$DIMTFILL
 70
     0
  9
$DIMTFILLCLR
 70
     0
  9
$DIMARCSYM
 70
     0
  9
$DIMLTYPE
  6

  9
$DIMLTEX1
  6

  9
$DIMLTEX2
  6

  9
$DIMTXTDIRECTION
 70
     0
  9
$LUNITS
 70
     2
  9
$LUPREC
 70
     2
  9
$SKETCHINC
 40
1.0
  9
$FILLETRAD
 40
0.0
  9
$AUNITS
 70
     0
  9
$AUPREC
 70
     0
  9
$MENU
  1
.
  9
$ELEVATION
 40
0.0
  9
$PELEVATION
 40
0.0
  9
$THICKNESS
 40
0.0
  9
$LIMCHECK
 70
     0
  9
$CHAMFERA
 40
2.5
  9
$CHAMFERB
 40
2.5
  9
$CHAMFERC
 40
20.0
  9
$CHAMFERD
 40
0.0
  9
$SKPOLY
 70
     0
  9
$TDCREATE
 40
2457921.296898935
  9
$TDUCREATE
 40
2457921.213565602
  9
$TDUPDATE
 40
2457921.318131875
  9
$TDUUPDATE
 40
2457921.234798542
  9
$TDINDWG
 40
0.0212799769
  9
$TDUSRTIMER
 40
0.0212333681
  9
$USRTIMER
 70
     1
  9
$ANGBASE
 50
0.0
  9
$ANGDIR
 70
     0
  9
$PDMODE
 70
     0
  9
$PDSIZE
 40
0.0
  9
$PLINEWID
 40
0.0
  9
$SPLFRAME
 70
     0
  9
$SPLINETYPE
 70
     6
  9
$SPLINESEGS
 70
     8
  9
$HANDSEED
  5
B3C
  9
$SURFTAB1
 70
     6
  9
$SURFTAB2
 70
     6
  9
$SURFTYPE
 70
     6
  9
$SURFU
 70
     6
  9
$SURFV
 70
     6
  9
$UCSBASE
  2

  9
$UCSNAME
  2

  9
$UCSORG
 10
0.0
 20
0.0
 30
0.0
  9
$UCSXDIR
 10
1.0
 20
0.0
 30
0.0
  9
$UCSYDIR
 10
0.0
 20
1.0
 30
0.0
  9
$UCSORTHOREF
  2

  9
$UCSORTHOVIEW
 70
     0
  9
$UCSORGTOP
 10
0.0
 20
0.0
 30
0.0
  9
$UCSORGBOTTOM
 10
0.0
 20
0.0
 30
0.0
  9
$UCSORGLEFT
 10
0.0
 20
0.0
 30
0.0
  9
$UCSORGRIGHT
 10
0.0
 20
0.0
 30
0.0
  9
$UCSORGFRONT
 10
0.0
 20
0.0
 30
0.0
  9
$UCSORGBACK
 10
0.0
 20
0.0
 30
0.0
  9
$PUCSBASE
  2

  9
$PUCSNAME
  2

  9
$PUCSORG
 10
0.0
 20
0.0
 30
0.0
  9
$PUCSXDIR
 10
1.0
 20
0.0
 30
0.0
  9
$PUCSYDIR
 10
0.0
 20
1.0
 30
0.0
  9
$PUCSORTHOREF
  2

  9
$PUCSORTHOVIEW
 70
     0
  9
$PUCSORGTOP
 10
0.0
 20
0.0
 30
0.0
  9
$PUCSORGBOTTOM
 10
0.0
 20
0.0
 30
0.0
  9
$PUCSORGLEFT
 10
0.0
 20
0.0
 30
0.0
  9
$PUCSORGRIGHT
 10
0.0
 20
0.0
 30
0.0
  9
$PUCSORGFRONT
 10
0.0
 20
0.0
 30
0.0
  9
$PUCSORGBACK
 10
0.0
 20
0.0
 30
0.0
  9
$USERI1
 70
     0
  9
$USERI2
 70
     0
  9
$USERI3
 70
     0
  9
$USERI4
 70
     0
  9
$USERI5
 70
     0
  9
$USERR1
 40
0.0
  9
$USERR2
 40
0.0
  9
$USERR3
 40
0.0
  9
$USERR4
 40
0.0
  9
$USERR5
 40
0.0
  9
$WORLDVIEW
 70
     1
  9
$SHADEDGE
 70
     3
  9
$SHADEDIF
 70
    70
  9
$TILEMODE
 70
     1
  9
$MAXACTVP
 70
    64
  9
$PINSBASE
 10
0.0
 20
0.0
 30
0.0
  9
$PLIMCHECK
 70
     0
  9
$PEXTMIN
 10
1.000000000000000E+20
 20
1.000000000000000E+20
 30
1.000000000000000E+20
  9
$PEXTMAX
 10
-1.000000000000000E+20
 20
-1.000000000000000E+20
 30
-1.000000000000000E+20
  9
$PLIMMIN
 10
0.0
 20
0.0
  9
$PLIMMAX
 10
420.0
 20
297.0
  9
$UNITMODE
 70
     0
  9
$VISRETAIN
 70
     1
  9
$PLINEGEN
 70
     0
  9
$PSLTSCALE
 70
     1
  9
$TREEDEPTH
 70
  3020
  9
$CMLSTYLE
  2
Standard
  9
$CMLJUST
 70
     0
  9
$CMLSCALE
 40
20.0
  9
$PROXYGRAPHICS
 70
     1
  9
$MEASUREMENT
 70
     1
  9
$CELWEIGHT
370
    -1
  9
$ENDCAPS
280
     0
  9
$JOINSTYLE
280
     0
  9
$LWDISPLAY
290
     0
  9
$INSUNITS
 70
     4
  9
$HYPERLINKBASE
  1

  9
$STYLESHEET
  1

  9
$XEDIT
290
     1
  9
$CEPSNTYPE
380
     0
  9
$PSTYLEMODE
290
     1
  9
$FINGERPRINTGUID
  2
{696BC524-7DF7-4F58-AC84-17464B2436AA}
  9
$VERSIONGUID
  2
{45C874DD-88D5-4DE2-A0E4-F788FA222F12}
  9
$EXTNAMES
290
     1
  9
$PSVPSCALE
 40
0.0
  9
$OLESTARTUP
290
     0
  9
$SORTENTS
280
   127
  9
$INDEXCTL
280
     0
  9
$HIDETEXT
280
     0
  9
$XCLIPFRAME
280
     0
  9
$HALOGAP
280
     0
  9
$OBSCOLOR
 70
   257
  9
$OBSLTYPE
280
     0
  9
$INTERSECTIONDISPLAY
280
     0
  9
$INTERSECTIONCOLOR
 70
   257
  9
$DIMASSOC
280
     2
  9
$PROJECTNAME
  1

  9
$CAMERADISPLAY
290
     0
  9
$LENSLENGTH
 40
50.0
  9
$CAMERAHEIGHT
 40
0.0
  9
$STEPSPERSEC
 40
2.0
  9
$STEPSIZE
 40
6.0
  9
$3DDWFPREC
 40
2.0
  9
$PSOLWIDTH
 40
0.25
  9
$PSOLHEIGHT
 40
4.0
  9
$LOFTANG1
 40
1.570796326794896
  9
$LOFTANG2
 40
1.570796326794896
  9
$LOFTMAG1
 40
0.0
  9
$LOFTMAG2
 40
0.0
  9
$LOFTPARAM
 70
     7
  9
$LOFTNORMALS
280
     1
  9
$LATITUDE
 40
37.795
  9
$LONGITUDE
 40
-122.394
  9
$NORTHDIRECTION
 40
0.0
  9
$TIMEZONE
 70
 -8000
  9
$LIGHTGLYPHDISPLAY
280
     1
  9
$TILEMODELIGHTSYNCH
280
     1
  9
$CMATERIAL
347
3B4
  9
$SOLIDHIST
280
     1
  9
$SHOWHIST
280
     1
  9
$DWFFRAME
280
     2
  9
$DGNFRAME
280
     0
  9
$REALWORLDSCALE
290
     1
  9
$INTERFERECOLOR
 62
     1
  9
$INTERFEREOBJVS
345
3D6
  9
$INTERFEREVPVS
346
5E6
  9
$CSHADOW
280
     0
  9
$SHADOWPLANELOCATION
 40
0.0
  0
ENDSEC
  0
SECTION
  2
CLASSES
  0
CLASS
  1
ACDBDICTIONARYWDFLT
  2
AcDbDictionaryWithDefault
  3
ObjectDBX Classes
 90
        0
 91
        1
280
     0
281
     0
  0
CLASS
  1
ACME_DOCUMENT
  2
AcMeDbDoc
  3
AcMeServices
 90
     1024
 91
        2
280
     0
281
     0
  0
CLASS
  1
AMGSETTINGSOBJ
  2
AmgSettingsObj
  3
"AcadM|Product Description: AutoCAD Mechanical|Company: Autodesk, Inc."
 90
     1024
 91
        4
280
     0
281
     0
  0
CLASS
  1
ACMESCOPE
  2
AcMeScope
  3
AcMeServices
 90
     1024
 91
        1
280
     0
281
     0
  0
CLASS
  1
ACMECOMMANDHISTORY
  2
AcMeCommandHistory
  3
AcMeServices
 90
     1024
 91
        1
280
     0
281
     0
  0
CLASS
  1
ACIMSYSVARMAN
  2
AcImSysVarManager
  3
AcMeServices
 90
     1024
 91
        5
280
     0
281
     0
  0
CLASS
  1
ACIMREALSYSVAR
  2
AcImRealSysVar
  3
AcMeServices
 90
     1024
 91
        3
280
     0
281
     0
  0
CLASS
  1
ACIMINTSYSVAR
  2
AcImIntSysVar
  3
AcMeServices
 90
     1024
 91
       27
280
     0
281
     0
  0
CLASS
  1
ACMEDRAWINGMAN
  2
AcMeDrawingMan
  3
AcMeServices
 90
     1024
 91
        0
280
     0
281
     0
  0
CLASS
  1
ACMEVIEW
  2
AcMeView
  3
AcMeServices
 90
     1024
 91
        0
280
     0
281
     0
  0
CLASS
  1
ACDBENTITYCACHE
  2
AcMeEntityCache
  3
AcMeServices
 90
     1024
 91
        1
280
     0
281
     0
  0
CLASS
  1
GSMANAGER
  2
AcMeGSManager
  3
AcMeServices
 90
     1024
 91
        0
280
     0
281
     0
  0
CLASS
  1
AMDTINTERNALREACTOR
  2
AmdtInternalReactor
  3
AcMeServices
 90
     1024
 91
        1
280
     0
281
     0
  0
CLASS
  1
ACMESTATEMGR
  2
AcMeStateMgr
  3
AcMeServices
 90
     1024
 91
        1
280
     0
281
     0
  0
CLASS
  1
ACGREFMASTER
  2
AcGrefMaster
  3
AcAttribServices
 90
     1024
 91
        1
280
     0
281
     0
  0
CLASS
  1
ACME_DATABASE
  2
AcMeDbDatabase
  3
AcMeServices
 90
     1024
 91
        2
280
     0
281
     0
  0
CLASS
  1
ACRFINSADJUSTERMGR
  2
AcRfInsAdjusterMgr
  3
AcMeServices
 90
     1024
 91
        1
280
     0
281
     0
  0
CLASS
  1
ACGREFACADMASTER
  2
AcGrefacadMaster
  3
AcGrefServices
 90
     1024
 91
        1
280
     0
281
     0
  0
CLASS
  1
AMIMASTER
  2
AmiMaster
  3
AmiServices
 90
     1024
 91
        1
280
     0
281
     0
  0
CLASS
  1
ACMDATADICTIONARY
  2
AcmDataDictionary
  3
"AcmSymBB|Product Description: AutoCAD Mechanical|Company: Autodesk, Inc."
 90
     1024
 91
        1
280
     0
281
     0
  0
CLASS
  1
ACMDATAENTRYBLOCK
  2
AcmDataEntryBlock
  3
AcmSymBB|Product Description: AutoCAD Mechanical|Company: Autodesk, Inc.
 90
     1024
 91
        1
280
     0
281
     0
  0
CLASS
  1
ACIMSTRSYSVAR
  2
AcImStrSysVar
  3
AcMeServices
 90
     1024
 91
        5
280
     0
281
     0
  0
CLASS
  1
ACMSTANDARDISO
  2
AcmStandardISO
  3
"Amdt_StdImp|Product Description: AutoCAD Mechanical|Company: Autodesk, Inc."
 90
     1024
 91
        1
280
     0
281
     0
  0
CLASS
  1
AMGOBJPROPCFG
  2
AmgObjPropCfg
  3
"AmgLay|Product Description: AutoCAD Mechanical|Company: Autodesk, Inc."
 90
     1024
 91
        1
280
     0
281
     0
  0
CLASS
  1
AMDTEDGESTANDARDISO
  2
AmdtEdgeStdISO
  3
"Amdt_StdImp|Product Description: AutoCAD Mechanical|Company: Autodesk, Inc."
 90
     1024
 91
        1
280
     0
281
     0
  0
CLASS
  1
ACMSURFSTANDARDISO
  2
AcmSurfTextStdISO
  3
"Amdt_StdImp|Product Description: AutoCAD Mechanical|Company: Autodesk, Inc."
 90
     1024
 91
        1
280
     0
281
     0
  0
CLASS
  1
ACMFCFSTANDARDISO
  2
AcmFCFStdISO
  3
"Amdt_StdImp|Product Description: AutoCAD Mechanical|Company: Autodesk, Inc."
 90
     1024
 91
        1
280
     0
281
     0
  0
CLASS
  1
ACMWELDSTANDARDISO
  2
AcmWeldingStdISO
  3
"Amdt_StdImp|Product Description: AutoCAD Mechanical|Company: Autodesk, Inc."
 90
     1024
 91
        1
280
     0
281
     0
  0
CLASS
  1
ACMIDSTANDARDISO
  2
AcmIdStdISO
  3
"Amdt_StdImp|Product Description: AutoCAD Mechanical|Company: Autodesk, Inc."
 90
     1024
 91
        1
280
     0
281
     0
  0
CLASS
  1
ACMDATUMSTANDARDISO
  2
AcmDatumStdISO
  3
"Amdt_StdImp|Product Description: AutoCAD Mechanical|Company: Autodesk, Inc."
 90
     1024
 91
        1
280
     0
281
     0
  0
CLASS
  1
ACMBOMSTANDARDISO
  2
AcmBOMStdISO
  3
"Amdt_StdImp|Product Description: AutoCAD Mechanical|Company: Autodesk, Inc."
 90
     1024
 91
        1
280
     0
281
     0
  0
CLASS
  1
ACMDETAILSTANDARDISO
  2
AmdtDetailSymStdISO
  3
"Amdt_StdImp|Product Description: AutoCAD Mechanical|Company: Autodesk, Inc."
 90
     1024
 91
        1
280
     0
281
     0
  0
CLASS
  1
ACMSECTIONSTANDARDISO
  2
AmdtSectionSymStdISO
  3
"Amdt_StdImp|Product Description: AutoCAD Mechanical|Company: Autodesk, Inc."
 90
     1024
 91
        1
280
     0
281
     0
  0
CLASS
  1
ACMCENTERLINESTANDARDISO
  2
AmdtCenterLineStdISO
  3
"Amdt_StdImp|Product Description: AutoCAD Mechanical|Company: Autodesk, Inc."
 90
     1024
 91
        1
280
     0
281
     0
  0
CLASS
  1
ACMNOTESTANDARDISO
  2
AmdtNoteStdISO
  3
"Amdt_StdImp|Product Description: AutoCAD Mechanical|Company: Autodesk, Inc."
 90
     1024
 91
        1
280
     0
281
     0
  0
CLASS
  1
ACAMGLAYSTD
  2
AcAmgLayStd
  3
"AmgLay|Product Description: AutoCAD Mechanical|Company: Autodesk, Inc."
 90
     1024
 91
        2
280
     0
281
     0
  0
CLASS
  1
ACAMGDIMSTD
  2
AcAmgDimStd
  3
"AmgDim|Product Description: AutoCAD Mechanical|Company: Autodesk, Inc."
 90
     1024
 91
        2
280
     0
281
     0
  0
CLASS
  1
ACAMGHOLECHARTSTDISO
  2
AcAmgHoleChartStdISO
  3
AmgDim|Product Description: AutoCAD Mechanical|Company: Autodesk, Inc.
 90
     1024
 91
        1
280
     0
281
     0
  0
CLASS
  1
ACAMGTITLESTD
  2
AcAmgTitleStd
  3
"AmgTitle|Product Description: AutoCAD Mechanical|Company: Autodesk, Inc."
 90
     1024
 91
        2
280
     0
281
     0
  0
CLASS
  1
LAYER_INDEX
  2
AcDbLayerIndex
  3
ObjectDBX Classes
 90
        0
 91
        0
280
     0
281
     0
  0
CLASS
  1
IDBUFFER
  2
AcDbIdBuffer
  3
ObjectDBX Classes
 90
        0
 91
        0
280
     0
281
     0
  0
CLASS
  1
DICTIONARYVAR
  2
AcDbDictionaryVar
  3
ObjectDBX Classes
 90
        0
 91
       11
280
     0
281
     0
  0
CLASS
  1
AM_DRAWING_MGR
  2
AcDmDwgMgr
  3
AcMechDwgViewMgmt
 90
     1024
 91
        1
280
     0
281
     0
  0
CLASS
  1
AM_DWG_DOCUMENT
  2
AcDmDwgDocument
  3
AcMechDwgViewMgmt
 90
     1024
 91
        1
280
     0
281
     0
  0
CLASS
  1
AM_DWG_SHEET
  2
AcDmSheet
  3
AcMechDwgViewMgmt
 90
     1024
 91
        2
280
     0
281
     0
  0
CLASS
  1
AM_VIEWDIMPARMAP
  2
AcDmViewDimParMap
  3
AcMechDwgViewMgmt
 90
     1024
 91
        2
280
     0
281
     0
  0
CLASS
  1
AM_DWGMGR_NAME
  2
AcDmDwgMgrName
  3
AcMechDwgViewMgmt
 90
     1024
 91
        1
280
     0
281
     0
  0
CLASS
  1
AMDTMENUSTATEMGR
  2
AmdtMenuStateMgr
  3
McadcomServices
 90
     1024
 91
        1
280
     0
281
     0
  0
CLASS
  1
AMDTMCOMMENUSTATE
  2
AmdtMcomMenuState
  3
McadcomServices
 90
     1024
 91
        1
280
     0
281
     0
  0
CLASS
  1
MAPIAMMOUDLE
  2
MApiAmModule
  3
MApiAmServices
 90
     1024
 91
        1
280
     0
281
     0
  0
CLASS
  1
AMDTADMENUSTATE
  2
AmdtAdMenuState
  3
DesignerServices
 90
     1024
 91
        0
280
     0
281
     0
  0
CLASS
  1
ADAPPL
  2
AcAdAppl
  3
DesignerAssemblies
 90
     1024
 91
        0
280
     0
281
     0
  0
CLASS
  1
DEPMGR
  2
AcAdDepMgr
  3
DesignerAssemblies
 90
     1024
 91
        0
280
     0
281
     0
  0
CLASS
  1
PARAMMGR
  2
AcAdParamMgr
  3
DesignerAssemblies
 90
     1024
 91
        0
280
     0
281
     0
  0
CLASS
  1
PARAMSCOPE
  2
AcAdParamScope
  3
DesignerAssemblies
 90
     1024
 91
        0
280
     0
281
     0
  0
CLASS
  1
NAMEDAPPL
  2
AcAdNamedAppl
  3
DesignerAssemblies
 90
     1024
 91
        0
280
     0
281
     0
  0
CLASS
  1
AMDTDMMENUSTATE
  2
AmdtDmMenuState
  3
AcMechDwgViewMgmt
 90
     1024
 91
        0
280
     0
281
     0
  0
CLASS
  1
AMDTAMMENUSTATE
  2
AmdtAmMenuState
  3
DesignerAssemblies
 90
     1024
 91
        1
280
     0
281
     0
  0
CLASS
  1
ACAMPROJECT
  2
AcAmProject
  3
DesignerAssemblies
 90
     1024
 91
        1
280
     0
281
     0
  0
CLASS
  1
ACAMGRCOMPDEF
  2
AcAmGrCompDef
  3
DesignerAssemblies
 90
     1024
 91
        1
280
     0
281
     0
  0
CLASS
  1
ACCMCONTEXT
  2
AcCmContext
  3
DesignerAssemblies
 90
     1024
 91
        1
280
     0
281
     0
  0
CLASS
  1
ACAMCOMPDEF
  2
AcAmCompDef
  3
DesignerAssemblies
 90
     1024
 91
        1
280
     0
281
     0
  0
CLASS
  1
ACAMCOMPDEFMGR
  2
AcAmCompDefMgr
  3
DesignerAssemblies
 90
     1024
 91
        1
280
     0
281
     0
  0
CLASS
  1
AMCONTEXTMGR
  2
AcAmContextMgr
  3
DesignerAssemblies
 90
     1024
 91
        1
280
     0
281
     0
  0
CLASS
  1
ACAMCONTEXTMODELER
  2
AcAmContextModeler
  3
DesignerAssemblies
 90
     1024
 91
        1
280
     0
281
     0
  0
CLASS
  1
ACMTHREADLINESTANDARDISO
  2
AmdtThreadLineStdISO
  3
"Amdt_StdImp|Product Description: AutoCAD Mechanical|Company: Autodesk, Inc."
 90
     1024
 91
        1
280
     0
281
     0
  0
CLASS
  1
CATALOGSTATE
  2
AcAmCatalogState
  3
DesignerAssemblies
 90
     1024
 91
        0
280
     0
281
     0
  0
CLASS
  1
ACAMGRCOMPDEFSET
  2
AcAmGrCompDefSet
  3
DesignerAssemblies
 90
     1024
 91
        1
280
     0
281
     0
  0
CLASS
  1
AMDTBROWSERDBTAB
  2
AmdtBrowserDbTab
  3
McadcomServices
 90
     1024
 91
        1
280
     0
281
     0
  0
CLASS
  1
CBROWSERAPPOBJECT
  2
CBrowserAppObject
  3
McadcomServices
 90
     1024
 91
        2
280
     0
281
     0
  0
CLASS
  1
DM_PLACEHOLDER
  2
AcDmSelsetPlaceholder
  3
McadcomServices
 90
     1024
 91
        1
280
     0
281
     0
  0
CLASS
  1
TABLESTYLE
  2
AcDbTableStyle
  3
ObjectDBX Classes
 90
     4095
 91
        1
280
     0
281
     0
  0
CLASS
  1
VAACXREFPANELOBJECT
  2
VaAcXREFPanelObject
  3
VAAC_ADDIN
 90
        0
 91
        0
280
     0
281
     0
  0
CLASS
  1
VAACIMAGEINVENTORY
  2
VaAcImageInventory
  3
VAAC_ADDIN
 90
        0
 91
        0
280
     0
281
     0
  0
CLASS
  1
AMDTNOTETEMPLATEDB
  2
AmdtNoteTemplateDB
  3
AcmSymBB|Product Description: AutoCAD Mechanical|Company: Autodesk, Inc.
 90
     1024
 91
       12
280
     0
281
     0
  0
CLASS
  1
ACAMGFILTERDAT
  2
AcAmgFilterDat
  3
"AcadM|Product Description: AutoCAD Mechanical|Company: Autodesk, Inc."
 90
     1024
 91
        6
280
     0
281
     0
  0
CLASS
  1
ACMBOM
  2
AcmBom
  3
"AcmSymBB|Product Description: AutoCAD Mechanical|Company: Autodesk, Inc."
 90
     1024
 91
        0
280
     0
281
     0
  0
CLASS
  1
AMDTFORMULAUPDATEDISPATCHER
  2
AmdtFormulaUpdateDispatcher
  3
AcMeServices
 90
     1024
 91
        0
280
     0
281
     0
  0
CLASS
  1
ACMSTANDARDDIN
  2
AcmStandardDIN
  3
"Amdt_StdImp|Product Description: AutoCAD Mechanical|Company: Autodesk, Inc."
 90
     1024
 91
        1
280
     0
281
     0
  0
CLASS
  1
AMDTEDGESTANDARDDIN13715
  2
AmdtEdgeStdDIN13715
  3
"Amdt_StdImp|Product Description: AutoCAD Mechanical|Company: Autodesk, Inc."
 90
     1024
 91
        1
280
     0
281
     0
  0
CLASS
  1
ACMSURFSTANDARDDIN
  2
AcmSurfTextStdDIN
  3
"Amdt_StdImp|Product Description: AutoCAD Mechanical|Company: Autodesk, Inc."
 90
     1024
 91
        1
280
     0
281
     0
  0
CLASS
  1
ACMFCFSTANDARDDIN
  2
AcmFCFStdDIN
  3
"Amdt_StdImp|Product Description: AutoCAD Mechanical|Company: Autodesk, Inc."
 90
     1024
 91
        1
280
     0
281
     0
  0
CLASS
  1
ACMWELDSTANDARDDIN
  2
AcmWeldingStdDIN
  3
"Amdt_StdImp|Product Description: AutoCAD Mechanical|Company: Autodesk, Inc."
 90
     1024
 91
        1
280
     0
281
     0
  0
CLASS
  1
ACMIDSTANDARDDIN
  2
AcmIdStdDIN
  3
"Amdt_StdImp|Product Description: AutoCAD Mechanical|Company: Autodesk, Inc."
 90
     1024
 91
        1
280
     0
281
     0
  0
CLASS
  1
ACMDATUMSTANDARDDIN
  2
AcmDatumStdDIN
  3
"Amdt_StdImp|Product Description: AutoCAD Mechanical|Company: Autodesk, Inc."
 90
     1024
 91
        1
280
     0
281
     0
  0
CLASS
  1
ACMBOMSTANDARDDIN
  2
AcmBOMStdDIN
  3
"Amdt_StdImp|Product Description: AutoCAD Mechanical|Company: Autodesk, Inc."
 90
     1024
 91
        1
280
     0
281
     0
  0
CLASS
  1
ACMDETAILSTANDARDDIN
  2
AmdtDetailSymStdDIN
  3
"Amdt_StdImp|Product Description: AutoCAD Mechanical|Company: Autodesk, Inc."
 90
     1024
 91
        1
280
     0
281
     0
  0
CLASS
  1
ACMSECTIONSTANDARDDIN
  2
AmdtSectionSymStdDIN
  3
"Amdt_StdImp|Product Description: AutoCAD Mechanical|Company: Autodesk, Inc."
 90
     1024
 91
        1
280
     0
281
     0
  0
CLASS
  1
ACMCENTERLINESTANDARDDIN
  2
AmdtCenterLineStdDIN
  3
"Amdt_StdImp|Product Description: AutoCAD Mechanical|Company: Autodesk, Inc."
 90
     1024
 91
        1
280
     0
281
     0
  0
CLASS
  1
ACMTHREADLINESTANDARDDIN
  2
AmdtThreadLineStdDIN
  3
"Amdt_StdImp|Product Description: AutoCAD Mechanical|Company: Autodesk, Inc."
 90
     1024
 91
        1
280
     0
281
     0
  0
CLASS
  1
ACMNOTESTANDARDDIN
  2
AmdtNoteStdDIN
  3
"Amdt_StdImp|Product Description: AutoCAD Mechanical|Company: Autodesk, Inc."
 90
     1024
 91
        1
280
     0
281
     0
  0
CLASS
  1
ACAMGHOLECHARTSTDDIN
  2
AcAmgHoleChartStdDIN
  3
AmgDim|Product Description: AutoCAD Mechanical|Company: Autodesk, Inc.
 90
     1024
 91
        1
280
     0
281
     0
  0
CLASS
  1
MATERIAL
  2
AcDbMaterial
  3
ObjectDBX Classes
 90
     1153
 91
        3
280
     0
281
     0
  0
CLASS
  1
VISUALSTYLE
  2
AcDbVisualStyle
  3
ObjectDBX Classes
 90
     4095
 91
       26
280
     0
281
     0
  0
CLASS
  1
SCALE
  2
AcDbScale
  3
ObjectDBX Classes
 90
     1153
 91
       17
280
     0
281
     0
  0
CLASS
  1
MLEADERSTYLE
  2
AcDbMLeaderStyle
  3
ACDB_MLEADERSTYLE_CLASS
 90
     4095
 91
        1
280
     0
281
     0
  0
CLASS
  1
ACRFATTGENMGR
  2
AcRfAttGeneralMgr
  3
AcAttribServices
 90
     1024
 91
        1
280
     0
281
     0
  0
CLASS
  1
ACRFOBJATTMGR
  2
AcRfObjAttGroupMgr
  3
AcAttribServices
 90
     1024
 91
        1
280
     0
281
     0
  0
CLASS
  1
ACRFMCADAPIATTHOLDER
  2
AcRfMCADAPIAttHolder
  3
AcAttribServices
 90
     1024
 91
        1
280
     0
281
     0
  0
CLASS
  1
AMDTSYSATTR
  2
AmdtSystemAttribute
  3
AcAttribServices
 90
     1024
 91
        1
280
     0
281
     0
  0
CLASS
  1
ACMTAPERSTANDARDISO
  2
AcmTaperStdISO
  3
"Amdt_StdImp|Product Description: AutoCAD Mechanical|Company: Autodesk, Inc."
 90
     1024
 91
        1
280
     0
281
     0
  0
CLASS
  1
ACMANOOTATIONVIEWSTANDARDISO
  2
AmdtAnViewStdISO
  3
"Amdt_StdImp|Product Description: AutoCAD Mechanical|Company: Autodesk, Inc."
 90
     1024
 91
        1
280
     0
281
     0
  0
CLASS
  1
ACMTAPERSTANDARDDIN
  2
AcmTaperStdDIN
  3
"Amdt_StdImp|Product Description: AutoCAD Mechanical|Company: Autodesk, Inc."
 90
     1024
 91
        1
280
     0
281
     0
  0
CLASS
  1
ACMANOOTATIONVIEWSTANDARDDIN
  2
AmdtAnViewStdDIN
  3
"Amdt_StdImp|Product Description: AutoCAD Mechanical|Company: Autodesk, Inc."
 90
     1024
 91
        1
280
     0
281
     0
  0
CLASS
  1
EXACXREFPANELOBJECT
  2
ExAcXREFPanelObject
  3
EXAC_ESW
 90
     1025
 91
        0
280
     0
281
     0
  0
CLASS
  1
NPOCOLLECTION
  2
AcDbImpNonPersistentObjectsCollection
  3
ObjectDBX Classes
 90
     1153
 91
        0
280
     0
281
     0
  0
CLASS
  1
CAMSSTRUCTBTNSTATE
  2
StructBtnState
  3
DesignerAssemblies
 90
     1024
 91
        1
280
     0
281
     0
  0
CLASS
  1
CELLSTYLEMAP
  2
AcDbCellStyleMap
  3
ObjectDBX Classes
 90
     1152
 91
        1
280
     0
281
     0
  0
CLASS
  1
AEC_REFEDIT_STATUS_TRACKER
  2
AecDbRefEditStatusTracker
  3
AecArchBase60|Product Desc: Autodesk Architectural Desktop 2007 |Company: Autodesk,Inc. |WEB Address: www.autodesk.com
 90
      129
 91
        0
280
     0
281
     0
  0
CLASS
  1
IMAGE
  2
AcDbRasterImage
  3
ISM
 90
     2175
 91
        0
280
     0
281
     1
  0
CLASS
  1
IMAGEDEF_REACTOR
  2
AcDbRasterImageDefReactor
  3
ISM
 90
        1
 91
        0
280
     0
281
     0
  0
CLASS
  1
IMAGEDEF
  2
AcDbRasterImageDef
  3
ISM
 90
        0
 91
        0
280
     0
281
     0
  0
CLASS
  1
RASTERVARIABLES
  2
AcDbRasterVariables
  3
ISM
 90
        0
 91
        0
280
     0
281
     0
  0
CLASS
  1
ACDBSECTIONVIEWSTYLE
  2
AcDbSectionViewStyle
  3
ObjectDBX Classes
 90
     1025
 91
        4
280
     0
281
     0
  0
CLASS
  1
ACDBDETAILVIEWSTYLE
  2
AcDbDetailViewStyle
  3
ObjectDBX Classes
 90
     1025
 91
        3
280
     0
281
     0
  0
CLASS
  1
ACMSECTIONSTANDARDCUSTOM
  2
AmdtSectionSymStdCustom
  3
"Amdt_StdImp|Product Description: AutoCAD Mechanical|Company: Autodesk, Inc."
 90
     1024
 91
        4
280
     0
281
     0
  0
CLASS
  1
ACMDETAILTANDARDCUSTOM
  2
AmdtDetailSymStdCustom
  3
"Amdt_StdImp|Product Description: AutoCAD Mechanical|Company: Autodesk, Inc."
 90
     1024
 91
        2
280
     0
281
     0
  0
CLASS
  1
FIELD
  2
AcDbField
  3
ObjectDBX Classes
 90
     1152
 91
       12
280
     0
281
     0
  0
CLASS
  1
FIELDLIST
  2
AcDbFieldList
  3
ObjectDBX Classes
 90
     1152
 91
        1
280
     0
281
     0
  0
CLASS
  1
DIMASSOC
  2
AcDbDimAssoc
  3
"AcDbDimAssoc|Product Desc:     AcDim ARX App For Dimension|Company:          Autodesk, Inc.|WEB Address:      www.autodesk.com"
 90
        0
 91
        6
280
     0
281
     0
  0
CLASS
  1
SORTENTSTABLE
  2
AcDbSortentsTable
  3
ObjectDBX Classes
 90
        0
 91
        1
280
     0
281
     0
  0
ENDSEC
  0
SECTION
  2
TABLES
  0
TABLE
  2
VPORT
  5
8
330
0
100
AcDbSymbolTable
 70
     1
  0
VPORT
  5
3B2
330
8
100
AcDbSymbolTableRecord
100
AcDbViewportTableRecord
  2
*Active
 70
     0
 10
0.0
 20
0.0
 11
1.0
 21
1.0
 12
494.1361688333711
 22
266.0900231148094
 13
0.0
 23
0.0
 14
2.5
 24
2.5
 15
10.0
 25
10.0
 16
0.0
 26
0.0
 36
1.0
 17
0.0
 27
0.0
 37
0.0
 40
587.7585306294125
 41
2.362857142857142
 42
50.0
 43
0.0
 44
0.0
 50
0.0
 51
0.0
 71
     0
 72
   100
 73
     1
 74
     3
 75
     0
 76
     0
 77
     0
 78
     0
281
     0
 65
     1
110
0.0
120
0.0
130
0.0
111
1.0
121
0.0
131
0.0
112
0.0
122
1.0
132
0.0
 79
     0
146
0.0
348
3D2
 60
     3
 61
     5
292
     1
282
     1
141
0.0
142
0.0
 63
   250
421
  3355443
1001
ACAD_NAV_VCDISPLAY
1070
     3
  0
ENDTAB
  0
TABLE
  2
LTYPE
  5
5
330
0
100
AcDbSymbolTable
 70
    22
  0
LTYPE
  5
14
330
5
100
AcDbSymbolTableRecord
100
AcDbLinetypeTableRecord
  2
ByBlock
 70
     0
  3

 72
    65
 73
     0
 40
0.0
  0
LTYPE
  5
15
330
5
100
AcDbSymbolTableRecord
100
AcDbLinetypeTableRecord
  2
ByLayer
 70
     0
  3

 72
    65
 73
     0
 40
0.0
  0
LTYPE
  5
16
330
5
100
AcDbSymbolTableRecord
100
AcDbLinetypeTableRecord
  2
Continuous
 70
     0
  3
Solid line
 72
    65
 73
     0
 40
0.0
  0
LTYPE
  5
64
330
5
100
AcDbSymbolTableRecord
100
AcDbLinetypeTableRecord
  2
AM_ISO02W050
 70
     0
  3
__ __ __ __ __ __ __ __ __ __ __ __ __ __ __
 72
    65
 73
     2
 40
7.5
 49
6.0
 74
     0
 49
-1.5
 74
     0
  0
LTYPE
  5
65
330
5
100
AcDbSymbolTableRecord
100
AcDbLinetypeTableRecord
  2
AM_ISO08W050
 70
     0
  3
____ . ____ . ____ . ____ . ____ . ____ . ____
 72
    65
 73
     4
 40
18.0
 49
12.0
 74
     0
 49
-1.5
 74
     0
 49
3.0
 74
     0
 49
-1.5
 74
     0
  0
LTYPE
  5
66
330
5
100
AcDbSymbolTableRecord
100
AcDbLinetypeTableRecord
  2
AM_ISO09W050
 70
     0
  3
_____ . . _____ . . _____ . . ____ .. ____
 72
    65
 73
     6
 40
22.5
 49
12.0
 74
     0
 49
-1.5
 74
     0
 49
3.0
 74
     0
 49
-1.5
 74
     0
 49
3.0
 74
     0
 49
-1.5
 74
     0
  0
LTYPE
  5
67
330
5
100
AcDbSymbolTableRecord
100
AcDbLinetypeTableRecord
  2
Amconstr
 70
     0
  3
_______________________
 72
    65
 73
     2
 40
9999.0
 49
9999.0
 74
     0
 49
0.0
 74
     0
  0
LTYPE
  5
68
330
5
100
AcDbSymbolTableRecord
100
AcDbLinetypeTableRecord
  2
AM_ISO08W050x2
 70
     0
  3
__ . __ . __ . __ . __ . __
 72
    65
 73
     4
 40
9.0
 49
6.0
 74
     0
 49
-0.75
 74
     0
 49
1.5
 74
     0
 49
-0.75
 74
     0
  0
LTYPE
  5
69
330
5
100
AcDbSymbolTableRecord
100
AcDbLinetypeTableRecord
  2
AM_ISO02W050x2
 70
     0
  3
 _ _ _ _ _ _ _ _ _ _ _ _
 72
    65
 73
     2
 40
3.75
 49
3.0
 74
     0
 49
-0.75
 74
     0
  0
LTYPE
  5
6C
330
5
100
AcDbSymbolTableRecord
100
AcDbLinetypeTableRecord
  2
Amzigzag
 70
     0
  3
/\/-/\/-/\/-/\/-/\/-/\/
 72
    65
 73
     2
 40
11.0001
 49
0.0001
 74
     4
 75
   136
340
22C
 46
0.04
 50
0.0
 44
0.0
 45
0.0
 49
-11.0
 74
     0
  0
LTYPE
  5
7A
330
5
100
AcDbSymbolTableRecord
100
AcDbLinetypeTableRecord
  2
ACISOWELD
 70
     0
  3
_ _ _ _ _
 72
    65
 73
     2
 40
2.0
 49
2.0
 74
     0
 49
-1.0
 74
     0
  0
LTYPE
  5
7B
330
5
100
AcDbSymbolTableRecord
100
AcDbLinetypeTableRecord
  2
ACISOTGB
 70
     0
  3
__ . . __ . .
 72
    65
 73
     6
 40
9.0
 49
4.0
 74
     0
 49
-1.0
 74
     0
 49
1.0
 74
     0
 49
-1.0
 74
     0
 49
1.0
 74
     0
 49
-1.0
 74
     0
  0
LTYPE
  5
7C
330
5
100
AcDbSymbolTableRecord
100
AcDbLinetypeTableRecord
  2
ACISOTGL
 70
     0
  3
_ _ _ _ _
 72
    65
 73
     2
 40
3.0
 49
2.0
 74
     0
 49
-1.0
 74
     0
  0
LTYPE
  5
7E
330
5
100
AcDbSymbolTableRecord
100
AcDbLinetypeTableRecord
  2
CENTER
 70
     0
  3
__ . __
 72
    65
 73
     4
 40
7.0
 49
4.0
 74
     0
 49
-1.0
 74
     0
 49
1.0
 74
     0
 49
-1.0
 74
     0
  0
LTYPE
  5
D8
330
5
100
AcDbSymbolTableRecord
100
AcDbLinetypeTableRecord
  2
HIDDEN
 70
     0
  3
Hidden __ __ __ __ __ __ __ __ __ __ __ __ __ _
 72
    65
 73
     2
 40
9.524999999999998
 49
6.349999999999999
 74
     0
 49
-3.174999999999999
 74
     0
  0
LTYPE
  5
D9
330
5
100
AcDbSymbolTableRecord
100
AcDbLinetypeTableRecord
  2
PHANTOM2
 70
     0
  3
Phantom (.5x) ___ _ _ ___ _ _ ___ _ _ ___ _ _
 72
    65
 73
     6
 40
31.75
 49
15.875
 74
     0
 49
-3.174999999999999
 74
     0
 49
3.174999999999999
 74
     0
 49
-3.174999999999999
 74
     0
 49
3.174999999999999
 74
     0
 49
-3.174999999999999
 74
     0
  0
LTYPE
  5
2E5
330
5
100
AcDbSymbolTableRecord
100
AcDbLinetypeTableRecord
  2
ACDINWELD
 70
     0
  3
_ _ _ _ _
 72
    65
 73
     2
 40
2.0
 49
2.0
 74
     0
 49
-1.0
 74
     0
  0
LTYPE
  5
2E6
330
5
100
AcDbSymbolTableRecord
100
AcDbLinetypeTableRecord
  2
ACDINTGB
 70
     0
  3
__ . . __ . .
 72
    65
 73
     6
 40
9.0
 49
4.0
 74
     0
 49
-1.0
 74
     0
 49
1.0
 74
     0
 49
-1.0
 74
     0
 49
1.0
 74
     0
 49
-1.0
 74
     0
  0
LTYPE
  5
2E7
330
5
100
AcDbSymbolTableRecord
100
AcDbLinetypeTableRecord
  2
ACDINTGL
 70
     0
  3
_ _ _ _ _
 72
    65
 73
     2
 40
3.0
 49
2.0
 74
     0
 49
-1.0
 74
     0
  0
LTYPE
  5
321
330
5
100
AcDbSymbolTableRecord
100
AcDbLinetypeTableRecord
  2
AM_DIN_F_W050
 70
     0
  3
__ __ __ __ __ __ __ __ __ __ __ __ __ __ __
 72
    65
 73
     2
 40
6.25
 49
4.75
 74
     0
 49
-1.5
 74
     0
  0
LTYPE
  5
322
330
5
100
AcDbSymbolTableRecord
100
AcDbLinetypeTableRecord
  2
AM_DIN_G_W050
 70
     0
  3
____ . ____ . ____ . ____ . ____ . ____ . ____
 72
    65
 73
     4
 40
13.75
 49
9.75
 74
     0
 49
-1.5
 74
     0
 49
1.0
 74
     0
 49
-1.5
 74
     0
  0
LTYPE
  5
323
330
5
100
AcDbSymbolTableRecord
100
AcDbLinetypeTableRecord
  2
AM_DIN_K_W050
 70
     0
  3
_____ . . _____ . . _____ . . ____ .. ____
 72
    65
 73
     6
 40
16.25
 49
9.75
 74
     0
 49
-1.5
 74
     0
 49
1.0
 74
     0
 49
-1.5
 74
     0
 49
1.0
 74
     0
 49
-1.5
 74
     0
  0
LTYPE
  5
324
330
5
100
AcDbSymbolTableRecord
100
AcDbLinetypeTableRecord
  2
AM_DIN_G_W050x2
 70
     0
  3
__ . __ . __ . __ . __ . __
 72
    65
 73
     4
 40
6.875
 49
4.75
 74
     0
 49
-0.875
 74
     0
 49
0.375
 74
     0
 49
-0.875
 74
     0
  0
LTYPE
  5
325
330
5
100
AcDbSymbolTableRecord
100
AcDbLinetypeTableRecord
  2
AM_DIN_F_W050x2
 70
     0
  3
 _ _ _ _ _ _ _ _ _ _ _ _
 72
    65
 73
     2
 40
3.125
 49
2.25
 74
     0
 49
-0.875
 74
     0
  0
ENDTAB
  0
TABLE
  2
LAYER
  5
2
102
{ACAD_XDICTIONARY
360
5DD
102
}
330
0
100
AcDbSymbolTable
 70
     8
  0
LAYER
  5
10
102
{ACAD_XDICTIONARY
360
AF3
102
}
330
2
100
AcDbSymbolTableRecord
100
AcDbLayerTableRecord
  2
0
 70
     0
 62
     7
  6
Continuous
370
    -3
390
F
347
3C4
  0
LAYER
  5
6B1
102
{ACAD_XDICTIONARY
360
6B2
102
}
330
2
100
AcDbSymbolTableRecord
100
AcDbLayerTableRecord
  2
BEZUGSACHSEN
 70
     0
 62
     7
  6
Continuous
370
    -3
390
F
347
3C4
  0
LAYER
  5
6B3
102
{ACAD_XDICTIONARY
360
6B4
102
}
330
2
100
AcDbSymbolTableRecord
100
AcDbLayerTableRecord
  2
BG_STARTBEZUEGE
 70
     0
 62
     7
  6
Continuous
370
    -3
390
F
347
3C4
  0
LAYER
  5
6B5
102
{ACAD_XDICTIONARY
360
6B6
102
}
330
2
100
AcDbSymbolTableRecord
100
AcDbLayerTableRecord
  2
FASEN
 70
     0
 62
     7
  6
Continuous
370
    -3
390
F
347
3C4
  0
LAYER
  5
6B7
102
{ACAD_XDICTIONARY
360
6B8
102
}
330
2
100
AcDbSymbolTableRecord
100
AcDbLayerTableRecord
  2
RUNDUNGEN
 70
     0
 62
     7
  6
Continuous
370
    -3
390
F
347
3C4
  0
LAYER
  5
6B9
102
{ACAD_XDICTIONARY
360
6BA
102
}
330
2
100
AcDbSymbolTableRecord
100
AcDbLayerTableRecord
  2
TEIL_STARTBEZUEGE
 70
     0
 62
     7
  6
Continuous
370
    -3
390
F
347
3C4
  0
LAYER
  5
6BB
330
2
100
AcDbSymbolTableRecord
100
AcDbLayerTableRecord
  2
Defpoints
 70
     0
 62
     7
  6
Continuous
290
     0
370
    -3
390
F
347
3C4
  0
LAYER
  5
6BC
102
{ACAD_XDICTIONARY
360
6BD
102
}
330
2
100
AcDbSymbolTableRecord
100
AcDbLayerTableRecord
  2
P-0000
 70
     0
 62
     7
  6
Continuous
370
    -3
390
F
347
3C4
  0
ENDTAB
  0
TABLE
  2
STYLE
  5
3
330
0
100
AcDbSymbolTable
 70
    10
  0
STYLE
  5
11
330
3
100
AcDbSymbolTableRecord
100
AcDbTextStyleTableRecord
  2
STANDARD
 70
     0
 40
0.0
 41
1.0
 50
0.0
 71
     0
 42
2.5
  3
ISOCP.SHX
  4

  0
STYLE
  5
6B
330
3
100
AcDbSymbolTableRecord
100
AcDbTextStyleTableRecord
  2

 70
     1
 40
0.0
 41
1.0
 50
0.0
 71
     0
 42
2.5
  3
ltypeshp.shx
  4

  0
STYLE
  5
6D
330
3
100
AcDbSymbolTableRecord
100
AcDbTextStyleTableRecord
  2
ACISOTS
 70
     0
 40
1.0
 41
1.0
 50
0.0
 71
     0
 42
2.5
  3
isocp.shx
  4
bigfont.shx
  0
STYLE
  5
79
330
3
100
AcDbSymbolTableRecord
100
AcDbTextStyleTableRecord
  2
ACISOGDT
 70
     0
 40
0.0
 41
1.0
 50
0.0
 71
     0
 42
2.5
  3
AMGDT
  4
bigfont.shx
  0
STYLE
  5
1ED
330
3
100
AcDbSymbolTableRecord
100
AcDbTextStyleTableRecord
  2
USER1
 70
     0
 40
0.0
 41
1.0
 50
0.0
 71
     0
 42
2.5
  3
TXT.SHX
  4
bigfont.shx
  0
STYLE
  5
1EE
330
3
100
AcDbSymbolTableRecord
100
AcDbTextStyleTableRecord
  2
USER2
 70
     0
 40
0.0
 41
1.0
 50
0.0
 71
     0
 42
2.5
  3
SIMPLEX.SHX
  4
bigfont.shx
  0
STYLE
  5
1EF
330
3
100
AcDbSymbolTableRecord
100
AcDbTextStyleTableRecord
  2
USER3
 70
     0
 40
0.0
 41
1.0
 50
0.0
 71
     0
 42
2.5
  3
ITALIC.SHX
  4
bigfont.shx
  0
STYLE
  5
22C
330
3
100
AcDbSymbolTableRecord
100
AcDbTextStyleTableRecord
  2

 70
     1
 40
0.0
 41
1.0
 50
0.0
 71
     0
 42
2.5
  3
genltshp.shx
  4

  0
STYLE
  5
2D7
330
3
100
AcDbSymbolTableRecord
100
AcDbTextStyleTableRecord
  2
ACDINTS
 70
     0
 40
1.0
 41
1.0
 50
0.0
 71
     0
 42
2.5
  3
isocp.shx
  4

  0
STYLE
  5
2E4
330
3
100
AcDbSymbolTableRecord
100
AcDbTextStyleTableRecord
  2
ACDINGDT
 70
     0
 40
0.0
 41
1.0
 50
0.0
 71
     0
 42
2.5
  3
AMGDT
  4

  0
ENDTAB
  0
TABLE
  2
VIEW
  5
6
330
0
100
AcDbSymbolTable
 70
     0
  0
ENDTAB
  0
TABLE
  2
UCS
  5
7
330
0
100
AcDbSymbolTable
 70
     0
  0
ENDTAB
  0
TABLE
  2
APPID
  5
9
330
0
100
AcDbSymbolTable
 70
    15
  0
APPID
  5
12
330
9
100
AcDbSymbolTableRecord
100
AcDbRegAppTableRecord
  2
ACAD
 70
     0
  0
APPID
  5
46
330
9
100
AcDbSymbolTableRecord
100
AcDbRegAppTableRecord
  2
MCAD_NO_VIS
 70
     0
  0
APPID
  5
47
330
9
100
AcDbSymbolTableRecord
100
AcDbRegAppTableRecord
  2
ACAD_TEMP_GRAPHIC
 70
     0
  0
APPID
  5
58
330
9
100
AcDbSymbolTableRecord
100
AcDbRegAppTableRecord
  2
ACATTRIBSERVICES
 70
     0
  0
APPID
  5
EE
330
9
100
AcDbSymbolTableRecord
100
AcDbRegAppTableRecord
  2
AD_DRAW
 70
     0
  0
APPID
  5
10C
330
9
100
AcDbSymbolTableRecord
100
AcDbRegAppTableRecord
  2
DESIGNERASSEMBLIES
 70
     0
  0
APPID
  5
111
330
9
100
AcDbSymbolTableRecord
100
AcDbRegAppTableRecord
  2
ACADM_DIM_EDIT
 70
     0
  0
APPID
  5
112
330
9
100
AcDbSymbolTableRecord
100
AcDbRegAppTableRecord
  2
AMDT_DM_ADJ
 70
     0
  0
APPID
  5
1A3
330
9
100
AcDbSymbolTableRecord
100
AcDbRegAppTableRecord
  2
ACAD_DSTYLE_DIMARC_LENGTH_SYMBOL
 70
     0
  0
APPID
  5
1A4
330
9
100
AcDbSymbolTableRecord
100
AcDbRegAppTableRecord
  2
ACAD_DSTYLE_DIMJOGGED_JOGANGLE_SYMBOL
 70
     0
  0
APPID
  5
3F1
330
9
100
AcDbSymbolTableRecord
100
AcDbRegAppTableRecord
  2
ACAD_MLEADERVER
 70
     0
  0
APPID
  5
629
330
9
100
AcDbSymbolTableRecord
100
AcDbRegAppTableRecord
  2
ACAD_NAV_VCDISPLAY
 70
     0
  0
APPID
  5
6C0
330
9
100
AcDbSymbolTableRecord
100
AcDbRegAppTableRecord
  2
ACAD_DSTYLE_DIMJAG
 70
     0
  0
APPID
  5
6C1
330
9
100
AcDbSymbolTableRecord
100
AcDbRegAppTableRecord
  2
ACAD_DSTYLE_DIMBREAK
 70
     0
  0
APPID
  5
6C2
330
9
100
AcDbSymbolTableRecord
100
AcDbRegAppTableRecord
  2
ACAD_DSTYLE_DIMINSPECT
 70
     0
  0
ENDTAB
  0
TABLE
  2
DIMSTYLE
  5
A
330
0
100
AcDbSymbolTable
 70
    17
100
AcDbDimStyleTable
 71
     2
340
2F0
340
81
  0
DIMSTYLE
105
27
330
A
100
AcDbSymbolTableRecord
100
AcDbDimStyleTableRecord
  2
ISO-25
 70
     0
 41
2.5
 42
0.625
 43
3.75
 44
1.25
 73
     0
 74
     0
 77
     1
 78
     8
140
2.5
141
2.5
143
0.03937007874016
147
0.625
171
     3
172
     1
271
     2
272
     2
274
     3
278
    44
283
     0
284
     8
340
11
  0
DIMSTYLE
105
81
330
A
100
AcDbSymbolTableRecord
100
AcDbDimStyleTableRecord
  2
AM_ISO
 70
     0
  4
"
 41
2.5
 42
1.0
 43
10.0
 44
1.0
 47
0.1
 48
0.1
 73
     0
 74
     0
 77
     1
 78
     8
 79
     2
 90
     1
140
3.5
141
0.0
143
0.0393701
146
0.71
147
1.5
172
     1
176
   256
177
   256
178
     2
271
     2
272
     3
274
     4
283
     0
284
     8
340
11
371
    -1
372
    -1
1001
ACAD_DSTYLE_DIMJOGGED_JOGANGLE_SYMBOL
1070
   384
1040
0.7853981633974483
  0
DIMSTYLE
105
82
330
A
100
AcDbSymbolTableRecord
100
AcDbDimStyleTableRecord
  2
AM_ISO$3
 70
     0
  4
"
 41
2.5
 42
1.0
 43
10.0
 44
1.0
 47
0.1
 48
0.1
 73
     0
 77
     1
 78
     8
 79
     2
 90
     1
140
3.5
141
0.0
143
0.0393701
146
0.71
147
1.5
176
   256
177
   256
178
     2
271
     2
272
     3
274
     4
283
     0
284
     8
288
     1
289
     0
340
11
371
    -1
372
    -1
1001
ACAD_DSTYLE_DIMJOGGED_JOGANGLE_SYMBOL
1070
   384
1040
0.7853981633974483
  0
DIMSTYLE
105
83
330
A
100
AcDbSymbolTableRecord
100
AcDbDimStyleTableRecord
  2
AM_ISO$4
 70
     0
  4
"
 41
2.5
 42
1.0
 43
10.0
 44
1.0
 47
0.1
 48
0.1
 73
     0
 77
     1
 78
     8
 79
     2
 90
     1
140
3.5
141
0.0
143
0.0393701
146
0.71
147
1.5
176
   256
177
   256
178
     2
271
     2
272
     3
274
     4
283
     0
284
     8
288
     1
289
     0
340
11
371
    -1
372
    -1
1001
ACAD_DSTYLE_DIMJOGGED_JOGANGLE_SYMBOL
1070
   384
1040
0.7853981633974483
  0
DIMSTYLE
105
84
330
A
100
AcDbSymbolTableRecord
100
AcDbDimStyleTableRecord
  2
AM_ISO$6
 70
     0
  4
"
 41
2.5
 42
1.0
 43
10.0
 44
1.0
 47
0.1
 48
0.1
 73
     0
 74
     0
 78
     8
 79
     2
 90
     1
140
3.5
141
0.0
143
0.0393701
146
0.71
147
1.5
172
     1
176
   256
177
   256
178
     2
271
     2
272
     3
274
     4
283
     0
284
     8
340
11
371
    -1
372
    -1
1001
ACAD_DSTYLE_DIMJOGGED_JOGANGLE_SYMBOL
1070
   384
1040
0.7853981633974483
  0
DIMSTYLE
105
85
330
A
100
AcDbSymbolTableRecord
100
AcDbDimStyleTableRecord
  2
AM_ISO$7
 70
     0
  4
"
 41
2.5
 42
1.0
 43
10.0
 44
1.0
 47
0.1
 48
0.1
 73
     0
 74
     0
 77
     1
 78
     8
 79
     2
 90
     1
140
5.0
141
0.0
143
0.0393701
146
0.71
147
1.5
172
     1
176
   256
177
   256
178
     2
271
     2
272
     3
274
     4
283
     0
284
     8
340
11
371
    -1
372
    -1
1001
ACAD_DSTYLE_DIMJOGGED_JOGANGLE_SYMBOL
1070
   384
1040
0.7853981633974483
  0
DIMSTYLE
105
86
330
A
100
AcDbSymbolTableRecord
100
AcDbDimStyleTableRecord
  2
AM_ISO$SF
 70
     0
  4
"
 41
2.5
 42
1.0
 43
10.0
 44
1.0
 47
0.1
 48
0.1
 73
     0
 74
     0
 75
     1
 76
     1
 77
     1
 78
     8
 79
     2
 90
     1
140
3.5
141
0.0
143
0.0393701
146
0.71
147
1.5
172
     1
176
   256
177
   256
178
     2
271
     2
272
     3
274
     4
283
     0
284
     8
340
11
371
    -1
372
    -1
1001
ACAD_DSTYLE_DIMJOGGED_JOGANGLE_SYMBOL
1070
   384
1040
0.7853981633974483
  0
DIMSTYLE
105
8B
330
A
100
AcDbSymbolTableRecord
100
AcDbDimStyleTableRecord
  2
AM_ISO$SH
 70
     0
  4
"
 41
2.5
 42
1.0
 43
10.0
 44
1.0
 47
0.1
 48
0.1
 73
     0
 74
     0
 75
     1
 76
     1
 77
     1
 78
     8
 79
     2
 90
     1
140
3.5
141
0.0
143
0.0393701
144
2.0
146
0.71
147
1.5
172
     1
173
     1
176
   256
177
   256
178
     2
271
     2
272
     3
274
     4
283
     0
284
     8
340
11
343
87
371
    -1
372
    -1
1001
ACAD_DSTYLE_DIMJOGGED_JOGANGLE_SYMBOL
1070
   384
1040
0.7853981633974483
  0
DIMSTYLE
105
2F0
330
A
100
AcDbSymbolTableRecord
100
AcDbDimStyleTableRecord
  2
AM_DIN
 70
     0
  4
"
 41
2.5
 42
1.0
 43
10.0
 44
1.0
 47
0.1
 48
0.1
 50
90.0
 73
     0
 74
     0
 77
     1
 78
     8
 79
     2
140
3.5
141
0.0
143
0.0393701
146
0.71
147
1.5
172
     1
176
   256
177
   256
178
     2
271
     2
272
     3
274
     4
283
     0
284
     8
340
11
371
    -1
372
    -1
1001
ACAD_DSTYLE_DIMJOGGED_JOGANGLE_SYMBOL
1070
   384
1040
1.570796326794896
  0
DIMSTYLE
105
301
330
A
100
AcDbSymbolTableRecord
100
AcDbDimStyleTableRecord
  2
AM_DIN$3
 70
     0
  4
"
 41
2.5
 42
1.0
 43
10.0
 44
1.0
 47
0.1
 48
0.1
 50
90.0
 73
     0
 77
     1
 78
     8
 79
     2
140
3.5
141
0.0
143
0.0393701
146
0.71
147
1.5
176
   256
177
   256
178
     2
271
     2
272
     3
274
     4
283
     0
284
     8
288
     1
289
     0
340
11
371
    -1
372
    -1
1001
ACAD_DSTYLE_DIMJOGGED_JOGANGLE_SYMBOL
1070
   384
1040
1.570796326794896
  0
DIMSTYLE
105
306
330
A
100
AcDbSymbolTableRecord
100
AcDbDimStyleTableRecord
  2
AM_DIN$4
 70
     0
  4
"
 41
2.5
 42
1.0
 43
10.0
 44
1.0
 47
0.1
 48
0.1
 50
90.0
 73
     0
 77
     1
 78
     8
 79
     2
140
3.5
141
0.0
143
0.0393701
146
0.71
147
1.5
176
   256
177
   256
178
     2
271
     2
272
     3
274
     4
283
     0
284
     8
288
     1
289
     0
340
11
371
    -1
372
    -1
1001
ACAD_DSTYLE_DIMJOGGED_JOGANGLE_SYMBOL
1070
   384
1040
1.570796326794896
  0
DIMSTYLE
105
30B
330
A
100
AcDbSymbolTableRecord
100
AcDbDimStyleTableRecord
  2
AM_DIN$6
 70
     0
  4
"
 41
2.5
 42
1.0
 43
10.0
 44
1.0
 47
0.1
 48
0.1
 50
90.0
 73
     0
 74
     0
 78
     8
 79
     2
140
3.5
141
0.0
143
0.0393701
146
0.71
147
1.5
172
     1
176
   256
177
   256
178
     2
271
     2
272
     3
274
     4
283
     0
284
     8
340
11
371
    -1
372
    -1
1001
ACAD_DSTYLE_DIMJOGGED_JOGANGLE_SYMBOL
1070
   384
1040
1.570796326794896
  0
DIMSTYLE
105
310
330
A
100
AcDbSymbolTableRecord
100
AcDbDimStyleTableRecord
  2
AM_DIN$7
 70
     0
  4
"
 41
2.5
 42
1.0
 43
10.0
 44
1.0
 47
0.1
 48
0.1
 50
90.0
 73
     0
 74
     0
 77
     1
 78
     8
 79
     2
140
5.0
141
0.0
143
0.0393701
146
0.71
147
1.5
172
     1
176
   256
177
   256
178
     2
271
     2
272
     3
274
     4
283
     0
284
     8
340
11
371
    -1
372
    -1
1001
ACAD_DSTYLE_DIMJOGGED_JOGANGLE_SYMBOL
1070
   384
1040
1.570796326794896
  0
DIMSTYLE
105
315
330
A
100
AcDbSymbolTableRecord
100
AcDbDimStyleTableRecord
  2
AM_DIN$SF
 70
     0
  4
"
 41
2.5
 42
1.0
 43
10.0
 44
1.0
 47
0.1
 48
0.1
 50
90.0
 73
     0
 74
     0
 75
     1
 76
     1
 77
     1
 78
     8
 79
     2
140
3.5
141
0.0
143
0.0393701
146
0.71
147
1.5
172
     1
176
   256
177
   256
178
     2
271
     2
272
     3
274
     4
283
     0
284
     8
340
11
371
    -1
372
    -1
1001
ACAD_DSTYLE_DIMJOGGED_JOGANGLE_SYMBOL
1070
   384
1040
1.570796326794896
  0
DIMSTYLE
105
31A
330
A
100
AcDbSymbolTableRecord
100
AcDbDimStyleTableRecord
  2
AM_DIN$SH
 70
     0
  4
"
 41
2.5
 42
1.0
 43
10.0
 44
1.0
 47
0.1
 48
0.1
 50
90.0
 73
     0
 74
     0
 75
     1
 76
     1
 77
     1
 78
     8
 79
     2
140
3.5
141
0.0
143
0.0393701
144
2.0
146
0.71
147
1.5
172
     1
173
     1
176
   256
177
   256
178
     2
271
     2
272
     3
274
     4
283
     0
284
     8
340
11
343
87
371
    -1
372
    -1
1001
ACAD_DSTYLE_DIMJOGGED_JOGANGLE_SYMBOL
1070
   384
1040
1.570796326794896
  0
DIMSTYLE
105
6BE
330
A
100
AcDbSymbolTableRecord
100
AcDbDimStyleTableRecord
  2
STANDARD
 70
     0
 41
3.5
 42
1.5
 44
1.5
 47
0.005
 48
0.005
 71
     1
 73
     0
 74
     0
 77
     1
 78
     8
140
3.5
147
0.625
178
     5
271
     3
272
     3
284
     8
340
11
341
656
342
656
343
656
344
656
  0
DIMSTYLE
105
6BF
102
{ACAD_REACTORS
330
892
330
893
330
894
330
895
330
89C
330
899
330
896
330
A6E
330
A6F
330
A70
330
A71
330
A72
330
A75
330
A78
102
}
330
A
100
AcDbSymbolTableRecord
100
AcDbDimStyleTableRecord
  2
883N99122_001_00149479900
 70
     0
 40
2.0
 41
3.149999999999999
 42
0.0
 43
3.75
 44
2.0
 73
     0
 74
     0
 77
     1
 78
     8
 79
     2
140
3.5
141
0.0
143
0.03937007874016
145
2.0
147
2.0
171
     3
172
     1
173
     1
176
     3
177
     3
178
     2
179
     2
271
     2
272
     2
274
     3
283
     0
284
     8
340
11
341
65A
  0
ENDTAB
  0
TABLE
  2
BLOCK_RECORD
  5
1
330
0
100
AcDbSymbolTable
 70
    22
  0
BLOCK_RECORD
  5
1F
102
{ACAD_XDICTIONARY
360
8F
102
}
330
1
100
AcDbSymbolTableRecord
100
AcDbBlockTableRecord
  2
*Model_Space
340
22
 70
     0
280
     1
281
     0
  0
BLOCK_RECORD
  5
1B
330
1
100
AcDbSymbolTableRecord
100
AcDbBlockTableRecord
  2
*Paper_Space
340
1E
 70
     0
280
     1
281
     0
  0
BLOCK_RECORD
  5
23
330
1
100
AcDbSymbolTableRecord
100
AcDbBlockTableRecord
  2
*Paper_Space0
340
26
 70
     0
280
     1
281
     0
  0
BLOCK_RECORD
  5
87
330
1
100
AcDbSymbolTableRecord
100
AcDbBlockTableRecord
  2
GENAXEH
340
0
 70
     0
280
     1
281
     0
  0
BLOCK_RECORD
  5
609
330
1
100
AcDbSymbolTableRecord
100
AcDbBlockTableRecord
  2
_ACMFILLED15
340
0
 70
     0
280
     1
281
     0
  0
BLOCK_RECORD
  5
61B
330
1
100
AcDbSymbolTableRecord
100
AcDbBlockTableRecord
  2
_ACMFILLED30
340
0
 70
     0
280
     1
281
     0
  0
BLOCK_RECORD
  5
656
330
1
100
AcDbSymbolTableRecord
100
AcDbBlockTableRecord
  2
_FILLED
340
0
 70
     0
280
     1
281
     0
  0
BLOCK_RECORD
  5
65A
330
1
100
AcDbSymbolTableRecord
100
AcDbBlockTableRecord
  2
_None
340
0
 70
     0
280
     1
281
     0
  0
BLOCK_RECORD
  5
65D
330
1
100
AcDbSymbolTableRecord
100
AcDbBlockTableRecord
  2
*D7
340
0
 70
     0
280
     1
281
     0
  0
BLOCK_RECORD
  5
669
330
1
100
AcDbSymbolTableRecord
100
AcDbBlockTableRecord
  2
*D8
340
0
 70
     0
280
     1
281
     0
  0
BLOCK_RECORD
  5
675
330
1
100
AcDbSymbolTableRecord
100
AcDbBlockTableRecord
  2
*D9
340
0
 70
     0
280
     1
281
     0
  0
BLOCK_RECORD
  5
681
330
1
100
AcDbSymbolTableRecord
100
AcDbBlockTableRecord
  2
*D10
340
0
 70
     0
280
     1
281
     0
  0
BLOCK_RECORD
  5
68D
330
1
100
AcDbSymbolTableRecord
100
AcDbBlockTableRecord
  2
*D11
340
0
 70
     0
280
     1
281
     0
  0
BLOCK_RECORD
  5
699
330
1
100
AcDbSymbolTableRecord
100
AcDbBlockTableRecord
  2
*D12
340
0
 70
     0
280
     1
281
     0
  0
BLOCK_RECORD
  5
6A5
330
1
100
AcDbSymbolTableRecord
100
AcDbBlockTableRecord
  2
*D13
340
0
 70
     0
280
     1
281
     0
  0
BLOCK_RECORD
  5
A7B
330
1
100
AcDbSymbolTableRecord
100
AcDbBlockTableRecord
  2
*D15
340
0
 70
     0
280
     1
281
     0
  0
BLOCK_RECORD
  5
A87
330
1
100
AcDbSymbolTableRecord
100
AcDbBlockTableRecord
  2
*D16
340
0
 70
     0
280
     1
281
     0
  0
BLOCK_RECORD
  5
A93
330
1
100
AcDbSymbolTableRecord
100
AcDbBlockTableRecord
  2
*D17
340
0
 70
     0
280
     1
281
     0
  0
BLOCK_RECORD
  5
A9F
330
1
100
AcDbSymbolTableRecord
100
AcDbBlockTableRecord
  2
*D18
340
0
 70
     0
280
     1
281
     0
  0
BLOCK_RECORD
  5
ACF
330
1
100
AcDbSymbolTableRecord
100
AcDbBlockTableRecord
  2
*D19
340
0
 70
     0
280
     1
281
     0
  0
BLOCK_RECORD
  5
ADB
330
1
100
AcDbSymbolTableRecord
100
AcDbBlockTableRecord
  2
*D20
340
0
 70
     0
280
     1
281
     0
  0
BLOCK_RECORD
  5
AE7
330
1
100
AcDbSymbolTableRecord
100
AcDbBlockTableRecord
  2
*D21
340
0
 70
     0
280
     1
281
     0
  0
ENDTAB
  0
ENDSEC
  0
SECTION
  2
BLOCKS
  0
BLOCK
  5
20
330
1F
100
AcDbEntity
  8
0
100
AcDbBlockBegin
  2
*Model_Space
 70
     0
 10
0.0
 20
0.0
 30
0.0
  3
*Model_Space
  1

  0
ENDBLK
  5
21
330
1F
100
AcDbEntity
  8
0
100
AcDbBlockEnd
  0
BLOCK
  5
1C
330
1B
100
AcDbEntity
 67
     1
  8
0
100
AcDbBlockBegin
  2
*Paper_Space
 70
     0
 10
0.0
 20
0.0
 30
0.0
  3
*Paper_Space
  1

  0
ENDBLK
  5
1D
330
1B
100
AcDbEntity
 67
     1
  8
0
100
AcDbBlockEnd
  0
BLOCK
  5
24
330
23
100
AcDbEntity
 67
     1
  8
0
100
AcDbBlockBegin
  2
*Paper_Space0
 70
     0
 10
0.0
 20
0.0
 30
0.0
  3
*Paper_Space0
  1

  0
ENDBLK
  5
25
330
23
100
AcDbEntity
 67
     1
  8
0
100
AcDbBlockEnd
  0
BLOCK
  5
89
330
87
100
AcDbEntity
  8
0
100
AcDbBlockBegin
  2
GENAXEH
 70
     0
 10
0.0
 20
0.0
 30
0.0
  3
GENAXEH
  1

  0
LINE
  5
88
330
87
100
AcDbEntity
  8
0
100
AcDbLine
 10
-1.0
 20
0.0
 30
0.0
 11
1.0
 21
0.0
 31
0.0
  0
ENDBLK
  5
8A
330
87
100
AcDbEntity
  8
0
100
AcDbBlockEnd
  0
BLOCK
  5
60A
330
609
100
AcDbEntity
  8
0
100
AcDbBlockBegin
  2
_ACMFILLED15
 70
     0
 10
0.0
 20
0.0
 30
0.0
  3
_ACMFILLED15
  1

  0
TRACE
  5
60C
330
609
100
AcDbEntity
  8
0
 62
     0
100
AcDbTrace
 10
-1.0
 20
-0.131652497
 30
0.0
 11
-1.0
 21
0.131652497
 31
0.0
 12
0.0
 22
0.0
 32
0.0
 13
0.0
 23
0.0
 33
0.0
  0
ENDBLK
  5
60B
330
609
100
AcDbEntity
  8
0
100
AcDbBlockEnd
  0
BLOCK
  5
61C
330
61B
100
AcDbEntity
  8
0
100
AcDbBlockBegin
  2
_ACMFILLED30
 70
     0
 10
0.0
 20
0.0
 30
0.0
  3
_ACMFILLED30
  1

  0
TRACE
  5
61E
330
61B
100
AcDbEntity
  8
0
 62
     0
100
AcDbTrace
 10
-1.0
 20
-0.26794919
 30
0.0
 11
-1.0
 21
0.26794919
 31
0.0
 12
0.0
 22
0.0
 32
0.0
 13
0.0
 23
0.0
 33
0.0
  0
ENDBLK
  5
61D
330
61B
100
AcDbEntity
  8
0
100
AcDbBlockEnd
  0
BLOCK
  5
657
330
656
100
AcDbEntity
  8
0
100
AcDbBlockBegin
  2
_FILLED
 70
     0
 10
0.0
 20
0.0
 30
0.0
  3
_FILLED
  1

  0
SOLID
  5
658
330
656
100
AcDbEntity
  8
0
  6
ByBlock
 62
     0
100
AcDbTrace
 10
0.0
 20
0.0
 30
0.0
 11
-1.0
 21
0.125
 31
0.0
 12
-1.0
 22
-0.125
 32
0.0
 13
-1.0
 23
-0.125
 33
0.0
  0
ENDBLK
  5
659
330
656
100
AcDbEntity
  8
0
  6
ByBlock
 62
     0
100
AcDbBlockEnd
  0
BLOCK
  5
65B
330
65A
100
AcDbEntity
  8
0
100
AcDbBlockBegin
  2
_None
 70
     0
 10
0.0
 20
0.0
 30
0.0
  3
_None
  1

  0
ENDBLK
  5
65C
330
65A
100
AcDbEntity
  8
0
100
AcDbBlockEnd
  0
BLOCK
  5
65E
330
65D
100
AcDbEntity
  8
0
100
AcDbBlockBegin
  2
*D7
 70
     1
 10
0.0
 20
0.0
 30
0.0
  3
*D7
  1

  0
LINE
  5
65F
330
65D
100
AcDbEntity
  8
P-0000
  6
Continuous
 62
     3
440
 16777216
370
    -2
100
AcDbLine
 10
-866.6001220514001
 20
299.2230550451
 30
0.0
 11
-925.7529729077456
 21
299.2230550451001
 31
0.0
  0
LINE
  5
660
330
65D
100
AcDbEntity
  8
P-0000
  6
Continuous
 62
     3
440
 16777216
370
    -2
100
AcDbLine
 10
-627.6001220514
 20
202.0230550451
 30
0.0
 11
-925.7529729077456
 21
202.0230550451001
 31
0.0
  0
LINE
  5
661
330
65D
100
AcDbEntity
  8
P-0000
  6
Continuous
 62
     3
440
 16777216
370
    -2
100
AcDbLine
 10
-921.7529729077455
 20
292.9230550451001
 30
0.0
 11
-921.7529729077456
 21
208.3230550451001
 31
0.0
  0
SOLID
  5
662
330
65D
100
AcDbEntity
  8
P-0000
  6
Continuous
 62
     3
440
 16777216
100
AcDbTrace
 10
-922.8029729077455
 20
292.9230550451001
 30
0.0
 11
-920.7029729077456
 21
292.9230550451001
 31
0.0
 12
-921.7529729077455
 22
299.2230550451001
 32
0.0
 13
-921.7529729077455
 23
299.2230550451001
 33
0.0
  0
SOLID
  5
663
330
65D
100
AcDbEntity
  8
P-0000
  6
Continuous
 62
     3
440
 16777216
100
AcDbTrace
 10
-922.8029729077455
 20
208.3230550451001
 30
0.0
 11
-920.7029729077456
 21
208.3230550451001
 31
0.0
 12
-921.7529729077456
 22
202.0230550451001
 32
0.0
 13
-921.7529729077456
 23
202.0230550451001
 33
0.0
  0
MTEXT
  5
664
330
65D
100
AcDbEntity
  8
P-0000
  6
Continuous
 62
     2
440
 16777216
100
AcDbMText
 10
-932.7529729077456
 20
249.7012277177552
 30
0.0
 40
7.0
 41
0.0
 46
0.0
 71
     2
 72
     1
  1
97
 11
0.0000000000000001
 21
1.0
 31
0.0
 73
     1
 44
1.0
  0
POINT
  5
665
330
65D
100
AcDbEntity
  8
Defpoints
  6
Continuous
 62
     0
440
 16777216
100
AcDbPoint
 10
-866.6001220514001
 20
299.2230550451
 30
0.0
  0
POINT
  5
666
330
65D
100
AcDbEntity
  8
Defpoints
  6
Continuous
 62
     0
440
 16777216
100
AcDbPoint
 10
-627.6001220514
 20
202.0230550451
 30
0.0
  0
POINT
  5
667
330
65D
100
AcDbEntity
  8
Defpoints
  6
Continuous
 62
     0
440
 16777216
100
AcDbPoint
 10
-921.7529729077456
 20
202.0230550451001
 30
0.0
  0
ENDBLK
  5
668
330
65D
100
AcDbEntity
  8
0
100
AcDbBlockEnd
  0
BLOCK
  5
66A
330
669
100
AcDbEntity
  8
0
100
AcDbBlockBegin
  2
*D8
 70
     1
 10
0.0
 20
0.0
 30
0.0
  3
*D8
  1

  0
LINE
  5
66B
330
669
100
AcDbEntity
  8
P-0000
  6
Continuous
 62
     3
440
 16777216
370
    -2
100
AcDbLine
 10
-843.6001220514
 20
92.88693779
 30
0.0
 11
-900.2268203723795
 21
92.88693779000002
 31
0.0
  0
LINE
  5
66C
330
669
100
AcDbEntity
  8
P-0000
  6
Continuous
 62
     3
440
 16777216
370
    -2
100
AcDbLine
 10
-843.6001220514
 20
28.7992142026
 30
0.0
 11
-900.2268203723795
 21
28.79921420260002
 31
0.0
  0
LINE
  5
66D
330
669
100
AcDbEntity
  8
P-0000
  6
Continuous
 62
     3
440
 16777216
370
    -2
100
AcDbLine
 10
-896.2268203723795
 20
86.58693779000001
 30
0.0
 11
-896.2268203723795
 21
35.09921420260003
 31
0.0
  0
SOLID
  5
66E
330
669
100
AcDbEntity
  8
P-0000
  6
Continuous
 62
     3
440
 16777216
100
AcDbTrace
 10
-897.2768203723795
 20
86.58693779000001
 30
0.0
 11
-895.1768203723796
 21
86.58693779000001
 31
0.0
 12
-896.2268203723795
 22
92.88693779000002
 32
0.0
 13
-896.2268203723795
 23
92.88693779000002
 33
0.0
  0
SOLID
  5
66F
330
669
100
AcDbEntity
  8
P-0000
  6
Continuous
 62
     3
440
 16777216
100
AcDbTrace
 10
-897.2768203723795
 20
35.09921420260003
 30
0.0
 11
-895.1768203723796
 21
35.09921420260003
 31
0.0
 12
-896.2268203723795
 22
28.79921420260002
 32
0.0
 13
-896.2268203723795
 23
28.79921420260002
 33
0.0
  0
MTEXT
  5
670
330
669
100
AcDbEntity
  8
P-0000
  6
Continuous
 62
     2
440
 16777216
100
AcDbMText
 10
-907.2268203723792
 20
62.23206177095971
 30
0.0
 40
7.0
 41
0.0
 46
0.0
 71
     2
 72
     1
  1
64
 11
0.0000000000000001
 21
1.0
 31
0.0
 73
     1
 44
1.0
  0
POINT
  5
671
330
669
100
AcDbEntity
  8
Defpoints
  6
Continuous
 62
     0
440
 16777216
100
AcDbPoint
 10
-843.6001220514
 20
92.88693779
 30
0.0
  0
POINT
  5
672
330
669
100
AcDbEntity
  8
Defpoints
  6
Continuous
 62
     0
440
 16777216
100
AcDbPoint
 10
-843.6001220514
 20
28.7992142026
 30
0.0
  0
POINT
  5
673
330
669
100
AcDbEntity
  8
Defpoints
  6
Continuous
 62
     0
440
 16777216
100
AcDbPoint
 10
-896.2268203723795
 20
28.79921420260002
 30
0.0
  0
ENDBLK
  5
674
330
669
100
AcDbEntity
  8
0
100
AcDbBlockEnd
  0
BLOCK
  5
676
330
675
100
AcDbEntity
  8
0
100
AcDbBlockBegin
  2
*D9
 70
     1
 10
0.0
 20
0.0
 30
0.0
  3
*D9
  1

  0
LINE
  5
677
330
675
100
AcDbEntity
  8
P-0000
  6
Continuous
 62
     3
440
 16777216
370
    -2
100
AcDbLine
 10
-876.1001220514
 20
106.88693779
 30
0.0
 11
-924.8334467652812
 21
106.88693779
 31
0.0
  0
LINE
  5
678
330
675
100
AcDbEntity
  8
P-0000
  6
Continuous
 62
     3
440
 16777216
370
    -2
100
AcDbLine
 10
-854.8501220513998
 20
-5.113062210000008
 30
0.0
 11
-924.8334467652812
 21
-5.11306220999999
 31
0.0
  0
LINE
  5
679
330
675
100
AcDbEntity
  8
P-0000
  6
Continuous
 62
     3
440
 16777216
370
    -2
100
AcDbLine
 10
-920.8334467652813
 20
100.58693779
 30
0.0
 11
-920.8334467652813
 21
1.186937790000007
 31
0.0
  0
SOLID
  5
67A
330
675
100
AcDbEntity
  8
P-0000
  6
Continuous
 62
     3
440
 16777216
100
AcDbTrace
 10
-921.8834467652811
 20
100.58693779
 30
0.0
 11
-919.7834467652812
 21
100.58693779
 31
0.0
 12
-920.8334467652813
 22
106.88693779
 32
0.0
 13
-920.8334467652813
 23
106.88693779
 33
0.0
  0
SOLID
  5
67B
330
675
100
AcDbEntity
  8
P-0000
  6
Continuous
 62
     3
440
 16777216
100
AcDbTrace
 10
-921.8834467652811
 20
1.186937790000007
 30
0.0
 11
-919.7834467652812
 21
1.186937790000007
 31
0.0
 12
-920.8334467652813
 22
-5.11306220999999
 32
0.0
 13
-920.8334467652813
 23
-5.11306220999999
 33
0.0
  0
MTEXT
  5
67C
330
675
100
AcDbEntity
  8
P-0000
  6
Continuous
 62
     2
440
 16777216
100
AcDbMText
 10
-931.8334467652812
 20
55.57392464072745
 30
0.0
 40
7.0
 41
0.0
 46
0.0
 71
     2
 72
     1
  1
112
 11
0.0000000000000001
 21
1.0
 31
0.0
 73
     1
 44
1.0
  0
POINT
  5
67D
330
675
100
AcDbEntity
  8
Defpoints
  6
Continuous
 62
     0
440
 16777216
100
AcDbPoint
 10
-876.1001220514
 20
106.88693779
 30
0.0
  0
POINT
  5
67E
330
675
100
AcDbEntity
  8
Defpoints
  6
Continuous
 62
     0
440
 16777216
100
AcDbPoint
 10
-854.8501220513998
 20
-5.113062210000008
 30
0.0
  0
POINT
  5
67F
330
675
100
AcDbEntity
  8
Defpoints
  6
Continuous
 62
     0
440
 16777216
100
AcDbPoint
 10
-920.8334467652813
 20
-5.11306220999999
 30
0.0
  0
ENDBLK
  5
680
330
675
100
AcDbEntity
  8
0
100
AcDbBlockEnd
  0
BLOCK
  5
682
330
681
100
AcDbEntity
  8
0
100
AcDbBlockBegin
  2
*D10
 70
     1
 10
0.0
 20
0.0
 30
0.0
  3
*D10
  1

  0
LINE
  5
683
330
681
100
AcDbEntity
  8
P-0000
  6
Continuous
 62
     3
440
 16777216
370
    -2
100
AcDbLine
 10
-866.6001220514001
 20
299.2230550451
 30
0.0
 11
-901.1367251293446
 21
299.2230550451001
 31
0.0
  0
LINE
  5
684
330
681
100
AcDbEntity
  8
P-0000
  6
Continuous
 62
     3
440
 16777216
370
    -2
100
AcDbLine
 10
-845.1001220513999
 20
269.2230550451
 30
0.0
 11
-901.1367251293446
 21
269.2230550451001
 31
0.0
  0
LINE
  5
685
330
681
100
AcDbEntity
  8
P-0000
  6
Continuous
 62
     3
440
 16777216
370
    -2
100
AcDbLine
 10
-897.1367251293445
 20
292.9230550451001
 30
0.0
 11
-897.1367251293445
 21
275.5230550451001
 31
0.0
  0
SOLID
  5
686
330
681
100
AcDbEntity
  8
P-0000
  6
Continuous
 62
     3
440
 16777216
100
AcDbTrace
 10
-898.1867251293445
 20
292.9230550451001
 30
0.0
 11
-896.0867251293446
 21
292.9230550451001
 31
0.0
 12
-897.1367251293445
 22
299.2230550451001
 32
0.0
 13
-897.1367251293445
 23
299.2230550451001
 33
0.0
  0
SOLID
  5
687
330
681
100
AcDbEntity
  8
P-0000
  6
Continuous
 62
     3
440
 16777216
100
AcDbTrace
 10
-898.1867251293445
 20
275.5230550451001
 30
0.0
 11
-896.0867251293446
 21
275.5230550451001
 31
0.0
 12
-897.1367251293445
 22
269.2230550451001
 32
0.0
 13
-897.1367251293445
 23
269.2230550451001
 33
0.0
  0
MTEXT
  5
688
330
681
100
AcDbEntity
  8
P-0000
  6
Continuous
 62
     2
440
 16777216
100
AcDbMText
 10
-908.1367251293446
 20
282.4686255654966
 30
0.0
 40
7.0
 41
0.0
 46
0.0
 71
     2
 72
     1
  1
30
 11
0.0000000000000001
 21
1.0
 31
0.0
 73
     1
 44
1.0
  0
POINT
  5
689
330
681
100
AcDbEntity
  8
Defpoints
  6
Continuous
 62
     0
440
 16777216
100
AcDbPoint
 10
-866.6001220514001
 20
299.2230550451
 30
0.0
  0
POINT
  5
68A
330
681
100
AcDbEntity
  8
Defpoints
  6
Continuous
 62
     0
440
 16777216
100
AcDbPoint
 10
-845.1001220513999
 20
269.2230550451
 30
0.0
  0
POINT
  5
68B
330
681
100
AcDbEntity
  8
Defpoints
  6
Continuous
 62
     0
440
 16777216
100
AcDbPoint
 10
-897.1367251293445
 20
269.2230550451001
 30
0.0
  0
ENDBLK
  5
68C
330
681
100
AcDbEntity
  8
0
100
AcDbBlockEnd
  0
BLOCK
  5
68E
330
68D
100
AcDbEntity
  8
0
100
AcDbBlockBegin
  2
*D11
 70
     1
 10
0.0
 20
0.0
 30
0.0
  3
*D11
  1

  0
LINE
  5
68F
330
68D
100
AcDbEntity
  8
P-0000
  6
Continuous
 62
     3
440
 16777216
370
    -2
100
AcDbLine
 10
-844.1001220513999
 20
261.9730550451
 30
0.0
 11
-844.1001220513999
 21
328.3659585766318
 31
0.0
  0
LINE
  5
690
330
68D
100
AcDbEntity
  8
P-0000
  6
Continuous
 62
     3
440
 16777216
370
    -2
100
AcDbLine
 10
-264.1001220514
 20
263.2230550451
 30
0.0
 11
-264.1001220514
 21
328.3659585766318
 31
0.0
  0
LINE
  5
691
330
68D
100
AcDbEntity
  8
P-0000
  6
Continuous
 62
     3
440
 16777216
370
    -2
100
AcDbLine
 10
-837.8001220514001
 20
324.3659585766318
 30
0.0
 11
-270.4001220514
 21
324.3659585766318
 31
0.0
  0
SOLID
  5
692
330
68D
100
AcDbEntity
  8
P-0000
  6
Continuous
 62
     3
440
 16777216
100
AcDbTrace
 10
-837.8001220514001
 20
325.4159585766318
 30
0.0
 11
-837.8001220514001
 21
323.3159585766318
 31
0.0
 12
-844.1001220513999
 22
324.3659585766318
 32
0.0
 13
-844.1001220513999
 23
324.3659585766318
 33
0.0
  0
SOLID
  5
693
330
68D
100
AcDbEntity
  8
P-0000
  6
Continuous
 62
     3
440
 16777216
100
AcDbTrace
 10
-270.4001220514
 20
325.4159585766318
 30
0.0
 11
-270.4001220514
 21
323.3159585766318
 31
0.0
 12
-264.1001220514
 22
324.3659585766318
 32
0.0
 13
-264.1001220514
 23
324.3659585766318
 33
0.0
  0
MTEXT
  5
694
330
68D
100
AcDbEntity
  8
P-0000
  6
Continuous
 62
     2
440
 16777216
100
AcDbMText
 10
-554.1001220514
 20
331.8659585766318
 30
0.0
 40
7.0
 41
0.0
 46
0.0
 71
     5
 72
     1
  1
580
 73
     1
 44
1.0
  0
POINT
  5
695
330
68D
100
AcDbEntity
  8
Defpoints
  6
Continuous
 62
     0
440
 16777216
100
AcDbPoint
 10
-844.1001220513999
 20
261.9730550451
 30
0.0
  0
POINT
  5
696
330
68D
100
AcDbEntity
  8
Defpoints
  6
Continuous
 62
     0
440
 16777216
100
AcDbPoint
 10
-264.1001220514
 20
263.2230550451
 30
0.0
  0
POINT
  5
697
330
68D
100
AcDbEntity
  8
Defpoints
  6
Continuous
 62
     0
440
 16777216
100
AcDbPoint
 10
-264.1001220514
 20
324.3659585766318
 30
0.0
  0
ENDBLK
  5
698
330
68D
100
AcDbEntity
  8
0
100
AcDbBlockEnd
  0
BLOCK
  5
69A
330
699
100
AcDbEntity
  8
0
100
AcDbBlockBegin
  2
*D12
 70
     1
 10
0.0
 20
0.0
 30
0.0
  3
*D12
  1

  0
LINE
  5
69B
330
699
100
AcDbEntity
  8
P-0000
  6
Continuous
 62
     3
440
 16777216
370
    -2
100
AcDbLine
 10
-262.1001220514
 20
268.2230550451
 30
0.0
 11
-262.1001220514
 21
342.2043085074674
 31
0.0
  0
LINE
  5
69C
330
699
100
AcDbEntity
  8
P-0000
  6
Continuous
 62
     3
440
 16777216
370
    -2
100
AcDbLine
 10
-846.1001220514001
 20
268.2230550451
 30
0.0
 11
-846.1001220514001
 21
342.2043085074674
 31
0.0
  0
LINE
  5
69D
330
699
100
AcDbEntity
  8
P-0000
  6
Continuous
 62
     3
440
 16777216
370
    -2
100
AcDbLine
 10
-268.4001220514
 20
338.2043085074674
 30
0.0
 11
-839.8001220514
 21
338.2043085074674
 31
0.0
  0
SOLID
  5
69E
330
699
100
AcDbEntity
  8
P-0000
  6
Continuous
 62
     3
440
 16777216
100
AcDbTrace
 10
-268.4001220514
 20
339.2543085074674
 30
0.0
 11
-268.4001220514
 21
337.1543085074674
 31
0.0
 12
-262.1001220514
 22
338.2043085074674
 32
0.0
 13
-262.1001220514
 23
338.2043085074674
 33
0.0
  0
SOLID
  5
69F
330
699
100
AcDbEntity
  8
P-0000
  6
Continuous
 62
     3
440
 16777216
100
AcDbTrace
 10
-839.8001220514
 20
339.2543085074674
 30
0.0
 11
-839.8001220514
 21
337.1543085074674
 31
0.0
 12
-846.1001220514001
 22
338.2043085074674
 32
0.0
 13
-846.1001220514001
 23
338.2043085074674
 33
0.0
  0
MTEXT
  5
6A0
330
699
100
AcDbEntity
  8
P-0000
  6
Continuous
 62
     2
440
 16777216
100
AcDbMText
 10
-554.1001220514
 20
345.7043085074674
 30
0.0
 40
7.0
 41
0.0
 46
0.0
 71
     5
 72
     1
  1
584
 73
     1
 44
1.0
  0
POINT
  5
6A1
330
699
100
AcDbEntity
  8
Defpoints
  6
Continuous
 62
     0
440
 16777216
100
AcDbPoint
 10
-262.1001220514
 20
268.2230550451
 30
0.0
  0
POINT
  5
6A2
330
699
100
AcDbEntity
  8
Defpoints
  6
Continuous
 62
     0
440
 16777216
100
AcDbPoint
 10
-846.1001220514001
 20
268.2230550451
 30
0.0
  0
POINT
  5
6A3
330
699
100
AcDbEntity
  8
Defpoints
  6
Continuous
 62
     0
440
 16777216
100
AcDbPoint
 10
-846.1001220514001
 20
338.2043085074674
 30
0.0
  0
ENDBLK
  5
6A4
330
699
100
AcDbEntity
  8
0
100
AcDbBlockEnd
  0
BLOCK
  5
6A6
330
6A5
100
AcDbEntity
  8
0
100
AcDbBlockBegin
  2
*D13
 70
     1
 10
0.0
 20
0.0
 30
0.0
  3
*D13
  1

  0
LINE
  5
6A7
330
6A5
100
AcDbEntity
  8
P-0000
  6
Continuous
 62
     3
440
 16777216
370
    -2
100
AcDbLine
 10
-231.6001220514
 20
273.2230550451
 30
0.0
 11
-231.6001220514
 21
356.042660541319
 31
0.0
  0
LINE
  5
6A8
330
6A5
100
AcDbEntity
  8
P-0000
  6
Continuous
 62
     3
440
 16777216
370
    -2
100
AcDbLine
 10
-876.6001220514
 20
273.2230550451
 30
0.0
 11
-876.6001220514
 21
356.042660541319
 31
0.0
  0
LINE
  5
6A9
330
6A5
100
AcDbEntity
  8
P-0000
  6
Continuous
 62
     3
440
 16777216
370
    -2
100
AcDbLine
 10
-237.9001220514
 20
352.042660541319
 30
0.0
 11
-870.3001220514
 21
352.042660541319
 31
0.0
  0
SOLID
  5
6AA
330
6A5
100
AcDbEntity
  8
P-0000
  6
Continuous
 62
     3
440
 16777216
100
AcDbTrace
 10
-237.9001220514
 20
353.0926605413191
 30
0.0
 11
-237.9001220514
 21
350.992660541319
 31
0.0
 12
-231.6001220514
 22
352.042660541319
 32
0.0
 13
-231.6001220514
 23
352.042660541319
 33
0.0
  0
SOLID
  5
6AB
330
6A5
100
AcDbEntity
  8
P-0000
  6
Continuous
 62
     3
440
 16777216
100
AcDbTrace
 10
-870.3001220514
 20
353.0926605413191
 30
0.0
 11
-870.3001220514
 21
350.992660541319
 31
0.0
 12
-876.6001220514
 22
352.042660541319
 32
0.0
 13
-876.6001220514
 23
352.042660541319
 33
0.0
  0
MTEXT
  5
6AC
330
6A5
100
AcDbEntity
  8
P-0000
  6
Continuous
 62
     2
440
 16777216
100
AcDbMText
 10
-554.1001220514
 20
359.542660541319
 30
0.0
 40
7.0
 41
0.0
 46
0.0
 71
     5
 72
     1
  1
645
 73
     1
 44
1.0
  0
POINT
  5
6AD
330
6A5
100
AcDbEntity
  8
Defpoints
  6
Continuous
 62
     0
440
 16777216
100
AcDbPoint
 10
-231.6001220514
 20
273.2230550451
 30
0.0
  0
POINT
  5
6AE
330
6A5
100
AcDbEntity
  8
Defpoints
  6
Continuous
 62
     0
440
 16777216
100
AcDbPoint
 10
-876.6001220514
 20
273.2230550451
 30
0.0
  0
POINT
  5
6AF
330
6A5
100
AcDbEntity
  8
Defpoints
  6
Continuous
 62
     0
440
 16777216
100
AcDbPoint
 10
-876.6001220514
 20
352.042660541319
 30
0.0
  0
ENDBLK
  5
6B0
330
6A5
100
AcDbEntity
  8
0
100
AcDbBlockEnd
  0
BLOCK
  5
A7C
330
A7B
100
AcDbEntity
  8
0
100
AcDbBlockBegin
  2
*D15
 70
     1
 10
0.0
 20
0.0
 30
0.0
  3
*D15
  1

  0
LINE
  5
AAB
330
A7B
100
AcDbEntity
  8
P-0000
  6
Continuous
 62
     3
440
 16777216
370
    -2
100
AcDbLine
 10
123.391957856479
 20
377.7872877404603
 30
0.0
 11
64.23910700013353
 21
377.7872877404603
 31
0.0
  0
LINE
  5
AAC
330
A7B
100
AcDbEntity
  8
P-0000
  6
Continuous
 62
     3
440
 16777216
370
    -2
100
AcDbLine
 10
362.3919578564791
 20
280.5872877404603
 30
0.0
 11
64.23910700013351
 21
280.5872877404604
 31
0.0
  0
LINE
  5
AAD
330
A7B
100
AcDbEntity
  8
P-0000
  6
Continuous
 62
     3
440
 16777216
370
    -2
100
AcDbLine
 10
68.23910700013353
 20
371.4872877404602
 30
0.0
 11
68.2391070001335
 21
286.8872877404604
 31
0.0
  0
SOLID
  5
AAE
330
A7B
100
AcDbEntity
  8
P-0000
  6
Continuous
 62
     3
440
 16777216
100
AcDbTrace
 10
67.18910700013353
 20
371.4872877404602
 30
0.0
 11
69.28910700013353
 21
371.4872877404602
 31
0.0
 12
68.23910700013353
 22
377.7872877404603
 32
0.0
 13
68.23910700013353
 23
377.7872877404603
 33
0.0
  0
SOLID
  5
AAF
330
A7B
100
AcDbEntity
  8
P-0000
  6
Continuous
 62
     3
440
 16777216
100
AcDbTrace
 10
67.1891070001335
 20
286.8872877404604
 30
0.0
 11
69.2891070001335
 21
286.8872877404604
 31
0.0
 12
68.2391070001335
 22
280.5872877404604
 32
0.0
 13
68.2391070001335
 23
280.5872877404604
 33
0.0
  0
MTEXT
  5
AB0
330
A7B
100
AcDbEntity
  8
P-0000
  6
Continuous
 62
     2
440
 16777216
100
AcDbMText
 10
57.23910700013346
 20
328.2654604131155
 30
0.0
 40
7.0
 41
0.0
 46
0.0
 71
     2
 72
     1
  1
97
 11
0.0000000000000001
 21
1.0
 31
0.0
 73
     1
 44
1.0
  0
POINT
  5
AB1
330
A7B
100
AcDbEntity
  8
Defpoints
  6
Continuous
 62
     0
440
 16777216
100
AcDbPoint
 10
123.391957856479
 20
377.7872877404603
 30
0.0
  0
POINT
  5
AB2
330
A7B
100
AcDbEntity
  8
Defpoints
  6
Continuous
 62
     0
440
 16777216
100
AcDbPoint
 10
362.3919578564791
 20
280.5872877404603
 30
0.0
  0
POINT
  5
AB3
330
A7B
100
AcDbEntity
  8
Defpoints
  6
Continuous
 62
     0
440
 16777216
100
AcDbPoint
 10
68.2391070001335
 20
280.5872877404604
 30
0.0
  0
ENDBLK
  5
A7D
330
A7B
100
AcDbEntity
  8
0
100
AcDbBlockEnd
  0
BLOCK
  5
A88
330
A87
100
AcDbEntity
  8
0
100
AcDbBlockBegin
  2
*D16
 70
     1
 10
0.0
 20
0.0
 30
0.0
  3
*D16
  1

  0
LINE
  5
AB4
330
A87
100
AcDbEntity
  8
P-0000
  6
Continuous
 62
     3
440
 16777216
370
    -2
100
AcDbLine
 10
146.391957856479
 20
171.4511704853602
 30
0.0
 11
89.76525953549961
 21
171.4511704853602
 31
0.0
  0
LINE
  5
AB5
330
A87
100
AcDbEntity
  8
P-0000
  6
Continuous
 62
     3
440
 16777216
370
    -2
100
AcDbLine
 10
146.391957856479
 20
107.3634468979602
 30
0.0
 11
89.76525953549959
 21
107.3634468979602
 31
0.0
  0
LINE
  5
AB6
330
A87
100
AcDbEntity
  8
P-0000
  6
Continuous
 62
     3
440
 16777216
370
    -2
100
AcDbLine
 10
93.76525953549961
 20
165.1511704853602
 30
0.0
 11
93.76525953549959
 21
113.6634468979602
 31
0.0
  0
SOLID
  5
AB7
330
A87
100
AcDbEntity
  8
P-0000
  6
Continuous
 62
     3
440
 16777216
100
AcDbTrace
 10
92.71525953549961
 20
165.1511704853602
 30
0.0
 11
94.8152595354996
 21
165.1511704853602
 31
0.0
 12
93.76525953549961
 22
171.4511704853602
 32
0.0
 13
93.76525953549961
 23
171.4511704853602
 33
0.0
  0
SOLID
  5
AB8
330
A87
100
AcDbEntity
  8
P-0000
  6
Continuous
 62
     3
440
 16777216
100
AcDbTrace
 10
92.71525953549959
 20
113.6634468979602
 30
0.0
 11
94.8152595354996
 21
113.6634468979602
 31
0.0
 12
93.76525953549959
 22
107.3634468979602
 32
0.0
 13
93.76525953549959
 23
107.3634468979602
 33
0.0
  0
MTEXT
  5
AB9
330
A87
100
AcDbEntity
  8
P-0000
  6
Continuous
 62
     2
440
 16777216
100
AcDbMText
 10
82.76525953549958
 20
140.79629446632
 30
0.0
 40
7.0
 41
0.0
 46
0.0
 71
     2
 72
     1
  1
64
 11
0.0000000000000001
 21
1.0
 31
0.0
 73
     1
 44
1.0
  0
POINT
  5
ABA
330
A87
100
AcDbEntity
  8
Defpoints
  6
Continuous
 62
     0
440
 16777216
100
AcDbPoint
 10
146.391957856479
 20
171.4511704853602
 30
0.0
  0
POINT
  5
ABB
330
A87
100
AcDbEntity
  8
Defpoints
  6
Continuous
 62
     0
440
 16777216
100
AcDbPoint
 10
146.391957856479
 20
107.3634468979602
 30
0.0
  0
POINT
  5
ABC
330
A87
100
AcDbEntity
  8
Defpoints
  6
Continuous
 62
     0
440
 16777216
100
AcDbPoint
 10
93.76525953549959
 20
107.3634468979602
 30
0.0
  0
ENDBLK
  5
A89
330
A87
100
AcDbEntity
  8
0
100
AcDbBlockEnd
  0
BLOCK
  5
A94
330
A93
100
AcDbEntity
  8
0
100
AcDbBlockBegin
  2
*D17
 70
     1
 10
0.0
 20
0.0
 30
0.0
  3
*D17
  1

  0
LINE
  5
ABD
330
A93
100
AcDbEntity
  8
P-0000
  6
Continuous
 62
     3
440
 16777216
370
    -2
100
AcDbLine
 10
113.891957856479
 20
185.4511704853602
 30
0.0
 11
65.15863314259789
 21
185.4511704853602
 31
0.0
  0
LINE
  5
ABE
330
A93
100
AcDbEntity
  8
P-0000
  6
Continuous
 62
     3
440
 16777216
370
    -2
100
AcDbLine
 10
135.1419578564793
 20
73.45117048536025
 30
0.0
 11
65.15863314259786
 21
73.45117048536026
 31
0.0
  0
LINE
  5
ABF
330
A93
100
AcDbEntity
  8
P-0000
  6
Continuous
 62
     3
440
 16777216
370
    -2
100
AcDbLine
 10
69.15863314259789
 20
179.1511704853602
 30
0.0
 11
69.15863314259786
 21
79.75117048536026
 31
0.0
  0
SOLID
  5
AC0
330
A93
100
AcDbEntity
  8
P-0000
  6
Continuous
 62
     3
440
 16777216
100
AcDbTrace
 10
68.1086331425979
 20
179.1511704853602
 30
0.0
 11
70.20863314259789
 21
179.1511704853602
 31
0.0
 12
69.15863314259789
 22
185.4511704853602
 32
0.0
 13
69.15863314259789
 23
185.4511704853602
 33
0.0
  0
SOLID
  5
AC1
330
A93
100
AcDbEntity
  8
P-0000
  6
Continuous
 62
     3
440
 16777216
100
AcDbTrace
 10
68.10863314259787
 20
79.75117048536026
 30
0.0
 11
70.20863314259786
 21
79.75117048536026
 31
0.0
 12
69.15863314259786
 22
73.45117048536026
 32
0.0
 13
69.15863314259786
 23
73.45117048536026
 33
0.0
  0
MTEXT
  5
AC2
330
A93
100
AcDbEntity
  8
P-0000
  6
Continuous
 62
     2
440
 16777216
100
AcDbMText
 10
58.15725518984195
 20
134.1381573360877
 30
0.0
 40
7.0
 41
0.0
 46
0.0
 71
     2
 72
     1
  1
112
 11
0.0000000000000001
 21
1.0
 31
0.0
 73
     1
 44
1.0
  0
POINT
  5
AC3
330
A93
100
AcDbEntity
  8
Defpoints
  6
Continuous
 62
     0
440
 16777216
100
AcDbPoint
 10
113.891957856479
 20
185.4511704853602
 30
0.0
  0
POINT
  5
AC4
330
A93
100
AcDbEntity
  8
Defpoints
  6
Continuous
 62
     0
440
 16777216
100
AcDbPoint
 10
135.1419578564793
 20
73.45117048536025
 30
0.0
  0
POINT
  5
AC5
330
A93
100
AcDbEntity
  8
Defpoints
  6
Continuous
 62
     0
440
 16777216
100
AcDbPoint
 10
69.15863314259786
 20
73.45117048536026
 30
0.0
  0
ENDBLK
  5
A95
330
A93
100
AcDbEntity
  8
0
100
AcDbBlockEnd
  0
BLOCK
  5
AA0
330
A9F
100
AcDbEntity
  8
0
100
AcDbBlockBegin
  2
*D18
 70
     1
 10
0.0
 20
0.0
 30
0.0
  3
*D18
  1

  0
LINE
  5
AC6
330
A9F
100
AcDbEntity
  8
P-0000
  6
Continuous
 62
     3
440
 16777216
370
    -2
100
AcDbLine
 10
123.391957856479
 20
377.7872877404603
 30
0.0
 11
88.8553547785345
 21
377.7872877404603
 31
0.0
  0
LINE
  5
AC7
330
A9F
100
AcDbEntity
  8
P-0000
  6
Continuous
 62
     3
440
 16777216
370
    -2
100
AcDbLine
 10
144.891957856479
 20
347.7872877404603
 30
0.0
 11
88.85535477853448
 21
347.7872877404603
 31
0.0
  0
LINE
  5
AC8
330
A9F
100
AcDbEntity
  8
P-0000
  6
Continuous
 62
     3
440
 16777216
370
    -2
100
AcDbLine
 10
92.85535477853448
 20
371.4872877404602
 30
0.0
 11
92.85535477853448
 21
354.0872877404603
 31
0.0
  0
SOLID
  5
AC9
330
A9F
100
AcDbEntity
  8
P-0000
  6
Continuous
 62
     3
440
 16777216
100
AcDbTrace
 10
91.8053547785345
 20
371.4872877404602
 30
0.0
 11
93.90535477853449
 21
371.4872877404602
 31
0.0
 12
92.85535477853448
 22
377.7872877404603
 32
0.0
 13
92.85535477853448
 23
377.7872877404603
 33
0.0
  0
SOLID
  5
ACA
330
A9F
100
AcDbEntity
  8
P-0000
  6
Continuous
 62
     3
440
 16777216
100
AcDbTrace
 10
91.8053547785345
 20
354.0872877404603
 30
0.0
 11
93.90535477853449
 21
354.0872877404603
 31
0.0
 12
92.85535477853448
 22
347.7872877404603
 32
0.0
 13
92.85535477853448
 23
347.7872877404603
 33
0.0
  0
MTEXT
  5
ACB
330
A9F
100
AcDbEntity
  8
P-0000
  6
Continuous
 62
     2
440
 16777216
100
AcDbMText
 10
81.85535477853443
 20
361.0328582608569
 30
0.0
 40
7.0
 41
0.0
 46
0.0
 71
     2
 72
     1
  1
30
 11
0.0000000000000001
 21
1.0
 31
0.0
 73
     1
 44
1.0
  0
POINT
  5
ACC
330
A9F
100
AcDbEntity
  8
Defpoints
  6
Continuous
 62
     0
440
 16777216
100
AcDbPoint
 10
123.391957856479
 20
377.7872877404603
 30
0.0
  0
POINT
  5
ACD
330
A9F
100
AcDbEntity
  8
Defpoints
  6
Continuous
 62
     0
440
 16777216
100
AcDbPoint
 10
144.891957856479
 20
347.7872877404603
 30
0.0
  0
POINT
  5
ACE
330
A9F
100
AcDbEntity
  8
Defpoints
  6
Continuous
 62
     0
440
 16777216
100
AcDbPoint
 10
92.85535477853448
 20
347.7872877404603
 30
0.0
  0
ENDBLK
  5
AA1
330
A9F
100
AcDbEntity
  8
0
100
AcDbBlockEnd
  0
BLOCK
  5
AD0
330
ACF
100
AcDbEntity
  8
0
100
AcDbBlockBegin
  2
*D19
 70
     1
 10
0.0
 20
0.0
 30
0.0
  3
*D19
  1

  0
LINE
  5
AD2
330
ACF
100
AcDbEntity
  8
P-0000
  6
Continuous
 62
     3
440
 16777216
370
    -2
100
AcDbLine
 10
145.891957856479
 20
340.5372877404603
 30
0.0
 11
145.891957856479
 21
406.930191271992
 31
0.0
  0
LINE
  5
AD3
330
ACF
100
AcDbEntity
  8
P-0000
  6
Continuous
 62
     3
440
 16777216
370
    -2
100
AcDbLine
 10
725.8919578564792
 20
341.7872877404603
 30
0.0
 11
725.8919578564792
 21
406.930191271992
 31
0.0
  0
LINE
  5
AD4
330
ACF
100
AcDbEntity
  8
P-0000
  6
Continuous
 62
     3
440
 16777216
370
    -2
100
AcDbLine
 10
152.1919578564791
 20
402.930191271992
 30
0.0
 11
719.5919578564792
 21
402.930191271992
 31
0.0
  0
SOLID
  5
AD5
330
ACF
100
AcDbEntity
  8
P-0000
  6
Continuous
 62
     3
440
 16777216
100
AcDbTrace
 10
152.1919578564791
 20
403.980191271992
 30
0.0
 11
152.1919578564791
 21
401.880191271992
 31
0.0
 12
145.891957856479
 22
402.930191271992
 32
0.0
 13
145.891957856479
 23
402.930191271992
 33
0.0
  0
SOLID
  5
AD6
330
ACF
100
AcDbEntity
  8
P-0000
  6
Continuous
 62
     3
440
 16777216
100
AcDbTrace
 10
719.5919578564792
 20
403.980191271992
 30
0.0
 11
719.5919578564792
 21
401.880191271992
 31
0.0
 12
725.8919578564792
 22
402.930191271992
 32
0.0
 13
725.8919578564792
 23
402.930191271992
 33
0.0
  0
MTEXT
  5
AD7
330
ACF
100
AcDbEntity
  8
P-0000
  6
Continuous
 62
     2
440
 16777216
100
AcDbMText
 10
435.8919578564791
 20
410.430191271992
 30
0.0
 40
7.0
 41
0.0
 46
0.0
 71
     5
 72
     1
  1
580
 73
     1
 44
1.0
  0
POINT
  5
AD8
330
ACF
100
AcDbEntity
  8
Defpoints
  6
Continuous
 62
     0
440
 16777216
100
AcDbPoint
 10
145.891957856479
 20
340.5372877404603
 30
0.0
  0
POINT
  5
AD9
330
ACF
100
AcDbEntity
  8
Defpoints
  6
Continuous
 62
     0
440
 16777216
100
AcDbPoint
 10
725.8919578564792
 20
341.7872877404603
 30
0.0
  0
POINT
  5
ADA
330
ACF
100
AcDbEntity
  8
Defpoints
  6
Continuous
 62
     0
440
 16777216
100
AcDbPoint
 10
725.8919578564792
 20
402.930191271992
 30
0.0
  0
ENDBLK
  5
AD1
330
ACF
100
AcDbEntity
  8
0
100
AcDbBlockEnd
  0
BLOCK
  5
ADC
330
ADB
100
AcDbEntity
  8
0
100
AcDbBlockBegin
  2
*D20
 70
     1
 10
0.0
 20
0.0
 30
0.0
  3
*D20
  1

  0
LINE
  5
ADE
330
ADB
100
AcDbEntity
  8
P-0000
  6
Continuous
 62
     3
440
 16777216
370
    -2
100
AcDbLine
 10
727.8919578564791
 20
346.7872877404603
 30
0.0
 11
727.8919578564791
 21
420.7685412028276
 31
0.0
  0
LINE
  5
ADF
330
ADB
100
AcDbEntity
  8
P-0000
  6
Continuous
 62
     3
440
 16777216
370
    -2
100
AcDbLine
 10
143.891957856479
 20
346.7872877404603
 30
0.0
 11
143.891957856479
 21
420.7685412028276
 31
0.0
  0
LINE
  5
AE0
330
ADB
100
AcDbEntity
  8
P-0000
  6
Continuous
 62
     3
440
 16777216
370
    -2
100
AcDbLine
 10
721.5919578564792
 20
416.7685412028276
 30
0.0
 11
150.191957856479
 21
416.7685412028276
 31
0.0
  0
SOLID
  5
AE1
330
ADB
100
AcDbEntity
  8
P-0000
  6
Continuous
 62
     3
440
 16777216
100
AcDbTrace
 10
721.5919578564792
 20
417.8185412028277
 30
0.0
 11
721.5919578564792
 21
415.7185412028276
 31
0.0
 12
727.8919578564791
 22
416.7685412028276
 32
0.0
 13
727.8919578564791
 23
416.7685412028276
 33
0.0
  0
SOLID
  5
AE2
330
ADB
100
AcDbEntity
  8
P-0000
  6
Continuous
 62
     3
440
 16777216
100
AcDbTrace
 10
150.191957856479
 20
417.8185412028277
 30
0.0
 11
150.191957856479
 21
415.7185412028276
 31
0.0
 12
143.891957856479
 22
416.7685412028276
 32
0.0
 13
143.891957856479
 23
416.7685412028276
 33
0.0
  0
MTEXT
  5
AE3
330
ADB
100
AcDbEntity
  8
P-0000
  6
Continuous
 62
     2
440
 16777216
100
AcDbMText
 10
435.8919578564791
 20
424.2685412028277
 30
0.0
 40
7.0
 41
0.0
 46
0.0
 71
     5
 72
     1
  1
584
 73
     1
 44
1.0
  0
POINT
  5
AE4
330
ADB
100
AcDbEntity
  8
Defpoints
  6
Continuous
 62
     0
440
 16777216
100
AcDbPoint
 10
727.8919578564791
 20
346.7872877404603
 30
0.0
  0
POINT
  5
AE5
330
ADB
100
AcDbEntity
  8
Defpoints
  6
Continuous
 62
     0
440
 16777216
100
AcDbPoint
 10
143.891957856479
 20
346.7872877404603
 30
0.0
  0
POINT
  5
AE6
330
ADB
100
AcDbEntity
  8
Defpoints
  6
Continuous
 62
     0
440
 16777216
100
AcDbPoint
 10
143.891957856479
 20
416.7685412028276
 30
0.0
  0
ENDBLK
  5
ADD
330
ADB
100
AcDbEntity
  8
0
100
AcDbBlockEnd
  0
BLOCK
  5
AE8
330
AE7
100
AcDbEntity
  8
0
100
AcDbBlockBegin
  2
*D21
 70
     1
 10
0.0
 20
0.0
 30
0.0
  3
*D21
  1

  0
LINE
  5
AEA
330
AE7
100
AcDbEntity
  8
P-0000
  6
Continuous
 62
     3
440
 16777216
370
    -2
100
AcDbLine
 10
758.391957856479
 20
351.7872877404603
 30
0.0
 11
758.391957856479
 21
434.6068932366793
 31
0.0
  0
LINE
  5
AEB
330
AE7
100
AcDbEntity
  8
P-0000
  6
Continuous
 62
     3
440
 16777216
370
    -2
100
AcDbLine
 10
113.391957856479
 20
351.7872877404603
 30
0.0
 11
113.391957856479
 21
434.6068932366793
 31
0.0
  0
LINE
  5
AEC
330
AE7
100
AcDbEntity
  8
P-0000
  6
Continuous
 62
     3
440
 16777216
370
    -2
100
AcDbLine
 10
752.091957856479
 20
430.6068932366793
 30
0.0
 11
119.691957856479
 21
430.6068932366793
 31
0.0
  0
SOLID
  5
AED
330
AE7
100
AcDbEntity
  8
P-0000
  6
Continuous
 62
     3
440
 16777216
100
AcDbTrace
 10
752.091957856479
 20
431.6568932366792
 30
0.0
 11
752.091957856479
 21
429.5568932366792
 31
0.0
 12
758.391957856479
 22
430.6068932366793
 32
0.0
 13
758.391957856479
 23
430.6068932366793
 33
0.0
  0
SOLID
  5
AEE
330
AE7
100
AcDbEntity
  8
P-0000
  6
Continuous
 62
     3
440
 16777216
100
AcDbTrace
 10
119.691957856479
 20
431.6568932366792
 30
0.0
 11
119.691957856479
 21
429.5568932366792
 31
0.0
 12
113.391957856479
 22
430.6068932366793
 32
0.0
 13
113.391957856479
 23
430.6068932366793
 33
0.0
  0
MTEXT
  5
AEF
330
AE7
100
AcDbEntity
  8
P-0000
  6
Continuous
 62
     2
440
 16777216
100
AcDbMText
 10
435.891957856479
 20
438.1068932366793
 30
0.0
 40
7.0
 41
0.0
 46
0.0
 71
     5
 72
     1
  1
645
 73
     1
 44
1.0
  0
POINT
  5
AF0
330
AE7
100
AcDbEntity
  8
Defpoints
  6
Continuous
 62
     0
440
 16777216
100
AcDbPoint
 10
758.391957856479
 20
351.7872877404603
 30
0.0
  0
POINT
  5
AF1
330
AE7
100
AcDbEntity
  8
Defpoints
  6
Continuous
 62
     0
440
 16777216
100
AcDbPoint
 10
113.391957856479
 20
351.7872877404603
 30
0.0
  0
POINT
  5
AF2
330
AE7
100
AcDbEntity
  8
Defpoints
  6
Continuous
 62
     0
440
 16777216
100
AcDbPoint
 10
113.391957856479
 20
430.6068932366793
 30
0.0
  0
ENDBLK
  5
AE9
330
AE7
100
AcDbEntity
  8
0
100
AcDbBlockEnd
  0
ENDSEC
  0
SECTION
  2
ENTITIES
  0
LINE
  5
8A6
330
1F
100
AcDbEntity
  8
0
  6
Continuous
 62
     7
100
AcDbLine
 10
113.391957856479
 20
334.7872877404603
 30
0.0
 11
113.391957856479
 21
332.7872877404602
 31
0.0
  0
LINE
  5
8A7
330
1F
100
AcDbEntity
  8
RUNDUNGEN
  6
Continuous
 62
     7
100
AcDbLine
 10
113.391957856479
 20
334.7872877404603
 30
0.0
 11
113.391957856479
 21
335.7872877404603
 31
0.0
  0
LINE
  5
8A8
102
{ACAD_REACTORS
330
A7A
102
}
330
1F
100
AcDbEntity
  8
0
  6
Continuous
 62
     7
100
AcDbLine
 10
113.391957856479
 20
335.7872877404603
 30
0.0
 11
113.391957856479
 21
367.7872877404603
 31
0.0
  0
LINE
  5
8A9
330
1F
100
AcDbEntity
  8
RUNDUNGEN
  6
Continuous
 62
     9
100
AcDbLine
 10
123.391957856479
 20
334.7872877404603
 30
0.0
 11
123.391957856479
 21
335.7872877404603
 31
0.0
  0
LINE
  5
8AA
330
1F
100
AcDbEntity
  8
RUNDUNGEN
  6
Continuous
 62
     7
100
AcDbLine
 10
143.891957856479
 20
326.7872877404602
 30
0.0
 11
143.891957856479
 21
334.7872877404603
 31
0.0
  0
LINE
  5
8AB
330
1F
100
AcDbEntity
  8
RUNDUNGEN
  6
Continuous
 62
     7
100
AcDbLine
 10
143.891957856479
 20
335.7872877404603
 30
0.0
 11
143.891957856479
 21
346.7872877404603
 31
0.0
  0
LINE
  5
8AC
330
1F
100
AcDbEntity
  8
0
  6
Continuous
 62
     7
100
AcDbLine
 10
145.5919578564792
 20
347.4958597729602
 30
0.0
 11
145.5919578564792
 21
348.6372877404602
 31
0.0
  0
LINE
  5
8AD
330
1F
100
AcDbEntity
  8
0
  6
Continuous
 62
     7
100
AcDbLine
 10
145.891957856479
 20
348.6692094882603
 30
0.0
 11
145.891957856479
 21
346.8613128890602
 31
0.0
  0
LINE
  5
8AE
102
{ACAD_REACTORS
330
A74
102
}
330
1F
100
AcDbEntity
  8
0
  6
Continuous
 62
     7
100
AcDbLine
 10
145.891957856479
 20
346.2872877404603
 30
0.0
 11
145.891957856479
 21
334.7872877404603
 31
0.0
  0
LINE
  5
8AF
330
1F
100
AcDbEntity
  8
RUNDUNGEN
  6
Continuous
 62
     7
100
AcDbLine
 10
145.891957856479
 20
326.7872877404602
 30
0.0
 11
145.891957856479
 21
334.7872877404603
 31
0.0
  0
LINE
  5
8B0
330
1F
100
AcDbEntity
  8
0
  6
Continuous
 62
     3
100
AcDbLine
 10
145.891957856479
 20
333.5321145456603
 30
0.0
 11
145.891957856479
 21
334.7872877404603
 31
0.0
  0
LINE
  5
8B1
330
1F
100
AcDbEntity
  8
RUNDUNGEN
  6
Continuous
 62
     7
100
AcDbLine
 10
145.891957856479
 20
336.7872877404603
 30
0.0
 11
145.891957856479
 21
346.7872877404603
 31
0.0
  0
LINE
  5
8B2
330
1F
100
AcDbEntity
  8
FASEN
  6
Continuous
 62
     3
100
AcDbLine
 10
156.8919578564793
 20
329.2299461441603
 30
0.0
 11
156.8919578564793
 21
328.4079007244603
 31
0.0
  0
LINE
  5
8B3
330
1F
100
AcDbEntity
  8
FASEN
  6
Continuous
 62
     7
100
AcDbLine
 10
156.8919578564793
 20
327.4095090539603
 30
0.0
 11
156.8919578564793
 21
328.4079007244603
 31
0.0
  0
LINE
  5
8B4
330
1F
100
AcDbEntity
  8
FASEN
  6
Continuous
 62
     7
100
AcDbLine
 10
159.3919578564789
 20
327.2677770850603
 30
0.0
 11
159.3919578564789
 21
328.2661687555603
 31
0.0
  0
LINE
  5
8B5
330
1F
100
AcDbEntity
  8
BEZUGSACHSEN
  6
Continuous
 62
     3
100
AcDbLine
 10
163.6599070488792
 20
328.9606554032602
 30
0.0
 11
163.6599070488792
 21
328.6771914654603
 31
0.0
  0
LINE
  5
8B6
330
1F
100
AcDbEntity
  8
BEZUGSACHSEN
  6
Continuous
 62
     9
100
AcDbLine
 10
165.391957856479
 20
329.7685851364603
 30
0.0
 11
165.391957856479
 21
329.6755831359603
 31
0.0
  0
LINE
  5
8B7
330
1F
100
AcDbEntity
  8
BEZUGSACHSEN
  6
Continuous
 62
     9
100
AcDbLine
 10
168.3919578564789
 20
329.6755831359603
 30
0.0
 11
168.3919578564789
 21
329.7685851364603
 31
0.0
  0
LINE
  5
8B8
330
1F
100
AcDbEntity
  8
BEZUGSACHSEN
  6
Continuous
 62
     3
100
AcDbLine
 10
170.1240086639791
 20
328.6771914654603
 30
0.0
 11
170.1240086639791
 21
328.9606554032602
 31
0.0
  0
LINE
  5
8B9
330
1F
100
AcDbEntity
  8
BEZUGSACHSEN
  6
Continuous
 62
     3
100
AcDbLine
 10
163.6599070488792
 20
328.9606554032602
 30
0.0
 11
163.6618632372792
 21
328.9666621827603
 31
0.0
  0
LINE
  5
8BA
330
1F
100
AcDbEntity
  8
BEZUGSACHSEN
  6
Continuous
 62
     3
100
AcDbLine
 10
183.6599070488793
 20
328.9606554032602
 30
0.0
 11
183.6599070488793
 21
328.6771914654603
 31
0.0
  0
LINE
  5
8BB
330
1F
100
AcDbEntity
  8
BEZUGSACHSEN
  6
Continuous
 62
     9
100
AcDbLine
 10
185.3919578564789
 20
329.7685851367603
 30
0.0
 11
185.3919578564789
 21
329.6755831359603
 31
0.0
  0
LINE
  5
8BC
330
1F
100
AcDbEntity
  8
BEZUGSACHSEN
  6
Continuous
 62
     9
100
AcDbLine
 10
188.391957856479
 20
329.6755831359603
 30
0.0
 11
188.391957856479
 21
329.7685851368603
 31
0.0
  0
LINE
  5
8BD
330
1F
100
AcDbEntity
  8
BEZUGSACHSEN
  6
Continuous
 62
     3
100
AcDbLine
 10
190.1240086639792
 20
328.6771914654603
 30
0.0
 11
190.1240086639792
 21
328.9606554032602
 31
0.0
  0
LINE
  5
8BE
330
1F
100
AcDbEntity
  8
BEZUGSACHSEN
  6
Continuous
 62
     3
100
AcDbLine
 10
183.6599070488793
 20
328.9606554032602
 30
0.0
 11
183.6618632372792
 21
328.9666621827603
 31
0.0
  0
LINE
  5
8BF
330
1F
100
AcDbEntity
  8
BEZUGSACHSEN
  6
Continuous
 62
     3
100
AcDbLine
 10
170.1220524755792
 20
328.9666621827603
 30
0.0
 11
170.1240086639791
 21
328.9606554032602
 31
0.0
  0
LINE
  5
8C0
330
1F
100
AcDbEntity
  8
0
  6
Continuous
 62
     3
100
AcDbLine
 10
201.8919578564791
 20
328.7126244576602
 30
0.0
 11
201.8919578564791
 21
328.9252224109603
 31
0.0
  0
LINE
  5
8C1
330
1F
100
AcDbEntity
  8
0
  6
Continuous
 62
     3
100
AcDbLine
 10
203.141957856479
 20
328.9252224109603
 30
0.0
 11
203.141957856479
 21
328.7126244576602
 31
0.0
  0
LINE
  5
8C2
330
1F
100
AcDbEntity
  8
BEZUGSACHSEN
  6
Continuous
 62
     3
100
AcDbLine
 10
190.1220524755792
 20
328.9666621827603
 30
0.0
 11
190.1240086639792
 21
328.9606554032602
 31
0.0
  0
LINE
  5
8C3
330
1F
100
AcDbEntity
  8
0
  6
Continuous
 62
     9
100
AcDbLine
 10
261.5039846555791
 20
329.3716781130603
 30
0.0
 11
261.5039846555791
 21
327.2677770850603
 31
0.0
  0
LINE
  5
8C4
330
1F
100
AcDbEntity
  8
0
  6
Continuous
 62
     9
100
AcDbLine
 10
261.7507405438792
 20
329.4025507092603
 30
0.0
 11
261.7507405438792
 21
328.2970413517602
 31
0.0
  0
LINE
  5
8C5
330
1F
100
AcDbEntity
  8
0
  6
Continuous
 62
     9
100
AcDbLine
 10
263.1620824433791
 20
329.7613421898603
 30
0.0
 11
263.1620824433791
 21
328.6558328323603
 31
0.0
  0
LINE
  5
8C6
330
1F
100
AcDbEntity
  8
0
  6
Continuous
 62
     9
100
AcDbLine
 10
264.1491059967792
 20
329.7613421898603
 30
0.0
 11
264.1491059967792
 21
328.6558328323603
 31
0.0
  0
LINE
  5
8C7
330
1F
100
AcDbEntity
  8
0
  6
Continuous
 62
     9
100
AcDbLine
 10
267.3361110589791
 20
328.9511414400603
 30
0.0
 11
267.3361110589791
 21
327.8456320826602
 31
0.0
  0
LINE
  5
8C8
330
1F
100
AcDbEntity
  8
0
  6
Continuous
 62
     9
100
AcDbLine
 10
267.8296228356791
 20
328.9511414400603
 30
0.0
 11
267.8296228356791
 21
327.8456320826602
 31
0.0
  0
LINE
  5
8C9
330
1F
100
AcDbEntity
  8
0
  6
Continuous
 62
     9
100
AcDbLine
 10
271.016627897979
 20
329.7613421898603
 30
0.0
 11
271.016627897979
 21
328.6558328323603
 31
0.0
  0
LINE
  5
8CA
330
1F
100
AcDbEntity
  8
0
  6
Continuous
 62
     9
100
AcDbLine
 10
272.0036514512792
 20
329.7613421898603
 30
0.0
 11
272.0036514512792
 21
328.6558328323603
 31
0.0
  0
LINE
  5
8CB
330
1F
100
AcDbEntity
  8
0
  6
Continuous
 62
     9
100
AcDbLine
 10
275.1906565135791
 20
328.9511414400603
 30
0.0
 11
275.1906565135791
 21
327.8456320826602
 31
0.0
  0
LINE
  5
8CC
330
1F
100
AcDbEntity
  8
0
  6
Continuous
 62
     9
100
AcDbLine
 10
275.6841682902791
 20
328.9511414400603
 30
0.0
 11
275.6841682902791
 21
327.8456320826602
 31
0.0
  0
LINE
  5
8CD
330
1F
100
AcDbEntity
  8
0
  6
Continuous
 62
     9
100
AcDbLine
 10
278.8711733524791
 20
329.7613421898603
 30
0.0
 11
278.8711733524791
 21
328.6558328323603
 31
0.0
  0
LINE
  5
8CE
330
1F
100
AcDbEntity
  8
0
  6
Continuous
 62
     9
100
AcDbLine
 10
279.8581969058793
 20
329.7613421898603
 30
0.0
 11
279.8581969058793
 21
328.6558328323603
 31
0.0
  0
LINE
  5
8CF
330
1F
100
AcDbEntity
  8
FASEN
  6
Continuous
 62
     3
100
AcDbLine
 10
283.4153358005793
 20
328.7153140107603
 30
0.0
 11
283.4153358005793
 21
327.8932685911603
 31
0.0
  0
LINE
  5
8D0
330
1F
100
AcDbEntity
  8
0
  6
Continuous
 62
     9
100
AcDbLine
 10
264.1491059967792
 20
328.6558328323603
 30
0.0
 11
263.9023501083791
 21
327.6883137579603
 31
0.0
  0
LINE
  5
8D1
330
1F
100
AcDbEntity
  8
0
  6
Continuous
 62
     9
100
AcDbLine
 10
267.3361110589791
 20
327.8456320826602
 30
0.0
 11
267.089355170679
 21
326.8781130082603
 31
0.0
  0
LINE
  5
8D2
330
1F
100
AcDbEntity
  8
0
  6
Continuous
 62
     9
100
AcDbLine
 10
272.0036514512792
 20
328.6558328323603
 30
0.0
 11
271.756895562979
 21
327.6883137579603
 31
0.0
  0
LINE
  5
8D3
330
1F
100
AcDbEntity
  8
0
  6
Continuous
 62
     9
100
AcDbLine
 10
275.1906565135791
 20
327.8456320826602
 30
0.0
 11
274.943900625179
 21
326.8781130082603
 31
0.0
  0
LINE
  5
8D4
330
1F
100
AcDbEntity
  8
0
  6
Continuous
 62
     9
100
AcDbLine
 10
279.8581969058793
 20
328.6558328323603
 30
0.0
 11
279.6114410174791
 21
327.6883137579603
 31
0.0
  0
LINE
  5
8D5
330
1F
100
AcDbEntity
  8
FASEN
  6
Continuous
 62
     7
100
AcDbLine
 10
280.7458857358792
 20
327.3999151067603
 30
0.0
 11
280.9926416241791
 21
328.3674341811603
 31
0.0
  0
LINE
  5
8D6
330
1F
100
AcDbEntity
  8
0
  6
Continuous
 62
     9
100
AcDbLine
 10
261.7507405438792
 20
328.2970413517602
 30
0.0
 11
261.9974964322793
 21
327.3295222773603
 31
0.0
  0
LINE
  5
8D7
330
1F
100
AcDbEntity
  8
0
  6
Continuous
 62
     9
100
AcDbLine
 10
263.1620824433791
 20
328.6558328323603
 30
0.0
 11
263.4088383317791
 21
327.6883137579603
 31
0.0
  0
LINE
  5
8D8
330
1F
100
AcDbEntity
  8
0
  6
Continuous
 62
     9
100
AcDbLine
 10
267.8296228356791
 20
327.8456320826602
 30
0.0
 11
268.0763787239793
 21
326.8781130082603
 31
0.0
  0
LINE
  5
8D9
330
1F
100
AcDbEntity
  8
0
  6
Continuous
 62
     9
100
AcDbLine
 10
271.016627897979
 20
328.6558328323603
 30
0.0
 11
271.263383786279
 21
327.6883137579603
 31
0.0
  0
LINE
  5
8DA
330
1F
100
AcDbEntity
  8
0
  6
Continuous
 62
     9
100
AcDbLine
 10
275.6841682902791
 20
327.8456320826602
 30
0.0
 11
275.9309241785792
 21
326.8781130082603
 31
0.0
  0
LINE
  5
8DB
330
1F
100
AcDbEntity
  8
0
  6
Continuous
 62
     9
100
AcDbLine
 10
278.8711733524791
 20
328.6558328323603
 30
0.0
 11
279.1179292408792
 21
327.6883137579603
 31
0.0
  0
LINE
  5
8DC
330
1F
100
AcDbEntity
  8
FASEN
  6
Continuous
 62
     7
100
AcDbLine
 10
283.1685799122793
 20
326.9257495167602
 30
0.0
 11
283.4153358005793
 21
327.8932685911603
 31
0.0
  0
LINE
  5
8DD
330
1F
100
AcDbEntity
  8
0
  6
Continuous
 62
     7
100
AcDbLine
 10
333.7919578564793
 20
292.5872877404603
 30
0.0
 11
333.7919578564793
 21
325.7701960564602
 31
0.0
  0
LINE
  5
8DE
330
1F
100
AcDbEntity
  8
0
  6
Continuous
 62
     3
100
AcDbLine
 10
334.8919578564791
 20
325.7701960564602
 30
0.0
 11
334.8919578564791
 21
327.7653632954602
 31
0.0
  0
LINE
  5
8DF
330
1F
100
AcDbEntity
  8
RUNDUNGEN
  6
Continuous
 62
     9
100
AcDbLine
 10
362.891957856479
 20
280.5872877404603
 30
0.0
 11
362.8919578565792
 21
292.5872877404603
 31
0.0
  0
LINE
  5
8E0
330
1F
100
AcDbEntity
  8
0
  6
Continuous
 62
     9
100
AcDbLine
 10
362.891957856479
 20
292.5872877404603
 30
0.0
 11
362.891957856479
 21
325.7701960564602
 31
0.0
  0
LINE
  5
8E1
330
1F
100
AcDbEntity
  8
RUNDUNGEN
  6
Continuous
 62
     9
100
AcDbLine
 10
362.8920107753791
 20
325.7701960550603
 30
0.0
 11
362.891957856479
 21
331.4656700903603
 31
0.0
  0
LINE
  5
8E2
330
1F
100
AcDbEntity
  8
TEIL_STARTBEZUEGE
  6
CENTER
 62
     7
100
AcDbLine
 10
377.891957856479
 20
305.5872877404603
 30
0.0
 11
377.891957856479
 21
302.5871877404603
 31
0.0
  0
LINE
  5
8E3
330
1F
100
AcDbEntity
  8
TEIL_STARTBEZUEGE
  6
CENTER
 62
     7
100
AcDbLine
 10
377.891957856479
 20
305.5872877404603
 30
0.0
 11
377.891957856479
 21
308.5873877404603
 31
0.0
  0
LINE
  5
8E4
330
1F
100
AcDbEntity
  8
0
  6
Continuous
 62
     7
100
AcDbLine
 10
604.694560542179
 20
326.8781130082603
 30
0.0
 11
607.8815656044792
 21
327.6883137579603
 31
0.0
  0
LINE
  5
8E5
330
1F
100
AcDbEntity
  8
0
  6
Continuous
 62
     7
100
AcDbLine
 10
604.694560542179
 20
327.9836223656602
 30
0.0
 11
607.8815656044792
 21
328.7938231154602
 31
0.0
  0
LINE
  5
8E6
330
1F
100
AcDbEntity
  8
0
  6
Continuous
 62
     7
100
AcDbLine
 10
596.8400150876791
 20
326.8781130082603
 30
0.0
 11
600.027020149879
 21
327.6883137579603
 31
0.0
  0
LINE
  5
8E7
330
1F
100
AcDbEntity
  8
0
  6
Continuous
 62
     3
100
AcDbLine
 10
604.4478046538791
 20
328.9511414400603
 30
0.0
 11
607.634809716179
 21
329.7613421898603
 31
0.0
  0
LINE
  5
8E8
330
1F
100
AcDbEntity
  8
RUNDUNGEN
  6
Continuous
 62
     7
100
AcDbLine
 10
525.991957490379
 20
280.5872877404603
 30
0.0
 11
445.6521580196793
 21
280.5872877404603
 31
0.0
  0
LINE
  5
8E9
330
1F
100
AcDbEntity
  8
RUNDUNGEN
  6
Continuous
 62
     7
100
AcDbLine
 10
426.1317576889791
 20
280.5872877404603
 30
0.0
 11
345.791958222479
 21
280.5872877404603
 31
0.0
  0
LINE
  5
8EA
330
1F
100
AcDbEntity
  8
0
  6
Continuous
 62
     7
100
AcDbLine
 10
267.089355170679
 20
326.8781130082603
 30
0.0
 11
263.9023501083791
 21
327.6883137579603
 31
0.0
  0
LINE
  5
8EB
330
1F
100
AcDbEntity
  8
0
  6
Continuous
 62
     3
100
AcDbLine
 10
267.3361110589791
 20
327.8456320826602
 30
0.0
 11
264.1491059967792
 21
328.6558328323603
 31
0.0
  0
LINE
  5
8EC
330
1F
100
AcDbEntity
  8
0
  6
Continuous
 62
     7
100
AcDbLine
 10
274.943900625179
 20
326.8781130082603
 30
0.0
 11
271.756895562979
 21
327.6883137579603
 31
0.0
  0
LINE
  5
8ED
330
1F
100
AcDbEntity
  8
0
  6
Continuous
 62
     3
100
AcDbLine
 10
267.3361110589791
 20
328.9511414400603
 30
0.0
 11
264.1491059967792
 21
329.7613421898603
 31
0.0
  0
LINE
  5
8EE
330
1F
100
AcDbEntity
  8
FASEN
  6
Continuous
 62
     3
100
AcDbLine
 10
283.4153358005793
 20
328.7153140107603
 30
0.0
 11
280.9926416241791
 21
329.4729435386603
 31
0.0
  0
LINE
  5
8EF
330
1F
100
AcDbEntity
  8
0
  6
Continuous
 62
     7
100
AcDbLine
 10
596.8400150876791
 20
327.9836223656602
 30
0.0
 11
600.027020149879
 21
328.7938231154602
 31
0.0
  0
LINE
  5
8F0
330
1F
100
AcDbEntity
  8
FASEN
  6
Continuous
 62
     7
100
AcDbLine
 10
591.0380299769791
 20
327.3999151067603
 30
0.0
 11
592.1724746953791
 21
327.6883137579603
 31
0.0
  0
LINE
  5
8F1
330
1F
100
AcDbEntity
  8
0
  6
Continuous
 62
     3
100
AcDbLine
 10
596.5932591992791
 20
328.9511414400603
 30
0.0
 11
599.7802642615791
 21
329.7613421898603
 31
0.0
  0
LINE
  5
8F2
330
1F
100
AcDbEntity
  8
FASEN
  6
Continuous
 62
     7
100
AcDbLine
 10
591.0380299769791
 20
328.5054244642603
 30
0.0
 11
592.1724746953791
 21
328.7938231154602
 31
0.0
  0
LINE
  5
8F3
330
1F
100
AcDbEntity
  8
FASEN
  6
Continuous
 62
     3
100
AcDbLine
 10
590.791274088679
 20
329.4729435386603
 30
0.0
 11
591.925718807079
 21
329.7613421898603
 31
0.0
  0
LINE
  5
8F4
330
1F
100
AcDbEntity
  8
FASEN
  6
Continuous
 62
     7
100
AcDbLine
 10
588.615335800579
 20
326.9257495167602
 30
0.0
 11
591.0380299769791
 21
327.3999151067603
 31
0.0
  0
LINE
  5
8F5
330
1F
100
AcDbEntity
  8
0
  6
Continuous
 62
     9
100
AcDbLine
 10
421.0244524985791
 20
292.5872877404603
 30
0.0
 11
450.7594632101792
 21
292.5872877404603
 31
0.0
  0
LINE
  5
8F6
330
1F
100
AcDbEntity
  8
RUNDUNGEN
  6
Continuous
 62
     9
100
AcDbLine
 10
537.991957856479
 20
292.5872877404603
 30
0.0
 11
458.325347563579
 21
292.5872812830603
 31
0.0
  0
LINE
  5
8F7
330
1F
100
AcDbEntity
  8
RUNDUNGEN
  6
Continuous
 62
     9
100
AcDbLine
 10
413.458568100979
 20
292.5872813824602
 30
0.0
 11
333.7919578564793
 21
292.5872877404603
 31
0.0
  0
LINE
  5
8F8
330
1F
100
AcDbEntity
  8
TEIL_STARTBEZUEGE
  6
CENTER
 62
     7
100
AcDbLine
 10
435.891957856479
 20
303.5872877404603
 30
0.0
 11
445.7855321033791
 21
303.5872877404603
 31
0.0
  0
LINE
  5
8F9
330
1F
100
AcDbEntity
  8
TEIL_STARTBEZUEGE
  6
CENTER
 62
     7
100
AcDbLine
 10
435.891957856479
 20
303.5872877404603
 30
0.0
 11
425.998383609579
 21
303.5872877404603
 31
0.0
  0
LINE
  5
8FA
330
1F
100
AcDbEntity
  8
TEIL_STARTBEZUEGE
  6
CENTER
 62
     7
100
AcDbLine
 10
377.891957856479
 20
305.5872877404603
 30
0.0
 11
380.8920578564793
 21
305.5872877404603
 31
0.0
  0
LINE
  5
8FB
330
1F
100
AcDbEntity
  8
TEIL_STARTBEZUEGE
  6
CENTER
 62
     7
100
AcDbLine
 10
377.891957856479
 20
305.5872877404603
 30
0.0
 11
374.8918578564791
 21
305.5872877404603
 31
0.0
  0
LINE
  5
8FC
330
1F
100
AcDbEntity
  8
FASEN
  6
Continuous
 62
     7
100
AcDbLine
 10
283.1685799122793
 20
326.9257495167602
 30
0.0
 11
280.7458857358792
 21
327.3999151067603
 31
0.0
  0
LINE
  5
8FD
330
1F
100
AcDbEntity
  8
FASEN
  6
Continuous
 62
     3
100
AcDbLine
 10
280.9926416241791
 20
328.3674341811603
 30
0.0
 11
283.4153358005793
 21
327.8932685911603
 31
0.0
  0
LINE
  5
8FE
330
1F
100
AcDbEntity
  8
0
  6
Continuous
 62
     3
100
AcDbLine
 10
275.1906565135791
 20
327.8456320826602
 30
0.0
 11
272.0036514512792
 21
328.6558328323603
 31
0.0
  0
LINE
  5
8FF
330
1F
100
AcDbEntity
  8
FASEN
  6
Continuous
 62
     7
100
AcDbLine
 10
280.7458857358792
 20
327.3999151067603
 30
0.0
 11
279.6114410174791
 21
327.6883137579603
 31
0.0
  0
LINE
  5
900
330
1F
100
AcDbEntity
  8
0
  6
Continuous
 62
     3
100
AcDbLine
 10
275.1906565135791
 20
328.9511414400603
 30
0.0
 11
272.0036514512792
 21
329.7613421898603
 31
0.0
  0
LINE
  5
901
330
1F
100
AcDbEntity
  8
FASEN
  6
Continuous
 62
     3
100
AcDbLine
 10
280.9926416241791
 20
328.3674341811603
 30
0.0
 11
279.8581969058793
 21
328.6558328323603
 31
0.0
  0
LINE
  5
902
330
1F
100
AcDbEntity
  8
FASEN
  6
Continuous
 62
     3
100
AcDbLine
 10
280.9926416241791
 20
329.4729435386603
 30
0.0
 11
279.8581969058793
 21
329.7613421898603
 31
0.0
  0
LINE
  5
903
330
1F
100
AcDbEntity
  8
TEIL_STARTBEZUEGE
  6
CENTER
 62
     7
100
AcDbLine
 10
435.891957856479
 20
303.5872877404603
 30
0.0
 11
435.891957856479
 21
293.6937134935602
 31
0.0
  0
LINE
  5
904
330
1F
100
AcDbEntity
  8
TEIL_STARTBEZUEGE
  6
CENTER
 62
     7
100
AcDbLine
 10
435.891957856479
 20
303.5872877404603
 30
0.0
 11
435.891957856479
 21
313.4808619873603
 31
0.0
  0
LINE
  5
905
330
1F
100
AcDbEntity
  8
FASEN
  6
Continuous
 62
     7
100
AcDbLine
 10
712.3919578564791
 20
327.2677770850603
 30
0.0
 11
714.8919578564791
 21
327.4095090539603
 31
0.0
  0
LINE
  5
906
330
1F
100
AcDbEntity
  8
0
  6
Continuous
 62
     7
100
AcDbLine
 10
333.7919578564793
 20
325.7701960564602
 30
0.0
 11
424.391553370579
 21
325.7701960564602
 31
0.0
  0
LINE
  5
907
330
1F
100
AcDbEntity
  8
0
  6
Continuous
 62
     7
100
AcDbLine
 10
447.3923623411791
 20
325.7701960564602
 30
0.0
 11
537.991957856479
 21
325.7701960564602
 31
0.0
  0
LINE
  5
908
330
1F
100
AcDbEntity
  8
0
  6
Continuous
 62
     7
100
AcDbLine
 10
727.8919578564791
 20
326.7872877404602
 30
0.0
 11
725.8919578564792
 21
326.7872877404602
 31
0.0
  0
LINE
  5
909
330
1F
100
AcDbEntity
  8
0
  6
Continuous
 62
     7
100
AcDbLine
 10
145.891957856479
 20
326.7872877404602
 30
0.0
 11
143.891957856479
 21
326.7872877404602
 31
0.0
  0
LINE
  5
90A
330
1F
100
AcDbEntity
  8
FASEN
  6
Continuous
 62
     7
100
AcDbLine
 10
610.2799310572791
 20
327.2677770850603
 30
0.0
 11
712.3919578564791
 21
327.2677770850603
 31
0.0
  0
LINE
  5
90B
330
1F
100
AcDbEntity
  8
FASEN
  6
Continuous
 62
     7
100
AcDbLine
 10
261.5039846555791
 20
327.2677770850603
 30
0.0
 11
159.3919578564789
 21
327.2677770850603
 31
0.0
  0
LINE
  5
90C
330
1F
100
AcDbEntity
  8
FASEN
  6
Continuous
 62
     3
100
AcDbLine
 10
261.5039846555791
 20
328.2661687555603
 30
0.0
 11
159.3919578564789
 21
328.2661687555603
 31
0.0
  0
LINE
  5
90D
330
1F
100
AcDbEntity
  8
FASEN
  6
Continuous
 62
     7
100
AcDbLine
 10
610.2799310572791
 20
328.3732864425602
 30
0.0
 11
712.3919578564791
 21
328.3732864425602
 31
0.0
  0
LINE
  5
90E
330
1F
100
AcDbEntity
  8
RUNDUNGEN
  6
Continuous
 62
     9
100
AcDbLine
 10
143.891957856479
 20
328.5540338089603
 30
0.0
 11
145.891957856479
 21
328.5540338089603
 31
0.0
  0
LINE
  5
90F
330
1F
100
AcDbEntity
  8
RUNDUNGEN
  6
Continuous
 62
     9
100
AcDbLine
 10
725.8919578564792
 20
328.5540338089603
 30
0.0
 11
727.8919578564791
 21
328.5540338089603
 31
0.0
  0
LINE
  5
910
330
1F
100
AcDbEntity
  8
FASEN
  6
Continuous
 62
     3
100
AcDbLine
 10
610.2799310572791
 20
329.3716781130603
 30
0.0
 11
712.3919578564791
 21
329.3716781130603
 31
0.0
  0
LINE
  5
911
330
1F
100
AcDbEntity
  8
FASEN
  6
Continuous
 62
     3
100
AcDbLine
 10
261.5039846555791
 20
329.3716781130603
 30
0.0
 11
189.810822901279
 21
329.3716781130603
 31
0.0
  0
LINE
  5
912
330
1F
100
AcDbEntity
  8
FASEN
  6
Continuous
 62
     3
100
AcDbLine
 10
183.9732893709789
 20
329.3716781130603
 30
0.0
 11
169.8108229012789
 21
329.3716781130603
 31
0.0
  0
LINE
  5
913
330
1F
100
AcDbEntity
  8
FASEN
  6
Continuous
 62
     3
100
AcDbLine
 10
163.973289370979
 20
329.3716781130603
 30
0.0
 11
159.3919578564789
 21
329.3716781130603
 31
0.0
  0
LINE
  5
914
330
1F
100
AcDbEntity
  8
RUNDUNGEN
  6
Continuous
 62
     9
100
AcDbLine
 10
508.8918215695792
 20
329.4688867492603
 30
0.0
 11
362.8921086406791
 21
329.4688867492603
 31
0.0
  0
LINE
  5
915
330
1F
100
AcDbEntity
  8
RUNDUNGEN
  6
Continuous
 62
     3
100
AcDbLine
 10
725.8919578564792
 20
329.7685851360603
 30
0.0
 11
707.258194751679
 21
329.7685851357603
 31
0.0
  0
LINE
  5
916
330
1F
100
AcDbEntity
  8
RUNDUNGEN
  6
Continuous
 62
     3
100
AcDbLine
 10
702.5256532858791
 20
329.7685851356602
 30
0.0
 11
687.258194752379
 21
329.7685851353602
 31
0.0
  0
LINE
  5
917
330
1F
100
AcDbEntity
  8
RUNDUNGEN
  6
Continuous
 62
     3
100
AcDbLine
 10
682.525653285179
 20
329.7685851352603
 30
0.0
 11
608.6218332694791
 21
329.7685851339603
 31
0.0
  0
LINE
  5
918
330
1F
100
AcDbEntity
  8
RUNDUNGEN
  6
Continuous
 62
     3
100
AcDbLine
 10
607.634809716179
 20
329.7685851339603
 30
0.0
 11
600.767287814979
 21
329.7685851338603
 31
0.0
  0
LINE
  5
919
330
1F
100
AcDbEntity
  8
RUNDUNGEN
  6
Continuous
 62
     3
100
AcDbLine
 10
599.7802642615791
 20
329.7685851337603
 30
0.0
 11
592.912742360379
 21
329.7685851336603
 31
0.0
  0
LINE
  5
91A
330
1F
100
AcDbEntity
  8
RUNDUNGEN
  6
Continuous
 62
     3
100
AcDbLine
 10
591.925718807079
 20
329.7685851336603
 30
0.0
 11
585.3502039396071
 21
329.7685851335447
 31
0.0
  0
LINE
  5
91B
330
1F
100
AcDbEntity
  8
RUNDUNGEN
  6
Continuous
 62
     3
100
AcDbLine
 10
585.3502039396071
 20
329.7685851335447
 30
0.0
 11
538.8917435869791
 21
329.7685851326603
 31
0.0
  0
LINE
  5
91C
330
1F
100
AcDbEntity
  8
RUNDUNGEN
  6
Continuous
 62
     3
100
AcDbLine
 10
332.892172131579
 20
329.7685851394602
 30
0.0
 11
321.097237457776
 21
329.7685851392452
 31
0.0
  0
LINE
  5
91D
330
1F
100
AcDbEntity
  8
RUNDUNGEN
  6
Continuous
 62
     3
100
AcDbLine
 10
321.097237457776
 20
329.7685851392452
 30
0.0
 11
145.891957856479
 21
329.7685851360603
 31
0.0
  0
LINE
  5
91E
330
1F
100
AcDbEntity
  8
RUNDUNGEN
  6
Continuous
 62
     9
100
AcDbLine
 10
143.891957856479
 20
330.5508171501602
 30
0.0
 11
145.891957856479
 21
330.5508171501602
 31
0.0
  0
LINE
  5
91F
330
1F
100
AcDbEntity
  8
RUNDUNGEN
  6
Continuous
 62
     9
100
AcDbLine
 10
725.8919578564792
 20
330.5508171501602
 30
0.0
 11
727.8919578564791
 21
330.5508171501602
 31
0.0
  0
LINE
  5
920
330
1F
100
AcDbEntity
  8
FASEN
  6
Continuous
 62
     7
100
AcDbLine
 10
159.3919578564789
 20
327.2677770850603
 30
0.0
 11
156.8919578564793
 21
327.4095090539603
 31
0.0
  0
LINE
  5
921
330
1F
100
AcDbEntity
  8
FASEN
  6
Continuous
 62
     3
100
AcDbLine
 10
156.8919578564793
 20
328.4079007244603
 30
0.0
 11
159.3919578564789
 21
328.2661687555603
 31
0.0
  0
LINE
  5
922
330
1F
100
AcDbEntity
  8
FASEN
  6
Continuous
 62
     3
100
AcDbLine
 10
159.3919578564789
 20
329.3716781130603
 30
0.0
 11
156.8919578564793
 21
329.2299461441603
 31
0.0
  0
LINE
  5
923
330
1F
100
AcDbEntity
  8
RUNDUNGEN
  6
Continuous
 62
     9
100
AcDbLine
 10
508.8919578564791
 20
331.4656700903603
 30
0.0
 11
362.891957856479
 21
331.4656700903603
 31
0.0
  0
LINE
  5
924
330
1F
100
AcDbEntity
  8
0
  6
Continuous
 62
     9
100
AcDbLine
 10
725.8919578564792
 20
331.5353312045602
 30
0.0
 11
585.3502039396071
 21
331.5353312045602
 31
0.0
  0
LINE
  5
925
330
1F
100
AcDbEntity
  8
0
  6
Continuous
 62
     9
100
AcDbLine
 10
585.3502039396071
 20
331.5353312045602
 30
0.0
 11
321.0972374577759
 21
331.5353312045603
 31
0.0
  0
LINE
  5
926
330
1F
100
AcDbEntity
  8
0
  6
Continuous
 62
     9
100
AcDbLine
 10
321.0972374577759
 20
331.5353312045603
 30
0.0
 11
145.891957856479
 21
331.5353312045602
 31
0.0
  0
LINE
  5
927
330
1F
100
AcDbEntity
  8
0
  6
Continuous
 62
     7
100
AcDbLine
 10
113.391957856479
 20
332.7872877404602
 30
0.0
 11
143.891957856479
 21
332.7872877404602
 31
0.0
  0
LINE
  5
928
330
1F
100
AcDbEntity
  8
0
  6
Continuous
 62
     7
100
AcDbLine
 10
727.8919578564791
 20
332.7872877404602
 30
0.0
 11
758.391957856479
 21
332.7872877404602
 31
0.0
  0
LINE
  5
929
330
1F
100
AcDbEntity
  8
0
  6
Continuous
 62
     9
100
AcDbLine
 10
725.8919578564792
 20
333.5321145456603
 30
0.0
 11
585.3502039396071
 21
333.5321145456603
 31
0.0
  0
LINE
  5
92A
330
1F
100
AcDbEntity
  8
0
  6
Continuous
 62
     9
100
AcDbLine
 10
585.3502039396071
 20
333.5321145456603
 30
0.0
 11
321.0972374577759
 21
333.5321145456603
 31
0.0
  0
LINE
  5
92B
330
1F
100
AcDbEntity
  8
0
  6
Continuous
 62
     9
100
AcDbLine
 10
321.0972374577759
 20
333.5321145456603
 30
0.0
 11
145.891957856479
 21
333.5321145456603
 31
0.0
  0
LINE
  5
92C
330
1F
100
AcDbEntity
  8
RUNDUNGEN
  6
Continuous
 62
     7
100
AcDbLine
 10
758.391957856479
 20
334.7872877404603
 30
0.0
 11
725.8919578564792
 21
334.7872877404603
 31
0.0
  0
LINE
  5
92D
330
1F
100
AcDbEntity
  8
0
  6
Continuous
 62
     3
100
AcDbLine
 10
725.8919578564792
 20
334.7872877404603
 30
0.0
 11
585.3502039396071
 21
334.7872877404602
 31
0.0
  0
LINE
  5
92E
330
1F
100
AcDbEntity
  8
0
  6
Continuous
 62
     3
100
AcDbLine
 10
585.3502039396071
 20
334.7872877404602
 30
0.0
 11
321.0972374577759
 21
334.7872877404603
 31
0.0
  0
LINE
  5
92F
330
1F
100
AcDbEntity
  8
0
  6
Continuous
 62
     3
100
AcDbLine
 10
321.0972374577759
 20
334.7872877404603
 30
0.0
 11
145.891957856479
 21
334.7872877404603
 31
0.0
  0
LINE
  5
930
330
1F
100
AcDbEntity
  8
RUNDUNGEN
  6
Continuous
 62
     7
100
AcDbLine
 10
145.891957856479
 20
334.7872877404603
 30
0.0
 11
113.391957856479
 21
334.7872877404603
 31
0.0
  0
LINE
  5
931
330
1F
100
AcDbEntity
  8
RUNDUNGEN
  6
Continuous
 62
     7
100
AcDbLine
 10
725.8919578564792
 20
335.7872877404603
 30
0.0
 11
758.391957856479
 21
335.7872877404603
 31
0.0
  0
LINE
  5
932
330
1F
100
AcDbEntity
  8
0
  6
Continuous
 62
     7
100
AcDbLine
 10
725.8919578564792
 20
335.7872877404603
 30
0.0
 11
585.3502039396071
 21
335.7872877404603
 31
0.0
  0
LINE
  5
933
330
1F
100
AcDbEntity
  8
0
  6
Continuous
 62
     7
100
AcDbLine
 10
585.3502039396071
 20
335.7872877404603
 30
0.0
 11
321.0972374577759
 21
335.7872877404603
 31
0.0
  0
LINE
  5
934
330
1F
100
AcDbEntity
  8
0
  6
Continuous
 62
     7
100
AcDbLine
 10
321.0972374577759
 20
335.7872877404603
 30
0.0
 11
145.891957856479
 21
335.7872877404603
 31
0.0
  0
LINE
  5
935
330
1F
100
AcDbEntity
  8
RUNDUNGEN
  6
Continuous
 62
     7
100
AcDbLine
 10
145.891957856479
 20
335.7872877404603
 30
0.0
 11
113.391957856479
 21
335.7872877404603
 31
0.0
  0
LINE
  5
936
330
1F
100
AcDbEntity
  8
0
  6
Continuous
 62
     9
100
AcDbLine
 10
725.8919578564792
 20
336.7872877404603
 30
0.0
 11
585.3502039396071
 21
336.7872877404602
 31
0.0
  0
LINE
  5
937
330
1F
100
AcDbEntity
  8
0
  6
Continuous
 62
     9
100
AcDbLine
 10
585.3502039396071
 20
336.7872877404602
 30
0.0
 11
321.0972374577759
 21
336.7872877404603
 31
0.0
  0
LINE
  5
938
330
1F
100
AcDbEntity
  8
0
  6
Continuous
 62
     9
100
AcDbLine
 10
321.0972374577759
 20
336.7872877404603
 30
0.0
 11
145.891957856479
 21
336.7872877404603
 31
0.0
  0
LINE
  5
939
330
1F
100
AcDbEntity
  8
0
  6
Continuous
 62
     9
100
AcDbLine
 10
725.8919578564792
 20
346.2872877404603
 30
0.0
 11
585.3502039396071
 21
346.2872877404603
 31
0.0
  0
LINE
  5
93A
330
1F
100
AcDbEntity
  8
0
  6
Continuous
 62
     9
100
AcDbLine
 10
585.3502039396071
 20
346.2872877404603
 30
0.0
 11
321.0972374577759
 21
346.2872877404603
 31
0.0
  0
LINE
  5
93B
330
1F
100
AcDbEntity
  8
0
  6
Continuous
 62
     9
100
AcDbLine
 10
321.0972374577759
 20
346.2872877404603
 30
0.0
 11
145.891957856479
 21
346.2872877404603
 31
0.0
  0
LINE
  5
93C
330
1F
100
AcDbEntity
  8
0
  6
Continuous
 62
     7
100
AcDbLine
 10
725.8919578564792
 20
347.7872877404603
 30
0.0
 11
585.3502039396071
 21
347.7872877404603
 31
0.0
  0
LINE
  5
93D
330
1F
100
AcDbEntity
  8
0
  6
Continuous
 62
     7
100
AcDbLine
 10
585.3502039396071
 20
347.7872877404603
 30
0.0
 11
321.0972374577759
 21
347.7872877404603
 31
0.0
  0
LINE
  5
93E
330
1F
100
AcDbEntity
  8
0
  6
Continuous
 62
     7
100
AcDbLine
 10
321.0972374577759
 20
347.7872877404603
 30
0.0
 11
145.891957856479
 21
347.7872877404603
 31
0.0
  0
LINE
  5
93F
330
1F
100
AcDbEntity
  8
0
  6
Continuous
 62
     9
100
AcDbLine
 10
145.741957856479
 20
348.7872877404603
 30
0.0
 11
321.097237457776
 21
348.7872877404602
 31
0.0
  0
LINE
  5
940
330
1F
100
AcDbEntity
  8
0
  6
Continuous
 62
     9
100
AcDbLine
 10
321.097237457776
 20
348.7872877404602
 30
0.0
 11
585.3502039396071
 21
348.7872877404603
 31
0.0
  0
LINE
  5
941
330
1F
100
AcDbEntity
  8
0
  6
Continuous
 62
     9
100
AcDbLine
 10
585.3502039396071
 20
348.7872877404603
 30
0.0
 11
726.041957856479
 21
348.7872877404603
 31
0.0
  0
LINE
  5
942
330
1F
100
AcDbEntity
  8
FASEN
  6
Continuous
 62
     7
100
AcDbLine
 10
714.8919578564791
 20
328.2315544735603
 30
0.0
 11
712.3919578564791
 21
328.3732864425602
 31
0.0
  0
LINE
  5
943
330
1F
100
AcDbEntity
  8
FASEN
  6
Continuous
 62
     3
100
AcDbLine
 10
712.3919578564791
 20
329.3716781130603
 30
0.0
 11
714.8919578564791
 21
329.2299461441603
 31
0.0
  0
LINE
  5
944
330
1F
100
AcDbEntity
  8
FASEN
  6
Continuous
 62
     3
100
AcDbLine
 10
588.3685799122791
 20
328.7153140107603
 30
0.0
 11
590.791274088679
 21
329.4729435386603
 31
0.0
  0
LINE
  5
945
330
1F
100
AcDbEntity
  8
FASEN
  6
Continuous
 62
     7
100
AcDbLine
 10
591.0380299769791
 20
328.5054244642603
 30
0.0
 11
588.615335800579
 21
327.7477949363603
 31
0.0
  0
LINE
  5
946
330
1F
100
AcDbEntity
  8
0
  6
Continuous
 62
     7
100
AcDbLine
 10
279.1179292408792
 20
327.6883137579603
 30
0.0
 11
275.9309241785792
 21
326.8781130082603
 31
0.0
  0
LINE
  5
947
330
1F
100
AcDbEntity
  8
0
  6
Continuous
 62
     3
100
AcDbLine
 10
278.8711733524791
 20
328.6558328323603
 30
0.0
 11
275.6841682902791
 21
327.8456320826602
 31
0.0
  0
LINE
  5
948
330
1F
100
AcDbEntity
  8
0
  6
Continuous
 62
     7
100
AcDbLine
 10
271.263383786279
 20
327.6883137579603
 30
0.0
 11
268.0763787239793
 21
326.8781130082603
 31
0.0
  0
LINE
  5
949
330
1F
100
AcDbEntity
  8
0
  6
Continuous
 62
     3
100
AcDbLine
 10
278.8711733524791
 20
329.7613421898603
 30
0.0
 11
275.6841682902791
 21
328.9511414400603
 31
0.0
  0
LINE
  5
94A
330
1F
100
AcDbEntity
  8
0
  6
Continuous
 62
     3
100
AcDbLine
 10
271.016627897979
 20
328.6558328323603
 30
0.0
 11
267.8296228356791
 21
327.8456320826602
 31
0.0
  0
LINE
  5
94B
330
1F
100
AcDbEntity
  8
0
  6
Continuous
 62
     7
100
AcDbLine
 10
263.4088383317791
 20
327.6883137579603
 30
0.0
 11
261.9974964322793
 21
327.3295222773603
 31
0.0
  0
LINE
  5
94C
330
1F
100
AcDbEntity
  8
0
  6
Continuous
 62
     3
100
AcDbLine
 10
271.016627897979
 20
329.7613421898603
 30
0.0
 11
267.8296228356791
 21
328.9511414400603
 31
0.0
  0
LINE
  5
94D
330
1F
100
AcDbEntity
  8
0
  6
Continuous
 62
     3
100
AcDbLine
 10
263.1620824433791
 20
328.6558328323603
 30
0.0
 11
261.7507405438792
 21
328.2970413517602
 31
0.0
  0
LINE
  5
94E
330
1F
100
AcDbEntity
  8
0
  6
Continuous
 62
     3
100
AcDbLine
 10
263.1620824433791
 20
329.7613421898603
 30
0.0
 11
261.7507405438792
 21
329.4025507092603
 31
0.0
  0
LINE
  5
94F
330
1F
100
AcDbEntity
  8
0
  6
Continuous
 62
     7
100
AcDbLine
 10
592.665986472079
 20
327.6883137579603
 30
0.0
 11
595.852991534279
 21
326.8781130082603
 31
0.0
  0
LINE
  5
950
330
1F
100
AcDbEntity
  8
0
  6
Continuous
 62
     7
100
AcDbLine
 10
592.665986472079
 20
328.7938231154602
 30
0.0
 11
595.852991534279
 21
327.9836223656602
 31
0.0
  0
LINE
  5
951
330
1F
100
AcDbEntity
  8
0
  6
Continuous
 62
     7
100
AcDbLine
 10
600.520531926579
 20
327.6883137579603
 30
0.0
 11
603.7075369888791
 21
326.8781130082603
 31
0.0
  0
LINE
  5
952
330
1F
100
AcDbEntity
  8
0
  6
Continuous
 62
     3
100
AcDbLine
 10
592.912742360379
 20
329.7613421898603
 30
0.0
 11
596.0997474226791
 21
328.9511414400603
 31
0.0
  0
LINE
  5
953
330
1F
100
AcDbEntity
  8
0
  6
Continuous
 62
     7
100
AcDbLine
 10
600.520531926579
 20
328.7938231154602
 30
0.0
 11
603.7075369888791
 21
327.9836223656602
 31
0.0
  0
LINE
  5
954
330
1F
100
AcDbEntity
  8
0
  6
Continuous
 62
     7
100
AcDbLine
 10
608.3750773811791
 20
327.6883137579603
 30
0.0
 11
609.786419280679
 21
327.3295222773603
 31
0.0
  0
LINE
  5
955
330
1F
100
AcDbEntity
  8
0
  6
Continuous
 62
     3
100
AcDbLine
 10
600.767287814979
 20
329.7613421898603
 30
0.0
 11
603.954292877179
 21
328.9511414400603
 31
0.0
  0
LINE
  5
956
330
1F
100
AcDbEntity
  8
0
  6
Continuous
 62
     7
100
AcDbLine
 10
608.3750773811791
 20
328.7938231154602
 30
0.0
 11
609.786419280679
 21
328.4350316348603
 31
0.0
  0
LINE
  5
957
330
1F
100
AcDbEntity
  8
0
  6
Continuous
 62
     3
100
AcDbLine
 10
608.6218332694791
 20
329.7613421898603
 30
0.0
 11
610.0331751689791
 21
329.4025507092603
 31
0.0
  0
LINE
  5
958
330
1F
100
AcDbEntity
  8
0
  6
Continuous
 62
     7
100
AcDbLine
 10
123.391957856479
 20
377.7872877404603
 30
0.0
 11
321.0972374577759
 21
377.7872877404603
 31
0.0
  0
LINE
  5
959
330
1F
100
AcDbEntity
  8
0
  6
Continuous
 62
     7
100
AcDbLine
 10
321.0972374577759
 20
377.7872877404603
 30
0.0
 11
585.3502039396071
 21
377.7872877404603
 31
0.0
  0
LINE
  5
95A
330
1F
100
AcDbEntity
  8
0
  6
Continuous
 62
     7
100
AcDbLine
 10
585.3502039396071
 20
377.7872877404603
 30
0.0
 11
748.391957856479
 21
377.7872877404603
 31
0.0
  0
LINE
  5
95B
330
1F
100
AcDbEntity
  8
RUNDUNGEN
  6
Continuous
 62
     9
100
AcDbLine
 10
508.8919578564791
 20
331.4656700903603
 30
0.0
 11
508.8919100254791
 21
325.7701960552603
 31
0.0
  0
LINE
  5
95C
330
1F
100
AcDbEntity
  8
RUNDUNGEN
  6
Continuous
 62
     9
100
AcDbLine
 10
508.8919578564791
 20
280.5872877404603
 30
0.0
 11
508.8919578564791
 21
292.5872877404603
 31
0.0
  0
LINE
  5
95D
330
1F
100
AcDbEntity
  8
0
  6
Continuous
 62
     9
100
AcDbLine
 10
508.8919578564791
 20
292.5872877404603
 30
0.0
 11
508.8919578564791
 21
325.7701960564602
 31
0.0
  0
LINE
  5
95E
330
1F
100
AcDbEntity
  8
0
  6
Continuous
 62
     3
100
AcDbLine
 10
536.8919578564791
 20
325.7701960564602
 30
0.0
 11
536.8919578564791
 21
327.7653632954602
 31
0.0
  0
LINE
  5
95F
330
1F
100
AcDbEntity
  8
0
  6
Continuous
 62
     7
100
AcDbLine
 10
537.991957856479
 20
292.5872877404603
 30
0.0
 11
537.991957856479
 21
325.7701960564602
 31
0.0
  0
LINE
  5
960
330
1F
100
AcDbEntity
  8
BEZUGSACHSEN
  6
Continuous
 62
     3
100
AcDbLine
 10
684.8919578564792
 20
330.3497906625603
 30
0.0
 11
684.3086218781791
 21
330.0409440651602
 31
0.0
  0
LINE
  5
961
330
1F
100
AcDbEntity
  8
BEZUGSACHSEN
  6
Continuous
 62
     3
100
AcDbLine
 10
704.3086218781791
 20
330.0409440651602
 30
0.0
 11
704.8919578564792
 21
330.3497906625603
 31
0.0
  0
LINE
  5
962
330
1F
100
AcDbEntity
  8
BEZUGSACHSEN
  6
Continuous
 62
     3
100
AcDbLine
 10
684.8919578564792
 20
330.3497906625603
 30
0.0
 11
685.4754143460791
 21
330.0408802605602
 31
0.0
  0
LINE
  5
963
330
1F
100
AcDbEntity
  8
BEZUGSACHSEN
  6
Continuous
 62
     3
100
AcDbLine
 10
705.475414346079
 20
330.0408802605602
 30
0.0
 11
704.8919578564792
 21
330.3497906625603
 31
0.0
  0
LINE
  5
964
330
1F
100
AcDbEntity
  8
FASEN
  6
Continuous
 62
     3
100
AcDbLine
 10
588.3685799122791
 20
328.7153140107603
 30
0.0
 11
588.3685799122791
 21
327.8932685911603
 31
0.0
  0
LINE
  5
965
330
1F
100
AcDbEntity
  8
FASEN
  6
Continuous
 62
     7
100
AcDbLine
 10
588.615335800579
 20
327.7477949363603
 30
0.0
 11
588.615335800579
 21
326.9257495167602
 31
0.0
  0
LINE
  5
966
330
1F
100
AcDbEntity
  8
0
  6
Continuous
 62
     9
100
AcDbLine
 10
592.912742360379
 20
329.7613421898603
 30
0.0
 11
592.665986472079
 21
328.7938231154602
 31
0.0
  0
LINE
  5
967
330
1F
100
AcDbEntity
  8
0
  6
Continuous
 62
     9
100
AcDbLine
 10
596.0997474226791
 20
328.9511414400603
 30
0.0
 11
595.852991534279
 21
327.9836223656602
 31
0.0
  0
LINE
  5
968
330
1F
100
AcDbEntity
  8
FASEN
  6
Continuous
 62
     7
100
AcDbLine
 10
588.615335800579
 20
326.9257495167602
 30
0.0
 11
588.3685799122791
 21
327.8932685911603
 31
0.0
  0
LINE
  5
969
330
1F
100
AcDbEntity
  8
FASEN
  6
Continuous
 62
     7
100
AcDbLine
 10
588.615335800579
 20
327.7477949363603
 30
0.0
 11
588.3685799122791
 21
328.7153140107603
 31
0.0
  0
LINE
  5
96A
330
1F
100
AcDbEntity
  8
FASEN
  6
Continuous
 62
     7
100
AcDbLine
 10
591.0380299769791
 20
328.5054244642603
 30
0.0
 11
590.791274088679
 21
329.4729435386603
 31
0.0
  0
LINE
  5
96B
330
1F
100
AcDbEntity
  8
0
  6
Continuous
 62
     9
100
AcDbLine
 10
591.925718807079
 20
329.7613421898603
 30
0.0
 11
592.1724746953791
 21
328.7938231154602
 31
0.0
  0
LINE
  5
96C
330
1F
100
AcDbEntity
  8
0
  6
Continuous
 62
     9
100
AcDbLine
 10
592.1724746953791
 20
328.7938231154602
 30
0.0
 11
592.1724746953791
 21
327.6883137579603
 31
0.0
  0
LINE
  5
96D
330
1F
100
AcDbEntity
  8
0
  6
Continuous
 62
     9
100
AcDbLine
 10
592.665986472079
 20
328.7938231154602
 30
0.0
 11
592.665986472079
 21
327.6883137579603
 31
0.0
  0
LINE
  5
96E
330
1F
100
AcDbEntity
  8
0
  6
Continuous
 62
     9
100
AcDbLine
 10
595.852991534279
 20
327.9836223656602
 30
0.0
 11
595.852991534279
 21
326.8781130082603
 31
0.0
  0
LINE
  5
96F
330
1F
100
AcDbEntity
  8
0
  6
Continuous
 62
     9
100
AcDbLine
 10
596.8400150876791
 20
327.9836223656602
 30
0.0
 11
596.8400150876791
 21
326.8781130082603
 31
0.0
  0
LINE
  5
970
330
1F
100
AcDbEntity
  8
0
  6
Continuous
 62
     9
100
AcDbLine
 10
600.027020149879
 20
328.7938231154602
 30
0.0
 11
600.027020149879
 21
327.6883137579603
 31
0.0
  0
LINE
  5
971
330
1F
100
AcDbEntity
  8
0
  6
Continuous
 62
     9
100
AcDbLine
 10
600.520531926579
 20
328.7938231154602
 30
0.0
 11
600.520531926579
 21
327.6883137579603
 31
0.0
  0
LINE
  5
972
330
1F
100
AcDbEntity
  8
0
  6
Continuous
 62
     9
100
AcDbLine
 10
603.7075369888791
 20
327.9836223656602
 30
0.0
 11
603.7075369888791
 21
326.8781130082603
 31
0.0
  0
LINE
  5
973
330
1F
100
AcDbEntity
  8
0
  6
Continuous
 62
     9
100
AcDbLine
 10
604.694560542179
 20
327.9836223656602
 30
0.0
 11
604.694560542179
 21
326.8781130082603
 31
0.0
  0
LINE
  5
974
330
1F
100
AcDbEntity
  8
0
  6
Continuous
 62
     9
100
AcDbLine
 10
607.8815656044792
 20
328.7938231154602
 30
0.0
 11
607.8815656044792
 21
327.6883137579603
 31
0.0
  0
LINE
  5
975
330
1F
100
AcDbEntity
  8
0
  6
Continuous
 62
     9
100
AcDbLine
 10
608.3750773811791
 20
328.7938231154602
 30
0.0
 11
608.3750773811791
 21
327.6883137579603
 31
0.0
  0
LINE
  5
976
330
1F
100
AcDbEntity
  8
0
  6
Continuous
 62
     9
100
AcDbLine
 10
609.786419280679
 20
328.4350316348603
 30
0.0
 11
609.786419280679
 21
327.3295222773603
 31
0.0
  0
LINE
  5
977
330
1F
100
AcDbEntity
  8
0
  6
Continuous
 62
     9
100
AcDbLine
 10
610.2799310572791
 20
329.3716781130603
 30
0.0
 11
610.2799310572791
 21
327.2677770850603
 31
0.0
  0
LINE
  5
978
330
1F
100
AcDbEntity
  8
0
  6
Continuous
 62
     9
100
AcDbLine
 10
600.767287814979
 20
329.7613421898603
 30
0.0
 11
600.520531926579
 21
328.7938231154602
 31
0.0
  0
LINE
  5
979
330
1F
100
AcDbEntity
  8
0
  6
Continuous
 62
     9
100
AcDbLine
 10
603.954292877179
 20
328.9511414400603
 30
0.0
 11
603.7075369888791
 21
327.9836223656602
 31
0.0
  0
LINE
  5
97A
330
1F
100
AcDbEntity
  8
0
  6
Continuous
 62
     9
100
AcDbLine
 10
608.6218332694791
 20
329.7613421898603
 30
0.0
 11
608.3750773811791
 21
328.7938231154602
 31
0.0
  0
LINE
  5
97B
330
1F
100
AcDbEntity
  8
0
  6
Continuous
 62
     9
100
AcDbLine
 10
610.0331751689791
 20
329.4025507092603
 30
0.0
 11
609.786419280679
 21
328.4350316348603
 31
0.0
  0
LINE
  5
97C
330
1F
100
AcDbEntity
  8
0
  6
Continuous
 62
     9
100
AcDbLine
 10
596.5932591992791
 20
328.9511414400603
 30
0.0
 11
596.8400150876791
 21
327.9836223656602
 31
0.0
  0
LINE
  5
97D
330
1F
100
AcDbEntity
  8
0
  6
Continuous
 62
     9
100
AcDbLine
 10
599.7802642615791
 20
329.7613421898603
 30
0.0
 11
600.027020149879
 21
328.7938231154602
 31
0.0
  0
LINE
  5
97E
330
1F
100
AcDbEntity
  8
0
  6
Continuous
 62
     9
100
AcDbLine
 10
604.4478046538791
 20
328.9511414400603
 30
0.0
 11
604.694560542179
 21
327.9836223656602
 31
0.0
  0
LINE
  5
97F
330
1F
100
AcDbEntity
  8
0
  6
Continuous
 62
     9
100
AcDbLine
 10
607.634809716179
 20
329.7613421898603
 30
0.0
 11
607.8815656044792
 21
328.7938231154602
 31
0.0
  0
LINE
  5
980
330
1F
100
AcDbEntity
  8
0
  6
Continuous
 62
     7
100
AcDbLine
 10
668.6419578564791
 20
327.9268307404602
 30
0.0
 11
668.6419578564791
 21
327.7142327870603
 31
0.0
  0
LINE
  5
981
330
1F
100
AcDbEntity
  8
0
  6
Continuous
 62
     7
100
AcDbLine
 10
669.8919578564791
 20
327.7142327870603
 30
0.0
 11
669.8919578564791
 21
327.9268307404602
 31
0.0
  0
LINE
  5
982
330
1F
100
AcDbEntity
  8
BEZUGSACHSEN
  6
Continuous
 62
     7
100
AcDbLine
 10
682.3919578564791
 20
327.6787997948603
 30
0.0
 11
682.3919578564791
 21
327.9622637326603
 31
0.0
  0
LINE
  5
983
330
1F
100
AcDbEntity
  8
BEZUGSACHSEN
  6
Continuous
 62
     7
100
AcDbLine
 10
687.3919578564791
 20
327.9622637326603
 30
0.0
 11
687.3919578564791
 21
327.6787997948603
 31
0.0
  0
LINE
  5
984
330
1F
100
AcDbEntity
  8
BEZUGSACHSEN
  6
Continuous
 62
     7
100
AcDbLine
 10
702.3919578564791
 20
327.6787997948603
 30
0.0
 11
702.3919578564791
 21
327.9622637326603
 31
0.0
  0
LINE
  5
985
330
1F
100
AcDbEntity
  8
BEZUGSACHSEN
  6
Continuous
 62
     7
100
AcDbLine
 10
707.3919578564791
 20
327.9622637326603
 30
0.0
 11
707.3919578564791
 21
327.6787997948603
 31
0.0
  0
LINE
  5
986
330
1F
100
AcDbEntity
  8
FASEN
  6
Continuous
 62
     7
100
AcDbLine
 10
712.3919578564791
 20
328.3732864425602
 30
0.0
 11
712.3919578564791
 21
329.3716781130603
 31
0.0
  0
LINE
  5
987
330
1F
100
AcDbEntity
  8
FASEN
  6
Continuous
 62
     7
100
AcDbLine
 10
714.8919578564791
 20
327.4095090539603
 30
0.0
 11
714.8919578564791
 21
329.2299461441603
 31
0.0
  0
LINE
  5
988
330
1F
100
AcDbEntity
  8
0
  6
Continuous
 62
     7
100
AcDbLine
 10
725.8919578564792
 20
348.6692094882603
 30
0.0
 11
725.8919578564792
 21
346.8613128890602
 31
0.0
  0
LINE
  5
989
330
1F
100
AcDbEntity
  8
RUNDUNGEN
  6
Continuous
 62
     7
100
AcDbLine
 10
725.8919578564792
 20
326.7872877404602
 30
0.0
 11
725.8919578564792
 21
334.7872877404603
 31
0.0
  0
LINE
  5
98A
330
1F
100
AcDbEntity
  8
0
  6
Continuous
 62
     3
100
AcDbLine
 10
725.8919578564792
 20
333.5321145456603
 30
0.0
 11
725.8919578564792
 21
334.7872877404603
 31
0.0
  0
LINE
  5
98B
330
1F
100
AcDbEntity
  8
0
  6
Continuous
 62
     7
100
AcDbLine
 10
725.8919578564792
 20
334.7872877404603
 30
0.0
 11
725.8919578564792
 21
346.2872877404603
 31
0.0
  0
LINE
  5
98C
102
{ACAD_REACTORS
330
A74
102
}
330
1F
100
AcDbEntity
  8
RUNDUNGEN
  6
Continuous
 62
     7
100
AcDbLine
 10
725.8919578564792
 20
336.7872877404603
 30
0.0
 11
725.8919578564792
 21
346.7872877404603
 31
0.0
  0
LINE
  5
98D
330
1F
100
AcDbEntity
  8
0
  6
Continuous
 62
     7
100
AcDbLine
 10
726.1919578564791
 20
347.4958597729602
 30
0.0
 11
726.1919578564791
 21
348.6372877404602
 31
0.0
  0
LINE
  5
98E
330
1F
100
AcDbEntity
  8
RUNDUNGEN
  6
Continuous
 62
     7
100
AcDbLine
 10
727.8919578564791
 20
326.7872877404602
 30
0.0
 11
727.8919578564791
 21
334.7872877404603
 31
0.0
  0
LINE
  5
98F
330
1F
100
AcDbEntity
  8
RUNDUNGEN
  6
Continuous
 62
     7
100
AcDbLine
 10
727.8919578564791
 20
335.7872877404603
 30
0.0
 11
727.8919578564791
 21
346.7872877404603
 31
0.0
  0
LINE
  5
990
330
1F
100
AcDbEntity
  8
RUNDUNGEN
  6
Continuous
 62
     9
100
AcDbLine
 10
748.391957856479
 20
335.7872877404603
 30
0.0
 11
748.391957856479
 21
334.7872877404603
 31
0.0
  0
LINE
  5
991
330
1F
100
AcDbEntity
  8
RUNDUNGEN
  6
Continuous
 62
     7
100
AcDbLine
 10
758.391957856479
 20
335.7872877404603
 30
0.0
 11
758.391957856479
 21
334.7872877404603
 31
0.0
  0
LINE
  5
992
330
1F
100
AcDbEntity
  8
0
  6
Continuous
 62
     7
100
AcDbLine
 10
758.391957856479
 20
332.7872877404602
 30
0.0
 11
758.391957856479
 21
334.7872877404603
 31
0.0
  0
LINE
  5
993
102
{ACAD_REACTORS
330
A7A
102
}
330
1F
100
AcDbEntity
  8
0
  6
Continuous
 62
     7
100
AcDbLine
 10
758.391957856479
 20
335.7872877404603
 30
0.0
 11
758.391957856479
 21
367.7872877404603
 31
0.0
  0
LINE
  5
994
330
1F
100
AcDbEntity
  8
RUNDUNGEN
  6
Continuous
 62
     7
100
AcDbLine
 10
113.891957856479
 20
184.4511704853602
 30
0.0
 11
113.891957856479
 21
83.45117048536025
 31
0.0
  0
LINE
  5
995
330
1F
100
AcDbEntity
  8
0
  6
Continuous
 62
     7
100
AcDbLine
 10
113.891957856479
 20
184.4511704853602
 30
0.0
 11
113.891957856479
 21
185.4511704853602
 31
0.0
  0
LINE
  5
996
330
1F
100
AcDbEntity
  8
0
  6
Continuous
 62
     9
100
AcDbLine
 10
123.891957856479
 20
184.4511704853602
 30
0.0
 11
123.891957856479
 21
185.4511704853602
 31
0.0
  0
LINE
  5
997
330
1F
100
AcDbEntity
  8
RUNDUNGEN
  6
Continuous
 62
     7
100
AcDbLine
 10
144.391957856479
 20
184.4511704853602
 30
0.0
 11
144.391957856479
 21
104.4511704853602
 31
0.0
  0
LINE
  5
998
330
1F
100
AcDbEntity
  8
0
  6
Continuous
 62
     7
100
AcDbLine
 10
146.391957856479
 20
107.3634468979602
 30
0.0
 11
146.391957856479
 21
104.5388940727602
 31
0.0
  0
LINE
  5
999
330
1F
100
AcDbEntity
  8
0
  6
Continuous
 62
     7
100
AcDbLine
 10
146.391957856479
 20
104.4511704853602
 30
0.0
 11
146.391957856479
 21
73.45117048536026
 31
0.0
  0
LINE
  5
99A
330
1F
100
AcDbEntity
  8
RUNDUNGEN
  6
Continuous
 62
     7
100
AcDbLine
 10
146.391957856479
 20
104.4511704853602
 30
0.0
 11
146.391957856479
 21
104.5388940727602
 31
0.0
  0
LINE
  5
99B
330
1F
100
AcDbEntity
  8
RUNDUNGEN
  6
Continuous
 62
     7
100
AcDbLine
 10
146.391957856479
 20
107.3634468979602
 30
0.0
 11
146.391957856479
 21
171.4511704853602
 31
0.0
  0
LINE
  5
99C
330
1F
100
AcDbEntity
  8
0
  6
Continuous
 62
     7
100
AcDbLine
 10
146.391957856479
 20
171.7191196777602
 30
0.0
 11
146.391957856479
 21
184.4441747785602
 31
0.0
  0
LINE
  5
99D
330
1F
100
AcDbEntity
  8
RUNDUNGEN
  6
Continuous
 62
     9
100
AcDbLine
 10
362.891957856479
 20
169.2810921226602
 30
0.0
 11
362.891957856479
 21
166.4511704853602
 31
0.0
  0
LINE
  5
99E
330
1F
100
AcDbEntity
  8
0
  6
Continuous
 62
     9
100
AcDbLine
 10
362.891957856479
 20
122.3511704853602
 30
0.0
 11
362.891957856479
 21
112.4511704853602
 31
0.0
  0
LINE
  5
99F
330
1F
100
AcDbEntity
  8
RUNDUNGEN
  6
Continuous
 62
     9
100
AcDbLine
 10
362.891957856479
 20
109.6212488480602
 30
0.0
 11
362.891957856479
 21
112.4511704853602
 31
0.0
  0
LINE
  5
9A0
330
1F
100
AcDbEntity
  8
0
  6
Continuous
 62
     9
100
AcDbLine
 10
362.891957856479
 20
156.5511704853602
 30
0.0
 11
362.891957856479
 21
166.4511704853602
 31
0.0
  0
LINE
  5
9A1
330
1F
100
AcDbEntity
  8
0
  6
Continuous
 62
     7
100
AcDbLine
 10
459.8612825915791
 20
25.35117048536026
 30
0.0
 11
411.922633121379
 21
25.35117048536026
 31
0.0
  0
LINE
  5
9A2
330
1F
100
AcDbEntity
  8
RUNDUNGEN
  6
Continuous
 62
     9
100
AcDbLine
 10
410.9535340354791
 20
30.05142379136027
 30
0.0
 11
460.8303816774791
 21
30.05142379136027
 31
0.0
  0
LINE
  5
9A3
330
1F
100
AcDbEntity
  8
RUNDUNGEN
  6
Continuous
 62
     9
100
AcDbLine
 10
410.8917322072792
 20
30.65722202766025
 30
0.0
 11
460.892183505579
 21
30.65722202766025
 31
0.0
  0
LINE
  5
9A4
330
1F
100
AcDbEntity
  8
0
  6
Continuous
 62
     9
100
AcDbLine
 10
411.341775493879
 20
142.9009627940602
 30
0.0
 11
410.8796580822792
 21
142.5095278991602
 31
0.0
  0
LINE
  5
9A5
330
1F
100
AcDbEntity
  8
0
  6
Continuous
 62
     9
100
AcDbLine
 10
411.119637980979
 20
143.3181625252603
 30
0.0
 11
410.544958107279
 21
142.8493453895602
 31
0.0
  0
LINE
  5
9A6
330
1F
100
AcDbEntity
  8
RUNDUNGEN
  6
Continuous
 62
     7
100
AcDbLine
 10
410.8917322072792
 20
30.65722202766025
 30
0.0
 11
410.9535340354791
 21
30.05142379136027
 31
0.0
  0
LINE
  5
9A7
330
1F
100
AcDbEntity
  8
0
  6
Continuous
 62
     7
100
AcDbLine
 10
410.8917322072792
 20
73.95117048536026
 30
0.0
 11
410.8917322072792
 21
30.65722202766025
 31
0.0
  0
LINE
  5
9A8
330
1F
100
AcDbEntity
  8
RUNDUNGEN
  6
Continuous
 62
     7
100
AcDbLine
 10
725.3919578564791
 20
73.45117048536026
 30
0.0
 11
747.8919578564791
 21
73.45117048536026
 31
0.0
  0
LINE
  5
9A9
330
1F
100
AcDbEntity
  8
RUNDUNGEN
  6
Continuous
 62
     7
100
AcDbLine
 10
146.391957856479
 20
73.45117048536026
 30
0.0
 11
123.891957856479
 21
73.45117048536026
 31
0.0
  0
LINE
  5
9AA
330
1F
100
AcDbEntity
  8
0
  6
Continuous
 62
     7
100
AcDbLine
 10
725.3919578564791
 20
73.95117048536026
 30
0.0
 11
585.3502039396071
 21
73.95117048536026
 31
0.0
  0
LINE
  5
9AB
330
1F
100
AcDbEntity
  8
0
  6
Continuous
 62
     7
100
AcDbLine
 10
585.3502039396071
 20
73.95117048536026
 30
0.0
 11
321.0972374577759
 21
73.95117048536026
 31
0.0
  0
LINE
  5
9AC
330
1F
100
AcDbEntity
  8
0
  6
Continuous
 62
     7
100
AcDbLine
 10
321.0972374577759
 20
73.95117048536026
 30
0.0
 11
146.391957856479
 21
73.95117048536026
 31
0.0
  0
LINE
  5
9AD
330
1F
100
AcDbEntity
  8
0
  6
Continuous
 62
     7
100
AcDbLine
 10
410.9535340354791
 20
30.05142379136027
 30
0.0
 11
411.922633121379
 21
25.35117048536026
 31
0.0
  0
LINE
  5
9AE
330
1F
100
AcDbEntity
  8
RUNDUNGEN
  6
Continuous
 62
     7
100
AcDbLine
 10
411.922633121379
 20
25.35117048536026
 30
0.0
 11
410.9535340354791
 21
30.05142379136027
 31
0.0
  0
LINE
  5
9AF
330
1F
100
AcDbEntity
  8
TEIL_STARTBEZUEGE
  6
CENTER
 62
     7
100
AcDbLine
 10
435.891957856479
 20
22.35117048536026
 30
0.0
 11
435.891957856479
 21
140.2120947632602
 31
0.0
  0
LINE
  5
9B0
330
1F
100
AcDbEntity
  8
0
  6
Continuous
 62
     9
100
AcDbLine
 10
455.341775493879
 20
142.9009627940602
 30
0.0
 11
454.8796580822791
 21
142.5095278991602
 31
0.0
  0
LINE
  5
9B1
330
1F
100
AcDbEntity
  8
0
  6
Continuous
 62
     9
100
AcDbLine
 10
455.119637980979
 20
143.3181625252603
 30
0.0
 11
454.544958107279
 21
142.8493453895602
 31
0.0
  0
LINE
  5
9B2
330
1F
100
AcDbEntity
  8
0
  6
Continuous
 62
     9
100
AcDbLine
 10
725.3919578564791
 20
103.4511704853602
 30
0.0
 11
585.3502039396071
 21
103.4511704853602
 31
0.0
  0
LINE
  5
9B3
330
1F
100
AcDbEntity
  8
0
  6
Continuous
 62
     9
100
AcDbLine
 10
585.3502039396071
 20
103.4511704853602
 30
0.0
 11
321.0972374577759
 21
103.4511704853602
 31
0.0
  0
LINE
  5
9B4
330
1F
100
AcDbEntity
  8
0
  6
Continuous
 62
     9
100
AcDbLine
 10
321.0972374577759
 20
103.4511704853602
 30
0.0
 11
146.391957856479
 21
103.4511704853602
 31
0.0
  0
LINE
  5
9B5
330
1F
100
AcDbEntity
  8
RUNDUNGEN
  6
Continuous
 62
     7
100
AcDbLine
 10
727.3919578564791
 20
104.4511704853602
 30
0.0
 11
725.3919578564791
 21
104.4511704853602
 31
0.0
  0
LINE
  5
9B6
330
1F
100
AcDbEntity
  8
0
  6
Continuous
 62
     7
100
AcDbLine
 10
725.3919578564791
 20
104.4511704853602
 30
0.0
 11
585.3502039396071
 21
104.4511704853602
 31
0.0
  0
LINE
  5
9B7
330
1F
100
AcDbEntity
  8
0
  6
Continuous
 62
     7
100
AcDbLine
 10
585.3502039396071
 20
104.4511704853602
 30
0.0
 11
321.0972374577759
 21
104.4511704853602
 31
0.0
  0
LINE
  5
9B8
330
1F
100
AcDbEntity
  8
0
  6
Continuous
 62
     7
100
AcDbLine
 10
321.0972374577759
 20
104.4511704853602
 30
0.0
 11
146.391957856479
 21
104.4511704853602
 31
0.0
  0
LINE
  5
9B9
330
1F
100
AcDbEntity
  8
RUNDUNGEN
  6
Continuous
 62
     7
100
AcDbLine
 10
146.391957856479
 20
104.4511704853602
 30
0.0
 11
144.391957856479
 21
104.4511704853602
 31
0.0
  0
LINE
  5
9BA
330
1F
100
AcDbEntity
  8
0
  6
Continuous
 62
     7
100
AcDbLine
 10
725.3919578564791
 20
107.4511704853602
 30
0.0
 11
585.3502039396071
 21
107.4511704853602
 31
0.0
  0
LINE
  5
9BB
330
1F
100
AcDbEntity
  8
0
  6
Continuous
 62
     7
100
AcDbLine
 10
585.3502039396071
 20
107.4511704853602
 30
0.0
 11
321.0972374577759
 21
107.4511704853602
 31
0.0
  0
LINE
  5
9BC
330
1F
100
AcDbEntity
  8
0
  6
Continuous
 62
     7
100
AcDbLine
 10
321.0972374577759
 20
107.4511704853602
 30
0.0
 11
146.391957856479
 21
107.4511704853602
 31
0.0
  0
LINE
  5
9BD
330
1F
100
AcDbEntity
  8
0
  6
Continuous
 62
     7
100
AcDbLine
 10
460.892183505579
 20
73.95117048536026
 30
0.0
 11
460.892183505579
 21
30.65722202766025
 31
0.0
  0
LINE
  5
9BE
330
1F
100
AcDbEntity
  8
RUNDUNGEN
  6
Continuous
 62
     7
100
AcDbLine
 10
460.892183505579
 20
30.65722202766025
 30
0.0
 11
460.892183505579
 21
73.95117048536026
 31
0.0
  0
LINE
  5
9BF
330
1F
100
AcDbEntity
  8
0
  6
Continuous
 62
     9
100
AcDbLine
 10
725.3919578564791
 20
108.3944776977602
 30
0.0
 11
585.3502039396071
 21
108.3944776977602
 31
0.0
  0
LINE
  5
9C0
330
1F
100
AcDbEntity
  8
0
  6
Continuous
 62
     9
100
AcDbLine
 10
585.3502039396071
 20
108.3944776977602
 30
0.0
 11
321.0972374577759
 21
108.3944776977602
 31
0.0
  0
LINE
  5
9C1
330
1F
100
AcDbEntity
  8
0
  6
Continuous
 62
     9
100
AcDbLine
 10
321.0972374577759
 20
108.3944776977602
 30
0.0
 11
146.391957856479
 21
108.3944776977602
 31
0.0
  0
LINE
  5
9C2
330
1F
100
AcDbEntity
  8
RUNDUNGEN
  6
Continuous
 62
     9
100
AcDbLine
 10
508.8919578564791
 20
109.6212488480602
 30
0.0
 11
362.891957856479
 21
109.6212488480602
 31
0.0
  0
LINE
  5
9C3
330
1F
100
AcDbEntity
  8
RUNDUNGEN
  6
Continuous
 62
     7
100
AcDbLine
 10
508.891825265979
 20
112.4511704853602
 30
0.0
 11
362.8921042034792
 21
112.4511704853602
 31
0.0
  0
LINE
  5
9C4
330
1F
100
AcDbEntity
  8
0
  6
Continuous
 62
     9
100
AcDbLine
 10
508.8919578564791
 20
122.3511704853602
 30
0.0
 11
362.891957856479
 21
122.3511704853602
 31
0.0
  0
LINE
  5
9C5
330
1F
100
AcDbEntity
  8
RUNDUNGEN
  6
Continuous
 62
     7
100
AcDbLine
 10
460.892183505579
 20
30.65722202766025
 30
0.0
 11
460.8303816774791
 21
30.05142379136027
 31
0.0
  0
LINE
  5
9C6
330
1F
100
AcDbEntity
  8
RUNDUNGEN
  6
Continuous
 62
     7
100
AcDbLine
 10
459.8612825915791
 20
25.35117048536026
 30
0.0
 11
460.8303816774791
 21
30.05142379136027
 31
0.0
  0
LINE
  5
9C7
330
1F
100
AcDbEntity
  8
0
  6
Continuous
 62
     7
100
AcDbLine
 10
460.8303816774791
 20
30.05142379136027
 30
0.0
 11
459.8612825915791
 21
25.35117048536026
 31
0.0
  0
LINE
  5
9C8
330
1F
100
AcDbEntity
  8
RUNDUNGEN
  6
Continuous
 62
     7
100
AcDbLine
 10
725.3919578564791
 20
139.4511704853602
 30
0.0
 11
585.3502039396071
 21
139.4511704853602
 31
0.0
  0
LINE
  5
9C9
330
1F
100
AcDbEntity
  8
RUNDUNGEN
  6
Continuous
 62
     7
100
AcDbLine
 10
585.3502039396071
 20
139.451170389171
 30
0.0
 11
538.891475748079
 21
139.4511703572602
 31
0.0
  0
LINE
  5
9CA
330
1F
100
AcDbEntity
  8
BG_STARTBEZUEGE
  6
CENTER
 62
     7
100
AcDbLine
 10
760.891957856479
 20
139.4511704853602
 30
0.0
 11
585.6002039396071
 21
139.4511704853602
 31
0.0
  0
LINE
  5
9CB
330
1F
100
AcDbEntity
  8
BG_STARTBEZUEGE
  6
CENTER
 62
     7
100
AcDbLine
 10
585.3502039396071
 20
139.4511704853602
 30
0.0
 11
110.8919578564789
 21
139.4511704853602
 31
0.0
  0
LINE
  5
9CC
330
1F
100
AcDbEntity
  8
RUNDUNGEN
  6
Continuous
 62
     7
100
AcDbLine
 10
332.8924399775792
 20
139.4511706150602
 30
0.0
 11
321.097237457776
 21
139.4511706068574
 31
0.0
  0
LINE
  5
9CD
330
1F
100
AcDbEntity
  8
RUNDUNGEN
  6
Continuous
 62
     7
100
AcDbLine
 10
321.097237457776
 20
139.4511706068574
 30
0.0
 11
146.391957856479
 21
139.4511704853602
 31
0.0
  0
LINE
  5
9CE
330
1F
100
AcDbEntity
  8
0
  6
Continuous
 62
     9
100
AcDbLine
 10
362.891957856479
 20
156.5511704853602
 30
0.0
 11
508.8919578564791
 21
156.5511704853602
 31
0.0
  0
LINE
  5
9CF
330
1F
100
AcDbEntity
  8
RUNDUNGEN
  6
Continuous
 62
     7
100
AcDbLine
 10
362.8920904468791
 20
166.4511704853602
 30
0.0
 11
508.8918115094791
 21
166.4511704853602
 31
0.0
  0
LINE
  5
9D0
330
1F
100
AcDbEntity
  8
RUNDUNGEN
  6
Continuous
 62
     9
100
AcDbLine
 10
362.891957856479
 20
169.2810921226602
 30
0.0
 11
508.8919578564791
 21
169.2810921226602
 31
0.0
  0
LINE
  5
9D1
330
1F
100
AcDbEntity
  8
0
  6
Continuous
 62
     9
100
AcDbLine
 10
725.3919578564791
 20
170.5078632729602
 30
0.0
 11
585.3502039396071
 21
170.5078632729602
 31
0.0
  0
LINE
  5
9D2
330
1F
100
AcDbEntity
  8
0
  6
Continuous
 62
     9
100
AcDbLine
 10
585.3502039396071
 20
170.5078632729602
 30
0.0
 11
321.0972374577759
 21
170.5078632729602
 31
0.0
  0
LINE
  5
9D3
330
1F
100
AcDbEntity
  8
0
  6
Continuous
 62
     9
100
AcDbLine
 10
321.0972374577759
 20
170.5078632729602
 30
0.0
 11
146.391957856479
 21
170.5078632729602
 31
0.0
  0
LINE
  5
9D4
330
1F
100
AcDbEntity
  8
0
  6
Continuous
 62
     7
100
AcDbLine
 10
725.3919578564791
 20
171.4511704853602
 30
0.0
 11
585.3502039396071
 21
171.4511704853602
 31
0.0
  0
LINE
  5
9D5
330
1F
100
AcDbEntity
  8
0
  6
Continuous
 62
     7
100
AcDbLine
 10
585.3502039396071
 20
171.4511704853602
 30
0.0
 11
321.0972374577759
 21
171.4511704853603
 31
0.0
  0
LINE
  5
9D6
330
1F
100
AcDbEntity
  8
0
  6
Continuous
 62
     7
100
AcDbLine
 10
321.0972374577759
 20
171.4511704853603
 30
0.0
 11
146.391957856479
 21
171.4511704853602
 31
0.0
  0
LINE
  5
9D7
330
1F
100
AcDbEntity
  8
0
  6
Continuous
 62
     9
100
AcDbLine
 10
725.3919578564791
 20
173.4511704853602
 30
0.0
 11
585.3502039396071
 21
173.4511704853602
 31
0.0
  0
LINE
  5
9D8
330
1F
100
AcDbEntity
  8
0
  6
Continuous
 62
     9
100
AcDbLine
 10
585.3502039396071
 20
173.4511704853602
 30
0.0
 11
321.0972374577759
 21
173.4511704853602
 31
0.0
  0
LINE
  5
9D9
330
1F
100
AcDbEntity
  8
0
  6
Continuous
 62
     9
100
AcDbLine
 10
321.0972374577759
 20
173.4511704853602
 30
0.0
 11
146.391957856479
 21
173.4511704853602
 31
0.0
  0
LINE
  5
9DA
330
1F
100
AcDbEntity
  8
RUNDUNGEN
  6
Continuous
 62
     9
100
AcDbLine
 10
508.8919578564791
 20
169.2810921226602
 30
0.0
 11
508.8919578564791
 21
166.4511704853602
 31
0.0
  0
LINE
  5
9DB
330
1F
100
AcDbEntity
  8
0
  6
Continuous
 62
     9
100
AcDbLine
 10
508.8919578564791
 20
122.3511704853602
 30
0.0
 11
508.8919578564791
 21
112.4511704853602
 31
0.0
  0
LINE
  5
9DC
330
1F
100
AcDbEntity
  8
RUNDUNGEN
  6
Continuous
 62
     9
100
AcDbLine
 10
508.8919578564791
 20
109.6212488480602
 30
0.0
 11
508.8919578564791
 21
112.4511704853602
 31
0.0
  0
LINE
  5
9DD
330
1F
100
AcDbEntity
  8
0
  6
Continuous
 62
     9
100
AcDbLine
 10
508.8919578564791
 20
156.5511704853602
 30
0.0
 11
508.8919578564791
 21
166.4511704853602
 31
0.0
  0
LINE
  5
9DE
330
1F
100
AcDbEntity
  8
0
  6
Continuous
 62
     9
100
AcDbLine
 10
146.391957856479
 20
183.4511704853602
 30
0.0
 11
321.0972374577759
 21
183.4511704853602
 31
0.0
  0
LINE
  5
9DF
330
1F
100
AcDbEntity
  8
0
  6
Continuous
 62
     9
100
AcDbLine
 10
321.0972374577759
 20
183.4511704853602
 30
0.0
 11
585.3502039396071
 21
183.4511704853602
 31
0.0
  0
LINE
  5
9E0
330
1F
100
AcDbEntity
  8
0
  6
Continuous
 62
     9
100
AcDbLine
 10
585.3502039396071
 20
183.4511704853602
 30
0.0
 11
725.3919578564791
 21
183.4511704853602
 31
0.0
  0
LINE
  5
9E1
330
1F
100
AcDbEntity
  8
0
  6
Continuous
 62
     7
100
AcDbLine
 10
757.891957856479
 20
184.4511704853602
 30
0.0
 11
585.3502039396071
 21
184.4511704853603
 31
0.0
  0
LINE
  5
9E2
330
1F
100
AcDbEntity
  8
0
  6
Continuous
 62
     7
100
AcDbLine
 10
585.3502039396071
 20
184.4511704853603
 30
0.0
 11
321.0972374577759
 21
184.4511704853603
 31
0.0
  0
LINE
  5
9E3
330
1F
100
AcDbEntity
  8
0
  6
Continuous
 62
     7
100
AcDbLine
 10
321.0972374577759
 20
184.4511704853603
 30
0.0
 11
113.891957856479
 21
184.4511704853602
 31
0.0
  0
LINE
  5
9E4
330
1F
100
AcDbEntity
  8
0
  6
Continuous
 62
     3
100
AcDbLine
 10
757.891957856479
 20
185.4511704853602
 30
0.0
 11
585.3502039396071
 21
185.4511704853603
 31
0.0
  0
LINE
  5
9E5
330
1F
100
AcDbEntity
  8
0
  6
Continuous
 62
     3
100
AcDbLine
 10
585.3502039396071
 20
185.4511704853603
 30
0.0
 11
321.0972374577759
 21
185.4511704853602
 31
0.0
  0
LINE
  5
9E6
330
1F
100
AcDbEntity
  8
0
  6
Continuous
 62
     3
100
AcDbLine
 10
321.0972374577759
 20
185.4511704853602
 30
0.0
 11
113.891957856479
 21
185.4511704853602
 31
0.0
  0
LINE
  5
9E7
330
1F
100
AcDbEntity
  8
0
  6
Continuous
 62
     7
100
AcDbLine
 10
725.3919578564791
 20
184.4441747785602
 30
0.0
 11
725.3919578564791
 21
171.7191196777602
 31
0.0
  0
LINE
  5
9E8
330
1F
100
AcDbEntity
  8
RUNDUNGEN
  6
Continuous
 62
     7
100
AcDbLine
 10
725.3919578564791
 20
171.7191196777602
 30
0.0
 11
725.3919578564791
 21
107.3634468979602
 31
0.0
  0
LINE
  5
9E9
330
1F
100
AcDbEntity
  8
0
  6
Continuous
 62
     7
100
AcDbLine
 10
725.3919578564791
 20
107.3634468979602
 30
0.0
 11
725.3919578564791
 21
104.5388940727602
 31
0.0
  0
LINE
  5
9EA
330
1F
100
AcDbEntity
  8
RUNDUNGEN
  6
Continuous
 62
     7
100
AcDbLine
 10
725.3919578564791
 20
104.5388940727602
 30
0.0
 11
725.3919578564791
 21
104.4511704853602
 31
0.0
  0
LINE
  5
9EB
330
1F
100
AcDbEntity
  8
0
  6
Continuous
 62
     7
100
AcDbLine
 10
725.3919578564791
 20
104.4511704853602
 30
0.0
 11
725.3919578564791
 21
73.45117048536026
 31
0.0
  0
LINE
  5
9EC
330
1F
100
AcDbEntity
  8
RUNDUNGEN
  6
Continuous
 62
     7
100
AcDbLine
 10
727.3919578564791
 20
104.4511704853602
 30
0.0
 11
727.3919578564791
 21
184.4511704853602
 31
0.0
  0
LINE
  5
9ED
330
1F
100
AcDbEntity
  8
0
  6
Continuous
 62
     9
100
AcDbLine
 10
747.8919578564791
 20
184.4511704853602
 30
0.0
 11
747.8919578564791
 21
185.4511704853602
 31
0.0
  0
LINE
  5
9EE
330
1F
100
AcDbEntity
  8
0
  6
Continuous
 62
     7
100
AcDbLine
 10
757.891957856479
 20
185.4511704853602
 30
0.0
 11
757.891957856479
 21
184.4511704853602
 31
0.0
  0
LINE
  5
9EF
330
1F
100
AcDbEntity
  8
RUNDUNGEN
  6
Continuous
 62
     7
100
AcDbLine
 10
757.891957856479
 20
83.45117048536025
 30
0.0
 11
757.891957856479
 21
184.4511704853602
 31
0.0
  0
ARC
  5
9F0
330
1F
100
AcDbEntity
  8
RUNDUNGEN
  6
Continuous
 62
     7
100
AcDbCircle
 10
345.7919578564792
 20
292.5872877404603
 30
0.0
 40
12.0
100
AcDbArc
 50
180.0
 51
270.0000017476982
  0
CIRCLE
  5
9F1
330
1F
100
AcDbEntity
  8
FASEN
  6
Continuous
 62
     7
100
AcDbCircle
 10
377.891957856479
 20
305.5872877404603
 30
0.0
 40
4.0
  0
ARC
  5
9F2
330
1F
100
AcDbEntity
  8
FASEN
  6
Continuous
 62
     7
100
AcDbCircle
 10
377.891957856479
 20
305.5872877404603
 30
0.0
 40
3.375
100
AcDbArc
 50
90.0
 51
89.78036400280162
  0
ARC
  5
9F3
330
1F
100
AcDbEntity
  8
0
  6
Continuous
 62
     2
100
AcDbCircle
 10
377.891957856479
 20
305.5872877404603
 30
0.0
 40
3.234999999999998
100
AcDbArc
 50
254.9999999999988
 51
194.9999999999994
  0
ARC
  5
9F4
330
1F
100
AcDbEntity
  8
0
  6
Continuous
 62
     7
100
AcDbCircle
 10
261.5030312514792
 20
329.2785196673602
 30
0.0
 40
2.010742808399998
100
AcDbArc
 50
270.0271670921988
 51
284.2357187133976
  0
ARC
  5
9F5
330
1F
100
AcDbEntity
  8
0
  6
Continuous
 62
     7
100
AcDbCircle
 10
267.5828669473791
 20
328.8193659203603
 30
0.0
 40
2.0030019327
100
AcDbArc
 50
255.7362389759984
 51
284.2637610240016
  0
ARC
  5
9F6
330
1F
100
AcDbEntity
  8
0
  6
Continuous
 62
     7
100
AcDbCircle
 10
275.437412401879
 20
328.8193659203603
 30
0.0
 40
2.0030019327
100
AcDbArc
 50
255.7362389759984
 51
284.2637610240016
  0
ARC
  5
9F7
330
1F
100
AcDbEntity
  8
0
  6
Continuous
 62
     3
100
AcDbCircle
 10
263.6555942200792
 20
326.7145799202602
 30
0.0
 40
2.0030019327
100
AcDbArc
 50
75.73623897599834
 51
104.2637610240016
  0
ARC
  5
9F8
330
1F
100
AcDbEntity
  8
0
  6
Continuous
 62
     3
100
AcDbCircle
 10
271.510139674579
 20
326.7145799202602
 30
0.0
 40
2.0030019327
100
AcDbArc
 50
75.73623897599834
 51
104.2637610240016
  0
ARC
  5
9F9
330
1F
100
AcDbEntity
  8
0
  6
Continuous
 62
     3
100
AcDbCircle
 10
279.3646851291792
 20
326.7145799202602
 30
0.0
 40
2.0030019327
100
AcDbArc
 50
75.73623897599834
 51
104.2637610240016
  0
ARC
  5
9FA
330
1F
100
AcDbEntity
  8
RUNDUNGEN
  6
Continuous
 62
     7
100
AcDbCircle
 10
332.8904005338791
 20
327.7672684551603
 30
0.0
 40
2.001435087499999
100
AcDbArc
 50
359.9454636771
 51
89.94928094960057
  0
ARC
  5
9FB
330
1F
100
AcDbEntity
  8
BEZUGSACHSEN
  6
Continuous
 62
     9
100
AcDbCircle
 10
185.3913173927791
 20
327.6749643558602
 30
0.0
 40
2.000591840999998
100
AcDbArc
 50
89.98165774359891
 51
149.9355899165016
  0
ARC
  5
9FC
330
1F
100
AcDbEntity
  8
BEZUGSACHSEN
  6
Continuous
 62
     9
100
AcDbCircle
 10
188.3925983295791
 20
327.6749643503602
 30
0.0
 40
2.000591840999998
100
AcDbArc
 50
30.0644103546008
 51
90.01834252760216
  0
ARC
  5
9FD
330
1F
100
AcDbEntity
  8
BEZUGSACHSEN
  6
Continuous
 62
     9
100
AcDbCircle
 10
165.3913173927791
 20
327.6749643558602
 30
0.0
 40
2.000591840999998
100
AcDbArc
 50
89.98165774359891
 51
149.9355899165016
  0
ARC
  5
9FE
330
1F
100
AcDbEntity
  8
BEZUGSACHSEN
  6
Continuous
 62
     9
100
AcDbCircle
 10
168.3925983295791
 20
327.6749643503602
 30
0.0
 40
2.000591840999998
100
AcDbArc
 50
30.0644103546008
 51
90.01834252760216
  0
ARC
  5
9FF
330
1F
100
AcDbEntity
  8
BEZUGSACHSEN
  6
Continuous
 62
     9
100
AcDbCircle
 10
188.3939763384792
 20
327.9599164646603
 30
0.0
 40
1.998622092999998
100
AcDbArc
 50
30.04727812160103
 51
65.04985780770157
  0
ARC
  5
A00
330
1F
100
AcDbEntity
  8
BEZUGSACHSEN
  6
Continuous
 62
     9
100
AcDbCircle
 10
168.3939763384791
 20
327.9599164646603
 30
0.0
 40
1.998622092999998
100
AcDbArc
 50
30.04727812160103
 51
65.04985778390054
  0
ARC
  5
A01
330
1F
100
AcDbEntity
  8
BEZUGSACHSEN
  6
Continuous
 62
     9
100
AcDbCircle
 10
165.389939371479
 20
327.9599164681603
 30
0.0
 40
1.9986220887
100
AcDbArc
 50
114.9501438396017
 51
149.9527219240989
  0
ARC
  5
A02
330
1F
100
AcDbEntity
  8
BEZUGSACHSEN
  6
Continuous
 62
     9
100
AcDbCircle
 10
185.389939371479
 20
327.9599164681603
 30
0.0
 40
1.9986220887
100
AcDbArc
 50
114.9501438159008
 51
149.9527219240989
  0
ARC
  5
A03
330
1F
100
AcDbEntity
  8
0
  6
Continuous
 62
     3
100
AcDbCircle
 10
263.6536964828792
 20
327.8274963154603
 30
0.0
 40
1.995355664999999
100
AcDbArc
 50
103.2521426962974
 51
104.2633520597975
  0
ARC
  5
A04
330
1F
100
AcDbEntity
  8
0
  6
Continuous
 62
     3
100
AcDbCircle
 10
263.6574919572792
 20
327.8274963154603
 30
0.0
 40
1.995355664999999
100
AcDbArc
 50
75.73664794020249
 51
76.74785730609824
  0
ARC
  5
A05
330
1F
100
AcDbEntity
  8
0
  6
Continuous
 62
     3
100
AcDbCircle
 10
271.5082419375792
 20
327.8274963149603
 30
0.0
 40
1.9953556655
100
AcDbArc
 50
103.2521426764022
 51
104.2633520596971
  0
ARC
  5
A06
330
1F
100
AcDbEntity
  8
0
  6
Continuous
 62
     3
100
AcDbCircle
 10
271.5120374118792
 20
327.8274963157603
 30
0.0
 40
1.995355664699999
100
AcDbArc
 50
75.73664794010167
 51
76.74785732620096
  0
ARC
  5
A07
330
1F
100
AcDbEntity
  8
0
  6
Continuous
 62
     3
100
AcDbCircle
 10
279.3627873920792
 20
327.8274963151603
 30
0.0
 40
1.995355665299999
100
AcDbArc
 50
103.2521426562995
 51
104.2633520597975
  0
ARC
  5
A08
330
1F
100
AcDbEntity
  8
0
  6
Continuous
 62
     3
100
AcDbCircle
 10
279.366582866279
 20
327.8274963152603
 30
0.0
 40
1.9953556652
100
AcDbArc
 50
75.7366479403029
 51
76.7478573461029
  0
ARC
  5
A09
330
1F
100
AcDbEntity
  8
0
  6
Continuous
 62
     3
100
AcDbCircle
 10
261.503507953479
 20
330.3770494042602
 30
0.0
 40
1.005371404199999
100
AcDbArc
 50
270.027167092303
 51
284.2357187133976
  0
ARC
  5
A0A
330
1F
100
AcDbEntity
  8
0
  6
Continuous
 62
     3
100
AcDbCircle
 10
261.503507953479
 20
329.2715400467603
 30
0.0
 40
1.005371404199999
100
AcDbArc
 50
270.0271670921988
 51
284.2357187133976
  0
ARC
  5
A0B
330
1F
100
AcDbEntity
  8
RUNDUNGEN
  6
Continuous
 62
     7
100
AcDbCircle
 10
144.891957856479
 20
346.7872877404603
 30
0.0
 40
1.0
100
AcDbArc
 50
0.0
 51
180.0
  0
ARC
  5
A0C
330
1F
100
AcDbEntity
  8
0
  6
Continuous
 62
     7
100
AcDbCircle
 10
145.741957856479
 20
348.6372877404602
 30
0.0
 40
0.15
100
AcDbArc
 50
90.0
 51
180.0
  0
ARC
  5
A0D
330
1F
100
AcDbEntity
  8
0
  6
Continuous
 62
     7
100
AcDbCircle
 10
123.391957856479
 20
367.7872877404603
 30
0.0
 40
10.0
100
AcDbArc
 50
90.0
 51
180.0
  0
CIRCLE
  5
A0E
330
1F
100
AcDbEntity
  8
RUNDUNGEN
  6
Continuous
 62
     7
100
AcDbCircle
 10
435.891957856479
 20
303.5872877404603
 30
0.0
 40
25.0002256492
  0
CIRCLE
  5
A0F
330
1F
100
AcDbEntity
  8
RUNDUNGEN
  6
Continuous
 62
     9
100
AcDbCircle
 10
435.891957856479
 20
303.5872877404603
 30
0.0
 40
24.938423821
  0
CIRCLE
  5
A10
330
1F
100
AcDbEntity
  8
0
  6
Continuous
 62
     7
100
AcDbCircle
 10
435.891957856479
 20
303.5872877404603
 30
0.0
 40
23.9693247351
  0
CIRCLE
  5
A11
330
1F
100
AcDbEntity
  8
0
  6
Continuous
 62
     7
100
AcDbCircle
 10
435.891957856479
 20
303.5872877404603
 30
0.0
 40
22.5002256492
  0
CIRCLE
  5
A12
330
1F
100
AcDbEntity
  8
RUNDUNGEN
  6
Continuous
 62
     9
100
AcDbCircle
 10
435.891957856479
 20
303.5872877404603
 30
0.0
 40
18.7307877184
  0
CIRCLE
  5
A13
330
1F
100
AcDbEntity
  8
RUNDUNGEN
  6
Continuous
 62
     7
100
AcDbCircle
 10
435.891957856479
 20
303.5872877404603
 30
0.0
 40
18.5
  0
ARC
  5
A14
330
1F
100
AcDbEntity
  8
RUNDUNGEN
  6
Continuous
 62
     7
100
AcDbCircle
 10
525.991957856479
 20
292.5872877404603
 30
0.0
 40
12.0
100
AcDbArc
 50
269.9999982523018
 51
0.0
  0
ARC
  5
A15
330
1F
100
AcDbEntity
  8
0
  6
Continuous
 62
     7
100
AcDbCircle
 10
610.2808844614791
 20
329.2785196673602
 30
0.0
 40
2.010742808399998
100
AcDbArc
 50
255.7642812866025
 51
269.9728329078012
  0
ARC
  5
A16
330
1F
100
AcDbEntity
  8
0
  6
Continuous
 62
     7
100
AcDbCircle
 10
610.2808844614791
 20
330.3840290248603
 30
0.0
 40
2.010742808399998
100
AcDbArc
 50
255.7642812866025
 51
269.9728329078012
  0
ARC
  5
A17
330
1F
100
AcDbEntity
  8
0
  6
Continuous
 62
     7
100
AcDbCircle
 10
604.2010487655791
 20
328.8193659203603
 30
0.0
 40
2.0030019327
100
AcDbArc
 50
255.7362389759984
 51
284.2637610240016
  0
ARC
  5
A18
330
1F
100
AcDbEntity
  8
0
  6
Continuous
 62
     7
100
AcDbCircle
 10
596.346503310979
 20
328.8193659203603
 30
0.0
 40
2.0030019327
100
AcDbArc
 50
255.7362389759984
 51
284.2637610240016
  0
ARC
  5
A19
330
1F
100
AcDbEntity
  8
0
  6
Continuous
 62
     7
100
AcDbCircle
 10
604.2010487655791
 20
329.9248752777603
 30
0.0
 40
2.0030019327
100
AcDbArc
 50
255.7362389759984
 51
284.2637610240016
  0
ARC
  5
A1A
330
1F
100
AcDbEntity
  8
0
  6
Continuous
 62
     7
100
AcDbCircle
 10
596.346503310979
 20
329.9248752777603
 30
0.0
 40
2.0030019327
100
AcDbArc
 50
255.7362389759984
 51
284.2637610240016
  0
ARC
  5
A1B
330
1F
100
AcDbEntity
  8
0
  6
Continuous
 62
     3
100
AcDbCircle
 10
608.1283214927792
 20
327.8200892777603
 30
0.0
 40
2.0030019327
100
AcDbArc
 50
75.73623897599834
 51
104.2637610240016
  0
ARC
  5
A1C
330
1F
100
AcDbEntity
  8
0
  6
Continuous
 62
     3
100
AcDbCircle
 10
600.273776038279
 20
327.8200892777603
 30
0.0
 40
2.0030019327
100
AcDbArc
 50
75.73623897599834
 51
104.2637610240016
  0
ARC
  5
A1D
330
1F
100
AcDbEntity
  8
0
  6
Continuous
 62
     3
100
AcDbCircle
 10
592.4192305836791
 20
327.8200892777603
 30
0.0
 40
2.0030019327
100
AcDbArc
 50
75.73623897599834
 51
104.2637610240016
  0
ARC
  5
A1E
330
1F
100
AcDbEntity
  8
RUNDUNGEN
  6
Continuous
 62
     7
100
AcDbCircle
 10
538.893515182679
 20
327.7672684514603
 30
0.0
 40
2.001435087499999
100
AcDbArc
 50
90.05071915579888
 51
180.0545362174
  0
ARC
  5
A1F
330
1F
100
AcDbEntity
  8
0
  6
Continuous
 62
     3
100
AcDbCircle
 10
610.2804077593791
 20
330.3770494042602
 30
0.0
 40
1.005371404199999
100
AcDbArc
 50
255.7642812866025
 51
269.9728329078012
  0
ARC
  5
A20
330
1F
100
AcDbEntity
  8
BEZUGSACHSEN
  6
Continuous
 62
     9
100
AcDbCircle
 10
703.3961350743791
 20
327.6776348605602
 30
0.0
 40
1.0041778936
100
AcDbArc
 50
161.9292553365993
 51
179.9335318641998
  0
ARC
  5
A21
330
1F
100
AcDbEntity
  8
BEZUGSACHSEN
  6
Continuous
 62
     9
100
AcDbCircle
 10
683.3961350743791
 20
327.6776348605602
 30
0.0
 40
1.0041778936
100
AcDbArc
 50
161.9292553365993
 51
179.9335318641998
  0
ARC
  5
A22
330
1F
100
AcDbEntity
  8
BEZUGSACHSEN
  6
Continuous
 62
     9
100
AcDbCircle
 10
706.387780667779
 20
327.6776348656603
 30
0.0
 40
1.004177864399999
100
AcDbArc
 50
0.0664678458001577
 51
18.07074658229964
  0
ARC
  5
A23
330
1F
100
AcDbEntity
  8
BEZUGSACHSEN
  6
Continuous
 62
     9
100
AcDbCircle
 10
686.3877806677791
 20
327.6776348656603
 30
0.0
 40
1.004177864399999
100
AcDbArc
 50
0.0664678458001577
 51
18.07074658229964
  0
ARC
  5
A24
102
{ACAD_REACTORS
330
A77
102
}
330
1F
100
AcDbEntity
  8
RUNDUNGEN
  6
Continuous
 62
     7
100
AcDbCircle
 10
726.8919578564791
 20
346.7872877404603
 30
0.0
 40
1.0
100
AcDbArc
 50
0.0
 51
180.0
  0
ARC
  5
A25
330
1F
100
AcDbEntity
  8
0
  6
Continuous
 62
     7
100
AcDbCircle
 10
726.041957856479
 20
348.6372877404602
 30
0.0
 40
0.15
100
AcDbArc
 50
0.0
 51
90.0
  0
ARC
  5
A26
330
1F
100
AcDbEntity
  8
0
  6
Continuous
 62
     7
100
AcDbCircle
 10
748.391957856479
 20
367.7872877404603
 30
0.0
 40
10.0
100
AcDbArc
 50
0.0
 51
90.0
  0
ARC
  5
A27
330
1F
100
AcDbEntity
  8
RUNDUNGEN
  6
Continuous
 62
     9
100
AcDbCircle
 10
362.8919582391792
 20
139.6212492385602
 30
0.0
 40
30.00000039050001
100
AcDbArc
 50
180.3248279826
 51
269.999999268998
  0
ARC
  5
A28
330
1F
100
AcDbEntity
  8
RUNDUNGEN
  6
Continuous
 62
     9
100
AcDbCircle
 10
508.8919574736791
 20
139.2810917321602
 30
0.0
 40
30.00000039050001
100
AcDbArc
 50
0.3248279826000648
 51
89.999999268998
  0
ARC
  5
A29
330
1F
100
AcDbEntity
  8
RUNDUNGEN
  6
Continuous
 62
     9
100
AcDbCircle
 10
508.8919578182791
 20
139.6212488806602
 30
0.0
 40
30.0000000326
100
AcDbArc
 50
270.000000072798
 51
359.6751722045999
  0
ARC
  5
A2A
330
1F
100
AcDbEntity
  8
RUNDUNGEN
  6
Continuous
 62
     9
100
AcDbCircle
 10
362.8919578945791
 20
139.2810920900602
 30
0.0
 40
30.0000000326
100
AcDbArc
 50
90.00000007279798
 51
179.6751722045999
  0
ARC
  5
A2B
330
1F
100
AcDbEntity
  8
RUNDUNGEN
  6
Continuous
 62
     7
100
AcDbCircle
 10
362.891957856479
 20
139.4511704853602
 30
0.0
 40
27.0
100
AcDbArc
 50
89.99971863439776
 51
270.0003105580013
  0
ARC
  5
A2C
330
1F
100
AcDbEntity
  8
RUNDUNGEN
  6
Continuous
 62
     7
100
AcDbCircle
 10
508.8919578564791
 20
139.4511704853602
 30
0.0
 40
27.0
100
AcDbArc
 50
269.9997186343978
 51
90.00031055800125
  0
ARC
  5
A2D
330
1F
100
AcDbEntity
  8
0
  6
Continuous
 62
     9
100
AcDbCircle
 10
362.891957856479
 20
139.4511704853602
 30
0.0
 40
17.1
100
AcDbArc
 50
90.0
 51
270.0
  0
ARC
  5
A2E
330
1F
100
AcDbEntity
  8
0
  6
Continuous
 62
     9
100
AcDbCircle
 10
508.8919578564791
 20
139.4511704853602
 30
0.0
 40
17.1
100
AcDbArc
 50
270.0
 51
90.0
  0
ARC
  5
A2F
330
1F
100
AcDbEntity
  8
RUNDUNGEN
  6
Continuous
 62
     7
100
AcDbCircle
 10
123.891957856479
 20
83.45117048536025
 30
0.0
 40
10.0
100
AcDbArc
 50
180.0
 51
270.0
  0
ARC
  5
A30
330
1F
100
AcDbEntity
  8
RUNDUNGEN
  6
Continuous
 62
     7
100
AcDbCircle
 10
747.8919578564791
 20
83.45117048536025
 30
0.0
 40
10.0
100
AcDbArc
 50
270.0
 51
0.0
  0
ARC
  5
A31
330
1F
100
AcDbEntity
  8
0
  6
Continuous
 62
     9
100
AcDbCircle
 10
413.891957856479
 20
139.4511704853602
 30
0.0
 40
4.769696007099999
100
AcDbArc
 50
134.565309381202
 51
125.6374560331995
  0
ARC
  5
A32
330
1F
100
AcDbEntity
  8
0
  6
Continuous
 62
     9
100
AcDbCircle
 10
457.891957856479
 20
139.4511704853602
 30
0.0
 40
4.769696007099999
100
AcDbArc
 50
134.565309381202
 51
125.6374560331995
  0
ARC
  5
A33
330
1F
100
AcDbEntity
  8
0
  6
Continuous
 62
     9
100
AcDbCircle
 10
413.891957856479
 20
139.4511704853602
 30
0.0
 40
4.292726406399999
100
AcDbArc
 50
134.565309381202
 51
126.4728417342978
  0
ARC
  5
A34
330
1F
100
AcDbEntity
  8
0
  6
Continuous
 62
     9
100
AcDbCircle
 10
457.891957856479
 20
139.4511704853602
 30
0.0
 40
4.292726406399999
100
AcDbArc
 50
134.565309381202
 51
126.4728417342978
  0
ARC
  5
A35
330
1F
100
AcDbEntity
  8
RUNDUNGEN
  6
Continuous
 62
     7
100
AcDbCircle
 10
413.8917322072792
 20
30.65722202766025
 30
0.0
 40
3.0
100
AcDbArc
 50
180.0
 51
191.6500035256003
  0
ARC
  5
A36
330
1F
100
AcDbEntity
  8
RUNDUNGEN
  6
Continuous
 62
     7
100
AcDbCircle
 10
457.892183505579
 20
30.65722202766025
 30
0.0
 40
3.0
100
AcDbArc
 50
348.3499964743998
 51
0.0
  0
SPLINE
  5
A37
330
1F
100
AcDbEntity
  8
0
  6
Continuous
 62
     7
100
AcDbSpline
210
0.0
220
0.0
230
1.0
 70
     8
 71
     3
 72
     8
 73
     4
 74
     0
 42
0.000000001
 43
0.0000000001
 40
0.0
 40
0.0
 40
0.0
 40
0.0
 40
1.0
 40
1.0
 40
1.0
 40
1.0
 10
263.4088383317791
 20
327.6883137579603
 30
0.0
 10
263.5682710139791
 20
327.7288447506602
 30
0.0
 10
263.7429174261793
 20
327.7288447506602
 30
0.0
 10
263.9023501083791
 20
327.6883137579603
 30
0.0
  0
SPLINE
  5
A38
330
1F
100
AcDbEntity
  8
0
  6
Continuous
 62
     7
100
AcDbSpline
210
0.0
220
0.0
230
1.0
 70
     8
 71
     3
 72
     8
 73
     4
 74
     0
 42
0.000000001
 43
0.0000000001
 40
0.0
 40
0.0
 40
0.0
 40
0.0
 40
1.0
 40
1.0
 40
1.0
 40
1.0
 10
271.263383786279
 20
327.6883137579603
 30
0.0
 10
271.422816468479
 20
327.7288447506602
 30
0.0
 10
271.5974628807791
 20
327.7288447506602
 30
0.0
 10
271.756895562979
 20
327.6883137579603
 30
0.0
  0
SPLINE
  5
A39
330
1F
100
AcDbEntity
  8
0
  6
Continuous
 62
     7
100
AcDbSpline
210
0.0
220
0.0
230
1.0
 70
     8
 71
     3
 72
     8
 73
     4
 74
     0
 42
0.000000001
 43
0.0000000001
 40
0.0
 40
0.0
 40
0.0
 40
0.0
 40
1.0
 40
1.0
 40
1.0
 40
1.0
 10
279.1179292408792
 20
327.6883137579603
 30
0.0
 10
279.2773619230793
 20
327.7288447506602
 30
0.0
 10
279.4520083352793
 20
327.7288447506602
 30
0.0
 10
279.6114410174791
 20
327.6883137579603
 30
0.0
  0
SPLINE
  5
A3A
330
1F
100
AcDbEntity
  8
0
  6
Continuous
 62
     7
100
AcDbSpline
210
0.0
220
0.0
230
1.0
 70
     8
 71
     3
 72
    23
 73
    19
 74
     0
 42
0.000000001
 43
0.0000000001
 40
0.0
 40
0.0
 40
0.0
 40
0.0
 40
0.0036582121
 40
0.0113290881
 40
0.0400990389
 40
0.0863145472
 40
0.1482898633
 40
0.2237168888
 40
0.3097176538
 40
0.5
 40
0.6902823462000001
 40
0.7762831112000002
 40
0.8517101367
 40
0.9136854528
 40
0.9599009610999999
 40
0.9886709119
 40
0.9963417879000001
 40
1.0
 40
1.0
 40
1.0
 40
1.0
 10
668.6419578564791
 20
327.9268307404602
 30
0.0
 10
668.6419578564791
 20
327.9283635361603
 30
0.0
 10
668.646718444579
 20
327.9316847241603
 30
0.0
 10
668.6619063569791
 20
327.9361502797602
 30
0.0
 10
668.697105869579
 20
327.9419569923602
 30
0.0
 10
668.753695952079
 20
327.9473646562602
 30
0.0
 10
668.8306961900791
 20
327.9525231557603
 30
0.0
 10
668.9241318396791
 20
327.9567139345602
 30
0.0
 10
669.0714717181791
 20
327.9610760147602
 30
0.0
 10
669.2669578564792
 20
327.9630791856603
 30
0.0
 10
669.462443994679
 20
327.9610760147602
 30
0.0
 10
669.6097838731791
 20
327.9567139345602
 30
0.0
 10
669.703219522879
 20
327.9525231557603
 30
0.0
 10
669.7802197608791
 20
327.9473646562602
 30
0.0
 10
669.8368098432791
 20
327.9419569923602
 30
0.0
 10
669.872009355879
 20
327.9361502797602
 30
0.0
 10
669.8871972682791
 20
327.9316847241603
 30
0.0
 10
669.8919578564791
 20
327.9283635361603
 30
0.0
 10
669.8919578564791
 20
327.9268307404602
 30
0.0
  0
SPLINE
  5
A3B
330
1F
100
AcDbEntity
  8
BEZUGSACHSEN
  6
Continuous
 62
     7
100
AcDbSpline
210
0.0
220
0.0
230
1.0
 70
     8
 71
     3
 72
    29
 73
    25
 74
     0
 42
0.000000001
 43
0.0000000001
 40
0.0
 40
0.0
 40
0.0
 40
0.0
 40
0.0036561834
 40
0.0113186728
 40
0.0234757075
 40
0.0401175972
 40
0.0611270874
 40
0.0863243887
 40
0.148302964
 40
0.2237253554
 40
0.3097206052
 40
0.4030023954
 40
0.5
 40
0.5969976046
 40
0.6902793948000002
 40
0.7762746446
 40
0.8516970359999998
 40
0.9136756113
 40
0.9388729126000001
 40
0.9598824028000001
 40
0.9765242924999999
 40
0.9886813271999999
 40
0.9963438165999999
 40
1.0
 40
1.0
 40
1.0
 40
1.0
 10
636.5919578564791
 20
327.8205317637603
 30
0.0
 10
636.5919578564791
 20
327.8278855273603
 30
0.0
 10
636.5691934378791
 20
327.8439074042602
 30
0.0
 10
636.5267831190792
 20
327.8563174071603
 30
0.0
 10
636.4536139996791
 20
327.8727347508602
 30
0.0
 10
636.3551268336792
 20
327.8873075277603
 30
0.0
 10
636.2293385343791
 20
327.9021915578602
 30
0.0
 10
636.012760286879
 20
327.9222103609602
 30
0.0
 10
635.686316914179
 20
327.9437406559603
 30
0.0
 10
635.2374628732791
 20
327.9640064236603
 30
0.0
 10
634.725376678579
 20
327.9791512538602
 30
0.0
 10
634.1697683680791
 20
327.9885136762603
 30
0.0
 10
633.5919578564791
 20
327.9916788214602
 30
0.0
 10
633.0141473447792
 20
327.9885136762603
 30
0.0
 10
632.458539034279
 20
327.9791512538602
 30
0.0
 10
631.946452839579
 20
327.9640064236603
 30
0.0
 10
631.497598798679
 20
327.9437406559603
 30
0.0
 10
631.1711554259791
 20
327.9222103609602
 30
0.0
 10
630.9545771784789
 20
327.9021915578602
 30
0.0
 10
630.828788879279
 20
327.8873075277603
 30
0.0
 10
630.7303017131791
 20
327.8727347508602
 30
0.0
 10
630.6571325937791
 20
327.8563174071603
 30
0.0
 10
630.6147222749792
 20
327.8439074042602
 30
0.0
 10
630.5919578564791
 20
327.8278855273603
 30
0.0
 10
630.5919578564791
 20
327.8205317637603
 30
0.0
  0
SPLINE
  5
A3C
330
1F
100
AcDbEntity
  8
0
  6
Continuous
 62
     7
100
AcDbSpline
210
0.0
220
0.0
230
1.0
 70
     8
 71
     3
 72
     8
 73
     4
 74
     0
 42
0.000000001
 43
0.0000000001
 40
0.0
 40
0.0
 40
0.0
 40
0.0
 40
1.0
 40
1.0
 40
1.0
 40
1.0
 10
608.3750773811791
 20
327.6883137579603
 30
0.0
 10
608.215644698879
 20
327.7288447506602
 30
0.0
 10
608.040998286679
 20
327.7288447506602
 30
0.0
 10
607.8815656044792
 20
327.6883137579603
 30
0.0
  0
SPLINE
  5
A3D
330
1F
100
AcDbEntity
  8
0
  6
Continuous
 62
     7
100
AcDbSpline
210
0.0
220
0.0
230
1.0
 70
     8
 71
     3
 72
     8
 73
     4
 74
     0
 42
0.000000001
 43
0.0000000001
 40
0.0
 40
0.0
 40
0.0
 40
0.0
 40
1.0
 40
1.0
 40
1.0
 40
1.0
 10
600.520531926579
 20
327.6883137579603
 30
0.0
 10
600.3610992443791
 20
327.7288447506602
 30
0.0
 10
600.1864528321791
 20
327.7288447506602
 30
0.0
 10
600.027020149879
 20
327.6883137579603
 30
0.0
  0
SPLINE
  5
A3E
330
1F
100
AcDbEntity
  8
0
  6
Continuous
 62
     7
100
AcDbSpline
210
0.0
220
0.0
230
1.0
 70
     8
 71
     3
 72
     8
 73
     4
 74
     0
 42
0.000000001
 43
0.0000000001
 40
0.0
 40
0.0
 40
0.0
 40
0.0
 40
1.0
 40
1.0
 40
1.0
 40
1.0
 10
592.665986472079
 20
327.6883137579603
 30
0.0
 10
592.506553789879
 20
327.7288447506602
 30
0.0
 10
592.3319073775791
 20
327.7288447506602
 30
0.0
 10
592.1724746953791
 20
327.6883137579603
 30
0.0
  0
SPLINE
  5
A3F
330
1F
100
AcDbEntity
  8
BEZUGSACHSEN
  6
Continuous
 62
     7
100
AcDbSpline
210
0.0
220
0.0
230
1.0
 70
     8
 71
     3
 72
    29
 73
    25
 74
     0
 42
0.000000001
 43
0.0000000001
 40
0.0
 40
0.0
 40
0.0
 40
0.0
 40
0.0036562871
 40
0.0113188553
 40
0.0234749074
 40
0.040119465
 40
0.0611260063
 40
0.0863246365
 40
0.1483016966
 40
0.2237245545
 40
0.3097192975
 40
0.4030041862
 40
0.5
 40
0.5969958138
 40
0.6902807025
 40
0.7762754455
 40
0.8516983034
 40
0.9136753634999998
 40
0.9388739937
 40
0.9598805350000001
 40
0.9765250926
 40
0.9886811446999999
 40
0.9963437129
 40
1.0
 40
1.0
 40
1.0
 40
1.0
 10
707.3919578564791
 20
327.9622637326603
 30
0.0
 10
707.3919578564791
 20
327.9683920357603
 30
0.0
 10
707.3729794393791
 20
327.9817371011603
 30
0.0
 10
707.3376448100791
 20
327.9920832454602
 30
0.0
 10
707.2766661139791
 20
328.0057691961602
 30
0.0
 10
707.194596048479
 20
328.0179086702603
 30
0.0
 10
707.089771067679
 20
328.0303167479602
 30
0.0
 10
706.909294103279
 20
328.0469918892602
 30
0.0
 10
706.6372582509791
 20
328.0649395550603
 30
0.0
 10
706.2632161328791
 20
328.0818266106602
 30
0.0
 10
705.8364730221789
 20
328.0944472723603
 30
0.0
 10
705.3734652462789
 20
328.1022473927603
 30
0.0
 10
704.8919578564792
 20
328.1048852255602
 30
0.0
 10
704.410450466579
 20
328.1022473927603
 30
0.0
 10
703.9474426906791
 20
328.0944472723603
 30
0.0
 10
703.5206995799789
 20
328.0818266106602
 30
0.0
 10
703.1466574618791
 20
328.0649395550603
 30
0.0
 10
702.874621609579
 20
328.0469918892602
 30
0.0
 10
702.694144645179
 20
328.0303167479602
 30
0.0
 10
702.589319664479
 20
328.0179086702603
 30
0.0
 10
702.5072495989791
 20
328.0057691961602
 30
0.0
 10
702.4462709027791
 20
327.9920832454602
 30
0.0
 10
702.4109362734791
 20
327.9817371011603
 30
0.0
 10
702.3919578564791
 20
327.9683920357603
 30
0.0
 10
702.3919578564791
 20
327.9622637326603
 30
0.0
  0
SPLINE
  5
A40
330
1F
100
AcDbEntity
  8
BEZUGSACHSEN
  6
Continuous
 62
     7
100
AcDbSpline
210
0.0
220
0.0
230
1.0
 70
     8
 71
     3
 72
    29
 73
    25
 74
     0
 42
0.000000001
 43
0.0000000001
 40
0.0
 40
0.0
 40
0.0
 40
0.0
 40
0.0036562871
 40
0.0113188553
 40
0.0234749074
 40
0.040119465
 40
0.0611260063
 40
0.0863246365
 40
0.1483016966
 40
0.2237245545
 40
0.3097192975
 40
0.4030041862
 40
0.5
 40
0.5969958138
 40
0.6902807025
 40
0.7762754455
 40
0.8516983034
 40
0.9136753634999998
 40
0.9388739937
 40
0.9598805350000001
 40
0.9765250926
 40
0.9886811446999999
 40
0.9963437129
 40
1.0
 40
1.0
 40
1.0
 40
1.0
 10
687.3919578564791
 20
327.9622637326603
 30
0.0
 10
687.3919578564791
 20
327.9683920357603
 30
0.0
 10
687.3729794393791
 20
327.9817371011603
 30
0.0
 10
687.3376448100791
 20
327.9920832454602
 30
0.0
 10
687.2766661139791
 20
328.0057691961602
 30
0.0
 10
687.194596048479
 20
328.0179086702603
 30
0.0
 10
687.089771067679
 20
328.0303167479602
 30
0.0
 10
686.909294103279
 20
328.0469918892602
 30
0.0
 10
686.6372582509791
 20
328.0649395550603
 30
0.0
 10
686.263216132879
 20
328.0818266106602
 30
0.0
 10
685.836473022179
 20
328.0944472723603
 30
0.0
 10
685.373465246279
 20
328.1022473927603
 30
0.0
 10
684.8919578564792
 20
328.1048852255602
 30
0.0
 10
684.4104504665789
 20
328.1022473927603
 30
0.0
 10
683.947442690679
 20
328.0944472723603
 30
0.0
 10
683.520699579979
 20
328.0818266106602
 30
0.0
 10
683.1466574618791
 20
328.0649395550603
 30
0.0
 10
682.874621609579
 20
328.0469918892602
 30
0.0
 10
682.694144645179
 20
328.0303167479602
 30
0.0
 10
682.589319664479
 20
328.0179086702603
 30
0.0
 10
682.5072495989791
 20
328.0057691961602
 30
0.0
 10
682.4462709027791
 20
327.9920832454602
 30
0.0
 10
682.4109362734791
 20
327.9817371011603
 30
0.0
 10
682.3919578564791
 20
327.9683920357603
 30
0.0
 10
682.3919578564791
 20
327.9622637326603
 30
0.0
  0
SPLINE
  5
A41
330
1F
100
AcDbEntity
  8
BEZUGSACHSEN
  6
Continuous
 62
     7
100
AcDbSpline
210
0.0
220
0.0
230
1.0
 70
     8
 71
     3
 72
    29
 73
    25
 74
     0
 42
0.000000001
 43
0.0000000001
 40
0.0
 40
0.0
 40
0.0
 40
0.0
 40
0.0036561834
 40
0.0113186728
 40
0.0234757075
 40
0.0401175972
 40
0.0611270874
 40
0.0863243887
 40
0.148302964
 40
0.2237253554
 40
0.3097206052
 40
0.4030023954
 40
0.5
 40
0.5969976046
 40
0.6902793948000002
 40
0.7762746446
 40
0.8516970359999998
 40
0.9136756113
 40
0.9388729126000001
 40
0.9598824028000001
 40
0.9765242924999999
 40
0.9886813271999999
 40
0.9963438165999999
 40
1.0
 40
1.0
 40
1.0
 40
1.0
 10
630.5919578564791
 20
327.8205317637603
 30
0.0
 10
630.5919578564791
 20
327.8131780002603
 30
0.0
 10
630.6147222749792
 20
327.7971561232603
 30
0.0
 10
630.6571325937791
 20
327.7847461203603
 30
0.0
 10
630.7303017131791
 20
327.7683287766603
 30
0.0
 10
630.828788879279
 20
327.7537559997603
 30
0.0
 10
630.9545771784789
 20
327.7388719696603
 30
0.0
 10
631.1711554259791
 20
327.7188531665603
 30
0.0
 10
631.497598798679
 20
327.6973228715602
 30
0.0
 10
631.946452839579
 20
327.6770571038603
 30
0.0
 10
632.458539034279
 20
327.6619122737603
 30
0.0
 10
633.0141473447792
 20
327.6525498512602
 30
0.0
 10
633.5919578564791
 20
327.6493847060602
 30
0.0
 10
634.1697683680791
 20
327.6525498512602
 30
0.0
 10
634.725376678579
 20
327.6619122737603
 30
0.0
 10
635.2374628732791
 20
327.6770571038603
 30
0.0
 10
635.686316914179
 20
327.6973228715602
 30
0.0
 10
636.012760286879
 20
327.7188531665603
 30
0.0
 10
636.2293385343791
 20
327.7388719696603
 30
0.0
 10
636.3551268336792
 20
327.7537559997603
 30
0.0
 10
636.4536139996791
 20
327.7683287766603
 30
0.0
 10
636.5267831190792
 20
327.7847461203603
 30
0.0
 10
636.5691934378791
 20
327.7971561232603
 30
0.0
 10
636.5919578564791
 20
327.8131780002603
 30
0.0
 10
636.5919578564791
 20
327.8205317637603
 30
0.0
  0
SPLINE
  5
A42
330
1F
100
AcDbEntity
  8
0
  6
Continuous
 62
     7
100
AcDbSpline
210
0.0
220
0.0
230
1.0
 70
     8
 71
     3
 72
     8
 73
     4
 74
     0
 42
0.000000001
 43
0.0000000001
 40
0.0
 40
0.0
 40
0.0
 40
0.0
 40
1.0
 40
1.0
 40
1.0
 40
1.0
 10
608.3750773811791
 20
328.7938231154602
 30
0.0
 10
608.215644698879
 20
328.8343541080603
 30
0.0
 10
608.040998286679
 20
328.8343541080603
 30
0.0
 10
607.8815656044792
 20
328.7938231154602
 30
0.0
  0
SPLINE
  5
A43
330
1F
100
AcDbEntity
  8
BEZUGSACHSEN
  6
Continuous
 62
     7
100
AcDbSpline
210
0.0
220
0.0
230
1.0
 70
     8
 71
     3
 72
    29
 73
    25
 74
     0
 42
0.000000001
 43
0.0000000001
 40
0.0
 40
0.0
 40
0.0
 40
0.0
 40
0.0036562871
 40
0.0113188553
 40
0.0234749074
 40
0.040119465
 40
0.0611260063
 40
0.0863246365
 40
0.1483016966
 40
0.2237245545
 40
0.3097192975
 40
0.4030041862
 40
0.5
 40
0.5969958138
 40
0.6902807025
 40
0.7762754455
 40
0.8516983034
 40
0.9136753634999998
 40
0.9388739937
 40
0.9598805350000001
 40
0.9765250926
 40
0.9886811446999999
 40
0.9963437129
 40
1.0
 40
1.0
 40
1.0
 40
1.0
 10
702.3919578564791
 20
327.6787997948603
 30
0.0
 10
702.3919578564791
 20
327.6726714917602
 30
0.0
 10
702.4109362734791
 20
327.6593264263603
 30
0.0
 10
702.4462709027791
 20
327.6489802820603
 30
0.0
 10
702.5072495989791
 20
327.6352943313602
 30
0.0
 10
702.589319664479
 20
327.6231548572603
 30
0.0
 10
702.694144645179
 20
327.6107467795603
 30
0.0
 10
702.874621609579
 20
327.5940716382603
 30
0.0
 10
703.1466574618791
 20
327.5761239724602
 30
0.0
 10
703.5206995799789
 20
327.5592369168603
 30
0.0
 10
703.9474426906791
 20
327.5466162551603
 30
0.0
 10
704.410450466579
 20
327.5388161347603
 30
0.0
 10
704.8919578564792
 20
327.5361783019603
 30
0.0
 10
705.3734652462789
 20
327.5388161347603
 30
0.0
 10
705.8364730221789
 20
327.5466162551603
 30
0.0
 10
706.2632161328791
 20
327.5592369168603
 30
0.0
 10
706.6372582509791
 20
327.5761239724602
 30
0.0
 10
706.909294103279
 20
327.5940716382603
 30
0.0
 10
707.089771067679
 20
327.6107467795603
 30
0.0
 10
707.194596048479
 20
327.6231548572603
 30
0.0
 10
707.2766661139791
 20
327.6352943313602
 30
0.0
 10
707.3376448100791
 20
327.6489802820603
 30
0.0
 10
707.3729794393791
 20
327.6593264263603
 30
0.0
 10
707.3919578564791
 20
327.6726714917602
 30
0.0
 10
707.3919578564791
 20
327.6787997948603
 30
0.0
  0
SPLINE
  5
A44
330
1F
100
AcDbEntity
  8
0
  6
Continuous
 62
     7
100
AcDbSpline
210
0.0
220
0.0
230
1.0
 70
     8
 71
     3
 72
    23
 73
    19
 74
     0
 42
0.000000001
 43
0.0000000001
 40
0.0
 40
0.0
 40
0.0
 40
0.0
 40
0.0036582121
 40
0.0113290881
 40
0.0400990389
 40
0.0863145472
 40
0.1482898633
 40
0.2237168888
 40
0.3097176538
 40
0.5
 40
0.6902823462000001
 40
0.7762831112000002
 40
0.8517101367
 40
0.9136854528
 40
0.9599009610999999
 40
0.9886709119
 40
0.9963417879000001
 40
1.0
 40
1.0
 40
1.0
 40
1.0
 10
669.8919578564791
 20
327.7142327870603
 30
0.0
 10
669.8919578564791
 20
327.7126999913603
 30
0.0
 10
669.8871972682791
 20
327.7093788033603
 30
0.0
 10
669.872009355879
 20
327.7049132477602
 30
0.0
 10
669.8368098432791
 20
327.6991065351603
 30
0.0
 10
669.7802197608791
 20
327.6936988712602
 30
0.0
 10
669.703219522879
 20
327.6885403717603
 30
0.0
 10
669.6097838731791
 20
327.6843495929603
 30
0.0
 10
669.462443994679
 20
327.6799875127602
 30
0.0
 10
669.2669578564792
 20
327.6779843418603
 30
0.0
 10
669.0714717181791
 20
327.6799875127602
 30
0.0
 10
668.9241318396791
 20
327.6843495929603
 30
0.0
 10
668.8306961900791
 20
327.6885403717603
 30
0.0
 10
668.753695952079
 20
327.6936988712602
 30
0.0
 10
668.697105869579
 20
327.6991065351603
 30
0.0
 10
668.6619063569791
 20
327.7049132477602
 30
0.0
 10
668.646718444579
 20
327.7093788033603
 30
0.0
 10
668.6419578564791
 20
327.7126999913603
 30
0.0
 10
668.6419578564791
 20
327.7142327870603
 30
0.0
  0
SPLINE
  5
A45
330
1F
100
AcDbEntity
  8
0
  6
Continuous
 62
     7
100
AcDbSpline
210
0.0
220
0.0
230
1.0
 70
     8
 71
     3
 72
     8
 73
     4
 74
     0
 42
0.000000001
 43
0.0000000001
 40
0.0
 40
0.0
 40
0.0
 40
0.0
 40
1.0
 40
1.0
 40
1.0
 40
1.0
 10
600.520531926579
 20
328.7938231154602
 30
0.0
 10
600.3610992443791
 20
328.8343541080603
 30
0.0
 10
600.1864528321791
 20
328.8343541080603
 30
0.0
 10
600.027020149879
 20
328.7938231154602
 30
0.0
  0
SPLINE
  5
A46
330
1F
100
AcDbEntity
  8
BEZUGSACHSEN
  6
Continuous
 62
     7
100
AcDbSpline
210
0.0
220
0.0
230
1.0
 70
     8
 71
     3
 72
    29
 73
    25
 74
     0
 42
0.000000001
 43
0.0000000001
 40
0.0
 40
0.0
 40
0.0
 40
0.0
 40
0.0036562871
 40
0.0113188553
 40
0.0234749074
 40
0.040119465
 40
0.0611260063
 40
0.0863246365
 40
0.1483016966
 40
0.2237245545
 40
0.3097192975
 40
0.4030041862
 40
0.5
 40
0.5969958138
 40
0.6902807025
 40
0.7762754455
 40
0.8516983034
 40
0.9136753634999998
 40
0.9388739937
 40
0.9598805350000001
 40
0.9765250926
 40
0.9886811446999999
 40
0.9963437129
 40
1.0
 40
1.0
 40
1.0
 40
1.0
 10
682.3919578564791
 20
327.6787997948603
 30
0.0
 10
682.3919578564791
 20
327.6726714917602
 30
0.0
 10
682.4109362734791
 20
327.6593264263603
 30
0.0
 10
682.4462709027791
 20
327.6489802820603
 30
0.0
 10
682.5072495989791
 20
327.6352943313602
 30
0.0
 10
682.589319664479
 20
327.6231548572603
 30
0.0
 10
682.694144645179
 20
327.6107467795603
 30
0.0
 10
682.874621609579
 20
327.5940716382603
 30
0.0
 10
683.1466574618791
 20
327.5761239724602
 30
0.0
 10
683.520699579979
 20
327.5592369168603
 30
0.0
 10
683.947442690679
 20
327.5466162551603
 30
0.0
 10
684.4104504665789
 20
327.5388161347603
 30
0.0
 10
684.8919578564792
 20
327.5361783019603
 30
0.0
 10
685.373465246279
 20
327.5388161347603
 30
0.0
 10
685.836473022179
 20
327.5466162551603
 30
0.0
 10
686.263216132879
 20
327.5592369168603
 30
0.0
 10
686.6372582509791
 20
327.5761239724602
 30
0.0
 10
686.909294103279
 20
327.5940716382603
 30
0.0
 10
687.089771067679
 20
327.6107467795603
 30
0.0
 10
687.194596048479
 20
327.6231548572603
 30
0.0
 10
687.2766661139791
 20
327.6352943313602
 30
0.0
 10
687.3376448100791
 20
327.6489802820603
 30
0.0
 10
687.3729794393791
 20
327.6593264263603
 30
0.0
 10
687.3919578564791
 20
327.6726714917602
 30
0.0
 10
687.3919578564791
 20
327.6787997948603
 30
0.0
  0
SPLINE
  5
A47
330
1F
100
AcDbEntity
  8
0
  6
Continuous
 62
     7
100
AcDbSpline
210
0.0
220
0.0
230
1.0
 70
     8
 71
     3
 72
     8
 73
     4
 74
     0
 42
0.000000001
 43
0.0000000001
 40
0.0
 40
0.0
 40
0.0
 40
0.0
 40
1.0
 40
1.0
 40
1.0
 40
1.0
 10
592.665986472079
 20
328.7938231154602
 30
0.0
 10
592.506553789879
 20
328.8343541080603
 30
0.0
 10
592.3319073775791
 20
328.8343541080603
 30
0.0
 10
592.1724746953791
 20
328.7938231154602
 30
0.0
  0
SPLINE
  5
A48
330
1F
100
AcDbEntity
  8
0
  6
Continuous
 62
     7
100
AcDbSpline
210
0.0
220
0.0
230
1.0
 70
     8
 71
     3
 72
    10
 73
     6
 74
     0
 42
0.000000001
 43
0.0000000001
 40
0.0
 40
0.0
 40
0.0
 40
0.0
 40
0.498943255
 40
0.7503616529000002
 40
1.0
 40
1.0
 40
1.0
 40
1.0
 10
145.741957856479
 20
348.7872877404603
 30
0.0
 10
145.7766388420789
 20
348.7872877404603
 30
0.0
 10
145.831184205979
 20
348.7725434602603
 30
0.0
 10
145.8810544150792
 20
348.7218107803603
 30
0.0
 10
145.891957856479
 20
348.6865615695602
 30
0.0
 10
145.891957856479
 20
348.6692094882603
 30
0.0
  0
SPLINE
  5
A49
330
1F
100
AcDbEntity
  8
0
  6
Continuous
 62
     7
100
AcDbSpline
210
0.0
220
0.0
230
1.0
 70
     8
 71
     3
 72
    10
 73
     6
 74
     0
 42
0.000000001
 43
0.0000000001
 40
0.0
 40
0.0
 40
0.0
 40
0.0
 40
0.498943255
 40
0.7503616529000002
 40
1.0
 40
1.0
 40
1.0
 40
1.0
 10
726.041957856479
 20
348.7872877404603
 30
0.0
 10
726.0072768707791
 20
348.7872877404603
 30
0.0
 10
725.952731506879
 20
348.7725434602603
 30
0.0
 10
725.9028612977791
 20
348.7218107803603
 30
0.0
 10
725.8919578564792
 20
348.6865615695602
 30
0.0
 10
725.8919578564792
 20
348.6692094882603
 30
0.0
  0
SPLINE
  5
A4A
330
1F
100
AcDbEntity
  8
0
  6
Continuous
 62
     3
100
AcDbSpline
210
0.0
220
0.0
230
1.0
 70
     8
 71
     3
 72
     8
 73
     4
 74
     0
 42
0.000000001
 43
0.0000000001
 40
0.0
 40
0.0
 40
0.0
 40
0.0
 40
1.0
 40
1.0
 40
1.0
 40
1.0
 10
267.3361110589791
 20
328.9511414400603
 30
0.0
 10
267.4955437412792
 20
328.9106104474603
 30
0.0
 10
267.6701901534791
 20
328.9106104474603
 30
0.0
 10
267.8296228356791
 20
328.9511414400603
 30
0.0
  0
SPLINE
  5
A4B
330
1F
100
AcDbEntity
  8
0
  6
Continuous
 62
     3
100
AcDbSpline
210
0.0
220
0.0
230
1.0
 70
     8
 71
     3
 72
     8
 73
     4
 74
     0
 42
0.000000001
 43
0.0000000001
 40
0.0
 40
0.0
 40
0.0
 40
0.0
 40
1.0
 40
1.0
 40
1.0
 40
1.0
 10
275.1906565135791
 20
328.9511414400603
 30
0.0
 10
275.350089195779
 20
328.9106104474603
 30
0.0
 10
275.524735607979
 20
328.9106104474603
 30
0.0
 10
275.6841682902791
 20
328.9511414400603
 30
0.0
  0
SPLINE
  5
A4C
330
1F
100
AcDbEntity
  8
BEZUGSACHSEN
  6
Continuous
 62
     3
100
AcDbSpline
210
0.0
220
0.0
230
1.0
 70
     8
 71
     3
 72
    29
 73
    25
 74
     0
 42
0.000000001
 43
0.0000000001
 40
0.0
 40
0.0
 40
0.0
 40
0.0
 40
0.0036561834
 40
0.0113186728
 40
0.0234757075
 40
0.0401175972
 40
0.0611270874
 40
0.0863243887
 40
0.148302964
 40
0.2237253554
 40
0.3097206052
 40
0.4030023954
 40
0.5
 40
0.5969976046
 40
0.6902793948000002
 40
0.7762746446
 40
0.8516970359999998
 40
0.9136756113
 40
0.9388729126000001
 40
0.9598824028000001
 40
0.9765242924999999
 40
0.9886813271999999
 40
0.9963438165999999
 40
1.0
 40
1.0
 40
1.0
 40
1.0
 10
241.1919578564792
 20
328.8189234343603
 30
0.0
 10
241.1919578564792
 20
328.8115696707603
 30
0.0
 10
241.1691934378791
 20
328.7955477938603
 30
0.0
 10
241.126783119079
 20
328.7831377909603
 30
0.0
 10
241.053613999679
 20
328.7667204471603
 30
0.0
 10
240.9551268336791
 20
328.7521476702603
 30
0.0
 10
240.8293385343791
 20
328.7372636401602
 30
0.0
 10
240.6127602868791
 20
328.7172448370602
 30
0.0
 10
240.2863169141791
 20
328.6957145420603
 30
0.0
 10
239.837462873279
 20
328.6754487744603
 30
0.0
 10
239.3253766785791
 20
328.6603039442602
 30
0.0
 10
238.7697683680791
 20
328.6509415218603
 30
0.0
 10
238.1919578564792
 20
328.6477763765603
 30
0.0
 10
237.6141473447792
 20
328.6509415218603
 30
0.0
 10
237.0585390342791
 20
328.6603039442602
 30
0.0
 10
236.546452839579
 20
328.6754487744603
 30
0.0
 10
236.0975987986793
 20
328.6957145420603
 30
0.0
 10
235.771155425979
 20
328.7172448370602
 30
0.0
 10
235.554577178479
 20
328.7372636401602
 30
0.0
 10
235.4287888792792
 20
328.7521476702603
 30
0.0
 10
235.3303017131791
 20
328.7667204471603
 30
0.0
 10
235.257132593779
 20
328.7831377909603
 30
0.0
 10
235.2147222749792
 20
328.7955477938603
 30
0.0
 10
235.1919578564791
 20
328.8115696707603
 30
0.0
 10
235.1919578564791
 20
328.8189234343603
 30
0.0
  0
SPLINE
  5
A4D
330
1F
100
AcDbEntity
  8
BEZUGSACHSEN
  6
Continuous
 62
     3
100
AcDbSpline
210
0.0
220
0.0
230
1.0
 70
     8
 71
     3
 72
     9
 73
     5
 74
     0
 42
0.000000001
 43
0.0000000001
 40
0.0
 40
0.0
 40
0.0
 40
0.0
 40
0.5020157287
 40
1.0
 40
1.0
 40
1.0
 40
1.0
 10
163.6616444391791
 20
328.9666626050603
 30
0.0
 10
163.761603763779
 20
329.1394258575603
 30
0.0
 10
164.0138043074792
 20
329.4555148665602
 30
0.0
 10
164.3476860556792
 20
329.6830824369603
 30
0.0
 10
164.5256599403792
 20
329.7698408143602
 30
0.0
  0
SPLINE
  5
A4E
330
1F
100
AcDbEntity
  8
BEZUGSACHSEN
  6
Continuous
 62
     3
100
AcDbSpline
210
0.0
220
0.0
230
1.0
 70
     8
 71
     3
 72
     9
 73
     5
 74
     0
 42
0.000000001
 43
0.0000000001
 40
0.0
 40
0.0
 40
0.0
 40
0.0
 40
0.4979350155
 40
1.0
 40
1.0
 40
1.0
 40
1.0
 10
169.2584916135792
 20
329.7697486020603
 30
0.0
 10
169.436387195479
 20
329.6829673291603
 30
0.0
 10
169.7701861189789
 20
329.4554446321602
 30
0.0
 10
170.0223227242791
 20
329.1394072344602
 30
0.0
 10
170.1222712736793
 20
328.9666626050603
 30
0.0
  0
SPLINE
  5
A4F
330
1F
100
AcDbEntity
  8
BEZUGSACHSEN
  6
Continuous
 62
     3
100
AcDbSpline
210
0.0
220
0.0
230
1.0
 70
     8
 71
     3
 72
     9
 73
     5
 74
     0
 42
0.000000001
 43
0.0000000001
 40
0.0
 40
0.0
 40
0.0
 40
0.0
 40
0.5020157287
 40
1.0
 40
1.0
 40
1.0
 40
1.0
 10
183.6616444391791
 20
328.9666626050603
 30
0.0
 10
183.7616037638792
 20
329.1394258576603
 30
0.0
 10
184.0138043077792
 20
329.4555148669602
 30
0.0
 10
184.3476860562793
 20
329.6830824373603
 30
0.0
 10
184.5256599410792
 20
329.7698408146603
 30
0.0
  0
SPLINE
  5
A50
330
1F
100
AcDbEntity
  8
BEZUGSACHSEN
  6
Continuous
 62
     3
100
AcDbSpline
210
0.0
220
0.0
230
1.0
 70
     8
 71
     3
 72
     9
 73
     5
 74
     0
 42
0.000000001
 43
0.0000000001
 40
0.0
 40
0.0
 40
0.0
 40
0.0
 40
0.4979350155
 40
1.0
 40
1.0
 40
1.0
 40
1.0
 10
189.2584916128792
 20
329.7697486023603
 30
0.0
 10
189.4363871949792
 20
329.6829673295603
 30
0.0
 10
189.770186118779
 20
329.4554446324603
 30
0.0
 10
190.0223227241791
 20
329.1394072345603
 30
0.0
 10
190.1222712736791
 20
328.9666626050603
 30
0.0
  0
SPLINE
  5
A51
330
1F
100
AcDbEntity
  8
0
  6
Continuous
 62
     3
100
AcDbSpline
210
0.0
220
0.0
230
1.0
 70
     8
 71
     3
 72
    23
 73
    19
 74
     0
 42
0.000000001
 43
0.0000000001
 40
0.0
 40
0.0
 40
0.0
 40
0.0
 40
0.0036582121
 40
0.0113290881
 40
0.0400990389
 40
0.0863145472
 40
0.1482898633
 40
0.2237168888
 40
0.3097176538
 40
0.5
 40
0.6902823462000001
 40
0.7762831112000002
 40
0.8517101367
 40
0.9136854528
 40
0.9599009610999999
 40
0.9886709119
 40
0.9963417879000001
 40
1.0
 40
1.0
 40
1.0
 40
1.0
 10
201.8919578564791
 20
328.7126244576602
 30
0.0
 10
201.8919578564791
 20
328.7110916619603
 30
0.0
 10
201.8967184445791
 20
328.7077704738603
 30
0.0
 10
201.9119063569791
 20
328.7033049183602
 30
0.0
 10
201.9471058695792
 20
328.6974982057603
 30
0.0
 10
202.003695952079
 20
328.6920905418603
 30
0.0
 10
202.0806961900793
 20
328.6869320422602
 30
0.0
 10
202.174131839679
 20
328.6827412634603
 30
0.0
 10
202.3214717181791
 20
328.6783791832603
 30
0.0
 10
202.5169578564791
 20
328.6763760123603
 30
0.0
 10
202.712443994679
 20
328.6783791832603
 30
0.0
 10
202.859783873179
 20
328.6827412634603
 30
0.0
 10
202.9532195228791
 20
328.6869320422602
 30
0.0
 10
203.0302197608793
 20
328.6920905418603
 30
0.0
 10
203.0868098432792
 20
328.6974982057603
 30
0.0
 10
203.1220093558791
 20
328.7033049183602
 30
0.0
 10
203.137197268279
 20
328.7077704738603
 30
0.0
 10
203.141957856479
 20
328.7110916619603
 30
0.0
 10
203.141957856479
 20
328.7126244576602
 30
0.0
  0
SPLINE
  5
A52
330
1F
100
AcDbEntity
  8
BEZUGSACHSEN
  6
Continuous
 62
     3
100
AcDbSpline
210
0.0
220
0.0
230
1.0
 70
     8
 71
     3
 72
    29
 73
    25
 74
     0
 42
0.000000001
 43
0.0000000001
 40
0.0
 40
0.0
 40
0.0
 40
0.0
 40
0.0036561834
 40
0.0113186728
 40
0.0234757075
 40
0.0401175972
 40
0.0611270874
 40
0.0863243887
 40
0.148302964
 40
0.2237253554
 40
0.3097206052
 40
0.4030023954
 40
0.5
 40
0.5969976046
 40
0.6902793948000002
 40
0.7762746446
 40
0.8516970359999998
 40
0.9136756113
 40
0.9388729126000001
 40
0.9598824028000001
 40
0.9765242924999999
 40
0.9886813271999999
 40
0.9963438165999999
 40
1.0
 40
1.0
 40
1.0
 40
1.0
 10
235.1919578564791
 20
328.8189234343603
 30
0.0
 10
235.1919578564791
 20
328.8262771978602
 30
0.0
 10
235.2147222749792
 20
328.8422990747603
 30
0.0
 10
235.257132593779
 20
328.8547090776603
 30
0.0
 10
235.3303017131791
 20
328.8711264214603
 30
0.0
 10
235.4287888792792
 20
328.8856991983603
 30
0.0
 10
235.554577178479
 20
328.9005832284603
 30
0.0
 10
235.771155425979
 20
328.9206020315603
 30
0.0
 10
236.0975987986793
 20
328.9421323265602
 30
0.0
 10
236.546452839579
 20
328.9623980942603
 30
0.0
 10
237.0585390342791
 20
328.9775429243602
 30
0.0
 10
237.6141473447792
 20
328.9869053468603
 30
0.0
 10
238.1919578564792
 20
328.9900704920602
 30
0.0
 10
238.7697683680791
 20
328.9869053468603
 30
0.0
 10
239.3253766785791
 20
328.9775429243602
 30
0.0
 10
239.837462873279
 20
328.9623980942603
 30
0.0
 10
240.2863169141791
 20
328.9421323265602
 30
0.0
 10
240.6127602868791
 20
328.9206020315603
 30
0.0
 10
240.8293385343791
 20
328.9005832284603
 30
0.0
 10
240.9551268336791
 20
328.8856991983603
 30
0.0
 10
241.053613999679
 20
328.8711264214603
 30
0.0
 10
241.126783119079
 20
328.8547090776603
 30
0.0
 10
241.1691934378791
 20
328.8422990747603
 30
0.0
 10
241.1919578564792
 20
328.8262771978602
 30
0.0
 10
241.1919578564792
 20
328.8189234343603
 30
0.0
  0
SPLINE
  5
A53
330
1F
100
AcDbEntity
  8
0
  6
Continuous
 62
     3
100
AcDbSpline
210
0.0
220
0.0
230
1.0
 70
     8
 71
     3
 72
     8
 73
     4
 74
     0
 42
0.000000001
 43
0.0000000001
 40
0.0
 40
0.0
 40
0.0
 40
0.0
 40
1.0
 40
1.0
 40
1.0
 40
1.0
 10
267.3361110589791
 20
327.8456320826602
 30
0.0
 10
267.4955437412792
 20
327.8051010899603
 30
0.0
 10
267.6701901534791
 20
327.8051010899603
 30
0.0
 10
267.8296228356791
 20
327.8456320826602
 30
0.0
  0
SPLINE
  5
A54
330
1F
100
AcDbEntity
  8
0
  6
Continuous
 62
     3
100
AcDbSpline
210
0.0
220
0.0
230
1.0
 70
     8
 71
     3
 72
     8
 73
     4
 74
     0
 42
0.000000001
 43
0.0000000001
 40
0.0
 40
0.0
 40
0.0
 40
0.0
 40
1.0
 40
1.0
 40
1.0
 40
1.0
 10
275.1906565135791
 20
327.8456320826602
 30
0.0
 10
275.350089195779
 20
327.8051010899603
 30
0.0
 10
275.524735607979
 20
327.8051010899603
 30
0.0
 10
275.6841682902791
 20
327.8456320826602
 30
0.0
  0
SPLINE
  5
A55
330
1F
100
AcDbEntity
  8
BEZUGSACHSEN
  6
Continuous
 62
     3
100
AcDbSpline
210
0.0
220
0.0
230
1.0
 70
     8
 71
     3
 72
    29
 73
    25
 74
     0
 42
0.000000001
 43
0.0000000001
 40
0.0
 40
0.0
 40
0.0
 40
0.0
 40
0.003656186
 40
0.0113186246
 40
0.0234754393
 40
0.0401170575
 40
0.0611265811
 40
0.0863239488
 40
0.148301888
 40
0.223724245
 40
0.3097200002
 40
0.4030015526
 40
0.5
 40
0.5969984474000001
 40
0.6902799998
 40
0.776275755
 40
0.851698112
 40
0.9136760512
 40
0.9388734188999999
 40
0.9598829424999999
 40
0.9765245606999998
 40
0.9886813754000002
 40
0.996343814
 40
1.0
 40
1.0
 40
1.0
 40
1.0
 10
170.1240086639791
 20
328.6771914654603
 30
0.0
 10
170.1240086639791
 20
328.6692688806602
 30
0.0
 10
170.099483466879
 20
328.6520078154603
 30
0.0
 10
170.0537932855791
 20
328.6386379429603
 30
0.0
 10
169.9749657140791
 20
328.6209508265603
 30
0.0
 10
169.868861534279
 20
328.6052508490602
 30
0.0
 10
169.733343824879
 20
328.5892157308603
 30
0.0
 10
169.5000143717792
 20
328.5676483773602
 30
0.0
 10
169.1483218402791
 20
328.5444524641603
 30
0.0
 10
168.6647491651789
 20
328.5226194063603
 30
0.0
 10
168.1130524733793
 20
328.5063027290603
 30
0.0
 10
167.514465302279
 20
328.4962161954603
 30
0.0
 10
166.891957856479
 20
328.4928060851603
 30
0.0
 10
166.2694504105793
 20
328.4962161954603
 30
0.0
 10
165.6708632394791
 20
328.5063027290603
 30
0.0
 10
165.119166547679
 20
328.5226194063603
 30
0.0
 10
164.6355938725793
 20
328.5444524641603
 30
0.0
 10
164.2839013410793
 20
328.5676483773602
 30
0.0
 10
164.050571887979
 20
328.5892157308603
 30
0.0
 10
163.9150541786792
 20
328.6052508490602
 30
0.0
 10
163.8089499987791
 20
328.6209508265603
 30
0.0
 10
163.7301224273789
 20
328.6386379429603
 30
0.0
 10
163.6844322459792
 20
328.6520078154603
 30
0.0
 10
163.6599070488792
 20
328.6692688806602
 30
0.0
 10
163.6599070488792
 20
328.6771914654603
 30
0.0
  0
SPLINE
  5
A56
330
1F
100
AcDbEntity
  8
BEZUGSACHSEN
  6
Continuous
 62
     3
100
AcDbSpline
210
0.0
220
0.0
230
1.0
 70
     8
 71
     3
 72
    29
 73
    25
 74
     0
 42
0.000000001
 43
0.0000000001
 40
0.0
 40
0.0
 40
0.0
 40
0.0
 40
0.003656186
 40
0.0113186246
 40
0.0234754393
 40
0.0401170575
 40
0.0611265811
 40
0.0863239488
 40
0.148301888
 40
0.223724245
 40
0.3097200002
 40
0.4030015526
 40
0.5
 40
0.5969984474000001
 40
0.6902799998
 40
0.776275755
 40
0.851698112
 40
0.9136760512
 40
0.9388734188999999
 40
0.9598829424999999
 40
0.9765245606999998
 40
0.9886813754000002
 40
0.996343814
 40
1.0
 40
1.0
 40
1.0
 40
1.0
 10
190.1240086639792
 20
328.6771914654603
 30
0.0
 10
190.1240086639792
 20
328.6692688806602
 30
0.0
 10
190.099483466879
 20
328.6520078154603
 30
0.0
 10
190.0537932855793
 20
328.6386379429603
 30
0.0
 10
189.9749657140791
 20
328.6209508265603
 30
0.0
 10
189.868861534279
 20
328.6052508490602
 30
0.0
 10
189.733343824879
 20
328.5892157308603
 30
0.0
 10
189.5000143717792
 20
328.5676483773602
 30
0.0
 10
189.1483218402791
 20
328.5444524641603
 30
0.0
 10
188.664749165179
 20
328.5226194063603
 30
0.0
 10
188.1130524733791
 20
328.5063027290603
 30
0.0
 10
187.5144653022793
 20
328.4962161954603
 30
0.0
 10
186.891957856479
 20
328.4928060851603
 30
0.0
 10
186.2694504105791
 20
328.4962161954603
 30
0.0
 10
185.6708632394793
 20
328.5063027290603
 30
0.0
 10
185.1191665476789
 20
328.5226194063603
 30
0.0
 10
184.6355938725791
 20
328.5444524641603
 30
0.0
 10
184.2839013410791
 20
328.5676483773602
 30
0.0
 10
184.050571887979
 20
328.5892157308603
 30
0.0
 10
183.9150541786791
 20
328.6052508490602
 30
0.0
 10
183.8089499987792
 20
328.6209508265603
 30
0.0
 10
183.730122427379
 20
328.6386379429603
 30
0.0
 10
183.6844322459791
 20
328.6520078154603
 30
0.0
 10
183.6599070488793
 20
328.6692688806602
 30
0.0
 10
183.6599070488793
 20
328.6771914654603
 30
0.0
  0
SPLINE
  5
A57
330
1F
100
AcDbEntity
  8
0
  6
Continuous
 62
     3
100
AcDbSpline
210
0.0
220
0.0
230
1.0
 70
     8
 71
     3
 72
    23
 73
    19
 74
     0
 42
0.000000001
 43
0.0000000001
 40
0.0
 40
0.0
 40
0.0
 40
0.0
 40
0.0036582121
 40
0.0113290881
 40
0.0400990389
 40
0.0863145472
 40
0.1482898633
 40
0.2237168888
 40
0.3097176538
 40
0.5
 40
0.6902823462000001
 40
0.7762831112000002
 40
0.8517101367
 40
0.9136854528
 40
0.9599009610999999
 40
0.9886709119
 40
0.9963417879000001
 40
1.0
 40
1.0
 40
1.0
 40
1.0
 10
203.141957856479
 20
328.9252224109603
 30
0.0
 10
203.141957856479
 20
328.9267552066602
 30
0.0
 10
203.137197268279
 20
328.9300763947602
 30
0.0
 10
203.1220093558791
 20
328.9345419502603
 30
0.0
 10
203.0868098432792
 20
328.9403486628603
 30
0.0
 10
203.0302197608793
 20
328.9457563268603
 30
0.0
 10
202.9532195228791
 20
328.9509148263602
 30
0.0
 10
202.859783873179
 20
328.9551056051603
 30
0.0
 10
202.712443994679
 20
328.9594676853603
 30
0.0
 10
202.5169578564791
 20
328.9614708562603
 30
0.0
 10
202.3214717181791
 20
328.9594676853603
 30
0.0
 10
202.174131839679
 20
328.9551056051603
 30
0.0
 10
202.0806961900793
 20
328.9509148263602
 30
0.0
 10
202.003695952079
 20
328.9457563268603
 30
0.0
 10
201.9471058695792
 20
328.9403486628603
 30
0.0
 10
201.9119063569791
 20
328.9345419502603
 30
0.0
 10
201.8967184445791
 20
328.9300763947602
 30
0.0
 10
201.8919578564791
 20
328.9267552066602
 30
0.0
 10
201.8919578564791
 20
328.9252224109603
 30
0.0
  0
SPLINE
  5
A58
330
1F
100
AcDbEntity
  8
BEZUGSACHSEN
  6
Continuous
 62
     9
100
AcDbSpline
210
0.0
220
0.0
230
1.0
 70
     8
 71
     3
 72
    27
 73
    23
 74
     0
 42
0.000000001
 43
0.0000000001
 40
0.0
 40
0.0
 40
0.0
 40
0.0
 40
0.0036561991
 40
0.0113184899
 40
0.023474122
 40
0.0401179409
 40
0.0863202219
 40
0.148297262
 40
0.223719385
 40
0.3097168377
 40
0.4030008657
 40
0.4999992756000001
 40
0.5969977612
 40
0.6902819859
 40
0.77627969
 40
0.8517020650999999
 40
0.9136793104999998
 40
0.9598817647
 40
0.9765257018999999
 40
0.988681388
 40
0.9963437622
 40
1.0
 40
1.0
 40
1.0
 40
1.0
 10
185.3919578564789
 20
329.6755831359603
 30
0.0
 10
185.3919578564789
 20
329.6719062687603
 30
0.0
 10
185.4033439564793
 20
329.6638991894603
 30
0.0
 10
185.4245448767791
 20
329.6576916557602
 30
0.0
 10
185.461124683179
 20
329.6494811142602
 30
0.0
 10
185.5353247388791
 20
329.6385063944602
 30
0.0
 10
185.6606109922793
 20
329.6261203572602
 30
0.0
 10
185.844717642679
 20
329.6139843253603
 30
0.0
 10
186.069214387179
 20
329.6038435465602
 30
0.0
 10
186.325236276279
 20
329.5962739187603
 30
0.0
 10
186.6030503888792
 20
329.5915925503603
 30
0.0
 10
186.891955725779
 20
329.5900106108602
 30
0.0
 10
187.1808612606792
 20
329.5915925112603
 30
0.0
 10
187.4586759008792
 20
329.5962738433602
 30
0.0
 10
187.714698494679
 20
329.6038434350603
 30
0.0
 10
187.9391959556791
 20
329.6139842025602
 30
0.0
 10
188.1233032349792
 20
329.6261202331602
 30
0.0
 10
188.2485900034791
 20
329.6385062949603
 30
0.0
 10
188.322790391879
 20
329.6494809683602
 30
0.0
 10
188.3593704927791
 20
329.6576915891602
 30
0.0
 10
188.3805714786792
 20
329.6638991937602
 30
0.0
 10
188.391957856479
 20
329.6719062297602
 30
0.0
 10
188.391957856479
 20
329.6755831359603
 30
0.0
  0
SPLINE
  5
A59
330
1F
100
AcDbEntity
  8
BEZUGSACHSEN
  6
Continuous
 62
     3
100
AcDbSpline
210
0.0
220
0.0
230
1.0
 70
     8
 71
     3
 72
     9
 73
     5
 74
     0
 42
0.000000001
 43
0.0000000001
 40
0.0
 40
0.0
 40
0.0
 40
0.0
 40
0.5
 40
1.0
 40
1.0
 40
1.0
 40
1.0
 10
187.3986729012789
 20
329.7684404332603
 30
0.0
 10
187.2298414062792
 20
329.7628171107602
 30
0.0
 10
186.8919578566792
 20
329.7584275239603
 30
0.0
 10
186.554074307179
 20
329.7628171106603
 30
0.0
 10
186.3852428121792
 20
329.7684404332603
 30
0.0
  0
SPLINE
  5
A5A
330
1F
100
AcDbEntity
  8
BEZUGSACHSEN
  6
Continuous
 62
     9
100
AcDbSpline
210
0.0
220
0.0
230
1.0
 70
     8
 71
     3
 72
    27
 73
    23
 74
     0
 42
0.000000001
 43
0.0000000001
 40
0.0
 40
0.0
 40
0.0
 40
0.0
 40
0.0036561991
 40
0.0113184899
 40
0.023474122
 40
0.0401179409
 40
0.0863202219
 40
0.148297262
 40
0.223719385
 40
0.3097168377
 40
0.4030008657
 40
0.4999992756000001
 40
0.5969977612
 40
0.6902819859
 40
0.77627969
 40
0.8517020650999999
 40
0.9136793104999998
 40
0.9598817647
 40
0.9765257018999999
 40
0.988681388
 40
0.9963437622
 40
1.0
 40
1.0
 40
1.0
 40
1.0
 10
165.391957856479
 20
329.6755831359603
 30
0.0
 10
165.391957856479
 20
329.6719062687603
 30
0.0
 10
165.4033439564792
 20
329.6638991894603
 30
0.0
 10
165.4245448767792
 20
329.6576916557602
 30
0.0
 10
165.461124683179
 20
329.6494811142602
 30
0.0
 10
165.5353247388791
 20
329.6385063944602
 30
0.0
 10
165.6606109922791
 20
329.6261203572602
 30
0.0
 10
165.8447176426789
 20
329.6139843253603
 30
0.0
 10
166.069214387179
 20
329.6038435465602
 30
0.0
 10
166.3252362762789
 20
329.5962739187603
 30
0.0
 10
166.6030503888793
 20
329.5915925503603
 30
0.0
 10
166.891955725779
 20
329.5900106108602
 30
0.0
 10
167.1808612606791
 20
329.5915925112603
 30
0.0
 10
167.4586759008791
 20
329.5962738433602
 30
0.0
 10
167.714698494679
 20
329.6038434350603
 30
0.0
 10
167.9391959556792
 20
329.6139842025602
 30
0.0
 10
168.1233032349792
 20
329.6261202331602
 30
0.0
 10
168.2485900034791
 20
329.6385062949603
 30
0.0
 10
168.322790391879
 20
329.6494809683602
 30
0.0
 10
168.3593704927792
 20
329.6576915891602
 30
0.0
 10
168.3805714786791
 20
329.6638991937602
 30
0.0
 10
168.3919578564789
 20
329.6719062297602
 30
0.0
 10
168.3919578564789
 20
329.6755831359603
 30
0.0
  0
SPLINE
  5
A5B
330
1F
100
AcDbEntity
  8
BEZUGSACHSEN
  6
Continuous
 62
     3
100
AcDbSpline
210
0.0
220
0.0
230
1.0
 70
     8
 71
     3
 72
     9
 73
     5
 74
     0
 42
0.000000001
 43
0.0000000001
 40
0.0
 40
0.0
 40
0.0
 40
0.0
 40
0.5
 40
1.0
 40
1.0
 40
1.0
 40
1.0
 10
166.3852428227791
 20
329.7684404328603
 30
0.0
 10
166.554074314379
 20
329.7628171106603
 30
0.0
 10
166.8919578566791
 20
329.7584275239603
 30
0.0
 10
167.2298413990791
 20
329.7628171106603
 30
0.0
 10
167.3986728905793
 20
329.7684404328603
 30
0.0
  0
SPLINE
  5
A5C
330
1F
100
AcDbEntity
  8
0
  6
Continuous
 62
     3
100
AcDbSpline
210
0.0
220
0.0
230
1.0
 70
     8
 71
     3
 72
     8
 73
     4
 74
     0
 42
0.000000001
 43
0.0000000001
 40
0.0
 40
0.0
 40
0.0
 40
0.0
 40
1.0
 40
1.0
 40
1.0
 40
1.0
 10
604.4478046538791
 20
328.9511414400603
 30
0.0
 10
604.2883719716789
 20
328.9106104474603
 30
0.0
 10
604.113725559379
 20
328.9106104474603
 30
0.0
 10
603.954292877179
 20
328.9511414400603
 30
0.0
  0
SPLINE
  5
A5D
330
1F
100
AcDbEntity
  8
0
  6
Continuous
 62
     3
100
AcDbSpline
210
0.0
220
0.0
230
1.0
 70
     8
 71
     3
 72
     8
 73
     4
 74
     0
 42
0.000000001
 43
0.0000000001
 40
0.0
 40
0.0
 40
0.0
 40
0.0
 40
1.0
 40
1.0
 40
1.0
 40
1.0
 10
596.5932591992791
 20
328.9511414400603
 30
0.0
 10
596.433826517079
 20
328.9106104474603
 30
0.0
 10
596.259180104879
 20
328.9106104474603
 30
0.0
 10
596.0997474226791
 20
328.9511414400603
 30
0.0
  0
SPLINE
  5
A5E
330
1F
100
AcDbEntity
  8
BEZUGSACHSEN
  6
Continuous
 62
     3
100
AcDbSpline
210
0.0
220
0.0
230
1.0
 70
     8
 71
     3
 72
    21
 73
    17
 74
     0
 42
0.000000001
 43
0.0000000001
 40
0.0
 40
0.0
 40
0.0
 40
0.0
 40
0.070664155
 40
0.1402658048
 40
0.2033927929
 40
0.2539983079
 40
0.304663601
 40
0.3632550177
 40
0.5001306548
 40
0.6369324181
 40
0.6954707994
 40
0.7461172826000002
 40
0.796695787
 40
0.8597937514999999
 40
0.9293527953999999
 40
1.0
 40
1.0
 40
1.0
 40
1.0
 10
707.8119682421791
 20
329.3730450988602
 30
0.0
 10
707.709837534179
 20
329.4763582394603
 30
0.0
 10
707.4840635375791
 20
329.6599853496602
 30
0.0
 10
707.1083584077792
 20
329.8503022043603
 30
0.0
 10
706.7432820617791
 20
329.9518149748603
 30
0.0
 10
706.4078048867791
 20
329.9961619999602
 30
0.0
 10
706.079966730979
 20
330.0200235618603
 30
0.0
 10
705.5743886536791
 20
330.0419786527602
 30
0.0
 10
704.8912387502792
 20
330.0510433749603
 30
0.0
 10
704.2081978501791
 20
330.0419440669602
 30
0.0
 10
703.7029211064791
 20
330.0199698466603
 30
0.0
 10
703.3752868680791
 20
329.9960765903602
 30
0.0
 10
703.0399848155791
 20
329.9515972378602
 30
0.0
 10
702.675111921279
 20
329.8501227720602
 30
0.0
 10
702.2996136019791
 20
329.6598016378603
 30
0.0
 10
702.073945078479
 20
329.4762449508603
 30
0.0
 10
701.971848074579
 20
329.3729474926603
 30
0.0
  0
SPLINE
  5
A5F
330
1F
100
AcDbEntity
  8
BEZUGSACHSEN
  6
Continuous
 62
     3
100
AcDbSpline
210
0.0
220
0.0
230
1.0
 70
     8
 71
     3
 72
    21
 73
    17
 74
     0
 42
0.000000001
 43
0.0000000001
 40
0.0
 40
0.0
 40
0.0
 40
0.0
 40
0.070664155
 40
0.1402658048
 40
0.2033927929
 40
0.2539983079
 40
0.304663601
 40
0.3632550177
 40
0.5001306548
 40
0.6369324181
 40
0.6954707994
 40
0.7461172826000002
 40
0.796695787
 40
0.8597937514999999
 40
0.9293527953999999
 40
1.0
 40
1.0
 40
1.0
 40
1.0
 10
687.811968242179
 20
329.3730450988602
 30
0.0
 10
687.709837534179
 20
329.4763582394603
 30
0.0
 10
687.484063537579
 20
329.6599853496602
 30
0.0
 10
687.1083584077791
 20
329.8503022043603
 30
0.0
 10
686.7432820617791
 20
329.9518149748603
 30
0.0
 10
686.407804886779
 20
329.9961619999602
 30
0.0
 10
686.0799667309791
 20
330.0200235618603
 30
0.0
 10
685.5743886536791
 20
330.0419786527602
 30
0.0
 10
684.8912387502791
 20
330.0510433749603
 30
0.0
 10
684.2081978501791
 20
330.0419440669602
 30
0.0
 10
683.7029211064791
 20
330.0199698466603
 30
0.0
 10
683.375286868079
 20
329.9960765903602
 30
0.0
 10
683.0399848155791
 20
329.9515972378602
 30
0.0
 10
682.675111921279
 20
329.8501227720602
 30
0.0
 10
682.299613601979
 20
329.6598016378603
 30
0.0
 10
682.073945078479
 20
329.4762449508603
 30
0.0
 10
681.9718480745789
 20
329.3729474926603
 30
0.0
  0
SPLINE
  5
A60
330
1F
100
AcDbEntity
  8
0
  6
Continuous
 62
     3
100
AcDbSpline
210
0.0
220
0.0
230
1.0
 70
     8
 71
     3
 72
    11
 73
     7
 74
     0
 42
0.000000001
 43
0.0000000001
 40
0.0
 40
0.0
 40
0.0
 40
0.0
 40
0.248388576
 40
0.4987983677
 40
0.7495623548000001
 40
1.0
 40
1.0
 40
1.0
 40
1.0
 10
145.741957856479
 20
348.7872877404603
 30
0.0
 10
145.764346340979
 20
348.7872877404603
 30
0.0
 10
145.8093909031791
 20
348.7690644458603
 30
0.0
 10
145.8532637677791
 20
348.7159237298603
 30
0.0
 10
145.879558181879
 20
348.6527880174602
 30
0.0
 10
145.888090866779
 20
348.6081166351602
 30
0.0
 10
145.890277582979
 20
348.5856496236603
 30
0.0
  0
SPLINE
  5
A61
330
1F
100
AcDbEntity
  8
0
  6
Continuous
 62
     3
100
AcDbSpline
210
0.0
220
0.0
230
1.0
 70
     8
 71
     3
 72
    11
 73
     7
 74
     0
 42
0.000000001
 43
0.0000000001
 40
0.0
 40
0.0
 40
0.0
 40
0.0
 40
0.248388576
 40
0.4987983677
 40
0.7495623548000001
 40
1.0
 40
1.0
 40
1.0
 40
1.0
 10
726.041957856479
 20
348.7872877404603
 30
0.0
 10
726.0195693718791
 20
348.7872877404603
 30
0.0
 10
725.974524809779
 20
348.7690644458603
 30
0.0
 10
725.930651945079
 20
348.7159237298603
 30
0.0
 10
725.9043575310791
 20
348.6527880174602
 30
0.0
 10
725.895824846179
 20
348.6081166351602
 30
0.0
 10
725.8936381299791
 20
348.5856496236603
 30
0.0
  0
SPLINE
  5
A62
330
1F
100
AcDbEntity
  8
RUNDUNGEN
  6
Continuous
 62
     9
100
AcDbSpline
210
0.0
220
0.0
230
1.0
 70
     8
 71
     3
 72
    25
 73
    21
 74
     0
 42
0.000000001
 43
0.0000000001
 40
0.0
 40
0.0
 40
0.0
 40
0.0
 40
0.0030838934
 40
0.0051795302
 40
0.0077505134
 40
0.0144545416
 40
0.0233521318
 40
0.0344877309
 40
0.0478676779
 40
0.0634786211
 40
0.0812956115
 40
0.1234003618
 40
0.1738237466
 40
0.2321091546
 40
0.2977164326
 40
0.3700303308
 40
0.4483677901
 40
0.6200852321000001
 40
0.8063357015999999
 40
1.0
 40
1.0
 40
1.0
 40
1.0
 10
538.891743581379
 20
329.7685851394602
 30
0.0
 10
538.889682133479
 20
329.7995330977603
 30
0.0
 10
538.859460451679
 20
329.8481675064603
 30
0.0
 10
538.7998609149792
 20
329.8974860309603
 30
0.0
 10
538.7021027557792
 20
329.9580118883603
 30
0.0
 10
538.532978735079
 20
330.0288315613602
 30
0.0
 10
538.276072686079
 20
330.1088738509603
 30
0.0
 10
537.9493949321791
 20
330.1884408124603
 30
0.0
 10
537.553579624679
 20
330.2675538990603
 30
0.0
 10
537.0892822009791
 20
330.3457314948603
 30
0.0
 10
536.3373877886791
 20
330.4545314583603
 30
0.0
 10
535.234816558579
 20
330.5827100202602
 30
0.0
 10
533.724397636679
 20
330.7227570670602
 30
0.0
 10
531.9760691563792
 20
330.8543428114603
 30
0.0
 10
530.0064179946791
 20
330.9760840470602
 30
0.0
 10
527.8341510749791
 20
331.0866309191603
 30
0.0
 10
524.594675320279
 20
331.2216759103602
 30
0.0
 10
520.2082379458791
 20
331.3512419022603
 30
0.0
 10
514.6608204994792
 20
331.4447505728602
 30
0.0
 10
510.8397542111791
 20
331.4656680021603
 30
0.0
 10
508.8919578564791
 20
331.4656700903603
 30
0.0
  0
SPLINE
  5
A63
330
1F
100
AcDbEntity
  8
RUNDUNGEN
  6
Continuous
 62
     9
100
AcDbSpline
210
0.0
220
0.0
230
1.0
 70
     8
 71
     3
 72
    24
 73
    20
 74
     0
 42
0.000000001
 43
0.0000000001
 40
0.0
 40
0.0
 40
0.0
 40
0.0
 40
0.1939599812
 40
0.3804578957
 40
0.5523317126000002
 40
0.7030142774
 40
0.7685855662000001
 40
0.8267988754999999
 40
0.8771150458999999
 40
0.9190805676
 40
0.9368179730999999
 40
0.9523443628
 40
0.9656369575999999
 40
0.9766859133
 40
0.9855037987000001
 40
0.9921476978999999
 40
0.9947048742999999
 40
0.9968059356999999
 40
1.0
 40
1.0
 40
1.0
 40
1.0
 10
362.8921086406791
 20
329.4688871456602
 30
0.0
 10
361.0696130658791
 20
329.4688859312603
 30
0.0
 10
357.4947006626792
 20
329.4478434379603
 30
0.0
 10
352.3055611900791
 20
329.3539854694603
 30
0.0
 10
347.5246281881792
 20
329.2019322676603
 30
0.0
 10
343.881662770279
 20
329.0257680775603
 30
0.0
 10
341.3083112120791
 20
328.8547794588602
 30
0.0
 10
339.6776814514792
 20
328.7226497585602
 30
0.0
 10
338.2705141482791
 20
328.5820821071603
 30
0.0
 10
337.244574298479
 20
328.4534227552602
 30
0.0
 10
336.5461359061791
 20
328.3442084549603
 30
0.0
 10
336.1157022924791
 20
328.2657748178603
 30
0.0
 10
335.7495228697792
 20
328.1864188287602
 30
0.0
 10
335.4481355822791
 20
328.1065949989603
 30
0.0
 10
335.2121587336791
 20
328.0263198183603
 30
0.0
 10
335.0577275391791
 20
327.9551382600603
 30
0.0
 10
334.9699044534791
 20
327.8944536922602
 30
0.0
 10
334.9163116343791
 20
327.8442405586603
 30
0.0
 10
334.891957609179
 20
327.7953755076603
 30
0.0
 10
334.8919578564791
 20
327.7653632954602
 30
0.0
  0
SPLINE
  5
A64
330
1F
100
AcDbEntity
  8
RUNDUNGEN
  6
Continuous
 62
     9
100
AcDbSpline
210
0.0
220
0.0
230
1.0
 70
     8
 71
     3
 72
    24
 73
    20
 74
     0
 42
0.000000001
 43
0.0000000001
 40
0.0
 40
0.0
 40
0.0
 40
0.0
 40
0.0031940693
 40
0.0052951249
 40
0.0078522956
 40
0.0144961944
 40
0.0233140825
 40
0.0343630367
 40
0.0476556298
 40
0.0631820184
 40
0.0809194225
 40
0.1228849408
 40
0.1732011076
 40
0.2314144132
 40
0.2969856991
 40
0.4476682606000001
 40
0.6195420827
 40
0.8060400140999998
 40
1.0
 40
1.0
 40
1.0
 40
1.0
 10
536.8919578564791
 20
327.7653632954602
 30
0.0
 10
536.8919576091791
 20
327.7953755388602
 30
0.0
 10
536.867603797279
 20
327.8442403483603
 30
0.0
 10
536.8140111965792
 20
327.8944536737603
 30
0.0
 10
536.7261883347792
 20
327.9551382467603
 30
0.0
 10
536.5717572074791
 20
328.0263197206602
 30
0.0
 10
536.3357804881791
 20
328.1065948622603
 30
0.0
 10
536.034393367679
 20
328.1864186880603
 30
0.0
 10
535.6682141813791
 20
328.2657746556603
 30
0.0
 10
535.2377808343792
 20
328.3442082687603
 30
0.0
 10
534.5393428651791
 20
328.4534225426603
 30
0.0
 10
533.5134036323791
 20
328.5820818657603
 30
0.0
 10
532.1062371651792
 20
328.7226494906603
 30
0.0
 10
530.475608351479
 20
328.8547791728603
 30
0.0
 10
527.902258227479
 20
329.0257677809603
 30
0.0
 10
524.2592947147791
 20
329.2019319838603
 30
0.0
 10
519.4783640216789
 20
329.3539852529602
 30
0.0
 10
514.2892269933792
 20
329.4478432862602
 30
0.0
 10
510.714316242779
 20
329.4688860096603
 30
0.0
 10
508.8918215695792
 20
329.4688871074602
 30
0.0
  0
SPLINE
  5
A65
330
1F
100
AcDbEntity
  8
RUNDUNGEN
  6
Continuous
 62
     9
100
AcDbSpline
210
0.0
220
0.0
230
1.0
 70
     8
 71
     3
 72
    25
 73
    21
 74
     0
 42
0.000000001
 43
0.0000000001
 40
0.0
 40
0.0
 40
0.0
 40
0.0
 40
0.1936643122
 40
0.3799147768
 40
0.5516322137
 40
0.6299696716
 40
0.7022835678
 40
0.7678908441
 40
0.8261762511
 40
0.8765996351
 40
0.918704385
 40
0.9365213751
 40
0.9521323179999999
 40
0.9655122659999999
 40
0.9766478659
 40
0.9855454519
 40
0.9922494805999999
 40
0.9948204712999999
 40
0.9969161156999998
 40
1.0
 40
1.0
 40
1.0
 40
1.0
 10
362.891957856479
 20
331.4656700903603
 30
0.0
 10
360.9441613451792
 20
331.4656677073602
 30
0.0
 10
357.123094932779
 20
331.4447506356603
 30
0.0
 10
351.5756773974792
 20
331.3512418471603
 30
0.0
 10
347.189240097579
 20
331.2216758832603
 30
0.0
 10
343.9497643994792
 20
331.0866308909603
 30
0.0
 10
341.7774975105791
 20
330.9760840209603
 30
0.0
 10
339.8078463786791
 20
330.8543427872602
 30
0.0
 10
338.0595179176792
 20
330.7227570452603
 30
0.0
 10
336.5490990042792
 20
330.5827100000603
 30
0.0
 10
335.4465277782793
 20
330.4545314413602
 30
0.0
 10
334.6946333682792
 20
330.3457314806602
 30
0.0
 10
334.2303359378791
 20
330.2675538801602
 30
0.0
 10
333.8345206092789
 20
330.1884407960603
 30
0.0
 10
333.5078428758791
 20
330.1088738697603
 30
0.0
 10
333.250936842179
 20
330.0288315429602
 30
0.0
 10
333.0818128628792
 20
329.9580117766603
 30
0.0
 10
332.9840544428793
 20
329.8974859785603
 30
0.0
 10
332.9244546911792
 20
329.8481678206603
 30
0.0
 10
332.8942326983792
 20
329.7995330579603
 30
0.0
 10
332.8921721258792
 20
329.7685851326603
 30
0.0
  0
SPLINE
  5
A66
330
1F
100
AcDbEntity
  8
0
  6
Continuous
 62
     9
100
AcDbSpline
210
0.0
220
0.0
230
1.0
 70
     8
 71
     3
 72
    15
 73
    11
 74
     0
 42
0.000000001
 43
0.0000000001
 40
0.0
 40
0.0
 40
0.0
 40
0.0
 40
0.1165875701
 40
0.2405244673
 40
0.369084355
 40
0.4999984988000001
 40
0.6309127022
 40
0.7594683662000002
 40
0.8834072828
 40
1.0
 40
1.0
 40
1.0
 40
1.0
 10
423.1125314669792
 20
112.4500855083602
 30
0.0
 10
424.0878254097792
 20
112.7564218492602
 30
0.0
 10
426.089196830679
 20
113.4215361952602
 30
0.0
 10
429.1824483053792
 20
114.3755885709602
 30
0.0
 10
432.4659819010791
 20
115.1248777849602
 30
0.0
 10
435.8916882538792
 20
115.4221123111602
 30
0.0
 10
439.317368838079
 20
115.1249845445602
 30
0.0
 10
442.6008966996792
 20
114.3757490043602
 30
0.0
 10
445.6941809758792
 20
113.4217144824602
 30
0.0
 10
447.6956137089793
 20
112.7565859699602
 30
0.0
 10
448.6709464394791
 20
112.4502225141602
 30
0.0
  0
SPLINE
  5
A67
330
1F
100
AcDbEntity
  8
0
  6
Continuous
 62
     9
100
AcDbSpline
210
0.0
220
0.0
230
1.0
 70
     8
 71
     3
 72
    13
 73
     9
 74
     0
 42
0.000000001
 43
0.0000000001
 40
0.0
 40
0.0
 40
0.0
 40
0.0
 40
0.245598235
 40
0.3721970652
 40
0.5000019422
 40
0.6278059287
 40
0.7544031820999999
 40
1.0
 40
1.0
 40
1.0
 40
1.0
 10
428.676213798079
 20
112.4521051083603
 30
0.0
 10
429.8106761480791
 20
112.8903491838602
 30
0.0
 10
431.5614249894792
 20
113.4897840309602
 30
0.0
 10
433.997364939579
 20
113.9591420901602
 30
0.0
 10
435.8912565490791
 20
114.0873297966602
 30
0.0
 10
437.785154636279
 20
113.9593610753602
 30
0.0
 10
440.221128027779
 20
113.4902335914602
 30
0.0
 10
441.971845917379
 20
112.8907562223602
 30
0.0
 10
443.1063514652792
 20
112.4526434658602
 30
0.0
  0
LINE
  5
A68
330
1F
100
AcDbEntity
  8
RUNDUNGEN
  6
Continuous
 62
     7
100
AcDbLine
 10
335.8919578806791
 20
139.4511704853602
 30
0.0
 11
335.0145671720791
 21
139.4511689303602
 31
0.0
  0
LINE
  5
A69
330
1F
100
AcDbEntity
  8
RUNDUNGEN
  6
Continuous
 62
     7
100
AcDbLine
 10
335.0145671720791
 20
139.4511689303602
 30
0.0
 11
334.8416801943792
 21
139.4511691230602
 31
0.0
  0
LINE
  5
A6A
330
1F
100
AcDbEntity
  8
RUNDUNGEN
  6
Continuous
 62
     7
100
AcDbLine
 10
334.8416801943792
 20
139.4511691230602
 30
0.0
 11
332.8924399711792
 21
139.4511704838602
 31
0.0
  0
LINE
  5
A6B
330
1F
100
AcDbEntity
  8
RUNDUNGEN
  6
Continuous
 62
     7
100
AcDbLine
 10
535.891957832279
 20
139.4511704853602
 30
0.0
 11
536.7693485408792
 21
139.4511720403602
 31
0.0
  0
LINE
  5
A6C
330
1F
100
AcDbEntity
  8
RUNDUNGEN
  6
Continuous
 62
     7
100
AcDbLine
 10
536.7693485408792
 20
139.4511720403602
 30
0.0
 11
536.942235518479
 21
139.4511718476602
 31
0.0
  0
LINE
  5
A6D
330
1F
100
AcDbEntity
  8
RUNDUNGEN
  6
Continuous
 62
     7
100
AcDbLine
 10
536.942235518479
 20
139.4511718476602
 30
0.0
 11
538.891475741779
 21
139.4511704868602
 31
0.0
  0
DIMENSION
  5
A6E
330
1F
100
AcDbEntity
  8
P-0000
  6
Continuous
100
AcDbDimension
280
     0
  2
*D15
 10
68.2391070001335
 20
280.5872877404604
 30
0.0
 11
68.23910700013346
 21
328.2654604131155
 31
0.0
 70
   160
 71
     2
 42
97.19999999999993
 73
     0
 74
     0
 75
     0
  3
883N99122_001_00149479900
100
AcDbAlignedDimension
 13
123.391957856479
 23
377.7872877404603
 33
0.0
 14
362.3919578564791
 24
280.5872877404603
 34
0.0
 50
270.0
100
AcDbRotatedDimension
1001
ACAD_DSTYLE_DIMINSPECT
1070
   396
1000
100%
1070
   395
1000

1070
   394
1070
    33
1070
   393
1070
     0
1001
ACAD
1000
DSTYLE
1002
{
1070
   271
1070
     0
1070
   288
1070
     1
1002
}
  0
DIMENSION
  5
A6F
330
1F
100
AcDbEntity
  8
P-0000
  6
Continuous
100
AcDbDimension
280
     0
  2
*D16
 10
93.76525953549959
 20
107.3634468979602
 30
0.0
 11
93.76525953549958
 21
140.79629446632
 31
0.0
 70
   160
  1
<>
 71
     2
 42
64.08772358739999
 73
     0
 74
     0
 75
     0
  3
883N99122_001_00149479900
100
AcDbAlignedDimension
 13
146.391957856479
 23
171.4511704853602
 33
0.0
 14
146.391957856479
 24
107.3634468979602
 34
0.0
 50
270.0
100
AcDbRotatedDimension
1001
ACAD_DSTYLE_DIMINSPECT
1070
   396
1000
100%
1070
   395
1000

1070
   394
1070
    33
1070
   393
1070
     0
1001
ACAD
1000
DSTYLE
1002
{
1070
   271
1070
     0
1070
   288
1070
     1
1002
}
  0
DIMENSION
  5
A70
330
1F
100
AcDbEntity
  8
P-0000
  6
Continuous
100
AcDbDimension
280
     0
  2
*D17
 10
69.15863314259786
 20
73.45117048536026
 30
0.0
 11
69.15863314259786
 21
134.1381573360877
 31
0.0
 70
   160
  1
<>
 71
     2
 42
112.0
 73
     0
 74
     0
 75
     0
  3
883N99122_001_00149479900
100
AcDbAlignedDimension
 13
113.891957856479
 23
185.4511704853602
 33
0.0
 14
135.1419578564793
 24
73.45117048536025
 34
0.0
 50
270.0
100
AcDbRotatedDimension
1001
ACAD_DSTYLE_DIMINSPECT
1070
   396
1000
100%
1070
   395
1000

1070
   394
1070
    33
1070
   393
1070
     0
1001
ACAD
1000
DSTYLE
1002
{
1070
   271
1070
     0
1070
   288
1070
     1
1002
}
  0
DIMENSION
  5
A71
330
1F
100
AcDbEntity
  8
P-0000
  6
Continuous
100
AcDbDimension
280
     0
  2
*D18
 10
92.85535477853448
 20
347.7872877404603
 30
0.0
 11
92.85535477853443
 21
361.0328582608569
 31
0.0
 70
   160
 71
     2
 42
29.99999999999995
 73
     0
 74
     0
 75
     0
  3
883N99122_001_00149479900
100
AcDbAlignedDimension
 13
123.391957856479
 23
377.7872877404603
 33
0.0
 14
144.891957856479
 24
347.7872877404603
 34
0.0
 50
270.0
100
AcDbRotatedDimension
1001
ACAD_DSTYLE_DIMINSPECT
1070
   396
1000
100%
1070
   395
1000

1070
   394
1070
    33
1070
   393
1070
     0
1001
ACAD
1000
DSTYLE
1002
{
1070
   271
1070
     0
1070
   288
1070
     1
1002
}
  0
DIMENSION
  5
A72
102
{ACAD_XDICTIONARY
360
A73
102
}
102
{ACAD_REACTORS
330
A74
102
}
330
1F
100
AcDbEntity
  8
P-0000
  6
Continuous
100
AcDbDimension
280
     0
  2
*D19
 10
725.8919578564792
 20
402.930191271992
 30
0.0
 11
435.8919578564791
 21
410.430191271992
 31
0.0
 70
    32
  1
<>
 71
     5
 42
580.0000000000001
 73
     0
 74
     0
 75
     0
  3
883N99122_001_00149479900
100
AcDbAlignedDimension
 13
145.891957856479
 23
340.5372877404603
 33
0.0
 14
725.8919578564792
 24
341.7872877404603
 34
0.0
100
AcDbRotatedDimension
1001
ACAD
1000
DSTYLE
1002
{
1070
   271
1070
     0
1070
   288
1070
     1
1002
}
1001
ACAD_DSTYLE_DIMINSPECT
1070
   396
1000
100%
1070
   395
1000

1070
   394
1070
    33
1070
   393
1070
     0
  0
DIMENSION
  5
A75
102
{ACAD_XDICTIONARY
360
A76
102
}
102
{ACAD_REACTORS
330
A77
102
}
330
1F
100
AcDbEntity
  8
P-0000
  6
Continuous
100
AcDbDimension
280
     0
  2
*D20
 10
143.891957856479
 20
416.7685412028276
 30
0.0
 11
435.8919578564791
 21
424.2685412028277
 31
0.0
 70
    32
 71
     5
 42
584.0000000000001
 73
     0
 74
     0
 75
     0
  3
883N99122_001_00149479900
100
AcDbAlignedDimension
 13
727.8919578564791
 23
346.7872877404603
 33
0.0
 14
143.891957856479
 24
346.7872877404603
 34
0.0
100
AcDbRotatedDimension
1001
ACAD
1000
DSTYLE
1002
{
1070
   271
1070
     0
1070
   288
1070
     1
1002
}
1001
ACAD_DSTYLE_DIMINSPECT
1070
   396
1000
100%
1070
   395
1000

1070
   394
1070
    33
1070
   393
1070
     0
  0
DIMENSION
  5
A78
102
{ACAD_XDICTIONARY
360
A79
102
}
102
{ACAD_REACTORS
330
A7A
102
}
330
1F
100
AcDbEntity
  8
P-0000
  6
Continuous
100
AcDbDimension
280
     0
  2
*D21
 10
113.391957856479
 20
430.6068932366793
 30
0.0
 11
435.891957856479
 21
438.1068932366793
 31
0.0
 70
    32
 71
     5
 42
645.0
 73
     0
 74
     0
 75
     0
  3
883N99122_001_00149479900
100
AcDbAlignedDimension
 13
758.391957856479
 23
351.7872877404603
 33
0.0
 14
113.391957856479
 24
351.7872877404603
 34
0.0
100
AcDbRotatedDimension
1001
ACAD
1000
DSTYLE
1002
{
1070
   271
1070
     0
1070
   288
1070
     1
1002
}
1001
ACAD_DSTYLE_DIMINSPECT
1070
   396
1000
100%
1070
   395
1000

1070
   394
1070
    33
1070
   393
1070
     0
  0
ENDSEC
  0
SECTION
  2
OBJECTS
  0
DICTIONARY
  5
C
330
0
100
AcDbDictionary
281
     1
  3
ACAD_CIP_PREVIOUS_PRODUCT_INFO
350
5FA
  3
ACAD_COLOR
350
BE
  3
ACAD_DETAILVIEWSTYLE
350
5EF
  3
ACAD_FIELDLIST
350
612
  3
ACAD_GROUP
350
D
  3
ACAD_LAYOUT
350
1A
  3
ACAD_MATERIAL
350
BD
  3
ACAD_MLEADERSTYLE
350
3EF
  3
ACAD_MLINESTYLE
350
17
  3
ACAD_PLOTSETTINGS
350
19
  3
ACAD_PLOTSTYLENAME
350
E
  3
ACAD_SCALELIST
350
3DD
  3
ACAD_SECTIONVIEWSTYLE
350
5ED
  3
ACAD_TABLESTYLE
350
11A
  3
ACAD_VISUALSTYLE
350
3CC
  3
ACDB_RECOMPOSE_DATA
350
AFC
  3
AcDbVariableDictionary
350
94
  3
AcDsDecomposeData
350
B02
  3
AcmDictionary
350
5B
  3
AMG
350
41
  3
AMGSNAPSETTINGS
350
26B
  0
DICTIONARY
  5
5DD
330
2
100
AcDbDictionary
280
     1
281
     1
  3
ACAD_LAYERSTATES
360
5DE
  0
DICTIONARY
  5
AF3
330
10
100
AcDbDictionary
280
     1
281
     1
  3
ADSK_XREC_LAYER_RECONCILED
360
AF4
  0
DICTIONARY
  5
6B2
330
6B1
100
AcDbDictionary
280
     1
281
     1
  3
ADSK_XREC_LAYER_RECONCILED
360
AF5
  0
DICTIONARY
  5
6B4
330
6B3
100
AcDbDictionary
280
     1
281
     1
  3
ADSK_XREC_LAYER_RECONCILED
360
AF6
  0
DICTIONARY
  5
6B6
330
6B5
100
AcDbDictionary
280
     1
281
     1
  3
ADSK_XREC_LAYER_RECONCILED
360
AF7
  0
DICTIONARY
  5
6B8
330
6B7
100
AcDbDictionary
280
     1
281
     1
  3
ADSK_XREC_LAYER_RECONCILED
360
AF8
  0
DICTIONARY
  5
6BA
330
6B9
100
AcDbDictionary
280
     1
281
     1
  3
ADSK_XREC_LAYER_RECONCILED
360
AF9
  0
DICTIONARY
  5
6BD
330
6BC
100
AcDbDictionary
280
     1
281
     1
  3
ADSK_XREC_LAYER_RECONCILED
360
AFA
  0
DICTIONARY
  5
8F
330
1F
100
AcDbDictionary
280
     1
281
     1
  0
DICTIONARY
  5
A73
330
A72
100
AcDbDictionary
280
     1
281
     1
  3
ACAD_DIMASSOC
360
A74
  0
DICTIONARY
  5
A76
330
A75
100
AcDbDictionary
280
     1
281
     1
  3
ACAD_DIMASSOC
360
A77
  0
DICTIONARY
  5
A79
330
A78
100
AcDbDictionary
280
     1
281
     1
  3
ACAD_DIMASSOC
360
A7A
  0
XRECORD
  5
5FA
102
{ACAD_REACTORS
330
C
102
}
330
C
100
AcDbXrecord
280
     1
300
AMECH_PP
300
2014
300
86138AMECH_PP_2014_0F
  0
DICTIONARY
  5
BE
102
{ACAD_REACTORS
330
C
102
}
330
C
100
AcDbDictionary
281
     1
  0
DICTIONARY
  5
5EF
102
{ACAD_REACTORS
330
C
102
}
330
C
100
AcDbDictionary
281
     1
  3
Metric50
350
5F0
  0
FIELDLIST
  5
612
102
{ACAD_REACTORS
330
C
102
}
330
C
100
AcDbIdSet
 90
       12
330
610
330
611
330
613
330
617
330
618
330
619
330
621
330
622
330
623
330
6C6
330
6C7
330
6C8
100
AcDbFieldList
  0
DICTIONARY
  5
D
102
{ACAD_REACTORS
330
C
102
}
330
C
100
AcDbDictionary
281
     1
  0
DICTIONARY
  5
1A
102
{ACAD_REACTORS
330
C
102
}
330
C
100
AcDbDictionary
281
     1
  3
Layout1
350
1E
  3
Layout2
350
26
  3
Model
350
22
  0
DICTIONARY
  5
BD
102
{ACAD_REACTORS
330
C
102
}
330
C
100
AcDbDictionary
281
     1
  3
ByBlock
350
3BC
  3
ByLayer
350
3B4
  3
Global
350
3C4
  0
DICTIONARY
  5
3EF
102
{ACAD_REACTORS
330
C
102
}
330
C
100
AcDbDictionary
281
     1
  3
Standard
350
3F0
  0
DICTIONARY
  5
17
102
{ACAD_REACTORS
330
C
102
}
330
C
100
AcDbDictionary
281
     1
  3
Standard
350
18
  0
DICTIONARY
  5
19
102
{ACAD_REACTORS
330
C
102
}
330
C
100
AcDbDictionary
281
     1
  0
ACDBDICTIONARYWDFLT
  5
E
102
{ACAD_REACTORS
330
C
102
}
330
C
100
AcDbDictionary
281
     1
  3
Normal
350
F
100
AcDbDictionaryWithDefault
340
F
  0
DICTIONARY
  5
3DD
102
{ACAD_REACTORS
330
C
102
}
330
C
100
AcDbDictionary
281
     1
  3
A0
350
3DE
  3
A1
350
3DF
  3
A2
350
3E0
  3
A3
350
3E1
  3
A4
350
3E2
  3
A5
350
3E3
  3
A6
350
3E4
  3
A7
350
3E5
  3
A8
350
3E6
  3
A9
350
3E7
  3
B0
350
3E8
  3
B1
350
3E9
  3
B2
350
3EA
  3
B3
350
3EB
  3
B4
350
3EC
  3
B5
350
3ED
  3
B6
350
3EE
  0
DICTIONARY
  5
5ED
102
{ACAD_REACTORS
330
C
102
}
330
C
100
AcDbDictionary
281
     1
  3
ISO 128-40_2001(E)
350
6C3
  3
Metric50
350
5EE
  0
DICTIONARY
  5
11A
102
{ACAD_REACTORS
330
C
102
}
330
C
100
AcDbDictionary
281
     1
  3
Standard
350
11B
  0
DICTIONARY
  5
3CC
102
{ACAD_REACTORS
330
C
102
}
330
C
100
AcDbDictionary
281
     1
  3
2dWireframe
350
3D2
  3
3D Hidden
350
3D4
  3
3dWireframe
350
3D3
  3
Basic
350
3D1
  3
Brighten
350
3D8
  3
ColorChange
350
3DC
  3
Conceptual
350
3D5
  3
Dim
350
3D7
  3
EdgeColorOff
350
5A4
  3
Facepattern
350
3DB
  3
Flat
350
3CD
  3
FlatWithEdges
350
3CE
  3
Gouraud
350
3CF
  3
GouraudWithEdges
350
3D0
  3
Hidden
350
5E7
  3
JitterOff
350
5A2
  3
Linepattern
350
3DA
  3
OverhangOff
350
5A3
  3
Realistic
350
3D6
  3
Shaded
350
5EC
  3
Shaded with edges
350
5EB
  3
Shades of Gray
350
5E8
  3
Sketchy
350
5E9
  3
Thicken
350
3D9
  3
Wireframe
350
5E6
  3
X-Ray
350
5EA
  0
XRECORD
  5
AFC
102
{ACAD_REACTORS
330
C
102
}
330
C
100
AcDbXrecord
280
     1
 90
        1
330
11B
  0
DICTIONARY
  5
94
102
{ACAD_REACTORS
330
C
102
}
330
C
100
AcDbDictionary
281
     1
  3
CANNOSCALE
350
420
  3
CMLEADERSTYLE
350
41E
  3
CTABLESTYLE
350
138
  3
CVIEWDETAILSTYLE
350
63B
  3
CVIEWSECTIONSTYLE
350
63C
  3
DIMASSOC
350
96
  3
INDEXCTL
350
95
  3
LAYEREVAL
350
422
  3
LAYERNOTIFY
350
423
  3
LIGHTINGUNITS
350
421
  3
MSLTSCALE
350
41F
  0
DICTIONARY
  5
B02
102
{ACAD_REACTORS
330
C
102
}
330
C
100
AcDbDictionary
281
     1
  3
AcDsRecords
350
B04
  3
AcDsSchemas
350
B03
1001
ACAD
1070
     2
  0
DICTIONARY
  5
5B
102
{ACAD_REACTORS
330
C
102
}
330
C
100
AcDbDictionary
281
     1
  3
AcmBOM
350
272
  3
AcmStdDictionary
350
61
  3
AMDTSECTSYM_ARROWCOLOR
350
123
  0
DICTIONARY
  5
41
102
{ACAD_REACTORS
330
C
102
}
330
C
100
AcDbDictionary
281
     1
  0
DICTIONARY
  5
26B
102
{ACAD_REACTORS
330
C
102
}
330
C
100
AcDbDictionary
281
     1
  0
DICTIONARY
  5
5DE
102
{ACAD_REACTORS
330
5DD
102
}
330
5DD
100
AcDbDictionary
281
     1
  0
XRECORD
  5
AF4
102
{ACAD_REACTORS
330
AF3
102
}
330
AF3
100
AcDbXrecord
280
     1
290
     1
  0
XRECORD
  5
AF5
102
{ACAD_REACTORS
330
6B2
102
}
330
6B2
100
AcDbXrecord
280
     1
290
     1
  0
XRECORD
  5
AF6
102
{ACAD_REACTORS
330
6B4
102
}
330
6B4
100
AcDbXrecord
280
     1
290
     1
  0
XRECORD
  5
AF7
102
{ACAD_REACTORS
330
6B6
102
}
330
6B6
100
AcDbXrecord
280
     1
290
     1
  0
XRECORD
  5
AF8
102
{ACAD_REACTORS
330
6B8
102
}
330
6B8
100
AcDbXrecord
280
     1
290
     1
  0
XRECORD
  5
AF9
102
{ACAD_REACTORS
330
6BA
102
}
330
6BA
100
AcDbXrecord
280
     1
290
     1
  0
XRECORD
  5
AFA
102
{ACAD_REACTORS
330
6BD
102
}
330
6BD
100
AcDbXrecord
280
     1
290
     1
  0
DIMASSOC
  5
A74
102
{ACAD_REACTORS
330
A73
102
}
330
A73
100
AcDbDimAssoc
330
A72
 90
        3
 70
     0
 71
     0
  1
AcDbOsnapPointRef
 72
     2
331
8AE
 73
     0
 91
        0
 40
0.0
 10
0.0
 20
0.0
 30
0.0
 75
     0
  1
AcDbOsnapPointRef
 72
     2
331
98C
 73
     0
 91
        0
 40
0.0
 10
0.0
 20
0.0
 30
0.0
 75
     0
  0
DIMASSOC
  5
A77
102
{ACAD_REACTORS
330
A76
102
}
330
A76
100
AcDbDimAssoc
330
A75
 90
        1
 70
     0
 71
     0
  1
AcDbOsnapPointRef
 72
    13
331
A24
 73
     0
 91
        0
 40
0.0
 10
0.0
 20
0.0
 30
2.000000000000000E+50
 75
     0
  0
DIMASSOC
  5
A7A
102
{ACAD_REACTORS
330
A79
102
}
330
A79
100
AcDbDimAssoc
330
A78
 90
        3
 70
     0
 71
     0
  1
AcDbOsnapPointRef
 72
     2
331
993
 73
     0
 91
        0
 40
0.0
 10
0.0
 20
0.0
 30
0.0
 75
     0
  1
AcDbOsnapPointRef
 72
     2
331
8A8
 73
     0
 91
        0
 40
0.0
 10
0.0
 20
0.0
 30
0.0
 75
     0
  0
ACDBDETAILVIEWSTYLE
  5
5F0
102
{ACAD_XDICTIONARY
360
633
102
}
102
{ACAD_REACTORS
330
5EF
330
605
330
607
102
}
330
5EF
100
AcDbModelDocViewStyle
 70
     0
  3
Metric50
290
     0
100
AcDbDetailViewStyle
 70
     0
 71
     0
 90
        3
 71
     1
340
11
 62
   256
 40
5.0
340
0
 62
   256
 40
5.0
300

 40
0.0
280
     1
 71
     2
340
16
 90
       25
 62
   256
 71
     3
340
11
 62
   256
 40
5.0
 90
        0
 40
15.0
 90
        1
300
%<\AcVar ViewDetailId>% (%<\AcVar ViewScale \f "%sn">%)
 71
     4
340
16
 90
       25
 62
   256
340
16
 90
       25
 62
   256
280
     0
  0
LAYOUT
  5
1E
102
{ACAD_REACTORS
330
1A
102
}
330
1A
100
AcDbPlotSettings
  1

  2

  4

  6

 40
0.0
 41
0.0
 42
0.0
 43
0.0
 44
0.0
 45
0.0
 46
0.0
 47
0.0
 48
0.0
 49
0.0
140
0.0
141
0.0
142
1.0
143
1.0
 70
   688
 72
     0
 73
     0
 74
     5
  7

 75
    16
147
1.0
 76
     0
 77
     2
 78
   300
148
0.0
149
0.0
100
AcDbLayout
  1
Layout1
 70
     1
 71
     1
 10
0.0
 20
0.0
 11
420.0
 21
297.0
 12
0.0
 22
0.0
 32
0.0
 14
1.000000000000000E+20
 24
1.000000000000000E+20
 34
1.000000000000000E+20
 15
-1.000000000000000E+20
 25
-1.000000000000000E+20
 35
-1.000000000000000E+20
146
0.0
 13
0.0
 23
0.0
 33
0.0
 16
1.0
 26
0.0
 36
0.0
 17
0.0
 27
1.0
 37
0.0
 76
     0
330
1B
  0
LAYOUT
  5
26
102
{ACAD_REACTORS
330
1A
102
}
330
1A
100
AcDbPlotSettings
  1

  2

  4

  6

 40
0.0
 41
0.0
 42
0.0
 43
0.0
 44
0.0
 45
0.0
 46
0.0
 47
0.0
 48
0.0
 49
0.0
140
0.0
141
0.0
142
1.0
143
1.0
 70
   688
 72
     0
 73
     0
 74
     5
  7

 75
    16
147
1.0
 76
     0
 77
     2
 78
   300
148
0.0
149
0.0
100
AcDbLayout
  1
Layout2
 70
     1
 71
     2
 10
0.0
 20
0.0
 11
12.0
 21
9.0
 12
0.0
 22
0.0
 32
0.0
 14
0.0
 24
0.0
 34
0.0
 15
0.0
 25
0.0
 35
0.0
146
0.0
 13
0.0
 23
0.0
 33
0.0
 16
1.0
 26
0.0
 36
0.0
 17
0.0
 27
1.0
 37
0.0
 76
     0
330
23
  0
LAYOUT
  5
22
102
{ACAD_XDICTIONARY
360
5E3
102
}
102
{ACAD_REACTORS
330
1A
102
}
330
1A
100
AcDbPlotSettings
  1

  2

  4

  6

 40
0.0
 41
0.0
 42
0.0
 43
0.0
 44
0.0
 45
0.0
 46
0.0
 47
0.0
 48
0.0
 49
0.0
140
0.0
141
0.0
142
1.0
143
1.0
 70
  1712
 72
     0
 73
     0
 74
     0
  7

 75
     0
147
1.0
 76
     0
 77
     2
 78
   300
148
0.0
149
0.0
100
AcDbLayout
  1
Model
 70
     1
 71
     0
 10
0.0
 20
0.0
 11
12.0
 21
9.0
 12
0.0
 22
0.0
 32
0.0
 14
0.0
 24
0.0
 34
0.0
 15
0.0
 25
0.0
 35
0.0
146
0.0
 13
0.0
 23
0.0
 33
0.0
 16
1.0
 26
0.0
 36
0.0
 17
0.0
 27
1.0
 37
0.0
 76
     0
330
1F
331
3B2
  0
MATERIAL
  5
3BC
102
{ACAD_XDICTIONARY
360
3BD
102
}
102
{ACAD_REACTORS
330
BD
102
}
330
BD
100
AcDbMaterial
  1
ByBlock
 72
     0
 43
0.0008202099737533
 43
0.0
 43
0.0
 43
0.0
 43
0.0
 43
0.0008202099737533
 43
0.0
 43
0.0
 43
0.0
 43
0.0
 43
1.0
 43
0.0
 43
0.0
 43
0.0
 43
0.0
 43
1.0
 77
     0
 47
0.0008202099737533
 47
0.0
 47
0.0
 47
0.0
 47
0.0
 47
0.0008202099737533
 47
0.0
 47
0.0
 47
0.0
 47
0.0
 47
1.0
 47
0.0
 47
0.0
 47
0.0
 47
0.0
 47
1.0
171
     0
 49
0.0008202099737533
 49
0.0
 49
0.0
 49
0.0
 49
0.0
 49
0.0008202099737533
 49
0.0
 49
0.0
 49
0.0
 49
0.0
 49
1.0
 49
0.0
 49
0.0
 49
0.0
 49
0.0
 49
1.0
175
     0
142
0.0008202099737533
142
0.0
142
0.0
142
0.0
142
0.0
142
0.0008202099737533
142
0.0
142
0.0
142
0.0
142
0.0
142
1.0
142
0.0
142
0.0
142
0.0
142
0.0
142
1.0
179
     0
144
0.0008202099737533
144
0.0
144
0.0
144
0.0
144
0.0
144
0.0008202099737533
144
0.0
144
0.0
144
0.0
144
0.0
144
1.0
144
0.0
144
0.0
144
0.0
144
0.0
144
1.0
147
0.0008202099737533
147
0.0
147
0.0
147
0.0
147
0.0
147
0.0008202099737533
147
0.0
147
0.0
147
0.0
147
0.0
147
1.0
147
0.0
147
0.0
147
0.0
147
0.0
147
1.0
  0
MATERIAL
  5
3B4
102
{ACAD_XDICTIONARY
360
3B5
102
}
102
{ACAD_REACTORS
330
BD
102
}
330
BD
100
AcDbMaterial
  1
ByLayer
 72
     0
 43
0.0008202099737533
 43
0.0
 43
0.0
 43
0.0
 43
0.0
 43
0.0008202099737533
 43
0.0
 43
0.0
 43
0.0
 43
0.0
 43
1.0
 43
0.0
 43
0.0
 43
0.0
 43
0.0
 43
1.0
 77
     0
 47
0.0008202099737533
 47
0.0
 47
0.0
 47
0.0
 47
0.0
 47
0.0008202099737533
 47
0.0
 47
0.0
 47
0.0
 47
0.0
 47
1.0
 47
0.0
 47
0.0
 47
0.0
 47
0.0
 47
1.0
171
     0
 49
0.0008202099737533
 49
0.0
 49
0.0
 49
0.0
 49
0.0
 49
0.0008202099737533
 49
0.0
 49
0.0
 49
0.0
 49
0.0
 49
1.0
 49
0.0
 49
0.0
 49
0.0
 49
0.0
 49
1.0
175
     0
142
0.0008202099737533
142
0.0
142
0.0
142
0.0
142
0.0
142
0.0008202099737533
142
0.0
142
0.0
142
0.0
142
0.0
142
1.0
142
0.0
142
0.0
142
0.0
142
0.0
142
1.0
179
     0
144
0.0008202099737533
144
0.0
144
0.0
144
0.0
144
0.0
144
0.0008202099737533
144
0.0
144
0.0
144
0.0
144
0.0
144
1.0
144
0.0
144
0.0
144
0.0
144
0.0
144
1.0
147
0.0008202099737533
147
0.0
147
0.0
147
0.0
147
0.0
147
0.0008202099737533
147
0.0
147
0.0
147
0.0
147
0.0
147
1.0
147
0.0
147
0.0
147
0.0
147
0.0
147
1.0
  0
MATERIAL
  5
3C4
102
{ACAD_XDICTIONARY
360
3C5
102
}
102
{ACAD_REACTORS
330
BD
102
}
330
BD
100
AcDbMaterial
  1
Global
 72
     0
 43
0.0008202099737533
 43
0.0
 43
0.0
 43
0.0
 43
0.0
 43
0.0008202099737533
 43
0.0
 43
0.0
 43
0.0
 43
0.0
 43
1.0
 43
0.0
 43
0.0
 43
0.0
 43
0.0
 43
1.0
 77
     0
 47
0.0008202099737533
 47
0.0
 47
0.0
 47
0.0
 47
0.0
 47
0.0008202099737533
 47
0.0
 47
0.0
 47
0.0
 47
0.0
 47
1.0
 47
0.0
 47
0.0
 47
0.0
 47
0.0
 47
1.0
171
     0
 49
0.0008202099737533
 49
0.0
 49
0.0
 49
0.0
 49
0.0
 49
0.0008202099737533
 49
0.0
 49
0.0
 49
0.0
 49
0.0
 49
1.0
 49
0.0
 49
0.0
 49
0.0
 49
0.0
 49
1.0
175
     0
142
0.0008202099737533
142
0.0
142
0.0
142
0.0
142
0.0
142
0.0008202099737533
142
0.0
142
0.0
142
0.0
142
0.0
142
1.0
142
0.0
142
0.0
142
0.0
142
0.0
142
1.0
179
     0
144
0.0008202099737533
144
0.0
144
0.0
144
0.0
144
0.0
144
0.0008202099737533
144
0.0
144
0.0
144
0.0
144
0.0
144
1.0
144
0.0
144
0.0
144
0.0
144
0.0
144
1.0
147
0.0008202099737533
147
0.0
147
0.0
147
0.0
147
0.0
147
0.0008202099737533
147
0.0
147
0.0
147
0.0
147
0.0
147
1.0
147
0.0
147
0.0
147
0.0
147
0.0
147
1.0
  0
MLEADERSTYLE
  5
3F0
102
{ACAD_REACTORS
330
3EF
102
}
330
3EF
100
AcDbMLeaderStyle
179
     2
170
     2
171
     1
172
     0
 90
        2
 40
0.0
 41
0.0
173
     1
 91
-1056964608
340
14
 92
       -2
290
     1
 42
2.0
291
     1
 43
0.36
  3
Standard
 44
4.0
300

342
11
174
     1
178
     6
175
     1
176
     0
 93
-1056964608
 45
4.0
292
     0
297
     0
 46
4.0
 94
-1056964608
 47
1.0
 49
1.0
140
1.0
293
     1
141
0.0
294
     1
177
     0
142
1.0
295
     0
296
     0
143
0.125
271
     0
272
     9
273
     9
  0
MLINESTYLE
  5
18
102
{ACAD_REACTORS
330
17
102
}
330
17
100
AcDbMlineStyle
  2
STANDARD
 70
     0
  3

 62
   256
 51
90.0
 52
90.0
 71
     2
 49
0.5
 62
   256
  6
BYLAYER
 49
-0.5
 62
   256
  6
BYLAYER
  0
ACDBPLACEHOLDER
  5
F
102
{ACAD_REACTORS
330
E
102
}
330
E
  0
SCALE
  5
3DE
102
{ACAD_REACTORS
330
3DD
102
}
330
3DD
100
AcDbScale
 70
     0
300
1:1
140
1.0
141
1.0
290
     1
  0
SCALE
  5
3DF
102
{ACAD_REACTORS
330
3DD
102
}
330
3DD
100
AcDbScale
 70
     0
300
1:2
140
1.0
141
2.0
290
     0
  0
SCALE
  5
3E0
102
{ACAD_REACTORS
330
3DD
102
}
330
3DD
100
AcDbScale
 70
     0
300
1:4
140
1.0
141
4.0
290
     0
  0
SCALE
  5
3E1
102
{ACAD_REACTORS
330
3DD
102
}
330
3DD
100
AcDbScale
 70
     0
300
1:5
140
1.0
141
5.0
290
     0
  0
SCALE
  5
3E2
102
{ACAD_REACTORS
330
3DD
102
}
330
3DD
100
AcDbScale
 70
     0
300
1:8
140
1.0
141
8.0
290
     0
  0
SCALE
  5
3E3
102
{ACAD_REACTORS
330
3DD
102
}
330
3DD
100
AcDbScale
 70
     0
300
1:10
140
1.0
141
10.0
290
     0
  0
SCALE
  5
3E4
102
{ACAD_REACTORS
330
3DD
102
}
330
3DD
100
AcDbScale
 70
     0
300
1:16
140
1.0
141
16.0
290
     0
  0
SCALE
  5
3E5
102
{ACAD_REACTORS
330
3DD
102
}
330
3DD
100
AcDbScale
 70
     0
300
1:20
140
1.0
141
20.0
290
     0
  0
SCALE
  5
3E6
102
{ACAD_REACTORS
330
3DD
102
}
330
3DD
100
AcDbScale
 70
     0
300
1:30
140
1.0
141
30.0
290
     0
  0
SCALE
  5
3E7
102
{ACAD_REACTORS
330
3DD
102
}
330
3DD
100
AcDbScale
 70
     0
300
1:40
140
1.0
141
40.0
290
     0
  0
SCALE
  5
3E8
102
{ACAD_REACTORS
330
3DD
102
}
330
3DD
100
AcDbScale
 70
     0
300
1:50
140
1.0
141
50.0
290
     0
  0
SCALE
  5
3E9
102
{ACAD_REACTORS
330
3DD
102
}
330
3DD
100
AcDbScale
 70
     0
300
1:100
140
1.0
141
100.0
290
     0
  0
SCALE
  5
3EA
102
{ACAD_REACTORS
330
3DD
102
}
330
3DD
100
AcDbScale
 70
     0
300
2:1
140
2.0
141
1.0
290
     0
  0
SCALE
  5
3EB
102
{ACAD_REACTORS
330
3DD
102
}
330
3DD
100
AcDbScale
 70
     0
300
4:1
140
4.0
141
1.0
290
     0
  0
SCALE
  5
3EC
102
{ACAD_REACTORS
330
3DD
102
}
330
3DD
100
AcDbScale
 70
     0
300
8:1
140
8.0
141
1.0
290
     0
  0
SCALE
  5
3ED
102
{ACAD_REACTORS
330
3DD
102
}
330
3DD
100
AcDbScale
 70
     0
300
10:1
140
10.0
141
1.0
290
     0
  0
SCALE
  5
3EE
102
{ACAD_REACTORS
330
3DD
102
}
330
3DD
100
AcDbScale
 70
     0
300
100:1
140
100.0
141
1.0
290
     0
  0
ACDBSECTIONVIEWSTYLE
  5
6C3
102
{ACAD_XDICTIONARY
360
6C4
102
}
102
{ACAD_REACTORS
330
5ED
330
8A3
330
8A4
102
}
330
5ED
100
AcDbModelDocViewStyle
 70
     0
  3

290
     0
100
AcDbSectionViewStyle
 70
     0
 71
     0
 90
      102
 71
     1
340
11
 62
     7
 40
5.0
340
0
340
0
 62
     7
 40
5.0
300
I,O,Q,S,X,Z
 40
10.0
 90
        0
 40
2.5
 90
        0
 71
     2
340
16
 90
       50
 62
     1
340
16
 90
       50
 62
     7
 40
10.0
 40
5.0
 40
10.0
 71
     3
340
11
 62
     7
 40
5.0
 90
        0
 40
5.25
 90
        1
300
%<\AcVar ViewSectionStartId>%-%<\AcVar ViewSectionEndId>%
 71
     4
 62
   256
 62
   257
300
ANSI31
 40
1.0
 90
        0
290
     0
290
     0
 90
        6
 40
0.0
 40
1.570796326794896
 40
0.2617993877991494
 40
1.308996938995747
 40
-0.2617993877991494
 40
1.832595714594046
  0
ACDBSECTIONVIEWSTYLE
  5
5EE
102
{ACAD_XDICTIONARY
360
631
102
}
102
{ACAD_REACTORS
330
5ED
330
604
330
606
102
}
330
5ED
100
AcDbModelDocViewStyle
 70
     0
  3
Metric50
290
     0
100
AcDbSectionViewStyle
 70
     0
 71
     0
 90
      102
 71
     1
340
11
 62
   256
 40
5.0
340
0
340
0
 62
   256
 40
5.0
300
I, O, Q, S, X, Z
 40
10.0
 90
        0
 40
2.5
 90
        0
 71
     2
340
16
 90
       25
 62
   256
340
16
 90
       50
 62
   256
 40
5.0
 40
2.5
 40
5.0
 71
     3
340
11
 62
   256
 40
5.0
 90
        0
 40
15.0
 90
        1
300
%<\AcVar ViewSectionStartId>%-%<\AcVar ViewSectionEndId>% (%<\AcVar ViewScale \f "%sn">%)
 71
     4
 62
   256
 62
   257
300
ANSI31
 40
1.0
 90
        0
290
     0
290
     0
 90
        6
 40
0.0
 40
1.570796326794896
 40
0.2617993877991494
 40
1.308996938995747
 40
-0.2617993877991494
 40
1.832595714594046
  0
TABLESTYLE
  5
11B
102
{ACAD_XDICTIONARY
360
41B
102
}
102
{ACAD_REACTORS
330
11A
102
}
330
11A
100
AcDbTableStyle
280
     0
  3
Standard
 70
     0
 71
     0
 40
1.5
 41
1.5
280
     0
281
     0
  7
STANDARD
140
4.5
170
     2
 62
     0
 63
     7
283
     0
 90
        4
 91
        0
  1

274
    -2
284
     1
 64
     0
275
    -2
285
     1
 65
     0
276
    -2
286
     1
 66
     0
277
    -2
287
     1
 67
     0
278
    -2
288
     1
 68
     0
279
    -2
289
     1
 69
     0
  7
STANDARD
140
6.0
170
     5
 62
     0
 63
     7
283
     0
 90
        4
 91
        0
  1

274
    -2
284
     1
 64
     0
275
    -2
285
     1
 65
     0
276
    -2
286
     1
 66
     0
277
    -2
287
     1
 67
     0
278
    -2
288
     1
 68
     0
279
    -2
289
     1
 69
     0
  7
STANDARD
140
4.5
170
     5
 62
     0
 63
     7
283
     0
 90
        4
 91
        0
  1

274
    -2
284
     1
 64
     0
275
    -2
285
     1
 65
     0
276
    -2
286
     1
 66
     0
277
    -2
287
     1
 67
     0
278
    -2
288
     1
 68
     0
279
    -2
289
     1
 69
     0
  0
VISUALSTYLE
  5
3D2
102
{ACAD_XDICTIONARY
360
B0F
102
}
102
{ACAD_REACTORS
330
3CC
102
}
330
3CC
100
AcDbVisualStyle
  2
2dWireframe
 70
     4
177
     2
291
     0
 71
     0
176
     1
 72
     2
176
     1
 73
     0
176
     1
 90
        0
176
     1
 40
0.6
176
     1
 41
30.0
176
     1
 63
     7
421
 16777215
176
     1
 74
     1
176
     1
 91
        4
176
     1
 64
     7
176
     1
 65
   257
176
     1
 75
     1
176
     1
175
     1
176
     1
 42
1.0
176
     1
 92
        0
176
     1
 66
   257
176
     1
 43
1.0
176
     1
 76
     1
176
     1
 77
     6
176
     1
 78
     2
176
     1
 67
     7
176
     1
 79
     5
176
     1
170
     0
176
     1
171
     0
176
     1
290
     0
176
     1
 93
        1
176
     1
 44
0.0
176
     1
173
     0
176
     1
1001
ACAD
1000
AcDbSavedByObjectVersion
1070
     0
  0
VISUALSTYLE
  5
3D4
102
{ACAD_XDICTIONARY
360
B13
102
}
102
{ACAD_REACTORS
330
3CC
102
}
330
3CC
100
AcDbVisualStyle
  2
3D Hidden
 70
     6
177
     2
291
     0
 71
     1
176
     1
 72
     2
176
     1
 73
     2
176
     1
 90
        0
176
     1
 40
0.6
176
     1
 41
30.0
176
     1
 63
     7
421
 16777215
176
     1
 74
     2
176
     1
 91
        2
176
     1
 64
     7
176
     1
 65
   257
176
     1
 75
     2
176
     1
175
     1
176
     1
 42
40.0
176
     1
 92
        0
176
     1
 66
   257
176
     1
 43
1.0
176
     1
 76
     1
176
     1
 77
     6
176
     1
 78
     2
176
     1
 67
     7
176
     1
 79
     3
176
     1
170
     0
176
     1
171
     0
176
     1
290
     0
176
     1
 93
        1
176
     1
 44
0.0
176
     1
173
     0
176
     1
1001
ACAD
1000
AcDbSavedByObjectVersion
1070
     0
  0
VISUALSTYLE
  5
3D3
102
{ACAD_XDICTIONARY
360
B11
102
}
102
{ACAD_REACTORS
330
3CC
102
}
330
3CC
100
AcDbVisualStyle
  2
3dWireframe
 70
     5
177
     2
291
     0
 71
     0
176
     1
 72
     2
176
     1
 73
     0
176
     1
 90
        0
176
     1
 40
0.6
176
     1
 41
30.0
176
     1
 63
     7
421
 16777215
176
     1
 74
     1
176
     1
 91
        4
176
     1
 64
     7
176
     1
 65
   257
176
     1
 75
     1
176
     1
175
     1
176
     1
 42
1.0
176
     1
 92
        0
176
     1
 66
   257
176
     1
 43
1.0
176
     1
 76
     1
176
     1
 77
     6
176
     1
 78
     2
176
     1
 67
     7
176
     1
 79
     5
176
     1
170
     0
176
     1
171
     0
176
     1
290
     0
176
     1
 93
        1
176
     1
 44
0.0
176
     1
173
     0
176
     1
1001
ACAD
1000
AcDbSavedByObjectVersion
1070
     0
  0
VISUALSTYLE
  5
3D1
102
{ACAD_XDICTIONARY
360
B0D
102
}
102
{ACAD_REACTORS
330
3CC
102
}
330
3CC
100
AcDbVisualStyle
  2
Basic
 70
     7
177
     2
291
     1
 71
     1
176
     1
 72
     0
176
     1
 73
     1
176
     1
 90
        0
176
     1
 40
0.6
176
     1
 41
30.0
176
     1
 63
     7
421
 16777215
176
     1
 74
     0
176
     1
 91
        4
176
     1
 64
     7
176
     1
 65
   257
176
     1
 75
     1
176
     1
175
     1
176
     1
 42
1.0
176
     1
 92
        8
176
     1
 66
     7
176
     1
 43
1.0
176
     1
 76
     1
176
     1
 77
     6
176
     1
 78
     2
176
     1
 67
     7
176
     1
 79
     5
176
     1
170
     0
176
     1
171
     0
176
     1
290
     0
176
     1
 93
        1
176
     1
 44
0.0
176
     1
173
     0
176
     1
1001
ACAD
1000
AcDbSavedByObjectVersion
1070
     0
  0
VISUALSTYLE
  5
3D8
102
{ACAD_XDICTIONARY
360
B1B
102
}
102
{ACAD_REACTORS
330
3CC
102
}
330
3CC
100
AcDbVisualStyle
  2
Brighten
 70
    12
177
     2
291
     1
 71
     2
176
     1
 72
     2
176
     1
 73
     0
176
     1
 90
        0
176
     1
 40
0.6
176
     1
 41
30.0
176
     1
 63
     7
421
 16777215
176
     1
 74
     1
176
     1
 91
        4
176
     1
 64
     7
176
     1
 65
   257
176
     1
 75
     1
176
     1
175
     1
176
     1
 42
1.0
176
     1
 92
        8
176
     1
 66
     7
176
     1
 43
1.0
176
     1
 76
     1
176
     1
 77
     6
176
     1
 78
     2
176
     1
 67
     7
176
     1
 79
     5
176
     1
170
     0
176
     1
171
     0
176
     1
290
     0
176
     1
 93
        1
176
     1
 44
50.0
176
     1
173
     0
176
     1
1001
ACAD
1000
AcDbSavedByObjectVersion
1070
     0
  0
VISUALSTYLE
  5
3DC
102
{ACAD_XDICTIONARY
360
B23
102
}
102
{ACAD_REACTORS
330
3CC
102
}
330
3CC
100
AcDbVisualStyle
  2
ColorChange
 70
    16
177
     2
291
     1
 71
     2
176
     1
 72
     2
176
     1
 73
     3
176
     1
 90
        0
176
     1
 40
0.6
176
     1
 41
30.0
176
     1
 63
     8
421
  8421504
176
     1
 74
     1
176
     1
 91
        4
176
     1
 64
     7
176
     1
 65
   257
176
     1
 75
     1
176
     1
175
     1
176
     1
 42
1.0
176
     1
 92
        8
176
     1
 66
     8
424
  8421504
176
     1
 43
1.0
176
     1
 76
     1
176
     1
 77
     6
176
     1
 78
     2
176
     1
 67
     7
176
     1
 79
     5
176
     1
170
     0
176
     1
171
     0
176
     1
290
     0
176
     1
 93
        1
176
     1
 44
0.0
176
     1
173
     0
176
     1
1001
ACAD
1000
AcDbSavedByObjectVersion
1070
     0
  0
VISUALSTYLE
  5
3D5
102
{ACAD_XDICTIONARY
360
B15
102
}
102
{ACAD_REACTORS
330
3CC
102
}
330
3CC
100
AcDbVisualStyle
  2
Conceptual
 70
     9
177
     2
291
     0
 71
     3
176
     1
 72
     2
176
     1
 73
     0
176
     1
 90
        0
176
     1
 40
0.6
176
     1
 41
30.0
176
     1
 63
     7
421
 16777215
176
     1
 74
     2
176
     1
 91
        2
176
     1
 64
     7
176
     1
 65
   257
176
     1
 75
     1
176
     1
175
     1
176
     1
 42
40.0
176
     1
 92
        8
176
     1
 66
     7
176
     1
 43
1.0
176
     1
 76
     1
176
     1
 77
     6
176
     1
 78
     2
176
     1
 67
     7
176
     1
 79
     3
176
     1
170
     0
176
     1
171
     0
176
     1
290
     0
176
     1
 93
        1
176
     1
 44
0.0
176
     1
173
     0
176
     1
1001
ACAD
1000
AcDbSavedByObjectVersion
1070
     0
  0
VISUALSTYLE
  5
3D7
102
{ACAD_XDICTIONARY
360
B19
102
}
102
{ACAD_REACTORS
330
3CC
102
}
330
3CC
100
AcDbVisualStyle
  2
Dim
 70
    11
177
     2
291
     1
 71
     2
176
     1
 72
     2
176
     1
 73
     0
176
     1
 90
        0
176
     1
 40
0.6
176
     1
 41
30.0
176
     1
 63
     7
421
 16777215
176
     1
 74
     1
176
     1
 91
        4
176
     1
 64
     7
176
     1
 65
   257
176
     1
 75
     1
176
     1
175
     1
176
     1
 42
1.0
176
     1
 92
        8
176
     1
 66
     7
176
     1
 43
1.0
176
     1
 76
     1
176
     1
 77
     6
176
     1
 78
     2
176
     1
 67
     7
176
     1
 79
     5
176
     1
170
     0
176
     1
171
     0
176
     1
290
     0
176
     1
 93
        1
176
     1
 44
-50.0
176
     1
173
     0
176
     1
1001
ACAD
1000
AcDbSavedByObjectVersion
1070
     0
  0
VISUALSTYLE
  5
5A4
102
{ACAD_XDICTIONARY
360
B29
102
}
102
{ACAD_REACTORS
330
3CC
102
}
330
3CC
100
AcDbVisualStyle
  2
EdgeColorOff
 70
    22
177
     2
291
     1
 71
     2
176
     0
 72
     2
176
     0
 73
     0
176
     0
 90
        0
176
     0
 40
0.6
176
     0
 41
30.0
176
     0
 63
     7
421
 16777215
176
     0
 74
     1
176
     0
 91
        4
176
     0
 64
     7
176
     0
 65
   257
176
     0
 75
     1
176
     0
175
     1
176
     0
 42
1.0
176
     0
 92
        8
176
     2
 66
     7
176
     0
 43
1.0
176
     0
 76
     1
176
     0
 77
     6
176
     0
 78
     2
176
     0
 67
     7
176
     0
 79
     5
176
     0
170
     0
176
     0
171
     0
176
     0
290
     0
176
     0
 93
        1
176
     0
 44
0.0
176
     0
173
     0
176
     0
1001
ACAD
1000
AcDbSavedByObjectVersion
1070
     0
  0
VISUALSTYLE
  5
3DB
102
{ACAD_XDICTIONARY
360
B21
102
}
102
{ACAD_REACTORS
330
3CC
102
}
330
3CC
100
AcDbVisualStyle
  2
Facepattern
 70
    15
177
     2
291
     1
 71
     2
176
     1
 72
     2
176
     1
 73
     0
176
     1
 90
        0
176
     1
 40
0.6
176
     1
 41
30.0
176
     1
 63
     7
421
 16777215
176
     1
 74
     1
176
     1
 91
        4
176
     1
 64
     7
176
     1
 65
   257
176
     1
 75
     1
176
     1
175
     1
176
     1
 42
1.0
176
     1
 92
        8
176
     1
 66
     7
176
     1
 43
1.0
176
     1
 76
     1
176
     1
 77
     6
176
     1
 78
     2
176
     1
 67
     7
176
     1
 79
     5
176
     1
170
     0
176
     1
171
     0
176
     1
290
     0
176
     1
 93
        1
176
     1
 44
0.0
176
     1
173
     0
176
     1
1001
ACAD
1000
AcDbSavedByObjectVersion
1070
     0
  0
VISUALSTYLE
  5
3CD
102
{ACAD_XDICTIONARY
360
B05
102
}
102
{ACAD_REACTORS
330
3CC
102
}
330
3CC
100
AcDbVisualStyle
  2
Flat
 70
     0
177
     2
291
     1
 71
     2
176
     1
 72
     1
176
     1
 73
     1
176
     1
 90
        2
176
     1
 40
0.6
176
     1
 41
30.0
176
     1
 63
     7
421
 16777215
176
     1
 74
     0
176
     1
 91
        4
176
     1
 64
     7
176
     1
 65
   257
176
     1
 75
     1
176
     1
175
     1
176
     1
 42
1.0
176
     1
 92
        8
176
     1
 66
     7
176
     1
 43
1.0
176
     1
 76
     1
176
     1
 77
     6
176
     1
 78
     2
176
     1
 67
     7
176
     1
 79
     5
176
     1
170
     0
176
     1
171
     0
176
     1
290
     0
176
     1
 93
       13
176
     1
 44
0.0
176
     1
173
     0
176
     1
1001
ACAD
1000
AcDbSavedByObjectVersion
1070
     0
  0
VISUALSTYLE
  5
3CE
102
{ACAD_XDICTIONARY
360
B07
102
}
102
{ACAD_REACTORS
330
3CC
102
}
330
3CC
100
AcDbVisualStyle
  2
FlatWithEdges
 70
     1
177
     2
291
     1
 71
     2
176
     1
 72
     1
176
     1
 73
     1
176
     1
 90
        2
176
     1
 40
0.6
176
     1
 41
30.0
176
     1
 63
     7
421
 16777215
176
     1
 74
     1
176
     1
 91
        4
176
     1
 64
     7
176
     1
 65
   257
176
     1
 75
     1
176
     1
175
     1
176
     1
 42
1.0
176
     1
 92
        0
176
     1
 66
   257
176
     1
 43
1.0
176
     1
 76
     1
176
     1
 77
     6
176
     1
 78
     2
176
     1
 67
     7
176
     1
 79
     5
176
     1
170
     0
176
     1
171
     0
176
     1
290
     0
176
     1
 93
       13
176
     1
 44
0.0
176
     1
173
     0
176
     1
1001
ACAD
1000
AcDbSavedByObjectVersion
1070
     0
  0
VISUALSTYLE
  5
3CF
102
{ACAD_XDICTIONARY
360
B09
102
}
102
{ACAD_REACTORS
330
3CC
102
}
330
3CC
100
AcDbVisualStyle
  2
Gouraud
 70
     2
177
     2
291
     1
 71
     2
176
     1
 72
     2
176
     1
 73
     1
176
     1
 90
        2
176
     1
 40
0.6
176
     1
 41
30.0
176
     1
 63
     7
421
 16777215
176
     1
 74
     0
176
     1
 91
        4
176
     1
 64
     7
176
     1
 65
   257
176
     1
 75
     1
176
     1
175
     1
176
     1
 42
1.0
176
     1
 92
        0
176
     1
 66
     7
176
     1
 43
1.0
176
     1
 76
     1
176
     1
 77
     6
176
     1
 78
     2
176
     1
 67
     7
176
     1
 79
     5
176
     1
170
     0
176
     1
171
     0
176
     1
290
     0
176
     1
 93
       13
176
     1
 44
0.0
176
     1
173
     0
176
     1
1001
ACAD
1000
AcDbSavedByObjectVersion
1070
     0
  0
VISUALSTYLE
  5
3D0
102
{ACAD_XDICTIONARY
360
B0B
102
}
102
{ACAD_REACTORS
330
3CC
102
}
330
3CC
100
AcDbVisualStyle
  2
GouraudWithEdges
 70
     3
177
     2
291
     1
 71
     2
176
     1
 72
     2
176
     1
 73
     1
176
     1
 90
        2
176
     1
 40
0.6
176
     1
 41
30.0
176
     1
 63
     7
421
 16777215
176
     1
 74
     1
176
     1
 91
        4
176
     1
 64
     7
176
     1
 65
   257
176
     1
 75
     1
176
     1
175
     1
176
     1
 42
1.0
176
     1
 92
        0
176
     1
 66
   257
176
     1
 43
1.0
176
     1
 76
     1
176
     1
 77
     6
176
     1
 78
     2
176
     1
 67
     7
176
     1
 79
     5
176
     1
170
     0
176
     1
171
     0
176
     1
290
     0
176
     1
 93
       13
176
     1
 44
0.0
176
     1
173
     0
176
     1
1001
ACAD
1000
AcDbSavedByObjectVersion
1070
     0
  0
VISUALSTYLE
  5
5E7
102
{ACAD_XDICTIONARY
360
B2D
102
}
102
{ACAD_REACTORS
330
3CC
102
}
330
3CC
100
AcDbVisualStyle
  2
Hidden
 70
     6
177
     2
291
     0
 71
     1
176
     1
 72
     2
176
     1
 73
     2
176
     1
 90
        0
176
     1
 40
0.6
176
     1
 41
30.0
176
     1
 63
     7
421
 16777215
176
     1
 74
     2
176
     1
 91
        2
176
     1
 64
     7
176
     1
 65
   257
176
     1
 75
     2
176
     1
175
     1
176
     1
 42
40.0
176
     1
 92
        0
176
     1
 66
   257
176
     1
 43
1.0
176
     1
 76
     1
176
     1
 77
     6
176
     1
 78
     2
176
     1
 67
     7
176
     1
 79
     3
176
     1
170
     0
176
     1
171
     0
176
     1
290
     0
176
     1
 93
        1
176
     1
 44
0.0
176
     1
173
     0
176
     1
1001
ACAD
1000
AcDbSavedByObjectVersion
1070
     0
  0
VISUALSTYLE
  5
5A2
102
{ACAD_XDICTIONARY
360
B25
102
}
102
{ACAD_REACTORS
330
3CC
102
}
330
3CC
100
AcDbVisualStyle
  2
JitterOff
 70
    20
177
     2
291
     1
 71
     2
176
     0
 72
     2
176
     0
 73
     0
176
     0
 90
        0
176
     0
 40
0.6
176
     0
 41
30.0
176
     0
 63
     7
421
 16777215
176
     0
 74
     1
176
     0
 91
        4
176
     0
 64
     7
176
     0
 65
   257
176
     0
 75
     1
176
     0
175
     1
176
     0
 42
1.0
176
     0
 92
       10
176
     2
 66
     7
176
     0
 43
1.0
176
     0
 76
     1
176
     0
 77
     6
176
     0
 78
     2
176
     0
 67
     7
176
     0
 79
     5
176
     0
170
     0
176
     0
171
     0
176
     0
290
     0
176
     0
 93
        1
176
     0
 44
0.0
176
     0
173
     0
176
     0
1001
ACAD
1000
AcDbSavedByObjectVersion
1070
     0
  0
VISUALSTYLE
  5
3DA
102
{ACAD_XDICTIONARY
360
B1F
102
}
102
{ACAD_REACTORS
330
3CC
102
}
330
3CC
100
AcDbVisualStyle
  2
Linepattern
 70
    14
177
     2
291
     1
 71
     2
176
     1
 72
     2
176
     1
 73
     0
176
     1
 90
        0
176
     1
 40
0.6
176
     1
 41
30.0
176
     1
 63
     7
421
 16777215
176
     1
 74
     1
176
     1
 91
        4
176
     1
 64
     7
176
     1
 65
   257
176
     1
 75
     7
176
     1
175
     7
176
     1
 42
1.0
176
     1
 92
        8
176
     1
 66
     7
176
     1
 43
1.0
176
     1
 76
     1
176
     1
 77
     6
176
     1
 78
     2
176
     1
 67
     7
176
     1
 79
     5
176
     1
170
     0
176
     1
171
     0
176
     1
290
     0
176
     1
 93
        1
176
     1
 44
0.0
176
     1
173
     0
176
     1
1001
ACAD
1000
AcDbSavedByObjectVersion
1070
     0
  0
VISUALSTYLE
  5
5A3
102
{ACAD_XDICTIONARY
360
B27
102
}
102
{ACAD_REACTORS
330
3CC
102
}
330
3CC
100
AcDbVisualStyle
  2
OverhangOff
 70
    21
177
     2
291
     1
 71
     2
176
     0
 72
     2
176
     0
 73
     0
176
     0
 90
        0
176
     0
 40
0.6
176
     0
 41
30.0
176
     0
 63
     7
421
 16777215
176
     0
 74
     1
176
     0
 91
        4
176
     0
 64
     7
176
     0
 65
   257
176
     0
 75
     1
176
     0
175
     1
176
     0
 42
1.0
176
     0
 92
        9
176
     2
 66
     7
176
     0
 43
1.0
176
     0
 76
     1
176
     0
 77
     6
176
     0
 78
     2
176
     0
 67
     7
176
     0
 79
     5
176
     0
170
     0
176
     0
171
     0
176
     0
290
     0
176
     0
 93
        1
176
     0
 44
0.0
176
     0
173
     0
176
     0
1001
ACAD
1000
AcDbSavedByObjectVersion
1070
     0
  0
VISUALSTYLE
  5
3D6
102
{ACAD_XDICTIONARY
360
B17
102
}
102
{ACAD_REACTORS
330
3CC
102
}
330
3CC
100
AcDbVisualStyle
  2
Realistic
 70
     8
177
     2
291
     0
 71
     2
176
     1
 72
     2
176
     1
 73
     0
176
     1
 90
        0
176
     1
 40
0.6
176
     1
 41
30.0
176
     1
 63
     7
421
 16777215
176
     1
 74
     1
176
     1
 91
        0
176
     1
 64
     7
176
     1
 65
   257
176
     1
 75
     1
176
     1
175
     1
176
     1
 42
1.0
176
     1
 92
        8
176
     1
 66
     8
424
  7895160
176
     1
 43
1.0
176
     1
 76
     1
176
     1
 77
     6
176
     1
 78
     2
176
     1
 67
     7
176
     1
 79
     5
176
     1
170
     0
176
     1
171
     0
176
     1
290
     0
176
     1
 93
       13
176
     1
 44
0.0
176
     1
173
     0
176
     1
1001
ACAD
1000
AcDbSavedByObjectVersion
1070
     0
  0
VISUALSTYLE
  5
5EC
102
{ACAD_XDICTIONARY
360
B37
102
}
102
{ACAD_REACTORS
330
3CC
102
}
330
3CC
100
AcDbVisualStyle
  2
Shaded
 70
    27
177
     2
291
     0
 71
     2
176
     1
 72
     2
176
     1
 73
     1
176
     1
 90
        2
176
     1
 40
0.6
176
     1
 41
30.0
176
     1
 63
     7
421
 16777215
176
     1
 74
     0
176
     1
 91
        4
176
     1
 64
     7
176
     1
 65
   257
176
     1
 75
     1
176
     1
175
     1
176
     1
 42
1.0
176
     1
 92
        8
176
     1
 66
   257
176
     1
 43
1.0
176
     1
 76
     1
176
     1
 77
     6
176
     1
 78
     2
176
     1
 67
     8
425
  7895160
176
     1
 79
     3
176
     1
170
     0
176
     1
171
     0
176
     1
290
     0
176
     1
 93
        5
176
     1
 44
0.0
176
     1
173
     0
176
     1
1001
ACAD
1000
AcDbSavedByObjectVersion
1070
     0
  0
VISUALSTYLE
  5
5EB
102
{ACAD_XDICTIONARY
360
B35
102
}
102
{ACAD_REACTORS
330
3CC
102
}
330
3CC
100
AcDbVisualStyle
  2
Shaded with edges
 70
    26
177
     2
291
     0
 71
     2
176
     1
 72
     2
176
     1
 73
     1
176
     1
 90
        2
176
     1
 40
0.6
176
     1
 41
30.0
176
     1
 63
     7
421
 16777215
176
     1
 74
     1
176
     1
 91
       10
176
     1
 64
     7
176
     1
 65
   257
176
     1
 75
     2
176
     1
175
     1
176
     1
 42
1.0
176
     1
 92
        8
176
     1
 66
   257
176
     1
 43
1.0
176
     1
 76
     1
176
     1
 77
     6
176
     1
 78
     2
176
     1
 67
     7
176
     1
 79
     3
176
     1
170
     0
176
     1
171
     0
176
     1
290
     0
176
     1
 93
        5
176
     1
 44
0.0
176
     1
173
     0
176
     1
1001
ACAD
1000
AcDbSavedByObjectVersion
1070
     0
  0
VISUALSTYLE
  5
5E8
102
{ACAD_XDICTIONARY
360
B2F
102
}
102
{ACAD_REACTORS
330
3CC
102
}
330
3CC
100
AcDbVisualStyle
  2
Shades of Gray
 70
    23
177
     2
291
     0
 71
     2
176
     1
 72
     2
176
     1
 73
     3
176
     1
 90
        0
176
     1
 40
0.6
176
     1
 41
30.0
176
     1
 63
     7
421
 16777215
176
     1
 74
     2
176
     1
 91
        2
176
     1
 64
     7
176
     1
 65
     7
176
     1
 75
     1
176
     1
175
     1
176
     1
 42
40.0
176
     1
 92
        8
176
     1
 66
     7
176
     1
 43
1.0
176
     1
 76
     1
176
     1
 77
     6
176
     1
 78
     2
176
     1
 67
     7
176
     1
 79
     3
176
     1
170
     0
176
     1
171
     0
176
     1
290
     0
176
     1
 93
        1
176
     1
 44
0.0
176
     1
173
     0
176
     1
1001
ACAD
1000
AcDbSavedByObjectVersion
1070
     0
  0
VISUALSTYLE
  5
5E9
102
{ACAD_XDICTIONARY
360
B31
102
}
102
{ACAD_REACTORS
330
3CC
102
}
330
3CC
100
AcDbVisualStyle
  2
Sketchy
 70
    24
177
     2
291
     0
 71
     1
176
     1
 72
     2
176
     1
 73
     2
176
     1
 90
        0
176
     1
 40
0.6
176
     1
 41
30.0
176
     1
 63
     7
421
 16777215
176
     1
 74
     2
176
     1
 91
        2
176
     1
 64
     7
176
     1
 65
     7
176
     1
 75
     1
176
     1
175
     1
176
     1
 42
40.0
176
     1
 92
       11
176
     1
 66
     7
176
     1
 43
1.0
176
     1
 76
     1
176
     1
 77
     6
176
     1
 78
     2
176
     1
 67
     7
176
     1
 79
     6
176
     1
170
     0
176
     1
171
     0
176
     1
290
     0
176
     1
 93
        1
176
     1
 44
0.0
176
     1
173
     0
176
     1
1001
ACAD
1000
AcDbSavedByObjectVersion
1070
     0
  0
VISUALSTYLE
  5
3D9
102
{ACAD_XDICTIONARY
360
B1D
102
}
102
{ACAD_REACTORS
330
3CC
102
}
330
3CC
100
AcDbVisualStyle
  2
Thicken
 70
    13
177
     2
291
     1
 71
     2
176
     1
 72
     2
176
     1
 73
     0
176
     1
 90
        0
176
     1
 40
0.6
176
     1
 41
30.0
176
     1
 63
     7
421
 16777215
176
     1
 74
     1
176
     1
 91
        4
176
     1
 64
     7
176
     1
 65
   257
176
     1
 75
     1
176
     1
175
     1
176
     1
 42
1.0
176
     1
 92
       12
176
     1
 66
     7
176
     1
 43
1.0
176
     1
 76
     1
176
     1
 77
     6
176
     1
 78
     2
176
     1
 67
     7
176
     1
 79
     5
176
     1
170
     0
176
     1
171
     0
176
     1
290
     0
176
     1
 93
        1
176
     1
 44
0.0
176
     1
173
     0
176
     1
1001
ACAD
1000
AcDbSavedByObjectVersion
1070
     0
  0
VISUALSTYLE
  5
5E6
102
{ACAD_XDICTIONARY
360
B2B
102
}
102
{ACAD_REACTORS
330
3CC
102
}
330
3CC
100
AcDbVisualStyle
  2
Wireframe
 70
     5
177
     2
291
     0
 71
     0
176
     1
 72
     2
176
     1
 73
     0
176
     1
 90
        0
176
     1
 40
0.6
176
     1
 41
30.0
176
     1
 63
     7
421
 16777215
176
     1
 74
     1
176
     1
 91
        4
176
     1
 64
     7
176
     1
 65
   257
176
     1
 75
     1
176
     1
175
     1
176
     1
 42
1.0
176
     1
 92
        0
176
     1
 66
   257
176
     1
 43
1.0
176
     1
 76
     1
176
     1
 77
     6
176
     1
 78
     2
176
     1
 67
     7
176
     1
 79
     3
176
     1
170
     0
176
     1
171
     0
176
     1
290
     0
176
     1
 93
        1
176
     1
 44
0.0
176
     1
173
     0
176
     1
1001
ACAD
1000
AcDbSavedByObjectVersion
1070
     0
  0
VISUALSTYLE
  5
5EA
102
{ACAD_XDICTIONARY
360
B33
102
}
102
{ACAD_REACTORS
330
3CC
102
}
330
3CC
100
AcDbVisualStyle
  2
X-Ray
 70
    25
177
     2
291
     0
 71
     2
176
     1
 72
     2
176
     1
 73
     1
176
     1
 90
        1
176
     1
 40
0.5
176
     1
 41
30.0
176
     1
 63
     7
421
 16777215
176
     1
 74
     1
176
     1
 91
        0
176
     1
 64
     7
176
     1
 65
   257
176
     1
 75
     1
176
     1
175
     1
176
     1
 42
1.0
176
     1
 92
        8
176
     1
 66
     7
176
     1
 43
1.0
176
     1
 76
     1
176
     1
 77
     6
176
     1
 78
     2
176
     1
 67
     7
176
     1
 79
     3
176
     1
170
     0
176
     1
171
     0
176
     1
290
     0
176
     1
 93
       13
176
     1
 44
0.0
176
     1
173
     0
176
     1
1001
ACAD
1000
AcDbSavedByObjectVersion
1070
     0
  0
DICTIONARYVAR
  5
420
102
{ACAD_REACTORS
330
94
102
}
330
94
100
DictionaryVariables
280
     0
  1
1:1
  0
DICTIONARYVAR
  5
41E
102
{ACAD_REACTORS
330
94
102
}
330
94
100
DictionaryVariables
280
     0
  1
STANDARD
  0
DICTIONARYVAR
  5
138
102
{ACAD_REACTORS
330
94
102
}
330
94
100
DictionaryVariables
280
     0
  1
STANDARD
  0
DICTIONARYVAR
  5
63B
102
{ACAD_REACTORS
330
94
102
}
330
94
100
DictionaryVariables
280
     0
  1
Metric50
  0
DICTIONARYVAR
  5
63C
102
{ACAD_REACTORS
330
94
102
}
330
94
100
DictionaryVariables
280
     0
  1
Metric50
  0
DICTIONARYVAR
  5
96
102
{ACAD_REACTORS
330
94
102
}
330
94
100
DictionaryVariables
280
     0
  1
2
  0
DICTIONARYVAR
  5
95
102
{ACAD_REACTORS
330
94
102
}
330
94
100
DictionaryVariables
280
     0
  1
1
  0
DICTIONARYVAR
  5
422
102
{ACAD_REACTORS
330
94
102
}
330
94
100
DictionaryVariables
280
     0
  1
1
  0
DICTIONARYVAR
  5
423
102
{ACAD_REACTORS
330
94
102
}
330
94
100
DictionaryVariables
280
     0
  1
15
  0
DICTIONARYVAR
  5
421
102
{ACAD_REACTORS
330
94
102
}
330
94
100
DictionaryVariables
280
     0
  1
0
  0
DICTIONARYVAR
  5
41F
102
{ACAD_REACTORS
330
94
102
}
330
94
100
DictionaryVariables
280
     0
  1
0
  0
DICTIONARY
  5
B04
102
{ACAD_REACTORS
330
B02
102
}
330
B02
100
AcDbDictionary
281
     1
  0
DICTIONARY
  5
B03
102
{ACAD_REACTORS
330
B02
102
}
330
B02
100
AcDbDictionary
281
     1
  3
8796088213968
350
AFD
  3
8796088213984
350
AFE
  3
8796088214000
350
AFF
  3
8796088214016
350
B00
  3
8796088214032
350
B01
  0
DICTIONARY
  5
272
102
{ACAD_REACTORS
330
5B
102
}
330
5B
100
AcDbDictionary
281
     1
  0
DICTIONARY
  5
61
102
{ACAD_REACTORS
330
5B
102
}
330
5B
100
AcDbDictionary
281
     1
  0
XRECORD
  5
123
102
{ACAD_REACTORS
330
5B
102
}
330
5B
100
AcDbXrecord
280
     1
 90
-1023410169
  0
DICTIONARY
  5
633
330
5F0
100
AcDbDictionary
280
     1
281
     1
  3
ACAD_XREC_ROUNDTRIP
360
B3A
  0
DICTIONARY
  5
5E3
330
22
100
AcDbDictionary
280
     1
281
     1
  0
DICTIONARY
  5
3BD
330
3BC
100
AcDbDictionary
280
     1
281
     1
  3
BUMPTILE
360
3BF
  3
DIFFUSETILE
360
3BE
  3
OPACITYTILE
360
3C2
  3
REFLECTIONTILE
360
3C1
  3
REFRACTIONTILE
360
3C3
  3
SPECULARTILE
360
3C0
  0
DICTIONARY
  5
3B5
330
3B4
100
AcDbDictionary
280
     1
281
     1
  3
BUMPTILE
360
3B7
  3
DIFFUSETILE
360
3B6
  3
OPACITYTILE
360
3BA
  3
REFLECTIONTILE
360
3B9
  3
REFRACTIONTILE
360
3BB
  3
SPECULARTILE
360
3B8
  0
DICTIONARY
  5
3C5
330
3C4
100
AcDbDictionary
280
     1
281
     1
  3
BUMPTILE
360
3C7
  3
DIFFUSETILE
360
3C6
  3
OPACITYTILE
360
3CA
  3
REFLECTIONTILE
360
3C9
  3
REFRACTIONTILE
360
3CB
  3
SPECULARTILE
360
3C8
  0
DICTIONARY
  5
6C4
330
6C3
100
AcDbDictionary
280
     1
281
     1
  3
ACAD_FIELD
360
6C5
  3
ACAD_XREC_ROUNDTRIP
360
B3B
  0
DICTIONARY
  5
631
330
5EE
100
AcDbDictionary
280
     1
281
     1
  3
ACAD_XREC_ROUNDTRIP
360
B39
  0
DICTIONARY
  5
41B
330
11B
100
AcDbDictionary
280
     1
281
     1
  3
ACAD_ROUNDTRIP_2008_TABLESTYLE_CELLSTYLEMAP
360
AFB
  0
DICTIONARY
  5
B0F
330
3D2
100
AcDbDictionary
280
     1
281
     1
  3
ACAD_XREC_ROUNDTRIP
360
B10
  0
DICTIONARY
  5
B13
330
3D4
100
AcDbDictionary
280
     1
281
     1
  3
ACAD_XREC_ROUNDTRIP
360
B14
  0
DICTIONARY
  5
B11
330
3D3
100
AcDbDictionary
280
     1
281
     1
  3
ACAD_XREC_ROUNDTRIP
360
B12
  0
DICTIONARY
  5
B0D
330
3D1
100
AcDbDictionary
280
     1
281
     1
  3
ACAD_XREC_ROUNDTRIP
360
B0E
  0
DICTIONARY
  5
B1B
330
3D8
100
AcDbDictionary
280
     1
281
     1
  3
ACAD_XREC_ROUNDTRIP
360
B1C
  0
DICTIONARY
  5
B23
330
3DC
100
AcDbDictionary
280
     1
281
     1
  3
ACAD_XREC_ROUNDTRIP
360
B24
  0
DICTIONARY
  5
B15
330
3D5
100
AcDbDictionary
280
     1
281
     1
  3
ACAD_XREC_ROUNDTRIP
360
B16
  0
DICTIONARY
  5
B19
330
3D7
100
AcDbDictionary
280
     1
281
     1
  3
ACAD_XREC_ROUNDTRIP
360
B1A
  0
DICTIONARY
  5
B29
330
5A4
100
AcDbDictionary
280
     1
281
     1
  3
ACAD_XREC_ROUNDTRIP
360
B2A
  0
DICTIONARY
  5
B21
330
3DB
100
AcDbDictionary
280
     1
281
     1
  3
ACAD_XREC_ROUNDTRIP
360
B22
  0
DICTIONARY
  5
B05
330
3CD
100
AcDbDictionary
280
     1
281
     1
  3
ACAD_XREC_ROUNDTRIP
360
B06
  0
DICTIONARY
  5
B07
330
3CE
100
AcDbDictionary
280
     1
281
     1
  3
ACAD_XREC_ROUNDTRIP
360
B08
  0
DICTIONARY
  5
B09
330
3CF
100
AcDbDictionary
280
     1
281
     1
  3
ACAD_XREC_ROUNDTRIP
360
B0A
  0
DICTIONARY
  5
B0B
330
3D0
100
AcDbDictionary
280
     1
281
     1
  3
ACAD_XREC_ROUNDTRIP
360
B0C
  0
DICTIONARY
  5
B2D
330
5E7
100
AcDbDictionary
280
     1
281
     1
  3
ACAD_XREC_ROUNDTRIP
360
B2E
  0
DICTIONARY
  5
B25
330
5A2
100
AcDbDictionary
280
     1
281
     1
  3
ACAD_XREC_ROUNDTRIP
360
B26
  0
DICTIONARY
  5
B1F
330
3DA
100
AcDbDictionary
280
     1
281
     1
  3
ACAD_XREC_ROUNDTRIP
360
B20
  0
DICTIONARY
  5
B27
330
5A3
100
AcDbDictionary
280
     1
281
     1
  3
ACAD_XREC_ROUNDTRIP
360
B28
  0
DICTIONARY
  5
B17
330
3D6
100
AcDbDictionary
280
     1
281
     1
  3
ACAD_XREC_ROUNDTRIP
360
B18
  0
DICTIONARY
  5
B37
330
5EC
100
AcDbDictionary
280
     1
281
     1
  3
ACAD_XREC_ROUNDTRIP
360
B38
  0
DICTIONARY
  5
B35
330
5EB
100
AcDbDictionary
280
     1
281
     1
  3
ACAD_XREC_ROUNDTRIP
360
B36
  0
DICTIONARY
  5
B2F
330
5E8
100
AcDbDictionary
280
     1
281
     1
  3
ACAD_XREC_ROUNDTRIP
360
B30
  0
DICTIONARY
  5
B31
330
5E9
100
AcDbDictionary
280
     1
281
     1
  3
ACAD_XREC_ROUNDTRIP
360
B32
  0
DICTIONARY
  5
B1D
330
3D9
100
AcDbDictionary
280
     1
281
     1
  3
ACAD_XREC_ROUNDTRIP
360
B1E
  0
DICTIONARY
  5
B2B
330
5E6
100
AcDbDictionary
280
     1
281
     1
  3
ACAD_XREC_ROUNDTRIP
360
B2C
  0
DICTIONARY
  5
B33
330
5EA
100
AcDbDictionary
280
     1
281
     1
  3
ACAD_XREC_ROUNDTRIP
360
B34
  0
XRECORD
  5
AFD
102
{ACAD_REACTORS
330
B03
102
}
330
B03
100
AcDbXrecord
280
     1
  1
AcDb_Thumbnail_Schema
102
{ATTRRECORD
341
AFE
  2
AcDbDs::TreatedAsObjectData
280
     1
291
     1
102
ATTRRECORD}
102
{ATTRRECORD
341
AFF
  2
AcDbDs::Legacy
280
     1
291
     1
102
ATTRRECORD}
  2
AcDbDs::ID
280
    10
 91
        8
102
{ATTRRECORD
341
B00
  2
AcDs:Indexable
280
     1
291
     1
102
ATTRRECORD}
102
{ATTRRECORD
341
B01
  2
AcDbDs::HandleAttribute
280
     7
282
     1
102
ATTRRECORD}
  2
Thumbnail_Data
280
    15
 91
        0
  0
XRECORD
  5
AFE
102
{ACAD_REACTORS
330
B03
102
}
330
B03
100
AcDbXrecord
280
     1
  1
AcDbDs::TreatedAsObjectDataSchema
  2
AcDbDs::TreatedAsObjectData
280
     1
 91
        0
  0
XRECORD
  5
AFF
102
{ACAD_REACTORS
330
B03
102
}
330
B03
100
AcDbXrecord
280
     1
  1
AcDbDs::LegacySchema
  2
AcDbDs::Legacy
280
     1
 91
        0
  0
XRECORD
  5
B00
102
{ACAD_REACTORS
330
B03
102
}
330
B03
100
AcDbXrecord
280
     1
  1
AcDbDs::IndexedPropertySchema
  2
AcDs:Indexable
280
     1
 91
        0
  0
XRECORD
  5
B01
102
{ACAD_REACTORS
330
B03
102
}
330
B03
100
AcDbXrecord
280
     1
  1
AcDbDs::HandleAttributeSchema
  2
AcDbDs::HandleAttribute
280
     7
 91
        1
284
     1
  0
XRECORD
  5
B3A
102
{ACAD_REACTORS
330
633
102
}
330
633
100
AcDbXrecord
280
     1
102
DISPLAYNAME
  1
Metric50
102
FLAGS
 90
        0
  0
XRECORD
  5
3BF
102
{ACAD_REACTORS
330
3BD
102
}
330
3BD
100
AcDbXrecord
280
     1
270
     1
271
     1
  0
XRECORD
  5
3BE
102
{ACAD_REACTORS
330
3BD
102
}
330
3BD
100
AcDbXrecord
280
     1
270
     1
271
     1
  0
XRECORD
  5
3C2
102
{ACAD_REACTORS
330
3BD
102
}
330
3BD
100
AcDbXrecord
280
     1
270
     1
271
     1
  0
XRECORD
  5
3C1
102
{ACAD_REACTORS
330
3BD
102
}
330
3BD
100
AcDbXrecord
280
     1
270
     1
271
     1
  0
XRECORD
  5
3C3
102
{ACAD_REACTORS
330
3BD
102
}
330
3BD
100
AcDbXrecord
280
     1
270
     1
271
     1
  0
XRECORD
  5
3C0
102
{ACAD_REACTORS
330
3BD
102
}
330
3BD
100
AcDbXrecord
280
     1
270
     1
271
     1
  0
XRECORD
  5
3B7
102
{ACAD_REACTORS
330
3B5
102
}
330
3B5
100
AcDbXrecord
280
     1
270
     1
271
     1
  0
XRECORD
  5
3B6
102
{ACAD_REACTORS
330
3B5
102
}
330
3B5
100
AcDbXrecord
280
     1
270
     1
271
     1
  0
XRECORD
  5
3BA
102
{ACAD_REACTORS
330
3B5
102
}
330
3B5
100
AcDbXrecord
280
     1
270
     1
271
     1
  0
XRECORD
  5
3B9
102
{ACAD_REACTORS
330
3B5
102
}
330
3B5
100
AcDbXrecord
280
     1
270
     1
271
     1
  0
XRECORD
  5
3BB
102
{ACAD_REACTORS
330
3B5
102
}
330
3B5
100
AcDbXrecord
280
     1
270
     1
271
     1
  0
XRECORD
  5
3B8
102
{ACAD_REACTORS
330
3B5
102
}
330
3B5
100
AcDbXrecord
280
     1
270
     1
271
     1
  0
XRECORD
  5
3C7
102
{ACAD_REACTORS
330
3C5
102
}
330
3C5
100
AcDbXrecord
280
     1
270
     1
271
     1
  0
XRECORD
  5
3C6
102
{ACAD_REACTORS
330
3C5
102
}
330
3C5
100
AcDbXrecord
280
     1
270
     1
271
     1
  0
XRECORD
  5
3CA
102
{ACAD_REACTORS
330
3C5
102
}
330
3C5
100
AcDbXrecord
280
     1
270
     1
271
     1
  0
XRECORD
  5
3C9
102
{ACAD_REACTORS
330
3C5
102
}
330
3C5
100
AcDbXrecord
280
     1
270
     1
271
     1
  0
XRECORD
  5
3CB
102
{ACAD_REACTORS
330
3C5
102
}
330
3C5
100
AcDbXrecord
280
     1
270
     1
271
     1
  0
XRECORD
  5
3C8
102
{ACAD_REACTORS
330
3C5
102
}
330
3C5
100
AcDbXrecord
280
     1
270
     1
271
     1
  0
DICTIONARY
  5
6C5
102
{ACAD_REACTORS
330
6C4
102
}
330
6C4
100
AcDbDictionary
280
     1
281
     1
  3
TEXT
360
6C6
  0
XRECORD
  5
B3B
102
{ACAD_REACTORS
330
6C4
102
}
330
6C4
100
AcDbXrecord
280
     1
102
DISPLAYNAME
  1
ISO 128-40:2001(E)
102
FLAGS
 90
        0
  0
XRECORD
  5
B39
102
{ACAD_REACTORS
330
631
102
}
330
631
100
AcDbXrecord
280
     1
102
DISPLAYNAME
  1
Metric50
102
FLAGS
 90
        0
  0
CELLSTYLEMAP
  5
AFB
102
{ACAD_REACTORS
330
41B
102
}
330
41B
100
AcDbCellStyleMap
 90
        3
300
CELLSTYLE
  1
TABLEFORMAT_BEGIN
 90
        5
170
     1
 91
        0
 92
    32768
 62
   257
 93
        1
300
CONTENTFORMAT
  1
CONTENTFORMAT_BEGIN
 90
        0
 91
        0
 92
        4
 93
        0
300

 40
0.0
140
1.0
 94
        5
 62
     0
340
11
144
6.0
309
CONTENTFORMAT_END
171
     1
301
MARGIN
  1
CELLMARGIN_BEGIN
 40
1.5
 40
1.5
 40
1.5
 40
1.5
 40
0.18
 40
0.18
309
CELLMARGIN_END
 94
        6
 95
        1
302
GRIDFORMAT
  1
GRIDFORMAT_BEGIN
 90
        0
 91
        1
 62
     0
 92
       -2
340
0
 93
        0
 40
0.045
309
GRIDFORMAT_END
 95
        2
302
GRIDFORMAT
  1
GRIDFORMAT_BEGIN
 90
        0
 91
        1
 62
     0
 92
       -2
340
0
 93
        0
 40
0.045
309
GRIDFORMAT_END
 95
        4
302
GRIDFORMAT
  1
GRIDFORMAT_BEGIN
 90
        0
 91
        1
 62
     0
 92
       -2
340
0
 93
        0
 40
0.045
309
GRIDFORMAT_END
 95
        8
302
GRIDFORMAT
  1
GRIDFORMAT_BEGIN
 90
        0
 91
        1
 62
     0
 92
       -2
340
0
 93
        0
 40
0.045
309
GRIDFORMAT_END
 95
       16
302
GRIDFORMAT
  1
GRIDFORMAT_BEGIN
 90
        0
 91
        1
 62
     0
 92
       -2
340
0
 93
        0
 40
0.045
309
GRIDFORMAT_END
 95
       32
302
GRIDFORMAT
  1
GRIDFORMAT_BEGIN
 90
        0
 91
        1
 62
     0
 92
       -2
340
0
 93
        0
 40
0.045
309
GRIDFORMAT_END
309
TABLEFORMAT_END
  1
CELLSTYLE_BEGIN
 90
        1
 91
        1
300
_TITLE
309
CELLSTYLE_END
300
CELLSTYLE
  1
TABLEFORMAT_BEGIN
 90
        5
170
     1
 91
        0
 92
        0
 62
   257
 93
        1
300
CONTENTFORMAT
  1
CONTENTFORMAT_BEGIN
 90
        0
 91
        0
 92
        4
 93
        0
300

 40
0.0
140
1.0
 94
        5
 62
     0
340
11
144
4.5
309
CONTENTFORMAT_END
171
     1
301
MARGIN
  1
CELLMARGIN_BEGIN
 40
1.5
 40
1.5
 40
1.5
 40
1.5
 40
0.18
 40
0.18
309
CELLMARGIN_END
 94
        6
 95
        1
302
GRIDFORMAT
  1
GRIDFORMAT_BEGIN
 90
        0
 91
        1
 62
     0
 92
       -2
340
0
 93
        0
 40
0.045
309
GRIDFORMAT_END
 95
        2
302
GRIDFORMAT
  1
GRIDFORMAT_BEGIN
 90
        0
 91
        1
 62
     0
 92
       -2
340
0
 93
        0
 40
0.045
309
GRIDFORMAT_END
 95
        4
302
GRIDFORMAT
  1
GRIDFORMAT_BEGIN
 90
        0
 91
        1
 62
     0
 92
       -2
340
0
 93
        0
 40
0.045
309
GRIDFORMAT_END
 95
        8
302
GRIDFORMAT
  1
GRIDFORMAT_BEGIN
 90
        0
 91
        1
 62
     0
 92
       -2
340
0
 93
        0
 40
0.045
309
GRIDFORMAT_END
 95
       16
302
GRIDFORMAT
  1
GRIDFORMAT_BEGIN
 90
        0
 91
        1
 62
     0
 92
       -2
340
0
 93
        0
 40
0.045
309
GRIDFORMAT_END
 95
       32
302
GRIDFORMAT
  1
GRIDFORMAT_BEGIN
 90
        0
 91
        1
 62
     0
 92
       -2
340
0
 93
        0
 40
0.045
309
GRIDFORMAT_END
309
TABLEFORMAT_END
  1
CELLSTYLE_BEGIN
 90
        2
 91
        1
300
_HEADER
309
CELLSTYLE_END
300
CELLSTYLE
  1
TABLEFORMAT_BEGIN
 90
        5
170
     1
 91
        0
 92
        0
 62
   257
 93
        1
300
CONTENTFORMAT
  1
CONTENTFORMAT_BEGIN
 90
        0
 91
        0
 92
        4
 93
        0
300

 40
0.0
140
1.0
 94
        2
 62
     0
340
11
144
4.5
309
CONTENTFORMAT_END
171
     1
301
MARGIN
  1
CELLMARGIN_BEGIN
 40
1.5
 40
1.5
 40
1.5
 40
1.5
 40
0.18
 40
0.18
309
CELLMARGIN_END
 94
        6
 95
        1
302
GRIDFORMAT
  1
GRIDFORMAT_BEGIN
 90
        0
 91
        1
 62
     0
 92
       -2
340
0
 93
        0
 40
0.045
309
GRIDFORMAT_END
 95
        2
302
GRIDFORMAT
  1
GRIDFORMAT_BEGIN
 90
        0
 91
        1
 62
     0
 92
       -2
340
0
 93
        0
 40
0.045
309
GRIDFORMAT_END
 95
        4
302
GRIDFORMAT
  1
GRIDFORMAT_BEGIN
 90
        0
 91
        1
 62
     0
 92
       -2
340
0
 93
        0
 40
0.045
309
GRIDFORMAT_END
 95
        8
302
GRIDFORMAT
  1
GRIDFORMAT_BEGIN
 90
        0
 91
        1
 62
     0
 92
       -2
340
0
 93
        0
 40
0.045
309
GRIDFORMAT_END
 95
       16
302
GRIDFORMAT
  1
GRIDFORMAT_BEGIN
 90
        0
 91
        1
 62
     0
 92
       -2
340
0
 93
        0
 40
0.045
309
GRIDFORMAT_END
 95
       32
302
GRIDFORMAT
  1
GRIDFORMAT_BEGIN
 90
        0
 91
        1
 62
     0
 92
       -2
340
0
 93
        0
 40
0.045
309
GRIDFORMAT_END
309
TABLEFORMAT_END
  1
CELLSTYLE_BEGIN
 90
        3
 91
        2
300
_DATA
309
CELLSTYLE_END
  0
XRECORD
  5
B10
102
{ACAD_REACTORS
330
B0F
102
}
330
B0F
100
AcDbXrecord
280
     1
102
RTVSPost2010Prop28
280
     1
102
RTVSPost2010PropOp28
 70
     1
102
RTVSPost2010Prop29
280
     1
102
RTVSPost2010PropOp29
 70
     1
102
RTVSPost2010Prop30
280
     0
102
RTVSPost2010PropOp30
 70
     1
102
RTVSPost2010Prop31
280
     0
102
RTVSPost2010PropOp31
 70
     1
102
RTVSPost2010Prop32
280
     0
102
RTVSPost2010PropOp32
 70
     1
102
RTVSPost2010Prop33
280
     0
102
RTVSPost2010PropOp33
 70
     1
102
RTVSPost2010Prop34
280
     0
102
RTVSPost2010PropOp34
 70
     1
102
RTVSPost2010Prop35
280
     0
102
RTVSPost2010PropOp35
 70
     1
102
RTVSPost2010Prop36
280
     0
102
RTVSPost2010PropOp36
 70
     1
102
RTVSPost2010Prop37
 90
       50
102
RTVSPost2010PropOp37
 70
     1
102
RTVSPost2010Prop38
140
0.0
102
RTVSPost2010PropOp38
 70
     1
102
RTVSPost2010Prop39
140
1.0
102
RTVSPost2010PropOp39
 70
     1
102
RTVSPost2010Prop40
 90
        0
102
RTVSPost2010PropOp40
 70
     1
102
RTVSPost2010Prop41ColorIndex
 90
       18
102
RTVSPost2010Prop41ColorRGB
 90
        0
102
RTVSPost2010PropOp41
 70
     1
102
RTVSPost2010Prop42
 90
       50
102
RTVSPost2010PropOp42
 70
     1
102
RTVSPost2010Prop43
 90
        3
102
RTVSPost2010PropOp43
 70
     1
102
RTVSPost2010Prop44ColorIndex
 90
        5
102
RTVSPost2010Prop44ColorRGB
 90
      255
102
RTVSPost2010PropOp44
 70
     1
102
RTVSPost2010Prop45
280
     0
102
RTVSPost2010PropOp45
 70
     1
102
RTVSPost2010Prop46
 90
       50
102
RTVSPost2010PropOp46
 70
     1
102
RTVSPost2010Prop47
 90
       50
102
RTVSPost2010PropOp47
 70
     1
102
RTVSPost2010Prop48
 90
       50
102
RTVSPost2010PropOp48
 70
     1
102
RTVSPost2010Prop49
280
     0
102
RTVSPost2010PropOp49
 70
     1
102
RTVSPost2010Prop50
 90
       50
102
RTVSPost2010PropOp50
 70
     1
102
RTVSPost2010Prop51ColorIndex
 90
      256
102
RTVSPost2010Prop51ColorRGB
 90
-16777216
102
RTVSPost2010PropOp51
 70
     0
102
RTVSPost2010Prop52
140
1.0
102
RTVSPost2010PropOp52
 70
     0
102
RTVSPost2010Prop53
 90
        2
102
RTVSPost2010PropOp53
 70
     1
102
RTVSPost2010Prop54
  1
strokes_ogs.tif
102
RTVSPost2010PropOp54
 70
     1
102
RTVSPost2010Prop55
280
     0
102
RTVSPost2010PropOp55
 70
     1
102
RTVSPost2010Prop56
140
1.0
102
RTVSPost2010PropOp56
 70
     1
102
RTVSPost2010Prop57
140
1.0
102
RTVSPost2010PropOp57
 70
     1
  0
XRECORD
  5
B14
102
{ACAD_REACTORS
330
B13
102
}
330
B13
100
AcDbXrecord
280
     1
102
RTVSPost2010Prop28
280
     0
102
RTVSPost2010PropOp28
 70
     1
102
RTVSPost2010Prop29
280
     1
102
RTVSPost2010PropOp29
 70
     1
102
RTVSPost2010Prop30
280
     1
102
RTVSPost2010PropOp30
 70
     1
102
RTVSPost2010Prop31
280
     0
102
RTVSPost2010PropOp31
 70
     1
102
RTVSPost2010Prop32
280
     0
102
RTVSPost2010PropOp32
 70
     1
102
RTVSPost2010Prop33
280
     0
102
RTVSPost2010PropOp33
 70
     1
102
RTVSPost2010Prop34
280
     0
102
RTVSPost2010PropOp34
 70
     1
102
RTVSPost2010Prop35
280
     0
102
RTVSPost2010PropOp35
 70
     1
102
RTVSPost2010Prop36
280
     0
102
RTVSPost2010PropOp36
 70
     1
102
RTVSPost2010Prop37
 90
       50
102
RTVSPost2010PropOp37
 70
     1
102
RTVSPost2010Prop38
140
0.0
102
RTVSPost2010PropOp38
 70
     1
102
RTVSPost2010Prop39
140
1.0
102
RTVSPost2010PropOp39
 70
     1
102
RTVSPost2010Prop40
 90
        0
102
RTVSPost2010PropOp40
 70
     1
102
RTVSPost2010Prop41ColorIndex
 90
       18
102
RTVSPost2010Prop41ColorRGB
 90
        0
102
RTVSPost2010PropOp41
 70
     1
102
RTVSPost2010Prop42
 90
       50
102
RTVSPost2010PropOp42
 70
     1
102
RTVSPost2010Prop43
 90
        3
102
RTVSPost2010PropOp43
 70
     1
102
RTVSPost2010Prop44ColorIndex
 90
        5
102
RTVSPost2010Prop44ColorRGB
 90
      255
102
RTVSPost2010PropOp44
 70
     1
102
RTVSPost2010Prop45
280
     0
102
RTVSPost2010PropOp45
 70
     1
102
RTVSPost2010Prop46
 90
       50
102
RTVSPost2010PropOp46
 70
     1
102
RTVSPost2010Prop47
 90
       50
102
RTVSPost2010PropOp47
 70
     1
102
RTVSPost2010Prop48
 90
       50
102
RTVSPost2010PropOp48
 70
     1
102
RTVSPost2010Prop49
280
     0
102
RTVSPost2010PropOp49
 70
     1
102
RTVSPost2010Prop50
 90
       50
102
RTVSPost2010PropOp50
 70
     1
102
RTVSPost2010Prop51ColorIndex
 90
      256
102
RTVSPost2010Prop51ColorRGB
 90
-16777216
102
RTVSPost2010PropOp51
 70
     0
102
RTVSPost2010Prop52
140
1.0
102
RTVSPost2010PropOp52
 70
     0
102
RTVSPost2010Prop53
 90
        2
102
RTVSPost2010PropOp53
 70
     1
102
RTVSPost2010Prop54
  1
strokes_ogs.tif
102
RTVSPost2010PropOp54
 70
     1
102
RTVSPost2010Prop55
280
     0
102
RTVSPost2010PropOp55
 70
     1
102
RTVSPost2010Prop56
140
1.0
102
RTVSPost2010PropOp56
 70
     1
102
RTVSPost2010Prop57
140
1.0
102
RTVSPost2010PropOp57
 70
     1
  0
XRECORD
  5
B12
102
{ACAD_REACTORS
330
B11
102
}
330
B11
100
AcDbXrecord
280
     1
102
RTVSPost2010Prop28
280
     0
102
RTVSPost2010PropOp28
 70
     1
102
RTVSPost2010Prop29
280
     1
102
RTVSPost2010PropOp29
 70
     1
102
RTVSPost2010Prop30
280
     1
102
RTVSPost2010PropOp30
 70
     1
102
RTVSPost2010Prop31
280
     0
102
RTVSPost2010PropOp31
 70
     1
102
RTVSPost2010Prop32
280
     0
102
RTVSPost2010PropOp32
 70
     1
102
RTVSPost2010Prop33
280
     0
102
RTVSPost2010PropOp33
 70
     1
102
RTVSPost2010Prop34
280
     0
102
RTVSPost2010PropOp34
 70
     1
102
RTVSPost2010Prop35
280
     0
102
RTVSPost2010PropOp35
 70
     1
102
RTVSPost2010Prop36
280
     0
102
RTVSPost2010PropOp36
 70
     1
102
RTVSPost2010Prop37
 90
       50
102
RTVSPost2010PropOp37
 70
     1
102
RTVSPost2010Prop38
140
0.0
102
RTVSPost2010PropOp38
 70
     1
102
RTVSPost2010Prop39
140
1.0
102
RTVSPost2010PropOp39
 70
     1
102
RTVSPost2010Prop40
 90
        0
102
RTVSPost2010PropOp40
 70
     1
102
RTVSPost2010Prop41ColorIndex
 90
       18
102
RTVSPost2010Prop41ColorRGB
 90
        0
102
RTVSPost2010PropOp41
 70
     1
102
RTVSPost2010Prop42
 90
       50
102
RTVSPost2010PropOp42
 70
     1
102
RTVSPost2010Prop43
 90
        3
102
RTVSPost2010PropOp43
 70
     1
102
RTVSPost2010Prop44ColorIndex
 90
        5
102
RTVSPost2010Prop44ColorRGB
 90
      255
102
RTVSPost2010PropOp44
 70
     1
102
RTVSPost2010Prop45
280
     0
102
RTVSPost2010PropOp45
 70
     1
102
RTVSPost2010Prop46
 90
       50
102
RTVSPost2010PropOp46
 70
     1
102
RTVSPost2010Prop47
 90
       50
102
RTVSPost2010PropOp47
 70
     1
102
RTVSPost2010Prop48
 90
       50
102
RTVSPost2010PropOp48
 70
     1
102
RTVSPost2010Prop49
280
     0
102
RTVSPost2010PropOp49
 70
     1
102
RTVSPost2010Prop50
 90
       50
102
RTVSPost2010PropOp50
 70
     1
102
RTVSPost2010Prop51ColorIndex
 90
      256
102
RTVSPost2010Prop51ColorRGB
 90
-16777216
102
RTVSPost2010PropOp51
 70
     0
102
RTVSPost2010Prop52
140
1.0
102
RTVSPost2010PropOp52
 70
     0
102
RTVSPost2010Prop53
 90
        2
102
RTVSPost2010PropOp53
 70
     1
102
RTVSPost2010Prop54
  1
strokes_ogs.tif
102
RTVSPost2010PropOp54
 70
     1
102
RTVSPost2010Prop55
280
     0
102
RTVSPost2010PropOp55
 70
     1
102
RTVSPost2010Prop56
140
1.0
102
RTVSPost2010PropOp56
 70
     1
102
RTVSPost2010Prop57
140
1.0
102
RTVSPost2010PropOp57
 70
     1
  0
XRECORD
  5
B0E
102
{ACAD_REACTORS
330
B0D
102
}
330
B0D
100
AcDbXrecord
280
     1
102
RTVSPost2010Prop28
280
     0
102
RTVSPost2010PropOp28
 70
     1
102
RTVSPost2010Prop29
280
     1
102
RTVSPost2010PropOp29
 70
     1
102
RTVSPost2010Prop30
280
     1
102
RTVSPost2010PropOp30
 70
     1
102
RTVSPost2010Prop31
280
     0
102
RTVSPost2010PropOp31
 70
     1
102
RTVSPost2010Prop32
280
     0
102
RTVSPost2010PropOp32
 70
     1
102
RTVSPost2010Prop33
280
     0
102
RTVSPost2010PropOp33
 70
     1
102
RTVSPost2010Prop34
280
     0
102
RTVSPost2010PropOp34
 70
     1
102
RTVSPost2010Prop35
280
     0
102
RTVSPost2010PropOp35
 70
     1
102
RTVSPost2010Prop36
280
     0
102
RTVSPost2010PropOp36
 70
     1
102
RTVSPost2010Prop37
 90
       50
102
RTVSPost2010PropOp37
 70
     1
102
RTVSPost2010Prop38
140
0.0
102
RTVSPost2010PropOp38
 70
     1
102
RTVSPost2010Prop39
140
1.0
102
RTVSPost2010PropOp39
 70
     1
102
RTVSPost2010Prop40
 90
        0
102
RTVSPost2010PropOp40
 70
     1
102
RTVSPost2010Prop41ColorIndex
 90
       18
102
RTVSPost2010Prop41ColorRGB
 90
        0
102
RTVSPost2010PropOp41
 70
     1
102
RTVSPost2010Prop42
 90
       50
102
RTVSPost2010PropOp42
 70
     1
102
RTVSPost2010Prop43
 90
        3
102
RTVSPost2010PropOp43
 70
     1
102
RTVSPost2010Prop44ColorIndex
 90
        5
102
RTVSPost2010Prop44ColorRGB
 90
      255
102
RTVSPost2010PropOp44
 70
     1
102
RTVSPost2010Prop45
280
     0
102
RTVSPost2010PropOp45
 70
     1
102
RTVSPost2010Prop46
 90
       50
102
RTVSPost2010PropOp46
 70
     1
102
RTVSPost2010Prop47
 90
       50
102
RTVSPost2010PropOp47
 70
     1
102
RTVSPost2010Prop48
 90
       50
102
RTVSPost2010PropOp48
 70
     1
102
RTVSPost2010Prop49
280
     0
102
RTVSPost2010PropOp49
 70
     1
102
RTVSPost2010Prop50
 90
       50
102
RTVSPost2010PropOp50
 70
     1
102
RTVSPost2010Prop51ColorIndex
 90
      256
102
RTVSPost2010Prop51ColorRGB
 90
-16777216
102
RTVSPost2010PropOp51
 70
     0
102
RTVSPost2010Prop52
140
1.0
102
RTVSPost2010PropOp52
 70
     0
102
RTVSPost2010Prop53
 90
        2
102
RTVSPost2010PropOp53
 70
     1
102
RTVSPost2010Prop54
  1
strokes_ogs.tif
102
RTVSPost2010PropOp54
 70
     1
102
RTVSPost2010Prop55
280
     0
102
RTVSPost2010PropOp55
 70
     1
102
RTVSPost2010Prop56
140
1.0
102
RTVSPost2010PropOp56
 70
     1
102
RTVSPost2010Prop57
140
1.0
102
RTVSPost2010PropOp57
 70
     1
  0
XRECORD
  5
B1C
102
{ACAD_REACTORS
330
B1B
102
}
330
B1B
100
AcDbXrecord
280
     1
102
RTVSPost2010Prop28
280
     0
102
RTVSPost2010PropOp28
 70
     1
102
RTVSPost2010Prop29
280
     1
102
RTVSPost2010PropOp29
 70
     1
102
RTVSPost2010Prop30
280
     1
102
RTVSPost2010PropOp30
 70
     1
102
RTVSPost2010Prop31
280
     0
102
RTVSPost2010PropOp31
 70
     1
102
RTVSPost2010Prop32
280
     0
102
RTVSPost2010PropOp32
 70
     1
102
RTVSPost2010Prop33
280
     0
102
RTVSPost2010PropOp33
 70
     1
102
RTVSPost2010Prop34
280
     0
102
RTVSPost2010PropOp34
 70
     1
102
RTVSPost2010Prop35
280
     0
102
RTVSPost2010PropOp35
 70
     1
102
RTVSPost2010Prop36
280
     0
102
RTVSPost2010PropOp36
 70
     1
102
RTVSPost2010Prop37
 90
       50
102
RTVSPost2010PropOp37
 70
     1
102
RTVSPost2010Prop38
140
0.0
102
RTVSPost2010PropOp38
 70
     1
102
RTVSPost2010Prop39
140
1.0
102
RTVSPost2010PropOp39
 70
     1
102
RTVSPost2010Prop40
 90
        0
102
RTVSPost2010PropOp40
 70
     1
102
RTVSPost2010Prop41ColorIndex
 90
       18
102
RTVSPost2010Prop41ColorRGB
 90
        0
102
RTVSPost2010PropOp41
 70
     1
102
RTVSPost2010Prop42
 90
       50
102
RTVSPost2010PropOp42
 70
     1
102
RTVSPost2010Prop43
 90
        3
102
RTVSPost2010PropOp43
 70
     1
102
RTVSPost2010Prop44ColorIndex
 90
        5
102
RTVSPost2010Prop44ColorRGB
 90
      255
102
RTVSPost2010PropOp44
 70
     1
102
RTVSPost2010Prop45
280
     0
102
RTVSPost2010PropOp45
 70
     1
102
RTVSPost2010Prop46
 90
       50
102
RTVSPost2010PropOp46
 70
     1
102
RTVSPost2010Prop47
 90
       50
102
RTVSPost2010PropOp47
 70
     1
102
RTVSPost2010Prop48
 90
       50
102
RTVSPost2010PropOp48
 70
     1
102
RTVSPost2010Prop49
280
     0
102
RTVSPost2010PropOp49
 70
     1
102
RTVSPost2010Prop50
 90
       50
102
RTVSPost2010PropOp50
 70
     1
102
RTVSPost2010Prop51ColorIndex
 90
      256
102
RTVSPost2010Prop51ColorRGB
 90
-16777216
102
RTVSPost2010PropOp51
 70
     0
102
RTVSPost2010Prop52
140
1.0
102
RTVSPost2010PropOp52
 70
     0
102
RTVSPost2010Prop53
 90
        2
102
RTVSPost2010PropOp53
 70
     1
102
RTVSPost2010Prop54
  1
strokes_ogs.tif
102
RTVSPost2010PropOp54
 70
     1
102
RTVSPost2010Prop55
280
     0
102
RTVSPost2010PropOp55
 70
     1
102
RTVSPost2010Prop56
140
1.0
102
RTVSPost2010PropOp56
 70
     1
102
RTVSPost2010Prop57
140
1.0
102
RTVSPost2010PropOp57
 70
     1
  0
XRECORD
  5
B24
102
{ACAD_REACTORS
330
B23
102
}
330
B23
100
AcDbXrecord
280
     1
102
RTVSPost2010Prop28
280
     0
102
RTVSPost2010PropOp28
 70
     1
102
RTVSPost2010Prop29
280
     1
102
RTVSPost2010PropOp29
 70
     1
102
RTVSPost2010Prop30
280
     1
102
RTVSPost2010PropOp30
 70
     1
102
RTVSPost2010Prop31
280
     0
102
RTVSPost2010PropOp31
 70
     1
102
RTVSPost2010Prop32
280
     0
102
RTVSPost2010PropOp32
 70
     1
102
RTVSPost2010Prop33
280
     0
102
RTVSPost2010PropOp33
 70
     1
102
RTVSPost2010Prop34
280
     0
102
RTVSPost2010PropOp34
 70
     1
102
RTVSPost2010Prop35
280
     0
102
RTVSPost2010PropOp35
 70
     1
102
RTVSPost2010Prop36
280
     0
102
RTVSPost2010PropOp36
 70
     1
102
RTVSPost2010Prop37
 90
       50
102
RTVSPost2010PropOp37
 70
     1
102
RTVSPost2010Prop38
140
0.0
102
RTVSPost2010PropOp38
 70
     1
102
RTVSPost2010Prop39
140
1.0
102
RTVSPost2010PropOp39
 70
     1
102
RTVSPost2010Prop40
 90
        0
102
RTVSPost2010PropOp40
 70
     1
102
RTVSPost2010Prop41ColorIndex
 90
       18
102
RTVSPost2010Prop41ColorRGB
 90
        0
102
RTVSPost2010PropOp41
 70
     1
102
RTVSPost2010Prop42
 90
       50
102
RTVSPost2010PropOp42
 70
     1
102
RTVSPost2010Prop43
 90
        3
102
RTVSPost2010PropOp43
 70
     1
102
RTVSPost2010Prop44ColorIndex
 90
        5
102
RTVSPost2010Prop44ColorRGB
 90
      255
102
RTVSPost2010PropOp44
 70
     1
102
RTVSPost2010Prop45
280
     0
102
RTVSPost2010PropOp45
 70
     1
102
RTVSPost2010Prop46
 90
       50
102
RTVSPost2010PropOp46
 70
     1
102
RTVSPost2010Prop47
 90
       50
102
RTVSPost2010PropOp47
 70
     1
102
RTVSPost2010Prop48
 90
       50
102
RTVSPost2010PropOp48
 70
     1
102
RTVSPost2010Prop49
280
     0
102
RTVSPost2010PropOp49
 70
     1
102
RTVSPost2010Prop50
 90
       50
102
RTVSPost2010PropOp50
 70
     1
102
RTVSPost2010Prop51ColorIndex
 90
      256
102
RTVSPost2010Prop51ColorRGB
 90
-16777216
102
RTVSPost2010PropOp51
 70
     0
102
RTVSPost2010Prop52
140
1.0
102
RTVSPost2010PropOp52
 70
     0
102
RTVSPost2010Prop53
 90
        2
102
RTVSPost2010PropOp53
 70
     1
102
RTVSPost2010Prop54
  1
strokes_ogs.tif
102
RTVSPost2010PropOp54
 70
     1
102
RTVSPost2010Prop55
280
     0
102
RTVSPost2010PropOp55
 70
     1
102
RTVSPost2010Prop56
140
1.0
102
RTVSPost2010PropOp56
 70
     1
102
RTVSPost2010Prop57
140
1.0
102
RTVSPost2010PropOp57
 70
     1
  0
XRECORD
  5
B16
102
{ACAD_REACTORS
330
B15
102
}
330
B15
100
AcDbXrecord
280
     1
102
RTVSPost2010Prop28
280
     0
102
RTVSPost2010PropOp28
 70
     1
102
RTVSPost2010Prop29
280
     1
102
RTVSPost2010PropOp29
 70
     1
102
RTVSPost2010Prop30
280
     1
102
RTVSPost2010PropOp30
 70
     1
102
RTVSPost2010Prop31
280
     0
102
RTVSPost2010PropOp31
 70
     1
102
RTVSPost2010Prop32
280
     0
102
RTVSPost2010PropOp32
 70
     1
102
RTVSPost2010Prop33
280
     0
102
RTVSPost2010PropOp33
 70
     1
102
RTVSPost2010Prop34
280
     0
102
RTVSPost2010PropOp34
 70
     1
102
RTVSPost2010Prop35
280
     0
102
RTVSPost2010PropOp35
 70
     1
102
RTVSPost2010Prop36
280
     0
102
RTVSPost2010PropOp36
 70
     1
102
RTVSPost2010Prop37
 90
       50
102
RTVSPost2010PropOp37
 70
     1
102
RTVSPost2010Prop38
140
0.0
102
RTVSPost2010PropOp38
 70
     1
102
RTVSPost2010Prop39
140
1.0
102
RTVSPost2010PropOp39
 70
     1
102
RTVSPost2010Prop40
 90
        0
102
RTVSPost2010PropOp40
 70
     1
102
RTVSPost2010Prop41ColorIndex
 90
       18
102
RTVSPost2010Prop41ColorRGB
 90
        0
102
RTVSPost2010PropOp41
 70
     1
102
RTVSPost2010Prop42
 90
       50
102
RTVSPost2010PropOp42
 70
     1
102
RTVSPost2010Prop43
 90
        3
102
RTVSPost2010PropOp43
 70
     1
102
RTVSPost2010Prop44ColorIndex
 90
        5
102
RTVSPost2010Prop44ColorRGB
 90
      255
102
RTVSPost2010PropOp44
 70
     1
102
RTVSPost2010Prop45
280
     0
102
RTVSPost2010PropOp45
 70
     1
102
RTVSPost2010Prop46
 90
       50
102
RTVSPost2010PropOp46
 70
     1
102
RTVSPost2010Prop47
 90
       50
102
RTVSPost2010PropOp47
 70
     1
102
RTVSPost2010Prop48
 90
       50
102
RTVSPost2010PropOp48
 70
     1
102
RTVSPost2010Prop49
280
     0
102
RTVSPost2010PropOp49
 70
     1
102
RTVSPost2010Prop50
 90
       50
102
RTVSPost2010PropOp50
 70
     1
102
RTVSPost2010Prop51ColorIndex
 90
      256
102
RTVSPost2010Prop51ColorRGB
 90
-16777216
102
RTVSPost2010PropOp51
 70
     0
102
RTVSPost2010Prop52
140
1.0
102
RTVSPost2010PropOp52
 70
     0
102
RTVSPost2010Prop53
 90
        2
102
RTVSPost2010PropOp53
 70
     1
102
RTVSPost2010Prop54
  1
strokes_ogs.tif
102
RTVSPost2010PropOp54
 70
     1
102
RTVSPost2010Prop55
280
     0
102
RTVSPost2010PropOp55
 70
     1
102
RTVSPost2010Prop56
140
1.0
102
RTVSPost2010PropOp56
 70
     1
102
RTVSPost2010Prop57
140
1.0
102
RTVSPost2010PropOp57
 70
     1
  0
XRECORD
  5
B1A
102
{ACAD_REACTORS
330
B19
102
}
330
B19
100
AcDbXrecord
280
     1
102
RTVSPost2010Prop28
280
     0
102
RTVSPost2010PropOp28
 70
     1
102
RTVSPost2010Prop29
280
     1
102
RTVSPost2010PropOp29
 70
     1
102
RTVSPost2010Prop30
280
     1
102
RTVSPost2010PropOp30
 70
     1
102
RTVSPost2010Prop31
280
     0
102
RTVSPost2010PropOp31
 70
     1
102
RTVSPost2010Prop32
280
     0
102
RTVSPost2010PropOp32
 70
     1
102
RTVSPost2010Prop33
280
     0
102
RTVSPost2010PropOp33
 70
     1
102
RTVSPost2010Prop34
280
     0
102
RTVSPost2010PropOp34
 70
     1
102
RTVSPost2010Prop35
280
     0
102
RTVSPost2010PropOp35
 70
     1
102
RTVSPost2010Prop36
280
     0
102
RTVSPost2010PropOp36
 70
     1
102
RTVSPost2010Prop37
 90
       50
102
RTVSPost2010PropOp37
 70
     1
102
RTVSPost2010Prop38
140
0.0
102
RTVSPost2010PropOp38
 70
     1
102
RTVSPost2010Prop39
140
1.0
102
RTVSPost2010PropOp39
 70
     1
102
RTVSPost2010Prop40
 90
        0
102
RTVSPost2010PropOp40
 70
     1
102
RTVSPost2010Prop41ColorIndex
 90
       18
102
RTVSPost2010Prop41ColorRGB
 90
        0
102
RTVSPost2010PropOp41
 70
     1
102
RTVSPost2010Prop42
 90
       50
102
RTVSPost2010PropOp42
 70
     1
102
RTVSPost2010Prop43
 90
        3
102
RTVSPost2010PropOp43
 70
     1
102
RTVSPost2010Prop44ColorIndex
 90
        5
102
RTVSPost2010Prop44ColorRGB
 90
      255
102
RTVSPost2010PropOp44
 70
     1
102
RTVSPost2010Prop45
280
     0
102
RTVSPost2010PropOp45
 70
     1
102
RTVSPost2010Prop46
 90
       50
102
RTVSPost2010PropOp46
 70
     1
102
RTVSPost2010Prop47
 90
       50
102
RTVSPost2010PropOp47
 70
     1
102
RTVSPost2010Prop48
 90
       50
102
RTVSPost2010PropOp48
 70
     1
102
RTVSPost2010Prop49
280
     0
102
RTVSPost2010PropOp49
 70
     1
102
RTVSPost2010Prop50
 90
       50
102
RTVSPost2010PropOp50
 70
     1
102
RTVSPost2010Prop51ColorIndex
 90
      256
102
RTVSPost2010Prop51ColorRGB
 90
-16777216
102
RTVSPost2010PropOp51
 70
     0
102
RTVSPost2010Prop52
140
1.0
102
RTVSPost2010PropOp52
 70
     0
102
RTVSPost2010Prop53
 90
        2
102
RTVSPost2010PropOp53
 70
     1
102
RTVSPost2010Prop54
  1
strokes_ogs.tif
102
RTVSPost2010PropOp54
 70
     1
102
RTVSPost2010Prop55
280
     0
102
RTVSPost2010PropOp55
 70
     1
102
RTVSPost2010Prop56
140
1.0
102
RTVSPost2010PropOp56
 70
     1
102
RTVSPost2010Prop57
140
1.0
102
RTVSPost2010PropOp57
 70
     1
  0
XRECORD
  5
B2A
102
{ACAD_REACTORS
330
B29
102
}
330
B29
100
AcDbXrecord
280
     1
102
RTVSPost2010Prop28
280
     0
102
RTVSPost2010PropOp28
 70
     1
102
RTVSPost2010Prop29
280
     1
102
RTVSPost2010PropOp29
 70
     1
102
RTVSPost2010Prop30
280
     1
102
RTVSPost2010PropOp30
 70
     1
102
RTVSPost2010Prop31
280
     0
102
RTVSPost2010PropOp31
 70
     1
102
RTVSPost2010Prop32
280
     0
102
RTVSPost2010PropOp32
 70
     1
102
RTVSPost2010Prop33
280
     0
102
RTVSPost2010PropOp33
 70
     1
102
RTVSPost2010Prop34
280
     0
102
RTVSPost2010PropOp34
 70
     1
102
RTVSPost2010Prop35
280
     0
102
RTVSPost2010PropOp35
 70
     1
102
RTVSPost2010Prop36
280
     0
102
RTVSPost2010PropOp36
 70
     1
102
RTVSPost2010Prop37
 90
       50
102
RTVSPost2010PropOp37
 70
     1
102
RTVSPost2010Prop38
140
0.0
102
RTVSPost2010PropOp38
 70
     1
102
RTVSPost2010Prop39
140
1.0
102
RTVSPost2010PropOp39
 70
     1
102
RTVSPost2010Prop40
 90
        0
102
RTVSPost2010PropOp40
 70
     1
102
RTVSPost2010Prop41ColorIndex
 90
       18
102
RTVSPost2010Prop41ColorRGB
 90
        0
102
RTVSPost2010PropOp41
 70
     1
102
RTVSPost2010Prop42
 90
       50
102
RTVSPost2010PropOp42
 70
     1
102
RTVSPost2010Prop43
 90
        3
102
RTVSPost2010PropOp43
 70
     1
102
RTVSPost2010Prop44ColorIndex
 90
        5
102
RTVSPost2010Prop44ColorRGB
 90
      255
102
RTVSPost2010PropOp44
 70
     1
102
RTVSPost2010Prop45
280
     0
102
RTVSPost2010PropOp45
 70
     1
102
RTVSPost2010Prop46
 90
       50
102
RTVSPost2010PropOp46
 70
     1
102
RTVSPost2010Prop47
 90
       50
102
RTVSPost2010PropOp47
 70
     1
102
RTVSPost2010Prop48
 90
       50
102
RTVSPost2010PropOp48
 70
     1
102
RTVSPost2010Prop49
280
     0
102
RTVSPost2010PropOp49
 70
     1
102
RTVSPost2010Prop50
 90
       50
102
RTVSPost2010PropOp50
 70
     1
102
RTVSPost2010Prop51ColorIndex
 90
      256
102
RTVSPost2010Prop51ColorRGB
 90
-16777216
102
RTVSPost2010PropOp51
 70
     0
102
RTVSPost2010Prop52
140
1.0
102
RTVSPost2010PropOp52
 70
     0
102
RTVSPost2010Prop53
 90
        2
102
RTVSPost2010PropOp53
 70
     1
102
RTVSPost2010Prop54
  1
strokes_ogs.tif
102
RTVSPost2010PropOp54
 70
     1
102
RTVSPost2010Prop55
280
     0
102
RTVSPost2010PropOp55
 70
     1
102
RTVSPost2010Prop56
140
1.0
102
RTVSPost2010PropOp56
 70
     1
102
RTVSPost2010Prop57
140
1.0
102
RTVSPost2010PropOp57
 70
     1
  0
XRECORD
  5
B22
102
{ACAD_REACTORS
330
B21
102
}
330
B21
100
AcDbXrecord
280
     1
102
RTVSPost2010Prop28
280
     0
102
RTVSPost2010PropOp28
 70
     1
102
RTVSPost2010Prop29
280
     1
102
RTVSPost2010PropOp29
 70
     1
102
RTVSPost2010Prop30
280
     1
102
RTVSPost2010PropOp30
 70
     1
102
RTVSPost2010Prop31
280
     0
102
RTVSPost2010PropOp31
 70
     1
102
RTVSPost2010Prop32
280
     0
102
RTVSPost2010PropOp32
 70
     1
102
RTVSPost2010Prop33
280
     0
102
RTVSPost2010PropOp33
 70
     1
102
RTVSPost2010Prop34
280
     0
102
RTVSPost2010PropOp34
 70
     1
102
RTVSPost2010Prop35
280
     0
102
RTVSPost2010PropOp35
 70
     1
102
RTVSPost2010Prop36
280
     0
102
RTVSPost2010PropOp36
 70
     1
102
RTVSPost2010Prop37
 90
       50
102
RTVSPost2010PropOp37
 70
     1
102
RTVSPost2010Prop38
140
0.0
102
RTVSPost2010PropOp38
 70
     1
102
RTVSPost2010Prop39
140
1.0
102
RTVSPost2010PropOp39
 70
     1
102
RTVSPost2010Prop40
 90
        0
102
RTVSPost2010PropOp40
 70
     1
102
RTVSPost2010Prop41ColorIndex
 90
       18
102
RTVSPost2010Prop41ColorRGB
 90
        0
102
RTVSPost2010PropOp41
 70
     1
102
RTVSPost2010Prop42
 90
       50
102
RTVSPost2010PropOp42
 70
     1
102
RTVSPost2010Prop43
 90
        3
102
RTVSPost2010PropOp43
 70
     1
102
RTVSPost2010Prop44ColorIndex
 90
        5
102
RTVSPost2010Prop44ColorRGB
 90
      255
102
RTVSPost2010PropOp44
 70
     1
102
RTVSPost2010Prop45
280
     0
102
RTVSPost2010PropOp45
 70
     1
102
RTVSPost2010Prop46
 90
       50
102
RTVSPost2010PropOp46
 70
     1
102
RTVSPost2010Prop47
 90
       50
102
RTVSPost2010PropOp47
 70
     1
102
RTVSPost2010Prop48
 90
       50
102
RTVSPost2010PropOp48
 70
     1
102
RTVSPost2010Prop49
280
     0
102
RTVSPost2010PropOp49
 70
     1
102
RTVSPost2010Prop50
 90
       50
102
RTVSPost2010PropOp50
 70
     1
102
RTVSPost2010Prop51ColorIndex
 90
      256
102
RTVSPost2010Prop51ColorRGB
 90
-16777216
102
RTVSPost2010PropOp51
 70
     0
102
RTVSPost2010Prop52
140
1.0
102
RTVSPost2010PropOp52
 70
     0
102
RTVSPost2010Prop53
 90
        2
102
RTVSPost2010PropOp53
 70
     1
102
RTVSPost2010Prop54
  1
strokes_ogs.tif
102
RTVSPost2010PropOp54
 70
     1
102
RTVSPost2010Prop55
280
     0
102
RTVSPost2010PropOp55
 70
     1
102
RTVSPost2010Prop56
140
1.0
102
RTVSPost2010PropOp56
 70
     1
102
RTVSPost2010Prop57
140
1.0
102
RTVSPost2010PropOp57
 70
     1
  0
XRECORD
  5
B06
102
{ACAD_REACTORS
330
B05
102
}
330
B05
100
AcDbXrecord
280
     1
102
RTVSPost2010Prop28
280
     0
102
RTVSPost2010PropOp28
 70
     1
102
RTVSPost2010Prop29
280
     1
102
RTVSPost2010PropOp29
 70
     1
102
RTVSPost2010Prop30
280
     1
102
RTVSPost2010PropOp30
 70
     1
102
RTVSPost2010Prop31
280
     0
102
RTVSPost2010PropOp31
 70
     1
102
RTVSPost2010Prop32
280
     0
102
RTVSPost2010PropOp32
 70
     1
102
RTVSPost2010Prop33
280
     0
102
RTVSPost2010PropOp33
 70
     1
102
RTVSPost2010Prop34
280
     0
102
RTVSPost2010PropOp34
 70
     1
102
RTVSPost2010Prop35
280
     0
102
RTVSPost2010PropOp35
 70
     1
102
RTVSPost2010Prop36
280
     0
102
RTVSPost2010PropOp36
 70
     1
102
RTVSPost2010Prop37
 90
       50
102
RTVSPost2010PropOp37
 70
     1
102
RTVSPost2010Prop38
140
0.0
102
RTVSPost2010PropOp38
 70
     1
102
RTVSPost2010Prop39
140
1.0
102
RTVSPost2010PropOp39
 70
     1
102
RTVSPost2010Prop40
 90
        0
102
RTVSPost2010PropOp40
 70
     1
102
RTVSPost2010Prop41ColorIndex
 90
       18
102
RTVSPost2010Prop41ColorRGB
 90
        0
102
RTVSPost2010PropOp41
 70
     1
102
RTVSPost2010Prop42
 90
       50
102
RTVSPost2010PropOp42
 70
     1
102
RTVSPost2010Prop43
 90
        3
102
RTVSPost2010PropOp43
 70
     1
102
RTVSPost2010Prop44ColorIndex
 90
        5
102
RTVSPost2010Prop44ColorRGB
 90
      255
102
RTVSPost2010PropOp44
 70
     1
102
RTVSPost2010Prop45
280
     0
102
RTVSPost2010PropOp45
 70
     1
102
RTVSPost2010Prop46
 90
       50
102
RTVSPost2010PropOp46
 70
     1
102
RTVSPost2010Prop47
 90
       50
102
RTVSPost2010PropOp47
 70
     1
102
RTVSPost2010Prop48
 90
       50
102
RTVSPost2010PropOp48
 70
     1
102
RTVSPost2010Prop49
280
     0
102
RTVSPost2010PropOp49
 70
     1
102
RTVSPost2010Prop50
 90
       50
102
RTVSPost2010PropOp50
 70
     1
102
RTVSPost2010Prop51ColorIndex
 90
      256
102
RTVSPost2010Prop51ColorRGB
 90
-16777216
102
RTVSPost2010PropOp51
 70
     0
102
RTVSPost2010Prop52
140
1.0
102
RTVSPost2010PropOp52
 70
     0
102
RTVSPost2010Prop53
 90
        2
102
RTVSPost2010PropOp53
 70
     1
102
RTVSPost2010Prop54
  1
strokes_ogs.tif
102
RTVSPost2010PropOp54
 70
     1
102
RTVSPost2010Prop55
280
     0
102
RTVSPost2010PropOp55
 70
     1
102
RTVSPost2010Prop56
140
1.0
102
RTVSPost2010PropOp56
 70
     1
102
RTVSPost2010Prop57
140
1.0
102
RTVSPost2010PropOp57
 70
     1
  0
XRECORD
  5
B08
102
{ACAD_REACTORS
330
B07
102
}
330
B07
100
AcDbXrecord
280
     1
102
RTVSPost2010Prop28
280
     0
102
RTVSPost2010PropOp28
 70
     1
102
RTVSPost2010Prop29
280
     1
102
RTVSPost2010PropOp29
 70
     1
102
RTVSPost2010Prop30
280
     1
102
RTVSPost2010PropOp30
 70
     1
102
RTVSPost2010Prop31
280
     0
102
RTVSPost2010PropOp31
 70
     1
102
RTVSPost2010Prop32
280
     0
102
RTVSPost2010PropOp32
 70
     1
102
RTVSPost2010Prop33
280
     0
102
RTVSPost2010PropOp33
 70
     1
102
RTVSPost2010Prop34
280
     0
102
RTVSPost2010PropOp34
 70
     1
102
RTVSPost2010Prop35
280
     0
102
RTVSPost2010PropOp35
 70
     1
102
RTVSPost2010Prop36
280
     0
102
RTVSPost2010PropOp36
 70
     1
102
RTVSPost2010Prop37
 90
       50
102
RTVSPost2010PropOp37
 70
     1
102
RTVSPost2010Prop38
140
0.0
102
RTVSPost2010PropOp38
 70
     1
102
RTVSPost2010Prop39
140
1.0
102
RTVSPost2010PropOp39
 70
     1
102
RTVSPost2010Prop40
 90
        0
102
RTVSPost2010PropOp40
 70
     1
102
RTVSPost2010Prop41ColorIndex
 90
       18
102
RTVSPost2010Prop41ColorRGB
 90
        0
102
RTVSPost2010PropOp41
 70
     1
102
RTVSPost2010Prop42
 90
       50
102
RTVSPost2010PropOp42
 70
     1
102
RTVSPost2010Prop43
 90
        3
102
RTVSPost2010PropOp43
 70
     1
102
RTVSPost2010Prop44ColorIndex
 90
        5
102
RTVSPost2010Prop44ColorRGB
 90
      255
102
RTVSPost2010PropOp44
 70
     1
102
RTVSPost2010Prop45
280
     0
102
RTVSPost2010PropOp45
 70
     1
102
RTVSPost2010Prop46
 90
       50
102
RTVSPost2010PropOp46
 70
     1
102
RTVSPost2010Prop47
 90
       50
102
RTVSPost2010PropOp47
 70
     1
102
RTVSPost2010Prop48
 90
       50
102
RTVSPost2010PropOp48
 70
     1
102
RTVSPost2010Prop49
280
     0
102
RTVSPost2010PropOp49
 70
     1
102
RTVSPost2010Prop50
 90
       50
102
RTVSPost2010PropOp50
 70
     1
102
RTVSPost2010Prop51ColorIndex
 90
      256
102
RTVSPost2010Prop51ColorRGB
 90
-16777216
102
RTVSPost2010PropOp51
 70
     0
102
RTVSPost2010Prop52
140
1.0
102
RTVSPost2010PropOp52
 70
     0
102
RTVSPost2010Prop53
 90
        2
102
RTVSPost2010PropOp53
 70
     1
102
RTVSPost2010Prop54
  1
strokes_ogs.tif
102
RTVSPost2010PropOp54
 70
     1
102
RTVSPost2010Prop55
280
     0
102
RTVSPost2010PropOp55
 70
     1
102
RTVSPost2010Prop56
140
1.0
102
RTVSPost2010PropOp56
 70
     1
102
RTVSPost2010Prop57
140
1.0
102
RTVSPost2010PropOp57
 70
     1
  0
XRECORD
  5
B0A
102
{ACAD_REACTORS
330
B09
102
}
330
B09
100
AcDbXrecord
280
     1
102
RTVSPost2010Prop28
280
     0
102
RTVSPost2010PropOp28
 70
     1
102
RTVSPost2010Prop29
280
     1
102
RTVSPost2010PropOp29
 70
     1
102
RTVSPost2010Prop30
280
     1
102
RTVSPost2010PropOp30
 70
     1
102
RTVSPost2010Prop31
280
     0
102
RTVSPost2010PropOp31
 70
     1
102
RTVSPost2010Prop32
280
     0
102
RTVSPost2010PropOp32
 70
     1
102
RTVSPost2010Prop33
280
     0
102
RTVSPost2010PropOp33
 70
     1
102
RTVSPost2010Prop34
280
     0
102
RTVSPost2010PropOp34
 70
     1
102
RTVSPost2010Prop35
280
     0
102
RTVSPost2010PropOp35
 70
     1
102
RTVSPost2010Prop36
280
     0
102
RTVSPost2010PropOp36
 70
     1
102
RTVSPost2010Prop37
 90
       50
102
RTVSPost2010PropOp37
 70
     1
102
RTVSPost2010Prop38
140
0.0
102
RTVSPost2010PropOp38
 70
     1
102
RTVSPost2010Prop39
140
1.0
102
RTVSPost2010PropOp39
 70
     1
102
RTVSPost2010Prop40
 90
        0
102
RTVSPost2010PropOp40
 70
     1
102
RTVSPost2010Prop41ColorIndex
 90
       18
102
RTVSPost2010Prop41ColorRGB
 90
        0
102
RTVSPost2010PropOp41
 70
     1
102
RTVSPost2010Prop42
 90
       50
102
RTVSPost2010PropOp42
 70
     1
102
RTVSPost2010Prop43
 90
        3
102
RTVSPost2010PropOp43
 70
     1
102
RTVSPost2010Prop44ColorIndex
 90
        5
102
RTVSPost2010Prop44ColorRGB
 90
      255
102
RTVSPost2010PropOp44
 70
     1
102
RTVSPost2010Prop45
280
     0
102
RTVSPost2010PropOp45
 70
     1
102
RTVSPost2010Prop46
 90
       50
102
RTVSPost2010PropOp46
 70
     1
102
RTVSPost2010Prop47
 90
       50
102
RTVSPost2010PropOp47
 70
     1
102
RTVSPost2010Prop48
 90
       50
102
RTVSPost2010PropOp48
 70
     1
102
RTVSPost2010Prop49
280
     0
102
RTVSPost2010PropOp49
 70
     1
102
RTVSPost2010Prop50
 90
       50
102
RTVSPost2010PropOp50
 70
     1
102
RTVSPost2010Prop51ColorIndex
 90
      256
102
RTVSPost2010Prop51ColorRGB
 90
-16777216
102
RTVSPost2010PropOp51
 70
     0
102
RTVSPost2010Prop52
140
1.0
102
RTVSPost2010PropOp52
 70
     0
102
RTVSPost2010Prop53
 90
        2
102
RTVSPost2010PropOp53
 70
     1
102
RTVSPost2010Prop54
  1
strokes_ogs.tif
102
RTVSPost2010PropOp54
 70
     1
102
RTVSPost2010Prop55
280
     0
102
RTVSPost2010PropOp55
 70
     1
102
RTVSPost2010Prop56
140
1.0
102
RTVSPost2010PropOp56
 70
     1
102
RTVSPost2010Prop57
140
1.0
102
RTVSPost2010PropOp57
 70
     1
  0
XRECORD
  5
B0C
102
{ACAD_REACTORS
330
B0B
102
}
330
B0B
100
AcDbXrecord
280
     1
102
RTVSPost2010Prop28
280
     0
102
RTVSPost2010PropOp28
 70
     1
102
RTVSPost2010Prop29
280
     1
102
RTVSPost2010PropOp29
 70
     1
102
RTVSPost2010Prop30
280
     1
102
RTVSPost2010PropOp30
 70
     1
102
RTVSPost2010Prop31
280
     0
102
RTVSPost2010PropOp31
 70
     1
102
RTVSPost2010Prop32
280
     0
102
RTVSPost2010PropOp32
 70
     1
102
RTVSPost2010Prop33
280
     0
102
RTVSPost2010PropOp33
 70
     1
102
RTVSPost2010Prop34
280
     0
102
RTVSPost2010PropOp34
 70
     1
102
RTVSPost2010Prop35
280
     0
102
RTVSPost2010PropOp35
 70
     1
102
RTVSPost2010Prop36
280
     0
102
RTVSPost2010PropOp36
 70
     1
102
RTVSPost2010Prop37
 90
       50
102
RTVSPost2010PropOp37
 70
     1
102
RTVSPost2010Prop38
140
0.0
102
RTVSPost2010PropOp38
 70
     1
102
RTVSPost2010Prop39
140
1.0
102
RTVSPost2010PropOp39
 70
     1
102
RTVSPost2010Prop40
 90
        0
102
RTVSPost2010PropOp40
 70
     1
102
RTVSPost2010Prop41ColorIndex
 90
       18
102
RTVSPost2010Prop41ColorRGB
 90
        0
102
RTVSPost2010PropOp41
 70
     1
102
RTVSPost2010Prop42
 90
       50
102
RTVSPost2010PropOp42
 70
     1
102
RTVSPost2010Prop43
 90
        3
102
RTVSPost2010PropOp43
 70
     1
102
RTVSPost2010Prop44ColorIndex
 90
        5
102
RTVSPost2010Prop44ColorRGB
 90
      255
102
RTVSPost2010PropOp44
 70
     1
102
RTVSPost2010Prop45
280
     0
102
RTVSPost2010PropOp45
 70
     1
102
RTVSPost2010Prop46
 90
       50
102
RTVSPost2010PropOp46
 70
     1
102
RTVSPost2010Prop47
 90
       50
102
RTVSPost2010PropOp47
 70
     1
102
RTVSPost2010Prop48
 90
       50
102
RTVSPost2010PropOp48
 70
     1
102
RTVSPost2010Prop49
280
     0
102
RTVSPost2010PropOp49
 70
     1
102
RTVSPost2010Prop50
 90
       50
102
RTVSPost2010PropOp50
 70
     1
102
RTVSPost2010Prop51ColorIndex
 90
      256
102
RTVSPost2010Prop51ColorRGB
 90
-16777216
102
RTVSPost2010PropOp51
 70
     0
102
RTVSPost2010Prop52
140
1.0
102
RTVSPost2010PropOp52
 70
     0
102
RTVSPost2010Prop53
 90
        2
102
RTVSPost2010PropOp53
 70
     1
102
RTVSPost2010Prop54
  1
strokes_ogs.tif
102
RTVSPost2010PropOp54
 70
     1
102
RTVSPost2010Prop55
280
     0
102
RTVSPost2010PropOp55
 70
     1
102
RTVSPost2010Prop56
140
1.0
102
RTVSPost2010PropOp56
 70
     1
102
RTVSPost2010Prop57
140
1.0
102
RTVSPost2010PropOp57
 70
     1
  0
XRECORD
  5
B2E
102
{ACAD_REACTORS
330
B2D
102
}
330
B2D
100
AcDbXrecord
280
     1
102
RTVSPost2010Prop28
280
     0
102
RTVSPost2010PropOp28
 70
     1
102
RTVSPost2010Prop29
280
     1
102
RTVSPost2010PropOp29
 70
     1
102
RTVSPost2010Prop30
280
     1
102
RTVSPost2010PropOp30
 70
     1
102
RTVSPost2010Prop31
280
     0
102
RTVSPost2010PropOp31
 70
     1
102
RTVSPost2010Prop32
280
     0
102
RTVSPost2010PropOp32
 70
     1
102
RTVSPost2010Prop33
280
     0
102
RTVSPost2010PropOp33
 70
     1
102
RTVSPost2010Prop34
280
     0
102
RTVSPost2010PropOp34
 70
     1
102
RTVSPost2010Prop35
280
     0
102
RTVSPost2010PropOp35
 70
     1
102
RTVSPost2010Prop36
280
     0
102
RTVSPost2010PropOp36
 70
     1
102
RTVSPost2010Prop37
 90
       50
102
RTVSPost2010PropOp37
 70
     1
102
RTVSPost2010Prop38
140
0.0
102
RTVSPost2010PropOp38
 70
     1
102
RTVSPost2010Prop39
140
1.0
102
RTVSPost2010PropOp39
 70
     1
102
RTVSPost2010Prop40
 90
        0
102
RTVSPost2010PropOp40
 70
     1
102
RTVSPost2010Prop41ColorIndex
 90
       18
102
RTVSPost2010Prop41ColorRGB
 90
        0
102
RTVSPost2010PropOp41
 70
     1
102
RTVSPost2010Prop42
 90
       50
102
RTVSPost2010PropOp42
 70
     1
102
RTVSPost2010Prop43
 90
        3
102
RTVSPost2010PropOp43
 70
     1
102
RTVSPost2010Prop44ColorIndex
 90
        5
102
RTVSPost2010Prop44ColorRGB
 90
      255
102
RTVSPost2010PropOp44
 70
     1
102
RTVSPost2010Prop45
280
     0
102
RTVSPost2010PropOp45
 70
     1
102
RTVSPost2010Prop46
 90
       50
102
RTVSPost2010PropOp46
 70
     1
102
RTVSPost2010Prop47
 90
       50
102
RTVSPost2010PropOp47
 70
     1
102
RTVSPost2010Prop48
 90
       50
102
RTVSPost2010PropOp48
 70
     1
102
RTVSPost2010Prop49
280
     0
102
RTVSPost2010PropOp49
 70
     1
102
RTVSPost2010Prop50
 90
       50
102
RTVSPost2010PropOp50
 70
     1
102
RTVSPost2010Prop51ColorIndex
 90
      256
102
RTVSPost2010Prop51ColorRGB
 90
-16777216
102
RTVSPost2010PropOp51
 70
     0
102
RTVSPost2010Prop52
140
1.0
102
RTVSPost2010PropOp52
 70
     0
102
RTVSPost2010Prop53
 90
        2
102
RTVSPost2010PropOp53
 70
     1
102
RTVSPost2010Prop54
  1
strokes_ogs.tif
102
RTVSPost2010PropOp54
 70
     1
102
RTVSPost2010Prop55
280
     0
102
RTVSPost2010PropOp55
 70
     1
102
RTVSPost2010Prop56
140
1.0
102
RTVSPost2010PropOp56
 70
     1
102
RTVSPost2010Prop57
140
1.0
102
RTVSPost2010PropOp57
 70
     1
  0
XRECORD
  5
B26
102
{ACAD_REACTORS
330
B25
102
}
330
B25
100
AcDbXrecord
280
     1
102
RTVSPost2010Prop28
280
     0
102
RTVSPost2010PropOp28
 70
     1
102
RTVSPost2010Prop29
280
     1
102
RTVSPost2010PropOp29
 70
     1
102
RTVSPost2010Prop30
280
     1
102
RTVSPost2010PropOp30
 70
     1
102
RTVSPost2010Prop31
280
     0
102
RTVSPost2010PropOp31
 70
     1
102
RTVSPost2010Prop32
280
     0
102
RTVSPost2010PropOp32
 70
     1
102
RTVSPost2010Prop33
280
     0
102
RTVSPost2010PropOp33
 70
     1
102
RTVSPost2010Prop34
280
     0
102
RTVSPost2010PropOp34
 70
     1
102
RTVSPost2010Prop35
280
     0
102
RTVSPost2010PropOp35
 70
     1
102
RTVSPost2010Prop36
280
     0
102
RTVSPost2010PropOp36
 70
     1
102
RTVSPost2010Prop37
 90
       50
102
RTVSPost2010PropOp37
 70
     1
102
RTVSPost2010Prop38
140
0.0
102
RTVSPost2010PropOp38
 70
     1
102
RTVSPost2010Prop39
140
1.0
102
RTVSPost2010PropOp39
 70
     1
102
RTVSPost2010Prop40
 90
        0
102
RTVSPost2010PropOp40
 70
     1
102
RTVSPost2010Prop41ColorIndex
 90
       18
102
RTVSPost2010Prop41ColorRGB
 90
        0
102
RTVSPost2010PropOp41
 70
     1
102
RTVSPost2010Prop42
 90
       50
102
RTVSPost2010PropOp42
 70
     1
102
RTVSPost2010Prop43
 90
        3
102
RTVSPost2010PropOp43
 70
     1
102
RTVSPost2010Prop44ColorIndex
 90
        5
102
RTVSPost2010Prop44ColorRGB
 90
      255
102
RTVSPost2010PropOp44
 70
     1
102
RTVSPost2010Prop45
280
     0
102
RTVSPost2010PropOp45
 70
     1
102
RTVSPost2010Prop46
 90
       50
102
RTVSPost2010PropOp46
 70
     1
102
RTVSPost2010Prop47
 90
       50
102
RTVSPost2010PropOp47
 70
     1
102
RTVSPost2010Prop48
 90
       50
102
RTVSPost2010PropOp48
 70
     1
102
RTVSPost2010Prop49
280
     0
102
RTVSPost2010PropOp49
 70
     1
102
RTVSPost2010Prop50
 90
       50
102
RTVSPost2010PropOp50
 70
     1
102
RTVSPost2010Prop51ColorIndex
 90
      256
102
RTVSPost2010Prop51ColorRGB
 90
-16777216
102
RTVSPost2010PropOp51
 70
     0
102
RTVSPost2010Prop52
140
1.0
102
RTVSPost2010PropOp52
 70
     0
102
RTVSPost2010Prop53
 90
        2
102
RTVSPost2010PropOp53
 70
     1
102
RTVSPost2010Prop54
  1
strokes_ogs.tif
102
RTVSPost2010PropOp54
 70
     1
102
RTVSPost2010Prop55
280
     0
102
RTVSPost2010PropOp55
 70
     1
102
RTVSPost2010Prop56
140
1.0
102
RTVSPost2010PropOp56
 70
     1
102
RTVSPost2010Prop57
140
1.0
102
RTVSPost2010PropOp57
 70
     1
  0
XRECORD
  5
B20
102
{ACAD_REACTORS
330
B1F
102
}
330
B1F
100
AcDbXrecord
280
     1
102
RTVSPost2010Prop28
280
     0
102
RTVSPost2010PropOp28
 70
     1
102
RTVSPost2010Prop29
280
     1
102
RTVSPost2010PropOp29
 70
     1
102
RTVSPost2010Prop30
280
     1
102
RTVSPost2010PropOp30
 70
     1
102
RTVSPost2010Prop31
280
     0
102
RTVSPost2010PropOp31
 70
     1
102
RTVSPost2010Prop32
280
     0
102
RTVSPost2010PropOp32
 70
     1
102
RTVSPost2010Prop33
280
     0
102
RTVSPost2010PropOp33
 70
     1
102
RTVSPost2010Prop34
280
     0
102
RTVSPost2010PropOp34
 70
     1
102
RTVSPost2010Prop35
280
     0
102
RTVSPost2010PropOp35
 70
     1
102
RTVSPost2010Prop36
280
     0
102
RTVSPost2010PropOp36
 70
     1
102
RTVSPost2010Prop37
 90
       50
102
RTVSPost2010PropOp37
 70
     1
102
RTVSPost2010Prop38
140
0.0
102
RTVSPost2010PropOp38
 70
     1
102
RTVSPost2010Prop39
140
1.0
102
RTVSPost2010PropOp39
 70
     1
102
RTVSPost2010Prop40
 90
        0
102
RTVSPost2010PropOp40
 70
     1
102
RTVSPost2010Prop41ColorIndex
 90
       18
102
RTVSPost2010Prop41ColorRGB
 90
        0
102
RTVSPost2010PropOp41
 70
     1
102
RTVSPost2010Prop42
 90
       50
102
RTVSPost2010PropOp42
 70
     1
102
RTVSPost2010Prop43
 90
        3
102
RTVSPost2010PropOp43
 70
     1
102
RTVSPost2010Prop44ColorIndex
 90
        5
102
RTVSPost2010Prop44ColorRGB
 90
      255
102
RTVSPost2010PropOp44
 70
     1
102
RTVSPost2010Prop45
280
     0
102
RTVSPost2010PropOp45
 70
     1
102
RTVSPost2010Prop46
 90
       50
102
RTVSPost2010PropOp46
 70
     1
102
RTVSPost2010Prop47
 90
       50
102
RTVSPost2010PropOp47
 70
     1
102
RTVSPost2010Prop48
 90
       50
102
RTVSPost2010PropOp48
 70
     1
102
RTVSPost2010Prop49
280
     0
102
RTVSPost2010PropOp49
 70
     1
102
RTVSPost2010Prop50
 90
       50
102
RTVSPost2010PropOp50
 70
     1
102
RTVSPost2010Prop51ColorIndex
 90
      256
102
RTVSPost2010Prop51ColorRGB
 90
-16777216
102
RTVSPost2010PropOp51
 70
     0
102
RTVSPost2010Prop52
140
1.0
102
RTVSPost2010PropOp52
 70
     0
102
RTVSPost2010Prop53
 90
        2
102
RTVSPost2010PropOp53
 70
     1
102
RTVSPost2010Prop54
  1
strokes_ogs.tif
102
RTVSPost2010PropOp54
 70
     1
102
RTVSPost2010Prop55
280
     0
102
RTVSPost2010PropOp55
 70
     1
102
RTVSPost2010Prop56
140
1.0
102
RTVSPost2010PropOp56
 70
     1
102
RTVSPost2010Prop57
140
1.0
102
RTVSPost2010PropOp57
 70
     1
  0
XRECORD
  5
B28
102
{ACAD_REACTORS
330
B27
102
}
330
B27
100
AcDbXrecord
280
     1
102
RTVSPost2010Prop28
280
     0
102
RTVSPost2010PropOp28
 70
     1
102
RTVSPost2010Prop29
280
     1
102
RTVSPost2010PropOp29
 70
     1
102
RTVSPost2010Prop30
280
     1
102
RTVSPost2010PropOp30
 70
     1
102
RTVSPost2010Prop31
280
     0
102
RTVSPost2010PropOp31
 70
     1
102
RTVSPost2010Prop32
280
     0
102
RTVSPost2010PropOp32
 70
     1
102
RTVSPost2010Prop33
280
     0
102
RTVSPost2010PropOp33
 70
     1
102
RTVSPost2010Prop34
280
     0
102
RTVSPost2010PropOp34
 70
     1
102
RTVSPost2010Prop35
280
     0
102
RTVSPost2010PropOp35
 70
     1
102
RTVSPost2010Prop36
280
     0
102
RTVSPost2010PropOp36
 70
     1
102
RTVSPost2010Prop37
 90
       50
102
RTVSPost2010PropOp37
 70
     1
102
RTVSPost2010Prop38
140
0.0
102
RTVSPost2010PropOp38
 70
     1
102
RTVSPost2010Prop39
140
1.0
102
RTVSPost2010PropOp39
 70
     1
102
RTVSPost2010Prop40
 90
        0
102
RTVSPost2010PropOp40
 70
     1
102
RTVSPost2010Prop41ColorIndex
 90
       18
102
RTVSPost2010Prop41ColorRGB
 90
        0
102
RTVSPost2010PropOp41
 70
     1
102
RTVSPost2010Prop42
 90
       50
102
RTVSPost2010PropOp42
 70
     1
102
RTVSPost2010Prop43
 90
        3
102
RTVSPost2010PropOp43
 70
     1
102
RTVSPost2010Prop44ColorIndex
 90
        5
102
RTVSPost2010Prop44ColorRGB
 90
      255
102
RTVSPost2010PropOp44
 70
     1
102
RTVSPost2010Prop45
280
     0
102
RTVSPost2010PropOp45
 70
     1
102
RTVSPost2010Prop46
 90
       50
102
RTVSPost2010PropOp46
 70
     1
102
RTVSPost2010Prop47
 90
       50
102
RTVSPost2010PropOp47
 70
     1
102
RTVSPost2010Prop48
 90
       50
102
RTVSPost2010PropOp48
 70
     1
102
RTVSPost2010Prop49
280
     0
102
RTVSPost2010PropOp49
 70
     1
102
RTVSPost2010Prop50
 90
       50
102
RTVSPost2010PropOp50
 70
     1
102
RTVSPost2010Prop51ColorIndex
 90
      256
102
RTVSPost2010Prop51ColorRGB
 90
-16777216
102
RTVSPost2010PropOp51
 70
     0
102
RTVSPost2010Prop52
140
1.0
102
RTVSPost2010PropOp52
 70
     0
102
RTVSPost2010Prop53
 90
        2
102
RTVSPost2010PropOp53
 70
     1
102
RTVSPost2010Prop54
  1
strokes_ogs.tif
102
RTVSPost2010PropOp54
 70
     1
102
RTVSPost2010Prop55
280
     0
102
RTVSPost2010PropOp55
 70
     1
102
RTVSPost2010Prop56
140
1.0
102
RTVSPost2010PropOp56
 70
     1
102
RTVSPost2010Prop57
140
1.0
102
RTVSPost2010PropOp57
 70
     1
  0
XRECORD
  5
B18
102
{ACAD_REACTORS
330
B17
102
}
330
B17
100
AcDbXrecord
280
     1
102
RTVSPost2010Prop28
280
     0
102
RTVSPost2010PropOp28
 70
     1
102
RTVSPost2010Prop29
280
     1
102
RTVSPost2010PropOp29
 70
     1
102
RTVSPost2010Prop30
280
     1
102
RTVSPost2010PropOp30
 70
     1
102
RTVSPost2010Prop31
280
     0
102
RTVSPost2010PropOp31
 70
     1
102
RTVSPost2010Prop32
280
     0
102
RTVSPost2010PropOp32
 70
     1
102
RTVSPost2010Prop33
280
     0
102
RTVSPost2010PropOp33
 70
     1
102
RTVSPost2010Prop34
280
     0
102
RTVSPost2010PropOp34
 70
     1
102
RTVSPost2010Prop35
280
     0
102
RTVSPost2010PropOp35
 70
     1
102
RTVSPost2010Prop36
280
     0
102
RTVSPost2010PropOp36
 70
     1
102
RTVSPost2010Prop37
 90
       50
102
RTVSPost2010PropOp37
 70
     1
102
RTVSPost2010Prop38
140
0.0
102
RTVSPost2010PropOp38
 70
     1
102
RTVSPost2010Prop39
140
1.0
102
RTVSPost2010PropOp39
 70
     1
102
RTVSPost2010Prop40
 90
        0
102
RTVSPost2010PropOp40
 70
     1
102
RTVSPost2010Prop41ColorIndex
 90
       18
102
RTVSPost2010Prop41ColorRGB
 90
        0
102
RTVSPost2010PropOp41
 70
     1
102
RTVSPost2010Prop42
 90
       50
102
RTVSPost2010PropOp42
 70
     1
102
RTVSPost2010Prop43
 90
        3
102
RTVSPost2010PropOp43
 70
     1
102
RTVSPost2010Prop44ColorIndex
 90
        5
102
RTVSPost2010Prop44ColorRGB
 90
      255
102
RTVSPost2010PropOp44
 70
     1
102
RTVSPost2010Prop45
280
     0
102
RTVSPost2010PropOp45
 70
     1
102
RTVSPost2010Prop46
 90
       50
102
RTVSPost2010PropOp46
 70
     1
102
RTVSPost2010Prop47
 90
       50
102
RTVSPost2010PropOp47
 70
     1
102
RTVSPost2010Prop48
 90
       50
102
RTVSPost2010PropOp48
 70
     1
102
RTVSPost2010Prop49
280
     0
102
RTVSPost2010PropOp49
 70
     1
102
RTVSPost2010Prop50
 90
       50
102
RTVSPost2010PropOp50
 70
     1
102
RTVSPost2010Prop51ColorIndex
 90
      256
102
RTVSPost2010Prop51ColorRGB
 90
-16777216
102
RTVSPost2010PropOp51
 70
     0
102
RTVSPost2010Prop52
140
1.0
102
RTVSPost2010PropOp52
 70
     0
102
RTVSPost2010Prop53
 90
        2
102
RTVSPost2010PropOp53
 70
     1
102
RTVSPost2010Prop54
  1
strokes_ogs.tif
102
RTVSPost2010PropOp54
 70
     1
102
RTVSPost2010Prop55
280
     0
102
RTVSPost2010PropOp55
 70
     1
102
RTVSPost2010Prop56
140
1.0
102
RTVSPost2010PropOp56
 70
     1
102
RTVSPost2010Prop57
140
1.0
102
RTVSPost2010PropOp57
 70
     1
  0
XRECORD
  5
B38
102
{ACAD_REACTORS
330
B37
102
}
330
B37
100
AcDbXrecord
280
     1
102
RTVSPost2010Prop28
280
     0
102
RTVSPost2010PropOp28
 70
     1
102
RTVSPost2010Prop29
280
     1
102
RTVSPost2010PropOp29
 70
     1
102
RTVSPost2010Prop30
280
     1
102
RTVSPost2010PropOp30
 70
     1
102
RTVSPost2010Prop31
280
     0
102
RTVSPost2010PropOp31
 70
     1
102
RTVSPost2010Prop32
280
     0
102
RTVSPost2010PropOp32
 70
     1
102
RTVSPost2010Prop33
280
     0
102
RTVSPost2010PropOp33
 70
     1
102
RTVSPost2010Prop34
280
     0
102
RTVSPost2010PropOp34
 70
     1
102
RTVSPost2010Prop35
280
     0
102
RTVSPost2010PropOp35
 70
     1
102
RTVSPost2010Prop36
280
     0
102
RTVSPost2010PropOp36
 70
     1
102
RTVSPost2010Prop37
 90
       50
102
RTVSPost2010PropOp37
 70
     1
102
RTVSPost2010Prop38
140
0.0
102
RTVSPost2010PropOp38
 70
     1
102
RTVSPost2010Prop39
140
1.0
102
RTVSPost2010PropOp39
 70
     1
102
RTVSPost2010Prop40
 90
        0
102
RTVSPost2010PropOp40
 70
     1
102
RTVSPost2010Prop41ColorIndex
 90
       18
102
RTVSPost2010Prop41ColorRGB
 90
        0
102
RTVSPost2010PropOp41
 70
     1
102
RTVSPost2010Prop42
 90
       50
102
RTVSPost2010PropOp42
 70
     1
102
RTVSPost2010Prop43
 90
        3
102
RTVSPost2010PropOp43
 70
     1
102
RTVSPost2010Prop44ColorIndex
 90
        5
102
RTVSPost2010Prop44ColorRGB
 90
      255
102
RTVSPost2010PropOp44
 70
     1
102
RTVSPost2010Prop45
280
     0
102
RTVSPost2010PropOp45
 70
     1
102
RTVSPost2010Prop46
 90
       50
102
RTVSPost2010PropOp46
 70
     1
102
RTVSPost2010Prop47
 90
       50
102
RTVSPost2010PropOp47
 70
     1
102
RTVSPost2010Prop48
 90
       50
102
RTVSPost2010PropOp48
 70
     1
102
RTVSPost2010Prop49
280
     0
102
RTVSPost2010PropOp49
 70
     1
102
RTVSPost2010Prop50
 90
       50
102
RTVSPost2010PropOp50
 70
     1
102
RTVSPost2010Prop51ColorIndex
 90
      256
102
RTVSPost2010Prop51ColorRGB
 90
-16777216
102
RTVSPost2010PropOp51
 70
     0
102
RTVSPost2010Prop52
140
1.0
102
RTVSPost2010PropOp52
 70
     0
102
RTVSPost2010Prop53
 90
        2
102
RTVSPost2010PropOp53
 70
     1
102
RTVSPost2010Prop54
  1
strokes_ogs.tif
102
RTVSPost2010PropOp54
 70
     1
102
RTVSPost2010Prop55
280
     0
102
RTVSPost2010PropOp55
 70
     1
102
RTVSPost2010Prop56
140
1.0
102
RTVSPost2010PropOp56
 70
     1
102
RTVSPost2010Prop57
140
1.0
102
RTVSPost2010PropOp57
 70
     1
  0
XRECORD
  5
B36
102
{ACAD_REACTORS
330
B35
102
}
330
B35
100
AcDbXrecord
280
     1
102
RTVSPost2010Prop28
280
     0
102
RTVSPost2010PropOp28
 70
     1
102
RTVSPost2010Prop29
280
     1
102
RTVSPost2010PropOp29
 70
     1
102
RTVSPost2010Prop30
280
     1
102
RTVSPost2010PropOp30
 70
     1
102
RTVSPost2010Prop31
280
     0
102
RTVSPost2010PropOp31
 70
     1
102
RTVSPost2010Prop32
280
     0
102
RTVSPost2010PropOp32
 70
     1
102
RTVSPost2010Prop33
280
     0
102
RTVSPost2010PropOp33
 70
     1
102
RTVSPost2010Prop34
280
     0
102
RTVSPost2010PropOp34
 70
     1
102
RTVSPost2010Prop35
280
     0
102
RTVSPost2010PropOp35
 70
     1
102
RTVSPost2010Prop36
280
     0
102
RTVSPost2010PropOp36
 70
     1
102
RTVSPost2010Prop37
 90
       50
102
RTVSPost2010PropOp37
 70
     1
102
RTVSPost2010Prop38
140
0.0
102
RTVSPost2010PropOp38
 70
     1
102
RTVSPost2010Prop39
140
1.0
102
RTVSPost2010PropOp39
 70
     1
102
RTVSPost2010Prop40
 90
        0
102
RTVSPost2010PropOp40
 70
     1
102
RTVSPost2010Prop41ColorIndex
 90
       18
102
RTVSPost2010Prop41ColorRGB
 90
        0
102
RTVSPost2010PropOp41
 70
     1
102
RTVSPost2010Prop42
 90
       50
102
RTVSPost2010PropOp42
 70
     1
102
RTVSPost2010Prop43
 90
        3
102
RTVSPost2010PropOp43
 70
     1
102
RTVSPost2010Prop44ColorIndex
 90
        5
102
RTVSPost2010Prop44ColorRGB
 90
      255
102
RTVSPost2010PropOp44
 70
     1
102
RTVSPost2010Prop45
280
     0
102
RTVSPost2010PropOp45
 70
     1
102
RTVSPost2010Prop46
 90
       50
102
RTVSPost2010PropOp46
 70
     1
102
RTVSPost2010Prop47
 90
       50
102
RTVSPost2010PropOp47
 70
     1
102
RTVSPost2010Prop48
 90
       50
102
RTVSPost2010PropOp48
 70
     1
102
RTVSPost2010Prop49
280
     0
102
RTVSPost2010PropOp49
 70
     1
102
RTVSPost2010Prop50
 90
       50
102
RTVSPost2010PropOp50
 70
     1
102
RTVSPost2010Prop51ColorIndex
 90
      256
102
RTVSPost2010Prop51ColorRGB
 90
-16777216
102
RTVSPost2010PropOp51
 70
     0
102
RTVSPost2010Prop52
140
1.0
102
RTVSPost2010PropOp52
 70
     0
102
RTVSPost2010Prop53
 90
        2
102
RTVSPost2010PropOp53
 70
     1
102
RTVSPost2010Prop54
  1
strokes_ogs.tif
102
RTVSPost2010PropOp54
 70
     1
102
RTVSPost2010Prop55
280
     0
102
RTVSPost2010PropOp55
 70
     1
102
RTVSPost2010Prop56
140
1.0
102
RTVSPost2010PropOp56
 70
     1
102
RTVSPost2010Prop57
140
1.0
102
RTVSPost2010PropOp57
 70
     1
  0
XRECORD
  5
B30
102
{ACAD_REACTORS
330
B2F
102
}
330
B2F
100
AcDbXrecord
280
     1
102
RTVSPost2010Prop28
280
     0
102
RTVSPost2010PropOp28
 70
     1
102
RTVSPost2010Prop29
280
     1
102
RTVSPost2010PropOp29
 70
     1
102
RTVSPost2010Prop30
280
     1
102
RTVSPost2010PropOp30
 70
     1
102
RTVSPost2010Prop31
280
     0
102
RTVSPost2010PropOp31
 70
     1
102
RTVSPost2010Prop32
280
     0
102
RTVSPost2010PropOp32
 70
     1
102
RTVSPost2010Prop33
280
     0
102
RTVSPost2010PropOp33
 70
     1
102
RTVSPost2010Prop34
280
     0
102
RTVSPost2010PropOp34
 70
     1
102
RTVSPost2010Prop35
280
     0
102
RTVSPost2010PropOp35
 70
     1
102
RTVSPost2010Prop36
280
     0
102
RTVSPost2010PropOp36
 70
     1
102
RTVSPost2010Prop37
 90
       50
102
RTVSPost2010PropOp37
 70
     1
102
RTVSPost2010Prop38
140
0.0
102
RTVSPost2010PropOp38
 70
     1
102
RTVSPost2010Prop39
140
1.0
102
RTVSPost2010PropOp39
 70
     1
102
RTVSPost2010Prop40
 90
        0
102
RTVSPost2010PropOp40
 70
     1
102
RTVSPost2010Prop41ColorIndex
 90
       18
102
RTVSPost2010Prop41ColorRGB
 90
        0
102
RTVSPost2010PropOp41
 70
     1
102
RTVSPost2010Prop42
 90
       50
102
RTVSPost2010PropOp42
 70
     1
102
RTVSPost2010Prop43
 90
        3
102
RTVSPost2010PropOp43
 70
     1
102
RTVSPost2010Prop44ColorIndex
 90
        5
102
RTVSPost2010Prop44ColorRGB
 90
      255
102
RTVSPost2010PropOp44
 70
     1
102
RTVSPost2010Prop45
280
     0
102
RTVSPost2010PropOp45
 70
     1
102
RTVSPost2010Prop46
 90
       50
102
RTVSPost2010PropOp46
 70
     1
102
RTVSPost2010Prop47
 90
       50
102
RTVSPost2010PropOp47
 70
     1
102
RTVSPost2010Prop48
 90
       50
102
RTVSPost2010PropOp48
 70
     1
102
RTVSPost2010Prop49
280
     0
102
RTVSPost2010PropOp49
 70
     1
102
RTVSPost2010Prop50
 90
       50
102
RTVSPost2010PropOp50
 70
     1
102
RTVSPost2010Prop51ColorIndex
 90
      256
102
RTVSPost2010Prop51ColorRGB
 90
-16777216
102
RTVSPost2010PropOp51
 70
     0
102
RTVSPost2010Prop52
140
1.0
102
RTVSPost2010PropOp52
 70
     0
102
RTVSPost2010Prop53
 90
        2
102
RTVSPost2010PropOp53
 70
     1
102
RTVSPost2010Prop54
  1
strokes_ogs.tif
102
RTVSPost2010PropOp54
 70
     1
102
RTVSPost2010Prop55
280
     0
102
RTVSPost2010PropOp55
 70
     1
102
RTVSPost2010Prop56
140
1.0
102
RTVSPost2010PropOp56
 70
     1
102
RTVSPost2010Prop57
140
1.0
102
RTVSPost2010PropOp57
 70
     1
  0
XRECORD
  5
B32
102
{ACAD_REACTORS
330
B31
102
}
330
B31
100
AcDbXrecord
280
     1
102
RTVSPost2010Prop28
280
     0
102
RTVSPost2010PropOp28
 70
     1
102
RTVSPost2010Prop29
280
     1
102
RTVSPost2010PropOp29
 70
     1
102
RTVSPost2010Prop30
280
     1
102
RTVSPost2010PropOp30
 70
     1
102
RTVSPost2010Prop31
280
     0
102
RTVSPost2010PropOp31
 70
     1
102
RTVSPost2010Prop32
280
     0
102
RTVSPost2010PropOp32
 70
     1
102
RTVSPost2010Prop33
280
     0
102
RTVSPost2010PropOp33
 70
     1
102
RTVSPost2010Prop34
280
     0
102
RTVSPost2010PropOp34
 70
     1
102
RTVSPost2010Prop35
280
     0
102
RTVSPost2010PropOp35
 70
     1
102
RTVSPost2010Prop36
280
     0
102
RTVSPost2010PropOp36
 70
     1
102
RTVSPost2010Prop37
 90
       50
102
RTVSPost2010PropOp37
 70
     1
102
RTVSPost2010Prop38
140
0.0
102
RTVSPost2010PropOp38
 70
     1
102
RTVSPost2010Prop39
140
1.0
102
RTVSPost2010PropOp39
 70
     1
102
RTVSPost2010Prop40
 90
        0
102
RTVSPost2010PropOp40
 70
     1
102
RTVSPost2010Prop41ColorIndex
 90
       18
102
RTVSPost2010Prop41ColorRGB
 90
        0
102
RTVSPost2010PropOp41
 70
     1
102
RTVSPost2010Prop42
 90
       50
102
RTVSPost2010PropOp42
 70
     1
102
RTVSPost2010Prop43
 90
        3
102
RTVSPost2010PropOp43
 70
     1
102
RTVSPost2010Prop44ColorIndex
 90
        5
102
RTVSPost2010Prop44ColorRGB
 90
      255
102
RTVSPost2010PropOp44
 70
     1
102
RTVSPost2010Prop45
280
     0
102
RTVSPost2010PropOp45
 70
     1
102
RTVSPost2010Prop46
 90
       50
102
RTVSPost2010PropOp46
 70
     1
102
RTVSPost2010Prop47
 90
       50
102
RTVSPost2010PropOp47
 70
     1
102
RTVSPost2010Prop48
 90
       50
102
RTVSPost2010PropOp48
 70
     1
102
RTVSPost2010Prop49
280
     0
102
RTVSPost2010PropOp49
 70
     1
102
RTVSPost2010Prop50
 90
       50
102
RTVSPost2010PropOp50
 70
     1
102
RTVSPost2010Prop51ColorIndex
 90
      256
102
RTVSPost2010Prop51ColorRGB
 90
-16777216
102
RTVSPost2010PropOp51
 70
     0
102
RTVSPost2010Prop52
140
1.0
102
RTVSPost2010PropOp52
 70
     0
102
RTVSPost2010Prop53
 90
        2
102
RTVSPost2010PropOp53
 70
     1
102
RTVSPost2010Prop54
  1
strokes_ogs.tif
102
RTVSPost2010PropOp54
 70
     1
102
RTVSPost2010Prop55
280
     0
102
RTVSPost2010PropOp55
 70
     1
102
RTVSPost2010Prop56
140
1.0
102
RTVSPost2010PropOp56
 70
     1
102
RTVSPost2010Prop57
140
1.0
102
RTVSPost2010PropOp57
 70
     1
  0
XRECORD
  5
B1E
102
{ACAD_REACTORS
330
B1D
102
}
330
B1D
100
AcDbXrecord
280
     1
102
RTVSPost2010Prop28
280
     0
102
RTVSPost2010PropOp28
 70
     1
102
RTVSPost2010Prop29
280
     1
102
RTVSPost2010PropOp29
 70
     1
102
RTVSPost2010Prop30
280
     1
102
RTVSPost2010PropOp30
 70
     1
102
RTVSPost2010Prop31
280
     0
102
RTVSPost2010PropOp31
 70
     1
102
RTVSPost2010Prop32
280
     0
102
RTVSPost2010PropOp32
 70
     1
102
RTVSPost2010Prop33
280
     0
102
RTVSPost2010PropOp33
 70
     1
102
RTVSPost2010Prop34
280
     0
102
RTVSPost2010PropOp34
 70
     1
102
RTVSPost2010Prop35
280
     0
102
RTVSPost2010PropOp35
 70
     1
102
RTVSPost2010Prop36
280
     0
102
RTVSPost2010PropOp36
 70
     1
102
RTVSPost2010Prop37
 90
       50
102
RTVSPost2010PropOp37
 70
     1
102
RTVSPost2010Prop38
140
0.0
102
RTVSPost2010PropOp38
 70
     1
102
RTVSPost2010Prop39
140
1.0
102
RTVSPost2010PropOp39
 70
     1
102
RTVSPost2010Prop40
 90
        0
102
RTVSPost2010PropOp40
 70
     1
102
RTVSPost2010Prop41ColorIndex
 90
       18
102
RTVSPost2010Prop41ColorRGB
 90
        0
102
RTVSPost2010PropOp41
 70
     1
102
RTVSPost2010Prop42
 90
       50
102
RTVSPost2010PropOp42
 70
     1
102
RTVSPost2010Prop43
 90
        3
102
RTVSPost2010PropOp43
 70
     1
102
RTVSPost2010Prop44ColorIndex
 90
        5
102
RTVSPost2010Prop44ColorRGB
 90
      255
102
RTVSPost2010PropOp44
 70
     1
102
RTVSPost2010Prop45
280
     0
102
RTVSPost2010PropOp45
 70
     1
102
RTVSPost2010Prop46
 90
       50
102
RTVSPost2010PropOp46
 70
     1
102
RTVSPost2010Prop47
 90
       50
102
RTVSPost2010PropOp47
 70
     1
102
RTVSPost2010Prop48
 90
       50
102
RTVSPost2010PropOp48
 70
     1
102
RTVSPost2010Prop49
280
     0
102
RTVSPost2010PropOp49
 70
     1
102
RTVSPost2010Prop50
 90
       50
102
RTVSPost2010PropOp50
 70
     1
102
RTVSPost2010Prop51ColorIndex
 90
      256
102
RTVSPost2010Prop51ColorRGB
 90
-16777216
102
RTVSPost2010PropOp51
 70
     0
102
RTVSPost2010Prop52
140
1.0
102
RTVSPost2010PropOp52
 70
     0
102
RTVSPost2010Prop53
 90
        2
102
RTVSPost2010PropOp53
 70
     1
102
RTVSPost2010Prop54
  1
strokes_ogs.tif
102
RTVSPost2010PropOp54
 70
     1
102
RTVSPost2010Prop55
280
     0
102
RTVSPost2010PropOp55
 70
     1
102
RTVSPost2010Prop56
140
1.0
102
RTVSPost2010PropOp56
 70
     1
102
RTVSPost2010Prop57
140
1.0
102
RTVSPost2010PropOp57
 70
     1
  0
XRECORD
  5
B2C
102
{ACAD_REACTORS
330
B2B
102
}
330
B2B
100
AcDbXrecord
280
     1
102
RTVSPost2010Prop28
280
     0
102
RTVSPost2010PropOp28
 70
     1
102
RTVSPost2010Prop29
280
     1
102
RTVSPost2010PropOp29
 70
     1
102
RTVSPost2010Prop30
280
     1
102
RTVSPost2010PropOp30
 70
     1
102
RTVSPost2010Prop31
280
     0
102
RTVSPost2010PropOp31
 70
     1
102
RTVSPost2010Prop32
280
     0
102
RTVSPost2010PropOp32
 70
     1
102
RTVSPost2010Prop33
280
     0
102
RTVSPost2010PropOp33
 70
     1
102
RTVSPost2010Prop34
280
     0
102
RTVSPost2010PropOp34
 70
     1
102
RTVSPost2010Prop35
280
     0
102
RTVSPost2010PropOp35
 70
     1
102
RTVSPost2010Prop36
280
     0
102
RTVSPost2010PropOp36
 70
     1
102
RTVSPost2010Prop37
 90
       50
102
RTVSPost2010PropOp37
 70
     1
102
RTVSPost2010Prop38
140
0.0
102
RTVSPost2010PropOp38
 70
     1
102
RTVSPost2010Prop39
140
1.0
102
RTVSPost2010PropOp39
 70
     1
102
RTVSPost2010Prop40
 90
        0
102
RTVSPost2010PropOp40
 70
     1
102
RTVSPost2010Prop41ColorIndex
 90
       18
102
RTVSPost2010Prop41ColorRGB
 90
        0
102
RTVSPost2010PropOp41
 70
     1
102
RTVSPost2010Prop42
 90
       50
102
RTVSPost2010PropOp42
 70
     1
102
RTVSPost2010Prop43
 90
        3
102
RTVSPost2010PropOp43
 70
     1
102
RTVSPost2010Prop44ColorIndex
 90
        5
102
RTVSPost2010Prop44ColorRGB
 90
      255
102
RTVSPost2010PropOp44
 70
     1
102
RTVSPost2010Prop45
280
     0
102
RTVSPost2010PropOp45
 70
     1
102
RTVSPost2010Prop46
 90
       50
102
RTVSPost2010PropOp46
 70
     1
102
RTVSPost2010Prop47
 90
       50
102
RTVSPost2010PropOp47
 70
     1
102
RTVSPost2010Prop48
 90
       50
102
RTVSPost2010PropOp48
 70
     1
102
RTVSPost2010Prop49
280
     0
102
RTVSPost2010PropOp49
 70
     1
102
RTVSPost2010Prop50
 90
       50
102
RTVSPost2010PropOp50
 70
     1
102
RTVSPost2010Prop51ColorIndex
 90
      256
102
RTVSPost2010Prop51ColorRGB
 90
-16777216
102
RTVSPost2010PropOp51
 70
     0
102
RTVSPost2010Prop52
140
1.0
102
RTVSPost2010PropOp52
 70
     0
102
RTVSPost2010Prop53
 90
        2
102
RTVSPost2010PropOp53
 70
     1
102
RTVSPost2010Prop54
  1
strokes_ogs.tif
102
RTVSPost2010PropOp54
 70
     1
102
RTVSPost2010Prop55
280
     0
102
RTVSPost2010PropOp55
 70
     1
102
RTVSPost2010Prop56
140
1.0
102
RTVSPost2010PropOp56
 70
     1
102
RTVSPost2010Prop57
140
1.0
102
RTVSPost2010PropOp57
 70
     1
  0
XRECORD
  5
B34
102
{ACAD_REACTORS
330
B33
102
}
330
B33
100
AcDbXrecord
280
     1
102
RTVSPost2010Prop28
280
     0
102
RTVSPost2010PropOp28
 70
     1
102
RTVSPost2010Prop29
280
     1
102
RTVSPost2010PropOp29
 70
     1
102
RTVSPost2010Prop30
280
     1
102
RTVSPost2010PropOp30
 70
     1
102
RTVSPost2010Prop31
280
     0
102
RTVSPost2010PropOp31
 70
     1
102
RTVSPost2010Prop32
280
     0
102
RTVSPost2010PropOp32
 70
     1
102
RTVSPost2010Prop33
280
     0
102
RTVSPost2010PropOp33
 70
     1
102
RTVSPost2010Prop34
280
     0
102
RTVSPost2010PropOp34
 70
     1
102
RTVSPost2010Prop35
280
     0
102
RTVSPost2010PropOp35
 70
     1
102
RTVSPost2010Prop36
280
     0
102
RTVSPost2010PropOp36
 70
     1
102
RTVSPost2010Prop37
 90
       50
102
RTVSPost2010PropOp37
 70
     1
102
RTVSPost2010Prop38
140
0.0
102
RTVSPost2010PropOp38
 70
     1
102
RTVSPost2010Prop39
140
1.0
102
RTVSPost2010PropOp39
 70
     1
102
RTVSPost2010Prop40
 90
        0
102
RTVSPost2010PropOp40
 70
     1
102
RTVSPost2010Prop41ColorIndex
 90
       18
102
RTVSPost2010Prop41ColorRGB
 90
        0
102
RTVSPost2010PropOp41
 70
     1
102
RTVSPost2010Prop42
 90
       50
102
RTVSPost2010PropOp42
 70
     1
102
RTVSPost2010Prop43
 90
        3
102
RTVSPost2010PropOp43
 70
     1
102
RTVSPost2010Prop44ColorIndex
 90
        5
102
RTVSPost2010Prop44ColorRGB
 90
      255
102
RTVSPost2010PropOp44
 70
     1
102
RTVSPost2010Prop45
280
     0
102
RTVSPost2010PropOp45
 70
     1
102
RTVSPost2010Prop46
 90
       50
102
RTVSPost2010PropOp46
 70
     1
102
RTVSPost2010Prop47
 90
       50
102
RTVSPost2010PropOp47
 70
     1
102
RTVSPost2010Prop48
 90
       50
102
RTVSPost2010PropOp48
 70
     1
102
RTVSPost2010Prop49
280
     0
102
RTVSPost2010PropOp49
 70
     1
102
RTVSPost2010Prop50
 90
       50
102
RTVSPost2010PropOp50
 70
     1
102
RTVSPost2010Prop51ColorIndex
 90
      256
102
RTVSPost2010Prop51ColorRGB
 90
-16777216
102
RTVSPost2010PropOp51
 70
     0
102
RTVSPost2010Prop52
140
1.0
102
RTVSPost2010PropOp52
 70
     0
102
RTVSPost2010Prop53
 90
        2
102
RTVSPost2010PropOp53
 70
     1
102
RTVSPost2010Prop54
  1
strokes_ogs.tif
102
RTVSPost2010PropOp54
 70
     1
102
RTVSPost2010Prop55
280
     0
102
RTVSPost2010PropOp55
 70
     1
102
RTVSPost2010Prop56
140
1.0
102
RTVSPost2010PropOp56
 70
     1
102
RTVSPost2010Prop57
140
1.0
102
RTVSPost2010PropOp57
 70
     1
  0
FIELD
  5
6C6
102
{ACAD_REACTORS
330
6C5
102
}
330
6C5
100
AcDbField
  1
_text
  2
%<\_FldIdx 0>%-%<\_FldIdx 1>%
 90
        2
360
6C7
360
6C8
 97
        0
 91
       63
 92
        0
 94
        9
 95
        2
 96
        0
300

 93
        0
  7
ACFD_FIELD_VALUE
 93
        3
 90
        0
 94
        0
300

302

304
ACVALUE_END
301

 98
        0
  0
FIELD
  5
6C7
330
6C6
100
AcDbField
  1
AcVar
  2
\AcVar ViewSectionStartId
 90
        0
 97
        0
 91
       63
 92
        0
 94
       43
 95
        2
 96
        0
300

 93
        1
  6
Variable
 93
        2
 90
        4
  1
ViewSectionStartId
 94
        0
300

302

304
ACVALUE_END
  7
ACFD_FIELD_VALUE
 93
        1
 90
        0
 94
        0
300

302

304
ACVALUE_END
301
----
 98
        4
  0
FIELD
  5
6C8
330
6C6
100
AcDbField
  1
AcVar
  2
\AcVar ViewSectionEndId
 90
        0
 97
        0
 91
       63
 92
        0
 94
       43
 95
        2
 96
        0
300

 93
        1
  6
Variable
 93
        2
 90
        4
  1
ViewSectionEndId
 94
        0
300

302

304
ACVALUE_END
  7
ACFD_FIELD_VALUE
 93
        1
 90
        0
 94
        0
300

302

304
ACVALUE_END
301
----
 98
        4
  0
ENDSEC
  0
EOF
