  0
SECTION
  2
HEADER
  9
$ACADVER
  1
AC1015
  9
$ACADMAINTVER
 70
    20
  9
$DWGCODEPAGE
  3
ANSI_1252
  9
$INSBASE
 10
0.0
 20
0.0
 30
0.0
  9
$EXTMIN
 10
498.817912655144
 20
848.643359
 30
0.0
  9
$EXTMAX
 10
1274.210761
 20
2078.203933
 30
0.0
  9
$LIMMIN
 10
0.0
 20
0.0
  9
$LIMMAX
 10
2100.0
 20
1485.0
  9
$ORTHOMODE
 70
     1
  9
$REGENMODE
 70
     1
  9
$FILLMODE
 70
     1
  9
$QTEXTMODE
 70
     0
  9
$MIRRTEXT
 70
     1
  9
$LTSCALE
 40
5.0
  9
$ATTMODE
 70
     1
  9
$TEXTSIZE
 40
17.5
  9
$TRACEWID
 40
1.0
  9
$TEXTSTYLE
  7
STANDARD
  9
$CLAYER
  8
0
  9
$CELTYPE
  6
BYLAYER
  9
$CECOLOR
 62
   256
  9
$CELTSCALE
 40
1.0
  9
$DISPSILH
 70
     0
  9
$DIMSCALE
 40
5.0
  9
$DIMASZ
 40
2.5
  9
$DIMEXO
 40
1.0
  9
$DIMDLI
 40
7.0
  9
$DIMRND
 40
0.0
  9
$DIMDLE
 40
0.0
  9
$DIMEXE
 40
1.0
  9
$DIMTP
 40
0.1
  9
$DIMTM
 40
0.1
  9
$DIMTXT
 40
3.5
  9
$DIMCEN
 40
0.0
  9
$DIMTSZ
 40
0.0
  9
$DIMTOL
 70
     0
  9
$DIMLIM
 70
     0
  9
$DIMTIH
 70
     0
  9
$DIMTOH
 70
     0
  9
$DIMSE1
 70
     0
  9
$DIMSE2
 70
     0
  9
$DIMTAD
 70
     1
  9
$DIMZIN
 70
     8
  9
$DIMBLK
  1

  9
$DIMASO
 70
     1
  9
$DIMSHO
 70
     1
  9
$DIMPOST
  1
<>
  9
$DIMAPOST
  1

  9
$DIMALT
 70
     0
  9
$DIMALTD
 70
     2
  9
$DIMALTF
 40
0.03937
  9
$DIMLFAC
 40
1.0
  9
$DIMTOFL
 70
     1
  9
$DIMTVP
 40
0.0
  9
$DIMTIX
 70
     0
  9
$DIMSOXD
 70
     0
  9
$DIMSAH
 70
     0
  9
$DIMBLK1
  1

  9
$DIMBLK2
  1

  9
$DIMSTYLE
  2
GEN-ISO
  9
$DIMCLRD
 70
   256
  9
$DIMCLRE
 70
   256
  9
$DIMCLRT
 70
     2
  9
$DIMTFAC
 40
0.71
  9
$DIMGAP
 40
0.6
  9
$DIMJUST
 70
     0
  9
$DIMSD1
 70
     0
  9
$DIMSD2
 70
     0
  9
$DIMTOLJ
 70
     1
  9
$DIMTZIN
 70
     8
  9
$DIMALTZ
 70
     8
  9
$DIMALTTZ
 70
     8
  9
$DIMUPT
 70
     0
  9
$DIMDEC
 70
     2
  9
$DIMTDEC
 70
     2
  9
$DIMALTU
 70
     2
  9
$DIMALTTD
 70
     2
  9
$DIMTXSTY
  7
STANDARD
  9
$DIMAUNIT
 70
     0
  9
$DIMADEC
 70
     0
  9
$DIMALTRND
 40
0.0
  9
$DIMAZIN
 70
     0
  9
$DIMDSEP
 70
    46
  9
$DIMATFIT
 70
     3
  9
$DIMFRAC
 70
     0
  9
$DIMLDRBLK
  1

  9
$DIMLUNIT
 70
     2
  9
$DIMLWD
 70
    -2
  9
$DIMLWE
 70
    -2
  9
$DIMTMOVE
 70
     0
  9
$LUNITS
 70
     2
  9
$LUPREC
 70
     2
  9
$SKETCHINC
 40
0.1
  9
$FILLETRAD
 40
5.0
  9
$AUNITS
 70
     0
  9
$AUPREC
 70
     0
  9
$MENU
  1
.
  9
$ELEVATION
 40
0.0
  9
$PELEVATION
 40
0.0
  9
$THICKNESS
 40
0.0
  9
$LIMCHECK
 70
     0
  9
$CHAMFERA
 40
12.5
  9
$CHAMFERB
 40
12.5
  9
$CHAMFERC
 40
0.0
  9
$CHAMFERD
 40
0.0
  9
$SKPOLY
 70
     0
  9
$TDCREATE
 40
2450368.394609815
  9
$TDUCREATE
 40
2450368.352943148
  9
$TDUPDATE
 40
2454089.791898379
  9
$TDUUPDATE
 40
2454089.750231713
  9
$TDINDWG
 40
0.5998552778
  9
$TDUSRTIMER
 40
0.5998552778
  9
$USRTIMER
 70
     1
  9
$ANGBASE
 50
0.0
  9
$ANGDIR
 70
     0
  9
$PDMODE
 70
     0
  9
$PDSIZE
 40
0.0
  9
$PLINEWID
 40
5.0
  9
$SPLFRAME
 70
     0
  9
$SPLINETYPE
 70
     6
  9
$SPLINESEGS
 70
     8
  9
$HANDSEED
  5
528C
  9
$SURFTAB1
 70
     6
  9
$SURFTAB2
 70
     6
  9
$SURFTYPE
 70
     6
  9
$SURFU
 70
     6
  9
$SURFV
 70
     6
  9
$UCSBASE
  2

  9
$UCSNAME
  2

  9
$UCSORG
 10
0.0
 20
0.0
 30
0.0
  9
$UCSXDIR
 10
1.0
 20
0.0
 30
0.0
  9
$UCSYDIR
 10
0.0
 20
1.0
 30
0.0
  9
$UCSORTHOREF
  2

  9
$UCSORTHOVIEW
 70
     0
  9
$UCSORGTOP
 10
0.0
 20
0.0
 30
0.0
  9
$UCSORGBOTTOM
 10
0.0
 20
0.0
 30
0.0
  9
$UCSORGLEFT
 10
0.0
 20
0.0
 30
0.0
  9
$UCSORGRIGHT
 10
0.0
 20
0.0
 30
0.0
  9
$UCSORGFRONT
 10
0.0
 20
0.0
 30
0.0
  9
$UCSORGBACK
 10
0.0
 20
0.0
 30
0.0
  9
$PUCSBASE
  2

  9
$PUCSNAME
  2

  9
$PUCSORG
 10
0.0
 20
0.0
 30
0.0
  9
$PUCSXDIR
 10
1.0
 20
0.0
 30
0.0
  9
$PUCSYDIR
 10
0.0
 20
1.0
 30
0.0
  9
$PUCSORTHOREF
  2

  9
$PUCSORTHOVIEW
 70
     0
  9
$PUCSORGTOP
 10
0.0
 20
0.0
 30
0.0
  9
$PUCSORGBOTTOM
 10
0.0
 20
0.0
 30
0.0
  9
$PUCSORGLEFT
 10
0.0
 20
0.0
 30
0.0
  9
$PUCSORGRIGHT
 10
0.0
 20
0.0
 30
0.0
  9
$PUCSORGFRONT
 10
0.0
 20
0.0
 30
0.0
  9
$PUCSORGBACK
 10
0.0
 20
0.0
 30
0.0
  9
$USERI1
 70
     0
  9
$USERI2
 70
     0
  9
$USERI3
 70
     0
  9
$USERI4
 70
     0
  9
$USERI5
 70
     0
  9
$USERR1
 40
0.0
  9
$USERR2
 40
0.0
  9
$USERR3
 40
0.0
  9
$USERR4
 40
0.0
  9
$USERR5
 40
0.0
  9
$WORLDVIEW
 70
     1
  9
$SHADEDGE
 70
     3
  9
$SHADEDIF
 70
    70
  9
$TILEMODE
 70
     1
  9
$MAXACTVP
 70
    16
  9
$PINSBASE
 10
0.0
 20
0.0
 30
0.0
  9
$PLIMCHECK
 70
     0
  9
$PEXTMIN
 10
1.000000000000000E+20
 20
1.000000000000000E+20
 30
1.000000000000000E+20
  9
$PEXTMAX
 10
-1.000000000000000E+20
 20
-1.000000000000000E+20
 30
-1.000000000000000E+20
  9
$PLIMMIN
 10
0.0
 20
0.0
  9
$PLIMMAX
 10
420.0
 20
297.0
  9
$UNITMODE
 70
     0
  9
$VISRETAIN
 70
     0
  9
$PLINEGEN
 70
     0
  9
$PSLTSCALE
 70
     1
  9
$TREEDEPTH
 70
  3020
  9
$CMLSTYLE
  2
STANDARD
  9
$CMLJUST
 70
     0
  9
$CMLSCALE
 40
1.0
  9
$PROXYGRAPHICS
 70
     1
  9
$MEASUREMENT
 70
     1
  9
$CELWEIGHT
370
    -1
  9
$ENDCAPS
280
     0
  9
$JOINSTYLE
280
     0
  9
$LWDISPLAY
290
     0
  9
$INSUNITS
 70
     0
  9
$HYPERLINKBASE
  1

  9
$STYLESHEET
  1

  9
$XEDIT
290
     1
  9
$CEPSNTYPE
380
     0
  9
$PSTYLEMODE
290
     1
  9
$FINGERPRINTGUID
  2
{38BD1CF8-BE50-4BC8-8545-8EF5B51DF850}
  9
$VERSIONGUID
  2
{A49CBB35-4B3A-4F18-88D6-7BAE5D9758CB}
  9
$EXTNAMES
290
     1
  9
$PSVPSCALE
 40
0.0
  9
$OLESTARTUP
290
     0
  0
ENDSEC
  0
SECTION
  2
CLASSES
  0
CLASS
  1
DICTIONARYVAR
  2
AcDbDictionaryVar
  3
ObjectDBX Classes
 90
        0
280
     0
281
     0
  0
CLASS
  1
ACDBDICTIONARYWDFLT
  2
AcDbDictionaryWithDefault
  3
ObjectDBX Classes
 90
        0
280
     0
281
     0
  0
CLASS
  1
TABLESTYLE
  2
AcDbTableStyle
  3
ObjectDBX Classes
 90
     2047
280
     0
281
     0
  0
CLASS
  1
AMGSETTINGSOBJ
  2
AmgSettingsObj
  3
"AcadM|Product Description: AutoCAD Mechanical 2000|Company: Autodesk"
 90
        0
280
     0
281
     0
  0
CLASS
  1
ACME_DOCUMENT
  2
AcMeDbDoc
  3
AcMeServices
 90
        0
280
     0
281
     0
  0
CLASS
  1
ACMESCOPE
  2
AcMeScope
  3
AcMeServices
 90
        0
280
     0
281
     0
  0
CLASS
  1
ACMECOMMANDHISTORY
  2
AcMeCommandHistory
  3
AcMeServices
 90
        0
280
     0
281
     0
  0
CLASS
  1
ACIMSYSVARMAN
  2
AcImSysVarManager
  3
AcMeServices
 90
        0
280
     0
281
     0
  0
CLASS
  1
ACIMINTSYSVAR
  2
AcImIntSysVar
  3
AcMeServices
 90
        0
280
     0
281
     0
  0
CLASS
  1
ACMEDRAWINGMAN
  2
AcMeDrawingMan
  3
AcMeServices
 90
        0
280
     0
281
     0
  0
CLASS
  1
ACMEVIEW
  2
AcMeView
  3
AcMeServices
 90
        0
280
     0
281
     0
  0
CLASS
  1
ACDBENTITYCACHE
  2
AcMeEntityCache
  3
AcMeServices
 90
        0
280
     0
281
     0
  0
CLASS
  1
GSMANAGER
  2
AcMeGSManager
  3
AcMeServices
 90
        0
280
     0
281
     0
  0
CLASS
  1
AMDTINTERNALREACTOR
  2
AmdtInternalReactor
  3
AcMeServices
 90
        0
280
     0
281
     0
  0
CLASS
  1
ACMESTATEMGR
  2
AcMeStateMgr
  3
AcMeServices
 90
        0
280
     0
281
     0
  0
CLASS
  1
ACGREFMASTER
  2
AcGrefMaster
  3
AcAttribServices
 90
        0
280
     0
281
     0
  0
CLASS
  1
AM_DRAWING_MGR
  2
AcDmDwgMgr
  3
AcMechDwgViewMgmt
 90
        0
280
     0
281
     0
  0
CLASS
  1
AM_DWG_DOCUMENT
  2
AcDmDwgDocument
  3
AcMechDwgViewMgmt
 90
        0
280
     0
281
     0
  0
CLASS
  1
AM_DWG_SHEET
  2
AcDmSheet
  3
AcMechDwgViewMgmt
 90
        0
280
     0
281
     0
  0
CLASS
  1
AM_VIEWDIMPARMAP
  2
AcDmViewDimParMap
  3
AcMechDwgViewMgmt
 90
        0
280
     0
281
     0
  0
CLASS
  1
ACIMREALSYSVAR
  2
AcImRealSysVar
  3
AcMeServices
 90
        0
280
     0
281
     0
  0
CLASS
  1
AM_DWGMGR_NAME
  2
AcDmDwgMgrName
  3
AcMechDwgViewMgmt
 90
        0
280
     0
281
     0
  0
CLASS
  1
ACME_DATABASE
  2
AcMeDbDatabase
  3
AcMeServices
 90
        0
280
     0
281
     0
  0
CLASS
  1
ACRFINSADJUSTERMGR
  2
AcRfInsAdjusterMgr
  3
AcMeServices
 90
        0
280
     0
281
     0
  0
CLASS
  1
ACGREFACADMASTER
  2
AcGrefacadMaster
  3
AcGrefServices
 90
        0
280
     0
281
     0
  0
CLASS
  1
AMDTMENUSTATEMGR
  2
AmdtMenuStateMgr
  3
McadcomServices
 90
        0
280
     0
281
     0
  0
CLASS
  1
AMDTMCOMMENUSTATE
  2
AmdtMcomMenuState
  3
McadcomServices
 90
        0
280
     0
281
     0
  0
CLASS
  1
AMIMASTER
  2
AmiMaster
  3
AmiServices
 90
        0
280
     0
281
     0
  0
CLASS
  1
MAPIAMMOUDLE
  2
MApiAmModule
  3
MApiAmServices
 90
        0
280
     0
281
     0
  0
CLASS
  1
ACIMSTRSYSVAR
  2
AcImStrSysVar
  3
AcMeServices
 90
        0
280
     0
281
     0
  0
CLASS
  1
AMDTADMENUSTATE
  2
AmdtAdMenuState
  3
DesignerServices
 90
        0
280
     0
281
     0
  0
CLASS
  1
ADAPPL
  2
AcAdAppl
  3
DesignerServices
 90
        0
280
     0
281
     0
  0
CLASS
  1
DEPMGR
  2
AcAdDepMgr
  3
DesignerServices
 90
        0
280
     0
281
     0
  0
CLASS
  1
PARAMMGR
  2
AcAdParamMgr
  3
DesignerServices
 90
        0
280
     0
281
     0
  0
CLASS
  1
PARAMSCOPE
  2
AcAdParamScope
  3
DesignerServices
 90
        0
280
     0
281
     0
  0
CLASS
  1
NAMEDAPPL
  2
AcAdNamedAppl
  3
DesignerServices
 90
        0
280
     0
281
     0
  0
CLASS
  1
AMDTDMMENUSTATE
  2
AmdtDmMenuState
  3
AcMechDwgViewMgmt
 90
        0
280
     0
281
     0
  0
CLASS
  1
AMDTAMMENUSTATE
  2
AmdtAmMenuState
  3
DesignerAssemblies
 90
        0
280
     0
281
     0
  0
CLASS
  1
ACAMPROJECT
  2
AcAmProject
  3
DesignerAssemblies
 90
        0
280
     0
281
     0
  0
CLASS
  1
ACAMGRCOMPDEF
  2
AcAmGrCompDef
  3
DesignerAssemblies
 90
        0
280
     0
281
     0
  0
CLASS
  1
ACCMCONTEXT
  2
AcCmContext
  3
DesignerAssemblies
 90
        0
280
     0
281
     0
  0
CLASS
  1
ACAMCOMPDEF
  2
AcAmCompDef
  3
DesignerAssemblies
 90
        0
280
     0
281
     0
  0
CLASS
  1
ACAMCOMPDEFMGR
  2
AcAmCompDefMgr
  3
DesignerAssemblies
 90
        0
280
     0
281
     0
  0
CLASS
  1
AMCONTEXTMGR
  2
AcAmContextMgr
  3
DesignerAssemblies
 90
        0
280
     0
281
     0
  0
CLASS
  1
ACAMCONTEXTMODELER
  2
AcAmContextModeler
  3
DesignerAssemblies
 90
        0
280
     0
281
     0
  0
CLASS
  1
ACMDATADICTIONARY
  2
AcmDataDictionary
  3
"AcmSymBB|Product Description: AutoCAD Mechanical 2004 DX|Company: Autodesk"
 90
        0
280
     0
281
     0
  0
CLASS
  1
CATALOGSTATE
  2
AcAmCatalogState
  3
DesignerAssemblies
 90
        0
280
     0
281
     0
  0
CLASS
  1
ACAMGRCOMPDEFSET
  2
AcAmGrCompDefSet
  3
DesignerAssemblies
 90
        0
280
     0
281
     0
  0
CLASS
  1
AMDTBROWSERDBTAB
  2
AmdtBrowserDbTab
  3
McadcomServices
 90
        0
280
     0
281
     0
  0
CLASS
  1
CBROWSERAPPOBJECT
  2
CBrowserAppObject
  3
McadcomServices
 90
        0
280
     0
281
     0
  0
CLASS
  1
DM_PLACEHOLDER
  2
AcDmSelsetPlaceholder
  3
AcMechDwgViewMgmt
 90
        0
280
     0
281
     0
  0
CLASS
  1
ACMSTANDARDDIN
  2
AcmStandardDIN
  3
"Amdt_StdImp|Product Description: AutoCAD Mechanical 2004 DX|Company: Autodesk"
 90
        0
280
     0
281
     0
  0
CLASS
  1
AMGOBJPROPCFG
  2
AmgObjPropCfg
  3
"AmgLay|Product Description: AutoCAD Mechanical 2000|Company: Autodesk"
 90
        1
280
     0
281
     0
  0
CLASS
  1
AMDTEDGESTANDARDDIN13715
  2
AmdtEdgeStdDIN13715
  3
"Amdt_StdImp|Product Description: AutoCAD Mechanical 2004 DX|Company: Autodesk"
 90
        0
280
     0
281
     0
  0
CLASS
  1
ACMSURFSTANDARDDIN
  2
AcmSurfTextStdDIN
  3
"Amdt_StdImp|Product Description: AutoCAD Mechanical 2004 DX|Company: Autodesk"
 90
        0
280
     0
281
     0
  0
CLASS
  1
ACMFCFSTANDARDDIN
  2
AcmFCFStdDIN
  3
"Amdt_StdImp|Product Description: AutoCAD Mechanical 2004 DX|Company: Autodesk"
 90
        0
280
     0
281
     0
  0
CLASS
  1
ACMWELDSTANDARDDIN
  2
AcmWeldingStdDIN
  3
"Amdt_StdImp|Product Description: AutoCAD Mechanical 2004 DX|Company: Autodesk"
 90
        0
280
     0
281
     0
  0
CLASS
  1
ACMIDSTANDARDDIN
  2
AcmIdStdDIN
  3
"Amdt_StdImp|Product Description: AutoCAD Mechanical 2004 DX|Company: Autodesk"
 90
        0
280
     0
281
     0
  0
CLASS
  1
ACMDATUMSTANDARDDIN
  2
AcmDatumStdDIN
  3
"Amdt_StdImp|Product Description: AutoCAD Mechanical 2004 DX|Company: Autodesk"
 90
        0
280
     0
281
     0
  0
CLASS
  1
ACMBOMSTANDARDDIN
  2
AcmBOMStdDIN
  3
"Amdt_StdImp|Product Description: AutoCAD Mechanical 2004 DX|Company: Autodesk"
 90
        0
280
     0
281
     0
  0
CLASS
  1
ACMDETAILSTANDARDDIN
  2
AmdtDetailSymStdDIN
  3
"Amdt_StdImp|Product Description: AutoCAD Mechanical 2004 DX|Company: Autodesk"
 90
        0
280
     0
281
     0
  0
CLASS
  1
ACMSECTIONSTANDARDDIN
  2
AmdtSectionSymStdDIN
  3
"Amdt_StdImp|Product Description: AutoCAD Mechanical 2004 DX|Company: Autodesk"
 90
        0
280
     0
281
     0
  0
CLASS
  1
ACMCENTERLINESTANDARDDIN
  2
AmdtCenterLineStdDIN
  3
"Amdt_StdImp|Product Description: AutoCAD Mechanical 2004 DX|Company: Autodesk"
 90
        0
280
     0
281
     0
  0
CLASS
  1
ACMTHREADLINESTANDARDDIN
  2
AmdtThreadLineStdDIN
  3
"Amdt_StdImp|Product Description: AutoCAD Mechanical 2004 DX|Company: Autodesk"
 90
        0
280
     0
281
     0
  0
CLASS
  1
ACMNOTESTANDARDDIN
  2
AmdtNoteStdDIN
  3
"Amdt_StdImp|Product Description: AutoCAD Mechanical 2004 DX|Company: Autodesk"
 90
        0
280
     0
281
     0
  0
CLASS
  1
AMDTNOTETEMPLATEDB
  2
AmdtNoteTemplateDB
  3
AMDT_STDIMP_MODULE_NAME
 90
        0
280
     0
281
     0
  0
CLASS
  1
ACAMGLAYSTD
  2
AcAmgLayStd
  3
"AcAmgLayStd|Product Description: AutoCAD Mechanical 2000|Company: Autodesk"
 90
        0
280
     0
281
     0
  0
CLASS
  1
ACAMGDIMSTD
  2
AcAmgDimStd
  3
"AcAmgDimStd|Product Description: AutoCAD Mechanical 2000|Company: Autodesk"
 90
        0
280
     0
281
     0
  0
CLASS
  1
ACAMGHOLECHARTSTDDIN
  2
AcAmgHoleChartStdDIN
  3
ACMSYMBB_MODULE_NAME
 90
        0
280
     0
281
     0
  0
CLASS
  1
ACAMGTITLESTD
  2
AcAmgTitleStd
  3
"TITLEAPP"
 90
        0
280
     0
281
     0
  0
CLASS
  1
ACAMGFILTERDAT
  2
AcAmgFilterDat
  3
"AcadM|Product Description: AutoCAD Mechanical 2000|Company: Autodesk"
 90
        0
280
     0
281
     0
  0
CLASS
  1
ACDBPLACEHOLDER
  2
AcDbPlaceHolder
  3
ObjectDBX Classes
 90
        0
280
     0
281
     0
  0
CLASS
  1
LAYOUT
  2
AcDbLayout
  3
ObjectDBX Classes
 90
        0
280
     0
281
     0
  0
ENDSEC
  0
SECTION
  2
TABLES
  0
TABLE
  2
VPORT
  5
5131
330
0
100
AcDbSymbolTable
 70
     4
  0
VPORT
  5
5284
330
5131
100
AcDbSymbolTableRecord
100
AcDbViewportTableRecord
  2
*Active
 70
     0
 10
0.0
 20
0.0
 11
1.0
 21
1.0
 12
886.3380480000001
 22
1487.128247896753
 13
0.0
 23
0.0
 14
5.0
 24
5.0
 15
50.0
 25
50.0
 16
0.0
 26
0.0
 36
1.0
 17
0.0
 27
0.0
 37
0.0
 40
1287.351622793506
 41
1.494545454545454
 42
50.0
 43
0.0
 44
0.0
 50
0.0
 51
0.0
 71
     0
 72
   100
 73
     1
 74
     1
 75
     0
 76
     0
 77
     0
 78
     0
281
     0
 65
     0
110
0.0
120
0.0
130
0.0
111
1.0
121
0.0
131
0.0
112
0.0
122
1.0
132
0.0
 79
     0
146
0.0
  0
ENDTAB
  0
TABLE
  2
LTYPE
  5
512E
330
0
100
AcDbSymbolTable
 70
    21
  0
LTYPE
  5
513A
330
512E
100
AcDbSymbolTableRecord
100
AcDbLinetypeTableRecord
  2
BYBLOCK
 70
     0
  3

 72
    65
 73
     0
 40
0.0
  0
LTYPE
  5
513B
330
512E
100
AcDbSymbolTableRecord
100
AcDbLinetypeTableRecord
  2
BYLAYER
 70
     0
  3

 72
    65
 73
     0
 40
0.0
  0
LTYPE
  5
513C
330
512E
100
AcDbSymbolTableRecord
100
AcDbLinetypeTableRecord
  2
CONTINUOUS
 70
     0
  3
Solid line
 72
    65
 73
     0
 40
0.0
  0
LTYPE
  5
5168
330
512E
100
AcDbSymbolTableRecord
100
AcDbLinetypeTableRecord
  2
GEN7
 70
     0
  3
____ . ____ . ____ . ____ . ____ . ____ . ____
 72
    65
 73
     4
 40
13.75
 49
10.0
 74
     0
 49
-1.25
 74
     0
 49
1.25
 74
     0
 49
-1.25
 74
     0
  0
LTYPE
  5
5169
330
512E
100
AcDbSymbolTableRecord
100
AcDbLinetypeTableRecord
  2
GEN7A
 70
     0
  3
__ . __ . __
 72
    65
 73
     4
 40
6.875
 49
5.0
 74
     0
 49
-0.625
 74
     0
 49
0.625
 74
     0
 49
-0.625
 74
     0
  0
LTYPE
  5
51E2
330
512E
100
AcDbSymbolTableRecord
100
AcDbLinetypeTableRecord
  2
HIDDEN
 70
     0
  3
Verdeckt
 72
    65
 73
     2
 40
9.525
 49
6.349999999999999
 74
     0
 49
-3.174999999999999
 74
     0
  0
LTYPE
  5
51E3
330
512E
100
AcDbSymbolTableRecord
100
AcDbLinetypeTableRecord
  2
PHANTOM2
 70
     0
  3
Phantom (.5x) ___ _ _ ___ _ _ ___ _ _ ___ _ _
 72
    65
 73
     6
 40
31.75
 49
15.875
 74
     0
 49
-3.174999999999999
 74
     0
 49
3.174999999999999
 74
     0
 49
-3.174999999999999
 74
     0
 49
3.174999999999999
 74
     0
 49
-3.174999999999999
 74
     0
  0
LTYPE
  5
51E4
330
512E
100
AcDbSymbolTableRecord
100
AcDbLinetypeTableRecord
  2
CENTER
 70
     0
  3
Mitte ____ _ ____ _ ____ _ ____ _ ____ _ ____
 72
    65
 73
     4
 40
50.8
 49
31.75
 74
     0
 49
-6.349999999999999
 74
     0
 49
6.349999999999999
 74
     0
 49
-6.349999999999999
 74
     0
  0
LTYPE
  5
5218
330
512E
100
AcDbSymbolTableRecord
100
AcDbLinetypeTableRecord
  2
AM_ISO02W050
 70
     0
  3
__ __ __ __ __ __ __ __ __ __ __ __ __ __ __
 72
    65
 73
     2
 40
7.5
 49
6.0
 74
     0
 49
-1.5
 74
     0
  0
LTYPE
  5
5219
330
512E
100
AcDbSymbolTableRecord
100
AcDbLinetypeTableRecord
  2
AM_ISO08W050
 70
     0
  3
____ . ____ . ____ . ____ . ____ . ____ . ____
 72
    65
 73
     4
 40
18.0
 49
12.0
 74
     0
 49
-1.5
 74
     0
 49
3.0
 74
     0
 49
-1.5
 74
     0
  0
LTYPE
  5
521A
330
512E
100
AcDbSymbolTableRecord
100
AcDbLinetypeTableRecord
  2
AM_ISO09W050
 70
     0
  3
_____ . . _____ . . _____ . . ____ .. ____
 72
    65
 73
     6
 40
22.5
 49
12.0
 74
     0
 49
-1.5
 74
     0
 49
3.0
 74
     0
 49
-1.5
 74
     0
 49
3.0
 74
     0
 49
-1.5
 74
     0
  0
LTYPE
  5
521B
330
512E
100
AcDbSymbolTableRecord
100
AcDbLinetypeTableRecord
  2
Amconstr
 70
     0
  3
_______________________
 72
    65
 73
     2
 40
9999.0
 49
9999.0
 74
     0
 49
0.0
 74
     0
  0
LTYPE
  5
521C
330
512E
100
AcDbSymbolTableRecord
100
AcDbLinetypeTableRecord
  2
AM_ISO08W050x2
 70
     0
  3
__ . __ . __ . __ . __ . __
 72
    65
 73
     4
 40
9.0
 49
6.0
 74
     0
 49
-0.75
 74
     0
 49
1.5
 74
     0
 49
-0.75
 74
     0
  0
LTYPE
  5
521D
330
512E
100
AcDbSymbolTableRecord
100
AcDbLinetypeTableRecord
  2
AM_ISO02W050x2
 70
     0
  3
 _ _ _ _ _ _ _ _ _ _ _ _
 72
    65
 73
     2
 40
3.75
 49
3.0
 74
     0
 49
-0.75
 74
     0
  0
LTYPE
  5
5220
330
512E
100
AcDbSymbolTableRecord
100
AcDbLinetypeTableRecord
  2
Amzigzag
 70
     0
  3
/\/-/\/-/\/-/\/-/\/-/\/
 72
    65
 73
     2
 40
11.0001
 49
0.0001
 74
     4
 75
   136
340
521F
 46
0.04
 50
0.0
 44
0.0
 45
0.0
 49
-11.0
 74
     0
  0
LTYPE
  5
5221
330
512E
100
AcDbSymbolTableRecord
100
AcDbLinetypeTableRecord
  2
AM_DIN_F_W050
 70
     0
  3
__ __ __ __ __ __ __ __ __ __ __ __ __ __ __
 72
    65
 73
     2
 40
6.25
 49
4.75
 74
     0
 49
-1.5
 74
     0
  0
LTYPE
  5
5222
330
512E
100
AcDbSymbolTableRecord
100
AcDbLinetypeTableRecord
  2
AM_DIN_G_W050
 70
     0
  3
____ . ____ . ____ . ____ . ____ . ____ . ____
 72
    65
 73
     4
 40
13.75
 49
9.75
 74
     0
 49
-1.5
 74
     0
 49
1.0
 74
     0
 49
-1.5
 74
     0
  0
LTYPE
  5
5223
330
512E
100
AcDbSymbolTableRecord
100
AcDbLinetypeTableRecord
  2
AM_DIN_K_W050
 70
     0
  3
_____ . . _____ . . _____ . . ____ .. ____
 72
    65
 73
     6
 40
16.25
 49
9.75
 74
     0
 49
-1.5
 74
     0
 49
1.0
 74
     0
 49
-1.5
 74
     0
 49
1.0
 74
     0
 49
-1.5
 74
     0
  0
LTYPE
  5
5224
330
512E
100
AcDbSymbolTableRecord
100
AcDbLinetypeTableRecord
  2
AM_DIN_G_W050x2
 70
     0
  3
__ . __ . __ . __ . __ . __
 72
    65
 73
     4
 40
6.875
 49
4.75
 74
     0
 49
-0.875
 74
     0
 49
0.375
 74
     0
 49
-0.875
 74
     0
  0
LTYPE
  5
5225
330
512E
100
AcDbSymbolTableRecord
100
AcDbLinetypeTableRecord
  2
AM_DIN_F_W050x2
 70
     0
  3
 _ _ _ _ _ _ _ _ _ _ _ _
 72
    65
 73
     2
 40
3.125
 49
2.25
 74
     0
 49
-0.875
 74
     0
  0
LTYPE
  5
5234
330
512E
100
AcDbSymbolTableRecord
100
AcDbLinetypeTableRecord
  2
ACDINWELD
 70
     0
  3
_ _ _ _ _
 72
    65
 73
     2
 40
2.0
 49
2.0
 74
     0
 49
-1.0
 74
     0
  0
LTYPE
  5
5235
330
512E
100
AcDbSymbolTableRecord
100
AcDbLinetypeTableRecord
  2
ACDINTGB
 70
     0
  3
__ . . __ . .
 72
    65
 73
     6
 40
9.0
 49
4.0
 74
     0
 49
-1.0
 74
     0
 49
1.0
 74
     0
 49
-1.0
 74
     0
 49
1.0
 74
     0
 49
-1.0
 74
     0
  0
LTYPE
  5
5236
330
512E
100
AcDbSymbolTableRecord
100
AcDbLinetypeTableRecord
  2
ACDINTGL
 70
     0
  3
_ _ _ _ _
 72
    65
 73
     2
 40
3.0
 49
2.0
 74
     0
 49
-1.0
 74
     0
  0
ENDTAB
  0
TABLE
  2
LAYER
  5
512B
330
0
100
AcDbSymbolTable
 70
     6
  0
LAYER
  5
5137
330
512B
100
AcDbSymbolTableRecord
100
AcDbLayerTableRecord
  2
0
 70
     0
 62
     7
  6
CONTINUOUS
370
    -3
390
51A6
  0
LAYER
  5
518C
330
512B
100
AcDbSymbolTableRecord
100
AcDbLayerTableRecord
  2
5
 70
     0
 62
     3
  6
CONTINUOUS
370
    -3
390
51A6
  0
LAYER
  5
518D
330
512B
100
AcDbSymbolTableRecord
100
AcDbLayerTableRecord
  2
7
 70
     0
 62
     4
  6
GEN7
370
    -3
390
51A6
  0
LAYER
  5
518E
330
512B
100
AcDbSymbolTableRecord
100
AcDbLayerTableRecord
  2
8
 70
     0
 62
     1
  6
CONTINUOUS
370
    -3
390
51A6
  0
LAYER
  5
518F
330
512B
100
AcDbSymbolTableRecord
100
AcDbLayerTableRecord
  2
7A
 70
     0
 62
     4
  6
GEN7A
370
    -3
390
51A6
  0
LAYER
  5
5191
330
512B
100
AcDbSymbolTableRecord
100
AcDbLayerTableRecord
  2
DEFPOINTS
 70
     0
 62
     7
  6
CONTINUOUS
290
     0
370
    -3
390
51A6
  0
ENDTAB
  0
TABLE
  2
STYLE
  5
512C
330
0
100
AcDbSymbolTable
 70
     4
  0
STYLE
  5
5138
330
512C
100
AcDbSymbolTableRecord
100
AcDbTextStyleTableRecord
  2
STANDARD
 70
     0
 40
0.0
 41
1.0
 50
0.0
 71
     0
 42
17.5
  3
ISOCP.SHX
  4

  0
STYLE
  5
521F
330
512C
100
AcDbSymbolTableRecord
100
AcDbTextStyleTableRecord
  2

 70
     1
 40
0.0
 41
1.0
 50
0.0
 71
     0
 42
17.5
  3
genltshp.shx
  4

  0
STYLE
  5
5226
330
512C
100
AcDbSymbolTableRecord
100
AcDbTextStyleTableRecord
  2
ACDINTS
 70
     0
 40
1.0
 41
1.0
 50
0.0
 71
     0
 42
17.5
  3
isocp.shx
  4

  0
STYLE
  5
5233
330
512C
100
AcDbSymbolTableRecord
100
AcDbTextStyleTableRecord
  2
ACDINGDT
 70
     0
 40
0.0
 41
1.0
 50
0.0
 71
     0
 42
17.5
  3
AMGDT
  4

  0
ENDTAB
  0
TABLE
  2
VIEW
  5
512F
330
0
100
AcDbSymbolTable
 70
     0
  0
ENDTAB
  0
TABLE
  2
UCS
  5
5130
330
0
100
AcDbSymbolTable
 70
     0
  0
ENDTAB
  0
TABLE
  2
APPID
  5
5132
330
0
100
AcDbSymbolTable
 70
    38
  0
APPID
  5
5139
330
5132
100
AcDbSymbolTableRecord
100
AcDbRegAppTableRecord
  2
ACAD
 70
     0
  0
APPID
  5
516C
330
5132
100
AcDbSymbolTableRecord
100
AcDbRegAppTableRecord
  2
GENIUS_VERSION2
 70
     0
  0
APPID
  5
516D
330
5132
100
AcDbSymbolTableRecord
100
AcDbRegAppTableRecord
  2
GENIUS_GENOENT_13
 70
     0
  0
APPID
  5
516E
330
5132
100
AcDbSymbolTableRecord
100
AcDbRegAppTableRecord
  2
GENIUS_GENOBJ_13
 70
     0
  0
APPID
  5
516F
330
5132
100
AcDbSymbolTableRecord
100
AcDbRegAppTableRecord
  2
GENIUS_GENODEF_13
 70
     0
  0
APPID
  5
5170
330
5132
100
AcDbSymbolTableRecord
100
AcDbRegAppTableRecord
  2
GENIUS_GENOLIS_13
 70
     0
  0
APPID
  5
5171
330
5132
100
AcDbSymbolTableRecord
100
AcDbRegAppTableRecord
  2
GENIUS_GENOREF_13
 70
     0
  0
APPID
  5
5172
330
5132
100
AcDbSymbolTableRecord
100
AcDbRegAppTableRecord
  2
GENIUS_GENOBJ-N-TIT_13
 70
     0
  0
APPID
  5
5173
330
5132
100
AcDbSymbolTableRecord
100
AcDbRegAppTableRecord
  2
GENIUS_GENTITLE_13
 70
     0
  0
APPID
  5
5174
330
5132
100
AcDbSymbolTableRecord
100
AcDbRegAppTableRecord
  2
GENIUS_GENZVEED_13
 70
     0
  0
APPID
  5
5175
330
5132
100
AcDbSymbolTableRecord
100
AcDbRegAppTableRecord
  2
GENIUS_GENOBJ-N-CEN_13
 70
     0
  0
APPID
  5
5176
330
5132
100
AcDbSymbolTableRecord
100
AcDbRegAppTableRecord
  2
GENIUS_GENOBJ-N-HTC_13
 70
     0
  0
APPID
  5
5177
330
5132
100
AcDbSymbolTableRecord
100
AcDbRegAppTableRecord
  2
GENIUS_GENHATCH_13
 70
     0
  0
APPID
  5
5178
330
5132
100
AcDbSymbolTableRecord
100
AcDbRegAppTableRecord
  2
GENIUS_GENOBJ-N-FIL_13
 70
     0
  0
APPID
  5
5179
330
5132
100
AcDbSymbolTableRecord
100
AcDbRegAppTableRecord
  2
GENIUS_GENCFG_13
 70
     0
1001
GENIUS_GENCFG0_13
1000
GEN@INFO_POS@XLATE
1001
GENIUS_GENCFG1_13
1000
GEN@INFO_POS
1001
GENIUS_GENCFG2_13
1000
GEN@LAYER@DEFS
1001
GENIUS_GENCFG3_13
1000
GEN@LAYER@ENTSORT
1001
GENIUS_GENCFG4_13
1000
GEN
1001
GENIUS_GEVCFG0_13
1000
GEV
  0
APPID
  5
517A
330
5132
100
AcDbSymbolTableRecord
100
AcDbRegAppTableRecord
  2
GENIUS_GEVCFG0_13
 70
     0
1001
GENIUS_GENCFG_13
1071
1043414220
1000
517A
1000
GEV
1070
     2
1000
GenCfgObject
1000
GenCfgShort
1000
VED
1070
     0
1002
{
1002
}
1000
PartProto
1070
     1
1070
     1
1002
{
1002
}
  0
APPID
  5
517B
330
5132
100
AcDbSymbolTableRecord
100
AcDbRegAppTableRecord
  2
GENIUS_GENCFG0_13
 70
     0
1001
GENIUS_GENCFG_13
1071
1043414219
1000
517B
1000
GEN@INFO_POS@XLATE
1070
     7
1000
GenCfgObject
1000
GenCfgShort
1000
GenCfgReal
1000
GenCfgBool
1000
GenCfgString
1000
GenCfgDim
1000
GenCfgAttrInf
1000
INFOPOINTS
1070
     0
1002
{
1000
GENINF14
1070
     0
1002
{
1000
2GENINF
1070
     4
1000
2
1002
{
1002
}
1000
5GENINF
1070
     4
1000
5
1002
{
1002
}
1000
7GENINF
1070
     4
1000
7
1002
{
1002
}
1000
9GENINF
1070
     4
1000
9
1002
{
1002
}
1000
11GENINF
1070
     4
1000
11
1002
{
1002
}
1000
14GENINF
1070
     4
1000
14
1002
{
1002
}
1002
}
1000
GENINF13
1070
     0
1002
{
1000
2GENINF
1070
     4
1000
2
1002
{
1002
}
1000
3GENINF
1070
     4
1000
3
1002
{
1002
}
1000
4GENINF
1070
     4
1000
4
1002
{
1002
}
1000
5GENINF
1070
     4
1000
5
1002
{
1002
}
1000
6GENINF
1070
     4
1000
6
1002
{
1002
}
1000
7GENINF
1070
     4
1000
7
1002
{
1002
}
1000
8GENINF
1070
     4
1000
8
1002
{
1002
}
1000
9GENINF
1070
     4
1000
9
1002
{
1002
}
1000
10GENINF
1070
     4
1000
10
1002
{
1002
}
1000
11GENINF
1070
     4
1000
11
1002
{
1002
}
1000
12GENINF
1070
     4
1000
12
1002
{
1002
}
1000
13GENINF
1070
     4
1000
13
1002
{
1002
}
1000
14GENINF
1070
     4
1000
14
1002
{
1002
}
1000
15GENINF
1070
     4
1000
15
1002
{
1002
}
1000
16GENINF
1070
     4
1000
16
1002
{
1002
}
1000
17GENINF
1070
     4
1000
17
1002
{
1002
}
1000
18GENINF
1070
     4
1000
18
1002
{
1002
}
1000
19GENINF
1070
     4
1000
19
1002
{
1002
}
1000
20GENINF
1070
     4
1000
20
1002
{
1002
}
1000
21GENINF
1070
     4
1000
21
1002
{
1002
}
1000
22GENINF
1070
     4
1000
22
1002
{
1002
}
1000
23GENINF
1070
     4
1000
23
1002
{
1002
}
1000
24GENINF
1070
     4
1000
24
1002
{
1002
}
1000
0GENINF
1070
     4
1000
0
1002
{
1002
}
1002
}
1000
GENINFO
1070
     0
1002
{
1000
3GENINF
1070
     4
1000
3
1002
{
1002
}
1000
4GENINF
1070
     4
1000
4
1002
{
1002
}
1000
5GENINF
1070
     4
1000
5
1002
{
1002
}
1000
6GENINF
1070
     4
1000
6
1002
{
1002
}
1000
7GENINF
1070
     4
1000
7
1002
{
1002
}
1000
8GENINF
1070
     4
1000
8
1002
{
1002
}
1000
9GENINF
1070
     4
1000
9
1002
{
1002
}
1000
10GENINF
1070
     4
1000
10
1002
{
1002
}
1000
11GENINF
1070
     4
1000
11
1002
{
1002
}
1000
12GENINF
1070
     4
1000
12
1002
{
1002
}
1000
13GENINF
1070
     4
1000
13
1002
{
1002
}
1000
14GENINF
1070
     4
1000
14
1002
{
1002
}
1000
15GENINF
1070
     4
1000
15
1002
{
1002
}
1000
16GENINF
1070
     4
1000
16
1002
{
1002
}
1000
17GENINF
1070
     4
1000
17
1002
{
1002
}
1000
18GENINF
1070
     4
1000
18
1002
{
1002
}
1000
19GENINF
1070
     4
1000
19
1002
{
1002
}
1000
20GENINF
1070
     4
1000
20
1002
{
1002
}
1000
21GENINF
1070
     4
1000
21
1002
{
1002
}
1000
22GENINF
1070
     4
1000
22
1002
{
1002
}
1002
}
1000
DININFO
1070
     0
1002
{
1000
ST-NAME1
1070
     4
1000
5
1002
{
1002
}
1000
ST-NAME2
1070
     4
1000
6
1002
{
1002
}
1000
ST-NORM1
1070
     4
1000
7
1002
{
1002
}
1000
ST-NORM2
1070
     4
1000
8
1002
{
1002
}
1000
ST-MAT1
1070
     4
1000
9
1002
{
1002
}
1000
ST-MAT2
1070
     4
1000
10
1002
{
1002
}
1002
}
1002
}
1000
POS_NUMBERS
1070
     0
1002
{
1000
GENPOS14
1070
     0
1002
{
1000
1GENPOS
1070
     4
1000
1
1002
{
1002
}
1000
2GENPOS
1070
     4
1000
2
1002
{
1002
}
1000
5GENPOS
1070
     4
1000
5
1002
{
1002
}
1000
7GENPOS
1070
     4
1000
7
1002
{
1002
}
1000
9GENPOS
1070
     4
1000
9
1002
{
1002
}
1000
11GENPOS
1070
     4
1000
11
1002
{
1002
}
1000
14GENPOS
1070
     4
1000
14
1002
{
1002
}
1002
}
1000
GENPOS13
1070
     0
1002
{
1000
1GENPOS
1070
     4
1000
1
1002
{
1002
}
1000
2GENPOS
1070
     4
1000
2
1002
{
1002
}
1000
3GENPOS
1070
     4
1000
3
1002
{
1002
}
1000
4GENPOS
1070
     4
1000
4
1002
{
1002
}
1000
5GENPOS
1070
     4
1000
5
1002
{
1002
}
1000
6GENPOS
1070
     4
1000
6
1002
{
1002
}
1000
7GENPOS
1070
     4
1000
7
1002
{
1002
}
1000
8GENPOS
1070
     4
1000
8
1002
{
1002
}
1000
9GENPOS
1070
     4
1000
9
1002
{
1002
}
1000
10GENPOS
1070
     4
1000
10
1002
{
1002
}
1000
11GENPOS
1070
     4
1000
11
1002
{
1002
}
1000
12GENPOS
1070
     4
1000
12
1002
{
1002
}
1000
13GENPOS
1070
     4
1000
13
1002
{
1002
}
1000
14GENPOS
1070
     4
1000
14
1002
{
1002
}
1000
15GENPOS
1070
     4
1000
15
1002
{
1002
}
1000
16GENPOS
1070
     4
1000
16
1002
{
1002
}
1000
17GENPOS
1070
     4
1000
17
1002
{
1002
}
1000
18GENPOS
1070
     4
1000
18
1002
{
1002
}
1000
19GENPOS
1070
     4
1000
19
1002
{
1002
}
1000
20GENPOS
1070
     4
1000
20
1002
{
1002
}
1000
21GENPOS
1070
     4
1000
21
1002
{
1002
}
1000
22GENPOS
1070
     4
1000
22
1002
{
1002
}
1000
23GENPOS
1070
     4
1000
23
1002
{
1002
}
1000
24GENPOS
1070
     4
1000
24
1002
{
1002
}
1000
0GENPOS
1070
     4
1000
0
1002
{
1002
}
1002
}
1000
GENPOS
1070
     0
1002
{
1000
1GENPOS
1070
     4
1000
1
1002
{
1002
}
1000
2GENPOS
1070
     4
1000
2
1002
{
1002
}
1000
3GENPOS
1070
     4
1000
3
1002
{
1002
}
1000
4GENPOS
1070
     4
1000
4
1002
{
1002
}
1000
5GENPOS
1070
     4
1000
5
1002
{
1002
}
1000
6GENPOS
1070
     4
1000
6
1002
{
1002
}
1000
7GENPOS
1070
     4
1000
7
1002
{
1002
}
1000
8GENPOS
1070
     4
1000
8
1002
{
1002
}
1000
9GENPOS
1070
     4
1000
9
1002
{
1002
}
1000
10GENPOS
1070
     4
1000
10
1002
{
1002
}
1000
11GENPOS
1070
     4
1000
11
1002
{
1002
}
1000
12GENPOS
1070
     4
1000
12
1002
{
1002
}
1000
13GENPOS
1070
     4
1000
13
1002
{
1002
}
1000
14GENPOS
1070
     4
1000
14
1002
{
1002
}
1000
15GENPOS
1070
     4
1000
15
1002
{
1002
}
1000
16GENPOS
1070
     4
1000
16
1002
{
1002
}
1000
17GENPOS
1070
     4
1000
17
1002
{
1002
}
1000
18GENPOS
1070
     4
1000
18
1002
{
1002
}
1000
19GENPOS
1070
     4
1000
19
1002
{
1002
}
1000
20GENPOS
1070
     4
1000
20
1002
{
1002
}
1000
21GENPOS
1070
     4
1000
21
1002
{
1002
}
1000
22GENPOS
1070
     4
1000
22
1002
{
1002
}
1000
23GENPOS
1070
     4
1000
23
1002
{
1002
}
1002
}
1000
DIN985
1070
     0
1002
{
1000
POSITION
1070
     4
1000
1
1002
{
1002
}
1000
MENGE
1070
     4
1000
2
1002
{
1002
}
1000
BLATT
1070
     4
1000
3
1002
{
1002
}
1000
BENENN
1070
     4
1000
5
1002
{
1002
}
1000
BENENN2
1070
     4
1000
6
1002
{
1002
}
1000
NORM
1070
     4
1000
7
1002
{
1002
}
1000
NORM2
1070
     4
1000
8
1002
{
1002
}
1000
WERKSTOFF
1070
     4
1000
9
1002
{
1002
}
1000
WERKSTOFF2
1070
     4
1000
10
1002
{
1002
}
1002
}
1000
DIN986
1070
     0
1002
{
1000
POSITION
1070
     4
1000
1
1002
{
1002
}
1000
MENGE
1070
     4
1000
2
1002
{
1002
}
1000
BLATT
1070
     4
1000
3
1002
{
1002
}
1000
BENENN
1070
     4
1000
5
1002
{
1002
}
1000
BENENN2
1070
     4
1000
6
1002
{
1002
}
1000
NORM
1070
     4
1000
7
1002
{
1002
}
1000
NORM2
1070
     4
1000
8
1002
{
1002
}
1000
WERKSTOFF
1070
     4
1000
9
1002
{
1002
}
1000
WERKSTOFF2
1070
     4
1000
10
1002
{
1002
}
1002
}
1000
DIN987
1070
     0
1002
{
1000
POSITION
1070
     4
1000
1
1002
{
1002
}
1000
MENGE
1070
     4
1000
2
1002
{
1002
}
1000
BLATT
1070
     4
1000
3
1002
{
1002
}
1000
BENENN
1070
     4
1000
5
1002
{
1002
}
1000
BENENN2
1070
     4
1000
6
1002
{
1002
}
1000
NORM
1070
     4
1000
7
1002
{
1002
}
1000
NORM2
1070
     4
1000
8
1002
{
1002
}
1000
WERKSTOFF
1070
     4
1000
9
1002
{
1002
}
1000
WERKSTOFF2
1070
     4
1000
10
1002
{
1002
}
1002
}
1002
}
  0
APPID
  5
517C
330
5132
100
AcDbSymbolTableRecord
100
AcDbRegAppTableRecord
  2
GENIUS_GENCFG1_13
 70
     0
1001
GENIUS_GENCFG_13
1071
1043414219
1000
517C
1000
GEN@INFO_POS
1070
     7
1000
GenCfgObject
1000
GenCfgShort
1000
GenCfgReal
1000
GenCfgBool
1000
GenCfgString
1000
GenCfgDim
1000
GenCfgAttrInf
1000
DescrText
1070
     4
1000
5, ,6, ,7, ,8
1002
{
1002
}
1000
DescrText2
1070
     4
1000
26
1002
{
1002
}
1000
VisibleAttr1
1070
     4
1000
1
1002
{
1002
}
1000
VisibleAttr2
1070
     4
1000
26
1002
{
1002
}
1000
UpdateBlock
1070
     3
1070
     1
1002
{
1002
}
1000
Attrib
1070
     0
1002
{
1000
0
1070
     6
1002
{
1000
Prompt
1070
     4
1000
(genmsg gendwg 103)
1002
{
1002
}
1000
Value
1070
     4
1000

1002
{
1002
}
1000
EditFlag
1070
     1
1070
     0
1002
{
1002
}
1000
PosInDDATTE
1070
     1
1070
    27
1002
{
1002
}
1000
FieldLen
1070
     1
1070
    -1
1002
{
1002
}
1002
}
1000
1
1070
     6
1002
{
1000
Prompt
1070
     4
1000
(genmsg gendwg 31)
1002
{
1002
}
1000
Value
1070
     4
1000
1
1002
{
1002
}
1000
EditFlag
1070
     1
1070
     1
1002
{
1002
}
1000
PosInDDATTE
1070
     1
1070
     1
1002
{
1002
}
1000
FieldLen
1070
     1
1070
    -1
1002
{
1002
}
1002
}
1000
2
1070
     6
1002
{
1000
Prompt
1070
     4
1000
(genmsg gendwg 32)
1002
{
1002
}
1000
Value
1070
     4
1000
1
1002
{
1002
}
1000
EditFlag
1070
     1
1070
     1
1002
{
1002
}
1000
PosInDDATTE
1070
     1
1070
     2
1002
{
1002
}
1000
FieldLen
1070
     1
1070
    -1
1002
{
1002
}
1002
}
1000
3
1070
     6
1002
{
1000
Prompt
1070
     4
1000
(genmsg gendwg 33)
1002
{
1002
}
1000
Value
1070
     4
1000

1002
{
1002
}
1000
EditFlag
1070
     1
1070
     1
1002
{
1002
}
1000
PosInDDATTE
1070
     1
1070
     3
1002
{
1002
}
1000
FieldLen
1070
     1
1070
    -1
1002
{
1002
}
1002
}
1000
4
1070
     6
1002
{
1000
Prompt
1070
     4
1000
(genmsg gendwg 34)
1002
{
1002
}
1000
Value
1070
     4
1000

1002
{
1002
}
1000
EditFlag
1070
     1
1070
     1
1002
{
1002
}
1000
PosInDDATTE
1070
     1
1070
     4
1002
{
1002
}
1000
FieldLen
1070
     1
1070
    -1
1002
{
1002
}
1002
}
1000
5
1070
     6
1002
{
1000
Prompt
1070
     4
1000
(genmsg gendwg 35)
1002
{
1002
}
1000
Value
1070
     4
1000

1002
{
1002
}
1000
EditFlag
1070
     1
1070
     1
1002
{
1002
}
1000
PosInDDATTE
1070
     1
1070
     5
1002
{
1002
}
1000
FieldLen
1070
     1
1070
    -1
1002
{
1002
}
1002
}
1000
6
1070
     6
1002
{
1000
Prompt
1070
     4
1000
(genmsg gendwg 36)
1002
{
1002
}
1000
Value
1070
     4
1000

1002
{
1002
}
1000
EditFlag
1070
     1
1070
     1
1002
{
1002
}
1000
PosInDDATTE
1070
     1
1070
     6
1002
{
1002
}
1000
FieldLen
1070
     1
1070
    -1
1002
{
1002
}
1002
}
1000
7
1070
     6
1002
{
1000
Prompt
1070
     4
1000
(genmsg gendwg 37)
1002
{
1002
}
1000
Value
1070
     4
1000

1002
{
1002
}
1000
EditFlag
1070
     1
1070
     1
1002
{
1002
}
1000
PosInDDATTE
1070
     1
1070
     7
1002
{
1002
}
1000
FieldLen
1070
     1
1070
    -1
1002
{
1002
}
1002
}
1000
8
1070
     6
1002
{
1000
Prompt
1070
     4
1000
(genmsg gendwg 38)
1002
{
1002
}
1000
Value
1070
     4
1000

1002
{
1002
}
1000
EditFlag
1070
     1
1070
     1
1002
{
1002
}
1000
PosInDDATTE
1070
     1
1070
     8
1002
{
1002
}
1000
FieldLen
1070
     1
1070
    -1
1002
{
1002
}
1002
}
1000
9
1070
     6
1002
{
1000
Prompt
1070
     4
1000
(genmsg gendwg 39)
1002
{
1002
}
1000
Value
1070
     4
1000

1002
{
1002
}
1000
EditFlag
1070
     1
1070
     1
1002
{
1002
}
1000
PosInDDATTE
1070
     1
1070
     9
1002
{
1002
}
1000
FieldLen
1070
     1
1070
    -1
1002
{
1002
}
1002
}
1000
10
1070
     6
1002
{
1000
Prompt
1070
     4
1000
(genmsg gendwg 40)
1002
{
1002
}
1000
Value
1070
     4
1000

1002
{
1002
}
1000
EditFlag
1070
     1
1070
     1
1002
{
1002
}
1000
PosInDDATTE
1070
     1
1070
    10
1002
{
1002
}
1000
FieldLen
1070
     1
1070
    -1
1002
{
1002
}
1002
}
1000
11
1070
     6
1002
{
1000
Prompt
1070
     4
1000
(genmsg gendwg 41)
1002
{
1002
}
1000
Value
1070
     4
1000

1002
{
1002
}
1000
EditFlag
1070
     1
1070
     1
1002
{
1002
}
1000
PosInDDATTE
1070
     1
1070
    11
1002
{
1002
}
1000
FieldLen
1070
     1
1070
    -1
1002
{
1002
}
1002
}
1000
12
1070
     6
1002
{
1000
Prompt
1070
     4
1000
(genmsg gendwg 42)
1002
{
1002
}
1000
Value
1070
     4
1000

1002
{
1002
}
1000
EditFlag
1070
     1
1070
     1
1002
{
1002
}
1000
PosInDDATTE
1070
     1
1070
    12
1002
{
1002
}
1000
FieldLen
1070
     1
1070
    -1
1002
{
1002
}
1002
}
1000
13
1070
     6
1002
{
1000
Prompt
1070
     4
1000
(genmsg gendwg 43)
1002
{
1002
}
1000
Value
1070
     4
1000

1002
{
1002
}
1000
EditFlag
1070
     1
1070
     1
1002
{
1002
}
1000
PosInDDATTE
1070
     1
1070
    13
1002
{
1002
}
1000
FieldLen
1070
     1
1070
    -1
1002
{
1002
}
1002
}
1000
14
1070
     6
1002
{
1000
Prompt
1070
     4
1000
(genmsg gendwg 44)
1002
{
1002
}
1000
Value
1070
     4
1000

1002
{
1002
}
1000
EditFlag
1070
     1
1070
     1
1002
{
1002
}
1000
PosInDDATTE
1070
     1
1070
    14
1002
{
1002
}
1000
FieldLen
1070
     1
1070
    -1
1002
{
1002
}
1002
}
1000
15
1070
     6
1002
{
1000
Prompt
1070
     4
1000
(genmsg gendwg 45)
1002
{
1002
}
1000
Value
1070
     4
1000

1002
{
1002
}
1000
EditFlag
1070
     1
1070
     1
1002
{
1002
}
1000
PosInDDATTE
1070
     1
1070
    15
1002
{
1002
}
1000
FieldLen
1070
     1
1070
    -1
1002
{
1002
}
1002
}
1000
16
1070
     6
1002
{
1000
Prompt
1070
     4
1000
(genmsg gendwg 46)
1002
{
1002
}
1000
Value
1070
     4
1000

1002
{
1002
}
1000
EditFlag
1070
     1
1070
     1
1002
{
1002
}
1000
PosInDDATTE
1070
     1
1070
    16
1002
{
1002
}
1000
FieldLen
1070
     1
1070
    -1
1002
{
1002
}
1002
}
1000
17
1070
     6
1002
{
1000
Prompt
1070
     4
1000
(genmsg gendwg 47)
1002
{
1002
}
1000
Value
1070
     4
1000

1002
{
1002
}
1000
EditFlag
1070
     1
1070
     1
1002
{
1002
}
1000
PosInDDATTE
1070
     1
1070
    17
1002
{
1002
}
1000
FieldLen
1070
     1
1070
    -1
1002
{
1002
}
1002
}
1000
18
1070
     6
1002
{
1000
Prompt
1070
     4
1000
(genmsg gendwg 48)
1002
{
1002
}
1000
Value
1070
     4
1000

1002
{
1002
}
1000
EditFlag
1070
     1
1070
     1
1002
{
1002
}
1000
PosInDDATTE
1070
     1
1070
    18
1002
{
1002
}
1000
FieldLen
1070
     1
1070
    -1
1002
{
1002
}
1002
}
1000
19
1070
     6
1002
{
1000
Prompt
1070
     4
1000
(genmsg gendwg 99)
1002
{
1002
}
1000
Value
1070
     4
1000

1002
{
1002
}
1000
EditFlag
1070
     1
1070
     1
1002
{
1002
}
1000
PosInDDATTE
1070
     1
1070
    19
1002
{
1002
}
1000
FieldLen
1070
     1
1070
    -1
1002
{
1002
}
1002
}
1000
20
1070
     6
1002
{
1000
Prompt
1070
     4
1000
(genmsg gendwg 100)
1002
{
1002
}
1000
Value
1070
     4
1000

1002
{
1002
}
1000
EditFlag
1070
     1
1070
     1
1002
{
1002
}
1000
PosInDDATTE
1070
     1
1070
    20
1002
{
1002
}
1000
FieldLen
1070
     1
1070
    -1
1002
{
1002
}
1002
}
1000
21
1070
     6
1002
{
1000
Prompt
1070
     4
1000
(genmsg gendwg 101)
1002
{
1002
}
1000
Value
1070
     4
1000

1002
{
1002
}
1000
EditFlag
1070
     1
1070
     1
1002
{
1002
}
1000
PosInDDATTE
1070
     1
1070
    21
1002
{
1002
}
1000
FieldLen
1070
     1
1070
    -1
1002
{
1002
}
1002
}
1000
22
1070
     6
1002
{
1000
Prompt
1070
     4
1000
(genmsg gendwg 102)
1002
{
1002
}
1000
Value
1070
     4
1000

1002
{
1002
}
1000
EditFlag
1070
     1
1070
     1
1002
{
1002
}
1000
PosInDDATTE
1070
     1
1070
    22
1002
{
1002
}
1000
FieldLen
1070
     1
1070
    -1
1002
{
1002
}
1002
}
1000
23
1070
     6
1002
{
1000
Prompt
1070
     4
1000
(genmsg gendwg 30)
1002
{
1002
}
1000
Value
1070
     4
1000

1002
{
1002
}
1000
EditFlag
1070
     1
1070
     1
1002
{
1002
}
1000
PosInDDATTE
1070
     1
1070
    23
1002
{
1002
}
1000
FieldLen
1070
     1
1070
    -1
1002
{
1002
}
1002
}
1000
24
1070
     6
1002
{
1000
Prompt
1070
     4
1000
(genmsg gendwg 104)
1002
{
1002
}
1000
Value
1070
     4
1000

1002
{
1002
}
1000
EditFlag
1070
     1
1070
     1
1002
{
1002
}
1000
PosInDDATTE
1070
     1
1070
    24
1002
{
1002
}
1000
FieldLen
1070
     1
1070
    -1
1002
{
1002
}
1002
}
1000
25
1070
     6
1002
{
1000
Prompt
1070
     4
1000
(genmsg gendwg 105)
1002
{
1002
}
1000
Value
1070
     4
1000

1002
{
1002
}
1000
EditFlag
1070
     1
1070
     1
1002
{
1002
}
1000
PosInDDATTE
1070
     1
1070
    25
1002
{
1002
}
1000
FieldLen
1070
     1
1070
    -1
1002
{
1002
}
1002
}
1000
26
1070
     6
1002
{
1000
Prompt
1070
     4
1000
(genmsg gendwg 106)
1002
{
1002
}
1000
Value
1070
     4
1000

1002
{
1002
}
1000
EditFlag
1070
     1
1070
     1
1002
{
1002
}
1000
PosInDDATTE
1070
     1
1070
    26
1002
{
1002
}
1000
FieldLen
1070
     1
1070
    -1
1002
{
1002
}
1002
}
1000
27
1070
     6
1002
{
1000
Prompt
1070
     4
1000
(genmsg gendwg 109)
1002
{
1002
}
1000
Value
1070
     4
1000

1002
{
1002
}
1000
EditFlag
1070
     1
1070
     2
1002
{
1002
}
1000
PosInDDATTE
1070
     1
1070
    27
1002
{
1002
}
1000
FieldLen
1070
     1
1070
    -1
1002
{
1002
}
1002
}
1002
}
1000
Xlate
1070
     0
1002
{
1000
>
1002
}
  0
APPID
  5
517D
330
5132
100
AcDbSymbolTableRecord
100
AcDbRegAppTableRecord
  2
GENIUS_GENCFG2_13
 70
     0
1001
GENIUS_GENCFG_13
1071
1043414219
1000
517D
1000
GEN@LAYER@DEFS
1070
     9
1000
GenCfgObject
1000
GenCfgShort
1000
GenCfgReal
1000
GenCfgBool
1000
GenCfgString
1000
GenCfgDim
1000
GenCfgAttrInf
1000
GenCfgLaySection
1000
GenCfgLayer
1000
Basic
1070
     0
1002
{
1000
0
1070
     8
1000
0
1002
{
1000
Color
1070
     1
1070
     7
1002
{
1002
}
1000
LType
1070
     4
1000
CONTINUOUS
1002
{
1002
}
1000
Base
1070
     3
1070
     0
1002
{
1002
}
1002
}
1000
1
1070
     8
1000
1
1002
{
1000
Color
1070
     1
1070
    14
1002
{
1002
}
1000
LType
1070
     4
1000
CONTINUOUS
1002
{
1002
}
1000
Base
1070
     3
1070
     0
1002
{
1002
}
1002
}
1000
2
1070
     8
1000
2
1002
{
1000
Color
1070
     1
1070
     5
1002
{
1002
}
1000
LType
1070
     4
1000
CONTINUOUS
1002
{
1002
}
1000
Base
1070
     3
1070
     0
1002
{
1002
}
1002
}
1000
3
1070
     8
1000
3
1002
{
1000
Color
1070
     1
1070
     6
1002
{
1002
}
1000
LType
1070
     4
1000
GEN3
1002
{
1002
}
1000
Base
1070
     3
1070
     0
1002
{
1002
}
1002
}
1000
4
1070
     8
1000
4
1002
{
1000
Color
1070
     1
1070
     3
1002
{
1002
}
1000
LType
1070
     4
1000
CONTINUOUS
1002
{
1002
}
1000
Base
1070
     3
1070
     0
1002
{
1002
}
1002
}
1000
5
1070
     8
1000
5
1002
{
1000
Color
1070
     1
1070
     3
1002
{
1002
}
1000
LType
1070
     4
1000
CONTINUOUS
1002
{
1002
}
1000
Base
1070
     3
1070
     0
1002
{
1002
}
1002
}
1000
6
1070
     8
1000
6
1002
{
1000
Color
1070
     1
1070
     2
1002
{
1002
}
1000
LType
1070
     4
1000
CONTINUOUS
1002
{
1002
}
1000
Base
1070
     3
1070
     0
1002
{
1002
}
1002
}
1000
7
1070
     8
1000
7
1002
{
1000
Color
1070
     1
1070
     4
1002
{
1002
}
1000
LType
1070
     4
1000
GEN7
1002
{
1002
}
1000
Base
1070
     3
1070
     0
1002
{
1002
}
1002
}
1000
8
1070
     8
1000
8
1002
{
1000
Color
1070
     1
1070
     1
1002
{
1002
}
1000
LType
1070
     4
1000
CONTINUOUS
1002
{
1002
}
1000
Base
1070
     3
1070
     0
1002
{
1002
}
1002
}
1000
3A
1070
     8
1000
3A
1002
{
1000
Color
1070
     1
1070
     6
1002
{
1002
}
1000
LType
1070
     4
1000
GEN3A
1002
{
1002
}
1000
Base
1070
     3
1070
     0
1002
{
1002
}
1002
}
1000
7A
1070
     8
1000
7A
1002
{
1000
Color
1070
     1
1070
     4
1002
{
1002
}
1000
LType
1070
     4
1000
GEN7A
1002
{
1002
}
1000
Base
1070
     3
1070
     0
1002
{
1002
}
1002
}
1000
2A
1070
     8
1000
2A
1002
{
1000
Color
1070
     1
1070
     7
1002
{
1002
}
1000
LType
1070
     4
1000
GEN7
1002
{
1002
}
1000
Base
1070
     3
1070
     0
1002
{
1002
}
1002
}
1000
4A
1070
     8
1000
4A
1002
{
1000
Color
1070
     1
1070
     3
1002
{
1002
}
1000
LType
1070
     4
1000
GEN4A
1002
{
1002
}
1000
Base
1070
     3
1070
     0
1002
{
1002
}
1002
}
1000
9
1070
     8
1000
9
1002
{
1000
Color
1070
     1
1070
   253
1002
{
1002
}
1000
LType
1070
     4
1000
CONTINUOUS
1002
{
1002
}
1000
Base
1070
     3
1070
     0
1002
{
1002
}
1002
}
1000
IP
1070
     8
1000
IP
1002
{
1000
Color
1070
     1
1070
     7
1002
{
1002
}
1000
LType
1070
     4
1000
CONTINUOUS
1002
{
1002
}
1000
Base
1070
     3
1070
     0
1002
{
1002
}
1002
}
1002
}
1000
Standard
1070
     0
1002
{
1000
0N
1070
     8
1000
0N
1002
{
1000
Color
1070
     1
1070
     7
1002
{
1002
}
1000
LType
1070
     4
1000
CONTINUOUS
1002
{
1002
}
1000
Base
1070
     3
1070
     0
1002
{
1002
}
1002
}
1000
1N
1070
     8
1000
1N
1002
{
1000
Color
1070
     1
1070
    14
1002
{
1002
}
1000
LType
1070
     4
1000
CONTINUOUS
1002
{
1002
}
1000
Base
1070
     3
1070
     0
1002
{
1002
}
1002
}
1000
2N
1070
     8
1000
2N
1002
{
1000
Color
1070
     1
1070
     5
1002
{
1002
}
1000
LType
1070
     4
1000
CONTINUOUS
1002
{
1002
}
1000
Base
1070
     3
1070
     0
1002
{
1002
}
1002
}
1000
3N
1070
     8
1000
3N
1002
{
1000
Color
1070
     1
1070
     6
1002
{
1002
}
1000
LType
1070
     4
1000
GEN3
1002
{
1002
}
1000
Base
1070
     3
1070
     0
1002
{
1002
}
1002
}
1000
4N
1070
     8
1000
4N
1002
{
1000
Color
1070
     1
1070
     3
1002
{
1002
}
1000
LType
1070
     4
1000
CONTINUOUS
1002
{
1002
}
1000
Base
1070
     3
1070
     0
1002
{
1002
}
1002
}
1000
5N
1070
     8
1000
5N
1002
{
1000
Color
1070
     1
1070
     3
1002
{
1002
}
1000
LType
1070
     4
1000
CONTINUOUS
1002
{
1002
}
1000
Base
1070
     3
1070
     0
1002
{
1002
}
1002
}
1000
6N
1070
     8
1000
6N
1002
{
1000
Color
1070
     1
1070
     2
1002
{
1002
}
1000
LType
1070
     4
1000
CONTINUOUS
1002
{
1002
}
1000
Base
1070
     3
1070
     0
1002
{
1002
}
1002
}
1000
7N
1070
     8
1000
7N
1002
{
1000
Color
1070
     1
1070
     4
1002
{
1002
}
1000
LType
1070
     4
1000
GEN7
1002
{
1002
}
1000
Base
1070
     3
1070
     0
1002
{
1002
}
1002
}
1000
8N
1070
     8
1000
8N
1002
{
1000
Color
1070
     1
1070
     1
1002
{
1002
}
1000
LType
1070
     4
1000
CONTINUOUS
1002
{
1002
}
1000
Base
1070
     3
1070
     0
1002
{
1002
}
1002
}
1000
3AN
1070
     8
1000
3AN
1002
{
1000
Color
1070
     1
1070
     6
1002
{
1002
}
1000
LType
1070
     4
1000
GEN3A
1002
{
1002
}
1000
Base
1070
     3
1070
     0
1002
{
1002
}
1002
}
1000
7AN
1070
     8
1000
7AN
1002
{
1000
Color
1070
     1
1070
     4
1002
{
1002
}
1000
LType
1070
     4
1000
GEN7A
1002
{
1002
}
1000
Base
1070
     3
1070
     0
1002
{
1002
}
1002
}
1000
2AN
1070
     8
1000
2AN
1002
{
1000
Color
1070
     1
1070
     7
1002
{
1002
}
1000
LType
1070
     4
1000
GEN7
1002
{
1002
}
1000
Base
1070
     3
1070
     0
1002
{
1002
}
1002
}
1000
4AN
1070
     8
1000
4AN
1002
{
1000
Color
1070
     1
1070
     3
1002
{
1002
}
1000
LType
1070
     4
1000
GEN4A
1002
{
1002
}
1000
Base
1070
     3
1070
     0
1002
{
1002
}
1002
}
1000
9N
1070
     8
1000
9N
1002
{
1000
Color
1070
     1
1070
   253
1002
{
1002
}
1000
LType
1070
     4
1000
CONTINUOUS
1002
{
1002
}
1000
Base
1070
     3
1070
     0
1002
{
1002
}
1002
}
1000
IPN
1070
     8
1000
IPN
1002
{
1000
Color
1070
     1
1070
     7
1002
{
1002
}
1000
LType
1070
     4
1000
CONTINUOUS
1002
{
1002
}
1000
Base
1070
     3
1070
     0
1002
{
1002
}
1002
}
1002
}
1000
Extra
1070
     0
1002
{
1000
Klin
1070
     8
1000
KLIN
1002
{
1000
Color
1070
     1
1070
     1
1002
{
1002
}
1000
LType
1070
     4
1000
CONTINUOUS
1002
{
1002
}
1000
Base
1070
     3
1070
     1
1002
{
1002
}
1002
}
1000
Info
1070
     8
1000
INFO
1002
{
1000
Color
1070
     1
1070
     4
1002
{
1002
}
1000
LType
1070
     4
1000
CONTINUOUS
1002
{
1002
}
1000
Base
1070
     3
1070
     1
1002
{
1002
}
1002
}
1000
Rahm2
1070
     8
1000
RAHM2
1002
{
1000
Color
1070
     1
1070
     1
1002
{
1002
}
1000
LType
1070
     4
1000
CONTINUOUS
1002
{
1002
}
1000
Base
1070
     3
1070
     1
1002
{
1002
}
1002
}
1000
Rahm3
1070
     8
1000
RAHM3
1002
{
1000
Color
1070
     1
1070
     2
1002
{
1002
}
1000
LType
1070
     4
1000
CONTINUOUS
1002
{
1002
}
1000
Base
1070
     3
1070
     1
1002
{
1002
}
1002
}
1000
Rahm5
1070
     8
1000
RAHM5
1002
{
1000
Color
1070
     1
1070
     7
1002
{
1002
}
1000
LType
1070
     4
1000
CONTINUOUS
1002
{
1002
}
1000
Base
1070
     3
1070
     1
1002
{
1002
}
1002
}
1000
View
1070
     8
1000
VIEW
1002
{
1000
Color
1070
     1
1070
     1
1002
{
1002
}
1000
LType
1070
     4
1000
CONTINUOUS
1002
{
1002
}
1000
Base
1070
     3
1070
     1
1002
{
1002
}
1002
}
1000
Behind
1070
     8
1000
BEHIND
1002
{
1000
Color
1070
     1
1070
   253
1002
{
1002
}
1000
LType
1070
     4
1000
CONTINUOUS
1002
{
1002
}
1000
Base
1070
     3
1070
     1
1002
{
1002
}
1002
}
1002
}
  0
APPID
  5
517E
330
5132
100
AcDbSymbolTableRecord
100
AcDbRegAppTableRecord
  2
GENIUS_GENCFG3_13
 70
     0
1001
GENIUS_GENCFG_13
1071
1043414219
1000
517E
1000
GEN@LAYER@ENTSORT
1070
    10
1000
GenCfgObject
1000
GenCfgShort
1000
GenCfgReal
1000
GenCfgBool
1000
GenCfgString
1000
GenCfgDim
1000
GenCfgAttrInf
1000
GenCfgLaySection
1000
GenCfgLayer
1000
GenCfgEntSort
1000
ADDL
1070
     9
1000
5
1002
{
1000
Class
1070
     4
1000
SYM
1002
{
1002
}
1000
Color
1070
     1
1070
     1
1002
{
1002
}
1000
LType
1070
     4
1000
BYLAYER
1002
{
1002
}
1002
}
1000
ALTR
1070
     9
1000
4
1002
{
1000
Class
1070
     4
1000

1002
{
1002
}
1000
Color
1070
     1
1070
     7
1002
{
1002
}
1000
LType
1070
     4
1000
GEN3A
1002
{
1002
}
1002
}
1000
BELI
1070
     9
1000
4
1002
{
1000
Class
1070
     4
1000

1002
{
1002
}
1000
Color
1070
     1
1070
   256
1002
{
1002
}
1000
LType
1070
     4
1000
BYLAYER
1002
{
1002
}
1002
}
1000
BHNV
1070
     9
1000
9
1002
{
1000
Class
1070
     4
1000
INV
1002
{
1002
}
1000
Color
1070
     1
1070
   256
1002
{
1002
}
1000
LType
1070
     4
1000
BYLAYER
1002
{
1002
}
1002
}
1000
BHNVS
1070
     9
1000
BEHIND
1002
{
1000
Class
1070
     4
1000
INV
1002
{
1002
}
1000
Color
1070
     1
1070
   256
1002
{
1002
}
1000
LType
1070
     4
1000
BYLAYER
1002
{
1002
}
1002
}
1000
BLID
1070
     9
1000
4A
1002
{
1000
Class
1070
     4
1000

1002
{
1002
}
1000
Color
1070
     1
1070
   256
1002
{
1002
}
1000
LType
1070
     4
1000
BYLAYER
1002
{
1002
}
1002
}
1000
BOAP
1070
     9
1000
4A
1002
{
1000
Class
1070
     4
1000

1002
{
1002
}
1000
Color
1070
     1
1070
   256
1002
{
1002
}
1000
LType
1070
     4
1000
BYLAYER
1002
{
1002
}
1002
}
1000
BOR2
1070
     9
1000
RAHM2
1002
{
1000
Class
1070
     4
1000
SPZ,SYM
1002
{
1002
}
1000
Color
1070
     1
1070
   256
1002
{
1002
}
1000
LType
1070
     4
1000
BYLAYER
1002
{
1002
}
1002
}
1000
BOR3
1070
     9
1000
RAHM3
1002
{
1000
Class
1070
     4
1000
SPZ,SYM
1002
{
1002
}
1000
Color
1070
     1
1070
   256
1002
{
1002
}
1000
LType
1070
     4
1000
BYLAYER
1002
{
1002
}
1002
}
1000
BOR5
1070
     9
1000
RAHM5
1002
{
1000
Class
1070
     4
1000
SPZ,SYM
1002
{
1002
}
1000
Color
1070
     1
1070
   256
1002
{
1002
}
1000
LType
1070
     4
1000
BYLAYER
1002
{
1002
}
1002
}
1000
BOR7
1070
     9
1000
RAHM5
1002
{
1000
Class
1070
     4
1000
SPZ,SYM
1002
{
1002
}
1000
Color
1070
     1
1070
     7
1002
{
1002
}
1000
LType
1070
     4
1000
CONTINUOUS
1002
{
1002
}
1002
}
1000
BPAP
1070
     9
1000
4A
1002
{
1000
Class
1070
     4
1000

1002
{
1002
}
1000
Color
1070
     1
1070
   256
1002
{
1002
}
1000
LType
1070
     4
1000
BYLAYER
1002
{
1002
}
1002
}
1000
BPEX
1070
     9
1000
4A
1002
{
1000
Class
1070
     4
1000

1002
{
1002
}
1000
Color
1070
     1
1070
   256
1002
{
1002
}
1000
LType
1070
     4
1000
BYLAYER
1002
{
1002
}
1002
}
1000
BTDI
1070
     9
1000
5
1002
{
1000
Class
1070
     4
1000
DIM,SYM
1002
{
1002
}
1000
Color
1070
     1
1070
   256
1002
{
1002
}
1000
LType
1070
     4
1000
BYLAYER
1002
{
1002
}
1002
}
1000
CAL2
1070
     9
1000
4
1002
{
1000
Class
1070
     4
1000
SYM
1002
{
1002
}
1000
Color
1070
     1
1070
   256
1002
{
1002
}
1000
LType
1070
     4
1000
BYLAYER
1002
{
1002
}
1002
}
1000
CAL3
1070
     9
1000
4
1002
{
1000
Class
1070
     4
1000
SYM
1002
{
1002
}
1000
Color
1070
     1
1070
     2
1002
{
1002
}
1000
LType
1070
     4
1000
BYLAYER
1002
{
1002
}
1002
}
1000
CAL5
1070
     9
1000
4
1002
{
1000
Class
1070
     4
1000
SYM
1002
{
1002
}
1000
Color
1070
     1
1070
     7
1002
{
1002
}
1000
LType
1070
     4
1000
BYLAYER
1002
{
1002
}
1002
}
1000
CAL7
1070
     9
1000
4
1002
{
1000
Class
1070
     4
1000
SYM
1002
{
1002
}
1000
Color
1070
     1
1070
     5
1002
{
1002
}
1000
LType
1070
     4
1000
BYLAYER
1002
{
1002
}
1002
}
1000
CENN
1070
     9
1000
7A
1002
{
1000
Class
1070
     4
1000
CEN
1002
{
1002
}
1000
Color
1070
     1
1070
   256
1002
{
1002
}
1000
LType
1070
     4
1000
BYLAYER
1002
{
1002
}
1002
}
1000
CENW
1070
     9
1000
7
1002
{
1000
Class
1070
     4
1000
CEN
1002
{
1002
}
1000
Color
1070
     1
1070
   256
1002
{
1002
}
1000
LType
1070
     4
1000
BYLAYER
1002
{
1002
}
1002
}
1000
CLIN
1070
     9
1000
KLIN
1002
{
1000
Class
1070
     4
1000
SPZ
1002
{
1002
}
1000
Color
1070
     1
1070
   256
1002
{
1002
}
1000
LType
1070
     4
1000
BYLAYER
1002
{
1002
}
1002
}
1000
CON1
1070
     9
1000
0
1002
{
1000
Class
1070
     4
1000
CON,BGD
1002
{
1002
}
1000
Color
1070
     1
1070
   256
1002
{
1002
}
1000
LType
1070
     4
1000
BYLAYER
1002
{
1002
}
1002
}
1000
CON2
1070
     9
1000
1
1002
{
1000
Class
1070
     4
1000
CON,BGD
1002
{
1002
}
1000
Color
1070
     1
1070
   256
1002
{
1002
}
1000
LType
1070
     4
1000
BYLAYER
1002
{
1002
}
1002
}
1000
CON3
1070
     9
1000
2
1002
{
1000
Class
1070
     4
1000
CON,BGD
1002
{
1002
}
1000
Color
1070
     1
1070
   256
1002
{
1002
}
1000
LType
1070
     4
1000
BYLAYER
1002
{
1002
}
1002
}
1000
CON4
1070
     9
1000
2
1002
{
1000
Class
1070
     4
1000
CON,BGD
1002
{
1002
}
1000
Color
1070
     1
1070
   256
1002
{
1002
}
1000
LType
1070
     4
1000
BYLAYER
1002
{
1002
}
1002
}
1000
DERP
1070
     9
1000
4
1002
{
1000
Class
1070
     4
1000

1002
{
1002
}
1000
Color
1070
     1
1070
   256
1002
{
1002
}
1000
LType
1070
     4
1000
BYLAYER
1002
{
1002
}
1002
}
1000
DETA
1070
     9
1000
4
1002
{
1000
Class
1070
     4
1000

1002
{
1002
}
1000
Color
1070
     1
1070
   256
1002
{
1002
}
1000
LType
1070
     4
1000
BYLAYER
1002
{
1002
}
1002
}
1000
DIAG
1070
     9
1000
5
1002
{
1000
Class
1070
     4
1000
SYM
1002
{
1002
}
1000
Color
1070
     1
1070
   256
1002
{
1002
}
1000
LType
1070
     4
1000
BYLAYER
1002
{
1002
}
1002
}
1000
DILI
1070
     9
1000
5
1002
{
1000
Class
1070
     4
1000
DIM,SYM
1002
{
1002
}
1000
Color
1070
     1
1070
   256
1002
{
1002
}
1000
LType
1070
     4
1000
BYLAYER
1002
{
1002
}
1002
}
1000
DITO2
1070
     9
1000
5
1002
{
1000
Class
1070
     4
1000
DIM,SYM
1002
{
1002
}
1000
Color
1070
     1
1070
     3
1002
{
1002
}
1000
LType
1070
     4
1000
BYLAYER
1002
{
1002
}
1002
}
1000
DITO3
1070
     9
1000
5
1002
{
1000
Class
1070
     4
1000
DIM,SYM
1002
{
1002
}
1000
Color
1070
     1
1070
     2
1002
{
1002
}
1000
LType
1070
     4
1000
BYLAYER
1002
{
1002
}
1002
}
1000
DITX
1070
     9
1000
5
1002
{
1000
Class
1070
     4
1000
DIM,SYM
1002
{
1002
}
1000
Color
1070
     1
1070
     2
1002
{
1002
}
1000
LType
1070
     4
1000
CONTINUOUS
1002
{
1002
}
1002
}
1000
DIXL
1070
     9
1000
5
1002
{
1000
Class
1070
     4
1000
DIM,SYM
1002
{
1002
}
1000
Color
1070
     1
1070
   256
1002
{
1002
}
1000
LType
1070
     4
1000
BYLAYER
1002
{
1002
}
1002
}
1000
EXMP
1070
     9
1000
4A
1002
{
1000
Class
1070
     4
1000

1002
{
1002
}
1000
Color
1070
     1
1070
   256
1002
{
1002
}
1000
LType
1070
     4
1000
BYLAYER
1002
{
1002
}
1002
}
1000
FEMN
1070
     9
1000
8
1002
{
1000
Class
1070
     4
1000

1002
{
1002
}
1000
Color
1070
     1
1070
   256
1002
{
1002
}
1000
LType
1070
     4
1000
BYLAYER
1002
{
1002
}
1002
}
1000
FEMPN
1070
     9
1000
8
1002
{
1000
Class
1070
     4
1000
SYM
1002
{
1002
}
1000
Color
1070
     1
1070
     3
1002
{
1002
}
1000
LType
1070
     4
1000
BYLAYER
1002
{
1002
}
1002
}
1000
FEMSP
1070
     9
1000
4A
1002
{
1000
Class
1070
     4
1000

1002
{
1002
}
1000
Color
1070
     1
1070
   256
1002
{
1002
}
1000
LType
1070
     4
1000
CONTINUOUS
1002
{
1002
}
1002
}
1000
FEMST
1070
     9
1000
4A
1002
{
1000
Class
1070
     4
1000
SYM
1002
{
1002
}
1000
Color
1070
     1
1070
     3
1002
{
1002
}
1000
LType
1070
     4
1000
BYLAYER
1002
{
1002
}
1002
}
1000
FEMVN
1070
     9
1000
2
1002
{
1000
Class
1070
     4
1000
CON
1002
{
1002
}
1000
Color
1070
     1
1070
   256
1002
{
1002
}
1000
LType
1070
     4
1000
BYLAYER
1002
{
1002
}
1002
}
1000
FEMVT
1070
     9
1000
2
1002
{
1000
Class
1070
     4
1000
SYM
1002
{
1002
}
1000
Color
1070
     1
1070
     3
1002
{
1002
}
1000
LType
1070
     4
1000
BYLAYER
1002
{
1002
}
1002
}
1000
FLAT
1070
     9
1000
0
1002
{
1000
Class
1070
     4
1000

1002
{
1002
}
1000
Color
1070
     1
1070
   256
1002
{
1002
}
1000
LType
1070
     4
1000
BYLAYER
1002
{
1002
}
1002
}
1000
FRAR
1070
     9
1000
4A
1002
{
1000
Class
1070
     4
1000

1002
{
1002
}
1000
Color
1070
     1
1070
   256
1002
{
1002
}
1000
LType
1070
     4
1000
BYLAYER
1002
{
1002
}
1002
}
1000
GRLI
1070
     9
1000
5
1002
{
1000
Class
1070
     4
1000
SYM
1002
{
1002
}
1000
Color
1070
     1
1070
   256
1002
{
1002
}
1000
LType
1070
     4
1000
BYLAYER
1002
{
1002
}
1002
}
1000
GVLI
1070
     9
1000
4A
1002
{
1000
Class
1070
     4
1000

1002
{
1002
}
1000
Color
1070
     1
1070
   256
1002
{
1002
}
1000
LType
1070
     4
1000
BYLAYER
1002
{
1002
}
1002
}
1000
HATC
1070
     9
1000
8
1002
{
1000
Class
1070
     4
1000
HTC,BGD
1002
{
1002
}
1000
Color
1070
     1
1070
   256
1002
{
1002
}
1000
LType
1070
     4
1000
BYLAYER
1002
{
1002
}
1002
}
1000
HIDN
1070
     9
1000
3A
1002
{
1000
Class
1070
     4
1000
HID,BGD
1002
{
1002
}
1000
Color
1070
     1
1070
   256
1002
{
1002
}
1000
LType
1070
     4
1000
BYLAYER
1002
{
1002
}
1002
}
1000
HIDW
1070
     9
1000
3
1002
{
1000
Class
1070
     4
1000
HID,BGD
1002
{
1002
}
1000
Color
1070
     1
1070
   256
1002
{
1002
}
1000
LType
1070
     4
1000
BYLAYER
1002
{
1002
}
1002
}
1000
HLIN
1070
     9
1000
4
1002
{
1000
Class
1070
     4
1000
BGD
1002
{
1002
}
1000
Color
1070
     1
1070
   256
1002
{
1002
}
1000
LType
1070
     4
1000
BYLAYER
1002
{
1002
}
1002
}
1000
HOCN
1070
     9
1000
7A
1002
{
1000
Class
1070
     4
1000
CEN
1002
{
1002
}
1000
Color
1070
     1
1070
   256
1002
{
1002
}
1000
LType
1070
     4
1000
BYLAYER
1002
{
1002
}
1002
}
1000
HOCW
1070
     9
1000
7
1002
{
1000
Class
1070
     4
1000
CEN
1002
{
1002
}
1000
Color
1070
     1
1070
   256
1002
{
1002
}
1000
LType
1070
     4
1000
BYLAYER
1002
{
1002
}
1002
}
1000
INFO
1070
     9
1000
INFO
1002
{
1000
Class
1070
     4
1000
SPZ,SYM
1002
{
1002
}
1000
Color
1070
     1
1070
   256
1002
{
1002
}
1000
LType
1070
     4
1000
BYLAYER
1002
{
1002
}
1002
}
1000
LADI
1070
     9
1000
4
1002
{
1000
Class
1070
     4
1000
BGD
1002
{
1002
}
1000
Color
1070
     1
1070
   256
1002
{
1002
}
1000
LType
1070
     4
1000
BYLAYER
1002
{
1002
}
1002
}
1000
LEAD
1070
     9
1000
5
1002
{
1000
Class
1070
     4
1000
SYM
1002
{
1002
}
1000
Color
1070
     1
1070
   256
1002
{
1002
}
1000
LType
1070
     4
1000
BYLAYER
1002
{
1002
}
1002
}
1000
N_ADDL
1070
     9
1000
5N
1002
{
1000
Class
1070
     4
1000
SYM
1002
{
1002
}
1000
Color
1070
     1
1070
     1
1002
{
1002
}
1000
LType
1070
     4
1000
BYLAYER
1002
{
1002
}
1002
}
1000
N_BHNV
1070
     9
1000
9N
1002
{
1000
Class
1070
     4
1000
INV
1002
{
1002
}
1000
Color
1070
     1
1070
   256
1002
{
1002
}
1000
LType
1070
     4
1000
BYLAYER
1002
{
1002
}
1002
}
1000
N_CON1
1070
     9
1000
0N
1002
{
1000
Class
1070
     4
1000
CON,BGD
1002
{
1002
}
1000
Color
1070
     1
1070
   256
1002
{
1002
}
1000
LType
1070
     4
1000
BYLAYER
1002
{
1002
}
1002
}
1000
N_CON2
1070
     9
1000
1N
1002
{
1000
Class
1070
     4
1000
CON,BGD
1002
{
1002
}
1000
Color
1070
     1
1070
   256
1002
{
1002
}
1000
LType
1070
     4
1000
BYLAYER
1002
{
1002
}
1002
}
1000
N_CON3
1070
     9
1000
2N
1002
{
1000
Class
1070
     4
1000
CON,BGD
1002
{
1002
}
1000
Color
1070
     1
1070
   256
1002
{
1002
}
1000
LType
1070
     4
1000
BYLAYER
1002
{
1002
}
1002
}
1000
N_CON4
1070
     9
1000
2N
1002
{
1000
Class
1070
     4
1000
CON,BGD
1002
{
1002
}
1000
Color
1070
     1
1070
   256
1002
{
1002
}
1000
LType
1070
     4
1000
BYLAYER
1002
{
1002
}
1002
}
1000
N_CENN
1070
     9
1000
7AN
1002
{
1000
Class
1070
     4
1000
CEN
1002
{
1002
}
1000
Color
1070
     1
1070
   256
1002
{
1002
}
1000
LType
1070
     4
1000
BYLAYER
1002
{
1002
}
1002
}
1000
N_CENW
1070
     9
1000
7N
1002
{
1000
Class
1070
     4
1000
CEN
1002
{
1002
}
1000
Color
1070
     1
1070
   256
1002
{
1002
}
1000
LType
1070
     4
1000
BYLAYER
1002
{
1002
}
1002
}
1000
N_DILI
1070
     9
1000
5N
1002
{
1000
Class
1070
     4
1000
DIM,SYM
1002
{
1002
}
1000
Color
1070
     1
1070
   256
1002
{
1002
}
1000
LType
1070
     4
1000
BYLAYER
1002
{
1002
}
1002
}
1000
N_DITX
1070
     9
1000
5N
1002
{
1000
Class
1070
     4
1000
DIM,SYM
1002
{
1002
}
1000
Color
1070
     1
1070
     2
1002
{
1002
}
1000
LType
1070
     4
1000
CONTINUOUS
1002
{
1002
}
1002
}
1000
N_DIXL
1070
     9
1000
5N
1002
{
1000
Class
1070
     4
1000
DIM,SYM
1002
{
1002
}
1000
Color
1070
     1
1070
   256
1002
{
1002
}
1000
LType
1070
     4
1000
BYLAYER
1002
{
1002
}
1002
}
1000
N_HATC
1070
     9
1000
8N
1002
{
1000
Class
1070
     4
1000
HTC,BGD
1002
{
1002
}
1000
Color
1070
     1
1070
   256
1002
{
1002
}
1000
LType
1070
     4
1000
BYLAYER
1002
{
1002
}
1002
}
1000
N_HIDN
1070
     9
1000
3AN
1002
{
1000
Class
1070
     4
1000
HID,BGD
1002
{
1002
}
1000
Color
1070
     1
1070
   256
1002
{
1002
}
1000
LType
1070
     4
1000
BYLAYER
1002
{
1002
}
1002
}
1000
N_HIDW
1070
     9
1000
3N
1002
{
1000
Class
1070
     4
1000
HID,BGD
1002
{
1002
}
1000
Color
1070
     1
1070
   256
1002
{
1002
}
1000
LType
1070
     4
1000
BYLAYER
1002
{
1002
}
1002
}
1000
N_NGIP
1070
     9
1000
IPN
1002
{
1000
Class
1070
     4
1000

1002
{
1002
}
1000
Color
1070
     1
1070
   256
1002
{
1002
}
1000
LType
1070
     4
1000
BYLAYER
1002
{
1002
}
1002
}
1000
N_PHAN
1070
     9
1000
4AN
1002
{
1000
Class
1070
     4
1000

1002
{
1002
}
1000
Color
1070
     1
1070
   256
1002
{
1002
}
1000
LType
1070
     4
1000
BYLAYER
1002
{
1002
}
1002
}
1000
N_POSL
1070
     9
1000
5N
1002
{
1000
Class
1070
     4
1000
SYM
1002
{
1002
}
1000
Color
1070
     1
1070
   256
1002
{
1002
}
1000
LType
1070
     4
1000
BYLAYER
1002
{
1002
}
1002
}
1000
N_TCON
1070
     9
1000
0N
1002
{
1000
Class
1070
     4
1000
CON,BGD
1002
{
1002
}
1000
Color
1070
     1
1070
   256
1002
{
1002
}
1000
LType
1070
     4
1000
BYLAYER
1002
{
1002
}
1002
}
1000
N_THLI
1070
     9
1000
4N
1002
{
1000
Class
1070
     4
1000
BGD
1002
{
1002
}
1000
Color
1070
     1
1070
   256
1002
{
1002
}
1000
LType
1070
     4
1000
BYLAYER
1002
{
1002
}
1002
}
1000
N_TLEN
1070
     9
1000
0N
1002
{
1000
Class
1070
     4
1000
CON,BGD
1002
{
1002
}
1000
Color
1070
     1
1070
   256
1002
{
1002
}
1000
LType
1070
     4
1000
BYLAYER
1002
{
1002
}
1002
}
1000
N_TXT3
1070
     9
1000
6N
1002
{
1000
Class
1070
     4
1000
SYM
1002
{
1002
}
1000
Color
1070
     1
1070
   256
1002
{
1002
}
1000
LType
1070
     4
1000
BYLAYER
1002
{
1002
}
1002
}
1000
N_VPLI
1070
     9
1000
2AN
1002
{
1000
Class
1070
     4
1000

1002
{
1002
}
1000
Color
1070
     1
1070
   256
1002
{
1002
}
1000
LType
1070
     4
1000
BYLAYER
1002
{
1002
}
1002
}
1000
NGIP
1070
     9
1000
IP
1002
{
1000
Class
1070
     4
1000

1002
{
1002
}
1000
Color
1070
     1
1070
   256
1002
{
1002
}
1000
LType
1070
     4
1000
BYLAYER
1002
{
1002
}
1002
}
1000
PAL2
1070
     9
1000
RAHM2
1002
{
1000
Class
1070
     4
1000
SPZ,SYM
1002
{
1002
}
1000
Color
1070
     1
1070
   256
1002
{
1002
}
1000
LType
1070
     4
1000
BYLAYER
1002
{
1002
}
1002
}
1000
PAL3
1070
     9
1000
RAHM3
1002
{
1000
Class
1070
     4
1000
SPZ,SYM
1002
{
1002
}
1000
Color
1070
     1
1070
   256
1002
{
1002
}
1000
LType
1070
     4
1000
BYLAYER
1002
{
1002
}
1002
}
1000
PAL5
1070
     9
1000
RAHM5
1002
{
1000
Class
1070
     4
1000
SPZ,SYM
1002
{
1002
}
1000
Color
1070
     1
1070
   256
1002
{
1002
}
1000
LType
1070
     4
1000
BYLAYER
1002
{
1002
}
1002
}
1000
PAL7
1070
     9
1000
RAHM5
1002
{
1000
Class
1070
     4
1000
SPZ,SYM
1002
{
1002
}
1000
Color
1070
     1
1070
     7
1002
{
1002
}
1000
LType
1070
     4
1000
CONTINUOUS
1002
{
1002
}
1002
}
1000
PHAN
1070
     9
1000
4A
1002
{
1000
Class
1070
     4
1000

1002
{
1002
}
1000
Color
1070
     1
1070
   256
1002
{
1002
}
1000
LType
1070
     4
1000
BYLAYER
1002
{
1002
}
1002
}
1000
POSL
1070
     9
1000
5
1002
{
1000
Class
1070
     4
1000
SYM
1002
{
1002
}
1000
Color
1070
     1
1070
   256
1002
{
1002
}
1000
LType
1070
     4
1000
BYLAYER
1002
{
1002
}
1002
}
1000
POSN
1070
     9
1000
6
1002
{
1000
Class
1070
     4
1000
SYM
1002
{
1002
}
1000
Color
1070
     1
1070
     7
1002
{
1002
}
1000
LType
1070
     4
1000
BYLAYER
1002
{
1002
}
1002
}
1000
POSREF
1070
     9
1000
6
1002
{
1000
Class
1070
     4
1000
SYM
1002
{
1002
}
1000
Color
1070
     1
1070
     5
1002
{
1002
}
1000
LType
1070
     4
1000
BYLAYER
1002
{
1002
}
1002
}
1000
POSX
1070
     9
1000
5
1002
{
1000
Class
1070
     4
1000
SYM
1002
{
1002
}
1000
Color
1070
     1
1070
     2
1002
{
1002
}
1000
LType
1070
     4
1000
CONTINUOUS
1002
{
1002
}
1002
}
1000
PSEC
1070
     9
1000
4A
1002
{
1000
Class
1070
     4
1000

1002
{
1002
}
1000
Color
1070
     1
1070
   256
1002
{
1002
}
1000
LType
1070
     4
1000
BYLAYER
1002
{
1002
}
1002
}
1000
RCGN
1070
     9
1000
7A
1002
{
1000
Class
1070
     4
1000
CEN
1002
{
1002
}
1000
Color
1070
     1
1070
   256
1002
{
1002
}
1000
LType
1070
     4
1000
BYLAYER
1002
{
1002
}
1002
}
1000
RCGW
1070
     9
1000
7
1002
{
1000
Class
1070
     4
1000
CEN
1002
{
1002
}
1000
Color
1070
     1
1070
   256
1002
{
1002
}
1000
LType
1070
     4
1000
BYLAYER
1002
{
1002
}
1002
}
1000
RFDI
1070
     9
1000
4
1002
{
1000
Class
1070
     4
1000
BGD
1002
{
1002
}
1000
Color
1070
     1
1070
   256
1002
{
1002
}
1000
LType
1070
     4
1000
BYLAYER
1002
{
1002
}
1002
}
1000
RQTR
1070
     9
1000
4
1002
{
1000
Class
1070
     4
1000

1002
{
1002
}
1000
Color
1070
     1
1070
     7
1002
{
1002
}
1000
LType
1070
     4
1000
GEN7A
1002
{
1002
}
1002
}
1000
RSBO
1070
     9
1000
4
1002
{
1000
Class
1070
     4
1000
BGD
1002
{
1002
}
1000
Color
1070
     1
1070
   256
1002
{
1002
}
1000
LType
1070
     4
1000
BYLAYER
1002
{
1002
}
1002
}
1000
SBRK
1070
     9
1000
4
1002
{
1000
Class
1070
     4
1000
BGD
1002
{
1002
}
1000
Color
1070
     1
1070
   256
1002
{
1002
}
1000
LType
1070
     4
1000
BYLAYER
1002
{
1002
}
1002
}
1000
SCEN
1070
     9
1000
7
1002
{
1000
Class
1070
     4
1000

1002
{
1002
}
1000
Color
1070
     1
1070
   256
1002
{
1002
}
1000
LType
1070
     4
1000
CONTINUOUS
1002
{
1002
}
1002
}
1000
SECT
1070
     9
1000
4
1002
{
1000
Class
1070
     4
1000
BGD
1002
{
1002
}
1000
Color
1070
     1
1070
   256
1002
{
1002
}
1000
LType
1070
     4
1000
BYLAYER
1002
{
1002
}
1002
}
1000
SELN
1070
     9
1000
7A
1002
{
1000
Class
1070
     4
1000

1002
{
1002
}
1000
Color
1070
     1
1070
   256
1002
{
1002
}
1000
LType
1070
     4
1000
BYLAYER
1002
{
1002
}
1002
}
1000
SELW
1070
     9
1000
7
1002
{
1000
Class
1070
     4
1000

1002
{
1002
}
1000
Color
1070
     1
1070
   256
1002
{
1002
}
1000
LType
1070
     4
1000
BYLAYER
1002
{
1002
}
1002
}
1000
SSYS
1070
     9
1000
0
1002
{
1000
Class
1070
     4
1000

1002
{
1002
}
1000
Color
1070
     1
1070
   256
1002
{
1002
}
1000
LType
1070
     4
1000
BYLAYER
1002
{
1002
}
1002
}
1000
STLI
1070
     9
1000
4
1002
{
1000
Class
1070
     4
1000

1002
{
1002
}
1000
Color
1070
     1
1070
     7
1002
{
1002
}
1000
LType
1070
     4
1000
GEN3A
1002
{
1002
}
1002
}
1000
SYB1
1070
     9
1000
5
1002
{
1000
Class
1070
     4
1000
SYM
1002
{
1002
}
1000
Color
1070
     1
1070
   256
1002
{
1002
}
1000
LType
1070
     4
1000
BYLAYER
1002
{
1002
}
1002
}
1000
SYB2
1070
     9
1000
5
1002
{
1000
Class
1070
     4
1000
SYM
1002
{
1002
}
1000
Color
1070
     1
1070
   256
1002
{
1002
}
1000
LType
1070
     4
1000
BYLAYER
1002
{
1002
}
1002
}
1000
SYB3
1070
     9
1000
6
1002
{
1000
Class
1070
     4
1000
SYM
1002
{
1002
}
1000
Color
1070
     1
1070
   256
1002
{
1002
}
1000
LType
1070
     4
1000
CONTINUOUS
1002
{
1002
}
1002
}
1000
SYB5
1070
     9
1000
5
1002
{
1000
Class
1070
     4
1000
SYM
1002
{
1002
}
1000
Color
1070
     1
1070
     7
1002
{
1002
}
1000
LType
1070
     4
1000
BYLAYER
1002
{
1002
}
1002
}
1000
SYMN
1070
     9
1000
7A
1002
{
1000
Class
1070
     4
1000
CEN
1002
{
1002
}
1000
Color
1070
     1
1070
   256
1002
{
1002
}
1000
LType
1070
     4
1000
BYLAYER
1002
{
1002
}
1002
}
1000
SYMW
1070
     9
1000
7
1002
{
1000
Class
1070
     4
1000
CEN
1002
{
1002
}
1000
Color
1070
     1
1070
   256
1002
{
1002
}
1000
LType
1070
     4
1000
BYLAYER
1002
{
1002
}
1002
}
1000
TCON
1070
     9
1000
0
1002
{
1000
Class
1070
     4
1000
CON,BGD
1002
{
1002
}
1000
Color
1070
     1
1070
   256
1002
{
1002
}
1000
LType
1070
     4
1000
BYLAYER
1002
{
1002
}
1002
}
1000
THLI
1070
     9
1000
4
1002
{
1000
Class
1070
     4
1000
BGD
1002
{
1002
}
1000
Color
1070
     1
1070
   256
1002
{
1002
}
1000
LType
1070
     4
1000
BYLAYER
1002
{
1002
}
1002
}
1000
TIT2
1070
     9
1000
RAHM2
1002
{
1000
Class
1070
     4
1000
SPZ,SYM
1002
{
1002
}
1000
Color
1070
     1
1070
   256
1002
{
1002
}
1000
LType
1070
     4
1000
BYLAYER
1002
{
1002
}
1002
}
1000
TIT3
1070
     9
1000
RAHM3
1002
{
1000
Class
1070
     4
1000
SPZ,SYM
1002
{
1002
}
1000
Color
1070
     1
1070
   256
1002
{
1002
}
1000
LType
1070
     4
1000
BYLAYER
1002
{
1002
}
1002
}
1000
TIT5
1070
     9
1000
RAHM5
1002
{
1000
Class
1070
     4
1000
SPZ,SYM
1002
{
1002
}
1000
Color
1070
     1
1070
   256
1002
{
1002
}
1000
LType
1070
     4
1000
BYLAYER
1002
{
1002
}
1002
}
1000
TIT7
1070
     9
1000
RAHM5
1002
{
1000
Class
1070
     4
1000
SPZ,SYM
1002
{
1002
}
1000
Color
1070
     1
1070
     7
1002
{
1002
}
1000
LType
1070
     4
1000
CONTINUOUS
1002
{
1002
}
1002
}
1000
TLEN
1070
     9
1000
0
1002
{
1000
Class
1070
     4
1000
CON,BGD
1002
{
1002
}
1000
Color
1070
     1
1070
   256
1002
{
1002
}
1000
LType
1070
     4
1000
BYLAYER
1002
{
1002
}
1002
}
1000
TRKN
1070
     9
1000
7A
1002
{
1000
Class
1070
     4
1000

1002
{
1002
}
1000
Color
1070
     1
1070
   256
1002
{
1002
}
1000
LType
1070
     4
1000
BYLAYER
1002
{
1002
}
1002
}
1000
TRKW
1070
     9
1000
7
1002
{
1000
Class
1070
     4
1000

1002
{
1002
}
1000
Color
1070
     1
1070
   256
1002
{
1002
}
1000
LType
1070
     4
1000
BYLAYER
1002
{
1002
}
1002
}
1000
TRLI
1070
     9
1000
4
1002
{
1000
Class
1070
     4
1000
BGD
1002
{
1002
}
1000
Color
1070
     1
1070
   256
1002
{
1002
}
1000
LType
1070
     4
1000
BYLAYER
1002
{
1002
}
1002
}
1000
TXT1
1070
     9
1000
6
1002
{
1000
Class
1070
     4
1000
SYM
1002
{
1002
}
1000
Color
1070
     1
1070
     2
1002
{
1002
}
1000
LType
1070
     4
1000
BYLAYER
1002
{
1002
}
1002
}
1000
TXT2
1070
     9
1000
6
1002
{
1000
Class
1070
     4
1000
SYM
1002
{
1002
}
1000
Color
1070
     1
1070
     2
1002
{
1002
}
1000
LType
1070
     4
1000
BYLAYER
1002
{
1002
}
1002
}
1000
TXT3
1070
     9
1000
6
1002
{
1000
Class
1070
     4
1000
SYM
1002
{
1002
}
1000
Color
1070
     1
1070
   256
1002
{
1002
}
1000
LType
1070
     4
1000
BYLAYER
1002
{
1002
}
1002
}
1000
TXT5
1070
     9
1000
6
1002
{
1000
Class
1070
     4
1000
SYM
1002
{
1002
}
1000
Color
1070
     1
1070
     7
1002
{
1002
}
1000
LType
1070
     4
1000
BYLAYER
1002
{
1002
}
1002
}
1000
TXT7
1070
     9
1000
6
1002
{
1000
Class
1070
     4
1000
SYM
1002
{
1002
}
1000
Color
1070
     1
1070
     7
1002
{
1002
}
1000
LType
1070
     4
1000
BYLAYER
1002
{
1002
}
1002
}
1000
VIEW
1070
     9
1000
VIEW
1002
{
1000
Class
1070
     4
1000
SPZ
1002
{
1002
}
1000
Color
1070
     1
1070
   256
1002
{
1002
}
1000
LType
1070
     4
1000
BYLAYER
1002
{
1002
}
1002
}
1000
VPLI
1070
     9
1000
2A
1002
{
1000
Class
1070
     4
1000

1002
{
1002
}
1000
Color
1070
     1
1070
   256
1002
{
1002
}
1000
LType
1070
     4
1000
BYLAYER
1002
{
1002
}
1002
}
1000
ZIZA
1070
     9
1000
4
1002
{
1000
Class
1070
     4
1000
BGD
1002
{
1002
}
1000
Color
1070
     1
1070
   256
1002
{
1002
}
1000
LType
1070
     4
1000
GENZIGZAG
1002
{
1002
}
1002
}
  0
APPID
  5
517F
330
5132
100
AcDbSymbolTableRecord
100
AcDbRegAppTableRecord
  2
GENIUS_GENCFG4_13
 70
     0
1001
GENIUS_GENCFG_13
1071
1043414220
1000
517F
1000
GEN
1070
    12
1000
GenCfgObject
1000
GenCfgShort
1000
GenCfgReal
1000
GenCfgBool
1000
GenCfgString
1000
GenCfgDim
1000
GenCfgAttrInf
1000
GenCfgLaySection
1000
GenCfgLayer
1000
GenCfgEntSort
1000
GenCfgLType
1000
GenCfgFilter
1000
Balloon
1070
     0
1002
{
1000
GenIF
1070
     1
1070
     0
1002
{
1002
}
1000
GenPosInc
1070
     1
1070
     1
1002
{
1002
}
1000
GenPosBlk
1070
     1
1070
     8
1002
{
1002
}
1000
GenPosVar
1070
     1
1070
     0
1002
{
1002
}
1000
GenZiCir
1070
     2
1040
1.5
1002
{
1002
}
1000
MaxCharForCenteredText
1070
     1
1070
    30
1002
{
1002
}
1000
Snap
1070
     0
1002
{
1000
ActivationRadius
1070
     2
1040
1.0
1002
{
1002
}
1000
M
1070
     0
1002
{
1000
SnapStepX
1070
     2
1040
20.0
1002
{
1002
}
1000
SnapStepY
1070
     2
1040
10.0
1002
{
1002
}
1002
}
1000
I
1070
     0
1002
{
1000
SnapStepX
1070
     2
1040
1.0
1002
{
1002
}
1000
SnapStepY
1070
     2
1040
0.5
1002
{
1002
}
1002
}
1002
}
1002
}
1000
Centerline
1070
     0
1002
{
1000
ScaleNot
1070
     3
1070
     0
1002
{
1002
}
1000
M
1070
     0
1002
{
1000
GenCenAng
1070
     4
1000
45|90|135
1002
{
1002
}
1000
GenCenDia
1070
     2
1040
10.0
1002
{
1002
}
1000
GenCenDias
1070
     4
1000
10|20|30
1002
{
1002
}
1000
GenCenDist
1070
     2
1040
3.0
1002
{
1002
}
1000
GenCenLen
1070
     2
1040
10.0
1002
{
1002
}
1000
GenCenOff
1070
     2
1040
10.0
1002
{
1002
}
1002
}
1000
I
1070
     0
1002
{
1000
GenCenAng
1070
     4
1000
45|90|135
1002
{
1002
}
1000
GenCenDia
1070
     2
1040
0.5
1002
{
1002
}
1000
GenCenDias
1070
     4
1000
0.5|1.0|1.5
1002
{
1002
}
1000
GenCenDist
1070
     2
1040
0.125
1002
{
1002
}
1000
GenCenLen
1070
     2
1040
0.5
1002
{
1002
}
1000
GenCenOff
1070
     2
1040
0.5
1002
{
1002
}
1002
}
1002
}
1000
CLine
1070
     0
1002
{
1000
CAngArray
1070
     4
1000
30|45|60
1002
{
1002
}
1000
Typ
1070
     4
1000
XLINE
1002
{
1002
}
1000
M
1070
     0
1002
{
1000
CLinArray
1070
     4
1000
10|20|30
1002
{
1002
}
1002
}
1000
I
1070
     0
1002
{
1000
CLinArray
1070
     4
1000
0.125|0.25|0.5
1002
{
1002
}
1002
}
1002
}
1000
Detail
1070
     0
1002
{
1002
}
1000
Dimension
1070
     5
1002
{
1000
DIMALT
1070
     1
1070
     0
1002
{
1002
}
1000
DIMALTD
1070
     1
1070
     2
1002
{
1002
}
1000
DIMALTTD
1070
     1
1070
     4
1002
{
1002
}
1000
DIMALTTZ
1070
     1
1070
     0
1002
{
1002
}
1000
DIMALTU
1070
     1
1070
     2
1002
{
1002
}
1000
DIMALTZ
1070
     1
1070
     0
1002
{
1002
}
1000
DIMAUNIT
1070
     1
1070
     0
1002
{
1002
}
1000
DIMBLK
1070
     4
1000

1002
{
1002
}
1000
DIMBLK1
1070
     4
1000

1002
{
1002
}
1000
DIMBLK2
1070
     4
1000

1002
{
1002
}
1000
DIMCLRD
1070
     1
1070
   256
1002
{
1002
}
1000
DIMCLRE
1070
     1
1070
   256
1002
{
1002
}
1000
DIMCLRT
1070
     1
1070
     2
1002
{
1002
}
1000
DIMDLE
1070
     2
1040
0.0
1002
{
1002
}
1000
DIMFIT
1070
     1
1070
     3
1002
{
1002
}
1000
DIMJUST
1070
     1
1070
     0
1002
{
1002
}
1000
DIMLFAC
1070
     2
1040
1.0
1002
{
1002
}
1000
DIMLIM
1070
     1
1070
     0
1002
{
1002
}
1000
DIMPOST
1070
     4
1000

1002
{
1002
}
1000
DIMRND
1070
     2
1040
0.0
1002
{
1002
}
1000
DIMSAH
1070
     1
1070
     0
1002
{
1002
}
1000
DIMSCALE
1070
     2
1040
1.0
1002
{
1002
}
1000
DIMSD1
1070
     1
1070
     0
1002
{
1002
}
1000
DIMSD2
1070
     1
1070
     0
1002
{
1002
}
1000
DIMSE1
1070
     1
1070
     0
1002
{
1002
}
1000
DIMSE2
1070
     1
1070
     0
1002
{
1002
}
1000
DIMSOXD
1070
     1
1070
     0
1002
{
1002
}
1000
DIMTAD
1070
     1
1070
     0
1002
{
1002
}
1000
DIMTFAC
1070
     2
1040
0.71
1002
{
1002
}
1000
DIMTIH
1070
     1
1070
     0
1002
{
1002
}
1000
DIMTIX
1070
     1
1070
     0
1002
{
1002
}
1000
DIMTM
1070
     2
1040
0.1
1002
{
1002
}
1000
DIMTOFL
1070
     1
1070
     0
1002
{
1002
}
1000
DIMTOH
1070
     1
1070
     0
1002
{
1002
}
1000
DIMTOL
1070
     1
1070
     0
1002
{
1002
}
1000
DIMTOLJ
1070
     1
1070
     1
1002
{
1002
}
1000
DIMTP
1070
     2
1040
0.1
1002
{
1002
}
1000
DIMTSZ
1070
     2
1040
0.0
1002
{
1002
}
1000
DIMTVP
1070
     2
1040
0.0
1002
{
1002
}
1000
DIMTXSTY
1070
     4
1000
STANDARD
1002
{
1002
}
1000
DIMTZIN
1070
     1
1070
     0
1002
{
1002
}
1000
DIMUNIT
1070
     1
1070
     2
1002
{
1002
}
1000
DIMUPT
1070
     1
1070
     0
1002
{
1002
}
1000
M
1070
     0
1002
{
1000
DIMALTF
1070
     2
1040
0.03937
1002
{
1002
}
1000
DIMAPOST
1070
     4
1000
"
1002
{
1002
}
1000
DIMASZ
1070
     2
1040
2.5
1002
{
1002
}
1000
DIMCEN
1070
     2
1040
0.0
1002
{
1002
}
1000
DIMDEC
1070
     1
1070
     2
1002
{
1002
}
1000
DIMDLI
1070
     2
1040
7.0
1002
{
1002
}
1000
DIMEXE
1070
     2
1040
1.0
1002
{
1002
}
1000
DIMEXO
1070
     2
1040
1.0
1002
{
1002
}
1000
DIMGAP
1070
     2
1040
0.6
1002
{
1002
}
1000
DIMTDEC
1070
     1
1070
     3
1002
{
1002
}
1000
DIMTXT
1070
     2
1040
3.5
1002
{
1002
}
1000
DIMZIN
1070
     1
1070
     8
1002
{
1002
}
1002
}
1000
I
1070
     0
1002
{
1000
DIMALTF
1070
     2
1040
25.4
1002
{
1002
}
1000
DIMAPOST
1070
     4
1000
mm
1002
{
1002
}
1000
DIMASZ
1070
     2
1040
0.1
1002
{
1002
}
1000
DIMCEN
1070
     2
1040
0.0
1002
{
1002
}
1000
DIMDEC
1070
     1
1070
     4
1002
{
1002
}
1000
DIMDLI
1070
     2
1040
0.5
1002
{
1002
}
1000
DIMEXE
1070
     2
1040
0.1
1002
{
1002
}
1000
DIMEXO
1070
     2
1040
0.05
1002
{
1002
}
1000
DIMGAP
1070
     2
1040
0.06
1002
{
1002
}
1000
DIMTDEC
1070
     1
1070
     4
1002
{
1002
}
1000
DIMTXT
1070
     2
1040
0.12
1002
{
1002
}
1000
DIMZIN
1070
     1
1070
     7
1002
{
1002
}
1002
}
1000
GEN-ISO
1070
     5
1002
{
1000
NAME
1070
     4
1000
GEN-ISO
1002
{
1002
}
1000
DIMTAD
1070
     1
1070
     1
1002
{
1002
}
1000
DIMTOLJ
1070
     1
1070
     0
1002
{
1002
}
1000
DIMTOFL
1070
     1
1070
     1
1002
{
1002
}
1000
M
1070
     0
1002
{
1002
}
1000
I
1070
     0
1002
{
1002
}
1002
}
1000
GEN-ISO-POS
1070
     5
1002
{
1000
NAME
1070
     4
1000
GEN-ISO-POS
1002
{
1002
}
1000
DIMTOLJ
1070
     1
1070
     0
1002
{
1002
}
1000
DIMTXSTY
1070
     4
1000
STANDARD
1002
{
1002
}
1000
M
1070
     0
1002
{
1000
DIMASZ
1070
     2
1040
2.5
1002
{
1002
}
1000
DIMGAP
1070
     2
1040
1.5
1002
{
1002
}
1000
DIMTXT
1070
     2
1040
5.0
1002
{
1002
}
1002
}
1000
I
1070
     0
1002
{
1000
DIMASZ
1070
     2
1040
0.1
1002
{
1002
}
1000
DIMGAP
1070
     2
1040
0.06
1002
{
1002
}
1000
DIMTXT
1070
     2
1040
0.2
1002
{
1002
}
1002
}
1002
}
1000
GEN-ISO-CIR
1070
     5
1002
{
1000
NAME
1070
     4
1000
GEN-ISO$3
1002
{
1002
}
1000
DIMFIT
1070
     1
1070
     0
1002
{
1002
}
1000
DIMTAD
1070
     1
1070
     1
1002
{
1002
}
1000
DIMTOH
1070
     1
1070
     1
1002
{
1002
}
1000
DIMTOLJ
1070
     1
1070
     0
1002
{
1002
}
1000
DIMUPT
1070
     1
1070
     1
1002
{
1002
}
1000
M
1070
     0
1002
{
1002
}
1000
I
1070
     0
1002
{
1002
}
1002
}
1000
GEN-ISO-RAD
1070
     5
1002
{
1000
NAME
1070
     4
1000
GEN-ISO$4
1002
{
1002
}
1000
DIMFIT
1070
     1
1070
     0
1002
{
1002
}
1000
DIMTAD
1070
     1
1070
     1
1002
{
1002
}
1000
DIMTIH
1070
     1
1070
     0
1002
{
1002
}
1000
DIMTIX
1070
     1
1070
     0
1002
{
1002
}
1000
DIMTOH
1070
     1
1070
     1
1002
{
1002
}
1000
DIMTOLJ
1070
     1
1070
     0
1002
{
1002
}
1000
DIMTOFL
1070
     1
1070
     0
1002
{
1002
}
1000
DIMUPT
1070
     1
1070
     1
1002
{
1002
}
1000
M
1070
     0
1002
{
1002
}
1000
I
1070
     0
1002
{
1002
}
1002
}
1000
GEN-ISO-ORD
1070
     5
1002
{
1000
NAME
1070
     4
1000
GEN-ISO$6
1002
{
1002
}
1000
DIMTOLJ
1070
     1
1070
     0
1002
{
1002
}
1000
M
1070
     0
1002
{
1002
}
1000
I
1070
     0
1002
{
1002
}
1002
}
1000
GEN-ISO-AXE-F
1070
     5
1002
{
1000
NAME
1070
     4
1000
GEN-ISO-AXE-F
1002
{
1002
}
1000
DIMSE1
1070
     1
1070
     1
1002
{
1002
}
1000
DIMSE2
1070
     1
1070
     1
1002
{
1002
}
1000
DIMTAD
1070
     1
1070
     1
1002
{
1002
}
1000
DIMTOLJ
1070
     1
1070
     0
1002
{
1002
}
1000
DIMTOFL
1070
     1
1070
     1
1002
{
1002
}
1000
M
1070
     0
1002
{
1002
}
1000
I
1070
     0
1002
{
1002
}
1002
}
1000
GEN-ISO-AXE-H
1070
     5
1002
{
1000
NAME
1070
     4
1000
GEN-ISO-AXE-H
1002
{
1002
}
1000
DIMBLK1
1070
     4
1000
GENAXEH
1002
{
1002
}
1000
DIMLFAC
1070
     2
1040
2.0
1002
{
1002
}
1000
DIMSAH
1070
     1
1070
     1
1002
{
1002
}
1000
DIMSE1
1070
     1
1070
     1
1002
{
1002
}
1000
DIMSE2
1070
     1
1070
     1
1002
{
1002
}
1000
DIMTAD
1070
     1
1070
     1
1002
{
1002
}
1000
DIMTOLJ
1070
     1
1070
     0
1002
{
1002
}
1000
DIMTOFL
1070
     1
1070
     1
1002
{
1002
}
1000
M
1070
     0
1002
{
1002
}
1000
I
1070
     0
1002
{
1002
}
1002
}
1000
GEN-ANSI
1070
     5
1002
{
1000
NAME
1070
     4
1000
GEN-ANSI
1002
{
1002
}
1000
DIMTIH
1070
     1
1070
     1
1002
{
1002
}
1000
DIMTOH
1070
     1
1070
     1
1002
{
1002
}
1000
DIMTAD
1070
     1
1070
     0
1002
{
1002
}
1000
DIMTOLJ
1070
     1
1070
     1
1002
{
1002
}
1000
M
1070
     0
1002
{
1002
}
1000
I
1070
     0
1002
{
1002
}
1002
}
1000
GEN-ANSI-POS
1070
     5
1002
{
1000
NAME
1070
     4
1000
GEN-ANSI-POS
1002
{
1002
}
1000
DIMTOLJ
1070
     1
1070
     1
1002
{
1002
}
1000
DIMTXSTY
1070
     4
1000
STANDARD
1002
{
1002
}
1000
M
1070
     0
1002
{
1000
DIMASZ
1070
     2
1040
2.5
1002
{
1002
}
1000
DIMGAP
1070
     2
1040
1.5
1002
{
1002
}
1000
DIMTXT
1070
     2
1040
5.0
1002
{
1002
}
1002
}
1000
I
1070
     0
1002
{
1000
DIMASZ
1070
     2
1040
0.1
1002
{
1002
}
1000
DIMGAP
1070
     2
1040
0.06
1002
{
1002
}
1000
DIMTXT
1070
     2
1040
0.2
1002
{
1002
}
1002
}
1002
}
1000
GEN-ANSI-CIR
1070
     5
1002
{
1000
NAME
1070
     4
1000
GEN-ANSI$3
1002
{
1002
}
1000
DIMFIT
1070
     1
1070
     0
1002
{
1002
}
1000
DIMTAD
1070
     1
1070
     0
1002
{
1002
}
1000
DIMTIH
1070
     1
1070
     1
1002
{
1002
}
1000
DIMTIX
1070
     1
1070
     0
1002
{
1002
}
1000
DIMTOFL
1070
     1
1070
     0
1002
{
1002
}
1000
DIMTOH
1070
     1
1070
     1
1002
{
1002
}
1000
DIMTOLJ
1070
     1
1070
     1
1002
{
1002
}
1000
DIMUPT
1070
     1
1070
     1
1002
{
1002
}
1000
M
1070
     0
1002
{
1002
}
1000
I
1070
     0
1002
{
1002
}
1002
}
1000
GEN-ANSI-RAD
1070
     5
1002
{
1000
NAME
1070
     4
1000
GEN-ANSI$4
1002
{
1002
}
1000
DIMFIT
1070
     1
1070
     0
1002
{
1002
}
1000
DIMTAD
1070
     1
1070
     0
1002
{
1002
}
1000
DIMTIH
1070
     1
1070
     1
1002
{
1002
}
1000
DIMTIX
1070
     1
1070
     0
1002
{
1002
}
1000
DIMTOFL
1070
     1
1070
     0
1002
{
1002
}
1000
DIMTOH
1070
     1
1070
     1
1002
{
1002
}
1000
DIMTOLJ
1070
     1
1070
     1
1002
{
1002
}
1000
DIMUPT
1070
     1
1070
     1
1002
{
1002
}
1000
M
1070
     0
1002
{
1002
}
1000
I
1070
     0
1002
{
1002
}
1002
}
1000
GEN-ANSI-ORD
1070
     5
1002
{
1000
NAME
1070
     4
1000
GEN-ANSI$6
1002
{
1002
}
1000
DIMTAD
1070
     1
1070
     0
1002
{
1002
}
1000
DIMTIH
1070
     1
1070
     1
1002
{
1002
}
1000
DIMTOH
1070
     1
1070
     1
1002
{
1002
}
1000
DIMTOLJ
1070
     1
1070
     1
1002
{
1002
}
1000
M
1070
     0
1002
{
1002
}
1000
I
1070
     0
1002
{
1002
}
1002
}
1000
GEN-ANSI-AXE-F
1070
     5
1002
{
1000
NAME
1070
     4
1000
GEN-ANSI-AXE-F
1002
{
1002
}
1000
DIMBLK1
1070
     4
1000
GENAXEH
1002
{
1002
}
1000
DIMSAH
1070
     1
1070
     1
1002
{
1002
}
1000
DIMSE1
1070
     1
1070
     1
1002
{
1002
}
1000
DIMSE2
1070
     1
1070
     1
1002
{
1002
}
1000
DIMTAD
1070
     1
1070
     0
1002
{
1002
}
1000
DIMTIH
1070
     1
1070
     1
1002
{
1002
}
1000
DIMTOH
1070
     1
1070
     1
1002
{
1002
}
1000
DIMTOLJ
1070
     1
1070
     1
1002
{
1002
}
1000
M
1070
     0
1002
{
1002
}
1000
I
1070
     0
1002
{
1002
}
1002
}
1000
GEN-ANSI-AXE-H
1070
     5
1002
{
1000
NAME
1070
     4
1000
GEN-ANSI-AXE-H
1002
{
1002
}
1000
DIMBLK1
1070
     4
1000
GENAXEH
1002
{
1002
}
1000
DIMLFAC
1070
     2
1040
2.0
1002
{
1002
}
1000
DIMSAH
1070
     1
1070
     1
1002
{
1002
}
1000
DIMSE1
1070
     1
1070
     1
1002
{
1002
}
1000
DIMSE2
1070
     1
1070
     1
1002
{
1002
}
1000
DIMTAD
1070
     1
1070
     0
1002
{
1002
}
1000
DIMTOFL
1070
     1
1070
     1
1002
{
1002
}
1000
DIMTOLJ
1070
     1
1070
     1
1002
{
1002
}
1000
M
1070
     0
1002
{
1002
}
1000
I
1070
     0
1002
{
1002
}
1002
}
1002
}
1000
DimSet
1070
     0
1002
{
1000
ChainSum
1070
     3
1070
     0
1002
{
1002
}
1000
DimDclTyp0
1070
     4
1000
dim23
1002
{
1002
}
1000
HorBra
1070
     3
1070
     0
1002
{
1002
}
1000
StrDia
1070
     4
1000
%%c<>
1002
{
1002
}
1000
StrRad
1070
     4
1000
R<>
1002
{
1002
}
1000
TextMinus
1070
     4
1000
<>
1002
{
1002
}
1000
TextPlus
1070
     4
1000
<>
1002
{
1002
}
1000
M
1070
     0
1002
{
1000
DimdliFirst
1070
     2
1040
10.0
1002
{
1002
}
1000
PointMakeDist
1070
     2
1040
10.0
1002
{
1002
}
1002
}
1000
I
1070
     0
1002
{
1000
DimdliFirst
1070
     2
1040
0.5
1002
{
1002
}
1000
PointMakeDist
1070
     2
1040
0.5
1002
{
1002
}
1002
}
1000
FitGrade
1070
     4
1000
h7
1002
{
1002
}
1002
}
1000
Drawing
1070
     0
1002
{
1000
ChamferDimMode
1070
     1
1070
     2
1002
{
1002
}
1000
Gen_Fiso
1070
    -3
1040
1.0
1002
{
1002
}
1000
GenDimStil
1070
     4
1000
ISO
1002
{
1002
}
1000
GenDwgUScale
1070
     2
1040
1.0
1002
{
1002
}
1000
GenInch
1070
     4
1000
M
1002
{
1002
}
1000
GenPlotScale
1070
     4
1000
1:5
1002
{
1002
}
1000
Revisi
1070
     4
1000
0
1002
{
1002
}
1002
}
1000
DwgVar
1070
     0
1002
{
1000
M
1070
     0
1002
{
1002
}
1000
I
1070
     0
1002
{
1002
}
1002
}
1000
Hatch
1070
     0
1002
{
1000
GenHtcFlag
1070
     3
1070
     0
1002
{
1002
}
1002
}
1000
Info_Pos
1070
     0
1002
{
1000
>
1002
}
1000
Layer
1070
     7
1002
{
1000
Defs
1070
     0
1002
{
1000
>
1002
}
1000
EntSort
1070
     0
1002
{
1000
>
1002
}
1000
Match
1070
     0
1002
{
1002
}
1000
Settings
1070
     0
1002
{
1000
FocGrNC
1070
     3
1070
     0
1002
{
1002
}
1000
FocGrLo
1070
     3
1070
     0
1002
{
1002
}
1000
FocLoNC
1070
     3
1070
     0
1002
{
1002
}
1000
FocusCol
1070
     1
1070
   253
1002
{
1002
}
1000
GenStdLG
1070
     4
1000

1002
{
1002
}
1000
LayMatch
1070
     3
1070
     0
1002
{
1002
}
1000
LgOff
1070
     3
1070
     0
1002
{
1002
}
1000
CurLG
1070
    -5
1000

1002
{
1002
}
1002
}
1002
}
1000
LType
1070
     0
1002
{
1000
GEN3
1070
    10
1000
genius.lin
1002
{
1002
}
1000
GEN7
1070
    10
1000
genius.lin
1002
{
1002
}
1000
GEN4A
1070
    10
1000
genius.lin
1002
{
1002
}
1000
GEN3A
1070
    10
1000
genius.lin
1002
{
1002
}
1000
GEN7A
1070
    10
1000
genius.lin
1002
{
1002
}
1000
GENZIGZAG
1070
    10
1000
genius.lin
1002
{
1002
}
1002
}
1000
Objecter
1070
     0
1002
{
1000
CreateGroups
1070
     3
1070
     0
1002
{
1002
}
1000
LaySwitch
1070
     3
1070
     1
1002
{
1002
}
1000
LastObj
1070
    -5
1000
50BC
1002
{
1002
}
1000
TimeStamp
1070
    -5
1000
20030124.14162804
1002
{
1002
}
1002
}
1000
OSWiz
1070
     0
1002
{
1000
Filter
1070
     0
1002
{
1000
HATCH
1070
    11
1002
{
1000
EntityType
1070
     4
1000
LINE
1002
{
1002
}
1000
Layer
1070
     4
1000
8,8N,*-8,*-8N
1002
{
1002
}
1000
Linetype
1070
     4
1000
*
1002
{
1002
}
1000
Color
1070
     4
1000
*
1002
{
1002
}
1000
ApplyInDims
1070
     3
1070
     1
1002
{
1002
}
1002
}
1000
SYMBOLS
1070
    11
1002
{
1000
EntityType
1070
     4
1000
*
1002
{
1002
}
1000
Layer
1070
     4
1000
[5-6],[5-6]N,*-[5-6],*-[5-6]N
1002
{
1002
}
1000
Linetype
1070
     4
1000
*
1002
{
1002
}
1000
Color
1070
     4
1000
*
1002
{
1002
}
1000
ApplyInDims
1070
     3
1070
     1
1002
{
1002
}
1002
}
1000
FEM
1070
    11
1002
{
1000
EntityType
1070
     4
1000
*
1002
{
1002
}
1000
Layer
1070
     4
1000
4A,4AN,*-4A,*-4AN
1002
{
1002
}
1000
Linetype
1070
     4
1000
*
1002
{
1002
}
1000
Color
1070
     4
1000
*
1002
{
1002
}
1000
ApplyInDims
1070
     3
1070
     1
1002
{
1002
}
1002
}
1002
}
1002
}
1000
PaList
1070
     0
1002
{
1000
AutoUpdatePartList
1070
     1
1070
     0
1002
{
1002
}
1000
ReadInfoPoint
1070
     3
1070
     0
1002
{
1002
}
1000
ReadPosNr
1070
     3
1070
     1
1002
{
1002
}
1000
RevStr
1070
     4
1000
0
1002
{
1002
}
1002
}
1000
Paper
1070
     0
1002
{
1002
}
1000
PartDB
1070
     0
1002
{
1000
GenDbOwner
1070
     4
1000

1002
{
1002
}
1002
}
1000
System
1070
     0
1002
{
1002
}
1000
Title
1070
     0
1002
{
1000
MakeView
1070
     1
1070
     2
1002
{
1002
}
1002
}
1000
Tools
1070
     0
1002
{
1000
Trans
1070
     0
1002
{
1000
Drawingtranslation
1070
    -4
1070
     1
1002
{
1002
}
1000
upreserve
1070
     3
1070
     0
1002
{
1002
}
1000
originally_on
1070
    -4
1070
     0
1002
{
1002
}
1000
sourcelang
1070
    -5
1000
D
1002
{
1002
}
1002
}
1002
}
  0
APPID
  5
5180
330
5132
100
AcDbSymbolTableRecord
100
AcDbRegAppTableRecord
  2
GEV_VCCNULL_SWITCH_OFF
 70
     0
  0
APPID
  5
5181
330
5132
100
AcDbSymbolTableRecord
100
AcDbRegAppTableRecord
  2
GENIUS_GENDTOL_13
 70
     0
  0
APPID
  5
5182
330
5132
100
AcDbSymbolTableRecord
100
AcDbRegAppTableRecord
  2
GENIUS_GENREC_13
 70
     0
  0
APPID
  5
5183
330
5132
100
AcDbSymbolTableRecord
100
AcDbRegAppTableRecord
  2
GENIUS_GENOBJ-N-REC_13
 70
     0
  0
APPID
  5
5184
330
5132
100
AcDbSymbolTableRecord
100
AcDbRegAppTableRecord
  2
GENIUS_GENOBJ-N-CRS_13
 70
     0
  0
APPID
  5
5185
330
5132
100
AcDbSymbolTableRecord
100
AcDbRegAppTableRecord
  2
GENIUS_GEFCFG0_13
 70
     0
  0
APPID
  5
51B5
330
5132
100
AcDbSymbolTableRecord
100
AcDbRegAppTableRecord
  2
MCAD_NO_VIS
 70
     0
  0
APPID
  5
51B6
330
5132
100
AcDbSymbolTableRecord
100
AcDbRegAppTableRecord
  2
ACAD_TEMP_GRAPHIC
 70
     0
  0
APPID
  5
51E6
330
5132
100
AcDbSymbolTableRecord
100
AcDbRegAppTableRecord
  2
AD_DRAW
 70
     0
  0
APPID
  5
51E9
330
5132
100
AcDbSymbolTableRecord
100
AcDbRegAppTableRecord
  2
ACATTRIBSERVICES
 70
     0
  0
APPID
  5
5209
330
5132
100
AcDbSymbolTableRecord
100
AcDbRegAppTableRecord
  2
DESIGNERASSEMBLIES
 70
     0
  0
APPID
  5
520F
330
5132
100
AcDbSymbolTableRecord
100
AcDbRegAppTableRecord
  2
ACADM_DIM_EDIT
 70
     0
  0
APPID
  5
5210
330
5132
100
AcDbSymbolTableRecord
100
AcDbRegAppTableRecord
  2
AMDT_DM_ADJ
 70
     0
  0
APPID
  5
5242
330
5132
100
AcDbSymbolTableRecord
100
AcDbRegAppTableRecord
  2
ACAD_DSTYLE_DIMARC_LENGTH_SYMBOL
 70
     0
  0
APPID
  5
5243
330
5132
100
AcDbSymbolTableRecord
100
AcDbRegAppTableRecord
  2
ACAD_DSTYLE_DIMJOGGED_JOGANGLE_SYMBOL
 70
     0
  0
APPID
  5
5276
330
5132
100
AcDbSymbolTableRecord
100
AcDbRegAppTableRecord
  2
GENIUS_GENSCREG_15
 70
     0
  0
APPID
  5
5277
330
5132
100
AcDbSymbolTableRecord
100
AcDbRegAppTableRecord
  2
GENIUS_GENOBJ-N-SDF_13
 70
     0
  0
ENDTAB
  0
TABLE
  2
DIMSTYLE
  5
5133
330
0
100
AcDbSymbolTable
 70
     8
100
AcDbDimStyleTable
 71
     0
  0
DIMSTYLE
105
5186
102
{ACAD_REACTORS
330
4E0E
330
4E40
330
4E82
330
4EE2
330
4EFF
330
4F27
330
4F51
330
4F84
330
501F
102
}
330
5133
100
AcDbSymbolTableRecord
100
AcDbDimStyleTableRecord
  2
GEN-ISO
 70
     0
  3
<>
 40
5.0
 41
2.5
 42
1.0
 43
7.0
 44
1.0
 47
0.1
 48
0.1
 73
     0
 74
     0
 77
     1
 78
     8
140
3.5
141
0.0
143
0.03937
146
0.71
147
0.6
172
     1
176
   256
177
   256
178
     2
271
     2
272
     2
284
     8
285
     8
286
     8
340
5138
  0
DIMSTYLE
105
5241
330
5133
100
AcDbSymbolTableRecord
100
AcDbDimStyleTableRecord
  2
AM_DIN
 70
     0
  4
"
 41
2.5
 42
1.0
 43
10.0
 44
1.0
 47
0.1
 48
0.1
 73
     0
 74
     0
 77
     1
 78
     8
 79
     2
140
3.5
141
0.0
143
0.0393701
146
0.71
147
1.5
172
     1
176
   256
177
   256
178
     2
271
     2
272
     3
274
     4
283
     0
284
     8
340
5138
371
    -1
372
    -1
1001
ACAD_DSTYLE_DIMARC_LENGTH_SYMBOL
1070
   379
1070
     0
1001
ACAD_DSTYLE_DIMJOGGED_JOGANGLE_SYMBOL
1070
   384
1040
1.570796326794896
  0
DIMSTYLE
105
5252
330
5133
100
AcDbSymbolTableRecord
100
AcDbDimStyleTableRecord
  2
AM_DIN$3
 70
     0
  4
"
 41
2.5
 42
1.0
 43
10.0
 44
1.0
 47
0.1
 48
0.1
 73
     0
 77
     1
 78
     8
 79
     2
140
3.5
141
0.0
143
0.0393701
146
0.71
147
1.5
176
   256
177
   256
178
     2
271
     2
272
     3
274
     4
283
     0
284
     8
288
     1
289
     0
340
5138
371
    -1
372
    -1
1001
ACAD_DSTYLE_DIMARC_LENGTH_SYMBOL
1070
   379
1070
     0
1001
ACAD_DSTYLE_DIMJOGGED_JOGANGLE_SYMBOL
1070
   384
1040
1.570796326794896
  0
DIMSTYLE
105
5257
330
5133
100
AcDbSymbolTableRecord
100
AcDbDimStyleTableRecord
  2
AM_DIN$4
 70
     0
  4
"
 41
2.5
 42
1.0
 43
10.0
 44
1.0
 47
0.1
 48
0.1
 73
     0
 77
     1
 78
     8
 79
     2
140
3.5
141
0.0
143
0.0393701
146
0.71
147
1.5
176
   256
177
   256
178
     2
271
     2
272
     3
274
     4
283
     0
284
     8
288
     1
289
     0
340
5138
371
    -1
372
    -1
1001
ACAD_DSTYLE_DIMARC_LENGTH_SYMBOL
1070
   379
1070
     0
1001
ACAD_DSTYLE_DIMJOGGED_JOGANGLE_SYMBOL
1070
   384
1040
1.570796326794896
  0
DIMSTYLE
105
525C
330
5133
100
AcDbSymbolTableRecord
100
AcDbDimStyleTableRecord
  2
AM_DIN$6
 70
     0
  4
"
 41
2.5
 42
1.0
 43
10.0
 44
1.0
 47
0.1
 48
0.1
 73
     0
 74
     0
 78
     8
 79
     2
140
3.5
141
0.0
143
0.0393701
146
0.71
147
1.5
172
     1
176
   256
177
   256
178
     2
271
     2
272
     3
274
     4
283
     0
284
     8
340
5138
371
    -1
372
    -1
1001
ACAD_DSTYLE_DIMARC_LENGTH_SYMBOL
1070
   379
1070
     0
1001
ACAD_DSTYLE_DIMJOGGED_JOGANGLE_SYMBOL
1070
   384
1040
1.570796326794896
  0
DIMSTYLE
105
5261
330
5133
100
AcDbSymbolTableRecord
100
AcDbDimStyleTableRecord
  2
AM_DIN$7
 70
     0
  4
"
 41
2.5
 42
1.0
 43
10.0
 44
1.0
 47
0.1
 48
0.1
 73
     0
 74
     0
 77
     1
 78
     8
 79
     2
140
5.0
141
0.0
143
0.0393701
146
0.71
147
1.5
172
     1
176
   256
177
   256
178
     2
271
     2
272
     3
274
     4
283
     0
284
     8
340
5138
371
    -1
372
    -1
1001
ACAD_DSTYLE_DIMARC_LENGTH_SYMBOL
1070
   379
1070
     0
1001
ACAD_DSTYLE_DIMJOGGED_JOGANGLE_SYMBOL
1070
   384
1040
1.570796326794896
  0
DIMSTYLE
105
5266
330
5133
100
AcDbSymbolTableRecord
100
AcDbDimStyleTableRecord
  2
AM_DIN$SF
 70
     0
  4
"
 41
2.5
 42
1.0
 43
10.0
 44
1.0
 47
0.1
 48
0.1
 73
     0
 74
     0
 75
     1
 76
     1
 77
     1
 78
     8
 79
     2
140
3.5
141
0.0
143
0.0393701
146
0.71
147
1.5
172
     1
176
   256
177
   256
178
     2
271
     2
272
     3
274
     4
283
     0
284
     8
340
5138
371
    -1
372
    -1
1001
ACAD_DSTYLE_DIMARC_LENGTH_SYMBOL
1070
   379
1070
     0
1001
ACAD_DSTYLE_DIMJOGGED_JOGANGLE_SYMBOL
1070
   384
1040
1.570796326794896
  0
DIMSTYLE
105
526F
330
5133
100
AcDbSymbolTableRecord
100
AcDbDimStyleTableRecord
  2
AM_DIN$SH
 70
     0
  4
"
 41
2.5
 42
1.0
 43
10.0
 44
1.0
 47
0.1
 48
0.1
 73
     0
 74
     0
 75
     1
 76
     1
 77
     1
 78
     8
 79
     2
140
3.5
141
0.0
143
0.0393701
144
2.0
146
0.71
147
1.5
172
     1
173
     1
176
   256
177
   256
178
     2
271
     2
272
     3
274
     4
283
     0
284
     8
340
5138
343
5267
371
    -1
372
    -1
1001
ACAD_DSTYLE_DIMARC_LENGTH_SYMBOL
1070
   379
1070
     0
1001
ACAD_DSTYLE_DIMJOGGED_JOGANGLE_SYMBOL
1070
   384
1040
1.570796326794896
  0
ENDTAB
  0
TABLE
  2
BLOCK_RECORD
  5
512A
330
0
100
AcDbSymbolTable
 70
    18
  0
BLOCK_RECORD
  5
5140
330
512A
100
AcDbSymbolTableRecord
100
AcDbBlockTableRecord
  2
*MODEL_SPACE
340
51AD
  0
BLOCK_RECORD
  5
513D
330
512A
100
AcDbSymbolTableRecord
100
AcDbBlockTableRecord
  2
*PAPER_SPACE
340
51AE
  0
BLOCK_RECORD
  5
5157
330
512A
100
AcDbSymbolTableRecord
100
AcDbBlockTableRecord
  2
*X0
340
0
102
{BLKREFS
331
4CFB
102
}
  0
BLOCK_RECORD
  5
5158
330
512A
100
AcDbSymbolTableRecord
100
AcDbBlockTableRecord
  2
*X1
340
0
102
{BLKREFS
331
4D15
102
}
  0
BLOCK_RECORD
  5
5159
330
512A
100
AcDbSymbolTableRecord
100
AcDbBlockTableRecord
  2
*X2
340
0
102
{BLKREFS
331
4D2F
102
}
  0
BLOCK_RECORD
  5
515A
330
512A
100
AcDbSymbolTableRecord
100
AcDbBlockTableRecord
  2
*X3
340
0
102
{BLKREFS
331
4D5E
102
}
  0
BLOCK_RECORD
  5
515B
330
512A
100
AcDbSymbolTableRecord
100
AcDbBlockTableRecord
  2
*X4
340
0
102
{BLKREFS
331
4D84
102
}
  0
BLOCK_RECORD
  5
515C
330
512A
100
AcDbSymbolTableRecord
100
AcDbBlockTableRecord
  2
*X5
340
0
102
{BLKREFS
331
4DB4
102
}
  0
BLOCK_RECORD
  5
515D
330
512A
100
AcDbSymbolTableRecord
100
AcDbBlockTableRecord
  2
*X6
340
0
102
{BLKREFS
331
4DF1
102
}
  0
BLOCK_RECORD
  5
515E
330
512A
100
AcDbSymbolTableRecord
100
AcDbBlockTableRecord
  2
*D7
340
0
  0
BLOCK_RECORD
  5
515F
330
512A
100
AcDbSymbolTableRecord
100
AcDbBlockTableRecord
  2
*D8
340
0
  0
BLOCK_RECORD
  5
5160
330
512A
100
AcDbSymbolTableRecord
100
AcDbBlockTableRecord
  2
*D9
340
0
  0
BLOCK_RECORD
  5
5161
330
512A
100
AcDbSymbolTableRecord
100
AcDbBlockTableRecord
  2
*D10
340
0
  0
BLOCK_RECORD
  5
5162
330
512A
100
AcDbSymbolTableRecord
100
AcDbBlockTableRecord
  2
*D11
340
0
  0
BLOCK_RECORD
  5
5163
330
512A
100
AcDbSymbolTableRecord
100
AcDbBlockTableRecord
  2
*D12
340
0
  0
BLOCK_RECORD
  5
5164
330
512A
100
AcDbSymbolTableRecord
100
AcDbBlockTableRecord
  2
*D13
340
0
  0
BLOCK_RECORD
  5
5165
330
512A
100
AcDbSymbolTableRecord
100
AcDbBlockTableRecord
  2
*D14
340
0
  0
BLOCK_RECORD
  5
5167
330
512A
100
AcDbSymbolTableRecord
100
AcDbBlockTableRecord
  2
*D15
340
0
  0
BLOCK_RECORD
  5
5267
330
512A
100
AcDbSymbolTableRecord
100
AcDbBlockTableRecord
  2
GENAXEH
340
0
  0
ENDTAB
  0
ENDSEC
  0
SECTION
  2
BLOCKS
  0
BLOCK
  5
5198
330
5140
100
AcDbEntity
  8
0
100
AcDbBlockBegin
  2
*MODEL_SPACE
 70
     0
 10
0.0
 20
0.0
 30
0.0
  3
*MODEL_SPACE
  1

  0
ENDBLK
  5
5199
330
5140
100
AcDbEntity
  8
0
100
AcDbBlockEnd
  0
BLOCK
  5
5196
330
513D
100
AcDbEntity
 67
     1
  8
0
100
AcDbBlockBegin
  2
*PAPER_SPACE
 70
     0
 10
0.0
 20
0.0
 30
0.0
  3
*PAPER_SPACE
  1

  0
ENDBLK
  5
5197
330
513D
100
AcDbEntity
 67
     1
  8
0
100
AcDbBlockEnd
  0
BLOCK
  5
4CFA
330
5157
100
AcDbEntity
  8
0
100
AcDbBlockBegin
  2
*X0
 70
     1
 10
0.0
 20
0.0
 30
0.0
  3
*X0
  1
GEVFRAME
  0
LINE
  5
4CFC
330
5157
100
AcDbEntity
  8
0
 62
     0
100
AcDbLine
 10
886.4738480000001
 20
1611.258299
 30
0.0
 11
896.2251440000001
 21
1621.009594
 31
0.0
  0
LINE
  5
4CFD
330
5157
100
AcDbEntity
  8
0
 62
     0
100
AcDbLine
 10
868.7961789999999
 20
1611.258299
 30
0.0
 11
878.5474739999999
 21
1621.009594
 31
0.0
  0
LINE
  5
4CFE
330
5157
100
AcDbEntity
  8
0
 62
     0
100
AcDbLine
 10
851.1185089999999
 20
1611.258299
 30
0.0
 11
860.869805
 21
1621.009594
 31
0.0
  0
LINE
  5
4CFF
330
5157
100
AcDbEntity
  8
0
 62
     0
100
AcDbLine
 10
833.44084
 20
1611.258299
 30
0.0
 11
843.1921349999999
 21
1621.009594
 31
0.0
  0
LINE
  5
4D00
330
5157
100
AcDbEntity
  8
0
 62
     0
100
AcDbLine
 10
810.76317
 20
1606.258299
 30
0.0
 11
825.5144650000001
 21
1621.009594
 31
0.0
  0
LINE
  5
4D01
330
5157
100
AcDbEntity
  8
0
 62
     0
100
AcDbLine
 10
793.085501
 20
1606.258299
 30
0.0
 11
807.8367960000001
 21
1621.009594
 31
0.0
  0
LINE
  5
4D02
330
5157
100
AcDbEntity
  8
0
 62
     0
100
AcDbLine
 10
779.642873
 20
1610.493341
 30
0.0
 11
782.4078309999999
 21
1613.258299
 31
0.0
  0
LINE
  5
4D03
330
5157
100
AcDbEntity
  8
0
 62
     0
100
AcDbLine
 10
904.1515180000001
 20
1611.258299
 30
0.0
 11
913.9028129999999
 21
1621.009594
 31
0.0
  0
LINE
  5
4D04
330
5157
100
AcDbEntity
  8
0
 62
     0
100
AcDbLine
 10
921.8291869999999
 20
1611.258299
 30
0.0
 11
931.5804829999999
 21
1621.009594
 31
0.0
  0
LINE
  5
4D05
330
5157
100
AcDbEntity
  8
0
 62
     0
100
AcDbLine
 10
939.229223
 20
1610.980665
 30
0.0
 11
949.2581519999999
 21
1621.009594
 31
0.0
  0
LINE
  5
4D06
330
5157
100
AcDbEntity
  8
0
 62
     0
100
AcDbLine
 10
949.184527
 20
1603.258299
 30
0.0
 11
966.9358220000001
 21
1621.009594
 31
0.0
  0
LINE
  5
4D07
330
5157
100
AcDbEntity
  8
0
 62
     0
100
AcDbLine
 10
976.617148
 20
1613.013251
 30
0.0
 11
981.5856
 21
1617.981703
 31
0.0
  0
ENDBLK
  5
4D08
330
5157
100
AcDbEntity
  8
0
100
AcDbBlockEnd
  0
BLOCK
  5
4D14
330
5158
100
AcDbEntity
  8
0
100
AcDbBlockBegin
  2
*X1
 70
     1
 10
0.0
 20
0.0
 30
0.0
  3
*X1
  1
GEVFRAME
  0
LINE
  5
4D16
330
5158
100
AcDbEntity
  8
0
 62
     0
100
AcDbLine
 10
755.4039849999999
 20
1603.932123
 30
0.0
 11
764.730162
 21
1613.258299
 31
0.0
  0
LINE
  5
4D17
330
5158
100
AcDbEntity
  8
0
 62
     0
100
AcDbLine
 10
753.981814
 20
1620.187621
 30
0.0
 11
754.803787
 21
1621.009594
 31
0.0
  0
ENDBLK
  5
4D18
330
5158
100
AcDbEntity
  8
0
100
AcDbBlockEnd
  0
BLOCK
  5
4D2E
330
5159
100
AcDbEntity
  8
0
100
AcDbBlockBegin
  2
*X2
 70
     1
 10
0.0
 20
0.0
 30
0.0
  3
*X2
  1
GEVFRAME
  0
LINE
  5
4D30
330
5159
100
AcDbEntity
  8
0
 62
     0
100
AcDbLine
 10
665.566878
 20
1408.028998
 30
0.0
 11
669.1024119999999
 21
1411.564532
 31
0.0
  0
LINE
  5
4D31
330
5159
100
AcDbEntity
  8
0
 62
     0
100
AcDbLine
 10
656.9457449999999
 20
1417.085535
 30
0.0
 11
660.4888019999999
 21
1420.628592
 31
0.0
  0
LINE
  5
4D32
330
5159
100
AcDbEntity
  8
0
 62
     0
100
AcDbLine
 10
649.047313
 20
1426.864772
 30
0.0
 11
652.623246
 21
1430.440705
 31
0.0
  0
LINE
  5
4D33
330
5159
100
AcDbEntity
  8
0
 62
     0
100
AcDbLine
 10
641.9116209999999
 20
1437.40675
 30
0.0
 11
645.548703
 21
1441.043832
 31
0.0
  0
LINE
  5
4D34
330
5159
100
AcDbEntity
  8
0
 62
     0
100
AcDbLine
 10
635.5773629999999
 20
1448.750161
 30
0.0
 11
639.30834
 21
1452.481138
 31
0.0
  0
LINE
  5
4D35
330
5159
100
AcDbEntity
  8
0
 62
     0
100
AcDbLine
 10
630.106387
 20
1460.956855
 30
0.0
 11
633.9717049999999
 21
1464.822172
 31
0.0
  0
LINE
  5
4D36
330
5159
100
AcDbEntity
  8
0
 62
     0
100
AcDbLine
 10
625.5924269999999
 20
1474.120564
 30
0.0
 11
629.645474
 21
1478.173611
 31
0.0
  0
LINE
  5
4D37
330
5159
100
AcDbEntity
  8
0
 62
     0
100
AcDbLine
 10
622.1771379999999
 20
1488.382945
 30
0.0
 11
626.4937599999999
 21
1492.699567
 31
0.0
  0
LINE
  5
4D38
330
5159
100
AcDbEntity
  8
0
 62
     0
100
AcDbLine
 10
620.0813469999999
 20
1503.964823
 30
0.0
 11
624.7792839999999
 21
1508.66276
 31
0.0
  0
LINE
  5
4D39
330
5159
100
AcDbEntity
  8
0
 62
     0
100
AcDbLine
 10
619.586281
 20
1521.147427
 30
0.0
 11
624.586281
 21
1526.147427
 31
0.0
  0
LINE
  5
4D3A
330
5159
100
AcDbEntity
  8
0
 62
     0
100
AcDbLine
 10
619.586281
 20
1538.825097
 30
0.0
 11
624.586281
 21
1543.825097
 31
0.0
  0
LINE
  5
4D3B
330
5159
100
AcDbEntity
  8
0
 62
     0
100
AcDbLine
 10
619.586281
 20
1556.502766
 30
0.0
 11
624.586281
 21
1561.502766
 31
0.0
  0
LINE
  5
4D3C
330
5159
100
AcDbEntity
  8
0
 62
     0
100
AcDbLine
 10
611.743282
 20
1566.337436
 30
0.0
 11
616.41544
 21
1571.009594
 31
0.0
  0
LINE
  5
4D3D
330
5159
100
AcDbEntity
  8
0
 62
     0
100
AcDbLine
 10
608.00755
 20
1580.279375
 30
0.0
 11
612.090033
 21
1584.361857
 31
0.0
  0
LINE
  5
4D3E
330
5159
100
AcDbEntity
  8
0
 62
     0
100
AcDbLine
 10
604.271819
 20
1594.221313
 30
0.0
 11
608.3543019999999
 21
1598.303796
 31
0.0
  0
LINE
  5
4D3F
330
5159
100
AcDbEntity
  8
0
 62
     0
100
AcDbLine
 10
600.5360879999999
 20
1608.163251
 30
0.0
 11
604.6185709999999
 21
1612.245734
 31
0.0
  0
LINE
  5
4D40
330
5159
100
AcDbEntity
  8
0
 62
     0
100
AcDbLine
 10
595.2169809999999
 20
1620.521814
 30
0.0
 11
595.7047619999999
 21
1621.009594
 31
0.0
  0
LINE
  5
4D41
330
5159
100
AcDbEntity
  8
0
 62
     0
100
AcDbLine
 10
674.4057119999999
 20
1399.190163
 30
0.0
 11
677.9412459999999
 21
1402.725697
 31
0.0
  0
LINE
  5
4D42
330
5159
100
AcDbEntity
  8
0
 62
     0
100
AcDbLine
 10
683.244547
 20
1390.351328
 30
0.0
 11
686.780081
 21
1393.886862
 31
0.0
  0
LINE
  5
4D43
330
5159
100
AcDbEntity
  8
0
 62
     0
100
AcDbLine
 10
692.083382
 20
1381.512494
 30
0.0
 11
695.618916
 21
1385.048027
 31
0.0
  0
LINE
  5
4D44
330
5159
100
AcDbEntity
  8
0
 62
     0
100
AcDbLine
 10
700.9222170000001
 20
1372.673659
 30
0.0
 11
704.457751
 21
1376.209193
 31
0.0
  0
LINE
  5
4D45
330
5159
100
AcDbEntity
  8
0
 62
     0
100
AcDbLine
 10
709.7610509999999
 20
1363.834824
 30
0.0
 11
713.2965849999999
 21
1367.370358
 31
0.0
  0
LINE
  5
4D46
330
5159
100
AcDbEntity
  8
0
 62
     0
100
AcDbLine
 10
718.599886
 20
1354.995989
 30
0.0
 11
722.13542
 21
1358.531523
 31
0.0
  0
LINE
  5
4D47
330
5159
100
AcDbEntity
  8
0
 62
     0
100
AcDbLine
 10
727.438721
 20
1346.157155
 30
0.0
 11
730.974255
 21
1349.692688
 31
0.0
  0
LINE
  5
4D48
330
5159
100
AcDbEntity
  8
0
 62
     0
100
AcDbLine
 10
736.277556
 20
1337.31832
 30
0.0
 11
739.8130899999999
 21
1340.853854
 31
0.0
  0
LINE
  5
4D49
330
5159
100
AcDbEntity
  8
0
 62
     0
100
AcDbLine
 10
745.116391
 20
1328.479485
 30
0.0
 11
748.6519239999999
 21
1332.015019
 31
0.0
  0
LINE
  5
4D4A
330
5159
100
AcDbEntity
  8
0
 62
     0
100
AcDbLine
 10
753.955225
 20
1319.64065
 30
0.0
 11
757.490759
 21
1323.176184
 31
0.0
  0
LINE
  5
4D4B
330
5159
100
AcDbEntity
  8
0
 62
     0
100
AcDbLine
 10
757.586281
 20
1305.594037
 30
0.0
 11
762.586281
 21
1310.594037
 31
0.0
  0
LINE
  5
4D4C
330
5159
100
AcDbEntity
  8
0
 62
     0
100
AcDbLine
 10
757.586281
 20
1287.916367
 30
0.0
 11
762.586281
 21
1292.916367
 31
0.0
  0
LINE
  5
4D4D
330
5159
100
AcDbEntity
  8
0
 62
     0
100
AcDbLine
 10
757.586281
 20
1270.238698
 30
0.0
 11
762.586281
 21
1275.238698
 31
0.0
  0
LINE
  5
4D4E
330
5159
100
AcDbEntity
  8
0
 62
     0
100
AcDbLine
 10
757.586281
 20
1252.561028
 30
0.0
 11
762.586281
 21
1257.561028
 31
0.0
  0
ENDBLK
  5
4D4F
330
5159
100
AcDbEntity
  8
0
100
AcDbBlockEnd
  0
BLOCK
  5
4D5D
330
515A
100
AcDbEntity
  8
0
100
AcDbBlockBegin
  2
*X3
 70
     1
 10
0.0
 20
0.0
 30
0.0
  3
*X3
  1
GEVFRAME
  0
LINE
  5
4D5F
330
515A
100
AcDbEntity
  8
0
 62
     0
100
AcDbLine
 10
962.586281
 20
1404.528019
 30
0.0
 11
967.5862810000001
 21
1409.528019
 31
0.0
  0
LINE
  5
4D60
330
515A
100
AcDbEntity
  8
0
 62
     0
100
AcDbLine
 10
962.586281
 20
1422.205689
 30
0.0
 11
967.5862810000001
 21
1427.205689
 31
0.0
  0
LINE
  5
4D61
330
515A
100
AcDbEntity
  8
0
 62
     0
100
AcDbLine
 10
962.586281
 20
1439.883358
 30
0.0
 11
967.5862810000001
 21
1444.883358
 31
0.0
  0
LINE
  5
4D62
330
515A
100
AcDbEntity
  8
0
 62
     0
100
AcDbLine
 10
962.586281
 20
1457.561028
 30
0.0
 11
967.5862810000001
 21
1462.561028
 31
0.0
  0
LINE
  5
4D63
330
515A
100
AcDbEntity
  8
0
 62
     0
100
AcDbLine
 10
962.586281
 20
1475.238698
 30
0.0
 11
967.5862810000001
 21
1480.238698
 31
0.0
  0
LINE
  5
4D64
330
515A
100
AcDbEntity
  8
0
 62
     0
100
AcDbLine
 10
962.586281
 20
1492.916367
 30
0.0
 11
967.5862810000001
 21
1497.916367
 31
0.0
  0
LINE
  5
4D65
330
515A
100
AcDbEntity
  8
0
 62
     0
100
AcDbLine
 10
962.586281
 20
1510.594037
 30
0.0
 11
967.5862810000001
 21
1515.594037
 31
0.0
  0
LINE
  5
4D66
330
515A
100
AcDbEntity
  8
0
 62
     0
100
AcDbLine
 10
962.586281
 20
1528.271706
 30
0.0
 11
967.5862810000001
 21
1533.271706
 31
0.0
  0
LINE
  5
4D67
330
515A
100
AcDbEntity
  8
0
 62
     0
100
AcDbLine
 10
962.586281
 20
1545.949376
 30
0.0
 11
967.5862810000001
 21
1550.949376
 31
0.0
  0
LINE
  5
4D68
330
515A
100
AcDbEntity
  8
0
 62
     0
100
AcDbLine
 10
962.586281
 20
1563.627045
 30
0.0
 11
967.5862810000001
 21
1568.627045
 31
0.0
  0
LINE
  5
4D69
330
515A
100
AcDbEntity
  8
0
 62
     0
100
AcDbLine
 10
988.895186
 20
1607.61362
 30
0.0
 11
994.3955
 21
1613.113934
 31
0.0
  0
LINE
  5
4D6A
330
515A
100
AcDbEntity
  8
0
 62
     0
100
AcDbLine
 10
962.586281
 20
1386.85035
 30
0.0
 11
967.5862810000001
 21
1391.85035
 31
0.0
  0
LINE
  5
4D6B
330
515A
100
AcDbEntity
  8
0
 62
     0
100
AcDbLine
 10
962.586281
 20
1369.17268
 30
0.0
 11
967.5862810000001
 21
1374.17268
 31
0.0
  0
LINE
  5
4D6C
330
515A
100
AcDbEntity
  8
0
 62
     0
100
AcDbLine
 10
962.586281
 20
1351.495011
 30
0.0
 11
967.5862810000001
 21
1356.495011
 31
0.0
  0
LINE
  5
4D6D
330
515A
100
AcDbEntity
  8
0
 62
     0
100
AcDbLine
 10
962.586281
 20
1333.817341
 30
0.0
 11
967.5862810000001
 21
1338.817341
 31
0.0
  0
LINE
  5
4D6E
330
515A
100
AcDbEntity
  8
0
 62
     0
100
AcDbLine
 10
962.586281
 20
1316.139672
 30
0.0
 11
967.5862810000001
 21
1321.139672
 31
0.0
  0
LINE
  5
4D6F
330
515A
100
AcDbEntity
  8
0
 62
     0
100
AcDbLine
 10
962.586281
 20
1298.462002
 30
0.0
 11
967.5862810000001
 21
1303.462002
 31
0.0
  0
LINE
  5
4D70
330
515A
100
AcDbEntity
  8
0
 62
     0
100
AcDbLine
 10
962.586281
 20
1280.784333
 30
0.0
 11
967.5862810000001
 21
1285.784333
 31
0.0
  0
LINE
  5
4D71
330
515A
100
AcDbEntity
  8
0
 62
     0
100
AcDbLine
 10
962.586281
 20
1263.106663
 30
0.0
 11
967.5862810000001
 21
1268.106663
 31
0.0
  0
LINE
  5
4D72
330
515A
100
AcDbEntity
  8
0
 62
     0
100
AcDbLine
 10
963.1668819999999
 20
1246.009594
 30
0.0
 11
967.5862810000001
 21
1250.428994
 31
0.0
  0
ENDBLK
  5
4D73
330
515A
100
AcDbEntity
  8
0
100
AcDbBlockEnd
  0
BLOCK
  5
4D83
330
515B
100
AcDbEntity
  8
0
100
AcDbBlockBegin
  2
*X4
 70
     1
 10
0.0
 20
0.0
 30
0.0
  3
*X4
  1
GEVFRAME
  0
LINE
  5
4D85
330
515B
100
AcDbEntity
  8
0
 62
     0
100
AcDbLine
 10
1113.230139
 20
1219.296156
 30
0.0
 11
1116.890393
 21
1222.95641
 31
0.0
  0
LINE
  5
4D86
330
515B
100
AcDbEntity
  8
0
 62
     0
100
AcDbLine
 10
1102.022946
 20
1225.766632
 30
0.0
 11
1105.6832
 21
1229.426886
 31
0.0
  0
LINE
  5
4D87
330
515B
100
AcDbEntity
  8
0
 62
     0
100
AcDbLine
 10
1090.815752
 20
1232.237108
 30
0.0
 11
1094.476006
 21
1235.897362
 31
0.0
  0
LINE
  5
4D88
330
515B
100
AcDbEntity
  8
0
 62
     0
100
AcDbLine
 10
1076.45992
 20
1235.558946
 30
0.0
 11
1081.21745
 21
1240.316476
 31
0.0
  0
LINE
  5
4D89
330
515B
100
AcDbEntity
  8
0
 62
     0
100
AcDbLine
 10
1059.662563
 20
1236.439258
 30
0.0
 11
1064.420093
 21
1241.196788
 31
0.0
  0
LINE
  5
4D8A
330
515B
100
AcDbEntity
  8
0
 62
     0
100
AcDbLine
 10
1042.865205
 20
1237.31957
 30
0.0
 11
1047.622736
 21
1242.0771
 31
0.0
  0
LINE
  5
4D8B
330
515B
100
AcDbEntity
  8
0
 62
     0
100
AcDbLine
 10
1026.067848
 20
1238.199882
 30
0.0
 11
1030.825378
 21
1242.957413
 31
0.0
  0
LINE
  5
4D8C
330
515B
100
AcDbEntity
  8
0
 62
     0
100
AcDbLine
 10
1009.270491
 20
1239.080195
 30
0.0
 11
1014.028021
 21
1243.837725
 31
0.0
  0
LINE
  5
4D8D
330
515B
100
AcDbEntity
  8
0
 62
     0
100
AcDbLine
 10
992.473133
 20
1239.960507
 30
0.0
 11
997.2306640000001
 21
1244.718037
 31
0.0
  0
LINE
  5
4D8E
330
515B
100
AcDbEntity
  8
0
 62
     0
100
AcDbLine
 10
975.6757759999999
 20
1240.840819
 30
0.0
 11
980.4333060000001
 21
1245.598349
 31
0.0
  0
LINE
  5
4D8F
330
515B
100
AcDbEntity
  8
0
 62
     0
100
AcDbLine
 10
973.1072329999999
 20
1255.949945
 30
0.0
 11
978.3910050000001
 21
1261.233718
 31
0.0
  0
LINE
  5
4D90
330
515B
100
AcDbEntity
  8
0
 62
     0
100
AcDbLine
 10
1124.437332
 20
1212.82568
 30
0.0
 11
1128.097585999999
 21
1216.485934
 31
0.0
  0
LINE
  5
4D91
330
515B
100
AcDbEntity
  8
0
 62
     0
100
AcDbLine
 10
1135.644526
 20
1206.355204
 30
0.0
 11
1139.30478
 21
1210.015458
 31
0.0
  0
LINE
  5
4D92
330
515B
100
AcDbEntity
  8
0
 62
     0
100
AcDbLine
 10
1146.851719
 20
1199.884728
 30
0.0
 11
1150.511973
 21
1203.544982
 31
0.0
  0
LINE
  5
4D93
330
515B
100
AcDbEntity
  8
0
 62
     0
100
AcDbLine
 10
1158.058913
 20
1193.414252
 30
0.0
 11
1161.719167
 21
1197.074506
 31
0.0
  0
LINE
  5
4D94
330
515B
100
AcDbEntity
  8
0
 62
     0
100
AcDbLine
 10
1169.266106
 20
1186.943776
 30
0.0
 11
1172.92636
 21
1190.60403
 31
0.0
  0
LINE
  5
4D95
330
515B
100
AcDbEntity
  8
0
 62
     0
100
AcDbLine
 10
1180.473299
 20
1180.473299
 30
0.0
 11
1184.133553
 21
1184.133553
 31
0.0
  0
LINE
  5
4D96
330
515B
100
AcDbEntity
  8
0
 62
     0
100
AcDbLine
 10
1191.680493
 20
1174.002823
 30
0.0
 11
1195.340747
 21
1177.663077
 31
0.0
  0
LINE
  5
4D97
330
515B
100
AcDbEntity
  8
0
 62
     0
100
AcDbLine
 10
1202.887686
 20
1167.532347
 30
0.0
 11
1206.54794
 21
1171.192601
 31
0.0
  0
LINE
  5
4D98
330
515B
100
AcDbEntity
  8
0
 62
     0
100
AcDbLine
 10
1214.09488
 20
1161.061871
 30
0.0
 11
1217.755134
 21
1164.722125
 31
0.0
  0
ENDBLK
  5
4D99
330
515B
100
AcDbEntity
  8
0
100
AcDbBlockEnd
  0
BLOCK
  5
4DB3
330
515C
100
AcDbEntity
  8
0
100
AcDbBlockBegin
  2
*X5
 70
     1
 10
0.0
 20
0.0
 30
0.0
  3
*X5
  1
GEVFRAME
  0
LINE
  5
4DB5
330
515C
100
AcDbEntity
  8
0
 62
     0
100
AcDbLine
 10
797.2659079999999
 20
921.009594
 30
0.0
 11
802.265908
 21
926.0095939999999
 31
0.0
  0
LINE
  5
4DB6
330
515C
100
AcDbEntity
  8
0
 62
     0
100
AcDbLine
 10
779.5882379999999
 20
921.009594
 30
0.0
 11
784.5882379999999
 21
926.0095939999999
 31
0.0
  0
LINE
  5
4DB7
330
515C
100
AcDbEntity
  8
0
 62
     0
100
AcDbLine
 10
762.3801349999999
 20
921.479161
 30
0.0
 11
766.910569
 21
926.0095939999999
 31
0.0
  0
LINE
  5
4DB8
330
515C
100
AcDbEntity
  8
0
 62
     0
100
AcDbLine
 10
755.398508
 20
932.1752039999999
 30
0.0
 11
760.5269049999999
 21
937.3035999999999
 31
0.0
  0
LINE
  5
4DB9
330
515C
100
AcDbEntity
  8
0
 62
     0
100
AcDbLine
 10
755.2537139999999
 20
949.7080789999998
 30
0.0
 11
760.360488
 21
954.814853
 31
0.0
  0
LINE
  5
4DBA
330
515C
100
AcDbEntity
  8
0
 62
     0
100
AcDbLine
 10
755.1089199999999
 20
967.2409539999998
 30
0.0
 11
760.194071
 21
972.326106
 31
0.0
  0
LINE
  5
4DBB
330
515C
100
AcDbEntity
  8
0
 62
     0
100
AcDbLine
 10
754.9641259999999
 20
984.7738300000001
 30
0.0
 11
760.027655
 21
989.837359
 31
0.0
  0
LINE
  5
4DBC
330
515C
100
AcDbEntity
  8
0
 62
     0
100
AcDbLine
 10
754.8193309999999
 20
1002.306705
 30
0.0
 11
759.8612379999999
 21
1007.348611
 31
0.0
  0
LINE
  5
4DBD
330
515C
100
AcDbEntity
  8
0
 62
     0
100
AcDbLine
 10
754.674537
 20
1019.83958
 30
0.0
 11
759.694821
 21
1024.859864
 31
0.0
  0
LINE
  5
4DBE
330
515C
100
AcDbEntity
  8
0
 62
     0
100
AcDbLine
 10
754.5297429999999
 20
1037.372455
 30
0.0
 11
759.528404
 21
1042.371117
 31
0.0
  0
LINE
  5
4DBF
330
515C
100
AcDbEntity
  8
0
 62
     0
100
AcDbLine
 10
754.384949
 20
1054.905331
 30
0.0
 11
759.361988
 21
1059.88237
 31
0.0
  0
LINE
  5
4DC0
330
515C
100
AcDbEntity
  8
0
 62
     0
100
AcDbLine
 10
754.240155
 20
1072.438206
 30
0.0
 11
759.1955709999999
 21
1077.393622
 31
0.0
  0
LINE
  5
4DC1
330
515C
100
AcDbEntity
  8
0
 62
     0
100
AcDbLine
 10
754.0953599999999
 20
1089.971081
 30
0.0
 11
759.0291539999999
 21
1094.904875
 31
0.0
  0
LINE
  5
4DC2
330
515C
100
AcDbEntity
  8
0
 62
     0
100
AcDbLine
 10
753.9505659999999
 20
1107.503957
 30
0.0
 11
758.862737
 21
1112.416128
 31
0.0
  0
LINE
  5
4DC3
330
515C
100
AcDbEntity
  8
0
 62
     0
100
AcDbLine
 10
753.8057719999999
 20
1125.036832
 30
0.0
 11
758.696321
 21
1129.927381
 31
0.0
  0
LINE
  5
4DC4
330
515C
100
AcDbEntity
  8
0
 62
     0
100
AcDbLine
 10
753.660978
 20
1142.569707
 30
0.0
 11
758.5299039999999
 21
1147.438634
 31
0.0
  0
LINE
  5
4DC5
330
515C
100
AcDbEntity
  8
0
 62
     0
100
AcDbLine
 10
753.5161829999999
 20
1160.102583
 30
0.0
 11
758.363487
 21
1164.949886
 31
0.0
  0
LINE
  5
4DC6
330
515C
100
AcDbEntity
  8
0
 62
     0
100
AcDbLine
 10
753.371389
 20
1177.635458
 30
0.0
 11
758.19707
 21
1182.461139
 31
0.0
  0
LINE
  5
4DC7
330
515C
100
AcDbEntity
  8
0
 62
     0
100
AcDbLine
 10
753.226595
 20
1195.168333
 30
0.0
 11
758.030654
 21
1199.972392
 31
0.0
  0
LINE
  5
4DC8
330
515C
100
AcDbEntity
  8
0
 62
     0
100
AcDbLine
 10
753.0818009999999
 20
1212.701208
 30
0.0
 11
757.8642369999999
 21
1217.483645
 31
0.0
  0
LINE
  5
4DC9
330
515C
100
AcDbEntity
  8
0
 62
     0
100
AcDbLine
 10
752.9370059999999
 20
1230.234084
 30
0.0
 11
757.69782
 21
1234.994897
 31
0.0
  0
LINE
  5
4DCA
330
515C
100
AcDbEntity
  8
0
 62
     0
100
AcDbLine
 10
748.107433
 20
1243.08218
 30
0.0
 11
752.509023
 21
1247.48377
 31
0.0
  0
LINE
  5
4DCB
330
515C
100
AcDbEntity
  8
0
 62
     0
100
AcDbLine
 10
746.871181
 20
1259.523597
 30
0.0
 11
751.628711
 21
1264.281127
 31
0.0
  0
LINE
  5
4DCC
330
515C
100
AcDbEntity
  8
0
 62
     0
100
AcDbLine
 10
814.943577
 20
921.009594
 30
0.0
 11
819.943577
 21
926.0095939999999
 31
0.0
  0
LINE
  5
4DCD
330
515C
100
AcDbEntity
  8
0
 62
     0
100
AcDbLine
 10
832.6212469999999
 20
921.009594
 30
0.0
 11
837.6212469999998
 21
926.0095939999999
 31
0.0
  0
LINE
  5
4DCE
330
515C
100
AcDbEntity
  8
0
 62
     0
100
AcDbLine
 10
850.298916
 20
921.009594
 30
0.0
 11
855.2989159999999
 21
926.0095939999999
 31
0.0
  0
LINE
  5
4DCF
330
515C
100
AcDbEntity
  8
0
 62
     0
100
AcDbLine
 10
1065.518313
 20
1136.228991
 30
0.0
 11
1069.554501
 21
1140.265179
 31
0.0
  0
LINE
  5
4DD0
330
515C
100
AcDbEntity
  8
0
 62
     0
100
AcDbLine
 10
1042.586281
 20
1113.296959
 30
0.0
 11
1047.586281
 21
1118.296959
 31
0.0
  0
LINE
  5
4DD1
330
515C
100
AcDbEntity
  8
0
 62
     0
100
AcDbLine
 10
867.9765859999999
 20
921.009594
 30
0.0
 11
872.9765859999998
 21
926.0095939999999
 31
0.0
  0
LINE
  5
4DD2
330
515C
100
AcDbEntity
  8
0
 62
     0
100
AcDbLine
 10
1077.306893
 20
1130.339901
 30
0.0
 11
1080.967147
 21
1134.000155
 31
0.0
  0
LINE
  5
4DD3
330
515C
100
AcDbEntity
  8
0
 62
     0
100
AcDbLine
 10
1042.586281
 20
1095.61929
 30
0.0
 11
1047.586281
 21
1100.61929
 31
0.0
  0
LINE
  5
4DD4
330
515C
100
AcDbEntity
  8
0
 62
     0
100
AcDbLine
 10
885.654255
 20
921.009594
 30
0.0
 11
890.6542550000001
 21
926.0095939999999
 31
0.0
  0
LINE
  5
4DD5
330
515C
100
AcDbEntity
  8
0
 62
     0
100
AcDbLine
 10
1088.514086
 20
1123.869425
 30
0.0
 11
1092.17434
 21
1127.529679
 31
0.0
  0
LINE
  5
4DD6
330
515C
100
AcDbEntity
  8
0
 62
     0
100
AcDbLine
 10
1042.586281
 20
1077.94162
 30
0.0
 11
1047.586281
 21
1082.94162
 31
0.0
  0
LINE
  5
4DD7
330
515C
100
AcDbEntity
  8
0
 62
     0
100
AcDbLine
 10
903.3319249999999
 20
921.009594
 30
0.0
 11
908.331925
 21
926.0095939999999
 31
0.0
  0
LINE
  5
4DD8
330
515C
100
AcDbEntity
  8
0
 62
     0
100
AcDbLine
 10
1099.721279
 20
1117.398949
 30
0.0
 11
1103.381533
 21
1121.059203
 31
0.0
  0
LINE
  5
4DD9
330
515C
100
AcDbEntity
  8
0
 62
     0
100
AcDbLine
 10
1042.586281
 20
1060.263951
 30
0.0
 11
1047.586281
 21
1065.263951
 31
0.0
  0
LINE
  5
4DDA
330
515C
100
AcDbEntity
  8
0
 62
     0
100
AcDbLine
 10
921.009594
 20
921.009594
 30
0.0
 11
926.0095939999999
 21
926.0095939999999
 31
0.0
  0
LINE
  5
4DDB
330
515C
100
AcDbEntity
  8
0
 62
     0
100
AcDbLine
 10
1110.928473
 20
1110.928473
 30
0.0
 11
1114.588727
 21
1114.588727
 31
0.0
  0
LINE
  5
4DDC
330
515C
100
AcDbEntity
  8
0
 62
     0
100
AcDbLine
 10
1042.586281
 20
1042.586281
 30
0.0
 11
1047.586281
 21
1047.586281
 31
0.0
  0
LINE
  5
4DDD
330
515C
100
AcDbEntity
  8
0
 62
     0
100
AcDbLine
 10
938.6872639999999
 20
921.009594
 30
0.0
 11
943.687264
 21
926.0095939999999
 31
0.0
  0
LINE
  5
4DDE
330
515C
100
AcDbEntity
  8
0
 62
     0
100
AcDbLine
 10
1122.135666
 20
1104.457997
 30
0.0
 11
1125.79592
 21
1108.118251
 31
0.0
  0
LINE
  5
4DDF
330
515C
100
AcDbEntity
  8
0
 62
     0
100
AcDbLine
 10
1042.586281
 20
1024.908612
 30
0.0
 11
1047.586281
 21
1029.908612
 31
0.0
  0
LINE
  5
4DE0
330
515C
100
AcDbEntity
  8
0
 62
     0
100
AcDbLine
 10
956.7893130000001
 20
921.4339739999999
 30
0.0
 11
962.5509800000001
 21
927.1956409999999
 31
0.0
  0
LINE
  5
4DE1
330
515C
100
AcDbEntity
  8
0
 62
     0
100
AcDbLine
 10
1133.34286
 20
1097.98752
 30
0.0
 11
1137.003114
 21
1101.647774
 31
0.0
  0
LINE
  5
4DE2
330
515C
100
AcDbEntity
  8
0
 62
     0
100
AcDbLine
 10
1041.400234
 20
1006.044895
 30
0.0
 11
1047.161902
 21
1011.806563
 31
0.0
  0
LINE
  5
4DE3
330
515C
100
AcDbEntity
  8
0
 62
     0
100
AcDbLine
 10
979.1569050000001
 20
926.123896
 30
0.0
 11
988.127449
 21
935.0944400000001
 31
0.0
  0
LINE
  5
4DE4
330
515C
100
AcDbEntity
  8
0
 62
     0
100
AcDbLine
 10
1144.550053
 20
1091.517044
 30
0.0
 11
1148.210307
 21
1095.177298
 31
0.0
  0
LINE
  5
4DE5
330
515C
100
AcDbEntity
  8
0
 62
     0
100
AcDbLine
 10
1033.501436
 20
980.4684269999999
 30
0.0
 11
1042.471979
 21
989.438971
 31
0.0
  0
LINE
  5
4DE6
330
515C
100
AcDbEntity
  8
0
 62
     0
100
AcDbLine
 10
1155.757246
 20
1085.046568
 30
0.0
 11
1159.4175
 21
1088.706822
 31
0.0
  0
LINE
  5
4DE7
330
515C
100
AcDbEntity
  8
0
 62
     0
100
AcDbLine
 10
1166.96444
 20
1078.576092
 30
0.0
 11
1170.624694
 21
1082.236346
 31
0.0
  0
ENDBLK
  5
4DE8
330
515C
100
AcDbEntity
  8
0
100
AcDbBlockEnd
  0
BLOCK
  5
4DF0
330
515D
100
AcDbEntity
  8
0
100
AcDbBlockBegin
  2
*X6
 70
     1
 10
0.0
 20
0.0
 30
0.0
  3
*X6
  1
GEVFRAME
  0
LINE
  5
4DF2
330
515D
100
AcDbEntity
  8
0
 62
     0
100
AcDbLine
 10
966.434485
 20
1125.533511
 30
0.0
 11
971.411999
 21
1130.511025
 31
0.0
  0
LINE
  5
4DF3
330
515D
100
AcDbEntity
  8
0
 62
     0
100
AcDbLine
 10
966.6040949999999
 20
1143.38079
 30
0.0
 11
971.5592049999999
 21
1148.3359
 31
0.0
  0
LINE
  5
4DF4
330
515D
100
AcDbEntity
  8
0
 62
     0
100
AcDbLine
 10
966.7737050000001
 20
1161.22807
 30
0.0
 11
971.7064099999999
 21
1166.160775
 31
0.0
  0
LINE
  5
4DF5
330
515D
100
AcDbEntity
  8
0
 62
     0
100
AcDbLine
 10
966.9433149999999
 20
1179.07535
 30
0.0
 11
971.8536159999999
 21
1183.98565
 31
0.0
  0
LINE
  5
4DF6
330
515D
100
AcDbEntity
  8
0
 62
     0
100
AcDbLine
 10
967.112926
 20
1196.922629
 30
0.0
 11
972.000822
 21
1201.810525
 31
0.0
  0
LINE
  5
4DF7
330
515D
100
AcDbEntity
  8
0
 62
     0
100
AcDbLine
 10
967.2825359999999
 20
1214.769909
 30
0.0
 11
972.1480269999998
 21
1219.635401
 31
0.0
  0
LINE
  5
4DF8
330
515D
100
AcDbEntity
  8
0
 62
     0
100
AcDbLine
 10
967.4521460000001
 20
1232.617189
 30
0.0
 11
972.295233
 21
1237.460276
 31
0.0
  0
LINE
  5
4DF9
330
515D
100
AcDbEntity
  8
0
 62
     0
100
AcDbLine
 10
966.264875
 20
1107.686231
 30
0.0
 11
971.2647929999999
 21
1112.686149
 31
0.0
  0
LINE
  5
4DFA
330
515D
100
AcDbEntity
  8
0
 62
     0
100
AcDbLine
 10
966.095265
 20
1089.838951
 30
0.0
 11
971.1175869999999
 21
1094.861274
 31
0.0
  0
LINE
  5
4DFB
330
515D
100
AcDbEntity
  8
0
 62
     0
100
AcDbLine
 10
965.9256539999999
 20
1071.991672
 30
0.0
 11
970.9703820000001
 21
1077.036399
 31
0.0
  0
LINE
  5
4DFC
330
515D
100
AcDbEntity
  8
0
 62
     0
100
AcDbLine
 10
965.7560439999999
 20
1054.144392
 30
0.0
 11
970.823176
 21
1059.211524
 31
0.0
  0
ENDBLK
  5
4DFD
330
515D
100
AcDbEntity
  8
0
100
AcDbBlockEnd
  0
BLOCK
  5
5083
330
515E
100
AcDbEntity
  8
0
100
AcDbBlockBegin
  2
*D7
 70
     1
 10
0.0
 20
0.0
 30
0.0
  3
*D7
  1
GEVFRAME
  0
LINE
  5
5084
330
515E
100
AcDbEntity
  8
0
  6
ByBlock
100
AcDbLine
 10
716.4047059999999
 20
1589.215373
 30
0.0
 11
513.8978530000001
 21
1589.215373
 31
0.0
  0
LINE
  5
5085
330
515E
100
AcDbEntity
  8
0
  6
ByBlock
100
AcDbLine
 10
716.4047059999999
 20
1264.477053
 30
0.0
 11
513.8978530000001
 21
1264.477053
 31
0.0
  0
LINE
  5
5086
330
515E
100
AcDbEntity
  8
0
  6
ByBlock
100
AcDbLine
 10
518.897853
 20
1576.715373
 30
0.0
 11
518.897853
 21
1276.977053
 31
0.0
  0
SOLID
  5
5087
330
515E
100
AcDbEntity
  8
0
  6
ByBlock
100
AcDbTrace
 10
516.81452
 20
1576.715373
 30
0.0
 11
520.981186
 21
1576.715373
 31
0.0
 12
518.897853
 22
1589.215373
 32
0.0
 13
518.897853
 23
1589.215373
 33
0.0
  0
SOLID
  5
5088
330
515E
100
AcDbEntity
  8
0
  6
ByBlock
100
AcDbTrace
 10
516.81452
 20
1276.977053
 30
0.0
 11
520.981186
 21
1276.977053
 31
0.0
 12
518.897853
 22
1264.477053
 32
0.0
 13
518.897853
 23
1264.477053
 33
0.0
  0
TEXT
  5
5089
330
515E
100
AcDbEntity
  8
0
  6
ByBlock
 62
     2
100
AcDbText
 10
515.899576
 20
1408.108776
 30
0.0
 40
17.5
  1
325
 50
90.0
100
AcDbText
  0
POINT
  5
508A
330
515E
100
AcDbEntity
  8
DEFPOINTS
  6
ByBlock
 62
     0
100
AcDbPoint
 10
721.4047059999999
 20
1589.215373
 30
0.0
  0
POINT
  5
508B
330
515E
100
AcDbEntity
  8
DEFPOINTS
  6
ByBlock
 62
     0
100
AcDbPoint
 10
721.4047059999999
 20
1264.477053
 30
0.0
  0
POINT
  5
508C
330
515E
100
AcDbEntity
  8
DEFPOINTS
  6
ByBlock
 62
     0
100
AcDbPoint
 10
518.897853
 20
1264.477053
 30
0.0
  0
ENDBLK
  5
508D
330
515E
100
AcDbEntity
  8
0
100
AcDbBlockEnd
  0
BLOCK
  5
5078
330
515F
100
AcDbEntity
  8
0
100
AcDbBlockBegin
  2
*D8
 70
     1
 10
0.0
 20
0.0
 30
0.0
  3
*D8
  1
GEVFRAME
  0
LINE
  5
5079
330
515F
100
AcDbEntity
  8
0
  6
ByBlock
100
AcDbLine
 10
716.4047059999999
 20
1589.215373
 30
0.0
 11
513.8978530000001
 21
1589.215373
 31
0.0
  0
LINE
  5
507A
330
515F
100
AcDbEntity
  8
0
  6
ByBlock
100
AcDbLine
 10
716.457042
 20
1964.477053
 30
0.0
 11
513.8978530000001
 21
1964.477053
 31
0.0
  0
LINE
  5
507B
330
515F
100
AcDbEntity
  8
0
  6
ByBlock
100
AcDbLine
 10
518.897853
 20
1601.715373
 30
0.0
 11
518.897853
 21
1951.977053
 31
0.0
  0
SOLID
  5
507C
330
515F
100
AcDbEntity
  8
0
  6
ByBlock
100
AcDbTrace
 10
516.81452
 20
1601.715373
 30
0.0
 11
520.981186
 21
1601.715373
 31
0.0
 12
518.897853
 22
1589.215373
 32
0.0
 13
518.897853
 23
1589.215373
 33
0.0
  0
SOLID
  5
507D
330
515F
100
AcDbEntity
  8
0
  6
ByBlock
100
AcDbTrace
 10
516.81452
 20
1951.977053
 30
0.0
 11
520.981186
 21
1951.977053
 31
0.0
 12
518.897853
 22
1964.477053
 32
0.0
 13
518.897853
 23
1964.477053
 33
0.0
  0
TEXT
  5
507E
330
515F
100
AcDbEntity
  8
0
  6
ByBlock
 62
     2
100
AcDbText
 10
515.897853
 20
1758.108776
 30
0.0
 40
17.5
  1
375
 50
90.0
100
AcDbText
  0
POINT
  5
507F
330
515F
100
AcDbEntity
  8
DEFPOINTS
  6
ByBlock
 62
     0
100
AcDbPoint
 10
721.4047059999999
 20
1589.215373
 30
0.0
  0
POINT
  5
5080
330
515F
100
AcDbEntity
  8
DEFPOINTS
  6
ByBlock
 62
     0
100
AcDbPoint
 10
721.457042
 20
1964.477053
 30
0.0
  0
POINT
  5
5081
330
515F
100
AcDbEntity
  8
DEFPOINTS
  6
ByBlock
 62
     0
100
AcDbPoint
 10
518.897853
 20
1964.477053
 30
0.0
  0
ENDBLK
  5
5082
330
515F
100
AcDbEntity
  8
0
100
AcDbBlockEnd
  0
BLOCK
  5
5099
330
5160
100
AcDbEntity
  8
0
100
AcDbBlockBegin
  2
*D9
 70
     1
 10
0.0
 20
0.0
 30
0.0
  3
*D9
  1
GEVFRAME
  0
LINE
  5
509A
330
5160
100
AcDbEntity
  8
0
  6
ByBlock
100
AcDbLine
 10
589.4793339999999
 20
1919.477053
 30
0.0
 11
589.4793339999999
 21
2019.477054
 31
0.0
  0
LINE
  5
509B
330
5160
100
AcDbEntity
  8
0
  6
ByBlock
100
AcDbLine
 10
707.316374
 20
1919.477053
 30
0.0
 11
707.316374
 21
2019.477054
 31
0.0
  0
LINE
  5
509C
330
5160
100
AcDbEntity
  8
0
  6
ByBlock
100
AcDbLine
 10
601.9793339999999
 20
2014.477054
 30
0.0
 11
694.816374
 21
2014.477054
 31
0.0
  0
SOLID
  5
509D
330
5160
100
AcDbEntity
  8
0
  6
ByBlock
100
AcDbTrace
 10
601.9793339999999
 20
2016.560388
 30
0.0
 11
601.9793339999999
 21
2012.393721
 31
0.0
 12
589.4793339999999
 22
2014.477054
 32
0.0
 13
589.4793339999999
 23
2014.477054
 33
0.0
  0
SOLID
  5
509E
330
5160
100
AcDbEntity
  8
0
  6
ByBlock
100
AcDbTrace
 10
694.816374
 20
2016.560388
 30
0.0
 11
694.816374
 21
2012.393721
 31
0.0
 12
707.316374
 22
2014.477054
 32
0.0
 13
707.316374
 23
2014.477054
 33
0.0
  0
TEXT
  5
509F
330
5160
100
AcDbEntity
  8
0
  6
ByBlock
 62
     2
100
AcDbText
 10
623.5354169999999
 20
2017.475332
 30
0.0
 40
17.5
  1
%%c125
100
AcDbText
  0
POINT
  5
50A0
330
5160
100
AcDbEntity
  8
DEFPOINTS
  6
ByBlock
 62
     0
100
AcDbPoint
 10
589.4793339999999
 20
1914.477053
 30
0.0
  0
POINT
  5
50A1
330
5160
100
AcDbEntity
  8
DEFPOINTS
  6
ByBlock
 62
     0
100
AcDbPoint
 10
707.316374
 20
1914.477053
 30
0.0
  0
POINT
  5
50A2
330
5160
100
AcDbEntity
  8
DEFPOINTS
  6
ByBlock
 62
     0
100
AcDbPoint
 10
707.316374
 20
2014.477054
 30
0.0
  0
ENDBLK
  5
50A3
330
5160
100
AcDbEntity
  8
0
100
AcDbBlockEnd
  0
BLOCK
  5
508E
330
5161
100
AcDbEntity
  8
0
100
AcDbBlockBegin
  2
*D10
 70
     1
 10
0.0
 20
0.0
 30
0.0
  3
*D10
  1
GEVFRAME
  0
LINE
  5
508F
330
5161
100
AcDbEntity
  8
0
  6
ByBlock
100
AcDbLine
 10
648.397854
 20
2004.103763
 30
0.0
 11
648.397854
 21
2063.494915
 31
0.0
  0
LINE
  5
5090
330
5161
100
AcDbEntity
  8
0
  6
ByBlock
100
AcDbLine
 10
836.3978540000001
 20
2004.103763
 30
0.0
 11
836.3978540000001
 21
2063.494915
 31
0.0
  0
LINE
  5
5091
330
5161
100
AcDbEntity
  8
0
  6
ByBlock
100
AcDbLine
 10
660.897854
 20
2058.494915
 30
0.0
 11
823.8978540000001
 21
2058.494915
 31
0.0
  0
SOLID
  5
5092
330
5161
100
AcDbEntity
  8
0
  6
ByBlock
100
AcDbTrace
 10
660.897854
 20
2060.578248
 30
0.0
 11
660.897854
 21
2056.411582
 31
0.0
 12
648.397854
 22
2058.494915
 32
0.0
 13
648.397854
 23
2058.494915
 33
0.0
  0
SOLID
  5
5093
330
5161
100
AcDbEntity
  8
0
  6
ByBlock
100
AcDbTrace
 10
823.8978540000001
 20
2060.578248
 30
0.0
 11
823.8978540000001
 21
2056.411582
 31
0.0
 12
836.3978540000001
 22
2058.494915
 32
0.0
 13
836.3978540000001
 23
2058.494915
 33
0.0
  0
TEXT
  5
5094
330
5161
100
AcDbEntity
  8
0
  6
ByBlock
 62
     2
100
AcDbText
 10
725.772854
 20
2061.494915
 30
0.0
 40
17.5
  1
188
100
AcDbText
  0
POINT
  5
5095
330
5161
100
AcDbEntity
  8
DEFPOINTS
  6
ByBlock
 62
     0
100
AcDbPoint
 10
648.397854
 20
1999.103763
 30
0.0
  0
POINT
  5
5096
330
5161
100
AcDbEntity
  8
DEFPOINTS
  6
ByBlock
 62
     0
100
AcDbPoint
 10
836.3978540000001
 20
1999.103763
 30
0.0
  0
POINT
  5
5097
330
5161
100
AcDbEntity
  8
DEFPOINTS
  6
ByBlock
 62
     0
100
AcDbPoint
 10
836.3978540000001
 20
2058.494915
 30
0.0
  0
ENDBLK
  5
5098
330
5161
100
AcDbEntity
  8
0
100
AcDbBlockEnd
  0
BLOCK
  5
5062
330
5162
100
AcDbEntity
  8
0
100
AcDbBlockBegin
  2
*D11
 70
     1
 10
0.0
 20
0.0
 30
0.0
  3
*D11
  1
GEVFRAME
  0
LINE
  5
5063
330
5162
100
AcDbEntity
  8
0
  6
ByBlock
100
AcDbLine
 10
836.3978540000001
 20
2004.103763
 30
0.0
 11
836.3978540000001
 21
2062.703933
 31
0.0
  0
LINE
  5
5064
330
5162
100
AcDbEntity
  8
0
  6
ByBlock
100
AcDbLine
 10
1166.397854
 20
1519.698235
 30
0.0
 11
1166.397854
 21
2062.703933
 31
0.0
  0
LINE
  5
5065
330
5162
100
AcDbEntity
  8
0
  6
ByBlock
100
AcDbLine
 10
848.8978539999999
 20
2057.703933
 30
0.0
 11
1153.897854
 21
2057.703933
 31
0.0
  0
SOLID
  5
5066
330
5162
100
AcDbEntity
  8
0
  6
ByBlock
100
AcDbTrace
 10
848.8978539999999
 20
2059.787266
 30
0.0
 11
848.8978539999999
 21
2055.620600000001
 31
0.0
 12
836.3978540000001
 22
2057.703933
 32
0.0
 13
836.3978540000001
 23
2057.703933
 33
0.0
  0
SOLID
  5
5067
330
5162
100
AcDbEntity
  8
0
  6
ByBlock
100
AcDbTrace
 10
1153.897854
 20
2059.787266
 30
0.0
 11
1153.897854
 21
2055.620600000001
 31
0.0
 12
1166.397854
 22
2057.703933
 32
0.0
 13
1166.397854
 23
2057.703933
 33
0.0
  0
TEXT
  5
5068
330
5162
100
AcDbEntity
  8
0
  6
ByBlock
 62
     2
100
AcDbText
 10
983.0159640000001
 20
2060.703933
 30
0.0
 40
17.5
  1
330
100
AcDbText
  0
POINT
  5
5069
330
5162
100
AcDbEntity
  8
DEFPOINTS
  6
ByBlock
 62
     0
100
AcDbPoint
 10
836.3978540000001
 20
1999.103763
 30
0.0
  0
POINT
  5
506A
330
5162
100
AcDbEntity
  8
DEFPOINTS
  6
ByBlock
 62
     0
100
AcDbPoint
 10
1166.397854
 20
1514.698235
 30
0.0
  0
POINT
  5
506B
330
5162
100
AcDbEntity
  8
DEFPOINTS
  6
ByBlock
 62
     0
100
AcDbPoint
 10
1166.397854
 20
2057.703933
 30
0.0
  0
ENDBLK
  5
506C
330
5162
100
AcDbEntity
  8
0
100
AcDbBlockEnd
  0
BLOCK
  5
5057
330
5163
100
AcDbEntity
  8
0
100
AcDbBlockBegin
  2
*D12
 70
     1
 10
0.0
 20
0.0
 30
0.0
  3
*D12
  1
GEVFRAME
  0
LINE
  5
5058
330
5163
100
AcDbEntity
  8
0
  6
ByBlock
100
AcDbLine
 10
973.8978539999999
 20
1964.477053
 30
0.0
 11
1273.50692
 21
1964.477053
 31
0.0
  0
LINE
  5
5059
330
5163
100
AcDbEntity
  8
0
  6
ByBlock
100
AcDbLine
 10
1203.125518
 20
1464.477053
 30
0.0
 11
1273.50692
 21
1464.477053
 31
0.0
  0
LINE
  5
505A
330
5163
100
AcDbEntity
  8
0
  6
ByBlock
100
AcDbLine
 10
1268.50692
 20
1951.977053
 30
0.0
 11
1268.50692
 21
1476.977053
 31
0.0
  0
SOLID
  5
505B
330
5163
100
AcDbEntity
  8
0
  6
ByBlock
100
AcDbTrace
 10
1266.423587
 20
1951.977053
 30
0.0
 11
1270.590253
 21
1951.977053
 31
0.0
 12
1268.50692
 22
1964.477053
 32
0.0
 13
1268.50692
 23
1964.477053
 33
0.0
  0
SOLID
  5
505C
330
5163
100
AcDbEntity
  8
0
  6
ByBlock
100
AcDbTrace
 10
1266.423587
 20
1476.977053
 30
0.0
 11
1270.590253
 21
1476.977053
 31
0.0
 12
1268.50692
 22
1464.477053
 32
0.0
 13
1268.50692
 23
1464.477053
 33
0.0
  0
TEXT
  5
505D
330
5163
100
AcDbEntity
  8
0
  6
ByBlock
 62
     2
100
AcDbText
 10
1265.50692
 20
1696.095163
 30
0.0
 40
17.5
  1
500
 50
90.0
100
AcDbText
  0
POINT
  5
505E
330
5163
100
AcDbEntity
  8
DEFPOINTS
  6
ByBlock
 62
     0
100
AcDbPoint
 10
968.8978539999999
 20
1964.477053
 30
0.0
  0
POINT
  5
505F
330
5163
100
AcDbEntity
  8
DEFPOINTS
  6
ByBlock
 62
     0
100
AcDbPoint
 10
1198.125518
 20
1464.477053
 30
0.0
  0
POINT
  5
5060
330
5163
100
AcDbEntity
  8
DEFPOINTS
  6
ByBlock
 62
     0
100
AcDbPoint
 10
1268.50692
 20
1464.477053
 30
0.0
  0
ENDBLK
  5
5061
330
5163
100
AcDbEntity
  8
0
100
AcDbBlockEnd
  0
BLOCK
  5
504C
330
5164
100
AcDbEntity
  8
0
100
AcDbBlockBegin
  2
*D13
 70
     1
 10
0.0
 20
0.0
 30
0.0
  3
*D13
  1
GEVFRAME
  0
LINE
  5
504D
330
5164
100
AcDbEntity
  8
0
  6
ByBlock
100
AcDbLine
 10
1023.964924
 20
1485.032427
 30
0.0
 11
968.0786619999999
 21
1485.032427
 31
0.0
  0
LINE
  5
504E
330
5164
100
AcDbEntity
  8
0
  6
ByBlock
100
AcDbLine
 10
949.488631
 20
1384.985801
 30
0.0
 11
978.0786619999998
 21
1384.985801
 31
0.0
  0
LINE
  5
504F
330
5164
100
AcDbEntity
  8
0
  6
ByBlock
100
AcDbLine
 10
973.0786619999999
 20
1472.532427
 30
0.0
 11
973.0786619999999
 21
1397.485801
 31
0.0
  0
SOLID
  5
5050
330
5164
100
AcDbEntity
  8
0
  6
ByBlock
100
AcDbTrace
 10
970.9953289999999
 20
1472.532427
 30
0.0
 11
975.1619960000001
 21
1472.532427
 31
0.0
 12
973.0786619999999
 22
1485.032427
 32
0.0
 13
973.0786619999999
 23
1485.032427
 33
0.0
  0
SOLID
  5
5051
330
5164
100
AcDbEntity
  8
0
  6
ByBlock
100
AcDbTrace
 10
970.9953289999999
 20
1397.485801
 30
0.0
 11
975.1619960000001
 21
1397.485801
 31
0.0
 12
973.0786619999999
 22
1384.985801
 32
0.0
 13
973.0786619999999
 23
1384.985801
 33
0.0
  0
TEXT
  5
5052
330
5164
100
AcDbEntity
  8
0
  6
ByBlock
 62
     2
100
AcDbText
 10
970.0786619999998
 20
1418.377224
 30
0.0
 40
17.5
  1
100
 50
90.0
100
AcDbText
  0
POINT
  5
5053
330
5164
100
AcDbEntity
  8
DEFPOINTS
  6
ByBlock
 62
     0
100
AcDbPoint
 10
1028.964924
 20
1485.032427
 30
0.0
  0
POINT
  5
5054
330
5164
100
AcDbEntity
  8
DEFPOINTS
  6
ByBlock
 62
     0
100
AcDbPoint
 10
944.4886310000001
 20
1384.985801
 30
0.0
  0
POINT
  5
5055
330
5164
100
AcDbEntity
  8
DEFPOINTS
  6
ByBlock
 62
     0
100
AcDbPoint
 10
973.0786619999999
 20
1384.985801
 30
0.0
  0
ENDBLK
  5
5056
330
5164
100
AcDbEntity
  8
0
100
AcDbBlockEnd
  0
BLOCK
  5
506D
330
5165
100
AcDbEntity
  8
0
100
AcDbBlockBegin
  2
*D14
 70
     1
 10
0.0
 20
0.0
 30
0.0
  3
*D14
  1
GEVFRAME
  0
LINE
  5
506E
330
5165
100
AcDbEntity
  8
0
  6
ByBlock
100
AcDbLine
 10
736.397854
 20
1594.477053
 30
0.0
 11
736.397854
 21
1669.364694
 31
0.0
  0
LINE
  5
506F
330
5165
100
AcDbEntity
  8
0
  6
ByBlock
100
AcDbLine
 10
936.3978539999999
 20
1594.477053
 30
0.0
 11
936.3978539999999
 21
1669.364694
 31
0.0
  0
LINE
  5
5070
330
5165
100
AcDbEntity
  8
0
  6
ByBlock
100
AcDbLine
 10
748.897854
 20
1664.364694
 30
0.0
 11
923.8978539999999
 21
1664.364694
 31
0.0
  0
SOLID
  5
5071
330
5165
100
AcDbEntity
  8
0
  6
ByBlock
100
AcDbTrace
 10
748.897854
 20
1666.448028
 30
0.0
 11
748.897854
 21
1662.281360999999
 31
0.0
 12
736.397854
 22
1664.364694
 32
0.0
 13
736.397854
 23
1664.364694
 33
0.0
  0
SOLID
  5
5072
330
5165
100
AcDbEntity
  8
0
  6
ByBlock
100
AcDbTrace
 10
923.8978539999999
 20
1666.448028
 30
0.0
 11
923.8978539999999
 21
1662.281360999999
 31
0.0
 12
936.3978539999999
 22
1664.364694
 32
0.0
 13
936.3978539999999
 23
1664.364694
 33
0.0
  0
TEXT
  5
5073
330
5165
100
AcDbEntity
  8
0
  6
ByBlock
 62
     2
100
AcDbText
 10
839.716167
 20
1667.362972
 30
0.0
 40
17.5
  1
%%c210
100
AcDbText
  0
POINT
  5
5074
330
5165
100
AcDbEntity
  8
DEFPOINTS
  6
ByBlock
 62
     0
100
AcDbPoint
 10
736.397854
 20
1589.477053
 30
0.0
  0
POINT
  5
5075
330
5165
100
AcDbEntity
  8
DEFPOINTS
  6
ByBlock
 62
     0
100
AcDbPoint
 10
936.3978539999999
 20
1589.477053
 30
0.0
  0
POINT
  5
5076
330
5165
100
AcDbEntity
  8
DEFPOINTS
  6
ByBlock
 62
     0
100
AcDbPoint
 10
936.3978539999999
 20
1664.364694
 30
0.0
  0
ENDBLK
  5
5077
330
5165
100
AcDbEntity
  8
0
100
AcDbBlockEnd
  0
BLOCK
  5
50A4
330
5167
100
AcDbEntity
  8
0
100
AcDbBlockBegin
  2
*D15
 70
     1
 10
0.0
 20
0.0
 30
0.0
  3
*D15
  1
GEVFRAME
  0
LINE
  5
50A5
330
5167
100
AcDbEntity
  8
0
  6
ByBlock
100
AcDbLine
 10
1218.414672
 20
1434.953877
 30
0.0
 11
1259.884626
 21
1411.011188
 31
0.0
  0
LINE
  5
50A6
330
5167
100
AcDbEntity
  8
0
  6
ByBlock
100
AcDbLine
 10
1203.125518
 20
1464.477053
 30
0.0
 11
1274.210761
 21
1464.477053
 31
0.0
  0
ARC
  5
50A7
330
5167
100
AcDbEntity
  8
0
  6
ByBlock
100
AcDbCircle
 10
1167.279031
 20
1464.477053
 30
0.0
 40
101.93173
100
AcDbArc
 50
321.282986
 51
330.0
  0
ARC
  5
50A8
330
5167
100
AcDbEntity
  8
0
  6
ByBlock
100
AcDbCircle
 10
1167.279031
 20
1464.477053
 30
0.0
 40
101.93173
100
AcDbArc
 50
337.030654
 51
352.969346
  0
SOLID
  5
50A9
330
5167
100
AcDbEntity
  8
0
  6
ByBlock
100
AcDbTrace
 10
1262.993674
 20
1423.770279
 30
0.0
 11
1259.264283
 21
1425.628439
 31
0.0
 12
1255.554499
 22
1413.511188
 32
0.0
 13
1255.554499
 23
1413.511188
 33
0.0
  0
SOLID
  5
50AA
330
5167
100
AcDbEntity
  8
0
  6
ByBlock
100
AcDbTrace
 10
1266.364903
 20
1452.128314
 30
0.0
 11
1270.52373
 21
1451.872832
 31
0.0
 12
1269.210761
 22
1464.477053
 32
0.0
 13
1269.210761
 23
1464.477053
 33
0.0
  0
TEXT
  5
50AB
330
5167
100
AcDbEntity
  8
0
  6
ByBlock
 62
     2
100
AcDbText
 10
1222.343834
 20
1374.996634
 30
0.0
 40
17.5
  1
30%%d
 50
51.282986
100
AcDbText
  0
POINT
  5
50AC
330
5167
100
AcDbEntity
  8
DEFPOINTS
  6
ByBlock
 62
     0
100
AcDbPoint
 10
1267.662189
 20
1446.776794
 30
0.0
  0
POINT
  5
50AD
330
5167
100
AcDbEntity
  8
DEFPOINTS
  6
ByBlock
 62
     0
100
AcDbPoint
 10
1136.432543
 20
1464.477053
 30
0.0
  0
POINT
  5
50AE
330
5167
100
AcDbEntity
  8
DEFPOINTS
  6
ByBlock
 62
     0
100
AcDbPoint
 10
1101.235524
 20
1502.60729
 30
0.0
  0
POINT
  5
50AF
330
5167
100
AcDbEntity
  8
DEFPOINTS
  6
ByBlock
 62
     0
100
AcDbPoint
 10
1214.084545
 20
1437.453877
 30
0.0
  0
POINT
  5
50B0
330
5167
100
AcDbEntity
  8
DEFPOINTS
  6
ByBlock
 62
     0
100
AcDbPoint
 10
1198.125518
 20
1464.477053
 30
0.0
  0
ENDBLK
  5
50B1
330
5167
100
AcDbEntity
  8
0
100
AcDbBlockEnd
  0
BLOCK
  5
5269
330
5267
100
AcDbEntity
  8
0
100
AcDbBlockBegin
  2
GENAXEH
 70
     0
 10
0.0
 20
0.0
 30
0.0
  3
GENAXEH
  1

  0
LINE
  5
5268
330
5267
100
AcDbEntity
  8
0
100
AcDbLine
 10
-1.0
 20
0.0
 30
0.0
 11
1.0
 21
0.0
 31
0.0
  0
ENDBLK
  5
526A
330
5267
100
AcDbEntity
  8
0
100
AcDbBlockEnd
  0
ENDSEC
  0
SECTION
  2
ENTITIES
  0
LINE
  5
4C13
330
5140
100
AcDbEntity
  8
7
100
AcDbLine
 10
836.3978540000001
 20
1999.103763
 30
0.0
 11
836.3978540000001
 21
1243.195386
 31
0.0
1001
GENIUS_GENODEF_13
1002
{
1000
HIER
1070
     0
1002
}
1002
{
1000
MANEDIT
1070
     0
1002
}
1002
{
1000
NOSEL
1070
     0
1002
}
1002
{
1000
BEHIND
1070
     0
1002
}
1002
{
1000
REACTOR
1002
}
1001
GENIUS_GENOBJ-N-CEN_13
1002
{
1000
OWNER
1000
GEN
1002
}
  0
LINE
  5
4C14
330
5140
100
AcDbEntity
  8
0
100
AcDbLine
 10
941.397854
 20
1918.726827
 30
0.0
 11
941.397854
 21
1589.477053
 31
0.0
1001
GENIUS_GENODEF_13
1002
{
1000
HIER
1070
     0
1002
}
1002
{
1000
MANEDIT
1070
     0
1002
}
1002
{
1000
NOSEL
1070
     0
1002
}
1002
{
1000
BEHIND
1070
     0
1002
}
1002
{
1000
REACTOR
1002
}
1001
GENIUS_GENOBJ-N-CEN_13
1002
{
1000
OWNER
1000
GEN
1002
}
  0
LINE
  5
4C18
330
5140
100
AcDbEntity
  8
0
100
AcDbLine
 10
568.897854
 20
1964.477053
 30
0.0
 11
968.8978539999999
 21
1964.477053
 31
0.0
  0
LINE
  5
4C19
330
5140
100
AcDbEntity
  8
0
100
AcDbLine
 10
968.8978539999999
 20
1964.477053
 30
0.0
 11
967.148081
 21
1944.477053
 31
0.0
1001
GENIUS_GENODEF_13
1002
{
1000
HIER
1070
     0
1002
}
1002
{
1000
MANEDIT
1070
     0
1002
}
1002
{
1000
NOSEL
1070
     0
1002
}
1002
{
1000
BEHIND
1070
     0
1002
}
1002
{
1000
REACTOR
1002
}
1001
GENIUS_GENOBJ-N-CEN_13
1002
{
1000
OWNER
1000
GEN
1002
}
  0
LINE
  5
4C1F
330
5140
100
AcDbEntity
  8
0
100
AcDbLine
 10
963.8787550000001
 20
1964.477053
 30
0.0
 11
962.3257179999999
 21
1946.725758
 31
0.0
1001
GENIUS_GENODEF_13
1002
{
1000
HIER
1070
     0
1002
}
1002
{
1000
MANEDIT
1070
     0
1002
}
1002
{
1000
NOSEL
1070
     0
1002
}
1002
{
1000
BEHIND
1070
     0
1002
}
1002
{
1000
REACTOR
1002
}
1001
GENIUS_GENOBJ-N-CEN_13
1002
{
1000
OWNER
1000
GEN
1002
}
  0
LINE
  5
4C23
330
5140
100
AcDbEntity
  8
0
100
AcDbLine
 10
729.2745099999999
 20
1946.725758
 30
0.0
 11
745.454446
 21
1946.725758
 31
0.0
  0
LINE
  5
4C25
330
5140
100
AcDbEntity
  8
0
100
AcDbLine
 10
967.148081
 20
1944.477053
 30
0.0
 11
941.397854
 21
1918.726827
 31
0.0
  0
LINE
  5
4C26
330
5140
100
AcDbEntity
  8
0
100
AcDbLine
 10
962.3257179999999
 20
1946.725758
 30
0.0
 11
936.3978539999999
 21
1920.797894
 31
0.0
  0
LINE
  5
4C28
330
5140
100
AcDbEntity
  8
0
100
AcDbLine
 10
936.3978539999999
 20
1920.797894
 30
0.0
 11
936.3978539999999
 21
1589.477053
 31
0.0
1001
GENIUS_GENODEF_13
1002
{
1000
HIER
1070
     0
1002
}
1002
{
1000
MANEDIT
1070
     0
1002
}
1002
{
1000
NOSEL
1070
     0
1002
}
1002
{
1000
BEHIND
1070
     0
1002
}
1002
{
1000
REACTOR
1002
}
1001
GENIUS_GENOBJ-N-CEN_13
1002
{
1000
OWNER
1000
GEN
1002
}
  0
LINE
  5
4C2A
330
5140
100
AcDbEntity
  8
0
100
AcDbLine
 10
726.872336
 20
1589.477053
 30
0.0
 11
871.0388699999999
 21
1589.477053
 31
0.0
  0
LINE
  5
4C2C
330
5140
100
AcDbEntity
  8
7
100
AcDbLine
 10
1136.432543
 20
1464.477053
 30
0.0
 11
1198.125518
 21
1464.477053
 31
0.0
  0
LINE
  5
4C2E
330
5140
100
AcDbEntity
  8
7
100
AcDbLine
 10
1166.397854
 20
1514.698235
 30
0.0
 11
1166.397854
 21
1426.37803
 31
0.0
1001
GENIUS_GENODEF_13
1002
{
1000
HIER
1070
     0
1002
}
1002
{
1000
MANEDIT
1070
     0
1002
}
1002
{
1000
NOSEL
1070
     0
1002
}
1002
{
1000
BEHIND
1070
     0
1002
}
1002
{
1000
REACTOR
1002
}
1001
GENIUS_GENOBJ-N-CEN_13
1002
{
1000
OWNER
1000
GEN
1002
}
  0
LINE
  5
4C30
330
5140
100
AcDbEntity
  8
7A
100
AcDbLine
 10
1101.235524
 20
1502.60729
 30
0.0
 11
1214.084545
 21
1437.453877
 31
0.0
1001
GENIUS_GENODEF_13
1002
{
1000
HIER
1070
     0
1002
}
1002
{
1000
MANEDIT
1070
     0
1002
}
1002
{
1000
NOSEL
1070
     0
1002
}
1002
{
1000
BEHIND
1070
     0
1002
}
1002
{
1000
REACTOR
1002
}
1001
GENIUS_GENOBJ-N-CEN_13
1002
{
1000
OWNER
1000
GEN
1002
}
  0
LINE
  5
4C31
330
5140
100
AcDbEntity
  8
0
100
AcDbLine
 10
1065.351256
 20
1581.060109
 30
0.0
 11
1192.279031
 21
1507.778323
 31
0.0
1001
GENIUS_GENODEF_13
1002
{
1000
HIER
1070
     0
1002
}
1002
{
1000
MANEDIT
1070
     0
1002
}
1002
{
1000
NOSEL
1070
     0
1002
}
1002
{
1000
BEHIND
1070
     0
1002
}
1002
{
1000
REACTOR
1002
}
1001
GENIUS_GENOBJ-N-CEN_13
1002
{
1000
OWNER
1000
GEN
1002
}
  0
LINE
  5
4C33
330
5140
100
AcDbEntity
  8
0
100
AcDbLine
 10
1043.897854
 20
1477.976182
 30
0.0
 11
1142.279031
 21
1421.175783
 31
0.0
1001
GENIUS_GENODEF_13
1002
{
1000
HIER
1070
     0
1002
}
1002
{
1000
MANEDIT
1070
     0
1002
}
1002
{
1000
NOSEL
1070
     0
1002
}
1002
{
1000
BEHIND
1070
     0
1002
}
1002
{
1000
REACTOR
1002
}
1001
GENIUS_GENOBJ-N-CEN_13
1002
{
1000
OWNER
1000
GEN
1002
}
  0
LINE
  5
4C35
330
5140
100
AcDbEntity
  8
0
100
AcDbLine
 10
1142.279031
 20
1421.175783
 30
0.0
 11
1192.279031
 21
1507.778323
 31
0.0
1001
GENIUS_VERSION2
1070
     2
  0
LINE
  5
4C37
330
5140
100
AcDbEntity
  8
0
100
AcDbLine
 10
952.437721
 20
1609.187964
 30
0.0
 11
951.3910019999999
 21
1589.215373
 31
0.0
1001
GENIUS_GENODEF_13
1002
{
1000
HIER
1070
     0
1002
}
1002
{
1000
MANEDIT
1070
     0
1002
}
1002
{
1000
NOSEL
1070
     0
1002
}
1002
{
1000
BEHIND
1070
     0
1002
}
1002
{
1000
REACTOR
1002
}
1001
GENIUS_GENOBJ-N-CEN_13
1002
{
1000
OWNER
1000
GEN
1002
}
  0
LINE
  5
4C38
330
5140
100
AcDbEntity
  8
0
100
AcDbLine
 10
947.4445729999999
 20
1609.449644
 30
0.0
 11
946.3978539999999
 21
1589.477053
 31
0.0
1001
GENIUS_VERSION2
1070
     2
1001
GENIUS_GENODEF_13
1002
{
1000
HIER
1070
     0
1002
}
1002
{
1000
MANEDIT
1070
     0
1002
}
1002
{
1000
NOSEL
1070
     0
1002
}
1002
{
1000
BEHIND
1070
     0
1002
}
1002
{
1000
REACTOR
1002
}
1001
GENIUS_GENOBJ-N-CEN_13
1002
{
1000
OWNER
1000
GEN
1002
}
  0
LINE
  5
4C39
330
5140
100
AcDbEntity
  8
0
100
AcDbLine
 10
952.437721
 20
1609.187964
 30
0.0
 11
951.3910019999999
 21
1589.215373
 31
0.0
1001
GENIUS_GENODEF_13
1002
{
1000
HIER
1070
     0
1002
}
1002
{
1000
MANEDIT
1070
     0
1002
}
1002
{
1000
NOSEL
1070
     0
1002
}
1002
{
1000
BEHIND
1070
     0
1002
}
1002
{
1000
REACTOR
1002
}
1001
GENIUS_GENOBJ-N-CEN_13
1002
{
1000
OWNER
1000
GEN
1002
}
  0
LINE
  5
4C3A
330
5140
100
AcDbEntity
  8
0
100
AcDbLine
 10
947.4445729999999
 20
1609.449644
 30
0.0
 11
946.3978539999999
 21
1589.477053
 31
0.0
1001
GENIUS_GENODEF_13
1002
{
1000
HIER
1070
     0
1002
}
1002
{
1000
MANEDIT
1070
     0
1002
}
1002
{
1000
NOSEL
1070
     0
1002
}
1002
{
1000
BEHIND
1070
     0
1002
}
1002
{
1000
REACTOR
1002
}
1001
GENIUS_GENOBJ-N-CEN_13
1002
{
1000
OWNER
1000
GEN
1002
}
  0
LINE
  5
4C3B
330
5140
100
AcDbEntity
  8
0
100
AcDbLine
 10
947.4445729999999
 20
1609.449644
 30
0.0
 11
952.437721
 21
1609.187964
 31
0.0
  0
LINE
  5
4C3D
330
5140
100
AcDbEntity
  8
0
100
AcDbLine
 10
951.3910019999999
 20
1589.215373
 30
0.0
 11
1056.397975
 21
1583.712191
 31
0.0
  0
LINE
  5
4C3E
330
5140
100
AcDbEntity
  8
0
100
AcDbLine
 10
941.143027
 20
1584.745585
 30
0.0
 11
1056.136295
 21
1578.719044
 31
0.0
  0
LINE
  5
4C40
330
5140
100
AcDbEntity
  8
0
100
AcDbLine
 10
941.390992
 20
1589.477053
 30
0.0
 11
939.447627
 21
1384.985801
 31
0.0
1001
GENIUS_GENODEF_13
1002
{
1000
HIER
1070
     0
1002
}
1002
{
1000
MANEDIT
1070
     0
1002
}
1002
{
1000
NOSEL
1070
     0
1002
}
1002
{
1000
BEHIND
1070
     0
1002
}
1002
{
1000
REACTOR
1002
}
1001
GENIUS_GENOBJ-N-CEN_13
1002
{
1000
OWNER
1000
GEN
1002
}
  0
LINE
  5
4C42
330
5140
100
AcDbEntity
  8
0
100
AcDbLine
 10
946.1361739999999
 20
1584.483906
 30
0.0
 11
944.4886310000001
 21
1384.985801
 31
0.0
1001
GENIUS_VERSION2
1070
     2
1001
GENIUS_GENODEF_13
1002
{
1000
HIER
1070
     0
1002
}
1002
{
1000
MANEDIT
1070
     0
1002
}
1002
{
1000
NOSEL
1070
     0
1002
}
1002
{
1000
BEHIND
1070
     0
1002
}
1002
{
1000
REACTOR
1002
}
1001
GENIUS_GENOBJ-N-CEN_13
1002
{
1000
OWNER
1000
GEN
1002
}
  0
ARC
  5
4C43
330
5140
100
AcDbEntity
  8
0
100
AcDbCircle
 10
1055.351256
 20
1563.739601
 30
0.0
 40
20.0
100
AcDbArc
 50
60.0
 51
87.0
1001
GENIUS_GENODEF_13
1002
{
1000
HIER
1070
     0
1002
}
1002
{
1000
MANEDIT
1070
     0
1002
}
1002
{
1000
NOSEL
1070
     0
1002
}
1002
{
1000
BEHIND
1070
     0
1002
}
1002
{
1000
REACTOR
1002
}
1001
GENIUS_GENOBJ-N-FIL_13
1002
{
1000
OWNER
1000
GEN
1002
}
  0
LINE
  5
4C44
330
5140
100
AcDbEntity
  8
0
100
AcDbLine
 10
1062.851256
 20
1576.729982
 30
0.0
 11
1189.779031
 21
1503.448196
 31
0.0
1001
GENIUS_VERSION2
1070
     2
1001
GENIUS_GENODEF_13
1002
{
1000
HIER
1070
     0
1002
}
1002
{
1000
MANEDIT
1070
     0
1002
}
1002
{
1000
NOSEL
1070
     0
1002
}
1002
{
1000
BEHIND
1070
     0
1002
}
1002
{
1000
REACTOR
1002
}
1001
GENIUS_GENOBJ-N-CEN_13
1002
{
1000
OWNER
1000
GEN
1002
}
  0
ARC
  5
4C48
330
5140
100
AcDbEntity
  8
0
100
AcDbCircle
 10
1055.351256
 20
1563.739601
 30
0.0
 40
15.0
100
AcDbArc
 50
60.0
 51
87.0
1001
GENIUS_GENODEF_13
1002
{
1000
HIER
1070
     0
1002
}
1002
{
1000
MANEDIT
1070
     0
1002
}
1002
{
1000
NOSEL
1070
     0
1002
}
1002
{
1000
BEHIND
1070
     0
1002
}
1002
{
1000
REACTOR
1002
}
1001
GENIUS_GENOBJ-N-FIL_13
1002
{
1000
OWNER
1000
GEN
1002
}
  0
LINE
  5
4C49
330
5140
100
AcDbEntity
  8
0
100
AcDbLine
 10
1046.397854
 20
1482.306309
 30
0.0
 11
1144.779031
 21
1425.50591
 31
0.0
1001
GENIUS_GENODEF_13
1002
{
1000
HIER
1070
     0
1002
}
1002
{
1000
MANEDIT
1070
     0
1002
}
1002
{
1000
NOSEL
1070
     0
1002
}
1002
{
1000
BEHIND
1070
     0
1002
}
1002
{
1000
REACTOR
1002
}
1001
GENIUS_GENOBJ-N-CEN_13
1002
{
1000
OWNER
1000
GEN
1002
}
  0
LINE
  5
4C4B
330
5140
100
AcDbEntity
  8
0
100
AcDbLine
 10
1016.397854
 20
1464.985801
 30
0.0
 11
1016.397854
 21
1364.477053
 31
0.0
1001
GENIUS_GENODEF_13
1002
{
1000
HIER
1070
     0
1002
}
1002
{
1000
MANEDIT
1070
     0
1002
}
1002
{
1000
NOSEL
1070
     0
1002
}
1002
{
1000
BEHIND
1070
     0
1002
}
1002
{
1000
REACTOR
1002
}
1001
GENIUS_GENOBJ-N-CEN_13
1002
{
1000
OWNER
1000
GEN
1002
}
  0
LINE
  5
4C4E
330
5140
100
AcDbEntity
  8
0
100
AcDbLine
 10
1021.397854
 20
1464.985801
 30
0.0
 11
1021.397854
 21
1364.477053
 31
0.0
1001
GENIUS_VERSION2
1070
     2
1001
GENIUS_GENODEF_13
1002
{
1000
HIER
1070
     0
1002
}
1002
{
1000
MANEDIT
1070
     0
1002
}
1002
{
1000
NOSEL
1070
     0
1002
}
1002
{
1000
BEHIND
1070
     0
1002
}
1002
{
1000
REACTOR
1002
}
1001
GENIUS_GENOBJ-N-CEN_13
1002
{
1000
OWNER
1000
GEN
1002
}
  0
ARC
  5
4C50
330
5140
100
AcDbEntity
  8
0
100
AcDbCircle
 10
1036.397854
 20
1464.985801
 30
0.0
 40
15.0
100
AcDbArc
 50
60.0
 51
180.0
1001
GENIUS_GENODEF_13
1002
{
1000
HIER
1070
     0
1002
}
1002
{
1000
MANEDIT
1070
     0
1002
}
1002
{
1000
NOSEL
1070
     0
1002
}
1002
{
1000
BEHIND
1070
     0
1002
}
1002
{
1000
REACTOR
1002
}
1001
GENIUS_GENOBJ-N-FIL_13
1002
{
1000
OWNER
1000
GEN
1002
}
1001
GENIUS_VERSION2
1070
     2
1001
GENIUS_GENOBJ-N-CEN_13
1002
{
1000
OWNER
1000
GEN
1002
}
  0
ARC
  5
4C51
330
5140
100
AcDbEntity
  8
0
100
AcDbCircle
 10
1036.397854
 20
1464.985801
 30
0.0
 40
20.0
100
AcDbArc
 50
60.0
 51
180.0
1001
GENIUS_GENODEF_13
1002
{
1000
HIER
1070
     0
1002
}
1002
{
1000
MANEDIT
1070
     0
1002
}
1002
{
1000
NOSEL
1070
     0
1002
}
1002
{
1000
BEHIND
1070
     0
1002
}
1002
{
1000
REACTOR
1002
}
1001
GENIUS_GENOBJ-N-FIL_13
1002
{
1000
OWNER
1000
GEN
1002
}
1001
GENIUS_GENOBJ-N-CEN_13
1002
{
1000
OWNER
1000
GEN
1002
}
  0
LINE
  5
4C52
330
5140
100
AcDbEntity
  8
0
100
AcDbLine
 10
739.220048
 20
1264.477053
 30
0.0
 11
921.3978539999999
 21
1264.477053
 31
0.0
  0
LINE
  5
4C55
330
5140
100
AcDbEntity
  8
0
100
AcDbLine
 10
944.4886310000001
 20
1384.985801
 30
0.0
 11
906.3978539999999
 21
1384.985801
 31
0.0
  0
LINE
  5
4C57
330
5140
100
AcDbEntity
  8
0
100
AcDbLine
 10
906.3978539999999
 20
1519.477053
 30
0.0
 11
906.3978539999999
 21
1269.477053
 31
0.0
1001
GENIUS_GENODEF_13
1002
{
1000
HIER
1070
     0
1002
}
1002
{
1000
MANEDIT
1070
     0
1002
}
1002
{
1000
NOSEL
1070
     0
1002
}
1002
{
1000
BEHIND
1070
     0
1002
}
1002
{
1000
REACTOR
1002
}
1001
GENIUS_GENOBJ-N-CEN_13
1002
{
1000
OWNER
1000
GEN
1002
}
  0
LINE
  5
4C59
330
5140
100
AcDbEntity
  8
0
100
AcDbLine
 10
766.397854
 20
1519.477053
 30
0.0
 11
766.397854
 21
1269.477053
 31
0.0
1001
GENIUS_GENODEF_13
1002
{
1000
HIER
1070
     0
1002
}
1002
{
1000
MANEDIT
1070
     0
1002
}
1002
{
1000
NOSEL
1070
     0
1002
}
1002
{
1000
BEHIND
1070
     0
1002
}
1002
{
1000
REACTOR
1002
}
1001
GENIUS_GENOBJ-N-CEN_13
1002
{
1000
OWNER
1000
GEN
1002
}
  0
LINE
  5
4C5B
330
5140
100
AcDbEntity
  8
0
100
AcDbLine
 10
739.3985179999999
 20
1269.477053
 30
0.0
 11
921.3978539999999
 21
1269.477053
 31
0.0
1001
GENIUS_VERSION2
1070
     2
  0
ARC
  5
4C5D
330
5140
100
AcDbEntity
  8
0
100
AcDbCircle
 10
921.3978539999999
 20
1364.477053
 30
0.0
 40
100.0
100
AcDbArc
 50
270.0
 51
0.0
1001
GENIUS_GENODEF_13
1002
{
1000
HIER
1070
     0
1002
}
1002
{
1000
MANEDIT
1070
     0
1002
}
1002
{
1000
NOSEL
1070
     0
1002
}
1002
{
1000
BEHIND
1070
     0
1002
}
1002
{
1000
REACTOR
1002
}
1001
GENIUS_GENOBJ-N-FIL_13
1002
{
1000
OWNER
1000
GEN
1002
}
1001
GENIUS_VERSION2
1070
     2
1001
GENIUS_GENOBJ-N-CEN_13
1002
{
1000
OWNER
1000
GEN
1002
}
  0
ARC
  5
4C5E
330
5140
100
AcDbEntity
  8
0
100
AcDbCircle
 10
921.3978539999999
 20
1364.477053
 30
0.0
 40
95.0
100
AcDbArc
 50
270.0
 51
0.0
1001
GENIUS_GENODEF_13
1002
{
1000
HIER
1070
     0
1002
}
1002
{
1000
MANEDIT
1070
     0
1002
}
1002
{
1000
NOSEL
1070
     0
1002
}
1002
{
1000
BEHIND
1070
     0
1002
}
1002
{
1000
REACTOR
1002
}
1001
GENIUS_GENOBJ-N-FIL_13
1002
{
1000
OWNER
1000
GEN
1002
}
1001
GENIUS_VERSION2
1070
     2
  0
LINE
  5
4C5F
330
5140
100
AcDbEntity
  8
0
100
AcDbLine
 10
766.397854
 20
1519.477053
 30
0.0
 11
831.397854
 21
1519.477053
 31
0.0
1001
GENIUS_VERSION2
1070
     2
  0
LINE
  5
4C63
330
5140
100
AcDbEntity
  8
0
100
AcDbLine
 10
751.397854
 20
1534.477052999999
 30
0.0
 11
921.3978539999999
 21
1534.477052999999
 31
0.0
1001
GENIUS_VERSION2
1070
     2
  0
LINE
  5
4C65
330
5140
100
AcDbEntity
  8
0
100
AcDbLine
 10
906.3978539999999
 20
1519.477053
 30
0.0
 11
921.3978539999999
 21
1534.477052999999
 31
0.0
  0
LINE
  5
4C66
330
5140
100
AcDbEntity
  8
0
100
AcDbLine
 10
766.397854
 20
1519.477053
 30
0.0
 11
751.397854
 21
1534.477052999999
 31
0.0
  0
LINE
  5
4C67
330
5140
100
AcDbEntity
  8
0
100
AcDbLine
 10
766.397854
 20
1284.477053
 30
0.0
 11
906.3978539999999
 21
1284.477053
 31
0.0
1001
GENIUS_VERSION2
1070
     2
  0
CIRCLE
  5
4C6A
330
5140
100
AcDbEntity
  8
0
100
AcDbCircle
 10
836.3978540000001
 20
1519.477053
 30
0.0
 40
5.0
  0
LINE
  5
4C6E
330
5140
100
AcDbEntity
  8
0
100
AcDbLine
 10
840.727981
 20
1516.977053
 30
0.0
 11
912.3593839999999
 21
1641.046282
 31
0.0
  0
LINE
  5
4C6F
330
5140
100
AcDbEntity
  8
0
100
AcDbLine
 10
832.067727
 20
1521.977053
 30
0.0
 11
902.4562130000001
 21
1643.893486
 31
0.0
  0
CIRCLE
  5
4C71
330
5140
100
AcDbEntity
  8
0
100
AcDbCircle
 10
908.0292570000001
 20
1643.546282
 30
0.0
 40
5.0
  0
LINE
  5
4C72
330
5140
100
AcDbEntity
  8
0
100
AcDbLine
 10
882.585876
 20
1589.477053
 30
0.0
 11
946.3978539999999
 21
1589.477053
 31
0.0
  0
LINE
  5
4C73
330
5140
100
AcDbEntity
  8
0
100
AcDbLine
 10
842.1713570000001
 20
1519.477053
 30
0.0
 11
906.3978539999999
 21
1519.477053
 31
0.0
1001
GENIUS_VERSION2
1070
     2
  0
LINE
  5
4C74
330
5140
100
AcDbEntity
  8
0
100
AcDbLine
 10
726.659534
 20
1584.483906
 30
0.0
 11
729.2203889999999
 21
1274.394472
 31
0.0
1001
GENIUS_VERSION2
1070
     2
1001
GENIUS_GENODEF_13
1002
{
1000
HIER
1070
     0
1002
}
1002
{
1000
MANEDIT
1070
     0
1002
}
1002
{
1000
NOSEL
1070
     0
1002
}
1002
{
1000
BEHIND
1070
     0
1002
}
1002
{
1000
REACTOR
1002
}
1001
GENIUS_GENOBJ-N-CEN_13
1002
{
1000
OWNER
1000
GEN
1002
}
  0
LINE
  5
4C75
330
5140
100
AcDbEntity
  8
0
100
AcDbLine
 10
731.404716
 20
1589.477053
 30
0.0
 11
734.3987440000001
 21
1274.429538
 31
0.0
1001
GENIUS_VERSION2
1070
     2
1001
GENIUS_GENODEF_13
1002
{
1000
HIER
1070
     0
1002
}
1002
{
1000
MANEDIT
1070
     0
1002
}
1002
{
1000
NOSEL
1070
     0
1002
}
1002
{
1000
BEHIND
1070
     0
1002
}
1002
{
1000
REACTOR
1002
}
1001
GENIUS_GENOBJ-N-CEN_13
1002
{
1000
OWNER
1000
GEN
1002
}
  0
ARC
  5
4C76
330
5140
100
AcDbEntity
  8
0
100
AcDbCircle
 10
739.3985179999999
 20
1274.477053
 30
0.0
 40
5.0
100
AcDbArc
 50
180.544489
 51
270.0
1001
GENIUS_GENODEF_13
1002
{
1000
HIER
1070
     0
1002
}
1002
{
1000
MANEDIT
1070
     0
1002
}
1002
{
1000
NOSEL
1070
     0
1002
}
1002
{
1000
BEHIND
1070
     0
1002
}
1002
{
1000
REACTOR
1002
}
1001
GENIUS_GENOBJ-N-FIL_13
1002
{
1000
OWNER
1000
GEN
1002
}
1001
GENIUS_VERSION2
1070
     2
1001
GENIUS_GENOBJ-N-CEN_13
1002
{
1000
OWNER
1000
GEN
1002
}
  0
ARC
  5
4C77
330
5140
100
AcDbEntity
  8
0
100
AcDbCircle
 10
739.220048
 20
1274.477053
 30
0.0
 40
10.0
100
AcDbArc
 50
180.473163
 51
270.0
1001
GENIUS_GENODEF_13
1002
{
1000
HIER
1070
     0
1002
}
1002
{
1000
MANEDIT
1070
     0
1002
}
1002
{
1000
NOSEL
1070
     0
1002
}
1002
{
1000
BEHIND
1070
     0
1002
}
1002
{
1000
REACTOR
1002
}
1001
GENIUS_GENOBJ-N-FIL_13
1002
{
1000
OWNER
1000
GEN
1002
}
1001
GENIUS_VERSION2
1070
     2
1001
GENIUS_GENOBJ-N-CEN_13
1002
{
1000
OWNER
1000
GEN
1002
}
  0
LINE
  5
4C78
330
5140
100
AcDbEntity
  8
0
100
AcDbLine
 10
720.3579869999999
 20
1609.187964
 30
0.0
 11
721.4047059999999
 21
1589.215373
 31
0.0
1001
GENIUS_GENODEF_13
1002
{
1000
HIER
1070
     0
1002
}
1002
{
1000
MANEDIT
1070
     0
1002
}
1002
{
1000
NOSEL
1070
     0
1002
}
1002
{
1000
BEHIND
1070
     0
1002
}
1002
{
1000
REACTOR
1002
}
1001
GENIUS_GENOBJ-N-CEN_13
1002
{
1000
OWNER
1000
GEN
1002
}
  0
LINE
  5
4C79
330
5140
100
AcDbEntity
  8
0
100
AcDbLine
 10
725.351135
 20
1609.449644
 30
0.0
 11
726.397854
 21
1589.477053
 31
0.0
1001
GENIUS_VERSION2
1070
     2
1001
GENIUS_GENODEF_13
1002
{
1000
HIER
1070
     0
1002
}
1002
{
1000
MANEDIT
1070
     0
1002
}
1002
{
1000
NOSEL
1070
     0
1002
}
1002
{
1000
BEHIND
1070
     0
1002
}
1002
{
1000
REACTOR
1002
}
1001
GENIUS_GENOBJ-N-CEN_13
1002
{
1000
OWNER
1000
GEN
1002
}
  0
LINE
  5
4C7A
330
5140
100
AcDbEntity
  8
0
100
AcDbLine
 10
720.3579869999999
 20
1609.187964
 30
0.0
 11
721.457042
 21
1588.216744
 31
0.0
1001
GENIUS_GENODEF_13
1002
{
1000
HIER
1070
     0
1002
}
1002
{
1000
MANEDIT
1070
     0
1002
}
1002
{
1000
NOSEL
1070
     0
1002
}
1002
{
1000
BEHIND
1070
     0
1002
}
1002
{
1000
REACTOR
1002
}
1001
GENIUS_GENOBJ-N-CEN_13
1002
{
1000
OWNER
1000
GEN
1002
}
  0
LINE
  5
4C7B
330
5140
100
AcDbEntity
  8
0
100
AcDbLine
 10
725.351135
 20
1609.449644
 30
0.0
 11
726.373022
 21
1589.950885
 31
0.0
1001
GENIUS_GENODEF_13
1002
{
1000
HIER
1070
     0
1002
}
1002
{
1000
MANEDIT
1070
     0
1002
}
1002
{
1000
NOSEL
1070
     0
1002
}
1002
{
1000
BEHIND
1070
     0
1002
}
1002
{
1000
REACTOR
1002
}
1001
GENIUS_GENOBJ-N-CEN_13
1002
{
1000
OWNER
1000
GEN
1002
}
  0
LINE
  5
4C7C
330
5140
100
AcDbEntity
  8
0
100
AcDbLine
 10
725.351135
 20
1609.449644
 30
0.0
 11
720.3579869999999
 21
1609.187964
 31
0.0
  0
LINE
  5
4C7D
330
5140
100
AcDbEntity
  8
0
100
AcDbLine
 10
731.397854
 20
1659.477052999999
 30
0.0
 11
731.397854
 21
1589.477053
 31
0.0
1001
GENIUS_GENODEF_13
1002
{
1000
HIER
1070
     0
1002
}
1002
{
1000
MANEDIT
1070
     0
1002
}
1002
{
1000
NOSEL
1070
     0
1002
}
1002
{
1000
BEHIND
1070
     0
1002
}
1002
{
1000
REACTOR
1002
}
1001
GENIUS_GENOBJ-N-CEN_13
1002
{
1000
OWNER
1000
GEN
1002
}
  0
LINE
  5
4C7E
330
5140
100
AcDbEntity
  8
0
100
AcDbLine
 10
736.397854
 20
1661.548121
 30
0.0
 11
736.397854
 21
1589.477053
 31
0.0
1001
GENIUS_VERSION2
1070
     2
1001
GENIUS_GENODEF_13
1002
{
1000
HIER
1070
     0
1002
}
1002
{
1000
MANEDIT
1070
     0
1002
}
1002
{
1000
NOSEL
1070
     0
1002
}
1002
{
1000
BEHIND
1070
     0
1002
}
1002
{
1000
REACTOR
1002
}
1001
GENIUS_GENOBJ-N-CEN_13
1002
{
1000
OWNER
1000
GEN
1002
}
  0
LINE
  5
4C7F
330
5140
100
AcDbEntity
  8
0
100
AcDbLine
 10
726.659534
 20
1584.483906
 30
0.0
 11
725.6609039999999
 21
1584.43157
 31
0.0
1001
GENIUS_VERSION2
1070
     2
  0
ARC
  5
4C80
330
5140
100
AcDbEntity
  8
0
100
AcDbCircle
 10
725.4515610000001
 20
1588.426088
 30
0.0
 40
4.0
100
AcDbArc
 50
183.0
 51
273.0
1001
GENIUS_GENODEF_13
1002
{
1000
HIER
1070
     0
1002
}
1002
{
1000
MANEDIT
1070
     0
1002
}
1002
{
1000
NOSEL
1070
     0
1002
}
1002
{
1000
BEHIND
1070
     0
1002
}
1002
{
1000
REACTOR
1002
}
1001
GENIUS_GENOBJ-N-FIL_13
1002
{
1000
OWNER
1000
GEN
1002
}
1001
GENIUS_GENOBJ-N-CEN_13
1002
{
1000
OWNER
1000
GEN
1002
}
  0
ARC
  5
4C81
330
5140
100
AcDbEntity
  8
0
100
AcDbCircle
 10
726.872336
 20
1589.977053
 30
0.0
 40
0.5
100
AcDbArc
 50
183.0
 51
270.0
1001
GENIUS_GENODEF_13
1002
{
1000
HIER
1070
     0
1002
}
1002
{
1000
MANEDIT
1070
     0
1002
}
1002
{
1000
NOSEL
1070
     0
1002
}
1002
{
1000
BEHIND
1070
     0
1002
}
1002
{
1000
REACTOR
1002
}
1001
GENIUS_GENOBJ-N-FIL_13
1002
{
1000
OWNER
1000
GEN
1002
}
1001
GENIUS_GENOBJ-N-CEN_13
1002
{
1000
OWNER
1000
GEN
1002
}
  0
LINE
  5
4C89
330
5140
100
AcDbEntity
  8
0
100
AcDbLine
 10
568.897854
 20
1964.477053
 30
0.0
 11
571.4959309999999
 21
1954.780898
 31
0.0
1001
GENIUS_GENODEF_13
1002
{
1000
HIER
1070
     0
1002
}
1002
{
1000
MANEDIT
1070
     0
1002
}
1002
{
1000
NOSEL
1070
     0
1002
}
1002
{
1000
BEHIND
1070
     0
1002
}
1002
{
1000
REACTOR
1002
}
1001
GENIUS_GENOBJ-N-CEN_13
1002
{
1000
OWNER
1000
GEN
1002
}
  0
LINE
  5
4C8C
330
5140
100
AcDbEntity
  8
0
100
AcDbLine
 10
571.4959309999999
 20
1954.780898
 30
0.0
 11
573.503571
 21
1954.780898
 31
0.0
  0
LINE
  5
4C8E
330
5140
100
AcDbEntity
  8
0
100
AcDbLine
 10
573.503571
 20
1954.780898
 30
0.0
 11
585.642699
 21
1909.477053
 31
0.0
1001
GENIUS_GENODEF_13
1002
{
1000
HIER
1070
     0
1002
}
1002
{
1000
MANEDIT
1070
     0
1002
}
1002
{
1000
NOSEL
1070
     0
1002
}
1002
{
1000
BEHIND
1070
     0
1002
}
1002
{
1000
REACTOR
1002
}
1001
GENIUS_GENOBJ-N-CEN_13
1002
{
1000
OWNER
1000
GEN
1002
}
  0
LINE
  5
4C90
330
5140
100
AcDbEntity
  8
7
100
AcDbLine
 10
648.397854
 20
1999.103763
 30
0.0
 11
648.397854
 21
1890.378548
 31
0.0
1001
GENIUS_GENODEF_13
1002
{
1000
HIER
1070
     0
1002
}
1002
{
1000
MANEDIT
1070
     0
1002
}
1002
{
1000
NOSEL
1070
     0
1002
}
1002
{
1000
BEHIND
1070
     0
1002
}
1002
{
1000
REACTOR
1002
}
1001
GENIUS_GENOBJ-N-CEN_13
1002
{
1000
OWNER
1000
GEN
1002
}
  0
LINE
  5
4C92
330
5140
100
AcDbEntity
  8
0
100
AcDbLine
 10
698.397854
 20
1914.477053
 30
0.0
 11
698.397854
 21
1909.477053
 31
0.0
1001
GENIUS_GENODEF_13
1002
{
1000
HIER
1070
     0
1002
}
1002
{
1000
MANEDIT
1070
     0
1002
}
1002
{
1000
NOSEL
1070
     0
1002
}
1002
{
1000
BEHIND
1070
     0
1002
}
1002
{
1000
REACTOR
1002
}
1001
GENIUS_GENOBJ-N-CEN_13
1002
{
1000
OWNER
1000
GEN
1002
}
  0
LINE
  5
4C94
330
5140
100
AcDbEntity
  8
0
100
AcDbLine
 10
598.397854
 20
1914.477053
 30
0.0
 11
598.397854
 21
1859.609088
 31
0.0
1001
GENIUS_GENODEF_13
1002
{
1000
HIER
1070
     0
1002
}
1002
{
1000
MANEDIT
1070
     0
1002
}
1002
{
1000
NOSEL
1070
     0
1002
}
1002
{
1000
BEHIND
1070
     0
1002
}
1002
{
1000
REACTOR
1002
}
1001
GENIUS_GENOBJ-N-CEN_13
1002
{
1000
OWNER
1000
GEN
1002
}
  0
LINE
  5
4C98
330
5140
100
AcDbEntity
  8
0
100
AcDbLine
 10
589.4793339999999
 20
1914.477053
 30
0.0
 11
707.316374
 21
1914.477053
 31
0.0
  0
LINE
  5
4C9A
330
5140
100
AcDbEntity
  8
0
100
AcDbLine
 10
585.642699
 20
1909.477053
 30
0.0
 11
593.397854
 21
1909.477053
 31
0.0
  0
LINE
  5
4C9C
330
5140
100
AcDbEntity
  8
0
100
AcDbLine
 10
576.0818749999999
 20
1964.477053
 30
0.0
 11
589.4793339999999
 21
1914.477053
 31
0.0
1001
GENIUS_GENODEF_13
1002
{
1000
HIER
1070
     0
1002
}
1002
{
1000
MANEDIT
1070
     0
1002
}
1002
{
1000
NOSEL
1070
     0
1002
}
1002
{
1000
BEHIND
1070
     0
1002
}
1002
{
1000
REACTOR
1002
}
1001
GENIUS_GENOBJ-N-CEN_13
1002
{
1000
OWNER
1000
GEN
1002
}
  0
LINE
  5
4CA1
330
5140
100
AcDbEntity
  8
0
100
AcDbLine
 10
593.397854
 20
1909.477053
 30
0.0
 11
593.397854
 21
1859.609088
 31
0.0
1001
GENIUS_GENODEF_13
1002
{
1000
HIER
1070
     0
1002
}
1002
{
1000
MANEDIT
1070
     0
1002
}
1002
{
1000
NOSEL
1070
     0
1002
}
1002
{
1000
BEHIND
1070
     0
1002
}
1002
{
1000
REACTOR
1002
}
1001
GENIUS_GENOBJ-N-CEN_13
1002
{
1000
OWNER
1000
GEN
1002
}
  0
LINE
  5
4CA3
330
5140
100
AcDbEntity
  8
0
100
AcDbLine
 10
720.713834
 20
1964.477053
 30
0.0
 11
707.316374
 21
1914.477053
 31
0.0
1001
GENIUS_GENODEF_13
1002
{
1000
HIER
1070
     0
1002
}
1002
{
1000
MANEDIT
1070
     0
1002
}
1002
{
1000
NOSEL
1070
     0
1002
}
1002
{
1000
BEHIND
1070
     0
1002
}
1002
{
1000
REACTOR
1002
}
1001
GENIUS_GENOBJ-N-CEN_13
1002
{
1000
OWNER
1000
GEN
1002
}
  0
LINE
  5
4CA4
330
5140
100
AcDbEntity
  8
0
100
AcDbLine
 10
719.369561
 20
1936.78702
 30
0.0
 11
711.153009
 21
1909.477053
 31
0.0
1001
GENIUS_VERSION2
1070
     2
1001
GENIUS_GENODEF_13
1002
{
1000
HIER
1070
     0
1002
}
1002
{
1000
MANEDIT
1070
     0
1002
}
1002
{
1000
NOSEL
1070
     0
1002
}
1002
{
1000
BEHIND
1070
     0
1002
}
1002
{
1000
REACTOR
1002
}
1001
GENIUS_GENOBJ-N-CEN_13
1002
{
1000
OWNER
1000
GEN
1002
}
  0
LINE
  5
4CA5
330
5140
100
AcDbEntity
  8
0
100
AcDbLine
 10
648.397854
 20
1909.477053
 30
0.0
 11
742.5719230000001
 21
1909.477053
 31
0.0
  0
LINE
  5
4CA6
330
5140
100
AcDbEntity
  8
0
100
AcDbLine
 10
742.5719230000001
 20
1909.477053
 30
0.0
 11
742.5719230000001
 21
1671.548121
 31
0.0
1001
GENIUS_VERSION2
1070
     2
  0
LINE
  5
4CA8
330
5140
100
AcDbEntity
  8
0
100
AcDbLine
 10
731.397854
 20
1659.477052999999
 30
0.0
 11
637.331837
 21
1753.54307
 31
0.0
1001
GENIUS_VERSION2
1070
     2
  0
ARC
  5
4CAA
330
5140
100
AcDbEntity
  8
0
100
AcDbCircle
 10
743.397854
 20
1859.609088
 30
0.0
 40
150.0
100
AcDbArc
 50
180.0
 51
225.0
1001
GENIUS_GENODEF_13
1002
{
1000
HIER
1070
     0
1002
}
1002
{
1000
MANEDIT
1070
     0
1002
}
1002
{
1000
NOSEL
1070
     0
1002
}
1002
{
1000
BEHIND
1070
     0
1002
}
1002
{
1000
REACTOR
1002
}
1001
GENIUS_GENOBJ-N-FIL_13
1002
{
1000
OWNER
1000
GEN
1002
}
1001
GENIUS_GENOBJ-N-CEN_13
1002
{
1000
OWNER
1000
GEN
1002
}
  0
ARC
  5
4CAB
330
5140
100
AcDbEntity
  8
0
100
AcDbCircle
 10
743.397854
 20
1859.609088
 30
0.0
 40
145.0
100
AcDbArc
 50
180.0
 51
225.0
1001
GENIUS_GENODEF_13
1002
{
1000
HIER
1070
     0
1002
}
1002
{
1000
MANEDIT
1070
     0
1002
}
1002
{
1000
NOSEL
1070
     0
1002
}
1002
{
1000
BEHIND
1070
     0
1002
}
1002
{
1000
REACTOR
1002
}
1001
GENIUS_GENOBJ-N-FIL_13
1002
{
1000
OWNER
1000
GEN
1002
}
1001
GENIUS_GENOBJ-N-CEN_13
1002
{
1000
OWNER
1000
GEN
1002
}
  0
LINE
  5
4CAD
330
5140
100
AcDbEntity
  8
0
100
AcDbLine
 10
736.397854
 20
1661.548121
 30
0.0
 11
640.867371
 21
1757.078604
 31
0.0
1001
GENIUS_VERSION2
1070
     2
  0
LINE
  5
4CAF
330
5140
100
AcDbEntity
  8
0
100
AcDbLine
 10
736.397854
 20
1661.548121
 30
0.0
 11
736.397854
 21
1666.548121
 31
0.0
  0
LINE
  5
4CB0
330
5140
100
AcDbEntity
  8
0
100
AcDbLine
 10
741.397854
 20
1671.548121
 30
0.0
 11
742.5719230000001
 21
1671.548121
 31
0.0
1001
GENIUS_VERSION2
1070
     2
  0
ARC
  5
4CB1
330
5140
100
AcDbEntity
  8
0
100
AcDbCircle
 10
741.397854
 20
1666.548121
 30
0.0
 40
5.0
100
AcDbArc
 50
90.0
 51
180.0
1001
GENIUS_GENODEF_13
1002
{
1000
HIER
1070
     0
1002
}
1002
{
1000
MANEDIT
1070
     0
1002
}
1002
{
1000
NOSEL
1070
     0
1002
}
1002
{
1000
BEHIND
1070
     0
1002
}
1002
{
1000
REACTOR
1002
}
1001
GENIUS_GENOBJ-N-FIL_13
1002
{
1000
OWNER
1000
GEN
1002
}
1001
GENIUS_VERSION2
1070
     2
  0
LINE
  5
4CB4
330
5140
100
AcDbEntity
  8
0
100
AcDbLine
 10
726.611172
 20
1944.25848
 30
0.0
 11
725.713834
 21
1964.477053
 31
0.0
  0
LINE
  5
4CB6
330
5140
100
AcDbEntity
  8
0
100
AcDbLine
 10
726.611172
 20
1944.25848
 30
0.0
 11
731.611172
 21
1944.25848
 31
0.0
  0
LINE
  5
4CB7
330
5140
100
AcDbEntity
  8
0
100
AcDbLine
 10
731.611172
 20
1944.25848
 30
0.0
 11
730.9575039999999
 21
1936.78702
 31
0.0
  0
LINE
  5
4CB8
330
5140
100
AcDbEntity
  8
0
100
AcDbLine
 10
730.9575039999999
 20
1936.78702
 30
0.0
 11
719.369561
 21
1936.78702
 31
0.0
  0
LINE
  5
4CB9
330
5140
100
AcDbEntity
  8
0
100
AcDbLine
 10
729.2745099999999
 20
1946.725758
 30
0.0
 11
727.721473
 21
1964.477053
 31
0.0
  0
LINE
  5
4CBB
330
5140
100
AcDbEntity
  8
0
100
AcDbLine
 10
800.0530879999999
 20
1954.725758
 30
0.0
 11
911.3978539999999
 21
1954.725758
 31
0.0
  0
CIRCLE
  5
4CBF
330
5140
100
AcDbEntity
  8
0
100
AcDbCircle
 10
948.2285109999999
 20
1946.725758
 30
0.0
 40
10.0
  0
LINE
  5
4CC1
330
5140
100
AcDbEntity
  8
0
100
AcDbLine
 10
958.2285109999999
 20
1946.725758
 30
0.0
 11
958.2285109999999
 21
1954.477053
 31
0.0
1001
GENIUS_VERSION2
1070
     2
  0
ARC
  5
4CC2
330
5140
100
AcDbEntity
  8
0
100
AcDbCircle
 10
948.2285109999999
 20
1954.477053
 30
0.0
 40
10.0
100
AcDbArc
 50
0.0
 51
90.0
1001
GENIUS_GENODEF_13
1002
{
1000
HIER
1070
     0
1002
}
1002
{
1000
MANEDIT
1070
     0
1002
}
1002
{
1000
NOSEL
1070
     0
1002
}
1002
{
1000
BEHIND
1070
     0
1002
}
1002
{
1000
REACTOR
1002
}
1001
GENIUS_GENOBJ-N-FIL_13
1002
{
1000
OWNER
1000
GEN
1002
}
  0
CIRCLE
  5
4CC3
330
5140
100
AcDbEntity
  8
0
100
AcDbCircle
 10
948.2285109999999
 20
1946.725758
 30
0.0
 40
2.02556
  0
LINE
  5
4CC6
330
5140
100
AcDbEntity
  8
0
100
AcDbLine
 10
916.397854
 20
1949.725758
 30
0.0
 11
916.397854
 21
1946.725758
 31
0.0
1001
GENIUS_VERSION2
1070
     2
1001
GENIUS_GENODEF_13
1002
{
1000
HIER
1070
     0
1002
}
1002
{
1000
MANEDIT
1070
     0
1002
}
1002
{
1000
NOSEL
1070
     0
1002
}
1002
{
1000
BEHIND
1070
     0
1002
}
1002
{
1000
REACTOR
1002
}
1001
GENIUS_GENOBJ-N-CEN_13
1002
{
1000
OWNER
1000
GEN
1002
}
  0
ARC
  5
4CC8
330
5140
100
AcDbEntity
  8
0
100
AcDbCircle
 10
911.3978539999999
 20
1949.725758
 30
0.0
 40
5.0
100
AcDbArc
 50
0.0
 51
90.0
1001
GENIUS_GENODEF_13
1002
{
1000
HIER
1070
     0
1002
}
1002
{
1000
MANEDIT
1070
     0
1002
}
1002
{
1000
NOSEL
1070
     0
1002
}
1002
{
1000
BEHIND
1070
     0
1002
}
1002
{
1000
REACTOR
1002
}
1001
GENIUS_GENOBJ-N-FIL_13
1002
{
1000
OWNER
1000
GEN
1002
}
1001
GENIUS_VERSION2
1070
     2
1001
GENIUS_GENOBJ-N-CEN_13
1002
{
1000
OWNER
1000
GEN
1002
}
  0
LINE
  5
4CCB
330
5140
100
AcDbEntity
  8
7A
100
AcDbLine
 10
749.454446
 20
1887.447422
 30
0.0
 11
749.454446
 21
1971.947515
 31
0.0
1001
GENIUS_GENODEF_13
1002
{
1000
HIER
1070
     0
1002
}
1002
{
1000
MANEDIT
1070
     0
1002
}
1002
{
1000
NOSEL
1070
     0
1002
}
1002
{
1000
BEHIND
1070
     0
1002
}
1002
{
1000
REACTOR
1002
}
1001
GENIUS_GENOBJ-N-CEN_13
1002
{
1000
OWNER
1000
GEN
1002
}
  0
LINE
  5
4CCC
330
5140
100
AcDbEntity
  8
0
100
AcDbLine
 10
795.053088
 20
1949.725758
 30
0.0
 11
753.4544459999999
 21
1949.725758
 31
0.0
  0
LINE
  5
4CCD
330
5140
100
AcDbEntity
  8
0
100
AcDbLine
 10
733.005408
 20
1949.725758
 30
0.0
 11
733.005408
 21
1946.725758
 31
0.0
  0
LINE
  5
4CCE
330
5140
100
AcDbEntity
  8
0
100
AcDbLine
 10
795.053088
 20
1949.725758
 30
0.0
 11
800.0530879999999
 21
1954.725758
 31
0.0
  0
LINE
  5
4CCF
330
5140
100
AcDbEntity
  8
0
100
AcDbLine
 10
767.3774929999999
 20
1956.725758
 30
0.0
 11
769.4544459999999
 21
1964.477053
 31
0.0
1001
GENIUS_GENODEF_13
1002
{
1000
HIER
1070
     0
1002
}
1002
{
1000
MANEDIT
1070
     0
1002
}
1002
{
1000
NOSEL
1070
     0
1002
}
1002
{
1000
BEHIND
1070
     0
1002
}
1002
{
1000
REACTOR
1002
}
1001
GENIUS_GENOBJ-N-CEN_13
1002
{
1000
OWNER
1000
GEN
1002
}
  0
LINE
  5
4CD1
330
5140
100
AcDbEntity
  8
0
100
AcDbLine
 10
731.531399
 20
1956.725758
 30
0.0
 11
729.454446
 21
1964.477053
 31
0.0
1001
GENIUS_GENODEF_13
1002
{
1000
HIER
1070
     0
1002
}
1002
{
1000
MANEDIT
1070
     0
1002
}
1002
{
1000
NOSEL
1070
     0
1002
}
1002
{
1000
BEHIND
1070
     0
1002
}
1002
{
1000
REACTOR
1002
}
1001
GENIUS_GENOBJ-N-CEN_13
1002
{
1000
OWNER
1000
GEN
1002
}
  0
LINE
  5
4CD3
330
5140
100
AcDbEntity
  8
0
100
AcDbLine
 10
767.3774929999999
 20
1956.725758
 30
0.0
 11
731.531399
 21
1956.725758
 31
0.0
  0
ARC
  5
4CD4
330
5140
100
AcDbEntity
  8
0
100
AcDbCircle
 10
749.454446
 20
1939.879991
 30
0.0
 40
24.597062
100
AcDbArc
 50
43.22531099999999
 51
136.774689
  0
LINE
  5
4CD5
330
5140
100
AcDbEntity
  8
0
100
AcDbLine
 10
753.4544459999999
 20
1887.447422
 30
0.0
 11
753.4544459999999
 21
1893.543708
 31
0.0
1001
GENIUS_GENODEF_13
1002
{
1000
HIER
1070
     0
1002
}
1002
{
1000
MANEDIT
1070
     0
1002
}
1002
{
1000
NOSEL
1070
     0
1002
}
1002
{
1000
BEHIND
1070
     0
1002
}
1002
{
1000
REACTOR
1002
}
1001
GENIUS_GENOBJ-N-CEN_13
1002
{
1000
OWNER
1000
GEN
1002
}
  0
LINE
  5
4CD7
330
5140
100
AcDbEntity
  8
0
100
AcDbLine
 10
745.454446
 20
1887.447422
 30
0.0
 11
745.454446
 21
1893.543708
 31
0.0
1001
GENIUS_GENODEF_13
1002
{
1000
HIER
1070
     0
1002
}
1002
{
1000
MANEDIT
1070
     0
1002
}
1002
{
1000
NOSEL
1070
     0
1002
}
1002
{
1000
BEHIND
1070
     0
1002
}
1002
{
1000
REACTOR
1002
}
1001
GENIUS_GENOBJ-N-CEN_13
1002
{
1000
OWNER
1000
GEN
1002
}
  0
LINE
  5
4CD9
330
5140
100
AcDbEntity
  8
0
100
AcDbLine
 10
753.4544459999999
 20
1946.725758
 30
0.0
 11
938.2285109999999
 21
1946.725758
 31
0.0
  0
LINE
  5
4CDA
330
5140
100
AcDbEntity
  8
0
100
AcDbLine
 10
745.454446
 20
1949.725758
 30
0.0
 11
733.005408
 21
1949.725758
 31
0.0
  0
LINE
  5
4CDB
330
5140
100
AcDbEntity
  8
0
100
AcDbLine
 10
753.4544459999999
 20
1946.725758
 30
0.0
 11
745.454446
 21
1946.725758
 31
0.0
  0
LINE
  5
4CDD
330
5140
100
AcDbEntity
  8
0
100
AcDbLine
 10
745.454446
 20
1946.725758
 30
0.0
 11
753.4544459999999
 21
1956.725758
 31
0.0
  0
LINE
  5
4CDE
330
5140
100
AcDbEntity
  8
0
100
AcDbLine
 10
753.4544459999999
 20
1946.725758
 30
0.0
 11
745.454446
 21
1956.725758
 31
0.0
1001
GENIUS_VERSION2
1070
     2
  0
LINE
  5
4CDF
330
5140
100
AcDbEntity
  8
0
100
AcDbLine
 10
754.454446
 20
1893.543708
 30
0.0
 11
744.4544459999999
 21
1901.543708
 31
0.0
1001
GENIUS_VERSION2
1070
     2
  0
LINE
  5
4CE0
330
5140
100
AcDbEntity
  8
0
100
AcDbLine
 10
744.4544459999999
 20
1893.543708
 30
0.0
 11
754.454446
 21
1901.543708
 31
0.0
  0
LINE
  5
4CE1
330
5140
100
AcDbEntity
  8
0
100
AcDbLine
 10
754.454446
 20
1893.543708
 30
0.0
 11
744.4544459999999
 21
1893.543708
 31
0.0
1001
GENIUS_VERSION2
1070
     2
  0
LINE
  5
4CE3
330
5140
100
AcDbEntity
  8
0
100
AcDbLine
 10
745.454446
 20
1887.447422
 30
0.0
 11
753.4544459999999
 21
1887.447422
 31
0.0
  0
LINE
  5
4CE4
330
5140
100
AcDbEntity
  8
0
100
AcDbLine
 10
744.4544459999999
 20
1893.543708
 30
0.0
 11
744.4544459999999
 21
1901.543708
 31
0.0
  0
LINE
  5
4CE5
330
5140
100
AcDbEntity
  8
0
100
AcDbLine
 10
744.4544459999999
 20
1901.543708
 30
0.0
 11
754.454446
 21
1901.543708
 31
0.0
  0
LINE
  5
4CE6
330
5140
100
AcDbEntity
  8
0
100
AcDbLine
 10
754.454446
 20
1901.543708
 30
0.0
 11
754.454446
 21
1893.543708
 31
0.0
  0
LINE
  5
4CE7
330
5140
100
AcDbEntity
  8
0
100
AcDbLine
 10
745.454446
 20
1901.543708
 30
0.0
 11
745.454446
 21
1956.725758
 31
0.0
1001
GENIUS_GENODEF_13
1002
{
1000
HIER
1070
     0
1002
}
1002
{
1000
MANEDIT
1070
     0
1002
}
1002
{
1000
NOSEL
1070
     0
1002
}
1002
{
1000
BEHIND
1070
     0
1002
}
1002
{
1000
REACTOR
1002
}
1001
GENIUS_GENOBJ-N-CEN_13
1002
{
1000
OWNER
1000
GEN
1002
}
  0
LINE
  5
4CE8
330
5140
100
AcDbEntity
  8
0
100
AcDbLine
 10
753.4544459999999
 20
1901.543708
 30
0.0
 11
753.4544459999999
 21
1956.725758
 31
0.0
1001
GENIUS_VERSION2
1070
     2
1001
GENIUS_GENODEF_13
1002
{
1000
HIER
1070
     0
1002
}
1002
{
1000
MANEDIT
1070
     0
1002
}
1002
{
1000
NOSEL
1070
     0
1002
}
1002
{
1000
BEHIND
1070
     0
1002
}
1002
{
1000
REACTOR
1002
}
1001
GENIUS_GENOBJ-N-CEN_13
1002
{
1000
OWNER
1000
GEN
1002
}
  0
INSERT
  5
4CFB
330
5140
100
AcDbEntity
  8
8
100
AcDbBlockReference
  2
*X0
 10
-26.188427
 20
343.467459
 30
0.0
1001
GENIUS_VERSION2
1070
     2
1001
GENIUS_GENODEF_13
1002
{
1000
HIER
1070
     0
1002
}
1002
{
1000
MANEDIT
1070
     0
1002
}
1002
{
1000
NOSEL
1070
     0
1002
}
1002
{
1000
BEHIND
1070
     0
1002
}
1002
{
1000
REACTOR
1002
}
1001
GENIUS_GENOBJ-N-HTC_13
1002
{
1000
OWNER
1000
GEN
1002
}
1001
GENIUS_GENHATCH_13
1002
{
1000
DATA
1040
45.0
1042
2.5
1000
_U
1070
     0
1011
786.464778
1021
1957.154392
1031
0.0
1002
}
1002
{
1000
UCS
1010
0.0
1020
0.0
1030
0.0
1010
1.0
1020
0.0
1030
0.0
1010
0.0
1020
1.0
1030
0.0
1002
}
1001
ACAD
1000
HATCH
1002
{
1070
    19
1000
_U
1040
12.5
1040
0.7853979999999999
1070
     0
1002
}
  0
INSERT
  5
4D15
330
5140
100
AcDbEntity
  8
8
100
AcDbBlockReference
  2
*X1
 10
-26.188427
 20
343.467459
 30
0.0
1001
GENIUS_VERSION2
1070
     2
1001
GENIUS_GENODEF_13
1002
{
1000
HIER
1070
     0
1002
}
1002
{
1000
MANEDIT
1070
     0
1002
}
1002
{
1000
NOSEL
1070
     0
1002
}
1002
{
1000
BEHIND
1070
     0
1002
}
1002
{
1000
REACTOR
1002
}
1001
GENIUS_GENOBJ-N-HTC_13
1002
{
1000
OWNER
1000
GEN
1002
}
1001
GENIUS_GENHATCH_13
1002
{
1000
DATA
1040
45.0
1042
2.5
1000
_U
1070
     0
1011
740.8186969999999
1021
1953.045192
1031
0.0
1002
}
1002
{
1000
UCS
1010
0.0
1020
0.0
1030
0.0
1010
1.0
1020
0.0
1030
0.0
1010
0.0
1020
1.0
1030
0.0
1002
}
1001
ACAD
1000
HATCH
1002
{
1070
    19
1000
_U
1040
12.5
1040
0.7853979999999999
1070
     0
1002
}
  0
INSERT
  5
4D2F
330
5140
100
AcDbEntity
  8
8
100
AcDbBlockReference
  2
*X2
 10
-26.188427
 20
343.467459
 30
0.0
1001
GENIUS_VERSION2
1070
     2
1001
GENIUS_GENODEF_13
1002
{
1000
HIER
1070
     0
1002
}
1002
{
1000
MANEDIT
1070
     0
1002
}
1002
{
1000
NOSEL
1070
     0
1002
}
1002
{
1000
BEHIND
1070
     0
1002
}
1002
{
1000
REACTOR
1002
}
1001
GENIUS_GENOBJ-N-HTC_13
1002
{
1000
OWNER
1000
GEN
1002
}
1001
GENIUS_GENHATCH_13
1002
{
1000
DATA
1040
45.0
1042
2.5
1000
_U
1070
     0
1011
573.787536
1021
1959.216858
1031
0.0
1002
}
1002
{
1000
UCS
1010
0.0
1020
0.0
1030
0.0
1010
1.0
1020
0.0
1030
0.0
1010
0.0
1020
1.0
1030
0.0
1002
}
1001
ACAD
1000
HATCH
1002
{
1070
    19
1000
_U
1040
12.5
1040
0.7853979999999999
1070
     0
1002
}
  0
INSERT
  5
4D5E
330
5140
100
AcDbEntity
  8
8
100
AcDbBlockReference
  2
*X3
 10
-26.188427
 20
343.467459
 30
0.0
1001
GENIUS_VERSION2
1070
     2
1001
GENIUS_GENODEF_13
1002
{
1000
HIER
1070
     0
1002
}
1002
{
1000
MANEDIT
1070
     0
1002
}
1002
{
1000
NOSEL
1070
     0
1002
}
1002
{
1000
BEHIND
1070
     0
1002
}
1002
{
1000
REACTOR
1002
}
1001
GENIUS_GENOBJ-N-HTC_13
1002
{
1000
OWNER
1000
GEN
1002
}
1001
GENIUS_GENHATCH_13
1002
{
1000
DATA
1040
45.0
1042
2.5
1000
_U
1070
     0
1011
965.423323
1021
1955.198946
1031
0.0
1002
}
1002
{
1000
UCS
1010
0.0
1020
0.0
1030
0.0
1010
1.0
1020
0.0
1030
0.0
1010
0.0
1020
1.0
1030
0.0
1002
}
1001
ACAD
1000
HATCH
1002
{
1070
    19
1000
_U
1040
12.5
1040
0.7853979999999999
1070
     0
1002
}
  0
INSERT
  5
4D84
330
5140
100
AcDbEntity
  8
8
100
AcDbBlockReference
  2
*X4
 10
-26.188427
 20
343.467459
 30
0.0
1001
GENIUS_VERSION2
1070
     2
1001
GENIUS_GENODEF_13
1002
{
1000
HIER
1070
     0
1002
}
1002
{
1000
MANEDIT
1070
     0
1002
}
1002
{
1000
NOSEL
1070
     0
1002
}
1002
{
1000
BEHIND
1070
     0
1002
}
1002
{
1000
REACTOR
1002
}
1001
GENIUS_GENOBJ-N-HTC_13
1002
{
1000
OWNER
1000
GEN
1002
}
1001
GENIUS_GENHATCH_13
1002
{
1000
DATA
1040
45.0
1042
2.5
1000
_U
1070
     0
1011
969.35613
1021
1585.602288
1031
0.0
1002
}
1002
{
1000
UCS
1010
0.0
1020
0.0
1030
0.0
1010
1.0
1020
0.0
1030
0.0
1010
0.0
1020
1.0
1030
0.0
1002
}
1001
ACAD
1000
HATCH
1002
{
1070
    19
1000
_U
1040
12.5
1040
0.7853979999999999
1070
     0
1002
}
  0
INSERT
  5
4DB4
330
5140
100
AcDbEntity
  8
8
100
AcDbBlockReference
  2
*X5
 10
-26.188427
 20
343.467459
 30
0.0
1001
GENIUS_VERSION2
1070
     2
1001
GENIUS_GENODEF_13
1002
{
1000
HIER
1070
     0
1002
}
1002
{
1000
MANEDIT
1070
     0
1002
}
1002
{
1000
NOSEL
1070
     0
1002
}
1002
{
1000
BEHIND
1070
     0
1002
}
1002
{
1000
REACTOR
1002
}
1001
GENIUS_GENOBJ-N-HTC_13
1002
{
1000
OWNER
1000
GEN
1002
}
1001
GENIUS_GENHATCH_13
1002
{
1000
DATA
1040
45.0
1042
2.5
1000
_U
1070
     0
1011
1034.778892
1021
1482.15316
1031
0.0
1002
}
1002
{
1000
UCS
1010
0.0
1020
0.0
1030
0.0
1010
1.0
1020
0.0
1030
0.0
1010
0.0
1020
1.0
1030
0.0
1002
}
1001
ACAD
1000
HATCH
1002
{
1070
    19
1000
_U
1040
12.5
1040
0.7853979999999999
1070
     0
1002
}
  0
INSERT
  5
4DF1
330
5140
100
AcDbEntity
  8
8
100
AcDbBlockReference
  2
*X6
 10
-26.188427
 20
343.467459
 30
0.0
1001
GENIUS_VERSION2
1070
     2
1001
GENIUS_GENODEF_13
1002
{
1000
HIER
1070
     0
1002
}
1002
{
1000
MANEDIT
1070
     0
1002
}
1002
{
1000
NOSEL
1070
     0
1002
}
1002
{
1000
BEHIND
1070
     0
1002
}
1002
{
1000
REACTOR
1002
}
1001
GENIUS_GENOBJ-N-HTC_13
1002
{
1000
OWNER
1000
GEN
1002
}
1001
GENIUS_GENHATCH_13
1002
{
1000
DATA
1040
45.0
1042
2.5
1000
_U
1070
     0
1011
942.0367359999998
1021
1474.250799
1031
0.0
1002
}
1002
{
1000
UCS
1010
0.0
1020
0.0
1030
0.0
1010
1.0
1020
0.0
1030
0.0
1010
0.0
1020
1.0
1030
0.0
1002
}
1001
ACAD
1000
HATCH
1002
{
1070
    19
1000
_U
1040
12.5
1040
0.7853979999999999
1070
     0
1002
}
  0
DIMENSION
  5
4E0E
330
5140
100
AcDbEntity
  8
5
100
AcDbDimension
  2
*D7
 10
518.897853
 20
1264.477053
 30
0.0
 11
507.147853
 21
1426.846213
 31
0.0
 70
     1
  1
<>
 71
     5
 42
-1.0
  3
GEN-ISO
100
AcDbAlignedDimension
 13
721.4047059999999
 23
1589.215373
 33
0.0
 14
721.4047059999999
 24
1264.477053
 34
0.0
1001
ACAD
1000
DSTYLE
1002
{
1070
   271
1070
     0
1002
}
1001
GENIUS_GENDTOL_13
1000

1000
h7
1000

1040
0.0
  0
DIMENSION
  5
4E40
330
5140
100
AcDbEntity
  8
5
100
AcDbDimension
  2
*D8
 10
518.897853
 20
1964.477053
 30
0.0
 11
507.147853
 21
1776.846213
 31
0.0
  1
<>
 71
     5
 42
-1.0
  3
GEN-ISO
100
AcDbAlignedDimension
 13
721.4047059999999
 23
1589.215373
 33
0.0
 14
721.457042
 24
1964.477053
 34
0.0
 50
90.0
100
AcDbRotatedDimension
1001
ACAD
1000
DSTYLE
1002
{
1070
   271
1070
     0
1002
}
1001
GENIUS_GENDTOL_13
1000

1000
h7
1000

1040
0.0
  0
DIMENSION
  5
4E82
330
5140
100
AcDbEntity
  8
5
100
AcDbDimension
  2
*D9
 10
707.316374
 20
2014.477054
 30
0.0
 11
648.397854
 21
2026.227054
 31
0.0
  1
%%c125
 71
     5
 42
-1.0
  3
GEN-ISO
100
AcDbAlignedDimension
 13
589.4793339999999
 23
1914.477053
 33
0.0
 14
707.316374
 24
1914.477053
 34
0.0
100
AcDbRotatedDimension
1001
ACAD
1000
DSTYLE
1002
{
1070
   271
1070
     0
1002
}
1001
GENIUS_GENDTOL_13
1000

1000
h7
1000

1040
0.0
  0
DIMENSION
  5
4EE2
330
5140
100
AcDbEntity
  8
5
100
AcDbDimension
  2
*D10
 10
836.3978540000001
 20
2058.494915
 30
0.0
 11
742.397854
 21
2070.244915
 31
0.0
  1
<>
 71
     5
 42
-1.0
  3
GEN-ISO
100
AcDbAlignedDimension
 13
648.397854
 23
1999.103763
 33
0.0
 14
836.3978540000001
 24
1999.103763
 34
0.0
100
AcDbRotatedDimension
1001
GENIUS_GENDTOL_13
1000

1000
h7
1000

1040
0.0
  0
DIMENSION
  5
4EFF
330
5140
100
AcDbEntity
  8
5
100
AcDbDimension
  2
*D11
 10
1166.397854
 20
2057.703933
 30
0.0
 11
1001.397854
 21
2069.453933
 31
0.0
  1
<>
 71
     5
 42
-1.0
  3
GEN-ISO
100
AcDbAlignedDimension
 13
836.3978540000001
 23
1999.103763
 33
0.0
 14
1166.397854
 24
1514.698235
 34
0.0
100
AcDbRotatedDimension
1001
GENIUS_GENDTOL_13
1000

1000
h7
1000

1040
0.0
  0
DIMENSION
  5
4F27
330
5140
100
AcDbEntity
  8
5
100
AcDbDimension
  2
*D12
 10
1268.50692
 20
1464.477053
 30
0.0
 11
1256.75692
 21
1714.477053
 31
0.0
  1
<>
 71
     5
 42
-1.0
  3
GEN-ISO
100
AcDbAlignedDimension
 13
968.8978539999999
 23
1964.477053
 33
0.0
 14
1198.125518
 24
1464.477053
 34
0.0
 50
90.0
100
AcDbRotatedDimension
1001
GENIUS_GENDTOL_13
1000

1000
h7
1000

1040
0.0
  0
DIMENSION
  5
4F51
330
5140
100
AcDbEntity
  8
5
100
AcDbDimension
  2
*D13
 10
973.0786619999999
 20
1384.985801
 30
0.0
 11
961.3286619999998
 21
1435.009114
 31
0.0
  1
<>
 71
     5
 42
-1.0
  3
GEN-ISO
100
AcDbAlignedDimension
 13
1028.964924
 23
1485.032427
 33
0.0
 14
944.4886310000001
 24
1384.985801
 34
0.0
 50
90.0
100
AcDbRotatedDimension
1001
ACAD
1000
DSTYLE
1002
{
1070
   271
1070
     0
1002
}
1001
GENIUS_GENDTOL_13
1000

1000
h7
1000

1040
0.0
  0
DIMENSION
  5
4F84
330
5140
100
AcDbEntity
  8
5
100
AcDbDimension
  2
*D14
 10
936.3978539999999
 20
1664.364694
 30
0.0
 11
864.223057
 21
1664.364694
 31
0.0
 70
   128
  1
%%c210
 71
     5
 42
-1.0
  3
GEN-ISO
100
AcDbAlignedDimension
 13
736.397854
 23
1589.477053
 33
0.0
 14
936.3978539999999
 24
1589.477053
 34
0.0
100
AcDbRotatedDimension
1001
ACAD
1000
DSTYLE
1002
{
1070
   271
1070
     0
1002
}
1001
GENIUS_GENDTOL_13
1000

1000
h7
1000

1040
0.0
  0
DIMENSION
  5
501F
330
5140
100
AcDbEntity
  8
5
100
AcDbDimension
  2
*D15
 10
1198.125518
 20
1464.477053
 30
0.0
 11
1226.462494
 21
1394.123818
 31
0.0
 70
     2
  1
<>
 71
     5
 42
-1.0
  3
GEN-ISO
100
AcDb2LineAngularDimension
 13
1101.235524
 23
1502.60729
 33
0.0
 14
1214.084545
 24
1437.453877
 34
0.0
 15
1136.432543
 25
1464.477053
 35
0.0
 16
1263.069474
 26
1429.630696
 36
0.0
1001
GENIUS_GENDTOL_13
1000

1000
h7
1000

1040
0.0
  0
ARC
  5
50B6
330
5140
100
AcDbEntity
  8
0
100
AcDbCircle
 10
836.3978540000001
 20
1001.132604
 30
0.0
 40
122.5
100
AcDbArc
 50
209.327169
 51
347.027122
  0
LINE
  5
50B8
330
5140
100
AcDbEntity
  8
7
100
AcDbLine
 10
836.3978540000001
 20
1001.132604
 30
0.0
 11
1216.130059
 21
1001.132604
 31
0.0
1001
GENIUS_GENOREF_13
1005
50BC
  0
LINE
  5
50B9
330
5140
100
AcDbEntity
  8
7
100
AcDbLine
 10
836.3978540000001
 20
1001.132604
 30
0.0
 11
836.3978540000001
 21
1153.621849
 31
0.0
1001
GENIUS_GENOREF_13
1005
50BC
  0
LINE
  5
50BA
330
5140
100
AcDbEntity
  8
7
100
AcDbLine
 10
836.3978540000001
 20
1001.132604
 30
0.0
 11
531.957372
 21
1001.132604
 31
0.0
1001
GENIUS_GENOREF_13
1005
50BC
  0
LINE
  5
50BB
330
5140
100
AcDbEntity
  8
7
100
AcDbLine
 10
836.3978540000001
 20
1001.132604
 30
0.0
 11
836.3978540000001
 21
848.643359
 31
0.0
1001
GENIUS_VERSION2
1070
     2
1001
GENIUS_GENOREF_13
1005
50BC
  0
POINT
  5
50BC
330
5140
100
AcDbEntity
  8
0
 60
     1
100
AcDbPoint
 10
0.0
 20
0.0
 30
0.0
1001
GENIUS_GENODEF_13
1002
{
1000
HIER
1070
    10
1002
}
1002
{
1000
MANEDIT
1070
     1
1002
}
1002
{
1000
NOSEL
1070
     0
1002
}
1002
{
1000
BEHIND
1070
     0
1002
}
1002
{
1000
REACTOR
1002
}
1001
GENIUS_GENOBJ-N-CRS_13
1002
{
1000
OWNER
1000
GEN
1002
}
1001
GENIUS_GENOENT_13
1002
{
1000
MYREF
1005
50BC
1002
}
1002
{
1000
GRP
1005
0
1002
}
1001
GENIUS_GENOLIS_13
1002
{
1000
ENT
1005
50BB
1005
50BA
1005
50B9
1005
50B8
1002
}
  0
LINE
  5
50BD
330
5140
100
AcDbEntity
  8
7
100
AcDbLine
 10
648.397854
 20
1060.29271
 30
0.0
 11
648.397854
 21
951.5674949999999
 31
0.0
1001
GENIUS_VERSION2
1070
     2
1001
GENIUS_GENODEF_13
1002
{
1000
HIER
1070
     0
1002
}
1002
{
1000
MANEDIT
1070
     0
1002
}
1002
{
1000
NOSEL
1070
     0
1002
}
1002
{
1000
BEHIND
1070
     0
1002
}
1002
{
1000
REACTOR
1002
}
1001
GENIUS_GENOBJ-N-CEN_13
1002
{
1000
OWNER
1000
GEN
1002
}
  0
ARC
  5
50C6
330
5140
100
AcDbEntity
  8
0
100
AcDbCircle
 10
1137.029031
 20
1001.132604
 30
0.0
 40
55.25
100
AcDbArc
 50
275.452622
 51
84.54737800000001
  0
ARC
  5
50CA
330
5140
100
AcDbEntity
  8
0
100
AcDbCircle
 10
648.397854
 20
1001.132604
 30
0.0
 40
79.3693
100
AcDbArc
 50
49.109306
 51
310.890694
  0
CIRCLE
  5
50CB
330
5140
100
AcDbEntity
  8
0
100
AcDbCircle
 10
648.397854
 20
1001.132604
 30
0.0
 40
72.315979
  0
CIRCLE
  5
50CC
330
5140
100
AcDbEntity
  8
0
100
AcDbCircle
 10
648.397854
 20
1001.132604
 30
0.0
 40
50.0
  0
CIRCLE
  5
50CD
330
5140
100
AcDbEntity
  8
0
100
AcDbCircle
 10
648.397854
 20
1001.132604
 30
0.0
 40
55.0
  0
LINE
  5
50CF
330
5140
100
AcDbEntity
  8
0
100
AcDbLine
 10
729.597807
 20
1061.132604
 30
0.0
 11
700.3544299999999
 21
1061.132604
 31
0.0
1001
GENIUS_GENOREF_13
1005
50BC
  0
LINE
  5
50D1
330
5140
100
AcDbEntity
  8
0
100
AcDbLine
 10
729.597807
 20
941.1326039999998
 30
0.0
 11
700.3544299999999
 21
941.1326039999998
 31
0.0
1001
GENIUS_GENOREF_13
1005
50BC
  0
LINE
  5
50D5
330
5140
100
AcDbEntity
  8
0
100
AcDbLine
 10
1142.279031
 20
1056.132604
 30
0.0
 11
1084.329886
 21
1056.132604
 31
0.0
  0
LINE
  5
50D6
330
5140
100
AcDbEntity
  8
0
100
AcDbLine
 10
1142.279031
 20
946.1326039999999
 30
0.0
 11
1084.329886
 21
946.1326039999999
 31
0.0
  0
LINE
  5
50D7
330
5140
100
AcDbEntity
  8
0
100
AcDbLine
 10
1039.329886
 20
1081.132604
 30
0.0
 11
1039.329886
 21
1024.099972
 31
0.0
  0
LINE
  5
50D8
330
5140
100
AcDbEntity
  8
0
100
AcDbLine
 10
968.8978539999999
 20
1028.632604
 30
0.0
 11
968.8978539999999
 21
973.6326039999999
 31
0.0
  0
LINE
  5
50D9
330
5140
100
AcDbEntity
  8
0
100
AcDbLine
 10
929.167731
 20
1081.132604
 30
0.0
 11
1039.329886
 21
1081.132604
 31
0.0
1001
GENIUS_GENOREF_13
1005
50BC
  0
LINE
  5
50DB
330
5140
100
AcDbEntity
  8
0
100
AcDbLine
 10
929.167731
 20
921.1326039999999
 30
0.0
 11
1039.329886
 21
921.1326039999999
 31
0.0
1001
GENIUS_GENOREF_13
1005
50BC
  0
LINE
  5
50E1
330
5140
100
AcDbEntity
  8
0
100
AcDbLine
 10
1039.329886
 20
978.1652359999998
 30
0.0
 11
1039.329886
 21
921.1326039999999
 31
0.0
  0
ARC
  5
50E2
330
5140
100
AcDbEntity
  8
0
100
AcDbCircle
 10
1089.579886
 20
1001.132604
 30
0.0
 40
55.25
100
AcDbArc
 50
95.45262199999999
 51
155.436658
  0
LINE
  5
50E5
330
5140
100
AcDbEntity
  8
0
100
AcDbLine
 10
1039.329886
 20
921.1326039999999
 30
0.0
 11
1084.329886
 21
946.1326039999999
 31
0.0
  0
LINE
  5
50E6
330
5140
100
AcDbEntity
  8
0
100
AcDbLine
 10
1084.329886
 20
1056.132604
 30
0.0
 11
1039.329886
 21
1081.132604
 31
0.0
  0
ARC
  5
50E7
330
5140
100
AcDbEntity
  8
0
100
AcDbCircle
 10
1089.579886
 20
1001.132604
 30
0.0
 40
55.25
100
AcDbArc
 50
204.563342
 51
264.547378
  0
LINE
  5
50E8
330
5140
100
AcDbEntity
  8
0
100
AcDbLine
 10
955.7712179999999
 20
1028.632604
 30
0.0
 11
968.8978539999999
 21
1028.632604
 31
0.0
1001
GENIUS_GENOREF_13
1005
50BC
  0
LINE
  5
50EA
330
5140
100
AcDbEntity
  8
0
100
AcDbLine
 10
955.7712179999999
 20
973.6326039999999
 30
0.0
 11
968.8978539999999
 21
973.6326039999999
 31
0.0
1001
GENIUS_GENOREF_13
1005
50BC
  0
ARC
  5
50EC
330
5140
100
AcDbEntity
  8
0
100
AcDbCircle
 10
836.3978540000001
 20
1001.132604
 30
0.0
 40
122.5
100
AcDbArc
 50
12.972878
 51
150.672831
  0
ARC
  5
50F0
330
5140
100
AcDbEntity
  8
0
100
AcDbCircle
 10
836.3978540000001
 20
1001.132604
 30
0.0
 40
115.684021
100
AcDbArc
 50
11.215243
 51
348.784757
1001
GENIUS_VERSION2
1070
     2
  0
ARC
  5
50F2
330
5140
100
AcDbEntity
  8
0
100
AcDbCircle
 10
836.3978540000001
 20
1001.132604
 30
0.0
 40
113.684021
100
AcDbArc
 50
8.855060999999999
 51
351.1449390000001
1001
GENIUS_VERSION2
1070
     2
  0
CIRCLE
  5
50F5
330
5140
100
AcDbEntity
  8
0
100
AcDbCircle
 10
836.3978540000001
 20
1001.132604
 30
0.0
 40
85.0
  0
LINE
  5
50F6
330
5140
100
AcDbEntity
  8
0
100
AcDbLine
 10
949.872709
 20
1023.632604
 30
0.0
 11
963.897854
 21
1023.632604
 31
0.0
1001
GENIUS_GENOREF_13
1005
50BC
  0
LINE
  5
50F8
330
5140
100
AcDbEntity
  8
0
100
AcDbLine
 10
949.872709
 20
978.6326039999998
 30
0.0
 11
963.897854
 21
978.6326039999998
 31
0.0
1001
GENIUS_GENOREF_13
1005
50BC
  0
LINE
  5
50FA
330
5140
100
AcDbEntity
  8
0
100
AcDbLine
 10
948.7268640000001
 20
983.6326039999999
 30
0.0
 11
958.8978539999999
 21
983.6326039999999
 31
0.0
1001
GENIUS_GENOREF_13
1005
50BC
  0
LINE
  5
50FC
330
5140
100
AcDbEntity
  8
0
100
AcDbLine
 10
948.7268640000001
 20
1018.632604
 30
0.0
 11
958.8978539999999
 21
1018.632604
 31
0.0
1001
GENIUS_GENOREF_13
1005
50BC
  0
CIRCLE
  5
50FE
330
5140
100
AcDbEntity
  8
0
100
AcDbCircle
 10
836.3978540000001
 20
1001.132604
 30
0.0
 40
35.0
  0
CIRCLE
  5
50FF
330
5140
100
AcDbEntity
  8
0
100
AcDbCircle
 10
836.3978540000001
 20
1001.132604
 30
0.0
 40
30.0
  0
TEXT
  5
5101
330
5140
100
AcDbEntity
  8
0
100
AcDbText
 10
829.55158
 20
993.835346
 30
0.0
 40
17.5
  1
P
 50
90.0
100
AcDbText
  0
TEXT
  5
5102
330
5140
100
AcDbEntity
  8
0
100
AcDbText
 10
858.6938249999999
 20
991.098876
 30
0.0
 40
17.5
  1
W
 50
90.0
100
AcDbText
  0
ARC
  5
5105
330
5140
100
AcDbEntity
  8
0
100
AcDbCircle
 10
771.397854
 20
1001.132604
 30
0.0
 40
20.0
100
AcDbArc
 50
284.477512
 51
75.522488
  0
ARC
  5
5106
330
5140
100
AcDbEntity
  8
0
100
AcDbCircle
 10
771.397854
 20
1001.132604
 30
0.0
 40
25.0
100
AcDbArc
 50
78.46304100000001
 51
101.536959
  0
LINE
  5
5109
330
5140
100
AcDbEntity
  8
0
100
AcDbLine
 10
776.397854
 20
1025.627502
 30
0.0
 11
776.397854
 21
1020.497521
 31
0.0
  0
LINE
  5
510B
330
5140
100
AcDbEntity
  8
0
100
AcDbLine
 10
766.397854
 20
1025.627502
 30
0.0
 11
766.397854
 21
1020.497521
 31
0.0
1001
GENIUS_VERSION2
1070
     2
  0
LINE
  5
510D
330
5140
100
AcDbEntity
  8
0
100
AcDbLine
 10
776.397854
 20
981.7676869999999
 30
0.0
 11
776.397854
 21
976.637707
 31
0.0
  0
LINE
  5
510E
330
5140
100
AcDbEntity
  8
0
100
AcDbLine
 10
766.397854
 20
981.7676869999999
 30
0.0
 11
766.397854
 21
976.637707
 31
0.0
1001
GENIUS_VERSION2
1070
     2
  0
ARC
  5
510F
330
5140
100
AcDbEntity
  8
0
100
AcDbCircle
 10
771.397854
 20
1001.132604
 30
0.0
 40
25.0
100
AcDbArc
 50
258.463041
 51
281.5369589999999
  0
ARC
  5
5110
330
5140
100
AcDbEntity
  8
0
100
AcDbCircle
 10
771.397854
 20
1001.132604
 30
0.0
 40
20.0
100
AcDbArc
 50
104.477512
 51
255.522488
  0
ARC
  5
5111
330
5140
100
AcDbEntity
  8
0
100
AcDbCircle
 10
771.397854
 20
1001.132604
 30
0.0
 40
22.0
100
AcDbArc
 50
84.784091
 51
95.21590899999999
  0
LINE
  5
5113
330
5140
100
AcDbEntity
  8
0
100
AcDbLine
 10
773.397854
 20
1023.041507
 30
0.0
 11
773.397854
 21
1018.014547
 31
0.0
  0
LINE
  5
5115
330
5140
100
AcDbEntity
  8
0
100
AcDbLine
 10
769.397854
 20
1023.041507
 30
0.0
 11
769.397854
 21
1018.014547
 31
0.0
1001
GENIUS_VERSION2
1070
     2
  0
ARC
  5
5117
330
5140
100
AcDbEntity
  8
0
100
AcDbCircle
 10
771.397854
 20
1001.132604
 30
0.0
 40
17.0
100
AcDbArc
 50
96.75632700000001
 51
263.243673
  0
ARC
  5
5119
330
5140
100
AcDbEntity
  8
0
100
AcDbCircle
 10
771.397854
 20
1001.132604
 30
0.0
 40
17.0
100
AcDbArc
 50
276.756327
 51
83.243673
  0
LINE
  5
511B
330
5140
100
AcDbEntity
  8
0
100
AcDbLine
 10
773.397854
 20
984.2506609999999
 30
0.0
 11
773.397854
 21
979.2237019999999
 31
0.0
  0
LINE
  5
511D
330
5140
100
AcDbEntity
  8
0
100
AcDbLine
 10
769.397854
 20
984.2506609999999
 30
0.0
 11
769.397854
 21
979.2237019999999
 31
0.0
1001
GENIUS_VERSION2
1070
     2
  0
ARC
  5
511F
330
5140
100
AcDbEntity
  8
0
100
AcDbCircle
 10
771.397854
 20
1001.132604
 30
0.0
 40
22.0
100
AcDbArc
 50
264.784091
 51
275.215909
  0
CIRCLE
  5
5121
330
5140
100
AcDbEntity
  8
0
100
AcDbCircle
 10
771.397854
 20
1001.132604
 30
0.0
 40
5.216833999999999
  0
LINE
  5
5122
330
5140
100
AcDbEntity
  8
0
100
AcDbLine
 10
963.897854
 20
1023.632604
 30
0.0
 11
963.897854
 21
978.6326039999998
 31
0.0
  0
LINE
  5
5124
330
5140
100
AcDbEntity
  8
0
100
AcDbLine
 10
958.8978539999999
 20
1018.632604
 30
0.0
 11
958.8978539999999
 21
983.6326039999999
 31
0.0
1001
GENIUS_VERSION2
1070
     2
  0
VIEWPORT
  5
2062
102
{ACAD_XDICTIONARY
360
5286
102
}
330
513D
100
AcDbEntity
 67
     1
  8
0
100
AcDbViewport
 10
261.5176990000001
 20
148.5
 30
0.0
 40
523.0353980000001
 41
297.0
 68
    -1
 69
     1
 12
261.5176990000001
 22
148.5
 13
0.0
 23
0.0
 14
1.0
 24
1.0
 15
10.0
 25
10.0
 16
0.0
 26
0.0
 36
1.0
 17
0.0
 27
0.0
 37
0.0
 42
50.0
 43
0.0
 44
0.0
 45
297.0
 50
0.0
 51
0.0
 72
   100
 90
    32800
  1

281
     0
 71
     1
 74
     0
110
0.0
120
0.0
130
0.0
111
1.0
121
0.0
131
0.0
112
0.0
122
1.0
132
0.0
 79
     0
146
0.0
1001
GENIUS_GENSCREG_15
1000
PF
1040
1.0
1000
DF
1040
1.0
1000
MIN
1011
0.0
1021
0.0
1031
0.0
1000
MAX
1011
523.0353980000001
1021
297.0
1031
0.0
1000
FLAGS
1070
     4
1001
GENIUS_GENODEF_13
1002
{
1000
HIER
1070
     0
1002
}
1002
{
1000
MANEDIT
1070
     0
1002
}
1002
{
1000
NOSEL
1070
     0
1002
}
1002
{
1000
BEHIND
1070
     0
1002
}
1002
{
1000
OTHER
1070
     0
1002
}
1002
{
1000
REACTOR
1002
}
1001
GENIUS_GENOBJ-N-SDF_13
1002
{
1000
OWNER
1000
GEN
1002
}
  0
ENDSEC
  0
SECTION
  2
OBJECTS
  0
DICTIONARY
  5
5135
330
0
100
AcDbDictionary
281
     1
  3
ACAD_COLOR
350
51A8
  3
ACAD_GROUP
350
5136
  3
ACAD_LAYOUT
350
51AB
  3
ACAD_MATERIAL
350
51A7
  3
ACAD_MLINESTYLE
350
5143
  3
ACAD_PLOTSETTINGS
350
51AC
  3
ACAD_PLOTSTYLENAME
350
51A5
  3
ACAD_TABLESTYLE
350
51A9
  3
ACDBHEADERROUNDTRIPXREC
350
5285
  3
ACDBVARIABLEDICTIONARY
350
519A
  3
AcmDictionary
350
520A
  3
AMG
350
51B0
  3
AMGSNAPSETTINGS
350
527B
  0
DICTIONARY
  5
5286
330
2062
100
AcDbDictionary
280
     1
281
     1
  3
ACAD_XREC_ROUNDTRIP
360
5287
  0
DICTIONARY
  5
51A8
102
{ACAD_REACTORS
330
5135
102
}
330
5135
100
AcDbDictionary
281
     1
  0
DICTIONARY
  5
5136
102
{ACAD_REACTORS
330
5135
102
}
330
5135
100
AcDbDictionary
281
     1
  0
DICTIONARY
  5
51AB
102
{ACAD_REACTORS
330
5135
102
}
330
5135
100
AcDbDictionary
281
     1
  3
Layout1
350
51AE
  3
Model
350
51AD
  0
DICTIONARY
  5
51A7
102
{ACAD_REACTORS
330
5135
102
}
330
5135
100
AcDbDictionary
281
     1
  0
DICTIONARY
  5
5143
102
{ACAD_REACTORS
330
5135
102
}
330
5135
100
AcDbDictionary
281
     1
  3
STANDARD
350
5144
  0
DICTIONARY
  5
51AC
102
{ACAD_REACTORS
330
5135
102
}
330
5135
100
AcDbDictionary
281
     1
  0
ACDBDICTIONARYWDFLT
  5
51A5
102
{ACAD_REACTORS
330
5135
102
}
330
5135
100
AcDbDictionary
281
     1
  3
Normal
350
51A6
100
AcDbDictionaryWithDefault
340
51A6
  0
DICTIONARY
  5
51A9
102
{ACAD_REACTORS
330
5135
102
}
330
5135
100
AcDbDictionary
281
     1
  3
Standard
350
51AA
  0
DICTIONARY
  5
5285
102
{ACAD_REACTORS
330
5135
102
}
330
5135
100
AcDbDictionary
281
     1
  0
DICTIONARY
  5
519A
102
{ACAD_REACTORS
330
5135
102
}
330
5135
100
AcDbDictionary
281
     1
  3
CTABLESTYLE
350
527A
  3
DIMADEC
350
519B
  3
DIMASSOC
350
5282
  3
PROJECTNAME
350
5283
  0
DICTIONARY
  5
520A
102
{ACAD_REACTORS
330
5135
102
}
330
5135
100
AcDbDictionary
281
     1
  3
AcmStdDictionary
350
5215
  3
AMDTSECTSYM_ARROWCOLOR
350
5238
  0
DICTIONARY
  5
51B0
102
{ACAD_REACTORS
330
5135
102
}
330
5135
100
AcDbDictionary
281
     1
  0
DICTIONARY
  5
527B
102
{ACAD_REACTORS
330
5135
102
}
330
5135
100
AcDbDictionary
281
     1
  0
XRECORD
  5
5287
102
{ACAD_REACTORS
330
5286
102
}
330
5286
100
AcDbXrecord
280
     1
102
SHADEPLOT
 70
     0
  0
LAYOUT
  5
51AE
102
{ACAD_XDICTIONARY
360
528A
102
}
102
{ACAD_REACTORS
330
51AB
102
}
330
51AB
100
AcDbPlotSettings
  1

  2
Xerox Document Centre CS50 PS
  4

  6

 40
0.0
 41
0.0
 42
0.0
 43
0.0
 44
0.0
 45
0.0
 46
0.0
 47
0.0
 48
0.0
 49
0.0
140
0.0
141
0.0
142
1.0
143
1.0
 70
   688
 72
     0
 73
     0
 74
     5
  7

 75
    16
147
1.0
148
0.0
149
0.0
100
AcDbLayout
  1
Layout1
 70
     1
 71
     1
 10
0.0
 20
0.0
 11
420.0
 21
297.0
 12
0.0
 22
0.0
 32
0.0
 14
1.000000000000000E+20
 24
1.000000000000000E+20
 34
1.000000000000000E+20
 15
-1.000000000000000E+20
 25
-1.000000000000000E+20
 35
-1.000000000000000E+20
146
0.0
 13
0.0
 23
0.0
 33
0.0
 16
1.0
 26
0.0
 36
0.0
 17
0.0
 27
1.0
 37
0.0
 76
     0
330
513D
  0
LAYOUT
  5
51AD
102
{ACAD_XDICTIONARY
360
5288
102
}
102
{ACAD_REACTORS
330
51AB
102
}
330
51AB
100
AcDbPlotSettings
  1

  2
Xerox Document Centre CS50 PS
  4

  6

 40
0.0
 41
0.0
 42
0.0
 43
0.0
 44
0.0
 45
0.0
 46
0.0
 47
0.0
 48
0.0
 49
0.0
140
0.0
141
0.0
142
1.0
143
1.0
 70
  1712
 72
     0
 73
     0
 74
     0
  7

 75
     0
147
1.0
148
0.0
149
0.0
100
AcDbLayout
  1
Model
 70
     1
 71
     0
 10
0.0
 20
0.0
 11
12.0
 21
9.0
 12
0.0
 22
0.0
 32
0.0
 14
0.0
 24
0.0
 34
0.0
 15
0.0
 25
0.0
 35
0.0
146
0.0
 13
0.0
 23
0.0
 33
0.0
 16
1.0
 26
0.0
 36
0.0
 17
0.0
 27
1.0
 37
0.0
 76
     0
330
5140
  0
MLINESTYLE
  5
5144
102
{ACAD_REACTORS
330
5143
102
}
330
5143
100
AcDbMlineStyle
  2
STANDARD
 70
     0
  3

 62
   256
 51
90.0
 52
90.0
 71
     2
 49
0.5
 62
   256
  6
BYLAYER
 49
-0.5
 62
   256
  6
BYLAYER
  0
ACDBPLACEHOLDER
  5
51A6
102
{ACAD_REACTORS
330
51A5
102
}
330
51A5
  0
TABLESTYLE
  5
51AA
102
{ACAD_REACTORS
330
51A9
102
}
330
51A9
100
AcDbTableStyle
  3
Standard
 70
     0
 71
     0
 40
1.5
 41
1.5
280
     0
281
     0
  7
STANDARD
140
4.5
170
     2
 62
     0
 63
     7
283
     0
274
    -2
284
     1
 64
     0
275
    -2
285
     1
 65
     0
276
    -2
286
     1
 66
     0
277
    -2
287
     1
 67
     0
278
    -2
288
     1
 68
     0
279
    -2
289
     1
 69
     0
  7
STANDARD
140
6.0
170
     5
 62
     0
 63
     7
283
     0
274
    -2
284
     1
 64
     0
275
    -2
285
     1
 65
     0
276
    -2
286
     1
 66
     0
277
    -2
287
     1
 67
     0
278
    -2
288
     1
 68
     0
279
    -2
289
     1
 69
     0
  7
STANDARD
140
4.5
170
     5
 62
     0
 63
     7
283
     0
274
    -2
284
     1
 64
     0
275
    -2
285
     1
 65
     0
276
    -2
286
     1
 66
     0
277
    -2
287
     1
 67
     0
278
    -2
288
     1
 68
     0
279
    -2
289
     1
 69
     0
  0
DICTIONARYVAR
  5
527A
102
{ACAD_REACTORS
330
519A
102
}
330
519A
100
DictionaryVariables
280
     0
  1
STANDARD
  0
DICTIONARYVAR
  5
519B
102
{ACAD_REACTORS
330
519A
102
}
330
519A
100
DictionaryVariables
280
     0
  1
0
  0
DICTIONARYVAR
  5
5282
102
{ACAD_REACTORS
330
519A
102
}
330
519A
100
DictionaryVariables
280
     0
  1
1
  0
DICTIONARYVAR
  5
5283
102
{ACAD_REACTORS
330
519A
102
}
330
519A
100
DictionaryVariables
280
     0
  1

  0
DICTIONARY
  5
5215
102
{ACAD_REACTORS
330
520A
102
}
330
520A
100
AcDbDictionary
281
     1
  0
XRECORD
  5
5238
102
{ACAD_REACTORS
330
520A
102
}
330
520A
100
AcDbXrecord
280
     1
 90
-1023410169
  0
DICTIONARY
  5
528A
330
51AE
100
AcDbDictionary
280
     1
281
     1
  3
ACAD_XREC_ROUNDTRIP
360
528B
  0
DICTIONARY
  5
5288
330
51AD
100
AcDbDictionary
280
     1
281
     1
  3
ACAD_XREC_ROUNDTRIP
360
5289
  0
XRECORD
  5
528B
102
{ACAD_REACTORS
330
528A
102
}
330
528A
100
AcDbXrecord
280
     1
102
SHADEPLOT
 70
     0
102
SHADEPLOTRESLEVEL
 70
     2
102
SHADEPLOTCUSTOMDPI
 70
   300
  0
XRECORD
  5
5289
102
{ACAD_REACTORS
330
5288
102
}
330
5288
100
AcDbXrecord
280
     1
102
SHADEPLOT
 70
     0
102
SHADEPLOTRESLEVEL
 70
     2
102
SHADEPLOTCUSTOMDPI
 70
   300
  0
ENDSEC
  0
EOF
