  0
SECTION
  2
HEADER
  9
$ACADVER
  1
AC1015
  9
$ACADMAINTVER
 70
    20
  9
$DWGCODEPAGE
  3
ANSI_1252
  9
$INSBASE
 10
0.0
 20
0.0
 30
0.0
  9
$EXTMIN
 10
4.470210107461525
 20
-0.0237965364715365
 30
-0.0000001862538503
  9
$EXTMAX
 10
412.0191682799489
 20
477.8203001126493
 30
0.0001790919708332
  9
$LIMMIN
 10
0.0
 20
0.0
  9
$LIMMAX
 10
420.0
 20
297.0
  9
$ORTHOMODE
 70
     0
  9
$REGENMODE
 70
     1
  9
$FILLMODE
 70
     1
  9
$QTEXTMODE
 70
     0
  9
$MIRRTEXT
 70
     1
  9
$LTSCALE
 40
1.0
  9
$ATTMODE
 70
     1
  9
$TEXTSIZE
 40
2.5
  9
$TRACEWID
 40
1.0
  9
$TEXTSTYLE
  7
STANDARD
  9
$CLAYER
  8
0
  9
$CELTYPE
  6
ByLayer
  9
$CECOLOR
 62
   256
  9
$CELTSCALE
 40
1.0
  9
$DISPSILH
 70
     0
  9
$DIMSCALE
 40
1.0
  9
$DIMASZ
 40
2.5
  9
$DIMEXO
 40
1.0
  9
$DIMDLI
 40
10.0
  9
$DIMRND
 40
0.0
  9
$DIMDLE
 40
0.0
  9
$DIMEXE
 40
1.0
  9
$DIMTP
 40
0.1
  9
$DIMTM
 40
0.1
  9
$DIMTXT
 40
3.5
  9
$DIMCEN
 40
0.0
  9
$DIMTSZ
 40
0.0
  9
$DIMTOL
 70
     0
  9
$DIMLIM
 70
     0
  9
$DIMTIH
 70
     0
  9
$DIMTOH
 70
     0
  9
$DIMSE1
 70
     0
  9
$DIMSE2
 70
     0
  9
$DIMTAD
 70
     1
  9
$DIMZIN
 70
     8
  9
$DIMBLK
  1

  9
$DIMASO
 70
     1
  9
$DIMSHO
 70
     1
  9
$DIMPOST
  1

  9
$DIMAPOST
  1
"
  9
$DIMALT
 70
     0
  9
$DIMALTD
 70
     2
  9
$DIMALTF
 40
0.0393701
  9
$DIMLFAC
 40
1.0
  9
$DIMTOFL
 70
     1
  9
$DIMTVP
 40
0.0
  9
$DIMTIX
 70
     0
  9
$DIMSOXD
 70
     0
  9
$DIMSAH
 70
     0
  9
$DIMBLK1
  1

  9
$DIMBLK2
  1

  9
$DIMSTYLE
  2
AM_DIN
  9
$DIMCLRD
 70
   256
  9
$DIMCLRE
 70
   256
  9
$DIMCLRT
 70
     2
  9
$DIMTFAC
 40
0.71
  9
$DIMGAP
 40
1.5
  9
$DIMJUST
 70
     0
  9
$DIMSD1
 70
     0
  9
$DIMSD2
 70
     0
  9
$DIMTOLJ
 70
     0
  9
$DIMTZIN
 70
     8
  9
$DIMALTZ
 70
     0
  9
$DIMALTTZ
 70
     0
  9
$DIMUPT
 70
     0
  9
$DIMDEC
 70
     2
  9
$DIMTDEC
 70
     3
  9
$DIMALTU
 70
     2
  9
$DIMALTTD
 70
     4
  9
$DIMTXSTY
  7
STANDARD
  9
$DIMAUNIT
 70
     0
  9
$DIMADEC
 70
     0
  9
$DIMALTRND
 40
0.0
  9
$DIMAZIN
 70
     2
  9
$DIMDSEP
 70
    46
  9
$DIMATFIT
 70
     3
  9
$DIMFRAC
 70
     0
  9
$DIMLDRBLK
  1

  9
$DIMLUNIT
 70
     2
  9
$DIMLWD
 70
    -1
  9
$DIMLWE
 70
    -1
  9
$DIMTMOVE
 70
     0
  9
$LUNITS
 70
     2
  9
$LUPREC
 70
     2
  9
$SKETCHINC
 40
1.0
  9
$FILLETRAD
 40
2.5
  9
$AUNITS
 70
     0
  9
$AUPREC
 70
     0
  9
$MENU
  1
.
  9
$ELEVATION
 40
0.0
  9
$PELEVATION
 40
0.0
  9
$THICKNESS
 40
0.0
  9
$LIMCHECK
 70
     0
  9
$CHAMFERA
 40
2.5
  9
$CHAMFERB
 40
2.5
  9
$CHAMFERC
 40
20.0
  9
$CHAMFERD
 40
0.0
  9
$SKPOLY
 70
     0
  9
$TDCREATE
 40
2453464.960935104
  9
$TDUCREATE
 40
2453464.877601771
  9
$TDUPDATE
 40
2454019.950524815
  9
$TDUUPDATE
 40
2454019.867191481
  9
$TDINDWG
 40
0.0011845718
  9
$TDUSRTIMER
 40
0.0011845718
  9
$USRTIMER
 70
     1
  9
$ANGBASE
 50
0.0
  9
$ANGDIR
 70
     0
  9
$PDMODE
 70
     0
  9
$PDSIZE
 40
0.0
  9
$PLINEWID
 40
0.0
  9
$SPLFRAME
 70
     0
  9
$SPLINETYPE
 70
     6
  9
$SPLINESEGS
 70
     8
  9
$HANDSEED
  5
793
  9
$SURFTAB1
 70
     6
  9
$SURFTAB2
 70
     6
  9
$SURFTYPE
 70
     6
  9
$SURFU
 70
     6
  9
$SURFV
 70
     6
  9
$UCSBASE
  2

  9
$UCSNAME
  2

  9
$UCSORG
 10
0.0
 20
0.0
 30
0.0
  9
$UCSXDIR
 10
1.0
 20
0.0
 30
0.0
  9
$UCSYDIR
 10
0.0
 20
1.0
 30
0.0
  9
$UCSORTHOREF
  2

  9
$UCSORTHOVIEW
 70
     0
  9
$UCSORGTOP
 10
0.0
 20
0.0
 30
0.0
  9
$UCSORGBOTTOM
 10
0.0
 20
0.0
 30
0.0
  9
$UCSORGLEFT
 10
0.0
 20
0.0
 30
0.0
  9
$UCSORGRIGHT
 10
0.0
 20
0.0
 30
0.0
  9
$UCSORGFRONT
 10
0.0
 20
0.0
 30
0.0
  9
$UCSORGBACK
 10
0.0
 20
0.0
 30
0.0
  9
$PUCSBASE
  2

  9
$PUCSNAME
  2

  9
$PUCSORG
 10
0.0
 20
0.0
 30
0.0
  9
$PUCSXDIR
 10
1.0
 20
0.0
 30
0.0
  9
$PUCSYDIR
 10
0.0
 20
1.0
 30
0.0
  9
$PUCSORTHOREF
  2

  9
$PUCSORTHOVIEW
 70
     0
  9
$PUCSORGTOP
 10
0.0
 20
0.0
 30
0.0
  9
$PUCSORGBOTTOM
 10
0.0
 20
0.0
 30
0.0
  9
$PUCSORGLEFT
 10
0.0
 20
0.0
 30
0.0
  9
$PUCSORGRIGHT
 10
0.0
 20
0.0
 30
0.0
  9
$PUCSORGFRONT
 10
0.0
 20
0.0
 30
0.0
  9
$PUCSORGBACK
 10
0.0
 20
0.0
 30
0.0
  9
$USERI1
 70
     0
  9
$USERI2
 70
     0
  9
$USERI3
 70
     0
  9
$USERI4
 70
     0
  9
$USERI5
 70
     0
  9
$USERR1
 40
0.0
  9
$USERR2
 40
0.0
  9
$USERR3
 40
0.0
  9
$USERR4
 40
0.0
  9
$USERR5
 40
0.0
  9
$WORLDVIEW
 70
     1
  9
$SHADEDGE
 70
     3
  9
$SHADEDIF
 70
    70
  9
$TILEMODE
 70
     1
  9
$MAXACTVP
 70
    64
  9
$PINSBASE
 10
0.0
 20
0.0
 30
0.0
  9
$PLIMCHECK
 70
     0
  9
$PEXTMIN
 10
1.000000000000000E+20
 20
1.000000000000000E+20
 30
1.000000000000000E+20
  9
$PEXTMAX
 10
-1.000000000000000E+20
 20
-1.000000000000000E+20
 30
-1.000000000000000E+20
  9
$PLIMMIN
 10
0.0
 20
0.0
  9
$PLIMMAX
 10
420.0
 20
297.0
  9
$UNITMODE
 70
     0
  9
$VISRETAIN
 70
     1
  9
$PLINEGEN
 70
     0
  9
$PSLTSCALE
 70
     1
  9
$TREEDEPTH
 70
  3020
  9
$CMLSTYLE
  2
Standard
  9
$CMLJUST
 70
     0
  9
$CMLSCALE
 40
20.0
  9
$PROXYGRAPHICS
 70
     1
  9
$MEASUREMENT
 70
     1
  9
$CELWEIGHT
370
    -1
  9
$ENDCAPS
280
     0
  9
$JOINSTYLE
280
     0
  9
$LWDISPLAY
290
     0
  9
$INSUNITS
 70
     4
  9
$HYPERLINKBASE
  1

  9
$STYLESHEET
  1

  9
$XEDIT
290
     1
  9
$CEPSNTYPE
380
     0
  9
$PSTYLEMODE
290
     1
  9
$FINGERPRINTGUID
  2
{9DD3DA3C-BE02-4DFC-B844-4EEA3D7EBCCE}
  9
$VERSIONGUID
  2
{4FCB1DDB-4F47-42F7-BF4A-FB94A45C14E9}
  9
$EXTNAMES
290
     1
  9
$PSVPSCALE
 40
0.0
  9
$OLESTARTUP
290
     0
  0
ENDSEC
  0
SECTION
  2
CLASSES
  0
CLASS
  1
ACDBDICTIONARYWDFLT
  2
AcDbDictionaryWithDefault
  3
ObjectDBX Classes
 90
        0
280
     0
281
     0
  0
CLASS
  1
ACDBPLACEHOLDER
  2
AcDbPlaceHolder
  3
ObjectDBX Classes
 90
        0
280
     0
281
     0
  0
CLASS
  1
LAYOUT
  2
AcDbLayout
  3
ObjectDBX Classes
 90
        0
280
     0
281
     0
  0
CLASS
  1
AMGSETTINGSOBJ
  2
AmgSettingsObj
  3
"AcadM|Product Description: AutoCAD Mechanical 2000|Company: Autodesk"
 90
        0
280
     0
281
     0
  0
CLASS
  1
ACME_DOCUMENT
  2
AcMeDbDoc
  3
AcMeServices
 90
        0
280
     0
281
     0
  0
CLASS
  1
ACMESCOPE
  2
AcMeScope
  3
AcMeServices
 90
        0
280
     0
281
     0
  0
CLASS
  1
ACMECOMMANDHISTORY
  2
AcMeCommandHistory
  3
AcMeServices
 90
        0
280
     0
281
     0
  0
CLASS
  1
DICTIONARYVAR
  2
AcDbDictionaryVar
  3
ObjectDBX Classes
 90
        0
280
     0
281
     0
  0
CLASS
  1
ACIMSYSVARMAN
  2
AcImSysVarManager
  3
AcMeServices
 90
        0
280
     0
281
     0
  0
CLASS
  1
ACIMREALSYSVAR
  2
AcImRealSysVar
  3
AcMeServices
 90
        0
280
     0
281
     0
  0
CLASS
  1
ACIMINTSYSVAR
  2
AcImIntSysVar
  3
AcMeServices
 90
        0
280
     0
281
     0
  0
CLASS
  1
ACMEDRAWINGMAN
  2
AcMeDrawingMan
  3
AcMeServices
 90
        0
280
     0
281
     0
  0
CLASS
  1
ACMEVIEW
  2
AcMeView
  3
AcMeServices
 90
        0
280
     0
281
     0
  0
CLASS
  1
ACDBENTITYCACHE
  2
AcMeEntityCache
  3
AcMeServices
 90
        0
280
     0
281
     0
  0
CLASS
  1
GSMANAGER
  2
AcMeGSManager
  3
AcMeServices
 90
        0
280
     0
281
     0
  0
CLASS
  1
AMDTINTERNALREACTOR
  2
AmdtInternalReactor
  3
AcMeServices
 90
        0
280
     0
281
     0
  0
CLASS
  1
ACMESTATEMGR
  2
AcMeStateMgr
  3
AcMeServices
 90
        0
280
     0
281
     0
  0
CLASS
  1
ACGREFMASTER
  2
AcGrefMaster
  3
AcAttribServices
 90
        0
280
     0
281
     0
  0
CLASS
  1
ACME_DATABASE
  2
AcMeDbDatabase
  3
AcMeServices
 90
        0
280
     0
281
     0
  0
CLASS
  1
ACRFINSADJUSTERMGR
  2
AcRfInsAdjusterMgr
  3
AcMeServices
 90
        0
280
     0
281
     0
  0
CLASS
  1
ACGREFACADMASTER
  2
AcGrefacadMaster
  3
AcGrefServices
 90
        0
280
     0
281
     0
  0
CLASS
  1
AMIMASTER
  2
AmiMaster
  3
AmiServices
 90
        0
280
     0
281
     0
  0
CLASS
  1
ACMDATADICTIONARY
  2
AcmDataDictionary
  3
"AcmSymBB|Product Description: AutoCAD Mechanical 2004 DX|Company: Autodesk"
 90
        0
280
     0
281
     0
  0
CLASS
  1
ACMDATAENTRYBLOCK
  2
AcmDataEntryBlock
  3
"AcmSymBB|Product Description: AutoCAD Mechanical 2004 DX|Company: Autodesk"
 90
        0
280
     0
281
     0
  0
CLASS
  1
ACIMSTRSYSVAR
  2
AcImStrSysVar
  3
AcMeServices
 90
        0
280
     0
281
     0
  0
CLASS
  1
ACMSTANDARDDIN
  2
AcmStandardDIN
  3
"Amdt_StdImp|Product Description: AutoCAD Mechanical 2004 DX|Company: Autodesk"
 90
        0
280
     0
281
     0
  0
CLASS
  1
AMGOBJPROPCFG
  2
AmgObjPropCfg
  3
"AmgLay|Product Description: AutoCAD Mechanical 2000|Company: Autodesk"
 90
        1
280
     0
281
     0
  0
CLASS
  1
AMDTEDGESTANDARDDIN
  2
AmdtEdgeStdDIN
  3
"Amdt_StdImp|Product Description: AutoCAD Mechanical 2004 DX|Company: Autodesk"
 90
        0
280
     0
281
     0
  0
CLASS
  1
ACMSURFSTANDARDDIN
  2
AcmSurfTextStdDIN
  3
"Amdt_StdImp|Product Description: AutoCAD Mechanical 2004 DX|Company: Autodesk"
 90
        0
280
     0
281
     0
  0
CLASS
  1
ACMFCFSTANDARDDIN
  2
AcmFCFStdDIN
  3
"Amdt_StdImp|Product Description: AutoCAD Mechanical 2004 DX|Company: Autodesk"
 90
        0
280
     0
281
     0
  0
CLASS
  1
ACMWELDSTANDARDDIN
  2
AcmWeldingStdDIN
  3
"Amdt_StdImp|Product Description: AutoCAD Mechanical 2004 DX|Company: Autodesk"
 90
        0
280
     0
281
     0
  0
CLASS
  1
ACMIDSTANDARDDIN
  2
AcmIdStdDIN
  3
"Amdt_StdImp|Product Description: AutoCAD Mechanical 2004 DX|Company: Autodesk"
 90
        0
280
     0
281
     0
  0
CLASS
  1
ACMDATUMSTANDARDDIN
  2
AcmDatumStdDIN
  3
"Amdt_StdImp|Product Description: AutoCAD Mechanical 2004 DX|Company: Autodesk"
 90
        0
280
     0
281
     0
  0
CLASS
  1
ACMBOMSTANDARDDIN
  2
AcmBOMStdDIN
  3
"Amdt_StdImp|Product Description: AutoCAD Mechanical 2004 DX|Company: Autodesk"
 90
        0
280
     0
281
     0
  0
CLASS
  1
ACMDETAILSTANDARDDIN
  2
AmdtDetailSymStdDIN
  3
"Amdt_StdImp|Product Description: AutoCAD Mechanical 2004 DX|Company: Autodesk"
 90
        0
280
     0
281
     0
  0
CLASS
  1
ACMSECTIONSTANDARDDIN
  2
AmdtSectionSymStdDIN
  3
"Amdt_StdImp|Product Description: AutoCAD Mechanical 2004 DX|Company: Autodesk"
 90
        0
280
     0
281
     0
  0
CLASS
  1
ACMCENTERLINESTANDARDDIN
  2
AmdtCenterLineStdDIN
  3
"Amdt_StdImp|Product Description: AutoCAD Mechanical 2004 DX|Company: Autodesk"
 90
        0
280
     0
281
     0
  0
CLASS
  1
ACAMGLAYSTD
  2
AcAmgLayStd
  3
"AcAmgLayStd|Product Description: AutoCAD Mechanical 2000|Company: Autodesk"
 90
        0
280
     0
281
     0
  0
CLASS
  1
ACAMGDIMSTD
  2
AcAmgDimStd
  3
"AcAmgDimStd|Product Description: AutoCAD Mechanical 2000|Company: Autodesk"
 90
        0
280
     0
281
     0
  0
CLASS
  1
ACAMGTITLESTD
  2
AcAmgTitleStd
  3
"TITLEAPP"
 90
        0
280
     0
281
     0
  0
CLASS
  1
ACAMGFILTERDAT
  2
AcAmgFilterDat
  3
"AcadM|Product Description: AutoCAD Mechanical 2000|Company: Autodesk"
 90
        0
280
     0
281
     0
  0
CLASS
  1
AMDTFORMULAUPDATEDISPATCHER
  2
AmdtFormulaUpdateDispatcher
  3
AcMeServices
 90
        0
280
     0
281
     0
  0
CLASS
  1
LAYER_INDEX
  2
AcDbLayerIndex
  3
ObjectDBX Classes
 90
        0
280
     0
281
     0
  0
CLASS
  1
IDBUFFER
  2
AcDbIdBuffer
  3
ObjectDBX Classes
 90
        0
280
     0
281
     0
  0
CLASS
  1
TABLESTYLE
  2
AcDbTableStyle
  3
ObjectDBX Classes
 90
     2047
280
     0
281
     0
  0
CLASS
  1
AM_DRAWING_MGR
  2
AcDmDwgMgr
  3
AcMechDwgViewMgmt
 90
        0
280
     0
281
     0
  0
CLASS
  1
AM_DWG_DOCUMENT
  2
AcDmDwgDocument
  3
AcMechDwgViewMgmt
 90
        0
280
     0
281
     0
  0
CLASS
  1
AM_DWG_SHEET
  2
AcDmSheet
  3
AcMechDwgViewMgmt
 90
        0
280
     0
281
     0
  0
CLASS
  1
AM_VIEWDIMPARMAP
  2
AcDmViewDimParMap
  3
AcMechDwgViewMgmt
 90
        0
280
     0
281
     0
  0
CLASS
  1
AM_DWGMGR_NAME
  2
AcDmDwgMgrName
  3
AcMechDwgViewMgmt
 90
        0
280
     0
281
     0
  0
CLASS
  1
AMDTMENUSTATEMGR
  2
AmdtMenuStateMgr
  3
McadcomServices
 90
        0
280
     0
281
     0
  0
CLASS
  1
AMDTMCOMMENUSTATE
  2
AmdtMcomMenuState
  3
McadcomServices
 90
        0
280
     0
281
     0
  0
CLASS
  1
MAPIAMMOUDLE
  2
MApiAmModule
  3
MApiAmServices
 90
        0
280
     0
281
     0
  0
CLASS
  1
AMDTADMENUSTATE
  2
AmdtAdMenuState
  3
DesignerServices
 90
        0
280
     0
281
     0
  0
CLASS
  1
ADAPPL
  2
AcAdAppl
  3
DesignerServices
 90
        0
280
     0
281
     0
  0
CLASS
  1
DEPMGR
  2
AcAdDepMgr
  3
DesignerServices
 90
        0
280
     0
281
     0
  0
CLASS
  1
PARAMMGR
  2
AcAdParamMgr
  3
DesignerServices
 90
        0
280
     0
281
     0
  0
CLASS
  1
PARAMSCOPE
  2
AcAdParamScope
  3
DesignerServices
 90
        0
280
     0
281
     0
  0
CLASS
  1
NAMEDAPPL
  2
AcAdNamedAppl
  3
DesignerServices
 90
        0
280
     0
281
     0
  0
CLASS
  1
AMDTDMMENUSTATE
  2
AmdtDmMenuState
  3
AcMechDwgViewMgmt
 90
        0
280
     0
281
     0
  0
CLASS
  1
AMDTAMMENUSTATE
  2
AmdtAmMenuState
  3
DesignerAssemblies
 90
        0
280
     0
281
     0
  0
CLASS
  1
ACAMPROJECT
  2
AcAmProject
  3
DesignerAssemblies
 90
        0
280
     0
281
     0
  0
CLASS
  1
ACAMGRCOMPDEF
  2
AcAmGrCompDef
  3
DesignerAssemblies
 90
        0
280
     0
281
     0
  0
CLASS
  1
ACCMCONTEXT
  2
AcCmContext
  3
DesignerAssemblies
 90
        0
280
     0
281
     0
  0
CLASS
  1
ACAMCOMPDEF
  2
AcAmCompDef
  3
DesignerAssemblies
 90
        0
280
     0
281
     0
  0
CLASS
  1
ACAMCOMPDEFMGR
  2
AcAmCompDefMgr
  3
DesignerAssemblies
 90
        0
280
     0
281
     0
  0
CLASS
  1
AMCONTEXTMGR
  2
AcAmContextMgr
  3
DesignerAssemblies
 90
        0
280
     0
281
     0
  0
CLASS
  1
ACAMCONTEXTMODELER
  2
AcAmContextModeler
  3
DesignerAssemblies
 90
        0
280
     0
281
     0
  0
CLASS
  1
ACMTHREADLINESTANDARDDIN
  2
AmdtThreadLineStdDIN
  3
"Amdt_StdImp|Product Description: AutoCAD Mechanical 2004 DX|Company: Autodesk"
 90
        0
280
     0
281
     0
  0
CLASS
  1
ACMNOTESTANDARDDIN
  2
AmdtNoteStdDIN
  3
"Amdt_StdImp|Product Description: AutoCAD Mechanical 2004 DX|Company: Autodesk"
 90
        0
280
     0
281
     0
  0
CLASS
  1
AMDTNOTETEMPLATEDB
  2
AmdtNoteTemplateDB
  3
AMDT_STDIMP_MODULE_NAME
 90
        0
280
     0
281
     0
  0
CLASS
  1
CATALOGSTATE
  2
AcAmCatalogState
  3
DesignerAssemblies
 90
        0
280
     0
281
     0
  0
CLASS
  1
ACAMGRCOMPDEFSET
  2
AcAmGrCompDefSet
  3
DesignerAssemblies
 90
        0
280
     0
281
     0
  0
CLASS
  1
AMDTBROWSERDBTAB
  2
AmdtBrowserDbTab
  3
McadcomServices
 90
        0
280
     0
281
     0
  0
CLASS
  1
CBROWSERAPPOBJECT
  2
CBrowserAppObject
  3
McadcomServices
 90
        0
280
     0
281
     0
  0
CLASS
  1
DM_PLACEHOLDER
  2
AcDmSelsetPlaceholder
  3
AcMechDwgViewMgmt
 90
        0
280
     0
281
     0
  0
ENDSEC
  0
SECTION
  2
TABLES
  0
TABLE
  2
VPORT
  5
8
330
0
100
AcDbSymbolTable
 70
     4
  0
VPORT
  5
78A
330
8
100
AcDbSymbolTableRecord
100
AcDbViewportTableRecord
  2
*Active
 70
     0
 10
0.0
 20
0.0
 11
1.0
 21
1.0
 12
208.2446891937052
 22
238.8982517880889
 13
0.0
 23
0.0
 14
2.5
 24
2.5
 15
10.0
 25
10.0
 16
0.0
 26
0.0
 36
1.0
 17
0.0
 27
0.0
 37
0.0
 40
481.3151191429401
 41
1.494545454545454
 42
50.0
 43
0.0
 44
0.0
 50
0.0
 51
0.0
 71
     0
 72
   100
 73
     1
 74
     3
 75
     0
 76
     0
 77
     0
 78
     0
281
     0
 65
     1
110
0.0
120
0.0
130
0.0
111
1.0
121
0.0
131
0.0
112
0.0
122
1.0
132
0.0
 79
     0
146
0.0
  0
ENDTAB
  0
TABLE
  2
LTYPE
  5
5
330
0
100
AcDbSymbolTable
 70
    26
  0
LTYPE
  5
14
330
5
100
AcDbSymbolTableRecord
100
AcDbLinetypeTableRecord
  2
ByBlock
 70
     0
  3

 72
    65
 73
     0
 40
0.0
  0
LTYPE
  5
15
330
5
100
AcDbSymbolTableRecord
100
AcDbLinetypeTableRecord
  2
ByLayer
 70
     0
  3

 72
    65
 73
     0
 40
0.0
  0
LTYPE
  5
16
330
5
100
AcDbSymbolTableRecord
100
AcDbLinetypeTableRecord
  2
Continuous
 70
     0
  3
Solid line
 72
    65
 73
     0
 40
0.0
  0
LTYPE
  5
52
330
5
100
AcDbSymbolTableRecord
100
AcDbLinetypeTableRecord
  2
Amconstr
 70
     0
  3
_______________________
 72
    65
 73
     2
 40
9999.0
 49
9999.0
 74
     0
 49
0.0
 74
     0
  0
LTYPE
  5
57
330
5
100
AcDbSymbolTableRecord
100
AcDbLinetypeTableRecord
  2
Amzigzag
 70
     0
  3
/\/-/\/-/\/-/\/-/\/-/\/
 72
    65
 73
     2
 40
11.0001
 49
0.0001
 74
     4
 75
   135
340
56
 46
0.04
 50
0.0
 44
0.0
 45
0.0
 49
-11.0
 74
     0
  0
LTYPE
  5
58
330
5
100
AcDbSymbolTableRecord
100
AcDbLinetypeTableRecord
  2
AM_DIN_F_W050
 70
     0
  3
__ __ __ __ __ __ __ __ __ __ __ __ __ __ __
 72
    65
 73
     2
 40
6.25
 49
4.75
 74
     0
 49
-1.5
 74
     0
  0
LTYPE
  5
59
330
5
100
AcDbSymbolTableRecord
100
AcDbLinetypeTableRecord
  2
AM_DIN_G_W050
 70
     0
  3
____ . ____ . ____ . ____ . ____ . ____ . ____
 72
    65
 73
     4
 40
13.75
 49
9.75
 74
     0
 49
-1.5
 74
     0
 49
1.0
 74
     0
 49
-1.5
 74
     0
  0
LTYPE
  5
5A
330
5
100
AcDbSymbolTableRecord
100
AcDbLinetypeTableRecord
  2
AM_DIN_K_W050
 70
     0
  3
_____ . . _____ . . _____ . . ____ .. ____
 72
    65
 73
     6
 40
16.25
 49
9.75
 74
     0
 49
-1.5
 74
     0
 49
1.0
 74
     0
 49
-1.5
 74
     0
 49
1.0
 74
     0
 49
-1.5
 74
     0
  0
LTYPE
  5
5B
330
5
100
AcDbSymbolTableRecord
100
AcDbLinetypeTableRecord
  2
AM_DIN_G_W050x2
 70
     0
  3
__ . __ . __ . __ . __ . __
 72
    65
 73
     4
 40
6.875
 49
4.75
 74
     0
 49
-0.875
 74
     0
 49
0.375
 74
     0
 49
-0.875
 74
     0
  0
LTYPE
  5
5C
330
5
100
AcDbSymbolTableRecord
100
AcDbLinetypeTableRecord
  2
AM_DIN_F_W050x2
 70
     0
  3
 _ _ _ _ _ _ _ _ _ _ _ _
 72
    65
 73
     2
 40
3.125
 49
2.25
 74
     0
 49
-0.875
 74
     0
  0
LTYPE
  5
69
330
5
100
AcDbSymbolTableRecord
100
AcDbLinetypeTableRecord
  2
ACDINWELD
 70
     0
  3
_ _ _ _ _
 72
    65
 73
     2
 40
2.0
 49
2.0
 74
     0
 49
-1.0
 74
     0
  0
LTYPE
  5
6A
330
5
100
AcDbSymbolTableRecord
100
AcDbLinetypeTableRecord
  2
ACDINTGB
 70
     0
  3
__ . . __ . .
 72
    65
 73
     6
 40
9.0
 49
4.0
 74
     0
 49
-1.0
 74
     0
 49
1.0
 74
     0
 49
-1.0
 74
     0
 49
1.0
 74
     0
 49
-1.0
 74
     0
  0
LTYPE
  5
6B
330
5
100
AcDbSymbolTableRecord
100
AcDbLinetypeTableRecord
  2
ACDINTGL
 70
     0
  3
_ _ _ _ _
 72
    65
 73
     2
 40
3.0
 49
2.0
 74
     0
 49
-1.0
 74
     0
  0
LTYPE
  5
6D
330
5
100
AcDbSymbolTableRecord
100
AcDbLinetypeTableRecord
  2
CENTER
 70
     0
  3
__ . __
 72
    65
 73
     4
 40
7.0
 49
4.0
 74
     0
 49
-1.0
 74
     0
 49
1.0
 74
     0
 49
-1.0
 74
     0
  0
LTYPE
  5
124
330
5
100
AcDbSymbolTableRecord
100
AcDbLinetypeTableRecord
  2
AUSGEZOGEN
 70
     0
  3
Ausgezogene Linie
 72
    65
 73
     0
 40
0.0
  0
LTYPE
  5
71F
330
5
100
AcDbSymbolTableRecord
100
AcDbLinetypeTableRecord
  2
HIDDEN
 70
     0
  3
Verdeckt
 72
    65
 73
     2
 40
9.525
 49
6.349999999999999
 74
     0
 49
-3.174999999999999
 74
     0
  0
LTYPE
  5
720
330
5
100
AcDbSymbolTableRecord
100
AcDbLinetypeTableRecord
  2
PHANTOM2
 70
     0
  3
Phantom (.5x) ___ _ _ ___ _ _ ___ _ _ ___ _ _
 72
    65
 73
     6
 40
31.75
 49
15.875
 74
     0
 49
-3.174999999999999
 74
     0
 49
3.174999999999999
 74
     0
 49
-3.174999999999999
 74
     0
 49
3.174999999999999
 74
     0
 49
-3.174999999999999
 74
     0
  0
ENDTAB
  0
TABLE
  2
LAYER
  5
2
330
0
100
AcDbSymbolTable
 70
     8
  0
LAYER
  5
10
330
2
100
AcDbSymbolTableRecord
100
AcDbLayerTableRecord
  2
0
 70
     0
 62
     7
  6
Continuous
370
    -3
390
F
  0
LAYER
  5
128
330
2
100
AcDbSymbolTableRecord
100
AcDbLayerTableRecord
  2
DEFPOINTS
 70
     0
 62
     7
  6
Continuous
290
     0
370
    -3
390
F
  0
LAYER
  5
129
330
2
100
AcDbSymbolTableRecord
100
AcDbLayerTableRecord
  2
SICHTBAR
 70
     0
 62
     7
  6
AUSGEZOGEN
370
    -3
390
F
  0
LAYER
  5
12A
330
2
100
AcDbSymbolTableRecord
100
AcDbLayerTableRecord
  2
BEMASS
 70
     0
 62
     3
  6
AUSGEZOGEN
370
    -3
390
F
  0
LAYER
  5
12B
330
2
100
AcDbSymbolTableRecord
100
AcDbLayerTableRecord
  2
TEXT100
 70
     0
 62
     7
  6
Continuous
370
    -3
390
F
  0
LAYER
  5
12C
330
2
100
AcDbSymbolTableRecord
100
AcDbLayerTableRecord
  2
ACO00_01
 70
     0
 62
     1
  6
AUSGEZOGEN
370
    -3
390
F
  0
LAYER
  5
12D
330
2
100
AcDbSymbolTableRecord
100
AcDbLayerTableRecord
  2
ACO00_00
 70
     0
 62
     7
  6
AUSGEZOGEN
370
    -3
390
F
  0
LAYER
  5
12E
330
2
100
AcDbSymbolTableRecord
100
AcDbLayerTableRecord
  2
5
 70
     0
 62
     3
  6
Continuous
370
    -3
390
F
  0
ENDTAB
  0
TABLE
  2
STYLE
  5
3
330
0
100
AcDbSymbolTable
 70
     9
  0
STYLE
  5
11
330
3
100
AcDbSymbolTableRecord
100
AcDbTextStyleTableRecord
  2
STANDARD
 70
     0
 40
0.0
 41
1.0
 50
0.0
 71
     0
 42
2.5
  3
ISOCP.SHX
  4

  0
STYLE
  5
56
330
3
100
AcDbSymbolTableRecord
100
AcDbTextStyleTableRecord
  2

 70
     1
 40
0.0
 41
1.0
 50
0.0
 71
     0
 42
2.5
  3
ltypeshp.shx
  4

  0
STYLE
  5
5D
330
3
100
AcDbSymbolTableRecord
100
AcDbTextStyleTableRecord
  2
ACDINTS
 70
     0
 40
1.0
 41
1.0
 50
0.0
 71
     0
 42
2.5
  3
isocp.shx
  4

  0
STYLE
  5
68
330
3
100
AcDbSymbolTableRecord
100
AcDbTextStyleTableRecord
  2
ACDINGDT
 70
     0
 40
0.0
 41
1.0
 50
0.0
 71
     0
 42
2.5
  3
amgdt.shx
  4

  0
STYLE
  5
12F
330
3
100
AcDbSymbolTableRecord
100
AcDbTextStyleTableRecord
  2
TEXT100
 70
     0
 40
10.0
 41
0.8
 50
0.0
 71
     0
 42
2.5
  3
DIN.SHX
  4
bigfont.shx
  0
ENDTAB
  0
TABLE
  2
VIEW
  5
6
330
0
100
AcDbSymbolTable
 70
     0
  0
ENDTAB
  0
TABLE
  2
UCS
  5
7
330
0
100
AcDbSymbolTable
 70
     0
  0
ENDTAB
  0
TABLE
  2
APPID
  5
9
330
0
100
AcDbSymbolTable
 70
    13
  0
APPID
  5
12
330
9
100
AcDbSymbolTableRecord
100
AcDbRegAppTableRecord
  2
ACAD
 70
     0
  0
APPID
  5
30
330
9
100
AcDbSymbolTableRecord
100
AcDbRegAppTableRecord
  2
MCAD_NO_VIS
 70
     0
  0
APPID
  5
31
330
9
100
AcDbSymbolTableRecord
100
AcDbRegAppTableRecord
  2
ACAD_TEMP_GRAPHIC
 70
     0
  0
APPID
  5
44
330
9
100
AcDbSymbolTableRecord
100
AcDbRegAppTableRecord
  2
ACATTRIBSERVICES
 70
     0
  0
APPID
  5
132
330
9
100
AcDbSymbolTableRecord
100
AcDbRegAppTableRecord
  2
GENIUS_GENODEF_13
 70
     0
  0
APPID
  5
133
330
9
100
AcDbSymbolTableRecord
100
AcDbRegAppTableRecord
  2
GENIUS_GENOBJ-N-HTC_13
 70
     0
  0
APPID
  5
134
330
9
100
AcDbSymbolTableRecord
100
AcDbRegAppTableRecord
  2
GENIUS_GENHATCH_13
 70
     0
  0
APPID
  5
722
330
9
100
AcDbSymbolTableRecord
100
AcDbRegAppTableRecord
  2
AD_DRAW
 70
     0
  0
APPID
  5
740
330
9
100
AcDbSymbolTableRecord
100
AcDbRegAppTableRecord
  2
DESIGNERASSEMBLIES
 70
     0
  0
APPID
  5
74A
330
9
100
AcDbSymbolTableRecord
100
AcDbRegAppTableRecord
  2
ACAD_DSTYLE_DIMARC_LENGTH_SYMBOL
 70
     0
  0
APPID
  5
74B
330
9
100
AcDbSymbolTableRecord
100
AcDbRegAppTableRecord
  2
ACAD_DSTYLE_DIMJOGGED_JOGANGLE_SYMBOL
 70
     0
  0
APPID
  5
75B
330
9
100
AcDbSymbolTableRecord
100
AcDbRegAppTableRecord
  2
ACADM_DIM_EDIT
 70
     0
  0
APPID
  5
75C
330
9
100
AcDbSymbolTableRecord
100
AcDbRegAppTableRecord
  2
AMDT_DM_ADJ
 70
     0
  0
ENDTAB
  0
TABLE
  2
DIMSTYLE
  5
A
330
0
100
AcDbSymbolTable
 70
     9
100
AcDbDimStyleTable
 71
     2
340
131
340
70
  0
DIMSTYLE
105
70
330
A
100
AcDbSymbolTableRecord
100
AcDbDimStyleTableRecord
  2
AM_DIN
 70
     0
  4
"
 41
2.5
 42
1.0
 43
10.0
 44
1.0
 47
0.1
 48
0.1
 73
     0
 74
     0
 77
     1
 78
     8
 79
     2
140
3.5
141
0.0
143
0.0393701
146
0.71
147
1.5
172
     1
176
   256
177
   256
178
     2
271
     2
272
     3
274
     4
283
     0
284
     8
340
11
371
    -1
372
    -1
1001
ACAD_DSTYLE_DIMARC_LENGTH_SYMBOL
1070
   379
1070
     0
1001
ACAD_DSTYLE_DIMJOGGED_JOGANGLE_SYMBOL
1070
   384
1040
1.570796326794896
  0
DIMSTYLE
105
71
330
A
100
AcDbSymbolTableRecord
100
AcDbDimStyleTableRecord
  2
AM_DIN$3
 70
     0
  4
"
 41
2.5
 42
1.0
 43
10.0
 44
1.0
 47
0.1
 48
0.1
 73
     0
 77
     1
 78
     8
 79
     2
140
3.5
141
0.0
143
0.0393701
146
0.71
147
1.5
176
   256
177
   256
178
     2
271
     2
272
     3
274
     4
283
     0
284
     8
288
     1
289
     0
340
11
371
    -1
372
    -1
1001
ACAD_DSTYLE_DIMARC_LENGTH_SYMBOL
1070
   379
1070
     0
1001
ACAD_DSTYLE_DIMJOGGED_JOGANGLE_SYMBOL
1070
   384
1040
1.570796326794896
  0
DIMSTYLE
105
72
330
A
100
AcDbSymbolTableRecord
100
AcDbDimStyleTableRecord
  2
AM_DIN$4
 70
     0
  4
"
 41
2.5
 42
1.0
 43
10.0
 44
1.0
 47
0.1
 48
0.1
 73
     0
 77
     1
 78
     8
 79
     2
140
3.5
141
0.0
143
0.0393701
146
0.71
147
1.5
176
   256
177
   256
178
     2
271
     2
272
     3
274
     4
283
     0
284
     8
288
     1
289
     0
340
11
371
    -1
372
    -1
1001
ACAD_DSTYLE_DIMARC_LENGTH_SYMBOL
1070
   379
1070
     0
1001
ACAD_DSTYLE_DIMJOGGED_JOGANGLE_SYMBOL
1070
   384
1040
1.570796326794896
  0
DIMSTYLE
105
73
330
A
100
AcDbSymbolTableRecord
100
AcDbDimStyleTableRecord
  2
AM_DIN$6
 70
     0
  4
"
 41
2.5
 42
1.0
 43
10.0
 44
1.0
 47
0.1
 48
0.1
 73
     0
 74
     0
 78
     8
 79
     2
140
3.5
141
0.0
143
0.0393701
146
0.71
147
1.5
172
     1
176
   256
177
   256
178
     2
271
     2
272
     3
274
     4
283
     0
284
     8
340
11
371
    -1
372
    -1
1001
ACAD_DSTYLE_DIMARC_LENGTH_SYMBOL
1070
   379
1070
     0
1001
ACAD_DSTYLE_DIMJOGGED_JOGANGLE_SYMBOL
1070
   384
1040
1.570796326794896
  0
DIMSTYLE
105
74
330
A
100
AcDbSymbolTableRecord
100
AcDbDimStyleTableRecord
  2
AM_DIN$7
 70
     0
  4
"
 41
2.5
 42
1.0
 43
10.0
 44
1.0
 47
0.1
 48
0.1
 73
     0
 74
     0
 77
     1
 78
     8
 79
     2
140
5.0
141
0.0
143
0.0393701
146
0.71
147
1.5
172
     1
176
   256
177
   256
178
     2
271
     2
272
     3
274
     4
283
     0
284
     8
340
11
371
    -1
372
    -1
1001
ACAD_DSTYLE_DIMARC_LENGTH_SYMBOL
1070
   379
1070
     0
1001
ACAD_DSTYLE_DIMJOGGED_JOGANGLE_SYMBOL
1070
   384
1040
1.570796326794896
  0
DIMSTYLE
105
75
330
A
100
AcDbSymbolTableRecord
100
AcDbDimStyleTableRecord
  2
AM_DIN$SF
 70
     0
  4
"
 41
2.5
 42
1.0
 43
10.0
 44
1.0
 47
0.1
 48
0.1
 73
     0
 74
     0
 75
     1
 76
     1
 77
     1
 78
     8
 79
     2
140
3.5
141
0.0
143
0.0393701
146
0.71
147
1.5
172
     1
176
   256
177
   256
178
     2
271
     2
272
     3
274
     4
283
     0
284
     8
340
11
371
    -1
372
    -1
1001
ACAD_DSTYLE_DIMARC_LENGTH_SYMBOL
1070
   379
1070
     0
1001
ACAD_DSTYLE_DIMJOGGED_JOGANGLE_SYMBOL
1070
   384
1040
1.570796326794896
  0
DIMSTYLE
105
7A
330
A
100
AcDbSymbolTableRecord
100
AcDbDimStyleTableRecord
  2
AM_DIN$SH
 70
     0
  4
"
 41
2.5
 42
1.0
 43
10.0
 44
1.0
 47
0.1
 48
0.1
 73
     0
 74
     0
 75
     1
 76
     1
 77
     1
 78
     8
 79
     2
140
3.5
141
0.0
143
0.0393701
144
2.0
146
0.71
147
1.5
172
     1
173
     1
176
   256
177
   256
178
     2
271
     2
272
     3
274
     4
283
     0
284
     8
340
11
343
76
371
    -1
372
    -1
1001
ACAD_DSTYLE_DIMARC_LENGTH_SYMBOL
1070
   379
1070
     0
1001
ACAD_DSTYLE_DIMJOGGED_JOGANGLE_SYMBOL
1070
   384
1040
1.570796326794896
  0
DIMSTYLE
105
131
102
{ACAD_REACTORS
330
3F0
330
3F1
330
3F2
102
}
330
A
100
AcDbSymbolTableRecord
100
AcDbDimStyleTableRecord
  2
GEN-ISO
 70
     0
  4
"
 41
2.5
 42
1.0
 43
7.0
 44
1.0
 47
0.1
 48
0.1
 73
     0
 74
     0
 77
     1
 78
     8
140
3.5
141
0.0
143
0.0393701
146
0.71
147
0.6
172
     1
176
   256
177
   256
178
     2
271
     2
272
     3
274
     4
283
     0
340
11
  0
ENDTAB
  0
TABLE
  2
BLOCK_RECORD
  5
1
330
0
100
AcDbSymbolTable
 70
    11
  0
BLOCK_RECORD
  5
1F
102
{ACAD_XDICTIONARY
360
6DF
102
}
330
1
100
AcDbSymbolTableRecord
100
AcDbBlockTableRecord
  2
*Model_Space
340
22
  0
BLOCK_RECORD
  5
1B
330
1
100
AcDbSymbolTableRecord
100
AcDbBlockTableRecord
  2
*Paper_Space
340
1E
  0
BLOCK_RECORD
  5
23
330
1
100
AcDbSymbolTableRecord
100
AcDbBlockTableRecord
  2
*Paper_Space0
340
26
  0
BLOCK_RECORD
  5
76
330
1
100
AcDbSymbolTableRecord
100
AcDbBlockTableRecord
  2
GENAXEH
340
0
  0
BLOCK_RECORD
  5
83
330
1
100
AcDbSymbolTableRecord
100
AcDbBlockTableRecord
  2
C117
340
0
102
{BLKREFS
331
FA
102
}
  0
BLOCK_RECORD
  5
F9
330
1
100
AcDbSymbolTableRecord
100
AcDbBlockTableRecord
  2
MPA-Zeichen
340
0
102
{BLKREFS
331
604
102
}
1001
ACAD
1000
DesignCenter Data
1002
{
1070
     1
1070
     4
1002
}
  0
BLOCK_RECORD
  5
69F
330
1
100
AcDbSymbolTableRecord
100
AcDbBlockTableRecord
  2
*D7
340
0
  0
BLOCK_RECORD
  5
6AB
330
1
100
AcDbSymbolTableRecord
100
AcDbBlockTableRecord
  2
*D8
340
0
  0
BLOCK_RECORD
  5
6B7
330
1
100
AcDbSymbolTableRecord
100
AcDbBlockTableRecord
  2
*D9
340
0
  0
ENDTAB
  0
ENDSEC
  0
SECTION
  2
BLOCKS
  0
BLOCK
  5
20
330
1F
100
AcDbEntity
  8
0
100
AcDbBlockBegin
  2
*Model_Space
 70
     0
 10
0.0
 20
0.0
 30
0.0
  3
*Model_Space
  1

  0
ENDBLK
  5
21
330
1F
100
AcDbEntity
  8
0
100
AcDbBlockEnd
  0
BLOCK
  5
1C
330
1B
100
AcDbEntity
 67
     1
  8
0
100
AcDbBlockBegin
  2
*Paper_Space
 70
     0
 10
0.0
 20
0.0
 30
0.0
  3
*Paper_Space
  1

  0
ENDBLK
  5
1D
330
1B
100
AcDbEntity
 67
     1
  8
0
100
AcDbBlockEnd
  0
BLOCK
  5
24
330
23
100
AcDbEntity
 67
     1
  8
0
100
AcDbBlockBegin
  2
*Paper_Space0
 70
     0
 10
0.0
 20
0.0
 30
0.0
  3
*Paper_Space0
  1

  0
ENDBLK
  5
25
330
23
100
AcDbEntity
 67
     1
  8
0
100
AcDbBlockEnd
  0
BLOCK
  5
78
330
76
100
AcDbEntity
  8
0
100
AcDbBlockBegin
  2
GENAXEH
 70
     0
 10
0.0
 20
0.0
 30
0.0
  3
GENAXEH
  1

  0
LINE
  5
77
330
76
100
AcDbEntity
  8
0
100
AcDbLine
 10
-1.0
 20
0.0
 30
0.0
 11
1.0
 21
0.0
 31
0.0
  0
ENDBLK
  5
79
330
76
100
AcDbEntity
  8
0
100
AcDbBlockEnd
  0
BLOCK
  5
F7
330
83
100
AcDbEntity
  8
0
100
AcDbBlockBegin
  2
C117
 70
     0
 10
0.0
 20
0.0
 30
0.0
  3
C117
  1

  0
LINE
  5
84
330
83
100
AcDbEntity
  8
ACO00_00
100
AcDbLine
 10
3.431924449998064
 20
0.3182992295232907
 30
0.0
 11
3.429336348735319
 21
-3.31169984785015
 31
0.0
  0
LINE
  5
85
330
83
100
AcDbEntity
  8
ACO00_00
100
AcDbLine
 10
2.111924785498672
 20
0.319240357255353
 30
0.0
 11
2.109336684235813
 21
-3.310758720118201
 31
0.0
  0
LINE
  5
86
330
83
100
AcDbEntity
  8
ACO00_01
100
AcDbLine
 10
1.781924869373824
 20
0.3194756391883402
 30
0.0
 11
1.779572050043952
 21
-2.980523522060252
 31
0.0
  0
LINE
  5
87
330
83
100
AcDbEntity
  8
ACO00_01
100
AcDbLine
 10
3.761924366122912
 20
0.3180639475904172
 30
0.0
 11
3.759571546793154
 21
-2.981935213658175
 31
0.0
  0
LINE
  5
88
330
83
100
AcDbEntity
  8
ACO00_00
100
AcDbLine
 10
-3.168073872499007
 20
0.3230048681831477
 30
0.0
 11
-3.170661973761866
 21
-3.306994209190406
 31
0.0
  0
LINE
  5
89
330
83
100
AcDbEntity
  8
ACO00_00
100
AcDbLine
 10
-1.848074207999729
 20
0.3220637404510853
 30
0.0
 11
-1.850662309262474
 21
-3.307935336922355
 31
0.0
  0
LINE
  5
8A
330
83
100
AcDbEntity
  8
ACO00_01
100
AcDbLine
 10
-1.518074291874768
 20
0.3218284585180982
 30
0.0
 11
-1.520427111204639
 21
-2.978170702730494
 31
0.0
  0
LINE
  5
8B
330
83
100
AcDbEntity
  8
ACO00_01
100
AcDbLine
 10
-3.498073788623855
 20
0.3232401501160211
 30
0.0
 11
-3.500426607953727
 21
-2.976759011132457
 31
0.0
  0
LINE
  5
8C
330
83
100
AcDbEntity
  8
ACO00_01
100
AcDbLine
 10
3.757454009396155
 20
-5.951934458782034
 30
0.0
 11
1.777454512646954
 21
-5.950522767183997
 31
0.0
  0
LINE
  5
8D
330
83
100
AcDbEntity
  8
ACO00_00
100
AcDbLine
 10
4.419336140194559
 20
-3.312345264064333
 30
0.0
 11
3.429336391820129
 21
-3.311639418265372
 31
0.0
  0
LINE
  5
8E
330
83
100
AcDbEntity
  8
ACO00_00
100
AcDbLine
 10
3.42839522100337
 20
-4.631699512349541
 30
0.0
 11
4.4183949693778
 21
-4.632405358148389
 31
0.0
  0
LINE
  5
8F
330
83
100
AcDbEntity
  8
ACO00_00
100
AcDbLine
 10
3.427689396746814
 20
-5.621669045931639
 30
0.0
 11
2.107689732247422
 21
-5.62072791819969
 31
0.0
  0
LINE
  5
90
330
83
100
AcDbEntity
  8
ACO00_00
100
AcDbLine
 10
-1.851603436994423
 20
-4.627935001421747
 30
0.0
 11
0.1283960597547775
 21
-4.62934669301967
 31
0.0
  0
LINE
  5
91
330
83
100
AcDbEntity
  8
ACO00_00
100
AcDbLine
 10
-3.171603101493815
 20
-4.626993873689684
 30
0.0
 11
-4.161602849868359
 21
-4.626288027890723
 31
0.0
  0
LINE
  5
92
330
83
100
AcDbEntity
  8
ACO00_00
100
AcDbLine
 10
-4.161602849868359
 20
-4.626288027890723
 30
0.0
 11
-4.16066172213641
 21
-3.306288363391331
 31
0.0
  0
LINE
  5
93
330
83
100
AcDbEntity
  8
ACO00_00
100
AcDbLine
 10
-4.160661679051486
 20
-3.306227933806667
 30
0.0
 11
-3.170661930677056
 21
-3.306933779605742
 31
0.0
  0
LINE
  5
94
330
83
100
AcDbEntity
  8
ACO00_00
100
AcDbLine
 10
-3.171603101493815
 20
-4.626993873689684
 30
0.0
 11
-3.172308918569456
 21
-5.616953335674452
 31
0.0
  0
LINE
  5
95
330
83
100
AcDbEntity
  8
ACO00_00
100
AcDbLine
 10
-3.172308925750371
 20
-5.61696340727201
 30
0.0
 11
-1.852309261250979
 21
-5.617904535003845
 31
0.0
  0
LINE
  5
96
330
83
100
AcDbEntity
  8
ACO00_00
100
AcDbLine
 10
-1.852309261250979
 20
-5.617904535003845
 30
0.0
 11
-1.851603444175225
 21
-4.627945073019077
 31
0.0
  0
LINE
  5
97
330
83
100
AcDbEntity
  8
ACO00_01
100
AcDbLine
 10
-1.520427111204639
 20
-2.978170702730494
 30
0.0
 11
0.1295724694197133
 21
-2.97934711239543
 31
0.0
  0
LINE
  5
98
330
83
100
AcDbEntity
  8
ACO00_01
100
AcDbLine
 10
-4.490426356328271
 20
-2.976053165333496
 30
0.0
 11
-3.500426607953727
 21
-2.976759011132457
 31
0.0
  0
LINE
  5
99
330
83
100
AcDbEntity
  8
ACO00_01
100
AcDbLine
 10
-4.491838004841497
 20
-4.955992232498033
 30
0.0
 11
-4.49042631324346
 21
-2.975992735748832
 31
0.0
  0
LINE
  5
9A
330
83
100
AcDbEntity
  8
ACO00_01
100
AcDbLine
 10
-3.501838256466839
 20
-4.956698078296994
 30
0.0
 11
-4.491838004841497
 21
-4.955992232498033
 31
0.0
  0
LINE
  5
9B
330
83
100
AcDbEntity
  8
ACO00_01
100
AcDbLine
 10
-3.501838256466839
 20
-4.956698078296994
 30
0.0
 11
-3.502544073547255
 21
-5.946657546881738
 31
0.0
  0
LINE
  5
9C
330
83
100
AcDbEntity
  8
ACO00_01
100
AcDbLine
 10
-3.502544145350498
 20
-5.946758256256202
 30
0.0
 11
-1.522544648601524
 21
-5.948169947854125
 31
0.0
  0
LINE
  5
9D
330
83
100
AcDbEntity
  8
ACO00_01
100
AcDbLine
 10
-1.522544648601524
 20
-5.948169947854125
 30
0.0
 11
-1.521838831520994
 21
-4.958210479269155
 31
0.0
  0
LINE
  5
9E
330
83
100
AcDbEntity
  8
ACO00_01
100
AcDbLine
 10
-1.521838759717752
 20
-4.958109769894917
 30
0.0
 11
0.1281608209066007
 21
-4.95928617955974
 31
0.0
  0
LINE
  5
9F
330
83
100
AcDbEntity
  8
ACO00_00
100
AcDbLine
 10
2.108395556503978
 20
-4.630758384617479
 30
0.0
 11
0.1283960597547775
 21
-4.62934669301967
 31
0.0
  0
LINE
  5
A0
330
83
100
AcDbEntity
  8
ACO00_00
100
AcDbLine
 10
2.107689732247422
 20
-5.62072791819969
 30
0.0
 11
2.108395549323063
 21
-4.630768456214923
 31
0.0
  0
LINE
  5
A1
330
83
100
AcDbEntity
  8
ACO00_00
100
AcDbLine
 10
2.109336727320624
 20
-3.310698290533537
 30
0.0
 11
0.1293372305715366
 21
-3.3092865989355
 31
0.0
  0
LINE
  5
A2
330
83
100
AcDbEntity
  8
ACO00_01
100
AcDbLine
 10
1.777454512646954
 20
-5.950522767183997
 30
0.0
 11
1.778160329727484
 21
-4.96056329859914
 31
0.0
  0
LINE
  5
A3
330
83
100
AcDbEntity
  8
ACO00_01
100
AcDbLine
 10
1.77816040153084
 20
-4.960462589224675
 30
0.0
 11
0.1281608209066007
 21
-4.95928617955974
 31
0.0
  0
LINE
  5
A4
330
83
100
AcDbEntity
  8
ACO00_00
100
AcDbLine
 10
-1.850662266177664
 20
-3.307874907337691
 30
0.0
 11
0.1293372305715366
 21
-3.3092865989355
 31
0.0
  0
LINE
  5
A5
330
83
100
AcDbEntity
  8
ACO00_01
100
AcDbLine
 10
1.779572050043952
 20
-2.980523522060252
 30
0.0
 11
0.1295724694197133
 21
-2.97934711239543
 31
0.0
  0
LINE
  5
A6
330
83
100
AcDbEntity
  8
ACO00_00
100
AcDbLine
 10
3.42839522100337
 20
-4.631699512349541
 30
0.0
 11
3.427689403927502
 21
-5.621658974334309
 31
0.0
  0
LINE
  5
A7
330
83
100
AcDbEntity
  8
ACO00_00
100
AcDbLine
 10
4.4183949693778
 20
-4.632405358148389
 30
0.0
 11
4.419336097109749
 21
-3.312405693648997
 31
0.0
  0
LINE
  5
A8
330
83
100
AcDbEntity
  8
ACO00_01
100
AcDbLine
 10
4.749571295167811
 20
-2.982641059457137
 30
0.0
 11
3.759571546793154
 21
-2.981935213658175
 31
0.0
  0
LINE
  5
A9
330
83
100
AcDbEntity
  8
ACO00_01
100
AcDbLine
 10
4.748159646654585
 20
-4.962580126621674
 30
0.0
 11
4.749571338252508
 21
-2.982580629872472
 31
0.0
  0
LINE
  5
AA
330
83
100
AcDbEntity
  8
ACO00_01
100
AcDbLine
 10
3.758159898280041
 20
-4.961874280822598
 30
0.0
 11
4.748159646654585
 21
-4.962580126621674
 31
0.0
  0
LINE
  5
AB
330
83
100
AcDbEntity
  8
ACO00_01
100
AcDbLine
 10
3.758159898280041
 20
-4.961874280822598
 30
0.0
 11
3.757454081199625
 21
-5.951833749407569
 31
0.0
  0
LINE
  5
AC
330
83
100
AcDbEntity
  8
ACO00_00
100
AcDbLine
 10
3.435453722077795
 20
5.268358400980787
 30
0.0
 11
4.425453470452225
 21
5.267652555181825
 31
0.0
  0
LINE
  5
AD
330
83
100
AcDbEntity
  8
ACO00_00
100
AcDbLine
 10
4.424512270917034
 20
3.947552181308083
 30
0.0
 11
3.43451252254249
 21
3.94825802710693
 31
0.0
  0
LINE
  5
AE
330
83
100
AcDbEntity
  8
ACO00_01
100
AcDbLine
 10
3.766394765934592
 20
6.588122783547305
 30
0.0
 11
1.786395269185391
 21
6.589534475145228
 31
0.0
  0
LINE
  5
AF
330
83
100
AcDbEntity
  8
ACO00_01
100
AcDbLine
 10
-0.8533687778804619
 20
6.921416646733973
 30
0.0
 11
0.1366309704940818
 21
6.920710800935012
 31
0.0
  0
LINE
  5
B0
330
83
100
AcDbEntity
  8
ACO00_00
100
AcDbLine
 10
-0.5236041436886581
 20
6.591181448676024
 30
0.0
 11
0.1363956885610946
 21
6.59071088481005
 31
0.0
  0
LINE
  5
B1
330
83
100
AcDbEntity
  8
ACO00_01
100
AcDbLine
 10
-0.8538393632888983
 20
6.261386599691945
 30
0.0
 11
-0.8533687707043782
 21
6.921426711731328
 31
0.0
  0
LINE
  5
B2
330
83
100
AcDbEntity
  8
ACO00_00
100
AcDbLine
 10
-0.5240746860168884
 20
5.931211824618685
 30
0.0
 11
-0.5236040934277071
 21
6.591251943258271
 31
0.0
  0
LINE
  5
B3
330
83
100
AcDbEntity
  8
ACO00_01
100
AcDbLine
 10
-1.513839195538594
 20
6.26185716355792
 30
0.0
 11
-0.8538393632888983
 21
6.261386599691945
 31
0.0
  0
LINE
  5
B4
330
83
100
AcDbEntity
  8
ACO00_00
100
AcDbLine
 10
-1.184074518266584
 20
5.931682388484659
 30
0.0
 11
-0.5240746860168884
 21
5.931211824618685
 31
0.0
  0
LINE
  5
B5
330
83
100
AcDbEntity
  8
ACO00_01
100
AcDbLine
 10
-1.184074518266584
 20
5.931682388484659
 30
0.0
 11
-1.513839123735237
 21
6.261957872932271
 31
0.0
  0
LINE
  5
B6
330
83
100
AcDbEntity
  8
ACO00_01
100
AcDbLine
 10
-1.184545103670245
 20
5.271652348042721
 30
0.0
 11
-1.513839202719339
 21
6.261847091960476
 31
0.0
  0
LINE
  5
B7
330
83
100
AcDbEntity
  8
ACO00_01
100
AcDbLine
 10
-1.844544935919998
 20
5.272122911908695
 30
0.0
 11
-1.513839202719339
 21
6.261847091960476
 31
0.0
  0
LINE
  5
B8
330
83
100
AcDbEntity
  8
ACO00_00
100
AcDbLine
 10
-1.184545103670245
 20
5.271652348042721
 30
0.0
 11
-1.184074511085725
 21
5.931692460082103
 31
0.0
  0
LINE
  5
B9
330
83
100
AcDbEntity
  8
ACO00_01
100
AcDbLine
 10
1.126630718868682
 20
6.92000495513605
 30
0.0
 11
0.1366309704940818
 21
6.920710800935012
 31
0.0
  0
LINE
  5
BA
330
83
100
AcDbEntity
  8
ACO00_00
100
AcDbLine
 10
0.7963955208107905
 20
6.590240320944076
 30
0.0
 11
0.1363956885610946
 21
6.59071088481005
 31
0.0
  0
LINE
  5
BB
330
83
100
AcDbEntity
  8
ACO00_01
100
AcDbLine
 10
1.126160133460246
 20
6.259974908094022
 30
0.0
 11
1.126630726044822
 21
6.920015020133405
 31
0.0
  0
LINE
  5
BC
330
83
100
AcDbEntity
  8
ACO00_00
100
AcDbLine
 10
0.7959249784825034
 20
5.930270696886736
 30
0.0
 11
0.7963955710716846
 21
6.590310815526322
 31
0.0
  0
LINE
  5
BD
330
83
100
AcDbEntity
  8
ACO00_01
100
AcDbLine
 10
1.786159965709941
 20
6.259504344228048
 30
0.0
 11
1.126160133460246
 21
6.259974908094022
 31
0.0
  0
LINE
  5
BE
330
83
100
AcDbEntity
  8
ACO00_00
100
AcDbLine
 10
1.455924810732255
 20
5.929800133020762
 30
0.0
 11
0.7959249784825034
 21
5.930270696886736
 31
0.0
  0
LINE
  5
BF
330
83
100
AcDbEntity
  8
ACO00_01
100
AcDbLine
 10
1.455924810732255
 20
5.929800133020762
 30
0.0
 11
1.786160037513297
 21
6.259605053602399
 31
0.0
  0
LINE
  5
C0
330
83
100
AcDbEntity
  8
ACO00_01
100
AcDbLine
 10
1.455454225328594
 20
5.269770092578824
 30
0.0
 11
1.786159958529196
 21
6.259494272630604
 31
0.0
  0
LINE
  5
C1
330
83
100
AcDbEntity
  8
ACO00_01
100
AcDbLine
 10
2.115454057578233
 20
5.269299528712849
 30
0.0
 11
1.786159958529196
 21
6.259494272630604
 31
0.0
  0
LINE
  5
C2
330
83
100
AcDbEntity
  8
ACO00_00
100
AcDbLine
 10
1.455454225328594
 20
5.269770092578824
 30
0.0
 11
1.455924817913114
 21
5.929810204618206
 31
0.0
  0
LINE
  5
C3
330
83
100
AcDbEntity
  8
ACO00_01
100
AcDbLine
 10
1.123336700003505
 20
2.299905420013601
 30
0.0
 11
0.1333369516289053
 21
2.300611265812563
 31
0.0
  0
LINE
  5
C4
330
83
100
AcDbEntity
  8
ACO00_00
100
AcDbLine
 10
0.7935720658115884
 20
2.630140618071436
 30
0.0
 11
0.1335722335618925
 21
2.63061118193741
 31
0.0
  0
LINE
  5
C5
330
83
100
AcDbEntity
  8
ACO00_01
100
AcDbLine
 10
1.123807285407224
 20
2.959935460455653
 30
0.0
 11
1.123336692822761
 21
2.299895348416157
 31
0.0
  0
LINE
  5
C6
330
83
100
AcDbEntity
  8
ACO00_00
100
AcDbLine
 10
0.7940426081352144
 20
3.290110235528914
 30
0.0
 11
0.7935720155506943
 21
2.630070123489304
 31
0.0
  0
LINE
  5
C7
330
83
100
AcDbEntity
  8
ACO00_01
100
AcDbLine
 10
1.783807117656863
 20
2.959464896589679
 30
0.0
 11
1.123807285407224
 21
2.959935460455653
 31
0.0
  0
LINE
  5
C8
330
83
100
AcDbEntity
  8
ACO00_00
100
AcDbLine
 10
1.454042440384966
 20
3.289639671662939
 30
0.0
 11
0.7940426081352144
 21
3.290110235528914
 31
0.0
  0
LINE
  5
C9
330
83
100
AcDbEntity
  8
ACO00_01
100
AcDbLine
 10
1.454042440384966
 20
3.289639671662939
 30
0.0
 11
1.783807045858225
 21
2.95936419381519
 31
0.0
  0
LINE
  5
CA
330
83
100
AcDbEntity
  8
ACO00_01
100
AcDbLine
 10
1.454513025793289
 20
3.949669718704853
 30
0.0
 11
1.783807124837721
 21
2.959474968187123
 31
0.0
  0
LINE
  5
CB
330
83
100
AcDbEntity
  8
ACO00_01
100
AcDbLine
 10
2.114512858042928
 20
3.949199154838879
 30
0.0
 11
1.783807124837721
 21
2.959474968187123
 31
0.0
  0
LINE
  5
CC
330
83
100
AcDbEntity
  8
ACO00_00
100
AcDbLine
 10
1.454513025793289
 20
3.949669718704853
 30
0.0
 11
1.454042433204108
 21
3.289629600065381
 31
0.0
  0
LINE
  5
CD
330
83
100
AcDbEntity
  8
ACO00_01
100
AcDbLine
 10
-0.8566627967456383
 20
2.301317111611524
 30
0.0
 11
0.1333369516289053
 21
2.300611265812563
 31
0.0
  0
LINE
  5
CE
330
83
100
AcDbEntity
  8
ACO00_00
100
AcDbLine
 10
-0.5264275986878602
 20
2.631081745803385
 30
0.0
 11
0.1335722335618925
 21
2.63061118193741
 31
0.0
  0
LINE
  5
CF
330
83
100
AcDbEntity
  8
ACO00_01
100
AcDbLine
 10
-0.8561922113419768
 20
2.961347152053576
 30
0.0
 11
-0.8566628039264401
 21
2.30130704001408
 31
0.0
  0
LINE
  5
D0
330
83
100
AcDbEntity
  8
ACO00_00
100
AcDbLine
 10
-0.5259570563642342
 20
3.291051363260862
 30
0.0
 11
-0.5264276489487543
 21
2.631011251221252
 31
0.0
  0
LINE
  5
D1
330
83
100
AcDbEntity
  8
ACO00_01
100
AcDbLine
 10
-1.516192043591672
 20
2.961817715919551
 30
0.0
 11
-0.8561922113419768
 21
2.961347152053576
 31
0.0
  0
LINE
  5
D2
330
83
100
AcDbEntity
  8
ACO00_00
100
AcDbLine
 10
-1.185956888613873
 20
3.291521927126836
 30
0.0
 11
-0.5259570563642342
 21
3.291051363260862
 31
0.0
  0
LINE
  5
D3
330
83
100
AcDbEntity
  8
ACO00_01
100
AcDbLine
 10
-1.185956888613873
 20
3.291521927126836
 30
0.0
 11
-1.516192115390254
 21
2.961717013145062
 31
0.0
  0
LINE
  5
D4
330
83
100
AcDbEntity
  8
ACO00_01
100
AcDbLine
 10
-1.18548630320555
 20
3.951551974168751
 30
0.0
 11
-1.516192036410814
 21
2.961827787516995
 31
0.0
  0
LINE
  5
D5
330
83
100
AcDbEntity
  8
ACO00_01
100
AcDbLine
 10
-1.845486135455303
 20
3.952022538034725
 30
0.0
 11
-1.516192036410814
 21
2.961827787516995
 31
0.0
  0
LINE
  5
D6
330
83
100
AcDbEntity
  8
ACO00_00
100
AcDbLine
 10
-1.18548630320555
 20
3.951551974168751
 30
0.0
 11
-1.185956895794731
 21
3.291511855529279
 31
0.0
  0
LINE
  5
D7
330
83
100
AcDbEntity
  8
ACO00_00
100
AcDbLine
 10
-1.848074164914805
 20
0.3221241700357496
 30
0.0
 11
-1.845486063651833
 21
3.95212324740919
 31
0.0
  0
LINE
  5
D8
330
83
100
AcDbEntity
  8
ACO00_01
100
AcDbLine
 10
-1.518074248789957
 20
0.3218888881027624
 30
0.0
 11
-1.516192022049267
 21
2.961847930711883
 31
0.0
  0
LINE
  5
D9
330
83
100
AcDbEntity
  8
ACO00_00
100
AcDbLine
 10
-4.154544348793933
 20
5.273769885439492
 30
0.0
 11
-4.155485476525768
 21
3.953770220940214
 31
0.0
  0
LINE
  5
DA
330
83
100
AcDbEntity
  8
ACO00_00
100
AcDbLine
 10
-4.155485548329238
 20
3.953669511565635
 30
0.0
 11
-3.165485799954581
 21
3.952963665766787
 31
0.0
  0
LINE
  5
DB
330
83
100
AcDbEntity
  8
ACO00_01
100
AcDbLine
 10
-4.48430905478915
 20
5.603904374122976
 30
0.0
 11
-4.485720746387073
 21
3.623904877373888
 31
0.0
  0
LINE
  5
DC
330
83
100
AcDbEntity
  8
ACO00_00
100
AcDbLine
 10
-3.168073829414197
 20
0.3230652977676982
 30
0.0
 11
-3.165485728151338
 21
3.953064375141138
 31
0.0
  0
LINE
  5
DD
330
83
100
AcDbEntity
  8
ACO00_01
100
AcDbLine
 10
-4.485720674583717
 20
3.624005586748239
 30
0.0
 11
-3.495720926209173
 21
3.623299740949164
 31
0.0
  0
LINE
  5
DE
330
83
100
AcDbEntity
  8
ACO00_01
100
AcDbLine
 10
-3.498073745538931
 20
0.3233005797007991
 30
0.0
 11
-3.495720926209173
 21
3.623299740949164
 31
0.0
  0
LINE
  5
DF
330
83
100
AcDbEntity
  8
ACO00_00
100
AcDbLine
 10
-1.845486135455303
 20
3.952022538034725
 30
0.0
 11
-1.185486303205493
 21
3.951551974168864
 31
0.0
  0
LINE
  5
E0
330
83
100
AcDbEntity
  8
ACO00_00
100
AcDbLine
 10
3.431924493082874
 20
0.3183596591079549
 30
0.0
 11
3.434512594345846
 21
3.948358736481509
 31
0.0
  0
LINE
  5
E1
330
83
100
AcDbEntity
  8
ACO00_00
100
AcDbLine
 10
2.111924828583482
 20
0.3193007868399036
 30
0.0
 11
2.114512929846455
 21
3.949299864213458
 31
0.0
  0
LINE
  5
E2
330
83
100
AcDbEntity
  8
ACO00_00
100
AcDbLine
 10
3.435453722077795
 20
5.268358400980787
 30
0.0
 11
3.436159539153436
 21
6.258317862965554
 31
0.0
  0
LINE
  5
E3
330
83
100
AcDbEntity
  8
ACO00_00
100
AcDbLine
 10
3.436159517611031
 20
6.258287648173336
 30
0.0
 11
2.116159853111639
 21
6.259228775905285
 31
0.0
  0
LINE
  5
E4
330
83
100
AcDbEntity
  8
ACO00_00
100
AcDbLine
 10
2.116159853111639
 20
6.259228775905285
 30
0.0
 11
2.115454036035885
 21
5.269269313920403
 31
0.0
  0
LINE
  5
E5
330
83
100
AcDbEntity
  8
ACO00_00
100
AcDbLine
 10
2.114512858042985
 20
3.949199154838879
 30
0.0
 11
1.454513025793289
 21
3.949669718704853
 31
0.0
  0
LINE
  5
E6
330
83
100
AcDbEntity
  8
ACO00_01
100
AcDbLine
 10
1.786395269185391
 20
6.589534475145228
 30
0.0
 11
1.786159987252403
 21
6.259534559020266
 31
0.0
  0
LINE
  5
E7
330
83
100
AcDbEntity
  8
ACO00_01
100
AcDbLine
 10
1.781924912458748
 20
0.3195360687730044
 30
0.0
 11
1.783807139199325
 21
2.959495111382011
 31
0.0
  0
LINE
  5
E8
330
83
100
AcDbEntity
  8
ACO00_00
100
AcDbLine
 10
-3.16454460041939
 20
5.27306403964053
 30
0.0
 11
-4.154544348793933
 21
5.273769885439492
 31
0.0
  0
LINE
  5
E9
330
83
100
AcDbEntity
  8
ACO00_00
100
AcDbLine
 10
-3.16454460041939
 20
5.27306403964053
 30
0.0
 11
-3.163838783343635
 21
6.263023501625298
 31
0.0
  0
LINE
  5
EA
330
83
100
AcDbEntity
  8
ACO00_00
100
AcDbLine
 10
-3.16383880488604
 20
6.262993286833079
 30
0.0
 11
-1.843839140386648
 21
6.262052159101131
 31
0.0
  0
LINE
  5
EB
330
83
100
AcDbEntity
  8
ACO00_00
100
AcDbLine
 10
-1.843839140386648
 20
6.262052159101131
 30
0.0
 11
-1.844544957462403
 21
5.272092697116249
 31
0.0
  0
LINE
  5
EC
330
83
100
AcDbEntity
  8
ACO00_01
100
AcDbLine
 10
-3.494309306414493
 20
5.603198528324014
 30
0.0
 11
-4.48430905478915
 21
5.603904374122976
 31
0.0
  0
LINE
  5
ED
330
83
100
AcDbEntity
  8
ACO00_01
100
AcDbLine
 10
-3.494309306414493
 20
5.603198528324014
 30
0.0
 11
-3.493603489338852
 21
6.593157990308782
 31
0.0
  0
LINE
  5
EE
330
83
100
AcDbEntity
  8
ACO00_01
100
AcDbLine
 10
-3.493603388812289
 20
6.593298986073023
 30
0.0
 11
-1.513603892063088
 21
6.5918872944751
 31
0.0
  0
LINE
  5
EF
330
83
100
AcDbEntity
  8
ACO00_01
100
AcDbLine
 10
-1.513603892063088
 20
6.5918872944751
 30
0.0
 11
-1.513839173996075
 21
6.261887378350138
 31
0.0
  0
LINE
  5
F0
330
83
100
AcDbEntity
  8
ACO00_00
100
AcDbLine
 10
-1.844544935919998
 20
5.272122911908581
 30
0.0
 11
-1.184545103670302
 21
5.271652348042493
 31
0.0
  0
LINE
  5
F1
330
83
100
AcDbEntity
  8
ACO00_00
100
AcDbLine
 10
4.425453470452225
 20
5.267652555181825
 30
0.0
 11
4.42451234272039
 21
3.947652890682547
 31
0.0
  0
LINE
  5
F2
330
83
100
AcDbEntity
  8
ACO00_01
100
AcDbLine
 10
3.761924409207836
 20
0.3181243771749678
 30
0.0
 11
3.764277228537594
 21
3.61812353842356
 31
0.0
  0
LINE
  5
F3
330
83
100
AcDbEntity
  8
ACO00_01
100
AcDbLine
 10
4.754276976912251
 20
3.617417692624712
 30
0.0
 11
3.764277228537594
 21
3.61812353842356
 31
0.0
  0
LINE
  5
F4
330
83
100
AcDbEntity
  8
ACO00_01
100
AcDbLine
 10
3.765688848332274
 20
5.598022325798183
 30
0.0
 11
4.755688596706932
 21
5.597316479999449
 31
0.0
  0
LINE
  5
F5
330
83
100
AcDbEntity
  8
ACO00_01
100
AcDbLine
 10
3.765688848332274
 20
5.598022325798183
 30
0.0
 11
3.766394665408029
 21
6.587981787783178
 31
0.0
  0
LINE
  5
F6
330
83
100
AcDbEntity
  8
ACO00_01
100
AcDbLine
 10
4.755688596706932
 20
5.597316479999449
 30
0.0
 11
4.754276905108895
 21
3.617316983250248
 31
0.0
  0
ENDBLK
  5
F8
330
83
100
AcDbEntity
  8
0
100
AcDbBlockEnd
  0
BLOCK
  5
FB
330
F9
100
AcDbEntity
  8
0
100
AcDbBlockBegin
  2
MPA-Zeichen
 70
     0
 10
0.0
 20
0.0
 30
0.0
  3
MPA-Zeichen
  1

  0
INSERT
  5
FA
330
F9
100
AcDbEntity
  8
0
100
AcDbBlockReference
  2
C117
 10
208.8782918085944
 20
181.3766258649809
 30
0.0
  0
ENDBLK
  5
FC
330
F9
100
AcDbEntity
  8
0
100
AcDbBlockEnd
  0
BLOCK
  5
6A9
330
69F
100
AcDbEntity
  8
0
100
AcDbBlockBegin
  2
*D7
 70
     1
 10
0.0
 20
0.0
 30
0.0
  3
*D7
  1

  0
LINE
  5
76B
330
69F
100
AcDbEntity
  8
5
370
    -2
100
AcDbLine
 10
59.90872383180249
 20
433.0940847482627
 30
0.0
 11
59.90872383180249
 21
467.8094491549122
 31
0.0
  0
LINE
  5
76C
330
69F
100
AcDbEntity
  8
5
370
    -2
100
AcDbLine
 10
358.5118930521348
 20
433.0940847482627
 30
0.0
 11
358.5118930521348
 21
467.8094491549122
 31
0.0
  0
LINE
  5
76D
330
69F
100
AcDbEntity
  8
5
370
    -2
100
AcDbLine
 10
66.90872383180249
 20
466.8094491549123
 30
0.0
 11
351.5118930521349
 21
466.8094491549123
 31
0.0
  0
SOLID
  5
76E
330
69F
100
AcDbEntity
  8
5
100
AcDbTrace
 10
66.90872383180249
 20
467.9761158215789
 30
0.0
 11
66.90872383180249
 21
465.6427824882455
 31
0.0
 12
59.90872383180249
 22
466.8094491549123
 32
0.0
 13
59.90872383180249
 23
466.8094491549123
 33
0.0
  0
SOLID
  5
76F
330
69F
100
AcDbEntity
  8
5
100
AcDbTrace
 10
351.5118930521349
 20
467.9761158215789
 30
0.0
 11
351.5118930521349
 21
465.6427824882455
 31
0.0
 12
358.5118930521348
 22
466.8094491549123
 32
0.0
 13
358.5118930521348
 23
466.8094491549123
 33
0.0
  0
MTEXT
  5
770
330
69F
100
AcDbEntity
  8
5
 62
     2
100
AcDbMText
 10
209.2103084419687
 20
472.8094491549122
 30
0.0
 40
10.0
 41
0.0
 71
     5
 72
     1
  1
{\Famgdt|c0;o}300
 73
     1
 44
1.0
1001
ACAD
1000
MTEXTBEGIN
1070
    73
1070
     1
1070
    44
1040
1.0
1070
    74
1070
     0
1000
MTEXTEND
  0
POINT
  5
771
330
69F
100
AcDbEntity
  8
DEFPOINTS
 62
     0
100
AcDbPoint
 10
59.90872383180249
 20
432.0940847482627
 30
0.0
  0
POINT
  5
772
330
69F
100
AcDbEntity
  8
DEFPOINTS
 62
     0
100
AcDbPoint
 10
358.5118930521348
 20
432.0940847482627
 30
0.0
  0
POINT
  5
773
330
69F
100
AcDbEntity
  8
DEFPOINTS
 62
     0
100
AcDbPoint
 10
358.5118930521348
 20
466.8094491549123
 30
0.0
  0
ENDBLK
  5
6AA
330
69F
100
AcDbEntity
  8
0
100
AcDbBlockEnd
  0
BLOCK
  5
6B5
330
6AB
100
AcDbEntity
  8
0
100
AcDbBlockBegin
  2
*D8
 70
     1
 10
0.0
 20
0.0
 30
0.0
  3
*D8
  1

  0
LINE
  5
774
330
6AB
100
AcDbEntity
  8
5
370
    -2
100
AcDbLine
 10
66.21030844196866
 20
406.0940847482608
 30
0.0
 11
14.24999904993091
 21
406.0940847482608
 31
0.0
  0
LINE
  5
775
330
6AB
100
AcDbEntity
  8
5
370
    -2
100
AcDbLine
 10
58.90872383180249
 20
433.0940847482627
 30
0.0
 11
14.24999904993091
 21
433.0940847482627
 31
0.0
  0
LINE
  5
776
330
6AB
100
AcDbEntity
  8
5
370
    -2
100
AcDbLine
 10
15.24999904993092
 20
413.0940847482609
 30
0.0
 11
15.24999904993092
 21
426.0940847482627
 31
0.0
  0
SOLID
  5
777
330
6AB
100
AcDbEntity
  8
5
100
AcDbTrace
 10
14.08333238326425
 20
413.0940847482609
 30
0.0
 11
16.41666571659758
 21
413.0940847482609
 31
0.0
 12
15.24999904993091
 22
406.0940847482608
 32
0.0
 13
15.24999904993091
 23
406.0940847482608
 33
0.0
  0
SOLID
  5
778
330
6AB
100
AcDbEntity
  8
5
100
AcDbTrace
 10
14.08333238326425
 20
426.0940847482627
 30
0.0
 11
16.41666571659759
 21
426.0940847482627
 31
0.0
 12
15.24999904993092
 22
433.0940847482627
 32
0.0
 13
15.24999904993092
 23
433.0940847482627
 33
0.0
  0
MTEXT
  5
779
330
6AB
100
AcDbEntity
  8
5
 62
     2
100
AcDbMText
 10
9.249014797962345
 20
419.5940847482618
 30
0.0
 40
10.0
 41
0.0
 71
     5
 72
     1
  1
26
 11
0.0000000000000001
 21
1.0
 31
0.0
 73
     1
 44
1.0
1001
ACAD
1000
MTEXTBEGIN
1070
    73
1070
     1
1070
    44
1040
1.0
1070
    74
1070
     0
1000
MTEXTEND
  0
POINT
  5
77A
330
6AB
100
AcDbEntity
  8
DEFPOINTS
 62
     0
100
AcDbPoint
 10
67.21030844196866
 20
406.0940847482608
 30
0.0
  0
POINT
  5
77B
330
6AB
100
AcDbEntity
  8
DEFPOINTS
 62
     0
100
AcDbPoint
 10
59.90872383180249
 20
433.0940847482627
 30
0.0
  0
POINT
  5
77C
330
6AB
100
AcDbEntity
  8
DEFPOINTS
 62
     0
100
AcDbPoint
 10
15.24999904993092
 20
433.0940847482627
 30
0.0
  0
ENDBLK
  5
6B6
330
6AB
100
AcDbEntity
  8
0
100
AcDbBlockEnd
  0
BLOCK
  5
6C1
330
6B7
100
AcDbEntity
  8
0
100
AcDbBlockBegin
  2
*D9
 70
     1
 10
0.0
 20
0.0
 30
0.0
  3
*D9
  1

  0
LINE
  5
77D
330
6B7
100
AcDbEntity
  8
5
370
    -2
100
AcDbLine
 10
359.5118930521348
 20
432.0940847482627
 30
0.0
 11
411.836590389259
 21
432.0940847482626
 31
0.0
  0
LINE
  5
77E
330
6B7
100
AcDbEntity
  8
5
370
    -2
100
AcDbLine
 10
359.3372892046755
 20
387.0940847482627
 30
0.0
 11
411.836590389259
 21
387.0940847482627
 31
0.0
  0
LINE
  5
77F
330
6B7
100
AcDbEntity
  8
5
370
    -2
100
AcDbLine
 10
410.8365903892591
 20
425.0940847482627
 30
0.0
 11
410.8365903892591
 21
394.0940847482627
 31
0.0
  0
SOLID
  5
780
330
6B7
100
AcDbEntity
  8
5
100
AcDbTrace
 10
409.6699237225924
 20
425.0940847482627
 30
0.0
 11
412.0032570559257
 21
425.0940847482627
 31
0.0
 12
410.8365903892591
 22
432.0940847482626
 32
0.0
 13
410.8365903892591
 23
432.0940847482626
 33
0.0
  0
SOLID
  5
781
330
6B7
100
AcDbEntity
  8
5
100
AcDbTrace
 10
409.6699237225924
 20
394.0940847482627
 30
0.0
 11
412.0032570559257
 21
394.0940847482627
 31
0.0
 12
410.8365903892591
 22
387.0940847482627
 32
0.0
 13
410.8365903892591
 23
387.0940847482627
 33
0.0
  0
MTEXT
  5
782
330
6B7
100
AcDbEntity
  8
5
 62
     2
100
AcDbMText
 10
404.8365903892589
 20
409.5940847482627
 30
0.0
 40
10.0
 41
0.0
 71
     5
 72
     1
  1
45
 11
0.0000000000000001
 21
1.0
 31
0.0
 73
     1
 44
1.0
1001
ACAD
1000
MTEXTBEGIN
1070
    73
1070
     1
1070
    44
1040
1.0
1070
    74
1070
     0
1000
MTEXTEND
  0
POINT
  5
783
330
6B7
100
AcDbEntity
  8
DEFPOINTS
 62
     0
100
AcDbPoint
 10
358.5118930521348
 20
432.0940847482627
 30
0.0
  0
POINT
  5
784
330
6B7
100
AcDbEntity
  8
DEFPOINTS
 62
     0
100
AcDbPoint
 10
358.3372892046755
 20
387.0940847482627
 30
0.0
  0
POINT
  5
785
330
6B7
100
AcDbEntity
  8
DEFPOINTS
 62
     0
100
AcDbPoint
 10
410.8365903892591
 20
387.0940847482627
 30
0.0
  0
ENDBLK
  5
6C2
330
6B7
100
AcDbEntity
  8
0
100
AcDbBlockEnd
  0
ENDSEC
  0
SECTION
  2
ENTITIES
  0
DIMENSION
  5
3F0
330
1F
100
AcDbEntity
  8
5
100
AcDbDimension
  2
*D7
 10
358.5118930521348
 20
466.8094491549123
 30
0.0
 11
209.2103084419687
 21
472.8094491549122
 31
0.0
 70
    32
  1
{\Famgdt;o}300
 71
     5
 42
298.6031692203324
  3
GEN-ISO
100
AcDbAlignedDimension
 13
59.90872383180249
 23
432.0940847482627
 33
0.0
 14
358.5118930521348
 24
432.0940847482627
 34
0.0
 50
359.999999999987
100
AcDbRotatedDimension
1001
ACAD
1000
DSTYLE
1002
{
1070
    41
1040
7.0
1070
   140
1040
10.0
1070
   147
1040
1.0
1070
   271
1070
     0
1002
}
  0
DIMENSION
  5
3F1
330
1F
100
AcDbEntity
  8
5
100
AcDbDimension
  2
*D8
 10
15.24999904993092
 20
433.0940847482627
 30
0.0
 11
9.249014797962345
 21
419.5940847482618
 31
0.0
 70
    32
  1
26
 71
     5
 42
27.00000000000182
  3
GEN-ISO
100
AcDbAlignedDimension
 13
67.21030844196866
 23
406.0940847482608
 33
0.0
 14
59.90872383180249
 24
433.0940847482627
 34
0.0
 50
90.0
100
AcDbRotatedDimension
1001
ACAD
1000
DSTYLE
1002
{
1070
    41
1040
7.0
1070
   140
1040
10.0
1070
   147
1040
1.0
1070
   271
1070
     0
1002
}
  0
DIMENSION
  5
3F2
330
1F
100
AcDbEntity
  8
5
100
AcDbDimension
  2
*D9
 10
410.8365903892591
 20
387.0940847482627
 30
0.0
 11
404.8365903892589
 21
409.5940847482627
 31
0.0
 70
    32
 71
     5
 42
45.0
  3
GEN-ISO
100
AcDbAlignedDimension
 13
358.5118930521348
 23
432.0940847482627
 33
0.0
 14
358.3372892046755
 24
387.0940847482627
 34
0.0
 50
90.0
100
AcDbRotatedDimension
1001
ACAD
1000
DSTYLE
1002
{
1070
    41
1040
7.0
1070
   140
1040
10.0
1070
   147
1040
1.0
1070
   271
1070
     0
1002
}
  0
LWPOLYLINE
  5
3F3
330
1F
100
AcDbEntity
  8
SICHTBAR
100
AcDbPolyline
 90
        4
 70
     1
 43
0.0
 38
0.0001789211429077
 10
309.0152883933115
 20
277.4742367393217
 10
318.9446086274947
 20
287.4035569735049
 10
347.0482302140008
 20
259.2999353869989
 10
337.1189099798212
 20
249.3706151528156
  0
LINE
  5
3F4
330
1F
100
AcDbEntity
  8
SICHTBAR
100
AcDbLine
 10
328.4489147448257
 20
253.8535195536103
 30
0.0001789211429077
 11
336.831519151725
 21
245.4709151467111
 31
0.0001789211429077
  0
LINE
  5
3F5
330
1F
100
AcDbEntity
  8
SICHTBAR
100
AcDbLine
 10
327.7418079636409
 20
253.1464127724237
 30
0.0001789211429077
 11
336.1244967478851
 21
244.7637239881794
 31
0.0001789211429077
  0
ARC
  5
3F6
330
1F
100
AcDbEntity
  8
SICHTBAR
100
AcDbCircle
 10
323.0749096778345
 20
248.4794929057232
 30
0.0001789211429077
 40
3.0
100
AcDbArc
 50
134.9999999998802
 51
225.0000000001198
  0
ARC
  5
3F7
330
1F
100
AcDbEntity
  8
SICHTBAR
100
AcDbCircle
 10
323.0749096778345
 20
248.4794929057232
 30
0.0001789211429077
 40
4.0
100
AcDbArc
 50
134.9999999998802
 51
225.0000000001198
  0
ARC
  5
3F8
330
1F
100
AcDbEntity
  8
SICHTBAR
100
AcDbCircle
 10
124.6402898445121
 20
250.126411329157
 30
0.0001789211429077
 40
4.0
100
AcDbArc
 50
134.9999999998802
 51
225.0000000001198
  0
ARC
  5
3F9
330
1F
100
AcDbEntity
  8
SICHTBAR
100
AcDbCircle
 10
124.6402898445121
 20
250.126411329157
 30
0.0001789211429077
 40
3.0
100
AcDbArc
 50
134.9999999998802
 51
225.0000000001198
  0
LINE
  5
3FA
330
1F
100
AcDbEntity
  8
SICHTBAR
100
AcDbLine
 10
130.0143057019522
 20
244.7523954717187
 30
0.0001789211429077
 11
158.6406578436035
 21
273.3787260466131
 31
0.0001789211429077
  0
LINE
  5
3FB
330
1F
100
AcDbEntity
  8
SICHTBAR
100
AcDbLine
 10
129.3071989207674
 20
245.4595022529054
 30
0.0001789211429077
 11
157.933551062415
 21
274.0858328277998
 31
0.0001789211429077
  0
ARC
  5
3FC
330
1F
100
AcDbEntity
  8
SICHTBAR
100
AcDbCircle
 10
90.1334767659282
 20
248.4293485842834
 30
0.0001789211429077
 40
4.0
100
AcDbArc
 50
134.9999999998802
 51
225.0000000001198
  0
ARC
  5
3FD
330
1F
100
AcDbEntity
  8
SICHTBAR
100
AcDbCircle
 10
90.1334767659282
 20
248.4293485842834
 30
0.0001789211429077
 40
3.0
100
AcDbArc
 50
134.9999999998802
 51
225.0000000001198
  0
TEXT
  5
3FE
330
1F
100
AcDbEntity
  8
TEXT100
100
AcDbText
 10
75.84174231983343
 20
246.9413259956498
 30
0.0001789211429077
 40
10.0
  1
EN 124
 50
45.00000000011974
  7
TEXT100
100
AcDbText
  0
LINE
  5
3FF
330
1F
100
AcDbEntity
  8
SICHTBAR
100
AcDbLine
 10
138.2167486770668
 20
236.5499524966024
 30
0.0001789211429077
 11
179.2881870004712
 21
277.6213692391073
 31
0.0001789211429077
  0
LINE
  5
400
330
1F
100
AcDbEntity
  8
SICHTBAR
100
AcDbLine
 10
138.9238554582552
 20
235.8428457154175
 30
0.0001789211429077
 11
179.9952937816561
 21
276.9142624579206
 31
0.0001789211429077
  0
LINE
  5
401
330
1F
100
AcDbEntity
  8
SICHTBAR
100
AcDbLine
 10
145.7120848709964
 20
229.0546163026745
 30
0.0001789211429077
 11
190.7433262795603
 21
274.0858361303387
 31
0.0001789211429077
  0
LINE
  5
402
330
1F
100
AcDbEntity
  8
SICHTBAR
100
AcDbLine
 10
180.0775003379822
 20
169.2333567129706
 30
0.0001789211429077
 11
95.79750609864277
 21
253.51335095231
 31
0.0001789211429077
  0
LINE
  5
403
330
1F
100
AcDbEntity
  8
SICHTBAR
100
AcDbLine
 10
179.3703935567973
 20
168.5262499317839
 30
0.0001789211429077
 11
94.80038583511486
 21
253.0962576534664
 31
0.0001789211429077
  0
LINE
  5
404
330
1F
100
AcDbEntity
  8
SICHTBAR
100
AcDbLine
 10
220.2411784565047
 20
187.3352946317688
 30
0.0001789211429077
 11
304.7757315601848
 21
271.8698477354471
 31
0.0001789211429077
  0
LINE
  5
405
330
1F
100
AcDbEntity
  8
SICHTBAR
100
AcDbLine
 10
228.4436214316193
 20
179.1328516566525
 30
0.0001789211429077
 11
312.9859877145027
 21
263.675217939536
 31
0.0001789211429077
  0
LINE
  5
406
330
1F
100
AcDbEntity
  8
SICHTBAR
100
AcDbLine
 10
227.7365146504344
 20
179.8399584378392
 30
0.0001789211429077
 11
312.2710789212178
 21
264.3745011277267
 31
0.0001789211429077
  0
LINE
  5
407
330
1F
100
AcDbEntity
  8
SICHTBAR
100
AcDbLine
 10
220.9482852376896
 20
186.6281878505822
 30
0.0001789211429077
 11
305.4828384355351
 21
271.1627410484259
 31
0.0001789211429077
  0
LINE
  5
408
330
1F
100
AcDbEntity
  8
SICHTBAR
100
AcDbLine
 10
179.2289635667839
 20
195.5377376068852
 30
0.0001789211429077
 11
257.0699834950319
 21
273.37873595423
 31
0.0001789211429077
  0
LINE
  5
409
330
1F
100
AcDbEntity
  8
SICHTBAR
100
AcDbLine
 10
171.026520591673
 20
203.7401805819998
 30
0.0001789211429077
 11
244.9077374206136
 21
277.6213758441852
 31
0.0001789211429077
  0
LINE
  5
40A
330
1F
100
AcDbEntity
  8
SICHTBAR
100
AcDbLine
 10
178.5218567855991
 20
196.2448443880719
 30
0.0001789211429077
 11
256.3628767138435
 21
274.0858427354167
 31
0.0001789211429077
  0
LINE
  5
40B
330
1F
100
AcDbEntity
  8
SICHTBAR
100
AcDbLine
 10
171.7336273728579
 20
203.0330738008131
 30
0.0001789211429077
 11
245.6148442018021
 21
276.9142690629985
 31
0.0001789211429077
  0
LINE
  5
40C
330
1F
100
AcDbEntity
  8
SICHTBAR
100
AcDbLine
 10
194.9267427429004
 20
179.8399584307706
 30
0.0001789211429077
 11
289.1726519168478
 21
274.0858460379575
 31
0.0001789211429077
  0
LINE
  5
40D
330
1F
100
AcDbEntity
  8
SICHTBAR
100
AcDbLine
 10
195.6338495240852
 20
179.1328516495839
 30
0.0001789211429077
 11
289.8797586980327
 21
273.3787392567708
 31
0.0001789211429077
  0
LINE
  5
40E
330
1F
100
AcDbEntity
  8
SICHTBAR
100
AcDbLine
 10
187.4314065419021
 20
187.3352946317688
 30
0.0001789211429077
 11
277.7175126377551
 21
277.621379146726
 31
0.0001789211429077
  0
LINE
  5
40F
330
1F
100
AcDbEntity
  8
SICHTBAR
100
AcDbLine
 10
188.1385133230869
 20
186.6281878505822
 30
0.0001789211429077
 11
278.4246194189436
 21
276.9142723655393
 31
0.0001789211429077
  0
LINE
  5
410
330
1F
100
AcDbEntity
  8
SICHTBAR
100
AcDbLine
 10
162.8240776094826
 20
211.9426235641865
 30
0.0001789211429077
 11
224.2602082778903
 21
273.378732651691
 31
0.0001789211429077
  0
LINE
  5
411
330
1F
100
AcDbEntity
  8
SICHTBAR
100
AcDbLine
 10
162.1169708282978
 20
212.6497303453732
 30
0.0001789211429077
 11
223.5531014967019
 21
274.0858394328777
 31
0.0001789211429077
  0
LINE
  5
412
330
1F
100
AcDbEntity
  8
SICHTBAR
100
AcDbLine
 10
350.2103070282101
 20
157.9985467506474
 30
0.0001788727595324
 11
350.2102865777815
 21
285.0000231473357
 31
0.0001789215269012
  0
LINE
  5
413
330
1F
100
AcDbEntity
  8
SICHTBAR
100
AcDbLine
 10
68.21028670495434
 20
284.9999781004596
 30
0.0001789211429077
 11
68.21029777723743
 21
175.0000436380003
 31
0.0001789211429077
  0
LINE
  5
414
330
1F
100
AcDbEntity
  8
SICHTBAR
100
AcDbLine
 10
154.6216346343717
 20
220.1450665393011
 30
0.0001789211429077
 11
212.0979622176128
 21
277.6213725416462
 31
0.0001789211429077
  0
LINE
  5
415
330
1F
100
AcDbEntity
  8
SICHTBAR
100
AcDbLine
 10
155.3287414155566
 20
219.4379597581144
 30
0.0001789211429077
 11
212.8050689988013
 21
276.9142657604596
 31
0.0001789211429077
  0
LINE
  5
416
330
1F
100
AcDbEntity
  8
SICHTBAR
100
AcDbLine
 10
146.4191916521813
 20
228.3475095214878
 30
0.0001789211429077
 11
191.4504330607451
 21
273.3787293491539
 31
0.0001789211429077
  0
LINE
  5
417
330
1F
100
AcDbEntity
  8
SICHTBAR
100
AcDbLine
 10
359.2103084419687
 20
150.0000004614401
 30
0.0001789211429077
 11
359.2103084419687
 21
300.0000004614401
 31
0.0001789211429077
  0
LINE
  5
418
330
1F
100
AcDbEntity
  8
SICHTBAR
100
AcDbLine
 10
59.2103084419723
 20
150.0000004614401
 30
0.0001789211429077
 11
59.21030844196867
 21
300.0000004614401
 31
0.0001789211429077
  0
LINE
  5
419
330
1F
100
AcDbEntity
  8
SICHTBAR
100
AcDbLine
 10
296.6087593746051
 20
47.04524342685795
 30
0.0001789211429077
 11
271.947005447928
 21
22.38348950018258
 31
0.0001789211429077
  0
LINE
  5
41A
330
1F
100
AcDbEntity
  8
SICHTBAR
100
AcDbLine
 10
295.9016525934167
 20
47.75235020804461
 30
0.0001789211429077
 11
271.2351089250769
 21
23.08580653970853
 31
0.0001789211429077
  0
LINE
  5
41B
330
1F
100
AcDbEntity
  8
SICHTBAR
100
AcDbLine
 10
255.5965498801088
 20
88.05745292135247
 30
0.0001789211429077
 11
194.1604300021536
 21
26.62133304339909
 31
0.0001789211429077
  0
LINE
  5
41C
330
1F
100
AcDbEntity
  8
SICHTBAR
100
AcDbLine
 10
256.3036566612936
 20
87.35034614016582
 30
0.0001789211429077
 11
194.8675367833421
 21
25.91422626221242
 31
0.0001789211429077
  0
LINE
  5
41D
330
1F
100
AcDbEntity
  8
SICHTBAR
100
AcDbLine
 10
247.3941069049943
 20
96.25989589646701
 30
0.0001789211429077
 11
173.5129008594304
 21
22.37868985090313
 31
0.0001789211429077
  0
LINE
  5
41E
330
1F
100
AcDbEntity
  8
SICHTBAR
100
AcDbLine
 10
246.6870001238058
 20
96.96700267765368
 30
0.0001789211429077
 11
172.8057940782455
 21
23.0857966320898
 31
0.0001789211429077
  0
LINE
  5
41F
330
1F
100
AcDbEntity
  8
SICHTBAR
100
AcDbLine
 10
280.2038734173002
 20
63.45012938415925
 30
0.0001789211429077
 11
239.1276615379466
 21
22.3739175048056
 31
0.0001789211429077
  0
LINE
  5
420
330
1F
100
AcDbEntity
  8
SICHTBAR
100
AcDbLine
 10
272.0014304421856
 20
71.65257235927561
 30
0.0001789211429077
 11
226.9702052192952
 21
26.62133634593806
 31
0.0001789211429077
  0
LINE
  5
421
330
1F
100
AcDbEntity
  8
SICHTBAR
100
AcDbLine
 10
279.4967666361117
 20
64.15723616534774
 30
0.0001789211429077
 11
238.4214327019581
 21
23.0819022311905
 31
0.0001789211429077
  0
LINE
  5
422
330
1F
100
AcDbEntity
  8
SICHTBAR
100
AcDbLine
 10
272.7085372233705
 20
70.94546557808894
 30
0.0001789211429077
 11
227.6773120004837
 21
25.9142295647514
 31
0.0001789211429077
  0
LINE
  5
423
330
1F
100
AcDbEntity
  8
SICHTBAR
100
AcDbLine
 10
263.7989928622956
 20
79.85500993916571
 30
0.0001789211429077
 11
206.3226760624311
 21
22.37869315344392
 31
0.0001789211429077
  0
LINE
  5
424
330
1F
100
AcDbEntity
  8
SICHTBAR
100
AcDbLine
 10
263.0918860811071
 20
80.56211672035237
 30
0.0001789211429077
 11
205.6155692812426
 21
23.08579993463059
 31
0.0001789211429077
  0
LINE
  5
425
330
1F
100
AcDbEntity
  8
SICHTBAR
100
AcDbLine
 10
288.406316399487
 20
55.2476864019743
 30
0.0001789211429077
 11
259.7799804364404
 21
26.62133964847703
 31
0.0001789211429077
  0
LINE
  5
426
330
1F
100
AcDbEntity
  8
SICHTBAR
100
AcDbLine
 10
289.1134231806718
 20
54.54057962078763
 30
0.0001789211429077
 11
260.4870872176253
 21
25.91423286729037
 31
0.0001789211429077
  0
LINE
  5
427
330
1F
100
AcDbEntity
  8
SICHTBAR
100
AcDbLine
 10
198.1794382497101
 20
112.6647926371486
 30
0.0001789211429077
 11
113.6094305350998
 21
28.0947633416406
 31
0.0001789211429077
  0
LINE
  5
428
330
1F
100
AcDbEntity
  8
SICHTBAR
100
AcDbLine
 10
197.4723314685252
 20
113.3718994183352
 30
0.0001789211429077
 11
112.9023237539113
 21
28.80187012282727
 31
0.0001789211429077
  0
LINE
  5
429
330
1F
100
AcDbEntity
  8
SICHTBAR
100
AcDbLine
 10
223.4938739633144
 20
120.1601288381469
 30
0.0001789211429077
 11
129.2479863631961
 21
25.91421965713085
 31
0.0001789211429077
  0
LINE
  5
42A
330
1F
100
AcDbEntity
  8
SICHTBAR
100
AcDbLine
 10
222.7867671821296
 20
120.8672356193335
 30
0.0001789211429077
 11
128.5408795820076
 21
26.62132643831751
 31
0.0001789211429077
  0
LINE
  5
42B
330
1F
100
AcDbEntity
  8
SICHTBAR
100
AcDbLine
 10
230.9892209476893
 20
112.6647818537701
 30
0.0001789211429077
 11
140.7031256422851
 21
22.37868654836416
 31
0.0001789211429077
  0
LINE
  5
42C
330
1F
100
AcDbEntity
  8
SICHTBAR
100
AcDbLine
 10
230.2821033760556
 20
113.3718994254056
 30
0.0001789211429077
 11
139.9960188611003
 21
23.08579332955082
 31
0.0001789211429077
  0
LINE
  5
42D
330
1F
100
AcDbEntity
  8
SICHTBAR
100
AcDbLine
 10
189.9769952675233
 20
120.8672356193335
 30
0.0001789211429077
 11
105.6970010281838
 21
36.58724137999593
 31
0.0001789211429077
  0
LINE
  5
42E
330
1F
100
AcDbEntity
  8
SICHTBAR
100
AcDbLine
 10
190.6841020487118
 20
120.1601288381487
 30
0.0001789211429077
 11
106.1140943340979
 21
35.5900995426407
 31
0.0001789211429077
  0
LINE
  5
42F
330
1F
100
AcDbEntity
  8
SICHTBAR
100
AcDbLine
 10
239.1916639298797
 20
104.4623388715834
 30
0.0001789211429077
 11
161.3504815842461
 21
26.62115652595162
 31
0.0001789211429077
  0
LINE
  5
430
330
1F
100
AcDbEntity
  8
SICHTBAR
100
AcDbLine
 10
239.8987707110646
 20
103.7552320903967
 30
0.0001789211429077
 11
162.0576201496733
 21
25.91408152900545
 31
0.0001789211429077
  0
LINE
  5
431
330
1F
100
AcDbEntity
  8
SICHTBAR
100
AcDbLine
 10
68.21030281009734
 20
125.0000430419684
 30
0.0001789211429077
 11
68.21031388238771
 21
15.00002148298949
 31
0.0001789211429077
  0
LINE
  5
432
330
1F
100
AcDbEntity
  8
SICHTBAR
100
AcDbLine
 10
350.2103300545641
 20
15.00002306020792
 30
0.0001789211429077
 11
350.2103096046121
 21
141.9985464241824
 31
0.0001789211429077
  0
TEXT
  5
433
330
1F
100
AcDbEntity
  8
TEXT100
100
AcDbText
 10
339.7140153553337
 20
49.05448546767797
 30
0.0001789211429077
 40
10.0
  1
B 125
 50
225.0000000001198
  7
TEXT100
100
AcDbText
  0
LINE
  5
434
330
1F
100
AcDbEntity
  8
SICHTBAR
100
AcDbLine
 10
59.2103084419723
 20
150.0000004614401
 30
0.0001789211429077
 11
59.21030844196867
 21
0.000000461440095
 31
0.0001789211429077
  0
LINE
  5
435
330
1F
100
AcDbEntity
  8
SICHTBAR
100
AcDbLine
 10
359.2103084419687
 20
150.0000004614401
 30
0.0001789211429077
 11
359.2103084419687
 21
0.000000461440095
 31
0.0001789211429077
  0
LINE
  5
436
330
1F
100
AcDbEntity
  8
SICHTBAR
100
AcDbLine
 10
74.21031388254778
 20
9.000022086932176
 30
0.0001789211429077
 11
344.2103300547169
 21
9.000022094055339
 31
0.0001789211429077
  0
LINE
  5
437
330
1F
100
AcDbEntity
  8
SICHTBAR
100
AcDbLine
 10
59.21030844196867
 20
0.000000461440095
 30
0.0001789211429077
 11
359.2103084419687
 21
0.000000461440095
 31
0.0001789211429077
  0
ARC
  5
438
330
1F
100
AcDbEntity
  8
SICHTBAR
100
AcDbCircle
 10
74.21031388238771
 20
15.00002208693217
 30
0.0001789211429077
 40
6.0
100
AcDbArc
 50
180.0000057672451
 51
270.0000000014591
  0
ARC
  5
439
330
1F
100
AcDbEntity
  8
SICHTBAR
100
AcDbCircle
 10
196.2817503457118
 20
24.50001269983727
 30
0.0001789211429077
 40
2.0
100
AcDbArc
 50
134.9999999998802
 51
270.0000057671409
  0
ARC
  5
43A
330
1F
100
AcDbEntity
  8
SICHTBAR
100
AcDbCircle
 10
196.2817503457118
 20
24.50001269983727
 30
0.0001789211429077
 40
3.0
100
AcDbArc
 50
134.9999999998802
 51
270.0000057671409
  0
ARC
  5
43B
330
1F
100
AcDbEntity
  8
SICHTBAR
100
AcDbCircle
 10
204.2013557188693
 20
24.5000134970021
 30
0.0001789211429077
 40
3.0
100
AcDbArc
 50
270.0000057671409
 51
314.9999999998802
  0
ARC
  5
43C
330
1F
100
AcDbEntity
  8
SICHTBAR
100
AcDbCircle
 10
204.2013557188693
 20
24.5000134970021
 30
0.0001789211429077
 40
2.0
100
AcDbArc
 50
270.0000057671409
 51
314.9999999998802
  0
LINE
  5
43D
330
1F
100
AcDbEntity
  8
SICHTBAR
100
AcDbLine
 10
204.2013560208397
 20
21.5000134970021
 30
0.0001789211429077
 11
196.2817506476858
 21
21.50001269983909
 31
0.0001789211429077
  0
LINE
  5
43E
330
1F
100
AcDbEntity
  8
SICHTBAR
100
AcDbLine
 10
196.2817505470266
 20
22.50001269983727
 30
0.0001789211429077
 11
204.2013559201805
 21
22.50001349700392
 31
0.0001789211429077
  0
LINE
  5
43F
330
1F
100
AcDbEntity
  8
SICHTBAR
100
AcDbLine
 10
107.9525654951576
 20
28.09477413208765
 30
0.0001789211429077
 11
105.4069767624641
 21
30.6403628647829
 31
0.0001789211429077
  0
LINE
  5
440
330
1F
100
AcDbEntity
  8
SICHTBAR
100
AcDbLine
 10
108.6596722763424
 20
28.80188091327614
 30
0.0001789211429077
 11
106.1140835436526
 21
31.34746964596957
 31
0.0001789211429077
  0
ARC
  5
441
330
1F
100
AcDbEntity
  8
SICHTBAR
100
AcDbCircle
 10
110.7810034103531
 20
30.92319046638545
 30
0.0001789211429077
 40
4.0
100
AcDbArc
 50
225.0000000001198
 51
314.9999999998802
  0
ARC
  5
442
330
1F
100
AcDbEntity
  8
SICHTBAR
100
AcDbCircle
 10
110.7810034103531
 20
30.92319046638545
 30
0.0001789211429077
 40
3.0
100
AcDbArc
 50
225.0000000001198
 51
314.9999999998802
  0
ARC
  5
443
330
1F
100
AcDbEntity
  8
SICHTBAR
100
AcDbCircle
 10
130.6621999255658
 20
24.50000609475569
 30
0.0001789211429077
 40
2.0
100
AcDbArc
 50
134.9999999998802
 51
270.0000057671409
  0
ARC
  5
444
330
1F
100
AcDbEntity
  8
SICHTBAR
100
AcDbCircle
 10
130.6621999255658
 20
24.50000609475751
 30
0.0001789211429077
 40
3.0
100
AcDbArc
 50
134.9999999998802
 51
270.0000057671409
  0
ARC
  5
445
330
1F
100
AcDbEntity
  8
SICHTBAR
100
AcDbCircle
 10
138.5818052987233
 20
24.50000689192234
 30
0.0001789211429077
 40
2.0
100
AcDbArc
 50
270.0000057671409
 51
314.9999999998802
  0
ARC
  5
446
330
1F
100
AcDbEntity
  8
SICHTBAR
100
AcDbCircle
 10
138.5818052987233
 20
24.50000689192234
 30
0.0001789211429077
 40
3.0
100
AcDbArc
 50
270.0000057671409
 51
314.9999999998802
  0
LINE
  5
447
330
1F
100
AcDbEntity
  8
SICHTBAR
100
AcDbLine
 10
138.5818055000418
 20
22.50000689192598
 30
0.0001789211429077
 11
130.6622001268842
 21
22.50000609475751
 31
0.0001789211429077
  0
LINE
  5
448
330
1F
100
AcDbEntity
  8
SICHTBAR
100
AcDbLine
 10
138.5818056006974
 20
21.50000689192416
 30
0.0001789211429077
 11
130.6622002275398
 21
21.50000609475933
 31
0.0001789211429077
  0
ARC
  5
449
330
1F
100
AcDbEntity
  8
SICHTBAR
100
AcDbCircle
 10
108.2354146776597
 20
33.46877919907888
 30
0.0001789211429077
 40
4.0
100
AcDbArc
 50
134.9999999998802
 51
225.0000000001198
  0
ARC
  5
44A
330
1F
100
AcDbEntity
  8
SICHTBAR
100
AcDbCircle
 10
108.2354146776597
 20
33.46877919907888
 30
0.0001789211429077
 40
3.0
100
AcDbArc
 50
134.9999999998802
 51
225.0000000001198
  0
ARC
  5
44B
330
1F
100
AcDbEntity
  8
SICHTBAR
100
AcDbCircle
 10
163.4719751285702
 20
24.5000093972983
 30
0.0001789211429077
 40
2.0
100
AcDbArc
 50
134.9999999998802
 51
270.0000057671409
  0
LINE
  5
44C
330
1F
100
AcDbEntity
  8
SICHTBAR
100
AcDbLine
 10
163.471975329885
 20
22.5000093972983
 30
0.0001789211429077
 11
171.3915807171834
 21
22.50001019446495
 31
0.0001789211429077
  0
LINE
  5
44D
330
1F
100
AcDbEntity
  8
SICHTBAR
100
AcDbLine
 10
171.3915808178426
 20
21.50001019446313
 30
0.0001789211429077
 11
163.4719754305406
 21
21.5000093972983
 31
0.0001789211429077
  0
ARC
  5
44E
330
1F
100
AcDbEntity
  8
SICHTBAR
100
AcDbCircle
 10
163.4719751285702
 20
24.5000093972983
 30
0.0001789211429077
 40
3.0
100
AcDbArc
 50
134.9999999998802
 51
270.0000057671409
  0
ARC
  5
44F
330
1F
100
AcDbEntity
  8
SICHTBAR
100
AcDbCircle
 10
171.3915805158685
 20
24.50001019446313
 30
0.0001789211429077
 40
2.0
100
AcDbArc
 50
270.0000057671409
 51
314.9999999998802
  0
ARC
  5
450
330
1F
100
AcDbEntity
  8
SICHTBAR
100
AcDbCircle
 10
171.3915805158685
 20
24.50001019446313
 30
0.0001789211429077
 40
3.0
100
AcDbArc
 50
270.0000057671409
 51
314.9999999998802
  0
ARC
  5
451
330
1F
100
AcDbEntity
  8
SICHTBAR
100
AcDbCircle
 10
344.2103300545641
 20
15.00002209405716
 30
0.0001789211429077
 40
6.0
100
AcDbArc
 50
270.0000000014591
 51
0.0000092260341436
  0
LINE
  5
452
330
1F
100
AcDbEntity
  8
SICHTBAR
100
AcDbLine
 10
261.9013009813134
 20
22.50001930491703
 30
0.0001789211429077
 11
269.8208955640184
 21
22.50002010208004
 31
0.0001789211429077
  0
LINE
  5
453
330
1F
100
AcDbEntity
  8
SICHTBAR
100
AcDbLine
 10
269.8209064551265
 20
21.50002010208368
 30
0.0001789211429077
 11
261.901301081969
 21
21.50001930491703
 31
0.0001789211429077
  0
ARC
  5
454
330
1F
100
AcDbEntity
  8
SICHTBAR
100
AcDbCircle
 10
269.8208953627036
 20
24.50002010208186
 30
0.0001789211429077
 40
2.0
100
AcDbArc
 50
270.0000057671409
 51
314.9999999998802
  0
ARC
  5
455
330
1F
100
AcDbEntity
  8
SICHTBAR
100
AcDbCircle
 10
269.8209061531525
 20
24.50002010207823
 30
0.0001789211429077
 40
3.0
100
AcDbArc
 50
270.0000057671409
 51
315.1292228643296
  0
ARC
  5
456
330
1F
100
AcDbEntity
  8
SICHTBAR
100
AcDbCircle
 10
302.6306813702977
 20
24.50002340462083
 30
0.0001789211429077
 40
2.0
100
AcDbArc
 50
270.0000057671409
 51
314.9999999998802
  0
ARC
  5
457
330
1F
100
AcDbEntity
  8
SICHTBAR
100
AcDbCircle
 10
294.7110759830029
 20
24.50002260745601
 30
0.0001789211429077
 40
2.0
100
AcDbArc
 50
134.9999999998802
 51
270.0000057671409
  0
LINE
  5
458
330
1F
100
AcDbEntity
  8
SICHTBAR
100
AcDbLine
 10
294.7110761843141
 20
22.500022607456
 30
0.0001789211429077
 11
302.6306815716125
 21
22.50002340462083
 31
0.0001789211429077
  0
ARC
  5
459
330
1F
100
AcDbEntity
  8
SICHTBAR
100
AcDbCircle
 10
294.7110759829993
 20
24.50002260745782
 30
0.0001789211429077
 40
3.0
100
AcDbArc
 50
134.9999999998802
 51
270.0000057671409
  0
ARC
  5
45A
330
1F
100
AcDbEntity
  8
SICHTBAR
100
AcDbCircle
 10
302.6306813702977
 20
24.50002340462083
 30
0.0001789211429077
 40
3.0
100
AcDbArc
 50
270.0000057671409
 51
314.9999999998802
  0
LINE
  5
45B
330
1F
100
AcDbEntity
  8
SICHTBAR
100
AcDbLine
 10
302.6306816722717
 20
21.50002340462265
 30
0.0001789211429077
 11
294.7110762849698
 21
21.50002260745782
 31
0.0001789211429077
  0
LINE
  5
45C
330
1F
100
AcDbEntity
  8
SICHTBAR
100
AcDbLine
 10
313.0136453319064
 20
30.64035746955665
 30
0.0001789211429077
 11
304.7520017138595
 21
22.37870306106265
 31
0.0001789211429077
  0
LINE
  5
45D
330
1F
100
AcDbEntity
  8
SICHTBAR
100
AcDbLine
 10
312.3065385507179
 20
31.34746425074331
 30
0.0001789211429077
 11
304.0448949326747
 21
23.08580984224932
 31
0.0001789211429077
  0
ARC
  5
45E
330
1F
100
AcDbEntity
  8
SICHTBAR
100
AcDbCircle
 10
310.1852236023842
 20
33.46877919907706
 30
0.0001789211429077
 40
4.0
100
AcDbArc
 50
314.9999999998802
 51
45.00000000011974
  0
ARC
  5
45F
330
1F
100
AcDbEntity
  8
SICHTBAR
100
AcDbCircle
 10
310.1852236023842
 20
33.46877919907706
 30
0.0001789211429077
 40
3.0
100
AcDbArc
 50
314.9999999998802
 51
45.00000000011974
  0
LINE
  5
460
330
1F
100
AcDbEntity
  8
SICHTBAR
100
AcDbLine
 10
312.3065385507179
 20
35.59010493786332
 30
0.0001789211429077
 11
309.7609498180245
 21
38.13569367055675
 31
0.0001789211429077
  0
ARC
  5
461
330
1F
100
AcDbEntity
  8
SICHTBAR
100
AcDbCircle
 10
307.6396348696871
 20
36.01436793177049
 30
0.0001789211429077
 40
3.0
100
AcDbArc
 50
45.00000000011974
 51
135.0000076299527
  0
ARC
  5
462
330
1F
100
AcDbEntity
  8
SICHTBAR
100
AcDbCircle
 10
307.6396348696871
 20
36.01436793177049
 30
0.0001789211429077
 40
4.0
100
AcDbArc
 50
45.00000000011974
 51
134.9999999998802
  0
LINE
  5
463
330
1F
100
AcDbEntity
  8
SICHTBAR
100
AcDbLine
 10
304.811202349716
 20
38.84280045174341
 30
0.0001789211429077
 11
292.5897556394411
 21
26.62134295101783
 31
0.0001789211429077
  0
LINE
  5
464
330
1F
100
AcDbEntity
  8
SICHTBAR
100
AcDbLine
 10
305.5183091309045
 20
38.13569367055675
 30
0.0001789211429077
 11
293.296862420626
 21
25.91423616983116
 31
0.0001789211429077
  0
LINE
  5
465
330
1F
100
AcDbEntity
  8
SICHTBAR
100
AcDbLine
 10
313.0136453319064
 20
36.29721171904999
 30
0.0001789211429077
 11
310.4680565992094
 21
38.84280045174341
 31
0.0001789211429077
  0
ARC
  5
466
330
1F
100
AcDbEntity
  8
SICHTBAR
100
AcDbCircle
 10
261.9013007799949
 20
24.50001930491521
 30
0.0001789211429077
 40
3.0
100
AcDbArc
 50
134.9999999998802
 51
270.0000057671409
  0
ARC
  5
467
330
1F
100
AcDbEntity
  8
SICHTBAR
100
AcDbCircle
 10
237.0111309360145
 20
24.50001679953925
 30
0.0001789211429077
 40
3.0
100
AcDbArc
 50
270.0000057671409
 51
314.9999999998802
  0
ARC
  5
468
330
1F
100
AcDbEntity
  8
SICHTBAR
100
AcDbCircle
 10
237.0111309360109
 20
24.50001679954108
 30
0.0001789211429077
 40
2.0
100
AcDbArc
 50
270.0000057671409
 51
314.9999999998802
  0
LINE
  5
469
330
1F
100
AcDbEntity
  8
SICHTBAR
100
AcDbLine
 10
237.0111312379813
 20
21.50001679954107
 30
0.0001789211429077
 11
229.0915258648274
 21
21.50001600237806
 31
0.0001789211429077
  0
LINE
  5
46A
330
1F
100
AcDbEntity
  8
SICHTBAR
100
AcDbLine
 10
229.0915257641682
 20
22.50001600237624
 30
0.0001789211429077
 11
237.0111311373257
 21
22.50001679954289
 31
0.0001789211429077
  0
ARC
  5
46B
330
1F
100
AcDbEntity
  8
SICHTBAR
100
AcDbCircle
 10
229.091525562857
 20
24.50001600237806
 30
0.0001789211429077
 40
2.0
100
AcDbArc
 50
134.9999999998802
 51
270.0000057671409
  0
ARC
  5
46C
330
1F
100
AcDbEntity
  8
SICHTBAR
100
AcDbCircle
 10
229.091525562857
 20
24.50001600237806
 30
0.0001789211429077
 40
3.0
100
AcDbArc
 50
134.9999999998802
 51
270.0000057671409
  0
ARC
  5
46D
330
1F
100
AcDbEntity
  8
SICHTBAR
100
AcDbCircle
 10
261.9013007799949
 20
24.50001930491521
 30
0.0001789211429077
 40
2.0
100
AcDbArc
 50
134.9999999998802
 51
270.0000057671409
  0
LINE
  5
46E
330
1F
100
AcDbEntity
  8
SICHTBAR
100
AcDbLine
 10
238.9291487714508
 20
164.3337535802591
 30
0.0001789211429077
 11
333.2960696231385
 21
69.96683272854784
 31
0.0001789211429077
  0
LINE
  5
46F
330
1F
100
AcDbEntity
  8
SICHTBAR
100
AcDbLine
 10
238.222041990266
 20
163.6266467990724
 30
0.0001789211429077
 11
332.5888784646049
 21
69.25981032470622
 31
0.0001789211429077
  0
LINE
  5
470
330
1F
100
AcDbEntity
  8
SICHTBAR
100
AcDbLine
 10
246.4244849653769
 20
171.8290897741851
 30
0.0001789211429077
 11
336.831519151725
 21
81.42205558781894
 31
0.0001789211429077
  0
LINE
  5
471
330
1F
100
AcDbEntity
  8
SICHTBAR
100
AcDbLine
 10
245.7173781841921
 20
171.1219829929966
 30
0.0001789211429077
 11
336.1244967478851
 21
80.7148644292854
 31
0.0001789211429077
  0
LINE
  5
472
330
1F
100
AcDbEntity
  8
SICHTBAR
100
AcDbLine
 10
254.6269279404805
 20
180.0315327493033
 30
0.0001789211429077
 11
332.5888784646086
 21
102.069582225359
 31
0.0001789257652016
  0
LINE
  5
473
330
1F
100
AcDbEntity
  8
SICHTBAR
100
AcDbLine
 10
255.3340347216654
 20
180.7386395304881
 30
0.0001789211429077
 11
333.2960696231385
 21
102.7766046290933
 31
0.0001789257651368
  0
LINE
  5
474
330
1F
100
AcDbEntity
  8
SICHTBAR
100
AcDbLine
 10
262.8293817131198
 20
188.233964941043
 30
0.0001789211429077
 11
336.831519151725
 21
114.2318275024161
 31
0.0001789256837709
  0
LINE
  5
475
330
1F
100
AcDbEntity
  8
SICHTBAR
100
AcDbLine
 10
262.1222641414788
 20
187.5268689503052
 30
0.0001789211429077
 11
336.1244967478851
 21
113.5246363438843
 31
0.0001789256837734
  0
LINE
  5
476
330
1F
100
AcDbEntity
  8
SICHTBAR
 48
5.0
100
AcDbLine
 10
327.5325083406278
 20
133.7986371203885
 30
0.0001789996899736
 11
327.5325083406278
 21
166.2011675131623
 31
0.0001789966208244
  0
LINE
  5
477
330
1F
100
AcDbEntity
  8
SICHTBAR
 48
5.0
100
AcDbLine
 10
328.5838479277773
 20
165.4985299246334
 30
0.0001789995717881
 11
328.5838479277773
 21
134.4985299246352
 31
0.0001789995717881
  0
ARC
  5
478
330
1F
100
AcDbEntity
  8
SICHTBAR
100
AcDbCircle
 10
210.6041020978409
 20
151.856309221316
 30
0.0001789211429077
 40
8.736283548959887
100
AcDbArc
 50
187.717454034135
 51
224.8828414429532
  0
LINE
  5
479
330
1F
100
AcDbEntity
  8
SICHTBAR
100
AcDbLine
 10
192.9875094485796
 20
146.7096704703624
 30
0.0001789211429077
 11
189.819770063812
 21
143.5419310855948
 31
0.0001789211429077
  0
LINE
  5
47A
330
1F
100
AcDbEntity
  8
SICHTBAR
100
AcDbLine
 10
209.9575418669701
 20
138.7903220084451
 30
0.0001789211429077
 11
192.9875094485796
 21
146.7096704703624
 31
0.0001789211429077
  0
ARC
  5
47B
330
1F
100
AcDbEntity
  8
SICHTBAR
100
AcDbCircle
 10
208.2928369885812
 20
155.2869232628716
 30
0.0001789211429077
 40
12.84198272171798
100
AcDbArc
 50
296.3994784961331
 51
337.2942908069357
  0
LINE
  5
47C
330
1F
100
AcDbEntity
  8
SICHTBAR
100
AcDbLine
 10
147.2677284233796
 20
103.6138128979062
 30
0.0001789211429077
 11
85.83161933587325
 21
165.0499219854107
 31
0.0001789211429077
  0
LINE
  5
47D
330
1F
100
AcDbEntity
  8
SICHTBAR
100
AcDbLine
 10
146.5606216421947
 20
102.9067061167213
 30
0.0001789211429077
 11
85.12451255468477
 21
164.342815204224
 31
0.0001789211429077
  0
LINE
  5
47E
330
1F
100
AcDbEntity
  8
SICHTBAR
100
AcDbLine
 10
155.4701713984977
 20
111.8162558730207
 30
0.0001789211429077
 11
81.58897614337911
 21
185.6974511281357
 31
0.0001789211429077
  0
LINE
  5
47F
330
1F
100
AcDbEntity
  8
SICHTBAR
100
AcDbLine
 10
156.1772781796826
 20
112.5233626542074
 30
0.0001789211429077
 11
82.29608292456759
 21
186.4045579093224
 31
0.0001789211429077
  0
LINE
  5
480
330
1F
100
AcDbEntity
  8
SICHTBAR
100
AcDbLine
 10
77.21028601440775
 20
171.9498886700046
 30
0.0001789211429077
 11
77.21028601440775
 21
127.9498883680342
 31
0.0001789211429077
  0
LINE
  5
481
330
1F
100
AcDbEntity
  8
SICHTBAR
100
AcDbLine
 10
139.065285448265
 20
95.41136992278984
 30
0.0001789211429077
 11
81.58897944592172
 21
152.887675925135
 31
0.0001789211429077
  0
LINE
  5
482
330
1F
100
AcDbEntity
  8
SICHTBAR
100
AcDbLine
 10
139.7723922294535
 20
96.11847670397651
 30
0.0001789211429077
 11
82.29608622710657
 21
153.5947827063217
 31
0.0001789211429077
  0
LINE
  5
483
330
1F
100
AcDbEntity
  8
SICHTBAR
100
AcDbLine
 10
163.6726143806809
 20
120.0186988552057
 30
0.0001789211429077
 11
85.83161603333428
 21
197.8596972025559
 31
0.0001789211429077
  0
LINE
  5
484
330
1F
100
AcDbEntity
  8
SICHTBAR
100
AcDbLine
 10
162.965507599496
 20
119.311592074019
 30
0.0001789211429077
 11
85.12450925214944
 21
197.1525904213711
 31
0.0001789211429077
  0
LINE
  5
485
330
1F
100
AcDbEntity
  8
SICHTBAR
100
AcDbLine
 10
171.875057355799
 20
128.221141830322
 30
0.0001789211429077
 11
81.58897284084014
 21
218.5072263452791
 31
0.0001789211429077
  0
LINE
  5
486
330
1F
100
AcDbEntity
  8
SICHTBAR
100
AcDbLine
 10
70.12952549594047
 20
125.0000430960306
 30
0.0001789211413865
 11
70.12952549594047
 21
175.0000436380021
 31
0.0001789211413865
  0
LINE
  5
487
330
1F
100
AcDbEntity
  8
SICHTBAR
100
AcDbLine
 10
172.5821641369839
 20
128.9282486115087
 30
0.0001789211429077
 11
82.29607962202862
 21
219.2143331264658
 31
0.0001789211429077
  0
LINE
  5
488
330
1F
100
AcDbEntity
  8
SICHTBAR
100
AcDbLine
 10
179.3703935497251
 20
135.7164780242517
 30
0.0001789211429077
 11
85.12450594960682
 21
229.96236562437
 31
0.0001789211429077
  0
LINE
  5
489
330
1F
100
AcDbEntity
  8
SICHTBAR
100
AcDbLine
 10
180.0775003309136
 20
136.4235848054384
 30
0.0001789211429077
 11
85.83161273079531
 21
230.6694724055567
 31
0.0001789211429077
  0
LINE
  5
48A
330
1F
100
AcDbEntity
  8
SICHTBAR
100
AcDbLine
 10
246.4244849653733
 20
139.0193178595807
 30
0.0001789211429077
 11
331.0801182188952
 21
54.36368460604057
 31
0.0001789211429077
  0
LINE
  5
48B
330
1F
100
AcDbEntity
  8
SICHTBAR
100
AcDbLine
 10
238.2220419902587
 20
130.816874884468
 30
0.0001789211429077
 11
322.8776752437807
 21
46.16124163092604
 31
0.0001789211429077
  0
LINE
  5
48C
330
1F
100
AcDbEntity
  8
SICHTBAR
100
AcDbLine
 10
238.9291487714436
 20
131.5239816656528
 30
0.0001789211429077
 11
323.5847820249692
 21
46.86834841211271
 31
0.0001789211429077
  0
LINE
  5
48D
330
1F
100
AcDbEntity
  8
SICHTBAR
100
AcDbLine
 10
245.7173781841884
 20
138.312211078394
 30
0.0001789211429077
 11
330.3730114377104
 21
53.65657782485391
 31
0.0001789211429077
  0
LINE
  5
48E
330
1F
100
AcDbEntity
  8
SICHTBAR
100
AcDbLine
 10
81.71030559739302
 20
97.30905100625273
 30
0.0001789211429077
 11
81.71030639455784
 21
89.38944563309519
 31
0.0001789211429077
  0
LINE
  5
48F
330
1F
100
AcDbEntity
  8
SICHTBAR
100
AcDbLine
 10
80.71030639455784
 20
89.3894455324396
 30
0.0001789211429077
 11
80.71030559739302
 21
97.30905090559714
 31
0.0001789211429077
  0
LINE
  5
490
330
1F
100
AcDbEntity
  8
SICHTBAR
100
AcDbLine
 10
122.6603994909637
 20
79.00648396548854
 30
0.0001789211429077
 11
81.58898274845705
 21
120.0779007079934
 31
0.0001789211429077
  0
LINE
  5
491
330
1F
100
AcDbEntity
  8
SICHTBAR
100
AcDbLine
 10
130.8628424660783
 20
87.2089269406049
 30
0.0001789211429077
 11
85.83162263841222
 21
132.2401467682691
 31
0.0001789211429077
  0
LINE
  5
492
330
1F
100
AcDbEntity
  8
SICHTBAR
100
AcDbLine
 10
123.3675062721522
 20
79.71359074667521
 30
0.0001789211429077
 11
82.29608952964554
 21
120.7850074891801
 31
0.0001789211429077
  0
LINE
  5
493
330
1F
100
AcDbEntity
  8
SICHTBAR
100
AcDbLine
 10
130.1557356848934
 20
86.50182015941641
 30
0.0001789211429077
 11
85.12451585722738
 21
131.5330399870825
 31
0.0001789211429077
  0
LINE
  5
494
330
1F
100
AcDbEntity
  8
SICHTBAR
100
AcDbLine
 10
114.4579565087733
 20
70.80404098330359
 30
0.0001789211429077
 11
85.83162594094757
 21
99.43037155112575
 31
0.0001789211429077
  0
LINE
  5
495
330
1F
100
AcDbEntity
  8
SICHTBAR
100
AcDbLine
 10
113.7508497275848
 20
70.09693420211511
 30
0.0001789211429077
 11
85.12451915976271
 21
98.72326476994089
 31
0.0001789211429077
  0
ARC
  5
496
330
1F
100
AcDbEntity
  8
SICHTBAR
100
AcDbCircle
 10
111.6295401744792
 20
67.97560306810623
 30
0.0001789211429077
 40
4.0
100
AcDbArc
 50
314.9999999998802
 51
45.00000000011974
  0
ARC
  5
497
330
1F
100
AcDbEntity
  8
SICHTBAR
100
AcDbCircle
 10
111.6295401744792
 20
67.97560306810623
 30
0.0001789211429077
 40
3.0
100
AcDbArc
 50
314.9999999998802
 51
45.00000000011974
  0
ARC
  5
498
330
1F
100
AcDbEntity
  8
SICHTBAR
100
AcDbCircle
 10
83.71030889993562
 20
64.49927600456863
 30
0.0001789211429077
 40
3.0
100
AcDbArc
 50
45.00000000011974
 51
180.0000057672451
  0
LINE
  5
499
330
1F
100
AcDbEntity
  8
SICHTBAR
100
AcDbLine
 10
106.2555135336624
 20
62.60159800818724
 30
0.0001789211429077
 11
81.58898605099967
 21
87.26812549085185
 31
0.0001789211429077
  0
LINE
  5
49A
330
1F
100
AcDbEntity
  8
SICHTBAR
100
AcDbLine
 10
106.9626203148473
 20
63.30870478937391
 30
0.0001789211429077
 11
82.29609283218451
 21
87.97523227203669
 31
0.0001789211429077
  0
LINE
  5
49B
330
1F
100
AcDbEntity
  8
SICHTBAR
100
AcDbLine
 10
81.71030889993199
 20
64.49927580325016
 30
0.0001789211429077
 11
81.71030969709681
 21
56.57967041595362
 31
0.0001789211429077
  0
LINE
  5
49C
330
1F
100
AcDbEntity
  8
SICHTBAR
100
AcDbLine
 10
80.71030969709681
 20
56.57967031529619
 30
0.0001789211429077
 11
80.71030889993199
 21
64.49927570259456
 31
0.0001789211429077
  0
LINE
  5
49D
330
1F
100
AcDbEntity
  8
SICHTBAR
100
AcDbLine
 10
94.80037504466599
 20
46.90381883207442
 30
0.0001789211429077
 11
97.34596377735579
 21
49.44940756476603
 31
0.0001789211429077
  0
LINE
  5
49E
330
1F
100
AcDbEntity
  8
SICHTBAR
100
AcDbLine
 10
95.50748182585085
 20
46.19671205088775
 30
0.0001789211429077
 11
98.05307055854427
 21
48.74230078357936
 31
0.0001789211429077
  0
ARC
  5
49F
330
1F
100
AcDbEntity
  8
SICHTBAR
100
AcDbCircle
 10
83.71030969709682
 20
56.57967061726663
 30
0.0001789211429077
 40
3.0
100
AcDbArc
 50
180.0000057672451
 51
225.0000000001198
  0
ARC
  5
4A0
330
1F
100
AcDbEntity
  8
SICHTBAR
100
AcDbCircle
 10
83.71030969709682
 20
56.57967061726663
 30
0.0001789211429077
 40
2.0
100
AcDbArc
 50
180.0000057672451
 51
225.0000000001198
  0
LINE
  5
4A1
330
1F
100
AcDbEntity
  8
SICHTBAR
100
AcDbLine
 10
89.8506275763575
 20
46.19671205088775
 30
0.0001789211429077
 11
81.58898935353864
 21
54.45835027370844
 31
0.0001789211429077
  0
LINE
  5
4A2
330
1F
100
AcDbEntity
  8
SICHTBAR
100
AcDbLine
 10
90.557734357546
 20
46.9038188320726
 30
0.0001789211429077
 11
82.29609613472712
 21
55.16545705489511
 31
0.0001789211429077
  0
ARC
  5
4A3
330
1F
100
AcDbEntity
  8
SICHTBAR
100
AcDbCircle
 10
92.67906549155304
 20
49.02512838518373
 30
0.0001789211429077
 40
4.0
100
AcDbArc
 50
225.0000000001198
 51
314.9999999998802
  0
ARC
  5
4A4
330
1F
100
AcDbEntity
  8
SICHTBAR
100
AcDbCircle
 10
92.67906549155304
 20
49.02512838518373
 30
0.0001789211429077
 40
3.0
100
AcDbArc
 50
225.0000000001198
 51
314.9999999998802
  0
ARC
  5
4A5
330
1F
100
AcDbEntity
  8
SICHTBAR
100
AcDbCircle
 10
83.71030889992836
 20
64.49927600456499
 30
0.0001789211429077
 40
2.0
100
AcDbArc
 50
45.00000000011974
 51
180.0000057672451
  0
ARC
  5
4A6
330
1F
100
AcDbEntity
  8
SICHTBAR
100
AcDbCircle
 10
95.22465422425012
 20
51.57071711787899
 30
0.0001789211429077
 40
3.0
100
AcDbArc
 50
314.9999999998802
 51
45.00000000011974
  0
ARC
  5
4A7
330
1F
100
AcDbEntity
  8
SICHTBAR
100
AcDbCircle
 10
95.22465422425012
 20
51.57071711787899
 30
0.0001789211429077
 40
4.0
100
AcDbArc
 50
314.9999999998802
 51
45.00000000011974
  0
LINE
  5
4A8
330
1F
100
AcDbEntity
  8
SICHTBAR
100
AcDbLine
 10
98.05307055854427
 20
54.39915503307088
 30
0.0001789211429077
 11
85.8316292434938
 21
66.62059634812862
 31
0.0001789211429077
  0
LINE
  5
4A9
330
1F
100
AcDbEntity
  8
SICHTBAR
100
AcDbLine
 10
97.34596377735943
 20
53.69204825188422
 30
0.0001789211429077
 11
85.12452246230532
 21
65.91348956693832
 31
0.0001789211429077
  0
LINE
  5
4AA
330
1F
100
AcDbEntity
  8
SICHTBAR
100
AcDbLine
 10
111.9123677831521
 20
62.60159800818906
 30
0.0001789211429077
 11
114.457956508777
 21
65.14718673381025
 31
0.0001789211429077
  0
ARC
  5
4AB
330
1F
100
AcDbEntity
  8
SICHTBAR
100
AcDbCircle
 10
109.0839514488543
 20
65.43001434248504
 30
0.0001789211429077
 40
4.0
100
AcDbArc
 50
225.0000000001198
 51
314.9999999998802
  0
LINE
  5
4AC
330
1F
100
AcDbEntity
  8
SICHTBAR
100
AcDbLine
 10
111.2052610019673
 20
63.30870478937573
 30
0.0001789211429077
 11
113.7508497275885
 21
65.8542935149951
 31
0.0001789211429077
  0
ARC
  5
4AD
330
1F
100
AcDbEntity
  8
SICHTBAR
100
AcDbCircle
 10
109.0839514488543
 20
65.43001434248504
 30
0.0001789211429077
 40
3.0
100
AcDbArc
 50
225.0000000001198
 51
314.9999999998802
  0
ARC
  5
4AE
330
1F
100
AcDbEntity
  8
SICHTBAR
100
AcDbCircle
 10
83.71030639455421
 20
89.38944583441003
 30
0.0001789211429077
 40
3.0
100
AcDbArc
 50
180.0000057672451
 51
225.0000000001198
  0
ARC
  5
4AF
330
1F
100
AcDbEntity
  8
SICHTBAR
100
AcDbCircle
 10
83.71030639455421
 20
89.38944583441003
 30
0.0001789211429077
 40
2.0
100
AcDbArc
 50
180.0000057672451
 51
225.0000000001198
  0
ARC
  5
4B0
330
1F
100
AcDbEntity
  8
SICHTBAR
100
AcDbCircle
 10
125.4888374061593
 20
81.83490029978452
 30
0.0001789211429077
 40
4.0
100
AcDbArc
 50
225.0000000001198
 51
314.9999999998802
  0
LINE
  5
4B1
330
1F
100
AcDbEntity
  8
SICHTBAR
100
AcDbLine
 10
128.3172537404534
 20
79.00648396549036
 30
0.0001789211429077
 11
130.8628424660783
 21
81.55207269111157
 31
0.0001789211429077
  0
ARC
  5
4B2
330
1F
100
AcDbEntity
  8
SICHTBAR
100
AcDbCircle
 10
128.0344261317805
 20
84.38048902540572
 30
0.0001789211429077
 40
4.0
100
AcDbArc
 50
314.9999999998802
 51
45.00000000011974
  0
ARC
  5
4B3
330
1F
100
AcDbEntity
  8
SICHTBAR
100
AcDbCircle
 10
125.4888374061593
 20
81.83490029978452
 30
0.0001789211429077
 40
3.0
100
AcDbArc
 50
225.0000000001198
 51
314.9999999998802
  0
LINE
  5
4B4
330
1F
100
AcDbEntity
  8
SICHTBAR
100
AcDbLine
 10
127.6101469592686
 20
79.71359074667521
 30
0.0001789211429077
 11
130.1557356848898
 21
82.25917947229822
 31
0.0001789211429077
  0
ARC
  5
4B5
330
1F
100
AcDbEntity
  8
SICHTBAR
100
AcDbCircle
 10
128.0344261317805
 20
84.38048902540572
 30
0.0001789211429077
 40
3.0
100
AcDbArc
 50
314.9999999998802
 51
45.00000000011974
  0
ARC
  5
4B6
330
1F
100
AcDbEntity
  8
SICHTBAR
100
AcDbCircle
 10
334.7101988081631
 20
71.38113066826258
 30
0.0001789211429077
 40
3.0
100
AcDbArc
 50
225.0000000001198
 51
0.0
  0
ARC
  5
4B7
330
1F
100
AcDbEntity
  8
SICHTBAR
100
AcDbCircle
 10
277.3754516877816
 20
66.27855111367967
 30
0.0001789211429077
 40
4.0
100
AcDbArc
 50
314.9999999998802
 51
45.00000000011974
  0
ARC
  5
4B8
330
1F
100
AcDbEntity
  8
SICHTBAR
100
AcDbCircle
 10
277.3754516877816
 20
66.27855111367967
 30
0.0001789211429077
 40
3.0
100
AcDbArc
 50
314.9999999998802
 51
45.00000000011974
  0
ARC
  5
4B9
330
1F
100
AcDbEntity
  8
SICHTBAR
100
AcDbCircle
 10
293.7803376450829
 20
49.87366515637837
 30
0.0001789211429077
 40
4.0
100
AcDbArc
 50
314.9999999998802
 51
45.00000000011974
  0
ARC
  5
4BA
330
1F
100
AcDbEntity
  8
SICHTBAR
100
AcDbCircle
 10
293.7803376450829
 20
49.87366515637837
 30
0.0001789211429077
 40
3.0
100
AcDbArc
 50
314.9999999998802
 51
45.00000000011974
  0
ARC
  5
4BB
330
1F
100
AcDbEntity
  8
SICHTBAR
100
AcDbCircle
 10
328.2516910941486
 20
51.53525748129209
 30
0.0001789211429077
 40
4.0
100
AcDbArc
 50
314.9999999998802
 51
45.00000000011974
  0
LINE
  5
4BC
330
1F
100
AcDbEntity
  8
SICHTBAR
100
AcDbLine
 10
331.0801128236708
 20
48.70683575177167
 30
0.0001789211429077
 11
328.5345240980459
 21
46.16124702614865
 31
0.0001789211429077
  0
ARC
  5
4BD
330
1F
100
AcDbEntity
  8
SICHTBAR
100
AcDbCircle
 10
325.7061023685273
 20
48.98966875567089
 30
0.0001789211429077
 40
4.0
100
AcDbArc
 50
225.0000000001198
 51
314.9999999998802
  0
ARC
  5
4BE
330
1F
100
AcDbEntity
  8
SICHTBAR
100
AcDbCircle
 10
325.7061023685273
 20
48.98966875567089
 30
0.0001789211429077
 40
3.0
100
AcDbArc
 50
225.0000000001198
 51
314.9999999998802
  0
LINE
  5
4BF
330
1F
100
AcDbEntity
  8
SICHTBAR
100
AcDbLine
 10
330.373006042486
 20
49.41394253295834
 30
0.0001789211429077
 11
327.8274173168611
 21
46.86835380733533
 31
0.0001789211429077
  0
ARC
  5
4C0
330
1F
100
AcDbEntity
  8
SICHTBAR
100
AcDbCircle
 10
328.2516910941486
 20
51.53525748129209
 30
0.0001789211429077
 40
3.0
100
AcDbArc
 50
314.9999999998802
 51
45.00000000011974
  0
ARC
  5
4C1
330
1F
100
AcDbEntity
  8
SICHTBAR
100
AcDbCircle
 10
291.2347489194581
 20
52.41925388200138
 30
0.0001789211429077
 40
4.0
100
AcDbArc
 50
45.00000000011974
 51
135.0000076299527
  0
LINE
  5
4C2
330
1F
100
AcDbEntity
  8
SICHTBAR
100
AcDbLine
 10
296.6087593746051
 20
52.70209767635129
 30
0.0001789211429077
 11
294.0631706489803
 21
55.2476864019743
 31
0.0001789211429077
  0
ARC
  5
4C3
330
1F
100
AcDbEntity
  8
SICHTBAR
100
AcDbCircle
 10
291.2347489194581
 20
52.41925388200138
 30
0.0001789211429077
 40
3.0
100
AcDbArc
 50
45.00000000011974
 51
135.0000076299527
  0
LINE
  5
4C4
330
1F
100
AcDbEntity
  8
SICHTBAR
100
AcDbLine
 10
295.9016525934167
 20
51.99499089516462
 30
0.0001789211429077
 11
293.3560638677954
 21
54.54057962078763
 31
0.0001789211429077
  0
LINE
  5
4C5
330
1F
100
AcDbEntity
  8
SICHTBAR
100
AcDbLine
 10
336.710345095642
 20
79.37151920756583
 30
0.0001789211429077
 11
336.7103458928068
 21
71.45191383440828
 31
0.0001789211429077
  0
LINE
  5
4C6
330
1F
100
AcDbEntity
  8
SICHTBAR
100
AcDbLine
 10
337.710345095642
 20
79.3715193082196
 30
0.0001789211429077
 11
337.7103458928068
 21
71.45191393506388
 31
0.0001789211429077
  0
ARC
  5
4C7
330
1F
100
AcDbEntity
  8
SICHTBAR
100
AcDbCircle
 10
334.7102831855082
 20
71.38104629091754
 30
0.0001789211429077
 40
2.0
100
AcDbArc
 50
225.0000000001198
 51
0.0
  0
ARC
  5
4C8
330
1F
100
AcDbEntity
  8
SICHTBAR
100
AcDbCircle
 10
334.7102831855082
 20
79.30065086691389
 30
0.0001789211429077
 40
2.0
100
AcDbArc
 50
0.0
 51
45.00000000011974
  0
ARC
  5
4C9
330
1F
100
AcDbEntity
  8
SICHTBAR
100
AcDbCircle
 10
334.7101988081631
 20
79.30073524425893
 30
0.0001789211429077
 40
3.0
100
AcDbArc
 50
0.0
 51
45.00000000011974
  0
LINE
  5
4CA
330
1F
100
AcDbEntity
  8
SICHTBAR
100
AcDbLine
 10
337.7101988081631
 20
79.30073524425711
 30
0.0001789211429077
 11
337.7101988081631
 21
71.3811306682644
 31
0.0001789211429077
  0
LINE
  5
4CB
330
1F
100
AcDbEntity
  8
SICHTBAR
100
AcDbLine
 10
336.7102831855082
 20
71.38104629092118
 30
0.0001789211429077
 11
336.7102831855118
 21
79.30065086691389
 31
0.0001789211429077
  0
LINE
  5
4CC
330
1F
100
AcDbEntity
  8
SICHTBAR
100
AcDbLine
 10
280.2038734173038
 20
69.10698363365259
 30
0.0001789211429077
 11
277.658284691679
 21
71.65257235927561
 31
0.0001789211429077
  0
ARC
  5
4CD
330
1F
100
AcDbEntity
  8
SICHTBAR
100
AcDbCircle
 10
274.8298629621568
 20
68.82413983930451
 30
0.0001789211429077
 40
4.0
100
AcDbArc
 50
45.00000000011974
 51
135.0000076299527
  0
LINE
  5
4CE
330
1F
100
AcDbEntity
  8
SICHTBAR
100
AcDbLine
 10
279.4967666361154
 20
68.39987685246592
 30
0.0001789211429077
 11
276.9511779104905
 21
70.94546557808894
 31
0.0001789211429077
  0
ARC
  5
4CF
330
1F
100
AcDbEntity
  8
SICHTBAR
100
AcDbCircle
 10
274.8298629621568
 20
68.82413983930451
 30
0.0001789211429077
 40
3.0
100
AcDbArc
 50
45.00000000011974
 51
134.9999999998802
  0
LINE
  5
4D0
330
1F
100
AcDbEntity
  8
SICHTBAR
100
AcDbLine
 10
263.0918860811071
 20
84.80475740747237
 30
0.0001789211429077
 11
260.5462973484173
 21
87.35034614016582
 31
0.0001789211429077
  0
LINE
  5
4D1
330
1F
100
AcDbEntity
  8
SICHTBAR
100
AcDbLine
 10
263.7989928622956
 20
85.51186418865905
 30
0.0001789211429077
 11
261.2534041296021
 21
88.05745292135247
 31
0.0001789211429077
  0
ARC
  5
4D2
330
1F
100
AcDbEntity
  8
SICHTBAR
100
AcDbCircle
 10
258.4249770048554
 20
85.22902579660581
 30
0.0001789211429077
 40
3.0
100
AcDbArc
 50
45.00000000011974
 51
134.9999999998802
  0
ARC
  5
4D3
330
1F
100
AcDbEntity
  8
SICHTBAR
100
AcDbCircle
 10
258.4249770048554
 20
85.22902579660581
 30
0.0001789211429077
 40
4.0
100
AcDbArc
 50
45.00000000011974
 51
134.9999999998802
  0
ARC
  5
4D4
330
1F
100
AcDbEntity
  8
SICHTBAR
100
AcDbCircle
 10
260.9705657375453
 20
82.68343706391055
 30
0.0001789211429077
 40
4.0
100
AcDbArc
 50
314.9999999998802
 51
45.00000000011974
  0
ARC
  5
4D5
330
1F
100
AcDbEntity
  8
SICHTBAR
100
AcDbCircle
 10
260.9705657375453
 20
82.68343706391055
 30
0.0001789211429077
 40
3.0
100
AcDbArc
 50
314.9999999998802
 51
45.00000000011974
  0
ARC
  5
4D6
330
1F
100
AcDbEntity
  8
SICHTBAR
100
AcDbCircle
 10
225.6152050973215
 20
118.0387977041362
 30
0.0001789211429077
 40
4.0
100
AcDbArc
 50
45.00000000011974
 51
134.9999999998802
  0
ARC
  5
4D7
330
1F
100
AcDbEntity
  8
SICHTBAR
100
AcDbCircle
 10
225.6152050973215
 20
118.0387977041362
 30
0.0001789211429077
 40
3.0
100
AcDbArc
 50
45.00000000011974
 51
135.0000076299527
  0
LINE
  5
4D8
330
1F
100
AcDbEntity
  8
SICHTBAR
100
AcDbLine
 10
198.1794382497101
 20
118.3216468866401
 30
0.0001789211429077
 11
195.6338495170166
 21
120.8672356193353
 31
0.0001789211429077
  0
LINE
  5
4D9
330
1F
100
AcDbEntity
  8
SICHTBAR
100
AcDbLine
 10
197.4723314685252
 20
117.6145401054552
 30
0.0001789211429077
 11
194.9267427358281
 21
120.1601288381487
 31
0.0001789211429077
  0
ARC
  5
4DA
330
1F
100
AcDbEntity
  8
SICHTBAR
100
AcDbCircle
 10
160.8441980463867
 20
117.1902609400119
 30
0.0001789211429077
 40
4.0
100
AcDbArc
 50
314.9999999998802
 51
45.00000000011974
  0
ARC
  5
4DB
330
1F
100
AcDbEntity
  8
SICHTBAR
100
AcDbCircle
 10
195.3510219154122
 20
115.4932089714445
 30
0.0001789211429077
 40
3.0
100
AcDbArc
 50
314.9999999998802
 51
45.00000000011974
  0
ARC
  5
4DC
330
1F
100
AcDbEntity
  8
SICHTBAR
100
AcDbCircle
 10
195.3510219154122
 20
115.4932089714445
 30
0.0001789211429077
 40
4.0
100
AcDbArc
 50
314.9999999998802
 51
45.00000000011974
  0
ARC
  5
4DD
330
1F
100
AcDbEntity
  8
SICHTBAR
100
AcDbCircle
 10
83.71030559739301
 20
97.30905120756574
 30
0.0001789211429077
 40
3.0
100
AcDbArc
 50
45.00000000011974
 51
180.0000057672451
  0
ARC
  5
4DE
330
1F
100
AcDbEntity
  8
SICHTBAR
100
AcDbCircle
 10
83.71030559739301
 20
97.30905120756574
 30
0.0001789211429077
 40
2.0
100
AcDbArc
 50
45.00000000011974
 51
180.0000057672451
  0
ARC
  5
4DF
330
1F
100
AcDbEntity
  8
SICHTBAR
100
AcDbCircle
 10
160.8441980463867
 20
117.1902609400119
 30
0.0001789211429077
 40
3.0
100
AcDbArc
 50
314.9999999998802
 51
45.00000000011974
  0
ARC
  5
4E0
330
1F
100
AcDbEntity
  8
SICHTBAR
100
AcDbCircle
 10
141.8937233634569
 20
98.23978625708765
 30
0.0001789211429077
 40
4.0
100
AcDbArc
 50
225.0000000001198
 51
314.9999999998802
  0
ARC
  5
4E1
330
1F
100
AcDbEntity
  8
SICHTBAR
100
AcDbCircle
 10
141.8937233634569
 20
98.23978625708765
 30
0.0001789211429077
 40
3.0
100
AcDbArc
 50
225.0000000001198
 51
314.9999999998802
  0
LINE
  5
4E2
330
1F
100
AcDbEntity
  8
SICHTBAR
100
AcDbLine
 10
144.0150329165699
 20
96.11847670397651
 30
0.0001789211429077
 11
146.5606216421911
 21
98.66406542959953
 31
0.0001789211429077
  0
LINE
  5
4E3
330
1F
100
AcDbEntity
  8
SICHTBAR
100
AcDbLine
 10
144.7221396977547
 20
95.41136992279167
 30
0.0001789211429077
 11
147.2677284233796
 21
97.95695864841286
 31
0.0001789211429077
  0
ARC
  5
4E4
330
1F
100
AcDbEntity
  8
SICHTBAR
100
AcDbCircle
 10
144.4393120890854
 20
100.7853749827088
 30
0.0001789211429077
 40
3.0
100
AcDbArc
 50
314.9999999998802
 51
45.00000000011974
  0
ARC
  5
4E5
330
1F
100
AcDbEntity
  8
SICHTBAR
100
AcDbCircle
 10
144.4393120890854
 20
100.7853749827088
 30
0.0001789211429077
 40
4.0
100
AcDbArc
 50
314.9999999998802
 51
45.00000000011974
  0
ARC
  5
4E6
330
1F
100
AcDbEntity
  8
SICHTBAR
100
AcDbCircle
 10
158.2986093136896
 20
114.6446722073167
 30
0.0001789211429077
 40
4.0
100
AcDbArc
 50
225.0000000001198
 51
314.9999999998802
  0
LINE
  5
4E7
330
1F
100
AcDbEntity
  8
SICHTBAR
100
AcDbLine
 10
161.1270256479838
 20
111.8162558730207
 30
0.0001789211429077
 11
163.6726143806809
 21
114.3618446057178
 31
0.0001789211429077
  0
ARC
  5
4E8
330
1F
100
AcDbEntity
  8
SICHTBAR
100
AcDbCircle
 10
158.2986093136896
 20
114.6446722073167
 30
0.0001789211429077
 40
3.0
100
AcDbArc
 50
225.0000000001198
 51
314.9999999998802
  0
LINE
  5
4E9
330
1F
100
AcDbEntity
  8
SICHTBAR
100
AcDbLine
 10
160.419918866799
 20
112.5233626542074
 30
0.0001789211429077
 11
162.965507599496
 21
115.0689513869026
 31
0.0001789211429077
  0
LINE
  5
4EA
330
1F
100
AcDbEntity
  8
SICHTBAR
100
AcDbLine
 10
176.8248048241039
 20
128.9282486115087
 30
0.0001789211429077
 11
179.3703935497251
 21
131.4738373371317
 31
0.0001789211429077
  0
LINE
  5
4EB
330
1F
100
AcDbEntity
  8
SICHTBAR
100
AcDbLine
 10
177.5319116052888
 20
128.221141830322
 30
0.0001789211429077
 11
180.0775003309099
 21
130.7667305559468
 31
0.0001789211429077
  0
ARC
  5
4EC
330
1F
100
AcDbEntity
  8
SICHTBAR
100
AcDbCircle
 10
174.7034952709946
 20
131.049558164618
 30
0.0001789211429077
 40
3.0
100
AcDbArc
 50
225.0000000001198
 51
314.9999999998802
  0
ARC
  5
4ED
330
1F
100
AcDbEntity
  8
SICHTBAR
100
AcDbCircle
 10
210.5788386396889
 20
151.8815726794698
 30
0.0001789211429077
 40
8.736283548959887
100
AcDbArc
 50
225.1171585571021
 51
262.2825459657581
  0
LINE
  5
4EE
330
1F
100
AcDbEntity
  8
SICHTBAR
100
AcDbLine
 10
202.4631340542291
 20
137.1788587674134
 30
0.0001789211429077
 11
198.2909894986878
 21
133.0067142118703
 31
0.0001789211429077
  0
LINE
  5
4EF
330
1F
100
AcDbEntity
  8
SICHTBAR
100
AcDbLine
 10
200.079051451059
 20
138.4150497468351
 30
0.0001789211429077
 11
197.098948197101
 21
135.4349464928752
 31
0.0001789211429077
  0
LINE
  5
4F0
330
1F
100
AcDbEntity
  8
SICHTBAR
100
AcDbLine
 10
200.079051451059
 20
138.4150497468351
 30
0.0001789211429077
 11
194.1188449431356
 21
141.5055271953849
 31
0.0001789211429077
  0
LINE
  5
4F1
330
1F
100
AcDbEntity
  8
SICHTBAR
100
AcDbLine
 10
189.819770063812
 20
143.5419310855948
 30
0.0001789211429077
 11
197.2865843279032
 21
126.1193644693801
 31
0.0001789211429077
  0
LINE
  5
4F2
330
1F
100
AcDbEntity
  8
SICHTBAR
100
AcDbLine
 10
200.2280566137561
 20
129.0608367552329
 30
0.0001789211429077
 11
197.2865843279032
 21
126.1193644693801
 31
0.0001789211429077
  0
LINE
  5
4F3
330
1F
100
AcDbEntity
  8
SICHTBAR
100
AcDbLine
 10
194.1188449431356
 20
141.5055271953849
 30
0.0001789211429077
 11
197.098948197101
 21
135.4349464928752
 31
0.0001789211429077
  0
LINE
  5
4F4
330
1F
100
AcDbEntity
  8
SICHTBAR
100
AcDbLine
 10
198.2909894986878
 20
133.0067142118703
 30
0.0001789211429077
 11
200.2280566137561
 21
129.0608367552329
 31
0.0001789211429077
  0
LINE
  5
4F5
330
1F
100
AcDbEntity
  8
SICHTBAR
100
AcDbLine
 10
209.9575418669701
 20
138.7903220084451
 30
0.0001789211429077
 11
206.3372682843801
 21
135.1700484258551
 31
0.0001789211429077
  0
LINE
  5
4F6
330
1F
100
AcDbEntity
  8
SICHTBAR
100
AcDbLine
 10
206.3372682843801
 20
135.1700484258551
 30
0.0001789211429077
 11
202.4631340542291
 21
137.1788587674134
 31
0.0001789211429077
  0
LWPOLYLINE
  5
4F7
330
1F
100
AcDbEntity
  8
SICHTBAR
100
AcDbPolyline
 90
        2
 70
     0
 43
0.0
 38
0.0001789211429077
 10
211.0105954666069
 20
143.0829449207292
 42
-0.0519500172180899
 10
209.4056600460935
 20
143.2244194386301
 42
-0.1013597558036335
  0
ARC
  5
4F8
330
1F
100
AcDbEntity
  8
SICHTBAR
100
AcDbCircle
 10
210.748178837639
 20
150.9371634634851
 30
0.0001789211429077
 40
7.858601109902287
100
AcDbArc
 50
271.9135925961215
 51
294.4650871806189
  0
ARC
  5
4F9
330
1F
100
AcDbEntity
  8
SICHTBAR
100
AcDbCircle
 10
192.8054331827188
 20
118.038797704138
 30
0.0001789211429077
 40
4.0
100
AcDbArc
 50
45.00000000011974
 51
134.9999999998802
  0
ARC
  5
4FA
330
1F
100
AcDbEntity
  8
SICHTBAR
100
AcDbCircle
 10
192.8054331827188
 20
118.038797704138
 30
0.0001789211429077
 40
3.0
100
AcDbArc
 50
45.00000000011974
 51
134.9999999998802
  0
ARC
  5
4FB
330
1F
100
AcDbEntity
  8
SICHTBAR
100
AcDbCircle
 10
177.2490839966158
 20
133.595146890241
 30
0.0001789211429077
 40
4.0
100
AcDbArc
 50
314.9999999998802
 51
45.00000000011974
  0
ARC
  5
4FC
330
1F
100
AcDbEntity
  8
SICHTBAR
100
AcDbCircle
 10
177.2490839966158
 20
133.595146890241
 30
0.0001789211429077
 40
3.0
100
AcDbArc
 50
314.9999999998802
 51
45.00000000011974
  0
LINE
  5
4FD
330
1F
100
AcDbEntity
  8
SICHTBAR
100
AcDbLine
 10
74.21028631638183
 20
125.0000433360317
 30
0.0001789211429077
 11
69.21030281005369
 21
125.0000430419702
 31
0.0001789211429077
  0
ARC
  5
4FE
330
1F
100
AcDbEntity
  8
SICHTBAR
100
AcDbCircle
 10
83.71030229485041
 20
130.1188264247073
 30
0.0001789211429077
 40
3.0
100
AcDbArc
 50
45.00000000011974
 51
180.0000057672451
  0
ARC
  5
4FF
330
1F
100
AcDbEntity
  8
SICHTBAR
100
AcDbCircle
 10
83.71030309201888
 20
122.1992210515516
 30
0.0001789211429077
 40
3.0
100
AcDbArc
 50
180.0000057672451
 51
225.0000000001198
  0
ARC
  5
500
330
1F
100
AcDbEntity
  8
SICHTBAR
100
AcDbCircle
 10
83.71030229485041
 20
130.1188264247073
 30
0.0001789211429077
 40
2.0
100
AcDbArc
 50
45.00000000011974
 51
180.0000057672451
  0
ARC
  5
501
330
1F
100
AcDbEntity
  8
SICHTBAR
100
AcDbCircle
 10
83.71030309201888
 20
122.1992210515516
 30
0.0001789211429077
 40
2.0
100
AcDbArc
 50
180.0000057672451
 51
225.0000000001198
  0
LINE
  5
502
330
1F
100
AcDbEntity
  8
SICHTBAR
100
AcDbLine
 10
81.7103022948504
 20
130.1188262233943
 30
0.0001789211429077
 11
81.71030309201887
 21
122.1992208502386
 31
0.0001789211429077
  0
LINE
  5
503
330
1F
100
AcDbEntity
  8
SICHTBAR
100
AcDbLine
 10
80.71030309201887
 20
122.199220749583
 30
0.0001789211429077
 11
80.71030229485405
 21
130.1188261227387
 31
0.0001789211429077
  0
ARC
  5
504
330
1F
100
AcDbEntity
  8
SICHTBAR
100
AcDbCircle
 10
74.21028601440776
 20
128.0000433360299
 30
0.0001789211429077
 40
3.0
100
AcDbArc
 50
270.0000057671409
 51
0.0
  0
ARC
  5
505
330
1F
100
AcDbEntity
  8
SICHTBAR
100
AcDbCircle
 10
174.7034952709946
 20
131.049558164618
 30
0.0001789211429077
 40
4.0
100
AcDbArc
 50
225.0000000001198
 51
314.9999999998802
  0
LINE
  5
506
330
1F
100
AcDbEntity
  8
SICHTBAR
100
AcDbLine
 10
230.2821033760556
 20
117.6145401125257
 30
0.0001789211429077
 11
227.7365146504308
 21
120.1601288381487
 31
0.0001789211429077
  0
LINE
  5
507
330
1F
100
AcDbEntity
  8
SICHTBAR
100
AcDbLine
 10
230.9892101572405
 20
118.3216468937123
 30
0.0001789211429077
 11
228.4436214316193
 21
120.8672356193335
 31
0.0001789211429077
  0
LINE
  5
508
330
1F
100
AcDbEntity
  8
SICHTBAR
100
AcDbLine
 10
337.7103417930994
 20
112.1812945253648
 30
0.0001789211429077
 11
337.7103425902678
 21
104.2616891380646
 31
0.0001789211429077
  0
LINE
  5
509
330
1F
100
AcDbEntity
  8
SICHTBAR
100
AcDbLine
 10
337.7101988081668
 20
112.1105071588579
 30
0.0001789211429077
 11
337.7101988081631
 21
104.1909025689244
 31
0.0001789187899081
  0
ARC
  5
50A
330
1F
100
AcDbEntity
  8
SICHTBAR
100
AcDbCircle
 10
334.7102831855083
 20
112.1104227815093
 30
0.0001786652337597
 40
2.0
210
-0.0000000005845429
220
-0.0000000005231817
230
1.0
100
AcDbArc
 50
0.0
 51
45.00000000011974
  0
LINE
  5
50B
330
1F
100
AcDbEntity
  8
SICHTBAR
100
AcDbLine
 10
336.7103425902678
 20
104.2616890374072
 30
0.0001789211429077
 11
336.710341793103
 21
112.1812944247074
 31
0.0001789211429077
  0
ARC
  5
50C
330
1F
100
AcDbEntity
  8
SICHTBAR
100
AcDbCircle
 10
334.7102831855082
 20
104.1908181914666
 30
0.0001789011799595
 40
2.0
210
-0.0000000000592882
220
0.0
230
1.0
100
AcDbArc
 50
225.0000000001198
 51
0.0
  0
ARC
  5
50D
330
1F
100
AcDbEntity
  8
SICHTBAR
100
AcDbCircle
 10
334.7101988081631
 20
104.1909025689207
 30
0.0001790423328481
 40
3.0
210
0.0000000002655924
220
0.0000000003248815
230
1.0
100
AcDbArc
 50
225.000000000129
 51
0.0
  0
LINE
  5
50E
330
1F
100
AcDbEntity
  8
SICHTBAR
100
AcDbLine
 10
336.7102831855082
 20
104.1908181914684
 30
0.0001789211429077
 11
336.7102831855082
 21
112.1104227815128
 31
0.0001789207094898
  0
ARC
  5
50F
330
1F
100
AcDbEntity
  8
SICHTBAR
100
AcDbCircle
 10
334.7101988081631
 20
112.1105071588542
 30
0.0001789050153701
 40
3.0
210
-0.0000000000613612
220
0.0
230
1.0
100
AcDbArc
 50
0.0
 51
45.00000000011974
  0
ARC
  5
510
330
1F
100
AcDbEntity
  8
SICHTBAR
100
AcDbCircle
 10
244.565679780244
 20
99.08832302121187
 30
0.0001789211429077
 40
4.0
100
AcDbArc
 50
314.9999999998802
 51
45.00000000011974
  0
LINE
  5
511
330
1F
100
AcDbEntity
  8
SICHTBAR
100
AcDbLine
 10
247.3941069049943
 20
101.9167501459603
 30
0.0001789211429077
 11
244.848518179373
 21
104.4623388715834
 31
0.0001789211429077
  0
ARC
  5
512
330
1F
100
AcDbEntity
  8
SICHTBAR
100
AcDbCircle
 10
242.0200910546264
 20
101.6339117468349
 30
0.0001789211429077
 40
4.0
100
AcDbArc
 50
45.00000000011974
 51
135.0000076299527
  0
ARC
  5
513
330
1F
100
AcDbEntity
  8
SICHTBAR
100
AcDbCircle
 10
242.0200910546264
 20
101.6339117468349
 30
0.0001789211429077
 40
3.0
100
AcDbArc
 50
45.00000000011974
 51
134.9999999998802
  0
ARC
  5
514
330
1F
100
AcDbEntity
  8
SICHTBAR
100
AcDbCircle
 10
244.565679780244
 20
99.08832302121187
 30
0.0001789211429077
 40
3.0
100
AcDbArc
 50
314.9999999998802
 51
45.00000000011974
  0
LINE
  5
515
330
1F
100
AcDbEntity
  8
SICHTBAR
100
AcDbLine
 10
246.6870001238058
 20
101.2096433647737
 30
0.0001789211429077
 11
244.1414113981846
 21
103.7552320903967
 31
0.0001789211429077
  0
ARC
  5
516
330
1F
100
AcDbEntity
  8
SICHTBAR
100
AcDbCircle
 10
228.1607938229427
 20
115.493208978515
 30
0.0001789211429077
 40
3.0
100
AcDbArc
 50
314.9999999998802
 51
45.00000000011974
  0
ARC
  5
517
330
1F
100
AcDbEntity
  8
SICHTBAR
100
AcDbCircle
 10
228.1607938229427
 20
115.493208978515
 30
0.0001789211429077
 40
4.0
100
AcDbArc
 50
314.9999999998802
 51
45.00000000011974
  0
ARC
  5
518
330
1F
100
AcDbEntity
  8
SICHTBAR
100
AcDbCircle
 10
243.5960686310791
 20
136.1908799443833
 30
0.0001789211429077
 40
3.0
100
AcDbArc
 50
45.00000000011974
 51
135.0000076299527
  0
ARC
  5
519
330
1F
100
AcDbEntity
  8
SICHTBAR
100
AcDbCircle
 10
243.5960686310791
 20
136.1908799443833
 30
0.0001789211429077
 40
4.0
100
AcDbArc
 50
45.00000000011974
 51
135.0000076299527
  0
LINE
  5
51A
330
1F
100
AcDbEntity
  8
SICHTBAR
100
AcDbLine
 10
240.7676307158836
 20
139.0193178595807
 30
0.0001789211429077
 11
238.2220419902587
 21
136.4737291339613
 31
0.0001789211429077
  0
ARC
  5
51B
330
1F
100
AcDbEntity
  8
SICHTBAR
100
AcDbCircle
 10
241.0504799054542
 20
133.645291218764
 30
0.0001789211429077
 40
4.0
100
AcDbArc
 50
134.9999999998802
 51
225.0000000001198
  0
ARC
  5
51C
330
1F
100
AcDbEntity
  8
SICHTBAR
100
AcDbCircle
 10
241.0504799054542
 20
133.645291218764
 30
0.0001789211429077
 40
3.0
100
AcDbArc
 50
134.9999999998802
 51
225.0000000001198
  0
LINE
  5
51D
330
1F
100
AcDbEntity
  8
SICHTBAR
100
AcDbLine
 10
241.4747374970684
 20
138.312211078394
 30
0.0001789211429077
 11
238.9291487714472
 21
135.7666223527747
 31
0.0001789211429077
  0
LINE
  5
51E
330
1F
100
AcDbEntity
  8
SICHTBAR
100
AcDbLine
 10
329.5325083406278
 20
131.7986371203885
 30
0.0001789482715842
 11
341.8474093878758
 21
131.7986371203885
 31
0.0001789211429077
  0
ARC
  5
51F
330
1F
100
AcDbEntity
  8
SICHTBAR
100
AcDbCircle
 10
330.5838479277736
 20
134.4985299246298
 30
0.0001789995717881
 40
2.0
100
AcDbArc
 50
180.0
 51
270.0
  0
ARC
  5
520
330
1F
100
AcDbEntity
  8
SICHTBAR
100
AcDbCircle
 10
348.2103096045957
 20
141.9985461021295
 30
0.0001826872182407
 40
2.0
210
0.0000000107537528
220
0.0000000000000017
230
1.0
100
AcDbArc
 50
0.0000092260341436
 51
90.00000935253167
  0
ARC
  5
521
330
1F
100
AcDbEntity
  8
SICHTBAR
100
AcDbCircle
 10
345.8474093878761
 20
141.2430347674843
 30
0.0001781695978022
 40
2.0
210
-0.000000002036612
220
-0.000000000905386
230
1.0
100
AcDbArc
 50
90.0
 51
180.0
  0
ARC
  5
522
330
1F
100
AcDbEntity
  8
SICHTBAR
100
AcDbCircle
 10
344.7960711207688
 20
141.9985455448166
 30
0.0001826859159933
 40
2.0
210
0.0000000107537528
220
0.0
230
1.0
100
AcDbArc
 50
90.00000935253167
 51
180.0
  0
ARC
  5
523
330
1F
100
AcDbEntity
  8
SICHTBAR
100
AcDbCircle
 10
341.8474093878758
 20
133.7986371203879
 30
0.0001780740939537
 40
2.0
210
0.0
220
-0.000000006853037
230
1.0
100
AcDbArc
 50
270.0
 51
0.0
  0
LINE
  5
524
330
1F
100
AcDbEntity
  8
SICHTBAR
 48
5.0
100
AcDbLine
 10
342.7960711207779
 20
141.9985455448138
 30
0.0001789995717881
 11
342.7960711207779
 21
134.4985299246334
 31
0.0001789995717881
  0
ARC
  5
525
330
1F
100
AcDbEntity
  8
SICHTBAR
100
AcDbCircle
 10
340.7960711207779
 20
134.4985299246316
 30
0.0001789995717881
 40
2.0
100
AcDbArc
 50
270.0
 51
0.0
  0
LINE
  5
526
330
1F
100
AcDbEntity
  8
SICHTBAR
100
AcDbLine
 10
330.5838479277773
 20
132.4985299246352
 30
0.0001789995717881
 11
340.7960711207779
 21
132.4985299246334
 31
0.0001789995717881
  0
LINE
  5
527
330
1F
100
AcDbEntity
  8
SICHTBAR
100
AcDbLine
 10
349.775955784884
 20
143.243034767486
 30
0.000178920258298
 11
345.8474093878758
 21
143.243034767486
 31
0.0001789122573734
  0
LINE
  5
528
330
1F
100
AcDbEntity
  8
SICHTBAR
 48
5.0
100
AcDbLine
 10
343.8474093878758
 20
141.243034767486
 30
0.0001789977610161
 11
343.8474093878758
 21
133.7986371203885
 31
0.0001789910209626
  0
LINE
  5
529
330
1F
100
AcDbEntity
  8
SICHTBAR
100
AcDbLine
 10
344.796070794313
 20
143.9985455448157
 30
0.0001789793662899
 11
348.2103092781435
 21
143.9985461021304
 31
0.0001789426504132
  0
ARC
  5
52A
330
1F
100
AcDbEntity
  8
SICHTBAR
 48
5.0
100
AcDbCircle
 10
329.5325083406195
 20
133.7986371203794
 30
0.000187463984023
 40
2.0
210
0.0000000258039141
220
0.0000000000947194
230
0.9999999999999996
100
AcDbArc
 50
180.0
 51
270.0
  0
LINE
  5
52B
330
1F
100
AcDbEntity
  8
SICHTBAR
100
AcDbLine
 10
279.2342568729
 20
204.6388616817174
 30
0.0001789211429077
 11
318.9160084597061
 21
164.9571100949058
 31
0.0001789211429077
  0
LINE
  5
52C
330
1F
100
AcDbEntity
  8
SICHTBAR
100
AcDbLine
 10
278.5271500917115
 20
203.9317549005307
 30
0.0001789211429077
 11
318.2089232594153
 21
164.2499817328159
 31
0.0001789211429077
  0
LINE
  5
52D
330
1F
100
AcDbEntity
  8
SICHTBAR
100
AcDbLine
 10
295.6391428302013
 20
221.0437476390187
 30
0.0001789211429077
 11
329.7632271747425
 21
186.9196632944756
 31
0.0001789277284596
  0
LINE
  5
52E
330
1F
100
AcDbEntity
  8
SICHTBAR
100
AcDbLine
 10
294.9320360490164
 20
220.336640857832
 30
0.0001789211429077
 11
329.0561635553495
 21
186.2125133514862
 31
0.0001789277284596
  0
LINE
  5
52F
330
1F
100
AcDbEntity
  8
SICHTBAR
100
AcDbLine
 10
287.4366998550831
 20
212.8413046639023
 30
0.0001789211429077
 11
324.1022519499165
 21
176.1757525690689
 31
0.0001789277284596
  0
LINE
  5
530
330
1F
100
AcDbEntity
  8
SICHTBAR
100
AcDbLine
 10
288.1438066362716
 20
213.548411445089
 30
0.0001789211429077
 11
324.8104732197898
 21
176.8817448615725
 31
0.0001789277284596
  0
ARC
  5
531
330
1F
100
AcDbEntity
  8
SICHTBAR
100
AcDbCircle
 10
273.8602518129773
 20
199.2648350408988
 30
0.0001789211429077
 40
3.0
100
AcDbArc
 50
134.9999999998802
 51
225.0000000001198
  0
ARC
  5
532
330
1F
100
AcDbEntity
  8
SICHTBAR
100
AcDbCircle
 10
273.8602518129773
 20
199.2648350408988
 30
0.0001789211429077
 40
4.0
100
AcDbArc
 50
134.9999999998802
 51
225.0000000001198
  0
ARC
  5
533
330
1F
100
AcDbEntity
  8
SICHTBAR
100
AcDbCircle
 10
173.854947716416
 20
200.9117534572531
 30
0.0001789211429077
 40
4.0
100
AcDbArc
 50
134.9999999998802
 51
225.0000000001198
  0
ARC
  5
534
330
1F
100
AcDbEntity
  8
SICHTBAR
100
AcDbCircle
 10
83.71029568977247
 20
195.7383768589959
 30
0.0001789211429077
 40
3.0
100
AcDbArc
 50
45.00000000011974
 51
180.0000057672451
  0
ARC
  5
535
330
1F
100
AcDbEntity
  8
SICHTBAR
100
AcDbCircle
 10
83.71029568977247
 20
195.7383768589959
 30
0.0001789211429077
 40
2.0
100
AcDbArc
 50
45.00000000011974
 51
180.0000057672451
  0
LINE
  5
536
330
1F
100
AcDbEntity
  8
SICHTBAR
100
AcDbLine
 10
171.7336273728579
 20
198.7904331136931
 30
0.0001789211429077
 11
174.2792160984791
 21
196.2448443880701
 31
0.0001789211429077
  0
LINE
  5
537
330
1F
100
AcDbEntity
  8
SICHTBAR
100
AcDbLine
 10
171.8750573628677
 20
161.0309137378542
 30
0.0001789211429077
 11
87.30504964118518
 21
245.6009214595367
 31
0.0001789211429077
  0
LINE
  5
538
330
1F
100
AcDbEntity
  8
SICHTBAR
100
AcDbLine
 10
172.5821641440525
 20
161.7380205190409
 30
0.0001789211429077
 11
88.01215642237366
 21
246.3080282407234
 31
0.0001789211429077
  0
ARC
  5
539
330
1F
100
AcDbEntity
  8
SICHTBAR
100
AcDbCircle
 10
225.6152050973251
 20
181.9612679909485
 30
0.0001789211429077
 40
4.0
100
AcDbArc
 50
225.0000000001198
 51
314.9999999998802
  0
ARC
  5
53A
330
1F
100
AcDbEntity
  8
SICHTBAR
100
AcDbCircle
 10
225.6152050973251
 20
181.9612679909485
 30
0.0001789211429077
 40
3.0
100
AcDbArc
 50
225.0000000001198
 51
314.9999999998802
  0
LWPOLYLINE
  5
53B
330
1F
100
AcDbEntity
  8
SICHTBAR
100
AcDbPolyline
 90
        7
 70
     0
 43
0.0
 38
0.0001789211429077
 10
225.3828209454659
 20
162.0412140365158
 42
-0.0670584297886837
 10
225.7160353223917
 20
160.9666735501766
 42
-0.1066948858357993
 10
225.6550732187025
 20
159.6367148370234
 42
-0.1325194462010016
 10
225.1174374940638
 20
158.7018267126884
 42
-0.1325194462010059
 10
224.1825493697324
 20
158.1641909880534
 42
-0.1066948858357993
 10
222.8525906565774
 20
158.1032288843623
 42
-0.0670584297886828
 10
221.77805017024
 20
158.4364432612917
 42
-0.028248404735318
  0
LWPOLYLINE
  5
53C
330
1F
100
AcDbEntity
  8
SICHTBAR
100
AcDbPolyline
 90
        7
 70
     0
 43
0.0
 38
0.0001789211429077
 10
229.7404707251044
 20
163.5768353635928
 42
-0.053198795980076
 10
229.8894195180765
 20
161.9339014575841
 42
-0.0972857867082609
 10
229.2475698068229
 20
158.9202528193661
 42
-0.0956883208354688
 10
227.4932420326368
 20
156.3260221741136
 42
-0.0956883208354695
 10
224.8990113873879
 20
154.5716943999311
 42
-0.0972857867082601
 10
221.8853627491699
 20
153.9298446886757
 42
-0.0531987959800785
 10
220.2424288431648
 20
154.0787934816514
 42
-0.1013597558036335
  0
ARC
  5
53D
330
1F
100
AcDbEntity
  8
SICHTBAR
100
AcDbCircle
 10
217.5370907596662
 20
158.8053015604098
 30
0.0001789211429077
 40
8.486849338911861
100
AcDbArc
 50
22.41333138063611
 51
66.99933928835834
  0
ARC
  5
53E
330
1F
100
AcDbEntity
  8
SICHTBAR
100
AcDbCircle
 10
221.0881877028732
 20
162.3682623409647
 30
0.0001789211429077
 40
8.736283548959887
100
AcDbArc
 50
7.951771148229018
 51
82.28254596575817
  0
ARC
  5
53F
330
1F
100
AcDbEntity
  8
SICHTBAR
100
AcDbCircle
 10
74.2102860144114
 20
172.0000436380021
 30
0.0001789211429077
 40
3.0
100
AcDbArc
 50
0.0
 51
90.0
  0
LWPOLYLINE
  5
540
330
1F
100
AcDbEntity
  8
SICHTBAR
100
AcDbPolyline
 90
        3
 70
     0
 43
0.0
 38
0.0001789211429077
 10
205.9584275864036
 20
153.3959409821006
 42
0.0112629929769452
 10
205.9788585347851
 20
153.2552939556433
 42
0.0729761852531503
 10
206.3549151115658
 20
152.0912398582902
 42
0.028248404735318
  0
LWPOLYLINE
  5
541
330
1F
100
AcDbEntity
  8
SICHTBAR
100
AcDbPolyline
 90
        3
 70
     0
 43
0.0
 38
0.0001789211429077
 10
212.11847040047
 20
147.2358981680324
 42
-0.0112629929769452
 10
211.9778233740144
 20
147.2563291164158
 42
-0.0729761852531503
 10
210.8137692766614
 20
147.6323856931965
 42
-0.028248404735318
  0
LWPOLYLINE
  5
542
330
1F
100
AcDbEntity
  8
SICHTBAR
100
AcDbPolyline
 90
        7
 70
     0
 43
0.0
 38
0.0001789211429077
 10
220.8532570658972
 20
166.6174493272381
 42
0.0729761852531519
 10
219.6892029685478
 20
166.9935059040206
 42
0.1066948858357993
 10
218.3592442553927
 20
166.9325438003313
 42
0.1325194462010016
 10
217.4243561310577
 20
166.3949080756927
 42
0.1325194462010059
 10
216.8867204064227
 20
165.4600199513613
 42
0.1066948858357993
 10
216.8257583027334
 20
164.1300612382063
 42
0.0729761852531503
 10
217.2018148795141
 20
162.9660071408514
 42
0.028248404735318
  0
LWPOLYLINE
  5
543
330
1F
100
AcDbEntity
  8
SICHTBAR
100
AcDbPolyline
 90
        7
 70
     0
 43
0.0
 38
0.0001789211429077
 10
222.261366296465
 20
171.0254155818027
 42
0.0519500172180873
 10
220.6564308759553
 20
171.1668900997072
 42
0.0972857867082609
 10
217.6427822377373
 20
170.5250403884499
 42
0.0956883208354688
 10
215.0485515924847
 20
168.7707126142675
 42
0.0956883208354695
 10
213.2942238183022
 20
166.1764819690186
 42
0.0972857867082601
 10
212.6523741070487
 20
163.1628333307987
 42
0.0519500172180899
 10
212.793848624955
 20
161.557897910289
 42
0.1013597558036335
  0
LINE
  5
544
330
1F
100
AcDbEntity
  8
SICHTBAR
100
AcDbLine
 10
209.0524734713217
 20
161.4170318996337
 30
0.0001789211429077
 11
210.1838089658813
 21
158.4755596137772
 31
0.0001789211429077
  0
LINE
  5
545
330
1F
100
AcDbEntity
  8
SICHTBAR
100
AcDbLine
 10
220.139561318003
 20
150.3299440529506
 30
0.0001789211429077
 11
217.1980890321502
 21
151.4612795475102
 31
0.0001789211429077
  0
ARC
  5
546
330
1F
100
AcDbEntity
  8
SICHTBAR
100
AcDbCircle
 10
209.7508203163525
 20
153.9213014096356
 30
0.0001789211429077
 40
3.828608911474687
100
AcDbArc
 50
130.781136022998
 51
187.8869919446509
  0
ARC
  5
547
330
1F
100
AcDbEntity
  8
SICHTBAR
100
AcDbCircle
 10
212.6505285706516
 20
150.6759470255808
 30
0.0001789211429077
 40
8.18038276210224
100
AcDbArc
 50
107.5501739168006
 51
132.2484006493827
  0
ARC
  5
548
330
1F
100
AcDbEntity
  8
SICHTBAR
100
AcDbCircle
 10
209.3984764439519
 20
153.9279991522842
 30
0.0001789211429077
 40
8.18038276210224
100
AcDbArc
 50
317.7515993507373
 51
342.4498260832229
  0
ARC
  5
549
330
1F
100
AcDbEntity
  8
SICHTBAR
100
AcDbCircle
 10
212.6438308280049
 20
151.0282908979832
 30
0.0001789211429077
 40
3.828608911474687
100
AcDbArc
 50
262.1130080553065
 51
319.2188639771207
  0
ARC
  5
54A
330
1F
100
AcDbEntity
  8
SICHTBAR
100
AcDbCircle
 10
225.013962646346
 20
166.2821734470915
 30
0.0001789211429077
 40
8.486849338911861
100
AcDbArc
 50
203.0006607116159
 51
247.5866686194709
  0
ARC
  5
54B
330
1F
100
AcDbEntity
  8
SICHTBAR
100
AcDbCircle
 10
221.4510018657893
 20
162.7310765038808
 30
0.0001789211429077
 40
8.736283548959887
100
AcDbArc
 50
187.717454034135
 51
262.0482288516864
  0
LWPOLYLINE
  5
54C
330
1F
100
AcDbEntity
  8
SICHTBAR
100
AcDbPolyline
 90
        2
 70
     0
 43
0.0
 38
0.0001789211429077
 10
201.8054743391003
 20
152.288066048234
 42
0.0519500172180899
 10
201.946948857003
 20
150.6831306277224
 42
0.1013597558036335
  0
ARC
  5
54D
330
1F
100
AcDbEntity
  8
SICHTBAR
100
AcDbCircle
 10
209.6596928818581
 20
152.0256494192679
 30
0.0001789211429077
 40
7.858601109902287
100
AcDbArc
 50
155.534912819394
 51
178.0864074038541
  0
ARC
  5
54E
330
1F
100
AcDbEntity
  8
SICHTBAR
100
AcDbCircle
 10
174.7034844876107
 20
163.8593408626009
 30
0.0001789211429077
 40
3.0
100
AcDbArc
 50
225.0000000001198
 51
314.9999999998802
  0
LINE
  5
54F
330
1F
100
AcDbEntity
  8
SICHTBAR
100
AcDbLine
 10
177.5319116123573
 20
161.030913737856
 30
0.0001789211429077
 11
180.0775003379822
 21
163.5765024634791
 31
0.0001789211429077
  0
ARC
  5
550
330
1F
100
AcDbEntity
  8
SICHTBAR
100
AcDbCircle
 10
177.2490732132355
 20
166.4049295882239
 30
0.0001789211429077
 40
4.0
100
AcDbArc
 50
314.9999999998802
 51
45.00000000011974
  0
ARC
  5
551
330
1F
100
AcDbEntity
  8
SICHTBAR
100
AcDbCircle
 10
177.2490732132355
 20
166.4049295882239
 30
0.0001789211429077
 40
3.0
100
AcDbArc
 50
314.9999999998802
 51
45.00000000011974
  0
LINE
  5
552
330
1F
100
AcDbEntity
  8
SICHTBAR
100
AcDbLine
 10
176.8248048311725
 20
161.7380205190427
 30
0.0001789211429077
 11
179.3703935567973
 21
164.2836092446657
 31
0.0001789211429077
  0
ARC
  5
553
330
1F
100
AcDbEntity
  8
SICHTBAR
100
AcDbCircle
 10
214.009452681239
 20
149.5703075702101
 30
0.0001789211429077
 40
12.84198272171798
100
AcDbArc
 50
112.7057091930744
 51
153.6005215039657
  0
ARC
  5
554
330
1F
100
AcDbEntity
  8
SICHTBAR
100
AcDbCircle
 10
214.1670628783977
 20
155.4074061645249
 30
0.0001789211429077
 40
8.486849338911861
100
AcDbArc
 50
203.0006607116159
 51
224.8227626903491
  0
ARC
  5
555
330
1F
100
AcDbEntity
  8
SICHTBAR
100
AcDbCircle
 10
214.129935582896
 20
155.4445334600266
 30
0.0001789211429077
 40
8.486849338911861
100
AcDbArc
 50
225.1772373097061
 51
246.9993392883583
  0
ARC
  5
556
330
1F
100
AcDbEntity
  8
SICHTBAR
100
AcDbCircle
 10
83.71029978947627
 20
155.008996268695
 30
0.0001789211429077
 40
3.0
100
AcDbArc
 50
180.0000057672451
 51
225.0000000001198
  0
ARC
  5
557
330
1F
100
AcDbEntity
  8
SICHTBAR
100
AcDbCircle
 10
83.71029978947627
 20
155.008996268695
 30
0.0001789211429077
 40
2.0
100
AcDbArc
 50
180.0000057672451
 51
225.0000000001198
  0
ARC
  5
558
330
1F
100
AcDbEntity
  8
SICHTBAR
100
AcDbCircle
 10
83.71029899231144
 20
162.9286016418507
 30
0.0001789211429077
 40
3.0
100
AcDbArc
 50
45.00000000011974
 51
180.0000057672451
  0
ARC
  5
559
330
1F
100
AcDbEntity
  8
SICHTBAR
100
AcDbCircle
 10
83.71029899231144
 20
162.9286016418507
 30
0.0001789211429077
 40
2.0
100
AcDbArc
 50
45.00000000011974
 51
180.0000057672451
  0
LINE
  5
55A
330
1F
100
AcDbEntity
  8
SICHTBAR
100
AcDbLine
 10
81.71029899231143
 20
162.9286014405359
 30
0.0001789211429077
 11
81.71029978947627
 21
155.008996067382
 31
0.0001789211429077
  0
LINE
  5
55B
330
1F
100
AcDbEntity
  8
SICHTBAR
100
AcDbLine
 10
80.7102997894799
 20
155.0089959667245
 30
0.0001789211429077
 11
80.71029899231508
 21
162.9286013398821
 31
0.0001789211429077
  0
ARC
  5
55C
330
1F
100
AcDbEntity
  8
SICHTBAR
100
AcDbCircle
 10
174.7034844876107
 20
163.8593408626009
 30
0.0001789211429077
 40
4.0
100
AcDbArc
 50
225.0000000001198
 51
314.9999999998802
  0
ARC
  5
55D
330
1F
100
AcDbEntity
  8
SICHTBAR
100
AcDbCircle
 10
223.0696055812514
 20
184.5068675070222
 30
0.0001789211429077
 40
3.0
100
AcDbArc
 50
134.9999999998802
 51
225.0000000001198
  0
ARC
  5
55E
330
1F
100
AcDbEntity
  8
SICHTBAR
100
AcDbCircle
 10
223.0696055812514
 20
184.5068675070222
 30
0.0001789211429077
 40
4.0
100
AcDbArc
 50
134.9999999998802
 51
225.0000000001198
  0
LINE
  5
55F
330
1F
100
AcDbEntity
  8
SICHTBAR
100
AcDbLine
 10
220.2411784565047
 20
181.6784403822755
 30
0.0001789211429077
 11
222.7867671821296
 21
179.1328516566525
 31
0.0001789211429077
  0
LINE
  5
560
330
1F
100
AcDbEntity
  8
SICHTBAR
100
AcDbLine
 10
220.9482852376896
 20
182.3855471634622
 30
0.0001789211429077
 11
223.4938739633144
 21
179.8399584378392
 31
0.0001789211429077
  0
ARC
  5
561
330
1F
100
AcDbEntity
  8
SICHTBAR
100
AcDbCircle
 10
176.4005364420372
 20
198.3661647316301
 30
0.0001789211429077
 40
4.0
100
AcDbArc
 50
225.0000000001198
 51
314.9999999998802
  0
ARC
  5
562
330
1F
100
AcDbEntity
  8
SICHTBAR
100
AcDbCircle
 10
176.4005364420372
 20
198.3661647316301
 30
0.0001789211429077
 40
3.0
100
AcDbArc
 50
225.0000000001198
 51
314.9999999998802
  0
ARC
  5
563
330
1F
100
AcDbEntity
  8
SICHTBAR
100
AcDbCircle
 10
190.2598336666451
 20
184.5068675070222
 30
0.0001789211429077
 40
3.0
100
AcDbArc
 50
134.9999999998802
 51
225.0000000001198
  0
ARC
  5
564
330
1F
100
AcDbEntity
  8
SICHTBAR
100
AcDbCircle
 10
190.2598336666451
 20
184.5068675070222
 30
0.0001789211429077
 40
4.0
100
AcDbArc
 50
134.9999999998802
 51
225.0000000001198
  0
LINE
  5
565
330
1F
100
AcDbEntity
  8
SICHTBAR
100
AcDbLine
 10
188.1385133230869
 20
182.3855471634622
 30
0.0001789211429077
 11
190.6841020557804
 21
179.8399584307688
 31
0.0001789211429077
  0
LINE
  5
566
330
1F
100
AcDbEntity
  8
SICHTBAR
100
AcDbLine
 10
187.4314065419021
 20
181.6784403822773
 30
0.0001789211429077
 11
189.9769952745955
 21
179.1328516495821
 31
0.0001789211429077
  0
ARC
  5
567
330
1F
100
AcDbEntity
  8
SICHTBAR
100
AcDbCircle
 10
192.8054223993385
 20
181.9612787743287
 30
0.0001789211429077
 40
4.0
100
AcDbArc
 50
225.0000000001198
 51
314.9999999998802
  0
ARC
  5
568
330
1F
100
AcDbEntity
  8
SICHTBAR
100
AcDbCircle
 10
192.8054223993385
 20
181.9612787743287
 30
0.0001789211429077
 40
3.0
100
AcDbArc
 50
225.0000000001198
 51
314.9999999998802
  0
ARC
  5
569
330
1F
100
AcDbEntity
  8
SICHTBAR
100
AcDbCircle
 10
83.71029648694094
 20
187.8187714716957
 30
0.0001789211429077
 40
3.0
100
AcDbArc
 50
180.0000057672451
 51
225.0000000001198
  0
ARC
  5
56A
330
1F
100
AcDbEntity
  8
SICHTBAR
100
AcDbCircle
 10
83.71029648694094
 20
187.8187714716957
 30
0.0001789211429077
 40
2.0
100
AcDbArc
 50
180.0000057672451
 51
225.0000000001198
  0
LINE
  5
56B
330
1F
100
AcDbEntity
  8
SICHTBAR
100
AcDbLine
 10
81.7102956897761
 20
195.7383766576829
 30
0.0001789211429077
 11
81.71029648694092
 21
187.8187712703827
 31
0.0001789211429077
  0
LINE
  5
56C
330
1F
100
AcDbEntity
  8
SICHTBAR
100
AcDbLine
 10
80.71029648694093
 20
187.8187711697271
 30
0.0001789211429077
 11
80.71029568977611
 21
195.7383765570236
 31
0.0001789211429077
  0
LINE
  5
56D
330
1F
100
AcDbEntity
  8
SICHTBAR
100
AcDbLine
 10
69.21029777719377
 20
175.0000436380021
 30
0.0001789211429077
 11
74.21028601441503
 21
175.0000436380021
 31
0.0001789211429077
  0
LINE
  5
56E
330
1F
100
AcDbEntity
  8
SICHTBAR
100
AcDbLine
 10
171.026520591673
 20
198.0833263325064
 30
0.0001789211429077
 11
173.5721093172906
 21
195.5377376068852
 31
0.0001789211429077
  0
ARC
  5
56F
330
1F
100
AcDbEntity
  8
SICHTBAR
100
AcDbCircle
 10
243.5960686310791
 20
169.0006518589878
 30
0.0001789211429077
 40
4.0
100
AcDbArc
 50
45.00000000011974
 51
135.0000076299527
  0
LINE
  5
570
330
1F
100
AcDbEntity
  8
SICHTBAR
100
AcDbLine
 10
271.0318138977818
 20
196.4364187066028
 30
0.0001789211429077
 11
313.2610088977926
 21
154.2072188589525
 31
0.0001789211429077
  0
LINE
  5
571
330
1F
100
AcDbEntity
  8
SICHTBAR
100
AcDbLine
 10
271.7389206789667
 20
197.1435254877895
 30
0.0001789211429077
 11
313.9676480189737
 21
154.9147946448727
 31
0.0001789211429077
  0
ARC
  5
572
330
1F
100
AcDbEntity
  8
SICHTBAR
100
AcDbCircle
 10
243.5960686310791
 20
169.0006518589878
 30
0.0001789211429077
 40
3.0
100
AcDbArc
 50
45.00000000011974
 51
135.0000076299527
  0
LINE
  5
573
330
1F
100
AcDbEntity
  8
SICHTBAR
100
AcDbLine
 10
241.474737497072
 20
171.1219829929985
 30
0.0001789211429077
 11
238.9291487714508
 21
168.5763942673773
 31
0.0001789211429077
  0
LINE
  5
574
330
1F
100
AcDbEntity
  8
SICHTBAR
100
AcDbLine
 10
240.7676307158836
 20
171.829089774187
 30
0.0001789211429077
 11
238.222041990266
 21
169.2835010485639
 31
0.0001789211429077
  0
ARC
  5
575
330
1F
100
AcDbEntity
  8
SICHTBAR
100
AcDbCircle
 10
241.0504799054615
 20
166.4550631333666
 30
0.0001789211429077
 40
4.0
100
AcDbArc
 50
134.9999999998802
 51
225.0000000001198
  0
ARC
  5
576
330
1F
100
AcDbEntity
  8
SICHTBAR
100
AcDbCircle
 10
241.0504799054615
 20
166.4550631333666
 30
0.0001789211429077
 40
3.0
100
AcDbArc
 50
134.9999999998802
 51
225.0000000001198
  0
ARC
  5
577
330
1F
100
AcDbEntity
  8
SICHTBAR
 48
5.0
100
AcDbCircle
 10
341.8474093878732
 20
166.2011675131585
 30
0.0001772703541046
 40
2.0
210
-0.0000000052788937
220
0.0000000008813104
230
1.0
100
AcDbArc
 50
0.0
 51
90.0
  0
ARC
  5
578
330
1F
100
AcDbEntity
  8
SICHTBAR
100
AcDbCircle
 10
329.5325083406278
 20
166.2011675131619
 30
0.0001793897758504
 40
2.0
210
0.0
220
0.0000000023655371
230
1.0
100
AcDbArc
 50
90.0
 51
180.0
  0
LINE
  5
579
330
1F
100
AcDbEntity
  8
SICHTBAR
100
AcDbLine
 10
329.5325083406278
 20
168.2011675131623
 30
0.0001789211429077
 11
341.8474093878758
 21
168.2011675131641
 31
0.0001789266928107
  0
ARC
  5
57A
330
1F
100
AcDbEntity
  8
SICHTBAR
100
AcDbCircle
 10
330.5838479277736
 20
165.4985299246334
 30
0.0001789995717881
 40
2.0
100
AcDbArc
 50
90.0
 51
180.0
  0
ARC
  5
57B
330
1F
100
AcDbEntity
  8
SICHTBAR
100
AcDbCircle
 10
340.7960711207779
 20
165.4985299246316
 30
0.0001789995717881
 40
2.0
100
AcDbArc
 50
0.0
 51
90.0
  0
LINE
  5
57C
330
1F
100
AcDbEntity
  8
SICHTBAR
100
AcDbLine
 10
330.5838479277773
 20
167.4985299246334
 30
0.0001789995717881
 11
340.7960711207779
 21
167.4985299246352
 31
0.0001789995717881
  0
LINE
  5
57D
330
1F
100
AcDbEntity
  8
SICHTBAR
100
AcDbLine
 10
320.0875856557396
 20
157.0375055189113
 30
0.0001789256049324
 11
320.0875856557396
 21
162.1286829701555
 31
0.0001789256049324
  0
LINE
  5
57E
330
1F
100
AcDbEntity
  8
SICHTBAR
100
AcDbLine
 10
319.0876061564413
 20
157.0374623500418
 30
0.0001789256049324
 11
319.0876061635172
 21
162.1286829701573
 31
0.0001789256049324
  0
ARC
  5
57F
330
1F
100
AcDbEntity
  8
SICHTBAR
100
AcDbCircle
 10
316.0875813349558
 20
162.1286829701537
 30
0.0001789256049324
 40
4.0
100
AcDbArc
 50
0.0
 51
45.00000000011974
  0
ARC
  5
580
330
1F
100
AcDbEntity
  8
SICHTBAR
100
AcDbCircle
 10
316.0876029158535
 20
162.1286613892559
 30
0.0001789256049324
 40
3.0
100
AcDbArc
 50
0.0004272500312794
 51
45.00000000011974
  0
ARC
  5
581
330
1F
100
AcDbEntity
  8
SICHTBAR
100
AcDbCircle
 10
316.087581342028
 20
157.0375055118391
 30
0.0001789256049324
 40
4.000004289999999
100
AcDbArc
 50
225.0000000001198
 51
0.0
  0
ARC
  5
582
330
1F
100
AcDbEntity
  8
SICHTBAR
100
AcDbCircle
 10
316.0876029229257
 20
157.0374839309395
 30
0.0001789256049324
 40
3.0000031
100
AcDbArc
 50
224.9999847399656
 51
359.9995727500208
  0
LINE
  5
583
330
1F
100
AcDbEntity
  8
SICHTBAR
100
AcDbLine
 10
320.0797303719046
 20
162.3791746203267
 30
0.0001789211429077
 11
320.0812173413651
 21
162.377687650868
 31
0.0001789211429077
  0
ARC
  5
584
330
1F
100
AcDbEntity
  8
SICHTBAR
100
AcDbCircle
 10
348.2103070281973
 20
157.9985464285982
 30
0.0001825781659176
 40
2.0
210
0.0000000107537556
220
-0.0000000003839888
230
1.0
100
AcDbArc
 50
270.0
 51
0.0000092260341436
  0
ARC
  5
585
330
1F
100
AcDbEntity
  8
SICHTBAR
100
AcDbCircle
 10
345.8474093878722
 20
158.7540580897061
 30
0.0001777236854101
 40
2.0
210
0.0
220
-0.0000000081855156
230
1.0
100
AcDbArc
 50
180.0
 51
270.0
  0
ARC
  5
586
330
1F
100
AcDbEntity
  8
SICHTBAR
100
AcDbCircle
 10
344.7960711207652
 20
157.9985464285981
 30
0.00018268591697
 40
2.0
210
0.0000000107537556
220
0.0
230
1.0
100
AcDbArc
 50
180.0
 51
270.0
  0
LINE
  5
587
330
1F
100
AcDbEntity
  8
SICHTBAR
100
AcDbLine
 10
349.775953467979
 20
156.7540580897046
 30
0.0001789211429077
 11
345.8474093878758
 21
156.7540580897064
 31
0.0001789211429077
  0
LINE
  5
588
330
1F
100
AcDbEntity
  8
SICHTBAR
100
AcDbLine
 10
344.7960711207779
 20
155.9985464285971
 30
0.0001789302149245
 11
348.2103070282101
 21
155.9985464285971
 31
0.0001788934990659
  0
LINE
  5
589
330
1F
100
AcDbEntity
  8
SICHTBAR
 48
5.0
100
AcDbLine
 10
343.8474093878758
 20
166.2011675131641
 30
0.0001789984723697
 11
343.8474093878758
 21
158.7540580897064
 31
0.0001790231692367
  0
LINE
  5
58A
330
1F
100
AcDbEntity
  8
SICHTBAR
 48
5.0
100
AcDbLine
 10
342.7960711207779
 20
165.4985299246352
 30
0.0001789995717881
 11
342.7960711207779
 21
157.9985464285971
 31
0.0001789995717881
  0
ARC
  5
58B
330
1F
100
AcDbEntity
  8
SICHTBAR
100
AcDbCircle
 10
260.0009545883695
 20
185.4055378162945
 30
0.0001789211429077
 40
3.0
100
AcDbArc
 50
45.00000000011974
 51
135.0000076299527
  0
ARC
  5
58C
330
1F
100
AcDbEntity
  8
SICHTBAR
100
AcDbCircle
 10
260.0009545883695
 20
185.4055378162945
 30
0.0001789211429077
 40
4.0
100
AcDbArc
 50
45.00000000011974
 51
135.0000076299527
  0
ARC
  5
58D
330
1F
100
AcDbEntity
  8
SICHTBAR
100
AcDbCircle
 10
257.455365855676
 20
182.8599490835993
 30
0.0001789211429077
 40
3.0
100
AcDbArc
 50
134.9999999998802
 51
225.0000000001198
  0
LINE
  5
58E
330
1F
100
AcDbEntity
  8
SICHTBAR
100
AcDbLine
 10
257.1725166731776
 20
188.2339757314901
 30
0.0001789211429077
 11
254.6269279404805
 21
185.6883869987948
 31
0.0001789211429077
  0
LINE
  5
58F
330
1F
100
AcDbEntity
  8
SICHTBAR
100
AcDbLine
 10
257.8796234543625
 20
187.5268689503034
 30
0.0001789211429077
 11
255.3340347216654
 21
184.98128021761
 31
0.0001789211429077
  0
ARC
  5
590
330
1F
100
AcDbEntity
  8
SICHTBAR
100
AcDbCircle
 10
257.455365855676
 20
182.8599490835993
 30
0.0001789211429077
 40
4.0
100
AcDbArc
 50
134.9999999998802
 51
225.0000000001198
  0
LINE
  5
591
330
1F
100
AcDbEntity
  8
SICHTBAR
100
AcDbLine
 10
330.9348259445615
 20
179.0000371304747
 30
0.0001789277284596
 11
330.9348259516337
 21
184.0912577505867
 31
0.0001789277284596
  0
LINE
  5
592
330
1F
100
AcDbEntity
  8
SICHTBAR
100
AcDbLine
 10
329.9348464452632
 20
178.999993975746
 30
0.0001789277284596
 11
329.9348464452705
 21
184.0912145887912
 31
0.0001789277284596
  0
ARC
  5
593
330
1F
100
AcDbEntity
  8
SICHTBAR
100
AcDbCircle
 10
326.9348000499522
 20
184.0912361696908
 30
0.0001789277284596
 40
4.0
100
AcDbArc
 50
0.0003051800454108
 51
45.00000000011974
  0
ARC
  5
594
330
1F
100
AcDbEntity
  8
SICHTBAR
100
AcDbCircle
 10
326.9348432117549
 20
184.0911930078917
 30
0.0001789277284596
 40
3.0
100
AcDbArc
 50
0.0004272500312794
 51
45.00000000011974
  0
ARC
  5
595
330
1F
100
AcDbEntity
  8
SICHTBAR
100
AcDbCircle
 10
326.9348216308499
 20
179.0000371375433
 30
0.0001789277284596
 40
4.000004289999999
100
AcDbArc
 50
224.9160838132631
 51
0.0
  0
ARC
  5
596
330
1F
100
AcDbEntity
  8
SICHTBAR
100
AcDbCircle
 10
326.9348432117476
 20
179.0000155566438
 30
0.0001789277284596
 40
3.0000031
100
AcDbArc
 50
224.9176306091875
 51
359.9995727500208
  0
LINE
  5
597
330
1F
100
AcDbEntity
  8
SICHTBAR
100
AcDbLine
 10
81.71029318439833
 20
220.6285464875243
 30
0.0001789211429077
 11
81.71029238723713
 21
228.5481518606819
 31
0.0001789211429077
  0
LINE
  5
598
330
1F
100
AcDbEntity
  8
SICHTBAR
100
AcDbLine
 10
80.71029318440196
 20
220.6285463868687
 30
0.0001789211429077
 11
80.71029238723713
 21
228.5481517600262
 31
0.0001789211429077
  0
ARC
  5
599
330
1F
100
AcDbEntity
  8
SICHTBAR
100
AcDbCircle
 10
159.9956504847359
 20
214.7710506889314
 30
0.0001789211429077
 40
3.0
100
AcDbArc
 50
225.0000000001198
 51
314.9999999998802
  0
ARC
  5
59A
330
1F
100
AcDbEntity
  8
SICHTBAR
100
AcDbCircle
 10
159.9956504847359
 20
214.7710506889314
 30
0.0001789211429077
 40
4.0
100
AcDbArc
 50
225.0000000001198
 51
314.9999999998802
  0
ARC
  5
59B
330
1F
100
AcDbEntity
  8
SICHTBAR
100
AcDbCircle
 10
173.854947716416
 20
200.9117534572531
 30
0.0001789211429077
 40
3.0
100
AcDbArc
 50
134.9999999998802
 51
225.0000000001198
  0
ARC
  5
59C
330
1F
100
AcDbEntity
  8
SICHTBAR
100
AcDbCircle
 10
83.71029318439832
 20
220.6285466888392
 30
0.0001789211429077
 40
3.0
100
AcDbArc
 50
180.0000057672451
 51
225.0000000001198
  0
ARC
  5
59D
330
1F
100
AcDbEntity
  8
SICHTBAR
100
AcDbCircle
 10
83.71029318439832
 20
220.6285466888392
 30
0.0001789211429077
 40
2.0
100
AcDbArc
 50
180.0000057672451
 51
225.0000000001198
  0
ARC
  5
59E
330
1F
100
AcDbEntity
  8
SICHTBAR
100
AcDbCircle
 10
157.4500617591147
 20
217.3166394145544
 30
0.0001789211429077
 40
4.0
100
AcDbArc
 50
134.9999999998802
 51
225.0000000001198
  0
ARC
  5
59F
330
1F
100
AcDbEntity
  8
SICHTBAR
100
AcDbCircle
 10
157.4500617591147
 20
217.3166394145544
 30
0.0001789211429077
 40
3.0
100
AcDbArc
 50
134.9999999998802
 51
225.0000000001198
  0
LINE
  5
5A0
330
1F
100
AcDbEntity
  8
SICHTBAR
100
AcDbLine
 10
155.3287414155566
 20
215.1953190709962
 30
0.0001789211429077
 11
157.8743301411777
 21
212.6497303453732
 31
0.0001789211429077
  0
LINE
  5
5A1
330
1F
100
AcDbEntity
  8
SICHTBAR
100
AcDbLine
 10
154.6216346343681
 20
214.4882122898096
 30
0.0001789211429077
 11
157.1672233599893
 21
211.9426235641865
 31
0.0001789211429077
  0
ARC
  5
5A2
330
1F
100
AcDbEntity
  8
SICHTBAR
100
AcDbCircle
 10
127.1858785772056
 20
247.5808225964636
 30
0.0001789211429077
 40
4.0
100
AcDbArc
 50
225.0000000001198
 51
314.9999999998802
  0
LINE
  5
5A3
330
1F
100
AcDbEntity
  8
SICHTBAR
100
AcDbLine
 10
121.8118627197655
 20
247.2979842044122
 30
0.0001789211429077
 11
124.3574514524589
 21
244.7523954717187
 31
0.0001789211429077
  0
ARC
  5
5A4
330
1F
100
AcDbEntity
  8
SICHTBAR
100
AcDbCircle
 10
127.1858785772056
 20
247.5808225964636
 30
0.0001789211429077
 40
3.0
100
AcDbArc
 50
225.0000000001198
 51
314.9999999998802
  0
LINE
  5
5A5
330
1F
100
AcDbEntity
  8
SICHTBAR
100
AcDbLine
 10
122.518969500954
 20
248.0050909855988
 30
0.0001789211429077
 11
125.0645582336437
 21
245.4595022529054
 31
0.0001789211429077
  0
ARC
  5
5A6
330
1F
100
AcDbEntity
  8
SICHTBAR
100
AcDbCircle
 10
141.0451758018134
 20
233.7215253718557
 30
0.0001789211429077
 40
4.0
100
AcDbArc
 50
134.9999999998802
 51
225.0000000001198
  0
ARC
  5
5A7
330
1F
100
AcDbEntity
  8
SICHTBAR
100
AcDbCircle
 10
141.0451758018134
 20
233.7215253718557
 30
0.0001789211429077
 40
3.0
100
AcDbArc
 50
134.9999999998802
 51
225.0000000001198
  0
LINE
  5
5A8
330
1F
100
AcDbEntity
  8
SICHTBAR
100
AcDbLine
 10
138.9238554582552
 20
231.6002050282975
 30
0.0001789211429077
 11
141.4694441838765
 21
229.0546163026745
 31
0.0001789211429077
  0
ARC
  5
5A9
330
1F
100
AcDbEntity
  8
SICHTBAR
100
AcDbCircle
 10
83.71029238723712
 20
228.5481520619949
 30
0.0001789211429077
 40
3.0
100
AcDbArc
 50
45.00000000011974
 51
180.0000057672451
  0
ARC
  5
5AA
330
1F
100
AcDbEntity
  8
SICHTBAR
100
AcDbCircle
 10
83.71029238723712
 20
228.5481520619949
 30
0.0001789211429077
 40
2.0
100
AcDbArc
 50
45.00000000011974
 51
180.0000057672451
  0
ARC
  5
5AB
330
1F
100
AcDbEntity
  8
SICHTBAR
100
AcDbCircle
 10
143.5907645274346
 20
231.1759366462327
 30
0.0001789211429077
 40
4.0
100
AcDbArc
 50
225.0000000001198
 51
314.9999999998802
  0
ARC
  5
5AC
330
1F
100
AcDbEntity
  8
SICHTBAR
100
AcDbCircle
 10
143.5907645274346
 20
231.1759366462327
 30
0.0001789211429077
 40
3.0
100
AcDbArc
 50
225.0000000001198
 51
314.9999999998802
  0
LINE
  5
5AD
330
1F
100
AcDbEntity
  8
SICHTBAR
100
AcDbLine
 10
138.2167486770668
 20
230.8930982471109
 30
0.0001789211429077
 11
140.762337402688
 21
228.3475095214878
 31
0.0001789211429077
  0
LINE
  5
5AE
330
1F
100
AcDbEntity
  8
SICHTBAR
100
AcDbLine
 10
303.8415858124063
 20
229.2461906211999
 30
0.0001789211429077
 11
332.5888784646086
 21
200.498897968994
 31
0.0001789211429077
  0
LINE
  5
5AF
330
1F
100
AcDbEntity
  8
SICHTBAR
100
AcDbLine
 10
312.0440287875244
 20
237.4486335963108
 30
0.0001789211429077
 11
336.831519151725
 21
212.6611432321031
 31
0.0001789211429077
  0
LINE
  5
5B0
330
1F
100
AcDbEntity
  8
SICHTBAR
100
AcDbLine
 10
311.336922006336
 20
236.7415268151242
 30
0.0001789211429077
 11
336.1244967478851
 21
211.953952073575
 31
0.0001789211429077
  0
LINE
  5
5B1
330
1F
100
AcDbEntity
  8
SICHTBAR
100
AcDbLine
 10
304.5486925935911
 20
229.9532974023866
 30
0.0001789211429077
 11
333.2960696231385
 21
201.2059203728356
 31
0.0001789211429077
  0
LINE
  5
5B2
330
1F
100
AcDbEntity
  8
SICHTBAR
100
AcDbLine
 10
336.7103326826509
 20
202.6910146888374
 30
0.0001789211429077
 11
336.7103318854861
 21
210.6106200619931
 31
0.0001789211429077
  0
LINE
  5
5B3
330
1F
100
AcDbEntity
  8
SICHTBAR
100
AcDbLine
 10
337.7103318854861
 20
210.6106201626505
 30
0.0001789211429077
 11
337.7103326826473
 21
202.691014789493
 31
0.0001789211429077
  0
ARC
  5
5B4
330
1F
100
AcDbEntity
  8
SICHTBAR
100
AcDbCircle
 10
334.7102831855118
 20
210.5397385111999
 30
0.0001789211429077
 40
2.0
100
AcDbArc
 50
0.0
 51
45.00000000011974
  0
ARC
  5
5B5
330
1F
100
AcDbEntity
  8
SICHTBAR
100
AcDbCircle
 10
334.7102831855118
 20
202.6201339352072
 30
0.0001789211429077
 40
2.0
100
AcDbArc
 50
225.0000000001198
 51
0.0
  0
ARC
  5
5B6
330
1F
100
AcDbEntity
  8
SICHTBAR
100
AcDbCircle
 10
334.7101988081667
 20
202.6202183125522
 30
0.0001789211429077
 40
3.0
100
AcDbArc
 50
225.0000000001198
 51
0.0
  0
ARC
  5
5B7
330
1F
100
AcDbEntity
  8
SICHTBAR
100
AcDbCircle
 10
334.7101988081631
 20
210.5398228885431
 30
0.0001789211429077
 40
3.0
100
AcDbArc
 50
0.0
 51
45.00000000011974
  0
LINE
  5
5B8
330
1F
100
AcDbEntity
  8
SICHTBAR
100
AcDbLine
 10
336.7102831855082
 20
202.6201339352072
 30
0.0001789211429077
 11
336.7102831855082
 21
210.5397385111999
 31
0.0001789211429077
  0
LINE
  5
5B9
330
1F
100
AcDbEntity
  8
SICHTBAR
100
AcDbLine
 10
337.7101988081668
 20
210.5398228885467
 30
0.0001789211429077
 11
337.7101988081631
 21
202.6202183125522
 31
0.0001789211429077
  0
LINE
  5
5BA
330
1F
100
AcDbEntity
  8
SICHTBAR
100
AcDbLine
 10
289.9822885807079
 20
221.0437476390187
 30
0.0001789211429077
 11
287.4366998550831
 21
218.4981589133956
 31
0.0001789211429077
  0
LINE
  5
5BB
330
1F
100
AcDbEntity
  8
SICHTBAR
100
AcDbLine
 10
290.6893953618928
 20
220.336640857832
 30
0.0001789211429077
 11
288.1438066362716
 21
217.791052132209
 31
0.0001789211429077
  0
ARC
  5
5BC
330
1F
100
AcDbEntity
  8
SICHTBAR
100
AcDbCircle
 10
292.8107264959035
 20
218.2153097238213
 30
0.0001789211429077
 40
3.0
100
AcDbArc
 50
45.00000000011974
 51
135.0000076299527
  0
ARC
  5
5BD
330
1F
100
AcDbEntity
  8
SICHTBAR
100
AcDbCircle
 10
292.8107264959035
 20
218.2153097238213
 30
0.0001789211429077
 40
4.0
100
AcDbArc
 50
45.00000000011974
 51
135.0000076299527
  0
ARC
  5
5BE
330
1F
100
AcDbEntity
  8
SICHTBAR
100
AcDbCircle
 10
290.2651377702787
 20
215.6697209981983
 30
0.0001789211429077
 40
4.0
100
AcDbArc
 50
134.9999999998802
 51
225.0000000001198
  0
ARC
  5
5BF
330
1F
100
AcDbEntity
  8
SICHTBAR
100
AcDbCircle
 10
290.2651377702787
 20
215.6697209981983
 30
0.0001789211429077
 40
3.0
100
AcDbArc
 50
134.9999999998802
 51
225.0000000001198
  0
ARC
  5
5C0
330
1F
100
AcDbEntity
  8
SICHTBAR
100
AcDbCircle
 10
276.4058405386022
 20
201.8104237665218
 30
0.0001789211429077
 40
4.0
100
AcDbArc
 50
45.00000000011974
 51
135.0000076299527
  0
ARC
  5
5C1
330
1F
100
AcDbEntity
  8
SICHTBAR
100
AcDbCircle
 10
276.4058405386022
 20
201.8104237665218
 30
0.0001789211429077
 40
3.0
100
AcDbArc
 50
45.00000000011974
 51
135.0000076299527
  0
LINE
  5
5C2
330
1F
100
AcDbEntity
  8
SICHTBAR
100
AcDbLine
 10
274.2845094045915
 20
203.9317549005307
 30
0.0001789211429077
 11
271.7389206789667
 21
201.3861661749095
 31
0.0001789211429077
  0
LINE
  5
5C3
330
1F
100
AcDbEntity
  8
SICHTBAR
100
AcDbLine
 10
273.5774026234067
 20
204.6388616817174
 30
0.0001789211429077
 11
271.0318138977818
 21
202.0932729560943
 31
0.0001789211429077
  0
LINE
  5
5C4
330
1F
100
AcDbEntity
  8
SICHTBAR
100
AcDbLine
 10
320.2464717626426
 20
245.6510765714254
 30
0.0001789211429077
 11
332.5888784646086
 21
233.3086698694594
 31
0.0001789211429077
  0
LINE
  5
5C5
330
1F
100
AcDbEntity
  8
SICHTBAR
100
AcDbLine
 10
320.9535785438275
 20
246.3581833526121
 30
0.0001789211429077
 11
333.2960696231385
 21
234.0156922733011
 31
0.0001789211429077
  0
LINE
  5
5C6
330
1F
100
AcDbEntity
  8
SICHTBAR
100
AcDbLine
 10
336.710329380112
 20
235.5007898918382
 30
0.0001789211429077
 11
336.7103285829435
 21
243.4203952791347
 31
0.0001789211429077
  0
LINE
  5
5C7
330
1F
100
AcDbEntity
  8
SICHTBAR
100
AcDbLine
 10
337.7103285829435
 20
243.4203953797939
 30
0.0001789211429077
 11
337.7103293801119
 21
235.5007899924956
 31
0.0001789211429077
  0
ARC
  5
5C8
330
1F
100
AcDbEntity
  8
SICHTBAR
100
AcDbCircle
 10
334.7102831855082
 20
243.3495104258043
 30
0.0001789211429077
 40
2.0
100
AcDbArc
 50
0.0
 51
45.00000000011974
  0
ARC
  5
5C9
330
1F
100
AcDbEntity
  8
SICHTBAR
100
AcDbCircle
 10
334.7102831855118
 20
235.4299058356726
 30
0.0001789211429077
 40
2.0
100
AcDbArc
 50
225.0000000001198
 51
0.0
  0
ARC
  5
5CA
330
1F
100
AcDbEntity
  8
SICHTBAR
100
AcDbCircle
 10
334.7101988081667
 20
235.4299902130176
 30
0.0001789211429077
 40
3.0
100
AcDbArc
 50
225.0000000001198
 51
0.0
  0
ARC
  5
5CB
330
1F
100
AcDbEntity
  8
SICHTBAR
100
AcDbCircle
 10
334.7101988081631
 20
243.3495948031493
 30
0.0001789211429077
 40
3.0
100
AcDbArc
 50
0.0
 51
45.00000000011974
  0
LINE
  5
5CC
330
1F
100
AcDbEntity
  8
SICHTBAR
100
AcDbLine
 10
336.7102831855082
 20
243.3495104258079
 30
0.0001789211429077
 11
336.7102831855082
 21
235.4299058356726
 31
0.0001789211429077
  0
LINE
  5
5CD
330
1F
100
AcDbEntity
  8
SICHTBAR
100
AcDbLine
 10
337.7101988081631
 20
235.4299902130176
 30
0.0001789211429077
 11
337.7101988081668
 21
243.349594803153
 31
0.0001789211429077
  0
ARC
  5
5CE
330
1F
100
AcDbEntity
  8
SICHTBAR
100
AcDbCircle
 10
306.6700237276018
 20
232.0746069554941
 30
0.0001789211429077
 40
4.0
100
AcDbArc
 50
134.9999999998802
 51
225.0000000001198
  0
LINE
  5
5CF
330
1F
100
AcDbEntity
  8
SICHTBAR
100
AcDbLine
 10
306.3871745380311
 20
237.4486335963108
 30
0.0001789211429077
 11
303.8415858124063
 21
234.9030448706896
 31
0.0001789211429077
  0
ARC
  5
5D0
330
1F
100
AcDbEntity
  8
SICHTBAR
100
AcDbCircle
 10
309.215612453223
 20
234.6201956811153
 30
0.0001789211429077
 40
4.0
100
AcDbArc
 50
45.00000000011974
 51
135.0000076299527
  0
ARC
  5
5D1
330
1F
100
AcDbEntity
  8
SICHTBAR
100
AcDbCircle
 10
306.6700237276018
 20
232.0746069554941
 30
0.0001789211429077
 40
3.0
100
AcDbArc
 50
134.9999999998802
 51
225.0000000001198
  0
LINE
  5
5D2
330
1F
100
AcDbEntity
  8
SICHTBAR
100
AcDbLine
 10
307.0942813192159
 20
236.7415268151242
 30
0.0001789211429077
 11
304.5486925935947
 21
234.195938089503
 31
0.0001789211429077
  0
ARC
  5
5D3
330
1F
100
AcDbEntity
  8
SICHTBAR
100
AcDbCircle
 10
309.215612453223
 20
234.6201956811153
 30
0.0001789211429077
 40
3.0
100
AcDbArc
 50
45.00000000011974
 51
135.0000076299527
  0
ARC
  5
5D4
330
1F
100
AcDbEntity
  8
SICHTBAR
100
AcDbCircle
 10
222.1388879343285
 20
275.5000529952511
 30
0.0001789211429077
 40
3.0
100
AcDbArc
 50
314.9999999998802
 51
90.00000576714093
  0
LINE
  5
5D5
330
1F
100
AcDbEntity
  8
SICHTBAR
100
AcDbLine
 10
344.2102856116326
 20
291.0000221811868
 30
0.0001789215269005
 11
74.21028573880176
 21
290.9999787044023
 31
0.0001789211429077
  0
LINE
  5
5D6
330
1F
100
AcDbEntity
  8
SICHTBAR
100
AcDbLine
 10
59.21030844196867
 20
300.0000004614401
 30
0.0001789211429077
 11
359.2103084419687
 21
300.0000004614401
 31
0.0001789211429077
  0
ARC
  5
5D7
330
1F
100
AcDbEntity
  8
SICHTBAR
100
AcDbCircle
 10
222.1388879343285
 20
275.5000529952511
 30
0.0001789211429077
 40
2.0
100
AcDbArc
 50
314.9999999998802
 51
90.00000576714093
  0
ARC
  5
5D8
330
1F
100
AcDbEntity
  8
SICHTBAR
100
AcDbCircle
 10
189.3291127171869
 20
275.5000496927102
 30
0.0001789211429077
 40
2.0
100
AcDbArc
 50
314.9999999998802
 51
90.00000576714093
  0
ARC
  5
5D9
330
1F
100
AcDbEntity
  8
SICHTBAR
100
AcDbCircle
 10
189.3291127171869
 20
275.5000496927102
 30
0.0001789211429077
 40
3.0
100
AcDbArc
 50
314.9999999998802
 51
90.00000576714093
  0
ARC
  5
5DA
330
1F
100
AcDbEntity
  8
SICHTBAR
100
AcDbCircle
 10
123.7095622970446
 20
275.5000430876305
 30
0.0001789211429077
 40
2.0
100
AcDbArc
 50
314.9999999998802
 51
90.00000576714093
  0
ARC
  5
5DB
330
1F
100
AcDbEntity
  8
SICHTBAR
100
AcDbCircle
 10
123.7095622970446
 20
275.5000430876305
 30
0.0001789211429077
 40
3.0
100
AcDbArc
 50
314.9999999998802
 51
90.00000576714093
  0
ARC
  5
5DC
330
1F
100
AcDbEntity
  8
SICHTBAR
100
AcDbCircle
 10
156.5193375000417
 20
275.5000463901731
 30
0.0001789211429077
 40
2.0
100
AcDbArc
 50
314.9999999998802
 51
90.00000576714093
  0
ARC
  5
5DD
330
1F
100
AcDbEntity
  8
SICHTBAR
100
AcDbCircle
 10
156.5193375000417
 20
275.5000463901731
 30
0.0001789211429077
 40
3.0
100
AcDbArc
 50
314.9999999998802
 51
90.00000576714093
  0
LINE
  5
5DE
330
1F
100
AcDbEntity
  8
SICHTBAR
100
AcDbLine
 10
105.4069767695327
 20
269.3597244041364
 30
0.0001789211429077
 11
113.6686365661808
 21
277.6213626340293
 31
0.0001789211429077
  0
LINE
  5
5DF
330
1F
100
AcDbEntity
  8
SICHTBAR
100
AcDbLine
 10
106.1140835507212
 20
268.6526176229497
 30
0.0001789211429077
 11
114.3757433473693
 21
276.9142558528427
 31
0.0001789211429077
  0
LINE
  5
5E0
330
1F
100
AcDbEntity
  8
SICHTBAR
100
AcDbLine
 10
121.8118627197655
 20
252.9548384539055
 30
0.0001789211429077
 11
146.478411783326
 21
277.6213659365701
 31
0.0001789211429077
  0
LINE
  5
5E1
330
1F
100
AcDbEntity
  8
SICHTBAR
100
AcDbLine
 10
122.518969500954
 20
252.2477316727188
 30
0.0001789211429077
 11
147.1855185645145
 21
276.9142591553834
 31
0.0001789211429077
  0
ARC
  5
5E2
330
1F
100
AcDbEntity
  8
SICHTBAR
100
AcDbCircle
 10
108.2354038942794
 20
266.5312972793879
 30
0.0001789211429077
 40
4.0
100
AcDbArc
 50
134.9999999998802
 51
225.0000000001198
  0
ARC
  5
5E3
330
1F
100
AcDbEntity
  8
SICHTBAR
100
AcDbCircle
 10
108.2354038942794
 20
266.5312972793879
 30
0.0001789211429077
 40
3.0
100
AcDbArc
 50
134.9999999998802
 51
225.0000000001198
  0
LINE
  5
5E4
330
1F
100
AcDbEntity
  8
SICHTBAR
100
AcDbLine
 10
106.1140835507212
 20
264.4099769358297
 30
0.0001789211429077
 11
108.6596722763424
 21
261.8643882102067
 31
0.0001789211429077
  0
ARC
  5
5E5
330
1F
100
AcDbEntity
  8
SICHTBAR
100
AcDbCircle
 10
110.7809926199043
 20
263.9857085537667
 30
0.0001789211429077
 40
3.0
100
AcDbArc
 50
225.0000000001198
 51
314.9999999998802
  0
ARC
  5
5E6
330
1F
100
AcDbEntity
  8
SICHTBAR
100
AcDbCircle
 10
110.7809926199043
 20
263.9857085537667
 30
0.0001789211429077
 40
4.0
100
AcDbArc
 50
225.0000000001198
 51
314.9999999998802
  0
LINE
  5
5E7
330
1F
100
AcDbEntity
  8
SICHTBAR
100
AcDbLine
 10
105.4069767695327
 20
263.7028701546431
 30
0.0001789211429077
 11
107.9525654951576
 21
261.15728142902
 31
0.0001789211429077
  0
LINE
  5
5E8
330
1F
100
AcDbEntity
  8
SICHTBAR
100
AcDbLine
 10
113.6094197446509
 20
261.15728142902
 30
0.0001789211429077
 11
125.8308826405991
 21
273.3787227440741
 31
0.0001789211429077
  0
LINE
  5
5E9
330
1F
100
AcDbEntity
  8
SICHTBAR
100
AcDbLine
 10
112.9023129634661
 20
261.8643882102067
 30
0.0001789211429077
 11
125.1237758594143
 21
274.0858295252608
 31
0.0001789211429077
  0
LINE
  5
5EA
330
1F
100
AcDbEntity
  8
SICHTBAR
100
AcDbLine
 10
87.30504964118518
 20
251.2577757090282
 30
0.0001789211429077
 11
89.85063836680637
 21
253.8033644346531
 31
0.0001789211429077
  0
ARC
  5
5EB
330
1F
100
AcDbEntity
  8
SICHTBAR
100
AcDbCircle
 10
92.67906549155304
 20
250.9749373099064
 30
0.0001789211429077
 40
4.0
100
AcDbArc
 50
45.00000000011974
 51
134.9999999998802
  0
ARC
  5
5EC
330
1F
100
AcDbEntity
  8
SICHTBAR
100
AcDbCircle
 10
92.67906549155304
 20
250.9749373099064
 30
0.0001789211429077
 40
3.0
100
AcDbArc
 50
45.00000000011974
 51
134.9999999998802
  0
LINE
  5
5ED
330
1F
100
AcDbEntity
  8
SICHTBAR
100
AcDbLine
 10
88.01215642237366
 20
250.5506689278434
 30
0.0001789211429077
 11
90.55774514799486
 21
253.0962576534646
 31
0.0001789211429077
  0
ARC
  5
5EE
330
1F
100
AcDbEntity
  8
SICHTBAR
100
AcDbCircle
 10
214.219282561171
 20
275.5000521980844
 30
0.0001789211429077
 40
3.0
100
AcDbArc
 50
90.00000576714093
 51
134.9999999998802
  0
ARC
  5
5EF
330
1F
100
AcDbEntity
  8
SICHTBAR
100
AcDbCircle
 10
214.219282561171
 20
275.5000521980844
 30
0.0001789211429077
 40
2.0
100
AcDbArc
 50
90.00000576714093
 51
134.9999999998802
  0
LINE
  5
5F0
330
1F
100
AcDbEntity
  8
SICHTBAR
100
AcDbLine
 10
214.2192822592006
 20
278.5000521980862
 30
0.0001789211429077
 11
222.1388876323581
 21
278.500052995251
 31
0.0001789211429077
  0
LINE
  5
5F1
330
1F
100
AcDbEntity
  8
SICHTBAR
100
AcDbLine
 10
222.1388877330173
 20
277.5000529952511
 30
0.0001789211429077
 11
214.2192823598598
 21
277.5000521980881
 31
0.0001789211429077
  0
ARC
  5
5F2
330
1F
100
AcDbEntity
  8
SICHTBAR
100
AcDbCircle
 10
181.4095073440294
 20
275.5000488955454
 30
0.0001789211429077
 40
3.0
100
AcDbArc
 50
90.00000576714093
 51
134.9999999998802
  0
ARC
  5
5F3
330
1F
100
AcDbEntity
  8
SICHTBAR
100
AcDbCircle
 10
181.4095073440294
 20
275.5000488955454
 30
0.0001789211429077
 40
2.0
100
AcDbArc
 50
90.00000576714093
 51
134.9999999998802
  0
LINE
  5
5F4
330
1F
100
AcDbEntity
  8
SICHTBAR
100
AcDbLine
 10
181.409507042059
 20
278.5000488955491
 30
0.0001789211429077
 11
189.3291124152165
 21
278.5000496927139
 31
0.0001789211429077
  0
LINE
  5
5F5
330
1F
100
AcDbEntity
  8
SICHTBAR
100
AcDbLine
 10
189.3291125158721
 20
277.5000496927121
 30
0.0001789211429077
 11
181.4095071427145
 21
277.5000488955491
 31
0.0001789211429077
  0
ARC
  5
5F6
330
1F
100
AcDbEntity
  8
SICHTBAR
100
AcDbCircle
 10
148.5997321268878
 20
275.5000455930083
 30
0.0001789211429077
 40
2.0
100
AcDbArc
 50
90.00000576714093
 51
134.9999999998802
  0
ARC
  5
5F7
330
1F
100
AcDbEntity
  8
SICHTBAR
100
AcDbCircle
 10
148.5997321268878
 20
275.5000455930083
 30
0.0001789211429077
 40
3.0
100
AcDbArc
 50
90.00000576714093
 51
134.9999999998802
  0
LINE
  5
5F8
330
1F
100
AcDbEntity
  8
SICHTBAR
100
AcDbLine
 10
156.5193372987305
 20
277.5000463901749
 30
0.0001789211429077
 11
148.5997319255693
 21
277.5000455930083
 31
0.0001789211429077
  0
LINE
  5
5F9
330
1F
100
AcDbEntity
  8
SICHTBAR
100
AcDbLine
 10
148.5997318249137
 20
278.5000455930083
 30
0.0001789211429077
 11
156.5193371980713
 21
278.5000463901731
 31
0.0001789211429077
  0
ARC
  5
5FA
330
1F
100
AcDbEntity
  8
SICHTBAR
100
AcDbCircle
 10
115.7899569097426
 20
275.5000422904657
 30
0.0001789211429077
 40
2.0
100
AcDbArc
 50
90.00000576714093
 51
134.9999999998802
  0
ARC
  5
5FB
330
1F
100
AcDbEntity
  8
SICHTBAR
100
AcDbCircle
 10
115.7899569097426
 20
275.5000422904657
 30
0.0001789211429077
 40
3.0
100
AcDbArc
 50
90.00000576714093
 51
134.9999999998802
  0
LINE
  5
5FC
330
1F
100
AcDbEntity
  8
SICHTBAR
100
AcDbLine
 10
123.7095620957261
 20
277.5000430876342
 30
0.0001789211429077
 11
115.7899567084314
 21
277.5000422904693
 31
0.0001789211429077
  0
LINE
  5
5FD
330
1F
100
AcDbEntity
  8
SICHTBAR
100
AcDbLine
 10
115.7899566077722
 20
278.5000422904693
 30
0.0001789211429077
 11
123.7095619950705
 21
278.5000430876341
 31
0.0001789211429077
  0
ARC
  5
5FE
330
1F
100
AcDbEntity
  8
SICHTBAR
100
AcDbCircle
 10
74.21028670495434
 20
284.9999787044005
 30
0.0001789211429077
 40
6.0
100
AcDbArc
 50
90.00000922600809
 51
180.0000057672451
  0
TEXT
  5
5FF
330
1F
100
AcDbEntity
  8
TEXT100
100
AcDbText
 10
310.7265940894431
 20
278.537300725319
 30
0.0001789211429077
 40
10.0
  1
MPA-Kl.
 50
314.9999999998802
 41
0.6
  7
TEXT100
100
AcDbText
  0
ARC
  5
600
330
1F
100
AcDbEntity
  8
SICHTBAR
100
AcDbCircle
 10
254.9486631514701
 20
275.50005629779
 30
0.0001789211429077
 40
2.0
100
AcDbArc
 50
314.9999999998802
 51
90.00000576714093
  0
ARC
  5
601
330
1F
100
AcDbEntity
  8
SICHTBAR
100
AcDbCircle
 10
254.9486631514701
 20
275.50005629779
 30
0.0001789211429077
 40
3.0
100
AcDbArc
 50
314.9999999998802
 51
90.00000576714093
  0
ARC
  5
602
330
1F
100
AcDbEntity
  8
SICHTBAR
100
AcDbCircle
 10
287.7584383544745
 20
275.500059600329
 30
0.0001789211429077
 40
2.0
100
AcDbArc
 50
314.9999999998802
 51
90.00000576714093
  0
ARC
  5
603
330
1F
100
AcDbEntity
  8
SICHTBAR
100
AcDbCircle
 10
287.7584383544745
 20
275.500059600329
 30
0.0001789211429077
 40
3.0
100
AcDbArc
 50
314.9999999998802
 51
90.00000576714093
  0
INSERT
  5
604
330
1F
100
AcDbEntity
  8
BEMASS
100
AcDbBlockReference
  2
MPA-Zeichen
 10
62.07515347449589
 20
277.4916962979612
 30
0.0001789211429077
 50
314.9999999998802
  0
ARC
  5
605
330
1F
100
AcDbEntity
  8
SICHTBAR
100
AcDbCircle
 10
307.604159061586
 20
269.0414209873586
 30
0.0001789211429077
 40
4.0
100
AcDbArc
 50
45.00000000011974
 51
135.0000076299527
  0
LINE
  5
606
330
1F
100
AcDbEntity
  8
SICHTBAR
100
AcDbLine
 10
310.4325861863326
 20
271.8698481121034
 30
0.0001789211429077
 11
312.9781749119575
 21
269.3242593864805
 31
0.0001789211429077
  0
ARC
  5
607
330
1F
100
AcDbEntity
  8
SICHTBAR
100
AcDbCircle
 10
310.1497585776597
 20
266.4958214712849
 30
0.0001789211429077
 40
4.0
100
AcDbArc
 50
314.9999999998802
 51
45.00000000011974
  0
ARC
  5
608
330
1F
100
AcDbEntity
  8
SICHTBAR
100
AcDbCircle
 10
310.1497585776597
 20
266.4958214712849
 30
0.0001789211429077
 40
3.0
100
AcDbArc
 50
314.9999999998802
 51
45.00000000011974
  0
LINE
  5
609
330
1F
100
AcDbEntity
  8
SICHTBAR
100
AcDbLine
 10
309.7254794051441
 20
271.1627413309168
 30
0.0001789211429077
 11
312.271068130769
 21
268.6171526052937
 31
0.0001789211429077
  0
ARC
  5
60A
330
1F
100
AcDbEntity
  8
SICHTBAR
100
AcDbCircle
 10
307.604159061586
 20
269.0414209873586
 30
0.0001789211429077
 40
3.0
100
AcDbArc
 50
45.00000000011974
 51
135.0000076299527
  0
ARC
  5
60B
330
1F
100
AcDbEntity
  8
SICHTBAR
100
AcDbCircle
 10
325.6204984105279
 20
251.0250816384148
 30
0.0001789211429077
 40
4.0
100
AcDbArc
 50
45.00000000011974
 51
135.0000076299527
  0
ARC
  5
60C
330
1F
100
AcDbEntity
  8
SICHTBAR
100
AcDbCircle
 10
325.6204984105279
 20
251.0250816384148
 30
0.0001789211429077
 40
3.0
100
AcDbArc
 50
45.00000000011974
 51
135.0000076299527
  0
LINE
  5
60D
330
1F
100
AcDbEntity
  8
SICHTBAR
100
AcDbLine
 10
323.4991672765172
 20
253.1464127724255
 30
0.0001789211429077
 11
320.9535785438275
 21
250.6008240397321
 31
0.0001789211429077
  0
LINE
  5
60E
330
1F
100
AcDbEntity
  8
SICHTBAR
100
AcDbLine
 10
322.792060495336
 20
253.853519553614
 30
0.0001789211429077
 11
320.2464717626426
 21
251.3079308209187
 31
0.0001789211429077
  0
ARC
  5
60F
330
1F
100
AcDbEntity
  8
SICHTBAR
100
AcDbCircle
 10
344.2102865777852
 20
285.0000221811868
 30
0.0001786776120954
 40
6.0
210
-0.0000000003839906
220
-0.0000000003839906
230
1.0
100
AcDbArc
 50
0.0000092260341436
 51
90.00000922600809
  0
ARC
  5
610
330
1F
100
AcDbEntity
  8
SICHTBAR
100
AcDbCircle
 10
247.0290577641717
 20
275.5000555006252
 30
0.0001789211429077
 40
2.0
100
AcDbArc
 50
90.00000576714093
 51
134.9999999998802
  0
LINE
  5
611
330
1F
100
AcDbEntity
  8
SICHTBAR
100
AcDbLine
 10
254.9486629501553
 20
277.50005629779
 30
0.0001789211429077
 11
247.0290575628605
 21
277.5000555006252
 31
0.0001789211429077
  0
ARC
  5
612
330
1F
100
AcDbEntity
  8
SICHTBAR
100
AcDbCircle
 10
247.0290577641717
 20
275.5000555006252
 30
0.0001789211429077
 40
3.0
100
AcDbArc
 50
90.00000576714093
 51
134.9999999998802
  0
LINE
  5
613
330
1F
100
AcDbEntity
  8
SICHTBAR
100
AcDbLine
 10
247.0290574622013
 20
278.500055500627
 30
0.0001789211429077
 11
254.9486628494997
 21
278.50005629779
 31
0.0001789211429077
  0
ARC
  5
614
330
1F
100
AcDbEntity
  8
SICHTBAR
100
AcDbCircle
 10
279.838832981317
 20
275.500058803166
 30
0.0001789211429077
 40
2.0
100
AcDbArc
 50
90.00000576714093
 51
134.9999999998802
  0
ARC
  5
615
330
1F
100
AcDbEntity
  8
SICHTBAR
100
AcDbCircle
 10
279.838832981317
 20
275.500058803166
 30
0.0001789211429077
 40
3.0
100
AcDbArc
 50
90.00000576714093
 51
134.9999999998802
  0
LINE
  5
616
330
1F
100
AcDbEntity
  8
SICHTBAR
100
AcDbLine
 10
279.8388327799985
 20
277.5000588031641
 30
0.0001789211429077
 11
287.7584381531597
 21
277.5000596003308
 31
0.0001789211429077
  0
LINE
  5
617
330
1F
100
AcDbEntity
  8
SICHTBAR
100
AcDbLine
 10
279.8388326793429
 20
278.5000588031642
 30
0.0001789211429077
 11
287.7584380525004
 21
278.5000596003326
 31
0.0001789211429077
  0
HATCH
  5
618
330
1F
100
AcDbEntity
  8
SICHTBAR
 62
     1
100
AcDbHatch
 10
0.0
 20
0.0
 30
0.0001789211428812
210
0.0
220
0.0
230
1.0
  2
ANSI31
 70
     0
 71
     1
 91
       11
 92
        7
 72
     0
 73
     1
 93
        8
 10
313.1841854019695
 20
397.0771823154065
 10
328.1291011719659
 20
397.0771823154066
 10
328.915233981963
 20
412.0771823154066
 10
347.7371944319675
 20
412.0771823154066
 10
349.419872651968
 20
426.0771823154324
 10
349.2103331391772
 20
432.0771823154066
 10
311.7153438419664
 20
432.0771823154066
 10
310.7153438419664
 20
426.0771823154121
 97
        8
330
697
330
641
330
67F
330
627
330
63D
330
626
330
678
330
698
 92
        7
 72
     1
 73
     1
 93
        8
 10
290.5111089856837
 20
418.0067306618098
 42
0.3804431645436981
 10
291.5043119765651
 20
417.1231257601022
 42
0.0
 10
299.2250052195195
 20
417.1231257601022
 42
0.3804441261689719
 10
300.2182086014982
 20
418.0067339991353
 42
0.0
 10
301.1646478929615
 20
426.082964630106
 42
0.0
 10
300.1656116120794
 20
432.0771823154066
 42
0.0
 10
290.5636780738459
 20
432.0771823154067
 42
0.0
 10
289.5646417929602
 20
426.0829646301046
 42
0.0
 97
        8
330
692
330
641
330
695
330
68E
330
68F
330
68D
330
691
330
690
 92
        7
 72
     1
 73
     1
 93
        8
 10
277.9646356829617
 20
426.0829646301078
 42
0.0
 10
276.9655994020795
 20
432.0771823154066
 42
0.0
 10
267.3636658638425
 20
432.0771823154066
 42
0.0
 10
266.3646295829567
 20
426.0829646300964
 42
0.0
 10
267.3110967756838
 20
418.0067306618085
 42
0.3804431645433797
 10
268.3042997665652
 20
417.1231257601022
 42
0.0
 10
276.0249930095197
 20
417.1231257601022
 42
0.3804441261689719
 10
277.0181963914983
 20
418.0067339991353
 42
0.0
 97
        8
330
68C
330
641
330
694
330
688
330
689
330
687
330
68B
330
68A
 92
        7
 72
     1
 73
     1
 93
        8
 10
256.5848515110483
 20
432.0771823154066
 42
0.0
 10
246.9829179728185
 20
432.0771823154066
 42
0.0
 10
245.9838816919364
 20
426.0829646301084
 42
0.0
 10
246.9303488846563
 20
418.0067306618095
 42
0.3804431645436402
 10
247.9235518755377
 20
417.1231257601022
 42
0.0
 10
255.6442451184885
 20
417.1231257601022
 42
0.380444126169897
 10
256.6374485004708
 20
418.0067339991349
 42
0.0
 10
257.5838877919341
 20
426.0829646301094
 42
0.0
 97
        8
330
641
330
693
330
682
330
683
330
681
330
685
330
684
330
686
 92
        7
 72
     1
 73
     1
 93
        8
 10
235.4622713003555
 20
426.0771823154085
 42
0.0
 10
234.4622713003591
 20
432.0771823154066
 42
0.0
 10
224.8622652003578
 20
432.0771823154066
 42
0.0
 10
223.8622652003578
 20
426.0771823154071
 42
0.0
 10
224.8087323930813
 20
418.0009483471137
 42
0.3804431645435244
 10
225.8019353839627
 20
417.1173434454069
 42
0.0
 10
233.5226286269135
 20
417.117343445406
 42
0.380444126169926
 10
234.5158320088958
 20
418.0009516844387
 42
0.0
 97
        8
330
67E
330
641
330
674
330
673
330
642
330
696
330
680
330
67D
 92
        7
 72
     1
 73
     1
 93
       10
 10
203.8504039712498
 20
400.663861536475
 42
0.3842096552830166
 10
207.82899240607
 20
397.0771823154065
 42
0.0
 10
209.2103084419687
 20
397.0771823154065
 42
0.0
 10
210.5916244778673
 20
397.0771823154066
 42
0.3842096552829726
 10
214.5702129126876
 20
400.6638615364745
 42
0.0
 10
217.2103084419687
 20
426.0771823154206
 42
0.0
 10
216.2103084419687
 20
432.0771823154066
 42
0.0
 10
209.2103084419687
 20
432.0771823154066
 42
0.0
 10
202.210308441965
 20
432.0771823154066
 42
0.0
 10
201.2103084419686
 20
426.0771823154006
 42
0.0
 97
       10
330
676
330
641
330
644
330
667
330
61D
330
633
330
634
330
63A
330
63B
330
625
 92
        7
 72
     1
 73
     1
 93
        8
 10
194.5583516835795
 20
426.0771823154161
 42
0.0
 10
193.5583516835795
 20
432.0771823154066
 42
0.0
 10
183.9583455835818
 20
432.0771823154066
 42
0.0
 10
182.9583455835782
 20
426.0771823153985
 42
0.0
 10
183.9047848750415
 20
418.0009516844394
 42
0.3804441261700997
 10
184.8979882570238
 20
417.117343445406
 42
0.0
 10
192.6186814999746
 20
417.1173434454069
 42
0.3804431645435247
 10
193.611884490856
 20
418.0009483471137
 42
0.0
 97
        8
330
668
330
644
330
669
330
656
330
655
330
652
330
653
330
654
 92
        7
 72
     1
 73
     1
 93
        8
 10
161.7831683834665
 20
418.0067339991348
 42
0.380444126169868
 10
162.7763717654488
 20
417.1231257601022
 42
0.0
 10
170.4970650083996
 20
417.1231257601022
 42
0.3804431645435247
 10
171.490267999281
 20
418.0067306618091
 42
0.0
 10
172.4367351920045
 20
426.0829646301045
 42
0.0
 10
171.4376989111188
 20
432.0771823154066
 42
0.0
 10
161.8357653728853
 20
432.0771823154066
 42
0.0
 10
160.8367290920032
 20
426.0829646301088
 42
0.0
 97
        8
330
66A
330
644
330
66B
330
658
330
657
330
65B
330
659
330
65A
 92
        7
 72
     1
 73
     1
 93
        8
 10
141.402420492439
 20
418.0067339991349
 42
0.380444126169897
 10
142.3956238744213
 20
417.1231257601022
 42
0.0
 10
150.1163171173721
 20
417.1231257601022
 42
0.3804431645435247
 10
151.1095201082535
 20
418.0067306618091
 42
0.0
 10
152.055987300977
 20
426.0829646301152
 42
0.0
 10
151.0569510200948
 20
432.0771823154066
 42
0.0
 10
141.4550174818578
 20
432.0771823154066
 42
0.0
 10
140.4559812009756
 20
426.0829646301069
 42
0.0
 97
        8
330
664
330
644
330
662
330
64A
330
64B
330
647
330
649
330
648
 92
        7
 72
     1
 73
     1
 93
        8
 10
128.8559750909771
 20
426.082964630106
 42
0.0
 10
127.856938810095
 20
432.0771823154066
 42
0.0
 10
118.2550052718579
 20
432.0771823154065
 42
0.0
 10
117.2559689909758
 20
426.0829646300936
 42
0.0
 10
118.2024082824391
 20
418.0067339991352
 42
0.380444126169984
 10
119.1956116644214
 20
417.1231257601022
 42
0.0
 10
126.9163049073722
 20
417.1231257601022
 42
0.3804431645435247
 10
127.9095078982536
 20
418.0067306618091
 42
0.0
 97
        8
330
665
330
644
330
663
330
64F
330
650
330
64C
330
64E
330
64D
 92
        7
 72
     0
 73
     1
 93
        8
 10
69.21028374476009
 20
432.0771823154066
 10
69.00074423197293
 20
426.0771823154129
 10
70.68342245196618
 20
412.0771823154066
 10
89.50538290197073
 20
412.0771823154066
 10
90.29151571197145
 20
397.0771823154066
 10
105.2364314819679
 20
397.0771823154066
 10
107.7052730419709
 20
426.0771823154015
 10
106.7052730419709
 20
432.0771823154066
 97
        8
330
661
330
644
330
666
330
651
330
660
330
61A
330
632
330
61B
 75
     0
 76
     1
 52
0.0
 41
1.0
 77
     0
 78
     1
 53
45.0
 43
18819.75095052187
 44
1188.506836564576
 45
-2.245064030267287
 46
2.245064030267288
 79
     0
 47
0.3534229051463071
 98
       11
 10
318.5982973991231
 20
422.958124503418
 10
295.2566840700201
 20
425.7855221732581
 10
274.0370704365523
 20
425.4320974645281
 10
252.8173801384873
 20
426.845796299441
 10
231.5977665050195
 20
425.4320974645281
 10
204.0122304492143
 20
423.3115492121481
 10
190.9268084306277
 20
424.3718233383381
 10
161.9265803561902
 20
425.4320974645281
 10
142.8289664183721
 20
424.3718233383381
 10
124.7922373314832
 20
424.7252480470681
 10
89.77981733781417
 20
424.3718233383381
  0
ARC
  5
619
330
1F
100
AcDbEntity
  8
SICHTBAR
100
AcDbCircle
 10
113.7678263803282
 20
402.9792441463753
 30
0.0001789211428812
 40
8.0
100
AcDbArc
 50
74.99998581976031
 51
175.1340017748403
  0
LINE
  5
61A
102
{ACAD_REACTORS
330
618
102
}
330
1F
100
AcDbEntity
  8
SICHTBAR
100
AcDbLine
 10
89.50538290197073
 20
412.0771823154066
 30
0.0001789211428812
 11
90.29151571197145
 21
397.0771823154066
 31
0.0001789211428812
  0
LINE
  5
61B
102
{ACAD_REACTORS
330
618
102
}
330
1F
100
AcDbEntity
  8
SICHTBAR
100
AcDbLine
 10
107.7052730419709
 20
426.0771823154065
 30
0.0001789211428812
 11
105.2364314819679
 21
397.0771823154066
 31
0.0001789211428812
  0
LINE
  5
61C
330
1F
100
AcDbEntity
  8
SICHTBAR
100
AcDbLine
 10
166.7041970888058
 20
397.0771823154066
 30
0.0001789211428812
 11
115.8383806536148
 21
410.7066502442441
 31
0.0001789211428812
210
0.0
220
0.0
230
-1.0
  0
LINE
  5
61D
102
{ACAD_REACTORS
330
618
102
}
330
1F
100
AcDbEntity
  8
SICHTBAR
100
AcDbLine
 10
201.2103084419686
 20
426.0771823154065
 30
0.0001789211428812
 11
203.8504039712498
 21
400.6638615364738
 31
0.0001789211428812
  0
LINE
  5
61E
330
1F
100
AcDbEntity
  8
SICHTBAR
100
AcDbLine
 10
80.03043883406645
 20
407.3263959863527
 30
0.0001789211428829
 11
80.03043883406645
 21
406.0940847482608
 31
0.0001789211429051
  0
LINE
  5
61F
330
1F
100
AcDbEntity
  8
SICHTBAR
100
AcDbLine
 10
80.71030844196867
 20
412.0940847482609
 30
0.0001789211428935
 11
80.41795139054011
 21
406.0940847482608
 31
0.0001789211428935
  0
LINE
  5
620
330
1F
100
AcDbEntity
  8
SICHTBAR
100
AcDbLine
 10
80.71030844196867
 20
412.0940847482609
 30
0.0001789211428935
 11
80.41795139054375
 21
406.0940847482608
 31
0.0001789211428935
  0
LINE
  5
621
330
1F
100
AcDbEntity
  8
SICHTBAR
100
AcDbLine
 10
67.21030844196866
 20
412.0940847482609
 30
0.0001789211428829
 11
67.21030844196866
 21
406.0940847482608
 31
0.0001789211429063
  0
HATCH
  5
622
330
1F
100
AcDbEntity
  8
SICHTBAR
 62
     1
100
AcDbHatch
 10
0.0
 20
0.0
 30
0.0001789211428829
210
0.0
220
0.0
230
1.0
  2
ANSI31
 70
     0
 71
     0
 91
        1
 92
        1
 93
        8
 72
     1
 10
67.21030844196866
 20
406.0940847482608
 11
65.71030844196866
 21
406.0940847482608
 72
     1
 10
65.71030844196866
 20
406.0940847482608
 11
65.04681382162743
 21
387.0940847482618
 72
     1
 10
65.0468138216238
 20
387.0940847482618
 11
60.08332767926185
 21
387.0940847482627
 72
     1
 10
60.08332767926185
 20
387.0940847482627
 11
59.21030844196867
 21
412.0940847482627
 72
     1
 10
59.21030844196867
 20
412.0940847482627
 11
59.90872383180249
 21
432.0940847482627
 72
     1
 10
59.90872383180249
 20
432.0940847482627
 11
66.5118930521312
 21
432.0940847482609
 72
     1
 10
66.5118930521312
 20
432.0940847482609
 11
67.21030844196866
 21
412.0940847482609
 72
     1
 10
67.21030844196866
 20
412.0940847482609
 11
67.21030844196866
 21
406.0940847482608
 97
        0
 75
     0
 76
     1
 52
0.0
 41
1.0
 77
     0
 78
     1
 53
45.0
 43
18890.28814166219
 44
1038.899248593916
 45
-2.245064030267287
 46
2.245064030267288
 79
     0
 98
        1
 10
-837.0479751836974
 20
-425.3750436147572
1001
GENIUS_GENODEF_13
1002
{
1000
HIER
1070
     0
1002
}
1002
{
1000
MANEDIT
1070
     0
1002
}
1002
{
1000
NOSEL
1070
     0
1002
}
1002
{
1000
BEHIND
1070
     0
1002
}
1002
{
1000
REACTOR
1002
}
1001
GENIUS_GENOBJ-N-HTC_13
1002
{
1000
OWNER
1000
GEN
1002
}
1001
GENIUS_GENHATCH_13
1002
{
1000
DATA
1040
45.0
1042
1.0
1000
_U
1070
     0
1011
64.32692750563365
1021
414.3587391501434
1031
0.0001789211428829
1002
}
1002
{
1000
UCS
1010
0.0
1020
0.0
1030
0.0
1010
1.0
1020
0.0
1030
0.0
1010
0.0
1020
1.0
1030
0.0
1002
}
  0
LINE
  5
623
330
1F
100
AcDbEntity
  8
SICHTBAR
100
AcDbLine
 10
59.21030844196867
 20
412.0940847482627
 30
0.0001789211428935
 11
60.08332767926185
 21
387.0940847482627
 31
0.0001789211428935
  0
ARC
  5
624
330
1F
100
AcDbEntity
  8
SICHTBAR
100
AcDbCircle
 10
304.6527905036092
 20
402.9792441463753
 30
0.0001789211428812
 40
8.0
100
AcDbArc
 50
4.865998225159657
 51
105.0000141802397
  0
LINE
  5
625
102
{ACAD_REACTORS
330
618
102
}
330
1F
100
AcDbEntity
  8
SICHTBAR
100
AcDbLine
 10
217.2103084419687
 20
426.0771823154065
 30
0.0001789211428812
 11
214.5702129126876
 21
400.6638615364738
 31
0.0001789211428812
  0
LINE
  5
626
102
{ACAD_REACTORS
330
618
102
}
330
1F
100
AcDbEntity
  8
SICHTBAR
100
AcDbLine
 10
328.9152339819666
 20
412.0771823154066
 30
0.0001789211428812
 11
328.1291011719659
 21
397.0771823154066
 31
0.0001789211428812
  0
LINE
  5
627
102
{ACAD_REACTORS
330
618
102
}
330
1F
100
AcDbEntity
  8
SICHTBAR
100
AcDbLine
 10
310.7153438419664
 20
426.0771823154065
 30
0.0001789211428812
 11
313.1841854019695
 21
397.0771823154066
 31
0.0001789211428812
  0
LINE
  5
628
330
1F
100
AcDbEntity
  8
SICHTBAR
100
AcDbLine
 10
251.7164197951315
 20
397.0771823154066
 30
0.0001789211428812
 11
302.5822362303224
 21
410.7066502442441
 31
0.0001789211428812
210
0.0
220
0.0
230
-1.0
  0
LINE
  5
629
330
1F
100
AcDbEntity
  8
SICHTBAR
100
AcDbLine
 10
359.2103084419687
 20
412.0940847482627
 30
0.0001789211428935
 11
358.3372892046755
 21
387.0940847482627
 31
0.0001789211428935
  0
HATCH
  5
62A
330
1F
100
AcDbEntity
  8
SICHTBAR
 62
     1
100
AcDbHatch
 10
0.0
 20
0.0
 30
0.0001789211428829
210
0.0
220
0.0
230
1.0
  2
ANSI31
 70
     0
 71
     0
 91
        1
 92
        1
 93
        8
 72
     1
 10
351.2103084419686
 20
406.0940847482608
 11
352.7103084419687
 21
406.0940847482608
 72
     1
 10
352.7103084419687
 20
406.0940847482608
 11
353.3738030623099
 21
387.0940847482618
 72
     1
 10
353.3738030623135
 20
387.0940847482618
 11
358.3372892046755
 21
387.0940847482627
 72
     1
 10
358.3372892046755
 20
387.0940847482627
 11
359.2103084419687
 21
412.0940847482627
 72
     1
 10
359.2103084419687
 20
412.0940847482627
 11
358.5118930521348
 21
432.0940847482627
 72
     1
 10
358.5118930521348
 20
432.0940847482627
 11
351.9087238318061
 21
432.0940847482609
 72
     1
 10
351.9087238318061
 20
432.0940847482609
 11
351.2103084419686
 21
412.0940847482609
 72
     1
 10
351.2103084419686
 20
412.0940847482609
 11
351.2103084419686
 21
406.0940847482608
 97
        0
 75
     0
 76
     1
 52
0.0
 41
1.0
 77
     0
 78
     1
 53
45.0
 43
18890.28814166219
 44
1038.899248593916
 45
-2.245064030267287
 46
2.245064030267288
 79
     0
 98
        1
 10
1255.468592067635
 20
-425.3750436147572
1001
GENIUS_GENODEF_13
1002
{
1000
HIER
1070
     0
1002
}
1002
{
1000
MANEDIT
1070
     0
1002
}
1002
{
1000
NOSEL
1070
     0
1002
}
1002
{
1000
BEHIND
1070
     0
1002
}
1002
{
1000
REACTOR
1002
}
1001
GENIUS_GENOBJ-N-HTC_13
1002
{
1000
OWNER
1000
GEN
1002
}
1001
GENIUS_GENHATCH_13
1002
{
1000
DATA
1040
45.0
1042
2.5
1000
_U
1070
     0
1011
354.0936893783037
1021
414.3587391501434
1031
0.0001789211428829
1002
}
1002
{
1000
UCS
1010
0.0
1020
0.0
1030
0.0
1010
1.0
1020
0.0
1030
0.0
1010
0.0
1020
1.0
1030
0.0
1002
}
  0
LINE
  5
62B
330
1F
100
AcDbEntity
  8
SICHTBAR
100
AcDbLine
 10
351.2103084419686
 20
412.0940847482609
 30
0.0001789211428829
 11
351.2103084419686
 21
406.0940847482608
 31
0.0001789211429063
  0
LINE
  5
62C
330
1F
100
AcDbEntity
  8
SICHTBAR
100
AcDbLine
 10
337.7103084419687
 20
412.0940847482609
 30
0.0001789211428935
 11
338.0026654933936
 21
406.0940847482608
 31
0.0001789211428935
  0
LINE
  5
62D
330
1F
100
AcDbEntity
  8
SICHTBAR
100
AcDbLine
 10
337.7103084419687
 20
412.0940847482609
 30
0.0001789211428935
 11
338.0026654933972
 21
406.0940847482608
 31
0.0001789211428935
  0
LINE
  5
62E
330
1F
100
AcDbEntity
  8
SICHTBAR
100
AcDbLine
 10
338.3901780498709
 20
407.3263959863527
 30
0.0001789211428829
 11
338.3901780498709
 21
406.0940847482608
 31
0.0001789211429051
  0
LINE
  5
62F
330
1F
100
AcDbEntity
  8
SICHTBAR
100
AcDbLine
 10
209.2103084419687
 20
397.0771823154065
 30
0.0001789211428812
 11
251.7164197951315
 21
397.0771823154066
 31
0.0001789211428812
  0
LINE
  5
630
330
1F
100
AcDbEntity
  8
SICHTBAR
100
AcDbLine
 10
353.8738030623135
 20
387.0940847482618
 30
0.0001789211429077
 11
209.2103084419687
 21
387.0940847482617
 31
0.0001789211429077
  0
LINE
  5
631
330
1F
100
AcDbEntity
  8
SICHTBAR
100
AcDbLine
 10
106.0040626360642
 20
406.0940847482608
 30
0.0001789211429028
 11
133.0526923963007
 21
406.0940847482608
 31
0.0001789211429004
  0
LINE
  5
632
102
{ACAD_REACTORS
330
618
102
}
330
1F
100
AcDbEntity
  8
SICHTBAR
100
AcDbLine
 10
90.29151571197145
 20
397.0771823154066
 30
0.0001789211428812
 11
105.2364620019689
 21
397.0771823154066
 31
0.0001789211428812
  0
ARC
  5
633
102
{ACAD_REACTORS
330
618
102
}
330
1F
100
AcDbEntity
  8
SICHTBAR
100
AcDbCircle
 10
207.82899240607
 20
401.0771823154065
 30
0.0001789211428812
 40
4.0
100
AcDbArc
 50
185.9309704491623
 51
270.0
  0
LINE
  5
634
102
{ACAD_REACTORS
330
618
102
}
330
1F
100
AcDbEntity
  8
SICHTBAR
100
AcDbLine
 10
209.2103084419687
 20
397.0771823154065
 30
0.0001789211428812
 11
166.7041970888058
 21
397.0771823154066
 31
0.0001789211428812
  0
LINE
  5
635
330
1F
100
AcDbEntity
  8
SICHTBAR
100
AcDbLine
 10
209.2103084419687
 20
397.0771823154065
 30
0.0001789211428812
 11
207.82899240607
 21
397.0771823154066
 31
0.0001789211428812
  0
LINE
  5
636
330
1F
100
AcDbEntity
  8
SICHTBAR
100
AcDbLine
 10
60.08332767926185
 20
387.0940847482627
 30
0.0001789211428935
 11
64.5468138216238
 21
387.0940847482618
 31
0.0001789211428935
  0
LINE
  5
637
330
1F
100
AcDbEntity
  8
SICHTBAR
100
AcDbLine
 10
65.71030844196866
 20
406.0940847482608
 30
0.0001789211429064
 11
65.0468138216238
 21
387.0940847482618
 31
0.0001789211429064
  0
LINE
  5
638
330
1F
100
AcDbEntity
  8
SICHTBAR
100
AcDbLine
 10
65.71030844196866
 20
406.0940847482608
 30
0.0001789211429064
 11
89.81895018883733
 21
406.0940847482608
 31
0.0001789211429043
  0
LINE
  5
639
330
1F
100
AcDbEntity
  8
SICHTBAR
100
AcDbLine
 10
64.5468138216238
 20
387.0940847482618
 30
0.0001789211429077
 11
209.2103084419687
 21
387.0940847482617
 31
0.0001789211429077
  0
LINE
  5
63A
102
{ACAD_REACTORS
330
618
102
}
330
1F
100
AcDbEntity
  8
SICHTBAR
100
AcDbLine
 10
209.2103084419687
 20
397.0771823154065
 30
0.0001789211428812
 11
210.5916244778673
 21
397.0771823154066
 31
0.0001789211428812
  0
ARC
  5
63B
102
{ACAD_REACTORS
330
618
102
}
330
1F
100
AcDbEntity
  8
SICHTBAR
100
AcDbCircle
 10
210.5916244778673
 20
401.0771823154065
 30
0.0001789211428812
 40
4.0
100
AcDbArc
 50
270.0
 51
354.0690295508377
  0
LINE
  5
63C
330
1F
100
AcDbEntity
  8
SICHTBAR
100
AcDbLine
 10
312.4165542478768
 20
406.0940847482608
 30
0.0001789211429028
 11
285.367924487633
 21
406.0940847482608
 31
0.0001789211429004
  0
LINE
  5
63D
102
{ACAD_REACTORS
330
618
102
}
330
1F
100
AcDbEntity
  8
SICHTBAR
100
AcDbLine
 10
328.1291011719659
 20
397.0771823154066
 30
0.0001789211428812
 11
313.1841548819684
 21
397.0771823154066
 31
0.0001789211428812
  0
LINE
  5
63E
330
1F
100
AcDbEntity
  8
SICHTBAR
100
AcDbLine
 10
352.7103084419687
 20
406.0940847482608
 30
0.0001789211429064
 11
353.3738030623135
 21
387.0940847482618
 31
0.0001789211429064
  0
LINE
  5
63F
330
1F
100
AcDbEntity
  8
SICHTBAR
100
AcDbLine
 10
358.3372892046755
 20
387.0940847482627
 30
0.0001789211428935
 11
353.8738030623135
 21
387.0940847482618
 31
0.0001789211428935
  0
LINE
  5
640
330
1F
100
AcDbEntity
  8
SICHTBAR
100
AcDbLine
 10
352.7103084419687
 20
406.0940847482608
 30
0.0001789211429064
 11
328.6016666951
 21
406.0940847482608
 31
0.0001789211429043
  0
LINE
  5
641
102
{ACAD_REACTORS
330
618
102
}
330
1F
100
AcDbEntity
  8
SICHTBAR
100
AcDbLine
 10
349.2103084419686
 20
432.0771823154066
 30
0.0001789211428812
 11
209.2103084419687
 21
432.0771823154066
 31
0.0001789211428812
  0
ARC
  5
642
102
{ACAD_REACTORS
330
618
102
}
330
1F
100
AcDbEntity
  8
SICHTBAR
100
AcDbCircle
 10
225.8019353839627
 20
418.1173434454069
 30
0.0001789211428812
 40
1.0
100
AcDbArc
 50
186.6840987215885
 51
270.0
  0
LINE
  5
643
330
1F
100
AcDbEntity
  8
SICHTBAR
100
AcDbLine
 10
351.9087238318061
 20
432.0940847482609
 30
0.0001789211428829
 11
209.2103084419687
 21
432.0940847482609
 31
0.0001789211428829
  0
LINE
  5
644
102
{ACAD_REACTORS
330
618
102
}
330
1F
100
AcDbEntity
  8
SICHTBAR
100
AcDbLine
 10
69.21030844196867
 20
432.0771823154066
 30
0.0001789211428812
 11
209.2103084419687
 21
432.0771823154066
 31
0.0001789211428812
  0
LINE
  5
645
330
1F
100
AcDbEntity
  8
SICHTBAR
100
AcDbLine
 10
140.5553096619696
 20
426.0771823154065
 30
0.0001789211428812
 11
128.8552974519698
 21
426.0771823154057
 31
0.0001789211428812
  0
LINE
  5
646
330
1F
100
AcDbEntity
  8
SICHTBAR
100
AcDbLine
 10
117.3552974519698
 20
426.0771823154057
 30
0.0001789211428812
 11
107.7052773775031
 21
426.0771823154065
 31
0.0001789211428812
  0
LINE
  5
647
102
{ACAD_REACTORS
330
618
102
}
330
1F
100
AcDbEntity
  8
SICHTBAR
100
AcDbLine
 10
142.3956238744176
 20
417.1231257601022
 30
0.0001789211428812
 11
150.1163171173721
 21
417.1231257601022
 31
0.0001789211428812
  0
LINE
  5
648
102
{ACAD_REACTORS
330
618
102
}
330
1F
100
AcDbEntity
  8
SICHTBAR
100
AcDbLine
 10
152.055987300977
 20
426.0829646301028
 30
0.0001789211428812
 11
151.1095201082535
 21
418.0067306618086
 31
0.0001789211428812
  0
ARC
  5
649
102
{ACAD_REACTORS
330
618
102
}
330
1F
100
AcDbEntity
  8
SICHTBAR
100
AcDbCircle
 10
150.1163171173721
 20
418.1231257601023
 30
0.0001789211428812
 40
1.0
100
AcDbArc
 50
270.0
 51
353.3159012784115
  0
LINE
  5
64A
102
{ACAD_REACTORS
330
618
102
}
330
1F
100
AcDbEntity
  8
SICHTBAR
100
AcDbLine
 10
140.4559812009756
 20
426.082964630102
 30
0.0001789211428812
 11
141.402420492439
 21
418.0067339991349
 31
0.0001789211428812
  0
ARC
  5
64B
102
{ACAD_REACTORS
330
618
102
}
330
1F
100
AcDbEntity
  8
SICHTBAR
100
AcDbCircle
 10
142.3956238744176
 20
418.1231257601023
 30
0.0001789211428812
 40
1.0
100
AcDbArc
 50
186.6839061983629
 51
270.0
  0
LINE
  5
64C
102
{ACAD_REACTORS
330
618
102
}
330
1F
100
AcDbEntity
  8
SICHTBAR
100
AcDbLine
 10
119.1956116644178
 20
417.1231257601022
 30
0.0001789211428812
 11
126.9163049073722
 21
417.1231257601022
 31
0.0001789211428812
  0
LINE
  5
64D
102
{ACAD_REACTORS
330
618
102
}
330
1F
100
AcDbEntity
  8
SICHTBAR
100
AcDbLine
 10
128.8559750909771
 20
426.082964630102
 30
0.0001789211428812
 11
127.9095078982536
 21
418.0067306618086
 31
0.0001789211428812
  0
ARC
  5
64E
102
{ACAD_REACTORS
330
618
102
}
330
1F
100
AcDbEntity
  8
SICHTBAR
100
AcDbCircle
 10
126.9163049073722
 20
418.1231257601032
 30
0.0001789211428812
 40
1.0
100
AcDbArc
 50
270.0
 51
353.3159012784115
  0
LINE
  5
64F
102
{ACAD_REACTORS
330
618
102
}
330
1F
100
AcDbEntity
  8
SICHTBAR
100
AcDbLine
 10
117.2559689909758
 20
426.082964630102
 30
0.0001789211428812
 11
118.2024082824391
 21
418.0067339991349
 31
0.0001789211428812
  0
ARC
  5
650
102
{ACAD_REACTORS
330
618
102
}
330
1F
100
AcDbEntity
  8
SICHTBAR
100
AcDbCircle
 10
119.1956116644178
 20
418.1231257601023
 30
0.0001789211428812
 40
1.0
100
AcDbArc
 50
186.6839061983629
 51
270.0
  0
LINE
  5
651
102
{ACAD_REACTORS
330
618
102
}
330
1F
100
AcDbEntity
  8
SICHTBAR
100
AcDbLine
 10
69.00074423196929
 20
426.0771823154065
 30
0.0001789211428812
 11
70.68342245196982
 21
412.0771823154066
 31
0.0001789211428812
  0
LINE
  5
652
102
{ACAD_REACTORS
330
618
102
}
330
1F
100
AcDbEntity
  8
SICHTBAR
100
AcDbLine
 10
184.8979882570238
 20
417.117343445406
 30
0.0001789211428812
 11
192.6186814999746
 21
417.1173434454069
 31
0.0001789211428812
  0
ARC
  5
653
102
{ACAD_REACTORS
330
618
102
}
330
1F
100
AcDbEntity
  8
SICHTBAR
100
AcDbCircle
 10
192.6186814999746
 20
418.1173434454069
 30
0.0001789211428812
 40
1.0
100
AcDbArc
 50
270.0
 51
353.3159012784115
  0
LINE
  5
654
102
{ACAD_REACTORS
330
618
102
}
330
1F
100
AcDbEntity
  8
SICHTBAR
100
AcDbLine
 10
194.5583516835795
 20
426.0771823154065
 30
0.0001789211428812
 11
193.611884490856
 21
418.0009483471123
 31
0.0001789211428812
  0
ARC
  5
655
102
{ACAD_REACTORS
330
618
102
}
330
1F
100
AcDbEntity
  8
SICHTBAR
100
AcDbCircle
 10
184.8979882570238
 20
418.1173434454069
 30
0.0001789211428812
 40
1.0
100
AcDbArc
 50
186.6839061983629
 51
270.0
  0
LINE
  5
656
102
{ACAD_REACTORS
330
618
102
}
330
1F
100
AcDbEntity
  8
SICHTBAR
100
AcDbLine
 10
182.9583455835782
 20
426.0771823154065
 30
0.0001789211428812
 11
183.9047848750415
 21
418.0009516844386
 31
0.0001789211428812
  0
ARC
  5
657
102
{ACAD_REACTORS
330
618
102
}
330
1F
100
AcDbEntity
  8
SICHTBAR
100
AcDbCircle
 10
162.7763717654488
 20
418.1231257601032
 30
0.0001789211428812
 40
1.0
100
AcDbArc
 50
186.6839061983629
 51
270.0
  0
LINE
  5
658
102
{ACAD_REACTORS
330
618
102
}
330
1F
100
AcDbEntity
  8
SICHTBAR
100
AcDbLine
 10
160.8367290920032
 20
426.082964630102
 30
0.0001789211428812
 11
161.7831683834665
 21
418.0067339991357
 31
0.0001789211428812
  0
ARC
  5
659
102
{ACAD_REACTORS
330
618
102
}
330
1F
100
AcDbEntity
  8
SICHTBAR
100
AcDbCircle
 10
170.4970650083996
 20
418.1231257601023
 30
0.0001789211428812
 40
1.0
100
AcDbArc
 50
270.0
 51
353.3159012784115
  0
LINE
  5
65A
102
{ACAD_REACTORS
330
618
102
}
330
1F
100
AcDbEntity
  8
SICHTBAR
100
AcDbLine
 10
172.4367351920045
 20
426.082964630102
 30
0.0001789211428812
 11
171.490267999281
 21
418.0067306618086
 31
0.0001789211428812
  0
LINE
  5
65B
102
{ACAD_REACTORS
330
618
102
}
330
1F
100
AcDbEntity
  8
SICHTBAR
100
AcDbLine
 10
162.7763717654488
 20
417.1231257601022
 30
0.0001789211428812
 11
170.4970650083996
 21
417.1231257601022
 31
0.0001789211428812
  0
LINE
  5
65C
330
1F
100
AcDbEntity
  8
SICHTBAR
100
AcDbLine
 10
201.2103084419686
 20
426.0771823154065
 30
0.0001789211428812
 11
194.5583516835759
 21
426.0771823154065
 31
0.0001789211428812
  0
LINE
  5
65D
330
1F
100
AcDbEntity
  8
SICHTBAR
100
AcDbLine
 10
201.2107690189914
 20
426.0727488426442
 30
0.0001789211428812
 11
198.5046747429624
 21
426.0714000007103
 31
0.0001789211428812
  0
LINE
  5
65E
330
1F
100
AcDbEntity
  8
SICHTBAR
100
AcDbLine
 10
160.8374067113109
 20
426.0771823154065
 30
0.0001789211428812
 11
152.0553096619696
 21
426.0771823154065
 31
0.0001789211428812
  0
LINE
  5
65F
330
1F
100
AcDbEntity
  8
SICHTBAR
100
AcDbLine
 10
182.9583455835818
 20
426.0771823154065
 30
0.0001789211428812
 11
172.4360575529972
 21
426.0771823154065
 31
0.0001789211428812
  0
LINE
  5
660
102
{ACAD_REACTORS
330
618
102
}
330
1F
100
AcDbEntity
  8
SICHTBAR
100
AcDbLine
 10
70.68342245196982
 20
412.0771823154066
 30
0.0001789211428812
 11
89.50538290197073
 21
412.0771823154066
 31
0.0001789211428812
  0
LINE
  5
661
102
{ACAD_REACTORS
330
618
102
}
330
1F
100
AcDbEntity
  8
SICHTBAR
100
AcDbLine
 10
107.7052730419709
 20
426.0771823154065
 30
0.0001789211428812
 11
106.7052730419709
 21
432.0771823154066
 31
0.0001789211428812
  0
LINE
  5
662
102
{ACAD_REACTORS
330
618
102
}
330
1F
100
AcDbEntity
  8
SICHTBAR
100
AcDbLine
 10
140.4559812009756
 20
426.082964630102
 30
0.0001789211428812
 11
141.4559812009756
 21
432.0829646301028
 31
0.0001789211428812
  0
LINE
  5
663
102
{ACAD_REACTORS
330
618
102
}
330
1F
100
AcDbEntity
  8
SICHTBAR
100
AcDbLine
 10
117.2559689909758
 20
426.082964630102
 30
0.0001789211428812
 11
118.2559689909758
 21
432.0829646301019
 31
0.0001789211428812
  0
LINE
  5
664
102
{ACAD_REACTORS
330
618
102
}
330
1F
100
AcDbEntity
  8
SICHTBAR
100
AcDbLine
 10
152.055987300977
 20
426.0829646301028
 30
0.0001789211428812
 11
151.055987300977
 21
432.0829646301019
 31
0.0001789211428812
  0
LINE
  5
665
102
{ACAD_REACTORS
330
618
102
}
330
1F
100
AcDbEntity
  8
SICHTBAR
100
AcDbLine
 10
128.8559750909771
 20
426.082964630102
 30
0.0001789211428812
 11
127.8559750909771
 21
432.0829646301028
 31
0.0001789211428812
  0
LINE
  5
666
102
{ACAD_REACTORS
330
618
102
}
330
1F
100
AcDbEntity
  8
SICHTBAR
100
AcDbLine
 10
69.00074423196929
 20
426.0771823154065
 30
0.0001789211428812
 11
69.21015585196801
 21
432.0735202054067
 31
0.0001789211428812
  0
LINE
  5
667
102
{ACAD_REACTORS
330
618
102
}
330
1F
100
AcDbEntity
  8
SICHTBAR
100
AcDbLine
 10
201.2103084419686
 20
426.0771823154065
 30
0.0001789211428812
 11
202.2103084419687
 21
432.0771823154066
 31
0.0001789211428812
  0
LINE
  5
668
102
{ACAD_REACTORS
330
618
102
}
330
1F
100
AcDbEntity
  8
SICHTBAR
100
AcDbLine
 10
194.5583516835795
 20
426.0771823154065
 30
0.0001789211428812
 11
193.5583516835795
 21
432.0771823154066
 31
0.0001789211428812
  0
LINE
  5
669
102
{ACAD_REACTORS
330
618
102
}
330
1F
100
AcDbEntity
  8
SICHTBAR
100
AcDbLine
 10
182.9583455835782
 20
426.0771823154065
 30
0.0001789211428812
 11
183.9583455835782
 21
432.0771823154066
 31
0.0001789211428812
  0
LINE
  5
66A
102
{ACAD_REACTORS
330
618
102
}
330
1F
100
AcDbEntity
  8
SICHTBAR
100
AcDbLine
 10
172.4367351920045
 20
426.082964630102
 30
0.0001789211428812
 11
171.4367351920046
 21
432.0829646301019
 31
0.0001789211428812
  0
LINE
  5
66B
102
{ACAD_REACTORS
330
618
102
}
330
1F
100
AcDbEntity
  8
SICHTBAR
100
AcDbLine
 10
160.8367290920032
 20
426.082964630102
 30
0.0001789211428812
 11
161.8367290920032
 21
432.0829646301019
 31
0.0001789211428812
  0
LINE
  5
66C
330
1F
100
AcDbEntity
  8
SICHTBAR
100
AcDbLine
 10
80.03043883406645
 20
407.3263959863527
 30
0.0001789211428829
 11
80.47799720387775
 21
407.3263959863527
 31
0.0001789211428829
  0
LINE
  5
66D
330
1F
100
AcDbEntity
  8
SICHTBAR
100
AcDbLine
 10
75.26275007215736
 20
412.0940847482609
 30
0.0001789211428829
 11
80.03043883406645
 21
407.3263959863527
 31
0.0001789211428829
  0
LINE
  5
66E
330
1F
100
AcDbEntity
  8
SICHTBAR
100
AcDbLine
 10
59.21030844196867
 20
412.0940847482627
 30
0.0001789211428935
 11
59.90872383180249
 21
432.0940847482627
 31
0.0001789211428935
  0
LINE
  5
66F
330
1F
100
AcDbEntity
  8
SICHTBAR
100
AcDbLine
 10
67.21030844196866
 20
412.0940847482609
 30
0.0001789211428935
 11
66.5118930521312
 21
432.0940847482609
 31
0.0001789211428935
  0
LINE
  5
670
330
1F
100
AcDbEntity
  8
SICHTBAR
100
AcDbLine
 10
59.90872383180249
 20
432.0940847482627
 30
0.0001789211428935
 11
66.5118930521312
 21
432.0940847482609
 31
0.0001789211428935
  0
LINE
  5
671
330
1F
100
AcDbEntity
  8
SICHTBAR
100
AcDbLine
 10
67.21030844196866
 20
412.0940847482609
 30
0.0001789211428829
 11
87.31608462777876
 21
412.0940847482609
 31
0.0001789211428829
  0
LINE
  5
672
330
1F
100
AcDbEntity
  8
SICHTBAR
100
AcDbLine
 10
66.5118930521312
 20
432.0940847482609
 30
0.0001789211428829
 11
209.2103084419687
 21
432.0940847482609
 31
0.0001789211428829
  0
LINE
  5
673
102
{ACAD_REACTORS
330
618
102
}
330
1F
100
AcDbEntity
  8
SICHTBAR
100
AcDbLine
 10
223.8622652003578
 20
426.0771823154065
 30
0.0001789211428812
 11
224.8087323930813
 21
418.0009483471123
 31
0.0001789211428812
  0
LINE
  5
674
102
{ACAD_REACTORS
330
618
102
}
330
1F
100
AcDbEntity
  8
SICHTBAR
100
AcDbLine
 10
223.8622652003578
 20
426.0771823154065
 30
0.0001789211428812
 11
224.8622652003578
 21
432.0771823154066
 31
0.0001789211428812
  0
LINE
  5
675
330
1F
100
AcDbEntity
  8
SICHTBAR
100
AcDbLine
 10
217.2103084419687
 20
426.0771823154065
 30
0.0001789211428812
 11
223.8622652003614
 21
426.0771823154065
 31
0.0001789211428812
  0
LINE
  5
676
102
{ACAD_REACTORS
330
618
102
}
330
1F
100
AcDbEntity
  8
SICHTBAR
100
AcDbLine
 10
217.2103084419687
 20
426.0771823154065
 30
0.0001789211428812
 11
216.2103084419687
 21
432.0771823154066
 31
0.0001789211428812
  0
LINE
  5
677
330
1F
100
AcDbEntity
  8
SICHTBAR
100
AcDbLine
 10
217.2098478649459
 20
426.0727488426442
 30
0.0001789211428812
 11
219.915942140975
 21
426.0714000007103
 31
0.0001789211428812
  0
LINE
  5
678
102
{ACAD_REACTORS
330
618
102
}
330
1F
100
AcDbEntity
  8
SICHTBAR
100
AcDbLine
 10
347.7371944319675
 20
412.0771823154066
 30
0.0001789211428812
 11
328.9152339819666
 21
412.0771823154066
 31
0.0001789211428812
  0
LINE
  5
679
330
1F
100
AcDbEntity
  8
SICHTBAR
100
AcDbLine
 10
235.4622713003555
 20
426.0771823154065
 30
0.0001789211428812
 11
245.9845593309401
 21
426.0771823154065
 31
0.0001789211428812
  0
LINE
  5
67A
330
1F
100
AcDbEntity
  8
SICHTBAR
100
AcDbLine
 10
277.8653072219677
 20
426.0771823154065
 30
0.0001789211428812
 11
289.5653194319675
 21
426.0771823154057
 31
0.0001789211428812
  0
LINE
  5
67B
330
1F
100
AcDbEntity
  8
SICHTBAR
100
AcDbLine
 10
257.5832101726264
 20
426.0771823154065
 30
0.0001789211428812
 11
266.3653072219677
 21
426.0771823154065
 31
0.0001789211428812
  0
LINE
  5
67C
330
1F
100
AcDbEntity
  8
SICHTBAR
100
AcDbLine
 10
301.0653194319675
 20
426.0771823154057
 30
0.0001789211428812
 11
310.7153395064342
 21
426.0771823154065
 31
0.0001789211428812
  0
LINE
  5
67D
102
{ACAD_REACTORS
330
618
102
}
330
1F
100
AcDbEntity
  8
SICHTBAR
100
AcDbLine
 10
235.4622713003591
 20
426.0771823154065
 30
0.0001789211428812
 11
234.5158320088958
 21
418.0009516844386
 31
0.0001789211428812
  0
LINE
  5
67E
102
{ACAD_REACTORS
330
618
102
}
330
1F
100
AcDbEntity
  8
SICHTBAR
100
AcDbLine
 10
235.4622713003591
 20
426.0771823154065
 30
0.0001789211428812
 11
234.4622713003591
 21
432.0771823154066
 31
0.0001789211428812
  0
LINE
  5
67F
102
{ACAD_REACTORS
330
618
102
}
330
1F
100
AcDbEntity
  8
SICHTBAR
100
AcDbLine
 10
310.7153438419664
 20
426.0771823154065
 30
0.0001789211428812
 11
311.7153438419664
 21
432.0771823154066
 31
0.0001789211428812
  0
ARC
  5
680
102
{ACAD_REACTORS
330
618
102
}
330
1F
100
AcDbEntity
  8
SICHTBAR
100
AcDbCircle
 10
233.5226286269135
 20
418.1173434454069
 30
0.0001789211428812
 40
1.0
100
AcDbArc
 50
270.0
 51
353.3160938016371
  0
LINE
  5
681
102
{ACAD_REACTORS
330
618
102
}
330
1F
100
AcDbEntity
  8
SICHTBAR
100
AcDbLine
 10
255.6442451184885
 20
417.1231257601022
 30
0.0001789211428812
 11
247.9235518755377
 21
417.1231257601022
 31
0.0001789211428812
  0
LINE
  5
682
102
{ACAD_REACTORS
330
618
102
}
330
1F
100
AcDbEntity
  8
SICHTBAR
100
AcDbLine
 10
245.9838816919328
 20
426.082964630102
 30
0.0001789211428812
 11
246.9303488846563
 21
418.0067306618086
 31
0.0001789211428812
  0
ARC
  5
683
102
{ACAD_REACTORS
330
618
102
}
330
1F
100
AcDbEntity
  8
SICHTBAR
100
AcDbCircle
 10
247.9235518755377
 20
418.1231257601023
 30
0.0001789211428812
 40
1.0
100
AcDbArc
 50
186.6840987215885
 51
270.0
  0
LINE
  5
684
102
{ACAD_REACTORS
330
618
102
}
330
1F
100
AcDbEntity
  8
SICHTBAR
100
AcDbLine
 10
257.5838877919341
 20
426.082964630102
 30
0.0001789211428812
 11
256.6374485004708
 21
418.0067339991357
 31
0.0001789211428812
  0
ARC
  5
685
102
{ACAD_REACTORS
330
618
102
}
330
1F
100
AcDbEntity
  8
SICHTBAR
100
AcDbCircle
 10
255.6442451184885
 20
418.1231257601032
 30
0.0001789211428812
 40
1.0
100
AcDbArc
 50
270.0
 51
353.3160938016371
  0
LINE
  5
686
102
{ACAD_REACTORS
330
618
102
}
330
1F
100
AcDbEntity
  8
SICHTBAR
100
AcDbLine
 10
257.5838877919341
 20
426.082964630102
 30
0.0001789211428812
 11
256.5838877919341
 21
432.0829646301019
 31
0.0001789211428812
  0
LINE
  5
687
102
{ACAD_REACTORS
330
618
102
}
330
1F
100
AcDbEntity
  8
SICHTBAR
100
AcDbLine
 10
276.0249930095197
 20
417.1231257601022
 30
0.0001789211428812
 11
268.3042997665652
 21
417.1231257601022
 31
0.0001789211428812
  0
LINE
  5
688
102
{ACAD_REACTORS
330
618
102
}
330
1F
100
AcDbEntity
  8
SICHTBAR
100
AcDbLine
 10
266.3646295829603
 20
426.0829646301028
 30
0.0001789211428812
 11
267.3110967756838
 21
418.0067306618086
 31
0.0001789211428812
  0
ARC
  5
689
102
{ACAD_REACTORS
330
618
102
}
330
1F
100
AcDbEntity
  8
SICHTBAR
100
AcDbCircle
 10
268.3042997665652
 20
418.1231257601023
 30
0.0001789211428812
 40
1.0
100
AcDbArc
 50
186.6840987215885
 51
270.0
  0
LINE
  5
68A
102
{ACAD_REACTORS
330
618
102
}
330
1F
100
AcDbEntity
  8
SICHTBAR
100
AcDbLine
 10
277.9646356829617
 20
426.082964630102
 30
0.0001789211428812
 11
277.0181963914983
 21
418.0067339991349
 31
0.0001789211428812
  0
ARC
  5
68B
102
{ACAD_REACTORS
330
618
102
}
330
1F
100
AcDbEntity
  8
SICHTBAR
100
AcDbCircle
 10
276.0249930095197
 20
418.1231257601023
 30
0.0001789211428812
 40
1.0
100
AcDbArc
 50
270.0
 51
353.3160938016371
  0
LINE
  5
68C
102
{ACAD_REACTORS
330
618
102
}
330
1F
100
AcDbEntity
  8
SICHTBAR
100
AcDbLine
 10
277.9646356829617
 20
426.082964630102
 30
0.0001789211428812
 11
276.9646356829617
 21
432.0829646301028
 31
0.0001789211428812
  0
LINE
  5
68D
102
{ACAD_REACTORS
330
618
102
}
330
1F
100
AcDbEntity
  8
SICHTBAR
100
AcDbLine
 10
299.2250052195195
 20
417.1231257601022
 30
0.0001789211428812
 11
291.5043119765651
 21
417.1231257601022
 31
0.0001789211428812
  0
LINE
  5
68E
102
{ACAD_REACTORS
330
618
102
}
330
1F
100
AcDbEntity
  8
SICHTBAR
100
AcDbLine
 10
289.5646417929602
 20
426.082964630102
 30
0.0001789211428812
 11
290.5111089856837
 21
418.0067306618086
 31
0.0001789211428812
  0
ARC
  5
68F
102
{ACAD_REACTORS
330
618
102
}
330
1F
100
AcDbEntity
  8
SICHTBAR
100
AcDbCircle
 10
291.5043119765651
 20
418.1231257601032
 30
0.0001789211428812
 40
1.0
100
AcDbArc
 50
186.6840987215885
 51
270.0
  0
LINE
  5
690
102
{ACAD_REACTORS
330
618
102
}
330
1F
100
AcDbEntity
  8
SICHTBAR
100
AcDbLine
 10
301.1646478929615
 20
426.082964630102
 30
0.0001789211428812
 11
300.2182086014982
 21
418.0067339991349
 31
0.0001789211428812
  0
ARC
  5
691
102
{ACAD_REACTORS
330
618
102
}
330
1F
100
AcDbEntity
  8
SICHTBAR
100
AcDbCircle
 10
299.2250052195195
 20
418.1231257601023
 30
0.0001789211428812
 40
1.0
100
AcDbArc
 50
270.0
 51
353.3160938016371
  0
LINE
  5
692
102
{ACAD_REACTORS
330
618
102
}
330
1F
100
AcDbEntity
  8
SICHTBAR
100
AcDbLine
 10
301.1646478929615
 20
426.082964630102
 30
0.0001789211428812
 11
300.1646478929615
 21
432.0829646301019
 31
0.0001789211428812
  0
LINE
  5
693
102
{ACAD_REACTORS
330
618
102
}
330
1F
100
AcDbEntity
  8
SICHTBAR
100
AcDbLine
 10
245.9838816919328
 20
426.082964630102
 30
0.0001789211428812
 11
246.9838816919327
 21
432.0829646301019
 31
0.0001789211428812
  0
LINE
  5
694
102
{ACAD_REACTORS
330
618
102
}
330
1F
100
AcDbEntity
  8
SICHTBAR
100
AcDbLine
 10
266.3646295829603
 20
426.0829646301028
 30
0.0001789211428812
 11
267.3646295829603
 21
432.0829646301019
 31
0.0001789211428812
  0
LINE
  5
695
102
{ACAD_REACTORS
330
618
102
}
330
1F
100
AcDbEntity
  8
SICHTBAR
100
AcDbLine
 10
289.5646417929602
 20
426.082964630102
 30
0.0001789211428812
 11
290.5646417929602
 21
432.0829646301028
 31
0.0001789211428812
  0
LINE
  5
696
102
{ACAD_REACTORS
330
618
102
}
330
1F
100
AcDbEntity
  8
SICHTBAR
100
AcDbLine
 10
233.5226286269135
 20
417.117343445406
 30
0.0001789211428812
 11
225.8019353839627
 21
417.1173434454069
 31
0.0001789211428812
  0
LINE
  5
697
102
{ACAD_REACTORS
330
618
102
}
330
1F
100
AcDbEntity
  8
SICHTBAR
100
AcDbLine
 10
349.419872651968
 20
426.0771823154065
 30
0.0001789211428812
 11
349.2104610319693
 21
432.0735202054067
 31
0.0001789211428812
  0
LINE
  5
698
102
{ACAD_REACTORS
330
618
102
}
330
1F
100
AcDbEntity
  8
SICHTBAR
100
AcDbLine
 10
349.419872651968
 20
426.0771823154065
 30
0.0001789211428812
 11
347.7371944319675
 21
412.0771823154066
 31
0.0001789211428812
  0
LINE
  5
699
330
1F
100
AcDbEntity
  8
SICHTBAR
100
AcDbLine
 10
358.5118930521348
 20
432.0940847482627
 30
0.0001789211428935
 11
351.9087238318061
 21
432.0940847482609
 31
0.0001789211428935
  0
LINE
  5
69A
330
1F
100
AcDbEntity
  8
SICHTBAR
100
AcDbLine
 10
351.2103084419686
 20
412.0940847482609
 30
0.0001789211428935
 11
351.9087238318061
 21
432.0940847482609
 31
0.0001789211428935
  0
LINE
  5
69B
330
1F
100
AcDbEntity
  8
SICHTBAR
100
AcDbLine
 10
359.2103084419687
 20
412.0940847482627
 30
0.0001789211428935
 11
358.5118930521348
 21
432.0940847482627
 31
0.0001789211428935
  0
LINE
  5
69C
330
1F
100
AcDbEntity
  8
SICHTBAR
100
AcDbLine
 10
343.15786681178
 20
412.0940847482609
 30
0.0001789211428829
 11
338.3901780498709
 21
407.3263959863527
 31
0.0001789211428829
  0
LINE
  5
69D
330
1F
100
AcDbEntity
  8
SICHTBAR
100
AcDbLine
 10
338.3901780498709
 20
407.3263959863527
 30
0.0001789211428829
 11
337.9426196800596
 21
407.3263959863527
 31
0.0001789211428829
  0
LINE
  5
69E
330
1F
100
AcDbEntity
  8
SICHTBAR
100
AcDbLine
 10
351.2103084419686
 20
412.0940847482609
 30
0.0001789211428829
 11
337.7103084419687
 21
412.0940847482609
 31
0.0001789211428829
  0
ENDSEC
  0
SECTION
  2
OBJECTS
  0
DICTIONARY
  5
C
330
0
100
AcDbDictionary
281
     1
  3
ACAD_COLOR
350
6ED
  3
ACAD_GROUP
350
D
  3
ACAD_LAYOUT
350
1A
  3
ACAD_MATERIAL
350
6EC
  3
ACAD_MLINESTYLE
350
17
  3
ACAD_PLOTSETTINGS
350
19
  3
ACAD_PLOTSTYLENAME
350
E
  3
ACAD_TABLESTYLE
350
6EE
  3
ACDBHEADERROUNDTRIPXREC
350
78C
  3
AcDbVariableDictionary
350
34
  3
AcmDictionary
350
47
  3
AMG
350
2B
  3
AMGSNAPSETTINGS
350
3EC
  3
DWGPROPS
350
78B
  0
DICTIONARY
  5
6DF
330
1F
100
AcDbDictionary
280
     1
281
     1
  0
DICTIONARY
  5
6ED
102
{ACAD_REACTORS
330
C
102
}
330
C
100
AcDbDictionary
281
     1
  0
DICTIONARY
  5
D
102
{ACAD_REACTORS
330
C
102
}
330
C
100
AcDbDictionary
281
     1
  0
DICTIONARY
  5
1A
102
{ACAD_REACTORS
330
C
102
}
330
C
100
AcDbDictionary
281
     1
  3
Layout1
350
1E
  3
Layout2
350
26
  3
Model
350
22
  0
DICTIONARY
  5
6EC
102
{ACAD_REACTORS
330
C
102
}
330
C
100
AcDbDictionary
281
     1
  0
DICTIONARY
  5
17
102
{ACAD_REACTORS
330
C
102
}
330
C
100
AcDbDictionary
281
     1
  3
Standard
350
18
  0
DICTIONARY
  5
19
102
{ACAD_REACTORS
330
C
102
}
330
C
100
AcDbDictionary
281
     1
  0
ACDBDICTIONARYWDFLT
  5
E
102
{ACAD_REACTORS
330
C
102
}
330
C
100
AcDbDictionary
281
     1
  3
Normal
350
F
100
AcDbDictionaryWithDefault
340
F
  0
DICTIONARY
  5
6EE
102
{ACAD_REACTORS
330
C
102
}
330
C
100
AcDbDictionary
281
     1
  3
Standard
350
6EF
  0
DICTIONARY
  5
78C
102
{ACAD_REACTORS
330
C
102
}
330
C
100
AcDbDictionary
281
     1
  0
DICTIONARY
  5
34
102
{ACAD_REACTORS
330
C
102
}
330
C
100
AcDbDictionary
281
     1
  3
CTABLESTYLE
350
787
  3
DIMASSOC
350
788
  3
INDEXCTL
350
35
  3
PROJECTNAME
350
789
  0
DICTIONARY
  5
47
102
{ACAD_REACTORS
330
C
102
}
330
C
100
AcDbDictionary
281
     1
  3
AcmStdDictionary
350
4C
  3
AMDTSECTSYM_ARROWCOLOR
350
749
  0
DICTIONARY
  5
2B
102
{ACAD_REACTORS
330
C
102
}
330
C
100
AcDbDictionary
281
     1
  0
DICTIONARY
  5
3EC
102
{ACAD_REACTORS
330
C
102
}
330
C
100
AcDbDictionary
281
     1
  0
XRECORD
  5
78B
102
{ACAD_REACTORS
330
C
102
}
330
C
100
AcDbXrecord
280
     1
  1
DWGPROPS COOKIE
  2

  3

  4

  6

  7

  8

  9

300
AmdtFileType=84
301
=
302
=
303
=
304
=
305
=
306
=
307
=
308
=
309
=
 40
0.0011843402777778
 41
2453464.960935104
 42
2454019.950524815
  1

 90
        1
  0
LAYOUT
  5
1E
102
{ACAD_XDICTIONARY
360
78D
102
}
102
{ACAD_REACTORS
330
1A
102
}
330
1A
100
AcDbPlotSettings
  1

  2
\\rd-sr-200\AA-PR-032
  4

  6

 40
0.0
 41
0.0
 42
0.0
 43
0.0
 44
0.0
 45
0.0
 46
0.0
 47
0.0
 48
0.0
 49
0.0
140
0.0
141
0.0
142
1.0
143
1.0
 70
   688
 72
     0
 73
     0
 74
     5
  7

 75
    16
147
1.0
148
0.0
149
0.0
100
AcDbLayout
  1
Layout1
 70
     1
 71
     1
 10
0.0
 20
0.0
 11
420.0
 21
297.0
 12
0.0
 22
0.0
 32
0.0
 14
1.000000000000000E+20
 24
1.000000000000000E+20
 34
1.000000000000000E+20
 15
-1.000000000000000E+20
 25
-1.000000000000000E+20
 35
-1.000000000000000E+20
146
0.0
 13
0.0
 23
0.0
 33
0.0
 16
1.0
 26
0.0
 36
0.0
 17
0.0
 27
1.0
 37
0.0
 76
     0
330
1B
  0
LAYOUT
  5
26
102
{ACAD_XDICTIONARY
360
791
102
}
102
{ACAD_REACTORS
330
1A
102
}
330
1A
100
AcDbPlotSettings
  1

  2
\\rd-sr-200\AA-PR-032
  4

  6

 40
0.0
 41
0.0
 42
0.0
 43
0.0
 44
0.0
 45
0.0
 46
0.0
 47
0.0
 48
0.0
 49
0.0
140
0.0
141
0.0
142
1.0
143
1.0
 70
   688
 72
     0
 73
     0
 74
     5
  7

 75
    16
147
1.0
148
0.0
149
0.0
100
AcDbLayout
  1
Layout2
 70
     1
 71
     2
 10
0.0
 20
0.0
 11
12.0
 21
9.0
 12
0.0
 22
0.0
 32
0.0
 14
0.0
 24
0.0
 34
0.0
 15
0.0
 25
0.0
 35
0.0
146
0.0
 13
0.0
 23
0.0
 33
0.0
 16
1.0
 26
0.0
 36
0.0
 17
0.0
 27
1.0
 37
0.0
 76
     0
330
23
  0
LAYOUT
  5
22
102
{ACAD_XDICTIONARY
360
78F
102
}
102
{ACAD_REACTORS
330
1A
102
}
330
1A
100
AcDbPlotSettings
  1

  2
\\rd-sr-200\AA-PR-032
  4

  6

 40
0.0
 41
0.0
 42
0.0
 43
0.0
 44
0.0
 45
0.0
 46
0.0
 47
0.0
 48
0.0
 49
0.0
140
0.0
141
0.0
142
1.0
143
1.0
 70
  1712
 72
     0
 73
     0
 74
     0
  7

 75
     0
147
1.0
148
0.0
149
0.0
100
AcDbLayout
  1
Model
 70
     1
 71
     0
 10
0.0
 20
0.0
 11
12.0
 21
9.0
 12
0.0
 22
0.0
 32
0.0
 14
0.0
 24
0.0
 34
0.0
 15
0.0
 25
0.0
 35
0.0
146
0.0
 13
0.0
 23
0.0
 33
0.0
 16
1.0
 26
0.0
 36
0.0
 17
0.0
 27
1.0
 37
0.0
 76
     0
330
1F
  0
MLINESTYLE
  5
18
102
{ACAD_REACTORS
330
17
102
}
330
17
100
AcDbMlineStyle
  2
STANDARD
 70
     0
  3

 62
   256
 51
90.0
 52
90.0
 71
     2
 49
0.5
 62
   256
  6
BYLAYER
 49
-0.5
 62
   256
  6
BYLAYER
  0
ACDBPLACEHOLDER
  5
F
102
{ACAD_REACTORS
330
E
102
}
330
E
  0
TABLESTYLE
  5
6EF
102
{ACAD_REACTORS
330
6EE
102
}
330
6EE
100
AcDbTableStyle
  3
Standard
 70
     0
 71
     0
 40
1.5
 41
1.5
280
     0
281
     0
  7
STANDARD
140
4.5
170
     2
 62
     0
 63
     7
283
     0
274
    -2
284
     1
 64
     0
275
    -2
285
     1
 65
     0
276
    -2
286
     1
 66
     0
277
    -2
287
     1
 67
     0
278
    -2
288
     1
 68
     0
279
    -2
289
     1
 69
     0
  7
STANDARD
140
6.0
170
     5
 62
     0
 63
     7
283
     0
274
    -2
284
     1
 64
     0
275
    -2
285
     1
 65
     0
276
    -2
286
     1
 66
     0
277
    -2
287
     1
 67
     0
278
    -2
288
     1
 68
     0
279
    -2
289
     1
 69
     0
  7
STANDARD
140
4.5
170
     5
 62
     0
 63
     7
283
     0
274
    -2
284
     1
 64
     0
275
    -2
285
     1
 65
     0
276
    -2
286
     1
 66
     0
277
    -2
287
     1
 67
     0
278
    -2
288
     1
 68
     0
279
    -2
289
     1
 69
     0
  0
DICTIONARYVAR
  5
787
102
{ACAD_REACTORS
330
34
102
}
330
34
100
DictionaryVariables
280
     0
  1
STANDARD
  0
DICTIONARYVAR
  5
788
102
{ACAD_REACTORS
330
34
102
}
330
34
100
DictionaryVariables
280
     0
  1
1
  0
DICTIONARYVAR
  5
35
102
{ACAD_REACTORS
330
34
102
}
330
34
100
DictionaryVariables
280
     0
  1
0
  0
DICTIONARYVAR
  5
789
102
{ACAD_REACTORS
330
34
102
}
330
34
100
DictionaryVariables
280
     0
  1

  0
DICTIONARY
  5
4C
102
{ACAD_REACTORS
330
47
102
}
330
47
100
AcDbDictionary
281
     1
  0
XRECORD
  5
749
102
{ACAD_REACTORS
330
47
102
}
330
47
100
AcDbXrecord
280
     1
 90
-1023410169
  0
DICTIONARY
  5
78D
330
1E
100
AcDbDictionary
280
     1
281
     1
  3
ACAD_XREC_ROUNDTRIP
360
78E
  0
DICTIONARY
  5
791
330
26
100
AcDbDictionary
280
     1
281
     1
  3
ACAD_XREC_ROUNDTRIP
360
792
  0
DICTIONARY
  5
78F
330
22
100
AcDbDictionary
280
     1
281
     1
  3
ACAD_XREC_ROUNDTRIP
360
790
  0
XRECORD
  5
78E
102
{ACAD_REACTORS
330
78D
102
}
330
78D
100
AcDbXrecord
280
     1
102
SHADEPLOT
 70
     0
102
SHADEPLOTRESLEVEL
 70
     2
102
SHADEPLOTCUSTOMDPI
 70
   300
  0
XRECORD
  5
792
102
{ACAD_REACTORS
330
791
102
}
330
791
100
AcDbXrecord
280
     1
102
SHADEPLOT
 70
     0
102
SHADEPLOTRESLEVEL
 70
     2
102
SHADEPLOTCUSTOMDPI
 70
   300
  0
XRECORD
  5
790
102
{ACAD_REACTORS
330
78F
102
}
330
78F
100
AcDbXrecord
280
     1
102
SHADEPLOT
 70
     0
102
SHADEPLOTRESLEVEL
 70
     2
102
SHADEPLOTCUSTOMDPI
 70
   300
  0
ENDSEC
  0
EOF
