  0
SECTION
  2
HEADER
  9
$ACADVER
  1
AC1015
  9
$ACADMAINTVER
 70
    20
  9
$DWGCODEPAGE
  3
ANSI_1252
  9
$INSBASE
 10
0.0
 20
0.0
 30
0.0
  9
$EXTMIN
 10
177.4887111474395
 20
202.1621730902257
 30
-0.0015258207003583
  9
$EXTMAX
 10
475.2525347346118
 20
454.3441789973808
 30
0.0000000349246037
  9
$LIMMIN
 10
0.0
 20
0.0
  9
$LIMMAX
 10
1050.0
 20
1050.0
  9
$ORTHOMODE
 70
     0
  9
$REGENMODE
 70
     1
  9
$FILLMODE
 70
     1
  9
$QTEXTMODE
 70
     0
  9
$MIRRTEXT
 70
     0
  9
$LTSCALE
 40
5.0
  9
$ATTMODE
 70
     1
  9
$TEXTSIZE
 40
7.0
  9
$TRACEWID
 40
0.05
  9
$TEXTSTYLE
  7
STANDARD
  9
$CLAYER
  8
0
  9
$CELTYPE
  6
BYLAYER
  9
$CECOLOR
 62
   256
  9
$CELTSCALE
 40
1.0
  9
$DISPSILH
 70
     0
  9
$DIMSCALE
 40
5.0
  9
$DIMASZ
 40
2.5
  9
$DIMEXO
 40
1.0
  9
$DIMDLI
 40
7.0
  9
$DIMRND
 40
0.0
  9
$DIMDLE
 40
0.0
  9
$DIMEXE
 40
1.0
  9
$DIMTP
 40
0.1
  9
$DIMTM
 40
0.1
  9
$DIMTXT
 40
3.5
  9
$DIMCEN
 40
0.0
  9
$DIMTSZ
 40
0.0
  9
$DIMTOL
 70
     0
  9
$DIMLIM
 70
     0
  9
$DIMTIH
 70
     0
  9
$DIMTOH
 70
     0
  9
$DIMSE1
 70
     0
  9
$DIMSE2
 70
     0
  9
$DIMTAD
 70
     1
  9
$DIMZIN
 70
    12
  9
$DIMBLK
  1

  9
$DIMASO
 70
     1
  9
$DIMSHO
 70
     1
  9
$DIMPOST
  1

  9
$DIMAPOST
  1
"
  9
$DIMALT
 70
     0
  9
$DIMALTD
 70
     2
  9
$DIMALTF
 40
0.03937
  9
$DIMLFAC
 40
1.0
  9
$DIMTOFL
 70
     1
  9
$DIMTVP
 40
0.0
  9
$DIMTIX
 70
     0
  9
$DIMSOXD
 70
     0
  9
$DIMSAH
 70
     0
  9
$DIMBLK1
  1

  9
$DIMBLK2
  1

  9
$DIMSTYLE
  2
GEN-ISO
  9
$DIMCLRD
 70
   256
  9
$DIMCLRE
 70
   256
  9
$DIMCLRT
 70
     2
  9
$DIMTFAC
 40
0.71
  9
$DIMGAP
 40
0.6
  9
$DIMJUST
 70
     0
  9
$DIMSD1
 70
     0
  9
$DIMSD2
 70
     0
  9
$DIMTOLJ
 70
     0
  9
$DIMTZIN
 70
     0
  9
$DIMALTZ
 70
     0
  9
$DIMALTTZ
 70
     0
  9
$DIMUPT
 70
     0
  9
$DIMDEC
 70
     2
  9
$DIMTDEC
 70
     3
  9
$DIMALTU
 70
     2
  9
$DIMALTTD
 70
     4
  9
$DIMTXSTY
  7
STANDARD
  9
$DIMAUNIT
 70
     0
  9
$DIMADEC
 70
     0
  9
$DIMALTRND
 40
0.0
  9
$DIMAZIN
 70
     0
  9
$DIMDSEP
 70
    46
  9
$DIMATFIT
 70
     3
  9
$DIMFRAC
 70
     0
  9
$DIMLDRBLK
  1

  9
$DIMLUNIT
 70
     2
  9
$DIMLWD
 70
    -2
  9
$DIMLWE
 70
    -2
  9
$DIMTMOVE
 70
     0
  9
$LUNITS
 70
     2
  9
$LUPREC
 70
     2
  9
$SKETCHINC
 40
0.1
  9
$FILLETRAD
 40
12.5
  9
$AUNITS
 70
     0
  9
$AUPREC
 70
     2
  9
$MENU
  1
.
  9
$ELEVATION
 40
0.0
  9
$PELEVATION
 40
0.0
  9
$THICKNESS
 40
0.0
  9
$LIMCHECK
 70
     0
  9
$CHAMFERA
 40
12.5
  9
$CHAMFERB
 40
12.5
  9
$CHAMFERC
 40
0.0
  9
$CHAMFERD
 40
0.0
  9
$SKPOLY
 70
     0
  9
$TDCREATE
 40
2451295.603471378
  9
$TDUCREATE
 40
2451295.520138044
  9
$TDUPDATE
 40
2454019.948468148
  9
$TDUUPDATE
 40
2454019.865134815
  9
$TDINDWG
 40
0.0053357870
  9
$TDUSRTIMER
 40
0.0053356713
  9
$USRTIMER
 70
     1
  9
$ANGBASE
 50
0.0
  9
$ANGDIR
 70
     0
  9
$PDMODE
 70
     0
  9
$PDSIZE
 40
0.0
  9
$PLINEWID
 40
0.0
  9
$SPLFRAME
 70
     0
  9
$SPLINETYPE
 70
     6
  9
$SPLINESEGS
 70
     8
  9
$HANDSEED
  5
1946
  9
$SURFTAB1
 70
     6
  9
$SURFTAB2
 70
     6
  9
$SURFTYPE
 70
     6
  9
$SURFU
 70
     6
  9
$SURFV
 70
     6
  9
$UCSBASE
  2

  9
$UCSNAME
  2

  9
$UCSORG
 10
0.0
 20
0.0
 30
0.0
  9
$UCSXDIR
 10
1.0
 20
0.0
 30
0.0
  9
$UCSYDIR
 10
0.0
 20
1.0
 30
0.0
  9
$UCSORTHOREF
  2

  9
$UCSORTHOVIEW
 70
     0
  9
$UCSORGTOP
 10
0.0
 20
0.0
 30
0.0
  9
$UCSORGBOTTOM
 10
0.0
 20
0.0
 30
0.0
  9
$UCSORGLEFT
 10
0.0
 20
0.0
 30
0.0
  9
$UCSORGRIGHT
 10
0.0
 20
0.0
 30
0.0
  9
$UCSORGFRONT
 10
0.0
 20
0.0
 30
0.0
  9
$UCSORGBACK
 10
0.0
 20
0.0
 30
0.0
  9
$PUCSBASE
  2

  9
$PUCSNAME
  2

  9
$PUCSORG
 10
0.0
 20
0.0
 30
0.0
  9
$PUCSXDIR
 10
1.0
 20
0.0
 30
0.0
  9
$PUCSYDIR
 10
0.0
 20
1.0
 30
0.0
  9
$PUCSORTHOREF
  2

  9
$PUCSORTHOVIEW
 70
     0
  9
$PUCSORGTOP
 10
0.0
 20
0.0
 30
0.0
  9
$PUCSORGBOTTOM
 10
0.0
 20
0.0
 30
0.0
  9
$PUCSORGLEFT
 10
0.0
 20
0.0
 30
0.0
  9
$PUCSORGRIGHT
 10
0.0
 20
0.0
 30
0.0
  9
$PUCSORGFRONT
 10
0.0
 20
0.0
 30
0.0
  9
$PUCSORGBACK
 10
0.0
 20
0.0
 30
0.0
  9
$USERI1
 70
     0
  9
$USERI2
 70
     0
  9
$USERI3
 70
     0
  9
$USERI4
 70
     0
  9
$USERI5
 70
     0
  9
$USERR1
 40
0.0
  9
$USERR2
 40
0.0
  9
$USERR3
 40
0.0
  9
$USERR4
 40
0.0
  9
$USERR5
 40
0.0
  9
$WORLDVIEW
 70
     1
  9
$SHADEDGE
 70
     3
  9
$SHADEDIF
 70
    70
  9
$TILEMODE
 70
     1
  9
$MAXACTVP
 70
    48
  9
$PINSBASE
 10
0.0
 20
0.0
 30
0.0
  9
$PLIMCHECK
 70
     0
  9
$PEXTMIN
 10
0.0
 20
0.0
 30
0.0
  9
$PEXTMAX
 10
209.9
 20
296.9
 30
0.0
  9
$PLIMMIN
 10
0.0
 20
0.0
  9
$PLIMMAX
 10
209.9
 20
296.9
  9
$UNITMODE
 70
     0
  9
$VISRETAIN
 70
     1
  9
$PLINEGEN
 70
     1
  9
$PSLTSCALE
 70
     1
  9
$TREEDEPTH
 70
 -3020
  9
$CMLSTYLE
  2
STANDARD
  9
$CMLJUST
 70
     0
  9
$CMLSCALE
 40
1.0
  9
$PROXYGRAPHICS
 70
     1
  9
$MEASUREMENT
 70
     1
  9
$CELWEIGHT
370
    -1
  9
$ENDCAPS
280
     0
  9
$JOINSTYLE
280
     0
  9
$LWDISPLAY
290
     0
  9
$INSUNITS
 70
     0
  9
$HYPERLINKBASE
  1

  9
$STYLESHEET
  1

  9
$XEDIT
290
     1
  9
$CEPSNTYPE
380
     0
  9
$PSTYLEMODE
290
     1
  9
$FINGERPRINTGUID
  2
{AC30C308-ADBE-4066-B42D-A85A3AF2DF76}
  9
$VERSIONGUID
  2
{D06C90CC-792A-499B-A351-D1E5AD30294C}
  9
$EXTNAMES
290
     1
  9
$PSVPSCALE
 40
0.0
  9
$OLESTARTUP
290
     0
  0
ENDSEC
  0
SECTION
  2
CLASSES
  0
CLASS
  1
ACDBDICTIONARYWDFLT
  2
AcDbDictionaryWithDefault
  3
ObjectDBX Classes
 90
        0
280
     0
281
     0
  0
CLASS
  1
TABLESTYLE
  2
AcDbTableStyle
  3
ObjectDBX Classes
 90
     2047
280
     0
281
     0
  0
CLASS
  1
AMGSETTINGSOBJ
  2
AmgSettingsObj
  3
"AcadM|Product Description: AutoCAD Mechanical 2000|Company: Autodesk"
 90
        0
280
     0
281
     0
  0
CLASS
  1
ACME_DOCUMENT
  2
AcMeDbDoc
  3
AcMeServices
 90
        0
280
     0
281
     0
  0
CLASS
  1
ACMESCOPE
  2
AcMeScope
  3
AcMeServices
 90
        0
280
     0
281
     0
  0
CLASS
  1
ACMECOMMANDHISTORY
  2
AcMeCommandHistory
  3
AcMeServices
 90
        0
280
     0
281
     0
  0
CLASS
  1
ACIMSYSVARMAN
  2
AcImSysVarManager
  3
AcMeServices
 90
        0
280
     0
281
     0
  0
CLASS
  1
ACIMINTSYSVAR
  2
AcImIntSysVar
  3
AcMeServices
 90
        0
280
     0
281
     0
  0
CLASS
  1
ACMEDRAWINGMAN
  2
AcMeDrawingMan
  3
AcMeServices
 90
        0
280
     0
281
     0
  0
CLASS
  1
ACMEVIEW
  2
AcMeView
  3
AcMeServices
 90
        0
280
     0
281
     0
  0
CLASS
  1
ACDBENTITYCACHE
  2
AcMeEntityCache
  3
AcMeServices
 90
        0
280
     0
281
     0
  0
CLASS
  1
GSMANAGER
  2
AcMeGSManager
  3
AcMeServices
 90
        0
280
     0
281
     0
  0
CLASS
  1
AMDTINTERNALREACTOR
  2
AmdtInternalReactor
  3
AcMeServices
 90
        0
280
     0
281
     0
  0
CLASS
  1
ACMESTATEMGR
  2
AcMeStateMgr
  3
AcMeServices
 90
        0
280
     0
281
     0
  0
CLASS
  1
ACGREFMASTER
  2
AcGrefMaster
  3
AcAttribServices
 90
        0
280
     0
281
     0
  0
CLASS
  1
AM_DRAWING_MGR
  2
AcDmDwgMgr
  3
AcMechDwgViewMgmt
 90
        0
280
     0
281
     0
  0
CLASS
  1
AM_DWG_DOCUMENT
  2
AcDmDwgDocument
  3
AcMechDwgViewMgmt
 90
        0
280
     0
281
     0
  0
CLASS
  1
AM_DWG_SHEET
  2
AcDmSheet
  3
AcMechDwgViewMgmt
 90
        0
280
     0
281
     0
  0
CLASS
  1
AM_VIEWDIMPARMAP
  2
AcDmViewDimParMap
  3
AcMechDwgViewMgmt
 90
        0
280
     0
281
     0
  0
CLASS
  1
ACIMREALSYSVAR
  2
AcImRealSysVar
  3
AcMeServices
 90
        0
280
     0
281
     0
  0
CLASS
  1
AM_DWGMGR_NAME
  2
AcDmDwgMgrName
  3
AcMechDwgViewMgmt
 90
        0
280
     0
281
     0
  0
CLASS
  1
ACME_DATABASE
  2
AcMeDbDatabase
  3
AcMeServices
 90
        0
280
     0
281
     0
  0
CLASS
  1
ACRFINSADJUSTERMGR
  2
AcRfInsAdjusterMgr
  3
AcMeServices
 90
        0
280
     0
281
     0
  0
CLASS
  1
ACGREFACADMASTER
  2
AcGrefacadMaster
  3
AcGrefServices
 90
        0
280
     0
281
     0
  0
CLASS
  1
AMDTMENUSTATEMGR
  2
AmdtMenuStateMgr
  3
McadcomServices
 90
        0
280
     0
281
     0
  0
CLASS
  1
AMDTMCOMMENUSTATE
  2
AmdtMcomMenuState
  3
McadcomServices
 90
        0
280
     0
281
     0
  0
CLASS
  1
AMIMASTER
  2
AmiMaster
  3
AmiServices
 90
        0
280
     0
281
     0
  0
CLASS
  1
MAPIAMMOUDLE
  2
MApiAmModule
  3
MApiAmServices
 90
        0
280
     0
281
     0
  0
CLASS
  1
ACIMSTRSYSVAR
  2
AcImStrSysVar
  3
AcMeServices
 90
        0
280
     0
281
     0
  0
CLASS
  1
AMDTADMENUSTATE
  2
AmdtAdMenuState
  3
DesignerServices
 90
        0
280
     0
281
     0
  0
CLASS
  1
ADAPPL
  2
AcAdAppl
  3
DesignerServices
 90
        0
280
     0
281
     0
  0
CLASS
  1
DEPMGR
  2
AcAdDepMgr
  3
DesignerServices
 90
        0
280
     0
281
     0
  0
CLASS
  1
PARAMMGR
  2
AcAdParamMgr
  3
DesignerServices
 90
        0
280
     0
281
     0
  0
CLASS
  1
PARAMSCOPE
  2
AcAdParamScope
  3
DesignerServices
 90
        0
280
     0
281
     0
  0
CLASS
  1
NAMEDAPPL
  2
AcAdNamedAppl
  3
DesignerServices
 90
        0
280
     0
281
     0
  0
CLASS
  1
AMDTDMMENUSTATE
  2
AmdtDmMenuState
  3
AcMechDwgViewMgmt
 90
        0
280
     0
281
     0
  0
CLASS
  1
AMDTAMMENUSTATE
  2
AmdtAmMenuState
  3
DesignerAssemblies
 90
        0
280
     0
281
     0
  0
CLASS
  1
ACAMPROJECT
  2
AcAmProject
  3
DesignerAssemblies
 90
        0
280
     0
281
     0
  0
CLASS
  1
ACAMGRCOMPDEF
  2
AcAmGrCompDef
  3
DesignerAssemblies
 90
        0
280
     0
281
     0
  0
CLASS
  1
ACCMCONTEXT
  2
AcCmContext
  3
DesignerAssemblies
 90
        0
280
     0
281
     0
  0
CLASS
  1
ACAMCOMPDEF
  2
AcAmCompDef
  3
DesignerAssemblies
 90
        0
280
     0
281
     0
  0
CLASS
  1
ACAMCOMPDEFMGR
  2
AcAmCompDefMgr
  3
DesignerAssemblies
 90
        0
280
     0
281
     0
  0
CLASS
  1
AMCONTEXTMGR
  2
AcAmContextMgr
  3
DesignerAssemblies
 90
        0
280
     0
281
     0
  0
CLASS
  1
ACAMCONTEXTMODELER
  2
AcAmContextModeler
  3
DesignerAssemblies
 90
        0
280
     0
281
     0
  0
CLASS
  1
ACMDATADICTIONARY
  2
AcmDataDictionary
  3
"AcmSymBB|Product Description: AutoCAD Mechanical 2004 DX|Company: Autodesk"
 90
        0
280
     0
281
     0
  0
CLASS
  1
CATALOGSTATE
  2
AcAmCatalogState
  3
DesignerAssemblies
 90
        0
280
     0
281
     0
  0
CLASS
  1
ACAMGRCOMPDEFSET
  2
AcAmGrCompDefSet
  3
DesignerAssemblies
 90
        0
280
     0
281
     0
  0
CLASS
  1
AMDTBROWSERDBTAB
  2
AmdtBrowserDbTab
  3
McadcomServices
 90
        0
280
     0
281
     0
  0
CLASS
  1
CBROWSERAPPOBJECT
  2
CBrowserAppObject
  3
McadcomServices
 90
        0
280
     0
281
     0
  0
CLASS
  1
DM_PLACEHOLDER
  2
AcDmSelsetPlaceholder
  3
AcMechDwgViewMgmt
 90
        0
280
     0
281
     0
  0
CLASS
  1
ACMSTANDARDDIN
  2
AcmStandardDIN
  3
"Amdt_StdImp|Product Description: AutoCAD Mechanical 2004 DX|Company: Autodesk"
 90
        0
280
     0
281
     0
  0
CLASS
  1
AMGOBJPROPCFG
  2
AmgObjPropCfg
  3
"AmgLay|Product Description: AutoCAD Mechanical 2000|Company: Autodesk"
 90
        1
280
     0
281
     0
  0
CLASS
  1
AMDTEDGESTANDARDDIN13715
  2
AmdtEdgeStdDIN13715
  3
"Amdt_StdImp|Product Description: AutoCAD Mechanical 2004 DX|Company: Autodesk"
 90
        0
280
     0
281
     0
  0
CLASS
  1
ACMSURFSTANDARDDIN
  2
AcmSurfTextStdDIN
  3
"Amdt_StdImp|Product Description: AutoCAD Mechanical 2004 DX|Company: Autodesk"
 90
        0
280
     0
281
     0
  0
CLASS
  1
ACMFCFSTANDARDDIN
  2
AcmFCFStdDIN
  3
"Amdt_StdImp|Product Description: AutoCAD Mechanical 2004 DX|Company: Autodesk"
 90
        0
280
     0
281
     0
  0
CLASS
  1
ACMWELDSTANDARDDIN
  2
AcmWeldingStdDIN
  3
"Amdt_StdImp|Product Description: AutoCAD Mechanical 2004 DX|Company: Autodesk"
 90
        0
280
     0
281
     0
  0
CLASS
  1
ACMIDSTANDARDDIN
  2
AcmIdStdDIN
  3
"Amdt_StdImp|Product Description: AutoCAD Mechanical 2004 DX|Company: Autodesk"
 90
        0
280
     0
281
     0
  0
CLASS
  1
ACMDATUMSTANDARDDIN
  2
AcmDatumStdDIN
  3
"Amdt_StdImp|Product Description: AutoCAD Mechanical 2004 DX|Company: Autodesk"
 90
        0
280
     0
281
     0
  0
CLASS
  1
ACMBOMSTANDARDDIN
  2
AcmBOMStdDIN
  3
"Amdt_StdImp|Product Description: AutoCAD Mechanical 2004 DX|Company: Autodesk"
 90
        0
280
     0
281
     0
  0
CLASS
  1
ACMDETAILSTANDARDDIN
  2
AmdtDetailSymStdDIN
  3
"Amdt_StdImp|Product Description: AutoCAD Mechanical 2004 DX|Company: Autodesk"
 90
        0
280
     0
281
     0
  0
CLASS
  1
ACMSECTIONSTANDARDDIN
  2
AmdtSectionSymStdDIN
  3
"Amdt_StdImp|Product Description: AutoCAD Mechanical 2004 DX|Company: Autodesk"
 90
        0
280
     0
281
     0
  0
CLASS
  1
ACMCENTERLINESTANDARDDIN
  2
AmdtCenterLineStdDIN
  3
"Amdt_StdImp|Product Description: AutoCAD Mechanical 2004 DX|Company: Autodesk"
 90
        0
280
     0
281
     0
  0
CLASS
  1
ACMTHREADLINESTANDARDDIN
  2
AmdtThreadLineStdDIN
  3
"Amdt_StdImp|Product Description: AutoCAD Mechanical 2004 DX|Company: Autodesk"
 90
        0
280
     0
281
     0
  0
CLASS
  1
ACMNOTESTANDARDDIN
  2
AmdtNoteStdDIN
  3
"Amdt_StdImp|Product Description: AutoCAD Mechanical 2004 DX|Company: Autodesk"
 90
        0
280
     0
281
     0
  0
CLASS
  1
AMDTNOTETEMPLATEDB
  2
AmdtNoteTemplateDB
  3
AMDT_STDIMP_MODULE_NAME
 90
        0
280
     0
281
     0
  0
CLASS
  1
ACAMGLAYSTD
  2
AcAmgLayStd
  3
"AcAmgLayStd|Product Description: AutoCAD Mechanical 2000|Company: Autodesk"
 90
        0
280
     0
281
     0
  0
CLASS
  1
ACAMGDIMSTD
  2
AcAmgDimStd
  3
"AcAmgDimStd|Product Description: AutoCAD Mechanical 2000|Company: Autodesk"
 90
        0
280
     0
281
     0
  0
CLASS
  1
ACAMGHOLECHARTSTDDIN
  2
AcAmgHoleChartStdDIN
  3
ACMSYMBB_MODULE_NAME
 90
        0
280
     0
281
     0
  0
CLASS
  1
ACAMGTITLESTD
  2
AcAmgTitleStd
  3
"TITLEAPP"
 90
        0
280
     0
281
     0
  0
CLASS
  1
ACAMGFILTERDAT
  2
AcAmgFilterDat
  3
"AcadM|Product Description: AutoCAD Mechanical 2000|Company: Autodesk"
 90
        0
280
     0
281
     0
  0
CLASS
  1
DICTIONARYVAR
  2
AcDbDictionaryVar
  3
ObjectDBX Classes
 90
        0
280
     0
281
     0
  0
CLASS
  1
ACDBPLACEHOLDER
  2
AcDbPlaceHolder
  3
ObjectDBX Classes
 90
        0
280
     0
281
     0
  0
CLASS
  1
LAYOUT
  2
AcDbLayout
  3
ObjectDBX Classes
 90
        0
280
     0
281
     0
  0
ENDSEC
  0
SECTION
  2
TABLES
  0
TABLE
  2
VPORT
  5
163A
330
0
100
AcDbSymbolTable
 70
     4
  0
VPORT
  5
1940
330
163A
100
AcDbSymbolTableRecord
100
AcDbViewportTableRecord
  2
*Active
 70
     0
 10
0.0
 20
0.0
 11
1.0
 21
1.0
 12
326.3706229410257
 22
328.2531760438033
 13
0.0
 23
0.0
 14
5.0
 24
5.0
 15
50.0
 25
50.0
 16
0.0
 26
0.0
 36
1.0
 17
0.0
 27
0.0
 37
0.0
 40
254.0138364585389
 41
1.494545454545454
 42
50.0
 43
0.0
 44
0.0
 50
0.0
 51
0.0
 71
     0
 72
  1000
 73
     1
 74
     1
 75
     0
 76
     0
 77
     0
 78
     0
281
     0
 65
     0
110
0.0
120
0.0
130
0.0
111
1.0
121
0.0
131
0.0
112
0.0
122
1.0
132
0.0
 79
     0
146
0.0
  0
ENDTAB
  0
TABLE
  2
LTYPE
  5
1637
330
0
100
AcDbSymbolTable
 70
    21
  0
LTYPE
  5
1644
330
1637
100
AcDbSymbolTableRecord
100
AcDbLinetypeTableRecord
  2
BYBLOCK
 70
     0
  3

 72
    65
 73
     0
 40
0.0
  0
LTYPE
  5
1645
330
1637
100
AcDbSymbolTableRecord
100
AcDbLinetypeTableRecord
  2
BYLAYER
 70
     0
  3

 72
    65
 73
     0
 40
0.0
  0
LTYPE
  5
1646
330
1637
100
AcDbSymbolTableRecord
100
AcDbLinetypeTableRecord
  2
CONTINUOUS
 70
     0
  3
Solid line
 72
    65
 73
     0
 40
0.0
  0
LTYPE
  5
1652
330
1637
100
AcDbSymbolTableRecord
100
AcDbLinetypeTableRecord
  2
GEN3
 70
     0
  3
_ _ _ _ _ _ _ _ _ _ _ _ _ _ _ _ _ _ _ _ _ _ _ _ _ _ _ _ _ _ _
 72
    65
 73
     3
 40
3.0
 49
0.0
 74
     0
 49
2.0
 74
     0
 49
-1.0
 74
     0
  0
LTYPE
  5
17E0
330
1637
100
AcDbSymbolTableRecord
100
AcDbLinetypeTableRecord
  2
GEN3A
 70
     0
  3
 - - - - -
 72
    65
 73
     2
 40
3.125
 49
2.25
 74
     0
 49
-0.875
 74
     0
  0
LTYPE
  5
1857
330
1637
100
AcDbSymbolTableRecord
100
AcDbLinetypeTableRecord
  2
HIDDEN
 70
     0
  3
Verdeckt
 72
    65
 73
     2
 40
9.525
 49
6.349999999999999
 74
     0
 49
-3.174999999999999
 74
     0
  0
LTYPE
  5
1858
330
1637
100
AcDbSymbolTableRecord
100
AcDbLinetypeTableRecord
  2
PHANTOM2
 70
     0
  3
Phantom (.5x) ___ _ _ ___ _ _ ___ _ _ ___ _ _
 72
    65
 73
     6
 40
31.75
 49
15.875
 74
     0
 49
-3.174999999999999
 74
     0
 49
3.174999999999999
 74
     0
 49
-3.174999999999999
 74
     0
 49
3.174999999999999
 74
     0
 49
-3.174999999999999
 74
     0
  0
LTYPE
  5
1859
330
1637
100
AcDbSymbolTableRecord
100
AcDbLinetypeTableRecord
  2
CENTER
 70
     0
  3
Mitte ____ _ ____ _ ____ _ ____ _ ____ _ ____
 72
    65
 73
     4
 40
50.8
 49
31.75
 74
     0
 49
-6.349999999999999
 74
     0
 49
6.349999999999999
 74
     0
 49
-6.349999999999999
 74
     0
  0
LTYPE
  5
1890
330
1637
100
AcDbSymbolTableRecord
100
AcDbLinetypeTableRecord
  2
Amconstr
 70
     0
  3
_______________________
 72
    65
 73
     2
 40
9999.0
 49
9999.0
 74
     0
 49
0.0
 74
     0
  0
LTYPE
  5
1895
330
1637
100
AcDbSymbolTableRecord
100
AcDbLinetypeTableRecord
  2
Amzigzag
 70
     0
  3
/\/-/\/-/\/-/\/-/\/-/\/
 72
    65
 73
     2
 40
11.0001
 49
0.0001
 74
     4
 75
   136
340
1894
 46
0.04
 50
0.0
 44
0.0
 45
0.0
 49
-11.0
 74
     0
  0
LTYPE
  5
1896
330
1637
100
AcDbSymbolTableRecord
100
AcDbLinetypeTableRecord
  2
AM_DIN_F_W050
 70
     0
  3
__ __ __ __ __ __ __ __ __ __ __ __ __ __ __
 72
    65
 73
     2
 40
6.25
 49
4.75
 74
     0
 49
-1.5
 74
     0
  0
LTYPE
  5
1897
330
1637
100
AcDbSymbolTableRecord
100
AcDbLinetypeTableRecord
  2
AM_DIN_G_W050
 70
     0
  3
____ . ____ . ____ . ____ . ____ . ____ . ____
 72
    65
 73
     4
 40
13.75
 49
9.75
 74
     0
 49
-1.5
 74
     0
 49
1.0
 74
     0
 49
-1.5
 74
     0
  0
LTYPE
  5
1898
330
1637
100
AcDbSymbolTableRecord
100
AcDbLinetypeTableRecord
  2
AM_DIN_K_W050
 70
     0
  3
_____ . . _____ . . _____ . . ____ .. ____
 72
    65
 73
     6
 40
16.25
 49
9.75
 74
     0
 49
-1.5
 74
     0
 49
1.0
 74
     0
 49
-1.5
 74
     0
 49
1.0
 74
     0
 49
-1.5
 74
     0
  0
LTYPE
  5
1899
330
1637
100
AcDbSymbolTableRecord
100
AcDbLinetypeTableRecord
  2
AM_DIN_G_W050x2
 70
     0
  3
__ . __ . __ . __ . __ . __
 72
    65
 73
     4
 40
6.875
 49
4.75
 74
     0
 49
-0.875
 74
     0
 49
0.375
 74
     0
 49
-0.875
 74
     0
  0
LTYPE
  5
189A
330
1637
100
AcDbSymbolTableRecord
100
AcDbLinetypeTableRecord
  2
AM_DIN_F_W050x2
 70
     0
  3
 _ _ _ _ _ _ _ _ _ _ _ _
 72
    65
 73
     2
 40
3.125
 49
2.25
 74
     0
 49
-0.875
 74
     0
  0
LTYPE
  5
18A9
330
1637
100
AcDbSymbolTableRecord
100
AcDbLinetypeTableRecord
  2
ACDINWELD
 70
     0
  3
_ _ _ _ _
 72
    65
 73
     2
 40
2.0
 49
2.0
 74
     0
 49
-1.0
 74
     0
  0
LTYPE
  5
18AA
330
1637
100
AcDbSymbolTableRecord
100
AcDbLinetypeTableRecord
  2
ACDINTGB
 70
     0
  3
__ . . __ . .
 72
    65
 73
     6
 40
9.0
 49
4.0
 74
     0
 49
-1.0
 74
     0
 49
1.0
 74
     0
 49
-1.0
 74
     0
 49
1.0
 74
     0
 49
-1.0
 74
     0
  0
LTYPE
  5
18AB
330
1637
100
AcDbSymbolTableRecord
100
AcDbLinetypeTableRecord
  2
ACDINTGL
 70
     0
  3
_ _ _ _ _
 72
    65
 73
     2
 40
3.0
 49
2.0
 74
     0
 49
-1.0
 74
     0
  0
ENDTAB
  0
TABLE
  2
LAYER
  5
1634
330
0
100
AcDbSymbolTable
 70
    14
  0
LAYER
  5
1640
330
1634
100
AcDbSymbolTableRecord
100
AcDbLayerTableRecord
  2
0
 70
     0
 62
     7
  6
CONTINUOUS
370
    -3
390
181B
  0
LAYER
  5
165A
330
1634
100
AcDbSymbolTableRecord
100
AcDbLayerTableRecord
  2
3A
 70
     0
 62
     6
  6
GEN3A
370
    -3
390
181B
  0
LAYER
  5
165B
330
1634
100
AcDbSymbolTableRecord
100
AcDbLayerTableRecord
  2
4
 70
     0
 62
     3
  6
CONTINUOUS
370
    -3
390
181B
  0
LAYER
  5
165D
330
1634
100
AcDbSymbolTableRecord
100
AcDbLayerTableRecord
  2
5
 70
     0
 62
     3
  6
CONTINUOUS
370
    -3
390
181B
  0
LAYER
  5
1660
330
1634
100
AcDbSymbolTableRecord
100
AcDbLayerTableRecord
  2
8
 70
     0
 62
     1
  6
CONTINUOUS
370
    -3
390
181B
  0
LAYER
  5
1661
330
1634
100
AcDbSymbolTableRecord
100
AcDbLayerTableRecord
  2
ND_3A
 70
     0
 62
     3
  6
GEN3
370
    -3
390
181B
  0
LAYER
  5
1662
330
1634
100
AcDbSymbolTableRecord
100
AcDbLayerTableRecord
  2
PUNKTE
 70
     0
 62
     1
  6
CONTINUOUS
370
    -3
390
181B
  0
LAYER
  5
1663
330
1634
100
AcDbSymbolTableRecord
100
AcDbLayerTableRecord
  2
SCHRAFFUR_RAND
 70
     0
 62
    36
  6
CONTINUOUS
370
    -3
390
181B
  0
LAYER
  5
168E
330
1634
100
AcDbSymbolTableRecord
100
AcDbLayerTableRecord
  2
DEFPOINTS
 70
     0
 62
     7
  6
CONTINUOUS
290
     0
370
    -3
390
181B
  0
ENDTAB
  0
TABLE
  2
STYLE
  5
1635
330
0
100
AcDbSymbolTable
 70
     4
  0
STYLE
  5
1641
330
1635
100
AcDbSymbolTableRecord
100
AcDbTextStyleTableRecord
  2
STANDARD
 70
     0
 40
0.0
 41
1.0
 50
0.0
 71
     0
 42
7.0
  3
ISOCP.SHX
  4

  0
STYLE
  5
1894
330
1635
100
AcDbSymbolTableRecord
100
AcDbTextStyleTableRecord
  2

 70
     1
 40
0.0
 41
1.0
 50
0.0
 71
     0
 42
0.2
  3
genltshp.shx
  4

  0
STYLE
  5
189B
330
1635
100
AcDbSymbolTableRecord
100
AcDbTextStyleTableRecord
  2
ACDINTS
 70
     0
 40
1.0
 41
1.0
 50
0.0
 71
     0
 42
0.2
  3
isocp.shx
  4

  0
STYLE
  5
18A8
330
1635
100
AcDbSymbolTableRecord
100
AcDbTextStyleTableRecord
  2
ACDINGDT
 70
     0
 40
0.0
 41
1.0
 50
0.0
 71
     0
 42
0.2
  3
AMGDT
  4

  0
ENDTAB
  0
TABLE
  2
VIEW
  5
1638
330
0
100
AcDbSymbolTable
 70
     6
  0
VIEW
  5
16D2
330
1638
100
AcDbSymbolTableRecord
100
AcDbViewTableRecord
  2
GEN1
 70
     0
 40
525.0
 10
403.491903
 20
787.5
 41
806.983806
 11
0.0
 21
0.0
 31
1.0
 12
0.0
 22
0.0
 32
0.0
 42
50.0
 43
0.0
 44
0.0
 50
0.0
 71
     0
281
     0
 72
     0
  0
VIEW
  5
16D3
330
1638
100
AcDbSymbolTableRecord
100
AcDbViewTableRecord
  2
GEN2
 70
     0
 40
525.0
 10
646.508097
 20
787.5
 41
806.983806
 11
0.0
 21
0.0
 31
1.0
 12
0.0
 22
0.0
 32
0.0
 42
50.0
 43
0.0
 44
0.0
 50
0.0
 71
     0
281
     0
 72
     0
  0
VIEW
  5
16D4
330
1638
100
AcDbSymbolTableRecord
100
AcDbViewTableRecord
  2
GEN3
 70
     0
 40
525.0
 10
403.491903
 20
262.5
 41
806.983806
 11
0.0
 21
0.0
 31
1.0
 12
0.0
 22
0.0
 32
0.0
 42
50.0
 43
0.0
 44
0.0
 50
0.0
 71
     0
281
     0
 72
     0
  0
VIEW
  5
16D5
330
1638
100
AcDbSymbolTableRecord
100
AcDbViewTableRecord
  2
GEN4
 70
     0
 40
525.0
 10
646.508097
 20
262.5
 41
806.983806
 11
0.0
 21
0.0
 31
1.0
 12
0.0
 22
0.0
 32
0.0
 42
50.0
 43
0.0
 44
0.0
 50
0.0
 71
     0
281
     0
 72
     0
  0
VIEW
  5
16D6
330
1638
100
AcDbSymbolTableRecord
100
AcDbViewTableRecord
  2
GEN5
 70
     0
 40
525.0
 10
525.0
 20
525.0
 41
806.983806
 11
0.0
 21
0.0
 31
1.0
 12
0.0
 22
0.0
 32
0.0
 42
50.0
 43
0.0
 44
0.0
 50
0.0
 71
     0
281
     0
 72
     0
  0
VIEW
  5
16D7
330
1638
100
AcDbSymbolTableRecord
100
AcDbViewTableRecord
  2
GEN6
 70
     0
 40
1049.9895
 10
525.0
 20
525.0
 41
1613.951472
 11
0.0
 21
0.0
 31
1.0
 12
0.0
 22
0.0
 32
0.0
 42
50.0
 43
0.0
 44
0.0
 50
0.0
 71
     0
281
     0
 72
     0
  0
ENDTAB
  0
TABLE
  2
UCS
  5
1639
330
0
100
AcDbSymbolTable
 70
     0
  0
ENDTAB
  0
TABLE
  2
APPID
  5
163B
330
0
100
AcDbSymbolTable
 70
    36
  0
APPID
  5
1642
330
163B
100
AcDbSymbolTableRecord
100
AcDbRegAppTableRecord
  2
ACAD
 70
     0
  0
APPID
  5
16A0
330
163B
100
AcDbSymbolTableRecord
100
AcDbRegAppTableRecord
  2
GENIUS_GENCFG_13
 70
     0
1001
GENIUS_GENCFG0_13
1000
GEN@INFO_POS@XLATE
1001
GENIUS_GENCFG1_13
1000
GEN@INFO_POS
1001
GENIUS_GENCFG2_13
1000
GEN@LAYER@DEFS
1001
GENIUS_GENCFG3_13
1000
GEN@LAYER@ENTSORT
1001
GENIUS_GENCFG4_13
1000
GEN
1001
GENIUS_GEVCFG0_13
1000
GEV
1001
GENIUS_DUMCFG0_13
1000
DUM
  0
APPID
  5
16A1
330
163B
100
AcDbSymbolTableRecord
100
AcDbRegAppTableRecord
  2
GENIUS_DUMCFG0_13
 70
     0
1001
GENIUS_GENCFG_13
1071
925130019
1000
16A1
1000
DUM
1070
     0
  0
APPID
  5
16A2
330
163B
100
AcDbSymbolTableRecord
100
AcDbRegAppTableRecord
  2
GENIUS_GENCFG0_13
 70
     0
1001
GENIUS_GENCFG_13
1071
1022852699
1000
16A2
1000
GEN@INFO_POS@XLATE
1070
     7
1000
GenCfgObject
1000
GenCfgShort
1000
GenCfgReal
1000
GenCfgBool
1000
GenCfgString
1000
GenCfgDim
1000
GenCfgAttrInf
1000
INFOPOINTS
1070
     0
1002
{
1000
GENINF14
1070
     0
1002
{
1000
2GENINF
1070
     4
1000
2
1002
{
1002
}
1000
5GENINF
1070
     4
1000
5
1002
{
1002
}
1000
7GENINF
1070
     4
1000
7
1002
{
1002
}
1000
9GENINF
1070
     4
1000
9
1002
{
1002
}
1000
11GENINF
1070
     4
1000
11
1002
{
1002
}
1000
14GENINF
1070
     4
1000
14
1002
{
1002
}
1002
}
1000
GENINF13
1070
     0
1002
{
1000
2GENINF
1070
     4
1000
2
1002
{
1002
}
1000
3GENINF
1070
     4
1000
3
1002
{
1002
}
1000
4GENINF
1070
     4
1000
4
1002
{
1002
}
1000
5GENINF
1070
     4
1000
5
1002
{
1002
}
1000
6GENINF
1070
     4
1000
6
1002
{
1002
}
1000
7GENINF
1070
     4
1000
7
1002
{
1002
}
1000
8GENINF
1070
     4
1000
8
1002
{
1002
}
1000
9GENINF
1070
     4
1000
9
1002
{
1002
}
1000
10GENINF
1070
     4
1000
10
1002
{
1002
}
1000
11GENINF
1070
     4
1000
11
1002
{
1002
}
1000
12GENINF
1070
     4
1000
12
1002
{
1002
}
1000
13GENINF
1070
     4
1000
13
1002
{
1002
}
1000
14GENINF
1070
     4
1000
14
1002
{
1002
}
1000
15GENINF
1070
     4
1000
15
1002
{
1002
}
1000
16GENINF
1070
     4
1000
16
1002
{
1002
}
1000
17GENINF
1070
     4
1000
17
1002
{
1002
}
1000
18GENINF
1070
     4
1000
18
1002
{
1002
}
1000
19GENINF
1070
     4
1000
19
1002
{
1002
}
1000
20GENINF
1070
     4
1000
20
1002
{
1002
}
1000
21GENINF
1070
     4
1000
21
1002
{
1002
}
1000
22GENINF
1070
     4
1000
22
1002
{
1002
}
1000
23GENINF
1070
     4
1000
23
1002
{
1002
}
1000
24GENINF
1070
     4
1000
24
1002
{
1002
}
1000
0GENINF
1070
     4
1000
0
1002
{
1002
}
1002
}
1000
GENINFO
1070
     0
1002
{
1000
3GENINF
1070
     4
1000
3
1002
{
1002
}
1000
4GENINF
1070
     4
1000
4
1002
{
1002
}
1000
5GENINF
1070
     4
1000
5
1002
{
1002
}
1000
6GENINF
1070
     4
1000
6
1002
{
1002
}
1000
7GENINF
1070
     4
1000
7
1002
{
1002
}
1000
8GENINF
1070
     4
1000
8
1002
{
1002
}
1000
9GENINF
1070
     4
1000
9
1002
{
1002
}
1000
10GENINF
1070
     4
1000
10
1002
{
1002
}
1000
11GENINF
1070
     4
1000
11
1002
{
1002
}
1000
12GENINF
1070
     4
1000
12
1002
{
1002
}
1000
13GENINF
1070
     4
1000
13
1002
{
1002
}
1000
14GENINF
1070
     4
1000
14
1002
{
1002
}
1000
15GENINF
1070
     4
1000
15
1002
{
1002
}
1000
16GENINF
1070
     4
1000
16
1002
{
1002
}
1000
17GENINF
1070
     4
1000
17
1002
{
1002
}
1000
18GENINF
1070
     4
1000
18
1002
{
1002
}
1000
19GENINF
1070
     4
1000
19
1002
{
1002
}
1000
20GENINF
1070
     4
1000
20
1002
{
1002
}
1000
21GENINF
1070
     4
1000
21
1002
{
1002
}
1000
22GENINF
1070
     4
1000
22
1002
{
1002
}
1002
}
1000
DININFO
1070
     0
1002
{
1000
ST-NAME1
1070
     4
1000
5
1002
{
1002
}
1000
ST-NAME2
1070
     4
1000
6
1002
{
1002
}
1000
ST-NORM1
1070
     4
1000
7
1002
{
1002
}
1000
ST-NORM2
1070
     4
1000
8
1002
{
1002
}
1000
ST-MAT1
1070
     4
1000
9
1002
{
1002
}
1000
ST-MAT2
1070
     4
1000
10
1002
{
1002
}
1002
}
1002
}
1000
POS_NUMBERS
1070
     0
1002
{
1000
GENPOS14
1070
     0
1002
{
1000
1GENPOS
1070
     4
1000
1
1002
{
1002
}
1000
2GENPOS
1070
     4
1000
2
1002
{
1002
}
1000
5GENPOS
1070
     4
1000
5
1002
{
1002
}
1000
7GENPOS
1070
     4
1000
7
1002
{
1002
}
1000
9GENPOS
1070
     4
1000
9
1002
{
1002
}
1000
11GENPOS
1070
     4
1000
11
1002
{
1002
}
1000
14GENPOS
1070
     4
1000
14
1002
{
1002
}
1002
}
1000
GENPOS13
1070
     0
1002
{
1000
1GENPOS
1070
     4
1000
1
1002
{
1002
}
1000
2GENPOS
1070
     4
1000
2
1002
{
1002
}
1000
3GENPOS
1070
     4
1000
3
1002
{
1002
}
1000
4GENPOS
1070
     4
1000
4
1002
{
1002
}
1000
5GENPOS
1070
     4
1000
5
1002
{
1002
}
1000
6GENPOS
1070
     4
1000
6
1002
{
1002
}
1000
7GENPOS
1070
     4
1000
7
1002
{
1002
}
1000
8GENPOS
1070
     4
1000
8
1002
{
1002
}
1000
9GENPOS
1070
     4
1000
9
1002
{
1002
}
1000
10GENPOS
1070
     4
1000
10
1002
{
1002
}
1000
11GENPOS
1070
     4
1000
11
1002
{
1002
}
1000
12GENPOS
1070
     4
1000
12
1002
{
1002
}
1000
13GENPOS
1070
     4
1000
13
1002
{
1002
}
1000
14GENPOS
1070
     4
1000
14
1002
{
1002
}
1000
15GENPOS
1070
     4
1000
15
1002
{
1002
}
1000
16GENPOS
1070
     4
1000
16
1002
{
1002
}
1000
17GENPOS
1070
     4
1000
17
1002
{
1002
}
1000
18GENPOS
1070
     4
1000
18
1002
{
1002
}
1000
19GENPOS
1070
     4
1000
19
1002
{
1002
}
1000
20GENPOS
1070
     4
1000
20
1002
{
1002
}
1000
21GENPOS
1070
     4
1000
21
1002
{
1002
}
1000
22GENPOS
1070
     4
1000
22
1002
{
1002
}
1000
23GENPOS
1070
     4
1000
23
1002
{
1002
}
1000
24GENPOS
1070
     4
1000
24
1002
{
1002
}
1000
0GENPOS
1070
     4
1000
0
1002
{
1002
}
1002
}
1000
GENPOS
1070
     0
1002
{
1000
1GENPOS
1070
     4
1000
1
1002
{
1002
}
1000
2GENPOS
1070
     4
1000
2
1002
{
1002
}
1000
3GENPOS
1070
     4
1000
3
1002
{
1002
}
1000
4GENPOS
1070
     4
1000
4
1002
{
1002
}
1000
5GENPOS
1070
     4
1000
5
1002
{
1002
}
1000
6GENPOS
1070
     4
1000
6
1002
{
1002
}
1000
7GENPOS
1070
     4
1000
7
1002
{
1002
}
1000
8GENPOS
1070
     4
1000
8
1002
{
1002
}
1000
9GENPOS
1070
     4
1000
9
1002
{
1002
}
1000
10GENPOS
1070
     4
1000
10
1002
{
1002
}
1000
11GENPOS
1070
     4
1000
11
1002
{
1002
}
1000
12GENPOS
1070
     4
1000
12
1002
{
1002
}
1000
13GENPOS
1070
     4
1000
13
1002
{
1002
}
1000
14GENPOS
1070
     4
1000
14
1002
{
1002
}
1000
15GENPOS
1070
     4
1000
15
1002
{
1002
}
1000
16GENPOS
1070
     4
1000
16
1002
{
1002
}
1000
17GENPOS
1070
     4
1000
17
1002
{
1002
}
1000
18GENPOS
1070
     4
1000
18
1002
{
1002
}
1000
19GENPOS
1070
     4
1000
19
1002
{
1002
}
1000
20GENPOS
1070
     4
1000
20
1002
{
1002
}
1000
21GENPOS
1070
     4
1000
21
1002
{
1002
}
1000
22GENPOS
1070
     4
1000
22
1002
{
1002
}
1000
23GENPOS
1070
     4
1000
23
1002
{
1002
}
1002
}
1000
DIN985
1070
     0
1002
{
1000
POSITION
1070
     4
1000
1
1002
{
1002
}
1000
MENGE
1070
     4
1000
2
1002
{
1002
}
1000
BLATT
1070
     4
1000
3
1002
{
1002
}
1000
BENENN
1070
     4
1000
5
1002
{
1002
}
1000
BENENN2
1070
     4
1000
6
1002
{
1002
}
1000
NORM
1070
     4
1000
7
1002
{
1002
}
1000
NORM2
1070
     4
1000
8
1002
{
1002
}
1000
WERKSTOFF
1070
     4
1000
9
1002
{
1002
}
1000
WERKSTOFF2
1070
     4
1000
10
1002
{
1002
}
1002
}
1000
DIN986
1070
     0
1002
{
1000
POSITION
1070
     4
1000
1
1002
{
1002
}
1000
MENGE
1070
     4
1000
2
1002
{
1002
}
1000
BLATT
1070
     4
1000
3
1002
{
1002
}
1000
BENENN
1070
     4
1000
5
1002
{
1002
}
1000
BENENN2
1070
     4
1000
6
1002
{
1002
}
1000
NORM
1070
     4
1000
7
1002
{
1002
}
1000
NORM2
1070
     4
1000
8
1002
{
1002
}
1000
WERKSTOFF
1070
     4
1000
9
1002
{
1002
}
1000
WERKSTOFF2
1070
     4
1000
10
1002
{
1002
}
1002
}
1000
DIN987
1070
     0
1002
{
1000
POSITION
1070
     4
1000
1
1002
{
1002
}
1000
MENGE
1070
     4
1000
2
1002
{
1002
}
1000
BLATT
1070
     4
1000
3
1002
{
1002
}
1000
BENENN
1070
     4
1000
5
1002
{
1002
}
1000
BENENN2
1070
     4
1000
6
1002
{
1002
}
1000
NORM
1070
     4
1000
7
1002
{
1002
}
1000
NORM2
1070
     4
1000
8
1002
{
1002
}
1000
WERKSTOFF
1070
     4
1000
9
1002
{
1002
}
1000
WERKSTOFF2
1070
     4
1000
10
1002
{
1002
}
1002
}
1002
}
  0
APPID
  5
16A3
330
163B
100
AcDbSymbolTableRecord
100
AcDbRegAppTableRecord
  2
GENIUS_GENCFG1_13
 70
     0
1001
GENIUS_GENCFG_13
1071
1022852699
1000
16A3
1000
GEN@INFO_POS
1070
     7
1000
GenCfgObject
1000
GenCfgShort
1000
GenCfgReal
1000
GenCfgBool
1000
GenCfgString
1000
GenCfgDim
1000
GenCfgAttrInf
1000
DescrText
1070
     4
1000
5, ,6, ,7, ,8
1002
{
1002
}
1000
DescrText2
1070
     4
1000
26
1002
{
1002
}
1000
VisibleAttr1
1070
     4
1000
1
1002
{
1002
}
1000
VisibleAttr2
1070
     4
1000
26
1002
{
1002
}
1000
UpdateBlock
1070
     3
1070
     1
1002
{
1002
}
1000
Attrib
1070
     0
1002
{
1000
0
1070
     6
1002
{
1000
Prompt
1070
     4
1000
(genmsg gendwg 103)
1002
{
1002
}
1000
Value
1070
     4
1000

1002
{
1002
}
1000
EditFlag
1070
     1
1070
     0
1002
{
1002
}
1000
PosInDDATTE
1070
     1
1070
    27
1002
{
1002
}
1000
FieldLen
1070
     1
1070
    -1
1002
{
1002
}
1002
}
1000
1
1070
     6
1002
{
1000
Prompt
1070
     4
1000
(genmsg gendwg 31)
1002
{
1002
}
1000
Value
1070
     4
1000
1
1002
{
1002
}
1000
EditFlag
1070
     1
1070
     1
1002
{
1002
}
1000
PosInDDATTE
1070
     1
1070
     1
1002
{
1002
}
1000
FieldLen
1070
     1
1070
    -1
1002
{
1002
}
1002
}
1000
2
1070
     6
1002
{
1000
Prompt
1070
     4
1000
(genmsg gendwg 32)
1002
{
1002
}
1000
Value
1070
     4
1000
1
1002
{
1002
}
1000
EditFlag
1070
     1
1070
     1
1002
{
1002
}
1000
PosInDDATTE
1070
     1
1070
     2
1002
{
1002
}
1000
FieldLen
1070
     1
1070
    -1
1002
{
1002
}
1002
}
1000
3
1070
     6
1002
{
1000
Prompt
1070
     4
1000
(genmsg gendwg 33)
1002
{
1002
}
1000
Value
1070
     4
1000

1002
{
1002
}
1000
EditFlag
1070
     1
1070
     1
1002
{
1002
}
1000
PosInDDATTE
1070
     1
1070
     3
1002
{
1002
}
1000
FieldLen
1070
     1
1070
    -1
1002
{
1002
}
1002
}
1000
4
1070
     6
1002
{
1000
Prompt
1070
     4
1000
(genmsg gendwg 34)
1002
{
1002
}
1000
Value
1070
     4
1000

1002
{
1002
}
1000
EditFlag
1070
     1
1070
     1
1002
{
1002
}
1000
PosInDDATTE
1070
     1
1070
     4
1002
{
1002
}
1000
FieldLen
1070
     1
1070
    -1
1002
{
1002
}
1002
}
1000
5
1070
     6
1002
{
1000
Prompt
1070
     4
1000
(genmsg gendwg 35)
1002
{
1002
}
1000
Value
1070
     4
1000

1002
{
1002
}
1000
EditFlag
1070
     1
1070
     1
1002
{
1002
}
1000
PosInDDATTE
1070
     1
1070
     5
1002
{
1002
}
1000
FieldLen
1070
     1
1070
    -1
1002
{
1002
}
1002
}
1000
6
1070
     6
1002
{
1000
Prompt
1070
     4
1000
(genmsg gendwg 36)
1002
{
1002
}
1000
Value
1070
     4
1000

1002
{
1002
}
1000
EditFlag
1070
     1
1070
     1
1002
{
1002
}
1000
PosInDDATTE
1070
     1
1070
     6
1002
{
1002
}
1000
FieldLen
1070
     1
1070
    -1
1002
{
1002
}
1002
}
1000
7
1070
     6
1002
{
1000
Prompt
1070
     4
1000
(genmsg gendwg 37)
1002
{
1002
}
1000
Value
1070
     4
1000

1002
{
1002
}
1000
EditFlag
1070
     1
1070
     1
1002
{
1002
}
1000
PosInDDATTE
1070
     1
1070
     7
1002
{
1002
}
1000
FieldLen
1070
     1
1070
    -1
1002
{
1002
}
1002
}
1000
8
1070
     6
1002
{
1000
Prompt
1070
     4
1000
(genmsg gendwg 38)
1002
{
1002
}
1000
Value
1070
     4
1000

1002
{
1002
}
1000
EditFlag
1070
     1
1070
     1
1002
{
1002
}
1000
PosInDDATTE
1070
     1
1070
     8
1002
{
1002
}
1000
FieldLen
1070
     1
1070
    -1
1002
{
1002
}
1002
}
1000
9
1070
     6
1002
{
1000
Prompt
1070
     4
1000
(genmsg gendwg 39)
1002
{
1002
}
1000
Value
1070
     4
1000

1002
{
1002
}
1000
EditFlag
1070
     1
1070
     1
1002
{
1002
}
1000
PosInDDATTE
1070
     1
1070
     9
1002
{
1002
}
1000
FieldLen
1070
     1
1070
    -1
1002
{
1002
}
1002
}
1000
10
1070
     6
1002
{
1000
Prompt
1070
     4
1000
(genmsg gendwg 40)
1002
{
1002
}
1000
Value
1070
     4
1000

1002
{
1002
}
1000
EditFlag
1070
     1
1070
     1
1002
{
1002
}
1000
PosInDDATTE
1070
     1
1070
    10
1002
{
1002
}
1000
FieldLen
1070
     1
1070
    -1
1002
{
1002
}
1002
}
1000
11
1070
     6
1002
{
1000
Prompt
1070
     4
1000
(genmsg gendwg 41)
1002
{
1002
}
1000
Value
1070
     4
1000

1002
{
1002
}
1000
EditFlag
1070
     1
1070
     1
1002
{
1002
}
1000
PosInDDATTE
1070
     1
1070
    11
1002
{
1002
}
1000
FieldLen
1070
     1
1070
    -1
1002
{
1002
}
1002
}
1000
12
1070
     6
1002
{
1000
Prompt
1070
     4
1000
(genmsg gendwg 42)
1002
{
1002
}
1000
Value
1070
     4
1000

1002
{
1002
}
1000
EditFlag
1070
     1
1070
     1
1002
{
1002
}
1000
PosInDDATTE
1070
     1
1070
    12
1002
{
1002
}
1000
FieldLen
1070
     1
1070
    -1
1002
{
1002
}
1002
}
1000
13
1070
     6
1002
{
1000
Prompt
1070
     4
1000
(genmsg gendwg 43)
1002
{
1002
}
1000
Value
1070
     4
1000

1002
{
1002
}
1000
EditFlag
1070
     1
1070
     1
1002
{
1002
}
1000
PosInDDATTE
1070
     1
1070
    13
1002
{
1002
}
1000
FieldLen
1070
     1
1070
    -1
1002
{
1002
}
1002
}
1000
14
1070
     6
1002
{
1000
Prompt
1070
     4
1000
(genmsg gendwg 44)
1002
{
1002
}
1000
Value
1070
     4
1000

1002
{
1002
}
1000
EditFlag
1070
     1
1070
     1
1002
{
1002
}
1000
PosInDDATTE
1070
     1
1070
    14
1002
{
1002
}
1000
FieldLen
1070
     1
1070
    -1
1002
{
1002
}
1002
}
1000
15
1070
     6
1002
{
1000
Prompt
1070
     4
1000
(genmsg gendwg 45)
1002
{
1002
}
1000
Value
1070
     4
1000

1002
{
1002
}
1000
EditFlag
1070
     1
1070
     1
1002
{
1002
}
1000
PosInDDATTE
1070
     1
1070
    15
1002
{
1002
}
1000
FieldLen
1070
     1
1070
    -1
1002
{
1002
}
1002
}
1000
16
1070
     6
1002
{
1000
Prompt
1070
     4
1000
(genmsg gendwg 46)
1002
{
1002
}
1000
Value
1070
     4
1000

1002
{
1002
}
1000
EditFlag
1070
     1
1070
     1
1002
{
1002
}
1000
PosInDDATTE
1070
     1
1070
    16
1002
{
1002
}
1000
FieldLen
1070
     1
1070
    -1
1002
{
1002
}
1002
}
1000
17
1070
     6
1002
{
1000
Prompt
1070
     4
1000
(genmsg gendwg 47)
1002
{
1002
}
1000
Value
1070
     4
1000

1002
{
1002
}
1000
EditFlag
1070
     1
1070
     1
1002
{
1002
}
1000
PosInDDATTE
1070
     1
1070
    17
1002
{
1002
}
1000
FieldLen
1070
     1
1070
    -1
1002
{
1002
}
1002
}
1000
18
1070
     6
1002
{
1000
Prompt
1070
     4
1000
(genmsg gendwg 48)
1002
{
1002
}
1000
Value
1070
     4
1000

1002
{
1002
}
1000
EditFlag
1070
     1
1070
     1
1002
{
1002
}
1000
PosInDDATTE
1070
     1
1070
    18
1002
{
1002
}
1000
FieldLen
1070
     1
1070
    -1
1002
{
1002
}
1002
}
1000
19
1070
     6
1002
{
1000
Prompt
1070
     4
1000
(genmsg gendwg 99)
1002
{
1002
}
1000
Value
1070
     4
1000

1002
{
1002
}
1000
EditFlag
1070
     1
1070
     1
1002
{
1002
}
1000
PosInDDATTE
1070
     1
1070
    19
1002
{
1002
}
1000
FieldLen
1070
     1
1070
    -1
1002
{
1002
}
1002
}
1000
20
1070
     6
1002
{
1000
Prompt
1070
     4
1000
(genmsg gendwg 100)
1002
{
1002
}
1000
Value
1070
     4
1000

1002
{
1002
}
1000
EditFlag
1070
     1
1070
     1
1002
{
1002
}
1000
PosInDDATTE
1070
     1
1070
    20
1002
{
1002
}
1000
FieldLen
1070
     1
1070
    -1
1002
{
1002
}
1002
}
1000
21
1070
     6
1002
{
1000
Prompt
1070
     4
1000
(genmsg gendwg 101)
1002
{
1002
}
1000
Value
1070
     4
1000

1002
{
1002
}
1000
EditFlag
1070
     1
1070
     1
1002
{
1002
}
1000
PosInDDATTE
1070
     1
1070
    21
1002
{
1002
}
1000
FieldLen
1070
     1
1070
    -1
1002
{
1002
}
1002
}
1000
22
1070
     6
1002
{
1000
Prompt
1070
     4
1000
(genmsg gendwg 102)
1002
{
1002
}
1000
Value
1070
     4
1000

1002
{
1002
}
1000
EditFlag
1070
     1
1070
     1
1002
{
1002
}
1000
PosInDDATTE
1070
     1
1070
    22
1002
{
1002
}
1000
FieldLen
1070
     1
1070
    -1
1002
{
1002
}
1002
}
1000
23
1070
     6
1002
{
1000
Prompt
1070
     4
1000
(genmsg gendwg 30)
1002
{
1002
}
1000
Value
1070
     4
1000

1002
{
1002
}
1000
EditFlag
1070
     1
1070
     1
1002
{
1002
}
1000
PosInDDATTE
1070
     1
1070
    23
1002
{
1002
}
1000
FieldLen
1070
     1
1070
    -1
1002
{
1002
}
1002
}
1000
24
1070
     6
1002
{
1000
Prompt
1070
     4
1000
(genmsg gendwg 104)
1002
{
1002
}
1000
Value
1070
     4
1000

1002
{
1002
}
1000
EditFlag
1070
     1
1070
     1
1002
{
1002
}
1000
PosInDDATTE
1070
     1
1070
    24
1002
{
1002
}
1000
FieldLen
1070
     1
1070
    -1
1002
{
1002
}
1002
}
1000
25
1070
     6
1002
{
1000
Prompt
1070
     4
1000
(genmsg gendwg 105)
1002
{
1002
}
1000
Value
1070
     4
1000

1002
{
1002
}
1000
EditFlag
1070
     1
1070
     1
1002
{
1002
}
1000
PosInDDATTE
1070
     1
1070
    25
1002
{
1002
}
1000
FieldLen
1070
     1
1070
    -1
1002
{
1002
}
1002
}
1000
26
1070
     6
1002
{
1000
Prompt
1070
     4
1000
(genmsg gendwg 106)
1002
{
1002
}
1000
Value
1070
     4
1000

1002
{
1002
}
1000
EditFlag
1070
     1
1070
     1
1002
{
1002
}
1000
PosInDDATTE
1070
     1
1070
    26
1002
{
1002
}
1000
FieldLen
1070
     1
1070
    -1
1002
{
1002
}
1002
}
1000
27
1070
     6
1002
{
1000
Prompt
1070
     4
1000
(genmsg gendwg 109)
1002
{
1002
}
1000
Value
1070
     4
1000

1002
{
1002
}
1000
EditFlag
1070
     1
1070
     2
1002
{
1002
}
1000
PosInDDATTE
1070
     1
1070
    27
1002
{
1002
}
1000
FieldLen
1070
     1
1070
    -1
1002
{
1002
}
1002
}
1002
}
1000
Xlate
1070
     0
1002
{
1000
>
1002
}
  0
APPID
  5
16A4
330
163B
100
AcDbSymbolTableRecord
100
AcDbRegAppTableRecord
  2
GENIUS_GENCFG2_13
 70
     0
1001
GENIUS_GENCFG_13
1071
1022852699
1000
16A4
1000
GEN@LAYER@DEFS
1070
     9
1000
GenCfgObject
1000
GenCfgShort
1000
GenCfgReal
1000
GenCfgBool
1000
GenCfgString
1000
GenCfgDim
1000
GenCfgAttrInf
1000
GenCfgLaySection
1000
GenCfgLayer
1000
Basic
1070
     0
1002
{
1000
0
1070
     8
1000
0
1002
{
1000
Color
1070
     1
1070
     7
1002
{
1002
}
1000
LType
1070
     4
1000
CONTINUOUS
1002
{
1002
}
1000
Base
1070
     3
1070
     0
1002
{
1002
}
1002
}
1000
1
1070
     8
1000
1
1002
{
1000
Color
1070
     1
1070
    14
1002
{
1002
}
1000
LType
1070
     4
1000
CONTINUOUS
1002
{
1002
}
1000
Base
1070
     3
1070
     0
1002
{
1002
}
1002
}
1000
2
1070
     8
1000
2
1002
{
1000
Color
1070
     1
1070
     5
1002
{
1002
}
1000
LType
1070
     4
1000
CONTINUOUS
1002
{
1002
}
1000
Base
1070
     3
1070
     0
1002
{
1002
}
1002
}
1000
3
1070
     8
1000
3
1002
{
1000
Color
1070
     1
1070
     6
1002
{
1002
}
1000
LType
1070
     4
1000
GEN3
1002
{
1002
}
1000
Base
1070
     3
1070
     0
1002
{
1002
}
1002
}
1000
4
1070
     8
1000
4
1002
{
1000
Color
1070
     1
1070
     3
1002
{
1002
}
1000
LType
1070
     4
1000
CONTINUOUS
1002
{
1002
}
1000
Base
1070
     3
1070
     0
1002
{
1002
}
1002
}
1000
5
1070
     8
1000
5
1002
{
1000
Color
1070
     1
1070
     3
1002
{
1002
}
1000
LType
1070
     4
1000
CONTINUOUS
1002
{
1002
}
1000
Base
1070
     3
1070
     0
1002
{
1002
}
1002
}
1000
6
1070
     8
1000
6
1002
{
1000
Color
1070
     1
1070
     2
1002
{
1002
}
1000
LType
1070
     4
1000
CONTINUOUS
1002
{
1002
}
1000
Base
1070
     3
1070
     0
1002
{
1002
}
1002
}
1000
7
1070
     8
1000
7
1002
{
1000
Color
1070
     1
1070
     4
1002
{
1002
}
1000
LType
1070
     4
1000
GEN7
1002
{
1002
}
1000
Base
1070
     3
1070
     0
1002
{
1002
}
1002
}
1000
8
1070
     8
1000
8
1002
{
1000
Color
1070
     1
1070
     1
1002
{
1002
}
1000
LType
1070
     4
1000
CONTINUOUS
1002
{
1002
}
1000
Base
1070
     3
1070
     0
1002
{
1002
}
1002
}
1000
3A
1070
     8
1000
3A
1002
{
1000
Color
1070
     1
1070
     6
1002
{
1002
}
1000
LType
1070
     4
1000
GEN3A
1002
{
1002
}
1000
Base
1070
     3
1070
     0
1002
{
1002
}
1002
}
1000
7A
1070
     8
1000
7A
1002
{
1000
Color
1070
     1
1070
     4
1002
{
1002
}
1000
LType
1070
     4
1000
GEN7A
1002
{
1002
}
1000
Base
1070
     3
1070
     0
1002
{
1002
}
1002
}
1000
2A
1070
     8
1000
2A
1002
{
1000
Color
1070
     1
1070
     7
1002
{
1002
}
1000
LType
1070
     4
1000
GEN7
1002
{
1002
}
1000
Base
1070
     3
1070
     0
1002
{
1002
}
1002
}
1000
4A
1070
     8
1000
4A
1002
{
1000
Color
1070
     1
1070
     3
1002
{
1002
}
1000
LType
1070
     4
1000
GEN4A
1002
{
1002
}
1000
Base
1070
     3
1070
     0
1002
{
1002
}
1002
}
1000
9
1070
     8
1000
9
1002
{
1000
Color
1070
     1
1070
   253
1002
{
1002
}
1000
LType
1070
     4
1000
CONTINUOUS
1002
{
1002
}
1000
Base
1070
     3
1070
     0
1002
{
1002
}
1002
}
1000
IP
1070
     8
1000
IP
1002
{
1000
Color
1070
     1
1070
     7
1002
{
1002
}
1000
LType
1070
     4
1000
CONTINUOUS
1002
{
1002
}
1000
Base
1070
     3
1070
     0
1002
{
1002
}
1002
}
1002
}
1000
Standard
1070
     0
1002
{
1000
0N
1070
     8
1000
0N
1002
{
1000
Color
1070
     1
1070
     7
1002
{
1002
}
1000
LType
1070
     4
1000
CONTINUOUS
1002
{
1002
}
1000
Base
1070
     3
1070
     0
1002
{
1002
}
1002
}
1000
1N
1070
     8
1000
1N
1002
{
1000
Color
1070
     1
1070
    14
1002
{
1002
}
1000
LType
1070
     4
1000
CONTINUOUS
1002
{
1002
}
1000
Base
1070
     3
1070
     0
1002
{
1002
}
1002
}
1000
2N
1070
     8
1000
2N
1002
{
1000
Color
1070
     1
1070
     5
1002
{
1002
}
1000
LType
1070
     4
1000
CONTINUOUS
1002
{
1002
}
1000
Base
1070
     3
1070
     0
1002
{
1002
}
1002
}
1000
3N
1070
     8
1000
3N
1002
{
1000
Color
1070
     1
1070
     6
1002
{
1002
}
1000
LType
1070
     4
1000
GEN3
1002
{
1002
}
1000
Base
1070
     3
1070
     0
1002
{
1002
}
1002
}
1000
4N
1070
     8
1000
4N
1002
{
1000
Color
1070
     1
1070
     3
1002
{
1002
}
1000
LType
1070
     4
1000
CONTINUOUS
1002
{
1002
}
1000
Base
1070
     3
1070
     0
1002
{
1002
}
1002
}
1000
5N
1070
     8
1000
5N
1002
{
1000
Color
1070
     1
1070
     3
1002
{
1002
}
1000
LType
1070
     4
1000
CONTINUOUS
1002
{
1002
}
1000
Base
1070
     3
1070
     0
1002
{
1002
}
1002
}
1000
6N
1070
     8
1000
6N
1002
{
1000
Color
1070
     1
1070
     2
1002
{
1002
}
1000
LType
1070
     4
1000
CONTINUOUS
1002
{
1002
}
1000
Base
1070
     3
1070
     0
1002
{
1002
}
1002
}
1000
7N
1070
     8
1000
7N
1002
{
1000
Color
1070
     1
1070
     4
1002
{
1002
}
1000
LType
1070
     4
1000
GEN7
1002
{
1002
}
1000
Base
1070
     3
1070
     0
1002
{
1002
}
1002
}
1000
8N
1070
     8
1000
8N
1002
{
1000
Color
1070
     1
1070
     1
1002
{
1002
}
1000
LType
1070
     4
1000
CONTINUOUS
1002
{
1002
}
1000
Base
1070
     3
1070
     0
1002
{
1002
}
1002
}
1000
3AN
1070
     8
1000
3AN
1002
{
1000
Color
1070
     1
1070
     6
1002
{
1002
}
1000
LType
1070
     4
1000
GEN3A
1002
{
1002
}
1000
Base
1070
     3
1070
     0
1002
{
1002
}
1002
}
1000
7AN
1070
     8
1000
7AN
1002
{
1000
Color
1070
     1
1070
     4
1002
{
1002
}
1000
LType
1070
     4
1000
GEN7A
1002
{
1002
}
1000
Base
1070
     3
1070
     0
1002
{
1002
}
1002
}
1000
2AN
1070
     8
1000
2AN
1002
{
1000
Color
1070
     1
1070
     7
1002
{
1002
}
1000
LType
1070
     4
1000
GEN7
1002
{
1002
}
1000
Base
1070
     3
1070
     0
1002
{
1002
}
1002
}
1000
4AN
1070
     8
1000
4AN
1002
{
1000
Color
1070
     1
1070
     3
1002
{
1002
}
1000
LType
1070
     4
1000
GEN4A
1002
{
1002
}
1000
Base
1070
     3
1070
     0
1002
{
1002
}
1002
}
1000
9N
1070
     8
1000
9N
1002
{
1000
Color
1070
     1
1070
   253
1002
{
1002
}
1000
LType
1070
     4
1000
CONTINUOUS
1002
{
1002
}
1000
Base
1070
     3
1070
     0
1002
{
1002
}
1002
}
1000
IPN
1070
     8
1000
IPN
1002
{
1000
Color
1070
     1
1070
     7
1002
{
1002
}
1000
LType
1070
     4
1000
CONTINUOUS
1002
{
1002
}
1000
Base
1070
     3
1070
     0
1002
{
1002
}
1002
}
1002
}
1000
Extra
1070
     0
1002
{
1000
Klin
1070
     8
1000
KLIN
1002
{
1000
Color
1070
     1
1070
     1
1002
{
1002
}
1000
LType
1070
     4
1000
CONTINUOUS
1002
{
1002
}
1000
Base
1070
     3
1070
     1
1002
{
1002
}
1002
}
1000
Info
1070
     8
1000
INFO
1002
{
1000
Color
1070
     1
1070
     4
1002
{
1002
}
1000
LType
1070
     4
1000
CONTINUOUS
1002
{
1002
}
1000
Base
1070
     3
1070
     1
1002
{
1002
}
1002
}
1000
Rahm2
1070
     8
1000
RAHM2
1002
{
1000
Color
1070
     1
1070
     1
1002
{
1002
}
1000
LType
1070
     4
1000
CONTINUOUS
1002
{
1002
}
1000
Base
1070
     3
1070
     1
1002
{
1002
}
1002
}
1000
Rahm3
1070
     8
1000
RAHM3
1002
{
1000
Color
1070
     1
1070
     2
1002
{
1002
}
1000
LType
1070
     4
1000
CONTINUOUS
1002
{
1002
}
1000
Base
1070
     3
1070
     1
1002
{
1002
}
1002
}
1000
Rahm5
1070
     8
1000
RAHM5
1002
{
1000
Color
1070
     1
1070
     7
1002
{
1002
}
1000
LType
1070
     4
1000
CONTINUOUS
1002
{
1002
}
1000
Base
1070
     3
1070
     1
1002
{
1002
}
1002
}
1000
View
1070
     8
1000
VIEW
1002
{
1000
Color
1070
     1
1070
     1
1002
{
1002
}
1000
LType
1070
     4
1000
CONTINUOUS
1002
{
1002
}
1000
Base
1070
     3
1070
     1
1002
{
1002
}
1002
}
1000
Behind
1070
     8
1000
BEHIND
1002
{
1000
Color
1070
     1
1070
   253
1002
{
1002
}
1000
LType
1070
     4
1000
CONTINUOUS
1002
{
1002
}
1000
Base
1070
     3
1070
     1
1002
{
1002
}
1002
}
1002
}
  0
APPID
  5
16A5
330
163B
100
AcDbSymbolTableRecord
100
AcDbRegAppTableRecord
  2
GENIUS_GENCFG3_13
 70
     0
1001
GENIUS_GENCFG_13
1071
1022852699
1000
16A5
1000
GEN@LAYER@ENTSORT
1070
    10
1000
GenCfgObject
1000
GenCfgShort
1000
GenCfgReal
1000
GenCfgBool
1000
GenCfgString
1000
GenCfgDim
1000
GenCfgAttrInf
1000
GenCfgLaySection
1000
GenCfgLayer
1000
GenCfgEntSort
1000
ADDL
1070
     9
1000
5
1002
{
1000
Class
1070
     4
1000
SYM
1002
{
1002
}
1000
Color
1070
     1
1070
     1
1002
{
1002
}
1000
LType
1070
     4
1000
BYLAYER
1002
{
1002
}
1002
}
1000
ALTR
1070
     9
1000
4
1002
{
1000
Class
1070
     4
1000

1002
{
1002
}
1000
Color
1070
     1
1070
     7
1002
{
1002
}
1000
LType
1070
     4
1000
GEN3A
1002
{
1002
}
1002
}
1000
BELI
1070
     9
1000
4
1002
{
1000
Class
1070
     4
1000

1002
{
1002
}
1000
Color
1070
     1
1070
   256
1002
{
1002
}
1000
LType
1070
     4
1000
BYLAYER
1002
{
1002
}
1002
}
1000
BHNV
1070
     9
1000
9
1002
{
1000
Class
1070
     4
1000
INV
1002
{
1002
}
1000
Color
1070
     1
1070
   256
1002
{
1002
}
1000
LType
1070
     4
1000
BYLAYER
1002
{
1002
}
1002
}
1000
BHNVS
1070
     9
1000
BEHIND
1002
{
1000
Class
1070
     4
1000
INV
1002
{
1002
}
1000
Color
1070
     1
1070
   256
1002
{
1002
}
1000
LType
1070
     4
1000
BYLAYER
1002
{
1002
}
1002
}
1000
BLID
1070
     9
1000
4A
1002
{
1000
Class
1070
     4
1000

1002
{
1002
}
1000
Color
1070
     1
1070
   256
1002
{
1002
}
1000
LType
1070
     4
1000
BYLAYER
1002
{
1002
}
1002
}
1000
BOAP
1070
     9
1000
4A
1002
{
1000
Class
1070
     4
1000

1002
{
1002
}
1000
Color
1070
     1
1070
   256
1002
{
1002
}
1000
LType
1070
     4
1000
BYLAYER
1002
{
1002
}
1002
}
1000
BOR2
1070
     9
1000
RAHM2
1002
{
1000
Class
1070
     4
1000
SPZ,SYM
1002
{
1002
}
1000
Color
1070
     1
1070
   256
1002
{
1002
}
1000
LType
1070
     4
1000
BYLAYER
1002
{
1002
}
1002
}
1000
BOR3
1070
     9
1000
RAHM3
1002
{
1000
Class
1070
     4
1000
SPZ,SYM
1002
{
1002
}
1000
Color
1070
     1
1070
   256
1002
{
1002
}
1000
LType
1070
     4
1000
BYLAYER
1002
{
1002
}
1002
}
1000
BOR5
1070
     9
1000
RAHM5
1002
{
1000
Class
1070
     4
1000
SPZ,SYM
1002
{
1002
}
1000
Color
1070
     1
1070
   256
1002
{
1002
}
1000
LType
1070
     4
1000
BYLAYER
1002
{
1002
}
1002
}
1000
BOR7
1070
     9
1000
RAHM5
1002
{
1000
Class
1070
     4
1000
SPZ,SYM
1002
{
1002
}
1000
Color
1070
     1
1070
     7
1002
{
1002
}
1000
LType
1070
     4
1000
CONTINUOUS
1002
{
1002
}
1002
}
1000
BPAP
1070
     9
1000
4A
1002
{
1000
Class
1070
     4
1000

1002
{
1002
}
1000
Color
1070
     1
1070
   256
1002
{
1002
}
1000
LType
1070
     4
1000
BYLAYER
1002
{
1002
}
1002
}
1000
BPEX
1070
     9
1000
4A
1002
{
1000
Class
1070
     4
1000

1002
{
1002
}
1000
Color
1070
     1
1070
   256
1002
{
1002
}
1000
LType
1070
     4
1000
BYLAYER
1002
{
1002
}
1002
}
1000
BTDI
1070
     9
1000
5
1002
{
1000
Class
1070
     4
1000
DIM,SYM
1002
{
1002
}
1000
Color
1070
     1
1070
   256
1002
{
1002
}
1000
LType
1070
     4
1000
BYLAYER
1002
{
1002
}
1002
}
1000
CAL2
1070
     9
1000
4
1002
{
1000
Class
1070
     4
1000
SYM
1002
{
1002
}
1000
Color
1070
     1
1070
   256
1002
{
1002
}
1000
LType
1070
     4
1000
BYLAYER
1002
{
1002
}
1002
}
1000
CAL3
1070
     9
1000
4
1002
{
1000
Class
1070
     4
1000
SYM
1002
{
1002
}
1000
Color
1070
     1
1070
     2
1002
{
1002
}
1000
LType
1070
     4
1000
BYLAYER
1002
{
1002
}
1002
}
1000
CAL5
1070
     9
1000
4
1002
{
1000
Class
1070
     4
1000
SYM
1002
{
1002
}
1000
Color
1070
     1
1070
     7
1002
{
1002
}
1000
LType
1070
     4
1000
BYLAYER
1002
{
1002
}
1002
}
1000
CAL7
1070
     9
1000
4
1002
{
1000
Class
1070
     4
1000
SYM
1002
{
1002
}
1000
Color
1070
     1
1070
     5
1002
{
1002
}
1000
LType
1070
     4
1000
BYLAYER
1002
{
1002
}
1002
}
1000
CENN
1070
     9
1000
7A
1002
{
1000
Class
1070
     4
1000
CEN
1002
{
1002
}
1000
Color
1070
     1
1070
   256
1002
{
1002
}
1000
LType
1070
     4
1000
BYLAYER
1002
{
1002
}
1002
}
1000
CENW
1070
     9
1000
7
1002
{
1000
Class
1070
     4
1000
CEN
1002
{
1002
}
1000
Color
1070
     1
1070
   256
1002
{
1002
}
1000
LType
1070
     4
1000
BYLAYER
1002
{
1002
}
1002
}
1000
CLIN
1070
     9
1000
KLIN
1002
{
1000
Class
1070
     4
1000
SPZ
1002
{
1002
}
1000
Color
1070
     1
1070
   256
1002
{
1002
}
1000
LType
1070
     4
1000
BYLAYER
1002
{
1002
}
1002
}
1000
CON1
1070
     9
1000
0
1002
{
1000
Class
1070
     4
1000
CON,BGD
1002
{
1002
}
1000
Color
1070
     1
1070
   256
1002
{
1002
}
1000
LType
1070
     4
1000
BYLAYER
1002
{
1002
}
1002
}
1000
CON2
1070
     9
1000
1
1002
{
1000
Class
1070
     4
1000
CON,BGD
1002
{
1002
}
1000
Color
1070
     1
1070
   256
1002
{
1002
}
1000
LType
1070
     4
1000
BYLAYER
1002
{
1002
}
1002
}
1000
CON3
1070
     9
1000
2
1002
{
1000
Class
1070
     4
1000
CON,BGD
1002
{
1002
}
1000
Color
1070
     1
1070
   256
1002
{
1002
}
1000
LType
1070
     4
1000
BYLAYER
1002
{
1002
}
1002
}
1000
CON4
1070
     9
1000
2
1002
{
1000
Class
1070
     4
1000
CON,BGD
1002
{
1002
}
1000
Color
1070
     1
1070
   256
1002
{
1002
}
1000
LType
1070
     4
1000
BYLAYER
1002
{
1002
}
1002
}
1000
DERP
1070
     9
1000
4
1002
{
1000
Class
1070
     4
1000

1002
{
1002
}
1000
Color
1070
     1
1070
   256
1002
{
1002
}
1000
LType
1070
     4
1000
BYLAYER
1002
{
1002
}
1002
}
1000
DETA
1070
     9
1000
4
1002
{
1000
Class
1070
     4
1000

1002
{
1002
}
1000
Color
1070
     1
1070
   256
1002
{
1002
}
1000
LType
1070
     4
1000
BYLAYER
1002
{
1002
}
1002
}
1000
DIAG
1070
     9
1000
5
1002
{
1000
Class
1070
     4
1000
SYM
1002
{
1002
}
1000
Color
1070
     1
1070
   256
1002
{
1002
}
1000
LType
1070
     4
1000
BYLAYER
1002
{
1002
}
1002
}
1000
DILI
1070
     9
1000
5
1002
{
1000
Class
1070
     4
1000
DIM,SYM
1002
{
1002
}
1000
Color
1070
     1
1070
   256
1002
{
1002
}
1000
LType
1070
     4
1000
BYLAYER
1002
{
1002
}
1002
}
1000
DITO2
1070
     9
1000
5
1002
{
1000
Class
1070
     4
1000
DIM,SYM
1002
{
1002
}
1000
Color
1070
     1
1070
     3
1002
{
1002
}
1000
LType
1070
     4
1000
BYLAYER
1002
{
1002
}
1002
}
1000
DITO3
1070
     9
1000
5
1002
{
1000
Class
1070
     4
1000
DIM,SYM
1002
{
1002
}
1000
Color
1070
     1
1070
     2
1002
{
1002
}
1000
LType
1070
     4
1000
BYLAYER
1002
{
1002
}
1002
}
1000
DITX
1070
     9
1000
5
1002
{
1000
Class
1070
     4
1000
DIM,SYM
1002
{
1002
}
1000
Color
1070
     1
1070
     2
1002
{
1002
}
1000
LType
1070
     4
1000
CONTINUOUS
1002
{
1002
}
1002
}
1000
DIXL
1070
     9
1000
5
1002
{
1000
Class
1070
     4
1000
DIM,SYM
1002
{
1002
}
1000
Color
1070
     1
1070
   256
1002
{
1002
}
1000
LType
1070
     4
1000
BYLAYER
1002
{
1002
}
1002
}
1000
EXMP
1070
     9
1000
4A
1002
{
1000
Class
1070
     4
1000

1002
{
1002
}
1000
Color
1070
     1
1070
   256
1002
{
1002
}
1000
LType
1070
     4
1000
BYLAYER
1002
{
1002
}
1002
}
1000
FEMN
1070
     9
1000
8
1002
{
1000
Class
1070
     4
1000

1002
{
1002
}
1000
Color
1070
     1
1070
   256
1002
{
1002
}
1000
LType
1070
     4
1000
BYLAYER
1002
{
1002
}
1002
}
1000
FEMPN
1070
     9
1000
8
1002
{
1000
Class
1070
     4
1000
SYM
1002
{
1002
}
1000
Color
1070
     1
1070
     3
1002
{
1002
}
1000
LType
1070
     4
1000
BYLAYER
1002
{
1002
}
1002
}
1000
FEMSP
1070
     9
1000
4A
1002
{
1000
Class
1070
     4
1000

1002
{
1002
}
1000
Color
1070
     1
1070
   256
1002
{
1002
}
1000
LType
1070
     4
1000
CONTINUOUS
1002
{
1002
}
1002
}
1000
FEMST
1070
     9
1000
4A
1002
{
1000
Class
1070
     4
1000
SYM
1002
{
1002
}
1000
Color
1070
     1
1070
     3
1002
{
1002
}
1000
LType
1070
     4
1000
BYLAYER
1002
{
1002
}
1002
}
1000
FEMVN
1070
     9
1000
2
1002
{
1000
Class
1070
     4
1000
CON
1002
{
1002
}
1000
Color
1070
     1
1070
   256
1002
{
1002
}
1000
LType
1070
     4
1000
BYLAYER
1002
{
1002
}
1002
}
1000
FEMVT
1070
     9
1000
2
1002
{
1000
Class
1070
     4
1000
SYM
1002
{
1002
}
1000
Color
1070
     1
1070
     3
1002
{
1002
}
1000
LType
1070
     4
1000
BYLAYER
1002
{
1002
}
1002
}
1000
FLAT
1070
     9
1000
0
1002
{
1000
Class
1070
     4
1000

1002
{
1002
}
1000
Color
1070
     1
1070
   256
1002
{
1002
}
1000
LType
1070
     4
1000
BYLAYER
1002
{
1002
}
1002
}
1000
FRAR
1070
     9
1000
4A
1002
{
1000
Class
1070
     4
1000

1002
{
1002
}
1000
Color
1070
     1
1070
   256
1002
{
1002
}
1000
LType
1070
     4
1000
BYLAYER
1002
{
1002
}
1002
}
1000
GRLI
1070
     9
1000
5
1002
{
1000
Class
1070
     4
1000
SYM
1002
{
1002
}
1000
Color
1070
     1
1070
   256
1002
{
1002
}
1000
LType
1070
     4
1000
BYLAYER
1002
{
1002
}
1002
}
1000
GVLI
1070
     9
1000
4A
1002
{
1000
Class
1070
     4
1000

1002
{
1002
}
1000
Color
1070
     1
1070
   256
1002
{
1002
}
1000
LType
1070
     4
1000
BYLAYER
1002
{
1002
}
1002
}
1000
HATC
1070
     9
1000
8
1002
{
1000
Class
1070
     4
1000
HTC,BGD
1002
{
1002
}
1000
Color
1070
     1
1070
   256
1002
{
1002
}
1000
LType
1070
     4
1000
BYLAYER
1002
{
1002
}
1002
}
1000
HIDN
1070
     9
1000
3A
1002
{
1000
Class
1070
     4
1000
HID,BGD
1002
{
1002
}
1000
Color
1070
     1
1070
   256
1002
{
1002
}
1000
LType
1070
     4
1000
BYLAYER
1002
{
1002
}
1002
}
1000
HIDW
1070
     9
1000
3
1002
{
1000
Class
1070
     4
1000
HID,BGD
1002
{
1002
}
1000
Color
1070
     1
1070
   256
1002
{
1002
}
1000
LType
1070
     4
1000
BYLAYER
1002
{
1002
}
1002
}
1000
HLIN
1070
     9
1000
4
1002
{
1000
Class
1070
     4
1000
BGD
1002
{
1002
}
1000
Color
1070
     1
1070
   256
1002
{
1002
}
1000
LType
1070
     4
1000
BYLAYER
1002
{
1002
}
1002
}
1000
HOCN
1070
     9
1000
7A
1002
{
1000
Class
1070
     4
1000
CEN
1002
{
1002
}
1000
Color
1070
     1
1070
   256
1002
{
1002
}
1000
LType
1070
     4
1000
BYLAYER
1002
{
1002
}
1002
}
1000
HOCW
1070
     9
1000
7
1002
{
1000
Class
1070
     4
1000
CEN
1002
{
1002
}
1000
Color
1070
     1
1070
   256
1002
{
1002
}
1000
LType
1070
     4
1000
BYLAYER
1002
{
1002
}
1002
}
1000
INFO
1070
     9
1000
INFO
1002
{
1000
Class
1070
     4
1000
SPZ,SYM
1002
{
1002
}
1000
Color
1070
     1
1070
   256
1002
{
1002
}
1000
LType
1070
     4
1000
BYLAYER
1002
{
1002
}
1002
}
1000
LADI
1070
     9
1000
4
1002
{
1000
Class
1070
     4
1000
BGD
1002
{
1002
}
1000
Color
1070
     1
1070
   256
1002
{
1002
}
1000
LType
1070
     4
1000
BYLAYER
1002
{
1002
}
1002
}
1000
LEAD
1070
     9
1000
5
1002
{
1000
Class
1070
     4
1000
SYM
1002
{
1002
}
1000
Color
1070
     1
1070
   256
1002
{
1002
}
1000
LType
1070
     4
1000
BYLAYER
1002
{
1002
}
1002
}
1000
N_ADDL
1070
     9
1000
5N
1002
{
1000
Class
1070
     4
1000
SYM
1002
{
1002
}
1000
Color
1070
     1
1070
     1
1002
{
1002
}
1000
LType
1070
     4
1000
BYLAYER
1002
{
1002
}
1002
}
1000
N_BHNV
1070
     9
1000
9N
1002
{
1000
Class
1070
     4
1000
INV
1002
{
1002
}
1000
Color
1070
     1
1070
   256
1002
{
1002
}
1000
LType
1070
     4
1000
BYLAYER
1002
{
1002
}
1002
}
1000
N_CON1
1070
     9
1000
0N
1002
{
1000
Class
1070
     4
1000
CON,BGD
1002
{
1002
}
1000
Color
1070
     1
1070
   256
1002
{
1002
}
1000
LType
1070
     4
1000
BYLAYER
1002
{
1002
}
1002
}
1000
N_CON2
1070
     9
1000
1N
1002
{
1000
Class
1070
     4
1000
CON,BGD
1002
{
1002
}
1000
Color
1070
     1
1070
   256
1002
{
1002
}
1000
LType
1070
     4
1000
BYLAYER
1002
{
1002
}
1002
}
1000
N_CON3
1070
     9
1000
2N
1002
{
1000
Class
1070
     4
1000
CON,BGD
1002
{
1002
}
1000
Color
1070
     1
1070
   256
1002
{
1002
}
1000
LType
1070
     4
1000
BYLAYER
1002
{
1002
}
1002
}
1000
N_CON4
1070
     9
1000
2N
1002
{
1000
Class
1070
     4
1000
CON,BGD
1002
{
1002
}
1000
Color
1070
     1
1070
   256
1002
{
1002
}
1000
LType
1070
     4
1000
BYLAYER
1002
{
1002
}
1002
}
1000
N_CENN
1070
     9
1000
7AN
1002
{
1000
Class
1070
     4
1000
CEN
1002
{
1002
}
1000
Color
1070
     1
1070
   256
1002
{
1002
}
1000
LType
1070
     4
1000
BYLAYER
1002
{
1002
}
1002
}
1000
N_CENW
1070
     9
1000
7N
1002
{
1000
Class
1070
     4
1000
CEN
1002
{
1002
}
1000
Color
1070
     1
1070
   256
1002
{
1002
}
1000
LType
1070
     4
1000
BYLAYER
1002
{
1002
}
1002
}
1000
N_DILI
1070
     9
1000
5N
1002
{
1000
Class
1070
     4
1000
DIM,SYM
1002
{
1002
}
1000
Color
1070
     1
1070
   256
1002
{
1002
}
1000
LType
1070
     4
1000
BYLAYER
1002
{
1002
}
1002
}
1000
N_DITX
1070
     9
1000
5N
1002
{
1000
Class
1070
     4
1000
DIM,SYM
1002
{
1002
}
1000
Color
1070
     1
1070
     2
1002
{
1002
}
1000
LType
1070
     4
1000
CONTINUOUS
1002
{
1002
}
1002
}
1000
N_DIXL
1070
     9
1000
5N
1002
{
1000
Class
1070
     4
1000
DIM,SYM
1002
{
1002
}
1000
Color
1070
     1
1070
   256
1002
{
1002
}
1000
LType
1070
     4
1000
BYLAYER
1002
{
1002
}
1002
}
1000
N_HATC
1070
     9
1000
8N
1002
{
1000
Class
1070
     4
1000
HTC,BGD
1002
{
1002
}
1000
Color
1070
     1
1070
   256
1002
{
1002
}
1000
LType
1070
     4
1000
BYLAYER
1002
{
1002
}
1002
}
1000
N_HIDN
1070
     9
1000
3AN
1002
{
1000
Class
1070
     4
1000
HID,BGD
1002
{
1002
}
1000
Color
1070
     1
1070
   256
1002
{
1002
}
1000
LType
1070
     4
1000
BYLAYER
1002
{
1002
}
1002
}
1000
N_HIDW
1070
     9
1000
3N
1002
{
1000
Class
1070
     4
1000
HID,BGD
1002
{
1002
}
1000
Color
1070
     1
1070
   256
1002
{
1002
}
1000
LType
1070
     4
1000
BYLAYER
1002
{
1002
}
1002
}
1000
N_NGIP
1070
     9
1000
IPN
1002
{
1000
Class
1070
     4
1000

1002
{
1002
}
1000
Color
1070
     1
1070
   256
1002
{
1002
}
1000
LType
1070
     4
1000
BYLAYER
1002
{
1002
}
1002
}
1000
N_PHAN
1070
     9
1000
4AN
1002
{
1000
Class
1070
     4
1000

1002
{
1002
}
1000
Color
1070
     1
1070
   256
1002
{
1002
}
1000
LType
1070
     4
1000
BYLAYER
1002
{
1002
}
1002
}
1000
N_POSL
1070
     9
1000
5N
1002
{
1000
Class
1070
     4
1000
SYM
1002
{
1002
}
1000
Color
1070
     1
1070
   256
1002
{
1002
}
1000
LType
1070
     4
1000
BYLAYER
1002
{
1002
}
1002
}
1000
N_TCON
1070
     9
1000
0N
1002
{
1000
Class
1070
     4
1000
CON,BGD
1002
{
1002
}
1000
Color
1070
     1
1070
   256
1002
{
1002
}
1000
LType
1070
     4
1000
BYLAYER
1002
{
1002
}
1002
}
1000
N_THLI
1070
     9
1000
4N
1002
{
1000
Class
1070
     4
1000
BGD
1002
{
1002
}
1000
Color
1070
     1
1070
   256
1002
{
1002
}
1000
LType
1070
     4
1000
BYLAYER
1002
{
1002
}
1002
}
1000
N_TLEN
1070
     9
1000
0N
1002
{
1000
Class
1070
     4
1000
CON,BGD
1002
{
1002
}
1000
Color
1070
     1
1070
   256
1002
{
1002
}
1000
LType
1070
     4
1000
BYLAYER
1002
{
1002
}
1002
}
1000
N_TXT3
1070
     9
1000
6N
1002
{
1000
Class
1070
     4
1000
SYM
1002
{
1002
}
1000
Color
1070
     1
1070
   256
1002
{
1002
}
1000
LType
1070
     4
1000
BYLAYER
1002
{
1002
}
1002
}
1000
N_VPLI
1070
     9
1000
2AN
1002
{
1000
Class
1070
     4
1000

1002
{
1002
}
1000
Color
1070
     1
1070
   256
1002
{
1002
}
1000
LType
1070
     4
1000
BYLAYER
1002
{
1002
}
1002
}
1000
NGIP
1070
     9
1000
IP
1002
{
1000
Class
1070
     4
1000

1002
{
1002
}
1000
Color
1070
     1
1070
   256
1002
{
1002
}
1000
LType
1070
     4
1000
BYLAYER
1002
{
1002
}
1002
}
1000
PAL2
1070
     9
1000
RAHM2
1002
{
1000
Class
1070
     4
1000
SPZ,SYM
1002
{
1002
}
1000
Color
1070
     1
1070
   256
1002
{
1002
}
1000
LType
1070
     4
1000
BYLAYER
1002
{
1002
}
1002
}
1000
PAL3
1070
     9
1000
RAHM3
1002
{
1000
Class
1070
     4
1000
SPZ,SYM
1002
{
1002
}
1000
Color
1070
     1
1070
   256
1002
{
1002
}
1000
LType
1070
     4
1000
BYLAYER
1002
{
1002
}
1002
}
1000
PAL5
1070
     9
1000
RAHM5
1002
{
1000
Class
1070
     4
1000
SPZ,SYM
1002
{
1002
}
1000
Color
1070
     1
1070
   256
1002
{
1002
}
1000
LType
1070
     4
1000
BYLAYER
1002
{
1002
}
1002
}
1000
PAL7
1070
     9
1000
RAHM5
1002
{
1000
Class
1070
     4
1000
SPZ,SYM
1002
{
1002
}
1000
Color
1070
     1
1070
     7
1002
{
1002
}
1000
LType
1070
     4
1000
CONTINUOUS
1002
{
1002
}
1002
}
1000
PHAN
1070
     9
1000
4A
1002
{
1000
Class
1070
     4
1000

1002
{
1002
}
1000
Color
1070
     1
1070
   256
1002
{
1002
}
1000
LType
1070
     4
1000
BYLAYER
1002
{
1002
}
1002
}
1000
POSL
1070
     9
1000
5
1002
{
1000
Class
1070
     4
1000
SYM
1002
{
1002
}
1000
Color
1070
     1
1070
   256
1002
{
1002
}
1000
LType
1070
     4
1000
BYLAYER
1002
{
1002
}
1002
}
1000
POSN
1070
     9
1000
6
1002
{
1000
Class
1070
     4
1000
SYM
1002
{
1002
}
1000
Color
1070
     1
1070
     7
1002
{
1002
}
1000
LType
1070
     4
1000
BYLAYER
1002
{
1002
}
1002
}
1000
POSREF
1070
     9
1000
6
1002
{
1000
Class
1070
     4
1000
SYM
1002
{
1002
}
1000
Color
1070
     1
1070
     5
1002
{
1002
}
1000
LType
1070
     4
1000
BYLAYER
1002
{
1002
}
1002
}
1000
POSX
1070
     9
1000
5
1002
{
1000
Class
1070
     4
1000
SYM
1002
{
1002
}
1000
Color
1070
     1
1070
     2
1002
{
1002
}
1000
LType
1070
     4
1000
CONTINUOUS
1002
{
1002
}
1002
}
1000
PSEC
1070
     9
1000
4A
1002
{
1000
Class
1070
     4
1000

1002
{
1002
}
1000
Color
1070
     1
1070
   256
1002
{
1002
}
1000
LType
1070
     4
1000
BYLAYER
1002
{
1002
}
1002
}
1000
RCGN
1070
     9
1000
7A
1002
{
1000
Class
1070
     4
1000
CEN
1002
{
1002
}
1000
Color
1070
     1
1070
   256
1002
{
1002
}
1000
LType
1070
     4
1000
BYLAYER
1002
{
1002
}
1002
}
1000
RCGW
1070
     9
1000
7
1002
{
1000
Class
1070
     4
1000
CEN
1002
{
1002
}
1000
Color
1070
     1
1070
   256
1002
{
1002
}
1000
LType
1070
     4
1000
BYLAYER
1002
{
1002
}
1002
}
1000
RFDI
1070
     9
1000
4
1002
{
1000
Class
1070
     4
1000
BGD
1002
{
1002
}
1000
Color
1070
     1
1070
   256
1002
{
1002
}
1000
LType
1070
     4
1000
BYLAYER
1002
{
1002
}
1002
}
1000
RQTR
1070
     9
1000
4
1002
{
1000
Class
1070
     4
1000

1002
{
1002
}
1000
Color
1070
     1
1070
     7
1002
{
1002
}
1000
LType
1070
     4
1000
GEN7A
1002
{
1002
}
1002
}
1000
RSBO
1070
     9
1000
4
1002
{
1000
Class
1070
     4
1000
BGD
1002
{
1002
}
1000
Color
1070
     1
1070
   256
1002
{
1002
}
1000
LType
1070
     4
1000
BYLAYER
1002
{
1002
}
1002
}
1000
SBRK
1070
     9
1000
4
1002
{
1000
Class
1070
     4
1000
BGD
1002
{
1002
}
1000
Color
1070
     1
1070
   256
1002
{
1002
}
1000
LType
1070
     4
1000
BYLAYER
1002
{
1002
}
1002
}
1000
SCEN
1070
     9
1000
7
1002
{
1000
Class
1070
     4
1000

1002
{
1002
}
1000
Color
1070
     1
1070
   256
1002
{
1002
}
1000
LType
1070
     4
1000
CONTINUOUS
1002
{
1002
}
1002
}
1000
SECT
1070
     9
1000
4
1002
{
1000
Class
1070
     4
1000
BGD
1002
{
1002
}
1000
Color
1070
     1
1070
   256
1002
{
1002
}
1000
LType
1070
     4
1000
BYLAYER
1002
{
1002
}
1002
}
1000
SELN
1070
     9
1000
7A
1002
{
1000
Class
1070
     4
1000

1002
{
1002
}
1000
Color
1070
     1
1070
   256
1002
{
1002
}
1000
LType
1070
     4
1000
BYLAYER
1002
{
1002
}
1002
}
1000
SELW
1070
     9
1000
7
1002
{
1000
Class
1070
     4
1000

1002
{
1002
}
1000
Color
1070
     1
1070
   256
1002
{
1002
}
1000
LType
1070
     4
1000
BYLAYER
1002
{
1002
}
1002
}
1000
SSYS
1070
     9
1000
0
1002
{
1000
Class
1070
     4
1000

1002
{
1002
}
1000
Color
1070
     1
1070
   256
1002
{
1002
}
1000
LType
1070
     4
1000
BYLAYER
1002
{
1002
}
1002
}
1000
STLI
1070
     9
1000
4
1002
{
1000
Class
1070
     4
1000

1002
{
1002
}
1000
Color
1070
     1
1070
     7
1002
{
1002
}
1000
LType
1070
     4
1000
GEN3A
1002
{
1002
}
1002
}
1000
SYB1
1070
     9
1000
5
1002
{
1000
Class
1070
     4
1000
SYM
1002
{
1002
}
1000
Color
1070
     1
1070
   256
1002
{
1002
}
1000
LType
1070
     4
1000
BYLAYER
1002
{
1002
}
1002
}
1000
SYB2
1070
     9
1000
5
1002
{
1000
Class
1070
     4
1000
SYM
1002
{
1002
}
1000
Color
1070
     1
1070
   256
1002
{
1002
}
1000
LType
1070
     4
1000
BYLAYER
1002
{
1002
}
1002
}
1000
SYB3
1070
     9
1000
6
1002
{
1000
Class
1070
     4
1000
SYM
1002
{
1002
}
1000
Color
1070
     1
1070
   256
1002
{
1002
}
1000
LType
1070
     4
1000
CONTINUOUS
1002
{
1002
}
1002
}
1000
SYB5
1070
     9
1000
5
1002
{
1000
Class
1070
     4
1000
SYM
1002
{
1002
}
1000
Color
1070
     1
1070
     7
1002
{
1002
}
1000
LType
1070
     4
1000
BYLAYER
1002
{
1002
}
1002
}
1000
SYMN
1070
     9
1000
7A
1002
{
1000
Class
1070
     4
1000
CEN
1002
{
1002
}
1000
Color
1070
     1
1070
   256
1002
{
1002
}
1000
LType
1070
     4
1000
BYLAYER
1002
{
1002
}
1002
}
1000
SYMW
1070
     9
1000
7
1002
{
1000
Class
1070
     4
1000
CEN
1002
{
1002
}
1000
Color
1070
     1
1070
   256
1002
{
1002
}
1000
LType
1070
     4
1000
BYLAYER
1002
{
1002
}
1002
}
1000
TCON
1070
     9
1000
0
1002
{
1000
Class
1070
     4
1000
CON,BGD
1002
{
1002
}
1000
Color
1070
     1
1070
   256
1002
{
1002
}
1000
LType
1070
     4
1000
BYLAYER
1002
{
1002
}
1002
}
1000
THLI
1070
     9
1000
4
1002
{
1000
Class
1070
     4
1000
BGD
1002
{
1002
}
1000
Color
1070
     1
1070
   256
1002
{
1002
}
1000
LType
1070
     4
1000
BYLAYER
1002
{
1002
}
1002
}
1000
TIT2
1070
     9
1000
RAHM2
1002
{
1000
Class
1070
     4
1000
SPZ,SYM
1002
{
1002
}
1000
Color
1070
     1
1070
   256
1002
{
1002
}
1000
LType
1070
     4
1000
BYLAYER
1002
{
1002
}
1002
}
1000
TIT3
1070
     9
1000
RAHM3
1002
{
1000
Class
1070
     4
1000
SPZ,SYM
1002
{
1002
}
1000
Color
1070
     1
1070
   256
1002
{
1002
}
1000
LType
1070
     4
1000
BYLAYER
1002
{
1002
}
1002
}
1000
TIT5
1070
     9
1000
RAHM5
1002
{
1000
Class
1070
     4
1000
SPZ,SYM
1002
{
1002
}
1000
Color
1070
     1
1070
   256
1002
{
1002
}
1000
LType
1070
     4
1000
BYLAYER
1002
{
1002
}
1002
}
1000
TIT7
1070
     9
1000
RAHM5
1002
{
1000
Class
1070
     4
1000
SPZ,SYM
1002
{
1002
}
1000
Color
1070
     1
1070
     7
1002
{
1002
}
1000
LType
1070
     4
1000
CONTINUOUS
1002
{
1002
}
1002
}
1000
TLEN
1070
     9
1000
0
1002
{
1000
Class
1070
     4
1000
CON,BGD
1002
{
1002
}
1000
Color
1070
     1
1070
   256
1002
{
1002
}
1000
LType
1070
     4
1000
BYLAYER
1002
{
1002
}
1002
}
1000
TRKN
1070
     9
1000
7A
1002
{
1000
Class
1070
     4
1000

1002
{
1002
}
1000
Color
1070
     1
1070
   256
1002
{
1002
}
1000
LType
1070
     4
1000
BYLAYER
1002
{
1002
}
1002
}
1000
TRKW
1070
     9
1000
7
1002
{
1000
Class
1070
     4
1000

1002
{
1002
}
1000
Color
1070
     1
1070
   256
1002
{
1002
}
1000
LType
1070
     4
1000
BYLAYER
1002
{
1002
}
1002
}
1000
TRLI
1070
     9
1000
4
1002
{
1000
Class
1070
     4
1000
BGD
1002
{
1002
}
1000
Color
1070
     1
1070
   256
1002
{
1002
}
1000
LType
1070
     4
1000
BYLAYER
1002
{
1002
}
1002
}
1000
TXT1
1070
     9
1000
6
1002
{
1000
Class
1070
     4
1000
SYM
1002
{
1002
}
1000
Color
1070
     1
1070
     2
1002
{
1002
}
1000
LType
1070
     4
1000
BYLAYER
1002
{
1002
}
1002
}
1000
TXT2
1070
     9
1000
6
1002
{
1000
Class
1070
     4
1000
SYM
1002
{
1002
}
1000
Color
1070
     1
1070
     2
1002
{
1002
}
1000
LType
1070
     4
1000
BYLAYER
1002
{
1002
}
1002
}
1000
TXT3
1070
     9
1000
6
1002
{
1000
Class
1070
     4
1000
SYM
1002
{
1002
}
1000
Color
1070
     1
1070
   256
1002
{
1002
}
1000
LType
1070
     4
1000
BYLAYER
1002
{
1002
}
1002
}
1000
TXT5
1070
     9
1000
6
1002
{
1000
Class
1070
     4
1000
SYM
1002
{
1002
}
1000
Color
1070
     1
1070
     7
1002
{
1002
}
1000
LType
1070
     4
1000
BYLAYER
1002
{
1002
}
1002
}
1000
TXT7
1070
     9
1000
6
1002
{
1000
Class
1070
     4
1000
SYM
1002
{
1002
}
1000
Color
1070
     1
1070
     7
1002
{
1002
}
1000
LType
1070
     4
1000
BYLAYER
1002
{
1002
}
1002
}
1000
VIEW
1070
     9
1000
VIEW
1002
{
1000
Class
1070
     4
1000
SPZ
1002
{
1002
}
1000
Color
1070
     1
1070
   256
1002
{
1002
}
1000
LType
1070
     4
1000
BYLAYER
1002
{
1002
}
1002
}
1000
VPLI
1070
     9
1000
2A
1002
{
1000
Class
1070
     4
1000

1002
{
1002
}
1000
Color
1070
     1
1070
   256
1002
{
1002
}
1000
LType
1070
     4
1000
BYLAYER
1002
{
1002
}
1002
}
1000
ZIZA
1070
     9
1000
4
1002
{
1000
Class
1070
     4
1000
BGD
1002
{
1002
}
1000
Color
1070
     1
1070
   256
1002
{
1002
}
1000
LType
1070
     4
1000
GENZIGZAG
1002
{
1002
}
1002
}
  0
APPID
  5
16A6
330
163B
100
AcDbSymbolTableRecord
100
AcDbRegAppTableRecord
  2
GENIUS_GENCFG4_13
 70
     0
1001
GENIUS_GENCFG_13
1071
1022852710
1000
16A6
1000
GEN
1070
     9
1000
GenCfgObject
1000
GenCfgShort
1000
GenCfgReal
1000
GenCfgBool
1000
GenCfgString
1000
GenCfgDim
1000
GenCfgLaySection
1000
GenCfgLType
1000
GenCfgFilter
1000
Balloon
1070
     0
1002
{
1000
GenIF
1070
     1
1070
     0
1002
{
1002
}
1000
GenPosInc
1070
     1
1070
     1
1002
{
1002
}
1000
GenPosBlk
1070
     1
1070
     8
1002
{
1002
}
1000
GenPosVar
1070
     1
1070
     0
1002
{
1002
}
1000
GenZiCir
1070
     2
1040
1.5
1002
{
1002
}
1000
MaxCharForCenteredText
1070
     1
1070
    30
1002
{
1002
}
1000
Snap
1070
     0
1002
{
1000
ActivationRadius
1070
     2
1040
1.0
1002
{
1002
}
1000
M
1070
     0
1002
{
1000
SnapStepX
1070
     2
1040
20.0
1002
{
1002
}
1000
SnapStepY
1070
     2
1040
10.0
1002
{
1002
}
1002
}
1000
I
1070
     0
1002
{
1000
SnapStepX
1070
     2
1040
1.0
1002
{
1002
}
1000
SnapStepY
1070
     2
1040
0.5
1002
{
1002
}
1002
}
1002
}
1002
}
1000
Centerline
1070
     0
1002
{
1000
ScaleNot
1070
     3
1070
     0
1002
{
1002
}
1000
M
1070
     0
1002
{
1000
GenCenAng
1070
     4
1000
45|90|135
1002
{
1002
}
1000
GenCenDia
1070
     2
1040
10.0
1002
{
1002
}
1000
GenCenDias
1070
     4
1000
10|20|30
1002
{
1002
}
1000
GenCenDist
1070
     2
1040
3.0
1002
{
1002
}
1000
GenCenLen
1070
     2
1040
10.0
1002
{
1002
}
1000
GenCenOff
1070
     2
1040
10.0
1002
{
1002
}
1002
}
1000
I
1070
     0
1002
{
1000
GenCenAng
1070
     4
1000
45|90|135
1002
{
1002
}
1000
GenCenDia
1070
     2
1040
0.5
1002
{
1002
}
1000
GenCenDias
1070
     4
1000
0.5|1.0|1.5
1002
{
1002
}
1000
GenCenDist
1070
     2
1040
0.125
1002
{
1002
}
1000
GenCenLen
1070
     2
1040
0.5
1002
{
1002
}
1000
GenCenOff
1070
     2
1040
0.5
1002
{
1002
}
1002
}
1002
}
1000
CLine
1070
     0
1002
{
1000
CAngArray
1070
     4
1000
30|45|60
1002
{
1002
}
1000
Typ
1070
     4
1000
XLINE
1002
{
1002
}
1000
M
1070
     0
1002
{
1000
CLinArray
1070
     4
1000
10|20|30
1002
{
1002
}
1002
}
1000
I
1070
     0
1002
{
1000
CLinArray
1070
     4
1000
0.125|0.25|0.5
1002
{
1002
}
1002
}
1002
}
1000
Detail
1070
     0
1002
{
1002
}
1000
Dimension
1070
     5
1002
{
1000
DIMALT
1070
     1
1070
     0
1002
{
1002
}
1000
DIMALTD
1070
     1
1070
     2
1002
{
1002
}
1000
DIMALTTD
1070
     1
1070
     4
1002
{
1002
}
1000
DIMALTTZ
1070
     1
1070
     0
1002
{
1002
}
1000
DIMALTU
1070
     1
1070
     2
1002
{
1002
}
1000
DIMALTZ
1070
     1
1070
     0
1002
{
1002
}
1000
DIMAUNIT
1070
     1
1070
     0
1002
{
1002
}
1000
DIMBLK
1070
     4
1000

1002
{
1002
}
1000
DIMBLK1
1070
     4
1000

1002
{
1002
}
1000
DIMBLK2
1070
     4
1000

1002
{
1002
}
1000
DIMCLRD
1070
     1
1070
   256
1002
{
1002
}
1000
DIMCLRE
1070
     1
1070
   256
1002
{
1002
}
1000
DIMCLRT
1070
     1
1070
     2
1002
{
1002
}
1000
DIMDLE
1070
     2
1040
0.0
1002
{
1002
}
1000
DIMFIT
1070
     1
1070
     3
1002
{
1002
}
1000
DIMJUST
1070
     1
1070
     0
1002
{
1002
}
1000
DIMLFAC
1070
     2
1040
1.0
1002
{
1002
}
1000
DIMLIM
1070
     1
1070
     0
1002
{
1002
}
1000
DIMPOST
1070
     4
1000

1002
{
1002
}
1000
DIMRND
1070
     2
1040
0.0
1002
{
1002
}
1000
DIMSAH
1070
     1
1070
     0
1002
{
1002
}
1000
DIMSCALE
1070
     2
1040
1.0
1002
{
1002
}
1000
DIMSD1
1070
     1
1070
     0
1002
{
1002
}
1000
DIMSD2
1070
     1
1070
     0
1002
{
1002
}
1000
DIMSE1
1070
     1
1070
     0
1002
{
1002
}
1000
DIMSE2
1070
     1
1070
     0
1002
{
1002
}
1000
DIMSOXD
1070
     1
1070
     0
1002
{
1002
}
1000
DIMTAD
1070
     1
1070
     0
1002
{
1002
}
1000
DIMTFAC
1070
     2
1040
0.71
1002
{
1002
}
1000
DIMTIH
1070
     1
1070
     0
1002
{
1002
}
1000
DIMTIX
1070
     1
1070
     0
1002
{
1002
}
1000
DIMTM
1070
     2
1040
0.1
1002
{
1002
}
1000
DIMTOFL
1070
     1
1070
     0
1002
{
1002
}
1000
DIMTOH
1070
     1
1070
     0
1002
{
1002
}
1000
DIMTOL
1070
     1
1070
     0
1002
{
1002
}
1000
DIMTOLJ
1070
     1
1070
     1
1002
{
1002
}
1000
DIMTP
1070
     2
1040
0.1
1002
{
1002
}
1000
DIMTSZ
1070
     2
1040
0.0
1002
{
1002
}
1000
DIMTVP
1070
     2
1040
0.0
1002
{
1002
}
1000
DIMTXSTY
1070
     4
1000
STANDARD
1002
{
1002
}
1000
DIMTZIN
1070
     1
1070
     0
1002
{
1002
}
1000
DIMUNIT
1070
     1
1070
     2
1002
{
1002
}
1000
DIMUPT
1070
     1
1070
     0
1002
{
1002
}
1000
M
1070
     0
1002
{
1000
DIMALTF
1070
     2
1040
0.03937
1002
{
1002
}
1000
DIMAPOST
1070
     4
1000
"
1002
{
1002
}
1000
DIMASZ
1070
     2
1040
2.5
1002
{
1002
}
1000
DIMCEN
1070
     2
1040
0.0
1002
{
1002
}
1000
DIMDEC
1070
     1
1070
     2
1002
{
1002
}
1000
DIMDLI
1070
     2
1040
7.0
1002
{
1002
}
1000
DIMEXE
1070
     2
1040
1.0
1002
{
1002
}
1000
DIMEXO
1070
     2
1040
1.0
1002
{
1002
}
1000
DIMGAP
1070
     2
1040
0.6
1002
{
1002
}
1000
DIMTDEC
1070
     1
1070
     3
1002
{
1002
}
1000
DIMTXT
1070
     2
1040
3.5
1002
{
1002
}
1000
DIMZIN
1070
     1
1070
     8
1002
{
1002
}
1002
}
1000
I
1070
     0
1002
{
1000
DIMALTF
1070
     2
1040
25.4
1002
{
1002
}
1000
DIMAPOST
1070
     4
1000
mm
1002
{
1002
}
1000
DIMASZ
1070
     2
1040
0.1
1002
{
1002
}
1000
DIMCEN
1070
     2
1040
0.0
1002
{
1002
}
1000
DIMDEC
1070
     1
1070
     4
1002
{
1002
}
1000
DIMDLI
1070
     2
1040
0.5
1002
{
1002
}
1000
DIMEXE
1070
     2
1040
0.1
1002
{
1002
}
1000
DIMEXO
1070
     2
1040
0.05
1002
{
1002
}
1000
DIMGAP
1070
     2
1040
0.06
1002
{
1002
}
1000
DIMTDEC
1070
     1
1070
     4
1002
{
1002
}
1000
DIMTXT
1070
     2
1040
0.12
1002
{
1002
}
1000
DIMZIN
1070
     1
1070
     7
1002
{
1002
}
1002
}
1000
GEN-ISO
1070
     5
1002
{
1000
NAME
1070
     4
1000
GEN-ISO
1002
{
1002
}
1000
DIMTAD
1070
     1
1070
     1
1002
{
1002
}
1000
DIMTOLJ
1070
     1
1070
     0
1002
{
1002
}
1000
DIMTOFL
1070
     1
1070
     1
1002
{
1002
}
1000
M
1070
     0
1002
{
1002
}
1000
I
1070
     0
1002
{
1002
}
1002
}
1000
GEN-ISO-POS
1070
     5
1002
{
1000
NAME
1070
     4
1000
GEN-ISO-POS
1002
{
1002
}
1000
DIMTOLJ
1070
     1
1070
     0
1002
{
1002
}
1000
DIMTXSTY
1070
     4
1000
STANDARD
1002
{
1002
}
1000
M
1070
     0
1002
{
1000
DIMASZ
1070
     2
1040
2.5
1002
{
1002
}
1000
DIMGAP
1070
     2
1040
1.5
1002
{
1002
}
1000
DIMTXT
1070
     2
1040
5.0
1002
{
1002
}
1002
}
1000
I
1070
     0
1002
{
1000
DIMASZ
1070
     2
1040
0.1
1002
{
1002
}
1000
DIMGAP
1070
     2
1040
0.06
1002
{
1002
}
1000
DIMTXT
1070
     2
1040
0.2
1002
{
1002
}
1002
}
1002
}
1000
GEN-ISO-CIR
1070
     5
1002
{
1000
NAME
1070
     4
1000
GEN-ISO$3
1002
{
1002
}
1000
DIMFIT
1070
     1
1070
     0
1002
{
1002
}
1000
DIMTAD
1070
     1
1070
     1
1002
{
1002
}
1000
DIMTOH
1070
     1
1070
     1
1002
{
1002
}
1000
DIMTOLJ
1070
     1
1070
     0
1002
{
1002
}
1000
DIMUPT
1070
     1
1070
     1
1002
{
1002
}
1000
M
1070
     0
1002
{
1002
}
1000
I
1070
     0
1002
{
1002
}
1002
}
1000
GEN-ISO-RAD
1070
     5
1002
{
1000
NAME
1070
     4
1000
GEN-ISO$4
1002
{
1002
}
1000
DIMFIT
1070
     1
1070
     0
1002
{
1002
}
1000
DIMTAD
1070
     1
1070
     1
1002
{
1002
}
1000
DIMTIH
1070
     1
1070
     0
1002
{
1002
}
1000
DIMTIX
1070
     1
1070
     0
1002
{
1002
}
1000
DIMTOH
1070
     1
1070
     1
1002
{
1002
}
1000
DIMTOLJ
1070
     1
1070
     0
1002
{
1002
}
1000
DIMTOFL
1070
     1
1070
     0
1002
{
1002
}
1000
DIMUPT
1070
     1
1070
     1
1002
{
1002
}
1000
M
1070
     0
1002
{
1002
}
1000
I
1070
     0
1002
{
1002
}
1002
}
1000
GEN-ISO-ORD
1070
     5
1002
{
1000
NAME
1070
     4
1000
GEN-ISO$6
1002
{
1002
}
1000
DIMTOLJ
1070
     1
1070
     0
1002
{
1002
}
1000
M
1070
     0
1002
{
1002
}
1000
I
1070
     0
1002
{
1002
}
1002
}
1000
GEN-ISO-AXE-F
1070
     5
1002
{
1000
NAME
1070
     4
1000
GEN-ISO-AXE-F
1002
{
1002
}
1000
DIMSE1
1070
     1
1070
     1
1002
{
1002
}
1000
DIMSE2
1070
     1
1070
     1
1002
{
1002
}
1000
DIMTAD
1070
     1
1070
     1
1002
{
1002
}
1000
DIMTOLJ
1070
     1
1070
     0
1002
{
1002
}
1000
DIMTOFL
1070
     1
1070
     1
1002
{
1002
}
1000
M
1070
     0
1002
{
1002
}
1000
I
1070
     0
1002
{
1002
}
1002
}
1000
GEN-ISO-AXE-H
1070
     5
1002
{
1000
NAME
1070
     4
1000
GEN-ISO-AXE-H
1002
{
1002
}
1000
DIMBLK1
1070
     4
1000
GENAXEH
1002
{
1002
}
1000
DIMLFAC
1070
     2
1040
2.0
1002
{
1002
}
1000
DIMSAH
1070
     1
1070
     1
1002
{
1002
}
1000
DIMSE1
1070
     1
1070
     1
1002
{
1002
}
1000
DIMSE2
1070
     1
1070
     1
1002
{
1002
}
1000
DIMTAD
1070
     1
1070
     1
1002
{
1002
}
1000
DIMTOLJ
1070
     1
1070
     0
1002
{
1002
}
1000
DIMTOFL
1070
     1
1070
     1
1002
{
1002
}
1000
M
1070
     0
1002
{
1002
}
1000
I
1070
     0
1002
{
1002
}
1002
}
1000
GEN-ANSI
1070
     5
1002
{
1000
NAME
1070
     4
1000
GEN-ANSI
1002
{
1002
}
1000
DIMTIH
1070
     1
1070
     1
1002
{
1002
}
1000
DIMTOH
1070
     1
1070
     1
1002
{
1002
}
1000
DIMTAD
1070
     1
1070
     0
1002
{
1002
}
1000
DIMTOLJ
1070
     1
1070
     1
1002
{
1002
}
1000
M
1070
     0
1002
{
1002
}
1000
I
1070
     0
1002
{
1002
}
1002
}
1000
GEN-ANSI-POS
1070
     5
1002
{
1000
NAME
1070
     4
1000
GEN-ANSI-POS
1002
{
1002
}
1000
DIMTOLJ
1070
     1
1070
     1
1002
{
1002
}
1000
DIMTXSTY
1070
     4
1000
STANDARD
1002
{
1002
}
1000
M
1070
     0
1002
{
1000
DIMASZ
1070
     2
1040
2.5
1002
{
1002
}
1000
DIMGAP
1070
     2
1040
1.5
1002
{
1002
}
1000
DIMTXT
1070
     2
1040
5.0
1002
{
1002
}
1002
}
1000
I
1070
     0
1002
{
1000
DIMASZ
1070
     2
1040
0.1
1002
{
1002
}
1000
DIMGAP
1070
     2
1040
0.06
1002
{
1002
}
1000
DIMTXT
1070
     2
1040
0.2
1002
{
1002
}
1002
}
1002
}
1000
GEN-ANSI-CIR
1070
     5
1002
{
1000
NAME
1070
     4
1000
GEN-ANSI$3
1002
{
1002
}
1000
DIMFIT
1070
     1
1070
     0
1002
{
1002
}
1000
DIMTAD
1070
     1
1070
     0
1002
{
1002
}
1000
DIMTIH
1070
     1
1070
     1
1002
{
1002
}
1000
DIMTIX
1070
     1
1070
     0
1002
{
1002
}
1000
DIMTOFL
1070
     1
1070
     0
1002
{
1002
}
1000
DIMTOH
1070
     1
1070
     1
1002
{
1002
}
1000
DIMTOLJ
1070
     1
1070
     1
1002
{
1002
}
1000
DIMUPT
1070
     1
1070
     1
1002
{
1002
}
1000
M
1070
     0
1002
{
1002
}
1000
I
1070
     0
1002
{
1002
}
1002
}
1000
GEN-ANSI-RAD
1070
     5
1002
{
1000
NAME
1070
     4
1000
GEN-ANSI$4
1002
{
1002
}
1000
DIMFIT
1070
     1
1070
     0
1002
{
1002
}
1000
DIMTAD
1070
     1
1070
     0
1002
{
1002
}
1000
DIMTIH
1070
     1
1070
     1
1002
{
1002
}
1000
DIMTIX
1070
     1
1070
     0
1002
{
1002
}
1000
DIMTOFL
1070
     1
1070
     0
1002
{
1002
}
1000
DIMTOH
1070
     1
1070
     1
1002
{
1002
}
1000
DIMTOLJ
1070
     1
1070
     1
1002
{
1002
}
1000
DIMUPT
1070
     1
1070
     1
1002
{
1002
}
1000
M
1070
     0
1002
{
1002
}
1000
I
1070
     0
1002
{
1002
}
1002
}
1000
GEN-ANSI-ORD
1070
     5
1002
{
1000
NAME
1070
     4
1000
GEN-ANSI$6
1002
{
1002
}
1000
DIMTAD
1070
     1
1070
     0
1002
{
1002
}
1000
DIMTIH
1070
     1
1070
     1
1002
{
1002
}
1000
DIMTOH
1070
     1
1070
     1
1002
{
1002
}
1000
DIMTOLJ
1070
     1
1070
     1
1002
{
1002
}
1000
M
1070
     0
1002
{
1002
}
1000
I
1070
     0
1002
{
1002
}
1002
}
1000
GEN-ANSI-AXE-F
1070
     5
1002
{
1000
NAME
1070
     4
1000
GEN-ANSI-AXE-F
1002
{
1002
}
1000
DIMBLK1
1070
     4
1000
GENAXEH
1002
{
1002
}
1000
DIMSAH
1070
     1
1070
     1
1002
{
1002
}
1000
DIMSE1
1070
     1
1070
     1
1002
{
1002
}
1000
DIMSE2
1070
     1
1070
     1
1002
{
1002
}
1000
DIMTAD
1070
     1
1070
     0
1002
{
1002
}
1000
DIMTIH
1070
     1
1070
     1
1002
{
1002
}
1000
DIMTOH
1070
     1
1070
     1
1002
{
1002
}
1000
DIMTOLJ
1070
     1
1070
     1
1002
{
1002
}
1000
M
1070
     0
1002
{
1002
}
1000
I
1070
     0
1002
{
1002
}
1002
}
1000
GEN-ANSI-AXE-H
1070
     5
1002
{
1000
NAME
1070
     4
1000
GEN-ANSI-AXE-H
1002
{
1002
}
1000
DIMBLK1
1070
     4
1000
GENAXEH
1002
{
1002
}
1000
DIMLFAC
1070
     2
1040
2.0
1002
{
1002
}
1000
DIMSAH
1070
     1
1070
     1
1002
{
1002
}
1000
DIMSE1
1070
     1
1070
     1
1002
{
1002
}
1000
DIMSE2
1070
     1
1070
     1
1002
{
1002
}
1000
DIMTAD
1070
     1
1070
     0
1002
{
1002
}
1000
DIMTOFL
1070
     1
1070
     1
1002
{
1002
}
1000
DIMTOLJ
1070
     1
1070
     1
1002
{
1002
}
1000
M
1070
     0
1002
{
1002
}
1000
I
1070
     0
1002
{
1002
}
1002
}
1002
}
1000
DimSet
1070
     0
1002
{
1000
ChainSum
1070
     3
1070
     0
1002
{
1002
}
1000
DimDclTyp0
1070
     4
1000
dim23
1002
{
1002
}
1000
HorBra
1070
     3
1070
     0
1002
{
1002
}
1000
StrDia
1070
     4
1000
%%c<>
1002
{
1002
}
1000
StrRad
1070
     4
1000
R<>
1002
{
1002
}
1000
TextMinus
1070
     4
1000
<>
1002
{
1002
}
1000
TextPlus
1070
     4
1000
<>
1002
{
1002
}
1000
M
1070
     0
1002
{
1000
DimdliFirst
1070
     2
1040
10.0
1002
{
1002
}
1000
PointMakeDist
1070
     2
1040
10.0
1002
{
1002
}
1002
}
1000
I
1070
     0
1002
{
1000
DimdliFirst
1070
     2
1040
0.5
1002
{
1002
}
1000
PointMakeDist
1070
     2
1040
0.5
1002
{
1002
}
1002
}
1000
FitGrade
1070
     4
1000
h7
1002
{
1002
}
1002
}
1000
Drawing
1070
     0
1002
{
1000
ChamferDimMode
1070
     1
1070
     2
1002
{
1002
}
1000
Gen_Fiso
1070
    -3
1040
1.0
1002
{
1002
}
1000
GenDimStil
1070
     4
1000
ISO
1002
{
1002
}
1000
GenDwgUScale
1070
     2
1040
1.0
1002
{
1002
}
1000
GenInch
1070
     4
1000
M
1002
{
1002
}
1000
GenPlotScale
1070
     4
1000
1:5
1002
{
1002
}
1000
Revisi
1070
     4
1000
0
1002
{
1002
}
1000
Version
1070
    -5
1000
14.01/Apr  1 1998
1002
{
1002
}
1000
Platform
1070
    -5
1000
WINNT
1002
{
1002
}
1002
}
1000
DwgVar
1070
     0
1002
{
1000
M
1070
     0
1002
{
1002
}
1000
I
1070
     0
1002
{
1002
}
1002
}
1000
Hatch
1070
     0
1002
{
1000
GenHtcFlag
1070
     3
1070
     0
1002
{
1002
}
1002
}
1000
Info_Pos
1070
     0
1002
{
1000
>
1002
}
1000
Layer
1070
     6
1002
{
1000
Defs
1070
     0
1002
{
1000
>
1002
}
1000
EntSort
1070
     0
1002
{
1000
>
1002
}
1000
Match
1070
     0
1002
{
1002
}
1000
Settings
1070
     0
1002
{
1000
FocGrNC
1070
     3
1070
     0
1002
{
1002
}
1000
FocGrLo
1070
     3
1070
     0
1002
{
1002
}
1000
FocLoNC
1070
     3
1070
     0
1002
{
1002
}
1000
FocusCol
1070
     1
1070
   253
1002
{
1002
}
1000
GenStdLG
1070
     4
1000

1002
{
1002
}
1000
LayMatch
1070
     3
1070
     0
1002
{
1002
}
1000
LgOff
1070
     3
1070
     0
1002
{
1002
}
1000
CurLG
1070
    -5
1000

1002
{
1002
}
1002
}
1002
}
1000
LType
1070
     0
1002
{
1000
GEN3
1070
     7
1000
genius.lin
1002
{
1002
}
1000
GEN7
1070
     7
1000
genius.lin
1002
{
1002
}
1000
GEN4A
1070
     7
1000
genius.lin
1002
{
1002
}
1000
GEN3A
1070
     7
1000
genius.lin
1002
{
1002
}
1000
GEN7A
1070
     7
1000
genius.lin
1002
{
1002
}
1000
GENZIGZAG
1070
     7
1000
genius.lin
1002
{
1002
}
1002
}
1000
Objecter
1070
     0
1002
{
1000
CreateGroups
1070
     3
1070
     0
1002
{
1002
}
1000
LaySwitch
1070
     3
1070
     1
1002
{
1002
}
1000
LastObj
1070
    -5
1000
16D9
1002
{
1002
}
1000
TimeStamp
1070
    -5
1000
20020531.15445518
1002
{
1002
}
1002
}
1000
OSWiz
1070
     0
1002
{
1000
Filter
1070
     0
1002
{
1000
HATCH
1070
     8
1002
{
1000
EntityType
1070
     4
1000
LINE
1002
{
1002
}
1000
Layer
1070
     4
1000
8,8N,*-8,*-8N
1002
{
1002
}
1000
Linetype
1070
     4
1000
*
1002
{
1002
}
1000
Color
1070
     4
1000
*
1002
{
1002
}
1000
ApplyInDims
1070
     3
1070
     1
1002
{
1002
}
1002
}
1000
SYMBOLS
1070
     8
1002
{
1000
EntityType
1070
     4
1000
*
1002
{
1002
}
1000
Layer
1070
     4
1000
[5-6],[5-6]N,*-[5-6],*-[5-6]N
1002
{
1002
}
1000
Linetype
1070
     4
1000
*
1002
{
1002
}
1000
Color
1070
     4
1000
*
1002
{
1002
}
1000
ApplyInDims
1070
     3
1070
     1
1002
{
1002
}
1002
}
1000
FEM
1070
     8
1002
{
1000
EntityType
1070
     4
1000
*
1002
{
1002
}
1000
Layer
1070
     4
1000
4A,4AN,*-4A,*-4AN
1002
{
1002
}
1000
Linetype
1070
     4
1000
*
1002
{
1002
}
1000
Color
1070
     4
1000
*
1002
{
1002
}
1000
ApplyInDims
1070
     3
1070
     1
1002
{
1002
}
1002
}
1002
}
1002
}
1000
PaList
1070
     0
1002
{
1000
AutoUpdatePartList
1070
     1
1070
     0
1002
{
1002
}
1000
ReadInfoPoint
1070
     3
1070
     0
1002
{
1002
}
1000
ReadPosNr
1070
     3
1070
     1
1002
{
1002
}
1000
RevStr
1070
     4
1000
0
1002
{
1002
}
1002
}
1000
Paper
1070
     0
1002
{
1002
}
1000
PartDB
1070
     0
1002
{
1000
GenDbOwner
1070
     4
1000

1002
{
1002
}
1002
}
1000
System
1070
     0
1002
{
1000
Menu
1070
     4
1000
GEV
1002
{
1002
}
1002
}
1000
Title
1070
     0
1002
{
1000
MakeView
1070
     1
1070
     2
1002
{
1002
}
1002
}
1000
Tools
1070
     0
1002
{
1000
Trans
1070
     0
1002
{
1000
Drawingtranslation
1070
    -4
1070
     1
1002
{
1002
}
1000
upreserve
1070
     3
1070
     0
1002
{
1002
}
1000
originally_on
1070
    -4
1070
     0
1002
{
1002
}
1000
sourcelang
1070
    -5
1000
D
1002
{
1002
}
1002
}
1002
}
  0
APPID
  5
16A7
330
163B
100
AcDbSymbolTableRecord
100
AcDbRegAppTableRecord
  2
GENIUS_GEVCFG0_13
 70
     0
1001
GENIUS_GENCFG_13
1071
1022852699
1000
16A7
1000
GEV
1070
     1
1000
GenCfgObject
1000
VED
1070
     0
1002
{
1002
}
  0
APPID
  5
16A8
330
163B
100
AcDbSymbolTableRecord
100
AcDbRegAppTableRecord
  2
GEV_VCCNULL_SWITCH_OFF
 70
     0
  0
APPID
  5
16A9
330
163B
100
AcDbSymbolTableRecord
100
AcDbRegAppTableRecord
  2
GENIUS_GENDTOL_13
 70
     0
  0
APPID
  5
16AA
330
163B
100
AcDbSymbolTableRecord
100
AcDbRegAppTableRecord
  2
GENIUS_GENOENT_13
 70
     0
  0
APPID
  5
16AB
330
163B
100
AcDbSymbolTableRecord
100
AcDbRegAppTableRecord
  2
GENIUS_GENBLLY_14
 70
     0
  0
APPID
  5
16AC
330
163B
100
AcDbSymbolTableRecord
100
AcDbRegAppTableRecord
  2
GENIUS_GENODEF_13
 70
     0
  0
APPID
  5
16AD
330
163B
100
AcDbSymbolTableRecord
100
AcDbRegAppTableRecord
  2
GENIUS_GENOBJ-N-CRS_13
 70
     0
  0
APPID
  5
16AE
330
163B
100
AcDbSymbolTableRecord
100
AcDbRegAppTableRecord
  2
GENIUS_GENOREF_13
 70
     0
  0
APPID
  5
16AF
330
163B
100
AcDbSymbolTableRecord
100
AcDbRegAppTableRecord
  2
GENIUS_GENOLIS_13
 70
     0
  0
APPID
  5
16B0
330
163B
100
AcDbSymbolTableRecord
100
AcDbRegAppTableRecord
  2
GENIUS_GEFCFG0_13
 70
     0
  0
APPID
  5
16B1
330
163B
100
AcDbSymbolTableRecord
100
AcDbRegAppTableRecord
  2
GENIUS_VERSION2
 70
     0
  0
APPID
  5
16B2
330
163B
100
AcDbSymbolTableRecord
100
AcDbRegAppTableRecord
  2
GENIUS_GENREC_14
 70
     0
  0
APPID
  5
16B3
330
163B
100
AcDbSymbolTableRecord
100
AcDbRegAppTableRecord
  2
GENIUS_GENOBJ-N-REC_13
 70
     0
  0
APPID
  5
16B4
330
163B
100
AcDbSymbolTableRecord
100
AcDbRegAppTableRecord
  2
GENIUS_GENOBJ-N-TIT_13
 70
     0
  0
APPID
  5
16B5
330
163B
100
AcDbSymbolTableRecord
100
AcDbRegAppTableRecord
  2
GENIUS_GENTITLE_13
 70
     0
  0
APPID
  5
16B6
330
163B
100
AcDbSymbolTableRecord
100
AcDbRegAppTableRecord
  2
GENIUS_GENZVEED_13
 70
     0
  0
APPID
  5
16B7
330
163B
100
AcDbSymbolTableRecord
100
AcDbRegAppTableRecord
  2
GENIUS_GENOBJ-N-SDF_13
 70
     0
  0
APPID
  5
16B8
330
163B
100
AcDbSymbolTableRecord
100
AcDbRegAppTableRecord
  2
GENIUS_GENSCREG_13
 70
     0
  0
APPID
  5
16B9
330
163B
100
AcDbSymbolTableRecord
100
AcDbRegAppTableRecord
  2
GENIUS_GENBLKED_14
 70
     0
  0
APPID
  5
182A
330
163B
100
AcDbSymbolTableRecord
100
AcDbRegAppTableRecord
  2
MCAD_NO_VIS
 70
     0
  0
APPID
  5
182B
330
163B
100
AcDbSymbolTableRecord
100
AcDbRegAppTableRecord
  2
ACAD_TEMP_GRAPHIC
 70
     0
  0
APPID
  5
185B
330
163B
100
AcDbSymbolTableRecord
100
AcDbRegAppTableRecord
  2
AD_DRAW
 70
     0
  0
APPID
  5
185E
330
163B
100
AcDbSymbolTableRecord
100
AcDbRegAppTableRecord
  2
ACATTRIBSERVICES
 70
     0
  0
APPID
  5
187E
330
163B
100
AcDbSymbolTableRecord
100
AcDbRegAppTableRecord
  2
DESIGNERASSEMBLIES
 70
     0
  0
APPID
  5
1884
330
163B
100
AcDbSymbolTableRecord
100
AcDbRegAppTableRecord
  2
ACADM_DIM_EDIT
 70
     0
  0
APPID
  5
1885
330
163B
100
AcDbSymbolTableRecord
100
AcDbRegAppTableRecord
  2
AMDT_DM_ADJ
 70
     0
  0
APPID
  5
18B7
330
163B
100
AcDbSymbolTableRecord
100
AcDbRegAppTableRecord
  2
ACAD_DSTYLE_DIMARC_LENGTH_SYMBOL
 70
     0
  0
APPID
  5
18B8
330
163B
100
AcDbSymbolTableRecord
100
AcDbRegAppTableRecord
  2
ACAD_DSTYLE_DIMJOGGED_JOGANGLE_SYMBOL
 70
     0
  0
ENDTAB
  0
TABLE
  2
DIMSTYLE
  5
163C
330
0
100
AcDbSymbolTable
 70
    10
100
AcDbDimStyleTable
 71
     1
340
1664
  0
DIMSTYLE
105
1664
102
{ACAD_REACTORS
330
109B
330
10B1
330
1091
330
1087
102
}
330
163C
100
AcDbSymbolTableRecord
100
AcDbDimStyleTableRecord
  2
GEN-ISO
 70
     0
  4
"
 40
5.0
 41
2.5
 42
1.0
 43
7.0
 44
1.0
 47
0.1
 48
0.1
 73
     0
 74
     0
 77
     1
 78
     8
140
3.5
141
0.0
143
0.03937
146
0.71
147
0.6
172
     1
176
   256
177
   256
178
     2
271
     2
272
     3
274
     4
283
     0
340
1641
  0
DIMSTYLE
105
18B6
330
163C
100
AcDbSymbolTableRecord
100
AcDbDimStyleTableRecord
  2
AM_DIN
 70
     0
  4
"
 41
2.5
 42
1.0
 43
10.0
 44
1.0
 47
0.1
 48
0.1
 73
     0
 74
     0
 77
     1
 78
     8
 79
     2
140
3.5
141
0.0
143
0.0393701
146
0.71
147
1.5
172
     1
176
   256
177
   256
178
     2
271
     2
272
     3
274
     4
283
     0
284
     8
340
1641
371
    -1
372
    -1
1001
ACAD_DSTYLE_DIMARC_LENGTH_SYMBOL
1070
   379
1070
     0
1001
ACAD_DSTYLE_DIMJOGGED_JOGANGLE_SYMBOL
1070
   384
1040
1.570796326794896
  0
DIMSTYLE
105
18C7
330
163C
100
AcDbSymbolTableRecord
100
AcDbDimStyleTableRecord
  2
AM_DIN$3
 70
     0
  4
"
 41
2.5
 42
1.0
 43
10.0
 44
1.0
 47
0.1
 48
0.1
 73
     0
 77
     1
 78
     8
 79
     2
140
3.5
141
0.0
143
0.0393701
146
0.71
147
1.5
176
   256
177
   256
178
     2
271
     2
272
     3
274
     4
283
     0
284
     8
288
     1
289
     0
340
1641
371
    -1
372
    -1
1001
ACAD_DSTYLE_DIMARC_LENGTH_SYMBOL
1070
   379
1070
     0
1001
ACAD_DSTYLE_DIMJOGGED_JOGANGLE_SYMBOL
1070
   384
1040
1.570796326794896
  0
DIMSTYLE
105
18CC
330
163C
100
AcDbSymbolTableRecord
100
AcDbDimStyleTableRecord
  2
AM_DIN$4
 70
     0
  4
"
 41
2.5
 42
1.0
 43
10.0
 44
1.0
 47
0.1
 48
0.1
 73
     0
 77
     1
 78
     8
 79
     2
140
3.5
141
0.0
143
0.0393701
146
0.71
147
1.5
176
   256
177
   256
178
     2
271
     2
272
     3
274
     4
283
     0
284
     8
288
     1
289
     0
340
1641
371
    -1
372
    -1
1001
ACAD_DSTYLE_DIMARC_LENGTH_SYMBOL
1070
   379
1070
     0
1001
ACAD_DSTYLE_DIMJOGGED_JOGANGLE_SYMBOL
1070
   384
1040
1.570796326794896
  0
DIMSTYLE
105
18D1
330
163C
100
AcDbSymbolTableRecord
100
AcDbDimStyleTableRecord
  2
AM_DIN$6
 70
     0
  4
"
 41
2.5
 42
1.0
 43
10.0
 44
1.0
 47
0.1
 48
0.1
 73
     0
 74
     0
 78
     8
 79
     2
140
3.5
141
0.0
143
0.0393701
146
0.71
147
1.5
172
     1
176
   256
177
   256
178
     2
271
     2
272
     3
274
     4
283
     0
284
     8
340
1641
371
    -1
372
    -1
1001
ACAD_DSTYLE_DIMARC_LENGTH_SYMBOL
1070
   379
1070
     0
1001
ACAD_DSTYLE_DIMJOGGED_JOGANGLE_SYMBOL
1070
   384
1040
1.570796326794896
  0
DIMSTYLE
105
18D6
330
163C
100
AcDbSymbolTableRecord
100
AcDbDimStyleTableRecord
  2
AM_DIN$7
 70
     0
  4
"
 41
2.5
 42
1.0
 43
10.0
 44
1.0
 47
0.1
 48
0.1
 73
     0
 74
     0
 77
     1
 78
     8
 79
     2
140
5.0
141
0.0
143
0.0393701
146
0.71
147
1.5
172
     1
176
   256
177
   256
178
     2
271
     2
272
     3
274
     4
283
     0
284
     8
340
1641
371
    -1
372
    -1
1001
ACAD_DSTYLE_DIMARC_LENGTH_SYMBOL
1070
   379
1070
     0
1001
ACAD_DSTYLE_DIMJOGGED_JOGANGLE_SYMBOL
1070
   384
1040
1.570796326794896
  0
DIMSTYLE
105
18DB
330
163C
100
AcDbSymbolTableRecord
100
AcDbDimStyleTableRecord
  2
AM_DIN$SF
 70
     0
  4
"
 41
2.5
 42
1.0
 43
10.0
 44
1.0
 47
0.1
 48
0.1
 73
     0
 74
     0
 75
     1
 76
     1
 77
     1
 78
     8
 79
     2
140
3.5
141
0.0
143
0.0393701
146
0.71
147
1.5
172
     1
176
   256
177
   256
178
     2
271
     2
272
     3
274
     4
283
     0
284
     8
340
1641
371
    -1
372
    -1
1001
ACAD_DSTYLE_DIMARC_LENGTH_SYMBOL
1070
   379
1070
     0
1001
ACAD_DSTYLE_DIMJOGGED_JOGANGLE_SYMBOL
1070
   384
1040
1.570796326794896
  0
DIMSTYLE
105
18E4
330
163C
100
AcDbSymbolTableRecord
100
AcDbDimStyleTableRecord
  2
AM_DIN$SH
 70
     0
  4
"
 41
2.5
 42
1.0
 43
10.0
 44
1.0
 47
0.1
 48
0.1
 73
     0
 74
     0
 75
     1
 76
     1
 77
     1
 78
     8
 79
     2
140
3.5
141
0.0
143
0.0393701
144
2.0
146
0.71
147
1.5
172
     1
173
     1
176
   256
177
   256
178
     2
271
     2
272
     3
274
     4
283
     0
284
     8
340
1641
343
18DC
371
    -1
372
    -1
1001
ACAD_DSTYLE_DIMARC_LENGTH_SYMBOL
1070
   379
1070
     0
1001
ACAD_DSTYLE_DIMJOGGED_JOGANGLE_SYMBOL
1070
   384
1040
1.570796326794896
  0
ENDTAB
  0
TABLE
  2
BLOCK_RECORD
  5
1633
330
0
100
AcDbSymbolTable
 70
    17
  0
BLOCK_RECORD
  5
164A
330
1633
100
AcDbSymbolTableRecord
100
AcDbBlockTableRecord
  2
*MODEL_SPACE
340
1822
  0
BLOCK_RECORD
  5
1647
330
1633
100
AcDbSymbolTableRecord
100
AcDbBlockTableRecord
  2
*PAPER_SPACE
340
1823
  0
BLOCK_RECORD
  5
166B
330
1633
100
AcDbSymbolTableRecord
100
AcDbBlockTableRecord
  2
*X0
340
0
102
{BLKREFS
331
123C
102
}
  0
BLOCK_RECORD
  5
166C
330
1633
100
AcDbSymbolTableRecord
100
AcDbBlockTableRecord
  2
*X1
340
0
102
{BLKREFS
331
1299
102
}
  0
BLOCK_RECORD
  5
166D
330
1633
100
AcDbSymbolTableRecord
100
AcDbBlockTableRecord
  2
*X2
340
0
102
{BLKREFS
331
1424
102
}
  0
BLOCK_RECORD
  5
166E
330
1633
100
AcDbSymbolTableRecord
100
AcDbBlockTableRecord
  2
*X3
340
0
102
{BLKREFS
331
15AF
102
}
  0
BLOCK_RECORD
  5
166F
330
1633
100
AcDbSymbolTableRecord
100
AcDbBlockTableRecord
  2
*X4
340
0
102
{BLKREFS
331
160C
102
}
  0
BLOCK_RECORD
  5
1676
330
1633
100
AcDbSymbolTableRecord
100
AcDbBlockTableRecord
  2
KATALOG_LEER
340
0
102
{BLKREFS
331
16BB
331
16D8
102
}
  0
BLOCK_RECORD
  5
16DA
330
1633
100
AcDbSymbolTableRecord
100
AcDbBlockTableRecord
  2
*D7
340
0
  0
BLOCK_RECORD
  5
16E5
330
1633
100
AcDbSymbolTableRecord
100
AcDbBlockTableRecord
  2
*D8
340
0
  0
BLOCK_RECORD
  5
1717
330
1633
100
AcDbSymbolTableRecord
100
AcDbBlockTableRecord
  2
*D10
340
0
  0
BLOCK_RECORD
  5
172E
330
1633
100
AcDbSymbolTableRecord
100
AcDbBlockTableRecord
  2
*D11
340
0
  0
BLOCK_RECORD
  5
18DC
330
1633
100
AcDbSymbolTableRecord
100
AcDbBlockTableRecord
  2
GENAXEH
340
0
  0
ENDTAB
  0
ENDSEC
  0
SECTION
  2
BLOCKS
  0
BLOCK
  5
164B
330
164A
100
AcDbEntity
  8
0
100
AcDbBlockBegin
  2
*MODEL_SPACE
 70
     0
 10
0.0
 20
0.0
 30
0.0
  3
*MODEL_SPACE
  1

  0
ENDBLK
  5
164C
330
164A
100
AcDbEntity
  8
0
100
AcDbBlockEnd
  0
BLOCK
  5
1648
330
1647
100
AcDbEntity
 67
     1
  8
0
100
AcDbBlockBegin
  2
*PAPER_SPACE
 70
     0
 10
0.0
 20
0.0
 30
0.0
  3
*PAPER_SPACE
  1

  0
ENDBLK
  5
1649
330
1647
100
AcDbEntity
 67
     1
  8
0
100
AcDbBlockEnd
  0
BLOCK
  5
1117
330
166B
100
AcDbEntity
  8
0
100
AcDbBlockBegin
  2
*X0
 70
     1
 10
0.0
 20
0.0
 30
0.0
  3
*X0
  1

  0
LINE
  5
1118
330
166B
100
AcDbEntity
  8
8
100
AcDbLine
 10
90.301
 20
264.801
 30
0.0
 11
118.166
 21
264.801
 31
0.0
  0
LINE
  5
1119
330
166B
100
AcDbEntity
  8
8
100
AcDbLine
 10
180.646
 20
264.801
 30
0.0
 11
208.511
 21
264.801
 31
0.0
  0
LINE
  5
111A
330
166B
100
AcDbEntity
  8
8
100
AcDbLine
 10
89.639
 20
265.161
 30
0.0
 11
118.788
 21
265.161
 31
0.0
  0
LINE
  5
111B
330
166B
100
AcDbEntity
  8
8
100
AcDbLine
 10
180.025
 20
265.161
 30
0.0
 11
209.173
 21
265.161
 31
0.0
  0
LINE
  5
111C
330
166B
100
AcDbEntity
  8
8
100
AcDbLine
 10
89.15600000000001
 20
265.521
 30
0.0
 11
91.24299999999999
 21
265.521
 31
0.0
  0
LINE
  5
111D
330
166B
100
AcDbEntity
  8
8
100
AcDbLine
 10
117.414
 20
265.521
 30
0.0
 11
119.41
 21
265.521
 31
0.0
  0
LINE
  5
111E
330
166B
100
AcDbEntity
  8
8
100
AcDbLine
 10
179.403
 20
265.521
 30
0.0
 11
181.398
 21
265.521
 31
0.0
  0
LINE
  5
111F
330
166B
100
AcDbEntity
  8
8
100
AcDbLine
 10
207.569
 20
265.521
 30
0.0
 11
209.656
 21
265.521
 31
0.0
  0
LINE
  5
1120
330
166B
100
AcDbEntity
  8
8
100
AcDbLine
 10
88.76299999999998
 20
265.881
 30
0.0
 11
90.36700000000001
 21
265.881
 31
0.0
  0
LINE
  5
1121
330
166B
100
AcDbEntity
  8
8
100
AcDbLine
 10
118.035
 20
265.881
 30
0.0
 11
120.031
 21
265.881
 31
0.0
  0
LINE
  5
1122
330
166B
100
AcDbEntity
  8
8
100
AcDbLine
 10
178.781
 20
265.881
 30
0.0
 11
180.777
 21
265.881
 31
0.0
  0
LINE
  5
1123
330
166B
100
AcDbEntity
  8
8
100
AcDbLine
 10
208.445
 20
265.881
 30
0.0
 11
210.049
 21
265.881
 31
0.0
  0
LINE
  5
1124
330
166B
100
AcDbEntity
  8
8
100
AcDbLine
 10
88.43700000000001
 20
266.241
 30
0.0
 11
89.83499999999999
 21
266.241
 31
0.0
  0
LINE
  5
1125
330
166B
100
AcDbEntity
  8
8
100
AcDbLine
 10
118.657
 20
266.241
 30
0.0
 11
120.653
 21
266.241
 31
0.0
  0
LINE
  5
1126
330
166B
100
AcDbEntity
  8
8
100
AcDbLine
 10
178.159
 20
266.241
 30
0.0
 11
180.155
 21
266.241
 31
0.0
  0
LINE
  5
1127
330
166B
100
AcDbEntity
  8
8
100
AcDbLine
 10
208.978
 20
266.241
 30
0.0
 11
210.375
 21
266.241
 31
0.0
  0
LINE
  5
1128
330
166B
100
AcDbEntity
  8
8
100
AcDbLine
 10
88.18700000000001
 20
266.601
 30
0.0
 11
89.455
 21
266.601
 31
0.0
  0
LINE
  5
1129
330
166B
100
AcDbEntity
  8
8
100
AcDbLine
 10
119.279
 20
266.601
 30
0.0
 11
121.275
 21
266.601
 31
0.0
  0
LINE
  5
112A
330
166B
100
AcDbEntity
  8
8
100
AcDbLine
 10
177.537
 20
266.601
 30
0.0
 11
179.533
 21
266.601
 31
0.0
  0
LINE
  5
112B
330
166B
100
AcDbEntity
  8
8
100
AcDbLine
 10
209.357
 20
266.601
 30
0.0
 11
210.625
 21
266.601
 31
0.0
  0
LINE
  5
112C
330
166B
100
AcDbEntity
  8
8
100
AcDbLine
 10
87.95700000000001
 20
266.961
 30
0.0
 11
89.15700000000001
 21
266.961
 31
0.0
  0
LINE
  5
112D
330
166B
100
AcDbEntity
  8
8
100
AcDbLine
 10
119.901
 20
266.961
 30
0.0
 11
121.897
 21
266.961
 31
0.0
  0
LINE
  5
112E
330
166B
100
AcDbEntity
  8
8
100
AcDbLine
 10
176.915
 20
266.961
 30
0.0
 11
178.9109999999999
 21
266.961
 31
0.0
  0
LINE
  5
112F
330
166B
100
AcDbEntity
  8
8
100
AcDbLine
 10
209.655
 20
266.961
 30
0.0
 11
210.855
 21
266.961
 31
0.0
  0
LINE
  5
1130
330
166B
100
AcDbEntity
  8
8
100
AcDbLine
 10
87.79099999999999
 20
267.321
 30
0.0
 11
88.907
 21
267.321
 31
0.0
  0
LINE
  5
1131
330
166B
100
AcDbEntity
  8
8
100
AcDbLine
 10
120.523
 20
267.321
 30
0.0
 11
122.519
 21
267.321
 31
0.0
  0
LINE
  5
1132
330
166B
100
AcDbEntity
  8
8
100
AcDbLine
 10
176.294
 20
267.321
 30
0.0
 11
178.289
 21
267.321
 31
0.0
  0
LINE
  5
1133
330
166B
100
AcDbEntity
  8
8
100
AcDbLine
 10
209.905
 20
267.321
 30
0.0
 11
211.021
 21
267.321
 31
0.0
  0
LINE
  5
1134
330
166B
100
AcDbEntity
  8
8
100
AcDbLine
 10
87.63600000000002
 20
267.681
 30
0.0
 11
88.72200000000001
 21
267.681
 31
0.0
  0
LINE
  5
1135
330
166B
100
AcDbEntity
  8
8
100
AcDbLine
 10
121.145
 20
267.681
 30
0.0
 11
123.14
 21
267.681
 31
0.0
  0
LINE
  5
1136
330
166B
100
AcDbEntity
  8
8
100
AcDbLine
 10
175.672
 20
267.681
 30
0.0
 11
177.667
 21
267.681
 31
0.0
  0
LINE
  5
1137
330
166B
100
AcDbEntity
  8
8
100
AcDbLine
 10
210.09
 20
267.681
 30
0.0
 11
211.176
 21
267.681
 31
0.0
  0
LINE
  5
1138
330
166B
100
AcDbEntity
  8
8
100
AcDbLine
 10
87.53299999999999
 20
268.041
 30
0.0
 11
88.57799999999999
 21
268.041
 31
0.0
  0
LINE
  5
1139
330
166B
100
AcDbEntity
  8
8
100
AcDbLine
 10
121.766
 20
268.041
 30
0.0
 11
123.762
 21
268.041
 31
0.0
  0
LINE
  5
113A
330
166B
100
AcDbEntity
  8
8
100
AcDbLine
 10
175.05
 20
268.041
 30
0.0
 11
177.046
 21
268.041
 31
0.0
  0
LINE
  5
113B
330
166B
100
AcDbEntity
  8
8
100
AcDbLine
 10
210.234
 20
268.041
 30
0.0
 11
211.279
 21
268.041
 31
0.0
  0
LINE
  5
113C
330
166B
100
AcDbEntity
  8
8
100
AcDbLine
 10
87.439
 20
268.401
 30
0.0
 11
88.464
 21
268.401
 31
0.0
  0
LINE
  5
113D
330
166B
100
AcDbEntity
  8
8
100
AcDbLine
 10
122.388
 20
268.401
 30
0.0
 11
124.384
 21
268.401
 31
0.0
  0
LINE
  5
113E
330
166B
100
AcDbEntity
  8
8
100
AcDbLine
 10
174.428
 20
268.401
 30
0.0
 11
176.424
 21
268.401
 31
0.0
  0
LINE
  5
113F
330
166B
100
AcDbEntity
  8
8
100
AcDbLine
 10
210.348
 20
268.401
 30
0.0
 11
211.373
 21
268.401
 31
0.0
  0
LINE
  5
1140
330
166B
100
AcDbEntity
  8
8
100
AcDbLine
 10
87.397
 20
268.761
 30
0.0
 11
88.404
 21
268.761
 31
0.0
  0
LINE
  5
1141
330
166B
100
AcDbEntity
  8
8
100
AcDbLine
 10
123.01
 20
268.761
 30
0.0
 11
125.006
 21
268.761
 31
0.0
  0
LINE
  5
1142
330
166B
100
AcDbEntity
  8
8
100
AcDbLine
 10
173.806
 20
268.761
 30
0.0
 11
175.802
 21
268.761
 31
0.0
  0
LINE
  5
1143
330
166B
100
AcDbEntity
  8
8
100
AcDbLine
 10
210.408
 20
268.761
 30
0.0
 11
211.415
 21
268.761
 31
0.0
  0
LINE
  5
1144
330
166B
100
AcDbEntity
  8
8
100
AcDbLine
 10
87.35600000000001
 20
269.121
 30
0.0
 11
88.36
 21
269.121
 31
0.0
  0
LINE
  5
1145
330
166B
100
AcDbEntity
  8
8
100
AcDbLine
 10
123.632
 20
269.121
 30
0.0
 11
125.628
 21
269.121
 31
0.0
  0
LINE
  5
1146
330
166B
100
AcDbEntity
  8
8
100
AcDbLine
 10
173.184
 20
269.121
 30
0.0
 11
175.18
 21
269.121
 31
0.0
  0
LINE
  5
1147
330
166B
100
AcDbEntity
  8
8
100
AcDbLine
 10
210.452
 20
269.121
 30
0.0
 11
211.456
 21
269.121
 31
0.0
  0
LINE
  5
1148
330
166B
100
AcDbEntity
  8
8
100
AcDbLine
 10
87.337
 20
269.481
 30
0.0
 11
88.33899999999999
 21
269.481
 31
0.0
  0
LINE
  5
1149
330
166B
100
AcDbEntity
  8
8
100
AcDbLine
 10
124.254
 20
269.481
 30
0.0
 11
126.25
 21
269.481
 31
0.0
  0
LINE
  5
114A
330
166B
100
AcDbEntity
  8
8
100
AcDbLine
 10
172.563
 20
269.481
 30
0.0
 11
174.558
 21
269.481
 31
0.0
  0
LINE
  5
114B
330
166B
100
AcDbEntity
  8
8
100
AcDbLine
 10
210.473
 20
269.481
 30
0.0
 11
211.475
 21
269.481
 31
0.0
  0
LINE
  5
114C
330
166B
100
AcDbEntity
  8
8
100
AcDbLine
 10
87.31900000000001
 20
269.841
 30
0.0
 11
88.31999999999998
 21
269.841
 31
0.0
  0
LINE
  5
114D
330
166B
100
AcDbEntity
  8
8
100
AcDbLine
 10
124.875
 20
269.841
 30
0.0
 11
126.871
 21
269.841
 31
0.0
  0
LINE
  5
114E
330
166B
100
AcDbEntity
  8
8
100
AcDbLine
 10
171.941
 20
269.841
 30
0.0
 11
173.937
 21
269.841
 31
0.0
  0
LINE
  5
114F
330
166B
100
AcDbEntity
  8
8
100
AcDbLine
 10
210.492
 20
269.841
 30
0.0
 11
211.493
 21
269.841
 31
0.0
  0
LINE
  5
1150
330
166B
100
AcDbEntity
  8
8
100
AcDbLine
 10
87.3
 20
270.201
 30
0.0
 11
88.30099999999999
 21
270.201
 31
0.0
  0
LINE
  5
1151
330
166B
100
AcDbEntity
  8
8
100
AcDbLine
 10
125.497
 20
270.201
 30
0.0
 11
127.493
 21
270.201
 31
0.0
  0
LINE
  5
1152
330
166B
100
AcDbEntity
  8
8
100
AcDbLine
 10
171.319
 20
270.201
 30
0.0
 11
173.315
 21
270.201
 31
0.0
  0
LINE
  5
1153
330
166B
100
AcDbEntity
  8
8
100
AcDbLine
 10
210.511
 20
270.201
 30
0.0
 11
211.512
 21
270.201
 31
0.0
  0
LINE
  5
1154
330
166B
100
AcDbEntity
  8
8
100
AcDbLine
 10
87.28100000000001
 20
270.561
 30
0.0
 11
88.282
 21
270.561
 31
0.0
  0
LINE
  5
1155
330
166B
100
AcDbEntity
  8
8
100
AcDbLine
 10
126.119
 20
270.561
 30
0.0
 11
128.115
 21
270.561
 31
0.0
  0
LINE
  5
1156
330
166B
100
AcDbEntity
  8
8
100
AcDbLine
 10
170.697
 20
270.561
 30
0.0
 11
172.693
 21
270.561
 31
0.0
  0
LINE
  5
1157
330
166B
100
AcDbEntity
  8
8
100
AcDbLine
 10
210.53
 20
270.561
 30
0.0
 11
211.531
 21
270.561
 31
0.0
  0
LINE
  5
1158
330
166B
100
AcDbEntity
  8
8
100
AcDbLine
 10
87.262
 20
270.921
 30
0.0
 11
88.26299999999999
 21
270.921
 31
0.0
  0
LINE
  5
1159
330
166B
100
AcDbEntity
  8
8
100
AcDbLine
 10
126.741
 20
270.921
 30
0.0
 11
128.737
 21
270.921
 31
0.0
  0
LINE
  5
115A
330
166B
100
AcDbEntity
  8
8
100
AcDbLine
 10
170.075
 20
270.921
 30
0.0
 11
172.071
 21
270.921
 31
0.0
  0
LINE
  5
115B
330
166B
100
AcDbEntity
  8
8
100
AcDbLine
 10
210.549
 20
270.921
 30
0.0
 11
211.55
 21
270.921
 31
0.0
  0
LINE
  5
115C
330
166B
100
AcDbEntity
  8
8
100
AcDbLine
 10
87.24299999999999
 20
271.281
 30
0.0
 11
88.244
 21
271.281
 31
0.0
  0
LINE
  5
115D
330
166B
100
AcDbEntity
  8
8
100
AcDbLine
 10
127.363
 20
271.281
 30
0.0
 11
129.359
 21
271.281
 31
0.0
  0
LINE
  5
115E
330
166B
100
AcDbEntity
  8
8
100
AcDbLine
 10
169.454
 20
271.281
 30
0.0
 11
171.449
 21
271.281
 31
0.0
  0
LINE
  5
115F
330
166B
100
AcDbEntity
  8
8
100
AcDbLine
 10
210.568
 20
271.281
 30
0.0
 11
211.569
 21
271.281
 31
0.0
  0
LINE
  5
1160
330
166B
100
AcDbEntity
  8
8
100
AcDbLine
 10
87.22399999999998
 20
271.641
 30
0.0
 11
88.22599999999999
 21
271.641
 31
0.0
  0
LINE
  5
1161
330
166B
100
AcDbEntity
  8
8
100
AcDbLine
 10
127.985
 20
271.641
 30
0.0
 11
129.98
 21
271.641
 31
0.0
  0
LINE
  5
1162
330
166B
100
AcDbEntity
  8
8
100
AcDbLine
 10
168.832
 20
271.641
 30
0.0
 11
170.827
 21
271.641
 31
0.0
  0
LINE
  5
1163
330
166B
100
AcDbEntity
  8
8
100
AcDbLine
 10
210.586
 20
271.641
 30
0.0
 11
211.588
 21
271.641
 31
0.0
  0
LINE
  5
1164
330
166B
100
AcDbEntity
  8
8
100
AcDbLine
 10
87.20499999999999
 20
272.001
 30
0.0
 11
88.207
 21
272.001
 31
0.0
  0
LINE
  5
1165
330
166B
100
AcDbEntity
  8
8
100
AcDbLine
 10
128.606
 20
272.001
 30
0.0
 11
130.602
 21
272.001
 31
0.0
  0
LINE
  5
1166
330
166B
100
AcDbEntity
  8
8
100
AcDbLine
 10
168.21
 20
272.001
 30
0.0
 11
170.206
 21
272.001
 31
0.0
  0
LINE
  5
1167
330
166B
100
AcDbEntity
  8
8
100
AcDbLine
 10
210.605
 20
272.001
 30
0.0
 11
211.607
 21
272.001
 31
0.0
  0
LINE
  5
1168
330
166B
100
AcDbEntity
  8
8
100
AcDbLine
 10
87.18700000000001
 20
272.361
 30
0.0
 11
88.18799999999999
 21
272.361
 31
0.0
  0
LINE
  5
1169
330
166B
100
AcDbEntity
  8
8
100
AcDbLine
 10
129.228
 20
272.361
 30
0.0
 11
131.224
 21
272.361
 31
0.0
  0
LINE
  5
116A
330
166B
100
AcDbEntity
  8
8
100
AcDbLine
 10
167.588
 20
272.361
 30
0.0
 11
169.584
 21
272.361
 31
0.0
  0
LINE
  5
116B
330
166B
100
AcDbEntity
  8
8
100
AcDbLine
 10
210.624
 20
272.361
 30
0.0
 11
211.625
 21
272.361
 31
0.0
  0
LINE
  5
116C
330
166B
100
AcDbEntity
  8
8
100
AcDbLine
 10
87.16799999999999
 20
272.721
 30
0.0
 11
88.169
 21
272.721
 31
0.0
  0
LINE
  5
116D
330
166B
100
AcDbEntity
  8
8
100
AcDbLine
 10
129.85
 20
272.721
 30
0.0
 11
131.846
 21
272.721
 31
0.0
  0
LINE
  5
116E
330
166B
100
AcDbEntity
  8
8
100
AcDbLine
 10
166.966
 20
272.721
 30
0.0
 11
168.962
 21
272.721
 31
0.0
  0
LINE
  5
116F
330
166B
100
AcDbEntity
  8
8
100
AcDbLine
 10
210.643
 20
272.721
 30
0.0
 11
211.644
 21
272.721
 31
0.0
  0
LINE
  5
1170
330
166B
100
AcDbEntity
  8
8
100
AcDbLine
 10
87.149
 20
273.0809999999999
 30
0.0
 11
88.15000000000001
 21
273.0809999999999
 31
0.0
  0
LINE
  5
1171
330
166B
100
AcDbEntity
  8
8
100
AcDbLine
 10
130.472
 20
273.0809999999999
 30
0.0
 11
132.468
 21
273.0809999999999
 31
0.0
  0
LINE
  5
1172
330
166B
100
AcDbEntity
  8
8
100
AcDbLine
 10
166.344
 20
273.0809999999999
 30
0.0
 11
168.34
 21
273.0809999999999
 31
0.0
  0
LINE
  5
1173
330
166B
100
AcDbEntity
  8
8
100
AcDbLine
 10
210.662
 20
273.0809999999999
 30
0.0
 11
211.663
 21
273.0809999999999
 31
0.0
  0
LINE
  5
1174
330
166B
100
AcDbEntity
  8
8
100
AcDbLine
 10
87.12999999999999
 20
273.441
 30
0.0
 11
88.131
 21
273.441
 31
0.0
  0
LINE
  5
1175
330
166B
100
AcDbEntity
  8
8
100
AcDbLine
 10
131.094
 20
273.441
 30
0.0
 11
133.089
 21
273.441
 31
0.0
  0
LINE
  5
1176
330
166B
100
AcDbEntity
  8
8
100
AcDbLine
 10
165.723
 20
273.441
 30
0.0
 11
167.718
 21
273.441
 31
0.0
  0
LINE
  5
1177
330
166B
100
AcDbEntity
  8
8
100
AcDbLine
 10
210.681
 20
273.441
 30
0.0
 11
211.682
 21
273.441
 31
0.0
  0
LINE
  5
1178
330
166B
100
AcDbEntity
  8
8
100
AcDbLine
 10
87.111
 20
273.801
 30
0.0
 11
88.11200000000001
 21
273.801
 31
0.0
  0
LINE
  5
1179
330
166B
100
AcDbEntity
  8
8
100
AcDbLine
 10
131.716
 20
273.801
 30
0.0
 11
133.711
 21
273.801
 31
0.0
  0
LINE
  5
117A
330
166B
100
AcDbEntity
  8
8
100
AcDbLine
 10
165.101
 20
273.801
 30
0.0
 11
167.097
 21
273.801
 31
0.0
  0
LINE
  5
117B
330
166B
100
AcDbEntity
  8
8
100
AcDbLine
 10
210.7
 20
273.801
 30
0.0
 11
211.701
 21
273.801
 31
0.0
  0
LINE
  5
117C
330
166B
100
AcDbEntity
  8
8
100
AcDbLine
 10
87.092
 20
274.161
 30
0.0
 11
88.094
 21
274.161
 31
0.0
  0
LINE
  5
117D
330
166B
100
AcDbEntity
  8
8
100
AcDbLine
 10
132.337
 20
274.161
 30
0.0
 11
134.333
 21
274.161
 31
0.0
  0
LINE
  5
117E
330
166B
100
AcDbEntity
  8
8
100
AcDbLine
 10
164.479
 20
274.161
 30
0.0
 11
166.475
 21
274.161
 31
0.0
  0
LINE
  5
117F
330
166B
100
AcDbEntity
  8
8
100
AcDbLine
 10
210.718
 20
274.161
 30
0.0
 11
211.72
 21
274.161
 31
0.0
  0
LINE
  5
1180
330
166B
100
AcDbEntity
  8
8
100
AcDbLine
 10
87.073
 20
274.521
 30
0.0
 11
88.075
 21
274.521
 31
0.0
  0
LINE
  5
1181
330
166B
100
AcDbEntity
  8
8
100
AcDbLine
 10
132.959
 20
274.521
 30
0.0
 11
134.955
 21
274.521
 31
0.0
  0
LINE
  5
1182
330
166B
100
AcDbEntity
  8
8
100
AcDbLine
 10
163.857
 20
274.521
 30
0.0
 11
165.853
 21
274.521
 31
0.0
  0
LINE
  5
1183
330
166B
100
AcDbEntity
  8
8
100
AcDbLine
 10
210.737
 20
274.521
 30
0.0
 11
211.739
 21
274.521
 31
0.0
  0
LINE
  5
1184
330
166B
100
AcDbEntity
  8
8
100
AcDbLine
 10
87.054
 20
274.881
 30
0.0
 11
88.056
 21
274.881
 31
0.0
  0
LINE
  5
1185
330
166B
100
AcDbEntity
  8
8
100
AcDbLine
 10
133.581
 20
274.881
 30
0.0
 11
135.577
 21
274.881
 31
0.0
  0
LINE
  5
1186
330
166B
100
AcDbEntity
  8
8
100
AcDbLine
 10
163.235
 20
274.881
 30
0.0
 11
165.231
 21
274.881
 31
0.0
  0
LINE
  5
1187
330
166B
100
AcDbEntity
  8
8
100
AcDbLine
 10
210.756
 20
274.881
 30
0.0
 11
211.758
 21
274.881
 31
0.0
  0
LINE
  5
1188
330
166B
100
AcDbEntity
  8
8
100
AcDbLine
 10
87.03599999999999
 20
275.241
 30
0.0
 11
88.037
 21
275.241
 31
0.0
  0
LINE
  5
1189
330
166B
100
AcDbEntity
  8
8
100
AcDbLine
 10
134.203
 20
275.241
 30
0.0
 11
136.199
 21
275.241
 31
0.0
  0
LINE
  5
118A
330
166B
100
AcDbEntity
  8
8
100
AcDbLine
 10
162.613
 20
275.241
 30
0.0
 11
164.609
 21
275.241
 31
0.0
  0
LINE
  5
118B
330
166B
100
AcDbEntity
  8
8
100
AcDbLine
 10
210.775
 20
275.241
 30
0.0
 11
211.776
 21
275.241
 31
0.0
  0
LINE
  5
118C
330
166B
100
AcDbEntity
  8
8
100
AcDbLine
 10
87.017
 20
275.601
 30
0.0
 11
88.01799999999998
 21
275.601
 31
0.0
  0
LINE
  5
118D
330
166B
100
AcDbEntity
  8
8
100
AcDbLine
 10
134.825
 20
275.601
 30
0.0
 11
163.987
 21
275.601
 31
0.0
  0
LINE
  5
118E
330
166B
100
AcDbEntity
  8
8
100
AcDbLine
 10
210.794
 20
275.601
 30
0.0
 11
211.795
 21
275.601
 31
0.0
  0
LINE
  5
118F
330
166B
100
AcDbEntity
  8
8
100
AcDbLine
 10
86.99799999999999
 20
275.961
 30
0.0
 11
87.99899999999999
 21
275.961
 31
0.0
  0
LINE
  5
1190
330
166B
100
AcDbEntity
  8
8
100
AcDbLine
 10
135.446
 20
275.961
 30
0.0
 11
163.366
 21
275.961
 31
0.0
  0
LINE
  5
1191
330
166B
100
AcDbEntity
  8
8
100
AcDbLine
 10
210.813
 20
275.961
 30
0.0
 11
211.814
 21
275.961
 31
0.0
  0
LINE
  5
1192
330
166B
100
AcDbEntity
  8
8
100
AcDbLine
 10
86.979
 20
276.321
 30
0.0
 11
87.98
 21
276.321
 31
0.0
  0
LINE
  5
1193
330
166B
100
AcDbEntity
  8
8
100
AcDbLine
 10
136.068
 20
276.321
 30
0.0
 11
162.744
 21
276.321
 31
0.0
  0
LINE
  5
1194
330
166B
100
AcDbEntity
  8
8
100
AcDbLine
 10
210.832
 20
276.321
 30
0.0
 11
211.833
 21
276.321
 31
0.0
  0
LINE
  5
1195
330
166B
100
AcDbEntity
  8
8
100
AcDbLine
 10
86.95999999999999
 20
276.681
 30
0.0
 11
87.961
 21
276.681
 31
0.0
  0
LINE
  5
1196
330
166B
100
AcDbEntity
  8
8
100
AcDbLine
 10
210.851
 20
276.681
 30
0.0
 11
211.852
 21
276.681
 31
0.0
  0
LINE
  5
1197
330
166B
100
AcDbEntity
  8
8
100
AcDbLine
 10
86.941
 20
277.041
 30
0.0
 11
87.94299999999999
 21
277.041
 31
0.0
  0
LINE
  5
1198
330
166B
100
AcDbEntity
  8
8
100
AcDbLine
 10
210.869
 20
277.041
 30
0.0
 11
211.871
 21
277.041
 31
0.0
  0
LINE
  5
1199
330
166B
100
AcDbEntity
  8
8
100
AcDbLine
 10
86.92200000000001
 20
277.401
 30
0.0
 11
87.92399999999998
 21
277.401
 31
0.0
  0
LINE
  5
119A
330
166B
100
AcDbEntity
  8
8
100
AcDbLine
 10
210.888
 20
277.401
 30
0.0
 11
211.89
 21
277.401
 31
0.0
  0
LINE
  5
119B
330
166B
100
AcDbEntity
  8
8
100
AcDbLine
 10
86.904
 20
277.761
 30
0.0
 11
87.90499999999999
 21
277.761
 31
0.0
  0
LINE
  5
119C
330
166B
100
AcDbEntity
  8
8
100
AcDbLine
 10
210.907
 20
277.761
 30
0.0
 11
211.908
 21
277.761
 31
0.0
  0
LINE
  5
119D
330
166B
100
AcDbEntity
  8
8
100
AcDbLine
 10
86.88500000000001
 20
278.121
 30
0.0
 11
87.886
 21
278.121
 31
0.0
  0
LINE
  5
119E
330
166B
100
AcDbEntity
  8
8
100
AcDbLine
 10
210.926
 20
278.121
 30
0.0
 11
211.927
 21
278.121
 31
0.0
  0
LINE
  5
119F
330
166B
100
AcDbEntity
  8
8
100
AcDbLine
 10
86.866
 20
278.481
 30
0.0
 11
87.86700000000001
 21
278.481
 31
0.0
  0
LINE
  5
11A0
330
166B
100
AcDbEntity
  8
8
100
AcDbLine
 10
210.945
 20
278.481
 30
0.0
 11
211.946
 21
278.481
 31
0.0
  0
LINE
  5
11A1
330
166B
100
AcDbEntity
  8
8
100
AcDbLine
 10
86.84700000000001
 20
278.841
 30
0.0
 11
87.848
 21
278.841
 31
0.0
  0
LINE
  5
11A2
330
166B
100
AcDbEntity
  8
8
100
AcDbLine
 10
210.964
 20
278.841
 30
0.0
 11
211.965
 21
278.841
 31
0.0
  0
LINE
  5
11A3
330
166B
100
AcDbEntity
  8
8
100
AcDbLine
 10
86.82799999999998
 20
279.201
 30
0.0
 11
87.82899999999999
 21
279.201
 31
0.0
  0
LINE
  5
11A4
330
166B
100
AcDbEntity
  8
8
100
AcDbLine
 10
210.983
 20
279.201
 30
0.0
 11
211.984
 21
279.201
 31
0.0
  0
LINE
  5
11A5
330
166B
100
AcDbEntity
  8
8
100
AcDbLine
 10
86.80899999999999
 20
279.561
 30
0.0
 11
87.811
 21
279.561
 31
0.0
  0
LINE
  5
11A6
330
166B
100
AcDbEntity
  8
8
100
AcDbLine
 10
211.001
 20
279.561
 30
0.0
 11
212.003
 21
279.561
 31
0.0
  0
LINE
  5
11A7
330
166B
100
AcDbEntity
  8
8
100
AcDbLine
 10
86.79
 20
279.921
 30
0.0
 11
87.79200000000001
 21
279.921
 31
0.0
  0
LINE
  5
11A8
330
166B
100
AcDbEntity
  8
8
100
AcDbLine
 10
211.02
 20
279.921
 30
0.0
 11
212.022
 21
279.921
 31
0.0
  0
LINE
  5
11A9
330
166B
100
AcDbEntity
  8
8
100
AcDbLine
 10
86.77100000000001
 20
280.281
 30
0.0
 11
87.773
 21
280.281
 31
0.0
  0
LINE
  5
11AA
330
166B
100
AcDbEntity
  8
8
100
AcDbLine
 10
211.039
 20
280.281
 30
0.0
 11
212.041
 21
280.281
 31
0.0
  0
LINE
  5
11AB
330
166B
100
AcDbEntity
  8
8
100
AcDbLine
 10
86.75299999999998
 20
280.6409999999999
 30
0.0
 11
87.75399999999999
 21
280.6409999999999
 31
0.0
  0
LINE
  5
11AC
330
166B
100
AcDbEntity
  8
8
100
AcDbLine
 10
211.058
 20
280.6409999999999
 30
0.0
 11
212.059
 21
280.6409999999999
 31
0.0
  0
LINE
  5
11AD
330
166B
100
AcDbEntity
  8
8
100
AcDbLine
 10
86.73399999999999
 20
281.001
 30
0.0
 11
87.735
 21
281.001
 31
0.0
  0
LINE
  5
11AE
330
166B
100
AcDbEntity
  8
8
100
AcDbLine
 10
211.077
 20
281.001
 30
0.0
 11
212.078
 21
281.001
 31
0.0
  0
LINE
  5
11AF
330
166B
100
AcDbEntity
  8
8
100
AcDbLine
 10
86.71499999999999
 20
281.361
 30
0.0
 11
87.71600000000001
 21
281.361
 31
0.0
  0
LINE
  5
11B0
330
166B
100
AcDbEntity
  8
8
100
AcDbLine
 10
211.096
 20
281.361
 30
0.0
 11
212.097
 21
281.361
 31
0.0
  0
LINE
  5
11B1
330
166B
100
AcDbEntity
  8
8
100
AcDbLine
 10
86.696
 20
281.721
 30
0.0
 11
87.697
 21
281.721
 31
0.0
  0
LINE
  5
11B2
330
166B
100
AcDbEntity
  8
8
100
AcDbLine
 10
211.115
 20
281.721
 30
0.0
 11
212.116
 21
281.721
 31
0.0
  0
LINE
  5
11B3
330
166B
100
AcDbEntity
  8
8
100
AcDbLine
 10
86.67700000000001
 20
282.081
 30
0.0
 11
87.67799999999999
 21
282.081
 31
0.0
  0
LINE
  5
11B4
330
166B
100
AcDbEntity
  8
8
100
AcDbLine
 10
211.134
 20
282.081
 30
0.0
 11
212.135
 21
282.081
 31
0.0
  0
LINE
  5
11B5
330
166B
100
AcDbEntity
  8
8
100
AcDbLine
 10
86.65799999999999
 20
282.441
 30
0.0
 11
87.66
 21
282.441
 31
0.0
  0
LINE
  5
11B6
330
166B
100
AcDbEntity
  8
8
100
AcDbLine
 10
211.152
 20
282.441
 30
0.0
 11
212.154
 21
282.441
 31
0.0
  0
LINE
  5
11B7
330
166B
100
AcDbEntity
  8
8
100
AcDbLine
 10
86.63899999999999
 20
282.801
 30
0.0
 11
87.641
 21
282.801
 31
0.0
  0
LINE
  5
11B8
330
166B
100
AcDbEntity
  8
8
100
AcDbLine
 10
211.171
 20
282.801
 30
0.0
 11
212.173
 21
282.801
 31
0.0
  0
LINE
  5
11B9
330
166B
100
AcDbEntity
  8
8
100
AcDbLine
 10
86.621
 20
283.161
 30
0.0
 11
87.62200000000001
 21
283.161
 31
0.0
  0
LINE
  5
11BA
330
166B
100
AcDbEntity
  8
8
100
AcDbLine
 10
211.19
 20
283.161
 30
0.0
 11
212.191
 21
283.161
 31
0.0
  0
LINE
  5
11BB
330
166B
100
AcDbEntity
  8
8
100
AcDbLine
 10
86.60200000000001
 20
283.521
 30
0.0
 11
87.60299999999999
 21
283.521
 31
0.0
  0
LINE
  5
11BC
330
166B
100
AcDbEntity
  8
8
100
AcDbLine
 10
211.209
 20
283.521
 30
0.0
 11
212.21
 21
283.521
 31
0.0
  0
LINE
  5
11BD
330
166B
100
AcDbEntity
  8
8
100
AcDbLine
 10
86.583
 20
283.881
 30
0.0
 11
87.58399999999999
 21
283.881
 31
0.0
  0
LINE
  5
11BE
330
166B
100
AcDbEntity
  8
8
100
AcDbLine
 10
211.228
 20
283.881
 30
0.0
 11
212.229
 21
283.881
 31
0.0
  0
LINE
  5
11BF
330
166B
100
AcDbEntity
  8
8
100
AcDbLine
 10
86.56399999999999
 20
284.241
 30
0.0
 11
87.565
 21
284.241
 31
0.0
  0
LINE
  5
11C0
330
166B
100
AcDbEntity
  8
8
100
AcDbLine
 10
211.247
 20
284.241
 30
0.0
 11
212.248
 21
284.241
 31
0.0
  0
LINE
  5
11C1
330
166B
100
AcDbEntity
  8
8
100
AcDbLine
 10
86.545
 20
284.601
 30
0.0
 11
87.54600000000001
 21
284.601
 31
0.0
  0
LINE
  5
11C2
330
166B
100
AcDbEntity
  8
8
100
AcDbLine
 10
211.266
 20
284.601
 30
0.0
 11
212.267
 21
284.601
 31
0.0
  0
LINE
  5
11C3
330
166B
100
AcDbEntity
  8
8
100
AcDbLine
 10
86.52600000000001
 20
284.961
 30
0.0
 11
87.52799999999998
 21
284.961
 31
0.0
  0
LINE
  5
11C4
330
166B
100
AcDbEntity
  8
8
100
AcDbLine
 10
211.284
 20
284.961
 30
0.0
 11
212.286
 21
284.961
 31
0.0
  0
LINE
  5
11C5
330
166B
100
AcDbEntity
  8
8
100
AcDbLine
 10
86.507
 20
285.321
 30
0.0
 11
87.50899999999999
 21
285.321
 31
0.0
  0
LINE
  5
11C6
330
166B
100
AcDbEntity
  8
8
100
AcDbLine
 10
211.303
 20
285.321
 30
0.0
 11
212.305
 21
285.321
 31
0.0
  0
LINE
  5
11C7
330
166B
100
AcDbEntity
  8
8
100
AcDbLine
 10
86.48799999999999
 20
285.681
 30
0.0
 11
87.49
 21
285.681
 31
0.0
  0
LINE
  5
11C8
330
166B
100
AcDbEntity
  8
8
100
AcDbLine
 10
211.322
 20
285.681
 30
0.0
 11
212.324
 21
285.681
 31
0.0
  0
LINE
  5
11C9
330
166B
100
AcDbEntity
  8
8
100
AcDbLine
 10
86.47
 20
286.041
 30
0.0
 11
87.47100000000001
 21
286.041
 31
0.0
  0
LINE
  5
11CA
330
166B
100
AcDbEntity
  8
8
100
AcDbLine
 10
211.341
 20
286.041
 30
0.0
 11
212.342
 21
286.041
 31
0.0
  0
LINE
  5
11CB
330
166B
100
AcDbEntity
  8
8
100
AcDbLine
 10
86.45100000000001
 20
286.401
 30
0.0
 11
87.45200000000002
 21
286.401
 31
0.0
  0
LINE
  5
11CC
330
166B
100
AcDbEntity
  8
8
100
AcDbLine
 10
211.36
 20
286.401
 30
0.0
 11
212.361
 21
286.401
 31
0.0
  0
LINE
  5
11CD
330
166B
100
AcDbEntity
  8
8
100
AcDbLine
 10
86.432
 20
286.7609999999999
 30
0.0
 11
87.43299999999999
 21
286.7609999999999
 31
0.0
  0
LINE
  5
11CE
330
166B
100
AcDbEntity
  8
8
100
AcDbLine
 10
211.379
 20
286.7609999999999
 30
0.0
 11
212.38
 21
286.7609999999999
 31
0.0
  0
LINE
  5
11CF
330
166B
100
AcDbEntity
  8
8
100
AcDbLine
 10
86.41299999999999
 20
287.121
 30
0.0
 11
87.414
 21
287.121
 31
0.0
  0
LINE
  5
11D0
330
166B
100
AcDbEntity
  8
8
100
AcDbLine
 10
211.398
 20
287.121
 30
0.0
 11
212.399
 21
287.121
 31
0.0
  0
LINE
  5
11D1
330
166B
100
AcDbEntity
  8
8
100
AcDbLine
 10
86.394
 20
287.481
 30
0.0
 11
87.39499999999999
 21
287.481
 31
0.0
  0
LINE
  5
11D2
330
166B
100
AcDbEntity
  8
8
100
AcDbLine
 10
211.417
 20
287.481
 30
0.0
 11
212.418
 21
287.481
 31
0.0
  0
LINE
  5
11D3
330
166B
100
AcDbEntity
  8
8
100
AcDbLine
 10
86.37500000000001
 20
287.841
 30
0.0
 11
87.37700000000002
 21
287.841
 31
0.0
  0
LINE
  5
11D4
330
166B
100
AcDbEntity
  8
8
100
AcDbLine
 10
211.435
 20
287.841
 30
0.0
 11
212.437
 21
287.841
 31
0.0
  0
LINE
  5
11D5
330
166B
100
AcDbEntity
  8
8
100
AcDbLine
 10
86.35600000000001
 20
288.201
 30
0.0
 11
87.35799999999999
 21
288.201
 31
0.0
  0
LINE
  5
11D6
330
166B
100
AcDbEntity
  8
8
100
AcDbLine
 10
211.454
 20
288.201
 30
0.0
 11
212.456
 21
288.201
 31
0.0
  0
LINE
  5
11D7
330
166B
100
AcDbEntity
  8
8
100
AcDbLine
 10
86.33799999999999
 20
288.561
 30
0.0
 11
87.339
 21
288.561
 31
0.0
  0
LINE
  5
11D8
330
166B
100
AcDbEntity
  8
8
100
AcDbLine
 10
211.473
 20
288.561
 30
0.0
 11
212.474
 21
288.561
 31
0.0
  0
LINE
  5
11D9
330
166B
100
AcDbEntity
  8
8
100
AcDbLine
 10
86.31899999999999
 20
288.921
 30
0.0
 11
87.31999999999999
 21
288.921
 31
0.0
  0
LINE
  5
11DA
330
166B
100
AcDbEntity
  8
8
100
AcDbLine
 10
211.492
 20
288.921
 30
0.0
 11
212.493
 21
288.921
 31
0.0
  0
LINE
  5
11DB
330
166B
100
AcDbEntity
  8
8
100
AcDbLine
 10
86.3
 20
289.281
 30
0.0
 11
87.301
 21
289.281
 31
0.0
  0
LINE
  5
11DC
330
166B
100
AcDbEntity
  8
8
100
AcDbLine
 10
211.511
 20
289.281
 30
0.0
 11
212.512
 21
289.281
 31
0.0
  0
LINE
  5
11DD
330
166B
100
AcDbEntity
  8
8
100
AcDbLine
 10
86.28100000000001
 20
289.6409999999999
 30
0.0
 11
87.28200000000001
 21
289.6409999999999
 31
0.0
  0
LINE
  5
11DE
330
166B
100
AcDbEntity
  8
8
100
AcDbLine
 10
211.53
 20
289.6409999999999
 30
0.0
 11
212.531
 21
289.6409999999999
 31
0.0
  0
LINE
  5
11DF
330
166B
100
AcDbEntity
  8
8
100
AcDbLine
 10
86.262
 20
290.001
 30
0.0
 11
87.263
 21
290.001
 31
0.0
  0
LINE
  5
11E0
330
166B
100
AcDbEntity
  8
8
100
AcDbLine
 10
211.549
 20
290.001
 30
0.0
 11
212.55
 21
290.001
 31
0.0
  0
LINE
  5
11E1
330
166B
100
AcDbEntity
  8
8
100
AcDbLine
 10
86.24299999999999
 20
290.361
 30
0.0
 11
87.245
 21
290.361
 31
0.0
  0
LINE
  5
11E2
330
166B
100
AcDbEntity
  8
8
100
AcDbLine
 10
211.567
 20
290.361
 30
0.0
 11
212.569
 21
290.361
 31
0.0
  0
LINE
  5
11E3
330
166B
100
AcDbEntity
  8
8
100
AcDbLine
 10
86.22399999999998
 20
290.721
 30
0.0
 11
87.22599999999999
 21
290.721
 31
0.0
  0
LINE
  5
11E4
330
166B
100
AcDbEntity
  8
8
100
AcDbLine
 10
211.586
 20
290.721
 30
0.0
 11
212.588
 21
290.721
 31
0.0
  0
LINE
  5
11E5
330
166B
100
AcDbEntity
  8
8
100
AcDbLine
 10
86.20499999999999
 20
291.081
 30
0.0
 11
87.207
 21
291.081
 31
0.0
  0
LINE
  5
11E6
330
166B
100
AcDbEntity
  8
8
100
AcDbLine
 10
211.605
 20
291.081
 30
0.0
 11
212.607
 21
291.081
 31
0.0
  0
LINE
  5
11E7
330
166B
100
AcDbEntity
  8
8
100
AcDbLine
 10
86.18700000000002
 20
291.441
 30
0.0
 11
87.18799999999999
 21
291.441
 31
0.0
  0
LINE
  5
11E8
330
166B
100
AcDbEntity
  8
8
100
AcDbLine
 10
211.624
 20
291.441
 30
0.0
 11
212.625
 21
291.441
 31
0.0
  0
LINE
  5
11E9
330
166B
100
AcDbEntity
  8
8
100
AcDbLine
 10
86.16799999999999
 20
291.801
 30
0.0
 11
87.169
 21
291.801
 31
0.0
  0
LINE
  5
11EA
330
166B
100
AcDbEntity
  8
8
100
AcDbLine
 10
211.643
 20
291.801
 30
0.0
 11
212.644
 21
291.801
 31
0.0
  0
LINE
  5
11EB
330
166B
100
AcDbEntity
  8
8
100
AcDbLine
 10
86.149
 20
292.161
 30
0.0
 11
87.15000000000001
 21
292.161
 31
0.0
  0
LINE
  5
11EC
330
166B
100
AcDbEntity
  8
8
100
AcDbLine
 10
211.662
 20
292.161
 30
0.0
 11
212.663
 21
292.161
 31
0.0
  0
LINE
  5
11ED
330
166B
100
AcDbEntity
  8
8
100
AcDbLine
 10
86.12999999999999
 20
292.5209999999999
 30
0.0
 11
87.131
 21
292.5209999999999
 31
0.0
  0
LINE
  5
11EE
330
166B
100
AcDbEntity
  8
8
100
AcDbLine
 10
211.681
 20
292.5209999999999
 30
0.0
 11
212.682
 21
292.5209999999999
 31
0.0
  0
LINE
  5
11EF
330
166B
100
AcDbEntity
  8
8
100
AcDbLine
 10
86.111
 20
292.881
 30
0.0
 11
87.11200000000001
 21
292.881
 31
0.0
  0
LINE
  5
11F0
330
166B
100
AcDbEntity
  8
8
100
AcDbLine
 10
211.7
 20
292.881
 30
0.0
 11
212.701
 21
292.881
 31
0.0
  0
LINE
  5
11F1
330
166B
100
AcDbEntity
  8
8
100
AcDbLine
 10
86.09200000000001
 20
293.241
 30
0.0
 11
87.094
 21
293.241
 31
0.0
  0
LINE
  5
11F2
330
166B
100
AcDbEntity
  8
8
100
AcDbLine
 10
211.718
 20
293.241
 30
0.0
 11
212.72
 21
293.241
 31
0.0
  0
LINE
  5
11F3
330
166B
100
AcDbEntity
  8
8
100
AcDbLine
 10
86.073
 20
293.601
 30
0.0
 11
87.07500000000001
 21
293.601
 31
0.0
  0
LINE
  5
11F4
330
166B
100
AcDbEntity
  8
8
100
AcDbLine
 10
211.737
 20
293.601
 30
0.0
 11
212.739
 21
293.601
 31
0.0
  0
LINE
  5
11F5
330
166B
100
AcDbEntity
  8
8
100
AcDbLine
 10
86.05500000000001
 20
293.961
 30
0.0
 11
87.056
 21
293.961
 31
0.0
  0
LINE
  5
11F6
330
166B
100
AcDbEntity
  8
8
100
AcDbLine
 10
211.756
 20
293.961
 30
0.0
 11
212.757
 21
293.961
 31
0.0
  0
LINE
  5
11F7
330
166B
100
AcDbEntity
  8
8
100
AcDbLine
 10
86.036
 20
294.321
 30
0.0
 11
87.03700000000001
 21
294.321
 31
0.0
  0
LINE
  5
11F8
330
166B
100
AcDbEntity
  8
8
100
AcDbLine
 10
211.775
 20
294.321
 30
0.0
 11
212.776
 21
294.321
 31
0.0
  0
LINE
  5
11F9
330
166B
100
AcDbEntity
  8
8
100
AcDbLine
 10
86.01700000000001
 20
294.681
 30
0.0
 11
87.01799999999998
 21
294.681
 31
0.0
  0
LINE
  5
11FA
330
166B
100
AcDbEntity
  8
8
100
AcDbLine
 10
211.794
 20
294.681
 30
0.0
 11
212.795
 21
294.681
 31
0.0
  0
LINE
  5
11FB
330
166B
100
AcDbEntity
  8
8
100
AcDbLine
 10
85.998
 20
295.041
 30
0.0
 11
86.99899999999999
 21
295.041
 31
0.0
  0
LINE
  5
11FC
330
166B
100
AcDbEntity
  8
8
100
AcDbLine
 10
211.813
 20
295.041
 30
0.0
 11
212.814
 21
295.041
 31
0.0
  0
LINE
  5
11FD
330
166B
100
AcDbEntity
  8
8
100
AcDbLine
 10
85.979
 20
295.401
 30
0.0
 11
86.98
 21
295.401
 31
0.0
  0
LINE
  5
11FE
330
166B
100
AcDbEntity
  8
8
100
AcDbLine
 10
211.832
 20
295.401
 30
0.0
 11
212.833
 21
295.401
 31
0.0
  0
LINE
  5
11FF
330
166B
100
AcDbEntity
  8
8
100
AcDbLine
 10
85.96
 20
295.761
 30
0.0
 11
86.96200000000001
 21
295.761
 31
0.0
  0
LINE
  5
1200
330
166B
100
AcDbEntity
  8
8
100
AcDbLine
 10
211.85
 20
295.761
 30
0.0
 11
212.852
 21
295.761
 31
0.0
  0
LINE
  5
1201
330
166B
100
AcDbEntity
  8
8
100
AcDbLine
 10
85.941
 20
296.121
 30
0.0
 11
86.943
 21
296.121
 31
0.0
  0
LINE
  5
1202
330
166B
100
AcDbEntity
  8
8
100
AcDbLine
 10
211.869
 20
296.121
 30
0.0
 11
212.871
 21
296.121
 31
0.0
  0
LINE
  5
1203
330
166B
100
AcDbEntity
  8
8
100
AcDbLine
 10
85.92200000000001
 20
296.481
 30
0.0
 11
86.92399999999999
 21
296.481
 31
0.0
  0
LINE
  5
1204
330
166B
100
AcDbEntity
  8
8
100
AcDbLine
 10
211.888
 20
296.481
 30
0.0
 11
212.89
 21
296.481
 31
0.0
  0
LINE
  5
1205
330
166B
100
AcDbEntity
  8
8
100
AcDbLine
 10
85.904
 20
296.841
 30
0.0
 11
86.905
 21
296.841
 31
0.0
  0
LINE
  5
1206
330
166B
100
AcDbEntity
  8
8
100
AcDbLine
 10
211.907
 20
296.841
 30
0.0
 11
212.908
 21
296.841
 31
0.0
  0
LINE
  5
1207
330
166B
100
AcDbEntity
  8
8
100
AcDbLine
 10
85.88500000000001
 20
297.201
 30
0.0
 11
86.886
 21
297.201
 31
0.0
  0
LINE
  5
1208
330
166B
100
AcDbEntity
  8
8
100
AcDbLine
 10
211.926
 20
297.201
 30
0.0
 11
212.927
 21
297.201
 31
0.0
  0
LINE
  5
1209
330
166B
100
AcDbEntity
  8
8
100
AcDbLine
 10
85.866
 20
297.5609999999999
 30
0.0
 11
86.867
 21
297.5609999999999
 31
0.0
  0
LINE
  5
120A
330
166B
100
AcDbEntity
  8
8
100
AcDbLine
 10
211.945
 20
297.5609999999999
 30
0.0
 11
212.946
 21
297.5609999999999
 31
0.0
  0
LINE
  5
120B
330
166B
100
AcDbEntity
  8
8
100
AcDbLine
 10
85.84700000000001
 20
297.921
 30
0.0
 11
86.848
 21
297.921
 31
0.0
  0
LINE
  5
120C
330
166B
100
AcDbEntity
  8
8
100
AcDbLine
 10
211.964
 20
297.921
 30
0.0
 11
212.965
 21
297.921
 31
0.0
  0
LINE
  5
120D
330
166B
100
AcDbEntity
  8
8
100
AcDbLine
 10
85.82799999999998
 20
298.281
 30
0.0
 11
86.829
 21
298.281
 31
0.0
  0
LINE
  5
120E
330
166B
100
AcDbEntity
  8
8
100
AcDbLine
 10
211.983
 20
298.281
 30
0.0
 11
212.984
 21
298.281
 31
0.0
  0
LINE
  5
120F
330
166B
100
AcDbEntity
  8
8
100
AcDbLine
 10
85.80899999999999
 20
298.641
 30
0.0
 11
86.811
 21
298.641
 31
0.0
  0
LINE
  5
1210
330
166B
100
AcDbEntity
  8
8
100
AcDbLine
 10
212.001
 20
298.641
 30
0.0
 11
213.003
 21
298.641
 31
0.0
  0
LINE
  5
1211
330
166B
100
AcDbEntity
  8
8
100
AcDbLine
 10
85.79
 20
299.001
 30
0.0
 11
86.79199999999999
 21
299.001
 31
0.0
  0
LINE
  5
1212
330
166B
100
AcDbEntity
  8
8
100
AcDbLine
 10
212.02
 20
299.001
 30
0.0
 11
213.022
 21
299.001
 31
0.0
  0
LINE
  5
1213
330
166B
100
AcDbEntity
  8
8
100
AcDbLine
 10
85.77200000000001
 20
299.361
 30
0.0
 11
86.773
 21
299.361
 31
0.0
  0
LINE
  5
1214
330
166B
100
AcDbEntity
  8
8
100
AcDbLine
 10
212.039
 20
299.361
 30
0.0
 11
213.04
 21
299.361
 31
0.0
  0
LINE
  5
1215
330
166B
100
AcDbEntity
  8
8
100
AcDbLine
 10
85.75299999999998
 20
299.721
 30
0.0
 11
86.75399999999999
 21
299.721
 31
0.0
  0
LINE
  5
1216
330
166B
100
AcDbEntity
  8
8
100
AcDbLine
 10
212.058
 20
299.721
 30
0.0
 11
213.059
 21
299.721
 31
0.0
  0
LINE
  5
1217
330
166B
100
AcDbEntity
  8
8
100
AcDbLine
 10
85.73399999999999
 20
300.0809999999999
 30
0.0
 11
86.735
 21
300.0809999999999
 31
0.0
  0
LINE
  5
1218
330
166B
100
AcDbEntity
  8
8
100
AcDbLine
 10
212.077
 20
300.0809999999999
 30
0.0
 11
213.078
 21
300.0809999999999
 31
0.0
  0
LINE
  5
1219
330
166B
100
AcDbEntity
  8
8
100
AcDbLine
 10
85.715
 20
300.441
 30
0.0
 11
86.71600000000001
 21
300.441
 31
0.0
  0
LINE
  5
121A
330
166B
100
AcDbEntity
  8
8
100
AcDbLine
 10
212.096
 20
300.441
 30
0.0
 11
213.097
 21
300.441
 31
0.0
  0
LINE
  5
121B
330
166B
100
AcDbEntity
  8
8
100
AcDbLine
 10
85.69599999999999
 20
300.801
 30
0.0
 11
86.697
 21
300.801
 31
0.0
  0
LINE
  5
121C
330
166B
100
AcDbEntity
  8
8
100
AcDbLine
 10
212.115
 20
300.801
 30
0.0
 11
213.116
 21
300.801
 31
0.0
  0
LINE
  5
121D
330
166B
100
AcDbEntity
  8
8
100
AcDbLine
 10
85.677
 20
301.161
 30
0.0
 11
86.67900000000001
 21
301.161
 31
0.0
  0
LINE
  5
121E
330
166B
100
AcDbEntity
  8
8
100
AcDbLine
 10
212.133
 20
301.161
 30
0.0
 11
213.135
 21
301.161
 31
0.0
  0
LINE
  5
121F
330
166B
100
AcDbEntity
  8
8
100
AcDbLine
 10
85.65799999999999
 20
301.521
 30
0.0
 11
86.66
 21
301.521
 31
0.0
  0
LINE
  5
1220
330
166B
100
AcDbEntity
  8
8
100
AcDbLine
 10
212.152
 20
301.521
 30
0.0
 11
213.154
 21
301.521
 31
0.0
  0
LINE
  5
1221
330
166B
100
AcDbEntity
  8
8
100
AcDbLine
 10
85.639
 20
301.881
 30
0.0
 11
86.64100000000001
 21
301.881
 31
0.0
  0
LINE
  5
1222
330
166B
100
AcDbEntity
  8
8
100
AcDbLine
 10
212.171
 20
301.881
 30
0.0
 11
213.173
 21
301.881
 31
0.0
  0
LINE
  5
1223
330
166B
100
AcDbEntity
  8
8
100
AcDbLine
 10
85.621
 20
302.241
 30
0.0
 11
86.62200000000002
 21
302.241
 31
0.0
  0
LINE
  5
1224
330
166B
100
AcDbEntity
  8
8
100
AcDbLine
 10
212.19
 20
302.241
 30
0.0
 11
213.191
 21
302.241
 31
0.0
  0
LINE
  5
1225
330
166B
100
AcDbEntity
  8
8
100
AcDbLine
 10
85.59499999999999
 20
302.601
 30
0.0
 11
86.60099999999999
 21
302.601
 31
0.0
  0
LINE
  5
1226
330
166B
100
AcDbEntity
  8
8
100
AcDbLine
 10
212.211
 20
302.601
 30
0.0
 11
213.217
 21
302.601
 31
0.0
  0
LINE
  5
1227
330
166B
100
AcDbEntity
  8
8
100
AcDbLine
 10
85.54799999999998
 20
302.961
 30
0.0
 11
86.55700000000001
 21
302.961
 31
0.0
  0
LINE
  5
1228
330
166B
100
AcDbEntity
  8
8
100
AcDbLine
 10
212.256
 20
302.961
 30
0.0
 11
213.264
 21
302.961
 31
0.0
  0
LINE
  5
1229
330
166B
100
AcDbEntity
  8
8
100
AcDbLine
 10
85.448
 20
303.321
 30
0.0
 11
86.49700000000001
 21
303.321
 31
0.0
  0
LINE
  5
122A
330
166B
100
AcDbEntity
  8
8
100
AcDbLine
 10
212.315
 20
303.321
 30
0.0
 11
213.364
 21
303.321
 31
0.0
  0
LINE
  5
122B
330
166B
100
AcDbEntity
  8
8
100
AcDbLine
 10
85.30799999999999
 20
303.681
 30
0.0
 11
86.38299999999999
 21
303.681
 31
0.0
  0
LINE
  5
122C
330
166B
100
AcDbEntity
  8
8
100
AcDbLine
 10
212.429
 20
303.681
 30
0.0
 11
213.504
 21
303.681
 31
0.0
  0
LINE
  5
122D
330
166B
100
AcDbEntity
  8
8
100
AcDbLine
 10
85.099
 20
304.041
 30
0.0
 11
86.23899999999999
 21
304.041
 31
0.0
  0
LINE
  5
122E
330
166B
100
AcDbEntity
  8
8
100
AcDbLine
 10
212.573
 20
304.041
 30
0.0
 11
213.713
 21
304.041
 31
0.0
  0
LINE
  5
122F
330
166B
100
AcDbEntity
  8
8
100
AcDbLine
 10
84.806
 20
304.401
 30
0.0
 11
86.05400000000001
 21
304.401
 31
0.0
  0
LINE
  5
1230
330
166B
100
AcDbEntity
  8
8
100
AcDbLine
 10
212.758
 20
304.401
 30
0.0
 11
214.006
 21
304.401
 31
0.0
  0
LINE
  5
1231
330
166B
100
AcDbEntity
  8
8
100
AcDbLine
 10
84.405
 20
304.761
 30
0.0
 11
85.804
 21
304.761
 31
0.0
  0
LINE
  5
1232
330
166B
100
AcDbEntity
  8
8
100
AcDbLine
 10
213.008
 20
304.761
 30
0.0
 11
214.407
 21
304.761
 31
0.0
  0
LINE
  5
1233
330
166B
100
AcDbEntity
  8
8
100
AcDbLine
 10
83.794
 20
305.121
 30
0.0
 11
85.50600000000001
 21
305.121
 31
0.0
  0
LINE
  5
1234
330
166B
100
AcDbEntity
  8
8
100
AcDbLine
 10
213.306
 20
305.121
 30
0.0
 11
215.018
 21
305.121
 31
0.0
  0
LINE
  5
1235
330
166B
100
AcDbEntity
  8
8
100
AcDbLine
 10
74.906
 20
305.481
 30
0.0
 11
85.126
 21
305.481
 31
0.0
  0
LINE
  5
1236
330
166B
100
AcDbEntity
  8
8
100
AcDbLine
 10
213.686
 20
305.481
 30
0.0
 11
223.906
 21
305.481
 31
0.0
  0
LINE
  5
1237
330
166B
100
AcDbEntity
  8
8
100
AcDbLine
 10
74.906
 20
305.841
 30
0.0
 11
84.594
 21
305.841
 31
0.0
  0
LINE
  5
1238
330
166B
100
AcDbEntity
  8
8
100
AcDbLine
 10
214.218
 20
305.841
 30
0.0
 11
223.906
 21
305.841
 31
0.0
  0
LINE
  5
1239
330
166B
100
AcDbEntity
  8
8
100
AcDbLine
 10
74.906
 20
306.201
 30
0.0
 11
83.71799999999998
 21
306.201
 31
0.0
  0
LINE
  5
123A
330
166B
100
AcDbEntity
  8
8
100
AcDbLine
 10
215.093
 20
306.201
 30
0.0
 11
223.906
 21
306.201
 31
0.0
  0
ENDBLK
  5
123B
330
166B
100
AcDbEntity
  8
0
100
AcDbBlockEnd
  0
BLOCK
  5
1260
330
166C
100
AcDbEntity
  8
0
100
AcDbBlockBegin
  2
*X1
 70
     1
 10
0.0
 20
0.0
 30
0.0
  3
*X1
  1

  0
LINE
  5
1261
330
166C
100
AcDbEntity
  8
8
100
AcDbLine
 10
216.406
 20
306.561
 30
0.0
 11
221.659
 21
306.561
 31
0.0
  0
LINE
  5
1262
330
166C
100
AcDbEntity
  8
8
100
AcDbLine
 10
216.406
 20
306.921
 30
0.0
 11
222.312
 21
306.921
 31
0.0
  0
LINE
  5
1263
330
166C
100
AcDbEntity
  8
8
100
AcDbLine
 10
216.406
 20
307.281
 30
0.0
 11
222.73
 21
307.281
 31
0.0
  0
LINE
  5
1264
330
166C
100
AcDbEntity
  8
8
100
AcDbLine
 10
216.406
 20
307.641
 30
0.0
 11
223.026
 21
307.641
 31
0.0
  0
LINE
  5
1265
330
166C
100
AcDbEntity
  8
8
100
AcDbLine
 10
221.207
 20
308.001
 30
0.0
 11
223.242
 21
308.001
 31
0.0
  0
LINE
  5
1266
330
166C
100
AcDbEntity
  8
8
100
AcDbLine
 10
221.687
 20
308.361
 30
0.0
 11
223.4
 21
308.361
 31
0.0
  0
LINE
  5
1267
330
166C
100
AcDbEntity
  8
8
100
AcDbLine
 10
221.92
 20
308.721
 30
0.0
 11
223.532
 21
308.721
 31
0.0
  0
LINE
  5
1268
330
166C
100
AcDbEntity
  8
8
100
AcDbLine
 10
222.066
 20
309.081
 30
0.0
 11
223.663
 21
309.081
 31
0.0
  0
LINE
  5
1269
330
166C
100
AcDbEntity
  8
8
100
AcDbLine
 10
222.197
 20
309.441
 30
0.0
 11
223.794
 21
309.441
 31
0.0
  0
LINE
  5
126A
330
166C
100
AcDbEntity
  8
8
100
AcDbLine
 10
222.328
 20
309.801
 30
0.0
 11
223.925
 21
309.801
 31
0.0
  0
LINE
  5
126B
330
166C
100
AcDbEntity
  8
8
100
AcDbLine
 10
222.459
 20
310.161
 30
0.0
 11
224.056
 21
310.161
 31
0.0
  0
LINE
  5
126C
330
166C
100
AcDbEntity
  8
8
100
AcDbLine
 10
222.59
 20
310.521
 30
0.0
 11
224.187
 21
310.521
 31
0.0
  0
LINE
  5
126D
330
166C
100
AcDbEntity
  8
8
100
AcDbLine
 10
222.721
 20
310.881
 30
0.0
 11
224.318
 21
310.881
 31
0.0
  0
LINE
  5
126E
330
166C
100
AcDbEntity
  8
8
100
AcDbLine
 10
222.852
 20
311.241
 30
0.0
 11
224.449
 21
311.241
 31
0.0
  0
LINE
  5
126F
330
166C
100
AcDbEntity
  8
8
100
AcDbLine
 10
222.983
 20
311.601
 30
0.0
 11
224.58
 21
311.601
 31
0.0
  0
LINE
  5
1270
330
166C
100
AcDbEntity
  8
8
100
AcDbLine
 10
223.115
 20
311.961
 30
0.0
 11
224.711
 21
311.961
 31
0.0
  0
LINE
  5
1271
330
166C
100
AcDbEntity
  8
8
100
AcDbLine
 10
223.246
 20
312.321
 30
0.0
 11
224.842
 21
312.321
 31
0.0
  0
LINE
  5
1272
330
166C
100
AcDbEntity
  8
8
100
AcDbLine
 10
223.377
 20
312.681
 30
0.0
 11
224.973
 21
312.681
 31
0.0
  0
LINE
  5
1273
330
166C
100
AcDbEntity
  8
8
100
AcDbLine
 10
223.508
 20
313.041
 30
0.0
 11
225.104
 21
313.041
 31
0.0
  0
LINE
  5
1274
330
166C
100
AcDbEntity
  8
8
100
AcDbLine
 10
223.639
 20
313.401
 30
0.0
 11
225.235
 21
313.401
 31
0.0
  0
LINE
  5
1275
330
166C
100
AcDbEntity
  8
8
100
AcDbLine
 10
223.77
 20
313.761
 30
0.0
 11
225.366
 21
313.761
 31
0.0
  0
LINE
  5
1276
330
166C
100
AcDbEntity
  8
8
100
AcDbLine
 10
223.901
 20
314.121
 30
0.0
 11
225.497
 21
314.121
 31
0.0
  0
LINE
  5
1277
330
166C
100
AcDbEntity
  8
8
100
AcDbLine
 10
224.032
 20
314.481
 30
0.0
 11
225.628
 21
314.481
 31
0.0
  0
LINE
  5
1278
330
166C
100
AcDbEntity
  8
8
100
AcDbLine
 10
224.163
 20
314.841
 30
0.0
 11
225.759
 21
314.841
 31
0.0
  0
LINE
  5
1279
330
166C
100
AcDbEntity
  8
8
100
AcDbLine
 10
224.294
 20
315.201
 30
0.0
 11
225.89
 21
315.201
 31
0.0
  0
LINE
  5
127A
330
166C
100
AcDbEntity
  8
8
100
AcDbLine
 10
224.425
 20
315.561
 30
0.0
 11
226.021
 21
315.561
 31
0.0
  0
LINE
  5
127B
330
166C
100
AcDbEntity
  8
8
100
AcDbLine
 10
224.556
 20
315.921
 30
0.0
 11
226.152
 21
315.921
 31
0.0
  0
LINE
  5
127C
330
166C
100
AcDbEntity
  8
8
100
AcDbLine
 10
224.687
 20
316.281
 30
0.0
 11
226.283
 21
316.281
 31
0.0
  0
LINE
  5
127D
330
166C
100
AcDbEntity
  8
8
100
AcDbLine
 10
224.818
 20
316.6409999999999
 30
0.0
 11
226.414
 21
316.6409999999999
 31
0.0
  0
LINE
  5
127E
330
166C
100
AcDbEntity
  8
8
100
AcDbLine
 10
224.949
 20
317.001
 30
0.0
 11
226.545
 21
317.001
 31
0.0
  0
LINE
  5
127F
330
166C
100
AcDbEntity
  8
8
100
AcDbLine
 10
225.08
 20
317.361
 30
0.0
 11
226.676
 21
317.361
 31
0.0
  0
LINE
  5
1280
330
166C
100
AcDbEntity
  8
8
100
AcDbLine
 10
225.211
 20
317.721
 30
0.0
 11
226.807
 21
317.721
 31
0.0
  0
LINE
  5
1281
330
166C
100
AcDbEntity
  8
8
100
AcDbLine
 10
225.342
 20
318.081
 30
0.0
 11
226.938
 21
318.081
 31
0.0
  0
LINE
  5
1282
330
166C
100
AcDbEntity
  8
8
100
AcDbLine
 10
225.473
 20
318.441
 30
0.0
 11
227.069
 21
318.441
 31
0.0
  0
LINE
  5
1283
330
166C
100
AcDbEntity
  8
8
100
AcDbLine
 10
225.604
 20
318.801
 30
0.0
 11
227.2
 21
318.801
 31
0.0
  0
LINE
  5
1284
330
166C
100
AcDbEntity
  8
8
100
AcDbLine
 10
225.735
 20
319.161
 30
0.0
 11
227.331
 21
319.161
 31
0.0
  0
LINE
  5
1285
330
166C
100
AcDbEntity
  8
8
100
AcDbLine
 10
225.866
 20
319.5209999999999
 30
0.0
 11
227.462
 21
319.5209999999999
 31
0.0
  0
LINE
  5
1286
330
166C
100
AcDbEntity
  8
8
100
AcDbLine
 10
225.997
 20
319.881
 30
0.0
 11
227.593
 21
319.881
 31
0.0
  0
LINE
  5
1287
330
166C
100
AcDbEntity
  8
8
100
AcDbLine
 10
226.128
 20
320.241
 30
0.0
 11
227.724
 21
320.241
 31
0.0
  0
LINE
  5
1288
330
166C
100
AcDbEntity
  8
8
100
AcDbLine
 10
226.259
 20
320.601
 30
0.0
 11
227.855
 21
320.601
 31
0.0
  0
LINE
  5
1289
330
166C
100
AcDbEntity
  8
8
100
AcDbLine
 10
226.39
 20
320.961
 30
0.0
 11
227.987
 21
320.961
 31
0.0
  0
LINE
  5
128A
330
166C
100
AcDbEntity
  8
8
100
AcDbLine
 10
226.521
 20
321.321
 30
0.0
 11
228.118
 21
321.321
 31
0.0
  0
LINE
  5
128B
330
166C
100
AcDbEntity
  8
8
100
AcDbLine
 10
226.652
 20
321.681
 30
0.0
 11
228.249
 21
321.681
 31
0.0
  0
LINE
  5
128C
330
166C
100
AcDbEntity
  8
8
100
AcDbLine
 10
226.783
 20
322.041
 30
0.0
 11
228.38
 21
322.041
 31
0.0
  0
LINE
  5
128D
330
166C
100
AcDbEntity
  8
8
100
AcDbLine
 10
226.914
 20
322.401
 30
0.0
 11
228.511
 21
322.401
 31
0.0
  0
LINE
  5
128E
330
166C
100
AcDbEntity
  8
8
100
AcDbLine
 10
227.045
 20
322.761
 30
0.0
 11
228.642
 21
322.761
 31
0.0
  0
LINE
  5
128F
330
166C
100
AcDbEntity
  8
8
100
AcDbLine
 10
227.176
 20
323.121
 30
0.0
 11
228.773
 21
323.121
 31
0.0
  0
LINE
  5
1290
330
166C
100
AcDbEntity
  8
8
100
AcDbLine
 10
227.307
 20
323.481
 30
0.0
 11
228.904
 21
323.481
 31
0.0
  0
LINE
  5
1291
330
166C
100
AcDbEntity
  8
8
100
AcDbLine
 10
227.439
 20
323.841
 30
0.0
 11
229.035
 21
323.841
 31
0.0
  0
LINE
  5
1292
330
166C
100
AcDbEntity
  8
8
100
AcDbLine
 10
227.57
 20
324.201
 30
0.0
 11
229.204
 21
324.201
 31
0.0
  0
LINE
  5
1293
330
166C
100
AcDbEntity
  8
8
100
AcDbLine
 10
227.715
 20
324.561
 30
0.0
 11
229.56
 21
324.561
 31
0.0
  0
LINE
  5
1294
330
166C
100
AcDbEntity
  8
8
100
AcDbLine
 10
227.89
 20
324.921
 30
0.0
 11
240.406
 21
324.921
 31
0.0
  0
LINE
  5
1295
330
166C
100
AcDbEntity
  8
8
100
AcDbLine
 10
228.142
 20
325.281
 30
0.0
 11
240.406
 21
325.281
 31
0.0
  0
LINE
  5
1296
330
166C
100
AcDbEntity
  8
8
100
AcDbLine
 10
228.498
 20
325.641
 30
0.0
 11
240.406
 21
325.641
 31
0.0
  0
LINE
  5
1297
330
166C
100
AcDbEntity
  8
8
100
AcDbLine
 10
229.026
 20
326.001
 30
0.0
 11
240.406
 21
326.001
 31
0.0
  0
ENDBLK
  5
1298
330
166C
100
AcDbEntity
  8
0
100
AcDbBlockEnd
  0
BLOCK
  5
12FF
330
166D
100
AcDbEntity
  8
0
100
AcDbBlockBegin
  2
*X2
 70
     1
 10
0.0
 20
0.0
 30
0.0
  3
*X2
  1

  0
LINE
  5
1300
330
166D
100
AcDbEntity
  8
8
100
AcDbLine
 10
90.303
 20
264.801
 30
0.0
 11
118.166
 21
264.801
 31
0.0
  0
LINE
  5
1301
330
166D
100
AcDbEntity
  8
8
100
AcDbLine
 10
180.646
 20
264.801
 30
0.0
 11
208.509
 21
264.801
 31
0.0
  0
LINE
  5
1302
330
166D
100
AcDbEntity
  8
8
100
AcDbLine
 10
89.641
 20
265.161
 30
0.0
 11
118.788
 21
265.161
 31
0.0
  0
LINE
  5
1303
330
166D
100
AcDbEntity
  8
8
100
AcDbLine
 10
180.025
 20
265.161
 30
0.0
 11
209.171
 21
265.161
 31
0.0
  0
LINE
  5
1304
330
166D
100
AcDbEntity
  8
8
100
AcDbLine
 10
89.15700000000001
 20
265.521
 30
0.0
 11
91.246
 21
265.521
 31
0.0
  0
LINE
  5
1305
330
166D
100
AcDbEntity
  8
8
100
AcDbLine
 10
117.414
 20
265.521
 30
0.0
 11
119.41
 21
265.521
 31
0.0
  0
LINE
  5
1306
330
166D
100
AcDbEntity
  8
8
100
AcDbLine
 10
179.403
 20
265.521
 30
0.0
 11
181.398
 21
265.521
 31
0.0
  0
LINE
  5
1307
330
166D
100
AcDbEntity
  8
8
100
AcDbLine
 10
207.566
 20
265.521
 30
0.0
 11
209.655
 21
265.521
 31
0.0
  0
LINE
  5
1308
330
166D
100
AcDbEntity
  8
8
100
AcDbLine
 10
88.765
 20
265.881
 30
0.0
 11
90.36900000000001
 21
265.881
 31
0.0
  0
LINE
  5
1309
330
166D
100
AcDbEntity
  8
8
100
AcDbLine
 10
118.035
 20
265.881
 30
0.0
 11
120.031
 21
265.881
 31
0.0
  0
LINE
  5
130A
330
166D
100
AcDbEntity
  8
8
100
AcDbLine
 10
178.781
 20
265.881
 30
0.0
 11
180.777
 21
265.881
 31
0.0
  0
LINE
  5
130B
330
166D
100
AcDbEntity
  8
8
100
AcDbLine
 10
208.443
 20
265.881
 30
0.0
 11
210.047
 21
265.881
 31
0.0
  0
LINE
  5
130C
330
166D
100
AcDbEntity
  8
8
100
AcDbLine
 10
88.43899999999999
 20
266.241
 30
0.0
 11
89.836
 21
266.241
 31
0.0
  0
LINE
  5
130D
330
166D
100
AcDbEntity
  8
8
100
AcDbLine
 10
118.657
 20
266.241
 30
0.0
 11
120.653
 21
266.241
 31
0.0
  0
LINE
  5
130E
330
166D
100
AcDbEntity
  8
8
100
AcDbLine
 10
178.159
 20
266.241
 30
0.0
 11
180.155
 21
266.241
 31
0.0
  0
LINE
  5
130F
330
166D
100
AcDbEntity
  8
8
100
AcDbLine
 10
208.976
 20
266.241
 30
0.0
 11
210.373
 21
266.241
 31
0.0
  0
LINE
  5
1310
330
166D
100
AcDbEntity
  8
8
100
AcDbLine
 10
88.18899999999999
 20
266.601
 30
0.0
 11
89.457
 21
266.601
 31
0.0
  0
LINE
  5
1311
330
166D
100
AcDbEntity
  8
8
100
AcDbLine
 10
119.279
 20
266.601
 30
0.0
 11
121.275
 21
266.601
 31
0.0
  0
LINE
  5
1312
330
166D
100
AcDbEntity
  8
8
100
AcDbLine
 10
177.537
 20
266.601
 30
0.0
 11
179.533
 21
266.601
 31
0.0
  0
LINE
  5
1313
330
166D
100
AcDbEntity
  8
8
100
AcDbLine
 10
209.355
 20
266.601
 30
0.0
 11
210.623
 21
266.601
 31
0.0
  0
LINE
  5
1314
330
166D
100
AcDbEntity
  8
8
100
AcDbLine
 10
87.95799999999999
 20
266.961
 30
0.0
 11
89.15799999999999
 21
266.961
 31
0.0
  0
LINE
  5
1315
330
166D
100
AcDbEntity
  8
8
100
AcDbLine
 10
119.901
 20
266.961
 30
0.0
 11
121.897
 21
266.961
 31
0.0
  0
LINE
  5
1316
330
166D
100
AcDbEntity
  8
8
100
AcDbLine
 10
176.915
 20
266.961
 30
0.0
 11
178.9109999999999
 21
266.961
 31
0.0
  0
LINE
  5
1317
330
166D
100
AcDbEntity
  8
8
100
AcDbLine
 10
209.654
 20
266.961
 30
0.0
 11
210.854
 21
266.961
 31
0.0
  0
LINE
  5
1318
330
166D
100
AcDbEntity
  8
8
100
AcDbLine
 10
87.79200000000001
 20
267.321
 30
0.0
 11
88.90799999999998
 21
267.321
 31
0.0
  0
LINE
  5
1319
330
166D
100
AcDbEntity
  8
8
100
AcDbLine
 10
120.523
 20
267.321
 30
0.0
 11
122.519
 21
267.321
 31
0.0
  0
LINE
  5
131A
330
166D
100
AcDbEntity
  8
8
100
AcDbLine
 10
176.294
 20
267.321
 30
0.0
 11
178.289
 21
267.321
 31
0.0
  0
LINE
  5
131B
330
166D
100
AcDbEntity
  8
8
100
AcDbLine
 10
209.904
 20
267.321
 30
0.0
 11
211.02
 21
267.321
 31
0.0
  0
LINE
  5
131C
330
166D
100
AcDbEntity
  8
8
100
AcDbLine
 10
87.637
 20
267.681
 30
0.0
 11
88.723
 21
267.681
 31
0.0
  0
LINE
  5
131D
330
166D
100
AcDbEntity
  8
8
100
AcDbLine
 10
121.145
 20
267.681
 30
0.0
 11
123.14
 21
267.681
 31
0.0
  0
LINE
  5
131E
330
166D
100
AcDbEntity
  8
8
100
AcDbLine
 10
175.672
 20
267.681
 30
0.0
 11
177.667
 21
267.681
 31
0.0
  0
LINE
  5
131F
330
166D
100
AcDbEntity
  8
8
100
AcDbLine
 10
210.089
 20
267.681
 30
0.0
 11
211.175
 21
267.681
 31
0.0
  0
LINE
  5
1320
330
166D
100
AcDbEntity
  8
8
100
AcDbLine
 10
87.53399999999999
 20
268.041
 30
0.0
 11
88.57899999999998
 21
268.041
 31
0.0
  0
LINE
  5
1321
330
166D
100
AcDbEntity
  8
8
100
AcDbLine
 10
121.766
 20
268.041
 30
0.0
 11
123.762
 21
268.041
 31
0.0
  0
LINE
  5
1322
330
166D
100
AcDbEntity
  8
8
100
AcDbLine
 10
175.05
 20
268.041
 30
0.0
 11
177.046
 21
268.041
 31
0.0
  0
LINE
  5
1323
330
166D
100
AcDbEntity
  8
8
100
AcDbLine
 10
210.233
 20
268.041
 30
0.0
 11
211.278
 21
268.041
 31
0.0
  0
LINE
  5
1324
330
166D
100
AcDbEntity
  8
8
100
AcDbLine
 10
87.43999999999999
 20
268.401
 30
0.0
 11
88.465
 21
268.401
 31
0.0
  0
LINE
  5
1325
330
166D
100
AcDbEntity
  8
8
100
AcDbLine
 10
122.388
 20
268.401
 30
0.0
 11
124.384
 21
268.401
 31
0.0
  0
LINE
  5
1326
330
166D
100
AcDbEntity
  8
8
100
AcDbLine
 10
174.428
 20
268.401
 30
0.0
 11
176.424
 21
268.401
 31
0.0
  0
LINE
  5
1327
330
166D
100
AcDbEntity
  8
8
100
AcDbLine
 10
210.347
 20
268.401
 30
0.0
 11
211.372
 21
268.401
 31
0.0
  0
LINE
  5
1328
330
166D
100
AcDbEntity
  8
8
100
AcDbLine
 10
87.397
 20
268.761
 30
0.0
 11
88.405
 21
268.761
 31
0.0
  0
LINE
  5
1329
330
166D
100
AcDbEntity
  8
8
100
AcDbLine
 10
123.01
 20
268.761
 30
0.0
 11
125.006
 21
268.761
 31
0.0
  0
LINE
  5
132A
330
166D
100
AcDbEntity
  8
8
100
AcDbLine
 10
173.806
 20
268.761
 30
0.0
 11
175.802
 21
268.761
 31
0.0
  0
LINE
  5
132B
330
166D
100
AcDbEntity
  8
8
100
AcDbLine
 10
210.407
 20
268.761
 30
0.0
 11
211.415
 21
268.761
 31
0.0
  0
LINE
  5
132C
330
166D
100
AcDbEntity
  8
8
100
AcDbLine
 10
87.35600000000001
 20
269.121
 30
0.0
 11
88.36
 21
269.121
 31
0.0
  0
LINE
  5
132D
330
166D
100
AcDbEntity
  8
8
100
AcDbLine
 10
123.632
 20
269.121
 30
0.0
 11
125.628
 21
269.121
 31
0.0
  0
LINE
  5
132E
330
166D
100
AcDbEntity
  8
8
100
AcDbLine
 10
173.184
 20
269.121
 30
0.0
 11
175.18
 21
269.121
 31
0.0
  0
LINE
  5
132F
330
166D
100
AcDbEntity
  8
8
100
AcDbLine
 10
210.452
 20
269.121
 30
0.0
 11
211.456
 21
269.121
 31
0.0
  0
LINE
  5
1330
330
166D
100
AcDbEntity
  8
8
100
AcDbLine
 10
87.337
 20
269.481
 30
0.0
 11
88.33899999999999
 21
269.481
 31
0.0
  0
LINE
  5
1331
330
166D
100
AcDbEntity
  8
8
100
AcDbLine
 10
124.254
 20
269.481
 30
0.0
 11
126.25
 21
269.481
 31
0.0
  0
LINE
  5
1332
330
166D
100
AcDbEntity
  8
8
100
AcDbLine
 10
172.563
 20
269.481
 30
0.0
 11
174.558
 21
269.481
 31
0.0
  0
LINE
  5
1333
330
166D
100
AcDbEntity
  8
8
100
AcDbLine
 10
210.473
 20
269.481
 30
0.0
 11
211.475
 21
269.481
 31
0.0
  0
LINE
  5
1334
330
166D
100
AcDbEntity
  8
8
100
AcDbLine
 10
87.31900000000001
 20
269.841
 30
0.0
 11
88.31999999999998
 21
269.841
 31
0.0
  0
LINE
  5
1335
330
166D
100
AcDbEntity
  8
8
100
AcDbLine
 10
124.875
 20
269.841
 30
0.0
 11
126.871
 21
269.841
 31
0.0
  0
LINE
  5
1336
330
166D
100
AcDbEntity
  8
8
100
AcDbLine
 10
171.941
 20
269.841
 30
0.0
 11
173.937
 21
269.841
 31
0.0
  0
LINE
  5
1337
330
166D
100
AcDbEntity
  8
8
100
AcDbLine
 10
210.492
 20
269.841
 30
0.0
 11
211.493
 21
269.841
 31
0.0
  0
LINE
  5
1338
330
166D
100
AcDbEntity
  8
8
100
AcDbLine
 10
87.3
 20
270.201
 30
0.0
 11
88.30099999999999
 21
270.201
 31
0.0
  0
LINE
  5
1339
330
166D
100
AcDbEntity
  8
8
100
AcDbLine
 10
125.497
 20
270.201
 30
0.0
 11
127.493
 21
270.201
 31
0.0
  0
LINE
  5
133A
330
166D
100
AcDbEntity
  8
8
100
AcDbLine
 10
171.319
 20
270.201
 30
0.0
 11
173.315
 21
270.201
 31
0.0
  0
LINE
  5
133B
330
166D
100
AcDbEntity
  8
8
100
AcDbLine
 10
210.511
 20
270.201
 30
0.0
 11
211.512
 21
270.201
 31
0.0
  0
LINE
  5
133C
330
166D
100
AcDbEntity
  8
8
100
AcDbLine
 10
87.28100000000001
 20
270.561
 30
0.0
 11
88.282
 21
270.561
 31
0.0
  0
LINE
  5
133D
330
166D
100
AcDbEntity
  8
8
100
AcDbLine
 10
126.119
 20
270.561
 30
0.0
 11
128.115
 21
270.561
 31
0.0
  0
LINE
  5
133E
330
166D
100
AcDbEntity
  8
8
100
AcDbLine
 10
170.697
 20
270.561
 30
0.0
 11
172.693
 21
270.561
 31
0.0
  0
LINE
  5
133F
330
166D
100
AcDbEntity
  8
8
100
AcDbLine
 10
210.53
 20
270.561
 30
0.0
 11
211.531
 21
270.561
 31
0.0
  0
LINE
  5
1340
330
166D
100
AcDbEntity
  8
8
100
AcDbLine
 10
87.262
 20
270.921
 30
0.0
 11
88.26299999999999
 21
270.921
 31
0.0
  0
LINE
  5
1341
330
166D
100
AcDbEntity
  8
8
100
AcDbLine
 10
126.741
 20
270.921
 30
0.0
 11
128.737
 21
270.921
 31
0.0
  0
LINE
  5
1342
330
166D
100
AcDbEntity
  8
8
100
AcDbLine
 10
170.075
 20
270.921
 30
0.0
 11
172.071
 21
270.921
 31
0.0
  0
LINE
  5
1343
330
166D
100
AcDbEntity
  8
8
100
AcDbLine
 10
210.549
 20
270.921
 30
0.0
 11
211.55
 21
270.921
 31
0.0
  0
LINE
  5
1344
330
166D
100
AcDbEntity
  8
8
100
AcDbLine
 10
87.24299999999999
 20
271.281
 30
0.0
 11
88.244
 21
271.281
 31
0.0
  0
LINE
  5
1345
330
166D
100
AcDbEntity
  8
8
100
AcDbLine
 10
127.363
 20
271.281
 30
0.0
 11
129.359
 21
271.281
 31
0.0
  0
LINE
  5
1346
330
166D
100
AcDbEntity
  8
8
100
AcDbLine
 10
169.454
 20
271.281
 30
0.0
 11
171.449
 21
271.281
 31
0.0
  0
LINE
  5
1347
330
166D
100
AcDbEntity
  8
8
100
AcDbLine
 10
210.568
 20
271.281
 30
0.0
 11
211.569
 21
271.281
 31
0.0
  0
LINE
  5
1348
330
166D
100
AcDbEntity
  8
8
100
AcDbLine
 10
87.22399999999998
 20
271.641
 30
0.0
 11
88.22599999999999
 21
271.641
 31
0.0
  0
LINE
  5
1349
330
166D
100
AcDbEntity
  8
8
100
AcDbLine
 10
127.985
 20
271.641
 30
0.0
 11
129.98
 21
271.641
 31
0.0
  0
LINE
  5
134A
330
166D
100
AcDbEntity
  8
8
100
AcDbLine
 10
168.832
 20
271.641
 30
0.0
 11
170.827
 21
271.641
 31
0.0
  0
LINE
  5
134B
330
166D
100
AcDbEntity
  8
8
100
AcDbLine
 10
210.586
 20
271.641
 30
0.0
 11
211.588
 21
271.641
 31
0.0
  0
LINE
  5
134C
330
166D
100
AcDbEntity
  8
8
100
AcDbLine
 10
87.20499999999999
 20
272.001
 30
0.0
 11
88.207
 21
272.001
 31
0.0
  0
LINE
  5
134D
330
166D
100
AcDbEntity
  8
8
100
AcDbLine
 10
128.606
 20
272.001
 30
0.0
 11
130.602
 21
272.001
 31
0.0
  0
LINE
  5
134E
330
166D
100
AcDbEntity
  8
8
100
AcDbLine
 10
168.21
 20
272.001
 30
0.0
 11
170.206
 21
272.001
 31
0.0
  0
LINE
  5
134F
330
166D
100
AcDbEntity
  8
8
100
AcDbLine
 10
210.605
 20
272.001
 30
0.0
 11
211.607
 21
272.001
 31
0.0
  0
LINE
  5
1350
330
166D
100
AcDbEntity
  8
8
100
AcDbLine
 10
87.18700000000001
 20
272.361
 30
0.0
 11
88.18799999999999
 21
272.361
 31
0.0
  0
LINE
  5
1351
330
166D
100
AcDbEntity
  8
8
100
AcDbLine
 10
129.228
 20
272.361
 30
0.0
 11
131.224
 21
272.361
 31
0.0
  0
LINE
  5
1352
330
166D
100
AcDbEntity
  8
8
100
AcDbLine
 10
167.588
 20
272.361
 30
0.0
 11
169.584
 21
272.361
 31
0.0
  0
LINE
  5
1353
330
166D
100
AcDbEntity
  8
8
100
AcDbLine
 10
210.624
 20
272.361
 30
0.0
 11
211.625
 21
272.361
 31
0.0
  0
LINE
  5
1354
330
166D
100
AcDbEntity
  8
8
100
AcDbLine
 10
87.16799999999999
 20
272.721
 30
0.0
 11
88.169
 21
272.721
 31
0.0
  0
LINE
  5
1355
330
166D
100
AcDbEntity
  8
8
100
AcDbLine
 10
129.85
 20
272.721
 30
0.0
 11
131.846
 21
272.721
 31
0.0
  0
LINE
  5
1356
330
166D
100
AcDbEntity
  8
8
100
AcDbLine
 10
166.966
 20
272.721
 30
0.0
 11
168.962
 21
272.721
 31
0.0
  0
LINE
  5
1357
330
166D
100
AcDbEntity
  8
8
100
AcDbLine
 10
210.643
 20
272.721
 30
0.0
 11
211.644
 21
272.721
 31
0.0
  0
LINE
  5
1358
330
166D
100
AcDbEntity
  8
8
100
AcDbLine
 10
87.149
 20
273.0809999999999
 30
0.0
 11
88.15000000000001
 21
273.0809999999999
 31
0.0
  0
LINE
  5
1359
330
166D
100
AcDbEntity
  8
8
100
AcDbLine
 10
130.472
 20
273.0809999999999
 30
0.0
 11
132.468
 21
273.0809999999999
 31
0.0
  0
LINE
  5
135A
330
166D
100
AcDbEntity
  8
8
100
AcDbLine
 10
166.344
 20
273.0809999999999
 30
0.0
 11
168.34
 21
273.0809999999999
 31
0.0
  0
LINE
  5
135B
330
166D
100
AcDbEntity
  8
8
100
AcDbLine
 10
210.662
 20
273.0809999999999
 30
0.0
 11
211.663
 21
273.0809999999999
 31
0.0
  0
LINE
  5
135C
330
166D
100
AcDbEntity
  8
8
100
AcDbLine
 10
87.12999999999999
 20
273.441
 30
0.0
 11
88.131
 21
273.441
 31
0.0
  0
LINE
  5
135D
330
166D
100
AcDbEntity
  8
8
100
AcDbLine
 10
131.094
 20
273.441
 30
0.0
 11
133.089
 21
273.441
 31
0.0
  0
LINE
  5
135E
330
166D
100
AcDbEntity
  8
8
100
AcDbLine
 10
165.723
 20
273.441
 30
0.0
 11
167.718
 21
273.441
 31
0.0
  0
LINE
  5
135F
330
166D
100
AcDbEntity
  8
8
100
AcDbLine
 10
210.681
 20
273.441
 30
0.0
 11
211.682
 21
273.441
 31
0.0
  0
LINE
  5
1360
330
166D
100
AcDbEntity
  8
8
100
AcDbLine
 10
87.111
 20
273.801
 30
0.0
 11
88.11200000000001
 21
273.801
 31
0.0
  0
LINE
  5
1361
330
166D
100
AcDbEntity
  8
8
100
AcDbLine
 10
131.716
 20
273.801
 30
0.0
 11
133.711
 21
273.801
 31
0.0
  0
LINE
  5
1362
330
166D
100
AcDbEntity
  8
8
100
AcDbLine
 10
165.101
 20
273.801
 30
0.0
 11
167.097
 21
273.801
 31
0.0
  0
LINE
  5
1363
330
166D
100
AcDbEntity
  8
8
100
AcDbLine
 10
210.7
 20
273.801
 30
0.0
 11
211.701
 21
273.801
 31
0.0
  0
LINE
  5
1364
330
166D
100
AcDbEntity
  8
8
100
AcDbLine
 10
87.092
 20
274.161
 30
0.0
 11
88.094
 21
274.161
 31
0.0
  0
LINE
  5
1365
330
166D
100
AcDbEntity
  8
8
100
AcDbLine
 10
132.337
 20
274.161
 30
0.0
 11
134.333
 21
274.161
 31
0.0
  0
LINE
  5
1366
330
166D
100
AcDbEntity
  8
8
100
AcDbLine
 10
164.479
 20
274.161
 30
0.0
 11
166.475
 21
274.161
 31
0.0
  0
LINE
  5
1367
330
166D
100
AcDbEntity
  8
8
100
AcDbLine
 10
210.718
 20
274.161
 30
0.0
 11
211.72
 21
274.161
 31
0.0
  0
LINE
  5
1368
330
166D
100
AcDbEntity
  8
8
100
AcDbLine
 10
87.073
 20
274.521
 30
0.0
 11
88.075
 21
274.521
 31
0.0
  0
LINE
  5
1369
330
166D
100
AcDbEntity
  8
8
100
AcDbLine
 10
132.959
 20
274.521
 30
0.0
 11
134.955
 21
274.521
 31
0.0
  0
LINE
  5
136A
330
166D
100
AcDbEntity
  8
8
100
AcDbLine
 10
163.857
 20
274.521
 30
0.0
 11
165.853
 21
274.521
 31
0.0
  0
LINE
  5
136B
330
166D
100
AcDbEntity
  8
8
100
AcDbLine
 10
210.737
 20
274.521
 30
0.0
 11
211.739
 21
274.521
 31
0.0
  0
LINE
  5
136C
330
166D
100
AcDbEntity
  8
8
100
AcDbLine
 10
87.054
 20
274.881
 30
0.0
 11
88.056
 21
274.881
 31
0.0
  0
LINE
  5
136D
330
166D
100
AcDbEntity
  8
8
100
AcDbLine
 10
133.581
 20
274.881
 30
0.0
 11
135.577
 21
274.881
 31
0.0
  0
LINE
  5
136E
330
166D
100
AcDbEntity
  8
8
100
AcDbLine
 10
163.235
 20
274.881
 30
0.0
 11
165.231
 21
274.881
 31
0.0
  0
LINE
  5
136F
330
166D
100
AcDbEntity
  8
8
100
AcDbLine
 10
210.756
 20
274.881
 30
0.0
 11
211.758
 21
274.881
 31
0.0
  0
LINE
  5
1370
330
166D
100
AcDbEntity
  8
8
100
AcDbLine
 10
87.03599999999999
 20
275.241
 30
0.0
 11
88.037
 21
275.241
 31
0.0
  0
LINE
  5
1371
330
166D
100
AcDbEntity
  8
8
100
AcDbLine
 10
134.203
 20
275.241
 30
0.0
 11
136.199
 21
275.241
 31
0.0
  0
LINE
  5
1372
330
166D
100
AcDbEntity
  8
8
100
AcDbLine
 10
162.613
 20
275.241
 30
0.0
 11
164.609
 21
275.241
 31
0.0
  0
LINE
  5
1373
330
166D
100
AcDbEntity
  8
8
100
AcDbLine
 10
210.775
 20
275.241
 30
0.0
 11
211.776
 21
275.241
 31
0.0
  0
LINE
  5
1374
330
166D
100
AcDbEntity
  8
8
100
AcDbLine
 10
87.017
 20
275.601
 30
0.0
 11
88.01799999999998
 21
275.601
 31
0.0
  0
LINE
  5
1375
330
166D
100
AcDbEntity
  8
8
100
AcDbLine
 10
134.825
 20
275.601
 30
0.0
 11
163.987
 21
275.601
 31
0.0
  0
LINE
  5
1376
330
166D
100
AcDbEntity
  8
8
100
AcDbLine
 10
210.794
 20
275.601
 30
0.0
 11
211.795
 21
275.601
 31
0.0
  0
LINE
  5
1377
330
166D
100
AcDbEntity
  8
8
100
AcDbLine
 10
86.99799999999999
 20
275.961
 30
0.0
 11
87.99899999999999
 21
275.961
 31
0.0
  0
LINE
  5
1378
330
166D
100
AcDbEntity
  8
8
100
AcDbLine
 10
135.446
 20
275.961
 30
0.0
 11
163.366
 21
275.961
 31
0.0
  0
LINE
  5
1379
330
166D
100
AcDbEntity
  8
8
100
AcDbLine
 10
210.813
 20
275.961
 30
0.0
 11
211.814
 21
275.961
 31
0.0
  0
LINE
  5
137A
330
166D
100
AcDbEntity
  8
8
100
AcDbLine
 10
86.979
 20
276.321
 30
0.0
 11
87.98
 21
276.321
 31
0.0
  0
LINE
  5
137B
330
166D
100
AcDbEntity
  8
8
100
AcDbLine
 10
136.068
 20
276.321
 30
0.0
 11
162.744
 21
276.321
 31
0.0
  0
LINE
  5
137C
330
166D
100
AcDbEntity
  8
8
100
AcDbLine
 10
210.832
 20
276.321
 30
0.0
 11
211.833
 21
276.321
 31
0.0
  0
LINE
  5
137D
330
166D
100
AcDbEntity
  8
8
100
AcDbLine
 10
86.95999999999999
 20
276.681
 30
0.0
 11
87.961
 21
276.681
 31
0.0
  0
LINE
  5
137E
330
166D
100
AcDbEntity
  8
8
100
AcDbLine
 10
210.851
 20
276.681
 30
0.0
 11
211.852
 21
276.681
 31
0.0
  0
LINE
  5
137F
330
166D
100
AcDbEntity
  8
8
100
AcDbLine
 10
86.941
 20
277.041
 30
0.0
 11
87.94299999999999
 21
277.041
 31
0.0
  0
LINE
  5
1380
330
166D
100
AcDbEntity
  8
8
100
AcDbLine
 10
210.869
 20
277.041
 30
0.0
 11
211.871
 21
277.041
 31
0.0
  0
LINE
  5
1381
330
166D
100
AcDbEntity
  8
8
100
AcDbLine
 10
86.92200000000001
 20
277.401
 30
0.0
 11
87.92399999999998
 21
277.401
 31
0.0
  0
LINE
  5
1382
330
166D
100
AcDbEntity
  8
8
100
AcDbLine
 10
210.888
 20
277.401
 30
0.0
 11
211.89
 21
277.401
 31
0.0
  0
LINE
  5
1383
330
166D
100
AcDbEntity
  8
8
100
AcDbLine
 10
86.904
 20
277.761
 30
0.0
 11
87.90499999999999
 21
277.761
 31
0.0
  0
LINE
  5
1384
330
166D
100
AcDbEntity
  8
8
100
AcDbLine
 10
210.907
 20
277.761
 30
0.0
 11
211.908
 21
277.761
 31
0.0
  0
LINE
  5
1385
330
166D
100
AcDbEntity
  8
8
100
AcDbLine
 10
86.88500000000001
 20
278.121
 30
0.0
 11
87.886
 21
278.121
 31
0.0
  0
LINE
  5
1386
330
166D
100
AcDbEntity
  8
8
100
AcDbLine
 10
210.926
 20
278.121
 30
0.0
 11
211.927
 21
278.121
 31
0.0
  0
LINE
  5
1387
330
166D
100
AcDbEntity
  8
8
100
AcDbLine
 10
86.866
 20
278.481
 30
0.0
 11
87.86700000000001
 21
278.481
 31
0.0
  0
LINE
  5
1388
330
166D
100
AcDbEntity
  8
8
100
AcDbLine
 10
210.945
 20
278.481
 30
0.0
 11
211.946
 21
278.481
 31
0.0
  0
LINE
  5
1389
330
166D
100
AcDbEntity
  8
8
100
AcDbLine
 10
86.84700000000001
 20
278.841
 30
0.0
 11
87.848
 21
278.841
 31
0.0
  0
LINE
  5
138A
330
166D
100
AcDbEntity
  8
8
100
AcDbLine
 10
210.964
 20
278.841
 30
0.0
 11
211.965
 21
278.841
 31
0.0
  0
LINE
  5
138B
330
166D
100
AcDbEntity
  8
8
100
AcDbLine
 10
86.82799999999998
 20
279.201
 30
0.0
 11
87.82899999999999
 21
279.201
 31
0.0
  0
LINE
  5
138C
330
166D
100
AcDbEntity
  8
8
100
AcDbLine
 10
210.983
 20
279.201
 30
0.0
 11
211.984
 21
279.201
 31
0.0
  0
LINE
  5
138D
330
166D
100
AcDbEntity
  8
8
100
AcDbLine
 10
86.80899999999999
 20
279.561
 30
0.0
 11
87.811
 21
279.561
 31
0.0
  0
LINE
  5
138E
330
166D
100
AcDbEntity
  8
8
100
AcDbLine
 10
211.001
 20
279.561
 30
0.0
 11
212.003
 21
279.561
 31
0.0
  0
LINE
  5
138F
330
166D
100
AcDbEntity
  8
8
100
AcDbLine
 10
86.79
 20
279.921
 30
0.0
 11
87.79200000000001
 21
279.921
 31
0.0
  0
LINE
  5
1390
330
166D
100
AcDbEntity
  8
8
100
AcDbLine
 10
211.02
 20
279.921
 30
0.0
 11
212.022
 21
279.921
 31
0.0
  0
LINE
  5
1391
330
166D
100
AcDbEntity
  8
8
100
AcDbLine
 10
86.77100000000001
 20
280.281
 30
0.0
 11
87.773
 21
280.281
 31
0.0
  0
LINE
  5
1392
330
166D
100
AcDbEntity
  8
8
100
AcDbLine
 10
211.039
 20
280.281
 30
0.0
 11
212.041
 21
280.281
 31
0.0
  0
LINE
  5
1393
330
166D
100
AcDbEntity
  8
8
100
AcDbLine
 10
86.75299999999998
 20
280.6409999999999
 30
0.0
 11
87.75399999999999
 21
280.6409999999999
 31
0.0
  0
LINE
  5
1394
330
166D
100
AcDbEntity
  8
8
100
AcDbLine
 10
211.058
 20
280.6409999999999
 30
0.0
 11
212.059
 21
280.6409999999999
 31
0.0
  0
LINE
  5
1395
330
166D
100
AcDbEntity
  8
8
100
AcDbLine
 10
86.73399999999999
 20
281.001
 30
0.0
 11
87.735
 21
281.001
 31
0.0
  0
LINE
  5
1396
330
166D
100
AcDbEntity
  8
8
100
AcDbLine
 10
211.077
 20
281.001
 30
0.0
 11
212.078
 21
281.001
 31
0.0
  0
LINE
  5
1397
330
166D
100
AcDbEntity
  8
8
100
AcDbLine
 10
86.71499999999999
 20
281.361
 30
0.0
 11
87.71600000000001
 21
281.361
 31
0.0
  0
LINE
  5
1398
330
166D
100
AcDbEntity
  8
8
100
AcDbLine
 10
211.096
 20
281.361
 30
0.0
 11
212.097
 21
281.361
 31
0.0
  0
LINE
  5
1399
330
166D
100
AcDbEntity
  8
8
100
AcDbLine
 10
86.696
 20
281.721
 30
0.0
 11
87.697
 21
281.721
 31
0.0
  0
LINE
  5
139A
330
166D
100
AcDbEntity
  8
8
100
AcDbLine
 10
211.115
 20
281.721
 30
0.0
 11
212.116
 21
281.721
 31
0.0
  0
LINE
  5
139B
330
166D
100
AcDbEntity
  8
8
100
AcDbLine
 10
86.67700000000001
 20
282.081
 30
0.0
 11
87.67799999999999
 21
282.081
 31
0.0
  0
LINE
  5
139C
330
166D
100
AcDbEntity
  8
8
100
AcDbLine
 10
211.134
 20
282.081
 30
0.0
 11
212.135
 21
282.081
 31
0.0
  0
LINE
  5
139D
330
166D
100
AcDbEntity
  8
8
100
AcDbLine
 10
86.65799999999999
 20
282.441
 30
0.0
 11
87.66
 21
282.441
 31
0.0
  0
LINE
  5
139E
330
166D
100
AcDbEntity
  8
8
100
AcDbLine
 10
211.152
 20
282.441
 30
0.0
 11
212.154
 21
282.441
 31
0.0
  0
LINE
  5
139F
330
166D
100
AcDbEntity
  8
8
100
AcDbLine
 10
86.63899999999999
 20
282.801
 30
0.0
 11
87.641
 21
282.801
 31
0.0
  0
LINE
  5
13A0
330
166D
100
AcDbEntity
  8
8
100
AcDbLine
 10
211.171
 20
282.801
 30
0.0
 11
212.173
 21
282.801
 31
0.0
  0
LINE
  5
13A1
330
166D
100
AcDbEntity
  8
8
100
AcDbLine
 10
86.621
 20
283.161
 30
0.0
 11
87.62200000000001
 21
283.161
 31
0.0
  0
LINE
  5
13A2
330
166D
100
AcDbEntity
  8
8
100
AcDbLine
 10
211.19
 20
283.161
 30
0.0
 11
212.191
 21
283.161
 31
0.0
  0
LINE
  5
13A3
330
166D
100
AcDbEntity
  8
8
100
AcDbLine
 10
86.60200000000001
 20
283.521
 30
0.0
 11
87.60299999999999
 21
283.521
 31
0.0
  0
LINE
  5
13A4
330
166D
100
AcDbEntity
  8
8
100
AcDbLine
 10
211.209
 20
283.521
 30
0.0
 11
212.21
 21
283.521
 31
0.0
  0
LINE
  5
13A5
330
166D
100
AcDbEntity
  8
8
100
AcDbLine
 10
86.583
 20
283.881
 30
0.0
 11
87.58399999999999
 21
283.881
 31
0.0
  0
LINE
  5
13A6
330
166D
100
AcDbEntity
  8
8
100
AcDbLine
 10
211.228
 20
283.881
 30
0.0
 11
212.229
 21
283.881
 31
0.0
  0
LINE
  5
13A7
330
166D
100
AcDbEntity
  8
8
100
AcDbLine
 10
86.56399999999999
 20
284.241
 30
0.0
 11
87.565
 21
284.241
 31
0.0
  0
LINE
  5
13A8
330
166D
100
AcDbEntity
  8
8
100
AcDbLine
 10
211.247
 20
284.241
 30
0.0
 11
212.248
 21
284.241
 31
0.0
  0
LINE
  5
13A9
330
166D
100
AcDbEntity
  8
8
100
AcDbLine
 10
86.545
 20
284.601
 30
0.0
 11
87.54600000000001
 21
284.601
 31
0.0
  0
LINE
  5
13AA
330
166D
100
AcDbEntity
  8
8
100
AcDbLine
 10
211.266
 20
284.601
 30
0.0
 11
212.267
 21
284.601
 31
0.0
  0
LINE
  5
13AB
330
166D
100
AcDbEntity
  8
8
100
AcDbLine
 10
86.52600000000001
 20
284.961
 30
0.0
 11
87.52799999999998
 21
284.961
 31
0.0
  0
LINE
  5
13AC
330
166D
100
AcDbEntity
  8
8
100
AcDbLine
 10
211.284
 20
284.961
 30
0.0
 11
212.286
 21
284.961
 31
0.0
  0
LINE
  5
13AD
330
166D
100
AcDbEntity
  8
8
100
AcDbLine
 10
86.507
 20
285.321
 30
0.0
 11
87.50899999999999
 21
285.321
 31
0.0
  0
LINE
  5
13AE
330
166D
100
AcDbEntity
  8
8
100
AcDbLine
 10
211.303
 20
285.321
 30
0.0
 11
212.305
 21
285.321
 31
0.0
  0
LINE
  5
13AF
330
166D
100
AcDbEntity
  8
8
100
AcDbLine
 10
86.48799999999999
 20
285.681
 30
0.0
 11
87.49
 21
285.681
 31
0.0
  0
LINE
  5
13B0
330
166D
100
AcDbEntity
  8
8
100
AcDbLine
 10
211.322
 20
285.681
 30
0.0
 11
212.324
 21
285.681
 31
0.0
  0
LINE
  5
13B1
330
166D
100
AcDbEntity
  8
8
100
AcDbLine
 10
86.47
 20
286.041
 30
0.0
 11
87.47100000000001
 21
286.041
 31
0.0
  0
LINE
  5
13B2
330
166D
100
AcDbEntity
  8
8
100
AcDbLine
 10
211.341
 20
286.041
 30
0.0
 11
212.342
 21
286.041
 31
0.0
  0
LINE
  5
13B3
330
166D
100
AcDbEntity
  8
8
100
AcDbLine
 10
86.45100000000001
 20
286.401
 30
0.0
 11
87.45200000000002
 21
286.401
 31
0.0
  0
LINE
  5
13B4
330
166D
100
AcDbEntity
  8
8
100
AcDbLine
 10
211.36
 20
286.401
 30
0.0
 11
212.361
 21
286.401
 31
0.0
  0
LINE
  5
13B5
330
166D
100
AcDbEntity
  8
8
100
AcDbLine
 10
86.432
 20
286.7609999999999
 30
0.0
 11
87.43299999999999
 21
286.7609999999999
 31
0.0
  0
LINE
  5
13B6
330
166D
100
AcDbEntity
  8
8
100
AcDbLine
 10
211.379
 20
286.7609999999999
 30
0.0
 11
212.38
 21
286.7609999999999
 31
0.0
  0
LINE
  5
13B7
330
166D
100
AcDbEntity
  8
8
100
AcDbLine
 10
86.41299999999999
 20
287.121
 30
0.0
 11
87.414
 21
287.121
 31
0.0
  0
LINE
  5
13B8
330
166D
100
AcDbEntity
  8
8
100
AcDbLine
 10
211.398
 20
287.121
 30
0.0
 11
212.399
 21
287.121
 31
0.0
  0
LINE
  5
13B9
330
166D
100
AcDbEntity
  8
8
100
AcDbLine
 10
86.394
 20
287.481
 30
0.0
 11
87.39499999999999
 21
287.481
 31
0.0
  0
LINE
  5
13BA
330
166D
100
AcDbEntity
  8
8
100
AcDbLine
 10
211.417
 20
287.481
 30
0.0
 11
212.418
 21
287.481
 31
0.0
  0
LINE
  5
13BB
330
166D
100
AcDbEntity
  8
8
100
AcDbLine
 10
86.37500000000001
 20
287.841
 30
0.0
 11
87.37700000000002
 21
287.841
 31
0.0
  0
LINE
  5
13BC
330
166D
100
AcDbEntity
  8
8
100
AcDbLine
 10
211.435
 20
287.841
 30
0.0
 11
212.437
 21
287.841
 31
0.0
  0
LINE
  5
13BD
330
166D
100
AcDbEntity
  8
8
100
AcDbLine
 10
86.35600000000001
 20
288.201
 30
0.0
 11
87.35799999999999
 21
288.201
 31
0.0
  0
LINE
  5
13BE
330
166D
100
AcDbEntity
  8
8
100
AcDbLine
 10
211.454
 20
288.201
 30
0.0
 11
212.456
 21
288.201
 31
0.0
  0
LINE
  5
13BF
330
166D
100
AcDbEntity
  8
8
100
AcDbLine
 10
86.33799999999999
 20
288.561
 30
0.0
 11
87.339
 21
288.561
 31
0.0
  0
LINE
  5
13C0
330
166D
100
AcDbEntity
  8
8
100
AcDbLine
 10
211.473
 20
288.561
 30
0.0
 11
212.474
 21
288.561
 31
0.0
  0
LINE
  5
13C1
330
166D
100
AcDbEntity
  8
8
100
AcDbLine
 10
86.31899999999999
 20
288.921
 30
0.0
 11
87.31999999999999
 21
288.921
 31
0.0
  0
LINE
  5
13C2
330
166D
100
AcDbEntity
  8
8
100
AcDbLine
 10
211.492
 20
288.921
 30
0.0
 11
212.493
 21
288.921
 31
0.0
  0
LINE
  5
13C3
330
166D
100
AcDbEntity
  8
8
100
AcDbLine
 10
86.3
 20
289.281
 30
0.0
 11
87.301
 21
289.281
 31
0.0
  0
LINE
  5
13C4
330
166D
100
AcDbEntity
  8
8
100
AcDbLine
 10
211.511
 20
289.281
 30
0.0
 11
212.512
 21
289.281
 31
0.0
  0
LINE
  5
13C5
330
166D
100
AcDbEntity
  8
8
100
AcDbLine
 10
86.28100000000001
 20
289.6409999999999
 30
0.0
 11
87.28200000000001
 21
289.6409999999999
 31
0.0
  0
LINE
  5
13C6
330
166D
100
AcDbEntity
  8
8
100
AcDbLine
 10
211.53
 20
289.6409999999999
 30
0.0
 11
212.531
 21
289.6409999999999
 31
0.0
  0
LINE
  5
13C7
330
166D
100
AcDbEntity
  8
8
100
AcDbLine
 10
86.262
 20
290.001
 30
0.0
 11
87.263
 21
290.001
 31
0.0
  0
LINE
  5
13C8
330
166D
100
AcDbEntity
  8
8
100
AcDbLine
 10
211.549
 20
290.001
 30
0.0
 11
212.55
 21
290.001
 31
0.0
  0
LINE
  5
13C9
330
166D
100
AcDbEntity
  8
8
100
AcDbLine
 10
86.24299999999999
 20
290.361
 30
0.0
 11
87.245
 21
290.361
 31
0.0
  0
LINE
  5
13CA
330
166D
100
AcDbEntity
  8
8
100
AcDbLine
 10
211.567
 20
290.361
 30
0.0
 11
212.569
 21
290.361
 31
0.0
  0
LINE
  5
13CB
330
166D
100
AcDbEntity
  8
8
100
AcDbLine
 10
86.22399999999998
 20
290.721
 30
0.0
 11
87.22599999999999
 21
290.721
 31
0.0
  0
LINE
  5
13CC
330
166D
100
AcDbEntity
  8
8
100
AcDbLine
 10
211.586
 20
290.721
 30
0.0
 11
212.588
 21
290.721
 31
0.0
  0
LINE
  5
13CD
330
166D
100
AcDbEntity
  8
8
100
AcDbLine
 10
86.20499999999999
 20
291.081
 30
0.0
 11
87.207
 21
291.081
 31
0.0
  0
LINE
  5
13CE
330
166D
100
AcDbEntity
  8
8
100
AcDbLine
 10
211.605
 20
291.081
 30
0.0
 11
212.607
 21
291.081
 31
0.0
  0
LINE
  5
13CF
330
166D
100
AcDbEntity
  8
8
100
AcDbLine
 10
86.18700000000002
 20
291.441
 30
0.0
 11
87.18799999999999
 21
291.441
 31
0.0
  0
LINE
  5
13D0
330
166D
100
AcDbEntity
  8
8
100
AcDbLine
 10
211.624
 20
291.441
 30
0.0
 11
212.625
 21
291.441
 31
0.0
  0
LINE
  5
13D1
330
166D
100
AcDbEntity
  8
8
100
AcDbLine
 10
86.16799999999999
 20
291.801
 30
0.0
 11
87.169
 21
291.801
 31
0.0
  0
LINE
  5
13D2
330
166D
100
AcDbEntity
  8
8
100
AcDbLine
 10
211.643
 20
291.801
 30
0.0
 11
212.644
 21
291.801
 31
0.0
  0
LINE
  5
13D3
330
166D
100
AcDbEntity
  8
8
100
AcDbLine
 10
86.149
 20
292.161
 30
0.0
 11
87.15000000000001
 21
292.161
 31
0.0
  0
LINE
  5
13D4
330
166D
100
AcDbEntity
  8
8
100
AcDbLine
 10
211.662
 20
292.161
 30
0.0
 11
212.663
 21
292.161
 31
0.0
  0
LINE
  5
13D5
330
166D
100
AcDbEntity
  8
8
100
AcDbLine
 10
86.12999999999999
 20
292.5209999999999
 30
0.0
 11
87.131
 21
292.5209999999999
 31
0.0
  0
LINE
  5
13D6
330
166D
100
AcDbEntity
  8
8
100
AcDbLine
 10
211.681
 20
292.5209999999999
 30
0.0
 11
212.682
 21
292.5209999999999
 31
0.0
  0
LINE
  5
13D7
330
166D
100
AcDbEntity
  8
8
100
AcDbLine
 10
86.111
 20
292.881
 30
0.0
 11
87.11200000000001
 21
292.881
 31
0.0
  0
LINE
  5
13D8
330
166D
100
AcDbEntity
  8
8
100
AcDbLine
 10
211.7
 20
292.881
 30
0.0
 11
212.701
 21
292.881
 31
0.0
  0
LINE
  5
13D9
330
166D
100
AcDbEntity
  8
8
100
AcDbLine
 10
86.09200000000001
 20
293.241
 30
0.0
 11
87.094
 21
293.241
 31
0.0
  0
LINE
  5
13DA
330
166D
100
AcDbEntity
  8
8
100
AcDbLine
 10
211.718
 20
293.241
 30
0.0
 11
212.72
 21
293.241
 31
0.0
  0
LINE
  5
13DB
330
166D
100
AcDbEntity
  8
8
100
AcDbLine
 10
86.073
 20
293.601
 30
0.0
 11
87.07500000000001
 21
293.601
 31
0.0
  0
LINE
  5
13DC
330
166D
100
AcDbEntity
  8
8
100
AcDbLine
 10
211.737
 20
293.601
 30
0.0
 11
212.739
 21
293.601
 31
0.0
  0
LINE
  5
13DD
330
166D
100
AcDbEntity
  8
8
100
AcDbLine
 10
86.05500000000001
 20
293.961
 30
0.0
 11
87.056
 21
293.961
 31
0.0
  0
LINE
  5
13DE
330
166D
100
AcDbEntity
  8
8
100
AcDbLine
 10
211.756
 20
293.961
 30
0.0
 11
212.757
 21
293.961
 31
0.0
  0
LINE
  5
13DF
330
166D
100
AcDbEntity
  8
8
100
AcDbLine
 10
86.036
 20
294.321
 30
0.0
 11
87.03700000000001
 21
294.321
 31
0.0
  0
LINE
  5
13E0
330
166D
100
AcDbEntity
  8
8
100
AcDbLine
 10
211.775
 20
294.321
 30
0.0
 11
212.776
 21
294.321
 31
0.0
  0
LINE
  5
13E1
330
166D
100
AcDbEntity
  8
8
100
AcDbLine
 10
86.01700000000001
 20
294.681
 30
0.0
 11
87.01799999999998
 21
294.681
 31
0.0
  0
LINE
  5
13E2
330
166D
100
AcDbEntity
  8
8
100
AcDbLine
 10
211.794
 20
294.681
 30
0.0
 11
212.795
 21
294.681
 31
0.0
  0
LINE
  5
13E3
330
166D
100
AcDbEntity
  8
8
100
AcDbLine
 10
85.998
 20
295.041
 30
0.0
 11
86.99899999999999
 21
295.041
 31
0.0
  0
LINE
  5
13E4
330
166D
100
AcDbEntity
  8
8
100
AcDbLine
 10
211.813
 20
295.041
 30
0.0
 11
212.814
 21
295.041
 31
0.0
  0
LINE
  5
13E5
330
166D
100
AcDbEntity
  8
8
100
AcDbLine
 10
85.979
 20
295.401
 30
0.0
 11
86.98
 21
295.401
 31
0.0
  0
LINE
  5
13E6
330
166D
100
AcDbEntity
  8
8
100
AcDbLine
 10
211.832
 20
295.401
 30
0.0
 11
212.833
 21
295.401
 31
0.0
  0
LINE
  5
13E7
330
166D
100
AcDbEntity
  8
8
100
AcDbLine
 10
85.96
 20
295.761
 30
0.0
 11
86.96200000000001
 21
295.761
 31
0.0
  0
LINE
  5
13E8
330
166D
100
AcDbEntity
  8
8
100
AcDbLine
 10
211.85
 20
295.761
 30
0.0
 11
212.852
 21
295.761
 31
0.0
  0
LINE
  5
13E9
330
166D
100
AcDbEntity
  8
8
100
AcDbLine
 10
85.941
 20
296.121
 30
0.0
 11
86.943
 21
296.121
 31
0.0
  0
LINE
  5
13EA
330
166D
100
AcDbEntity
  8
8
100
AcDbLine
 10
211.869
 20
296.121
 30
0.0
 11
212.871
 21
296.121
 31
0.0
  0
LINE
  5
13EB
330
166D
100
AcDbEntity
  8
8
100
AcDbLine
 10
85.92200000000001
 20
296.481
 30
0.0
 11
86.92399999999999
 21
296.481
 31
0.0
  0
LINE
  5
13EC
330
166D
100
AcDbEntity
  8
8
100
AcDbLine
 10
211.888
 20
296.481
 30
0.0
 11
212.89
 21
296.481
 31
0.0
  0
LINE
  5
13ED
330
166D
100
AcDbEntity
  8
8
100
AcDbLine
 10
85.904
 20
296.841
 30
0.0
 11
86.905
 21
296.841
 31
0.0
  0
LINE
  5
13EE
330
166D
100
AcDbEntity
  8
8
100
AcDbLine
 10
211.907
 20
296.841
 30
0.0
 11
212.908
 21
296.841
 31
0.0
  0
LINE
  5
13EF
330
166D
100
AcDbEntity
  8
8
100
AcDbLine
 10
85.88500000000001
 20
297.201
 30
0.0
 11
86.886
 21
297.201
 31
0.0
  0
LINE
  5
13F0
330
166D
100
AcDbEntity
  8
8
100
AcDbLine
 10
211.926
 20
297.201
 30
0.0
 11
212.927
 21
297.201
 31
0.0
  0
LINE
  5
13F1
330
166D
100
AcDbEntity
  8
8
100
AcDbLine
 10
85.866
 20
297.5609999999999
 30
0.0
 11
86.867
 21
297.5609999999999
 31
0.0
  0
LINE
  5
13F2
330
166D
100
AcDbEntity
  8
8
100
AcDbLine
 10
211.945
 20
297.5609999999999
 30
0.0
 11
212.946
 21
297.5609999999999
 31
0.0
  0
LINE
  5
13F3
330
166D
100
AcDbEntity
  8
8
100
AcDbLine
 10
85.84700000000001
 20
297.921
 30
0.0
 11
86.848
 21
297.921
 31
0.0
  0
LINE
  5
13F4
330
166D
100
AcDbEntity
  8
8
100
AcDbLine
 10
211.964
 20
297.921
 30
0.0
 11
212.965
 21
297.921
 31
0.0
  0
LINE
  5
13F5
330
166D
100
AcDbEntity
  8
8
100
AcDbLine
 10
85.82799999999998
 20
298.281
 30
0.0
 11
86.829
 21
298.281
 31
0.0
  0
LINE
  5
13F6
330
166D
100
AcDbEntity
  8
8
100
AcDbLine
 10
211.983
 20
298.281
 30
0.0
 11
212.984
 21
298.281
 31
0.0
  0
LINE
  5
13F7
330
166D
100
AcDbEntity
  8
8
100
AcDbLine
 10
85.80899999999999
 20
298.641
 30
0.0
 11
86.811
 21
298.641
 31
0.0
  0
LINE
  5
13F8
330
166D
100
AcDbEntity
  8
8
100
AcDbLine
 10
212.001
 20
298.641
 30
0.0
 11
213.003
 21
298.641
 31
0.0
  0
LINE
  5
13F9
330
166D
100
AcDbEntity
  8
8
100
AcDbLine
 10
85.79
 20
299.001
 30
0.0
 11
86.79199999999999
 21
299.001
 31
0.0
  0
LINE
  5
13FA
330
166D
100
AcDbEntity
  8
8
100
AcDbLine
 10
212.02
 20
299.001
 30
0.0
 11
213.022
 21
299.001
 31
0.0
  0
LINE
  5
13FB
330
166D
100
AcDbEntity
  8
8
100
AcDbLine
 10
85.77200000000001
 20
299.361
 30
0.0
 11
86.773
 21
299.361
 31
0.0
  0
LINE
  5
13FC
330
166D
100
AcDbEntity
  8
8
100
AcDbLine
 10
212.039
 20
299.361
 30
0.0
 11
213.04
 21
299.361
 31
0.0
  0
LINE
  5
13FD
330
166D
100
AcDbEntity
  8
8
100
AcDbLine
 10
85.75299999999998
 20
299.721
 30
0.0
 11
86.75399999999999
 21
299.721
 31
0.0
  0
LINE
  5
13FE
330
166D
100
AcDbEntity
  8
8
100
AcDbLine
 10
212.058
 20
299.721
 30
0.0
 11
213.059
 21
299.721
 31
0.0
  0
LINE
  5
13FF
330
166D
100
AcDbEntity
  8
8
100
AcDbLine
 10
85.73399999999999
 20
300.0809999999999
 30
0.0
 11
86.735
 21
300.0809999999999
 31
0.0
  0
LINE
  5
1400
330
166D
100
AcDbEntity
  8
8
100
AcDbLine
 10
212.077
 20
300.0809999999999
 30
0.0
 11
213.078
 21
300.0809999999999
 31
0.0
  0
LINE
  5
1401
330
166D
100
AcDbEntity
  8
8
100
AcDbLine
 10
85.715
 20
300.441
 30
0.0
 11
86.71600000000001
 21
300.441
 31
0.0
  0
LINE
  5
1402
330
166D
100
AcDbEntity
  8
8
100
AcDbLine
 10
212.096
 20
300.441
 30
0.0
 11
213.097
 21
300.441
 31
0.0
  0
LINE
  5
1403
330
166D
100
AcDbEntity
  8
8
100
AcDbLine
 10
85.69599999999999
 20
300.801
 30
0.0
 11
86.697
 21
300.801
 31
0.0
  0
LINE
  5
1404
330
166D
100
AcDbEntity
  8
8
100
AcDbLine
 10
212.115
 20
300.801
 30
0.0
 11
213.116
 21
300.801
 31
0.0
  0
LINE
  5
1405
330
166D
100
AcDbEntity
  8
8
100
AcDbLine
 10
85.677
 20
301.161
 30
0.0
 11
86.67900000000001
 21
301.161
 31
0.0
  0
LINE
  5
1406
330
166D
100
AcDbEntity
  8
8
100
AcDbLine
 10
212.133
 20
301.161
 30
0.0
 11
213.135
 21
301.161
 31
0.0
  0
LINE
  5
1407
330
166D
100
AcDbEntity
  8
8
100
AcDbLine
 10
85.65799999999999
 20
301.521
 30
0.0
 11
86.66
 21
301.521
 31
0.0
  0
LINE
  5
1408
330
166D
100
AcDbEntity
  8
8
100
AcDbLine
 10
212.152
 20
301.521
 30
0.0
 11
213.154
 21
301.521
 31
0.0
  0
LINE
  5
1409
330
166D
100
AcDbEntity
  8
8
100
AcDbLine
 10
85.639
 20
301.881
 30
0.0
 11
86.64100000000001
 21
301.881
 31
0.0
  0
LINE
  5
140A
330
166D
100
AcDbEntity
  8
8
100
AcDbLine
 10
212.171
 20
301.881
 30
0.0
 11
213.173
 21
301.881
 31
0.0
  0
LINE
  5
140B
330
166D
100
AcDbEntity
  8
8
100
AcDbLine
 10
85.621
 20
302.241
 30
0.0
 11
86.62200000000002
 21
302.241
 31
0.0
  0
LINE
  5
140C
330
166D
100
AcDbEntity
  8
8
100
AcDbLine
 10
212.19
 20
302.241
 30
0.0
 11
213.191
 21
302.241
 31
0.0
  0
LINE
  5
140D
330
166D
100
AcDbEntity
  8
8
100
AcDbLine
 10
85.59499999999999
 20
302.601
 30
0.0
 11
86.60099999999999
 21
302.601
 31
0.0
  0
LINE
  5
140E
330
166D
100
AcDbEntity
  8
8
100
AcDbLine
 10
212.211
 20
302.601
 30
0.0
 11
213.217
 21
302.601
 31
0.0
  0
LINE
  5
140F
330
166D
100
AcDbEntity
  8
8
100
AcDbLine
 10
85.54700000000002
 20
302.961
 30
0.0
 11
86.55599999999999
 21
302.961
 31
0.0
  0
LINE
  5
1410
330
166D
100
AcDbEntity
  8
8
100
AcDbLine
 10
212.256
 20
302.961
 30
0.0
 11
213.265
 21
302.961
 31
0.0
  0
LINE
  5
1411
330
166D
100
AcDbEntity
  8
8
100
AcDbLine
 10
85.447
 20
303.321
 30
0.0
 11
86.49600000000001
 21
303.321
 31
0.0
  0
LINE
  5
1412
330
166D
100
AcDbEntity
  8
8
100
AcDbLine
 10
212.317
 20
303.321
 30
0.0
 11
213.365
 21
303.321
 31
0.0
  0
LINE
  5
1413
330
166D
100
AcDbEntity
  8
8
100
AcDbLine
 10
85.30700000000001
 20
303.681
 30
0.0
 11
86.38200000000001
 21
303.681
 31
0.0
  0
LINE
  5
1414
330
166D
100
AcDbEntity
  8
8
100
AcDbLine
 10
212.43
 20
303.681
 30
0.0
 11
213.505
 21
303.681
 31
0.0
  0
LINE
  5
1415
330
166D
100
AcDbEntity
  8
8
100
AcDbLine
 10
85.098
 20
304.041
 30
0.0
 11
86.23700000000001
 21
304.041
 31
0.0
  0
LINE
  5
1416
330
166D
100
AcDbEntity
  8
8
100
AcDbLine
 10
212.575
 20
304.041
 30
0.0
 11
213.714
 21
304.041
 31
0.0
  0
LINE
  5
1417
330
166D
100
AcDbEntity
  8
8
100
AcDbLine
 10
84.80500000000001
 20
304.401
 30
0.0
 11
86.05299999999999
 21
304.401
 31
0.0
  0
LINE
  5
1418
330
166D
100
AcDbEntity
  8
8
100
AcDbLine
 10
212.759
 20
304.401
 30
0.0
 11
214.007
 21
304.401
 31
0.0
  0
LINE
  5
1419
330
166D
100
AcDbEntity
  8
8
100
AcDbLine
 10
84.40299999999998
 20
304.761
 30
0.0
 11
85.80299999999999
 21
304.761
 31
0.0
  0
LINE
  5
141A
330
166D
100
AcDbEntity
  8
8
100
AcDbLine
 10
213.009
 20
304.761
 30
0.0
 11
214.409
 21
304.761
 31
0.0
  0
LINE
  5
141B
330
166D
100
AcDbEntity
  8
8
100
AcDbLine
 10
83.792
 20
305.121
 30
0.0
 11
85.50399999999999
 21
305.121
 31
0.0
  0
LINE
  5
141C
330
166D
100
AcDbEntity
  8
8
100
AcDbLine
 10
213.308
 20
305.121
 30
0.0
 11
215.02
 21
305.121
 31
0.0
  0
LINE
  5
141D
330
166D
100
AcDbEntity
  8
8
100
AcDbLine
 10
74.906
 20
305.481
 30
0.0
 11
85.12500000000001
 21
305.481
 31
0.0
  0
LINE
  5
141E
330
166D
100
AcDbEntity
  8
8
100
AcDbLine
 10
213.687
 20
305.481
 30
0.0
 11
223.906
 21
305.481
 31
0.0
  0
LINE
  5
141F
330
166D
100
AcDbEntity
  8
8
100
AcDbLine
 10
74.906
 20
305.841
 30
0.0
 11
84.592
 21
305.841
 31
0.0
  0
LINE
  5
1420
330
166D
100
AcDbEntity
  8
8
100
AcDbLine
 10
214.22
 20
305.841
 30
0.0
 11
223.906
 21
305.841
 31
0.0
  0
LINE
  5
1421
330
166D
100
AcDbEntity
  8
8
100
AcDbLine
 10
74.906
 20
306.201
 30
0.0
 11
83.71500000000001
 21
306.201
 31
0.0
  0
LINE
  5
1422
330
166D
100
AcDbEntity
  8
8
100
AcDbLine
 10
215.097
 20
306.201
 30
0.0
 11
223.906
 21
306.201
 31
0.0
  0
ENDBLK
  5
1423
330
166D
100
AcDbEntity
  8
0
100
AcDbBlockEnd
  0
BLOCK
  5
148A
330
166E
100
AcDbEntity
  8
0
100
AcDbBlockBegin
  2
*X3
 70
     1
 10
0.0
 20
0.0
 30
0.0
  3
*X3
  1

  0
LINE
  5
148B
330
166E
100
AcDbEntity
  8
8
100
AcDbLine
 10
90.303
 20
264.801
 30
0.0
 11
118.166
 21
264.801
 31
0.0
  0
LINE
  5
148C
330
166E
100
AcDbEntity
  8
8
100
AcDbLine
 10
180.646
 20
264.801
 30
0.0
 11
208.509
 21
264.801
 31
0.0
  0
LINE
  5
148D
330
166E
100
AcDbEntity
  8
8
100
AcDbLine
 10
89.641
 20
265.161
 30
0.0
 11
118.788
 21
265.161
 31
0.0
  0
LINE
  5
148E
330
166E
100
AcDbEntity
  8
8
100
AcDbLine
 10
180.025
 20
265.161
 30
0.0
 11
209.171
 21
265.161
 31
0.0
  0
LINE
  5
148F
330
166E
100
AcDbEntity
  8
8
100
AcDbLine
 10
89.15700000000001
 20
265.521
 30
0.0
 11
91.246
 21
265.521
 31
0.0
  0
LINE
  5
1490
330
166E
100
AcDbEntity
  8
8
100
AcDbLine
 10
117.414
 20
265.521
 30
0.0
 11
119.41
 21
265.521
 31
0.0
  0
LINE
  5
1491
330
166E
100
AcDbEntity
  8
8
100
AcDbLine
 10
179.403
 20
265.521
 30
0.0
 11
181.398
 21
265.521
 31
0.0
  0
LINE
  5
1492
330
166E
100
AcDbEntity
  8
8
100
AcDbLine
 10
207.566
 20
265.521
 30
0.0
 11
209.655
 21
265.521
 31
0.0
  0
LINE
  5
1493
330
166E
100
AcDbEntity
  8
8
100
AcDbLine
 10
88.765
 20
265.881
 30
0.0
 11
90.36900000000001
 21
265.881
 31
0.0
  0
LINE
  5
1494
330
166E
100
AcDbEntity
  8
8
100
AcDbLine
 10
118.035
 20
265.881
 30
0.0
 11
120.031
 21
265.881
 31
0.0
  0
LINE
  5
1495
330
166E
100
AcDbEntity
  8
8
100
AcDbLine
 10
178.781
 20
265.881
 30
0.0
 11
180.777
 21
265.881
 31
0.0
  0
LINE
  5
1496
330
166E
100
AcDbEntity
  8
8
100
AcDbLine
 10
208.443
 20
265.881
 30
0.0
 11
210.047
 21
265.881
 31
0.0
  0
LINE
  5
1497
330
166E
100
AcDbEntity
  8
8
100
AcDbLine
 10
88.43899999999999
 20
266.241
 30
0.0
 11
89.836
 21
266.241
 31
0.0
  0
LINE
  5
1498
330
166E
100
AcDbEntity
  8
8
100
AcDbLine
 10
118.657
 20
266.241
 30
0.0
 11
120.653
 21
266.241
 31
0.0
  0
LINE
  5
1499
330
166E
100
AcDbEntity
  8
8
100
AcDbLine
 10
178.159
 20
266.241
 30
0.0
 11
180.155
 21
266.241
 31
0.0
  0
LINE
  5
149A
330
166E
100
AcDbEntity
  8
8
100
AcDbLine
 10
208.976
 20
266.241
 30
0.0
 11
210.373
 21
266.241
 31
0.0
  0
LINE
  5
149B
330
166E
100
AcDbEntity
  8
8
100
AcDbLine
 10
88.18899999999999
 20
266.601
 30
0.0
 11
89.457
 21
266.601
 31
0.0
  0
LINE
  5
149C
330
166E
100
AcDbEntity
  8
8
100
AcDbLine
 10
119.279
 20
266.601
 30
0.0
 11
121.275
 21
266.601
 31
0.0
  0
LINE
  5
149D
330
166E
100
AcDbEntity
  8
8
100
AcDbLine
 10
177.537
 20
266.601
 30
0.0
 11
179.533
 21
266.601
 31
0.0
  0
LINE
  5
149E
330
166E
100
AcDbEntity
  8
8
100
AcDbLine
 10
209.355
 20
266.601
 30
0.0
 11
210.623
 21
266.601
 31
0.0
  0
LINE
  5
149F
330
166E
100
AcDbEntity
  8
8
100
AcDbLine
 10
87.95799999999999
 20
266.961
 30
0.0
 11
89.15799999999999
 21
266.961
 31
0.0
  0
LINE
  5
14A0
330
166E
100
AcDbEntity
  8
8
100
AcDbLine
 10
119.901
 20
266.961
 30
0.0
 11
121.897
 21
266.961
 31
0.0
  0
LINE
  5
14A1
330
166E
100
AcDbEntity
  8
8
100
AcDbLine
 10
176.915
 20
266.961
 30
0.0
 11
178.9109999999999
 21
266.961
 31
0.0
  0
LINE
  5
14A2
330
166E
100
AcDbEntity
  8
8
100
AcDbLine
 10
209.654
 20
266.961
 30
0.0
 11
210.854
 21
266.961
 31
0.0
  0
LINE
  5
14A3
330
166E
100
AcDbEntity
  8
8
100
AcDbLine
 10
87.79200000000001
 20
267.321
 30
0.0
 11
88.90799999999998
 21
267.321
 31
0.0
  0
LINE
  5
14A4
330
166E
100
AcDbEntity
  8
8
100
AcDbLine
 10
120.523
 20
267.321
 30
0.0
 11
122.519
 21
267.321
 31
0.0
  0
LINE
  5
14A5
330
166E
100
AcDbEntity
  8
8
100
AcDbLine
 10
176.294
 20
267.321
 30
0.0
 11
178.289
 21
267.321
 31
0.0
  0
LINE
  5
14A6
330
166E
100
AcDbEntity
  8
8
100
AcDbLine
 10
209.904
 20
267.321
 30
0.0
 11
211.02
 21
267.321
 31
0.0
  0
LINE
  5
14A7
330
166E
100
AcDbEntity
  8
8
100
AcDbLine
 10
87.637
 20
267.681
 30
0.0
 11
88.723
 21
267.681
 31
0.0
  0
LINE
  5
14A8
330
166E
100
AcDbEntity
  8
8
100
AcDbLine
 10
121.145
 20
267.681
 30
0.0
 11
123.14
 21
267.681
 31
0.0
  0
LINE
  5
14A9
330
166E
100
AcDbEntity
  8
8
100
AcDbLine
 10
175.672
 20
267.681
 30
0.0
 11
177.667
 21
267.681
 31
0.0
  0
LINE
  5
14AA
330
166E
100
AcDbEntity
  8
8
100
AcDbLine
 10
210.089
 20
267.681
 30
0.0
 11
211.175
 21
267.681
 31
0.0
  0
LINE
  5
14AB
330
166E
100
AcDbEntity
  8
8
100
AcDbLine
 10
87.53399999999999
 20
268.041
 30
0.0
 11
88.57899999999998
 21
268.041
 31
0.0
  0
LINE
  5
14AC
330
166E
100
AcDbEntity
  8
8
100
AcDbLine
 10
121.766
 20
268.041
 30
0.0
 11
123.762
 21
268.041
 31
0.0
  0
LINE
  5
14AD
330
166E
100
AcDbEntity
  8
8
100
AcDbLine
 10
175.05
 20
268.041
 30
0.0
 11
177.046
 21
268.041
 31
0.0
  0
LINE
  5
14AE
330
166E
100
AcDbEntity
  8
8
100
AcDbLine
 10
210.233
 20
268.041
 30
0.0
 11
211.278
 21
268.041
 31
0.0
  0
LINE
  5
14AF
330
166E
100
AcDbEntity
  8
8
100
AcDbLine
 10
87.43999999999999
 20
268.401
 30
0.0
 11
88.465
 21
268.401
 31
0.0
  0
LINE
  5
14B0
330
166E
100
AcDbEntity
  8
8
100
AcDbLine
 10
122.388
 20
268.401
 30
0.0
 11
124.384
 21
268.401
 31
0.0
  0
LINE
  5
14B1
330
166E
100
AcDbEntity
  8
8
100
AcDbLine
 10
174.428
 20
268.401
 30
0.0
 11
176.424
 21
268.401
 31
0.0
  0
LINE
  5
14B2
330
166E
100
AcDbEntity
  8
8
100
AcDbLine
 10
210.347
 20
268.401
 30
0.0
 11
211.372
 21
268.401
 31
0.0
  0
LINE
  5
14B3
330
166E
100
AcDbEntity
  8
8
100
AcDbLine
 10
87.397
 20
268.761
 30
0.0
 11
88.405
 21
268.761
 31
0.0
  0
LINE
  5
14B4
330
166E
100
AcDbEntity
  8
8
100
AcDbLine
 10
123.01
 20
268.761
 30
0.0
 11
125.006
 21
268.761
 31
0.0
  0
LINE
  5
14B5
330
166E
100
AcDbEntity
  8
8
100
AcDbLine
 10
173.806
 20
268.761
 30
0.0
 11
175.802
 21
268.761
 31
0.0
  0
LINE
  5
14B6
330
166E
100
AcDbEntity
  8
8
100
AcDbLine
 10
210.407
 20
268.761
 30
0.0
 11
211.415
 21
268.761
 31
0.0
  0
LINE
  5
14B7
330
166E
100
AcDbEntity
  8
8
100
AcDbLine
 10
87.35600000000001
 20
269.121
 30
0.0
 11
88.36
 21
269.121
 31
0.0
  0
LINE
  5
14B8
330
166E
100
AcDbEntity
  8
8
100
AcDbLine
 10
123.632
 20
269.121
 30
0.0
 11
125.628
 21
269.121
 31
0.0
  0
LINE
  5
14B9
330
166E
100
AcDbEntity
  8
8
100
AcDbLine
 10
173.184
 20
269.121
 30
0.0
 11
175.18
 21
269.121
 31
0.0
  0
LINE
  5
14BA
330
166E
100
AcDbEntity
  8
8
100
AcDbLine
 10
210.452
 20
269.121
 30
0.0
 11
211.456
 21
269.121
 31
0.0
  0
LINE
  5
14BB
330
166E
100
AcDbEntity
  8
8
100
AcDbLine
 10
87.337
 20
269.481
 30
0.0
 11
88.33899999999999
 21
269.481
 31
0.0
  0
LINE
  5
14BC
330
166E
100
AcDbEntity
  8
8
100
AcDbLine
 10
124.254
 20
269.481
 30
0.0
 11
126.25
 21
269.481
 31
0.0
  0
LINE
  5
14BD
330
166E
100
AcDbEntity
  8
8
100
AcDbLine
 10
172.563
 20
269.481
 30
0.0
 11
174.558
 21
269.481
 31
0.0
  0
LINE
  5
14BE
330
166E
100
AcDbEntity
  8
8
100
AcDbLine
 10
210.473
 20
269.481
 30
0.0
 11
211.475
 21
269.481
 31
0.0
  0
LINE
  5
14BF
330
166E
100
AcDbEntity
  8
8
100
AcDbLine
 10
87.31900000000001
 20
269.841
 30
0.0
 11
88.31999999999998
 21
269.841
 31
0.0
  0
LINE
  5
14C0
330
166E
100
AcDbEntity
  8
8
100
AcDbLine
 10
124.875
 20
269.841
 30
0.0
 11
126.871
 21
269.841
 31
0.0
  0
LINE
  5
14C1
330
166E
100
AcDbEntity
  8
8
100
AcDbLine
 10
171.941
 20
269.841
 30
0.0
 11
173.937
 21
269.841
 31
0.0
  0
LINE
  5
14C2
330
166E
100
AcDbEntity
  8
8
100
AcDbLine
 10
210.492
 20
269.841
 30
0.0
 11
211.493
 21
269.841
 31
0.0
  0
LINE
  5
14C3
330
166E
100
AcDbEntity
  8
8
100
AcDbLine
 10
87.3
 20
270.201
 30
0.0
 11
88.30099999999999
 21
270.201
 31
0.0
  0
LINE
  5
14C4
330
166E
100
AcDbEntity
  8
8
100
AcDbLine
 10
125.497
 20
270.201
 30
0.0
 11
127.493
 21
270.201
 31
0.0
  0
LINE
  5
14C5
330
166E
100
AcDbEntity
  8
8
100
AcDbLine
 10
171.319
 20
270.201
 30
0.0
 11
173.315
 21
270.201
 31
0.0
  0
LINE
  5
14C6
330
166E
100
AcDbEntity
  8
8
100
AcDbLine
 10
210.511
 20
270.201
 30
0.0
 11
211.512
 21
270.201
 31
0.0
  0
LINE
  5
14C7
330
166E
100
AcDbEntity
  8
8
100
AcDbLine
 10
87.28100000000001
 20
270.561
 30
0.0
 11
88.282
 21
270.561
 31
0.0
  0
LINE
  5
14C8
330
166E
100
AcDbEntity
  8
8
100
AcDbLine
 10
126.119
 20
270.561
 30
0.0
 11
128.115
 21
270.561
 31
0.0
  0
LINE
  5
14C9
330
166E
100
AcDbEntity
  8
8
100
AcDbLine
 10
170.697
 20
270.561
 30
0.0
 11
172.693
 21
270.561
 31
0.0
  0
LINE
  5
14CA
330
166E
100
AcDbEntity
  8
8
100
AcDbLine
 10
210.53
 20
270.561
 30
0.0
 11
211.531
 21
270.561
 31
0.0
  0
LINE
  5
14CB
330
166E
100
AcDbEntity
  8
8
100
AcDbLine
 10
87.262
 20
270.921
 30
0.0
 11
88.26299999999999
 21
270.921
 31
0.0
  0
LINE
  5
14CC
330
166E
100
AcDbEntity
  8
8
100
AcDbLine
 10
126.741
 20
270.921
 30
0.0
 11
128.737
 21
270.921
 31
0.0
  0
LINE
  5
14CD
330
166E
100
AcDbEntity
  8
8
100
AcDbLine
 10
170.075
 20
270.921
 30
0.0
 11
172.071
 21
270.921
 31
0.0
  0
LINE
  5
14CE
330
166E
100
AcDbEntity
  8
8
100
AcDbLine
 10
210.549
 20
270.921
 30
0.0
 11
211.55
 21
270.921
 31
0.0
  0
LINE
  5
14CF
330
166E
100
AcDbEntity
  8
8
100
AcDbLine
 10
87.24299999999999
 20
271.281
 30
0.0
 11
88.244
 21
271.281
 31
0.0
  0
LINE
  5
14D0
330
166E
100
AcDbEntity
  8
8
100
AcDbLine
 10
127.363
 20
271.281
 30
0.0
 11
129.359
 21
271.281
 31
0.0
  0
LINE
  5
14D1
330
166E
100
AcDbEntity
  8
8
100
AcDbLine
 10
169.454
 20
271.281
 30
0.0
 11
171.449
 21
271.281
 31
0.0
  0
LINE
  5
14D2
330
166E
100
AcDbEntity
  8
8
100
AcDbLine
 10
210.568
 20
271.281
 30
0.0
 11
211.569
 21
271.281
 31
0.0
  0
LINE
  5
14D3
330
166E
100
AcDbEntity
  8
8
100
AcDbLine
 10
87.22399999999998
 20
271.641
 30
0.0
 11
88.22599999999999
 21
271.641
 31
0.0
  0
LINE
  5
14D4
330
166E
100
AcDbEntity
  8
8
100
AcDbLine
 10
127.985
 20
271.641
 30
0.0
 11
129.98
 21
271.641
 31
0.0
  0
LINE
  5
14D5
330
166E
100
AcDbEntity
  8
8
100
AcDbLine
 10
168.832
 20
271.641
 30
0.0
 11
170.827
 21
271.641
 31
0.0
  0
LINE
  5
14D6
330
166E
100
AcDbEntity
  8
8
100
AcDbLine
 10
210.586
 20
271.641
 30
0.0
 11
211.588
 21
271.641
 31
0.0
  0
LINE
  5
14D7
330
166E
100
AcDbEntity
  8
8
100
AcDbLine
 10
87.20499999999999
 20
272.001
 30
0.0
 11
88.207
 21
272.001
 31
0.0
  0
LINE
  5
14D8
330
166E
100
AcDbEntity
  8
8
100
AcDbLine
 10
128.606
 20
272.001
 30
0.0
 11
130.602
 21
272.001
 31
0.0
  0
LINE
  5
14D9
330
166E
100
AcDbEntity
  8
8
100
AcDbLine
 10
168.21
 20
272.001
 30
0.0
 11
170.206
 21
272.001
 31
0.0
  0
LINE
  5
14DA
330
166E
100
AcDbEntity
  8
8
100
AcDbLine
 10
210.605
 20
272.001
 30
0.0
 11
211.607
 21
272.001
 31
0.0
  0
LINE
  5
14DB
330
166E
100
AcDbEntity
  8
8
100
AcDbLine
 10
87.18700000000001
 20
272.361
 30
0.0
 11
88.18799999999999
 21
272.361
 31
0.0
  0
LINE
  5
14DC
330
166E
100
AcDbEntity
  8
8
100
AcDbLine
 10
129.228
 20
272.361
 30
0.0
 11
131.224
 21
272.361
 31
0.0
  0
LINE
  5
14DD
330
166E
100
AcDbEntity
  8
8
100
AcDbLine
 10
167.588
 20
272.361
 30
0.0
 11
169.584
 21
272.361
 31
0.0
  0
LINE
  5
14DE
330
166E
100
AcDbEntity
  8
8
100
AcDbLine
 10
210.624
 20
272.361
 30
0.0
 11
211.625
 21
272.361
 31
0.0
  0
LINE
  5
14DF
330
166E
100
AcDbEntity
  8
8
100
AcDbLine
 10
87.16799999999999
 20
272.721
 30
0.0
 11
88.169
 21
272.721
 31
0.0
  0
LINE
  5
14E0
330
166E
100
AcDbEntity
  8
8
100
AcDbLine
 10
129.85
 20
272.721
 30
0.0
 11
131.846
 21
272.721
 31
0.0
  0
LINE
  5
14E1
330
166E
100
AcDbEntity
  8
8
100
AcDbLine
 10
166.966
 20
272.721
 30
0.0
 11
168.962
 21
272.721
 31
0.0
  0
LINE
  5
14E2
330
166E
100
AcDbEntity
  8
8
100
AcDbLine
 10
210.643
 20
272.721
 30
0.0
 11
211.644
 21
272.721
 31
0.0
  0
LINE
  5
14E3
330
166E
100
AcDbEntity
  8
8
100
AcDbLine
 10
87.149
 20
273.0809999999999
 30
0.0
 11
88.15000000000001
 21
273.0809999999999
 31
0.0
  0
LINE
  5
14E4
330
166E
100
AcDbEntity
  8
8
100
AcDbLine
 10
130.472
 20
273.0809999999999
 30
0.0
 11
132.468
 21
273.0809999999999
 31
0.0
  0
LINE
  5
14E5
330
166E
100
AcDbEntity
  8
8
100
AcDbLine
 10
166.344
 20
273.0809999999999
 30
0.0
 11
168.34
 21
273.0809999999999
 31
0.0
  0
LINE
  5
14E6
330
166E
100
AcDbEntity
  8
8
100
AcDbLine
 10
210.662
 20
273.0809999999999
 30
0.0
 11
211.663
 21
273.0809999999999
 31
0.0
  0
LINE
  5
14E7
330
166E
100
AcDbEntity
  8
8
100
AcDbLine
 10
87.12999999999999
 20
273.441
 30
0.0
 11
88.131
 21
273.441
 31
0.0
  0
LINE
  5
14E8
330
166E
100
AcDbEntity
  8
8
100
AcDbLine
 10
131.094
 20
273.441
 30
0.0
 11
133.089
 21
273.441
 31
0.0
  0
LINE
  5
14E9
330
166E
100
AcDbEntity
  8
8
100
AcDbLine
 10
165.723
 20
273.441
 30
0.0
 11
167.718
 21
273.441
 31
0.0
  0
LINE
  5
14EA
330
166E
100
AcDbEntity
  8
8
100
AcDbLine
 10
210.681
 20
273.441
 30
0.0
 11
211.682
 21
273.441
 31
0.0
  0
LINE
  5
14EB
330
166E
100
AcDbEntity
  8
8
100
AcDbLine
 10
87.111
 20
273.801
 30
0.0
 11
88.11200000000001
 21
273.801
 31
0.0
  0
LINE
  5
14EC
330
166E
100
AcDbEntity
  8
8
100
AcDbLine
 10
131.716
 20
273.801
 30
0.0
 11
133.711
 21
273.801
 31
0.0
  0
LINE
  5
14ED
330
166E
100
AcDbEntity
  8
8
100
AcDbLine
 10
165.101
 20
273.801
 30
0.0
 11
167.097
 21
273.801
 31
0.0
  0
LINE
  5
14EE
330
166E
100
AcDbEntity
  8
8
100
AcDbLine
 10
210.7
 20
273.801
 30
0.0
 11
211.701
 21
273.801
 31
0.0
  0
LINE
  5
14EF
330
166E
100
AcDbEntity
  8
8
100
AcDbLine
 10
87.092
 20
274.161
 30
0.0
 11
88.094
 21
274.161
 31
0.0
  0
LINE
  5
14F0
330
166E
100
AcDbEntity
  8
8
100
AcDbLine
 10
132.337
 20
274.161
 30
0.0
 11
134.333
 21
274.161
 31
0.0
  0
LINE
  5
14F1
330
166E
100
AcDbEntity
  8
8
100
AcDbLine
 10
164.479
 20
274.161
 30
0.0
 11
166.475
 21
274.161
 31
0.0
  0
LINE
  5
14F2
330
166E
100
AcDbEntity
  8
8
100
AcDbLine
 10
210.718
 20
274.161
 30
0.0
 11
211.72
 21
274.161
 31
0.0
  0
LINE
  5
14F3
330
166E
100
AcDbEntity
  8
8
100
AcDbLine
 10
87.073
 20
274.521
 30
0.0
 11
88.075
 21
274.521
 31
0.0
  0
LINE
  5
14F4
330
166E
100
AcDbEntity
  8
8
100
AcDbLine
 10
132.959
 20
274.521
 30
0.0
 11
134.955
 21
274.521
 31
0.0
  0
LINE
  5
14F5
330
166E
100
AcDbEntity
  8
8
100
AcDbLine
 10
163.857
 20
274.521
 30
0.0
 11
165.853
 21
274.521
 31
0.0
  0
LINE
  5
14F6
330
166E
100
AcDbEntity
  8
8
100
AcDbLine
 10
210.737
 20
274.521
 30
0.0
 11
211.739
 21
274.521
 31
0.0
  0
LINE
  5
14F7
330
166E
100
AcDbEntity
  8
8
100
AcDbLine
 10
87.054
 20
274.881
 30
0.0
 11
88.056
 21
274.881
 31
0.0
  0
LINE
  5
14F8
330
166E
100
AcDbEntity
  8
8
100
AcDbLine
 10
133.581
 20
274.881
 30
0.0
 11
135.577
 21
274.881
 31
0.0
  0
LINE
  5
14F9
330
166E
100
AcDbEntity
  8
8
100
AcDbLine
 10
163.235
 20
274.881
 30
0.0
 11
165.231
 21
274.881
 31
0.0
  0
LINE
  5
14FA
330
166E
100
AcDbEntity
  8
8
100
AcDbLine
 10
210.756
 20
274.881
 30
0.0
 11
211.758
 21
274.881
 31
0.0
  0
LINE
  5
14FB
330
166E
100
AcDbEntity
  8
8
100
AcDbLine
 10
87.03599999999999
 20
275.241
 30
0.0
 11
88.037
 21
275.241
 31
0.0
  0
LINE
  5
14FC
330
166E
100
AcDbEntity
  8
8
100
AcDbLine
 10
134.203
 20
275.241
 30
0.0
 11
136.199
 21
275.241
 31
0.0
  0
LINE
  5
14FD
330
166E
100
AcDbEntity
  8
8
100
AcDbLine
 10
162.613
 20
275.241
 30
0.0
 11
164.609
 21
275.241
 31
0.0
  0
LINE
  5
14FE
330
166E
100
AcDbEntity
  8
8
100
AcDbLine
 10
210.775
 20
275.241
 30
0.0
 11
211.776
 21
275.241
 31
0.0
  0
LINE
  5
14FF
330
166E
100
AcDbEntity
  8
8
100
AcDbLine
 10
87.017
 20
275.601
 30
0.0
 11
88.01799999999998
 21
275.601
 31
0.0
  0
LINE
  5
1500
330
166E
100
AcDbEntity
  8
8
100
AcDbLine
 10
134.825
 20
275.601
 30
0.0
 11
163.987
 21
275.601
 31
0.0
  0
LINE
  5
1501
330
166E
100
AcDbEntity
  8
8
100
AcDbLine
 10
210.794
 20
275.601
 30
0.0
 11
211.795
 21
275.601
 31
0.0
  0
LINE
  5
1502
330
166E
100
AcDbEntity
  8
8
100
AcDbLine
 10
86.99799999999999
 20
275.961
 30
0.0
 11
87.99899999999999
 21
275.961
 31
0.0
  0
LINE
  5
1503
330
166E
100
AcDbEntity
  8
8
100
AcDbLine
 10
135.446
 20
275.961
 30
0.0
 11
163.366
 21
275.961
 31
0.0
  0
LINE
  5
1504
330
166E
100
AcDbEntity
  8
8
100
AcDbLine
 10
210.813
 20
275.961
 30
0.0
 11
211.814
 21
275.961
 31
0.0
  0
LINE
  5
1505
330
166E
100
AcDbEntity
  8
8
100
AcDbLine
 10
86.979
 20
276.321
 30
0.0
 11
87.98
 21
276.321
 31
0.0
  0
LINE
  5
1506
330
166E
100
AcDbEntity
  8
8
100
AcDbLine
 10
136.068
 20
276.321
 30
0.0
 11
162.744
 21
276.321
 31
0.0
  0
LINE
  5
1507
330
166E
100
AcDbEntity
  8
8
100
AcDbLine
 10
210.832
 20
276.321
 30
0.0
 11
211.833
 21
276.321
 31
0.0
  0
LINE
  5
1508
330
166E
100
AcDbEntity
  8
8
100
AcDbLine
 10
86.95999999999999
 20
276.681
 30
0.0
 11
87.961
 21
276.681
 31
0.0
  0
LINE
  5
1509
330
166E
100
AcDbEntity
  8
8
100
AcDbLine
 10
210.851
 20
276.681
 30
0.0
 11
211.852
 21
276.681
 31
0.0
  0
LINE
  5
150A
330
166E
100
AcDbEntity
  8
8
100
AcDbLine
 10
86.941
 20
277.041
 30
0.0
 11
87.94299999999999
 21
277.041
 31
0.0
  0
LINE
  5
150B
330
166E
100
AcDbEntity
  8
8
100
AcDbLine
 10
210.869
 20
277.041
 30
0.0
 11
211.871
 21
277.041
 31
0.0
  0
LINE
  5
150C
330
166E
100
AcDbEntity
  8
8
100
AcDbLine
 10
86.92200000000001
 20
277.401
 30
0.0
 11
87.92399999999998
 21
277.401
 31
0.0
  0
LINE
  5
150D
330
166E
100
AcDbEntity
  8
8
100
AcDbLine
 10
210.888
 20
277.401
 30
0.0
 11
211.89
 21
277.401
 31
0.0
  0
LINE
  5
150E
330
166E
100
AcDbEntity
  8
8
100
AcDbLine
 10
86.904
 20
277.761
 30
0.0
 11
87.90499999999999
 21
277.761
 31
0.0
  0
LINE
  5
150F
330
166E
100
AcDbEntity
  8
8
100
AcDbLine
 10
210.907
 20
277.761
 30
0.0
 11
211.908
 21
277.761
 31
0.0
  0
LINE
  5
1510
330
166E
100
AcDbEntity
  8
8
100
AcDbLine
 10
86.88500000000001
 20
278.121
 30
0.0
 11
87.886
 21
278.121
 31
0.0
  0
LINE
  5
1511
330
166E
100
AcDbEntity
  8
8
100
AcDbLine
 10
210.926
 20
278.121
 30
0.0
 11
211.927
 21
278.121
 31
0.0
  0
LINE
  5
1512
330
166E
100
AcDbEntity
  8
8
100
AcDbLine
 10
86.866
 20
278.481
 30
0.0
 11
87.86700000000001
 21
278.481
 31
0.0
  0
LINE
  5
1513
330
166E
100
AcDbEntity
  8
8
100
AcDbLine
 10
210.945
 20
278.481
 30
0.0
 11
211.946
 21
278.481
 31
0.0
  0
LINE
  5
1514
330
166E
100
AcDbEntity
  8
8
100
AcDbLine
 10
86.84700000000001
 20
278.841
 30
0.0
 11
87.848
 21
278.841
 31
0.0
  0
LINE
  5
1515
330
166E
100
AcDbEntity
  8
8
100
AcDbLine
 10
210.964
 20
278.841
 30
0.0
 11
211.965
 21
278.841
 31
0.0
  0
LINE
  5
1516
330
166E
100
AcDbEntity
  8
8
100
AcDbLine
 10
86.82799999999998
 20
279.201
 30
0.0
 11
87.82899999999999
 21
279.201
 31
0.0
  0
LINE
  5
1517
330
166E
100
AcDbEntity
  8
8
100
AcDbLine
 10
210.983
 20
279.201
 30
0.0
 11
211.984
 21
279.201
 31
0.0
  0
LINE
  5
1518
330
166E
100
AcDbEntity
  8
8
100
AcDbLine
 10
86.80899999999999
 20
279.561
 30
0.0
 11
87.811
 21
279.561
 31
0.0
  0
LINE
  5
1519
330
166E
100
AcDbEntity
  8
8
100
AcDbLine
 10
211.001
 20
279.561
 30
0.0
 11
212.003
 21
279.561
 31
0.0
  0
LINE
  5
151A
330
166E
100
AcDbEntity
  8
8
100
AcDbLine
 10
86.79
 20
279.921
 30
0.0
 11
87.79200000000001
 21
279.921
 31
0.0
  0
LINE
  5
151B
330
166E
100
AcDbEntity
  8
8
100
AcDbLine
 10
211.02
 20
279.921
 30
0.0
 11
212.022
 21
279.921
 31
0.0
  0
LINE
  5
151C
330
166E
100
AcDbEntity
  8
8
100
AcDbLine
 10
86.77100000000001
 20
280.281
 30
0.0
 11
87.773
 21
280.281
 31
0.0
  0
LINE
  5
151D
330
166E
100
AcDbEntity
  8
8
100
AcDbLine
 10
211.039
 20
280.281
 30
0.0
 11
212.041
 21
280.281
 31
0.0
  0
LINE
  5
151E
330
166E
100
AcDbEntity
  8
8
100
AcDbLine
 10
86.75299999999998
 20
280.6409999999999
 30
0.0
 11
87.75399999999999
 21
280.6409999999999
 31
0.0
  0
LINE
  5
151F
330
166E
100
AcDbEntity
  8
8
100
AcDbLine
 10
211.058
 20
280.6409999999999
 30
0.0
 11
212.059
 21
280.6409999999999
 31
0.0
  0
LINE
  5
1520
330
166E
100
AcDbEntity
  8
8
100
AcDbLine
 10
86.73399999999999
 20
281.001
 30
0.0
 11
87.735
 21
281.001
 31
0.0
  0
LINE
  5
1521
330
166E
100
AcDbEntity
  8
8
100
AcDbLine
 10
211.077
 20
281.001
 30
0.0
 11
212.078
 21
281.001
 31
0.0
  0
LINE
  5
1522
330
166E
100
AcDbEntity
  8
8
100
AcDbLine
 10
86.71499999999999
 20
281.361
 30
0.0
 11
87.71600000000001
 21
281.361
 31
0.0
  0
LINE
  5
1523
330
166E
100
AcDbEntity
  8
8
100
AcDbLine
 10
211.096
 20
281.361
 30
0.0
 11
212.097
 21
281.361
 31
0.0
  0
LINE
  5
1524
330
166E
100
AcDbEntity
  8
8
100
AcDbLine
 10
86.696
 20
281.721
 30
0.0
 11
87.697
 21
281.721
 31
0.0
  0
LINE
  5
1525
330
166E
100
AcDbEntity
  8
8
100
AcDbLine
 10
211.115
 20
281.721
 30
0.0
 11
212.116
 21
281.721
 31
0.0
  0
LINE
  5
1526
330
166E
100
AcDbEntity
  8
8
100
AcDbLine
 10
86.67700000000001
 20
282.081
 30
0.0
 11
87.67799999999999
 21
282.081
 31
0.0
  0
LINE
  5
1527
330
166E
100
AcDbEntity
  8
8
100
AcDbLine
 10
211.134
 20
282.081
 30
0.0
 11
212.135
 21
282.081
 31
0.0
  0
LINE
  5
1528
330
166E
100
AcDbEntity
  8
8
100
AcDbLine
 10
86.65799999999999
 20
282.441
 30
0.0
 11
87.66
 21
282.441
 31
0.0
  0
LINE
  5
1529
330
166E
100
AcDbEntity
  8
8
100
AcDbLine
 10
211.152
 20
282.441
 30
0.0
 11
212.154
 21
282.441
 31
0.0
  0
LINE
  5
152A
330
166E
100
AcDbEntity
  8
8
100
AcDbLine
 10
86.63899999999999
 20
282.801
 30
0.0
 11
87.641
 21
282.801
 31
0.0
  0
LINE
  5
152B
330
166E
100
AcDbEntity
  8
8
100
AcDbLine
 10
211.171
 20
282.801
 30
0.0
 11
212.173
 21
282.801
 31
0.0
  0
LINE
  5
152C
330
166E
100
AcDbEntity
  8
8
100
AcDbLine
 10
86.621
 20
283.161
 30
0.0
 11
87.62200000000001
 21
283.161
 31
0.0
  0
LINE
  5
152D
330
166E
100
AcDbEntity
  8
8
100
AcDbLine
 10
211.19
 20
283.161
 30
0.0
 11
212.191
 21
283.161
 31
0.0
  0
LINE
  5
152E
330
166E
100
AcDbEntity
  8
8
100
AcDbLine
 10
86.60200000000001
 20
283.521
 30
0.0
 11
87.60299999999999
 21
283.521
 31
0.0
  0
LINE
  5
152F
330
166E
100
AcDbEntity
  8
8
100
AcDbLine
 10
211.209
 20
283.521
 30
0.0
 11
212.21
 21
283.521
 31
0.0
  0
LINE
  5
1530
330
166E
100
AcDbEntity
  8
8
100
AcDbLine
 10
86.583
 20
283.881
 30
0.0
 11
87.58399999999999
 21
283.881
 31
0.0
  0
LINE
  5
1531
330
166E
100
AcDbEntity
  8
8
100
AcDbLine
 10
211.228
 20
283.881
 30
0.0
 11
212.229
 21
283.881
 31
0.0
  0
LINE
  5
1532
330
166E
100
AcDbEntity
  8
8
100
AcDbLine
 10
86.56399999999999
 20
284.241
 30
0.0
 11
87.565
 21
284.241
 31
0.0
  0
LINE
  5
1533
330
166E
100
AcDbEntity
  8
8
100
AcDbLine
 10
211.247
 20
284.241
 30
0.0
 11
212.248
 21
284.241
 31
0.0
  0
LINE
  5
1534
330
166E
100
AcDbEntity
  8
8
100
AcDbLine
 10
86.545
 20
284.601
 30
0.0
 11
87.54600000000001
 21
284.601
 31
0.0
  0
LINE
  5
1535
330
166E
100
AcDbEntity
  8
8
100
AcDbLine
 10
211.266
 20
284.601
 30
0.0
 11
212.267
 21
284.601
 31
0.0
  0
LINE
  5
1536
330
166E
100
AcDbEntity
  8
8
100
AcDbLine
 10
86.52600000000001
 20
284.961
 30
0.0
 11
87.52799999999998
 21
284.961
 31
0.0
  0
LINE
  5
1537
330
166E
100
AcDbEntity
  8
8
100
AcDbLine
 10
211.284
 20
284.961
 30
0.0
 11
212.286
 21
284.961
 31
0.0
  0
LINE
  5
1538
330
166E
100
AcDbEntity
  8
8
100
AcDbLine
 10
86.507
 20
285.321
 30
0.0
 11
87.50899999999999
 21
285.321
 31
0.0
  0
LINE
  5
1539
330
166E
100
AcDbEntity
  8
8
100
AcDbLine
 10
211.303
 20
285.321
 30
0.0
 11
212.305
 21
285.321
 31
0.0
  0
LINE
  5
153A
330
166E
100
AcDbEntity
  8
8
100
AcDbLine
 10
86.48799999999999
 20
285.681
 30
0.0
 11
87.49
 21
285.681
 31
0.0
  0
LINE
  5
153B
330
166E
100
AcDbEntity
  8
8
100
AcDbLine
 10
211.322
 20
285.681
 30
0.0
 11
212.324
 21
285.681
 31
0.0
  0
LINE
  5
153C
330
166E
100
AcDbEntity
  8
8
100
AcDbLine
 10
86.47
 20
286.041
 30
0.0
 11
87.47100000000001
 21
286.041
 31
0.0
  0
LINE
  5
153D
330
166E
100
AcDbEntity
  8
8
100
AcDbLine
 10
211.341
 20
286.041
 30
0.0
 11
212.342
 21
286.041
 31
0.0
  0
LINE
  5
153E
330
166E
100
AcDbEntity
  8
8
100
AcDbLine
 10
86.45100000000001
 20
286.401
 30
0.0
 11
87.45200000000002
 21
286.401
 31
0.0
  0
LINE
  5
153F
330
166E
100
AcDbEntity
  8
8
100
AcDbLine
 10
211.36
 20
286.401
 30
0.0
 11
212.361
 21
286.401
 31
0.0
  0
LINE
  5
1540
330
166E
100
AcDbEntity
  8
8
100
AcDbLine
 10
86.432
 20
286.7609999999999
 30
0.0
 11
87.43299999999999
 21
286.7609999999999
 31
0.0
  0
LINE
  5
1541
330
166E
100
AcDbEntity
  8
8
100
AcDbLine
 10
211.379
 20
286.7609999999999
 30
0.0
 11
212.38
 21
286.7609999999999
 31
0.0
  0
LINE
  5
1542
330
166E
100
AcDbEntity
  8
8
100
AcDbLine
 10
86.41299999999999
 20
287.121
 30
0.0
 11
87.414
 21
287.121
 31
0.0
  0
LINE
  5
1543
330
166E
100
AcDbEntity
  8
8
100
AcDbLine
 10
211.398
 20
287.121
 30
0.0
 11
212.399
 21
287.121
 31
0.0
  0
LINE
  5
1544
330
166E
100
AcDbEntity
  8
8
100
AcDbLine
 10
86.394
 20
287.481
 30
0.0
 11
87.39499999999999
 21
287.481
 31
0.0
  0
LINE
  5
1545
330
166E
100
AcDbEntity
  8
8
100
AcDbLine
 10
211.417
 20
287.481
 30
0.0
 11
212.418
 21
287.481
 31
0.0
  0
LINE
  5
1546
330
166E
100
AcDbEntity
  8
8
100
AcDbLine
 10
86.37500000000001
 20
287.841
 30
0.0
 11
87.37700000000002
 21
287.841
 31
0.0
  0
LINE
  5
1547
330
166E
100
AcDbEntity
  8
8
100
AcDbLine
 10
211.435
 20
287.841
 30
0.0
 11
212.437
 21
287.841
 31
0.0
  0
LINE
  5
1548
330
166E
100
AcDbEntity
  8
8
100
AcDbLine
 10
86.35600000000001
 20
288.201
 30
0.0
 11
87.35799999999999
 21
288.201
 31
0.0
  0
LINE
  5
1549
330
166E
100
AcDbEntity
  8
8
100
AcDbLine
 10
211.454
 20
288.201
 30
0.0
 11
212.456
 21
288.201
 31
0.0
  0
LINE
  5
154A
330
166E
100
AcDbEntity
  8
8
100
AcDbLine
 10
86.33799999999999
 20
288.561
 30
0.0
 11
87.339
 21
288.561
 31
0.0
  0
LINE
  5
154B
330
166E
100
AcDbEntity
  8
8
100
AcDbLine
 10
211.473
 20
288.561
 30
0.0
 11
212.474
 21
288.561
 31
0.0
  0
LINE
  5
154C
330
166E
100
AcDbEntity
  8
8
100
AcDbLine
 10
86.31899999999999
 20
288.921
 30
0.0
 11
87.31999999999999
 21
288.921
 31
0.0
  0
LINE
  5
154D
330
166E
100
AcDbEntity
  8
8
100
AcDbLine
 10
211.492
 20
288.921
 30
0.0
 11
212.493
 21
288.921
 31
0.0
  0
LINE
  5
154E
330
166E
100
AcDbEntity
  8
8
100
AcDbLine
 10
86.3
 20
289.281
 30
0.0
 11
87.301
 21
289.281
 31
0.0
  0
LINE
  5
154F
330
166E
100
AcDbEntity
  8
8
100
AcDbLine
 10
211.511
 20
289.281
 30
0.0
 11
212.512
 21
289.281
 31
0.0
  0
LINE
  5
1550
330
166E
100
AcDbEntity
  8
8
100
AcDbLine
 10
86.28100000000001
 20
289.6409999999999
 30
0.0
 11
87.28200000000001
 21
289.6409999999999
 31
0.0
  0
LINE
  5
1551
330
166E
100
AcDbEntity
  8
8
100
AcDbLine
 10
211.53
 20
289.6409999999999
 30
0.0
 11
212.531
 21
289.6409999999999
 31
0.0
  0
LINE
  5
1552
330
166E
100
AcDbEntity
  8
8
100
AcDbLine
 10
86.262
 20
290.001
 30
0.0
 11
87.263
 21
290.001
 31
0.0
  0
LINE
  5
1553
330
166E
100
AcDbEntity
  8
8
100
AcDbLine
 10
211.549
 20
290.001
 30
0.0
 11
212.55
 21
290.001
 31
0.0
  0
LINE
  5
1554
330
166E
100
AcDbEntity
  8
8
100
AcDbLine
 10
86.24299999999999
 20
290.361
 30
0.0
 11
87.245
 21
290.361
 31
0.0
  0
LINE
  5
1555
330
166E
100
AcDbEntity
  8
8
100
AcDbLine
 10
211.567
 20
290.361
 30
0.0
 11
212.569
 21
290.361
 31
0.0
  0
LINE
  5
1556
330
166E
100
AcDbEntity
  8
8
100
AcDbLine
 10
86.22399999999998
 20
290.721
 30
0.0
 11
87.22599999999999
 21
290.721
 31
0.0
  0
LINE
  5
1557
330
166E
100
AcDbEntity
  8
8
100
AcDbLine
 10
211.586
 20
290.721
 30
0.0
 11
212.588
 21
290.721
 31
0.0
  0
LINE
  5
1558
330
166E
100
AcDbEntity
  8
8
100
AcDbLine
 10
86.20499999999999
 20
291.081
 30
0.0
 11
87.207
 21
291.081
 31
0.0
  0
LINE
  5
1559
330
166E
100
AcDbEntity
  8
8
100
AcDbLine
 10
211.605
 20
291.081
 30
0.0
 11
212.607
 21
291.081
 31
0.0
  0
LINE
  5
155A
330
166E
100
AcDbEntity
  8
8
100
AcDbLine
 10
86.18700000000002
 20
291.441
 30
0.0
 11
87.18799999999999
 21
291.441
 31
0.0
  0
LINE
  5
155B
330
166E
100
AcDbEntity
  8
8
100
AcDbLine
 10
211.624
 20
291.441
 30
0.0
 11
212.625
 21
291.441
 31
0.0
  0
LINE
  5
155C
330
166E
100
AcDbEntity
  8
8
100
AcDbLine
 10
86.16799999999999
 20
291.801
 30
0.0
 11
87.169
 21
291.801
 31
0.0
  0
LINE
  5
155D
330
166E
100
AcDbEntity
  8
8
100
AcDbLine
 10
211.643
 20
291.801
 30
0.0
 11
212.644
 21
291.801
 31
0.0
  0
LINE
  5
155E
330
166E
100
AcDbEntity
  8
8
100
AcDbLine
 10
86.149
 20
292.161
 30
0.0
 11
87.15000000000001
 21
292.161
 31
0.0
  0
LINE
  5
155F
330
166E
100
AcDbEntity
  8
8
100
AcDbLine
 10
211.662
 20
292.161
 30
0.0
 11
212.663
 21
292.161
 31
0.0
  0
LINE
  5
1560
330
166E
100
AcDbEntity
  8
8
100
AcDbLine
 10
86.12999999999999
 20
292.5209999999999
 30
0.0
 11
87.131
 21
292.5209999999999
 31
0.0
  0
LINE
  5
1561
330
166E
100
AcDbEntity
  8
8
100
AcDbLine
 10
211.681
 20
292.5209999999999
 30
0.0
 11
212.682
 21
292.5209999999999
 31
0.0
  0
LINE
  5
1562
330
166E
100
AcDbEntity
  8
8
100
AcDbLine
 10
86.111
 20
292.881
 30
0.0
 11
87.11200000000001
 21
292.881
 31
0.0
  0
LINE
  5
1563
330
166E
100
AcDbEntity
  8
8
100
AcDbLine
 10
211.7
 20
292.881
 30
0.0
 11
212.701
 21
292.881
 31
0.0
  0
LINE
  5
1564
330
166E
100
AcDbEntity
  8
8
100
AcDbLine
 10
86.09200000000001
 20
293.241
 30
0.0
 11
87.094
 21
293.241
 31
0.0
  0
LINE
  5
1565
330
166E
100
AcDbEntity
  8
8
100
AcDbLine
 10
211.718
 20
293.241
 30
0.0
 11
212.72
 21
293.241
 31
0.0
  0
LINE
  5
1566
330
166E
100
AcDbEntity
  8
8
100
AcDbLine
 10
86.073
 20
293.601
 30
0.0
 11
87.07500000000001
 21
293.601
 31
0.0
  0
LINE
  5
1567
330
166E
100
AcDbEntity
  8
8
100
AcDbLine
 10
211.737
 20
293.601
 30
0.0
 11
212.739
 21
293.601
 31
0.0
  0
LINE
  5
1568
330
166E
100
AcDbEntity
  8
8
100
AcDbLine
 10
86.05500000000001
 20
293.961
 30
0.0
 11
87.056
 21
293.961
 31
0.0
  0
LINE
  5
1569
330
166E
100
AcDbEntity
  8
8
100
AcDbLine
 10
211.756
 20
293.961
 30
0.0
 11
212.757
 21
293.961
 31
0.0
  0
LINE
  5
156A
330
166E
100
AcDbEntity
  8
8
100
AcDbLine
 10
86.036
 20
294.321
 30
0.0
 11
87.03700000000001
 21
294.321
 31
0.0
  0
LINE
  5
156B
330
166E
100
AcDbEntity
  8
8
100
AcDbLine
 10
211.775
 20
294.321
 30
0.0
 11
212.776
 21
294.321
 31
0.0
  0
LINE
  5
156C
330
166E
100
AcDbEntity
  8
8
100
AcDbLine
 10
86.01700000000001
 20
294.681
 30
0.0
 11
87.01799999999998
 21
294.681
 31
0.0
  0
LINE
  5
156D
330
166E
100
AcDbEntity
  8
8
100
AcDbLine
 10
211.794
 20
294.681
 30
0.0
 11
212.795
 21
294.681
 31
0.0
  0
LINE
  5
156E
330
166E
100
AcDbEntity
  8
8
100
AcDbLine
 10
85.998
 20
295.041
 30
0.0
 11
86.99899999999999
 21
295.041
 31
0.0
  0
LINE
  5
156F
330
166E
100
AcDbEntity
  8
8
100
AcDbLine
 10
211.813
 20
295.041
 30
0.0
 11
212.814
 21
295.041
 31
0.0
  0
LINE
  5
1570
330
166E
100
AcDbEntity
  8
8
100
AcDbLine
 10
85.979
 20
295.401
 30
0.0
 11
86.98
 21
295.401
 31
0.0
  0
LINE
  5
1571
330
166E
100
AcDbEntity
  8
8
100
AcDbLine
 10
211.832
 20
295.401
 30
0.0
 11
212.833
 21
295.401
 31
0.0
  0
LINE
  5
1572
330
166E
100
AcDbEntity
  8
8
100
AcDbLine
 10
85.96
 20
295.761
 30
0.0
 11
86.96200000000001
 21
295.761
 31
0.0
  0
LINE
  5
1573
330
166E
100
AcDbEntity
  8
8
100
AcDbLine
 10
211.85
 20
295.761
 30
0.0
 11
212.852
 21
295.761
 31
0.0
  0
LINE
  5
1574
330
166E
100
AcDbEntity
  8
8
100
AcDbLine
 10
85.941
 20
296.121
 30
0.0
 11
86.943
 21
296.121
 31
0.0
  0
LINE
  5
1575
330
166E
100
AcDbEntity
  8
8
100
AcDbLine
 10
211.869
 20
296.121
 30
0.0
 11
212.871
 21
296.121
 31
0.0
  0
LINE
  5
1576
330
166E
100
AcDbEntity
  8
8
100
AcDbLine
 10
85.92200000000001
 20
296.481
 30
0.0
 11
86.92399999999999
 21
296.481
 31
0.0
  0
LINE
  5
1577
330
166E
100
AcDbEntity
  8
8
100
AcDbLine
 10
211.888
 20
296.481
 30
0.0
 11
212.89
 21
296.481
 31
0.0
  0
LINE
  5
1578
330
166E
100
AcDbEntity
  8
8
100
AcDbLine
 10
85.904
 20
296.841
 30
0.0
 11
86.905
 21
296.841
 31
0.0
  0
LINE
  5
1579
330
166E
100
AcDbEntity
  8
8
100
AcDbLine
 10
211.907
 20
296.841
 30
0.0
 11
212.908
 21
296.841
 31
0.0
  0
LINE
  5
157A
330
166E
100
AcDbEntity
  8
8
100
AcDbLine
 10
85.88500000000001
 20
297.201
 30
0.0
 11
86.886
 21
297.201
 31
0.0
  0
LINE
  5
157B
330
166E
100
AcDbEntity
  8
8
100
AcDbLine
 10
211.926
 20
297.201
 30
0.0
 11
212.927
 21
297.201
 31
0.0
  0
LINE
  5
157C
330
166E
100
AcDbEntity
  8
8
100
AcDbLine
 10
85.866
 20
297.5609999999999
 30
0.0
 11
86.867
 21
297.5609999999999
 31
0.0
  0
LINE
  5
157D
330
166E
100
AcDbEntity
  8
8
100
AcDbLine
 10
211.945
 20
297.5609999999999
 30
0.0
 11
212.946
 21
297.5609999999999
 31
0.0
  0
LINE
  5
157E
330
166E
100
AcDbEntity
  8
8
100
AcDbLine
 10
85.84700000000001
 20
297.921
 30
0.0
 11
86.848
 21
297.921
 31
0.0
  0
LINE
  5
157F
330
166E
100
AcDbEntity
  8
8
100
AcDbLine
 10
211.964
 20
297.921
 30
0.0
 11
212.965
 21
297.921
 31
0.0
  0
LINE
  5
1580
330
166E
100
AcDbEntity
  8
8
100
AcDbLine
 10
85.82799999999998
 20
298.281
 30
0.0
 11
86.829
 21
298.281
 31
0.0
  0
LINE
  5
1581
330
166E
100
AcDbEntity
  8
8
100
AcDbLine
 10
211.983
 20
298.281
 30
0.0
 11
212.984
 21
298.281
 31
0.0
  0
LINE
  5
1582
330
166E
100
AcDbEntity
  8
8
100
AcDbLine
 10
85.80899999999999
 20
298.641
 30
0.0
 11
86.811
 21
298.641
 31
0.0
  0
LINE
  5
1583
330
166E
100
AcDbEntity
  8
8
100
AcDbLine
 10
212.001
 20
298.641
 30
0.0
 11
213.003
 21
298.641
 31
0.0
  0
LINE
  5
1584
330
166E
100
AcDbEntity
  8
8
100
AcDbLine
 10
85.79
 20
299.001
 30
0.0
 11
86.79199999999999
 21
299.001
 31
0.0
  0
LINE
  5
1585
330
166E
100
AcDbEntity
  8
8
100
AcDbLine
 10
212.02
 20
299.001
 30
0.0
 11
213.022
 21
299.001
 31
0.0
  0
LINE
  5
1586
330
166E
100
AcDbEntity
  8
8
100
AcDbLine
 10
85.77200000000001
 20
299.361
 30
0.0
 11
86.773
 21
299.361
 31
0.0
  0
LINE
  5
1587
330
166E
100
AcDbEntity
  8
8
100
AcDbLine
 10
212.039
 20
299.361
 30
0.0
 11
213.04
 21
299.361
 31
0.0
  0
LINE
  5
1588
330
166E
100
AcDbEntity
  8
8
100
AcDbLine
 10
85.75299999999998
 20
299.721
 30
0.0
 11
86.75399999999999
 21
299.721
 31
0.0
  0
LINE
  5
1589
330
166E
100
AcDbEntity
  8
8
100
AcDbLine
 10
212.058
 20
299.721
 30
0.0
 11
213.059
 21
299.721
 31
0.0
  0
LINE
  5
158A
330
166E
100
AcDbEntity
  8
8
100
AcDbLine
 10
85.73399999999999
 20
300.0809999999999
 30
0.0
 11
86.735
 21
300.0809999999999
 31
0.0
  0
LINE
  5
158B
330
166E
100
AcDbEntity
  8
8
100
AcDbLine
 10
212.077
 20
300.0809999999999
 30
0.0
 11
213.078
 21
300.0809999999999
 31
0.0
  0
LINE
  5
158C
330
166E
100
AcDbEntity
  8
8
100
AcDbLine
 10
85.715
 20
300.441
 30
0.0
 11
86.71600000000001
 21
300.441
 31
0.0
  0
LINE
  5
158D
330
166E
100
AcDbEntity
  8
8
100
AcDbLine
 10
212.096
 20
300.441
 30
0.0
 11
213.097
 21
300.441
 31
0.0
  0
LINE
  5
158E
330
166E
100
AcDbEntity
  8
8
100
AcDbLine
 10
85.69599999999999
 20
300.801
 30
0.0
 11
86.697
 21
300.801
 31
0.0
  0
LINE
  5
158F
330
166E
100
AcDbEntity
  8
8
100
AcDbLine
 10
212.115
 20
300.801
 30
0.0
 11
213.116
 21
300.801
 31
0.0
  0
LINE
  5
1590
330
166E
100
AcDbEntity
  8
8
100
AcDbLine
 10
85.677
 20
301.161
 30
0.0
 11
86.67900000000001
 21
301.161
 31
0.0
  0
LINE
  5
1591
330
166E
100
AcDbEntity
  8
8
100
AcDbLine
 10
212.133
 20
301.161
 30
0.0
 11
213.135
 21
301.161
 31
0.0
  0
LINE
  5
1592
330
166E
100
AcDbEntity
  8
8
100
AcDbLine
 10
85.65799999999999
 20
301.521
 30
0.0
 11
86.66
 21
301.521
 31
0.0
  0
LINE
  5
1593
330
166E
100
AcDbEntity
  8
8
100
AcDbLine
 10
212.152
 20
301.521
 30
0.0
 11
213.154
 21
301.521
 31
0.0
  0
LINE
  5
1594
330
166E
100
AcDbEntity
  8
8
100
AcDbLine
 10
85.639
 20
301.881
 30
0.0
 11
86.64100000000001
 21
301.881
 31
0.0
  0
LINE
  5
1595
330
166E
100
AcDbEntity
  8
8
100
AcDbLine
 10
212.171
 20
301.881
 30
0.0
 11
213.173
 21
301.881
 31
0.0
  0
LINE
  5
1596
330
166E
100
AcDbEntity
  8
8
100
AcDbLine
 10
85.621
 20
302.241
 30
0.0
 11
86.62200000000002
 21
302.241
 31
0.0
  0
LINE
  5
1597
330
166E
100
AcDbEntity
  8
8
100
AcDbLine
 10
212.19
 20
302.241
 30
0.0
 11
213.191
 21
302.241
 31
0.0
  0
LINE
  5
1598
330
166E
100
AcDbEntity
  8
8
100
AcDbLine
 10
85.59499999999999
 20
302.601
 30
0.0
 11
86.60099999999999
 21
302.601
 31
0.0
  0
LINE
  5
1599
330
166E
100
AcDbEntity
  8
8
100
AcDbLine
 10
212.211
 20
302.601
 30
0.0
 11
213.217
 21
302.601
 31
0.0
  0
LINE
  5
159A
330
166E
100
AcDbEntity
  8
8
100
AcDbLine
 10
85.54700000000002
 20
302.961
 30
0.0
 11
86.55599999999999
 21
302.961
 31
0.0
  0
LINE
  5
159B
330
166E
100
AcDbEntity
  8
8
100
AcDbLine
 10
212.256
 20
302.961
 30
0.0
 11
213.265
 21
302.961
 31
0.0
  0
LINE
  5
159C
330
166E
100
AcDbEntity
  8
8
100
AcDbLine
 10
85.447
 20
303.321
 30
0.0
 11
86.49600000000001
 21
303.321
 31
0.0
  0
LINE
  5
159D
330
166E
100
AcDbEntity
  8
8
100
AcDbLine
 10
212.317
 20
303.321
 30
0.0
 11
213.365
 21
303.321
 31
0.0
  0
LINE
  5
159E
330
166E
100
AcDbEntity
  8
8
100
AcDbLine
 10
85.30700000000001
 20
303.681
 30
0.0
 11
86.38200000000001
 21
303.681
 31
0.0
  0
LINE
  5
159F
330
166E
100
AcDbEntity
  8
8
100
AcDbLine
 10
212.43
 20
303.681
 30
0.0
 11
213.505
 21
303.681
 31
0.0
  0
LINE
  5
15A0
330
166E
100
AcDbEntity
  8
8
100
AcDbLine
 10
85.098
 20
304.041
 30
0.0
 11
86.23700000000001
 21
304.041
 31
0.0
  0
LINE
  5
15A1
330
166E
100
AcDbEntity
  8
8
100
AcDbLine
 10
212.575
 20
304.041
 30
0.0
 11
213.714
 21
304.041
 31
0.0
  0
LINE
  5
15A2
330
166E
100
AcDbEntity
  8
8
100
AcDbLine
 10
84.80500000000001
 20
304.401
 30
0.0
 11
86.05299999999999
 21
304.401
 31
0.0
  0
LINE
  5
15A3
330
166E
100
AcDbEntity
  8
8
100
AcDbLine
 10
212.759
 20
304.401
 30
0.0
 11
214.007
 21
304.401
 31
0.0
  0
LINE
  5
15A4
330
166E
100
AcDbEntity
  8
8
100
AcDbLine
 10
84.40299999999998
 20
304.761
 30
0.0
 11
85.80299999999999
 21
304.761
 31
0.0
  0
LINE
  5
15A5
330
166E
100
AcDbEntity
  8
8
100
AcDbLine
 10
213.009
 20
304.761
 30
0.0
 11
214.409
 21
304.761
 31
0.0
  0
LINE
  5
15A6
330
166E
100
AcDbEntity
  8
8
100
AcDbLine
 10
83.792
 20
305.121
 30
0.0
 11
85.50399999999999
 21
305.121
 31
0.0
  0
LINE
  5
15A7
330
166E
100
AcDbEntity
  8
8
100
AcDbLine
 10
213.308
 20
305.121
 30
0.0
 11
215.02
 21
305.121
 31
0.0
  0
LINE
  5
15A8
330
166E
100
AcDbEntity
  8
8
100
AcDbLine
 10
74.906
 20
305.481
 30
0.0
 11
85.12500000000001
 21
305.481
 31
0.0
  0
LINE
  5
15A9
330
166E
100
AcDbEntity
  8
8
100
AcDbLine
 10
213.687
 20
305.481
 30
0.0
 11
223.906
 21
305.481
 31
0.0
  0
LINE
  5
15AA
330
166E
100
AcDbEntity
  8
8
100
AcDbLine
 10
74.906
 20
305.841
 30
0.0
 11
84.592
 21
305.841
 31
0.0
  0
LINE
  5
15AB
330
166E
100
AcDbEntity
  8
8
100
AcDbLine
 10
214.22
 20
305.841
 30
0.0
 11
223.906
 21
305.841
 31
0.0
  0
LINE
  5
15AC
330
166E
100
AcDbEntity
  8
8
100
AcDbLine
 10
74.906
 20
306.201
 30
0.0
 11
83.71500000000001
 21
306.201
 31
0.0
  0
LINE
  5
15AD
330
166E
100
AcDbEntity
  8
8
100
AcDbLine
 10
215.097
 20
306.201
 30
0.0
 11
223.906
 21
306.201
 31
0.0
  0
ENDBLK
  5
15AE
330
166E
100
AcDbEntity
  8
0
100
AcDbBlockEnd
  0
BLOCK
  5
15D3
330
166F
100
AcDbEntity
  8
0
100
AcDbBlockBegin
  2
*X4
 70
     1
 10
0.0
 20
0.0
 30
0.0
  3
*X4
  1

  0
LINE
  5
15D4
330
166F
100
AcDbEntity
  8
8
100
AcDbLine
 10
77.15399999999999
 20
306.561
 30
0.0
 11
82.406
 21
306.561
 31
0.0
  0
LINE
  5
15D5
330
166F
100
AcDbEntity
  8
8
100
AcDbLine
 10
76.5
 20
306.921
 30
0.0
 11
82.406
 21
306.921
 31
0.0
  0
LINE
  5
15D6
330
166F
100
AcDbEntity
  8
8
100
AcDbLine
 10
76.082
 20
307.281
 30
0.0
 11
82.406
 21
307.281
 31
0.0
  0
LINE
  5
15D7
330
166F
100
AcDbEntity
  8
8
100
AcDbLine
 10
75.786
 20
307.641
 30
0.0
 11
82.406
 21
307.641
 31
0.0
  0
LINE
  5
15D8
330
166F
100
AcDbEntity
  8
8
100
AcDbLine
 10
75.56999999999999
 20
308.001
 30
0.0
 11
77.60600000000001
 21
308.001
 31
0.0
  0
LINE
  5
15D9
330
166F
100
AcDbEntity
  8
8
100
AcDbLine
 10
75.41199999999999
 20
308.361
 30
0.0
 11
77.12600000000001
 21
308.361
 31
0.0
  0
LINE
  5
15DA
330
166F
100
AcDbEntity
  8
8
100
AcDbLine
 10
75.28100000000001
 20
308.721
 30
0.0
 11
76.89199999999999
 21
308.721
 31
0.0
  0
LINE
  5
15DB
330
166F
100
AcDbEntity
  8
8
100
AcDbLine
 10
75.149
 20
309.081
 30
0.0
 11
76.74600000000001
 21
309.081
 31
0.0
  0
LINE
  5
15DC
330
166F
100
AcDbEntity
  8
8
100
AcDbLine
 10
75.018
 20
309.441
 30
0.0
 11
76.615
 21
309.441
 31
0.0
  0
LINE
  5
15DD
330
166F
100
AcDbEntity
  8
8
100
AcDbLine
 10
74.887
 20
309.801
 30
0.0
 11
76.48399999999999
 21
309.801
 31
0.0
  0
LINE
  5
15DE
330
166F
100
AcDbEntity
  8
8
100
AcDbLine
 10
74.756
 20
310.161
 30
0.0
 11
76.353
 21
310.161
 31
0.0
  0
LINE
  5
15DF
330
166F
100
AcDbEntity
  8
8
100
AcDbLine
 10
74.625
 20
310.521
 30
0.0
 11
76.22199999999999
 21
310.521
 31
0.0
  0
LINE
  5
15E0
330
166F
100
AcDbEntity
  8
8
100
AcDbLine
 10
74.494
 20
310.881
 30
0.0
 11
76.09100000000001
 21
310.881
 31
0.0
  0
LINE
  5
15E1
330
166F
100
AcDbEntity
  8
8
100
AcDbLine
 10
74.363
 20
311.241
 30
0.0
 11
75.96
 21
311.241
 31
0.0
  0
LINE
  5
15E2
330
166F
100
AcDbEntity
  8
8
100
AcDbLine
 10
74.232
 20
311.601
 30
0.0
 11
75.82899999999999
 21
311.601
 31
0.0
  0
LINE
  5
15E3
330
166F
100
AcDbEntity
  8
8
100
AcDbLine
 10
74.10099999999999
 20
311.961
 30
0.0
 11
75.698
 21
311.961
 31
0.0
  0
LINE
  5
15E4
330
166F
100
AcDbEntity
  8
8
100
AcDbLine
 10
73.97
 20
312.321
 30
0.0
 11
75.566
 21
312.321
 31
0.0
  0
LINE
  5
15E5
330
166F
100
AcDbEntity
  8
8
100
AcDbLine
 10
73.839
 20
312.681
 30
0.0
 11
75.435
 21
312.681
 31
0.0
  0
LINE
  5
15E6
330
166F
100
AcDbEntity
  8
8
100
AcDbLine
 10
73.708
 20
313.041
 30
0.0
 11
75.304
 21
313.041
 31
0.0
  0
LINE
  5
15E7
330
166F
100
AcDbEntity
  8
8
100
AcDbLine
 10
73.577
 20
313.401
 30
0.0
 11
75.173
 21
313.401
 31
0.0
  0
LINE
  5
15E8
330
166F
100
AcDbEntity
  8
8
100
AcDbLine
 10
73.44599999999999
 20
313.761
 30
0.0
 11
75.042
 21
313.761
 31
0.0
  0
LINE
  5
15E9
330
166F
100
AcDbEntity
  8
8
100
AcDbLine
 10
73.315
 20
314.121
 30
0.0
 11
74.911
 21
314.121
 31
0.0
  0
LINE
  5
15EA
330
166F
100
AcDbEntity
  8
8
100
AcDbLine
 10
73.184
 20
314.481
 30
0.0
 11
74.78
 21
314.481
 31
0.0
  0
LINE
  5
15EB
330
166F
100
AcDbEntity
  8
8
100
AcDbLine
 10
73.05299999999999
 20
314.841
 30
0.0
 11
74.649
 21
314.841
 31
0.0
  0
LINE
  5
15EC
330
166F
100
AcDbEntity
  8
8
100
AcDbLine
 10
72.922
 20
315.201
 30
0.0
 11
74.518
 21
315.201
 31
0.0
  0
LINE
  5
15ED
330
166F
100
AcDbEntity
  8
8
100
AcDbLine
 10
72.79099999999999
 20
315.561
 30
0.0
 11
74.387
 21
315.561
 31
0.0
  0
LINE
  5
15EE
330
166F
100
AcDbEntity
  8
8
100
AcDbLine
 10
72.66
 20
315.921
 30
0.0
 11
74.256
 21
315.921
 31
0.0
  0
LINE
  5
15EF
330
166F
100
AcDbEntity
  8
8
100
AcDbLine
 10
72.529
 20
316.281
 30
0.0
 11
74.125
 21
316.281
 31
0.0
  0
LINE
  5
15F0
330
166F
100
AcDbEntity
  8
8
100
AcDbLine
 10
72.39799999999999
 20
316.6409999999999
 30
0.0
 11
73.99399999999999
 21
316.6409999999999
 31
0.0
  0
LINE
  5
15F1
330
166F
100
AcDbEntity
  8
8
100
AcDbLine
 10
72.267
 20
317.001
 30
0.0
 11
73.863
 21
317.001
 31
0.0
  0
LINE
  5
15F2
330
166F
100
AcDbEntity
  8
8
100
AcDbLine
 10
72.13600000000001
 20
317.361
 30
0.0
 11
73.732
 21
317.361
 31
0.0
  0
LINE
  5
15F3
330
166F
100
AcDbEntity
  8
8
100
AcDbLine
 10
72.00499999999999
 20
317.721
 30
0.0
 11
73.601
 21
317.721
 31
0.0
  0
LINE
  5
15F4
330
166F
100
AcDbEntity
  8
8
100
AcDbLine
 10
71.874
 20
318.081
 30
0.0
 11
73.47
 21
318.081
 31
0.0
  0
LINE
  5
15F5
330
166F
100
AcDbEntity
  8
8
100
AcDbLine
 10
71.74299999999999
 20
318.441
 30
0.0
 11
73.33899999999999
 21
318.441
 31
0.0
  0
LINE
  5
15F6
330
166F
100
AcDbEntity
  8
8
100
AcDbLine
 10
71.612
 20
318.801
 30
0.0
 11
73.208
 21
318.801
 31
0.0
  0
LINE
  5
15F7
330
166F
100
AcDbEntity
  8
8
100
AcDbLine
 10
71.48100000000001
 20
319.161
 30
0.0
 11
73.077
 21
319.161
 31
0.0
  0
LINE
  5
15F8
330
166F
100
AcDbEntity
  8
8
100
AcDbLine
 10
71.34999999999999
 20
319.5209999999999
 30
0.0
 11
72.94599999999999
 21
319.5209999999999
 31
0.0
  0
LINE
  5
15F9
330
166F
100
AcDbEntity
  8
8
100
AcDbLine
 10
71.219
 20
319.881
 30
0.0
 11
72.815
 21
319.881
 31
0.0
  0
LINE
  5
15FA
330
166F
100
AcDbEntity
  8
8
100
AcDbLine
 10
71.08800000000001
 20
320.241
 30
0.0
 11
72.68399999999999
 21
320.241
 31
0.0
  0
LINE
  5
15FB
330
166F
100
AcDbEntity
  8
8
100
AcDbLine
 10
70.95699999999999
 20
320.601
 30
0.0
 11
72.553
 21
320.601
 31
0.0
  0
LINE
  5
15FC
330
166F
100
AcDbEntity
  8
8
100
AcDbLine
 10
70.82600000000001
 20
320.961
 30
0.0
 11
72.422
 21
320.961
 31
0.0
  0
LINE
  5
15FD
330
166F
100
AcDbEntity
  8
8
100
AcDbLine
 10
70.694
 20
321.321
 30
0.0
 11
72.29099999999999
 21
321.321
 31
0.0
  0
LINE
  5
15FE
330
166F
100
AcDbEntity
  8
8
100
AcDbLine
 10
70.563
 20
321.681
 30
0.0
 11
72.16
 21
321.681
 31
0.0
  0
LINE
  5
15FF
330
166F
100
AcDbEntity
  8
8
100
AcDbLine
 10
70.432
 20
322.041
 30
0.0
 11
72.02899999999999
 21
322.041
 31
0.0
  0
LINE
  5
1600
330
166F
100
AcDbEntity
  8
8
100
AcDbLine
 10
70.301
 20
322.401
 30
0.0
 11
71.89799999999999
 21
322.401
 31
0.0
  0
LINE
  5
1601
330
166F
100
AcDbEntity
  8
8
100
AcDbLine
 10
70.17
 20
322.761
 30
0.0
 11
71.767
 21
322.761
 31
0.0
  0
LINE
  5
1602
330
166F
100
AcDbEntity
  8
8
100
AcDbLine
 10
70.039
 20
323.121
 30
0.0
 11
71.63600000000001
 21
323.121
 31
0.0
  0
LINE
  5
1603
330
166F
100
AcDbEntity
  8
8
100
AcDbLine
 10
69.908
 20
323.481
 30
0.0
 11
71.505
 21
323.481
 31
0.0
  0
LINE
  5
1604
330
166F
100
AcDbEntity
  8
8
100
AcDbLine
 10
69.777
 20
323.841
 30
0.0
 11
71.37399999999999
 21
323.841
 31
0.0
  0
LINE
  5
1605
330
166F
100
AcDbEntity
  8
8
100
AcDbLine
 10
69.608
 20
324.201
 30
0.0
 11
71.24299999999999
 21
324.201
 31
0.0
  0
LINE
  5
1606
330
166F
100
AcDbEntity
  8
8
100
AcDbLine
 10
69.252
 20
324.561
 30
0.0
 11
71.097
 21
324.561
 31
0.0
  0
LINE
  5
1607
330
166F
100
AcDbEntity
  8
8
100
AcDbLine
 10
58.40600000000001
 20
324.921
 30
0.0
 11
70.922
 21
324.921
 31
0.0
  0
LINE
  5
1608
330
166F
100
AcDbEntity
  8
8
100
AcDbLine
 10
58.40600000000001
 20
325.281
 30
0.0
 11
70.67
 21
325.281
 31
0.0
  0
LINE
  5
1609
330
166F
100
AcDbEntity
  8
8
100
AcDbLine
 10
58.40600000000001
 20
325.641
 30
0.0
 11
70.31399999999999
 21
325.641
 31
0.0
  0
LINE
  5
160A
330
166F
100
AcDbEntity
  8
8
100
AcDbLine
 10
58.40600000000001
 20
326.001
 30
0.0
 11
69.785
 21
326.001
 31
0.0
  0
ENDBLK
  5
160B
330
166F
100
AcDbEntity
  8
0
100
AcDbBlockEnd
  0
BLOCK
  5
1677
330
1676
100
AcDbEntity
  8
0
100
AcDbBlockBegin
  2
KATALOG_LEER
 70
     0
 10
0.0
 20
0.0
 30
0.0
  3
KATALOG_LEER
  1

  0
ENDBLK
  5
1678
330
1676
100
AcDbEntity
  8
0
100
AcDbBlockEnd
  0
BLOCK
  5
17E1
330
16DA
100
AcDbEntity
  8
0
100
AcDbBlockBegin
  2
*D7
 70
     1
 10
0.0
 20
0.0
 30
0.0
  3
*D7
  1

  0
LINE
  5
1930
330
16DA
100
AcDbEntity
  8
5
370
    -2
100
AcDbLine
 10
304.70305
 20
294.222214
 30
0.0
 11
234.7217634599347
 21
294.222214
 31
0.0
  0
LINE
  5
1931
330
16DA
100
AcDbEntity
  8
5
370
    -2
100
AcDbLine
 10
284.70305
 20
252.222214
 30
0.0
 11
234.7217634599347
 21
252.222214
 31
0.0
  0
LINE
  5
1932
330
16DA
100
AcDbEntity
  8
5
370
    -2
100
AcDbLine
 10
239.7217634599347
 20
227.222214
 30
0.0
 11
239.7217634599347
 21
202.222214
 31
0.0
  0
LINE
  5
1933
330
16DA
100
AcDbEntity
  8
5
370
    -2
100
AcDbLine
 10
239.7217634599347
 20
319.222214
 30
0.0
 11
239.7217634599347
 21
372.273247464567
 31
0.0
  0
LINE
  5
1934
330
16DA
100
AcDbEntity
  8
5
370
    -2
100
AcDbLine
 10
239.7217634599347
 20
252.222214
 30
0.0
 11
239.7217634599347
 21
294.222214
 31
0.0
  0
SOLID
  5
1935
330
16DA
100
AcDbEntity
  8
5
100
AcDbTrace
 10
235.555096793268
 20
227.222214
 30
0.0
 11
243.8884301266014
 21
227.222214
 31
0.0
 12
239.7217634599347
 22
252.222214
 32
0.0
 13
239.7217634599347
 23
252.222214
 33
0.0
  0
SOLID
  5
1936
330
16DA
100
AcDbEntity
  8
5
100
AcDbTrace
 10
235.555096793268
 20
319.222214
 30
0.0
 11
243.8884301266014
 21
319.222214
 31
0.0
 12
239.7217634599347
 22
294.222214
 32
0.0
 13
239.7217634599347
 23
294.222214
 33
0.0
  0
MTEXT
  5
1937
330
16DA
100
AcDbEntity
  8
5
 62
     2
100
AcDbMText
 10
227.9700410189898
 20
358.2477307322835
 30
0.0
 40
17.5
 41
0.0
 71
     5
 72
     1
  1
42
 11
0.0000000000000001
 21
1.0
 31
0.0
 73
     1
 44
1.0
1001
ACAD
1000
MTEXTBEGIN
1070
    73
1070
     1
1070
    44
1040
1.0
1070
    74
1070
     0
1000
MTEXTEND
  0
POINT
  5
1938
330
16DA
100
AcDbEntity
  8
DEFPOINTS
 62
     0
100
AcDbPoint
 10
309.70305
 20
294.222214
 30
0.0
  0
POINT
  5
1939
330
16DA
100
AcDbEntity
  8
DEFPOINTS
 62
     0
100
AcDbPoint
 10
289.70305
 20
252.222214
 30
0.0
  0
POINT
  5
193A
330
16DA
100
AcDbEntity
  8
DEFPOINTS
 62
     0
100
AcDbPoint
 10
239.7217634599347
 20
252.222214
 30
0.0
  0
ENDBLK
  5
17EB
330
16DA
100
AcDbEntity
  8
0
100
AcDbBlockEnd
  0
BLOCK
  5
1796
330
16E5
100
AcDbEntity
  8
0
100
AcDbBlockBegin
  2
*D8
 70
     1
 10
0.0
 20
0.0
 30
0.0
  3
*D8
  1

  0
LINE
  5
18FC
330
16E5
100
AcDbEntity
  8
5
370
    -2
100
AcDbLine
 10
356.19405
 20
291.5382140000001
 30
0.0
 11
356.19405
 21
369.222214
 31
0.0
  0
LINE
  5
18FD
330
16E5
100
AcDbEntity
  8
5
370
    -2
100
AcDbLine
 10
363.56105
 20
291.614214
 30
0.0
 11
363.56105
 21
369.222214
 31
0.0
  0
LINE
  5
18FE
330
16E5
100
AcDbEntity
  8
5
370
    -2
100
AcDbLine
 10
331.19405
 20
364.222214
 30
0.0
 11
306.19405
 21
364.222214
 31
0.0
  0
LINE
  5
18FF
330
16E5
100
AcDbEntity
  8
5
370
    -2
100
AcDbLine
 10
388.56105
 20
364.222214
 30
0.0
 11
426.56105
 21
364.222214
 31
0.0
  0
LINE
  5
1900
330
16E5
100
AcDbEntity
  8
5
370
    -2
100
AcDbLine
 10
356.19405
 20
364.222214
 30
0.0
 11
363.56105
 21
364.222214
 31
0.0
  0
SOLID
  5
1901
330
16E5
100
AcDbEntity
  8
5
100
AcDbTrace
 10
331.19405
 20
368.3888806666667
 30
0.0
 11
331.19405
 21
360.0555473333333
 31
0.0
 12
356.19405
 22
364.222214
 32
0.0
 13
356.19405
 23
364.222214
 33
0.0
  0
SOLID
  5
1902
330
16E5
100
AcDbEntity
  8
5
100
AcDbTrace
 10
388.56105
 20
368.3888806666667
 30
0.0
 11
388.56105
 21
360.0555473333333
 31
0.0
 12
363.56105
 22
364.222214
 32
0.0
 13
363.56105
 23
364.222214
 33
0.0
  0
MTEXT
  5
1903
330
16E5
100
AcDbEntity
  8
5
 62
     2
100
AcDbMText
 10
420.06105
 20
375.972214
 30
0.0
 40
17.5
 41
0.0
 71
     5
 72
     1
  1
8
 73
     1
 44
1.0
1001
ACAD
1000
MTEXTBEGIN
1070
    73
1070
     1
1070
    44
1040
1.0
1070
    74
1070
     0
1000
MTEXTEND
  0
POINT
  5
1904
330
16E5
100
AcDbEntity
  8
DEFPOINTS
 62
     0
100
AcDbPoint
 10
356.19405
 20
286.538214
 30
0.0
  0
POINT
  5
1905
330
16E5
100
AcDbEntity
  8
DEFPOINTS
 62
     0
100
AcDbPoint
 10
363.56105
 20
286.614214
 30
0.0
  0
POINT
  5
1906
330
16E5
100
AcDbEntity
  8
DEFPOINTS
 62
     0
100
AcDbPoint
 10
363.56105
 20
364.222214
 30
0.0
  0
ENDBLK
  5
17A2
330
16E5
100
AcDbEntity
  8
0
100
AcDbBlockEnd
  0
BLOCK
  5
1780
330
1717
100
AcDbEntity
  8
0
100
AcDbBlockBegin
  2
*D10
 70
     1
 10
0.0
 20
0.0
 30
0.0
  3
*D10
  1

  0
LINE
  5
18EC
330
1717
100
AcDbEntity
  8
5
370
    -2
100
AcDbLine
 10
293.20305
 20
319.222214
 30
0.0
 11
293.20305
 21
439.2222139999999
 31
0.0
  0
LINE
  5
18ED
330
1717
100
AcDbEntity
  8
5
370
    -2
100
AcDbLine
 10
475.20305
 20
319.222214
 30
0.0
 11
475.20305
 21
439.2222139999999
 31
0.0
  0
LINE
  5
18EE
330
1717
100
AcDbEntity
  8
5
370
    -2
100
AcDbLine
 10
318.20305
 20
434.2222139999999
 30
0.0
 11
450.20305
 21
434.2222139999999
 31
0.0
  0
SOLID
  5
18EF
330
1717
100
AcDbEntity
  8
5
100
AcDbTrace
 10
318.20305
 20
438.3888806666666
 30
0.0
 11
318.20305
 21
430.0555473333332
 31
0.0
 12
293.20305
 22
434.2222139999999
 32
0.0
 13
293.20305
 23
434.2222139999999
 33
0.0
  0
SOLID
  5
18F0
330
1717
100
AcDbEntity
  8
5
100
AcDbTrace
 10
450.20305
 20
438.3888806666666
 30
0.0
 11
450.20305
 21
430.0555473333332
 31
0.0
 12
475.20305
 22
434.2222139999999
 32
0.0
 13
475.20305
 23
434.2222139999999
 33
0.0
  0
MTEXT
  5
18F1
330
1717
100
AcDbEntity
  8
5
 62
     2
100
AcDbMText
 10
384.20305
 20
445.9739364409448
 30
0.0
 40
17.5
 41
0.0
 71
     5
 72
     1
  1
182
 73
     1
 44
1.0
1001
ACAD
1000
MTEXTBEGIN
1070
    73
1070
     1
1070
    44
1040
1.0
1070
    74
1070
     0
1000
MTEXTEND
  0
POINT
  5
18F2
330
1717
100
AcDbEntity
  8
DEFPOINTS
 62
     0
100
AcDbPoint
 10
293.20305
 20
314.222214
 30
0.0
  0
POINT
  5
18F3
330
1717
100
AcDbEntity
  8
DEFPOINTS
 62
     0
100
AcDbPoint
 10
475.20305
 20
314.222214
 30
0.0
  0
POINT
  5
18F4
330
1717
100
AcDbEntity
  8
DEFPOINTS
 62
     0
100
AcDbPoint
 10
475.20305
 20
434.2222139999999
 30
0.0
  0
ENDBLK
  5
178A
330
1717
100
AcDbEntity
  8
0
100
AcDbBlockEnd
  0
BLOCK
  5
17C6
330
172E
100
AcDbEntity
  8
0
100
AcDbBlockBegin
  2
*D11
 70
     1
 10
0.0
 20
0.0
 30
0.0
  3
*D11
  1

  0
LINE
  5
191B
330
172E
100
AcDbEntity
  8
5
370
    -2
100
AcDbLine
 10
288.20305
 20
314.222214
 30
0.0
 11
192.6075440259014
 21
314.222214
 31
0.0
  0
LINE
  5
191C
330
172E
100
AcDbEntity
  8
5
370
    -2
100
AcDbLine
 10
322.14805
 20
252.222214
 30
0.0
 11
192.6075440259014
 21
252.222214
 31
0.0
  0
LINE
  5
191D
330
172E
100
AcDbEntity
  8
5
370
    -2
100
AcDbLine
 10
197.6075440259013
 20
277.2222140000001
 30
0.0
 11
197.6075440259013
 21
289.222214
 31
0.0
  0
LINE
  5
191E
330
172E
100
AcDbEntity
  8
5
370
    -2
100
AcDbLine
 10
197.6075440259013
 20
314.222214
 30
0.0
 11
197.6075440259014
 21
374.1275204519549
 31
0.0
  0
SOLID
  5
191F
330
172E
100
AcDbEntity
  8
5
100
AcDbTrace
 10
193.4408773592347
 20
277.2222140000001
 30
0.0
 11
201.774210692568
 21
277.2222140000001
 31
0.0
 12
197.6075440259013
 22
252.222214
 32
0.0
 13
197.6075440259013
 23
252.222214
 33
0.0
  0
SOLID
  5
1920
330
172E
100
AcDbEntity
  8
5
100
AcDbTrace
 10
193.4408773592347
 20
289.222214
 30
0.0
 11
201.774210692568
 21
289.222214
 31
0.0
 12
197.6075440259013
 22
314.222214
 32
0.0
 13
197.6075440259013
 23
314.222214
 33
0.0
  0
MTEXT
  5
1921
330
172E
100
AcDbEntity
  8
5
 62
     2
100
AcDbMText
 10
185.8558215849564
 20
360.4533816724274
 30
0.0
 40
17.5
 41
0.0
 71
     5
 72
     1
  1
62
 11
0.0000000000000001
 21
1.0
 31
0.0
 73
     1
 44
1.0
1001
ACAD
1000
MTEXTBEGIN
1070
    73
1070
     1
1070
    44
1040
1.0
1070
    74
1070
     0
1000
MTEXTEND
  0
POINT
  5
1922
330
172E
100
AcDbEntity
  8
DEFPOINTS
 62
     0
100
AcDbPoint
 10
293.20305
 20
314.222214
 30
0.0
  0
POINT
  5
1923
330
172E
100
AcDbEntity
  8
DEFPOINTS
 62
     0
100
AcDbPoint
 10
327.14805
 20
252.222214
 30
0.0
  0
POINT
  5
1924
330
172E
100
AcDbEntity
  8
DEFPOINTS
 62
     0
100
AcDbPoint
 10
197.6075440259013
 20
252.222214
 30
0.0
  0
ENDBLK
  5
17D0
330
172E
100
AcDbEntity
  8
0
100
AcDbBlockEnd
  0
BLOCK
  5
18DE
330
18DC
100
AcDbEntity
  8
0
100
AcDbBlockBegin
  2
GENAXEH
 70
     0
 10
0.0
 20
0.0
 30
0.0
  3
GENAXEH
  1

  0
LINE
  5
18DD
330
18DC
100
AcDbEntity
  8
0
100
AcDbLine
 10
-1.0
 20
0.0
 30
0.0
 11
1.0
 21
0.0
 31
0.0
  0
ENDBLK
  5
18DF
330
18DC
100
AcDbEntity
  8
0
100
AcDbBlockEnd
  0
ENDSEC
  0
SECTION
  2
ENTITIES
  0
POINT
  5
1001
330
164A
100
AcDbEntity
  8
PUNKTE
100
AcDbPoint
 10
384.20305
 20
314.222214
 30
0.0
  0
POINT
  5
1002
330
164A
100
AcDbEntity
  8
PUNKTE
100
AcDbPoint
 10
384.20305
 20
314.222214
 30
0.0
  0
LINE
  5
1003
330
164A
100
AcDbEntity
  8
0
100
AcDbLine
 10
384.20305
 20
294.222214
 30
0.0
 11
458.70305
 21
294.222214
 31
0.0
  0
LINE
  5
1004
330
164A
100
AcDbEntity
  8
0
100
AcDbLine
 10
384.20305
 20
252.222214
 30
0.0
 11
441.25805
 21
252.222214
 31
0.0
  0
LINE
  5
1005
330
164A
100
AcDbEntity
  8
0
100
AcDbLine
 10
447.00405
 20
290.431214
 30
0.0
 11
445.2530499999999
 21
257.013214
 31
0.0
  0
LINE
  5
1006
330
164A
100
AcDbEntity
  8
0
100
AcDbLine
 10
448.0030499999999
 20
290.379214
 30
0.0
 11
446.25205
 21
256.960214
 31
0.0
  0
LINE
  5
1007
330
164A
100
AcDbEntity
  8
0
100
AcDbLine
 10
458.70305
 20
293.222214
 30
0.0
 11
450.9990499999999
 21
293.222214
 31
0.0
  0
LINE
  5
1008
330
164A
100
AcDbEntity
  8
0
100
AcDbLine
 10
458.70305
 20
293.222214
 30
0.0
 11
458.70305
 21
294.222214
 31
0.0
  0
ARC
  5
1009
330
164A
100
AcDbEntity
  8
0
100
AcDbCircle
 10
441.25805
 20
257.222214
 30
0.0
 40
5.0
100
AcDbArc
 50
270.0
 51
357.0
  0
LINE
  5
100A
330
164A
100
AcDbEntity
  8
0
100
AcDbLine
 10
441.25805
 20
253.222214
 30
0.0
 11
416.47205
 21
253.222214
 31
0.0
  0
ARC
  5
100B
330
164A
100
AcDbEntity
  8
0
100
AcDbCircle
 10
441.25805
 20
257.222214
 30
0.0
 40
4.0
100
AcDbArc
 50
270.0
 51
357.0
  0
ARC
  5
100C
330
164A
100
AcDbEntity
  8
0
100
AcDbCircle
 10
450.9990499999999
 20
290.222214
 30
0.0
 40
3.0
100
AcDbArc
 50
90.0
 51
177.0
  0
ARC
  5
100D
330
164A
100
AcDbEntity
  8
0
100
AcDbCircle
 10
450.9990499999999
 20
290.222214
 30
0.0
 40
4.0
100
AcDbArc
 50
90.0
 51
177.0
  0
LINE
  5
100E
330
164A
100
AcDbEntity
  8
0
100
AcDbLine
 10
384.20305
 20
263.222214
 30
0.0
 11
397.20305
 21
263.222214
 31
0.0
  0
LINE
  5
100F
330
164A
100
AcDbEntity
  8
0
100
AcDbLine
 10
397.20305
 20
263.222214
 30
0.0
 11
416.20305
 21
252.222214
 31
0.0
  0
LINE
  5
1010
330
164A
100
AcDbEntity
  8
0
100
AcDbLine
 10
384.20305
 20
264.222214
 30
0.0
 11
397.47205
 21
264.222214
 31
0.0
  0
LINE
  5
1011
330
164A
100
AcDbEntity
  8
0
100
AcDbLine
 10
397.47205
 20
264.222214
 30
0.0
 11
416.47205
 21
253.222214
 31
0.0
  0
ARC
  5
1012
330
164A
100
AcDbEntity
  8
0
100
AcDbCircle
 10
392.35505
 20
286.256214
 30
0.0
 40
3.966
100
AcDbArc
 50
0.0
 51
6.742
  0
LINE
  5
1013
330
164A
100
AcDbEntity
  8
0
100
AcDbLine
 10
388.27905
 20
270.215214
 30
0.0
 11
388.39205
 21
286.722214
 31
0.0
  0
LINE
  5
1014
330
164A
100
AcDbEntity
  8
0
100
AcDbLine
 10
396.21005
 20
270.161214
 30
0.0
 11
396.32405
 21
286.722214
 31
0.0
  0
LINE
  5
1015
330
164A
100
AcDbEntity
  8
0
100
AcDbLine
 10
404.50505
 20
269.981214
 30
0.0
 11
404.84505
 21
286.614214
 31
0.0
  0
LINE
  5
1016
330
164A
100
AcDbEntity
  8
0
100
AcDbLine
 10
411.87105
 20
269.830214
 30
0.0
 11
412.2110499999999
 21
286.463214
 31
0.0
  0
ARC
  5
1017
330
164A
100
AcDbEntity
  8
0
100
AcDbCircle
 10
408.52805
 20
286.538214
 30
0.0
 40
3.683999999999999
100
AcDbArc
 50
358.8280000000001
 51
2.856999999999999
  0
LINE
  5
1018
330
164A
100
AcDbEntity
  8
0
100
AcDbLine
 10
418.88505
 20
269.478214
 30
0.0
 11
419.4420499999999
 21
286.722214
 31
0.0
  0
LINE
  5
1019
330
164A
100
AcDbEntity
  8
0
100
AcDbLine
 10
430.8810499999999
 20
268.733214
 30
0.0
 11
431.6340499999999
 21
286.722214
 31
0.0
  0
LINE
  5
101A
330
164A
100
AcDbEntity
  8
0
100
AcDbLine
 10
442.53305
 20
267.677214
 30
0.0
 11
443.46705
 21
286.931214
 31
0.0
  0
ARC
  5
101B
330
164A
100
AcDbEntity
  8
ND_3A
 48
0.711
100
AcDbCircle
 10
207.225
 20
300.832
 30
0.0
 40
1.529
100
AcDbArc
 50
357.222
 51
37.559
  0
LINE
  5
101C
330
164A
100
AcDbEntity
  8
0
100
AcDbLine
 10
445.78205
 20
289.7282140000001
 30
0.0
 11
444.5870499999999
 21
266.771214
 31
0.0
  0
LINE
  5
101D
330
164A
100
AcDbEntity
  8
0
100
AcDbLine
 10
445.62805
 20
266.716214
 30
0.0
 11
446.82305
 21
289.6732140000001
 31
0.0
  0
ARC
  5
101E
330
164A
100
AcDbEntity
  8
0
100
AcDbCircle
 10
446.30305
 20
289.700214
 30
0.0
 40
0.521
100
AcDbArc
 50
0.0
 51
177.019
  0
LINE
  5
101F
330
164A
100
AcDbEntity
  8
0
100
AcDbLine
 10
384.20305
 20
294.222214
 30
0.0
 11
309.70305
 21
294.222214
 31
0.0
  0
LINE
  5
1020
330
164A
100
AcDbEntity
  8
0
100
AcDbLine
 10
384.20305
 20
252.222214
 30
0.0
 11
327.14805
 21
252.222214
 31
0.0
  0
LINE
  5
1021
330
164A
100
AcDbEntity
  8
0
100
AcDbLine
 10
321.40205
 20
290.432214
 30
0.0
 11
323.15305
 21
257.013214
 31
0.0
  0
LINE
  5
1022
330
164A
100
AcDbEntity
  8
0
100
AcDbLine
 10
320.40305
 20
290.379214
 30
0.0
 11
322.15405
 21
256.960214
 31
0.0
  0
LINE
  5
1023
330
164A
100
AcDbEntity
  8
0
100
AcDbLine
 10
309.70305
 20
293.222214
 30
0.0
 11
317.40705
 21
293.222214
 31
0.0
  0
LINE
  5
1024
330
164A
100
AcDbEntity
  8
0
100
AcDbLine
 10
309.70305
 20
293.222214
 30
0.0
 11
309.70305
 21
294.222214
 31
0.0
  0
ARC
  5
1025
330
164A
100
AcDbEntity
  8
0
100
AcDbCircle
 10
327.14805
 20
257.222214
 30
0.0
 40
5.0
100
AcDbArc
 50
183.0
 51
270.0
  0
LINE
  5
1026
330
164A
100
AcDbEntity
  8
0
100
AcDbLine
 10
327.14805
 20
253.222214
 30
0.0
 11
351.93405
 21
253.222214
 31
0.0
  0
ARC
  5
1027
330
164A
100
AcDbEntity
  8
0
100
AcDbCircle
 10
327.14805
 20
257.222214
 30
0.0
 40
4.0
100
AcDbArc
 50
183.0
 51
270.0
  0
ARC
  5
1028
330
164A
100
AcDbEntity
  8
0
100
AcDbCircle
 10
317.40705
 20
290.222214
 30
0.0
 40
3.0
100
AcDbArc
 50
3.0
 51
90.0
  0
ARC
  5
1029
330
164A
100
AcDbEntity
  8
0
100
AcDbCircle
 10
317.40705
 20
290.222214
 30
0.0
 40
4.0
100
AcDbArc
 50
3.0
 51
90.0
  0
LINE
  5
102A
330
164A
100
AcDbEntity
  8
0
100
AcDbLine
 10
384.20305
 20
263.222214
 30
0.0
 11
371.20305
 21
263.222214
 31
0.0
  0
LINE
  5
102B
330
164A
100
AcDbEntity
  8
0
100
AcDbLine
 10
371.20305
 20
263.222214
 30
0.0
 11
352.20305
 21
252.222214
 31
0.0
  0
LINE
  5
102C
330
164A
100
AcDbEntity
  8
0
100
AcDbLine
 10
384.20305
 20
264.222214
 30
0.0
 11
370.93405
 21
264.222214
 31
0.0
  0
LINE
  5
102D
330
164A
100
AcDbEntity
  8
0
100
AcDbLine
 10
370.93505
 20
264.222214
 30
0.0
 11
351.93405
 21
253.222214
 31
0.0
  0
ARC
  5
102E
330
164A
100
AcDbEntity
  8
0
100
AcDbCircle
 10
376.05105
 20
286.256214
 30
0.0
 40
3.966
100
AcDbArc
 50
0.393
 51
180.0
  0
LINE
  5
102F
330
164A
100
AcDbEntity
  8
0
100
AcDbLine
 10
380.12705
 20
270.215214
 30
0.0
 11
380.01705
 21
286.283214
 31
0.0
  0
LINE
  5
1030
330
164A
100
AcDbEntity
  8
0
100
AcDbLine
 10
372.19605
 20
270.161214
 30
0.0
 11
372.08505
 21
286.229214
 31
0.0
  0
LINE
  5
1031
330
164A
100
AcDbEntity
  8
0
100
AcDbLine
 10
363.90105
 20
269.981214
 30
0.0
 11
363.56105
 21
286.614214
 31
0.0
  0
LINE
  5
1032
330
164A
100
AcDbEntity
  8
0
100
AcDbLine
 10
356.53505
 20
269.830214
 30
0.0
 11
356.19505
 21
286.463214
 31
0.0
  0
ARC
  5
1033
330
164A
100
AcDbEntity
  8
0
100
AcDbCircle
 10
359.87805
 20
286.538214
 30
0.0
 40
3.683999999999999
100
AcDbArc
 50
1.171999999999999
 51
180.0
  0
LINE
  5
1034
330
164A
100
AcDbEntity
  8
0
100
AcDbLine
 10
349.52105
 20
269.478214
 30
0.0
 11
348.95005
 21
287.170214
 31
0.0
  0
LINE
  5
1035
330
164A
100
AcDbEntity
  8
0
100
AcDbLine
 10
342.64505
 20
286.966214
 30
0.0
 11
343.21605
 21
269.274214
 31
0.0
  0
ARC
  5
1036
330
164A
100
AcDbEntity
  8
0
100
AcDbCircle
 10
345.79805
 20
287.068214
 30
0.0
 40
3.153999999999999
100
AcDbArc
 50
1.848
 51
180.0
  0
LINE
  5
1037
330
164A
100
AcDbEntity
  8
0
100
AcDbLine
 10
337.52505
 20
268.733214
 30
0.0
 11
336.72205
 21
287.913214
 31
0.0
  0
LINE
  5
1038
330
164A
100
AcDbEntity
  8
0
100
AcDbLine
 10
331.90605
 20
287.711214
 30
0.0
 11
332.71005
 21
268.531214
 31
0.0
  0
ARC
  5
1039
330
164A
100
AcDbEntity
  8
0
100
AcDbCircle
 10
334.31405
 20
287.812214
 30
0.0
 40
2.41
100
AcDbArc
 50
2.399
 51
180.0
  0
LINE
  5
103A
330
164A
100
AcDbEntity
  8
0
100
AcDbLine
 10
327.91105
 20
288.767214
 30
0.0
 11
328.92705
 21
267.825214
 31
0.0
  0
LINE
  5
103B
330
164A
100
AcDbEntity
  8
0
100
AcDbLine
 10
325.87305
 20
267.677214
 30
0.0
 11
324.85705
 21
288.619214
 31
0.0
  0
ARC
  5
103C
330
164A
100
AcDbEntity
  8
0
100
AcDbCircle
 10
326.38405
 20
288.693214
 30
0.0
 40
1.529
100
AcDbArc
 50
2.778
 51
180.0
  0
LINE
  5
103D
330
164A
100
AcDbEntity
  8
0
100
AcDbLine
 10
322.62405
 20
289.7282140000001
 30
0.0
 11
323.81905
 21
266.771214
 31
0.0
  0
LINE
  5
103E
330
164A
100
AcDbEntity
  8
0
100
AcDbLine
 10
322.77805
 20
266.716214
 30
0.0
 11
321.58305
 21
289.674214
 31
0.0
  0
ARC
  5
103F
330
164A
100
AcDbEntity
  8
0
100
AcDbCircle
 10
322.10305
 20
289.700214
 30
0.0
 40
0.521
100
AcDbArc
 50
2.981
 51
180.0
  0
ARC
  5
1040
330
164A
100
AcDbEntity
  8
0
100
AcDbCircle
 10
384.20305
 20
288.222214
 30
0.0
 40
2.0
100
AcDbArc
 50
48.59
 51
311.41
  0
LINE
  5
1041
330
164A
100
AcDbEntity
  8
4
100
AcDbLine
 10
447.20305
 20
294.222214
 30
0.0
 11
447.00405
 21
290.432214
 31
0.0
  0
LINE
  5
1042
330
164A
100
AcDbEntity
  8
4
100
AcDbLine
 10
321.40205
 20
290.432214
 30
0.0
 11
321.20305
 21
294.222214
 31
0.0
  0
LINE
  5
1043
330
164A
100
AcDbEntity
  8
0
100
AcDbLine
 10
442.7030499999999
 20
289.722214
 30
0.0
 11
384.20305
 21
289.722214
 31
0.0
  0
LINE
  5
1044
330
164A
100
AcDbEntity
  8
0
100
AcDbLine
 10
442.7030499999999
 20
286.722214
 30
0.0
 11
384.20305
 21
286.722214
 31
0.0
  0
ARC
  5
1045
330
164A
100
AcDbEntity
  8
0
100
AcDbCircle
 10
384.20305
 20
288.222214
 30
0.0
 40
1.5
100
AcDbArc
 50
90.0
 51
270.0
  0
ARC
  5
1046
330
164A
100
AcDbEntity
  8
0
100
AcDbCircle
 10
392.35505
 20
286.256214
 30
0.0
 40
3.966
100
AcDbArc
 50
60.914
 51
119.086
  0
ARC
  5
1047
330
164A
100
AcDbEntity
  8
0
100
AcDbCircle
 10
408.52805
 20
286.538214
 30
0.0
 40
3.683999999999999
100
AcDbArc
 50
59.801
 51
120.199
  0
ARC
  5
1048
330
164A
100
AcDbEntity
  8
0
100
AcDbCircle
 10
422.60805
 20
287.068214
 30
0.0
 40
3.153999999999999
100
AcDbArc
 50
57.298
 51
122.702
  0
ARC
  5
1049
330
164A
100
AcDbEntity
  8
0
100
AcDbCircle
 10
392.35505
 20
286.256214
 30
0.0
 40
3.966
100
AcDbArc
 50
173.258
 51
179.607
  0
ARC
  5
104A
330
164A
100
AcDbEntity
  8
0
100
AcDbCircle
 10
408.52805
 20
286.538214
 30
0.0
 40
3.683999999999999
100
AcDbArc
 50
177.143
 51
178.828
  0
LINE
  5
104B
330
164A
100
AcDbEntity
  8
0
100
AcDbLine
 10
425.7530499999999
 20
286.722214
 30
0.0
 11
425.1900499999999
 21
269.274214
 31
0.0
  0
LINE
  5
104C
330
164A
100
AcDbEntity
  8
0
100
AcDbLine
 10
436.45805
 20
286.722214
 30
0.0
 11
435.69605
 21
268.531214
 31
0.0
  0
ARC
  5
104D
330
164A
100
AcDbEntity
  8
0
100
AcDbCircle
 10
434.09205
 20
287.812214
 30
0.0
 40
2.41
100
AcDbArc
 50
52.426
 51
127.574
  0
ARC
  5
104E
330
164A
100
AcDbEntity
  8
3A
 48
0.7650000000000001
100
AcDbCircle
 10
384.20305
 20
288.222214
 30
0.0
 40
2.0
100
AcDbArc
 50
311.41
 51
48.59
  0
LINE
  5
104F
330
164A
100
AcDbEntity
  8
0
100
AcDbLine
 10
293.20305
 20
312.722214
 30
0.0
 11
303.15305
 21
312.722214
 31
0.0
  0
LINE
  5
1050
330
164A
100
AcDbEntity
  8
0
100
AcDbLine
 10
475.20305
 20
312.722214
 30
0.0
 11
465.25305
 21
312.722214
 31
0.0
  0
LINE
  5
1051
330
164A
100
AcDbEntity
  8
0
100
AcDbLine
 10
293.20305
 20
312.722214
 30
0.0
 11
293.20305
 21
314.222214
 31
0.0
  0
LINE
  5
1052
330
164A
100
AcDbEntity
  8
0
100
AcDbLine
 10
475.20305
 20
314.222214
 30
0.0
 11
475.20305
 21
312.722214
 31
0.0
  0
LINE
  5
1053
330
164A
100
AcDbEntity
  8
0
100
AcDbLine
 10
304.56205
 20
311.735214
 30
0.0
 11
310.21805
 21
296.196214
 31
0.0
  0
LINE
  5
1054
330
164A
100
AcDbEntity
  8
0
100
AcDbLine
 10
463.8440499999999
 20
311.735214
 30
0.0
 11
458.1880499999999
 21
296.196214
 31
0.0
  0
LINE
  5
1055
330
164A
100
AcDbEntity
  8
0
100
AcDbLine
 10
462.43405
 20
312.248214
 30
0.0
 11
456.77805
 21
296.709214
 31
0.0
  0
LINE
  5
1056
330
164A
100
AcDbEntity
  8
0
100
AcDbLine
 10
305.97205
 20
312.248214
 30
0.0
 11
311.62805
 21
296.709214
 31
0.0
  0
LINE
  5
1057
330
164A
100
AcDbEntity
  8
0
100
AcDbLine
 10
293.20305
 20
314.222214
 30
0.0
 11
303.15305
 21
314.222214
 31
0.0
  0
LINE
  5
1058
330
164A
100
AcDbEntity
  8
0
100
AcDbLine
 10
475.20305
 20
314.222214
 30
0.0
 11
465.25305
 21
314.222214
 31
0.0
  0
LINE
  5
1059
330
164A
100
AcDbEntity
  8
0
100
AcDbLine
 10
317.20305
 20
295.722214
 30
0.0
 11
313.03705
 21
295.722214
 31
0.0
  0
LINE
  5
105A
330
164A
100
AcDbEntity
  8
0
100
AcDbLine
 10
451.20305
 20
295.722214
 30
0.0
 11
455.36905
 21
295.722214
 31
0.0
  0
LINE
  5
105B
330
164A
100
AcDbEntity
  8
0
100
AcDbLine
 10
317.20305
 20
295.722214
 30
0.0
 11
317.20305
 21
294.222214
 31
0.0
  0
LINE
  5
105C
330
164A
100
AcDbEntity
  8
0
100
AcDbLine
 10
451.20305
 20
295.722214
 30
0.0
 11
451.20305
 21
294.222214
 31
0.0
  0
ARC
  5
105D
330
164A
100
AcDbEntity
  8
0
100
AcDbCircle
 10
303.15305
 20
311.222214
 30
0.0
 40
1.5
100
AcDbArc
 50
20.0
 51
90.0
  0
ARC
  5
105E
330
164A
100
AcDbEntity
  8
0
100
AcDbCircle
 10
313.03705
 20
297.222214
 30
0.0
 40
1.5
100
AcDbArc
 50
200.0
 51
270.0
  0
ARC
  5
105F
330
164A
100
AcDbEntity
  8
0
100
AcDbCircle
 10
303.15305
 20
311.222214
 30
0.0
 40
3.0
100
AcDbArc
 50
20.0
 51
90.0
  0
ARC
  5
1060
330
164A
100
AcDbEntity
  8
0
100
AcDbCircle
 10
313.03705
 20
297.222214
 30
0.0
 40
3.0
100
AcDbArc
 50
200.0
 51
270.0
  0
ARC
  5
1061
330
164A
100
AcDbEntity
  8
0
100
AcDbCircle
 10
455.36905
 20
297.222214
 30
0.0
 40
3.0
100
AcDbArc
 50
270.0
 51
340.0
  0
ARC
  5
1062
330
164A
100
AcDbEntity
  8
0
100
AcDbCircle
 10
465.25305
 20
311.222214
 30
0.0
 40
3.0
100
AcDbArc
 50
90.0
 51
160.0
  0
ARC
  5
1063
330
164A
100
AcDbEntity
  8
0
100
AcDbCircle
 10
465.25305
 20
311.222214
 30
0.0
 40
1.5
100
AcDbArc
 50
90.0
 51
160.0
  0
ARC
  5
1064
330
164A
100
AcDbEntity
  8
0
100
AcDbCircle
 10
455.36905
 20
297.222214
 30
0.0
 40
1.5
100
AcDbArc
 50
270.0
 51
340.0
  0
LINE
  5
1065
330
164A
100
AcDbEntity
  8
0
100
AcDbLine
 10
374.20305
 20
314.222214
 30
0.0
 11
374.20305
 21
294.222214
 31
0.0
  0
LINE
  5
1066
330
164A
100
AcDbEntity
  8
0
100
AcDbLine
 10
394.20305
 20
314.222214
 30
0.0
 11
394.20305
 21
294.222214
 31
0.0
  0
LINE
  5
1067
330
164A
100
AcDbEntity
  8
0
100
AcDbLine
 10
374.20305
 20
314.222214
 30
0.0
 11
394.20305
 21
314.222214
 31
0.0
  0
LINE
  5
1068
330
164A
100
AcDbEntity
  8
0
100
AcDbLine
 10
374.20305
 20
295.722214
 30
0.0
 11
394.20305
 21
295.722214
 31
0.0
  0
CIRCLE
  5
1069
330
164A
100
AcDbEntity
  8
0
100
AcDbCircle
 10
442.7030499999999
 20
288.222214
 30
0.0
 40
1.5
  0
LINE
  5
106A
330
164A
100
AcDbEntity
  8
0
100
AcDbLine
 10
440.39505
 20
286.722214
 30
0.0
 11
439.47805
 21
267.825214
 31
0.0
  0
LINE
  5
106B
330
164A
100
AcDbEntity
  8
ND_3A
 48
0.141
100
AcDbLine
 10
208.67
 20
299.07
 30
0.0
 11
208.752
 21
300.758
 31
0.0
  0
ARC
  5
106C
330
164A
100
AcDbEntity
  8
0
100
AcDbCircle
 10
442.02205
 20
288.693214
 30
0.0
 40
1.529
100
AcDbArc
 50
37.559
 51
137.697
  0
ARC
  5
106D
330
164A
100
AcDbEntity
  8
0
100
AcDbCircle
 10
335.11805
 20
268.6322140000001
 30
0.0
 40
2.41
100
AcDbArc
 50
0.0
 51
2.399
  0
ARC
  5
106E
330
164A
100
AcDbEntity
  8
0
100
AcDbCircle
 10
346.36905
 20
269.376214
 30
0.0
 40
3.153999999999999
100
AcDbArc
 50
0.0
 51
1.848
  0
ARC
  5
106F
330
164A
100
AcDbEntity
  8
0
100
AcDbCircle
 10
360.21805
 20
269.906214
 30
0.0
 40
3.683999999999999
100
AcDbArc
 50
0.0
 51
1.171999999999999
  0
ARC
  5
1070
330
164A
100
AcDbEntity
  8
0
100
AcDbCircle
 10
376.16105
 20
270.188214
 30
0.0
 40
3.966
100
AcDbArc
 50
0.0
 51
0.393
  0
ARC
  5
1071
330
164A
100
AcDbEntity
  8
0
100
AcDbCircle
 10
327.40005
 20
267.751214
 30
0.0
 40
1.529
100
AcDbArc
 50
0.0
 51
2.778
  0
ARC
  5
1072
330
164A
100
AcDbEntity
  8
0
100
AcDbCircle
 10
323.29905
 20
266.743214
 30
0.0
 40
0.521
100
AcDbArc
 50
0.0
 51
2.981
  0
ARC
  5
1073
330
164A
100
AcDbEntity
  8
0
100
AcDbCircle
 10
323.29905
 20
266.743214
 30
0.0
 40
0.521
100
AcDbArc
 50
182.981
 51
0.0
  0
ARC
  5
1074
330
164A
100
AcDbEntity
  8
0
100
AcDbCircle
 10
327.40005
 20
267.751214
 30
0.0
 40
1.529
100
AcDbArc
 50
182.778
 51
0.0
  0
ARC
  5
1075
330
164A
100
AcDbEntity
  8
0
100
AcDbCircle
 10
335.11805
 20
268.6322140000001
 30
0.0
 40
2.41
100
AcDbArc
 50
182.399
 51
0.0
  0
ARC
  5
1076
330
164A
100
AcDbEntity
  8
0
100
AcDbCircle
 10
346.36905
 20
269.376214
 30
0.0
 40
3.153999999999999
100
AcDbArc
 50
181.848
 51
0.0
  0
ARC
  5
1077
330
164A
100
AcDbEntity
  8
0
100
AcDbCircle
 10
360.21805
 20
269.906214
 30
0.0
 40
3.683999999999999
100
AcDbArc
 50
181.172
 51
0.0
  0
ARC
  5
1078
330
164A
100
AcDbEntity
  8
0
100
AcDbCircle
 10
376.16105
 20
270.188214
 30
0.0
 40
3.966
100
AcDbArc
 50
180.393
 51
0.0
  0
ARC
  5
1079
330
164A
100
AcDbEntity
  8
0
100
AcDbCircle
 10
441.00605
 20
267.751214
 30
0.0
 40
1.529
100
AcDbArc
 50
177.222
 51
357.222
  0
ARC
  5
107A
330
164A
100
AcDbEntity
  8
0
100
AcDbCircle
 10
445.10705
 20
266.743214
 30
0.0
 40
0.521
100
AcDbArc
 50
177.019
 51
0.0
  0
ARC
  5
107B
330
164A
100
AcDbEntity
  8
0
100
AcDbCircle
 10
422.03705
 20
269.376214
 30
0.0
 40
3.153999999999999
100
AcDbArc
 50
178.152
 51
0.0
  0
ARC
  5
107C
330
164A
100
AcDbEntity
  8
0
100
AcDbCircle
 10
433.2880499999999
 20
268.6322140000001
 30
0.0
 40
2.41
100
AcDbArc
 50
177.601
 51
0.0
  0
ARC
  5
107D
330
164A
100
AcDbEntity
  8
0
100
AcDbCircle
 10
392.24505
 20
270.188214
 30
0.0
 40
3.966
100
AcDbArc
 50
179.607
 51
0.0
  0
ARC
  5
107E
330
164A
100
AcDbEntity
  8
0
100
AcDbCircle
 10
408.1880499999999
 20
269.906214
 30
0.0
 40
3.683999999999999
100
AcDbArc
 50
178.828
 51
0.0
  0
DIMENSION
  5
1087
330
164A
100
AcDbEntity
  8
5
100
AcDbDimension
  2
*D7
 10
239.7217634599347
 20
252.222214
 30
0.0
 11
239.7217634599347
 21
358.2477307322835
 31
0.0
 70
   160
  1
42
 71
     5
 42
42.0
  3
GEN-ISO
100
AcDbAlignedDimension
 13
309.70305
 23
294.222214
 33
0.0
 14
289.70305
 24
252.222214
 34
0.0
 50
270.0
100
AcDbRotatedDimension
1001
ACAD
1000
DSTYLE
1002
{
1070
    41
1040
5.0
1002
}
  0
DIMENSION
  5
1091
330
164A
100
AcDbEntity
  8
5
100
AcDbDimension
  2
*D11
 10
197.6075440259013
 20
252.222214
 30
0.0
 11
197.6075440259013
 21
360.4533816724274
 31
0.0
 70
   160
  1
62
 71
     5
 42
61.99999999999997
  3
GEN-ISO
100
AcDbAlignedDimension
 13
293.20305
 23
314.222214
 33
0.0
 14
327.14805
 24
252.222214
 34
0.0
 50
270.0
100
AcDbRotatedDimension
1001
ACAD
1000
DSTYLE
1002
{
1070
    41
1040
5.0
1002
}
  0
DIMENSION
  5
109B
330
164A
100
AcDbEntity
  8
5
100
AcDbDimension
  2
*D10
 10
475.20305
 20
434.2222139999999
 30
0.0
 11
384.20305
 21
445.9739364409448
 31
0.0
 70
    32
  1
182
 71
     5
 42
182.0
  3
GEN-ISO
100
AcDbAlignedDimension
 13
293.20305
 23
314.222214
 33
0.0
 14
475.20305
 24
314.222214
 34
0.0
100
AcDbRotatedDimension
1001
ACAD
1000
DSTYLE
1002
{
1070
    41
1040
5.0
1002
}
  0
DIMENSION
  5
10B1
330
164A
100
AcDbEntity
  8
5
100
AcDbDimension
  2
*D8
 10
363.56105
 20
364.222214
 30
0.0
 11
420.06105
 21
375.972214
 31
0.0
 70
    32
  1
8
 71
     5
 42
7.367000000000018
  3
GEN-ISO
100
AcDbAlignedDimension
 13
356.19405
 23
286.538214
 33
0.0
 14
363.56105
 24
286.614214
 34
0.0
100
AcDbRotatedDimension
1001
ACAD
1000
DSTYLE
1002
{
1070
    41
1040
5.0
1002
}
  0
INSERT
  5
123C
330
164A
100
AcDbEntity
  8
8
100
AcDbBlockReference
  2
*X0
 10
234.79705
 20
-12.138786
 30
0.0
1001
ACAD
1000
HATCH
1002
{
1070
    19
1000
ANSI31,_I
1040
0.36
1040
0.0
1002
}
  0
POLYLINE
  5
123D
330
164A
100
AcDbEntity
  8
SCHRAFFUR_RAND
100
AcDb2dPolyline
 66
     1
 10
0.0
 20
0.0
 30
0.0
 70
     1
  0
VERTEX
  5
123E
330
123D
100
AcDbEntity
  8
SCHRAFFUR_RAND
100
AcDbVertex
100
AcDb2dVertex
 10
455.36905
 20
294.222214
 30
0.0
  0
VERTEX
  5
123F
330
123D
100
AcDbEntity
  8
SCHRAFFUR_RAND
100
AcDbVertex
100
AcDb2dVertex
 10
455.89105
 20
294.259214
 30
0.0
  0
VERTEX
  5
1240
330
123D
100
AcDbEntity
  8
SCHRAFFUR_RAND
100
AcDbVertex
100
AcDb2dVertex
 10
456.39805
 20
294.395214
 30
0.0
  0
VERTEX
  5
1241
330
123D
100
AcDbEntity
  8
SCHRAFFUR_RAND
100
AcDbVertex
100
AcDb2dVertex
 10
456.87305
 20
294.617214
 30
0.0
  0
VERTEX
  5
1242
330
123D
100
AcDbEntity
  8
SCHRAFFUR_RAND
100
AcDbVertex
100
AcDb2dVertex
 10
457.3030499999999
 20
294.917214
 30
0.0
  0
VERTEX
  5
1243
330
123D
100
AcDbEntity
  8
SCHRAFFUR_RAND
100
AcDbVertex
100
AcDb2dVertex
 10
457.67405
 20
295.288214
 30
0.0
  0
VERTEX
  5
1244
330
123D
100
AcDbEntity
  8
SCHRAFFUR_RAND
100
AcDbVertex
100
AcDb2dVertex
 10
457.9740499999999
 20
295.718214
 30
0.0
  0
VERTEX
  5
1245
330
123D
100
AcDbEntity
  8
SCHRAFFUR_RAND
100
AcDbVertex
100
AcDb2dVertex
 10
458.1880499999999
 20
296.196214
 30
0.0
  0
VERTEX
  5
1246
330
123D
100
AcDbEntity
  8
SCHRAFFUR_RAND
100
AcDbVertex
100
AcDb2dVertex
 10
463.8440499999999
 20
311.735214
 30
0.0
  0
VERTEX
  5
1247
330
123D
100
AcDbEntity
  8
SCHRAFFUR_RAND
100
AcDbVertex
100
AcDb2dVertex
 10
464.0030499999999
 20
312.065214
 30
0.0
  0
VERTEX
  5
1248
330
123D
100
AcDbEntity
  8
SCHRAFFUR_RAND
100
AcDbVertex
100
AcDb2dVertex
 10
464.24405
 20
312.343214
 30
0.0
  0
VERTEX
  5
1249
330
123D
100
AcDbEntity
  8
SCHRAFFUR_RAND
100
AcDbVertex
100
AcDb2dVertex
 10
464.5450499999999
 20
312.554214
 30
0.0
  0
VERTEX
  5
124A
330
123D
100
AcDbEntity
  8
SCHRAFFUR_RAND
100
AcDbVertex
100
AcDb2dVertex
 10
464.88805
 20
312.686214
 30
0.0
  0
VERTEX
  5
124B
330
123D
100
AcDbEntity
  8
SCHRAFFUR_RAND
100
AcDbVertex
100
AcDb2dVertex
 10
465.25305
 20
312.722214
 30
0.0
  0
VERTEX
  5
124C
330
123D
100
AcDbEntity
  8
SCHRAFFUR_RAND
100
AcDbVertex
100
AcDb2dVertex
 10
475.20305
 20
312.722214
 30
0.0
  0
VERTEX
  5
124D
330
123D
100
AcDbEntity
  8
SCHRAFFUR_RAND
100
AcDbVertex
100
AcDb2dVertex
 10
475.20305
 20
314.222214
 30
0.0
  0
VERTEX
  5
124E
330
123D
100
AcDbEntity
  8
SCHRAFFUR_RAND
100
AcDbVertex
100
AcDb2dVertex
 10
465.25305
 20
314.222214
 30
0.0
  0
VERTEX
  5
124F
330
123D
100
AcDbEntity
  8
SCHRAFFUR_RAND
100
AcDbVertex
100
AcDb2dVertex
 10
464.7310499999999
 20
314.1852140000001
 30
0.0
  0
VERTEX
  5
1250
330
123D
100
AcDbEntity
  8
SCHRAFFUR_RAND
100
AcDbVertex
100
AcDb2dVertex
 10
464.2240499999999
 20
314.049214
 30
0.0
  0
VERTEX
  5
1251
330
123D
100
AcDbEntity
  8
SCHRAFFUR_RAND
100
AcDbVertex
100
AcDb2dVertex
 10
463.74905
 20
313.827214
 30
0.0
  0
VERTEX
  5
1252
330
123D
100
AcDbEntity
  8
SCHRAFFUR_RAND
100
AcDbVertex
100
AcDb2dVertex
 10
463.32005
 20
313.527214
 30
0.0
  0
VERTEX
  5
1253
330
123D
100
AcDbEntity
  8
SCHRAFFUR_RAND
100
AcDbVertex
100
AcDb2dVertex
 10
462.94905
 20
313.156214
 30
0.0
  0
VERTEX
  5
1254
330
123D
100
AcDbEntity
  8
SCHRAFFUR_RAND
100
AcDbVertex
100
AcDb2dVertex
 10
462.64805
 20
312.726214
 30
0.0
  0
VERTEX
  5
1255
330
123D
100
AcDbEntity
  8
SCHRAFFUR_RAND
100
AcDbVertex
100
AcDb2dVertex
 10
462.43405
 20
312.248214
 30
0.0
  0
VERTEX
  5
1256
330
123D
100
AcDbEntity
  8
SCHRAFFUR_RAND
100
AcDbVertex
100
AcDb2dVertex
 10
456.77905
 20
296.709214
 30
0.0
  0
VERTEX
  5
1257
330
123D
100
AcDbEntity
  8
SCHRAFFUR_RAND
100
AcDbVertex
100
AcDb2dVertex
 10
456.6200499999999
 20
296.378214
 30
0.0
  0
VERTEX
  5
1258
330
123D
100
AcDbEntity
  8
SCHRAFFUR_RAND
100
AcDbVertex
100
AcDb2dVertex
 10
456.37805
 20
296.101214
 30
0.0
  0
VERTEX
  5
1259
330
123D
100
AcDbEntity
  8
SCHRAFFUR_RAND
100
AcDbVertex
100
AcDb2dVertex
 10
456.07705
 20
295.890214
 30
0.0
  0
VERTEX
  5
125A
330
123D
100
AcDbEntity
  8
SCHRAFFUR_RAND
100
AcDbVertex
100
AcDb2dVertex
 10
455.73405
 20
295.758214
 30
0.0
  0
VERTEX
  5
125B
330
123D
100
AcDbEntity
  8
SCHRAFFUR_RAND
100
AcDbVertex
100
AcDb2dVertex
 10
455.36905
 20
295.722214
 30
0.0
  0
VERTEX
  5
125C
330
123D
100
AcDbEntity
  8
SCHRAFFUR_RAND
100
AcDbVertex
100
AcDb2dVertex
 10
451.20305
 20
295.722214
 30
0.0
  0
VERTEX
  5
125D
330
123D
100
AcDbEntity
  8
SCHRAFFUR_RAND
100
AcDbVertex
100
AcDb2dVertex
 10
451.20305
 20
294.222214
 30
0.0
  0
VERTEX
  5
125E
330
123D
100
AcDbEntity
  8
SCHRAFFUR_RAND
100
AcDbVertex
100
AcDb2dVertex
 10
455.36905
 20
294.222214
 30
0.0
  0
SEQEND
  5
125F
330
123D
100
AcDbEntity
  8
SCHRAFFUR_RAND
  0
INSERT
  5
1299
330
164A
100
AcDbEntity
  8
8
100
AcDbBlockReference
  2
*X1
 10
234.79705
 20
-12.138786
 30
0.0
1001
ACAD
1000
HATCH
1002
{
1070
    19
1000
ANSI31,_I
1040
0.36
1040
0.0
1002
}
  0
INSERT
  5
1424
330
164A
100
AcDbEntity
  8
8
100
AcDbBlockReference
  2
*X2
 10
234.79705
 20
-12.138786
 30
0.0
1001
ACAD
1000
HATCH
1002
{
1070
    19
1000
ANSI31,_I
1040
0.36
1040
0.0
1002
}
  0
POLYLINE
  5
1425
330
164A
100
AcDbEntity
  8
SCHRAFFUR_RAND
100
AcDb2dPolyline
 66
     1
 10
0.0
 20
0.0
 30
0.0
 70
     1
  0
VERTEX
  5
1426
330
1425
100
AcDbEntity
  8
SCHRAFFUR_RAND
100
AcDbVertex
100
AcDb2dVertex
 10
317.40705
 20
294.222214
 30
0.0
  0
VERTEX
  5
1427
330
1425
100
AcDbEntity
  8
SCHRAFFUR_RAND
100
AcDbVertex
100
AcDb2dVertex
 10
317.20305
 20
294.222214
 30
0.0
  0
VERTEX
  5
1428
330
1425
100
AcDbEntity
  8
SCHRAFFUR_RAND
100
AcDbVertex
100
AcDb2dVertex
 10
313.03705
 20
294.222214
 30
0.0
  0
VERTEX
  5
1429
330
1425
100
AcDbEntity
  8
SCHRAFFUR_RAND
100
AcDbVertex
100
AcDb2dVertex
 10
309.70305
 20
294.222214
 30
0.0
  0
VERTEX
  5
142A
330
1425
100
AcDbEntity
  8
SCHRAFFUR_RAND
100
AcDbVertex
100
AcDb2dVertex
 10
309.70305
 20
293.222214
 30
0.0
  0
VERTEX
  5
142B
330
1425
100
AcDbEntity
  8
SCHRAFFUR_RAND
100
AcDbVertex
100
AcDb2dVertex
 10
317.40705
 20
293.222214
 30
0.0
  0
VERTEX
  5
142C
330
1425
100
AcDbEntity
  8
SCHRAFFUR_RAND
100
AcDbVertex
100
AcDb2dVertex
 10
317.97505
 20
293.176214
 30
0.0
  0
VERTEX
  5
142D
330
1425
100
AcDbEntity
  8
SCHRAFFUR_RAND
100
AcDbVertex
100
AcDb2dVertex
 10
318.52205
 20
293.016214
 30
0.0
  0
VERTEX
  5
142E
330
1425
100
AcDbEntity
  8
SCHRAFFUR_RAND
100
AcDbVertex
100
AcDb2dVertex
 10
319.02905
 20
292.756214
 30
0.0
  0
VERTEX
  5
142F
330
1425
100
AcDbEntity
  8
SCHRAFFUR_RAND
100
AcDbVertex
100
AcDb2dVertex
 10
319.47805
 20
292.404214
 30
0.0
  0
VERTEX
  5
1430
330
1425
100
AcDbEntity
  8
SCHRAFFUR_RAND
100
AcDbVertex
100
AcDb2dVertex
 10
319.85305
 20
291.974214
 30
0.0
  0
VERTEX
  5
1431
330
1425
100
AcDbEntity
  8
SCHRAFFUR_RAND
100
AcDbVertex
100
AcDb2dVertex
 10
320.13905
 20
291.481214
 30
0.0
  0
VERTEX
  5
1432
330
1425
100
AcDbEntity
  8
SCHRAFFUR_RAND
100
AcDbVertex
100
AcDb2dVertex
 10
320.32805
 20
290.943214
 30
0.0
  0
VERTEX
  5
1433
330
1425
100
AcDbEntity
  8
SCHRAFFUR_RAND
100
AcDbVertex
100
AcDb2dVertex
 10
320.40305
 20
290.379214
 30
0.0
  0
VERTEX
  5
1434
330
1425
100
AcDbEntity
  8
SCHRAFFUR_RAND
100
AcDbVertex
100
AcDb2dVertex
 10
322.15405
 20
256.960214
 30
0.0
  0
VERTEX
  5
1435
330
1425
100
AcDbEntity
  8
SCHRAFFUR_RAND
100
AcDbVertex
100
AcDb2dVertex
 10
322.24305
 20
256.206214
 30
0.0
  0
VERTEX
  5
1436
330
1425
100
AcDbEntity
  8
SCHRAFFUR_RAND
100
AcDbVertex
100
AcDb2dVertex
 10
322.45305
 20
255.476214
 30
0.0
  0
VERTEX
  5
1437
330
1425
100
AcDbEntity
  8
SCHRAFFUR_RAND
100
AcDbVertex
100
AcDb2dVertex
 10
322.77105
 20
254.786214
 30
0.0
  0
VERTEX
  5
1438
330
1425
100
AcDbEntity
  8
SCHRAFFUR_RAND
100
AcDbVertex
100
AcDb2dVertex
 10
323.19005
 20
254.152214
 30
0.0
  0
VERTEX
  5
1439
330
1425
100
AcDbEntity
  8
SCHRAFFUR_RAND
100
AcDbVertex
100
AcDb2dVertex
 10
323.70005
 20
253.589214
 30
0.0
  0
VERTEX
  5
143A
330
1425
100
AcDbEntity
  8
SCHRAFFUR_RAND
100
AcDbVertex
100
AcDb2dVertex
 10
324.28905
 20
253.109214
 30
0.0
  0
VERTEX
  5
143B
330
1425
100
AcDbEntity
  8
SCHRAFFUR_RAND
100
AcDbVertex
100
AcDb2dVertex
 10
324.94405
 20
252.724214
 30
0.0
  0
VERTEX
  5
143C
330
1425
100
AcDbEntity
  8
SCHRAFFUR_RAND
100
AcDbVertex
100
AcDb2dVertex
 10
325.65005
 20
252.443214
 30
0.0
  0
VERTEX
  5
143D
330
1425
100
AcDbEntity
  8
SCHRAFFUR_RAND
100
AcDbVertex
100
AcDb2dVertex
 10
326.39005
 20
252.271214
 30
0.0
  0
VERTEX
  5
143E
330
1425
100
AcDbEntity
  8
SCHRAFFUR_RAND
100
AcDbVertex
100
AcDb2dVertex
 10
327.14805
 20
252.222214
 30
0.0
  0
VERTEX
  5
143F
330
1425
100
AcDbEntity
  8
SCHRAFFUR_RAND
100
AcDbVertex
100
AcDb2dVertex
 10
352.20305
 20
252.222214
 30
0.0
  0
VERTEX
  5
1440
330
1425
100
AcDbEntity
  8
SCHRAFFUR_RAND
100
AcDbVertex
100
AcDb2dVertex
 10
371.20305
 20
263.222214
 30
0.0
  0
VERTEX
  5
1441
330
1425
100
AcDbEntity
  8
SCHRAFFUR_RAND
100
AcDbVertex
100
AcDb2dVertex
 10
384.20305
 20
263.222214
 30
0.0
  0
VERTEX
  5
1442
330
1425
100
AcDbEntity
  8
SCHRAFFUR_RAND
100
AcDbVertex
100
AcDb2dVertex
 10
397.20305
 20
263.222214
 30
0.0
  0
VERTEX
  5
1443
330
1425
100
AcDbEntity
  8
SCHRAFFUR_RAND
100
AcDbVertex
100
AcDb2dVertex
 10
416.20305
 20
252.222214
 30
0.0
  0
VERTEX
  5
1444
330
1425
100
AcDbEntity
  8
SCHRAFFUR_RAND
100
AcDbVertex
100
AcDb2dVertex
 10
441.25805
 20
252.222214
 30
0.0
  0
VERTEX
  5
1445
330
1425
100
AcDbEntity
  8
SCHRAFFUR_RAND
100
AcDbVertex
100
AcDb2dVertex
 10
442.01605
 20
252.271214
 30
0.0
  0
VERTEX
  5
1446
330
1425
100
AcDbEntity
  8
SCHRAFFUR_RAND
100
AcDbVertex
100
AcDb2dVertex
 10
442.75605
 20
252.443214
 30
0.0
  0
VERTEX
  5
1447
330
1425
100
AcDbEntity
  8
SCHRAFFUR_RAND
100
AcDbVertex
100
AcDb2dVertex
 10
443.46205
 20
252.724214
 30
0.0
  0
VERTEX
  5
1448
330
1425
100
AcDbEntity
  8
SCHRAFFUR_RAND
100
AcDbVertex
100
AcDb2dVertex
 10
444.11705
 20
253.109214
 30
0.0
  0
VERTEX
  5
1449
330
1425
100
AcDbEntity
  8
SCHRAFFUR_RAND
100
AcDbVertex
100
AcDb2dVertex
 10
444.70605
 20
253.589214
 30
0.0
  0
VERTEX
  5
144A
330
1425
100
AcDbEntity
  8
SCHRAFFUR_RAND
100
AcDbVertex
100
AcDb2dVertex
 10
445.2160499999999
 20
254.152214
 30
0.0
  0
VERTEX
  5
144B
330
1425
100
AcDbEntity
  8
SCHRAFFUR_RAND
100
AcDbVertex
100
AcDb2dVertex
 10
445.63505
 20
254.786214
 30
0.0
  0
VERTEX
  5
144C
330
1425
100
AcDbEntity
  8
SCHRAFFUR_RAND
100
AcDbVertex
100
AcDb2dVertex
 10
445.95305
 20
255.476214
 30
0.0
  0
VERTEX
  5
144D
330
1425
100
AcDbEntity
  8
SCHRAFFUR_RAND
100
AcDbVertex
100
AcDb2dVertex
 10
446.16305
 20
256.206214
 30
0.0
  0
VERTEX
  5
144E
330
1425
100
AcDbEntity
  8
SCHRAFFUR_RAND
100
AcDbVertex
100
AcDb2dVertex
 10
446.25205
 20
256.960214
 30
0.0
  0
VERTEX
  5
144F
330
1425
100
AcDbEntity
  8
SCHRAFFUR_RAND
100
AcDbVertex
100
AcDb2dVertex
 10
448.0030499999999
 20
290.379214
 30
0.0
  0
VERTEX
  5
1450
330
1425
100
AcDbEntity
  8
SCHRAFFUR_RAND
100
AcDbVertex
100
AcDb2dVertex
 10
448.07805
 20
290.943214
 30
0.0
  0
VERTEX
  5
1451
330
1425
100
AcDbEntity
  8
SCHRAFFUR_RAND
100
AcDbVertex
100
AcDb2dVertex
 10
448.26705
 20
291.481214
 30
0.0
  0
VERTEX
  5
1452
330
1425
100
AcDbEntity
  8
SCHRAFFUR_RAND
100
AcDbVertex
100
AcDb2dVertex
 10
448.55305
 20
291.974214
 30
0.0
  0
VERTEX
  5
1453
330
1425
100
AcDbEntity
  8
SCHRAFFUR_RAND
100
AcDbVertex
100
AcDb2dVertex
 10
448.9280499999999
 20
292.404214
 30
0.0
  0
VERTEX
  5
1454
330
1425
100
AcDbEntity
  8
SCHRAFFUR_RAND
100
AcDbVertex
100
AcDb2dVertex
 10
449.37705
 20
292.756214
 30
0.0
  0
VERTEX
  5
1455
330
1425
100
AcDbEntity
  8
SCHRAFFUR_RAND
100
AcDbVertex
100
AcDb2dVertex
 10
449.88405
 20
293.016214
 30
0.0
  0
VERTEX
  5
1456
330
1425
100
AcDbEntity
  8
SCHRAFFUR_RAND
100
AcDbVertex
100
AcDb2dVertex
 10
450.43105
 20
293.176214
 30
0.0
  0
VERTEX
  5
1457
330
1425
100
AcDbEntity
  8
SCHRAFFUR_RAND
100
AcDbVertex
100
AcDb2dVertex
 10
450.9990499999999
 20
293.222214
 30
0.0
  0
VERTEX
  5
1458
330
1425
100
AcDbEntity
  8
SCHRAFFUR_RAND
100
AcDbVertex
100
AcDb2dVertex
 10
458.70305
 20
293.222214
 30
0.0
  0
VERTEX
  5
1459
330
1425
100
AcDbEntity
  8
SCHRAFFUR_RAND
100
AcDbVertex
100
AcDb2dVertex
 10
458.70305
 20
294.222214
 30
0.0
  0
VERTEX
  5
145A
330
1425
100
AcDbEntity
  8
SCHRAFFUR_RAND
100
AcDbVertex
100
AcDb2dVertex
 10
455.36905
 20
294.222214
 30
0.0
  0
VERTEX
  5
145B
330
1425
100
AcDbEntity
  8
SCHRAFFUR_RAND
100
AcDbVertex
100
AcDb2dVertex
 10
451.20305
 20
294.222214
 30
0.0
  0
VERTEX
  5
145C
330
1425
100
AcDbEntity
  8
SCHRAFFUR_RAND
100
AcDbVertex
100
AcDb2dVertex
 10
450.9990499999999
 20
294.222214
 30
0.0
  0
VERTEX
  5
145D
330
1425
100
AcDbEntity
  8
SCHRAFFUR_RAND
100
AcDbVertex
100
AcDb2dVertex
 10
450.32605
 20
294.174214
 30
0.0
  0
VERTEX
  5
145E
330
1425
100
AcDbEntity
  8
SCHRAFFUR_RAND
100
AcDbVertex
100
AcDb2dVertex
 10
449.67205
 20
294.004214
 30
0.0
  0
VERTEX
  5
145F
330
1425
100
AcDbEntity
  8
SCHRAFFUR_RAND
100
AcDbVertex
100
AcDb2dVertex
 10
449.0560499999999
 20
293.728214
 30
0.0
  0
VERTEX
  5
1460
330
1425
100
AcDbEntity
  8
SCHRAFFUR_RAND
100
AcDbVertex
100
AcDb2dVertex
 10
448.49405
 20
293.352214
 30
0.0
  0
VERTEX
  5
1461
330
1425
100
AcDbEntity
  8
SCHRAFFUR_RAND
100
AcDbVertex
100
AcDb2dVertex
 10
448.00405
 20
292.887214
 30
0.0
  0
VERTEX
  5
1462
330
1425
100
AcDbEntity
  8
SCHRAFFUR_RAND
100
AcDbVertex
100
AcDb2dVertex
 10
447.5990499999999
 20
292.346214
 30
0.0
  0
VERTEX
  5
1463
330
1425
100
AcDbEntity
  8
SCHRAFFUR_RAND
100
AcDbVertex
100
AcDb2dVertex
 10
447.29105
 20
291.745214
 30
0.0
  0
VERTEX
  5
1464
330
1425
100
AcDbEntity
  8
SCHRAFFUR_RAND
100
AcDbVertex
100
AcDb2dVertex
 10
447.0880499999999
 20
291.101214
 30
0.0
  0
VERTEX
  5
1465
330
1425
100
AcDbEntity
  8
SCHRAFFUR_RAND
100
AcDbVertex
100
AcDb2dVertex
 10
447.00405
 20
290.431214
 30
0.0
  0
VERTEX
  5
1466
330
1425
100
AcDbEntity
  8
SCHRAFFUR_RAND
100
AcDbVertex
100
AcDb2dVertex
 10
445.2530499999999
 20
257.013214
 30
0.0
  0
VERTEX
  5
1467
330
1425
100
AcDbEntity
  8
SCHRAFFUR_RAND
100
AcDbVertex
100
AcDb2dVertex
 10
445.16905
 20
256.343214
 30
0.0
  0
VERTEX
  5
1468
330
1425
100
AcDbEntity
  8
SCHRAFFUR_RAND
100
AcDbVertex
100
AcDb2dVertex
 10
444.96605
 20
255.699214
 30
0.0
  0
VERTEX
  5
1469
330
1425
100
AcDbEntity
  8
SCHRAFFUR_RAND
100
AcDbVertex
100
AcDb2dVertex
 10
444.65805
 20
255.098214
 30
0.0
  0
VERTEX
  5
146A
330
1425
100
AcDbEntity
  8
SCHRAFFUR_RAND
100
AcDbVertex
100
AcDb2dVertex
 10
444.25305
 20
254.557214
 30
0.0
  0
VERTEX
  5
146B
330
1425
100
AcDbEntity
  8
SCHRAFFUR_RAND
100
AcDbVertex
100
AcDb2dVertex
 10
443.76305
 20
254.092214
 30
0.0
  0
VERTEX
  5
146C
330
1425
100
AcDbEntity
  8
SCHRAFFUR_RAND
100
AcDbVertex
100
AcDb2dVertex
 10
443.20205
 20
253.716214
 30
0.0
  0
VERTEX
  5
146D
330
1425
100
AcDbEntity
  8
SCHRAFFUR_RAND
100
AcDbVertex
100
AcDb2dVertex
 10
442.5860499999999
 20
253.440214
 30
0.0
  0
VERTEX
  5
146E
330
1425
100
AcDbEntity
  8
SCHRAFFUR_RAND
100
AcDbVertex
100
AcDb2dVertex
 10
441.93205
 20
253.270214
 30
0.0
  0
VERTEX
  5
146F
330
1425
100
AcDbEntity
  8
SCHRAFFUR_RAND
100
AcDbVertex
100
AcDb2dVertex
 10
441.25805
 20
253.222214
 30
0.0
  0
VERTEX
  5
1470
330
1425
100
AcDbEntity
  8
SCHRAFFUR_RAND
100
AcDbVertex
100
AcDb2dVertex
 10
416.47205
 20
253.222214
 30
0.0
  0
VERTEX
  5
1471
330
1425
100
AcDbEntity
  8
SCHRAFFUR_RAND
100
AcDbVertex
100
AcDb2dVertex
 10
397.47205
 20
264.222214
 30
0.0
  0
VERTEX
  5
1472
330
1425
100
AcDbEntity
  8
SCHRAFFUR_RAND
100
AcDbVertex
100
AcDb2dVertex
 10
384.20305
 20
264.222214
 30
0.0
  0
VERTEX
  5
1473
330
1425
100
AcDbEntity
  8
SCHRAFFUR_RAND
100
AcDbVertex
100
AcDb2dVertex
 10
370.93405
 20
264.222214
 30
0.0
  0
VERTEX
  5
1474
330
1425
100
AcDbEntity
  8
SCHRAFFUR_RAND
100
AcDbVertex
100
AcDb2dVertex
 10
351.93405
 20
253.222214
 30
0.0
  0
VERTEX
  5
1475
330
1425
100
AcDbEntity
  8
SCHRAFFUR_RAND
100
AcDbVertex
100
AcDb2dVertex
 10
327.14805
 20
253.222214
 30
0.0
  0
VERTEX
  5
1476
330
1425
100
AcDbEntity
  8
SCHRAFFUR_RAND
100
AcDbVertex
100
AcDb2dVertex
 10
326.47505
 20
253.270214
 30
0.0
  0
VERTEX
  5
1477
330
1425
100
AcDbEntity
  8
SCHRAFFUR_RAND
100
AcDbVertex
100
AcDb2dVertex
 10
325.82105
 20
253.440214
 30
0.0
  0
VERTEX
  5
1478
330
1425
100
AcDbEntity
  8
SCHRAFFUR_RAND
100
AcDbVertex
100
AcDb2dVertex
 10
325.20405
 20
253.716214
 30
0.0
  0
VERTEX
  5
1479
330
1425
100
AcDbEntity
  8
SCHRAFFUR_RAND
100
AcDbVertex
100
AcDb2dVertex
 10
324.64305
 20
254.092214
 30
0.0
  0
VERTEX
  5
147A
330
1425
100
AcDbEntity
  8
SCHRAFFUR_RAND
100
AcDbVertex
100
AcDb2dVertex
 10
324.15305
 20
254.557214
 30
0.0
  0
VERTEX
  5
147B
330
1425
100
AcDbEntity
  8
SCHRAFFUR_RAND
100
AcDbVertex
100
AcDb2dVertex
 10
323.74805
 20
255.098214
 30
0.0
  0
VERTEX
  5
147C
330
1425
100
AcDbEntity
  8
SCHRAFFUR_RAND
100
AcDbVertex
100
AcDb2dVertex
 10
323.44005
 20
255.699214
 30
0.0
  0
VERTEX
  5
147D
330
1425
100
AcDbEntity
  8
SCHRAFFUR_RAND
100
AcDbVertex
100
AcDb2dVertex
 10
323.23705
 20
256.343214
 30
0.0
  0
VERTEX
  5
147E
330
1425
100
AcDbEntity
  8
SCHRAFFUR_RAND
100
AcDbVertex
100
AcDb2dVertex
 10
323.15305
 20
257.013214
 30
0.0
  0
VERTEX
  5
147F
330
1425
100
AcDbEntity
  8
SCHRAFFUR_RAND
100
AcDbVertex
100
AcDb2dVertex
 10
321.40205
 20
290.432214
 30
0.0
  0
VERTEX
  5
1480
330
1425
100
AcDbEntity
  8
SCHRAFFUR_RAND
100
AcDbVertex
100
AcDb2dVertex
 10
321.31805
 20
291.101214
 30
0.0
  0
VERTEX
  5
1481
330
1425
100
AcDbEntity
  8
SCHRAFFUR_RAND
100
AcDbVertex
100
AcDb2dVertex
 10
321.11505
 20
291.745214
 30
0.0
  0
VERTEX
  5
1482
330
1425
100
AcDbEntity
  8
SCHRAFFUR_RAND
100
AcDbVertex
100
AcDb2dVertex
 10
320.80705
 20
292.346214
 30
0.0
  0
VERTEX
  5
1483
330
1425
100
AcDbEntity
  8
SCHRAFFUR_RAND
100
AcDbVertex
100
AcDb2dVertex
 10
320.40205
 20
292.887214
 30
0.0
  0
VERTEX
  5
1484
330
1425
100
AcDbEntity
  8
SCHRAFFUR_RAND
100
AcDbVertex
100
AcDb2dVertex
 10
319.91205
 20
293.352214
 30
0.0
  0
VERTEX
  5
1485
330
1425
100
AcDbEntity
  8
SCHRAFFUR_RAND
100
AcDbVertex
100
AcDb2dVertex
 10
319.35105
 20
293.728214
 30
0.0
  0
VERTEX
  5
1486
330
1425
100
AcDbEntity
  8
SCHRAFFUR_RAND
100
AcDbVertex
100
AcDb2dVertex
 10
318.73405
 20
294.004214
 30
0.0
  0
VERTEX
  5
1487
330
1425
100
AcDbEntity
  8
SCHRAFFUR_RAND
100
AcDbVertex
100
AcDb2dVertex
 10
318.08005
 20
294.174214
 30
0.0
  0
VERTEX
  5
1488
330
1425
100
AcDbEntity
  8
SCHRAFFUR_RAND
100
AcDbVertex
100
AcDb2dVertex
 10
317.40705
 20
294.222214
 30
0.0
  0
SEQEND
  5
1489
330
1425
100
AcDbEntity
  8
SCHRAFFUR_RAND
  0
INSERT
  5
15AF
330
164A
100
AcDbEntity
  8
8
100
AcDbBlockReference
  2
*X3
 10
234.79705
 20
-12.138786
 30
0.0
1001
ACAD
1000
HATCH
1002
{
1070
    19
1000
ANSI31,_I
1040
0.36
1040
0.0
1002
}
  0
POLYLINE
  5
15B0
330
164A
100
AcDbEntity
  8
SCHRAFFUR_RAND
100
AcDb2dPolyline
 66
     1
 10
0.0
 20
0.0
 30
0.0
 70
     1
  0
VERTEX
  5
15B1
330
15B0
100
AcDbEntity
  8
SCHRAFFUR_RAND
100
AcDbVertex
100
AcDb2dVertex
 10
317.20305
 20
294.222214
 30
0.0
  0
VERTEX
  5
15B2
330
15B0
100
AcDbEntity
  8
SCHRAFFUR_RAND
100
AcDbVertex
100
AcDb2dVertex
 10
317.20305
 20
295.722214
 30
0.0
  0
VERTEX
  5
15B3
330
15B0
100
AcDbEntity
  8
SCHRAFFUR_RAND
100
AcDbVertex
100
AcDb2dVertex
 10
313.03705
 20
295.722214
 30
0.0
  0
VERTEX
  5
15B4
330
15B0
100
AcDbEntity
  8
SCHRAFFUR_RAND
100
AcDbVertex
100
AcDb2dVertex
 10
312.67205
 20
295.759214
 30
0.0
  0
VERTEX
  5
15B5
330
15B0
100
AcDbEntity
  8
SCHRAFFUR_RAND
100
AcDbVertex
100
AcDb2dVertex
 10
312.32905
 20
295.890214
 30
0.0
  0
VERTEX
  5
15B6
330
15B0
100
AcDbEntity
  8
SCHRAFFUR_RAND
100
AcDbVertex
100
AcDb2dVertex
 10
312.02805
 20
296.101214
 30
0.0
  0
VERTEX
  5
15B7
330
15B0
100
AcDbEntity
  8
SCHRAFFUR_RAND
100
AcDbVertex
100
AcDb2dVertex
 10
311.78705
 20
296.379214
 30
0.0
  0
VERTEX
  5
15B8
330
15B0
100
AcDbEntity
  8
SCHRAFFUR_RAND
100
AcDbVertex
100
AcDb2dVertex
 10
311.62805
 20
296.709214
 30
0.0
  0
VERTEX
  5
15B9
330
15B0
100
AcDbEntity
  8
SCHRAFFUR_RAND
100
AcDbVertex
100
AcDb2dVertex
 10
305.97205
 20
312.248214
 30
0.0
  0
VERTEX
  5
15BA
330
15B0
100
AcDbEntity
  8
SCHRAFFUR_RAND
100
AcDbVertex
100
AcDb2dVertex
 10
305.75805
 20
312.726214
 30
0.0
  0
VERTEX
  5
15BB
330
15B0
100
AcDbEntity
  8
SCHRAFFUR_RAND
100
AcDbVertex
100
AcDb2dVertex
 10
305.45705
 20
313.156214
 30
0.0
  0
VERTEX
  5
15BC
330
15B0
100
AcDbEntity
  8
SCHRAFFUR_RAND
100
AcDbVertex
100
AcDb2dVertex
 10
305.08605
 20
313.526214
 30
0.0
  0
VERTEX
  5
15BD
330
15B0
100
AcDbEntity
  8
SCHRAFFUR_RAND
100
AcDbVertex
100
AcDb2dVertex
 10
304.65705
 20
313.827214
 30
0.0
  0
VERTEX
  5
15BE
330
15B0
100
AcDbEntity
  8
SCHRAFFUR_RAND
100
AcDbVertex
100
AcDb2dVertex
 10
304.18205
 20
314.049214
 30
0.0
  0
VERTEX
  5
15BF
330
15B0
100
AcDbEntity
  8
SCHRAFFUR_RAND
100
AcDbVertex
100
AcDb2dVertex
 10
303.67505
 20
314.1852140000001
 30
0.0
  0
VERTEX
  5
15C0
330
15B0
100
AcDbEntity
  8
SCHRAFFUR_RAND
100
AcDbVertex
100
AcDb2dVertex
 10
303.15305
 20
314.222214
 30
0.0
  0
VERTEX
  5
15C1
330
15B0
100
AcDbEntity
  8
SCHRAFFUR_RAND
100
AcDbVertex
100
AcDb2dVertex
 10
293.20305
 20
314.222214
 30
0.0
  0
VERTEX
  5
15C2
330
15B0
100
AcDbEntity
  8
SCHRAFFUR_RAND
100
AcDbVertex
100
AcDb2dVertex
 10
293.20305
 20
312.722214
 30
0.0
  0
VERTEX
  5
15C3
330
15B0
100
AcDbEntity
  8
SCHRAFFUR_RAND
100
AcDbVertex
100
AcDb2dVertex
 10
303.15305
 20
312.722214
 30
0.0
  0
VERTEX
  5
15C4
330
15B0
100
AcDbEntity
  8
SCHRAFFUR_RAND
100
AcDbVertex
100
AcDb2dVertex
 10
303.51805
 20
312.685214
 30
0.0
  0
VERTEX
  5
15C5
330
15B0
100
AcDbEntity
  8
SCHRAFFUR_RAND
100
AcDbVertex
100
AcDb2dVertex
 10
303.86105
 20
312.554214
 30
0.0
  0
VERTEX
  5
15C6
330
15B0
100
AcDbEntity
  8
SCHRAFFUR_RAND
100
AcDbVertex
100
AcDb2dVertex
 10
304.16205
 20
312.343214
 30
0.0
  0
VERTEX
  5
15C7
330
15B0
100
AcDbEntity
  8
SCHRAFFUR_RAND
100
AcDbVertex
100
AcDb2dVertex
 10
304.40305
 20
312.065214
 30
0.0
  0
VERTEX
  5
15C8
330
15B0
100
AcDbEntity
  8
SCHRAFFUR_RAND
100
AcDbVertex
100
AcDb2dVertex
 10
304.56205
 20
311.735214
 30
0.0
  0
VERTEX
  5
15C9
330
15B0
100
AcDbEntity
  8
SCHRAFFUR_RAND
100
AcDbVertex
100
AcDb2dVertex
 10
310.21805
 20
296.196214
 30
0.0
  0
VERTEX
  5
15CA
330
15B0
100
AcDbEntity
  8
SCHRAFFUR_RAND
100
AcDbVertex
100
AcDb2dVertex
 10
310.43205
 20
295.718214
 30
0.0
  0
VERTEX
  5
15CB
330
15B0
100
AcDbEntity
  8
SCHRAFFUR_RAND
100
AcDbVertex
100
AcDb2dVertex
 10
310.73305
 20
295.288214
 30
0.0
  0
VERTEX
  5
15CC
330
15B0
100
AcDbEntity
  8
SCHRAFFUR_RAND
100
AcDbVertex
100
AcDb2dVertex
 10
311.10305
 20
294.918214
 30
0.0
  0
VERTEX
  5
15CD
330
15B0
100
AcDbEntity
  8
SCHRAFFUR_RAND
100
AcDbVertex
100
AcDb2dVertex
 10
311.53305
 20
294.617214
 30
0.0
  0
VERTEX
  5
15CE
330
15B0
100
AcDbEntity
  8
SCHRAFFUR_RAND
100
AcDbVertex
100
AcDb2dVertex
 10
312.00805
 20
294.395214
 30
0.0
  0
VERTEX
  5
15CF
330
15B0
100
AcDbEntity
  8
SCHRAFFUR_RAND
100
AcDbVertex
100
AcDb2dVertex
 10
312.51505
 20
294.259214
 30
0.0
  0
VERTEX
  5
15D0
330
15B0
100
AcDbEntity
  8
SCHRAFFUR_RAND
100
AcDbVertex
100
AcDb2dVertex
 10
313.03705
 20
294.222214
 30
0.0
  0
VERTEX
  5
15D1
330
15B0
100
AcDbEntity
  8
SCHRAFFUR_RAND
100
AcDbVertex
100
AcDb2dVertex
 10
317.20305
 20
294.222214
 30
0.0
  0
SEQEND
  5
15D2
330
15B0
100
AcDbEntity
  8
SCHRAFFUR_RAND
  0
INSERT
  5
160C
330
164A
100
AcDbEntity
  8
8
100
AcDbBlockReference
  2
*X4
 10
234.79705
 20
-12.138786
 30
0.0
1001
ACAD
1000
HATCH
1002
{
1070
    19
1000
ANSI31,_I
1040
0.36
1040
0.0
1002
}
  0
INSERT
  5
16D8
330
164A
100
AcDbEntity
  8
0
100
AcDbBlockReference
  2
KATALOG_LEER
 10
251.839706
 20
11.304483
 30
0.0
 41
5.0
 42
5.0
 43
5.0
1001
GENIUS_GENOREF_13
1005
16D9
  0
POINT
  5
16D9
330
164A
100
AcDbEntity
  8
0
 60
     1
100
AcDbPoint
 10
0.0
 20
0.0
 30
0.0
1001
GENIUS_GENOBJ-N-TIT_13
1002
{
1000
OWNER
1000
GEN
1002
}
1001
GENIUS_GENOENT_13
1002
{
1000
MYREF
1005
16D9
1002
}
1002
{
1000
GRP
1005
0
1002
}
1001
GENIUS_GENOLIS_13
1002
{
1000
ENT
1005
16D8
1002
}
1001
GENIUS_GENTITLE_13
1002
{
1000
SCALE
1000
1:5
1002
}
1002
{
1000
BORDER
1000
KATALOG
1002
}
1002
{
1000
TITLE
1000
KATALOG_LEER
1002
}
1002
{
1000
UNCHG
1002
{
1000
GEN-TITLE-SCA
1000
GEN-TITLE-SIZ
1002
}
1002
}
1002
{
1000
HRA
1005
16D1
1002
}
1002
{
1000
HTIT
1005
16D8
1002
}
1002
{
1000
GENIUSID
1005
16D9
1002
}
1001
GENIUS_GENODEF_13
1002
{
1000
HIER
1070
     1
1002
}
1002
{
1000
MANEDIT
1070
     1
1002
}
1002
{
1000
NOSEL
1070
     0
1002
}
1002
{
1000
BEHIND
1070
     0
1002
}
1002
{
1000
REACTOR
1002
}
  0
ENDSEC
  0
SECTION
  2
OBJECTS
  0
DICTIONARY
  5
163E
330
0
100
AcDbDictionary
281
     1
  3
ACAD_COLOR
350
181D
  3
ACAD_GROUP
350
163F
  3
ACAD_LAYOUT
350
1820
  3
ACAD_MATERIAL
350
181C
  3
ACAD_MLINESTYLE
350
164D
  3
ACAD_PLOTSETTINGS
350
1821
  3
ACAD_PLOTSTYLENAME
350
181A
  3
ACAD_TABLESTYLE
350
181E
  3
ACDBHEADERROUNDTRIPXREC
350
1941
  3
AcDbVariableDictionary
350
193C
  3
AcmDictionary
350
187F
  3
AMG
350
1825
  3
AMGSNAPSETTINGS
350
18F5
  0
DICTIONARY
  5
181D
102
{ACAD_REACTORS
330
163E
102
}
330
163E
100
AcDbDictionary
281
     1
  0
DICTIONARY
  5
163F
102
{ACAD_REACTORS
330
163E
102
}
330
163E
100
AcDbDictionary
281
     1
  0
DICTIONARY
  5
1820
102
{ACAD_REACTORS
330
163E
102
}
330
163E
100
AcDbDictionary
281
     1
  3
Layout1
350
1823
  3
Model
350
1822
  0
DICTIONARY
  5
181C
102
{ACAD_REACTORS
330
163E
102
}
330
163E
100
AcDbDictionary
281
     1
  0
DICTIONARY
  5
164D
102
{ACAD_REACTORS
330
163E
102
}
330
163E
100
AcDbDictionary
281
     1
  3
STANDARD
350
164E
  0
DICTIONARY
  5
1821
102
{ACAD_REACTORS
330
163E
102
}
330
163E
100
AcDbDictionary
281
     1
  0
ACDBDICTIONARYWDFLT
  5
181A
102
{ACAD_REACTORS
330
163E
102
}
330
163E
100
AcDbDictionary
281
     1
  3
Normal
350
181B
100
AcDbDictionaryWithDefault
340
181B
  0
DICTIONARY
  5
181E
102
{ACAD_REACTORS
330
163E
102
}
330
163E
100
AcDbDictionary
281
     1
  3
Standard
350
181F
  0
DICTIONARY
  5
1941
102
{ACAD_REACTORS
330
163E
102
}
330
163E
100
AcDbDictionary
281
     1
  0
DICTIONARY
  5
193C
102
{ACAD_REACTORS
330
163E
102
}
330
163E
100
AcDbDictionary
281
     1
  3
CTABLESTYLE
350
193D
  3
DIMASSOC
350
193E
  3
PROJECTNAME
350
193F
  0
DICTIONARY
  5
187F
102
{ACAD_REACTORS
330
163E
102
}
330
163E
100
AcDbDictionary
281
     1
  3
AcmStdDictionary
350
188A
  3
AMDTSECTSYM_ARROWCOLOR
350
18AD
  0
DICTIONARY
  5
1825
102
{ACAD_REACTORS
330
163E
102
}
330
163E
100
AcDbDictionary
281
     1
  0
DICTIONARY
  5
18F5
102
{ACAD_REACTORS
330
163E
102
}
330
163E
100
AcDbDictionary
281
     1
  0
LAYOUT
  5
1823
102
{ACAD_XDICTIONARY
360
1944
102
}
102
{ACAD_REACTORS
330
1820
102
}
330
1820
100
AcDbPlotSettings
  1

  2
Xerox Document Centre CS50 PS
  4

  6

 40
0.0
 41
0.0
 42
0.0
 43
0.0
 44
0.0
 45
0.0
 46
0.0
 47
0.0
 48
0.0
 49
0.0
140
0.0
141
0.0
142
1.0
143
1.0
 70
   688
 72
     0
 73
     0
 74
     5
  7

 75
    16
147
1.0
148
0.0
149
0.0
100
AcDbLayout
  1
Layout1
 70
     1
 71
     1
 10
0.0
 20
0.0
 11
209.9
 21
296.9
 12
0.0
 22
0.0
 32
0.0
 14
0.0
 24
0.0
 34
0.0
 15
209.9
 25
296.9
 35
0.0
146
0.0
 13
0.0
 23
0.0
 33
0.0
 16
1.0
 26
0.0
 36
0.0
 17
0.0
 27
1.0
 37
0.0
 76
     0
330
1647
  0
LAYOUT
  5
1822
102
{ACAD_XDICTIONARY
360
1942
102
}
102
{ACAD_REACTORS
330
1820
102
}
330
1820
100
AcDbPlotSettings
  1

  2
Xerox Document Centre CS50 PS
  4

  6

 40
0.0
 41
0.0
 42
0.0
 43
0.0
 44
0.0
 45
0.0
 46
0.0
 47
0.0
 48
0.0
 49
0.0
140
0.0
141
0.0
142
1.0
143
1.0
 70
  1712
 72
     0
 73
     0
 74
     0
  7

 75
     0
147
1.0
148
0.0
149
0.0
100
AcDbLayout
  1
Model
 70
     1
 71
     0
 10
0.0
 20
0.0
 11
12.0
 21
9.0
 12
0.0
 22
0.0
 32
0.0
 14
0.0
 24
0.0
 34
0.0
 15
0.0
 25
0.0
 35
0.0
146
0.0
 13
0.0
 23
0.0
 33
0.0
 16
1.0
 26
0.0
 36
0.0
 17
0.0
 27
1.0
 37
0.0
 76
     0
330
164A
  0
MLINESTYLE
  5
164E
102
{ACAD_REACTORS
330
164D
102
}
330
164D
100
AcDbMlineStyle
  2
STANDARD
 70
     0
  3

 62
   256
 51
90.0
 52
90.0
 71
     2
 49
0.5
 62
   256
  6
BYLAYER
 49
-0.5
 62
   256
  6
BYLAYER
  0
ACDBPLACEHOLDER
  5
181B
102
{ACAD_REACTORS
330
181A
102
}
330
181A
  0
TABLESTYLE
  5
181F
102
{ACAD_REACTORS
330
181E
102
}
330
181E
100
AcDbTableStyle
  3
Standard
 70
     0
 71
     0
 40
1.5
 41
1.5
280
     0
281
     0
  7
STANDARD
140
4.5
170
     2
 62
     0
 63
     7
283
     0
274
    -2
284
     1
 64
     0
275
    -2
285
     1
 65
     0
276
    -2
286
     1
 66
     0
277
    -2
287
     1
 67
     0
278
    -2
288
     1
 68
     0
279
    -2
289
     1
 69
     0
  7
STANDARD
140
6.0
170
     5
 62
     0
 63
     7
283
     0
274
    -2
284
     1
 64
     0
275
    -2
285
     1
 65
     0
276
    -2
286
     1
 66
     0
277
    -2
287
     1
 67
     0
278
    -2
288
     1
 68
     0
279
    -2
289
     1
 69
     0
  7
STANDARD
140
4.5
170
     5
 62
     0
 63
     7
283
     0
274
    -2
284
     1
 64
     0
275
    -2
285
     1
 65
     0
276
    -2
286
     1
 66
     0
277
    -2
287
     1
 67
     0
278
    -2
288
     1
 68
     0
279
    -2
289
     1
 69
     0
  0
DICTIONARYVAR
  5
193D
102
{ACAD_REACTORS
330
193C
102
}
330
193C
100
DictionaryVariables
280
     0
  1
STANDARD
  0
DICTIONARYVAR
  5
193E
102
{ACAD_REACTORS
330
193C
102
}
330
193C
100
DictionaryVariables
280
     0
  1
1
  0
DICTIONARYVAR
  5
193F
102
{ACAD_REACTORS
330
193C
102
}
330
193C
100
DictionaryVariables
280
     0
  1

  0
DICTIONARY
  5
188A
102
{ACAD_REACTORS
330
187F
102
}
330
187F
100
AcDbDictionary
281
     1
  0
XRECORD
  5
18AD
102
{ACAD_REACTORS
330
187F
102
}
330
187F
100
AcDbXrecord
280
     1
 90
-1023410169
  0
DICTIONARY
  5
1944
330
1823
100
AcDbDictionary
280
     1
281
     1
  3
ACAD_XREC_ROUNDTRIP
360
1945
  0
DICTIONARY
  5
1942
330
1822
100
AcDbDictionary
280
     1
281
     1
  3
ACAD_XREC_ROUNDTRIP
360
1943
  0
XRECORD
  5
1945
102
{ACAD_REACTORS
330
1944
102
}
330
1944
100
AcDbXrecord
280
     1
102
SHADEPLOT
 70
     0
102
SHADEPLOTRESLEVEL
 70
     2
102
SHADEPLOTCUSTOMDPI
 70
   300
  0
XRECORD
  5
1943
102
{ACAD_REACTORS
330
1942
102
}
330
1942
100
AcDbXrecord
280
     1
102
SHADEPLOT
 70
     0
102
SHADEPLOTRESLEVEL
 70
     2
102
SHADEPLOTCUSTOMDPI
 70
   300
  0
ENDSEC
  0
EOF
