  0
SECTION
  2
HEADER
  9
$ACADVER
  1
AC1018
  9
$ACADMAINTVER
 70
   104
  9
$DWGCODEPAGE
  3
ANSI_1252
  9
$LASTSAVEDBY
  1
kbaersch
  9
$CUSTOMPROPERTYTAG
  1
AmdtFileType
  9
$CUSTOMPROPERTY
  1
84
  9
$INSBASE
 10
0.0
 20
0.0
 30
0.0
  9
$EXTMIN
 10
116.1292880275514
 20
105.2958429239991
 30
-0.0015258207003583
  9
$EXTMAX
 10
909.4527204520055
 20
801.7712074369381
 30
0.0000000349246037
  9
$LIMMIN
 10
0.0
 20
0.0
  9
$LIMMAX
 10
420.0
 20
297.0
  9
$ORTHOMODE
 70
     0
  9
$REGENMODE
 70
     1
  9
$FILLMODE
 70
     1
  9
$QTEXTMODE
 70
     0
  9
$MIRRTEXT
 70
     1
  9
$LTSCALE
 40
20.0
  9
$ATTMODE
 70
     1
  9
$TEXTSIZE
 40
2.5
  9
$TRACEWID
 40
1.0
  9
$TEXTSTYLE
  7
STANDARD
  9
$CLAYER
  8
0
  9
$CELTYPE
  6
ByLayer
  9
$CECOLOR
 62
   256
  9
$CELTSCALE
 40
1.0
  9
$DISPSILH
 70
     0
  9
$DIMSCALE
 40
1.0
  9
$DIMASZ
 40
2.5
  9
$DIMEXO
 40
1.0
  9
$DIMDLI
 40
10.0
  9
$DIMRND
 40
0.0
  9
$DIMDLE
 40
0.0
  9
$DIMEXE
 40
1.0
  9
$DIMTP
 40
0.1
  9
$DIMTM
 40
0.1
  9
$DIMTXT
 40
3.5
  9
$DIMCEN
 40
0.0
  9
$DIMTSZ
 40
0.0
  9
$DIMTOL
 70
     0
  9
$DIMLIM
 70
     0
  9
$DIMTIH
 70
     0
  9
$DIMTOH
 70
     0
  9
$DIMSE1
 70
     0
  9
$DIMSE2
 70
     0
  9
$DIMTAD
 70
     1
  9
$DIMZIN
 70
     8
  9
$DIMBLK
  1

  9
$DIMASO
 70
     1
  9
$DIMSHO
 70
     1
  9
$DIMPOST
  1

  9
$DIMAPOST
  1
"
  9
$DIMALT
 70
     0
  9
$DIMALTD
 70
     2
  9
$DIMALTF
 40
0.0393701
  9
$DIMLFAC
 40
1.0
  9
$DIMTOFL
 70
     1
  9
$DIMTVP
 40
0.0
  9
$DIMTIX
 70
     0
  9
$DIMSOXD
 70
     0
  9
$DIMSAH
 70
     0
  9
$DIMBLK1
  1

  9
$DIMBLK2
  1

  9
$DIMSTYLE
  2
AM_ISO
  9
$DIMCLRD
 70
   256
  9
$DIMCLRE
 70
   256
  9
$DIMCLRT
 70
     2
  9
$DIMTFAC
 40
0.71
  9
$DIMGAP
 40
1.5
  9
$DIMJUST
 70
     0
  9
$DIMSD1
 70
     0
  9
$DIMSD2
 70
     0
  9
$DIMTOLJ
 70
     0
  9
$DIMTZIN
 70
     8
  9
$DIMALTZ
 70
     0
  9
$DIMALTTZ
 70
     0
  9
$DIMUPT
 70
     0
  9
$DIMDEC
 70
     0
  9
$DIMTDEC
 70
     3
  9
$DIMALTU
 70
     2
  9
$DIMALTTD
 70
     4
  9
$DIMTXSTY
  7
STANDARD
  9
$DIMAUNIT
 70
     0
  9
$DIMADEC
 70
     0
  9
$DIMALTRND
 40
0.0
  9
$DIMAZIN
 70
     2
  9
$DIMDSEP
 70
    46
  9
$DIMATFIT
 70
     3
  9
$DIMFRAC
 70
     0
  9
$DIMLDRBLK
  1

  9
$DIMLUNIT
 70
     2
  9
$DIMLWD
 70
    -1
  9
$DIMLWE
 70
    -1
  9
$DIMTMOVE
 70
     0
  9
$LUNITS
 70
     2
  9
$LUPREC
 70
     2
  9
$SKETCHINC
 40
1.0
  9
$FILLETRAD
 40
0.0
  9
$AUNITS
 70
     0
  9
$AUPREC
 70
     0
  9
$MENU
  1
.
  9
$ELEVATION
 40
0.0
  9
$PELEVATION
 40
0.0
  9
$THICKNESS
 40
0.0
  9
$LIMCHECK
 70
     0
  9
$CHAMFERA
 40
0.5
  9
$CHAMFERB
 40
0.5
  9
$CHAMFERC
 40
20.0
  9
$CHAMFERD
 40
0.0
  9
$SKPOLY
 70
     0
  9
$TDCREATE
 40
2454013.453631180
  9
$TDUCREATE
 40
2454013.411964514
  9
$TDUPDATE
 40
2455238.740329086
  9
$TDUUPDATE
 40
2455238.698662419
  9
$TDINDWG
 40
2.0109239583
  9
$TDUSRTIMER
 40
2.0109237731
  9
$USRTIMER
 70
     1
  9
$ANGBASE
 50
0.0
  9
$ANGDIR
 70
     0
  9
$PDMODE
 70
     0
  9
$PDSIZE
 40
0.0
  9
$PLINEWID
 40
0.0
  9
$SPLFRAME
 70
     0
  9
$SPLINETYPE
 70
     6
  9
$SPLINESEGS
 70
     8
  9
$HANDSEED
  5
2F11
  9
$SURFTAB1
 70
     6
  9
$SURFTAB2
 70
     6
  9
$SURFTYPE
 70
     6
  9
$SURFU
 70
     6
  9
$SURFV
 70
     6
  9
$UCSBASE
  2

  9
$UCSNAME
  2

  9
$UCSORG
 10
0.0
 20
0.0
 30
0.0
  9
$UCSXDIR
 10
1.0
 20
0.0
 30
0.0
  9
$UCSYDIR
 10
0.0
 20
1.0
 30
0.0
  9
$UCSORTHOREF
  2

  9
$UCSORTHOVIEW
 70
     0
  9
$UCSORGTOP
 10
0.0
 20
0.0
 30
0.0
  9
$UCSORGBOTTOM
 10
0.0
 20
0.0
 30
0.0
  9
$UCSORGLEFT
 10
0.0
 20
0.0
 30
0.0
  9
$UCSORGRIGHT
 10
0.0
 20
0.0
 30
0.0
  9
$UCSORGFRONT
 10
0.0
 20
0.0
 30
0.0
  9
$UCSORGBACK
 10
0.0
 20
0.0
 30
0.0
  9
$PUCSBASE
  2

  9
$PUCSNAME
  2

  9
$PUCSORG
 10
0.0
 20
0.0
 30
0.0
  9
$PUCSXDIR
 10
1.0
 20
0.0
 30
0.0
  9
$PUCSYDIR
 10
0.0
 20
1.0
 30
0.0
  9
$PUCSORTHOREF
  2

  9
$PUCSORTHOVIEW
 70
     0
  9
$PUCSORGTOP
 10
0.0
 20
0.0
 30
0.0
  9
$PUCSORGBOTTOM
 10
0.0
 20
0.0
 30
0.0
  9
$PUCSORGLEFT
 10
0.0
 20
0.0
 30
0.0
  9
$PUCSORGRIGHT
 10
0.0
 20
0.0
 30
0.0
  9
$PUCSORGFRONT
 10
0.0
 20
0.0
 30
0.0
  9
$PUCSORGBACK
 10
0.0
 20
0.0
 30
0.0
  9
$USERI1
 70
     0
  9
$USERI2
 70
     0
  9
$USERI3
 70
     0
  9
$USERI4
 70
     0
  9
$USERI5
 70
     0
  9
$USERR1
 40
0.0
  9
$USERR2
 40
0.0
  9
$USERR3
 40
0.0
  9
$USERR4
 40
0.0
  9
$USERR5
 40
0.0
  9
$WORLDVIEW
 70
     1
  9
$SHADEDGE
 70
     3
  9
$SHADEDIF
 70
    70
  9
$TILEMODE
 70
     1
  9
$MAXACTVP
 70
    64
  9
$PINSBASE
 10
0.0
 20
0.0
 30
0.0
  9
$PLIMCHECK
 70
     0
  9
$PEXTMIN
 10
1.000000000000000E+20
 20
1.000000000000000E+20
 30
1.000000000000000E+20
  9
$PEXTMAX
 10
-1.000000000000000E+20
 20
-1.000000000000000E+20
 30
-1.000000000000000E+20
  9
$PLIMMIN
 10
0.0
 20
0.0
  9
$PLIMMAX
 10
420.0
 20
297.0
  9
$UNITMODE
 70
     0
  9
$VISRETAIN
 70
     1
  9
$PLINEGEN
 70
     0
  9
$PSLTSCALE
 70
     1
  9
$TREEDEPTH
 70
  3020
  9
$CMLSTYLE
  2
Standard
  9
$CMLJUST
 70
     0
  9
$CMLSCALE
 40
20.0
  9
$PROXYGRAPHICS
 70
     1
  9
$MEASUREMENT
 70
     1
  9
$CELWEIGHT
370
    -1
  9
$ENDCAPS
280
     0
  9
$JOINSTYLE
280
     0
  9
$LWDISPLAY
290
     0
  9
$INSUNITS
 70
     4
  9
$HYPERLINKBASE
  1

  9
$STYLESHEET
  1
monochrome.ctb
  9
$XEDIT
290
     1
  9
$CEPSNTYPE
380
     0
  9
$PSTYLEMODE
290
     1
  9
$FINGERPRINTGUID
  2
{BB2875AE-8CE9-4CBA-A609-76D2895BB90A}
  9
$VERSIONGUID
  2
{DC26098F-8FAA-4EE1-90D7-81A1020D901D}
  9
$EXTNAMES
290
     1
  9
$PSVPSCALE
 40
0.0
  9
$OLESTARTUP
290
     0
  9
$SORTENTS
280
   127
  9
$INDEXCTL
280
     0
  9
$HIDETEXT
280
     0
  9
$XCLIPFRAME
290
     0
  9
$HALOGAP
280
     0
  9
$OBSCOLOR
 70
   257
  9
$OBSLTYPE
280
     0
  9
$INTERSECTIONDISPLAY
280
     0
  9
$INTERSECTIONCOLOR
 70
   257
  9
$DIMASSOC
280
     2
  9
$PROJECTNAME
  1

  0
ENDSEC
  0
SECTION
  2
CLASSES
  0
CLASS
  1
ACDBDICTIONARYWDFLT
  2
AcDbDictionaryWithDefault
  3
ObjectDBX Classes
 90
        0
 91
        1
280
     0
281
     0
  0
CLASS
  1
ACME_DOCUMENT
  2
AcMeDbDoc
  3
AcMeServices
 90
     1024
 91
        2
280
     0
281
     0
  0
CLASS
  1
AMGSETTINGSOBJ
  2
AmgSettingsObj
  3
"AcadM|Product Description: AutoCAD Mechanical|Company: Autodesk, Inc."
 90
     1024
 91
        4
280
     0
281
     0
  0
CLASS
  1
ACMESCOPE
  2
AcMeScope
  3
AcMeServices
 90
     1024
 91
        1
280
     0
281
     0
  0
CLASS
  1
ACMECOMMANDHISTORY
  2
AcMeCommandHistory
  3
AcMeServices
 90
     1024
 91
        1
280
     0
281
     0
  0
CLASS
  1
ACIMSYSVARMAN
  2
AcImSysVarManager
  3
AcMeServices
 90
     1024
 91
        5
280
     0
281
     0
  0
CLASS
  1
ACIMREALSYSVAR
  2
AcImRealSysVar
  3
AcMeServices
 90
     1024
 91
        3
280
     0
281
     0
  0
CLASS
  1
ACIMINTSYSVAR
  2
AcImIntSysVar
  3
AcMeServices
 90
     1024
 91
       28
280
     0
281
     0
  0
CLASS
  1
ACMEDRAWINGMAN
  2
AcMeDrawingMan
  3
AcMeServices
 90
     1024
 91
        1
280
     0
281
     0
  0
CLASS
  1
ACMEVIEW
  2
AcMeView
  3
AcMeServices
 90
     1024
 91
        1
280
     0
281
     0
  0
CLASS
  1
ACDBENTITYCACHE
  2
AcMeEntityCache
  3
AcMeServices
 90
     1024
 91
        1
280
     0
281
     0
  0
CLASS
  1
GSMANAGER
  2
AcMeGSManager
  3
AcMeServices
 90
     1024
 91
        1
280
     0
281
     0
  0
CLASS
  1
AMDTINTERNALREACTOR
  2
AmdtInternalReactor
  3
AcMeServices
 90
     1024
 91
        3
280
     0
281
     0
  0
CLASS
  1
ACMESTATEMGR
  2
AcMeStateMgr
  3
AcMeServices
 90
     1024
 91
        1
280
     0
281
     0
  0
CLASS
  1
ACGREFMASTER
  2
AcGrefMaster
  3
AcAttribServices
 90
     1024
 91
        1
280
     0
281
     0
  0
CLASS
  1
ACME_DATABASE
  2
AcMeDbDatabase
  3
AcMeServices
 90
     1024
 91
        1
280
     0
281
     0
  0
CLASS
  1
ACRFINSADJUSTERMGR
  2
AcRfInsAdjusterMgr
  3
AcMeServices
 90
     1024
 91
        1
280
     0
281
     0
  0
CLASS
  1
ACGREFACADMASTER
  2
AcGrefacadMaster
  3
AcGrefServices
 90
     1024
 91
        1
280
     0
281
     0
  0
CLASS
  1
AMIMASTER
  2
AmiMaster
  3
AmiServices
 90
     1024
 91
        1
280
     0
281
     0
  0
CLASS
  1
ACMDATADICTIONARY
  2
AcmDataDictionary
  3
"AcmSymBB|Product Description: AutoCAD Mechanical|Company: Autodesk, Inc."
 90
     1024
 91
        1
280
     0
281
     0
  0
CLASS
  1
ACMDATAENTRYBLOCK
  2
AcmDataEntryBlock
  3
AcmSymBB|Product Description: AutoCAD Mechanical|Company: Autodesk, Inc.
 90
     1024
 91
        4
280
     0
281
     0
  0
CLASS
  1
ACIMSTRSYSVAR
  2
AcImStrSysVar
  3
AcMeServices
 90
     1024
 91
        5
280
     0
281
     0
  0
CLASS
  1
ACMSTANDARDISO
  2
AcmStandardISO
  3
"Amdt_StdImp|Product Description: AutoCAD Mechanical|Company: Autodesk, Inc."
 90
     1024
 91
        1
280
     0
281
     0
  0
CLASS
  1
AMGOBJPROPCFG
  2
AmgObjPropCfg
  3
"AmgLay|Product Description: AutoCAD Mechanical|Company: Autodesk, Inc."
 90
     1025
 91
        1
280
     0
281
     0
  0
CLASS
  1
AMDTEDGESTANDARDISO
  2
AmdtEdgeStdISO
  3
"Amdt_StdImp|Product Description: AutoCAD Mechanical|Company: Autodesk, Inc."
 90
     1024
 91
        1
280
     0
281
     0
  0
CLASS
  1
ACMSURFSTANDARDISO
  2
AcmSurfTextStdISO
  3
"Amdt_StdImp|Product Description: AutoCAD Mechanical|Company: Autodesk, Inc."
 90
     1024
 91
        1
280
     0
281
     0
  0
CLASS
  1
ACMFCFSTANDARDISO
  2
AcmFCFStdISO
  3
"Amdt_StdImp|Product Description: AutoCAD Mechanical|Company: Autodesk, Inc."
 90
     1024
 91
        1
280
     0
281
     0
  0
CLASS
  1
ACMWELDSTANDARDISO
  2
AcmWeldingStdISO
  3
"Amdt_StdImp|Product Description: AutoCAD Mechanical|Company: Autodesk, Inc."
 90
     1024
 91
        1
280
     0
281
     0
  0
CLASS
  1
ACMIDSTANDARDISO
  2
AcmIdStdISO
  3
"Amdt_StdImp|Product Description: AutoCAD Mechanical|Company: Autodesk, Inc."
 90
     1024
 91
        1
280
     0
281
     0
  0
CLASS
  1
ACMDATUMSTANDARDISO
  2
AcmDatumStdISO
  3
"Amdt_StdImp|Product Description: AutoCAD Mechanical|Company: Autodesk, Inc."
 90
     1024
 91
        1
280
     0
281
     0
  0
CLASS
  1
ACMBOMSTANDARDISO
  2
AcmBOMStdISO
  3
"Amdt_StdImp|Product Description: AutoCAD Mechanical|Company: Autodesk, Inc."
 90
     1024
 91
        1
280
     0
281
     0
  0
CLASS
  1
ACMDETAILSTANDARDISO
  2
AmdtDetailSymStdISO
  3
"Amdt_StdImp|Product Description: AutoCAD Mechanical|Company: Autodesk, Inc."
 90
     1024
 91
        1
280
     0
281
     0
  0
CLASS
  1
ACMSECTIONSTANDARDISO
  2
AmdtSectionSymStdISO
  3
"Amdt_StdImp|Product Description: AutoCAD Mechanical|Company: Autodesk, Inc."
 90
     1024
 91
        1
280
     0
281
     0
  0
CLASS
  1
ACMCENTERLINESTANDARDISO
  2
AmdtCenterLineStdISO
  3
"Amdt_StdImp|Product Description: AutoCAD Mechanical|Company: Autodesk, Inc."
 90
     1024
 91
        1
280
     0
281
     0
  0
CLASS
  1
ACMNOTESTANDARDISO
  2
AmdtNoteStdISO
  3
"Amdt_StdImp|Product Description: AutoCAD Mechanical|Company: Autodesk, Inc."
 90
     1024
 91
        1
280
     0
281
     0
  0
CLASS
  1
ACAMGLAYSTD
  2
AcAmgLayStd
  3
"AmgLay|Product Description: AutoCAD Mechanical|Company: Autodesk, Inc."
 90
     1024
 91
        3
280
     0
281
     0
  0
CLASS
  1
ACAMGDIMSTD
  2
AcAmgDimStd
  3
"AmgDim|Product Description: AutoCAD Mechanical|Company: Autodesk, Inc."
 90
     1024
 91
        3
280
     0
281
     0
  0
CLASS
  1
ACAMGHOLECHARTSTDISO
  2
AcAmgHoleChartStdISO
  3
AmgDim|Product Description: AutoCAD Mechanical|Company: Autodesk, Inc.
 90
     1024
 91
        1
280
     0
281
     0
  0
CLASS
  1
ACAMGTITLESTD
  2
AcAmgTitleStd
  3
"AmgTitle|Product Description: AutoCAD Mechanical|Company: Autodesk, Inc."
 90
     4095
 91
        3
280
     0
281
     0
  0
CLASS
  1
LAYER_INDEX
  2
AcDbLayerIndex
  3
ObjectDBX Classes
 90
        0
 91
        0
280
     0
281
     0
  0
CLASS
  1
IDBUFFER
  2
AcDbIdBuffer
  3
ObjectDBX Classes
 90
        0
 91
        0
280
     0
281
     0
  0
CLASS
  1
DICTIONARYVAR
  2
AcDbDictionaryVar
  3
ObjectDBX Classes
 90
        0
 91
        5
280
     0
281
     0
  0
CLASS
  1
AM_DRAWING_MGR
  2
AcDmDwgMgr
  3
AcMechDwgViewMgmt
 90
     1024
 91
        1
280
     0
281
     0
  0
CLASS
  1
AM_DWG_DOCUMENT
  2
AcDmDwgDocument
  3
AcMechDwgViewMgmt
 90
     1024
 91
        1
280
     0
281
     0
  0
CLASS
  1
AM_DWG_SHEET
  2
AcDmSheet
  3
AcMechDwgViewMgmt
 90
     1024
 91
        2
280
     0
281
     0
  0
CLASS
  1
AM_VIEWDIMPARMAP
  2
AcDmViewDimParMap
  3
AcMechDwgViewMgmt
 90
     1024
 91
        2
280
     0
281
     0
  0
CLASS
  1
AM_DWGMGR_NAME
  2
AcDmDwgMgrName
  3
AcMechDwgViewMgmt
 90
     1024
 91
        1
280
     0
281
     0
  0
CLASS
  1
AMDTMENUSTATEMGR
  2
AmdtMenuStateMgr
  3
McadcomServices
 90
     1024
 91
        1
280
     0
281
     0
  0
CLASS
  1
AMDTMCOMMENUSTATE
  2
AmdtMcomMenuState
  3
McadcomServices
 90
     1024
 91
        1
280
     0
281
     0
  0
CLASS
  1
MAPIAMMOUDLE
  2
MApiAmModule
  3
MApiAmServices
 90
     1024
 91
        1
280
     0
281
     0
  0
CLASS
  1
AMDTADMENUSTATE
  2
AmdtAdMenuState
  3
DesignerServices
 90
     1024
 91
        1
280
     0
281
     0
  0
CLASS
  1
ADAPPL
  2
AcAdAppl
  3
DesignerServices
 90
     1024
 91
        1
280
     0
281
     0
  0
CLASS
  1
DEPMGR
  2
AcAdDepMgr
  3
DesignerServices
 90
     1024
 91
        1
280
     0
281
     0
  0
CLASS
  1
PARAMMGR
  2
AcAdParamMgr
  3
DesignerServices
 90
     1024
 91
        1
280
     0
281
     0
  0
CLASS
  1
PARAMSCOPE
  2
AcAdParamScope
  3
DesignerServices
 90
     1024
 91
        1
280
     0
281
     0
  0
CLASS
  1
NAMEDAPPL
  2
AcAdNamedAppl
  3
DesignerServices
 90
     1024
 91
        1
280
     0
281
     0
  0
CLASS
  1
AMDTDMMENUSTATE
  2
AmdtDmMenuState
  3
AcMechDwgViewMgmt
 90
     1024
 91
        1
280
     0
281
     0
  0
CLASS
  1
AMDTAMMENUSTATE
  2
AmdtAmMenuState
  3
DesignerAssemblies
 90
     1024
 91
        1
280
     0
281
     0
  0
CLASS
  1
ACAMPROJECT
  2
AcAmProject
  3
DesignerAssemblies
 90
     1024
 91
        1
280
     0
281
     0
  0
CLASS
  1
ACAMGRCOMPDEF
  2
AcAmGrCompDef
  3
DesignerAssemblies
 90
     1024
 91
        1
280
     0
281
     0
  0
CLASS
  1
ACCMCONTEXT
  2
AcCmContext
  3
DesignerAssemblies
 90
     1024
 91
        1
280
     0
281
     0
  0
CLASS
  1
ACAMCOMPDEF
  2
AcAmCompDef
  3
DesignerAssemblies
 90
     1024
 91
        1
280
     0
281
     0
  0
CLASS
  1
ACAMCOMPDEFMGR
  2
AcAmCompDefMgr
  3
DesignerAssemblies
 90
     1024
 91
        1
280
     0
281
     0
  0
CLASS
  1
AMCONTEXTMGR
  2
AcAmContextMgr
  3
DesignerAssemblies
 90
     1024
 91
        1
280
     0
281
     0
  0
CLASS
  1
ACAMCONTEXTMODELER
  2
AcAmContextModeler
  3
DesignerAssemblies
 90
     1024
 91
        1
280
     0
281
     0
  0
CLASS
  1
ACMTHREADLINESTANDARDISO
  2
AmdtThreadLineStdISO
  3
"Amdt_StdImp|Product Description: AutoCAD Mechanical|Company: Autodesk, Inc."
 90
     1024
 91
        1
280
     0
281
     0
  0
CLASS
  1
CATALOGSTATE
  2
AcAmCatalogState
  3
DesignerAssemblies
 90
     1024
 91
        1
280
     0
281
     0
  0
CLASS
  1
ACAMGRCOMPDEFSET
  2
AcAmGrCompDefSet
  3
DesignerAssemblies
 90
     1024
 91
        1
280
     0
281
     0
  0
CLASS
  1
AMDTBROWSERDBTAB
  2
AmdtBrowserDbTab
  3
McadcomServices
 90
     1024
 91
        1
280
     0
281
     0
  0
CLASS
  1
CBROWSERAPPOBJECT
  2
CBrowserAppObject
  3
McadcomServices
 90
     1024
 91
        3
280
     0
281
     0
  0
CLASS
  1
DM_PLACEHOLDER
  2
AcDmSelsetPlaceholder
  3
AcMechDwgViewMgmt
 90
     1024
 91
        1
280
     0
281
     0
  0
CLASS
  1
TABLESTYLE
  2
AcDbTableStyle
  3
ObjectDBX Classes
 90
     4095
 91
        1
280
     0
281
     0
  0
CLASS
  1
VAACXREFPANELOBJECT
  2
VaAcXREFPanelObject
  3
VAAC_ADDIN
 90
        0
 91
        0
280
     0
281
     0
  0
CLASS
  1
VAACIMAGEINVENTORY
  2
VaAcImageInventory
  3
VAAC_ADDIN
 90
        0
 91
        0
280
     0
281
     0
  0
CLASS
  1
AMDTNOTETEMPLATEDB
  2
AmdtNoteTemplateDB
  3
AcmSymBB|Product Description: AutoCAD Mechanical|Company: Autodesk, Inc.
 90
     1024
 91
       18
280
     0
281
     0
  0
CLASS
  1
ACAMGFILTERDAT
  2
AcAmgFilterDat
  3
"AcadM|Product Description: AutoCAD Mechanical|Company: Autodesk, Inc."
 90
     1024
 91
        6
280
     0
281
     0
  0
CLASS
  1
ACMBOM
  2
AcmBom
  3
"AcmSymBB|Product Description: AutoCAD Mechanical|Company: Autodesk, Inc."
 90
     1024
 91
        0
280
     0
281
     0
  0
CLASS
  1
AMDTFORMULAUPDATEDISPATCHER
  2
AmdtFormulaUpdateDispatcher
  3
AcMeServices
 90
     1024
 91
        1
280
     0
281
     0
  0
CLASS
  1
SORTENTSTABLE
  2
AcDbSortentsTable
  3
ObjectDBX Classes
 90
        0
 91
        2
280
     0
281
     0
  0
CLASS
  1
DIMASSOC
  2
AcDbDimAssoc
  3
"AcDbDimAssoc|Product Desc:     AcDim ARX App For Dimension|Company:          Autodesk, Inc.|WEB Address:      www.autodesk.com"
 90
        0
 91
       18
280
     0
281
     0
  0
CLASS
  1
ACDBELLIPSERES
  2
AcDbEllipseRes
  3
AcGrefServices
 90
     1024
 91
        1
280
     0
281
     0
  0
CLASS
  1
AMDTNOTE
  2
AmdtNote
  3
"AcmSymBB|Product Description: AutoCAD Mechanical|Company: Autodesk, Inc."
 90
     4095
 91
        9
280
     0
281
     1
  0
CLASS
  1
ACMSTANDARDDIN
  2
AcmStandardDIN
  3
"Amdt_StdImp|Product Description: AutoCAD Mechanical|Company: Autodesk, Inc."
 90
     1024
 91
        1
280
     0
281
     0
  0
CLASS
  1
AMDTEDGESTANDARDDIN13715
  2
AmdtEdgeStdDIN13715
  3
"Amdt_StdImp|Product Description: AutoCAD Mechanical|Company: Autodesk, Inc."
 90
     1024
 91
        1
280
     0
281
     0
  0
CLASS
  1
ACMSURFSTANDARDDIN
  2
AcmSurfTextStdDIN
  3
"Amdt_StdImp|Product Description: AutoCAD Mechanical|Company: Autodesk, Inc."
 90
     1024
 91
        1
280
     0
281
     0
  0
CLASS
  1
ACMFCFSTANDARDDIN
  2
AcmFCFStdDIN
  3
"Amdt_StdImp|Product Description: AutoCAD Mechanical|Company: Autodesk, Inc."
 90
     1024
 91
        1
280
     0
281
     0
  0
CLASS
  1
ACMWELDSTANDARDDIN
  2
AcmWeldingStdDIN
  3
"Amdt_StdImp|Product Description: AutoCAD Mechanical|Company: Autodesk, Inc."
 90
     1024
 91
        1
280
     0
281
     0
  0
CLASS
  1
ACMIDSTANDARDDIN
  2
AcmIdStdDIN
  3
"Amdt_StdImp|Product Description: AutoCAD Mechanical|Company: Autodesk, Inc."
 90
     1024
 91
        1
280
     0
281
     0
  0
CLASS
  1
ACMDATUMSTANDARDDIN
  2
AcmDatumStdDIN
  3
"Amdt_StdImp|Product Description: AutoCAD Mechanical|Company: Autodesk, Inc."
 90
     1024
 91
        1
280
     0
281
     0
  0
CLASS
  1
ACMBOMSTANDARDDIN
  2
AcmBOMStdDIN
  3
"Amdt_StdImp|Product Description: AutoCAD Mechanical|Company: Autodesk, Inc."
 90
     1024
 91
        1
280
     0
281
     0
  0
CLASS
  1
ACMDETAILSTANDARDDIN
  2
AmdtDetailSymStdDIN
  3
"Amdt_StdImp|Product Description: AutoCAD Mechanical|Company: Autodesk, Inc."
 90
     1024
 91
        1
280
     0
281
     0
  0
CLASS
  1
ACMSECTIONSTANDARDDIN
  2
AmdtSectionSymStdDIN
  3
"Amdt_StdImp|Product Description: AutoCAD Mechanical|Company: Autodesk, Inc."
 90
     1024
 91
        1
280
     0
281
     0
  0
CLASS
  1
ACMCENTERLINESTANDARDDIN
  2
AmdtCenterLineStdDIN
  3
"Amdt_StdImp|Product Description: AutoCAD Mechanical|Company: Autodesk, Inc."
 90
     1024
 91
        1
280
     0
281
     0
  0
CLASS
  1
ACMTHREADLINESTANDARDDIN
  2
AmdtThreadLineStdDIN
  3
"Amdt_StdImp|Product Description: AutoCAD Mechanical|Company: Autodesk, Inc."
 90
     1024
 91
        1
280
     0
281
     0
  0
CLASS
  1
ACMNOTESTANDARDDIN
  2
AmdtNoteStdDIN
  3
"Amdt_StdImp|Product Description: AutoCAD Mechanical|Company: Autodesk, Inc."
 90
     1024
 91
        1
280
     0
281
     0
  0
CLASS
  1
ACAMGHOLECHARTSTDDIN
  2
AcAmgHoleChartStdDIN
  3
AmgDim|Product Description: AutoCAD Mechanical|Company: Autodesk, Inc.
 90
     1024
 91
        1
280
     0
281
     0
  0
CLASS
  1
ACMSTANDARDANSI
  2
AcmStandardANSI
  3
"Amdt_StdImp|Product Description: AutoCAD Mechanical|Company: Autodesk, Inc."
 90
     1024
 91
        1
280
     0
281
     0
  0
CLASS
  1
ACMSURFSTANDARDANSI
  2
AcmSurfTextStdANSI
  3
"Amdt_StdImp|Product Description: AutoCAD Mechanical|Company: Autodesk, Inc."
 90
     1024
 91
        1
280
     0
281
     0
  0
CLASS
  1
ACMFCFSTANDARDANSI
  2
AcmFCFStdANSI
  3
"Amdt_StdImp|Product Description: AutoCAD Mechanical|Company: Autodesk, Inc."
 90
     1024
 91
        1
280
     0
281
     0
  0
CLASS
  1
ACMWELDSTANDARDANSI
  2
AcmWeldingStdANSI
  3
"Amdt_StdImp|Product Description: AutoCAD Mechanical|Company: Autodesk, Inc."
 90
     1024
 91
        1
280
     0
281
     0
  0
CLASS
  1
ACMIDSTANDARDANSI
  2
AcmIdStdANSI
  3
"Amdt_StdImp|Product Description: AutoCAD Mechanical|Company: Autodesk, Inc."
 90
     1024
 91
        1
280
     0
281
     0
  0
CLASS
  1
ACMDATUMSTANDARDANSI
  2
AcmDatumStdANSI
  3
"Amdt_StdImp|Product Description: AutoCAD Mechanical|Company: Autodesk, Inc."
 90
     1024
 91
        1
280
     0
281
     0
  0
CLASS
  1
ACMBOMSTANDARDANSI
  2
AcmBOMStdANSI
  3
"Amdt_StdImp|Product Description: AutoCAD Mechanical|Company: Autodesk, Inc."
 90
     1024
 91
        1
280
     0
281
     0
  0
CLASS
  1
ACMDETAILSTANDARDANSI
  2
AmdtDetailSymStdANSI
  3
"Amdt_StdImp|Product Description: AutoCAD Mechanical|Company: Autodesk, Inc."
 90
     1024
 91
        1
280
     0
281
     0
  0
CLASS
  1
ACMSECTIONSTANDARDANSI
  2
AmdtSectionSymStdANSI
  3
"Amdt_StdImp|Product Description: AutoCAD Mechanical|Company: Autodesk, Inc."
 90
     1024
 91
        1
280
     0
281
     0
  0
CLASS
  1
ACMCENTERLINESTANDARDANSI
  2
AmdtCenterLineStdANSI
  3
"Amdt_StdImp|Product Description: AutoCAD Mechanical|Company: Autodesk, Inc."
 90
     1024
 91
        1
280
     0
281
     0
  0
CLASS
  1
ACMTHREADLINESTANDARDANSI
  2
AmdtThreadLineStdANSI
  3
"Amdt_StdImp|Product Description: AutoCAD Mechanical|Company: Autodesk, Inc."
 90
     1024
 91
        1
280
     0
281
     0
  0
CLASS
  1
ACMNOTESTANDARDANSI
  2
AmdtNoteStdANSI
  3
"Amdt_StdImp|Product Description: AutoCAD Mechanical|Company: Autodesk, Inc."
 90
     1024
 91
        1
280
     0
281
     0
  0
CLASS
  1
AC_AM_MVD_DEP_MGR
  2
AcAmMVDdepMgr
  3
DesignerAssemblies
 90
     1024
 91
        1
280
     0
281
     0
  0
CLASS
  1
AC_AM_MASTER_VIEW_DEF
  2
AcAmMasterViewDef
  3
DesignerAssemblies
 90
     1024
 91
        1
280
     0
281
     0
  0
CLASS
  1
AC_AM_DIRTY_NODES
  2
AcAmDirtyNodes
  3
DesignerAssemblies
 90
     1024
 91
        1
280
     0
281
     0
  0
CLASS
  1
AC_AM_MAPPER_CACHE
  2
AcAmMapperCache
  3
DesignerAssemblies
 90
     1024
 91
        5
280
     0
281
     0
  0
CLASS
  1
ACAMMVDBACKUPOBJECT
  2
AcAmMVDBackupObject
  3
DesignerAssemblies
 90
     1024
 91
        1
280
     0
281
     0
  0
CLASS
  1
AC_AM_2D_XREF_MGR
  2
AcAmXrefMgr2d
  3
DesignerAssemblies
 90
     1024
 91
        1
280
     0
281
     0
  0
CLASS
  1
STDPART2D
  2
AmgStdPart
  3
AmgStdPart|Product Description: AutoCAD Mechanical|Company: Autodesk, Inc.
 90
     4095
 91
       41
280
     0
281
     1
  0
CLASS
  1
AC_AM_COMP_VIEW_INST
  2
AcAmCompView
  3
DesignerAssemblies
 90
     1024
 91
       16
280
     0
281
     0
  0
CLASS
  1
AC_AM_STDP_VIEW_DEF
  2
AcAmStdpViewDef
  3
DesignerAssemblies
 90
     1024
 91
        4
280
     0
281
     0
  0
CLASS
  1
ACAMCOMP
  2
AcAmComp
  3
DesignerAssemblies
 90
     1024
 91
       16
280
     0
281
     0
  0
CLASS
  1
ACAMSTDPCOMPDEF
  2
AcAmStdpCompDef
  3
DesignerAssemblies
 90
     1024
 91
        2
280
     0
281
     0
  0
CLASS
  1
AC_AM_HIDE_SITUATION
  2
AcAmHideSituation
  3
DesignerAssemblies
 90
     1024
 91
        5
280
     0
281
     0
  0
CLASS
  1
ACAMWBLOCKTEMPENTS
  2
AcAmStructInOutTempObjsHolder
  3
DesignerAssemblies
 90
     1024
 91
        0
280
     0
281
     0
  0
CLASS
  1
ACRFATTGENMGR
  2
AcRfAttGeneralMgr
  3
AcAttribServices
 90
     1024
 91
        1
280
     0
281
     0
  0
CLASS
  1
ACRFOBJATTMGR
  2
AcRfObjAttGroupMgr
  3
AcAttribServices
 90
     1024
 91
        3
280
     0
281
     0
  0
CLASS
  1
ACRFMCADAPIATTHOLDER
  2
AcRfMCADAPIAttHolder
  3
AcAttribServices
 90
     1024
 91
        1
280
     0
281
     0
  0
CLASS
  1
AMDTSYSATTR
  2
AmdtSystemAttribute
  3
AcAttribServices
 90
     1024
 91
       15
280
     0
281
     0
  0
CLASS
  1
OBJCLONER
  2
ObjCloner
  3
DesignerAssemblies
 90
     1024
 91
        0
280
     0
281
     1
  0
CLASS
  1
AC_AM_TRANSFORM_GHOST
  2
AcDbTransformGhost
  3
DesignerAssemblies
 90
     1024
 91
        0
280
     0
281
     1
  0
CLASS
  1
ACDBLINERES
  2
AcDbLineRes
  3
AcGrefServices
 90
     1024
 91
        3
280
     0
281
     0
  0
CLASS
  1
ACDBNURBCURVERES
  2
AcDbNurbCurveRes
  3
AcGrefServices
 90
     1024
 91
        1
280
     0
281
     0
  0
CLASS
  1
MATERIAL
  2
AcDbMaterial
  3
ObjectDBX Classes
 90
     1153
 91
        3
280
     0
281
     0
  0
CLASS
  1
VISUALSTYLE
  2
AcDbVisualStyle
  3
ObjectDBX Classes
 90
     4095
 91
       16
280
     0
281
     0
  0
CLASS
  1
SCALE
  2
AcDbScale
  3
ObjectDBX Classes
 90
     1153
 91
       17
280
     0
281
     0
  0
CLASS
  1
MLEADERSTYLE
  2
AcDbMLeaderStyle
  3
ACDB_MLEADERSTYLE_CLASS
 90
     4095
 91
        1
280
     0
281
     0
  0
CLASS
  1
ACMTAPERSTANDARDISO
  2
AcmTaperStdISO
  3
"Amdt_StdImp|Product Description: AutoCAD Mechanical|Company: Autodesk, Inc."
 90
     1024
 91
        1
280
     0
281
     0
  0
CLASS
  1
ACMANOOTATIONVIEWSTANDARDISO
  2
AmdtAnViewStdISO
  3
"Amdt_StdImp|Product Description: AutoCAD Mechanical|Company: Autodesk, Inc."
 90
     1024
 91
        1
280
     0
281
     0
  0
CLASS
  1
ACMTAPERSTANDARDDIN
  2
AcmTaperStdDIN
  3
"Amdt_StdImp|Product Description: AutoCAD Mechanical|Company: Autodesk, Inc."
 90
     1024
 91
        1
280
     0
281
     0
  0
CLASS
  1
ACMANOOTATIONVIEWSTANDARDDIN
  2
AmdtAnViewStdDIN
  3
"Amdt_StdImp|Product Description: AutoCAD Mechanical|Company: Autodesk, Inc."
 90
     1024
 91
        1
280
     0
281
     0
  0
CLASS
  1
ACMTAPERSTANDARDANSI
  2
AcmTaperStdANSI
  3
"Amdt_StdImp|Product Description: AutoCAD Mechanical|Company: Autodesk, Inc."
 90
     1024
 91
        1
280
     0
281
     0
  0
CLASS
  1
ACMANOOTATIONVIEWSTANDARDANSI
  2
AmdtAnViewStdANSI
  3
"Amdt_StdImp|Product Description: AutoCAD Mechanical|Company: Autodesk, Inc."
 90
     1024
 91
        1
280
     0
281
     0
  0
CLASS
  1
EXACXREFPANELOBJECT
  2
ExAcXREFPanelObject
  3
EXAC_ESW
 90
     1025
 91
        1
280
     0
281
     0
  0
CLASS
  1
NPOCOLLECTION
  2
AcDbImpNonPersistentObjectsCollection
  3
ObjectDBX Classes
 90
     1153
 91
        1
280
     0
281
     0
  0
CLASS
  1
AEC_REFEDIT_STATUS_TRACKER
  2
AecDbRefEditStatusTracker
  3
AecArchBase50|Product Desc: Autodesk Architectural Desktop 2007 |Company: Autodesk,Inc. |WEB Address: www.autodesk.com
 90
      129
 91
        1
280
     0
281
     0
  0
CLASS
  1
CELLSTYLEMAP
  2
AcDbCellStyleMap
  3
ObjectDBX Classes
 90
     1152
 91
        1
280
     0
281
     0
  0
ENDSEC
  0
SECTION
  2
TABLES
  0
TABLE
  2
VPORT
  5
8
330
0
100
AcDbSymbolTable
 70
     1
  0
VPORT
  5
2CD3
330
8
100
AcDbSymbolTableRecord
100
AcDbViewportTableRecord
  2
*Active
 70
     0
 10
0.0
 20
0.0
 11
1.0
 21
1.0
 12
512.7910042397784
 22
453.5335251804686
 13
0.0
 23
0.0
 14
2.5
 24
2.5
 15
10.0
 25
10.0
 16
0.0
 26
0.0
 36
1.0
 17
0.0
 27
0.0
 37
0.0
 40
701.1031077987393
 41
2.024390243902439
 42
50.0
 43
0.0
 44
0.0
 50
0.0
 51
0.0
 71
     0
 72
   100
 73
     1
 74
     3
 75
     0
 76
     0
 77
     0
 78
     0
281
     0
 65
     1
110
0.0
120
0.0
130
0.0
111
1.0
121
0.0
131
0.0
112
0.0
122
1.0
132
0.0
 79
     0
146
0.0
  0
ENDTAB
  0
TABLE
  2
LTYPE
  5
5
330
0
100
AcDbSymbolTable
 70
    35
  0
LTYPE
  5
14
330
5
100
AcDbSymbolTableRecord
100
AcDbLinetypeTableRecord
  2
ByBlock
 70
     0
  3

 72
    65
 73
     0
 40
0.0
  0
LTYPE
  5
15
330
5
100
AcDbSymbolTableRecord
100
AcDbLinetypeTableRecord
  2
ByLayer
 70
     0
  3

 72
    65
 73
     0
 40
0.0
  0
LTYPE
  5
16
330
5
100
AcDbSymbolTableRecord
100
AcDbLinetypeTableRecord
  2
Continuous
 70
     0
  3
Solid line
 72
    65
 73
     0
 40
0.0
  0
LTYPE
  5
64
330
5
100
AcDbSymbolTableRecord
100
AcDbLinetypeTableRecord
  2
AM_ISO02W050
 70
     0
  3
__ __ __ __ __ __ __ __ __ __ __ __ __ __ __
 72
    65
 73
     2
 40
7.5
 49
6.0
 74
     0
 49
-1.5
 74
     0
  0
LTYPE
  5
65
330
5
100
AcDbSymbolTableRecord
100
AcDbLinetypeTableRecord
  2
AM_ISO08W050
 70
     0
  3
____ . ____ . ____ . ____ . ____ . ____ . ____
 72
    65
 73
     4
 40
18.0
 49
12.0
 74
     0
 49
-1.5
 74
     0
 49
3.0
 74
     0
 49
-1.5
 74
     0
  0
LTYPE
  5
66
330
5
100
AcDbSymbolTableRecord
100
AcDbLinetypeTableRecord
  2
AM_ISO09W050
 70
     0
  3
_____ . . _____ . . _____ . . ____ .. ____
 72
    65
 73
     6
 40
22.5
 49
12.0
 74
     0
 49
-1.5
 74
     0
 49
3.0
 74
     0
 49
-1.5
 74
     0
 49
3.0
 74
     0
 49
-1.5
 74
     0
  0
LTYPE
  5
67
330
5
100
AcDbSymbolTableRecord
100
AcDbLinetypeTableRecord
  2
Amconstr
 70
     0
  3
_______________________
 72
    65
 73
     2
 40
9999.0
 49
9999.0
 74
     0
 49
0.0
 74
     0
  0
LTYPE
  5
68
330
5
100
AcDbSymbolTableRecord
100
AcDbLinetypeTableRecord
  2
AM_ISO08W050x2
 70
     0
  3
__ . __ . __ . __ . __ . __
 72
    65
 73
     4
 40
9.0
 49
6.0
 74
     0
 49
-0.75
 74
     0
 49
1.5
 74
     0
 49
-0.75
 74
     0
  0
LTYPE
  5
69
330
5
100
AcDbSymbolTableRecord
100
AcDbLinetypeTableRecord
  2
AM_ISO02W050x2
 70
     0
  3
 _ _ _ _ _ _ _ _ _ _ _ _
 72
    65
 73
     2
 40
3.75
 49
3.0
 74
     0
 49
-0.75
 74
     0
  0
LTYPE
  5
6C
330
5
100
AcDbSymbolTableRecord
100
AcDbLinetypeTableRecord
  2
Amzigzag
 70
     0
  3
/\/-/\/-/\/-/\/-/\/-/\/
 72
    65
 73
     2
 40
11.0001
 49
0.0001
 74
     4
 75
   136
340
22C
 46
0.04
 50
0.0
 44
0.0
 45
0.0
 49
-11.0
 74
     0
  0
LTYPE
  5
7A
330
5
100
AcDbSymbolTableRecord
100
AcDbLinetypeTableRecord
  2
ACISOWELD
 70
     0
  3
_ _ _ _ _
 72
    65
 73
     2
 40
2.0
 49
2.0
 74
     0
 49
-1.0
 74
     0
  0
LTYPE
  5
7B
330
5
100
AcDbSymbolTableRecord
100
AcDbLinetypeTableRecord
  2
ACISOTGB
 70
     0
  3
__ . . __ . .
 72
    65
 73
     6
 40
9.0
 49
4.0
 74
     0
 49
-1.0
 74
     0
 49
1.0
 74
     0
 49
-1.0
 74
     0
 49
1.0
 74
     0
 49
-1.0
 74
     0
  0
LTYPE
  5
7C
330
5
100
AcDbSymbolTableRecord
100
AcDbLinetypeTableRecord
  2
ACISOTGL
 70
     0
  3
_ _ _ _ _
 72
    65
 73
     2
 40
3.0
 49
2.0
 74
     0
 49
-1.0
 74
     0
  0
LTYPE
  5
7E
330
5
100
AcDbSymbolTableRecord
100
AcDbLinetypeTableRecord
  2
CENTER
 70
     0
  3
__ . __
 72
    65
 73
     4
 40
7.0
 49
4.0
 74
     0
 49
-1.0
 74
     0
 49
1.0
 74
     0
 49
-1.0
 74
     0
  0
LTYPE
  5
D8
330
5
100
AcDbSymbolTableRecord
100
AcDbLinetypeTableRecord
  2
HIDDEN
 70
     0
  3
Hidden __ __ __ __ __ __ __ __ __ __ __ __ __ _
 72
    65
 73
     2
 40
9.524999999999998
 49
6.349999999999999
 74
     0
 49
-3.174999999999999
 74
     0
  0
LTYPE
  5
D9
330
5
100
AcDbSymbolTableRecord
100
AcDbLinetypeTableRecord
  2
PHANTOM2
 70
     0
  3
Phantom (.5x) ___ _ _ ___ _ _ ___ _ _ ___ _ _
 72
    65
 73
     6
 40
31.75
 49
15.875
 74
     0
 49
-3.174999999999999
 74
     0
 49
3.174999999999999
 74
     0
 49
-3.174999999999999
 74
     0
 49
3.174999999999999
 74
     0
 49
-3.174999999999999
 74
     0
  0
LTYPE
  5
6DA
330
5
100
AcDbSymbolTableRecord
100
AcDbLinetypeTableRecord
  2
AM_DIN_G_W050
 70
     0
  3
____ . ____ . ____ . ____ . ____ . ____ . ____
 72
    65
 73
     4
 40
13.75
 49
9.75
 74
     0
 49
-1.5
 74
     0
 49
1.0
 74
     0
 49
-1.5
 74
     0
  0
LTYPE
  5
6DB
330
5
100
AcDbSymbolTableRecord
100
AcDbLinetypeTableRecord
  2
ACDINWELD
 70
     0
  3
_ _ _ _ _
 72
    65
 73
     2
 40
2.0
 49
2.0
 74
     0
 49
-1.0
 74
     0
  0
LTYPE
  5
6DC
330
5
100
AcDbSymbolTableRecord
100
AcDbLinetypeTableRecord
  2
ACDINTGB
 70
     0
  3
__ . . __ . .
 72
    65
 73
     6
 40
9.0
 49
4.0
 74
     0
 49
-1.0
 74
     0
 49
1.0
 74
     0
 49
-1.0
 74
     0
 49
1.0
 74
     0
 49
-1.0
 74
     0
  0
LTYPE
  5
6DD
330
5
100
AcDbSymbolTableRecord
100
AcDbLinetypeTableRecord
  2
ACDINTGL
 70
     0
  3
_ _ _ _ _
 72
    65
 73
     2
 40
3.0
 49
2.0
 74
     0
 49
-1.0
 74
     0
  0
LTYPE
  5
796
330
5
100
AcDbSymbolTableRecord
100
AcDbLinetypeTableRecord
  2
STRICHPUNKT
 70
     0
  3
__ . __ . __ . __ . __ . __ . __ . __ . __ . __
 72
    65
 73
     4
 40
1.0
 49
0.5
 74
     0
 49
-0.25
 74
     0
 49
0.0
 74
     0
 49
-0.25
 74
     0
  0
LTYPE
  5
79A
330
5
100
AcDbSymbolTableRecord
100
AcDbLinetypeTableRecord
  2
ACANSTGB
 70
     0
  3
__ . . __ . .
 72
    65
 73
     6
 40
0.35433070866
 49
0.15748031496
 74
     0
 49
-0.03937007874
 74
     0
 49
0.03937007874
 74
     0
 49
-0.03937007874
 74
     0
 49
0.03937007874
 74
     0
 49
-0.03937007874
 74
     0
  0
LTYPE
  5
79B
330
5
100
AcDbSymbolTableRecord
100
AcDbLinetypeTableRecord
  2
ACANSTGL
 70
     0
  3
_ _ _ _ _
 72
    65
 73
     2
 40
0.11811023622
 49
0.07874015748
 74
     0
 49
-0.03937007874
 74
     0
  0
ENDTAB
  0
TABLE
  2
LAYER
  5
2
102
{ACAD_XDICTIONARY
360
613
102
}
330
0
100
AcDbSymbolTable
 70
    24
  0
LAYER
  5
10
330
2
100
AcDbSymbolTableRecord
100
AcDbLayerTableRecord
  2
0
 70
     0
 62
     7
  6
Continuous
370
    -3
390
F
  0
LAYER
  5
306
330
2
100
AcDbSymbolTableRecord
100
AcDbLayerTableRecord
  2
AM_7
 70
     0
 62
     4
  6
AM_ISO08W050
370
    25
390
F
1001
AcAecLayerStandard
1000

1000

  0
LAYER
  5
32D
330
2
100
AcDbSymbolTableRecord
100
AcDbLayerTableRecord
  2
AM_5
 70
     0
 62
     3
  6
Continuous
370
    25
390
F
1001
AcAecLayerStandard
1000

1000

  0
LAYER
  5
3F4
330
2
100
AcDbSymbolTableRecord
100
AcDbLayerTableRecord
  2
Defpoints
 70
     0
 62
     7
  6
Continuous
290
     0
370
    -3
390
F
  0
LAYER
  5
612
330
2
100
AcDbSymbolTableRecord
100
AcDbLayerTableRecord
  2
AM_0
 70
     0
 62
     7
  6
Continuous
370
    50
390
F
1001
AcAecLayerStandard
1000

1000

  0
LAYER
  5
616
330
2
100
AcDbSymbolTableRecord
100
AcDbLayerTableRecord
  2
AM_4
 70
     0
 62
     3
  6
Continuous
370
    25
390
F
1001
AcAecLayerStandard
1000

1000

  0
LAYER
  5
618
330
2
100
AcDbSymbolTableRecord
100
AcDbLayerTableRecord
  2
AM_8
 70
     0
 62
     1
  6
Continuous
370
    25
390
F
1001
AcAecLayerStandard
1000

1000

  0
LAYER
  5
BF8
330
2
100
AcDbSymbolTableRecord
100
AcDbLayerTableRecord
  2
P-0000
 70
     0
 62
     7
  6
Continuous
370
    -3
390
F
  0
LAYER
  5
CEA
330
2
100
AcDbSymbolTableRecord
100
AcDbLayerTableRecord
  2
AM_CL
 70
     0
 62
     1
  6
Amconstr
370
    25
390
F
1001
AcAecLayerStandard
1000

1000

  0
LAYER
  5
1103
330
2
100
AcDbSymbolTableRecord
100
AcDbLayerTableRecord
  2
AM_9
 70
     0
 62
  -253
  6
Continuous
370
     0
390
F
  0
LAYER
  5
21FE
330
2
100
AcDbSymbolTableRecord
100
AcDbLayerTableRecord
  2
P-2885
 70
     0
 62
     7
  6
Continuous
370
    -3
390
F
  0
LAYER
  5
2992
330
2
100
AcDbSymbolTableRecord
100
AcDbLayerTableRecord
  2
AM_0N
 70
     0
 62
     7
  6
Continuous
370
    50
390
F
1001
AcAecLayerStandard
1000

1000

  0
LAYER
  5
2993
330
2
100
AcDbSymbolTableRecord
100
AcDbLayerTableRecord
  2
AM_7N
 70
     0
 62
     4
  6
AM_ISO08W050
370
    25
390
F
1001
AcAecLayerStandard
1000

1000

  0
LAYER
  5
2994
330
2
100
AcDbSymbolTableRecord
100
AcDbLayerTableRecord
  2
AM_4N
 70
     0
 62
     3
  6
Continuous
370
    25
390
F
1001
AcAecLayerStandard
1000

1000

  0
ENDTAB
  0
TABLE
  2
STYLE
  5
3
330
0
100
AcDbSymbolTable
 70
    16
  0
STYLE
  5
11
330
3
100
AcDbSymbolTableRecord
100
AcDbTextStyleTableRecord
  2
STANDARD
 70
     0
 40
0.0
 41
1.0
 50
0.0
 71
     0
 42
2.5
  3
ISOCP.SHX
  4

  0
STYLE
  5
6D
330
3
100
AcDbSymbolTableRecord
100
AcDbTextStyleTableRecord
  2
ACISOTS
 70
     0
 40
1.0
 41
1.0
 50
0.0
 71
     0
 42
2.5
  3
isocp.shx
  4
bigfont.shx
  0
STYLE
  5
79
330
3
100
AcDbSymbolTableRecord
100
AcDbTextStyleTableRecord
  2
ACISOGDT
 70
     0
 40
0.0
 41
1.0
 50
0.0
 71
     0
 42
2.5
  3
AMGDT
  4
bigfont.shx
  0
STYLE
  5
22C
330
3
100
AcDbSymbolTableRecord
100
AcDbTextStyleTableRecord
  2

 70
     1
 40
0.0
 41
1.0
 50
0.0
 71
     0
 42
2.5
  3
genltshp.shx
  4

  0
STYLE
  5
6E5
330
3
100
AcDbSymbolTableRecord
100
AcDbTextStyleTableRecord
  2
ACDINTS
 70
     0
 40
1.0
 41
1.0
 50
0.0
 71
     0
 42
0.2
  3
isocp.shx
  4

  0
STYLE
  5
6E6
330
3
100
AcDbSymbolTableRecord
100
AcDbTextStyleTableRecord
  2
ACDINGDT
 70
     0
 40
0.0
 41
1.0
 50
0.0
 71
     0
 42
0.2
  3
AMGDT
  4

  0
STYLE
  5
7A7
330
3
100
AcDbSymbolTableRecord
100
AcDbTextStyleTableRecord
  2
ACANSTS
 70
     0
 40
1.0
 41
1.0
 50
0.0
 71
     0
 42
2.0
  3
romans.shx
  4

  0
STYLE
  5
7A8
330
3
100
AcDbSymbolTableRecord
100
AcDbTextStyleTableRecord
  2
ACANSGDT
 70
     0
 40
0.0
 41
1.0
 50
0.0
 71
     0
 42
2.0
  3
amgdtans.shx
  4

  0
ENDTAB
  0
TABLE
  2
VIEW
  5
6
330
0
100
AcDbSymbolTable
 70
     0
  0
ENDTAB
  0
TABLE
  2
UCS
  5
7
330
0
100
AcDbSymbolTable
 70
     0
  0
ENDTAB
  0
TABLE
  2
APPID
  5
9
330
0
100
AcDbSymbolTable
 70
    46
  0
APPID
  5
12
330
9
100
AcDbSymbolTableRecord
100
AcDbRegAppTableRecord
  2
ACAD
 70
     0
  0
APPID
  5
46
330
9
100
AcDbSymbolTableRecord
100
AcDbRegAppTableRecord
  2
MCAD_NO_VIS
 70
     0
  0
APPID
  5
47
330
9
100
AcDbSymbolTableRecord
100
AcDbRegAppTableRecord
  2
ACAD_TEMP_GRAPHIC
 70
     0
  0
APPID
  5
58
330
9
100
AcDbSymbolTableRecord
100
AcDbRegAppTableRecord
  2
ACATTRIBSERVICES
 70
     0
  0
APPID
  5
EE
330
9
100
AcDbSymbolTableRecord
100
AcDbRegAppTableRecord
  2
AD_DRAW
 70
     0
  0
APPID
  5
10C
330
9
100
AcDbSymbolTableRecord
100
AcDbRegAppTableRecord
  2
DESIGNERASSEMBLIES
 70
     0
  0
APPID
  5
111
330
9
100
AcDbSymbolTableRecord
100
AcDbRegAppTableRecord
  2
ACADM_DIM_EDIT
 70
     0
  0
APPID
  5
112
330
9
100
AcDbSymbolTableRecord
100
AcDbRegAppTableRecord
  2
AMDT_DM_ADJ
 70
     0
  0
APPID
  5
1A3
330
9
100
AcDbSymbolTableRecord
100
AcDbRegAppTableRecord
  2
ACAD_DSTYLE_DIMARC_LENGTH_SYMBOL
 70
     0
  0
APPID
  5
1A4
330
9
100
AcDbSymbolTableRecord
100
AcDbRegAppTableRecord
  2
ACAD_DSTYLE_DIMJOGGED_JOGANGLE_SYMBOL
 70
     0
  0
APPID
  5
2D5
330
9
100
AcDbSymbolTableRecord
100
AcDbRegAppTableRecord
  2
ACAD_EXEMPT_FROM_CAD_STANDARDS
 70
     0
  0
APPID
  5
307
330
9
100
AcDbSymbolTableRecord
100
AcDbRegAppTableRecord
  2
AcAecLayerStandard
 70
     0
  0
APPID
  5
309
330
9
100
AcDbSymbolTableRecord
100
AcDbRegAppTableRecord
  2
GENIUS_GENODEF_13
 70
     0
  0
APPID
  5
30A
330
9
100
AcDbSymbolTableRecord
100
AcDbRegAppTableRecord
  2
GENIUS_GENOBJ-N-CEN_13
 70
     0
  0
APPID
  5
30B
330
9
100
AcDbSymbolTableRecord
100
AcDbRegAppTableRecord
  2
GENIUS_GENCEN_19
 70
     0
  0
APPID
  5
3A1
330
9
100
AcDbSymbolTableRecord
100
AcDbRegAppTableRecord
  2
GENIUS_GENFIL_13
 70
     0
  0
APPID
  5
3A2
330
9
100
AcDbSymbolTableRecord
100
AcDbRegAppTableRecord
  2
GENIUS_GENOBJ-N-CHA_13
 70
     0
  0
APPID
  5
4CC
330
9
100
AcDbSymbolTableRecord
100
AcDbRegAppTableRecord
  2
GENIUS_GENOENT_13
 70
     0
  0
APPID
  5
4CD
330
9
100
AcDbSymbolTableRecord
100
AcDbRegAppTableRecord
  2
GENIUS_GENOBJ-N-CRS_13
 70
     0
  0
APPID
  5
4CE
330
9
100
AcDbSymbolTableRecord
100
AcDbRegAppTableRecord
  2
GENIUS_GENOLIS_13
 70
     0
  0
APPID
  5
4CF
330
9
100
AcDbSymbolTableRecord
100
AcDbRegAppTableRecord
  2
GENIUS_GENOREF_13
 70
     0
  0
APPID
  5
5D0
330
9
100
AcDbSymbolTableRecord
100
AcDbRegAppTableRecord
  2
GENIUS_GENOBJ-N-FIL_13
 70
     0
  0
APPID
  5
619
330
9
100
AcDbSymbolTableRecord
100
AcDbRegAppTableRecord
  2
GENIUS_GENOBJ-N-HTC_13
 70
     0
  0
APPID
  5
61A
330
9
100
AcDbSymbolTableRecord
100
AcDbRegAppTableRecord
  2
GENIUS_GENHATCH_13
 70
     0
  0
APPID
  5
6E8
330
9
100
AcDbSymbolTableRecord
100
AcDbRegAppTableRecord
  2
GENIUS_GENBLLY_14
 70
     0
  0
APPID
  5
6E9
330
9
100
AcDbSymbolTableRecord
100
AcDbRegAppTableRecord
  2
GENIUS_GENCFG_13
 70
     0
  0
APPID
  5
6EA
330
9
100
AcDbSymbolTableRecord
100
AcDbRegAppTableRecord
  2
GENIUS_GENCFG0_13
 70
     0
  0
APPID
  5
6EB
330
9
100
AcDbSymbolTableRecord
100
AcDbRegAppTableRecord
  2
GENIUS_GENCFG1_13
 70
     0
  0
APPID
  5
6EC
330
9
100
AcDbSymbolTableRecord
100
AcDbRegAppTableRecord
  2
GENIUS_GENCFG2_13
 70
     0
  0
APPID
  5
6ED
330
9
100
AcDbSymbolTableRecord
100
AcDbRegAppTableRecord
  2
GENIUS_GENCFG3_13
 70
     0
  0
APPID
  5
6EE
330
9
100
AcDbSymbolTableRecord
100
AcDbRegAppTableRecord
  2
GENIUS_GENCFG4_13
 70
     0
  0
APPID
  5
6EF
330
9
100
AcDbSymbolTableRecord
100
AcDbRegAppTableRecord
  2
GENIUS_VERSION2
 70
     0
  0
APPID
  5
6F0
330
9
100
AcDbSymbolTableRecord
100
AcDbRegAppTableRecord
  2
GENIUS_GENCFG5_13
 70
     0
  0
APPID
  5
6F1
330
9
100
AcDbSymbolTableRecord
100
AcDbRegAppTableRecord
  2
GENIUS_GEVCFG0_13
 70
     0
  0
APPID
  5
6F2
330
9
100
AcDbSymbolTableRecord
100
AcDbRegAppTableRecord
  2
GENIUS_GENREC_14
 70
     0
  0
APPID
  5
6F3
330
9
100
AcDbSymbolTableRecord
100
AcDbRegAppTableRecord
  2
GENIUS_GENOBJ-N-REC_13
 70
     0
  0
APPID
  5
BC8
330
9
100
AcDbSymbolTableRecord
100
AcDbRegAppTableRecord
  2
ACAD_PSEXT
 70
     0
  0
APPID
  5
BF9
330
9
100
AcDbSymbolTableRecord
100
AcDbRegAppTableRecord
  2
ACME_LAYERS
 70
     0
  0
APPID
  5
10EC
330
9
100
AcDbSymbolTableRecord
100
AcDbRegAppTableRecord
  2
AMG_2DHIDE
 70
     0
  0
APPID
  5
10ED
330
9
100
AcDbSymbolTableRecord
100
AcDbRegAppTableRecord
  2
AMG_2DSTRUCT_BTR
 70
     0
  0
APPID
  5
1413
330
9
100
AcDbSymbolTableRecord
100
AcDbRegAppTableRecord
  2
GENIUS_GENDTOL_13
 70
     0
  0
APPID
  5
1DAC
330
9
100
AcDbSymbolTableRecord
100
AcDbRegAppTableRecord
  2
DCO15
 70
     0
  0
APPID
  5
1DF0
330
9
100
AcDbSymbolTableRecord
100
AcDbRegAppTableRecord
  2
GENIUS_GEFWELD_13
 70
     0
  0
APPID
  5
1DF1
330
9
100
AcDbSymbolTableRecord
100
AcDbRegAppTableRecord
  2
GENIUS_GENOBJ-F-WELS_13
 70
     0
  0
APPID
  5
2D12
330
9
100
AcDbSymbolTableRecord
100
AcDbRegAppTableRecord
  2
ACAD_MLEADERVER
 70
     0
  0
APPID
  5
2D69
330
9
100
AcDbSymbolTableRecord
100
AcDbRegAppTableRecord
  2
ACAD_DSTYLE_DIMINSPECT
 70
     0
  0
ENDTAB
  0
TABLE
  2
DIMSTYLE
  5
A
330
0
100
AcDbSymbolTable
 70
    26
100
AcDbDimStyleTable
 71
     1
340
81
  0
DIMSTYLE
105
81
330
A
100
AcDbSymbolTableRecord
100
AcDbDimStyleTableRecord
  2
AM_ISO
 70
     0
  4
"
 41
2.5
 42
1.0
 43
10.0
 44
1.0
 47
0.1
 48
0.1
 73
     0
 74
     0
 77
     1
 78
     8
 79
     2
140
3.5
141
0.0
143
0.0393701
146
0.71
147
1.5
172
     1
176
   256
177
   256
178
     2
271
     2
272
     3
274
     4
283
     0
284
     8
340
11
371
    -1
372
    -1
1001
ACAD_DSTYLE_DIMJOGGED_JOGANGLE_SYMBOL
1070
   384
1040
0.7853981633974483
1001
ACAD_DSTYLE_DIMARC_LENGTH_SYMBOL
1070
   379
1070
     1
  0
DIMSTYLE
105
82
330
A
100
AcDbSymbolTableRecord
100
AcDbDimStyleTableRecord
  2
AM_ISO$3
 70
     0
  4
"
 41
2.5
 42
1.0
 43
10.0
 44
1.0
 47
0.1
 48
0.1
 73
     0
 77
     1
 78
     8
 79
     2
140
3.5
141
0.0
143
0.0393701
146
0.71
147
1.5
176
   256
177
   256
178
     2
271
     2
272
     3
274
     4
283
     0
284
     8
288
     1
289
     0
340
11
371
    -1
372
    -1
1001
ACAD_DSTYLE_DIMJOGGED_JOGANGLE_SYMBOL
1070
   384
1040
0.7853981633974483
1001
ACAD_DSTYLE_DIMARC_LENGTH_SYMBOL
1070
   379
1070
     1
  0
DIMSTYLE
105
83
330
A
100
AcDbSymbolTableRecord
100
AcDbDimStyleTableRecord
  2
AM_ISO$4
 70
     0
  4
"
 41
2.5
 42
1.0
 43
10.0
 44
1.0
 47
0.1
 48
0.1
 73
     0
 77
     1
 78
     8
 79
     2
140
3.5
141
0.0
143
0.0393701
146
0.71
147
1.5
176
   256
177
   256
178
     2
271
     2
272
     3
274
     4
283
     0
284
     8
288
     1
289
     0
340
11
371
    -1
372
    -1
1001
ACAD_DSTYLE_DIMJOGGED_JOGANGLE_SYMBOL
1070
   384
1040
0.7853981633974483
1001
ACAD_DSTYLE_DIMARC_LENGTH_SYMBOL
1070
   379
1070
     1
  0
DIMSTYLE
105
84
330
A
100
AcDbSymbolTableRecord
100
AcDbDimStyleTableRecord
  2
AM_ISO$6
 70
     0
  4
"
 41
2.5
 42
1.0
 43
10.0
 44
1.0
 47
0.1
 48
0.1
 73
     0
 74
     0
 78
     8
 79
     2
140
3.5
141
0.0
143
0.0393701
146
0.71
147
1.5
172
     1
176
   256
177
   256
178
     2
271
     2
272
     3
274
     4
283
     0
284
     8
340
11
371
    -1
372
    -1
1001
ACAD_DSTYLE_DIMJOGGED_JOGANGLE_SYMBOL
1070
   384
1040
0.7853981633974483
1001
ACAD_DSTYLE_DIMARC_LENGTH_SYMBOL
1070
   379
1070
     1
  0
DIMSTYLE
105
85
330
A
100
AcDbSymbolTableRecord
100
AcDbDimStyleTableRecord
  2
AM_ISO$7
 70
     0
  4
"
 41
2.5
 42
1.0
 43
10.0
 44
1.0
 47
0.1
 48
0.1
 73
     0
 74
     0
 77
     1
 78
     8
 79
     2
140
5.0
141
0.0
143
0.0393701
146
0.71
147
1.5
172
     1
176
   256
177
   256
178
     2
271
     2
272
     3
274
     4
283
     0
284
     8
340
11
371
    -1
372
    -1
1001
ACAD_DSTYLE_DIMJOGGED_JOGANGLE_SYMBOL
1070
   384
1040
0.7853981633974483
1001
ACAD_DSTYLE_DIMARC_LENGTH_SYMBOL
1070
   379
1070
     1
  0
DIMSTYLE
105
86
330
A
100
AcDbSymbolTableRecord
100
AcDbDimStyleTableRecord
  2
AM_ISO$SF
 70
     0
  4
"
 41
2.5
 42
1.0
 43
10.0
 44
1.0
 47
0.1
 48
0.1
 73
     0
 74
     0
 75
     1
 76
     1
 77
     1
 78
     8
 79
     2
140
3.5
141
0.0
143
0.0393701
146
0.71
147
1.5
172
     1
176
   256
177
   256
178
     2
271
     2
272
     3
274
     4
283
     0
284
     8
340
11
371
    -1
372
    -1
1001
ACAD_DSTYLE_DIMJOGGED_JOGANGLE_SYMBOL
1070
   384
1040
0.7853981633974483
1001
ACAD_DSTYLE_DIMARC_LENGTH_SYMBOL
1070
   379
1070
     1
  0
DIMSTYLE
105
8B
330
A
100
AcDbSymbolTableRecord
100
AcDbDimStyleTableRecord
  2
AM_ISO$SH
 70
     0
  4
"
 41
2.5
 42
1.0
 43
10.0
 44
1.0
 47
0.1
 48
0.1
 73
     0
 74
     0
 75
     1
 76
     1
 77
     1
 78
     8
 79
     2
140
3.5
141
0.0
143
0.0393701
144
2.0
146
0.71
147
1.5
172
     1
173
     1
176
   256
177
   256
178
     2
271
     2
272
     3
274
     4
283
     0
284
     8
340
11
343
87
371
    -1
372
    -1
1001
ACAD_DSTYLE_DIMJOGGED_JOGANGLE_SYMBOL
1070
   384
1040
0.7853981633974483
1001
ACAD_DSTYLE_DIMARC_LENGTH_SYMBOL
1070
   379
1070
     1
  0
DIMSTYLE
105
3EF
102
{ACAD_REACTORS
330
1C13
330
1C1E
330
1C24
330
1C27
330
1C53
330
1C99
330
1C9D
330
27D4
330
2C16
330
2CA2
330
2D51
102
}
330
A
100
AcDbSymbolTableRecord
100
AcDbDimStyleTableRecord
  2
AM_ISO$0
 70
     0
  4
"
 41
2.5
 42
1.0
 43
10.0
 44
1.0
 47
0.1
 48
0.1
 73
     0
 74
     0
 77
     1
 78
     8
 79
     2
140
3.5
141
0.0
143
0.0393701
146
0.71
147
1.5
172
     1
176
   256
177
   256
178
     2
271
     2
272
     3
274
     4
283
     0
284
     8
340
11
371
    -1
372
    -1
1001
ACAD_DSTYLE_DIMJOGGED_JOGANGLE_SYMBOL
1070
   384
1040
0.7853981633974483
1001
ACAD_DSTYLE_DIMARC_LENGTH_SYMBOL
1070
   379
1070
     1
  0
DIMSTYLE
105
6E7
330
A
100
AcDbSymbolTableRecord
100
AcDbDimStyleTableRecord
  2
STANDARD
 70
     0
340
11
  0
DIMSTYLE
105
7AA
330
A
100
AcDbSymbolTableRecord
100
AcDbDimStyleTableRecord
  2
AM_ANSI
 70
     0
  4
mm
 41
0.1
 42
0.05
 43
0.5
 44
0.1
 47
0.1
 48
0.1
 78
     7
 79
     2
140
0.12
141
0.0
146
0.71
147
0.06
176
   256
177
   256
178
     2
274
     4
284
     7
340
11
371
    -1
372
    -1
1001
ACAD_DSTYLE_DIMJOGGED_JOGANGLE_SYMBOL
1070
   384
1040
0.7853981633974483
1001
ACAD_DSTYLE_DIMARC_LENGTH_SYMBOL
1070
   379
1070
     1
  0
DIMSTYLE
105
7AB
330
A
100
AcDbSymbolTableRecord
100
AcDbDimStyleTableRecord
  2
AM_ANSI$3
 70
     0
  4
mm
 41
0.1
 42
0.05
 43
0.5
 44
0.1
 47
0.1
 48
0.1
 78
     7
 79
     2
140
0.12
141
0.0
146
0.71
147
0.06
176
   256
177
   256
178
     2
274
     4
284
     7
288
     1
289
     0
340
11
371
    -1
372
    -1
1001
ACAD_DSTYLE_DIMJOGGED_JOGANGLE_SYMBOL
1070
   384
1040
0.7853981633974483
1001
ACAD_DSTYLE_DIMARC_LENGTH_SYMBOL
1070
   379
1070
     1
  0
DIMSTYLE
105
7AC
330
A
100
AcDbSymbolTableRecord
100
AcDbDimStyleTableRecord
  2
AM_ANSI$4
 70
     0
  4
mm
 41
0.1
 42
0.05
 43
0.5
 44
0.1
 47
0.1
 48
0.1
 78
     7
 79
     2
140
0.12
141
0.0
146
0.71
147
0.06
176
   256
177
   256
178
     2
274
     4
284
     7
288
     1
289
     0
340
11
371
    -1
372
    -1
1001
ACAD_DSTYLE_DIMJOGGED_JOGANGLE_SYMBOL
1070
   384
1040
0.7853981633974483
1001
ACAD_DSTYLE_DIMARC_LENGTH_SYMBOL
1070
   379
1070
     1
  0
DIMSTYLE
105
7AD
330
A
100
AcDbSymbolTableRecord
100
AcDbDimStyleTableRecord
  2
AM_ANSI$7
 70
     0
  4
mm
 41
0.1
 42
0.05
 43
0.5
 44
0.1
 47
0.1
 48
0.1
 78
     7
 79
     2
140
0.24
141
0.0
146
0.71
147
0.06
176
   256
177
   256
178
     2
274
     4
284
     7
340
11
371
    -1
372
    -1
1001
ACAD_DSTYLE_DIMJOGGED_JOGANGLE_SYMBOL
1070
   384
1040
0.7853981633974483
1001
ACAD_DSTYLE_DIMARC_LENGTH_SYMBOL
1070
   379
1070
     1
  0
DIMSTYLE
105
7AE
330
A
100
AcDbSymbolTableRecord
100
AcDbDimStyleTableRecord
  2
AM_ANSI$SF
 70
     0
  4
mm
 41
0.1
 42
0.05
 43
0.5
 44
0.1
 47
0.1
 48
0.1
 75
     1
 76
     1
 78
     7
 79
     2
140
0.12
141
0.0
146
0.71
147
0.06
176
   256
177
   256
178
     2
274
     4
284
     7
340
11
371
    -1
372
    -1
1001
ACAD_DSTYLE_DIMJOGGED_JOGANGLE_SYMBOL
1070
   384
1040
0.7853981633974483
1001
ACAD_DSTYLE_DIMARC_LENGTH_SYMBOL
1070
   379
1070
     1
  0
DIMSTYLE
105
7AF
330
A
100
AcDbSymbolTableRecord
100
AcDbDimStyleTableRecord
  2
AM_ANSI$SH
 70
     0
  4
mm
 41
0.1
 42
0.05
 43
0.5
 44
0.1
 47
0.1
 48
0.1
 75
     1
 76
     1
 78
     7
 79
     2
140
0.12
141
0.0
146
0.71
147
0.06
173
     1
176
   256
177
   256
178
     2
274
     4
284
     7
340
11
343
87
371
    -1
372
    -1
1001
ACAD_DSTYLE_DIMJOGGED_JOGANGLE_SYMBOL
1070
   384
1040
0.7853981633974483
1001
ACAD_DSTYLE_DIMARC_LENGTH_SYMBOL
1070
   379
1070
     1
  0
DIMSTYLE
105
139F
102
{ACAD_REACTORS
330
1CA6
102
}
330
A
100
AcDbSymbolTableRecord
100
AcDbDimStyleTableRecord
  2
AM_ISO$2
 70
     0
  4
"
 41
2.5
 42
1.0
 43
10.0
 44
1.0
 47
0.1
 48
0.1
 73
     0
 74
     0
 77
     1
 78
     8
 79
     2
140
3.5
141
0.0
143
0.0393701
146
0.71
147
1.5
172
     1
176
   256
177
   256
178
     2
271
     2
272
     3
274
     4
283
     0
284
     8
340
11
371
    -1
372
    -1
1001
ACAD_DSTYLE_DIMJOGGED_JOGANGLE_SYMBOL
1070
   384
1040
0.7853981633974483
1001
ACAD_DSTYLE_DIMARC_LENGTH_SYMBOL
1070
   379
1070
     1
  0
ENDTAB
  0
TABLE
  2
BLOCK_RECORD
  5
1
330
0
100
AcDbSymbolTable
 70
    59
  0
BLOCK_RECORD
  5
1F
102
{ACAD_XDICTIONARY
360
8F
102
}
330
1
100
AcDbSymbolTableRecord
100
AcDbBlockTableRecord
  2
*Model_Space
340
22
  0
BLOCK_RECORD
  5
1B
330
1
100
AcDbSymbolTableRecord
100
AcDbBlockTableRecord
  2
*Paper_Space
340
1E
  0
BLOCK_RECORD
  5
23
330
1
100
AcDbSymbolTableRecord
100
AcDbBlockTableRecord
  2
*Paper_Space0
340
26
  0
BLOCK_RECORD
  5
87
330
1
100
AcDbSymbolTableRecord
100
AcDbBlockTableRecord
  2
GENAXEH
340
0
  0
BLOCK_RECORD
  5
1CD3
330
1
100
AcDbSymbolTableRecord
100
AcDbBlockTableRecord
  2
*D11
340
0
  0
BLOCK_RECORD
  5
1CDF
330
1
100
AcDbSymbolTableRecord
100
AcDbBlockTableRecord
  2
*D12
340
0
  0
BLOCK_RECORD
  5
1CF7
330
1
100
AcDbSymbolTableRecord
100
AcDbBlockTableRecord
  2
*D14
340
0
  0
BLOCK_RECORD
  5
1D03
330
1
100
AcDbSymbolTableRecord
100
AcDbBlockTableRecord
  2
*D15
340
0
  0
BLOCK_RECORD
  5
1D1D
330
1
100
AcDbSymbolTableRecord
100
AcDbBlockTableRecord
  2
*D16
340
0
  0
BLOCK_RECORD
  5
1D29
330
1
100
AcDbSymbolTableRecord
100
AcDbBlockTableRecord
  2
*D17
340
0
  0
BLOCK_RECORD
  5
1D3E
330
1
100
AcDbSymbolTableRecord
100
AcDbBlockTableRecord
  2
*D18
340
0
  0
BLOCK_RECORD
  5
1D64
330
1
100
AcDbSymbolTableRecord
100
AcDbBlockTableRecord
  2
*D21
340
0
  0
BLOCK_RECORD
  5
2014
330
1
100
AcDbSymbolTableRecord
100
AcDbBlockTableRecord
  2
*U22
340
0
102
{BLKREFS
331
2039
102
}
  0
BLOCK_RECORD
  5
2058
330
1
100
AcDbSymbolTableRecord
100
AcDbBlockTableRecord
  2
*U23
340
0
102
{BLKREFS
331
2062
102
}
  0
BLOCK_RECORD
  5
27D5
330
1
100
AcDbSymbolTableRecord
100
AcDbBlockTableRecord
  2
*D25
340
0
  0
BLOCK_RECORD
  5
2C17
330
1
100
AcDbSymbolTableRecord
100
AcDbBlockTableRecord
  2
*D35
340
0
  0
BLOCK_RECORD
  5
2CA3
330
1
100
AcDbSymbolTableRecord
100
AcDbBlockTableRecord
  2
*D36
340
0
  0
BLOCK_RECORD
  5
2D52
330
1
100
AcDbSymbolTableRecord
100
AcDbBlockTableRecord
  2
*D37
340
0
  0
BLOCK_RECORD
  5
2DA2
330
1
100
AcDbSymbolTableRecord
100
AcDbBlockTableRecord
  2
*U38
340
0
  0
BLOCK_RECORD
  5
2DAB
330
1
100
AcDbSymbolTableRecord
100
AcDbBlockTableRecord
  2
*U39
340
0
  0
BLOCK_RECORD
  5
2DBA
330
1
100
AcDbSymbolTableRecord
100
AcDbBlockTableRecord
  2
*U40
340
0
  0
BLOCK_RECORD
  5
2DC9
330
1
100
AcDbSymbolTableRecord
100
AcDbBlockTableRecord
  2
*U41
340
0
  0
BLOCK_RECORD
  5
2DD8
330
1
100
AcDbSymbolTableRecord
100
AcDbBlockTableRecord
  2
*U42
340
0
  0
BLOCK_RECORD
  5
2DE7
330
1
100
AcDbSymbolTableRecord
100
AcDbBlockTableRecord
  2
*U43
340
0
  0
BLOCK_RECORD
  5
2DF6
330
1
100
AcDbSymbolTableRecord
100
AcDbBlockTableRecord
  2
*U44
340
0
  0
BLOCK_RECORD
  5
2E05
330
1
100
AcDbSymbolTableRecord
100
AcDbBlockTableRecord
  2
*U45
340
0
  0
BLOCK_RECORD
  5
2E14
330
1
100
AcDbSymbolTableRecord
100
AcDbBlockTableRecord
  2
*U46
340
0
  0
BLOCK_RECORD
  5
2E23
330
1
100
AcDbSymbolTableRecord
100
AcDbBlockTableRecord
  2
*U47
340
0
  0
BLOCK_RECORD
  5
2E35
330
1
100
AcDbSymbolTableRecord
100
AcDbBlockTableRecord
  2
*U48
340
0
  0
BLOCK_RECORD
  5
2E47
330
1
100
AcDbSymbolTableRecord
100
AcDbBlockTableRecord
  2
*U49
340
0
  0
BLOCK_RECORD
  5
2E5C
330
1
100
AcDbSymbolTableRecord
100
AcDbBlockTableRecord
  2
*U50
340
0
  0
BLOCK_RECORD
  5
2E71
330
1
100
AcDbSymbolTableRecord
100
AcDbBlockTableRecord
  2
*U51
340
0
  0
BLOCK_RECORD
  5
2E86
330
1
100
AcDbSymbolTableRecord
100
AcDbBlockTableRecord
  2
*U52
340
0
  0
BLOCK_RECORD
  5
2E9B
330
1
100
AcDbSymbolTableRecord
100
AcDbBlockTableRecord
  2
*U53
340
0
  0
BLOCK_RECORD
  5
2EB0
330
1
100
AcDbSymbolTableRecord
100
AcDbBlockTableRecord
  2
*U54
340
0
  0
BLOCK_RECORD
  5
2ED2
330
1
100
AcDbSymbolTableRecord
100
AcDbBlockTableRecord
  2
*U55
340
0
  0
BLOCK_RECORD
  5
2EDB
330
1
100
AcDbSymbolTableRecord
100
AcDbBlockTableRecord
  2
*U56
340
0
  0
BLOCK_RECORD
  5
2EEF
330
1
100
AcDbSymbolTableRecord
100
AcDbBlockTableRecord
  2
*U57
340
0
  0
BLOCK_RECORD
  5
2EFD
330
1
100
AcDbSymbolTableRecord
100
AcDbBlockTableRecord
  2
*U58
340
0
  0
ENDTAB
  0
ENDSEC
  0
SECTION
  2
BLOCKS
  0
BLOCK
  5
20
330
1F
100
AcDbEntity
  8
0
100
AcDbBlockBegin
  2
*Model_Space
 70
     0
 10
0.0
 20
0.0
 30
0.0
  3
*Model_Space
  1

  0
ENDBLK
  5
21
330
1F
100
AcDbEntity
  8
0
100
AcDbBlockEnd
  0
BLOCK
  5
1C
330
1B
100
AcDbEntity
 67
     1
  8
0
100
AcDbBlockBegin
  2
*Paper_Space
 70
     0
 10
0.0
 20
0.0
 30
0.0
  3
*Paper_Space
  1

  0
ENDBLK
  5
1D
330
1B
100
AcDbEntity
 67
     1
  8
0
100
AcDbBlockEnd
  0
BLOCK
  5
24
330
23
100
AcDbEntity
 67
     1
  8
0
100
AcDbBlockBegin
  2
*Paper_Space0
 70
     0
 10
0.0
 20
0.0
 30
0.0
  3
*Paper_Space0
  1

  0
ENDBLK
  5
25
330
23
100
AcDbEntity
 67
     1
  8
0
100
AcDbBlockEnd
  0
BLOCK
  5
89
330
87
100
AcDbEntity
  8
0
100
AcDbBlockBegin
  2
GENAXEH
 70
     0
 10
0.0
 20
0.0
 30
0.0
  3
GENAXEH
  1

  0
LINE
  5
88
330
87
100
AcDbEntity
  8
0
100
AcDbLine
 10
-1.0
 20
0.0
 30
0.0
 11
1.0
 21
0.0
 31
0.0
  0
ENDBLK
  5
8A
330
87
100
AcDbEntity
  8
0
100
AcDbBlockEnd
  0
BLOCK
  5
1CDD
330
1CD3
100
AcDbEntity
  8
0
100
AcDbBlockBegin
  2
*D11
 70
     1
 10
0.0
 20
0.0
 30
0.0
  3
*D11
  1

  0
LINE
  5
1CD4
330
1CD3
100
AcDbEntity
  8
AM_5
100
AcDbLine
 10
505.3438080086692
 20
696.7111401363471
 30
0.0
 11
533.0022579106567
 21
696.7111401363471
 31
0.0
  0
LINE
  5
1CD5
330
1CD3
100
AcDbEntity
  8
AM_5
100
AcDbLine
 10
505.3438080086693
 20
801.7111401363465
 30
0.0
 11
533.0022579106569
 21
801.7111401363465
 31
0.0
  0
LINE
  5
1CD6
330
1CD3
100
AcDbEntity
  8
AM_5
100
AcDbLine
 10
532.0022579106567
 20
699.2111401363471
 30
0.0
 11
532.0022579106569
 21
799.2111401363465
 31
0.0
  0
SOLID
  5
1CD7
330
1CD3
100
AcDbEntity
  8
AM_5
100
AcDbTrace
 10
531.5855912439901
 20
699.2111401363471
 30
0.0
 11
532.4189245773234
 21
699.2111401363471
 31
0.0
 12
532.0022579106567
 22
696.7111401363471
 32
0.0
 13
532.0022579106567
 23
696.7111401363471
 33
0.0
  0
SOLID
  5
1CD8
330
1CD3
100
AcDbEntity
  8
AM_5
100
AcDbTrace
 10
531.5855912439903
 20
799.2111401363465
 30
0.0
 11
532.4189245773235
 21
799.2111401363465
 31
0.0
 12
532.0022579106569
 22
801.7111401363465
 32
0.0
 13
532.0022579106569
 23
801.7111401363465
 33
0.0
  0
MTEXT
  5
1CD9
330
1CD3
100
AcDbEntity
  8
AM_5
 62
     2
100
AcDbMText
 10
525.2522579106567
 20
749.2111401363469
 30
0.0
 40
10.5
 41
0.0
 71
     5
 72
     1
  1
105
 11
0.0000000000000001
 21
1.0
 31
0.0
 73
     1
 44
1.0
  0
POINT
  5
1CDA
330
1CD3
100
AcDbEntity
  8
Defpoints
 62
     0
100
AcDbPoint
 10
504.3438080086692
 20
696.7111401363471
 30
0.0
  0
POINT
  5
1CDB
330
1CD3
100
AcDbEntity
  8
Defpoints
 62
     0
100
AcDbPoint
 10
504.3438080086693
 20
801.7111401363465
 30
0.0
  0
POINT
  5
1CDC
330
1CD3
100
AcDbEntity
  8
Defpoints
 62
     0
100
AcDbPoint
 10
532.0022579106569
 20
801.7111401363465
 30
0.0
  0
ENDBLK
  5
1CDE
330
1CD3
100
AcDbEntity
  8
0
100
AcDbBlockEnd
  0
BLOCK
  5
1CE9
330
1CDF
100
AcDbEntity
  8
0
100
AcDbBlockBegin
  2
*D12
 70
     1
 10
0.0
 20
0.0
 30
0.0
  3
*D12
  1

  0
LINE
  5
1CE0
330
1CDF
100
AcDbEntity
  8
AM_5
100
AcDbLine
 10
327.3438080086694
 20
460.2480453744925
 30
0.0
 11
126.6752775494886
 21
460.2480453744925
 31
0.0
  0
LINE
  5
1CE1
330
1CDF
100
AcDbEntity
  8
AM_5
100
AcDbLine
 10
327.3438080086694
 20
128.2480453744925
 30
0.0
 11
126.6752775494885
 21
128.2480453744926
 31
0.0
  0
LINE
  5
1CE2
330
1CDF
100
AcDbEntity
  8
AM_5
100
AcDbLine
 10
127.6752775494886
 20
457.7480453744926
 30
0.0
 11
127.6752775494885
 21
130.7480453744926
 31
0.0
  0
SOLID
  5
1CE3
330
1CDF
100
AcDbEntity
  8
AM_5
100
AcDbTrace
 10
127.2586108828219
 20
457.7480453744926
 30
0.0
 11
128.0919442161553
 21
457.7480453744925
 31
0.0
 12
127.6752775494886
 22
460.2480453744925
 32
0.0
 13
127.6752775494886
 23
460.2480453744925
 33
0.0
  0
SOLID
  5
1CE4
330
1CDF
100
AcDbEntity
  8
AM_5
100
AcDbTrace
 10
127.2586108828219
 20
130.7480453744926
 30
0.0
 11
128.0919442161552
 21
130.7480453744926
 31
0.0
 12
127.6752775494885
 22
128.2480453744926
 32
0.0
 13
127.6752775494885
 23
128.2480453744926
 33
0.0
  0
MTEXT
  5
1CE5
330
1CDF
100
AcDbEntity
  8
AM_5
 62
     2
100
AcDbMText
 10
120.9242440849216
 20
294.2480453744926
 30
0.0
 40
10.5
 41
0.0
 71
     5
 72
     1
  1
332
 11
0.0000000000000001
 21
1.0
 31
0.0
 73
     1
 44
1.0
  0
POINT
  5
1CE6
330
1CDF
100
AcDbEntity
  8
Defpoints
 62
     0
100
AcDbPoint
 10
328.3438080086694
 20
460.2480453744925
 30
0.0
  0
POINT
  5
1CE7
330
1CDF
100
AcDbEntity
  8
Defpoints
 62
     0
100
AcDbPoint
 10
328.3438080086694
 20
128.2480453744925
 30
0.0
  0
POINT
  5
1CE8
330
1CDF
100
AcDbEntity
  8
Defpoints
 62
     0
100
AcDbPoint
 10
127.6752775494885
 20
128.2480453744926
 30
0.0
  0
ENDBLK
  5
1CEA
330
1CDF
100
AcDbEntity
  8
0
100
AcDbBlockEnd
  0
BLOCK
  5
1D01
330
1CF7
100
AcDbEntity
  8
0
100
AcDbBlockBegin
  2
*D14
 70
     1
 10
0.0
 20
0.0
 30
0.0
  3
*D14
  1

  0
LINE
  5
1CF8
330
1CF7
100
AcDbEntity
  8
AM_5
100
AcDbLine
 10
504.3438080086693
 20
127.2480453744927
 30
0.0
 11
504.3438080086693
 21
105.3469139136111
 31
0.0
  0
LINE
  5
1CF9
330
1CF7
100
AcDbEntity
  8
AM_5
100
AcDbLine
 10
328.3438080086694
 20
124.2480453744925
 30
0.0
 11
328.3438080086694
 21
105.3469139136111
 31
0.0
  0
LINE
  5
1CFA
330
1CF7
100
AcDbEntity
  8
AM_5
100
AcDbLine
 10
501.8438080086694
 20
106.3469139136111
 30
0.0
 11
330.8438080086694
 21
106.3469139136111
 31
0.0
  0
SOLID
  5
1CFB
330
1CF7
100
AcDbEntity
  8
AM_5
100
AcDbTrace
 10
501.8438080086694
 20
106.7635805802778
 30
0.0
 11
501.8438080086694
 21
105.9302472469445
 31
0.0
 12
504.3438080086693
 22
106.3469139136111
 32
0.0
 13
504.3438080086693
 23
106.3469139136111
 33
0.0
  0
SOLID
  5
1CFC
330
1CF7
100
AcDbEntity
  8
AM_5
100
AcDbTrace
 10
330.8438080086694
 20
106.7635805802778
 30
0.0
 11
330.8438080086694
 21
105.9302472469445
 31
0.0
 12
328.3438080086694
 22
106.3469139136111
 32
0.0
 13
328.3438080086694
 23
106.3469139136111
 33
0.0
  0
MTEXT
  5
1CFD
330
1CF7
100
AcDbEntity
  8
AM_5
 62
     2
100
AcDbMText
 10
416.3438080086693
 20
113.0969139136111
 30
0.0
 40
10.5
 41
0.0
 71
     5
 72
     1
  1
176
 73
     1
 44
1.0
  0
POINT
  5
1CFE
330
1CF7
100
AcDbEntity
  8
Defpoints
 62
     0
100
AcDbPoint
 10
504.3438080086693
 20
128.2480453744927
 30
0.0
  0
POINT
  5
1CFF
330
1CF7
100
AcDbEntity
  8
Defpoints
 62
     0
100
AcDbPoint
 10
328.3438080086694
 20
125.2480453744925
 30
0.0
  0
POINT
  5
1D00
330
1CF7
100
AcDbEntity
  8
Defpoints
 62
     0
100
AcDbPoint
 10
328.3438080086694
 20
106.3469139136111
 30
0.0
  0
ENDBLK
  5
1D02
330
1CF7
100
AcDbEntity
  8
0
100
AcDbBlockEnd
  0
BLOCK
  5
1D0F
330
1D03
100
AcDbEntity
  8
0
100
AcDbBlockBegin
  2
*D15
 70
     1
 10
0.0
 20
0.0
 30
0.0
  3
*D15
  1

  0
LINE
  5
1D04
330
1D03
100
AcDbEntity
  8
AM_5
100
AcDbLine
 10
161.3438080086694
 20
696.7111401363471
 30
0.0
 11
149.3438080086694
 21
696.7111401363471
 31
0.0
  0
LINE
  5
1D05
330
1D03
100
AcDbEntity
  8
AM_5
100
AcDbLine
 10
161.3438080086694
 20
692.7111401363471
 30
0.0
 11
149.3438080086694
 21
692.7111401363471
 31
0.0
  0
LINE
  5
1D06
330
1D03
100
AcDbEntity
  8
AM_5
100
AcDbLine
 10
150.3438080086693
 20
699.2111401363471
 30
0.0
 11
150.3438080086693
 21
701.7111401363471
 31
0.0
  0
LINE
  5
1D07
330
1D03
100
AcDbEntity
  8
AM_5
100
AcDbLine
 10
150.3438080086693
 20
690.2111401363471
 30
0.0
 11
150.3438080086693
 21
679.4611401363471
 31
0.0
  0
LINE
  5
1D08
330
1D03
100
AcDbEntity
  8
AM_5
100
AcDbLine
 10
150.3438080086693
 20
696.7111401363471
 30
0.0
 11
150.3438080086693
 21
692.7111401363471
 31
0.0
  0
SOLID
  5
1D09
330
1D03
100
AcDbEntity
  8
AM_5
100
AcDbTrace
 10
149.9271413420027
 20
699.2111401363471
 30
0.0
 11
150.760474675336
 21
699.2111401363471
 31
0.0
 12
150.3438080086693
 22
696.7111401363471
 32
0.0
 13
150.3438080086693
 23
696.7111401363471
 33
0.0
  0
SOLID
  5
1D0A
330
1D03
100
AcDbEntity
  8
AM_5
100
AcDbTrace
 10
149.9271413420027
 20
690.2111401363471
 30
0.0
 11
150.760474675336
 21
690.2111401363471
 31
0.0
 12
150.3438080086693
 22
692.7111401363471
 32
0.0
 13
150.3438080086693
 23
692.7111401363471
 33
0.0
  0
MTEXT
  5
1D0B
330
1D03
100
AcDbEntity
  8
AM_5
 62
     2
100
AcDbMText
 10
143.5938080086692
 20
683.5861401363471
 30
0.0
 40
10.5
 41
0.0
 71
     5
 72
     1
  1
4
 11
0.0000000000000001
 21
1.0
 31
0.0
 73
     1
 44
1.0
  0
POINT
  5
1D0C
330
1D03
100
AcDbEntity
  8
Defpoints
 62
     0
100
AcDbPoint
 10
162.3438080086694
 20
696.7111401363471
 30
0.0
  0
POINT
  5
1D0D
330
1D03
100
AcDbEntity
  8
Defpoints
 62
     0
100
AcDbPoint
 10
162.3438080086694
 20
692.7111401363471
 30
0.0
  0
POINT
  5
1D0E
330
1D03
100
AcDbEntity
  8
Defpoints
 62
     0
100
AcDbPoint
 10
150.3438080086693
 20
692.7111401363471
 30
0.0
  0
ENDBLK
  5
1D10
330
1D03
100
AcDbEntity
  8
0
100
AcDbBlockEnd
  0
BLOCK
  5
1D27
330
1D1D
100
AcDbEntity
  8
0
100
AcDbBlockBegin
  2
*D16
 70
     1
 10
0.0
 20
0.0
 30
0.0
  3
*D16
  1

  0
LINE
  5
2AE5
330
1D1D
100
AcDbEntity
  8
AM_5
100
AcDbLine
 10
328.3438080086701
 20
602.7111401363472
 30
0.0
 11
328.3438080086701
 21
563.4756175802574
 31
0.0
  0
LINE
  5
2AE6
330
1D1D
100
AcDbEntity
  8
AM_5
100
AcDbLine
 10
838.3438080086696
 20
628.8626455360017
 30
0.0
 11
838.3438080086696
 21
563.4756175802574
 31
0.0
  0
LINE
  5
2AE7
330
1D1D
100
AcDbEntity
  8
AM_5
100
AcDbLine
 10
330.8438080086701
 20
564.4756175802574
 30
0.0
 11
835.8438080086695
 21
564.4756175802574
 31
0.0
  0
SOLID
  5
2AE8
330
1D1D
100
AcDbEntity
  8
AM_5
100
AcDbTrace
 10
330.8438080086701
 20
564.892284246924
 30
0.0
 11
330.8438080086701
 21
564.0589509135907
 31
0.0
 12
328.3438080086701
 22
564.4756175802574
 32
0.0
 13
328.3438080086701
 23
564.4756175802574
 33
0.0
  0
SOLID
  5
2AE9
330
1D1D
100
AcDbEntity
  8
AM_5
100
AcDbTrace
 10
835.8438080086695
 20
564.892284246924
 30
0.0
 11
835.8438080086695
 21
564.0589509135907
 31
0.0
 12
838.3438080086696
 22
564.4756175802574
 32
0.0
 13
838.3438080086696
 23
564.4756175802574
 33
0.0
  0
MTEXT
  5
2AEA
330
1D1D
100
AcDbEntity
  8
AM_5
 62
     2
100
AcDbMText
 10
583.3438080086698
 20
571.2256175802574
 30
0.0
 40
10.5
 41
0.0
 71
     5
 72
     1
  1
510
 73
     1
 44
1.0
  0
POINT
  5
2AEB
330
1D1D
100
AcDbEntity
  8
Defpoints
 62
     0
100
AcDbPoint
 10
328.3438080086701
 20
603.7111401363472
 30
0.0
  0
POINT
  5
2AEC
330
1D1D
100
AcDbEntity
  8
Defpoints
 62
     0
100
AcDbPoint
 10
838.3438080086696
 20
629.8626455360016
 30
0.0
  0
POINT
  5
2AED
330
1D1D
100
AcDbEntity
  8
Defpoints
 62
     0
100
AcDbPoint
 10
838.3438080086696
 20
564.4756175802574
 30
0.0
  0
ENDBLK
  5
1D28
330
1D1D
100
AcDbEntity
  8
0
100
AcDbBlockEnd
  0
BLOCK
  5
1D33
330
1D29
100
AcDbEntity
  8
0
100
AcDbBlockBegin
  2
*D17
 70
     1
 10
0.0
 20
0.0
 30
0.0
  3
*D17
  1

  0
LINE
  5
27B3
330
1D29
100
AcDbEntity
  8
AM_5
100
AcDbLine
 10
475.3438080086691
 20
766.7111401363465
 30
0.0
 11
472.5256031954063
 21
766.7111401363465
 31
0.0
  0
LINE
  5
27B4
330
1D29
100
AcDbEntity
  8
AM_5
100
AcDbLine
 10
503.3438080086694
 20
801.7111401363465
 30
0.0
 11
472.5256031954063
 21
801.7111401363465
 31
0.0
  0
LINE
  5
27B5
330
1D29
100
AcDbEntity
  8
AM_5
100
AcDbLine
 10
473.5256031954063
 20
769.2111401363465
 30
0.0
 11
473.5256031954063
 21
799.2111401363464
 31
0.0
  0
SOLID
  5
27B6
330
1D29
100
AcDbEntity
  8
AM_5
100
AcDbTrace
 10
473.1089365287396
 20
769.2111401363465
 30
0.0
 11
473.942269862073
 21
769.2111401363465
 31
0.0
 12
473.5256031954063
 22
766.7111401363465
 32
0.0
 13
473.5256031954063
 23
766.7111401363465
 33
0.0
  0
SOLID
  5
27B7
330
1D29
100
AcDbEntity
  8
AM_5
100
AcDbTrace
 10
473.1089365287396
 20
799.2111401363464
 30
0.0
 11
473.942269862073
 21
799.2111401363464
 31
0.0
 12
473.5256031954063
 22
801.7111401363465
 32
0.0
 13
473.5256031954063
 23
801.7111401363465
 33
0.0
  0
MTEXT
  5
27B8
330
1D29
100
AcDbEntity
  8
AM_5
 62
     2
100
AcDbMText
 10
466.7756031954062
 20
784.2111401363466
 30
0.0
 40
10.5
 41
0.0
 71
     5
 72
     1
  1
35
 11
0.0000000000000001
 21
1.0
 31
0.0
 73
     1
 44
1.0
  0
POINT
  5
27B9
330
1D29
100
AcDbEntity
  8
Defpoints
 62
     0
100
AcDbPoint
 10
476.3438080086692
 20
766.7111401363465
 30
0.0
  0
POINT
  5
27BA
330
1D29
100
AcDbEntity
  8
Defpoints
 62
     0
100
AcDbPoint
 10
504.3438080086694
 20
801.7111401363465
 30
0.0
  0
POINT
  5
27BB
330
1D29
100
AcDbEntity
  8
Defpoints
 62
     0
100
AcDbPoint
 10
473.5256031954063
 20
801.7111401363465
 30
0.0
  0
ENDBLK
  5
1D34
330
1D29
100
AcDbEntity
  8
0
100
AcDbBlockEnd
  0
BLOCK
  5
1D48
330
1D3E
100
AcDbEntity
  8
0
100
AcDbBlockBegin
  2
*D18
 70
     1
 10
0.0
 20
0.0
 30
0.0
  3
*D18
  1

  0
LINE
  5
27BC
330
1D3E
100
AcDbEntity
  8
AM_5
100
AcDbLine
 10
212.0938080086695
 20
725.7111401363471
 30
0.0
 11
212.0938080086695
 21
737.9675111505926
 31
0.0
  0
LINE
  5
27BD
330
1D3E
100
AcDbEntity
  8
AM_5
100
AcDbLine
 10
444.5938080086695
 20
725.7111401363471
 30
0.0
 11
444.5938080086695
 21
737.9675111505926
 31
0.0
  0
LINE
  5
27BE
330
1D3E
100
AcDbEntity
  8
AM_5
100
AcDbLine
 10
214.5938080086695
 20
736.9675111505926
 30
0.0
 11
442.0938080086695
 21
736.9675111505926
 31
0.0
  0
SOLID
  5
27BF
330
1D3E
100
AcDbEntity
  8
AM_5
100
AcDbTrace
 10
214.5938080086695
 20
737.3841778172592
 30
0.0
 11
214.5938080086695
 21
736.5508444839259
 31
0.0
 12
212.0938080086695
 22
736.9675111505926
 32
0.0
 13
212.0938080086695
 23
736.9675111505926
 33
0.0
  0
SOLID
  5
27C0
330
1D3E
100
AcDbEntity
  8
AM_5
100
AcDbTrace
 10
442.0938080086695
 20
737.3841778172592
 30
0.0
 11
442.0938080086695
 21
736.5508444839259
 31
0.0
 12
444.5938080086695
 22
736.9675111505926
 32
0.0
 13
444.5938080086695
 23
736.9675111505926
 33
0.0
  0
MTEXT
  5
27C1
330
1D3E
100
AcDbEntity
  8
AM_5
 62
     2
100
AcDbMText
 10
328.3438080086695
 20
743.7185446151595
 30
0.0
 40
10.5
 41
0.0
 71
     5
 72
     1
  1
%%c232.5
 73
     1
 44
1.0
  0
POINT
  5
27C2
330
1D3E
100
AcDbEntity
  8
Defpoints
 62
     0
100
AcDbPoint
 10
212.0938080086695
 20
724.7111401363471
 30
0.0
  0
POINT
  5
27C3
330
1D3E
100
AcDbEntity
  8
Defpoints
 62
     0
100
AcDbPoint
 10
444.5938080086695
 20
724.7111401363471
 30
0.0
  0
POINT
  5
27C4
330
1D3E
100
AcDbEntity
  8
Defpoints
 62
     0
100
AcDbPoint
 10
444.5938080086695
 20
736.9675111505926
 30
0.0
  0
ENDBLK
  5
1D49
330
1D3E
100
AcDbEntity
  8
0
100
AcDbBlockEnd
  0
BLOCK
  5
1D71
330
1D64
100
AcDbEntity
  8
0
100
AcDbBlockBegin
  2
*D21
 70
     1
 10
0.0
 20
0.0
 30
0.0
  3
*D21
  1

  0
LINE
  5
2D97
330
1D64
100
AcDbEntity
  8
AM_5
100
AcDbLine
 10
844.7114771999308
 20
629.6959022499805
 30
0.0
 11
878.1188645854937
 21
628.8210990240702
 31
0.0
  0
LINE
  5
2D98
330
1D64
100
AcDbEntity
  8
AM_5
100
AcDbLine
 10
575.557431124966
 20
641.7776773554146
 30
0.0
 11
878.2884754868168
 21
641.7776773554146
 31
0.0
  0
ARC
  5
2D99
330
1D64
100
AcDbEntity
  8
AM_5
100
AcDbCircle
 10
383.3271003504767
 20
641.7776773554146
 30
0.0
 40
493.9613751363403
100
AcDbArc
 50
358.789981380875
 51
359.7100186191243
  0
SOLID
  5
2D9A
330
1D64
100
AcDbEntity
  8
AM_5
100
AcDbTrace
 10
877.5948753368172
 20
631.3367239015988
 30
0.0
 11
876.761775031324
 21
631.3564298761161
 31
0.0
 12
877.1192072605183
 22
628.8472759723781
 32
0.0
 13
877.1192072605183
 23
628.8472759723781
 33
0.0
  0
SOLID
  5
2D9B
330
1D64
100
AcDbEntity
  8
AM_5
100
AcDbTrace
 10
876.865483748686
 20
639.278739761039
 30
0.0
 11
877.6988144137879
 21
639.2766309591788
 31
0.0
 12
877.288475486817
 22
641.7776773554146
 32
0.0
 13
877.288475486817
 23
641.7776773554146
 33
0.0
  0
MTEXT
  5
2D9C
330
1D64
100
AcDbEntity
  8
AM_5
 62
     2
100
AcDbMText
 10
870.1118800177045
 20
621.3938026851713
 30
0.0
 40
10.5
 41
0.0
 71
     5
 72
     1
  1
1.5\U+00B0
 11
0.0418378463855427
 21
0.9991244139794703
 31
0.0
 73
     1
 44
1.0
  0
POINT
  5
2D9D
330
1D64
100
AcDbEntity
  8
Defpoints
 62
     0
100
AcDbPoint
 10
877.2696669512342
 20
637.4671058804594
 30
0.0
  0
POINT
  5
2D9E
330
1D64
100
AcDbEntity
  8
Defpoints
 62
     0
100
AcDbPoint
 10
383.3271003504767
 20
641.7776773554146
 30
0.0
  0
POINT
  5
2D9F
330
1D64
100
AcDbEntity
  8
Defpoints
 62
     0
100
AcDbPoint
 10
383.3271003504767
 20
641.7776773554146
 30
0.0
  0
POINT
  5
2DA0
330
1D64
100
AcDbEntity
  8
Defpoints
 62
     0
100
AcDbPoint
 10
843.7118198749551
 20
629.7220791982884
 30
0.0
  0
POINT
  5
2DA1
330
1D64
100
AcDbEntity
  8
Defpoints
 62
     0
100
AcDbPoint
 10
574.5574311249661
 20
641.7776773554146
 30
0.0
  0
ENDBLK
  5
1D72
330
1D64
100
AcDbEntity
  8
0
100
AcDbBlockEnd
  0
BLOCK
  5
2015
330
2014
100
AcDbEntity
  8
0
100
AcDbBlockBegin
  2
*U22
 70
     1
 10
394.5941726522992
 20
626.5815894860829
 30
0.0
  3
*U22
  1

  0
ARC
  5
2017
330
2014
100
AcDbEntity
  8
0
  6
ByBlock
 62
     0
100
AcDbCircle
 10
393.6699831811631
 20
614.654243780598
 30
0.0
 40
1.25119639550949
100
AcDbArc
 50
218.6396032349387
 51
324.7537867695604
  0
ARC
  5
2018
330
2014
100
AcDbEntity
  8
0
  6
ByBlock
 62
     0
100
AcDbCircle
 10
403.6490271143381
 20
677.6458119897852
 30
0.0
 40
1.251196395509739
100
AcDbArc
 50
198.0460640593767
 51
304.1602475939771
  0
ARC
  5
2019
330
2014
100
AcDbEntity
  8
0
  6
ByBlock
 62
     0
100
AcDbCircle
 10
393.636654095796
 20
616.5970301016565
 30
0.0
 40
1.251196395509554
100
AcDbArc
 50
218.0155565932611
 51
324.1297401278727
  0
ARC
  5
201A
330
2014
100
AcDbEntity
  8
0
  6
ByBlock
 62
     0
100
AcDbCircle
 10
393.624486753671
 20
618.5400641911701
 30
0.0
 40
1.251196395509519
100
AcDbArc
 50
217.391509951571
 51
323.5056934862007
  0
ARC
  5
201B
330
2014
100
AcDbEntity
  8
0
  6
ByBlock
 62
     0
100
AcDbCircle
 10
393.6334825981674
 20
620.4831155523052
 30
0.0
 40
1.25119639550948
100
AcDbArc
 50
216.7674633098857
 51
322.8816468445139
  0
ARC
  5
201C
330
2014
100
AcDbEntity
  8
0
  6
ByBlock
 62
     0
100
AcDbCircle
 10
393.6636405621321
 20
622.4259536861795
 30
0.0
 40
1.251196395509367
100
AcDbArc
 50
216.1434166681966
 51
322.2576002028374
  0
ARC
  5
201D
330
2014
100
AcDbEntity
  8
0
  6
ByBlock
 62
     0
100
AcDbCircle
 10
393.7149570680084
 20
624.3683481192062
 30
0.0
 40
1.251196395509566
100
AcDbArc
 50
215.5193700265206
 51
321.6335535611407
  0
ARC
  5
201E
330
2014
100
AcDbEntity
  8
0
  6
ByBlock
 62
     0
100
AcDbCircle
 10
393.7874260282592
 20
626.3100684304321
 30
0.0
 40
1.251196395509398
100
AcDbArc
 50
214.895323384833
 51
321.0095069194646
  0
ARC
  5
201F
330
2014
100
AcDbEntity
  8
0
  6
ByBlock
 62
     0
100
AcDbCircle
 10
393.8810388460895
 20
628.2508842788748
 30
0.0
 40
1.251196395509587
100
AcDbArc
 50
214.2712767431541
 51
320.3854602777672
  0
ARC
  5
2020
330
2014
100
AcDbEntity
  8
0
  6
ByBlock
 62
     0
100
AcDbCircle
 10
393.995784416466
 20
630.1905654308441
 30
0.0
 40
1.251196395509421
100
AcDbArc
 50
213.6472301014635
 51
319.7614136360919
  0
ARC
  5
2021
330
2014
100
AcDbEntity
  8
0
  6
ByBlock
 62
     0
100
AcDbCircle
 10
394.1316491274345
 20
632.1288817872577
 30
0.0
 40
1.251196395509449
100
AcDbArc
 50
213.0231834597802
 51
319.1373669944154
  0
ARC
  5
2022
330
2014
100
AcDbEntity
  8
0
  6
ByBlock
 62
     0
100
AcDbCircle
 10
394.2886168617355
 20
634.0656034109343
 30
0.0
 40
1.251196395509566
100
AcDbArc
 50
212.3991368181026
 51
318.51332035272
  0
ARC
  5
2023
330
2014
100
AcDbEntity
  8
0
  6
ByBlock
 62
     0
100
AcDbCircle
 10
394.4666689987146
 20
636.0005005538708
 30
0.0
 40
1.251196395509455
100
AcDbArc
 50
211.7750901764118
 51
317.8892737110441
  0
ARC
  5
2024
330
2014
100
AcDbEntity
  8
0
  6
ByBlock
 62
     0
100
AcDbCircle
 10
394.6657844165327
 20
637.9333436844984
 30
0.0
 40
1.25119639550938
100
AcDbArc
 50
211.1510435347234
 51
317.2652270693666
  0
ARC
  5
2025
330
2014
100
AcDbEntity
  8
0
  6
ByBlock
 62
     0
100
AcDbCircle
 10
394.8859394946709
 20
639.8639035149097
 30
0.0
 40
1.251196395509476
100
AcDbArc
 50
210.5269968930464
 51
316.6411804276788
  0
ARC
  5
2026
330
2014
100
AcDbEntity
  8
0
  6
ByBlock
 62
     0
100
AcDbCircle
 10
395.1271081167329
 20
641.7919510280587
 30
0.0
 40
1.251196395509552
100
AcDbArc
 50
209.902950251364
 51
316.0171337859923
  0
ARC
  5
2027
330
2014
100
AcDbEntity
  8
0
  6
ByBlock
 62
     0
100
AcDbCircle
 10
395.3892616735434
 20
643.7172575049292
 30
0.0
 40
1.251196395509567
100
AcDbArc
 50
209.2789036096847
 51
315.3930871442998
  0
ARC
  5
2028
330
2014
100
AcDbEntity
  8
0
  6
ByBlock
 62
     0
100
AcDbCircle
 10
395.6723690665405
 20
645.6395945516661
 30
0.0
 40
1.251196395509412
100
AcDbArc
 50
208.6548569679878
 51
314.7690405026251
  0
ARC
  5
2029
330
2014
100
AcDbEntity
  8
0
  6
ByBlock
 62
     0
100
AcDbCircle
 10
395.976396711467
 20
647.5587341266703
 30
0.0
 40
1.251196395509437
100
AcDbArc
 50
208.0308103263054
 51
314.1449938609402
  0
ARC
  5
202A
330
2014
100
AcDbEntity
  8
0
  6
ByBlock
 62
     0
100
AcDbCircle
 10
396.3013085423526
 20
649.4744485676498
 30
0.0
 40
1.251196395509386
100
AcDbArc
 50
207.4067636846146
 51
313.5209472192585
  0
ARC
  5
202B
330
2014
100
AcDbEntity
  8
0
  6
ByBlock
 62
     0
100
AcDbCircle
 10
396.6470660157934
 20
651.3865106186274
 30
0.0
 40
1.251196395509498
100
AcDbArc
 50
206.7827170429443
 51
312.8969005775642
  0
ARC
  5
202C
330
2014
100
AcDbEntity
  8
0
  6
ByBlock
 62
     0
100
AcDbCircle
 10
397.0136281155234
 20
653.2946934568975
 30
0.0
 40
1.251196395509506
100
AcDbArc
 50
206.1586704012564
 51
312.2728539358865
  0
ARC
  5
202D
330
2014
100
AcDbEntity
  8
0
  6
ByBlock
 62
     0
100
AcDbCircle
 10
397.4009513572811
 20
655.1987707199363
 30
0.0
 40
1.251196395509351
100
AcDbArc
 50
205.5346237595623
 51
311.6488072942043
  0
ARC
  5
202E
330
2014
100
AcDbEntity
  8
0
  6
ByBlock
 62
     0
100
AcDbCircle
 10
397.8089897939668
 20
657.0985165322531
 30
0.0
 40
1.251196395509598
100
AcDbArc
 50
204.9105771178908
 51
311.0247606525086
  0
ARC
  5
202F
330
2014
100
AcDbEntity
  8
0
  6
ByBlock
 62
     0
100
AcDbCircle
 10
398.2376950210938
 20
658.9937055321845
 30
0.0
 40
1.251196395509516
100
AcDbArc
 50
204.2865304762041
 51
310.4007140108291
  0
ARC
  5
2030
330
2014
100
AcDbEntity
  8
0
  6
ByBlock
 62
     0
100
AcDbCircle
 10
398.6870161825308
 20
660.8841128986301
 30
0.0
 40
1.251196395509496
100
AcDbArc
 50
203.6624838345185
 51
309.7766673691479
  0
ARC
  5
2031
330
2014
100
AcDbEntity
  8
0
  6
ByBlock
 62
     0
100
AcDbCircle
 10
399.1568999765344
 20
662.7695143777217
 30
0.0
 40
1.251196395509644
100
AcDbArc
 50
203.0384371928414
 51
309.1526207274542
  0
ARC
  5
2032
330
2014
100
AcDbEntity
  8
0
  6
ByBlock
 62
     0
100
AcDbCircle
 10
399.6472906620717
 20
664.6496863094251
 30
0.0
 40
1.251196395509458
100
AcDbArc
 50
202.4143905511464
 51
308.5285740857779
  0
ARC
  5
2033
330
2014
100
AcDbEntity
  8
0
  6
ByBlock
 62
     0
100
AcDbCircle
 10
400.1581300654337
 20
666.5244056540736
 30
0.0
 40
1.251196395509419
100
AcDbArc
 50
201.790343909463
 51
307.9045274440996
  0
ARC
  5
2034
330
2014
100
AcDbEntity
  8
0
  6
ByBlock
 62
     0
100
AcDbCircle
 10
400.6893575871358
 20
668.3934500188264
 30
0.0
 40
1.251196395509478
100
AcDbArc
 50
201.1662972677843
 51
307.2804808024128
  0
ARC
  5
2035
330
2014
100
AcDbEntity
  8
0
  6
ByBlock
 62
     0
100
AcDbCircle
 10
401.2409102091063
 20
670.2565976840491
 30
0.0
 40
1.251196395509462
100
AcDbArc
 50
200.5422506260982
 51
306.6564341607266
  0
ARC
  5
2036
330
2014
100
AcDbEntity
  8
0
  6
ByBlock
 62
     0
100
AcDbCircle
 10
401.8127225021622
 20
672.1136276296173
 30
0.0
 40
1.251196395509543
100
AcDbArc
 50
199.9182039844158
 51
306.0323875190435
  0
ARC
  5
2037
330
2014
100
AcDbEntity
  8
0
  6
ByBlock
 62
     0
100
AcDbCircle
 10
402.4047266337715
 20
673.9643195611352
 30
0.0
 40
1.251196395509493
100
AcDbArc
 50
199.2941573427276
 51
305.4083408773607
  0
ARC
  5
2038
330
2014
100
AcDbEntity
  8
0
  6
ByBlock
 62
     0
100
AcDbCircle
 10
403.016852376099
 20
675.8084539360675
 30
0.0
 40
1.251196395509399
100
AcDbArc
 50
198.6701107010426
 51
304.7842942356769
  0
ENDBLK
  5
2016
330
2014
100
AcDbEntity
  8
0
100
AcDbBlockEnd
  0
BLOCK
  5
2059
330
2058
100
AcDbEntity
  8
0
100
AcDbBlockBegin
  2
*U23
 70
     1
 10
391.9338997949653
 20
609.9050497512025
 30
0.0
  3
*U23
  1

  0
ARC
  5
205B
330
2058
100
AcDbEntity
  8
0
  6
ByBlock
 62
     0
100
AcDbCircle
 10
393.7440754941524
 20
612.15294811441
 30
0.0
 40
1.251196395509629
100
AcDbArc
 50
38.63960323494357
 51
144.7537867695648
  0
ARC
  5
205C
330
2058
100
AcDbEntity
  8
0
  6
ByBlock
 62
     0
100
AcDbCircle
 10
385.9586827391165
 20
606.7111401363472
 30
0.0
 40
1.251196395509603
100
AcDbArc
 50
306.9429082326924
 51
53.05709176730754
  0
ARC
  5
205D
330
2058
100
AcDbEntity
  8
0
  6
ByBlock
 62
     0
100
AcDbCircle
 10
393.2340829222932
 20
610.4680650107273
 30
0.0
 40
1.251196395509546
100
AcDbArc
 50
23.35682073456792
 51
129.4710042691885
  0
ARC
  5
205E
330
2058
100
AcDbEntity
  8
0
  6
ByBlock
 62
     0
100
AcDbCircle
 10
392.2980185289456
 20
608.9771904526462
 30
0.0
 40
1.251196395509475
100
AcDbArc
 50
8.074038234186913
 51
114.1882217688199
  0
ARC
  5
205F
330
2058
100
AcDbEntity
  8
0
  6
ByBlock
 62
     0
100
AcDbCircle
 10
391.0020870235054
 20
607.7857690202246
 30
0.0
 40
1.251196395509409
100
AcDbArc
 50
352.7912557338051
 51
98.90543926844928
  0
ARC
  5
2060
330
2058
100
AcDbEntity
  8
0
  6
ByBlock
 62
     0
100
AcDbCircle
 10
389.4379453147538
 20
606.9780659736961
 30
0.0
 40
1.251196395509575
100
AcDbArc
 50
337.508473233443
 51
83.62265676806138
  0
ARC
  5
2061
330
2058
100
AcDbEntity
  8
0
  6
ByBlock
 62
     0
100
AcDbCircle
 10
387.7162199237061
 20
606.6112074529443
 30
0.0
 40
1.251196395509577
100
AcDbArc
 50
322.225690733068
 51
68.33987426768711
  0
ENDBLK
  5
205A
330
2058
100
AcDbEntity
  8
0
100
AcDbBlockEnd
  0
BLOCK
  5
27DF
330
27D5
100
AcDbEntity
  8
0
100
AcDbBlockBegin
  2
*D25
 70
     1
 10
0.0
 20
0.0
 30
0.0
  3
*D25
  1

  0
LINE
  5
2860
330
27D5
100
AcDbEntity
  8
AM_5
100
AcDbLine
 10
497.3438080086692
 20
731.7111401363464
 30
0.0
 11
455.2188233925967
 21
731.7111401363464
 31
0.0
  0
LINE
  5
2861
330
27D5
100
AcDbEntity
  8
AM_5
100
AcDbLine
 10
497.3438080086692
 20
801.7111401363465
 30
0.0
 11
455.2188233925967
 21
801.7111401363465
 31
0.0
  0
LINE
  5
2862
330
27D5
100
AcDbEntity
  8
AM_5
100
AcDbLine
 10
456.2188233925967
 20
734.2111401363464
 30
0.0
 11
456.2188233925967
 21
799.2111401363464
 31
0.0
  0
SOLID
  5
2863
330
27D5
100
AcDbEntity
  8
AM_5
100
AcDbTrace
 10
455.80215672593
 20
734.2111401363464
 30
0.0
 11
456.6354900592634
 21
734.2111401363464
 31
0.0
 12
456.2188233925967
 22
731.7111401363464
 32
0.0
 13
456.2188233925967
 23
731.7111401363464
 33
0.0
  0
SOLID
  5
2864
330
27D5
100
AcDbEntity
  8
AM_5
100
AcDbTrace
 10
455.80215672593
 20
799.2111401363464
 30
0.0
 11
456.6354900592634
 21
799.2111401363464
 31
0.0
 12
456.2188233925967
 22
801.7111401363465
 32
0.0
 13
456.2188233925967
 23
801.7111401363465
 33
0.0
  0
MTEXT
  5
2865
330
27D5
100
AcDbEntity
  8
AM_5
 62
     2
100
AcDbMText
 10
449.4688233925966
 20
766.7111401363465
 30
0.0
 40
10.5
 41
0.0
 71
     5
 72
     1
  1
70
 11
0.0000000000000001
 21
1.0
 31
0.0
 73
     1
 44
1.0
  0
POINT
  5
2866
330
27D5
100
AcDbEntity
  8
Defpoints
 62
     0
100
AcDbPoint
 10
498.3438080086692
 20
731.7111401363464
 30
0.0
  0
POINT
  5
2867
330
27D5
100
AcDbEntity
  8
Defpoints
 62
     0
100
AcDbPoint
 10
498.3438080086692
 20
801.7111401363465
 30
0.0
  0
POINT
  5
2868
330
27D5
100
AcDbEntity
  8
Defpoints
 62
     0
100
AcDbPoint
 10
456.2188233925967
 20
801.7111401363465
 30
0.0
  0
ENDBLK
  5
27E0
330
27D5
100
AcDbEntity
  8
0
100
AcDbBlockEnd
  0
BLOCK
  5
2C21
330
2C17
100
AcDbEntity
  8
0
100
AcDbBlockBegin
  2
*D35
 70
     1
 10
0.0
 20
0.0
 30
0.0
  3
*D35
  1

  0
LINE
  5
2C43
330
2C17
100
AcDbEntity
  8
AM_5
100
AcDbLine
 10
834.3456729927025
 20
330.7480460002789
 30
0.0
 11
865.3844858554826
 21
330.7480460002789
 31
0.0
  0
LINE
  5
2C44
330
2C17
100
AcDbEntity
  8
AM_5
100
AcDbLine
 10
834.3528193544729
 20
257.7498618884645
 30
0.0
 11
865.3844858554826
 21
257.7498618884645
 31
0.0
  0
LINE
  5
2C45
330
2C17
100
AcDbEntity
  8
AM_5
100
AcDbLine
 10
864.3844858554826
 20
328.2480460002789
 30
0.0
 11
864.3844858554826
 21
260.2498618884645
 31
0.0
  0
SOLID
  5
2C46
330
2C17
100
AcDbEntity
  8
AM_5
100
AcDbTrace
 10
863.967819188816
 20
328.2480460002789
 30
0.0
 11
864.8011525221491
 21
328.2480460002789
 31
0.0
 12
864.3844858554826
 22
330.7480460002789
 32
0.0
 13
864.3844858554826
 23
330.7480460002789
 33
0.0
  0
SOLID
  5
2C47
330
2C17
100
AcDbEntity
  8
AM_5
100
AcDbTrace
 10
863.967819188816
 20
260.2498618884645
 30
0.0
 11
864.8011525221491
 21
260.2498618884645
 31
0.0
 12
864.3844858554826
 22
257.7498618884645
 32
0.0
 13
864.3844858554826
 23
257.7498618884645
 33
0.0
  0
MTEXT
  5
2C48
330
2C17
100
AcDbEntity
  8
AM_5
 62
     2
100
AcDbMText
 10
857.6344858554824
 20
294.2489539443718
 30
0.0
 40
10.5
 41
0.0
 71
     5
 72
     1
  1
%%c73
 11
0.0000000000000001
 21
1.0
 31
0.0
 73
     1
 44
1.0
  0
POINT
  5
2C49
330
2C17
100
AcDbEntity
  8
Defpoints
 62
     0
100
AcDbPoint
 10
833.3456729927025
 20
330.7480460002789
 30
0.0
  0
POINT
  5
2C4A
330
2C17
100
AcDbEntity
  8
Defpoints
 62
     0
100
AcDbPoint
 10
833.3528193544729
 20
257.7498618884645
 30
0.0
  0
POINT
  5
2C4B
330
2C17
100
AcDbEntity
  8
Defpoints
 62
     0
100
AcDbPoint
 10
864.3844858554826
 20
257.7498618884645
 30
0.0
  0
ENDBLK
  5
2C22
330
2C17
100
AcDbEntity
  8
0
100
AcDbBlockEnd
  0
BLOCK
  5
2CAD
330
2CA3
100
AcDbEntity
  8
0
100
AcDbBlockBegin
  2
*D36
 70
     1
 10
0.0
 20
0.0
 30
0.0
  3
*D36
  1

  0
LINE
  5
2CC5
330
2CA3
100
AcDbEntity
  8
AM_5
100
AcDbLine
 10
161.3438080086694
 20
696.7111401363471
 30
0.0
 11
129.1716551756885
 21
696.7111401363471
 31
0.0
  0
LINE
  5
2CC6
330
2CA3
100
AcDbEntity
  8
AM_5
100
AcDbLine
 10
264.4438080086701
 20
606.7111401363472
 30
0.0
 11
129.1716551756885
 21
606.7111401363473
 31
0.0
  0
LINE
  5
2CC7
330
2CA3
100
AcDbEntity
  8
AM_5
100
AcDbLine
 10
130.1716551756885
 20
694.2111401363471
 30
0.0
 11
130.1716551756885
 21
609.2111401363474
 31
0.0
  0
SOLID
  5
2CC8
330
2CA3
100
AcDbEntity
  8
AM_5
100
AcDbTrace
 10
129.7549885090219
 20
694.2111401363471
 30
0.0
 11
130.5883218423552
 21
694.2111401363471
 31
0.0
 12
130.1716551756885
 22
696.7111401363471
 32
0.0
 13
130.1716551756885
 23
696.7111401363471
 33
0.0
  0
SOLID
  5
2CC9
330
2CA3
100
AcDbEntity
  8
AM_5
100
AcDbTrace
 10
129.7549885090219
 20
609.2111401363474
 30
0.0
 11
130.5883218423552
 21
609.2111401363474
 31
0.0
 12
130.1716551756885
 22
606.7111401363473
 32
0.0
 13
130.1716551756885
 23
606.7111401363473
 33
0.0
  0
MTEXT
  5
2CCA
330
2CA3
100
AcDbEntity
  8
AM_5
 62
     2
100
AcDbMText
 10
123.4216551756884
 20
651.7111401363472
 30
0.0
 40
10.5
 41
0.0
 71
     5
 72
     1
  1
90
 11
0.0000000000000001
 21
1.0
 31
0.0
 73
     1
 44
1.0
  0
POINT
  5
2CCB
330
2CA3
100
AcDbEntity
  8
Defpoints
 62
     0
100
AcDbPoint
 10
162.3438080086694
 20
696.7111401363471
 30
0.0
  0
POINT
  5
2CCC
330
2CA3
100
AcDbEntity
  8
Defpoints
 62
     0
100
AcDbPoint
 10
265.4438080086701
 20
606.7111401363472
 30
0.0
  0
POINT
  5
2CCD
330
2CA3
100
AcDbEntity
  8
Defpoints
 62
     0
100
AcDbPoint
 10
130.1716551756885
 20
606.7111401363473
 30
0.0
  0
ENDBLK
  5
2CAE
330
2CA3
100
AcDbEntity
  8
0
100
AcDbBlockEnd
  0
BLOCK
  5
2D53
330
2D52
100
AcDbEntity
  8
0
100
AcDbBlockBegin
  2
*D37
 70
     1
 10
0.0
 20
0.0
 30
0.0
  3
*D37
  1

  0
LINE
  5
2D8E
330
2D52
100
AcDbEntity
  8
AM_5
100
AcDbLine
 10
499.3438080086693
 20
696.711140136347
 30
0.0
 11
909.4450291466284
 21
696.7111401363468
 31
0.0
  0
LINE
  5
2D8F
330
2D52
100
AcDbEntity
  8
AM_5
100
AcDbLine
 10
839.3438080086696
 20
629.8626455360016
 30
0.0
 11
909.4450291466284
 21
629.8626455360016
 31
0.0
  0
LINE
  5
2D90
330
2D52
100
AcDbEntity
  8
AM_5
100
AcDbLine
 10
908.4450291466284
 20
694.2111401363469
 30
0.0
 11
908.4450291466284
 21
632.3626455360016
 31
0.0
  0
SOLID
  5
2D91
330
2D52
100
AcDbEntity
  8
AM_5
100
AcDbTrace
 10
908.0283624799617
 20
694.2111401363469
 30
0.0
 11
908.861695813295
 21
694.2111401363469
 31
0.0
 12
908.4450291466284
 22
696.7111401363468
 32
0.0
 13
908.4450291466284
 23
696.7111401363468
 33
0.0
  0
SOLID
  5
2D92
330
2D52
100
AcDbEntity
  8
AM_5
100
AcDbTrace
 10
908.0283624799617
 20
632.3626455360016
 30
0.0
 11
908.861695813295
 21
632.3626455360016
 31
0.0
 12
908.4450291466284
 22
629.8626455360016
 32
0.0
 13
908.4450291466284
 23
629.8626455360016
 33
0.0
  0
MTEXT
  5
2D93
330
2D52
100
AcDbEntity
  8
AM_5
 62
     2
100
AcDbMText
 10
901.6950291466283
 20
661.3494057233861
 30
0.0
 40
10.5
 41
0.0
 71
     5
 72
     1
  1
67
 11
0.0000000000000001
 21
1.0
 31
0.0
 73
     1
 44
1.0
  0
POINT
  5
2D94
330
2D52
100
AcDbEntity
  8
Defpoints
 62
     0
100
AcDbPoint
 10
498.3438080086693
 20
696.711140136347
 30
0.0
  0
POINT
  5
2D95
330
2D52
100
AcDbEntity
  8
Defpoints
 62
     0
100
AcDbPoint
 10
838.3438080086696
 20
629.8626455360016
 30
0.0
  0
POINT
  5
2D96
330
2D52
100
AcDbEntity
  8
Defpoints
 62
     0
100
AcDbPoint
 10
908.4450291466284
 20
629.8626455360016
 30
0.0
  0
ENDBLK
  5
2D54
330
2D52
100
AcDbEntity
  8
0
100
AcDbBlockEnd
  0
BLOCK
  5
2DA7
330
2DA2
100
AcDbEntity
  8
0
100
AcDbBlockBegin
  2
*U38
 70
     1
 10
0.0
 20
0.0
 30
0.0
  3
*U38
  1

  0
ARC
  5
2DA3
330
2DA2
100
AcDbEntity
  8
AM_4
100
AcDbCircle
 10
-410.5449713216055
 20
376.449208687429
 30
0.0
 40
4.0
210
0.0
220
0.0
230
-1.0
100
AcDbArc
 50
79.99999999999992
 51
349.9999999999999
  0
CIRCLE
  5
2DA4
330
2DA2
100
AcDbEntity
  8
AM_0
100
AcDbCircle
 10
-410.5449713216055
 20
376.449208687429
 30
0.0
 40
3.32341765329346
210
0.0
220
0.0
230
-1.0
  0
LINE
  5
2DA5
330
2DA2
100
AcDbEntity
  8
AM_7
  6
AM_ISO08W050x2
100
AcDbLine
 10
403.5449713216054
 20
376.449208687429
 30
0.0
 11
417.5449713216054
 21
376.449208687429
 31
0.0
  0
LINE
  5
2DA6
330
2DA2
100
AcDbEntity
  8
AM_7
  6
AM_ISO08W050x2
100
AcDbLine
 10
410.5449713216055
 20
383.449208687429
 30
0.0
 11
410.5449713216055
 21
369.449208687429
 31
0.0
  0
ENDBLK
  5
2DA8
330
2DA2
100
AcDbEntity
  8
0
100
AcDbBlockEnd
  0
BLOCK
  5
2DB7
330
2DAB
100
AcDbEntity
  8
0
100
AcDbBlockBegin
  2
*U39
 70
     1
 10
0.0
 20
0.0
 30
0.0
  3
*U39
  1

  0
CIRCLE
  5
2DAC
330
2DAB
100
AcDbEntity
  8
AM_0N
100
AcDbCircle
 10
444.5938080086693
 20
294.2480453744928
 30
0.0
 40
5.799999999999999
  0
ARC
  5
2DAD
330
2DAB
100
AcDbEntity
  8
AM_4N
100
AcDbCircle
 10
444.5938080086693
 20
294.2480453744928
 30
0.0
 40
4.0
100
AcDbArc
 50
170.0
 51
80.00000000000001
  0
CIRCLE
  5
2DAE
330
2DAB
100
AcDbEntity
  8
AM_0N
100
AcDbCircle
 10
444.5938080086693
 20
294.2480453744928
 30
0.0
 40
3.323417653293459
  0
LINE
  5
2DAF
330
2DAB
100
AcDbEntity
  8
AM_0N
100
AcDbLine
 10
440.8410312589368
 20
300.7480453744928
 30
0.0
 11
437.0882545092041
 21
294.2480453744926
 31
0.0
  0
LINE
  5
2DB0
330
2DAB
100
AcDbEntity
  8
AM_0N
100
AcDbLine
 10
437.0882545092041
 20
294.2480453744926
 30
0.0
 11
440.841031258937
 21
287.7480453744928
 31
0.0
  0
LINE
  5
2DB1
330
2DAB
100
AcDbEntity
  8
AM_0N
100
AcDbLine
 10
440.841031258937
 20
287.7480453744928
 30
0.0
 11
448.3465847584019
 21
287.7480453744928
 31
0.0
  0
LINE
  5
2DB2
330
2DAB
100
AcDbEntity
  8
AM_0N
100
AcDbLine
 10
448.3465847584019
 20
287.7480453744928
 30
0.0
 11
452.0993615081344
 21
294.2480453744928
 31
0.0
  0
LINE
  5
2DB3
330
2DAB
100
AcDbEntity
  8
AM_0N
100
AcDbLine
 10
452.0993615081344
 20
294.2480453744928
 30
0.0
 11
448.3465847584015
 21
300.7480453744928
 31
0.0
  0
LINE
  5
2DB4
330
2DAB
100
AcDbEntity
  8
AM_0N
100
AcDbLine
 10
448.3465847584015
 20
300.7480453744928
 30
0.0
 11
440.8410312589368
 21
300.7480453744928
 31
0.0
  0
LINE
  5
2DB5
330
2DAB
100
AcDbEntity
  8
AM_7N
  6
AM_ISO08W050x2
100
AcDbLine
 10
455.0993615081345
 20
294.2480453744928
 30
0.0
 11
434.0882545092042
 21
294.2480453744928
 31
0.0
  0
LINE
  5
2DB6
330
2DAB
100
AcDbEntity
  8
AM_7N
  6
AM_ISO08W050x2
100
AcDbLine
 10
444.5938080086693
 20
304.7535988739579
 30
0.0
 11
444.5938080086693
 21
283.7424918750277
 31
0.0
  0
ENDBLK
  5
2DB8
330
2DAB
100
AcDbEntity
  8
0
100
AcDbBlockEnd
  0
BLOCK
  5
2DC6
330
2DBA
100
AcDbEntity
  8
0
100
AcDbBlockBegin
  2
*U40
 70
     1
 10
0.0
 20
0.0
 30
0.0
  3
*U40
  1

  0
CIRCLE
  5
2DBB
330
2DBA
100
AcDbEntity
  8
AM_0N
100
AcDbCircle
 10
410.5449713216055
 20
376.4492095512482
 30
0.0
 40
5.799999999999999
  0
ARC
  5
2DBC
330
2DBA
100
AcDbEntity
  8
AM_4N
100
AcDbCircle
 10
410.5449713216055
 20
376.4492095512482
 30
0.0
 40
4.0
100
AcDbArc
 50
170.0
 51
80.00000000000001
  0
CIRCLE
  5
2DBD
330
2DBA
100
AcDbEntity
  8
AM_0N
100
AcDbCircle
 10
410.5449713216055
 20
376.4492095512482
 30
0.0
 40
3.323417653293459
  0
LINE
  5
2DBE
330
2DBA
100
AcDbEntity
  8
AM_0N
100
AcDbLine
 10
406.7921945718729
 20
382.9492095512483
 30
0.0
 11
403.0394178221402
 21
376.449209551248
 31
0.0
  0
LINE
  5
2DBF
330
2DBA
100
AcDbEntity
  8
AM_0N
100
AcDbLine
 10
403.0394178221402
 20
376.449209551248
 30
0.0
 11
406.7921945718731
 21
369.9492095512483
 31
0.0
  0
LINE
  5
2DC0
330
2DBA
100
AcDbEntity
  8
AM_0N
100
AcDbLine
 10
406.7921945718731
 20
369.9492095512483
 30
0.0
 11
414.297748071338
 21
369.9492095512483
 31
0.0
  0
LINE
  5
2DC1
330
2DBA
100
AcDbEntity
  8
AM_0N
100
AcDbLine
 10
414.297748071338
 20
369.9492095512483
 30
0.0
 11
418.0505248210706
 21
376.4492095512482
 31
0.0
  0
LINE
  5
2DC2
330
2DBA
100
AcDbEntity
  8
AM_0N
100
AcDbLine
 10
418.0505248210706
 20
376.4492095512482
 30
0.0
 11
414.2977480713375
 21
382.9492095512483
 31
0.0
  0
LINE
  5
2DC3
330
2DBA
100
AcDbEntity
  8
AM_0N
100
AcDbLine
 10
414.2977480713375
 20
382.9492095512483
 30
0.0
 11
406.7921945718729
 21
382.9492095512483
 31
0.0
  0
LINE
  5
2DC4
330
2DBA
100
AcDbEntity
  8
AM_7N
  6
AM_ISO08W050x2
100
AcDbLine
 10
421.0505248210706
 20
376.4492095512482
 30
0.0
 11
400.0394178221403
 21
376.4492095512482
 31
0.0
  0
LINE
  5
2DC5
330
2DBA
100
AcDbEntity
  8
AM_7N
  6
AM_ISO08W050x2
100
AcDbLine
 10
410.5449713216055
 20
386.9547630507134
 30
0.0
 11
410.5449713216055
 21
365.9436560517832
 31
0.0
  0
ENDBLK
  5
2DC7
330
2DBA
100
AcDbEntity
  8
0
100
AcDbBlockEnd
  0
BLOCK
  5
2DD5
330
2DC9
100
AcDbEntity
  8
0
100
AcDbBlockBegin
  2
*U41
 70
     1
 10
0.0
 20
0.0
 30
0.0
  3
*U41
  1

  0
CIRCLE
  5
2DCA
330
2DC9
100
AcDbEntity
  8
AM_0N
100
AcDbCircle
 10
328.3438080086692
 20
410.4980453744927
 30
0.0
 40
5.799999999999999
  0
ARC
  5
2DCB
330
2DC9
100
AcDbEntity
  8
AM_4N
100
AcDbCircle
 10
328.3438080086692
 20
410.4980453744927
 30
0.0
 40
4.0
100
AcDbArc
 50
170.0
 51
80.00000000000001
  0
CIRCLE
  5
2DCC
330
2DC9
100
AcDbEntity
  8
AM_0N
100
AcDbCircle
 10
328.3438080086692
 20
410.4980453744927
 30
0.0
 40
3.323417653293459
  0
LINE
  5
2DCD
330
2DC9
100
AcDbEntity
  8
AM_0N
100
AcDbLine
 10
324.5910312589366
 20
416.9980453744926
 30
0.0
 11
320.8382545092039
 21
410.4980453744924
 31
0.0
  0
LINE
  5
2DCE
330
2DC9
100
AcDbEntity
  8
AM_0N
100
AcDbLine
 10
320.8382545092039
 20
410.4980453744924
 30
0.0
 11
324.5910312589368
 21
403.9980453744926
 31
0.0
  0
LINE
  5
2DCF
330
2DC9
100
AcDbEntity
  8
AM_0N
100
AcDbLine
 10
324.5910312589368
 20
403.9980453744926
 30
0.0
 11
332.0965847584017
 21
403.9980453744926
 31
0.0
  0
LINE
  5
2DD0
330
2DC9
100
AcDbEntity
  8
AM_0N
100
AcDbLine
 10
332.0965847584017
 20
403.9980453744926
 30
0.0
 11
335.8493615081343
 21
410.4980453744927
 31
0.0
  0
LINE
  5
2DD1
330
2DC9
100
AcDbEntity
  8
AM_0N
100
AcDbLine
 10
335.8493615081343
 20
410.4980453744927
 30
0.0
 11
332.0965847584013
 21
416.9980453744926
 31
0.0
  0
LINE
  5
2DD2
330
2DC9
100
AcDbEntity
  8
AM_0N
100
AcDbLine
 10
332.0965847584013
 20
416.9980453744926
 30
0.0
 11
324.5910312589366
 21
416.9980453744926
 31
0.0
  0
LINE
  5
2DD3
330
2DC9
100
AcDbEntity
  8
AM_7N
  6
AM_ISO08W050x2
100
AcDbLine
 10
338.8493615081343
 20
410.4980453744927
 30
0.0
 11
317.838254509204
 21
410.4980453744927
 31
0.0
  0
LINE
  5
2DD4
330
2DC9
100
AcDbEntity
  8
AM_7N
  6
AM_ISO08W050x2
100
AcDbLine
 10
328.3438080086692
 20
421.0035988739577
 30
0.0
 11
328.3438080086692
 21
399.9924918750275
 31
0.0
  0
ENDBLK
  5
2DD6
330
2DC9
100
AcDbEntity
  8
0
100
AcDbBlockEnd
  0
BLOCK
  5
2DE4
330
2DD8
100
AcDbEntity
  8
0
100
AcDbBlockBegin
  2
*U42
 70
     1
 10
0.0
 20
0.0
 30
0.0
  3
*U42
  1

  0
CIRCLE
  5
2DD9
330
2DD8
100
AcDbEntity
  8
AM_0N
100
AcDbCircle
 10
246.1426446957333
 20
376.4492089254614
 30
0.0
 40
5.799999999999999
  0
ARC
  5
2DDA
330
2DD8
100
AcDbEntity
  8
AM_4N
100
AcDbCircle
 10
246.1426446957333
 20
376.4492089254614
 30
0.0
 40
4.0
100
AcDbArc
 50
170.0
 51
80.00000000000001
  0
CIRCLE
  5
2DDB
330
2DD8
100
AcDbEntity
  8
AM_0N
100
AcDbCircle
 10
246.1426446957333
 20
376.4492089254614
 30
0.0
 40
3.323417653293459
  0
LINE
  5
2DDC
330
2DD8
100
AcDbEntity
  8
AM_0N
100
AcDbLine
 10
242.3898679460008
 20
382.9492089254614
 30
0.0
 11
238.6370911962681
 21
376.4492089254612
 31
0.0
  0
LINE
  5
2DDD
330
2DD8
100
AcDbEntity
  8
AM_0N
100
AcDbLine
 10
238.6370911962681
 20
376.4492089254612
 30
0.0
 11
242.389867946001
 21
369.9492089254615
 31
0.0
  0
LINE
  5
2DDE
330
2DD8
100
AcDbEntity
  8
AM_0N
100
AcDbLine
 10
242.389867946001
 20
369.9492089254615
 30
0.0
 11
249.8954214454659
 21
369.9492089254615
 31
0.0
  0
LINE
  5
2DDF
330
2DD8
100
AcDbEntity
  8
AM_0N
100
AcDbLine
 10
249.8954214454659
 20
369.9492089254615
 30
0.0
 11
253.6481981951985
 21
376.4492089254614
 31
0.0
  0
LINE
  5
2DE0
330
2DD8
100
AcDbEntity
  8
AM_0N
100
AcDbLine
 10
253.6481981951985
 20
376.4492089254614
 30
0.0
 11
249.8954214454654
 21
382.9492089254614
 31
0.0
  0
LINE
  5
2DE1
330
2DD8
100
AcDbEntity
  8
AM_0N
100
AcDbLine
 10
249.8954214454654
 20
382.9492089254614
 30
0.0
 11
242.3898679460008
 21
382.9492089254614
 31
0.0
  0
LINE
  5
2DE2
330
2DD8
100
AcDbEntity
  8
AM_7N
  6
AM_ISO08W050x2
100
AcDbLine
 10
256.6481981951985
 20
376.4492089254614
 30
0.0
 11
235.6370911962682
 21
376.4492089254614
 31
0.0
  0
LINE
  5
2DE3
330
2DD8
100
AcDbEntity
  8
AM_7N
  6
AM_ISO08W050x2
100
AcDbLine
 10
246.1426446957333
 20
386.9547624249266
 30
0.0
 11
246.1426446957333
 21
365.9436554259963
 31
0.0
  0
ENDBLK
  5
2DE5
330
2DD8
100
AcDbEntity
  8
0
100
AcDbBlockEnd
  0
BLOCK
  5
2DF3
330
2DE7
100
AcDbEntity
  8
0
100
AcDbBlockBegin
  2
*U43
 70
     1
 10
0.0
 20
0.0
 30
0.0
  3
*U43
  1

  0
CIRCLE
  5
2DE8
330
2DE7
100
AcDbEntity
  8
AM_0N
100
AcDbCircle
 10
212.0938080086694
 20
294.2480451364598
 30
0.0
 40
5.799999999999999
  0
ARC
  5
2DE9
330
2DE7
100
AcDbEntity
  8
AM_4N
100
AcDbCircle
 10
212.0938080086694
 20
294.2480451364598
 30
0.0
 40
4.0
100
AcDbArc
 50
170.0
 51
80.00000000000001
  0
CIRCLE
  5
2DEA
330
2DE7
100
AcDbEntity
  8
AM_0N
100
AcDbCircle
 10
212.0938080086694
 20
294.2480451364598
 30
0.0
 40
3.323417653293459
  0
LINE
  5
2DEB
330
2DE7
100
AcDbEntity
  8
AM_0N
100
AcDbLine
 10
208.3410312589368
 20
300.7480451364598
 30
0.0
 11
204.5882545092041
 21
294.2480451364596
 31
0.0
  0
LINE
  5
2DEC
330
2DE7
100
AcDbEntity
  8
AM_0N
100
AcDbLine
 10
204.5882545092041
 20
294.2480451364596
 30
0.0
 11
208.3410312589371
 21
287.7480451364598
 31
0.0
  0
LINE
  5
2DED
330
2DE7
100
AcDbEntity
  8
AM_0N
100
AcDbLine
 10
208.3410312589371
 20
287.7480451364598
 30
0.0
 11
215.8465847584019
 21
287.7480451364598
 31
0.0
  0
LINE
  5
2DEE
330
2DE7
100
AcDbEntity
  8
AM_0N
100
AcDbLine
 10
215.8465847584019
 20
287.7480451364598
 30
0.0
 11
219.5993615081345
 21
294.2480451364598
 31
0.0
  0
LINE
  5
2DEF
330
2DE7
100
AcDbEntity
  8
AM_0N
100
AcDbLine
 10
219.5993615081345
 20
294.2480451364598
 30
0.0
 11
215.8465847584015
 21
300.7480451364598
 31
0.0
  0
LINE
  5
2DF0
330
2DE7
100
AcDbEntity
  8
AM_0N
100
AcDbLine
 10
215.8465847584015
 20
300.7480451364598
 30
0.0
 11
208.3410312589368
 21
300.7480451364598
 31
0.0
  0
LINE
  5
2DF1
330
2DE7
100
AcDbEntity
  8
AM_7N
  6
AM_ISO08W050x2
100
AcDbLine
 10
222.5993615081345
 20
294.2480451364598
 30
0.0
 11
201.5882545092043
 21
294.2480451364598
 31
0.0
  0
LINE
  5
2DF2
330
2DE7
100
AcDbEntity
  8
AM_7N
  6
AM_ISO08W050x2
100
AcDbLine
 10
212.0938080086694
 20
304.753598635925
 30
0.0
 11
212.0938080086694
 21
283.7424916369947
 31
0.0
  0
ENDBLK
  5
2DF4
330
2DE7
100
AcDbEntity
  8
0
100
AcDbBlockEnd
  0
BLOCK
  5
2E02
330
2DF6
100
AcDbEntity
  8
0
100
AcDbBlockBegin
  2
*U44
 70
     1
 10
0.0
 20
0.0
 30
0.0
  3
*U44
  1

  0
CIRCLE
  5
2DF7
330
2DF6
100
AcDbEntity
  8
AM_0N
100
AcDbCircle
 10
246.1426443079796
 20
212.0468820615565
 30
0.0
 40
5.799999999999999
  0
ARC
  5
2DF8
330
2DF6
100
AcDbEntity
  8
AM_4N
100
AcDbCircle
 10
246.1426443079796
 20
212.0468820615565
 30
0.0
 40
4.0
100
AcDbArc
 50
170.0
 51
80.00000000000001
  0
CIRCLE
  5
2DF9
330
2DF6
100
AcDbEntity
  8
AM_0N
100
AcDbCircle
 10
246.1426443079796
 20
212.0468820615565
 30
0.0
 40
3.323417653293459
  0
LINE
  5
2DFA
330
2DF6
100
AcDbEntity
  8
AM_0N
100
AcDbLine
 10
242.389867558247
 20
218.5468820615565
 30
0.0
 11
238.6370908085144
 21
212.0468820615563
 31
0.0
  0
LINE
  5
2DFB
330
2DF6
100
AcDbEntity
  8
AM_0N
100
AcDbLine
 10
238.6370908085144
 20
212.0468820615563
 30
0.0
 11
242.3898675582472
 21
205.5468820615565
 31
0.0
  0
LINE
  5
2DFC
330
2DF6
100
AcDbEntity
  8
AM_0N
100
AcDbLine
 10
242.3898675582472
 20
205.5468820615565
 30
0.0
 11
249.8954210577121
 21
205.5468820615565
 31
0.0
  0
LINE
  5
2DFD
330
2DF6
100
AcDbEntity
  8
AM_0N
100
AcDbLine
 10
249.8954210577121
 20
205.5468820615565
 30
0.0
 11
253.6481978074447
 21
212.0468820615565
 31
0.0
  0
LINE
  5
2DFE
330
2DF6
100
AcDbEntity
  8
AM_0N
100
AcDbLine
 10
253.6481978074447
 20
212.0468820615565
 30
0.0
 11
249.8954210577117
 21
218.5468820615565
 31
0.0
  0
LINE
  5
2DFF
330
2DF6
100
AcDbEntity
  8
AM_0N
100
AcDbLine
 10
249.8954210577117
 20
218.5468820615565
 30
0.0
 11
242.389867558247
 21
218.5468820615565
 31
0.0
  0
LINE
  5
2E00
330
2DF6
100
AcDbEntity
  8
AM_7N
  6
AM_ISO08W050x2
100
AcDbLine
 10
256.6481978074447
 20
212.0468820615565
 30
0.0
 11
235.6370908085145
 21
212.0468820615565
 31
0.0
  0
LINE
  5
2E01
330
2DF6
100
AcDbEntity
  8
AM_7N
  6
AM_ISO08W050x2
100
AcDbLine
 10
246.1426443079796
 20
222.5524355610216
 30
0.0
 11
246.1426443079796
 21
201.5413285620914
 31
0.0
  0
ENDBLK
  5
2E03
330
2DF6
100
AcDbEntity
  8
0
100
AcDbBlockEnd
  0
BLOCK
  5
2E11
330
2E05
100
AcDbEntity
  8
0
100
AcDbBlockBegin
  2
*U45
 70
     1
 10
0.0
 20
0.0
 30
0.0
  3
*U45
  1

  0
CIRCLE
  5
2E06
330
2E05
100
AcDbEntity
  8
AM_0N
100
AcDbCircle
 10
328.3438080086693
 20
177.9980451364598
 30
0.0
 40
5.799999999999999
  0
ARC
  5
2E07
330
2E05
100
AcDbEntity
  8
AM_4N
100
AcDbCircle
 10
328.3438080086693
 20
177.9980451364598
 30
0.0
 40
4.0
100
AcDbArc
 50
170.0
 51
80.00000000000001
  0
CIRCLE
  5
2E08
330
2E05
100
AcDbEntity
  8
AM_0N
100
AcDbCircle
 10
328.3438080086693
 20
177.9980451364598
 30
0.0
 40
3.323417653293459
  0
LINE
  5
2E09
330
2E05
100
AcDbEntity
  8
AM_0N
100
AcDbLine
 10
324.5910312589367
 20
184.4980451364598
 30
0.0
 11
320.838254509204
 21
177.9980451364596
 31
0.0
  0
LINE
  5
2E0A
330
2E05
100
AcDbEntity
  8
AM_0N
100
AcDbLine
 10
320.838254509204
 20
177.9980451364596
 30
0.0
 11
324.5910312589369
 21
171.4980451364598
 31
0.0
  0
LINE
  5
2E0B
330
2E05
100
AcDbEntity
  8
AM_0N
100
AcDbLine
 10
324.5910312589369
 20
171.4980451364598
 30
0.0
 11
332.0965847584018
 21
171.4980451364598
 31
0.0
  0
LINE
  5
2E0C
330
2E05
100
AcDbEntity
  8
AM_0N
100
AcDbLine
 10
332.0965847584018
 20
171.4980451364598
 30
0.0
 11
335.8493615081344
 21
177.9980451364598
 31
0.0
  0
LINE
  5
2E0D
330
2E05
100
AcDbEntity
  8
AM_0N
100
AcDbLine
 10
335.8493615081344
 20
177.9980451364598
 30
0.0
 11
332.0965847584014
 21
184.4980451364598
 31
0.0
  0
LINE
  5
2E0E
330
2E05
100
AcDbEntity
  8
AM_0N
100
AcDbLine
 10
332.0965847584014
 20
184.4980451364598
 30
0.0
 11
324.5910312589367
 21
184.4980451364598
 31
0.0
  0
LINE
  5
2E0F
330
2E05
100
AcDbEntity
  8
AM_7N
  6
AM_ISO08W050x2
100
AcDbLine
 10
338.8493615081344
 20
177.9980451364598
 30
0.0
 11
317.8382545092042
 21
177.9980451364598
 31
0.0
  0
LINE
  5
2E10
330
2E05
100
AcDbEntity
  8
AM_7N
  6
AM_ISO08W050x2
100
AcDbLine
 10
328.3438080086693
 20
188.5035986359249
 30
0.0
 11
328.3438080086693
 21
167.4924916369947
 31
0.0
  0
ENDBLK
  5
2E12
330
2E05
100
AcDbEntity
  8
0
100
AcDbBlockEnd
  0
BLOCK
  5
2E20
330
2E14
100
AcDbEntity
  8
0
100
AcDbBlockBegin
  2
*U46
 70
     1
 10
0.0
 20
0.0
 30
0.0
  3
*U46
  1

  0
CIRCLE
  5
2E15
330
2E14
100
AcDbEntity
  8
AM_0N
100
AcDbCircle
 10
410.5449713216057
 20
212.0468820615565
 30
0.0
 40
5.799999999999999
  0
ARC
  5
2E16
330
2E14
100
AcDbEntity
  8
AM_4N
100
AcDbCircle
 10
410.5449713216057
 20
212.0468820615565
 30
0.0
 40
4.0
100
AcDbArc
 50
170.0
 51
80.00000000000001
  0
CIRCLE
  5
2E17
330
2E14
100
AcDbEntity
  8
AM_0N
100
AcDbCircle
 10
410.5449713216057
 20
212.0468820615565
 30
0.0
 40
3.323417653293459
  0
LINE
  5
2E18
330
2E14
100
AcDbEntity
  8
AM_0N
100
AcDbLine
 10
406.7921945718731
 20
218.5468820615565
 30
0.0
 11
403.0394178221404
 21
212.0468820615563
 31
0.0
  0
LINE
  5
2E19
330
2E14
100
AcDbEntity
  8
AM_0N
100
AcDbLine
 10
403.0394178221404
 20
212.0468820615563
 30
0.0
 11
406.7921945718734
 21
205.5468820615565
 31
0.0
  0
LINE
  5
2E1A
330
2E14
100
AcDbEntity
  8
AM_0N
100
AcDbLine
 10
406.7921945718734
 20
205.5468820615565
 30
0.0
 11
414.2977480713383
 21
205.5468820615565
 31
0.0
  0
LINE
  5
2E1B
330
2E14
100
AcDbEntity
  8
AM_0N
100
AcDbLine
 10
414.2977480713383
 20
205.5468820615565
 30
0.0
 11
418.0505248210709
 21
212.0468820615565
 31
0.0
  0
LINE
  5
2E1C
330
2E14
100
AcDbEntity
  8
AM_0N
100
AcDbLine
 10
418.0505248210709
 20
212.0468820615565
 30
0.0
 11
414.2977480713378
 21
218.5468820615565
 31
0.0
  0
LINE
  5
2E1D
330
2E14
100
AcDbEntity
  8
AM_0N
100
AcDbLine
 10
414.2977480713378
 20
218.5468820615565
 30
0.0
 11
406.7921945718731
 21
218.5468820615565
 31
0.0
  0
LINE
  5
2E1E
330
2E14
100
AcDbEntity
  8
AM_7N
  6
AM_ISO08W050x2
100
AcDbLine
 10
421.0505248210709
 20
212.0468820615565
 30
0.0
 11
400.0394178221406
 21
212.0468820615565
 31
0.0
  0
LINE
  5
2E1F
330
2E14
100
AcDbEntity
  8
AM_7N
  6
AM_ISO08W050x2
100
AcDbLine
 10
410.5449713216057
 20
222.5524355610216
 30
0.0
 11
410.5449713216057
 21
201.5413285620914
 31
0.0
  0
ENDBLK
  5
2E21
330
2E14
100
AcDbEntity
  8
0
100
AcDbBlockEnd
  0
BLOCK
  5
2E32
330
2E23
100
AcDbEntity
  8
0
100
AcDbBlockBegin
  2
*U47
 70
     1
 10
0.0
 20
0.0
 30
0.0
  3
*U47
  1

  0
ARC
  5
2E24
330
2E23
100
AcDbEntity
  8
AM_0N
100
AcDbCircle
 10
499.7180922096934
 20
413.7480454948592
 30
0.0
 40
9.370138786166945
100
AcDbArc
 50
159.7054451607703
 51
200.2945548392298
  0
ARC
  5
2E25
330
2E23
100
AcDbEntity
  8
AM_0N
100
AcDbCircle
 10
486.9695242604939
 20
413.7480454948592
 30
0.0
 40
9.370138786166954
100
AcDbArc
 50
339.7054451607703
 51
20.29455483922971
  0
LINE
  5
2E26
330
2E23
100
AcDbEntity
  8
AM_0N
100
AcDbLine
 10
489.9438082350936
 20
404.6980454948593
 30
0.0
 11
489.9438082350936
 21
416.2980454948592
 31
0.0
  0
LINE
  5
2E27
330
2E23
100
AcDbEntity
  8
AM_0N
100
AcDbLine
 10
496.7438082350937
 20
416.2980454948592
 30
0.0
 11
496.7438082350937
 21
404.6980454948593
 31
0.0
  0
LINE
  5
2E28
330
2E23
100
AcDbEntity
  8
AM_0N
100
AcDbLine
 10
496.3396630466609
 20
416.9980454948593
 30
0.0
 11
490.3479534235263
 21
416.9980454948593
 31
0.0
  0
LINE
  5
2E29
330
2E23
100
AcDbEntity
  8
AM_0N
100
AcDbLine
 10
496.7438082350937
 20
416.2980454948592
 30
0.0
 11
496.3396630466609
 21
416.9980454948593
 31
0.0
  0
LINE
  5
2E2A
330
2E23
100
AcDbEntity
  8
AM_0N
100
AcDbLine
 10
490.3479534235263
 20
416.9980454948593
 30
0.0
 11
489.9438082350936
 21
416.2980454948592
 31
0.0
  0
LINE
  5
2E2B
330
2E23
100
AcDbEntity
  8
AM_0N
100
AcDbLine
 10
495.7579826504524
 20
410.4980454948592
 30
0.0
 11
490.9296338197349
 21
410.4980454948592
 31
0.0
  0
LINE
  5
2E2C
330
2E23
100
AcDbEntity
  8
AM_0N
100
AcDbLine
 10
496.3396630466609
 20
403.9980454948593
 30
0.0
 11
490.3479534235263
 21
403.9980454948593
 31
0.0
  0
LINE
  5
2E2D
330
2E23
100
AcDbEntity
  8
AM_7N
  6
AM_ISO08W050x2
100
AcDbLine
 10
499.7438082350937
 20
410.4980454948592
 30
0.0
 11
486.9438082350937
 21
410.4980454948592
 31
0.0
  0
ARC
  5
2E2E
330
2E23
100
AcDbEntity
  8
AM_0N
100
AcDbCircle
 10
486.9695242604939
 20
407.2480454948593
 30
0.0
 40
9.370138786166954
100
AcDbArc
 50
339.7054451607703
 51
20.29455483922971
  0
LINE
  5
2E2F
330
2E23
100
AcDbEntity
  8
AM_0N
100
AcDbLine
 10
496.7438082350937
 20
404.6980454948593
 30
0.0
 11
496.3396630466609
 21
403.9980454948593
 31
0.0
  0
ARC
  5
2E30
330
2E23
100
AcDbEntity
  8
AM_0N
100
AcDbCircle
 10
499.7180922096934
 20
407.2480454948593
 30
0.0
 40
9.370138786166945
100
AcDbArc
 50
159.7054451607703
 51
200.2945548392298
  0
LINE
  5
2E31
330
2E23
100
AcDbEntity
  8
AM_0N
100
AcDbLine
 10
490.3479534235263
 20
403.9980454948593
 30
0.0
 11
489.9438082350936
 21
404.6980454948593
 31
0.0
  0
ENDBLK
  5
2E33
330
2E23
100
AcDbEntity
  8
0
100
AcDbBlockEnd
  0
BLOCK
  5
2E44
330
2E35
100
AcDbEntity
  8
0
100
AcDbBlockBegin
  2
*U48
 70
     1
 10
0.0
 20
0.0
 30
0.0
  3
*U48
  1

  0
ARC
  5
2E36
330
2E35
100
AcDbEntity
  8
AM_0N
100
AcDbCircle
 10
499.7180922096933
 20
181.2480454948591
 30
0.0
 40
9.370138786166945
100
AcDbArc
 50
159.7054451607703
 51
200.2945548392298
  0
ARC
  5
2E37
330
2E35
100
AcDbEntity
  8
AM_0N
100
AcDbCircle
 10
486.9695242604938
 20
181.2480454948591
 30
0.0
 40
9.370138786166954
100
AcDbArc
 50
339.7054451607703
 51
20.29455483922971
  0
LINE
  5
2E38
330
2E35
100
AcDbEntity
  8
AM_0N
100
AcDbLine
 10
489.9438082350935
 20
172.1980454948592
 30
0.0
 11
489.9438082350935
 21
183.7980454948591
 31
0.0
  0
LINE
  5
2E39
330
2E35
100
AcDbEntity
  8
AM_0N
100
AcDbLine
 10
496.7438082350936
 20
183.7980454948591
 30
0.0
 11
496.7438082350936
 21
172.1980454948592
 31
0.0
  0
LINE
  5
2E3A
330
2E35
100
AcDbEntity
  8
AM_0N
100
AcDbLine
 10
496.3396630466609
 20
184.4980454948592
 30
0.0
 11
490.3479534235263
 21
184.4980454948592
 31
0.0
  0
LINE
  5
2E3B
330
2E35
100
AcDbEntity
  8
AM_0N
100
AcDbLine
 10
496.7438082350936
 20
183.7980454948591
 30
0.0
 11
496.3396630466609
 21
184.4980454948592
 31
0.0
  0
LINE
  5
2E3C
330
2E35
100
AcDbEntity
  8
AM_0N
100
AcDbLine
 10
490.3479534235263
 20
184.4980454948592
 30
0.0
 11
489.9438082350935
 21
183.7980454948591
 31
0.0
  0
LINE
  5
2E3D
330
2E35
100
AcDbEntity
  8
AM_0N
100
AcDbLine
 10
495.7579826504522
 20
177.9980454948591
 30
0.0
 11
490.9296338197348
 21
177.9980454948591
 31
0.0
  0
LINE
  5
2E3E
330
2E35
100
AcDbEntity
  8
AM_0N
100
AcDbLine
 10
496.3396630466609
 20
171.4980454948592
 30
0.0
 11
490.3479534235263
 21
171.4980454948592
 31
0.0
  0
LINE
  5
2E3F
330
2E35
100
AcDbEntity
  8
AM_7N
  6
AM_ISO08W050x2
100
AcDbLine
 10
499.7438082350935
 20
177.9980454948591
 30
0.0
 11
486.9438082350936
 21
177.9980454948591
 31
0.0
  0
ARC
  5
2E40
330
2E35
100
AcDbEntity
  8
AM_0N
100
AcDbCircle
 10
486.9695242604938
 20
174.7480454948592
 30
0.0
 40
9.370138786166954
100
AcDbArc
 50
339.7054451607703
 51
20.29455483922971
  0
LINE
  5
2E41
330
2E35
100
AcDbEntity
  8
AM_0N
100
AcDbLine
 10
496.7438082350936
 20
172.1980454948592
 30
0.0
 11
496.3396630466609
 21
171.4980454948592
 31
0.0
  0
ARC
  5
2E42
330
2E35
100
AcDbEntity
  8
AM_0N
100
AcDbCircle
 10
499.7180922096933
 20
174.7480454948592
 30
0.0
 40
9.370138786166945
100
AcDbArc
 50
159.7054451607703
 51
200.2945548392298
  0
LINE
  5
2E43
330
2E35
100
AcDbEntity
  8
AM_0N
100
AcDbLine
 10
490.3479534235263
 20
171.4980454948592
 30
0.0
 11
489.9438082350935
 21
172.1980454948592
 31
0.0
  0
ENDBLK
  5
2E45
330
2E35
100
AcDbEntity
  8
0
100
AcDbBlockEnd
  0
BLOCK
  5
2E59
330
2E47
100
AcDbEntity
  8
0
100
AcDbBlockBegin
  2
*U49
 70
     1
 10
0.0
 20
0.0
 30
0.0
  3
*U49
  1

  0
ARC
  5
2E48
330
2E47
100
AcDbEntity
  8
AM_0N
100
AcDbCircle
 10
493.6667962199412
 20
761.0805151363464
 30
0.0
 40
3.318843022839323
100
AcDbArc
 50
145.5615305952679
 51
205.5615305952688
  0
ARC
  5
2E49
330
2E47
100
AcDbEntity
  8
AM_0N
100
AcDbCircle
 10
493.0208197973971
 20
761.0805151363464
 30
0.0
 40
3.318843022839323
100
AcDbArc
 50
334.438469404731
 51
34.43846940473207
  0
LINE
  5
2E4A
330
2E47
100
AcDbEntity
  8
AM_0N
100
AcDbLine
 10
489.9438080086692
 20
760.9111401363464
 30
0.0
 11
489.9438080086692
 21
772.5111401363464
 31
0.0
  0
LINE
  5
2E4B
330
2E47
100
AcDbEntity
  8
AM_0N
100
AcDbLine
 10
496.7438080086692
 20
760.9111401363464
 30
0.0
 11
496.7438080086692
 21
772.5111401363464
 31
0.0
  0
ARC
  5
2E4C
330
2E47
100
AcDbEntity
  8
AM_0N
100
AcDbCircle
 10
493.6667962199414
 20
772.3417651363464
 30
0.0
 40
3.318843022839353
100
AcDbArc
 50
154.4384694047316
 51
214.4384694047318
  0
ARC
  5
2E4D
330
2E47
100
AcDbEntity
  8
AM_0N
100
AcDbCircle
 10
502.7508046941465
 20
766.7111401363464
 30
0.0
 40
12.40285149704447
100
AcDbArc
 50
162.3830311596131
 51
197.6169688403869
  0
ARC
  5
2E4E
330
2E47
100
AcDbEntity
  8
AM_0N
100
AcDbCircle
 10
483.936811323192
 20
766.7111401363464
 30
0.0
 40
12.40285149704446
100
AcDbArc
 50
342.3830311596132
 51
17.61696884038687
  0
ARC
  5
2E4F
330
2E47
100
AcDbEntity
  8
AM_0N
100
AcDbCircle
 10
493.0208197973971
 20
772.3417651363464
 30
0.0
 40
3.318843022839323
100
AcDbArc
 50
325.561530595268
 51
25.56153059526968
  0
LINE
  5
2E50
330
2E47
100
AcDbEntity
  8
AM_0N
100
AcDbLine
 10
490.9296335933105
 20
774.2186401363463
 30
0.0
 11
489.9438080086692
 21
772.5111401363464
 31
0.0
  0
LINE
  5
2E51
330
2E47
100
AcDbEntity
  8
AM_7N
  6
AM_ISO08W050x2
100
AcDbLine
 10
499.7438080086692
 20
766.7111401363464
 30
0.0
 11
486.9438080086693
 21
766.7111401363464
 31
0.0
  0
LINE
  5
2E52
330
2E47
100
AcDbEntity
  8
AM_0N
100
AcDbLine
 10
495.757982424028
 20
762.9573901363463
 30
0.0
 11
490.9296335933105
 21
762.9573901363463
 31
0.0
  0
LINE
  5
2E53
330
2E47
100
AcDbEntity
  8
AM_0N
100
AcDbLine
 10
495.757982424028
 20
774.2186401363463
 30
0.0
 11
496.7438080086692
 21
772.5111401363464
 31
0.0
  0
LINE
  5
2E54
330
2E47
100
AcDbEntity
  8
AM_0N
100
AcDbLine
 10
495.757982424028
 20
774.2186401363463
 30
0.0
 11
490.9296335933105
 21
774.2186401363463
 31
0.0
  0
LINE
  5
2E55
330
2E47
100
AcDbEntity
  8
AM_0N
100
AcDbLine
 10
495.757982424028
 20
770.4648901363465
 30
0.0
 11
490.9296335933105
 21
770.4648901363465
 31
0.0
  0
LINE
  5
2E56
330
2E47
100
AcDbEntity
  8
AM_0N
100
AcDbLine
 10
490.9296335933105
 20
759.2036401363465
 30
0.0
 11
489.9438080086692
 21
760.9111401363464
 31
0.0
  0
LINE
  5
2E57
330
2E47
100
AcDbEntity
  8
AM_0N
100
AcDbLine
 10
495.757982424028
 20
759.2036401363465
 30
0.0
 11
496.7438080086692
 21
760.9111401363464
 31
0.0
  0
LINE
  5
2E58
330
2E47
100
AcDbEntity
  8
AM_0N
100
AcDbLine
 10
495.757982424028
 20
759.2036401363465
 30
0.0
 11
490.9296335933105
 21
759.2036401363465
 31
0.0
  0
ENDBLK
  5
2E5A
330
2E47
100
AcDbEntity
  8
0
100
AcDbBlockEnd
  0
BLOCK
  5
2E6E
330
2E5C
100
AcDbEntity
  8
0
100
AcDbBlockBegin
  2
*U50
 70
     1
 10
0.0
 20
0.0
 30
0.0
  3
*U50
  1

  0
ARC
  5
2E5D
330
2E5C
100
AcDbEntity
  8
AM_0N
100
AcDbCircle
 10
438.9631830086694
 20
705.3881520454212
 30
0.0
 40
3.318843022839323
100
AcDbArc
 50
55.56153059526793
 51
115.5615305952689
  0
ARC
  5
2E5E
330
2E5C
100
AcDbEntity
  8
AM_0N
100
AcDbCircle
 10
438.9631830086694
 20
706.0341284679654
 30
0.0
 40
3.318843022839323
100
AcDbArc
 50
244.438469404731
 51
304.4384694047321
  0
LINE
  5
2E5F
330
2E5C
100
AcDbEntity
  8
AM_0N
100
AcDbLine
 10
438.7938080086693
 20
709.1111402566932
 30
0.0
 11
450.3938080086694
 21
709.1111402566932
 31
0.0
  0
LINE
  5
2E60
330
2E5C
100
AcDbEntity
  8
AM_0N
100
AcDbLine
 10
438.7938080086693
 20
702.3111402566932
 30
0.0
 11
450.3938080086694
 21
702.3111402566932
 31
0.0
  0
ARC
  5
2E61
330
2E5C
100
AcDbEntity
  8
AM_0N
100
AcDbCircle
 10
450.2244330086694
 20
705.3881520454211
 30
0.0
 40
3.318843022839353
100
AcDbArc
 50
64.43846940473163
 51
124.4384694047317
  0
ARC
  5
2E62
330
2E5C
100
AcDbEntity
  8
AM_0N
100
AcDbCircle
 10
444.5938080086693
 20
696.3041435712161
 30
0.0
 40
12.40285149704447
100
AcDbArc
 50
72.38303115961314
 51
107.6169688403868
  0
ARC
  5
2E63
330
2E5C
100
AcDbEntity
  8
AM_0N
100
AcDbCircle
 10
444.5938080086693
 20
715.1181369421705
 30
0.0
 40
12.40285149704446
100
AcDbArc
 50
252.3830311596131
 51
287.6169688403868
  0
ARC
  5
2E64
330
2E5C
100
AcDbEntity
  8
AM_0N
100
AcDbCircle
 10
450.2244330086694
 20
706.0341284679654
 30
0.0
 40
3.318843022839323
100
AcDbArc
 50
235.561530595268
 51
295.5615305952697
  0
LINE
  5
2E65
330
2E5C
100
AcDbEntity
  8
AM_0N
100
AcDbLine
 10
452.1013080086693
 20
708.125314672052
 30
0.0
 11
450.3938080086694
 21
709.1111402566932
 31
0.0
  0
LINE
  5
2E66
330
2E5C
100
AcDbEntity
  8
AM_7N
  6
AM_ISO08W050x2
100
AcDbLine
 10
444.5938080086693
 20
699.3111402566933
 30
0.0
 11
444.5938080086693
 21
712.1111402566932
 31
0.0
  0
LINE
  5
2E67
330
2E5C
100
AcDbEntity
  8
AM_0N
100
AcDbLine
 10
440.8400580086693
 20
703.2969658413345
 30
0.0
 11
440.8400580086693
 21
708.125314672052
 31
0.0
  0
LINE
  5
2E68
330
2E5C
100
AcDbEntity
  8
AM_0N
100
AcDbLine
 10
452.1013080086693
 20
703.2969658413345
 30
0.0
 11
450.3938080086694
 21
702.3111402566932
 31
0.0
  0
LINE
  5
2E69
330
2E5C
100
AcDbEntity
  8
AM_0N
100
AcDbLine
 10
452.1013080086693
 20
703.2969658413345
 30
0.0
 11
452.1013080086693
 21
708.125314672052
 31
0.0
  0
LINE
  5
2E6A
330
2E5C
100
AcDbEntity
  8
AM_0N
100
AcDbLine
 10
448.3475580086694
 20
703.2969658413345
 30
0.0
 11
448.3475580086694
 21
708.125314672052
 31
0.0
  0
LINE
  5
2E6B
330
2E5C
100
AcDbEntity
  8
AM_0N
100
AcDbLine
 10
437.0863080086693
 20
708.125314672052
 30
0.0
 11
438.7938080086693
 21
709.1111402566932
 31
0.0
  0
LINE
  5
2E6C
330
2E5C
100
AcDbEntity
  8
AM_0N
100
AcDbLine
 10
437.0863080086693
 20
703.2969658413345
 30
0.0
 11
438.7938080086693
 21
702.3111402566932
 31
0.0
  0
LINE
  5
2E6D
330
2E5C
100
AcDbEntity
  8
AM_0N
100
AcDbLine
 10
437.0863080086693
 20
703.2969658413345
 30
0.0
 11
437.0863080086693
 21
708.125314672052
 31
0.0
  0
ENDBLK
  5
2E6F
330
2E5C
100
AcDbEntity
  8
0
100
AcDbBlockEnd
  0
BLOCK
  5
2E83
330
2E71
100
AcDbEntity
  8
0
100
AcDbBlockBegin
  2
*U51
 70
     1
 10
0.0
 20
0.0
 30
0.0
  3
*U51
  1

  0
ARC
  5
2E72
330
2E71
100
AcDbEntity
  8
AM_0N
100
AcDbCircle
 10
404.9143454577862
 20
705.3881520454212
 30
0.0
 40
3.318843022839323
100
AcDbArc
 50
55.56153059526793
 51
115.5615305952689
  0
ARC
  5
2E73
330
2E71
100
AcDbEntity
  8
AM_0N
100
AcDbCircle
 10
404.9143454577862
 20
706.0341284679654
 30
0.0
 40
3.318843022839323
100
AcDbArc
 50
244.438469404731
 51
304.4384694047321
  0
LINE
  5
2E74
330
2E71
100
AcDbEntity
  8
AM_0N
100
AcDbLine
 10
404.7449704577862
 20
709.1111402566932
 30
0.0
 11
416.3449704577862
 21
709.1111402566932
 31
0.0
  0
LINE
  5
2E75
330
2E71
100
AcDbEntity
  8
AM_0N
100
AcDbLine
 10
404.7449704577862
 20
702.3111402566932
 30
0.0
 11
416.3449704577862
 21
702.3111402566932
 31
0.0
  0
ARC
  5
2E76
330
2E71
100
AcDbEntity
  8
AM_0N
100
AcDbCircle
 10
416.1755954577862
 20
705.3881520454211
 30
0.0
 40
3.318843022839353
100
AcDbArc
 50
64.43846940473163
 51
124.4384694047317
  0
ARC
  5
2E77
330
2E71
100
AcDbEntity
  8
AM_0N
100
AcDbCircle
 10
410.5449704577862
 20
696.3041435712161
 30
0.0
 40
12.40285149704447
100
AcDbArc
 50
72.38303115961314
 51
107.6169688403868
  0
ARC
  5
2E78
330
2E71
100
AcDbEntity
  8
AM_0N
100
AcDbCircle
 10
410.5449704577862
 20
715.1181369421705
 30
0.0
 40
12.40285149704446
100
AcDbArc
 50
252.3830311596131
 51
287.6169688403868
  0
ARC
  5
2E79
330
2E71
100
AcDbEntity
  8
AM_0N
100
AcDbCircle
 10
416.1755954577862
 20
706.0341284679654
 30
0.0
 40
3.318843022839323
100
AcDbArc
 50
235.561530595268
 51
295.5615305952697
  0
LINE
  5
2E7A
330
2E71
100
AcDbEntity
  8
AM_0N
100
AcDbLine
 10
418.0524704577861
 20
708.125314672052
 30
0.0
 11
416.3449704577862
 21
709.1111402566932
 31
0.0
  0
LINE
  5
2E7B
330
2E71
100
AcDbEntity
  8
AM_7N
  6
AM_ISO08W050x2
100
AcDbLine
 10
410.5449704577862
 20
699.3111402566933
 30
0.0
 11
410.5449704577862
 21
712.1111402566932
 31
0.0
  0
LINE
  5
2E7C
330
2E71
100
AcDbEntity
  8
AM_0N
100
AcDbLine
 10
406.7912204577861
 20
703.2969658413345
 30
0.0
 11
406.7912204577861
 21
708.125314672052
 31
0.0
  0
LINE
  5
2E7D
330
2E71
100
AcDbEntity
  8
AM_0N
100
AcDbLine
 10
418.0524704577861
 20
703.2969658413345
 30
0.0
 11
416.3449704577862
 21
702.3111402566932
 31
0.0
  0
LINE
  5
2E7E
330
2E71
100
AcDbEntity
  8
AM_0N
100
AcDbLine
 10
418.0524704577861
 20
703.2969658413345
 30
0.0
 11
418.0524704577861
 21
708.125314672052
 31
0.0
  0
LINE
  5
2E7F
330
2E71
100
AcDbEntity
  8
AM_0N
100
AcDbLine
 10
414.2987204577862
 20
703.2969658413345
 30
0.0
 11
414.2987204577862
 21
708.125314672052
 31
0.0
  0
LINE
  5
2E80
330
2E71
100
AcDbEntity
  8
AM_0N
100
AcDbLine
 10
403.0374704577862
 20
708.125314672052
 30
0.0
 11
404.7449704577862
 21
709.1111402566932
 31
0.0
  0
LINE
  5
2E81
330
2E71
100
AcDbEntity
  8
AM_0N
100
AcDbLine
 10
403.0374704577862
 20
703.2969658413345
 30
0.0
 11
404.7449704577862
 21
702.3111402566932
 31
0.0
  0
LINE
  5
2E82
330
2E71
100
AcDbEntity
  8
AM_0N
100
AcDbLine
 10
403.0374704577862
 20
703.2969658413345
 30
0.0
 11
403.0374704577862
 21
708.125314672052
 31
0.0
  0
ENDBLK
  5
2E84
330
2E71
100
AcDbEntity
  8
0
100
AcDbBlockEnd
  0
BLOCK
  5
2E98
330
2E86
100
AcDbEntity
  8
0
100
AcDbBlockBegin
  2
*U52
 70
     1
 10
0.0
 20
0.0
 30
0.0
  3
*U52
  1

  0
ARC
  5
2E87
330
2E86
100
AcDbEntity
  8
AM_0N
100
AcDbCircle
 10
322.7131830086694
 20
705.3881520454212
 30
0.0
 40
3.318843022839323
100
AcDbArc
 50
55.56153059526793
 51
115.5615305952689
  0
ARC
  5
2E88
330
2E86
100
AcDbEntity
  8
AM_0N
100
AcDbCircle
 10
322.7131830086694
 20
706.0341284679654
 30
0.0
 40
3.318843022839323
100
AcDbArc
 50
244.438469404731
 51
304.4384694047321
  0
LINE
  5
2E89
330
2E86
100
AcDbEntity
  8
AM_0N
100
AcDbLine
 10
322.5438080086694
 20
709.1111402566932
 30
0.0
 11
334.1438080086694
 21
709.1111402566932
 31
0.0
  0
LINE
  5
2E8A
330
2E86
100
AcDbEntity
  8
AM_0N
100
AcDbLine
 10
322.5438080086694
 20
702.3111402566932
 30
0.0
 11
334.1438080086694
 21
702.3111402566932
 31
0.0
  0
ARC
  5
2E8B
330
2E86
100
AcDbEntity
  8
AM_0N
100
AcDbCircle
 10
333.9744330086694
 20
705.3881520454211
 30
0.0
 40
3.318843022839353
100
AcDbArc
 50
64.43846940473163
 51
124.4384694047317
  0
ARC
  5
2E8C
330
2E86
100
AcDbEntity
  8
AM_0N
100
AcDbCircle
 10
328.3438080086694
 20
696.3041435712161
 30
0.0
 40
12.40285149704447
100
AcDbArc
 50
72.38303115961314
 51
107.6169688403868
  0
ARC
  5
2E8D
330
2E86
100
AcDbEntity
  8
AM_0N
100
AcDbCircle
 10
328.3438080086694
 20
715.1181369421705
 30
0.0
 40
12.40285149704446
100
AcDbArc
 50
252.3830311596131
 51
287.6169688403868
  0
ARC
  5
2E8E
330
2E86
100
AcDbEntity
  8
AM_0N
100
AcDbCircle
 10
333.9744330086694
 20
706.0341284679654
 30
0.0
 40
3.318843022839323
100
AcDbArc
 50
235.561530595268
 51
295.5615305952697
  0
LINE
  5
2E8F
330
2E86
100
AcDbEntity
  8
AM_0N
100
AcDbLine
 10
335.8513080086694
 20
708.125314672052
 30
0.0
 11
334.1438080086694
 21
709.1111402566932
 31
0.0
  0
LINE
  5
2E90
330
2E86
100
AcDbEntity
  8
AM_7N
  6
AM_ISO08W050x2
100
AcDbLine
 10
328.3438080086694
 20
699.3111402566933
 30
0.0
 11
328.3438080086694
 21
712.1111402566932
 31
0.0
  0
LINE
  5
2E91
330
2E86
100
AcDbEntity
  8
AM_0N
100
AcDbLine
 10
324.5900580086694
 20
703.2969658413345
 30
0.0
 11
324.5900580086694
 21
708.125314672052
 31
0.0
  0
LINE
  5
2E92
330
2E86
100
AcDbEntity
  8
AM_0N
100
AcDbLine
 10
335.8513080086694
 20
703.2969658413345
 30
0.0
 11
334.1438080086694
 21
702.3111402566932
 31
0.0
  0
LINE
  5
2E93
330
2E86
100
AcDbEntity
  8
AM_0N
100
AcDbLine
 10
335.8513080086694
 20
703.2969658413345
 30
0.0
 11
335.8513080086694
 21
708.125314672052
 31
0.0
  0
LINE
  5
2E94
330
2E86
100
AcDbEntity
  8
AM_0N
100
AcDbLine
 10
332.0975580086694
 20
703.2969658413345
 30
0.0
 11
332.0975580086694
 21
708.125314672052
 31
0.0
  0
LINE
  5
2E95
330
2E86
100
AcDbEntity
  8
AM_0N
100
AcDbLine
 10
320.8363080086694
 20
708.125314672052
 30
0.0
 11
322.5438080086694
 21
709.1111402566932
 31
0.0
  0
LINE
  5
2E96
330
2E86
100
AcDbEntity
  8
AM_0N
100
AcDbLine
 10
320.8363080086694
 20
703.2969658413345
 30
0.0
 11
322.5438080086694
 21
702.3111402566932
 31
0.0
  0
LINE
  5
2E97
330
2E86
100
AcDbEntity
  8
AM_0N
100
AcDbLine
 10
320.8363080086694
 20
703.2969658413345
 30
0.0
 11
320.8363080086694
 21
708.125314672052
 31
0.0
  0
ENDBLK
  5
2E99
330
2E86
100
AcDbEntity
  8
0
100
AcDbBlockEnd
  0
BLOCK
  5
2EAD
330
2E9B
100
AcDbEntity
  8
0
100
AcDbBlockBegin
  2
*U53
 70
     1
 10
0.0
 20
0.0
 30
0.0
  3
*U53
  1

  0
ARC
  5
2E9C
330
2E9B
100
AcDbEntity
  8
AM_0N
100
AcDbCircle
 10
240.5120196957333
 20
705.3881520454212
 30
0.0
 40
3.318843022839323
100
AcDbArc
 50
55.56153059526793
 51
115.5615305952689
  0
ARC
  5
2E9D
330
2E9B
100
AcDbEntity
  8
AM_0N
100
AcDbCircle
 10
240.5120196957333
 20
706.0341284679654
 30
0.0
 40
3.318843022839323
100
AcDbArc
 50
244.438469404731
 51
304.4384694047321
  0
LINE
  5
2E9E
330
2E9B
100
AcDbEntity
  8
AM_0N
100
AcDbLine
 10
240.3426446957333
 20
709.1111402566932
 30
0.0
 11
251.9426446957333
 21
709.1111402566932
 31
0.0
  0
LINE
  5
2E9F
330
2E9B
100
AcDbEntity
  8
AM_0N
100
AcDbLine
 10
240.3426446957333
 20
702.3111402566932
 30
0.0
 11
251.9426446957333
 21
702.3111402566932
 31
0.0
  0
ARC
  5
2EA0
330
2E9B
100
AcDbEntity
  8
AM_0N
100
AcDbCircle
 10
251.7732696957334
 20
705.3881520454211
 30
0.0
 40
3.318843022839353
100
AcDbArc
 50
64.43846940473163
 51
124.4384694047317
  0
ARC
  5
2EA1
330
2E9B
100
AcDbEntity
  8
AM_0N
100
AcDbCircle
 10
246.1426446957333
 20
696.3041435712161
 30
0.0
 40
12.40285149704447
100
AcDbArc
 50
72.38303115961314
 51
107.6169688403868
  0
ARC
  5
2EA2
330
2E9B
100
AcDbEntity
  8
AM_0N
100
AcDbCircle
 10
246.1426446957333
 20
715.1181369421705
 30
0.0
 40
12.40285149704446
100
AcDbArc
 50
252.3830311596131
 51
287.6169688403868
  0
ARC
  5
2EA3
330
2E9B
100
AcDbEntity
  8
AM_0N
100
AcDbCircle
 10
251.7732696957334
 20
706.0341284679654
 30
0.0
 40
3.318843022839323
100
AcDbArc
 50
235.561530595268
 51
295.5615305952697
  0
LINE
  5
2EA4
330
2E9B
100
AcDbEntity
  8
AM_0N
100
AcDbLine
 10
253.6501446957333
 20
708.125314672052
 30
0.0
 11
251.9426446957333
 21
709.1111402566932
 31
0.0
  0
LINE
  5
2EA5
330
2E9B
100
AcDbEntity
  8
AM_7N
  6
AM_ISO08W050x2
100
AcDbLine
 10
246.1426446957333
 20
699.3111402566933
 30
0.0
 11
246.1426446957333
 21
712.1111402566932
 31
0.0
  0
LINE
  5
2EA6
330
2E9B
100
AcDbEntity
  8
AM_0N
100
AcDbLine
 10
242.3888946957333
 20
703.2969658413345
 30
0.0
 11
242.3888946957333
 21
708.125314672052
 31
0.0
  0
LINE
  5
2EA7
330
2E9B
100
AcDbEntity
  8
AM_0N
100
AcDbLine
 10
253.6501446957333
 20
703.2969658413345
 30
0.0
 11
251.9426446957333
 21
702.3111402566932
 31
0.0
  0
LINE
  5
2EA8
330
2E9B
100
AcDbEntity
  8
AM_0N
100
AcDbLine
 10
253.6501446957333
 20
703.2969658413345
 30
0.0
 11
253.6501446957333
 21
708.125314672052
 31
0.0
  0
LINE
  5
2EA9
330
2E9B
100
AcDbEntity
  8
AM_0N
100
AcDbLine
 10
249.8963946957334
 20
703.2969658413345
 30
0.0
 11
249.8963946957334
 21
708.125314672052
 31
0.0
  0
LINE
  5
2EAA
330
2E9B
100
AcDbEntity
  8
AM_0N
100
AcDbLine
 10
238.6351446957334
 20
708.125314672052
 30
0.0
 11
240.3426446957333
 21
709.1111402566932
 31
0.0
  0
LINE
  5
2EAB
330
2E9B
100
AcDbEntity
  8
AM_0N
100
AcDbLine
 10
238.6351446957334
 20
703.2969658413345
 30
0.0
 11
240.3426446957333
 21
702.3111402566932
 31
0.0
  0
LINE
  5
2EAC
330
2E9B
100
AcDbEntity
  8
AM_0N
100
AcDbLine
 10
238.6351446957334
 20
703.2969658413345
 30
0.0
 11
238.6351446957334
 21
708.125314672052
 31
0.0
  0
ENDBLK
  5
2EAE
330
2E9B
100
AcDbEntity
  8
0
100
AcDbBlockEnd
  0
BLOCK
  5
2EC2
330
2EB0
100
AcDbEntity
  8
0
100
AcDbBlockBegin
  2
*U54
 70
     1
 10
0.0
 20
0.0
 30
0.0
  3
*U54
  1

  0
ARC
  5
2EB1
330
2EB0
100
AcDbEntity
  8
AM_0N
100
AcDbCircle
 10
206.4631830086694
 20
705.3881520454212
 30
0.0
 40
3.318843022839323
100
AcDbArc
 50
55.56153059526793
 51
115.5615305952689
  0
ARC
  5
2EB2
330
2EB0
100
AcDbEntity
  8
AM_0N
100
AcDbCircle
 10
206.4631830086694
 20
706.0341284679654
 30
0.0
 40
3.318843022839323
100
AcDbArc
 50
244.438469404731
 51
304.4384694047321
  0
LINE
  5
2EB3
330
2EB0
100
AcDbEntity
  8
AM_0N
100
AcDbLine
 10
206.2938080086694
 20
709.1111402566932
 30
0.0
 11
217.8938080086694
 21
709.1111402566932
 31
0.0
  0
LINE
  5
2EB4
330
2EB0
100
AcDbEntity
  8
AM_0N
100
AcDbLine
 10
206.2938080086694
 20
702.3111402566932
 30
0.0
 11
217.8938080086694
 21
702.3111402566932
 31
0.0
  0
ARC
  5
2EB5
330
2EB0
100
AcDbEntity
  8
AM_0N
100
AcDbCircle
 10
217.7244330086694
 20
705.3881520454211
 30
0.0
 40
3.318843022839353
100
AcDbArc
 50
64.43846940473163
 51
124.4384694047317
  0
ARC
  5
2EB6
330
2EB0
100
AcDbEntity
  8
AM_0N
100
AcDbCircle
 10
212.0938080086694
 20
696.3041435712161
 30
0.0
 40
12.40285149704447
100
AcDbArc
 50
72.38303115961314
 51
107.6169688403868
  0
ARC
  5
2EB7
330
2EB0
100
AcDbEntity
  8
AM_0N
100
AcDbCircle
 10
212.0938080086694
 20
715.1181369421705
 30
0.0
 40
12.40285149704446
100
AcDbArc
 50
252.3830311596131
 51
287.6169688403868
  0
ARC
  5
2EB8
330
2EB0
100
AcDbEntity
  8
AM_0N
100
AcDbCircle
 10
217.7244330086694
 20
706.0341284679654
 30
0.0
 40
3.318843022839323
100
AcDbArc
 50
235.561530595268
 51
295.5615305952697
  0
LINE
  5
2EB9
330
2EB0
100
AcDbEntity
  8
AM_0N
100
AcDbLine
 10
219.6013080086694
 20
708.125314672052
 30
0.0
 11
217.8938080086694
 21
709.1111402566932
 31
0.0
  0
LINE
  5
2EBA
330
2EB0
100
AcDbEntity
  8
AM_7N
  6
AM_ISO08W050x2
100
AcDbLine
 10
212.0938080086694
 20
699.3111402566933
 30
0.0
 11
212.0938080086694
 21
712.1111402566932
 31
0.0
  0
LINE
  5
2EBB
330
2EB0
100
AcDbEntity
  8
AM_0N
100
AcDbLine
 10
208.3400580086693
 20
703.2969658413345
 30
0.0
 11
208.3400580086693
 21
708.125314672052
 31
0.0
  0
LINE
  5
2EBC
330
2EB0
100
AcDbEntity
  8
AM_0N
100
AcDbLine
 10
219.6013080086694
 20
703.2969658413345
 30
0.0
 11
217.8938080086694
 21
702.3111402566932
 31
0.0
  0
LINE
  5
2EBD
330
2EB0
100
AcDbEntity
  8
AM_0N
100
AcDbLine
 10
219.6013080086694
 20
703.2969658413345
 30
0.0
 11
219.6013080086694
 21
708.125314672052
 31
0.0
  0
LINE
  5
2EBE
330
2EB0
100
AcDbEntity
  8
AM_0N
100
AcDbLine
 10
215.8475580086694
 20
703.2969658413345
 30
0.0
 11
215.8475580086694
 21
708.125314672052
 31
0.0
  0
LINE
  5
2EBF
330
2EB0
100
AcDbEntity
  8
AM_0N
100
AcDbLine
 10
204.5863080086694
 20
708.125314672052
 30
0.0
 11
206.2938080086694
 21
709.1111402566932
 31
0.0
  0
LINE
  5
2EC0
330
2EB0
100
AcDbEntity
  8
AM_0N
100
AcDbLine
 10
204.5863080086694
 20
703.2969658413345
 30
0.0
 11
206.2938080086694
 21
702.3111402566932
 31
0.0
  0
LINE
  5
2EC1
330
2EB0
100
AcDbEntity
  8
AM_0N
100
AcDbLine
 10
204.5863080086694
 20
703.2969658413345
 30
0.0
 11
204.5863080086694
 21
708.125314672052
 31
0.0
  0
ENDBLK
  5
2EC3
330
2EB0
100
AcDbEntity
  8
0
100
AcDbBlockEnd
  0
BLOCK
  5
2ED7
330
2ED2
100
AcDbEntity
  8
0
100
AcDbBlockBegin
  2
*U55
 70
     1
 10
0.0
 20
0.0
 30
0.0
  3
*U55
  1

  0
ARC
  5
2ED3
330
2ED2
100
AcDbEntity
  8
AM_4
100
AcDbCircle
 10
0.0
 20
0.0
 30
0.0
 40
4.0
100
AcDbArc
 50
260.0
 51
170.0
  0
CIRCLE
  5
2ED4
330
2ED2
100
AcDbEntity
  8
AM_0
100
AcDbCircle
 10
0.0
 20
0.0
 30
0.0
 40
3.32341765329346
  0
LINE
  5
2ED5
330
2ED2
100
AcDbEntity
  8
AM_7
  6
AM_ISO08W050x2
100
AcDbLine
 10
-7.0
 20
0.0
 30
0.0
 11
7.0
 21
0.0
 31
0.0
  0
LINE
  5
2ED6
330
2ED2
100
AcDbEntity
  8
AM_7
  6
AM_ISO08W050x2
100
AcDbLine
 10
0.0
 20
-7.0
 30
0.0
 11
0.0
 21
7.0
 31
0.0
  0
ENDBLK
  5
2ED8
330
2ED2
100
AcDbEntity
  8
0
100
AcDbBlockEnd
  0
BLOCK
  5
2EED
330
2EDB
100
AcDbEntity
  8
0
100
AcDbBlockBegin
  2
*U56
 70
     1
 10
0.0
 20
0.0
 30
0.0
  3
*U56
  1

  0
ARC
  5
2EDC
330
2EDB
100
AcDbEntity
  8
AM_0N
100
AcDbCircle
 10
3.077011788727986
 20
5.630625000000009
 30
0.0
 40
3.318843022839323
100
AcDbArc
 50
325.5615305952679
 51
25.56153059526885
  0
ARC
  5
2EDD
330
2EDB
100
AcDbEntity
  8
AM_0N
100
AcDbCircle
 10
3.722988211272081
 20
5.630625000000009
 30
0.0
 40
3.318843022839323
100
AcDbArc
 50
154.438469404731
 51
214.4384694047321
  0
LINE
  5
2EDE
330
2EDB
100
AcDbEntity
  8
AM_0N
100
AcDbLine
 10
6.799999999999954
 20
5.800000000000011
 30
0.0
 11
6.799999999999954
 21
-5.800000000000011
 31
0.0
  0
LINE
  5
2EDF
330
2EDB
100
AcDbEntity
  8
AM_0N
100
AcDbLine
 10
0.0
 20
5.800000000000011
 30
0.0
 11
0.0
 21
-5.800000000000011
 31
0.0
  0
ARC
  5
2EE0
330
2EDB
100
AcDbEntity
  8
AM_0N
100
AcDbCircle
 10
3.077011788727872
 20
-5.630625000000009
 30
0.0
 40
3.318843022839353
100
AcDbArc
 50
334.4384694047316
 51
34.4384694047318
  0
ARC
  5
2EE1
330
2EDB
100
AcDbEntity
  8
AM_0N
100
AcDbCircle
 10
-6.006996685477247
 20
0.0
 30
0.0
 40
12.40285149704447
100
AcDbArc
 50
342.3830311596132
 51
17.61696884038685
  0
ARC
  5
2EE2
330
2EDB
100
AcDbEntity
  8
AM_0N
100
AcDbCircle
 10
12.8069966854772
 20
0.0
 30
0.0
 40
12.40285149704446
100
AcDbArc
 50
162.3830311596131
 51
197.6169688403869
  0
ARC
  5
2EE3
330
2EDB
100
AcDbEntity
  8
AM_0N
100
AcDbCircle
 10
3.722988211272081
 20
-5.630625000000009
 30
0.0
 40
3.318843022839323
100
AcDbArc
 50
145.561530595268
 51
205.5615305952697
  0
LINE
  5
2EE4
330
2EDB
100
AcDbEntity
  8
AM_0N
100
AcDbLine
 10
5.814174415358706
 20
-7.507499999999993
 30
0.0
 11
6.799999999999954
 21
-5.800000000000011
 31
0.0
  0
LINE
  5
2EE5
330
2EDB
100
AcDbEntity
  8
AM_7N
  6
AM_ISO08W050x2
100
AcDbLine
 10
-3.0
 20
0.0
 30
0.0
 11
9.799999999999954
 21
0.0
 31
0.0
  0
LINE
  5
2EE6
330
2EDB
100
AcDbEntity
  8
AM_0N
100
AcDbLine
 10
0.9858255846412475
 20
3.753750000000025
 30
0.0
 11
5.814174415358706
 21
3.753750000000025
 31
0.0
  0
LINE
  5
2EE7
330
2EDB
100
AcDbEntity
  8
AM_0N
100
AcDbLine
 10
0.9858255846412475
 20
-7.507499999999993
 30
0.0
 11
0.0
 21
-5.800000000000011
 31
0.0
  0
LINE
  5
2EE8
330
2EDB
100
AcDbEntity
  8
AM_0N
100
AcDbLine
 10
0.9858255846412475
 20
-7.507499999999993
 30
0.0
 11
5.814174415358706
 21
-7.507499999999993
 31
0.0
  0
LINE
  5
2EE9
330
2EDB
100
AcDbEntity
  8
AM_0N
100
AcDbLine
 10
0.9858255846412475
 20
-3.753750000000025
 30
0.0
 11
5.814174415358706
 21
-3.753750000000025
 31
0.0
  0
LINE
  5
2EEA
330
2EDB
100
AcDbEntity
  8
AM_0N
100
AcDbLine
 10
5.814174415358706
 20
7.507499999999993
 30
0.0
 11
6.799999999999954
 21
5.800000000000011
 31
0.0
  0
LINE
  5
2EEB
330
2EDB
100
AcDbEntity
  8
AM_0N
100
AcDbLine
 10
0.9858255846412475
 20
7.507499999999993
 30
0.0
 11
0.0
 21
5.800000000000011
 31
0.0
  0
LINE
  5
2EEC
330
2EDB
100
AcDbEntity
  8
AM_0N
100
AcDbLine
 10
0.9858255846412475
 20
7.507499999999993
 30
0.0
 11
5.814174415358706
 21
7.507499999999993
 31
0.0
  0
ENDBLK
  5
2EEE
330
2EDB
100
AcDbEntity
  8
0
100
AcDbBlockEnd
  0
BLOCK
  5
2EFB
330
2EEF
100
AcDbEntity
  8
0
100
AcDbBlockBegin
  2
*U57
 70
     1
 10
0.0
 20
0.0
 30
0.0
  3
*U57
  1

  0
CIRCLE
  5
2EF0
330
2EEF
100
AcDbEntity
  8
AM_0N
100
AcDbCircle
 10
0.0
 20
0.0
 30
0.0
 40
5.799999999999999
  0
ARC
  5
2EF1
330
2EEF
100
AcDbEntity
  8
AM_4N
100
AcDbCircle
 10
0.0
 20
0.0
 30
0.0
 40
4.0
100
AcDbArc
 50
260.0
 51
170.0
  0
CIRCLE
  5
2EF2
330
2EEF
100
AcDbEntity
  8
AM_0N
100
AcDbCircle
 10
0.0
 20
0.0
 30
0.0
 40
3.323417653293459
  0
LINE
  5
2EF3
330
2EEF
100
AcDbEntity
  8
AM_0N
100
AcDbLine
 10
-6.5
 20
-3.752776749732561
 30
0.0
 11
0.0000000000002274
 21
-7.505553499465236
 31
0.0
  0
LINE
  5
2EF4
330
2EEF
100
AcDbEntity
  8
AM_0N
100
AcDbLine
 10
0.0000000000002274
 20
-7.505553499465236
 30
0.0
 11
6.5
 21
-3.752776749732333
 31
0.0
  0
LINE
  5
2EF5
330
2EEF
100
AcDbEntity
  8
AM_0N
100
AcDbLine
 10
6.5
 20
-3.752776749732333
 30
0.0
 11
6.5
 21
3.752776749732561
 31
0.0
  0
LINE
  5
2EF6
330
2EEF
100
AcDbEntity
  8
AM_0N
100
AcDbLine
 10
6.5
 20
3.752776749732561
 30
0.0
 11
0.0
 21
7.505553499465122
 31
0.0
  0
LINE
  5
2EF7
330
2EEF
100
AcDbEntity
  8
AM_0N
100
AcDbLine
 10
0.0
 20
7.505553499465122
 30
0.0
 11
-6.5
 21
3.752776749732106
 31
0.0
  0
LINE
  5
2EF8
330
2EEF
100
AcDbEntity
  8
AM_0N
100
AcDbLine
 10
-6.5
 20
3.752776749732106
 30
0.0
 11
-6.5
 21
-3.752776749732561
 31
0.0
  0
LINE
  5
2EF9
330
2EEF
100
AcDbEntity
  8
AM_7N
  6
AM_ISO08W050x2
100
AcDbLine
 10
0.0
 20
10.50555349946512
 30
0.0
 11
0.0
 21
-10.50555349946512
 31
0.0
  0
LINE
  5
2EFA
330
2EEF
100
AcDbEntity
  8
AM_7N
  6
AM_ISO08W050x2
100
AcDbLine
 10
-10.50555349946512
 20
0.0
 30
0.0
 11
10.50555349946512
 21
0.0
 31
0.0
  0
ENDBLK
  5
2EFC
330
2EEF
100
AcDbEntity
  8
0
100
AcDbBlockEnd
  0
BLOCK
  5
2F0C
330
2EFD
100
AcDbEntity
  8
0
100
AcDbBlockBegin
  2
*U58
 70
     1
 10
0.0
 20
0.0
 30
0.0
  3
*U58
  1

  0
ARC
  5
2EFE
330
2EFD
100
AcDbEntity
  8
AM_0N
100
AcDbCircle
 10
-2.9742839745997
 20
-3.25
 30
0.0
 40
9.370138786166945
100
AcDbArc
 50
339.7054451607703
 51
20.29455483922975
  0
ARC
  5
2EFF
330
2EFD
100
AcDbEntity
  8
AM_0N
100
AcDbCircle
 10
9.774283974599711
 20
-3.25
 30
0.0
 40
9.370138786166954
100
AcDbArc
 50
159.7054451607703
 51
200.2945548392297
  0
LINE
  5
2F00
330
2EFD
100
AcDbEntity
  8
AM_0N
100
AcDbLine
 10
6.800000000000011
 20
5.799999999999954
 30
0.0
 11
6.800000000000011
 21
-5.799999999999954
 31
0.0
  0
LINE
  5
2F01
330
2EFD
100
AcDbEntity
  8
AM_0N
100
AcDbLine
 10
0.0
 20
-5.799999999999954
 30
0.0
 11
0.0
 21
5.799999999999954
 31
0.0
  0
LINE
  5
2F02
330
2EFD
100
AcDbEntity
  8
AM_0N
100
AcDbLine
 10
0.4041451884327217
 20
-6.5
 30
0.0
 11
6.395854811567289
 21
-6.5
 31
0.0
  0
LINE
  5
2F03
330
2EFD
100
AcDbEntity
  8
AM_0N
100
AcDbLine
 10
0.0
 20
-5.799999999999954
 30
0.0
 11
0.4041451884327217
 21
-6.5
 31
0.0
  0
LINE
  5
2F04
330
2EFD
100
AcDbEntity
  8
AM_0N
100
AcDbLine
 10
6.395854811567289
 20
-6.5
 30
0.0
 11
6.800000000000011
 21
-5.799999999999954
 31
0.0
  0
LINE
  5
2F05
330
2EFD
100
AcDbEntity
  8
AM_0N
100
AcDbLine
 10
0.9858255846413044
 20
0.0
 30
0.0
 11
5.814174415358706
 21
0.0
 31
0.0
  0
LINE
  5
2F06
330
2EFD
100
AcDbEntity
  8
AM_0N
100
AcDbLine
 10
0.4041451884327217
 20
6.5
 30
0.0
 11
6.395854811567289
 21
6.5
 31
0.0
  0
LINE
  5
2F07
330
2EFD
100
AcDbEntity
  8
AM_7N
  6
AM_ISO08W050x2
100
AcDbLine
 10
-3.0
 20
0.0
 30
0.0
 11
9.799999999999954
 21
0.0
 31
0.0
  0
ARC
  5
2F08
330
2EFD
100
AcDbEntity
  8
AM_0N
100
AcDbCircle
 10
9.774283974599711
 20
3.25
 30
0.0
 40
9.370138786166954
100
AcDbArc
 50
159.7054451607703
 51
200.2945548392297
  0
LINE
  5
2F09
330
2EFD
100
AcDbEntity
  8
AM_0N
100
AcDbLine
 10
0.0
 20
5.799999999999954
 30
0.0
 11
0.4041451884327217
 21
6.5
 31
0.0
  0
ARC
  5
2F0A
330
2EFD
100
AcDbEntity
  8
AM_0N
100
AcDbCircle
 10
-2.9742839745997
 20
3.25
 30
0.0
 40
9.370138786166945
100
AcDbArc
 50
339.7054451607703
 51
20.29455483922975
  0
LINE
  5
2F0B
330
2EFD
100
AcDbEntity
  8
AM_0N
100
AcDbLine
 10
6.395854811567289
 20
6.5
 30
0.0
 11
6.800000000000011
 21
5.799999999999954
 31
0.0
  0
ENDBLK
  5
2F0D
330
2EFD
100
AcDbEntity
  8
0
100
AcDbBlockEnd
  0
ENDSEC
  0
SECTION
  2
ENTITIES
  0
LINE
  5
1C08
330
1F
100
AcDbEntity
  8
0
100
AcDbLine
 10
498.3438080086693
 20
696.711140136347
 30
0.0
 11
162.3438080086694
 21
696.7111401363471
 31
0.0
1001
GENIUS_GENFIL_13
1070
     0
1040
0.5
1040
0.5
1040
20.0
1040
0.0
1002
{
1002
}
1001
GENIUS_GENODEF_13
1002
{
1000
HIER
1070
     0
1002
}
1002
{
1000
MANEDIT
1070
     0
1002
}
1002
{
1000
NOSEL
1070
     0
1002
}
1002
{
1000
BEHIND
1070
     0
1002
}
1002
{
1000
OTHER
1070
     0
1002
}
1002
{
1000
REACTOR
1002
}
1001
GENIUS_GENOBJ-N-CHA_13
1002
{
1000
OWNER
1000
GEN
1002
}
  0
LINE
  5
1C09
102
{ACAD_REACTORS
330
1C29
330
2CB0
102
}
330
1F
100
AcDbEntity
  8
0
100
AcDbLine
 10
162.3438080086694
 20
696.7111401363471
 30
0.0
 11
162.3438080086694
 21
692.7111401363471
 31
0.0
  0
LINE
  5
1C0A
102
{ACAD_REACTORS
330
1C29
102
}
330
1F
100
AcDbEntity
  8
0
100
AcDbLine
 10
162.3438080086694
 20
692.7111401363471
 30
0.0
 11
498.3438080086689
 21
692.7111401363474
 31
0.0
1001
GENIUS_GENFIL_13
1070
     0
1040
0.5
1040
0.5
1040
20.0
1040
0.0
1002
{
1002
}
1001
GENIUS_GENOBJ-N-CHA_13
1002
{
1000
OWNER
1000
GEN
1002
}
1001
GENIUS_GENODEF_13
1002
{
1000
HIER
1070
     0
1002
}
1002
{
1000
MANEDIT
1070
     0
1002
}
1002
{
1000
NOSEL
1070
     0
1002
}
1002
{
1000
BEHIND
1070
     0
1002
}
1002
{
1000
OTHER
1070
     0
1002
}
1002
{
1000
REACTOR
1002
}
  0
ARC
  5
1C0B
330
1F
100
AcDbEntity
  8
0
100
AcDbCircle
 10
498.3438080086689
 20
702.7111401363474
 30
0.0
 40
10.0
100
AcDbArc
 50
270.0
 51
359.9999999999997
1001
GENIUS_GENFIL_13
1070
     0
1040
0.5
1040
0.5
1040
20.0
1040
0.0
1002
{
1002
}
1001
GENIUS_GENOBJ-N-CHA_13
1002
{
1000
OWNER
1000
GEN
1002
}
1001
GENIUS_GENODEF_13
1002
{
1000
HIER
1070
     0
1002
}
1002
{
1000
MANEDIT
1070
     0
1002
}
1002
{
1000
NOSEL
1070
     0
1002
}
1002
{
1000
BEHIND
1070
     0
1002
}
1002
{
1000
OTHER
1070
     0
1002
}
1002
{
1000
REACTOR
1002
}
1001
GENIUS_GENOBJ-N-FIL_13
1002
{
1000
OWNER
1000
GEN
1002
}
  0
LINE
  5
1C0C
102
{ACAD_REACTORS
330
1C15
102
}
330
1F
100
AcDbEntity
  8
0
100
AcDbLine
 10
504.3438080086693
 20
702.711140136347
 30
0.0
 11
504.3438080086692
 21
801.7111401363468
 31
0.0
  0
ARC
  5
1C0D
102
{ACAD_REACTORS
330
2D5F
102
}
330
1F
100
AcDbEntity
  8
0
100
AcDbCircle
 10
498.3438080086693
 20
702.711140136347
 30
0.0
 40
6.0
100
AcDbArc
 50
270.0
 51
0.0000000000000254
1001
GENIUS_GENOBJ-N-FIL_13
1002
{
1000
OWNER
1000
GEN
1002
}
1001
GENIUS_GENODEF_13
1002
{
1000
HIER
1070
     0
1002
}
1002
{
1000
MANEDIT
1070
     0
1002
}
1002
{
1000
NOSEL
1070
     0
1002
}
1002
{
1000
BEHIND
1070
     0
1002
}
1002
{
1000
OTHER
1070
     0
1002
}
1002
{
1000
REACTOR
1002
}
  0
LINE
  5
1C0E
330
1F
100
AcDbEntity
  8
0
100
AcDbLine
 10
508.343808008669
 20
702.7111401363474
 30
0.0
 11
508.3438080086693
 21
801.7111401363468
 31
0.0
  0
LINE
  5
1C0F
102
{ACAD_REACTORS
330
1C15
330
1C9B
102
}
330
1F
100
AcDbEntity
  8
0
100
AcDbLine
 10
504.3438080086693
 20
801.7111401363465
 30
0.0
 11
508.3438080086693
 21
801.7111401363468
 31
0.0
  0
LINE
  5
1C12
330
1F
100
AcDbEntity
  8
AM_7
  6
AM_ISO08W050x2
100
AcDbLine
 10
328.3438080086694
 20
689.7111401363471
 30
0.0
 11
328.3438080086694
 21
699.7111401363471
 31
0.0
1001
GENIUS_GENODEF_13
1002
{
1000
HIER
1070
     0
1002
}
1002
{
1000
MANEDIT
1070
     0
1002
}
1002
{
1000
NOSEL
1070
     0
1002
}
1002
{
1000
BEHIND
1070
     0
1002
}
1002
{
1000
OTHER
1070
     0
1002
}
1002
{
1000
REACTOR
1002
}
1001
GENIUS_GENOBJ-N-CEN_13
1002
{
1000
OWNER
1000
GEN
1002
}
1001
GENIUS_GENCEN_19
1002
{
1040
3.0
1002
}
  0
DIMENSION
  5
1C13
102
{ACAD_XDICTIONARY
360
1C14
102
}
102
{ACAD_REACTORS
330
1C15
102
}
330
1F
100
AcDbEntity
  8
AM_5
100
AcDbDimension
  2
*D11
 10
532.0022579106569
 20
801.7111401363465
 30
0.0
 11
525.2522579106567
 21
749.2111401363469
 31
0.0
 70
    33
 71
     5
 42
104.9999999999994
  3
AM_ISO$0
100
AcDbAlignedDimension
 13
504.3438080086692
 23
696.7111401363471
 33
0.0
 14
504.3438080086693
 24
801.7111401363465
 34
0.0
1001
ACAD
1000
DSTYLE
1002
{
1070
   140
1040
10.5
1002
}
  0
ARC
  5
1C16
330
1F
100
AcDbEntity
  8
0
100
AcDbCircle
 10
328.3438080086694
 20
294.2480453744926
 30
0.0
 40
166.0
100
AcDbArc
 50
90.0
 51
270.0
  0
LINE
  5
1C17
102
{ACAD_REACTORS
330
1C26
102
}
330
1F
100
AcDbEntity
  8
0
100
AcDbLine
 10
504.3438080086693
 20
460.2480453744925
 30
0.0
 11
504.3438080086693
 21
128.2480453744927
 31
0.0
  0
LINE
  5
1C18
102
{ACAD_REACTORS
330
1C26
102
}
330
1F
100
AcDbEntity
  8
0
100
AcDbLine
 10
508.3438080086693
 20
460.2480453744925
 30
0.0
 11
508.3438080086693
 21
128.2480453744927
 31
0.0
  0
CIRCLE
  5
1C19
330
1F
100
AcDbEntity
  8
0
100
AcDbCircle
 10
328.3438080086694
 20
294.2480453744926
 30
0.0
 40
59.0
  0
LINE
  5
1C1A
102
{ACAD_REACTORS
330
1C20
102
}
330
1F
100
AcDbEntity
  8
0
100
AcDbLine
 10
328.3438080086694
 20
460.2480453744925
 30
0.0
 11
508.3438080086692
 21
460.2480453744925
 31
0.0
  0
LINE
  5
1C1B
102
{ACAD_REACTORS
330
1C20
102
}
330
1F
100
AcDbEntity
  8
0
100
AcDbLine
 10
328.3438080086694
 20
128.2480453744925
 30
0.0
 11
508.3438080086692
 21
128.2480453744926
 31
0.0
  0
LINE
  5
1C1C
330
1F
100
AcDbEntity
  8
AM_7
100
AcDbLine
 10
328.3438080086694
 20
294.2480453744926
 30
0.0
 11
328.3438080086694
 21
463.2480453744925
 31
0.0
1001
GENIUS_GENOREF_13
1005
1CC5
  0
LINE
  5
1C1D
102
{ACAD_REACTORS
330
1C26
102
}
330
1F
100
AcDbEntity
  8
AM_7
100
AcDbLine
 10
328.3438080086694
 20
294.2480453744926
 30
0.0
 11
328.3438080086694
 21
125.2480453744925
 31
0.0
1001
GENIUS_GENOREF_13
1005
1CC5
  0
DIMENSION
  5
1C1E
102
{ACAD_XDICTIONARY
360
1C1F
102
}
102
{ACAD_REACTORS
330
1C20
102
}
330
1F
100
AcDbEntity
  8
AM_5
100
AcDbDimension
  2
*D12
 10
127.6752775494885
 20
128.2480453744926
 30
0.0
 11
120.9242440849216
 21
294.2480453744926
 31
0.0
 70
    32
 71
     5
 42
332.0
  3
AM_ISO$0
100
AcDbAlignedDimension
 13
328.3438080086694
 23
460.2480453744925
 33
0.0
 14
328.3438080086694
 24
128.2480453744925
 34
0.0
 50
90.0
100
AcDbRotatedDimension
1001
ACAD
1000
DSTYLE
1002
{
1070
   140
1040
10.5
1002
}
  0
DIMENSION
  5
1C24
102
{ACAD_XDICTIONARY
360
1C25
102
}
102
{ACAD_REACTORS
330
1C26
102
}
330
1F
100
AcDbEntity
  8
AM_5
100
AcDbDimension
  2
*D14
 10
328.3438080086694
 20
106.3469139136111
 30
0.0
 11
416.3438080086693
 21
113.0969139136111
 31
0.0
 70
    32
 71
     5
 42
176.0
  3
AM_ISO$0
100
AcDbAlignedDimension
 13
504.3438080086693
 23
128.2480453744927
 33
0.0
 14
328.3438080086694
 24
125.2480453744925
 34
0.0
100
AcDbRotatedDimension
1001
ACAD
1000
DSTYLE
1002
{
1070
   140
1040
10.5
1002
}
  0
DIMENSION
  5
1C27
102
{ACAD_XDICTIONARY
360
1C28
102
}
102
{ACAD_REACTORS
330
1C29
102
}
330
1F
100
AcDbEntity
  8
AM_5
100
AcDbDimension
  2
*D15
 10
150.3438080086693
 20
692.7111401363471
 30
0.0
 11
143.5938080086692
 21
683.5861401363471
 31
0.0
 70
    32
 71
     5
 42
4.0
  3
AM_ISO$0
100
AcDbAlignedDimension
 13
162.3438080086694
 23
696.7111401363471
 33
0.0
 14
162.3438080086694
 24
692.7111401363471
 34
0.0
 50
90.0
100
AcDbRotatedDimension
1001
ACAD
1000
DSTYLE
1002
{
1070
   140
1040
10.5
1002
}
  0
POINT
  5
1C2A
330
1F
100
AcDbEntity
  8
0
100
AcDbPoint
 10
504.3438080086693
 20
696.7111401363471
 30
0.0
  0
ARC
  5
1C2C
330
1F
100
AcDbEntity
  8
P-0000
  6
Continuous
 62
     7
100
AcDbCircle
 10
265.4438080086701
 20
618.7111401363472
 30
0.0
 40
11.99999999999997
100
AcDbArc
 50
180.0
 51
270.0
1001
ACME_LAYERS
1000
1
  0
LINE
  5
1C2D
330
1F
100
AcDbEntity
  8
P-0000
  6
Continuous
 62
     7
100
AcDbLine
 10
265.4438080086701
 20
608.2111401363472
 30
0.0
 11
365.3429410629707
 21
608.2111401363472
 31
0.0
1001
ACME_LAYERS
1000
1
  0
LINE
  5
1C2E
102
{ACAD_REACTORS
330
2CB0
102
}
330
1F
100
AcDbEntity
  8
P-0000
  6
Continuous
 62
     7
100
AcDbLine
 10
265.4438080086701
 20
606.7111401363472
 30
0.0
 11
387.2098791346261
 21
606.7111401363472
 31
0.0
1001
ACME_LAYERS
1000
1
  0
LINE
  5
1C2F
330
1F
100
AcDbEntity
  8
P-0000
  6
Continuous
 62
     7
100
AcDbLine
 10
401.7438080086686
 20
692.7111401363472
 30
0.0
 11
254.9438080086701
 21
692.7111401363472
 31
0.0
1001
ACME_LAYERS
1000
1
  0
ARC
  5
1C30
330
1F
100
AcDbEntity
  8
P-0000
  6
Continuous
 62
     7
100
AcDbCircle
 10
265.4438080086701
 20
618.7111401363472
 30
0.0
 40
10.49999999999997
100
AcDbArc
 50
180.0
 51
270.0
1001
ACME_LAYERS
1000
1
  0
LINE
  5
1C31
330
1F
100
AcDbEntity
  8
P-0000
  6
Continuous
 62
     7
100
AcDbLine
 10
254.9438080086701
 20
692.7111401363472
 30
0.0
 11
254.9438080086701
 21
618.7111401363472
 31
0.0
1001
ACME_LAYERS
1000
1
  0
LINE
  5
1C32
330
1F
100
AcDbEntity
  8
P-0000
  6
Continuous
 62
     7
100
AcDbLine
 10
253.4438080086701
 20
692.7111401363472
 30
0.0
 11
253.4438080086701
 21
618.7111401363472
 31
0.0
1001
ACME_LAYERS
1000
1
  0
LINE
  5
1C33
330
1F
100
AcDbEntity
  8
P-0000
  6
Continuous
 62
     7
100
AcDbLine
 10
366.9609750517206
 20
608.2111401363472
 30
0.0
 11
387.2098791346261
 21
608.2111401363472
 31
0.0
1001
ACME_LAYERS
1000
1
  0
LINE
  5
1C34
330
1F
100
AcDbEntity
  8
P-0000
  6
Continuous
 62
     7
100
AcDbLine
 10
365.3429410629707
 20
608.2111401363472
 30
0.0
 11
366.9609750517206
 21
608.2111401363472
 31
0.0
1001
ACME_LAYERS
1000
1
  0
LINE
  5
1C35
330
1F
100
AcDbEntity
  8
P-0000
  6
Continuous
 62
     7
100
AcDbLine
 10
401.7438080086692
 20
676.7111401363471
 30
0.0
 11
401.7438080086699
 21
692.7111401363472
 31
0.0
1001
ACME_LAYERS
1000
1
  0
LINE
  5
1C36
330
1F
100
AcDbEntity
  8
P-0000
  6
Continuous
 62
     7
100
AcDbLine
 10
403.2438080086692
 20
676.4620510778899
 30
0.0
 11
403.2438080086699
 21
692.7111401363472
 31
0.0
1001
ACME_LAYERS
1000
1
  0
LINE
  5
1C37
330
1F
100
AcDbEntity
  8
P-0000
  6
Continuous
 62
     7
100
AcDbLine
 10
403.2438080086699
 20
692.7111401363472
 30
0.0
 11
401.74380800867
 21
692.7111401363472
 31
0.0
1001
ACME_LAYERS
1000
1
  0
LINE
  5
1C38
330
1F
100
AcDbEntity
  8
P-0000
  6
Continuous
 62
     7
100
AcDbLine
 10
401.74380800867
 20
662.7111401363472
 30
0.0
 11
401.7438080086686
 21
662.7111401363472
 31
0.0
1001
ACME_LAYERS
1000
1
  0
LINE
  5
1C39
330
1F
100
AcDbEntity
  8
0
100
AcDbLine
 10
253.4438080086701
 20
692.7111401363472
 30
0.0
 11
254.9438080086701
 21
692.7111401363472
 31
0.0
  0
LINE
  5
1C3A
102
{ACAD_REACTORS
330
1C55
102
}
330
1F
100
AcDbEntity
  8
AM_7
100
AcDbLine
 10
328.3438080086701
 20
603.7111401363472
 30
0.0
 11
328.3438080086694
 21
695.7111401363472
 31
0.0
1001
GENIUS_GENOBJ-N-CEN_13
1002
{
1000
OWNER
1000
GEN
1002
}
1001
GENIUS_GENODEF_13
1002
{
1000
HIER
1070
     0
1002
}
1002
{
1000
MANEDIT
1070
     0
1002
}
1002
{
1000
NOSEL
1070
     0
1002
}
1002
{
1000
BEHIND
1070
     0
1002
}
1002
{
1000
OTHER
1070
     0
1002
}
1002
{
1000
REACTOR
1002
}
1001
GENIUS_GENCEN_19
1002
{
1040
3.0
1002
}
  0
ARC
  5
1C3B
330
1F
100
AcDbEntity
  8
P-0000
  6
Continuous
 62
     7
100
AcDbCircle
 10
572.0251723480396
 20
618.6856598962775
 30
0.0
 40
179.8963573793758
100
AcDbArc
 50
161.1828218506024
 51
181.6966950022529
1001
ACME_LAYERS
1000
1
  0
ARC
  5
1C3C
330
1F
100
AcDbEntity
  8
P-0000
  6
Continuous
 62
     7
100
AcDbCircle
 10
387.2098791346261
 20
613.2111401363472
 30
0.0
 40
5.0
100
AcDbArc
 50
270.0
 51
1.696695002252955
1001
ACME_LAYERS
1000
1
1001
GENIUS_GENOBJ-N-FIL_13
1002
{
1000
OWNER
1000
GEN
1002
}
1001
GENIUS_GENODEF_13
1002
{
1000
HIER
1070
     0
1002
}
1002
{
1000
MANEDIT
1070
     0
1002
}
1002
{
1000
NOSEL
1070
     0
1002
}
1002
{
1000
BEHIND
1070
     0
1002
}
1002
{
1000
OTHER
1070
     0
1002
}
1002
{
1000
REACTOR
1002
}
  0
ARC
  5
1C3D
330
1F
100
AcDbEntity
  8
P-0000
  6
Continuous
 62
     7
100
AcDbCircle
 10
572.0251723480396
 20
618.6856598962775
 30
0.0
 40
178.3963573793757
100
AcDbArc
 50
161.1031558266759
 51
181.6966950022529
1001
ACME_LAYERS
1000
1
  0
ARC
  5
1C3E
330
1F
100
AcDbEntity
  8
P-0000
  6
Continuous
 62
     7
100
AcDbCircle
 10
387.2098791346261
 20
613.2111401363472
 30
0.0
 40
6.5
100
AcDbArc
 50
270.0
 51
1.696695002252955
1001
ACME_LAYERS
1000
1
1001
GENIUS_GENODEF_13
1002
{
1000
HIER
1070
     0
1002
}
1002
{
1000
MANEDIT
1070
     0
1002
}
1002
{
1000
NOSEL
1070
     0
1002
}
1002
{
1000
BEHIND
1070
     0
1002
}
1002
{
1000
OTHER
1070
     0
1002
}
1002
{
1000
REACTOR
1002
}
1001
GENIUS_GENOBJ-N-FIL_13
1002
{
1000
OWNER
1000
GEN
1002
}
  0
HATCH
  5
1C3F
330
1F
100
AcDbEntity
  8
AM_8
100
AcDbHatch
 10
0.0
 20
0.0
 30
0.0
210
0.0
220
0.0
230
1.0
  2
_USER
 70
     0
 71
     0
 91
        2
 92
        1
 93
        5
 72
     1
 10
401.7438080086692
 20
676.7111401363471
 11
403.1803954898219
 21
676.2764721316389
 72
     2
 10
572.0251723480394
 20
618.6856598962775
 40
178.3963573793757
 50
198.8338580000497
 51
198.8968441733249
 73
     0
 72
     1
 10
403.2438080086692
 20
676.4620510778899
 11
403.2438080086699
 21
692.7111401363472
 72
     1
 10
403.2438080086699
 20
692.7111401363472
 11
401.7438080086699
 21
692.7111401363472
 72
     1
 10
401.7438080086699
 20
692.7111401363472
 11
401.7438080086692
 21
676.7111401363471
 97
        0
 92
        1
 93
        8
 72
     1
 10
387.2098791346261
 20
606.7111401363472
 11
387.2098791346261
 21
608.2111401363472
 72
     1
 10
387.2098791346261
 20
608.2111401363472
 11
265.4438080086701
 21
608.2111401363472
 72
     2
 10
265.4438080086701
 20
618.7111401363472
 40
10.49999999999996
 50
89.99999999999984
 51
180.0000000000003
 73
     0
 72
     1
 10
254.9438080086701
 20
618.7111401363472
 11
254.9438080086701
 21
692.7111401363472
 72
     1
 10
254.9438080086701
 20
692.7111401363472
 11
253.4438080086701
 21
692.7111401363472
 72
     1
 10
253.4438080086701
 20
692.7111401363472
 11
253.4438080086701
 21
618.7111401363472
 72
     2
 10
265.4438080086701
 20
618.7111401363473
 40
11.99999999999999
 50
180.0000000000002
 51
270.0
 73
     1
 72
     1
 10
265.4438080086701
 20
606.7111401363473
 11
387.2098791346261
 21
606.7111401363472
 97
        0
 75
     0
 76
     0
 52
45.0
 41
4.0
 77
     0
 78
     1
 53
45.0
 43
82.52736284549701
 44
132.5291106250897
 45
-2.828427124746189
 46
2.82842712474619
 79
     0
 98
        1
 10
82.52736284549701
 20
132.5291106250897
1001
GENIUS_GENOBJ-N-HTC_13
1002
{
1000
OWNER
1000
GEN
1002
}
1001
GENIUS_GENODEF_13
1002
{
1000
HIER
1070
     0
1002
}
1002
{
1000
MANEDIT
1070
     0
1002
}
1002
{
1000
NOSEL
1070
     0
1002
}
1002
{
1000
BEHIND
1070
     0
1002
}
1002
{
1000
OTHER
1070
     0
1002
}
1002
{
1000
REACTOR
1002
}
1001
GENIUS_GENHATCH_13
1002
{
1000
DATA
1040
45.0
1042
2.5
1000
_U
1070
     0
1011
402.2420889428392
1021
681.1662949114738
1031
0.0
1002
}
1002
{
1000
UCS
1010
0.0
1020
0.0
1030
0.0
1010
1.0
1020
0.0
1030
0.0
1010
0.0
1020
1.0
1030
0.0
1002
}
1001
ACAD
1010
0.0
1020
0.0
1030
0.0
  0
LINE
  5
1C40
330
1F
100
AcDbEntity
  8
0
100
AcDbLine
 10
385.4098791346262
 20
606.7111401363472
 30
0.0
 11
385.3706137121643
 21
605.2116541488837
 31
0.0
  0
LINE
  5
1C42
330
1F
100
AcDbEntity
  8
0
100
AcDbLine
 10
403.2438080086692
 20
677.7686519366782
 30
0.0
 11
834.3009799970301
 21
666.4810226391677
 31
0.0
  0
LINE
  5
1C43
330
1F
100
AcDbEntity
  8
0
100
AcDbLine
 10
403.2045425862075
 20
676.2691659492149
 30
0.0
 11
834.0643034992215
 21
664.9867060426332
 31
0.0
  0
LINE
  5
1C44
330
1F
100
AcDbEntity
  8
0
100
AcDbLine
 10
385.3706137121644
 20
605.211654148884
 30
0.0
 11
832.3900627705302
 21
593.5060379159445
 31
0.0
  0
LINE
  5
1C45
330
1F
100
AcDbEntity
  8
0
100
AcDbLine
 10
385.4098791346262
 20
606.7111401363472
 30
0.0
 11
832.2319171176456
 21
595.0106932943437
 31
0.0
  0
LINE
  5
1C47
102
{ACAD_REACTORS
330
1CA8
330
2D5F
102
}
330
1F
100
AcDbEntity
  8
AM_7
100
AcDbLine
 10
383.3271003504767
 20
641.7776773554147
 30
0.0
 11
843.7118198749551
 21
629.7220791982886
 31
0.0
1001
GENIUS_GENODEF_13
1002
{
1000
HIER
1070
     0
1002
}
1002
{
1000
MANEDIT
1070
     0
1002
}
1002
{
1000
NOSEL
1070
     0
1002
}
1002
{
1000
BEHIND
1070
     0
1002
}
1002
{
1000
OTHER
1070
     0
1002
}
1002
{
1000
REACTOR
1002
}
1001
GENIUS_GENOBJ-N-CEN_13
1002
{
1000
OWNER
1000
GEN
1002
}
1001
GENIUS_GENCEN_19
1002
{
1040
3.0
1002
}
  0
LINE
  5
1C48
330
1F
100
AcDbEntity
  8
0
100
AcDbLine
 10
401.7438080086693
 20
676.7111401363473
 30
0.0
 11
403.2045425862075
 21
676.2691659492149
 31
0.0
  0
LINE
  5
1C49
330
1F
100
AcDbEntity
  8
0
100
AcDbLine
 10
387.2098791346261
 20
608.2111401363472
 30
0.0
 11
387.2098791346261
 21
606.7111401363472
 31
0.0
  0
LINE
  5
1C4C
102
{ACAD_REACTORS
330
2C24
102
}
330
1F
100
AcDbEntity
  8
0
100
AcDbLine
 10
508.3438080086693
 20
257.7480453744923
 30
0.0
 11
833.3528193544729
 21
257.7498618884645
 31
0.0
  0
LINE
  5
1C4D
330
1F
100
AcDbEntity
  8
0
100
AcDbLine
 10
508.3438080086692
 20
330.7480453744924
 30
0.0
 11
833.3456729927025
 21
330.7480460002789
 31
0.0
  0
LINE
  5
1C4F
330
1F
100
AcDbEntity
  8
AM_7
100
AcDbLine
 10
159.3438080086694
 20
294.2480453744926
 30
0.0
 11
841.3804043596728
 21
294.248045374493
 31
0.0
1001
GENIUS_GENOBJ-N-CEN_13
1002
{
1000
OWNER
1000
GEN
1002
}
1001
GENIUS_GENODEF_13
1002
{
1000
HIER
1070
     0
1002
}
1002
{
1000
MANEDIT
1070
     0
1002
}
1002
{
1000
NOSEL
1070
     0
1002
}
1002
{
1000
BEHIND
1070
     0
1002
}
1002
{
1000
OTHER
1070
     0
1002
}
1002
{
1000
REACTOR
1002
}
1001
GENIUS_GENCEN_19
1002
{
1040
3.0
1002
}
  0
DIMENSION
  5
1C53
102
{ACAD_XDICTIONARY
360
1C54
102
}
102
{ACAD_REACTORS
330
1C55
102
}
330
1F
100
AcDbEntity
  8
AM_5
100
AcDbDimension
  2
*D16
 10
838.3438080086696
 20
564.4756175802574
 30
0.0
 11
583.3438080086698
 21
571.2256175802574
 31
0.0
 70
    32
 71
     5
 42
509.9999999999995
  3
AM_ISO$0
100
AcDbAlignedDimension
 13
328.3438080086701
 23
603.7111401363472
 33
0.0
 14
838.3438080086696
 24
629.8626455360016
 34
0.0
100
AcDbRotatedDimension
1001
ACAD
1000
DSTYLE
1002
{
1070
   140
1040
10.5
1070
   271
1070
     0
1002
}
  0
LINE
  5
1C56
330
1F
100
AcDbEntity
  8
0
100
AcDbLine
 10
440.5938080086695
 20
696.7111401363471
 30
0.0
 11
440.5938080086695
 21
700.7111401363472
 31
0.0
  0
LINE
  5
1C57
330
1F
100
AcDbEntity
  8
AM_5
100
AcDbLine
 10
441.3938080086694
 20
696.7111401363471
 30
0.0
 11
441.3938080086693
 21
700.711140136347
 31
0.0
  0
LINE
  5
1C58
330
1F
100
AcDbEntity
  8
0
100
AcDbLine
 10
441.3938080086694
 20
721.7111401363471
 30
0.0
 11
447.7938080086695
 21
721.7111401363471
 31
0.0
  0
LINE
  5
1C59
330
1F
100
AcDbEntity
  8
0
100
AcDbLine
 10
440.5938080086695
 20
720.9111401363472
 30
0.0
 11
448.5938080086695
 21
720.9111401363472
 31
0.0
  0
LINE
  5
1C5A
330
1F
100
AcDbEntity
  8
0
100
AcDbLine
 10
448.5938080086695
 20
720.9111401363473
 30
0.0
 11
448.5938080086695
 21
709.1111402566932
 31
0.0
  0
LINE
  5
1C5B
330
1F
100
AcDbEntity
  8
AM_5
100
AcDbLine
 10
447.7938080086695
 20
721.7111401363471
 30
0.0
 11
447.7938080086695
 21
709.1111402566932
 31
0.0
  0
LINE
  5
1C5C
330
1F
100
AcDbEntity
  8
0
100
AcDbLine
 10
440.5938080086695
 20
720.9111401363472
 30
0.0
 11
441.3938080086694
 21
721.7111401363471
 31
0.0
  0
LINE
  5
1C5D
330
1F
100
AcDbEntity
  8
0
100
AcDbLine
 10
447.7938080086695
 20
721.7111401363471
 30
0.0
 11
448.5938080086695
 21
720.9111401363472
 31
0.0
  0
LINE
  5
1C5E
102
{ACAD_REACTORS
330
1C9F
102
}
330
1F
100
AcDbEntity
  8
AM_7
100
AcDbLine
 10
444.5938080086695
 20
724.7111401363471
 30
0.0
 11
444.5938080086693
 21
693.7111401363471
 31
0.0
1001
GENIUS_GENOBJ-N-CEN_13
1002
{
1000
OWNER
1000
GEN
1002
}
1001
GENIUS_GENODEF_13
1002
{
1000
HIER
1070
     0
1002
}
1002
{
1000
MANEDIT
1070
     0
1002
}
1002
{
1000
NOSEL
1070
     0
1002
}
1002
{
1000
BEHIND
1070
     0
1002
}
1002
{
1000
OTHER
1070
     0
1002
}
1002
{
1000
REACTOR
1002
}
1001
GENIUS_GENCEN_19
1002
{
1040
3.0
1002
}
  0
LINE
  5
1C5F
330
1F
100
AcDbEntity
  8
0
100
AcDbLine
 10
208.0938080086695
 20
696.7111401363471
 30
0.0
 11
208.0938080086695
 21
700.7111401363472
 31
0.0
  0
LINE
  5
1C60
330
1F
100
AcDbEntity
  8
AM_5
100
AcDbLine
 10
208.8938080086694
 20
696.7111401363471
 30
0.0
 11
208.8938080086694
 21
700.711140136347
 31
0.0
  0
LINE
  5
1C61
330
1F
100
AcDbEntity
  8
0
100
AcDbLine
 10
208.8938080086694
 20
721.7111401363471
 30
0.0
 11
215.2938080086695
 21
721.7111401363471
 31
0.0
  0
LINE
  5
1C62
330
1F
100
AcDbEntity
  8
0
100
AcDbLine
 10
208.0938080086695
 20
720.9111401363472
 30
0.0
 11
216.0938080086695
 21
720.9111401363472
 31
0.0
  0
LINE
  5
1C63
330
1F
100
AcDbEntity
  8
0
100
AcDbLine
 10
216.0938080086695
 20
720.9111401363473
 30
0.0
 11
216.0938080086695
 21
709.1111402566932
 31
0.0
  0
LINE
  5
1C64
330
1F
100
AcDbEntity
  8
AM_5
100
AcDbLine
 10
215.2938080086695
 20
721.7111401363471
 30
0.0
 11
215.2938080086695
 21
709.1111402566932
 31
0.0
  0
LINE
  5
1C65
330
1F
100
AcDbEntity
  8
0
100
AcDbLine
 10
208.0938080086695
 20
720.9111401363472
 30
0.0
 11
208.8938080086694
 21
721.7111401363471
 31
0.0
  0
LINE
  5
1C66
330
1F
100
AcDbEntity
  8
0
100
AcDbLine
 10
215.2938080086695
 20
721.7111401363471
 30
0.0
 11
216.0938080086695
 21
720.9111401363472
 31
0.0
  0
LINE
  5
1C67
102
{ACAD_REACTORS
330
1C9F
102
}
330
1F
100
AcDbEntity
  8
AM_7
100
AcDbLine
 10
212.0938080086695
 20
724.7111401363471
 30
0.0
 11
212.0938080086694
 21
693.7111401363471
 31
0.0
1001
GENIUS_GENOBJ-N-CEN_13
1002
{
1000
OWNER
1000
GEN
1002
}
1001
GENIUS_GENODEF_13
1002
{
1000
HIER
1070
     0
1002
}
1002
{
1000
MANEDIT
1070
     0
1002
}
1002
{
1000
NOSEL
1070
     0
1002
}
1002
{
1000
BEHIND
1070
     0
1002
}
1002
{
1000
OTHER
1070
     0
1002
}
1002
{
1000
REACTOR
1002
}
1001
GENIUS_GENCEN_19
1002
{
1040
3.0
1002
}
  0
CIRCLE
  5
1C68
330
1F
100
AcDbEntity
  8
AM_CL
  6
HIDDEN
100
AcDbCircle
 10
328.3438080086696
 20
294.2480453744927
 30
0.0
 40
116.25
  0
LINE
  5
1C69
330
1F
100
AcDbEntity
  8
0
  6
HIDDEN
 62
     1
100
AcDbLine
 10
328.3438078454971
 20
294.2480452996322
 30
0.0
 11
413.3733982831794
 21
209.2184548619499
 31
0.0
  0
INSERT
  5
1C6B
330
1F
100
AcDbEntity
  8
AM_0
100
AcDbBlockReference
  2
*U38
 10
0.0
 20
0.0
 30
0.0
  0
LINE
  5
1C6C
330
1F
100
AcDbEntity
  8
0
  6
HIDDEN
 62
     1
100
AcDbLine
 10
328.343807695776
 20
294.2480454493532
 30
0.0
 11
243.3142175043168
 21
379.2776361332587
 31
0.0
  0
LINE
  5
1C6D
330
1F
100
AcDbEntity
  8
0
  6
HIDDEN
 62
     1
100
AcDbLine
 10
328.3438075460551
 20
294.2480452996322
 30
0.0
 11
243.3142171083728
 21
209.2184548619498
 31
0.0
  0
LINE
  5
1C6E
330
1F
100
AcDbEntity
  8
0
  6
HIDDEN
 62
     1
100
AcDbLine
 10
328.343807695776
 20
294.2480454493532
 30
0.0
 11
413.3733978872352
 21
379.2776361332588
 31
0.0
  0
LINE
  5
1C75
330
1F
100
AcDbEntity
  8
0
100
AcDbLine
 10
406.5449704577862
 20
709.1111402566932
 30
0.0
 11
406.5449704577862
 21
720.9111401363473
 31
0.0
  0
LINE
  5
1C76
330
1F
100
AcDbEntity
  8
AM_5
100
AcDbLine
 10
407.3449704577862
 20
709.1111402566932
 30
0.0
 11
407.3449704577862
 21
721.7111401363471
 31
0.0
  0
LINE
  5
1C77
330
1F
100
AcDbEntity
  8
0
100
AcDbLine
 10
407.3449704577862
 20
721.7111401363471
 30
0.0
 11
413.7449704577863
 21
721.7111401363471
 31
0.0
  0
LINE
  5
1C78
330
1F
100
AcDbEntity
  8
0
100
AcDbLine
 10
406.5449704577862
 20
720.9111401363472
 30
0.0
 11
414.5449704577862
 21
720.9111401363472
 31
0.0
  0
LINE
  5
1C79
330
1F
100
AcDbEntity
  8
0
100
AcDbLine
 10
414.5449704577862
 20
720.9111401363473
 30
0.0
 11
414.5449704577862
 21
709.1111402566932
 31
0.0
  0
LINE
  5
1C7A
330
1F
100
AcDbEntity
  8
AM_5
100
AcDbLine
 10
413.7449704577863
 20
721.7111401363471
 30
0.0
 11
413.7449704577863
 21
709.1111402566932
 31
0.0
  0
LINE
  5
1C7B
330
1F
100
AcDbEntity
  8
0
100
AcDbLine
 10
406.5449704577862
 20
720.9111401363472
 30
0.0
 11
407.3449704577862
 21
721.7111401363471
 31
0.0
  0
LINE
  5
1C7C
330
1F
100
AcDbEntity
  8
0
100
AcDbLine
 10
413.7449704577863
 20
721.7111401363471
 30
0.0
 11
414.5449704577862
 21
720.9111401363472
 31
0.0
  0
LINE
  5
1C7D
330
1F
100
AcDbEntity
  8
AM_7
100
AcDbLine
 10
410.5449704577862
 20
724.7111401363471
 30
0.0
 11
410.5449704577861
 21
693.7111401363471
 31
0.0
1001
GENIUS_GENOBJ-N-CEN_13
1002
{
1000
OWNER
1000
GEN
1002
}
1001
GENIUS_GENODEF_13
1002
{
1000
HIER
1070
     0
1002
}
1002
{
1000
MANEDIT
1070
     0
1002
}
1002
{
1000
NOSEL
1070
     0
1002
}
1002
{
1000
BEHIND
1070
     0
1002
}
1002
{
1000
OTHER
1070
     0
1002
}
1002
{
1000
REACTOR
1002
}
1001
GENIUS_GENCEN_19
1002
{
1040
3.0
1002
}
  0
LINE
  5
1C7E
330
1F
100
AcDbEntity
  8
0
100
AcDbLine
 10
324.3438080086695
 20
709.1111402566932
 30
0.0
 11
324.3438080086695
 21
720.9111401363473
 31
0.0
  0
LINE
  5
1C7F
330
1F
100
AcDbEntity
  8
AM_5
100
AcDbLine
 10
325.1438080086694
 20
709.1111402566932
 30
0.0
 11
325.1438080086694
 21
721.7111401363471
 31
0.0
  0
LINE
  5
1C80
330
1F
100
AcDbEntity
  8
0
100
AcDbLine
 10
325.1438080086694
 20
721.7111401363471
 30
0.0
 11
331.5438080086695
 21
721.7111401363471
 31
0.0
  0
LINE
  5
1C81
330
1F
100
AcDbEntity
  8
0
100
AcDbLine
 10
324.3438080086695
 20
720.9111401363472
 30
0.0
 11
332.3438080086695
 21
720.9111401363472
 31
0.0
  0
LINE
  5
1C82
330
1F
100
AcDbEntity
  8
0
100
AcDbLine
 10
332.3438080086695
 20
720.9111401363473
 30
0.0
 11
332.3438080086695
 21
709.1111402566932
 31
0.0
  0
LINE
  5
1C83
330
1F
100
AcDbEntity
  8
AM_5
100
AcDbLine
 10
331.5438080086695
 20
721.7111401363471
 30
0.0
 11
331.5438080086695
 21
709.1111402566932
 31
0.0
  0
LINE
  5
1C84
330
1F
100
AcDbEntity
  8
0
100
AcDbLine
 10
324.3438080086695
 20
720.9111401363472
 30
0.0
 11
325.1438080086694
 21
721.7111401363471
 31
0.0
  0
LINE
  5
1C85
330
1F
100
AcDbEntity
  8
0
100
AcDbLine
 10
331.5438080086695
 20
721.7111401363471
 30
0.0
 11
332.3438080086695
 21
720.9111401363472
 31
0.0
  0
LINE
  5
1C86
330
1F
100
AcDbEntity
  8
AM_7
100
AcDbLine
 10
328.3438080086695
 20
724.7111401363471
 30
0.0
 11
328.3438080086694
 21
693.7111401363471
 31
0.0
1001
GENIUS_GENOBJ-N-CEN_13
1002
{
1000
OWNER
1000
GEN
1002
}
1001
GENIUS_GENODEF_13
1002
{
1000
HIER
1070
     0
1002
}
1002
{
1000
MANEDIT
1070
     0
1002
}
1002
{
1000
NOSEL
1070
     0
1002
}
1002
{
1000
BEHIND
1070
     0
1002
}
1002
{
1000
OTHER
1070
     0
1002
}
1002
{
1000
REACTOR
1002
}
1001
GENIUS_GENCEN_19
1002
{
1040
3.0
1002
}
  0
LINE
  5
1C87
330
1F
100
AcDbEntity
  8
0
100
AcDbLine
 10
242.1426446957334
 20
709.1111402566932
 30
0.0
 11
242.1426446957334
 21
720.9111401363473
 31
0.0
  0
LINE
  5
1C88
330
1F
100
AcDbEntity
  8
AM_5
100
AcDbLine
 10
242.9426446957334
 20
709.1111402566932
 30
0.0
 11
242.9426446957334
 21
721.7111401363471
 31
0.0
  0
LINE
  5
1C89
330
1F
100
AcDbEntity
  8
0
100
AcDbLine
 10
242.9426446957334
 20
721.7111401363471
 30
0.0
 11
249.3426446957335
 21
721.7111401363471
 31
0.0
  0
LINE
  5
1C8A
330
1F
100
AcDbEntity
  8
0
100
AcDbLine
 10
242.1426446957334
 20
720.9111401363472
 30
0.0
 11
250.1426446957335
 21
720.9111401363472
 31
0.0
  0
LINE
  5
1C8B
330
1F
100
AcDbEntity
  8
0
100
AcDbLine
 10
250.1426446957335
 20
720.9111401363473
 30
0.0
 11
250.1426446957335
 21
709.1111402566932
 31
0.0
  0
LINE
  5
1C8C
330
1F
100
AcDbEntity
  8
AM_5
100
AcDbLine
 10
249.3426446957335
 20
721.7111401363471
 30
0.0
 11
249.3426446957335
 21
709.1111402566932
 31
0.0
  0
LINE
  5
1C8D
330
1F
100
AcDbEntity
  8
0
100
AcDbLine
 10
242.1426446957334
 20
720.9111401363472
 30
0.0
 11
242.9426446957334
 21
721.7111401363471
 31
0.0
  0
LINE
  5
1C8E
330
1F
100
AcDbEntity
  8
0
100
AcDbLine
 10
249.3426446957335
 20
721.7111401363471
 30
0.0
 11
250.1426446957335
 21
720.9111401363472
 31
0.0
  0
LINE
  5
1C8F
330
1F
100
AcDbEntity
  8
AM_7
100
AcDbLine
 10
246.1426446957335
 20
724.7111401363471
 30
0.0
 11
246.1426446957333
 21
693.7111401363471
 31
0.0
1001
GENIUS_GENOBJ-N-CEN_13
1002
{
1000
OWNER
1000
GEN
1002
}
1001
GENIUS_GENODEF_13
1002
{
1000
HIER
1070
     0
1002
}
1002
{
1000
MANEDIT
1070
     0
1002
}
1002
{
1000
NOSEL
1070
     0
1002
}
1002
{
1000
BEHIND
1070
     0
1002
}
1002
{
1000
OTHER
1070
     0
1002
}
1002
{
1000
REACTOR
1002
}
1001
GENIUS_GENCEN_19
1002
{
1040
3.0
1002
}
  0
LINE
  5
1C90
330
1F
100
AcDbEntity
  8
0
100
AcDbLine
 10
489.9438080086692
 20
762.7111401363465
 30
0.0
 11
480.1438080086692
 21
762.7111401363465
 31
0.0
  0
LINE
  5
1C91
330
1F
100
AcDbEntity
  8
AM_5
100
AcDbLine
 10
489.9438080086692
 20
763.5111401363465
 30
0.0
 11
479.3438080086692
 21
763.5111401363466
 31
0.0
  0
LINE
  5
1C92
330
1F
100
AcDbEntity
  8
0
100
AcDbLine
 10
479.3438080086692
 20
763.5111401363466
 30
0.0
 11
479.3438080086693
 21
769.9111401363468
 31
0.0
  0
LINE
  5
1C93
330
1F
100
AcDbEntity
  8
0
100
AcDbLine
 10
480.1438080086692
 20
762.7111401363465
 30
0.0
 11
480.1438080086692
 21
770.7111401363468
 31
0.0
  0
LINE
  5
1C94
330
1F
100
AcDbEntity
  8
0
100
AcDbLine
 10
480.1438080086692
 20
770.7111401363468
 30
0.0
 11
489.9438080086692
 21
770.7111401363467
 31
0.0
  0
LINE
  5
1C95
330
1F
100
AcDbEntity
  8
AM_5
100
AcDbLine
 10
479.3438080086693
 20
769.9111401363468
 30
0.0
 11
489.9438080086692
 21
769.9111401363467
 31
0.0
  0
LINE
  5
1C96
330
1F
100
AcDbEntity
  8
0
100
AcDbLine
 10
480.1438080086692
 20
762.7111401363465
 30
0.0
 11
479.3438080086692
 21
763.5111401363466
 31
0.0
  0
LINE
  5
1C97
330
1F
100
AcDbEntity
  8
0
100
AcDbLine
 10
479.3438080086693
 20
769.9111401363468
 30
0.0
 11
480.1438080086692
 21
770.7111401363468
 31
0.0
  0
LINE
  5
1C98
102
{ACAD_REACTORS
330
1C9B
102
}
330
1F
100
AcDbEntity
  8
AM_7
100
AcDbLine
 10
476.3438080086692
 20
766.7111401363465
 30
0.0
 11
507.3438080086693
 21
766.7111401363464
 31
0.0
1001
GENIUS_GENOBJ-N-CEN_13
1002
{
1000
OWNER
1000
GEN
1002
}
1001
GENIUS_GENODEF_13
1002
{
1000
HIER
1070
     0
1002
}
1002
{
1000
MANEDIT
1070
     0
1002
}
1002
{
1000
NOSEL
1070
     0
1002
}
1002
{
1000
BEHIND
1070
     0
1002
}
1002
{
1000
OTHER
1070
     0
1002
}
1002
{
1000
REACTOR
1002
}
1001
GENIUS_GENCEN_19
1002
{
1040
3.0
1002
}
  0
DIMENSION
  5
1C99
102
{ACAD_XDICTIONARY
360
1C9A
102
}
102
{ACAD_REACTORS
330
1C9B
102
}
330
1F
100
AcDbEntity
  8
AM_5
100
AcDbDimension
  2
*D17
 10
473.5256031954063
 20
801.7111401363465
 30
0.0
 11
466.7756031954062
 21
784.2111401363466
 31
0.0
 70
    32
 71
     5
 42
34.99999999999989
  3
AM_ISO$0
100
AcDbAlignedDimension
 13
476.3438080086692
 23
766.7111401363465
 33
0.0
 14
504.3438080086694
 24
801.7111401363465
 34
0.0
 50
90.0
100
AcDbRotatedDimension
1001
ACAD
1000
DSTYLE
1002
{
1070
   140
1040
10.5
1002
}
  0
DIMENSION
  5
1C9D
102
{ACAD_XDICTIONARY
360
1C9E
102
}
102
{ACAD_REACTORS
330
1C9F
102
}
330
1F
100
AcDbEntity
  8
AM_5
100
AcDbDimension
  2
*D18
 10
444.5938080086695
 20
736.9675111505926
 30
0.0
 11
328.3438080086695
 21
743.7185446151595
 31
0.0
 70
    32
  1
%%c<>
 71
     5
 42
232.5
  3
AM_ISO$0
100
AcDbAlignedDimension
 13
212.0938080086695
 23
724.7111401363471
 33
0.0
 14
444.5938080086695
 24
724.7111401363471
 34
0.0
100
AcDbRotatedDimension
1001
ACAD
1000
DSTYLE
1002
{
1070
   140
1040
10.5
1002
}
  0
DIMENSION
  5
1CA6
102
{ACAD_XDICTIONARY
360
1CA7
102
}
102
{ACAD_REACTORS
330
1CA8
102
}
330
1F
100
AcDbEntity
  8
AM_5
100
AcDbDimension
  2
*D21
 10
574.5574311249661
 20
641.7776773554147
 30
0.0
 11
876.8559698120661
 21
621.1113972220687
 31
0.0
 70
   162
 71
     5
 42
0.0261799387799284
  3
AM_ISO$2
100
AcDb2LineAngularDimension
 13
383.3271003504767
 23
641.7776773554147
 33
0.0
 14
843.7118198749551
 24
629.7220791982886
 34
0.0
 15
383.3271003504767
 25
641.7776773554147
 35
0.0
 16
877.2696669512342
 26
637.4671058804594
 36
0.0
1001
ACAD
1000
DSTYLE
1002
{
1070
   140
1040
10.5
1070
   179
1070
     1
1002
}
  0
LINE
  5
1CB2
330
1F
100
AcDbEntity
  8
0
100
AcDbLine
 10
489.9438082350936
 20
406.4980453745131
 30
0.0
 11
480.1438080086692
 21
406.4980453745131
 31
0.0
  0
LINE
  5
1CB3
330
1F
100
AcDbEntity
  8
AM_5
100
AcDbLine
 10
489.9438082350936
 20
407.2980453745131
 30
0.0
 11
479.3438080086693
 21
407.2980453745132
 31
0.0
  0
LINE
  5
1CB4
330
1F
100
AcDbEntity
  8
0
100
AcDbLine
 10
479.3438080086693
 20
407.2980453745132
 30
0.0
 11
479.3438080086694
 21
413.6980453745134
 31
0.0
  0
LINE
  5
1CB5
330
1F
100
AcDbEntity
  8
0
100
AcDbLine
 10
480.1438080086692
 20
406.4980453745131
 30
0.0
 11
480.1438080086693
 21
414.4980453745133
 31
0.0
  0
LINE
  5
1CB6
330
1F
100
AcDbEntity
  8
0
100
AcDbLine
 10
480.1438080086693
 20
414.4980453745133
 30
0.0
 11
489.9438082350936
 21
414.4980453745133
 31
0.0
  0
LINE
  5
1CB7
330
1F
100
AcDbEntity
  8
AM_5
100
AcDbLine
 10
479.3438080086694
 20
413.6980453745134
 30
0.0
 11
489.9438082350936
 21
413.6980453745133
 31
0.0
  0
LINE
  5
1CB8
330
1F
100
AcDbEntity
  8
0
100
AcDbLine
 10
480.1438080086692
 20
406.4980453745131
 30
0.0
 11
479.3438080086693
 21
407.2980453745132
 31
0.0
  0
LINE
  5
1CB9
330
1F
100
AcDbEntity
  8
0
100
AcDbLine
 10
479.3438080086694
 20
413.6980453745134
 30
0.0
 11
480.1438080086693
 21
414.4980453745133
 31
0.0
  0
LINE
  5
1CBA
330
1F
100
AcDbEntity
  8
AM_7
100
AcDbLine
 10
476.3438080086693
 20
410.4980453745131
 30
0.0
 11
507.3438080086694
 21
410.498045374513
 31
0.0
1001
GENIUS_GENOBJ-N-CEN_13
1002
{
1000
OWNER
1000
GEN
1002
}
1001
GENIUS_GENODEF_13
1002
{
1000
HIER
1070
     0
1002
}
1002
{
1000
MANEDIT
1070
     0
1002
}
1002
{
1000
NOSEL
1070
     0
1002
}
1002
{
1000
BEHIND
1070
     0
1002
}
1002
{
1000
OTHER
1070
     0
1002
}
1002
{
1000
REACTOR
1002
}
1001
GENIUS_GENCEN_19
1002
{
1040
3.0
1002
}
  0
LINE
  5
1CBB
330
1F
100
AcDbEntity
  8
0
100
AcDbLine
 10
489.9438082350935
 20
173.9980453745131
 30
0.0
 11
480.1438080086692
 21
173.9980453745131
 31
0.0
  0
LINE
  5
1CBC
330
1F
100
AcDbEntity
  8
AM_5
100
AcDbLine
 10
489.9438082350935
 20
174.7980453745131
 30
0.0
 11
479.3438080086693
 21
174.7980453745132
 31
0.0
  0
LINE
  5
1CBD
330
1F
100
AcDbEntity
  8
0
100
AcDbLine
 10
479.3438080086693
 20
174.7980453745132
 30
0.0
 11
479.3438080086694
 21
181.1980453745134
 31
0.0
  0
LINE
  5
1CBE
330
1F
100
AcDbEntity
  8
0
100
AcDbLine
 10
480.1438080086692
 20
173.9980453745131
 30
0.0
 11
480.1438080086693
 21
181.9980453745133
 31
0.0
  0
LINE
  5
1CBF
330
1F
100
AcDbEntity
  8
0
100
AcDbLine
 10
480.1438080086693
 20
181.9980453745133
 30
0.0
 11
489.9438082350935
 21
181.9980453745133
 31
0.0
  0
LINE
  5
1CC0
330
1F
100
AcDbEntity
  8
AM_5
100
AcDbLine
 10
479.3438080086694
 20
181.1980453745134
 30
0.0
 11
489.9438082350935
 21
181.1980453745133
 31
0.0
  0
LINE
  5
1CC1
330
1F
100
AcDbEntity
  8
0
100
AcDbLine
 10
480.1438080086692
 20
173.9980453745131
 30
0.0
 11
479.3438080086693
 21
174.7980453745132
 31
0.0
  0
LINE
  5
1CC2
330
1F
100
AcDbEntity
  8
0
100
AcDbLine
 10
479.3438080086694
 20
181.1980453745134
 30
0.0
 11
480.1438080086693
 21
181.9980453745133
 31
0.0
  0
LINE
  5
1CC3
330
1F
100
AcDbEntity
  8
AM_7
100
AcDbLine
 10
476.3438080086693
 20
177.9980453745131
 30
0.0
 11
507.3438080086694
 21
177.998045374513
 31
0.0
1001
GENIUS_GENOBJ-N-CEN_13
1002
{
1000
OWNER
1000
GEN
1002
}
1001
GENIUS_GENODEF_13
1002
{
1000
HIER
1070
     0
1002
}
1002
{
1000
MANEDIT
1070
     0
1002
}
1002
{
1000
NOSEL
1070
     0
1002
}
1002
{
1000
BEHIND
1070
     0
1002
}
1002
{
1000
OTHER
1070
     0
1002
}
1002
{
1000
REACTOR
1002
}
1001
GENIUS_GENCEN_19
1002
{
1040
3.0
1002
}
  0
POINT
  5
1CC5
330
1F
100
AcDbEntity
  8
0
 60
     1
100
AcDbPoint
 10
-961.3128538916075
 20
-701.3869290285546
 30
0.0
1001
GENIUS_GENOENT_13
1002
{
1000
MYREF
1005
1CC5
1002
}
1002
{
1000
GRP
1005
0
1002
}
1001
GENIUS_GENOBJ-N-CRS_13
1002
{
1000
OWNER
1000
GEN
1002
}
1001
GENIUS_GENOLIS_13
1002
{
1000
ENT
1005
1C1D
1005
0
1005
1C1C
1005
0
1002
}
1001
GENIUS_GENODEF_13
1002
{
1000
HIER
1070
    10
1002
}
1002
{
1000
MANEDIT
1070
     1
1002
}
1002
{
1000
NOSEL
1070
     0
1002
}
1002
{
1000
BEHIND
1070
     0
1002
}
1002
{
1000
OTHER
1070
     0
1002
}
1002
{
1000
REACTOR
1002
}
  0
SOLID
  5
1DFD
330
1F
100
AcDbEntity
  8
AM_0
100
AcDbTrace
 10
448.5938080086695
 20
696.7111401363471
 30
0.0
 11
450.5938080086695
 21
696.7111401363471
 31
0.0
 12
448.5938080086695
 22
698.711140136347
 32
0.0
 13
448.5938080086695
 23
698.711140136347
 33
0.0
1001
GENIUS_GEFWELD_13
1040
2.0
1070
     3
1001
GENIUS_GENOBJ-F-WELS_13
1002
{
1000
OWNER
1000
GEF
1002
}
1001
GENIUS_GENODEF_13
1002
{
1000
HIER
1070
     0
1002
}
1002
{
1000
MANEDIT
1070
     0
1002
}
1002
{
1000
NOSEL
1070
     0
1002
}
1002
{
1000
BEHIND
1070
     0
1002
}
1002
{
1000
OTHER
1070
     0
1002
}
1002
{
1000
REACTOR
1002
}
  0
SOLID
  5
1E03
330
1F
100
AcDbEntity
  8
AM_0
100
AcDbTrace
 10
440.5938080086695
 20
696.7111401363471
 30
0.0
 11
440.5938080086695
 21
698.711140136347
 31
0.0
 12
438.5938080086694
 22
696.7111401363471
 32
0.0
 13
438.5938080086694
 23
696.7111401363471
 33
0.0
1001
GENIUS_GEFWELD_13
1040
2.0
1070
     3
1001
GENIUS_GENOBJ-F-WELS_13
1002
{
1000
OWNER
1000
GEF
1002
}
1001
GENIUS_GENODEF_13
1002
{
1000
HIER
1070
     0
1002
}
1002
{
1000
MANEDIT
1070
     0
1002
}
1002
{
1000
NOSEL
1070
     0
1002
}
1002
{
1000
BEHIND
1070
     0
1002
}
1002
{
1000
OTHER
1070
     0
1002
}
1002
{
1000
REACTOR
1002
}
  0
SOLID
  5
1E2D
330
1F
100
AcDbEntity
  8
AM_0
100
AcDbTrace
 10
216.0938080086695
 20
696.7111401363471
 30
0.0
 11
218.0938080086695
 21
696.7111401363471
 31
0.0
 12
216.0938080086695
 22
698.711140136347
 32
0.0
 13
216.0938080086695
 23
698.711140136347
 33
0.0
1001
GENIUS_GEFWELD_13
1040
2.0
1070
     3
1001
GENIUS_GENODEF_13
1002
{
1000
HIER
1070
     0
1002
}
1002
{
1000
MANEDIT
1070
     0
1002
}
1002
{
1000
NOSEL
1070
     0
1002
}
1002
{
1000
BEHIND
1070
     0
1002
}
1002
{
1000
OTHER
1070
     0
1002
}
1002
{
1000
REACTOR
1002
}
1001
GENIUS_GENOBJ-F-WELS_13
1002
{
1000
OWNER
1000
GEF
1002
}
  0
SOLID
  5
1E33
330
1F
100
AcDbEntity
  8
AM_0
100
AcDbTrace
 10
208.0938080086695
 20
696.7111401363471
 30
0.0
 11
208.0938080086695
 21
698.711140136347
 31
0.0
 12
206.0938080086695
 22
696.7111401363471
 32
0.0
 13
206.0938080086695
 23
696.7111401363471
 33
0.0
1001
GENIUS_GEFWELD_13
1040
2.0
1070
     3
1001
GENIUS_GENOBJ-F-WELS_13
1002
{
1000
OWNER
1000
GEF
1002
}
1001
GENIUS_GENODEF_13
1002
{
1000
HIER
1070
     0
1002
}
1002
{
1000
MANEDIT
1070
     0
1002
}
1002
{
1000
NOSEL
1070
     0
1002
}
1002
{
1000
BEHIND
1070
     0
1002
}
1002
{
1000
OTHER
1070
     0
1002
}
1002
{
1000
REACTOR
1002
}
  0
SOLID
  5
1E52
330
1F
100
AcDbEntity
  8
AM_0
100
AcDbTrace
 10
253.4438080086701
 20
692.7111401363472
 30
0.0
 11
251.4438080086701
 21
692.7111401363472
 31
0.0
 12
253.4438080086701
 22
690.7111401363472
 32
0.0
 13
253.4438080086701
 23
690.7111401363472
 33
0.0
1001
GENIUS_GEFWELD_13
1040
2.0
1070
     3
1001
GENIUS_GENODEF_13
1002
{
1000
HIER
1070
     0
1002
}
1002
{
1000
MANEDIT
1070
     0
1002
}
1002
{
1000
NOSEL
1070
     0
1002
}
1002
{
1000
BEHIND
1070
     0
1002
}
1002
{
1000
OTHER
1070
     0
1002
}
1002
{
1000
REACTOR
1002
}
1001
GENIUS_GENOBJ-F-WELS_13
1002
{
1000
OWNER
1000
GEF
1002
}
  0
SOLID
  5
1E58
330
1F
100
AcDbEntity
  8
AM_0
100
AcDbTrace
 10
403.2438080086699
 20
692.7111401363472
 30
0.0
 11
403.2438080086699
 21
690.7111401363472
 31
0.0
 12
405.24380800867
 22
692.7111401363472
 32
0.0
 13
405.24380800867
 23
692.7111401363472
 33
0.0
1001
GENIUS_GEFWELD_13
1040
2.0
1070
     3
1001
GENIUS_GENOBJ-F-WELS_13
1002
{
1000
OWNER
1000
GEF
1002
}
1001
GENIUS_GENODEF_13
1002
{
1000
HIER
1070
     0
1002
}
1002
{
1000
MANEDIT
1070
     0
1002
}
1002
{
1000
NOSEL
1070
     0
1002
}
1002
{
1000
BEHIND
1070
     0
1002
}
1002
{
1000
OTHER
1070
     0
1002
}
1002
{
1000
REACTOR
1002
}
  0
SOLID
  5
1E5E
330
1F
100
AcDbEntity
  8
AM_0
100
AcDbTrace
 10
403.2438080086692
 20
677.7686519366782
 30
0.0
 11
405.2438080086693
 21
677.7686519366782
 31
0.0
 12
403.2438080086692
 22
679.7686519366782
 32
0.0
 13
403.2438080086692
 23
679.7686519366782
 33
0.0
1001
GENIUS_GEFWELD_13
1040
2.0
1070
     3
1001
GENIUS_GENOBJ-F-WELS_13
1002
{
1000
OWNER
1000
GEF
1002
}
1001
GENIUS_GENODEF_13
1002
{
1000
HIER
1070
     0
1002
}
1002
{
1000
MANEDIT
1070
     0
1002
}
1002
{
1000
NOSEL
1070
     0
1002
}
1002
{
1000
BEHIND
1070
     0
1002
}
1002
{
1000
OTHER
1070
     0
1002
}
1002
{
1000
REACTOR
1002
}
  0
INSERT
  5
2039
330
1F
100
AcDbEntity
  8
AM_5
 62
     2
370
    35
100
AcDbBlockReference
  2
*U22
 10
394.5941726522992
 20
626.5815894860829
 30
0.0
1001
GENIUS_GEFWELD_13
1040
2.0
1070
     0
1001
GENIUS_GENODEF_13
1002
{
1000
HIER
1070
     0
1002
}
1002
{
1000
MANEDIT
1070
     0
1002
}
1002
{
1000
NOSEL
1070
     0
1002
}
1002
{
1000
BEHIND
1070
     0
1002
}
1002
{
1000
OTHER
1070
     0
1002
}
1002
{
1000
REACTOR
1002
}
1001
GENIUS_GENOBJ-F-WELS_13
1002
{
1000
OWNER
1000
GEF
1002
}
  0
INSERT
  5
2062
330
1F
100
AcDbEntity
  8
AM_5
 62
     2
370
    35
100
AcDbBlockReference
  2
*U23
 10
391.9338997949653
 20
609.9050497512025
 30
0.0
1001
GENIUS_GEFWELD_13
1040
2.0
1070
     0
1001
GENIUS_GENOBJ-F-WELS_13
1002
{
1000
OWNER
1000
GEF
1002
}
1001
GENIUS_GENODEF_13
1002
{
1000
HIER
1070
     0
1002
}
1002
{
1000
MANEDIT
1070
     0
1002
}
1002
{
1000
NOSEL
1070
     0
1002
}
1002
{
1000
BEHIND
1070
     0
1002
}
1002
{
1000
OTHER
1070
     0
1002
}
1002
{
1000
REACTOR
1002
}
  0
LINE
  5
206B
330
1F
100
AcDbEntity
  8
0
100
AcDbLine
 10
508.3438080086693
 20
138.2480453744927
 30
0.0
 11
504.3438080086693
 21
138.2480453744927
 31
0.0
  0
LINE
  5
206C
330
1F
100
AcDbEntity
  8
0
100
AcDbLine
 10
504.3438080086693
 20
450.2480453744925
 30
0.0
 11
508.3438080086692
 21
450.2480453744925
 31
0.0
  0
LINE
  5
20C9
102
{ACAD_REACTORS
330
2D5F
102
}
330
1F
100
AcDbEntity
  8
0
100
AcDbLine
 10
839.2641961611111
 20
665.0108510329532
 30
0.0
 11
837.4234198562289
 21
594.714440039086
 31
0.0
  0
LINE
  5
20CA
330
1F
100
AcDbEntity
  8
0
100
AcDbLine
 10
834.3009799970301
 20
666.4810226391677
 30
0.0
 11
839.2641961611111
 21
665.0108510329532
 31
0.0
1001
GENIUS_GENFIL_13
1070
     1
1040
0.5
1040
0.5
1040
5.0
1040
15.0
1002
{
1002
}
1001
GENIUS_GENOBJ-N-CHA_13
1002
{
1000
OWNER
1000
GEN
1002
}
1001
GENIUS_GENODEF_13
1002
{
1000
HIER
1070
     0
1002
}
1002
{
1000
MANEDIT
1070
     0
1002
}
1002
{
1000
NOSEL
1070
     0
1002
}
1002
{
1000
BEHIND
1070
     0
1002
}
1002
{
1000
OTHER
1070
     0
1002
}
1002
{
1000
REACTOR
1002
}
  0
LINE
  5
20CB
330
1F
100
AcDbEntity
  8
0
100
AcDbLine
 10
834.0643034992217
 20
664.9867060426404
 30
0.0
 11
839.2235456045225
 21
663.4584689072737
 31
0.0
1001
GENIUS_GENFIL_13
1070
     1
1040
0.5
1040
0.5
1040
5.0
1040
15.0
1002
{
1002
}
1001
GENIUS_GENOBJ-N-CHA_13
1002
{
1000
OWNER
1000
GEN
1002
}
1001
GENIUS_GENODEF_13
1002
{
1000
HIER
1070
     0
1002
}
1002
{
1000
MANEDIT
1070
     0
1002
}
1002
{
1000
NOSEL
1070
     0
1002
}
1002
{
1000
BEHIND
1070
     0
1002
}
1002
{
1000
OTHER
1070
     0
1002
}
1002
{
1000
REACTOR
1002
}
  0
LINE
  5
20CC
330
1F
100
AcDbEntity
  8
0
100
AcDbLine
 10
832.390062770554
 20
593.5060379159502
 30
0.0
 11
837.4234198562289
 21
594.714440039086
 31
0.0
1001
GENIUS_GENFIL_13
1070
     1
1040
0.5
1040
0.5
1040
5.0
1040
15.0
1002
{
1002
}
1001
GENIUS_GENODEF_13
1002
{
1000
HIER
1070
     0
1002
}
1002
{
1000
MANEDIT
1070
     0
1002
}
1002
{
1000
NOSEL
1070
     0
1002
}
1002
{
1000
BEHIND
1070
     0
1002
}
1002
{
1000
OTHER
1070
     0
1002
}
1002
{
1000
REACTOR
1002
}
1001
GENIUS_GENOBJ-N-CHA_13
1002
{
1000
OWNER
1000
GEN
1002
}
  0
LINE
  5
20CD
330
1F
100
AcDbEntity
  8
0
100
AcDbLine
 10
832.2319171176696
 20
595.0106932943494
 30
0.0
 11
837.4640704128173
 21
596.2668221647654
 31
0.0
1001
GENIUS_GENFIL_13
1070
     1
1040
0.5
1040
0.5
1040
5.0
1040
15.0
1002
{
1002
}
1001
GENIUS_GENODEF_13
1002
{
1000
HIER
1070
     0
1002
}
1002
{
1000
MANEDIT
1070
     0
1002
}
1002
{
1000
NOSEL
1070
     0
1002
}
1002
{
1000
BEHIND
1070
     0
1002
}
1002
{
1000
OTHER
1070
     0
1002
}
1002
{
1000
REACTOR
1002
}
1001
GENIUS_GENOBJ-N-CHA_13
1002
{
1000
OWNER
1000
GEN
1002
}
  0
ELLIPSE
  5
20DF
330
1F
100
AcDbEntity
  8
0
100
AcDbEllipse
 10
838.0916527295651
 20
294.248046000279
 30
0.0
 11
-0.0000000000000083
 21
36.49999999999946
 31
0.0
210
0.0
220
0.0
230
1.0
 40
0.0261769483078991
 41
3.408663927584703
 42
6.016114033184667
  0
LINE
  5
20E1
102
{ACAD_REACTORS
330
2C24
102
}
330
1F
100
AcDbEntity
  8
0
100
AcDbLine
 10
838.3438055916052
 20
259.042046000279
 30
0.0
 11
833.345805591605
 21
257.748046000279
 31
0.0
  0
LINE
  5
2110
330
1F
100
AcDbEntity
  8
0
100
AcDbLine
 10
269.3438080086694
 20
692.7111401363472
 30
0.0
 11
269.3438080086694
 21
696.7111401363471
 31
0.0
  0
LINE
  5
2111
330
1F
100
AcDbEntity
  8
0
100
AcDbLine
 10
387.3438080086694
 20
692.7111401363474
 30
0.0
 11
387.3438080086694
 21
696.711140136347
 31
0.0
  0
HATCH
  5
211A
330
1F
100
AcDbEntity
  8
AM_8
100
AcDbHatch
 10
0.0
 20
0.0
 30
0.0
210
0.0
220
0.0
230
1.0
  2
_U
 70
     0
 71
     0
 91
        1
 92
        1
 93
        4
 72
     1
 10
269.3438080086694
 20
696.7111401363471
 11
162.3438080086694
 21
696.7111401363471
 72
     1
 10
162.3438080086694
 20
696.7111401363471
 11
162.3438080086694
 21
692.7111401363471
 72
     1
 10
162.3438080086694
 20
692.7111401363471
 11
269.3438080086694
 21
692.7111401363472
 72
     1
 10
269.3438080086694
 20
692.7111401363472
 11
269.3438080086694
 21
696.7111401363471
 97
        0
 75
     0
 76
     0
 52
135.0
 41
2.7
 77
     0
 78
     1
 53
135.0
 43
0.0
 44
0.0
 45
-1.909188309203678
 46
-1.909188309203678
 79
     0
 98
        1
 10
0.0
 20
0.0
1001
GENIUS_GENODEF_13
1002
{
1000
HIER
1070
     0
1002
}
1002
{
1000
MANEDIT
1070
     0
1002
}
1002
{
1000
NOSEL
1070
     0
1002
}
1002
{
1000
BEHIND
1070
     0
1002
}
1002
{
1000
OTHER
1070
     0
1002
}
1002
{
1000
REACTOR
1002
}
1001
GENIUS_GENOBJ-N-HTC_13
1002
{
1000
OWNER
1000
GEN
1002
}
1001
GENIUS_GENHATCH_13
1002
{
1000
DATA
1040
135.0
1042
2.7
1000
_U
1070
     0
1011
185.311652867043
1021
694.3518139101775
1031
0.0
1002
}
1002
{
1000
UCS
1010
0.0
1020
0.0
1030
0.0
1010
1.0
1020
0.0
1030
0.0
1010
0.0
1020
1.0
1030
0.0
1002
}
  0
HATCH
  5
212F
330
1F
100
AcDbEntity
  8
AM_8
100
AcDbHatch
 10
0.0
 20
0.0
 30
0.0
210
0.0
220
0.0
230
1.0
  2
_U
 70
     0
 71
     0
 91
        1
 92
        1
 93
        8
 72
     2
 10
498.343808008669
 20
702.7111401363474
 40
9.999999999999943
 50
360.0
 51
450.0000000000002
 73
     0
 72
     1
 10
498.3438080086689
 20
692.7111401363474
 11
387.3438080086694
 21
692.7111401363474
 72
     1
 10
387.3438080086694
 20
692.7111401363474
 11
387.3438080086694
 21
696.711140136347
 72
     1
 10
387.3438080086694
 20
696.711140136347
 11
498.3438080086693
 21
696.711140136347
 72
     2
 10
498.3438080086693
 20
702.711140136347
 40
6.0
 50
270.0
 51
360.0
 73
     1
 72
     1
 10
504.3438080086693
 20
702.711140136347
 11
504.3438080086693
 21
801.7111401363465
 72
     1
 10
504.3438080086693
 20
801.7111401363465
 11
508.3438080086693
 21
801.7111401363468
 72
     1
 10
508.3438080086693
 20
801.7111401363468
 11
508.343808008669
 21
702.7111401363474
 97
        0
 75
     0
 76
     0
 52
135.0
 41
2.7
 77
     0
 78
     1
 53
135.0
 43
0.0
 44
0.0
 45
-1.909188309203678
 46
-1.909188309203678
 79
     0
 98
        1
 10
0.0
 20
0.0
1001
GENIUS_GENOBJ-N-HTC_13
1002
{
1000
OWNER
1000
GEN
1002
}
1001
GENIUS_GENODEF_13
1002
{
1000
HIER
1070
     0
1002
}
1002
{
1000
MANEDIT
1070
     0
1002
}
1002
{
1000
NOSEL
1070
     0
1002
}
1002
{
1000
BEHIND
1070
     0
1002
}
1002
{
1000
OTHER
1070
     0
1002
}
1002
{
1000
REACTOR
1002
}
1001
GENIUS_GENHATCH_13
1002
{
1000
DATA
1040
135.0
1042
2.7
1000
_U
1070
     0
1011
479.7476708876615
1021
694.8563427488107
1031
0.0
1002
}
1002
{
1000
UCS
1010
0.0
1020
0.0
1030
0.0
1010
1.0
1020
0.0
1030
0.0
1010
0.0
1020
1.0
1030
0.0
1002
}
  0
LINE
  5
2341
330
1F
100
AcDbEntity
  8
P-0000
  6
Continuous
 62
     7
100
AcDbLine
 10
466.879025921705
 20
696.7111401363471
 30
0.0
 11
466.9957317973161
 21
696.7111401363471
 31
0.0
1001
ACME_LAYERS
1000
1
  0
LINE
  5
2342
330
1F
100
AcDbEntity
  8
P-0000
  6
Continuous
 62
     3
100
AcDbLine
 10
466.879025921705
 20
696.7111401363471
 30
0.0
 11
468.0675285670406
 21
696.7111401363471
 31
0.0
1001
ACME_LAYERS
1000
1
  0
LINE
  5
2343
330
1F
100
AcDbEntity
  8
P-0000
  6
Continuous
 62
     7
100
AcDbLine
 10
200.4222351334151
 20
698.711140136347
 30
0.0
 11
207.0938080086694
 21
698.711140136347
 31
0.0
1001
ACME_LAYERS
1000
1
  0
LINE
  5
2344
330
1F
100
AcDbEntity
  8
P-0000
  6
Continuous
 62
     7
100
AcDbLine
 10
207.0938080086694
 20
698.711140136347
 30
0.0
 11
208.0938080086695
 21
698.7111401363472
 31
0.0
1001
ACME_LAYERS
1000
1
  0
LINE
  5
2345
330
1F
100
AcDbEntity
  8
P-0000
  6
Continuous
 62
     7
100
AcDbLine
 10
217.0938080086694
 20
698.711140136347
 30
0.0
 11
223.7653808839232
 21
698.711140136347
 31
0.0
1001
ACME_LAYERS
1000
1
  0
LINE
  5
2346
330
1F
100
AcDbEntity
  8
P-0000
  6
Continuous
 62
     7
100
AcDbLine
 10
217.0938080086694
 20
700.7111401363471
 30
0.0
 11
223.7653808839232
 21
700.7111401363471
 31
0.0
1001
ACME_LAYERS
1000
1
  0
LINE
  5
2347
330
1F
100
AcDbEntity
  8
P-0000
  6
Continuous
 62
     7
100
AcDbLine
 10
200.422235133415
 20
700.7111401363471
 30
0.0
 11
207.0938080086694
 21
700.7111401363471
 31
0.0
1001
ACME_LAYERS
1000
1
  0
LINE
  5
2348
330
1F
100
AcDbEntity
  8
P-0000
  6
Continuous
 62
     7
100
AcDbLine
 10
207.0938080086694
 20
700.7111401363471
 30
0.0
 11
208.0938080086695
 21
700.7111401363472
 31
0.0
1001
ACME_LAYERS
1000
1
  0
LINE
  5
2349
330
1F
100
AcDbEntity
  8
P-0000
  6
Continuous
 62
     7
100
AcDbLine
 10
189.6918842200227
 20
696.7111401363471
 30
0.0
 11
195.9369537591764
 21
696.7111401363471
 31
0.0
1001
ACME_LAYERS
1000
1
  0
LINE
  5
234A
330
1F
100
AcDbEntity
  8
P-0000
  6
Continuous
 62
     7
100
AcDbLine
 10
189.6918842200227
 20
698.711140136347
 30
0.0
 11
195.9369537591764
 21
698.711140136347
 31
0.0
1001
ACME_LAYERS
1000
1
  0
LINE
  5
234B
330
1F
100
AcDbEntity
  8
P-0000
  6
Continuous
 62
     7
100
AcDbLine
 10
234.4957317973162
 20
696.7111401363471
 30
0.0
 11
228.2506622581617
 21
696.7111401363471
 31
0.0
1001
ACME_LAYERS
1000
1
  0
LINE
  5
234C
330
1F
100
AcDbEntity
  8
P-0000
  6
Continuous
 62
     7
100
AcDbLine
 10
234.4957317973162
 20
698.711140136347
 30
0.0
 11
228.2506622581617
 21
698.711140136347
 31
0.0
1001
ACME_LAYERS
1000
1
  0
LINE
  5
234D
330
1F
100
AcDbEntity
  8
P-0000
  6
Continuous
 62
     7
100
AcDbLine
 10
241.0938080086694
 20
702.2111401363471
 30
0.0
 11
238.495731797316
 21
700.7111401363471
 31
0.0
1001
ACME_LAYERS
1000
1
  0
LINE
  5
234E
330
1F
100
AcDbEntity
  8
P-0000
  6
Continuous
 62
     7
100
AcDbLine
 10
238.495731797316
 20
700.7111401363471
 30
0.0
 11
235.4957317973163
 21
698.9790893287782
 31
0.0
1001
ACME_LAYERS
1000
1
  0
LINE
  5
2350
330
1F
100
AcDbEntity
  8
P-0000
  6
Continuous
 62
     7
100
AcDbLine
 10
234.4957317973162
 20
696.7111401363471
 30
0.0
 11
235.5675285670407
 21
696.7111401363471
 31
0.0
1001
ACME_LAYERS
1000
1
  0
LINE
  5
2351
330
1F
100
AcDbEntity
  8
P-0000
  6
Continuous
 62
     7
100
AcDbLine
 10
242.0938080086694
 20
700.4790893287783
 30
0.0
 11
328.3438080086694
 21
700.4790893287783
 31
0.0
1001
ACME_LAYERS
1000
1
  0
LINE
  5
2352
330
1F
100
AcDbEntity
  8
P-0000
  6
Continuous
 62
     7
100
AcDbLine
 10
241.0938080086694
 20
702.2111401363471
 30
0.0
 11
328.3438080086694
 21
702.2111401363471
 31
0.0
1001
ACME_LAYERS
1000
1
  0
LINE
  5
2353
330
1F
100
AcDbEntity
  8
P-0000
  6
Continuous
 62
     7
100
AcDbLine
 10
183.0938080086694
 20
702.2111401363471
 30
0.0
 11
203.5938077822451
 21
702.2111401363471
 31
0.0
1001
ACME_LAYERS
1000
1
  0
LINE
  5
2354
330
1F
100
AcDbEntity
  8
P-0000
  6
Continuous
 62
     7
100
AcDbLine
 10
242.0938080086694
 20
700.4790893287783
 30
0.0
 11
236.4957317973162
 21
697.2470385212094
 31
0.0
1001
ACME_LAYERS
1000
1
  0
LINE
  5
2355
330
1F
100
AcDbEntity
  8
P-0000
  6
Continuous
 62
     7
100
AcDbLine
 10
225.1795944462963
 20
698.1253536987202
 30
0.0
 11
225.4222351334155
 21
697.882713011601
 31
0.0
1001
ACME_LAYERS
1000
1
  0
LINE
  5
2356
330
1F
100
AcDbEntity
  8
P-0000
  6
Continuous
 62
     7
100
AcDbLine
 10
223.7653808839232
 20
700.7111401363471
 30
0.0
 11
225.4222351334156
 21
700.7111401363471
 31
0.0
1001
ACME_LAYERS
1000
1
  0
LINE
  5
2357
330
1F
100
AcDbEntity
  8
P-0000
  6
Continuous
 62
     7
100
AcDbLine
 10
199.008021571042
 20
698.1253536987202
 30
0.0
 11
198.7653808839226
 21
697.882713011601
 31
0.0
1001
ACME_LAYERS
1000
1
  0
LINE
  5
2358
330
1F
100
AcDbEntity
  8
P-0000
  6
Continuous
 62
     7
100
AcDbLine
 10
195.9369537591764
 20
696.7111401363471
 30
0.0
 11
197.5938080086677
 21
696.7111401363471
 31
0.0
1001
ACME_LAYERS
1000
1
  0
LINE
  5
2359
330
1F
100
AcDbEntity
  8
P-0000
  6
Continuous
 62
     7
100
AcDbLine
 10
241.0938080086694
 20
702.2111401363471
 30
0.0
 11
242.0938080086694
 21
700.4790893287783
 31
0.0
1001
ACME_LAYERS
1000
1
  0
LINE
  5
235A
330
1F
100
AcDbEntity
  8
P-0000
  6
Continuous
 62
     7
100
AcDbLine
 10
183.0938080086694
 20
702.2111401363471
 30
0.0
 11
188.6918842200227
 21
698.9790893287782
 31
0.0
1001
ACME_LAYERS
1000
1
  0
LINE
  5
235B
330
1F
100
AcDbEntity
  8
P-0000
  6
Continuous
 62
     7
100
AcDbLine
 10
182.0938080086694
 20
700.4790893287783
 30
0.0
 11
187.6918842200227
 21
697.2470385212094
 31
0.0
1001
ACME_LAYERS
1000
1
  0
LINE
  5
235C
330
1F
100
AcDbEntity
  8
P-0000
  6
Continuous
 62
     7
100
AcDbLine
 10
182.0938080086694
 20
700.4790893287783
 30
0.0
 11
183.0938080086694
 21
702.2111401363471
 31
0.0
1001
ACME_LAYERS
1000
1
  0
LINE
  5
235D
330
1F
100
AcDbEntity
  8
P-0000
  6
Continuous
 62
     7
100
AcDbLine
 10
217.0938080086694
 20
700.7111401363471
 30
0.0
 11
217.0938080086694
 21
698.711140136347
 31
0.0
1001
ACME_LAYERS
1000
1
  0
LINE
  5
235E
330
1F
100
AcDbEntity
  8
P-0000
  6
Continuous
 62
     7
100
AcDbLine
 10
207.0938080086694
 20
700.7111401363471
 30
0.0
 11
207.0938080086694
 21
698.711140136347
 31
0.0
1001
ACME_LAYERS
1000
1
  0
LINE
  5
235F
330
1F
100
AcDbEntity
  8
P-0000
  6
Continuous
 62
     7
100
AcDbLine
 10
197.5938080086688
 20
699.5395672610933
 30
0.0
 11
197.3511673215495
 21
699.2969265739741
 31
0.0
1001
ACME_LAYERS
1000
1
  0
LINE
  5
2360
330
1F
100
AcDbEntity
  8
P-0000
  6
Continuous
 62
     7
100
AcDbLine
 10
226.5938080086694
 20
699.5395672610933
 30
0.0
 11
226.8364486957886
 21
699.2969265739741
 31
0.0
1001
ACME_LAYERS
1000
1
  0
LINE
  5
2361
330
1F
100
AcDbEntity
  8
P-0000
  6
Continuous
 62
     3
100
AcDbLine
 10
199.5938080086694
 20
698.711140136347
 30
0.0
 11
200.4222351334151
 21
698.711140136347
 31
0.0
1001
ACME_LAYERS
1000
1
  0
LINE
  5
2362
330
1F
100
AcDbEntity
  8
P-0000
  6
Continuous
 62
     3
100
AcDbLine
 10
199.008021571042
 20
698.1253536987202
 30
0.0
 11
199.5938080086694
 21
698.711140136347
 31
0.0
1001
ACME_LAYERS
1000
1
  0
LINE
  5
2363
330
1F
100
AcDbEntity
  8
P-0000
  6
Continuous
 62
     3
100
AcDbLine
 10
224.5938080086694
 20
698.711140136347
 30
0.0
 11
225.1795944462963
 21
698.1253536987202
 31
0.0
1001
ACME_LAYERS
1000
1
  0
LINE
  5
2364
330
1F
100
AcDbEntity
  8
P-0000
  6
Continuous
 62
     3
100
AcDbLine
 10
223.7653808839232
 20
698.711140136347
 30
0.0
 11
224.5938080086694
 21
698.711140136347
 31
0.0
1001
ACME_LAYERS
1000
1
  0
LINE
  5
2365
330
1F
100
AcDbEntity
  8
P-0000
  6
Continuous
 62
     7
100
AcDbLine
 10
449.5938080086694
 20
698.711140136347
 30
0.0
 11
456.2653808839236
 21
698.711140136347
 31
0.0
1001
ACME_LAYERS
1000
1
  0
LINE
  5
2366
330
1F
100
AcDbEntity
  8
P-0000
  6
Continuous
 62
     7
100
AcDbLine
 10
439.5938080086693
 20
698.711140136347
 30
0.0
 11
440.5938080086695
 21
698.7111401363472
 31
0.0
1001
ACME_LAYERS
1000
1
  0
LINE
  5
2367
330
1F
100
AcDbEntity
  8
P-0000
  6
Continuous
 62
     7
100
AcDbLine
 10
432.9222351334156
 20
698.711140136347
 30
0.0
 11
439.5938080086693
 21
698.711140136347
 31
0.0
1001
ACME_LAYERS
1000
1
  0
LINE
  5
2368
330
1F
100
AcDbEntity
  8
P-0000
  6
Continuous
 62
     7
100
AcDbLine
 10
432.9222351334156
 20
700.7111401363471
 30
0.0
 11
439.5938080086693
 21
700.7111401363471
 31
0.0
1001
ACME_LAYERS
1000
1
  0
LINE
  5
2369
330
1F
100
AcDbEntity
  8
P-0000
  6
Continuous
 62
     7
100
AcDbLine
 10
449.5938080086694
 20
700.7111401363471
 30
0.0
 11
456.2653808839238
 21
700.7111401363471
 31
0.0
1001
ACME_LAYERS
1000
1
  0
LINE
  5
236A
330
1F
100
AcDbEntity
  8
P-0000
  6
Continuous
 62
     7
100
AcDbLine
 10
439.5938080086693
 20
700.7111401363471
 30
0.0
 11
440.5938080086695
 21
700.7111401363471
 31
0.0
1001
ACME_LAYERS
1000
1
  0
LINE
  5
236B
330
1F
100
AcDbEntity
  8
P-0000
  6
Continuous
 62
     7
100
AcDbLine
 10
460.7506622581623
 20
696.7111401363471
 30
0.0
 11
466.879025921705
 21
696.7111401363471
 31
0.0
1001
ACME_LAYERS
1000
1
  0
LINE
  5
236C
330
1F
100
AcDbEntity
  8
P-0000
  6
Continuous
 62
     7
100
AcDbLine
 10
460.7506622581623
 20
698.711140136347
 30
0.0
 11
466.9957317973159
 21
698.711140136347
 31
0.0
1001
ACME_LAYERS
1000
1
  0
LINE
  5
236D
330
1F
100
AcDbEntity
  8
P-0000
  6
Continuous
 62
     7
100
AcDbLine
 10
428.436953759177
 20
696.7111401363471
 30
0.0
 11
422.1918842200225
 21
696.7111401363471
 31
0.0
1001
ACME_LAYERS
1000
1
  0
LINE
  5
236E
330
1F
100
AcDbEntity
  8
P-0000
  6
Continuous
 62
     7
100
AcDbLine
 10
428.436953759177
 20
698.711140136347
 30
0.0
 11
422.1918842200225
 21
698.711140136347
 31
0.0
1001
ACME_LAYERS
1000
1
  0
LINE
  5
236F
330
1F
100
AcDbEntity
  8
P-0000
  6
Continuous
 62
     7
100
AcDbLine
 10
418.1918842200227
 20
700.7111401363471
 30
0.0
 11
415.5938080086693
 21
702.2111401363471
 31
0.0
1001
ACME_LAYERS
1000
1
  0
LINE
  5
2370
330
1F
100
AcDbEntity
  8
P-0000
  6
Continuous
 62
     7
100
AcDbLine
 10
421.1918842200224
 20
698.9790893287782
 30
0.0
 11
418.1918842200227
 21
700.7111401363471
 31
0.0
1001
ACME_LAYERS
1000
1
  0
LINE
  5
2373
330
1F
100
AcDbEntity
  8
P-0000
  6
Continuous
 62
     7
100
AcDbLine
 10
328.3438080086694
 20
696.7111401363471
 30
0.0
 11
421.120087450298
 21
696.7111401363471
 31
0.0
1001
ACME_LAYERS
1000
1
  0
LINE
  5
2374
330
1F
100
AcDbEntity
  8
P-0000
  6
Continuous
 62
     7
100
AcDbLine
 10
328.3438080086694
 20
700.4790893287783
 30
0.0
 11
414.5938080086693
 21
700.4790893287783
 31
0.0
1001
ACME_LAYERS
1000
1
  0
LINE
  5
2375
330
1F
100
AcDbEntity
  8
P-0000
  6
Continuous
 62
     7
100
AcDbLine
 10
328.3438080086694
 20
702.2111401363471
 30
0.0
 11
415.5938080086693
 21
702.2111401363471
 31
0.0
1001
ACME_LAYERS
1000
1
  0
LINE
  5
2376
330
1F
100
AcDbEntity
  8
P-0000
  6
Continuous
 62
     7
100
AcDbLine
 10
419.0449702313618
 20
702.2111401363471
 30
0.0
 11
436.0938077822451
 21
702.211140136347
 31
0.0
1001
ACME_LAYERS
1000
1
  0
LINE
  5
2377
330
1F
100
AcDbEntity
  8
P-0000
  6
Continuous
 62
     7
100
AcDbLine
 10
420.1918842200225
 20
697.2470385212094
 30
0.0
 11
414.5938080086693
 21
700.4790893287783
 31
0.0
1001
ACME_LAYERS
1000
1
  0
LINE
  5
2378
330
1F
100
AcDbEntity
  8
P-0000
  6
Continuous
 62
     7
100
AcDbLine
 10
431.2653808839232
 20
697.882713011601
 30
0.0
 11
431.5080215710424
 21
698.1253536987202
 31
0.0
1001
ACME_LAYERS
1000
1
  0
LINE
  5
2379
330
1F
100
AcDbEntity
  8
P-0000
  6
Continuous
 62
     7
100
AcDbLine
 10
418.1918842200227
 20
700.7111401363471
 30
0.0
 11
431.2653808839232
 21
700.7111401363471
 31
0.0
1001
ACME_LAYERS
1000
1
  0
LINE
  5
237A
330
1F
100
AcDbEntity
  8
P-0000
  6
Continuous
 62
     7
100
AcDbLine
 10
457.9222351334161
 20
697.882713011601
 30
0.0
 11
457.6795944462967
 21
698.1253536987202
 31
0.0
1001
ACME_LAYERS
1000
1
  0
LINE
  5
237B
330
1F
100
AcDbEntity
  8
P-0000
  6
Continuous
 62
     7
100
AcDbLine
 10
428.436953759177
 20
696.7111401363471
 30
0.0
 11
430.0938080086694
 21
696.7111401363471
 31
0.0
1001
ACME_LAYERS
1000
1
  0
LINE
  5
237C
330
1F
100
AcDbEntity
  8
P-0000
  6
Continuous
 62
     7
100
AcDbLine
 10
414.5938080086693
 20
700.4790893287783
 30
0.0
 11
415.5938080086693
 21
702.2111401363471
 31
0.0
1001
ACME_LAYERS
1000
1
  0
LINE
  5
237D
330
1F
100
AcDbEntity
  8
P-0000
  6
Continuous
 62
     7
100
AcDbLine
 10
467.995731797316
 20
698.9790893287782
 30
0.0
 11
473.5938080086693
 21
702.2111401363471
 31
0.0
1001
ACME_LAYERS
1000
1
  0
LINE
  5
237E
330
1F
100
AcDbEntity
  8
P-0000
  6
Continuous
 62
     7
100
AcDbLine
 10
468.9957317973161
 20
697.2470385212094
 30
0.0
 11
474.5938080086694
 21
700.4790893287783
 31
0.0
1001
ACME_LAYERS
1000
1
  0
LINE
  5
237F
330
1F
100
AcDbEntity
  8
P-0000
  6
Continuous
 62
     7
100
AcDbLine
 10
473.5938080086693
 20
702.2111401363471
 30
0.0
 11
474.5938080086694
 21
700.4790893287783
 31
0.0
1001
ACME_LAYERS
1000
1
  0
LINE
  5
2380
330
1F
100
AcDbEntity
  8
P-0000
  6
Continuous
 62
     7
100
AcDbLine
 10
439.5938080086693
 20
698.711140136347
 30
0.0
 11
439.5938080086693
 21
700.7111401363471
 31
0.0
1001
ACME_LAYERS
1000
1
  0
LINE
  5
2381
330
1F
100
AcDbEntity
  8
P-0000
  6
Continuous
 62
     7
100
AcDbLine
 10
449.5938080086694
 20
698.711140136347
 30
0.0
 11
449.5938080086694
 21
700.7111401363471
 31
0.0
1001
ACME_LAYERS
1000
1
  0
LINE
  5
2382
330
1F
100
AcDbEntity
  8
P-0000
  6
Continuous
 62
     7
100
AcDbLine
 10
459.3364486957892
 20
699.2969265739741
 30
0.0
 11
459.0938080086699
 21
699.5395672610933
 31
0.0
1001
ACME_LAYERS
1000
1
  0
LINE
  5
2383
330
1F
100
AcDbEntity
  8
P-0000
  6
Continuous
 62
     7
100
AcDbLine
 10
429.8511673215501
 20
699.2969265739741
 30
0.0
 11
430.0938080086694
 21
699.5395672610933
 31
0.0
1001
ACME_LAYERS
1000
1
  0
LINE
  5
2384
330
1F
100
AcDbEntity
  8
P-0000
  6
Continuous
 62
     3
100
AcDbLine
 10
456.2653808839236
 20
698.711140136347
 30
0.0
 11
457.0938080086693
 21
698.711140136347
 31
0.0
1001
ACME_LAYERS
1000
1
  0
LINE
  5
2385
330
1F
100
AcDbEntity
  8
P-0000
  6
Continuous
 62
     3
100
AcDbLine
 10
457.0938080086693
 20
698.711140136347
 30
0.0
 11
457.6795944462967
 21
698.1253536987202
 31
0.0
1001
ACME_LAYERS
1000
1
  0
LINE
  5
2386
330
1F
100
AcDbEntity
  8
P-0000
  6
Continuous
 62
     3
100
AcDbLine
 10
431.5080215710424
 20
698.1253536987202
 30
0.0
 11
432.0938080086693
 21
698.711140136347
 31
0.0
1001
ACME_LAYERS
1000
1
  0
LINE
  5
2387
330
1F
100
AcDbEntity
  8
P-0000
  6
Continuous
 62
     3
100
AcDbLine
 10
432.0938080086693
 20
698.711140136347
 30
0.0
 11
432.9222351334156
 21
698.711140136347
 31
0.0
1001
ACME_LAYERS
1000
1
  0
LINE
  5
2388
330
1F
100
AcDbEntity
  8
P-0000
  6
Continuous
 62
     3
100
AcDbLine
 10
225.4222351334155
 20
697.882713011601
 30
0.0
 11
226.5938080086694
 21
696.7111401363471
 31
0.0
1001
ACME_LAYERS
1000
1
  0
LINE
  5
2389
330
1F
100
AcDbEntity
  8
P-0000
  6
Continuous
 62
     7
100
AcDbLine
 10
226.5938080086694
 20
696.7111401363471
 30
0.0
 11
228.2506622581617
 21
696.7111401363471
 31
0.0
1001
ACME_LAYERS
1000
1
  0
LINE
  5
238A
330
1F
100
AcDbEntity
  8
P-0000
  6
Continuous
 62
     3
100
AcDbLine
 10
226.8364486957886
 20
699.2969265739741
 30
0.0
 11
227.4222351334156
 21
698.711140136347
 31
0.0
1001
ACME_LAYERS
1000
1
  0
LINE
  5
238B
330
1F
100
AcDbEntity
  8
P-0000
  6
Continuous
 62
     3
100
AcDbLine
 10
227.4222351334156
 20
698.711140136347
 30
0.0
 11
228.2506622581617
 21
698.711140136347
 31
0.0
1001
ACME_LAYERS
1000
1
  0
LINE
  5
238C
330
1F
100
AcDbEntity
  8
P-0000
  6
Continuous
 62
     3
100
AcDbLine
 10
234.4957317973162
 20
698.711140136347
 30
0.0
 11
235.0316301821783
 21
698.711140136347
 31
0.0
1001
ACME_LAYERS
1000
1
  0
LINE
  5
238D
330
1F
100
AcDbEntity
  8
P-0000
  6
Continuous
 62
     3
100
AcDbLine
 10
235.0316301821783
 20
698.711140136347
 30
0.0
 11
235.4957317973163
 21
698.9790893287782
 31
0.0
1001
ACME_LAYERS
1000
1
  0
LINE
  5
238E
330
1F
100
AcDbEntity
  8
P-0000
  6
Continuous
 62
     3
100
AcDbLine
 10
236.4957317973162
 20
697.2470385212094
 30
0.0
 11
235.5675285670407
 21
696.7111401363471
 31
0.0
1001
ACME_LAYERS
1000
1
  0
LINE
  5
238F
330
1F
100
AcDbEntity
  8
P-0000
  6
Continuous
 62
     7
100
AcDbLine
 10
235.5675285670407
 20
696.7111401363471
 30
0.0
 11
328.3438080086694
 21
696.7111401363471
 31
0.0
1001
ACME_LAYERS
1000
1
  0
LINE
  5
2390
330
1F
100
AcDbEntity
  8
P-0000
  6
Continuous
 62
     3
100
AcDbLine
 10
188.6918842200227
 20
698.9790893287782
 30
0.0
 11
189.1559858351605
 21
698.711140136347
 31
0.0
1001
ACME_LAYERS
1000
1
  0
LINE
  5
2391
330
1F
100
AcDbEntity
  8
P-0000
  6
Continuous
 62
     3
100
AcDbLine
 10
189.1559858351605
 20
698.711140136347
 30
0.0
 11
189.6918842200227
 21
698.711140136347
 31
0.0
1001
ACME_LAYERS
1000
1
  0
LINE
  5
2392
330
1F
100
AcDbEntity
  8
P-0000
  6
Continuous
 62
     3
100
AcDbLine
 10
187.6918842200227
 20
697.2470385212094
 30
0.0
 11
188.6200874502982
 21
696.7111401363471
 31
0.0
1001
ACME_LAYERS
1000
1
  0
LINE
  5
2393
330
1F
100
AcDbEntity
  8
P-0000
  6
Continuous
 62
     3
100
AcDbLine
 10
188.6200874502982
 20
696.7111401363471
 30
0.0
 11
189.6918842200227
 21
696.7111401363471
 31
0.0
1001
ACME_LAYERS
1000
1
  0
LINE
  5
2394
330
1F
100
AcDbEntity
  8
P-0000
  6
Continuous
 62
     3
100
AcDbLine
 10
197.5938080086688
 20
699.5395672610933
 30
0.0
 11
198.7653808839231
 21
700.7111401363471
 31
0.0
1001
ACME_LAYERS
1000
1
  0
LINE
  5
2395
330
1F
100
AcDbEntity
  8
P-0000
  6
Continuous
 62
     3
100
AcDbLine
 10
198.7653808839231
 20
700.7111401363471
 30
0.0
 11
200.422235133415
 21
700.7111401363471
 31
0.0
1001
ACME_LAYERS
1000
1
  0
LINE
  5
2396
330
1F
100
AcDbEntity
  8
P-0000
  6
Continuous
 62
     3
100
AcDbLine
 10
421.1918842200224
 20
698.9790893287782
 30
0.0
 11
421.6559858351604
 21
698.711140136347
 31
0.0
1001
ACME_LAYERS
1000
1
  0
LINE
  5
2397
330
1F
100
AcDbEntity
  8
P-0000
  6
Continuous
 62
     3
100
AcDbLine
 10
421.6559858351604
 20
698.711140136347
 30
0.0
 11
422.1918842200225
 21
698.711140136347
 31
0.0
1001
ACME_LAYERS
1000
1
  0
LINE
  5
2398
330
1F
100
AcDbEntity
  8
P-0000
  6
Continuous
 62
     3
100
AcDbLine
 10
420.1918842200225
 20
697.2470385212094
 30
0.0
 11
421.120087450298
 21
696.7111401363471
 31
0.0
1001
ACME_LAYERS
1000
1
  0
LINE
  5
2399
330
1F
100
AcDbEntity
  8
P-0000
  6
Continuous
 62
     7
100
AcDbLine
 10
421.120087450298
 20
696.7111401363471
 30
0.0
 11
422.1918842200225
 21
696.7111401363471
 31
0.0
1001
ACME_LAYERS
1000
1
  0
LINE
  5
239A
330
1F
100
AcDbEntity
  8
P-0000
  6
Continuous
 62
     3
100
AcDbLine
 10
428.436953759177
 20
698.711140136347
 30
0.0
 11
429.2653808839231
 21
698.711140136347
 31
0.0
1001
ACME_LAYERS
1000
1
  0
LINE
  5
239B
330
1F
100
AcDbEntity
  8
P-0000
  6
Continuous
 62
     3
100
AcDbLine
 10
429.2653808839231
 20
698.711140136347
 30
0.0
 11
429.8511673215501
 21
699.2969265739741
 31
0.0
1001
ACME_LAYERS
1000
1
  0
LINE
  5
239C
330
1F
100
AcDbEntity
  8
P-0000
  6
Continuous
 62
     3
100
AcDbLine
 10
431.2653808839232
 20
697.882713011601
 30
0.0
 11
430.0938080086694
 21
696.7111401363471
 31
0.0
1001
ACME_LAYERS
1000
1
  0
LINE
  5
239D
330
1F
100
AcDbEntity
  8
P-0000
  6
Continuous
 62
     7
100
AcDbLine
 10
430.0938080086694
 20
696.7111401363471
 30
0.0
 11
459.0938080086711
 21
696.7111401363471
 31
0.0
1001
ACME_LAYERS
1000
1
  0
LINE
  5
239E
330
1F
100
AcDbEntity
  8
P-0000
  6
Continuous
 62
     3
100
AcDbLine
 10
430.0938080086694
 20
699.5395672610933
 30
0.0
 11
431.2653808839232
 21
700.7111401363471
 31
0.0
1001
ACME_LAYERS
1000
1
  0
LINE
  5
239F
330
1F
100
AcDbEntity
  8
P-0000
  6
Continuous
 62
     7
100
AcDbLine
 10
431.2653808839232
 20
700.7111401363471
 30
0.0
 11
432.9222351334156
 21
700.7111401363471
 31
0.0
1001
ACME_LAYERS
1000
1
  0
LINE
  5
23A0
330
1F
100
AcDbEntity
  8
P-0000
  6
Continuous
 62
     3
100
AcDbLine
 10
456.2653808839238
 20
700.7111401363471
 30
0.0
 11
457.9222351334158
 21
700.7111401363471
 31
0.0
1001
ACME_LAYERS
1000
1
  0
LINE
  5
23A1
330
1F
100
AcDbEntity
  8
P-0000
  6
Continuous
 62
     3
100
AcDbLine
 10
457.9222351334158
 20
700.7111401363471
 30
0.0
 11
459.0938080086699
 21
699.5395672610933
 31
0.0
1001
ACME_LAYERS
1000
1
  0
LINE
  5
23A2
330
1F
100
AcDbEntity
  8
P-0000
  6
Continuous
 62
     3
100
AcDbLine
 10
459.3364486957892
 20
699.2969265739741
 30
0.0
 11
459.9222351334165
 21
698.711140136347
 31
0.0
1001
ACME_LAYERS
1000
1
  0
LINE
  5
23A3
330
1F
100
AcDbEntity
  8
P-0000
  6
Continuous
 62
     3
100
AcDbLine
 10
459.9222351334165
 20
698.711140136347
 30
0.0
 11
460.7506622581623
 21
698.711140136347
 31
0.0
1001
ACME_LAYERS
1000
1
  0
LINE
  5
23A4
330
1F
100
AcDbEntity
  8
P-0000
  6
Continuous
 62
     3
100
AcDbLine
 10
466.9957317973159
 20
698.711140136347
 30
0.0
 11
467.5316301821782
 21
698.711140136347
 31
0.0
1001
ACME_LAYERS
1000
1
  0
LINE
  5
23A5
330
1F
100
AcDbEntity
  8
P-0000
  6
Continuous
 62
     3
100
AcDbLine
 10
467.5316301821782
 20
698.711140136347
 30
0.0
 11
467.995731797316
 21
698.9790893287782
 31
0.0
1001
ACME_LAYERS
1000
1
  0
LINE
  5
23A6
330
1F
100
AcDbEntity
  8
P-0000
  6
Continuous
 62
     3
100
AcDbLine
 10
468.9957317973161
 20
697.2470385212094
 30
0.0
 11
468.0675285670406
 21
696.7111401363471
 31
0.0
1001
ACME_LAYERS
1000
1
  0
LINE
  5
23A7
330
1F
100
AcDbEntity
  8
P-0000
  6
Continuous
 62
     3
100
AcDbLine
 10
195.9369537591764
 20
698.711140136347
 30
0.0
 11
196.7653808839222
 21
698.711140136347
 31
0.0
1001
ACME_LAYERS
1000
1
  0
LINE
  5
23A8
330
1F
100
AcDbEntity
  8
P-0000
  6
Continuous
 62
     3
100
AcDbLine
 10
196.7653808839222
 20
698.711140136347
 30
0.0
 11
197.3511673215495
 21
699.2969265739741
 31
0.0
1001
ACME_LAYERS
1000
1
  0
LINE
  5
23A9
330
1F
100
AcDbEntity
  8
P-0000
  6
Continuous
 62
     3
100
AcDbLine
 10
198.7653808839226
 20
697.882713011601
 30
0.0
 11
197.5938080086677
 21
696.7111401363471
 31
0.0
1001
ACME_LAYERS
1000
1
  0
LINE
  5
23AA
330
1F
100
AcDbEntity
  8
P-0000
  6
Continuous
 62
     7
100
AcDbLine
 10
197.5938080086677
 20
696.7111401363471
 30
0.0
 11
226.5938080086694
 21
696.7111401363471
 31
0.0
1001
ACME_LAYERS
1000
1
  0
LINE
  5
23AB
330
1F
100
AcDbEntity
  8
P-0000
  6
Continuous
 62
     3
100
AcDbLine
 10
226.5938080086694
 20
699.5395672610933
 30
0.0
 11
225.4222351334156
 21
700.7111401363471
 31
0.0
1001
ACME_LAYERS
1000
1
  0
LINE
  5
23AC
330
1F
100
AcDbEntity
  8
P-0000
  6
Continuous
 62
     7
100
AcDbLine
 10
225.4222351334156
 20
700.7111401363471
 30
0.0
 11
238.495731797316
 21
700.7111401363471
 31
0.0
1001
ACME_LAYERS
1000
1
  0
LINE
  5
23AD
330
1F
100
AcDbEntity
  8
P-0000
  6
Continuous
 62
     3
100
AcDbLine
 10
457.9222351334161
 20
697.882713011601
 30
0.0
 11
459.0938080086711
 21
696.7111401363471
 31
0.0
1001
ACME_LAYERS
1000
1
  0
LINE
  5
23AE
330
1F
100
AcDbEntity
  8
P-0000
  6
Continuous
 62
     7
100
AcDbLine
 10
459.0938080086711
 20
696.7111401363471
 30
0.0
 11
460.7506622581623
 21
696.7111401363471
 31
0.0
1001
ACME_LAYERS
1000
1
  0
ARC
  5
23AF
330
1F
100
AcDbEntity
  8
P-0000
  6
Continuous
 62
     7
100
AcDbCircle
 10
234.4957317973162
 20
700.7111401363471
 30
0.0
 40
4.0
100
AcDbArc
 50
270.0
 51
300.0000000000005
1001
ACME_LAYERS
1000
1
  0
ARC
  5
23B0
330
1F
100
AcDbEntity
  8
P-0000
  6
Continuous
 62
     7
100
AcDbCircle
 10
228.2506622581617
 20
700.7111401363471
 30
0.0
 40
3.999999999999949
100
AcDbArc
 50
225.0
 51
270.0
1001
ACME_LAYERS
1000
1
  0
ARC
  5
23B1
330
1F
100
AcDbEntity
  8
P-0000
  6
Continuous
 62
     7
100
AcDbCircle
 10
223.7653808839232
 20
696.7111401363471
 30
0.0
 40
4.000000000000031
100
AcDbArc
 50
45.0
 51
90.0
1001
ACME_LAYERS
1000
1
  0
ARC
  5
23B2
330
1F
100
AcDbEntity
  8
P-0000
  6
Continuous
 62
     7
100
AcDbCircle
 10
195.9369537591764
 20
700.7111401363471
 30
0.0
 40
4.0
100
AcDbArc
 50
270.0
 51
315.0
1001
ACME_LAYERS
1000
1
  0
ARC
  5
23B3
330
1F
100
AcDbEntity
  8
P-0000
  6
Continuous
 62
     7
100
AcDbCircle
 10
422.1918842200225
 20
700.7111401363471
 30
0.0
 40
3.999999999999934
100
AcDbArc
 50
239.9999999999995
 51
270.0
1001
ACME_LAYERS
1000
1
  0
ARC
  5
23B4
330
1F
100
AcDbEntity
  8
P-0000
  6
Continuous
 62
     7
100
AcDbCircle
 10
428.436953759177
 20
700.7111401363471
 30
0.0
 40
4.0
100
AcDbArc
 50
270.0
 51
315.0
1001
ACME_LAYERS
1000
1
  0
ARC
  5
23B5
330
1F
100
AcDbEntity
  8
P-0000
  6
Continuous
 62
     7
100
AcDbCircle
 10
432.9222351334156
 20
696.7111401363471
 30
0.0
 40
4.0
100
AcDbArc
 50
90.0
 51
135.0
1001
ACME_LAYERS
1000
1
  0
ARC
  5
23B6
330
1F
100
AcDbEntity
  8
P-0000
  6
Continuous
 62
     7
100
AcDbCircle
 10
460.7506622581623
 20
700.7111401363471
 30
0.0
 40
3.999999999999952
100
AcDbArc
 50
225.0
 51
270.0
1001
ACME_LAYERS
1000
1
  0
ARC
  5
23B7
330
1F
100
AcDbEntity
  8
P-0000
  6
Continuous
 62
     7
100
AcDbCircle
 10
200.4222351334151
 20
696.7111401363471
 30
0.0
 40
4.0
100
AcDbArc
 50
90.0
 51
135.0
1001
ACME_LAYERS
1000
1
  0
ARC
  5
23B8
330
1F
100
AcDbEntity
  8
P-0000
  6
Continuous
 62
     7
100
AcDbCircle
 10
189.6918842200227
 20
700.7111401363471
 30
0.0
 40
3.99999999999998
100
AcDbArc
 50
239.9999999999967
 51
270.0
1001
ACME_LAYERS
1000
1
  0
ARC
  5
23B9
330
1F
100
AcDbEntity
  8
P-0000
  6
Continuous
 62
     7
100
AcDbCircle
 10
189.6918842200227
 20
700.7111401363471
 30
0.0
 40
2.000000000000016
100
AcDbArc
 50
239.9999999999995
 51
270.0
1001
ACME_LAYERS
1000
1
  0
ARC
  5
23BA
330
1F
100
AcDbEntity
  8
P-0000
  6
Continuous
 62
     7
100
AcDbCircle
 10
195.9369537591764
 20
700.7111401363471
 30
0.0
 40
2.0
100
AcDbArc
 50
270.0
 51
315.0
1001
ACME_LAYERS
1000
1
  0
ARC
  5
23BB
330
1F
100
AcDbEntity
  8
P-0000
  6
Continuous
 62
     7
100
AcDbCircle
 10
200.4222351334151
 20
696.7111401363471
 30
0.0
 40
2.0
100
AcDbArc
 50
90.0
 51
135.0
1001
ACME_LAYERS
1000
1
  0
ARC
  5
23BC
330
1F
100
AcDbEntity
  8
P-0000
  6
Continuous
 62
     7
100
AcDbCircle
 10
223.7653808839232
 20
696.7111401363471
 30
0.0
 40
2.000000000000018
100
AcDbArc
 50
45.0
 51
90.0
1001
ACME_LAYERS
1000
1
  0
ARC
  5
23BD
330
1F
100
AcDbEntity
  8
P-0000
  6
Continuous
 62
     7
100
AcDbCircle
 10
228.2506622581617
 20
700.7111401363471
 30
0.0
 40
1.99999999999993
100
AcDbArc
 50
225.0
 51
270.0
1001
ACME_LAYERS
1000
1
  0
ARC
  5
23BE
330
1F
100
AcDbEntity
  8
P-0000
  6
Continuous
 62
     7
100
AcDbCircle
 10
234.4957317973162
 20
700.7111401363471
 30
0.0
 40
2.0
100
AcDbArc
 50
270.0
 51
300.0000000000005
1001
ACME_LAYERS
1000
1
  0
ARC
  5
23BF
330
1F
100
AcDbEntity
  8
P-0000
  6
Continuous
 62
     7
100
AcDbCircle
 10
456.2653808839236
 20
696.7111401363471
 30
0.0
 40
4.000000000000092
100
AcDbArc
 50
45.0
 51
89.99999999999674
1001
ACME_LAYERS
1000
1
  0
ARC
  5
23C0
330
1F
100
AcDbEntity
  8
P-0000
  6
Continuous
 62
     7
100
AcDbCircle
 10
466.9957317973159
 20
700.7111401363471
 30
0.0
 40
4.0
100
AcDbArc
 50
270.0
 51
300.0000000000034
1001
ACME_LAYERS
1000
1
  0
ARC
  5
23C1
330
1F
100
AcDbEntity
  8
P-0000
  6
Continuous
 62
     7
100
AcDbCircle
 10
466.9957317973159
 20
700.7111401363471
 30
0.0
 40
2.0
100
AcDbArc
 50
270.0
 51
300.0000000000005
1001
ACME_LAYERS
1000
1
  0
ARC
  5
23C2
330
1F
100
AcDbEntity
  8
P-0000
  6
Continuous
 62
     7
100
AcDbCircle
 10
460.7506622581623
 20
700.7111401363471
 30
0.0
 40
1.999999999999935
100
AcDbArc
 50
225.0
 51
270.0
1001
ACME_LAYERS
1000
1
  0
ARC
  5
23C3
330
1F
100
AcDbEntity
  8
P-0000
  6
Continuous
 62
     7
100
AcDbCircle
 10
456.2653808839236
 20
696.7111401363471
 30
0.0
 40
2.000000000000015
100
AcDbArc
 50
45.0
 51
90.0
1001
ACME_LAYERS
1000
1
  0
ARC
  5
23C4
330
1F
100
AcDbEntity
  8
P-0000
  6
Continuous
 62
     7
100
AcDbCircle
 10
432.9222351334156
 20
696.7111401363471
 30
0.0
 40
2.0
100
AcDbArc
 50
90.0
 51
135.0
1001
ACME_LAYERS
1000
1
  0
ARC
  5
23C5
330
1F
100
AcDbEntity
  8
P-0000
  6
Continuous
 62
     7
100
AcDbCircle
 10
428.436953759177
 20
700.7111401363471
 30
0.0
 40
2.0
100
AcDbArc
 50
270.0
 51
315.0
1001
ACME_LAYERS
1000
1
  0
ARC
  5
23C6
330
1F
100
AcDbEntity
  8
P-0000
  6
Continuous
 62
     7
100
AcDbCircle
 10
422.1918842200225
 20
700.7111401363471
 30
0.0
 40
1.999999999999917
100
AcDbArc
 50
239.9999999999995
 51
270.0
1001
ACME_LAYERS
1000
1
  0
HATCH
  5
23C7
330
1F
100
AcDbEntity
  8
P-0000
  6
Continuous
 62
     1
100
AcDbHatch
 10
0.0
 20
0.0
 30
0.0
210
0.0
220
0.0
230
1.0
  2
_U
 70
     0
 71
     0
 91
        1
 92
        1
 93
       18
 72
     2
 10
466.9957317973159
 20
700.7111401363471
 40
2.0
 50
270.0
 51
299.9999999999997
 73
     1
 72
     1
 10
467.995731797316
 20
698.9790893287782
 11
473.5938080086693
 21
702.2111401363471
 72
     1
 10
473.5938080086693
 20
702.2111401363471
 11
474.5938080086694
 21
700.4790893287783
 72
     1
 10
474.5938080086694
 20
700.4790893287783
 11
468.9957317973161
 21
697.2470385212094
 72
     2
 10
466.9957317973159
 20
700.7111401363471
 40
4.0
 50
59.99999999999804
 51
89.99999999999836
 73
     0
 72
     1
 10
466.9957317973161
 20
696.7111401363471
 11
466.879025921705
 21
696.7111401363471
 72
     1
 10
466.879025921705
 20
696.7111401363471
 11
460.7506622581623
 21
696.7111401363471
 72
     2
 10
460.7506622581623
 20
700.7111401363471
 40
3.999999999999952
 50
90.0
 51
135.0000000000011
 73
     0
 72
     1
 10
457.9222351334161
 20
697.882713011601
 11
457.6795944462967
 21
698.1253536987202
 72
     1
 10
457.6795944462967
 20
698.1253536987202
 11
457.0938080086693
 21
698.711140136347
 72
     1
 10
457.0938080086693
 20
698.711140136347
 11
456.2653808839236
 21
698.711140136347
 72
     1
 10
456.2653808839236
 20
698.711140136347
 11
449.5938080086694
 21
698.711140136347
 72
     1
 10
449.5938080086694
 20
698.711140136347
 11
449.5938080086694
 21
700.7111401363471
 72
     1
 10
449.5938080086694
 20
700.7111401363471
 11
456.2653808839238
 21
700.7111401363471
 72
     2
 10
456.2653808839236
 20
696.7111401363471
 40
4.000000000000092
 50
270.0000000000017
 51
315.0000000000009
 73
     0
 72
     1
 10
459.0938080086699
 20
699.5395672610933
 11
459.3364486957892
 21
699.2969265739741
 72
     2
 10
460.7506622581623
 20
700.7111401363471
 40
1.999999999999935
 50
224.9999999999977
 51
270.0
 73
     1
 72
     1
 10
460.7506622581623
 20
698.711140136347
 11
466.9957317973159
 21
698.711140136347
 97
        0
 75
     0
 76
     0
 52
45.0
 41
5.0
 77
     0
 78
     1
 53
45.0
 43
243.9721033714111
 44
1066.903739373504
 45
-3.535533905932737
 46
3.535533905932737
 79
     0
 98
        1
 10
243.9721033714111
 20
1066.903739373504
1001
ACME_LAYERS
1000
1
  0
HATCH
  5
23C8
330
1F
100
AcDbEntity
  8
P-0000
  6
Continuous
 62
     1
100
AcDbHatch
 10
0.0
 20
0.0
 30
0.0
210
0.0
220
0.0
230
1.0
  2
_U
 70
     0
 71
     0
 91
        1
 92
        1
 93
       18
 72
     2
 10
428.436953759177
 20
700.7111401363471
 40
2.0
 50
270.0
 51
315.0000000000023
 73
     1
 72
     1
 10
429.8511673215501
 20
699.2969265739741
 11
430.0938080086694
 21
699.5395672610933
 72
     2
 10
432.9222351334156
 20
696.7111401363471
 40
4.0
 50
225.0
 51
270.0
 73
     0
 72
     1
 10
432.9222351334156
 20
700.7111401363471
 11
439.5938080086693
 21
700.7111401363471
 72
     1
 10
439.5938080086693
 20
700.7111401363471
 11
439.5938080086693
 21
698.711140136347
 72
     1
 10
439.5938080086693
 20
698.711140136347
 11
432.9222351334156
 21
698.711140136347
 72
     1
 10
432.9222351334156
 20
698.711140136347
 11
432.0938080086693
 21
698.711140136347
 72
     1
 10
432.0938080086693
 20
698.711140136347
 11
431.5080215710424
 21
698.1253536987202
 72
     1
 10
431.5080215710424
 20
698.1253536987202
 11
431.2653808839232
 21
697.882713011601
 72
     2
 10
428.436953759177
 20
700.7111401363471
 40
4.0
 50
44.99999999999913
 51
90.0
 73
     0
 72
     1
 10
428.436953759177
 20
696.7111401363471
 11
422.1918842200225
 21
696.7111401363471
 72
     2
 10
422.1918842200225
 20
700.7111401363471
 40
3.999999999999934
 50
90.0
 51
120.0000000000006
 73
     0
 72
     1
 10
420.1918842200225
 20
697.2470385212094
 11
414.5938080086693
 21
700.4790893287783
 72
     1
 10
414.5938080086693
 20
700.4790893287783
 11
415.5938080086693
 21
702.2111401363471
 72
     1
 10
415.5938080086693
 20
702.2111401363471
 11
418.1918842200227
 21
700.7111401363471
 72
     1
 10
418.1918842200227
 20
700.7111401363471
 11
421.1918842200224
 21
698.9790893287782
 72
     2
 10
422.1918842200225
 20
700.7111401363471
 40
1.999999999999917
 50
239.9999999999986
 51
270.0
 73
     1
 72
     1
 10
422.1918842200225
 20
698.711140136347
 11
428.436953759177
 21
698.711140136347
 97
        0
 75
     0
 76
     0
 52
45.0
 41
5.0
 77
     0
 78
     1
 53
45.0
 43
243.9721033714111
 44
1066.903739373504
 45
-3.535533905932737
 46
3.535533905932737
 79
     0
 98
        1
 10
243.9721033714111
 20
1066.903739373504
1001
ACME_LAYERS
1000
1
  0
HATCH
  5
23C9
330
1F
100
AcDbEntity
  8
P-0000
  6
Continuous
 62
     1
100
AcDbHatch
 10
0.0
 20
0.0
 30
0.0
210
0.0
220
0.0
230
1.0
  2
_U
 70
     0
 71
     0
 91
        1
 92
        1
 93
       18
 72
     1
 10
238.495731797316
 20
700.7111401363471
 11
235.4957317973163
 21
698.9790893287782
 72
     2
 10
234.4957317973162
 20
700.7111401363471
 40
2.0
 50
59.99999999999865
 51
90.0
 73
     0
 72
     1
 10
234.4957317973162
 20
698.711140136347
 11
228.2506622581618
 21
698.711140136347
 72
     2
 10
228.2506622581617
 20
700.7111401363471
 40
1.99999999999993
 50
90.0
 51
135.0000000000021
 73
     0
 72
     1
 10
226.8364486957886
 20
699.2969265739741
 11
226.5938080086694
 21
699.5395672610933
 72
     2
 10
223.7653808839232
 20
696.7111401363471
 40
4.000000000000031
 50
45.0
 51
90.0
 73
     1
 72
     1
 10
223.7653808839232
 20
700.7111401363471
 11
217.0938080086694
 21
700.7111401363471
 72
     1
 10
217.0938080086694
 20
700.7111401363471
 11
217.0938080086694
 21
698.711140136347
 72
     1
 10
217.0938080086694
 20
698.711140136347
 11
223.7653808839232
 21
698.711140136347
 72
     1
 10
223.7653808839232
 20
698.711140136347
 11
224.5938080086694
 21
698.711140136347
 72
     1
 10
224.5938080086694
 20
698.711140136347
 11
225.1795944462963
 21
698.1253536987202
 72
     1
 10
225.1795944462963
 20
698.1253536987202
 11
225.4222351334155
 21
697.882713011601
 72
     2
 10
228.2506622581617
 20
700.7111401363471
 40
3.999999999999949
 50
224.9999999999989
 51
270.0
 73
     1
 72
     1
 10
228.2506622581617
 20
696.7111401363471
 11
234.4957317973162
 21
696.7111401363471
 72
     2
 10
234.4957317973162
 20
700.7111401363471
 40
4.0
 50
270.0
 51
300.0000000000005
 73
     1
 72
     1
 10
236.4957317973162
 20
697.2470385212094
 11
242.0938080086694
 21
700.4790893287783
 72
     1
 10
242.0938080086694
 20
700.4790893287783
 11
241.0938080086694
 21
702.2111401363471
 72
     1
 10
241.0938080086694
 20
702.2111401363471
 11
238.495731797316
 21
700.7111401363471
 97
        0
 75
     0
 76
     0
 52
45.0
 41
5.0
 77
     0
 78
     1
 53
45.0
 43
243.9721033714111
 44
1066.903739373504
 45
-3.535533905932737
 46
3.535533905932737
 79
     0
 98
        1
 10
243.9721033714111
 20
1066.903739373504
1001
ACME_LAYERS
1000
1
  0
HATCH
  5
23CA
330
1F
100
AcDbEntity
  8
P-0000
  6
Continuous
 62
     1
100
AcDbHatch
 10
0.0
 20
0.0
 30
0.0
210
0.0
220
0.0
230
1.0
  2
_U
 70
     0
 71
     0
 91
        1
 92
        1
 93
       17
 72
     2
 10
195.9369537591764
 20
700.7111401363471
 40
2.0
 50
270.0
 51
315.0000000000016
 73
     1
 72
     1
 10
197.3511673215495
 20
699.2969265739741
 11
197.5938080086688
 21
699.5395672610933
 72
     2
 10
200.4222351334151
 20
696.7111401363471
 40
4.0
 50
224.999999999999
 51
269.9999999999983
 73
     0
 72
     1
 10
200.422235133415
 20
700.7111401363471
 11
207.0938080086694
 21
700.7111401363471
 72
     1
 10
207.0938080086694
 20
700.7111401363471
 11
207.0938080086694
 21
698.711140136347
 72
     1
 10
207.0938080086694
 20
698.711140136347
 11
200.4222351334151
 21
698.711140136347
 72
     1
 10
200.4222351334151
 20
698.711140136347
 11
199.5938080086694
 21
698.711140136347
 72
     1
 10
199.5938080086694
 20
698.711140136347
 11
199.008021571042
 21
698.1253536987202
 72
     1
 10
199.008021571042
 20
698.1253536987202
 11
198.7653808839226
 21
697.882713011601
 72
     2
 10
195.9369537591764
 20
700.7111401363471
 40
4.0
 50
44.99999999999928
 51
90.0
 73
     0
 72
     1
 10
195.9369537591764
 20
696.7111401363471
 11
189.6918842200227
 21
696.7111401363471
 72
     2
 10
189.6918842200227
 20
700.7111401363471
 40
3.99999999999998
 50
90.00000000000133
 51
120.0000000000017
 73
     0
 72
     1
 10
187.6918842200227
 20
697.2470385212094
 11
182.0938080086694
 21
700.4790893287783
 72
     1
 10
182.0938080086694
 20
700.4790893287783
 11
183.0938080086694
 21
702.2111401363471
 72
     1
 10
183.0938080086694
 20
702.2111401363471
 11
188.6918842200227
 21
698.9790893287782
 72
     2
 10
189.6918842200227
 20
700.7111401363471
 40
2.000000000000016
 50
240.0000000000002
 51
270.0
 73
     1
 72
     1
 10
189.6918842200227
 20
698.711140136347
 11
195.9369537591762
 21
698.711140136347
 97
        0
 75
     0
 76
     0
 52
45.0
 41
5.0
 77
     0
 78
     1
 53
45.0
 43
243.9721033714111
 44
1066.903739373504
 45
-3.535533905932737
 46
3.535533905932737
 79
     0
 98
        1
 10
243.9721033714111
 20
1066.903739373504
1001
ACME_LAYERS
1000
1
  0
LINE
  5
23CB
330
1F
100
AcDbEntity
  8
P-0000
  6
Continuous
 62
     7
100
AcDbLine
 10
453.0938077822451
 20
702.211140136347
 30
0.0
 11
473.5938080086693
 21
702.2111401363471
 31
0.0
1001
ACME_LAYERS
1000
1
  0
LINE
  5
23CC
330
1F
100
AcDbEntity
  8
P-0000
  6
Continuous
 62
     7
100
AcDbLine
 10
448.5938080086694
 20
700.711140136347
 30
0.0
 11
449.5938080086694
 21
700.7111401363471
 31
0.0
1001
ACME_LAYERS
1000
1
  0
LINE
  5
23CD
330
1F
100
AcDbEntity
  8
P-0000
  6
Continuous
 62
     7
100
AcDbLine
 10
448.5938080086694
 20
698.711140136347
 30
0.0
 11
449.5938080086694
 21
698.711140136347
 31
0.0
1001
ACME_LAYERS
1000
1
  0
LINE
  5
23D5
330
1F
100
AcDbEntity
  8
P-0000
  6
Continuous
 62
     7
100
AcDbLine
 10
216.0938080086695
 20
698.7111401363472
 30
0.0
 11
217.0938080086694
 21
698.711140136347
 31
0.0
1001
ACME_LAYERS
1000
1
  0
LINE
  5
23D6
330
1F
100
AcDbEntity
  8
P-0000
  6
Continuous
 62
     7
100
AcDbLine
 10
216.0938080086695
 20
700.7111401363471
 30
0.0
 11
217.0938080086694
 21
700.7111401363471
 31
0.0
1001
ACME_LAYERS
1000
1
  0
LINE
  5
23D7
330
1F
100
AcDbEntity
  8
P-0000
  6
Continuous
 62
     7
100
AcDbLine
 10
220.5938077822451
 20
702.211140136347
 30
0.0
 11
237.6426444693091
 21
702.2111401363471
 31
0.0
1001
ACME_LAYERS
1000
1
  0
CIRCLE
  5
23D8
330
1F
100
AcDbEntity
  8
P-0000
  6
Continuous
 62
     7
100
AcDbCircle
 10
328.3438080086694
 20
294.2480451364598
 30
0.0
 40
86.25
1001
ACME_LAYERS
1000
1
  0
CIRCLE
  5
23D9
330
1F
100
AcDbEntity
  8
P-0000
  6
Continuous
 62
     7
100
AcDbCircle
 10
328.3438080086694
 20
294.2480451364598
 30
0.0
 40
146.25
1001
ACME_LAYERS
1000
1
  0
LINE
  5
23DA
330
1F
100
AcDbEntity
  8
P-0000
  6
STRICHPUNKT
 62
     3
100
AcDbLine
 10
238.3644701026814
 20
204.2687072304717
 30
0.0
 11
253.9208192887851
 21
219.8250564165757
 31
0.0
1001
ACME_LAYERS
1000
1
  0
CIRCLE
  5
23DB
330
1F
100
AcDbEntity
  8
P-0000
  6
Continuous
 62
     7
100
AcDbCircle
 10
246.1426446957332
 20
212.0468818235238
 30
0.0
 40
4.99999999999992
1001
ACME_LAYERS
1000
1
  0
CIRCLE
  5
23DC
330
1F
100
AcDbEntity
  8
P-0000
  6
Continuous
 62
     7
100
AcDbCircle
 10
328.3438080086693
 20
177.9980451364598
 30
0.0
 40
5.0
1001
ACME_LAYERS
1000
1
  0
CIRCLE
  5
23DD
330
1F
100
AcDbEntity
  8
P-0000
  6
Continuous
 62
     7
100
AcDbCircle
 10
212.0938080086694
 20
294.2480451364598
 30
0.0
 40
5.0
1001
ACME_LAYERS
1000
1
  0
LINE
  5
23DE
330
1F
100
AcDbEntity
  8
P-0000
  6
STRICHPUNKT
 62
     3
100
AcDbLine
 10
238.3644701026812
 20
384.227383042448
 30
0.0
 11
253.9208192887853
 21
368.671033856344
 31
0.0
1001
ACME_LAYERS
1000
1
  0
CIRCLE
  5
23DF
330
1F
100
AcDbEntity
  8
P-0000
  6
Continuous
 62
     7
100
AcDbCircle
 10
246.1426446957332
 20
376.449208449396
 30
0.0
 40
5.0
1001
ACME_LAYERS
1000
1
  0
POINT
  5
23E0
330
1F
100
AcDbEntity
  8
P-2885
  6
Continuous
 62
    18
100
AcDbPoint
 10
282.4712250297683
 20
401.3148157096053
 30
0.0
1001
ACME_LAYERS
1000
1
  0
CIRCLE
  5
23E1
330
1F
100
AcDbEntity
  8
P-0000
  6
Continuous
 62
     7
100
AcDbCircle
 10
328.3438080086694
 20
410.4980451364598
 30
0.0
 40
5.0
1001
ACME_LAYERS
1000
1
  0
LINE
  5
23E2
330
1F
100
AcDbEntity
  8
P-0000
  6
STRICHPUNKT
 62
     3
100
AcDbLine
 10
418.3231459146576
 20
204.2687072304716
 30
0.0
 11
402.7667967285534
 21
219.8250564165757
 31
0.0
1001
ACME_LAYERS
1000
1
  0
CIRCLE
  5
23E3
330
1F
100
AcDbEntity
  8
P-0000
  6
Continuous
 62
     7
100
AcDbCircle
 10
410.5449713216054
 20
212.0468818235236
 30
0.0
 40
5.0
1001
ACME_LAYERS
1000
1
  0
LINE
  5
23E4
330
1F
100
AcDbEntity
  8
P-0000
  6
STRICHPUNKT
 62
     3
100
AcDbLine
 10
418.3231459146577
 20
384.227383042448
 30
0.0
 11
402.7667967285534
 21
368.671033856344
 31
0.0
1001
ACME_LAYERS
1000
1
  0
CIRCLE
  5
23E5
330
1F
100
AcDbEntity
  8
P-0000
  6
Continuous
 62
     7
100
AcDbCircle
 10
410.5449713216057
 20
376.449208449396
 30
0.0
 40
5.000000000000101
1001
ACME_LAYERS
1000
1
  0
CIRCLE
  5
23E6
330
1F
100
AcDbEntity
  8
P-0000
  6
Continuous
 62
     7
100
AcDbCircle
 10
444.5938080086693
 20
294.2480451364598
 30
0.0
 40
5.000000000000227
1001
ACME_LAYERS
1000
1
  0
LINE
  5
23F6
330
1F
100
AcDbEntity
  8
0
100
AcDbLine
 10
838.3438055916052
 20
329.4540453744923
 30
0.0
 11
833.345805591605
 21
330.7480453744923
 31
0.0
  0
SOLID
  5
24CD
330
1F
100
AcDbEntity
  8
AM_0
100
AcDbTrace
 10
385.4098791346261
 20
606.7111401363472
 30
0.0
 11
383.4098791346261
 21
606.7111401363472
 31
0.0
 12
385.4098791346261
 22
604.7111401363472
 32
0.0
 13
385.4098791346261
 23
604.7111401363472
 33
0.0
1001
GENIUS_GEFWELD_13
1040
2.0
1070
     3
1001
GENIUS_GENOBJ-F-WELS_13
1002
{
1000
OWNER
1000
GEF
1002
}
1001
GENIUS_GENODEF_13
1002
{
1000
HIER
1070
     0
1002
}
1002
{
1000
MANEDIT
1070
     0
1002
}
1002
{
1000
NOSEL
1070
     0
1002
}
1002
{
1000
BEHIND
1070
     0
1002
}
1002
{
1000
OTHER
1070
     0
1002
}
1002
{
1000
REACTOR
1002
}
  0
LINE
  5
25D6
330
1F
100
AcDbEntity
  8
0
100
AcDbLine
 10
498.3438080086692
 20
801.7111401363465
 30
0.0
 11
504.3438080086692
 21
801.7111401363465
 31
0.0
  0
LINE
  5
25D7
330
1F
100
AcDbEntity
  8
0
100
AcDbLine
 10
504.3438080086692
 20
791.7111401363464
 30
0.0
 11
504.3438080086692
 21
721.7111401363464
 31
0.0
  0
LINE
  5
25D8
330
1F
100
AcDbEntity
  8
0
100
AcDbLine
 10
504.3438080086692
 20
731.7111401363464
 30
0.0
 11
498.3438080086692
 21
731.7111401363464
 31
0.0
  0
LINE
  5
25D9
102
{ACAD_REACTORS
330
27E2
102
}
330
1F
100
AcDbEntity
  8
0
100
AcDbLine
 10
498.3438080086692
 20
731.7111401363464
 30
0.0
 11
498.3438080086692
 21
801.7111401363465
 31
0.0
  0
HATCH
  5
26A0
330
1F
100
AcDbEntity
  8
AM_8
100
AcDbHatch
 10
0.0
 20
0.0
 30
0.0
210
0.0
220
0.0
230
1.0
  2
_U
 70
     0
 71
     0
 91
        1
 92
        1
 93
        4
 72
     1
 10
498.3438080086692
 20
801.7111401363465
 11
498.3438080086692
 21
731.7111401363464
 72
     1
 10
498.3438080086692
 20
731.7111401363464
 11
504.3438080086692
 21
731.7111401363464
 72
     1
 10
504.3438080086692
 20
731.7111401363464
 11
504.3438080086692
 21
801.7111401363465
 72
     1
 10
504.3438080086692
 20
801.7111401363465
 11
498.3438080086692
 21
801.7111401363465
 97
        0
 75
     0
 76
     0
 52
45.0
 41
2.5
 77
     0
 78
     1
 53
45.0
 43
0.0
 44
10.0
 45
-1.767766952966368
 46
1.767766952966368
 79
     0
 98
        1
 10
0.0
 20
10.0
1001
GENIUS_GENOBJ-N-HTC_13
1002
{
1000
OWNER
1000
GEN
1002
}
1001
GENIUS_GENODEF_13
1002
{
1000
HIER
1070
     0
1002
}
1002
{
1000
MANEDIT
1070
     0
1002
}
1002
{
1000
NOSEL
1070
     0
1002
}
1002
{
1000
BEHIND
1070
     0
1002
}
1002
{
1000
OTHER
1070
     0
1002
}
1002
{
1000
REACTOR
1002
}
1001
GENIUS_GENHATCH_13
1002
{
1000
DATA
1040
45.0
1042
2.5
1000
_U
1070
     0
1011
502.0453448696899
1021
750.9769836394257
1031
0.0
1002
}
1002
{
1000
UCS
1010
0.0
1020
0.0
1030
0.0
1010
1.0
1020
0.0
1030
0.0
1010
0.0
1020
1.0
1030
0.0
1002
}
  0
LINE
  5
26B3
330
1F
100
AcDbEntity
  8
0
100
AcDbLine
 10
498.3438080086692
 20
128.2480453744926
 30
0.0
 11
498.3438080086695
 21
460.2480453744925
 31
0.0
  0
LINE
  5
26B5
330
1F
100
AcDbEntity
  8
0
100
AcDbLine
 10
504.3438080086694
 20
459.2480453744928
 30
0.0
 11
504.3438080086692
 21
129.2480453744928
 31
0.0
  0
LINE
  5
26BB
330
1F
100
AcDbEntity
  8
AM_7
  6
AM_ISO08W050x2
100
AcDbLine
 10
507.3438080086694
 20
294.2480453744929
 30
0.0
 11
495.3438080086693
 21
294.2480453744929
 31
0.0
1001
GENIUS_GENOBJ-N-CEN_13
1002
{
1000
OWNER
1000
GEN
1002
}
1001
GENIUS_GENODEF_13
1002
{
1000
HIER
1070
     0
1002
}
1002
{
1000
MANEDIT
1070
     0
1002
}
1002
{
1000
NOSEL
1070
     0
1002
}
1002
{
1000
BEHIND
1070
     0
1002
}
1002
{
1000
OTHER
1070
     0
1002
}
1002
{
1000
REACTOR
1002
}
1001
GENIUS_GENCEN_19
1002
{
1040
3.0
1002
}
  0
LINE
  5
26C5
330
1F
100
AcDbEntity
  8
0
100
AcDbLine
 10
498.3438080086695
 20
455.2480453744928
 30
0.0
 11
504.3438080086694
 21
455.2480453744928
 31
0.0
  0
LINE
  5
26CB
330
1F
100
AcDbEntity
  8
0
100
AcDbLine
 10
504.3438080086692
 20
133.2480453744928
 30
0.0
 11
498.3438080086692
 21
133.2480453744928
 31
0.0
  0
DIMENSION
  5
27D4
102
{ACAD_XDICTIONARY
360
27E1
102
}
102
{ACAD_REACTORS
330
27E2
102
}
330
1F
100
AcDbEntity
  8
AM_5
100
AcDbDimension
  2
*D25
 10
456.2188233925967
 20
801.7111401363465
 30
0.0
 11
449.4688233925966
 21
766.7111401363465
 31
0.0
 70
    32
 71
     5
 42
70.0
  3
AM_ISO$0
100
AcDbAlignedDimension
 13
498.3438080086692
 23
731.7111401363464
 33
0.0
 14
498.3438080086692
 24
801.7111401363465
 34
0.0
 50
90.0
100
AcDbRotatedDimension
1001
ACAD
1000
DSTYLE
1002
{
1070
   140
1040
10.5
1002
}
  0
ELLIPSE
  5
287A
102
{ACAD_REACTORS
330
2C24
102
}
330
1F
100
AcDbEntity
  8
0
100
AcDbEllipse
 10
833.3458031745401
 20
294.2480453744932
 30
0.0
 11
0.0
 21
36.50000125157243
 31
0.0
210
0.0
220
0.0
230
1.0
 40
0.0192608635418845
 41
3.141271921727006
 42
6.283370481929414
  0
LINE
  5
287B
330
1F
100
AcDbEntity
  8
0
100
AcDbLine
 10
834.0643034992217
 20
664.9867060426404
 30
0.0
 11
832.2319171176694
 21
595.0106932943494
 31
0.0
  0
INSERT
  5
29E6
330
1F
100
AcDbEntity
  8
AM_0N
100
AcDbBlockReference
  2
*U39
 10
0.0
 20
0.0
 30
0.0
  0
INSERT
  5
29E8
330
1F
100
AcDbEntity
  8
AM_0N
100
AcDbBlockReference
  2
*U40
 10
0.0
 20
0.0
 30
0.0
  0
INSERT
  5
29EA
330
1F
100
AcDbEntity
  8
AM_0N
100
AcDbBlockReference
  2
*U41
 10
0.0
 20
0.0
 30
0.0
  0
INSERT
  5
29EC
330
1F
100
AcDbEntity
  8
AM_0N
100
AcDbBlockReference
  2
*U42
 10
0.0
 20
0.0
 30
0.0
  0
INSERT
  5
29EE
330
1F
100
AcDbEntity
  8
AM_0N
100
AcDbBlockReference
  2
*U43
 10
0.0
 20
0.0
 30
0.0
  0
INSERT
  5
29F0
330
1F
100
AcDbEntity
  8
AM_0N
100
AcDbBlockReference
  2
*U44
 10
0.0
 20
0.0
 30
0.0
  0
INSERT
  5
29F2
330
1F
100
AcDbEntity
  8
AM_0N
100
AcDbBlockReference
  2
*U45
 10
0.0
 20
0.0
 30
0.0
  0
INSERT
  5
29F4
330
1F
100
AcDbEntity
  8
AM_0N
100
AcDbBlockReference
  2
*U46
 10
0.0
 20
0.0
 30
0.0
  0
INSERT
  5
2A20
330
1F
100
AcDbEntity
  8
AM_0N
100
AcDbBlockReference
  2
*U47
 10
0.0
 20
0.0
 30
0.0
  0
LINE
  5
2A21
330
1F
100
AcDbEntity
  8
0
100
AcDbLine
 10
496.7438080086694
 20
401.9980453745131
 30
0.0
 11
496.7438080086694
 21
418.9980453745131
 31
0.0
  0
LINE
  5
2A22
330
1F
100
AcDbEntity
  8
0
100
AcDbLine
 10
496.7438080086694
 20
418.9980453745131
 30
0.0
 11
498.3438080086694
 21
418.9980453745131
 31
0.0
  0
LINE
  5
2A23
330
1F
100
AcDbEntity
  8
0
100
AcDbLine
 10
498.3438080086694
 20
418.9980453745131
 30
0.0
 11
498.3438080086694
 21
401.9980453745131
 31
0.0
  0
LINE
  5
2A24
330
1F
100
AcDbEntity
  8
0
100
AcDbLine
 10
498.3438080086694
 20
401.9980453745131
 30
0.0
 11
496.7438080086694
 21
401.9980453745131
 31
0.0
  0
INSERT
  5
2A26
330
1F
100
AcDbEntity
  8
AM_0N
100
AcDbBlockReference
  2
*U48
 10
0.0
 20
0.0
 30
0.0
  0
LINE
  5
2A27
330
1F
100
AcDbEntity
  8
0
100
AcDbLine
 10
496.7438080086693
 20
169.498045374513
 30
0.0
 11
496.7438080086693
 21
186.498045374513
 31
0.0
  0
LINE
  5
2A28
330
1F
100
AcDbEntity
  8
0
100
AcDbLine
 10
496.7438080086693
 20
186.498045374513
 30
0.0
 11
498.3438080086693
 21
186.498045374513
 31
0.0
  0
LINE
  5
2A29
330
1F
100
AcDbEntity
  8
0
100
AcDbLine
 10
498.3438080086693
 20
186.498045374513
 30
0.0
 11
498.3438080086693
 21
169.498045374513
 31
0.0
  0
LINE
  5
2A2A
330
1F
100
AcDbEntity
  8
0
100
AcDbLine
 10
498.3438080086693
 20
169.498045374513
 30
0.0
 11
496.7438080086693
 21
169.498045374513
 31
0.0
  0
CIRCLE
  5
2A3D
330
1F
100
AcDbEntity
  8
AM_0
100
AcDbCircle
 10
410.5449713216055
 20
212.0468820615565
 30
0.0
 40
3.32341765329346
  0
LINE
  5
2A3E
330
1F
100
AcDbEntity
  8
AM_7
  6
AM_ISO08W050x2
100
AcDbLine
 10
403.5449713216055
 20
212.0468820615565
 30
0.0
 11
417.5449713216055
 21
212.0468820615565
 31
0.0
  0
LINE
  5
2A3F
330
1F
100
AcDbEntity
  8
AM_7
  6
AM_ISO08W050x2
100
AcDbLine
 10
410.5449713216055
 20
205.0468820615566
 30
0.0
 11
410.5449713216055
 21
219.0468820615565
 31
0.0
  0
LINE
  5
2A47
330
1F
100
AcDbEntity
  8
0
100
AcDbLine
 10
496.7438082350935
 20
758.2111402566925
 30
0.0
 11
496.7438082350935
 21
775.2111402566925
 31
0.0
  0
LINE
  5
2A48
330
1F
100
AcDbEntity
  8
0
100
AcDbLine
 10
496.7438080086692
 20
775.2111401363464
 30
0.0
 11
498.3438080086692
 21
775.2111401363464
 31
0.0
  0
LINE
  5
2A49
330
1F
100
AcDbEntity
  8
0
100
AcDbLine
 10
498.3438080086692
 20
775.2111401363464
 30
0.0
 11
498.3438080086692
 21
758.2111401363464
 31
0.0
  0
LINE
  5
2A4A
330
1F
100
AcDbEntity
  8
0
100
AcDbLine
 10
498.3438080086692
 20
758.2111401363464
 30
0.0
 11
496.7438080086692
 21
758.2111401363464
 31
0.0
  0
INSERT
  5
2A4B
330
1F
100
AcDbEntity
  8
AM_0N
100
AcDbBlockReference
  2
*U49
 10
0.0
 20
0.0
 30
0.0
  0
LINE
  5
2A51
330
1F
100
AcDbEntity
  8
0
100
AcDbLine
 10
436.0938080086693
 20
702.3111402566932
 30
0.0
 11
438.7938080086693
 21
702.3111402566932
 31
0.0
  0
LINE
  5
2A52
330
1F
100
AcDbEntity
  8
0
100
AcDbLine
 10
453.0938077822451
 20
702.3111401363471
 30
0.0
 11
453.0938077822451
 21
700.7111401363471
 31
0.0
  0
LINE
  5
2A53
330
1F
100
AcDbEntity
  8
0
100
AcDbLine
 10
453.0938077822451
 20
700.7111401363471
 30
0.0
 11
436.0938077822451
 21
700.7111401363471
 31
0.0
  0
LINE
  5
2A54
330
1F
100
AcDbEntity
  8
0
100
AcDbLine
 10
436.0938077822451
 20
700.7111401363471
 30
0.0
 11
436.0938077822451
 21
702.3111401363471
 31
0.0
  0
INSERT
  5
2A55
330
1F
100
AcDbEntity
  8
AM_0N
100
AcDbBlockReference
  2
*U50
 10
0.0
 20
0.0
 30
0.0
  0
LINE
  5
2A57
330
1F
100
AcDbEntity
  8
0
100
AcDbLine
 10
402.0449704577861
 20
702.3111402566932
 30
0.0
 11
404.7449704577862
 21
702.3111402566932
 31
0.0
  0
LINE
  5
2A58
330
1F
100
AcDbEntity
  8
0
100
AcDbLine
 10
419.0449702313619
 20
702.3111401363471
 30
0.0
 11
419.0449702313619
 21
700.7111401363471
 31
0.0
  0
LINE
  5
2A5A
330
1F
100
AcDbEntity
  8
0
100
AcDbLine
 10
402.0449702313619
 20
702.2111401363471
 30
0.0
 11
402.0449702313619
 21
702.3111401363471
 31
0.0
  0
INSERT
  5
2A5B
330
1F
100
AcDbEntity
  8
AM_0N
100
AcDbBlockReference
  2
*U51
 10
0.0
 20
0.0
 30
0.0
  0
LINE
  5
2A5D
330
1F
100
AcDbEntity
  8
0
100
AcDbLine
 10
319.8438080086694
 20
702.3111402566932
 30
0.0
 11
322.5438080086694
 21
702.3111402566932
 31
0.0
  0
LINE
  5
2A5E
330
1F
100
AcDbEntity
  8
0
100
AcDbLine
 10
336.8438077822451
 20
702.3111401363471
 30
0.0
 11
336.8438077822451
 21
702.2111401363471
 31
0.0
  0
LINE
  5
2A60
330
1F
100
AcDbEntity
  8
0
100
AcDbLine
 10
319.8438077822451
 20
702.2111401363471
 30
0.0
 11
319.8438077822451
 21
702.3111401363471
 31
0.0
  0
INSERT
  5
2A61
330
1F
100
AcDbEntity
  8
AM_0N
100
AcDbBlockReference
  2
*U52
 10
0.0
 20
0.0
 30
0.0
  0
LINE
  5
2A63
330
1F
100
AcDbEntity
  8
0
100
AcDbLine
 10
237.6426446957333
 20
702.3111402566932
 30
0.0
 11
240.3426446957333
 21
702.3111402566932
 31
0.0
  0
LINE
  5
2A64
330
1F
100
AcDbEntity
  8
0
100
AcDbLine
 10
254.6426444693091
 20
702.3111401363471
 30
0.0
 11
254.6426444693091
 21
702.2111401363471
 31
0.0
  0
LINE
  5
2A66
330
1F
100
AcDbEntity
  8
0
100
AcDbLine
 10
237.6426444693091
 20
700.7111401363471
 30
0.0
 11
237.6426444693091
 21
702.3111401363471
 31
0.0
  0
INSERT
  5
2A67
330
1F
100
AcDbEntity
  8
AM_0N
100
AcDbBlockReference
  2
*U53
 10
0.0
 20
0.0
 30
0.0
  0
LINE
  5
2A69
330
1F
100
AcDbEntity
  8
0
100
AcDbLine
 10
203.5938080086694
 20
702.3111402566932
 30
0.0
 11
206.2938080086694
 21
702.3111402566932
 31
0.0
  0
LINE
  5
2A6A
330
1F
100
AcDbEntity
  8
0
100
AcDbLine
 10
220.5938077822451
 20
702.3111401363471
 30
0.0
 11
220.5938077822451
 21
700.7111401363471
 31
0.0
  0
LINE
  5
2A6B
330
1F
100
AcDbEntity
  8
0
100
AcDbLine
 10
220.5938077822451
 20
700.7111401363471
 30
0.0
 11
203.5938077822451
 21
700.7111401363471
 31
0.0
  0
LINE
  5
2A6C
330
1F
100
AcDbEntity
  8
0
100
AcDbLine
 10
203.5938077822451
 20
700.7111401363471
 30
0.0
 11
203.5938077822451
 21
702.3111401363471
 31
0.0
  0
INSERT
  5
2A6D
330
1F
100
AcDbEntity
  8
AM_0N
100
AcDbBlockReference
  2
*U54
 10
0.0
 20
0.0
 30
0.0
  0
LINE
  5
2AA0
330
1F
100
AcDbEntity
  8
AM_9
 60
     1
100
AcDbLine
 10
438.7938080086693
 20
702.3111402566932
 30
0.0
 11
450.3938080086694
 21
702.3111402566932
 31
0.0
1001
AMG_2DHIDE
1002
{
1040
1.910813200047096E+99
1002
{
1000
OE
1000
CON1
1002
}
1002
}
  0
LINE
  5
2AA1
330
1F
100
AcDbEntity
  8
0
100
AcDbLine
 10
450.3938080086694
 20
702.3111402566932
 30
0.0
 11
453.0938080086693
 21
702.3111402566932
 31
0.0
  0
LINE
  5
2AA3
330
1F
100
AcDbEntity
  8
AM_9
 60
     1
100
AcDbLine
 10
404.7449704577862
 20
702.3111402566932
 30
0.0
 11
416.3449704577862
 21
702.3111402566932
 31
0.0
1001
AMG_2DHIDE
1002
{
1040
0.0
1002
{
1000
OE
1000
CON1
1002
}
1002
}
  0
LINE
  5
2AA4
330
1F
100
AcDbEntity
  8
0
100
AcDbLine
 10
416.3449704577862
 20
702.3111402566932
 30
0.0
 11
419.0449704577862
 21
702.3111402566932
 31
0.0
  0
LINE
  5
2AA6
330
1F
100
AcDbEntity
  8
AM_9
 60
     1
100
AcDbLine
 10
322.5438080086694
 20
702.3111402566932
 30
0.0
 11
334.1438080086694
 21
702.3111402566932
 31
0.0
1001
AMG_2DHIDE
1002
{
1040
0.0
1002
{
1000
OE
1000
CON1
1002
}
1002
}
  0
LINE
  5
2AA7
330
1F
100
AcDbEntity
  8
0
100
AcDbLine
 10
334.1438080086694
 20
702.3111402566932
 30
0.0
 11
336.8438080086694
 21
702.3111402566932
 31
0.0
  0
LINE
  5
2AA9
330
1F
100
AcDbEntity
  8
AM_9
 60
     1
100
AcDbLine
 10
240.3426446957333
 20
702.3111402566932
 30
0.0
 11
251.9426446957333
 21
702.3111402566932
 31
0.0
1001
AMG_2DHIDE
1002
{
1040
0.0
1002
{
1000
OE
1000
CON1
1002
}
1002
}
  0
LINE
  5
2AAA
330
1F
100
AcDbEntity
  8
0
100
AcDbLine
 10
251.9426446957333
 20
702.3111402566932
 30
0.0
 11
254.6426446957333
 21
702.3111402566932
 31
0.0
  0
LINE
  5
2AAC
330
1F
100
AcDbEntity
  8
AM_9
 60
     1
100
AcDbLine
 10
206.2938080086694
 20
702.3111402566932
 30
0.0
 11
217.8938080086694
 21
702.3111402566932
 31
0.0
1001
AMG_2DHIDE
1002
{
1040
3.690252692993616E+99
1002
{
1000
OE
1000
CON1
1002
}
1002
}
  0
LINE
  5
2AAD
330
1F
100
AcDbEntity
  8
0
100
AcDbLine
 10
217.8938080086694
 20
702.3111402566932
 30
0.0
 11
220.5938080086694
 21
702.3111402566932
 31
0.0
  0
LINE
  5
2AB0
330
1F
100
AcDbEntity
  8
0
100
AcDbLine
 10
216.0938080086695
 20
700.7111401363471
 30
0.0
 11
216.0938080086695
 21
696.7111401363471
 31
0.0
  0
LINE
  5
2AB1
330
1F
100
AcDbEntity
  8
AM_5
100
AcDbLine
 10
215.2938080086695
 20
700.711140136347
 30
0.0
 11
215.2938080086695
 21
696.7111401363471
 31
0.0
  0
LINE
  5
2AB4
330
1F
100
AcDbEntity
  8
0
100
AcDbLine
 10
208.0938080086695
 20
709.1111402566932
 30
0.0
 11
208.0938080086695
 21
720.9111401363473
 31
0.0
  0
LINE
  5
2AB5
330
1F
100
AcDbEntity
  8
AM_5
100
AcDbLine
 10
208.8938080086694
 20
709.1111402566932
 30
0.0
 11
208.8938080086694
 21
721.7111401363471
 31
0.0
  0
LINE
  5
2AB9
330
1F
100
AcDbEntity
  8
0
100
AcDbLine
 10
448.5938080086695
 20
700.7111401363468
 30
0.0
 11
448.5938080086695
 21
696.7111401363471
 31
0.0
  0
LINE
  5
2ABA
330
1F
100
AcDbEntity
  8
AM_5
100
AcDbLine
 10
447.7938080086694
 20
700.711140136347
 30
0.0
 11
447.7938080086695
 21
696.7111401363471
 31
0.0
  0
LINE
  5
2ABF
330
1F
100
AcDbEntity
  8
AM_5
100
AcDbLine
 10
441.3938080086694
 20
709.1111402566932
 30
0.0
 11
441.3938080086694
 21
721.7111401363471
 31
0.0
  0
LINE
  5
2AC0
330
1F
100
AcDbEntity
  8
0
100
AcDbLine
 10
440.5938080086695
 20
709.1111402566932
 30
0.0
 11
440.5938080086695
 21
720.9111401363473
 31
0.0
  0
HATCH
  5
2BAC
330
1F
100
AcDbEntity
  8
0
 62
     1
100
AcDbHatch
 10
0.0
 20
0.0
 30
0.0
210
0.0
220
0.0
230
1.0
  2
ANSI31
 70
     0
 71
     0
 91
        4
 92
        7
 72
     0
 73
     1
 93
        4
 10
420.0260342563137
 20
605.804684213304
 10
385.4098791346262
 20
606.7111401363473
 10
385.3706137121644
 20
605.2116541488841
 10
419.3586185345532
 20
604.321646920312
 97
        0
 92
        7
 72
     0
 73
     1
 93
        4
 10
420.0260342563137
 20
605.8046842133042
 10
419.3586185345532
 20
604.321646920312
 10
819.5945750002934
 20
593.8410995551351
 10
820.2619907220539
 20
595.3241368481274
 97
        0
 92
        7
 72
     0
 73
     1
 93
        6
 10
403.2438080086692
 20
677.7686519366783
 10
403.2438080086692
 20
676.2681377479419
 10
834.0643034992483
 20
664.9867060426327
 10
839.2235456045224
 20
663.4584689072736
 10
839.2641961611111
 20
665.0108510329531
 10
834.3009799970307
 20
666.4810226391677
 97
        0
 92
        7
 72
     0
 73
     1
 93
        6
 10
837.4234198562289
 20
594.7144400390859
 10
837.4640704128173
 20
596.2668221647653
 10
832.2319171176452
 20
595.0106932943437
 10
820.2619907220539
 20
595.3241368481275
 10
819.5945750002934
 20
593.8410995551354
 10
832.3900627705306
 20
593.5060379159446
 97
        0
 75
     0
 76
     1
 52
0.0
 41
1.0
 77
     0
 78
     1
 53
45.0
 43
0.0
 44
0.0
 45
-2.245064030267287
 46
2.245064030267288
 79
     0
 47
0.1754639427023442
 98
        4
 10
403.4070972176632
 20
605.7373153235371
 10
673.0000474997864
 20
598.189865414753
 10
659.0429659089891
 20
670.0377124726306
 10
830.071409276527
 20
594.5782830964713
1001
ACAD
1010
0.0
1020
0.0
1030
0.0
  0
LINE
  5
2C06
330
1F
100
AcDbEntity
  8
0
100
AcDbLine
 10
254.9438080086701
 20
618.7111401363472
 30
0.0
 11
392.1288167731546
 21
618.7111401363472
 31
0.0
  0
DIMENSION
  5
2C16
102
{ACAD_XDICTIONARY
360
2C23
102
}
102
{ACAD_REACTORS
330
2C24
102
}
330
1F
100
AcDbEntity
  8
AM_5
100
AcDbDimension
  2
*D35
 10
864.3844858554826
 20
257.7498618884645
 30
0.0
 11
857.6344858554824
 21
294.2489539443718
 31
0.0
 70
    32
  1
%%c<>
 71
     5
 42
72.99818411181433
  3
AM_ISO$0
100
AcDbAlignedDimension
 13
833.3456729927025
 23
330.7480460002789
 33
0.0
 14
833.3528193544729
 24
257.7498618884645
 34
0.0
 50
90.0000001103222
100
AcDbRotatedDimension
1001
ACAD
1000
DSTYLE
1002
{
1070
   140
1040
10.5
1002
}
  0
DIMENSION
  5
2CA2
102
{ACAD_XDICTIONARY
360
2CAF
102
}
102
{ACAD_REACTORS
330
2CB0
102
}
330
1F
100
AcDbEntity
  8
AM_5
100
AcDbDimension
  2
*D36
 10
130.1716551756885
 20
606.7111401363473
 30
0.0
 11
123.4216551756884
 21
651.7111401363472
 31
0.0
 70
    32
 71
     5
 42
89.99999999999976
  3
AM_ISO$0
100
AcDbAlignedDimension
 13
162.3438080086694
 23
696.7111401363471
 33
0.0
 14
265.4438080086701
 24
606.7111401363472
 34
0.0
 50
90.0
100
AcDbRotatedDimension
1001
ACAD
1000
DSTYLE
1002
{
1070
   140
1040
10.5
1002
}
  0
DIMENSION
  5
2D51
102
{ACAD_XDICTIONARY
360
2D5E
102
}
102
{ACAD_REACTORS
330
2D5F
102
}
330
1F
100
AcDbEntity
  8
AM_5
100
AcDbDimension
  2
*D37
 10
908.4450291466284
 20
629.8626455360016
 30
0.0
 11
908.4450291466282
 21
661.3494057233861
 31
0.0
 70
   160
 71
     5
 42
66.84849460034524
  3
AM_ISO$0
100
AcDbAlignedDimension
 13
498.3438080086693
 23
696.711140136347
 33
0.0
 14
838.3438080086696
 24
629.8626455360016
 34
0.0
 50
89.99999999999994
100
AcDbRotatedDimension
1001
ACAD_DSTYLE_DIMINSPECT
1070
   396
1000
100%
1070
   395
1000

1070
   394
1070
    33
1070
   393
1070
     0
1001
ACAD
1000
DSTYLE
1002
{
1070
   140
1040
10.5
1070
   271
1070
     0
1002
}
  0
ENDSEC
  0
SECTION
  2
OBJECTS
  0
DICTIONARY
  5
C
330
0
100
AcDbDictionary
281
     1
  3
ACAD_2007HEADERVARS_RT
350
2ECA
  3
ACAD_COLOR
350
BE
  3
ACAD_GROUP
350
D
  3
ACAD_LAYOUT
350
1A
  3
ACAD_MATERIAL
350
BD
  3
ACAD_MLEADERSTYLE
350
2D10
  3
ACAD_MLINESTYLE
350
17
  3
ACAD_PLOTSETTINGS
350
19
  3
ACAD_PLOTSTYLENAME
350
E
  3
ACAD_SCALELIST
350
2CFE
  3
ACAD_TABLESTYLE
350
11A
  3
ACAD_VISUALSTYLE
350
2CED
  3
ACDB_RECOMPOSE_DATA
350
2EC9
  3
AcDbVariableDictionary
350
94
  3
AcmDictionary
350
5B
  3
AMG
350
41
  3
AMGSNAPSETTINGS
350
26B
  3
ASE_INDEX_DICTIONARY
350
2CCF
  0
DICTIONARY
  5
613
330
2
100
AcDbDictionary
280
     1
281
     1
  3
ACAD_LAYERSTATES
360
7B7
  3
AMLAYER_GROUPCOLORS
360
614
  0
DICTIONARY
  5
8F
330
1F
100
AcDbDictionary
280
     1
281
     1
  3
ACAD_SORTENTS
360
2E9
  0
DICTIONARY
  5
1C14
330
1C13
100
AcDbDictionary
280
     1
281
     1
  3
ACAD_DIMASSOC
360
1C15
  0
DICTIONARY
  5
1C1F
330
1C1E
100
AcDbDictionary
280
     1
281
     1
  3
ACAD_DIMASSOC
360
1C20
  0
DICTIONARY
  5
1C25
330
1C24
100
AcDbDictionary
280
     1
281
     1
  3
ACAD_DIMASSOC
360
1C26
  0
DICTIONARY
  5
1C28
330
1C27
100
AcDbDictionary
280
     1
281
     1
  3
ACAD_DIMASSOC
360
1C29
  0
DICTIONARY
  5
1C54
330
1C53
100
AcDbDictionary
280
     1
281
     1
  3
ACAD_DIMASSOC
360
1C55
  0
DICTIONARY
  5
1C9A
330
1C99
100
AcDbDictionary
280
     1
281
     1
  3
ACAD_DIMASSOC
360
1C9B
  0
DICTIONARY
  5
1C9E
330
1C9D
100
AcDbDictionary
280
     1
281
     1
  3
ACAD_DIMASSOC
360
1C9F
  0
DICTIONARY
  5
1CA7
330
1CA6
100
AcDbDictionary
280
     1
281
     1
  3
ACAD_DIMASSOC
360
1CA8
  0
DICTIONARY
  5
27E1
330
27D4
100
AcDbDictionary
280
     1
281
     1
  3
ACAD_DIMASSOC
360
27E2
  0
DICTIONARY
  5
2C23
330
2C16
100
AcDbDictionary
280
     1
281
     1
  3
ACAD_DIMASSOC
360
2C24
  0
DICTIONARY
  5
2CAF
330
2CA2
100
AcDbDictionary
280
     1
281
     1
  3
ACAD_DIMASSOC
360
2CB0
  0
DICTIONARY
  5
2D5E
330
2D51
100
AcDbDictionary
280
     1
281
     1
  3
ACAD_DIMASSOC
360
2D5F
  0
DICTIONARY
  5
2ECA
102
{ACAD_REACTORS
330
C
102
}
330
C
100
AcDbDictionary
281
     1
  3
DIMARCSYM
350
2ECB
  0
DICTIONARY
  5
BE
102
{ACAD_REACTORS
330
C
102
}
330
C
100
AcDbDictionary
281
     1
  0
DICTIONARY
  5
D
102
{ACAD_REACTORS
330
C
102
}
330
C
100
AcDbDictionary
281
     1
  0
DICTIONARY
  5
1A
102
{ACAD_REACTORS
330
C
102
}
330
C
100
AcDbDictionary
281
     1
  3
Layout1
350
1E
  3
Layout2
350
26
  3
Model
350
22
  0
DICTIONARY
  5
BD
102
{ACAD_REACTORS
330
C
102
}
330
C
100
AcDbDictionary
281
     1
  3
ByBlock
350
2CDD
  3
ByLayer
350
2CD5
  3
Global
350
2CE5
  0
DICTIONARY
  5
2D10
102
{ACAD_REACTORS
330
C
102
}
330
C
100
AcDbDictionary
281
     1
  3
Standard
350
2D11
  0
DICTIONARY
  5
17
102
{ACAD_REACTORS
330
C
102
}
330
C
100
AcDbDictionary
281
     1
  3
Standard
350
18
  0
DICTIONARY
  5
19
102
{ACAD_REACTORS
330
C
102
}
330
C
100
AcDbDictionary
281
     1
  0
ACDBDICTIONARYWDFLT
  5
E
102
{ACAD_REACTORS
330
C
102
}
330
C
100
AcDbDictionary
281
     1
  3
Normal
350
F
100
AcDbDictionaryWithDefault
340
F
  0
DICTIONARY
  5
2CFE
102
{ACAD_REACTORS
330
C
102
}
330
C
100
AcDbDictionary
281
     1
  3
A0
350
2CFF
  3
A1
350
2D00
  3
A2
350
2D01
  3
A3
350
2D02
  3
A4
350
2D03
  3
A5
350
2D04
  3
A6
350
2D05
  3
A7
350
2D06
  3
A8
350
2D07
  3
A9
350
2D08
  3
B0
350
2D09
  3
B1
350
2D0A
  3
B2
350
2D0B
  3
B3
350
2D0C
  3
B4
350
2D0D
  3
B5
350
2D0E
  3
B6
350
2D0F
  0
DICTIONARY
  5
11A
102
{ACAD_REACTORS
330
C
102
}
330
C
100
AcDbDictionary
281
     1
  3
Standard
350
11B
  0
DICTIONARY
  5
2CED
102
{ACAD_REACTORS
330
C
102
}
330
C
100
AcDbDictionary
281
     1
  3
2dWireframe
350
2CF3
  3
3D Hidden
350
2CF5
  3
3dWireframe
350
2CF4
  3
Basic
350
2CF2
  3
Brighten
350
2CF9
  3
ColorChange
350
2CFD
  3
Conceptual
350
2CF6
  3
Dim
350
2CF8
  3
Facepattern
350
2CFC
  3
Flat
350
2CEE
  3
FlatWithEdges
350
2CEF
  3
Gouraud
350
2CF0
  3
GouraudWithEdges
350
2CF1
  3
Linepattern
350
2CFB
  3
Realistic
350
2CF7
  3
Thicken
350
2CFA
  0
XRECORD
  5
2EC9
102
{ACAD_REACTORS
330
C
102
}
330
C
100
AcDbXrecord
280
     1
 90
        1
330
11B
  0
DICTIONARY
  5
94
102
{ACAD_REACTORS
330
C
102
}
330
C
100
AcDbDictionary
281
     1
  3
CANNOSCALE
350
2EC6
  3
CMLEADERSTYLE
350
2EC5
  3
CTABLESTYLE
350
138
  3
DIMASSOC
350
96
  3
INDEXCTL
350
95
  0
DICTIONARY
  5
5B
102
{ACAD_REACTORS
330
C
102
}
330
C
100
AcDbDictionary
281
     1
  3
AcmBOM
350
272
  3
AcmStdDictionary
350
61
  3
AMDTSECTSYM_ARROWCOLOR
350
123
  0
DICTIONARY
  5
41
102
{ACAD_REACTORS
330
C
102
}
330
C
100
AcDbDictionary
281
     1
  0
DICTIONARY
  5
26B
102
{ACAD_REACTORS
330
C
102
}
330
C
100
AcDbDictionary
281
     1
  0
DICTIONARY
  5
2CCF
102
{ACAD_REACTORS
330
C
102
}
330
C
100
AcDbDictionary
281
     1
  3
ASEBlockHierarchyIndexRecord
350
2CD0
1001
DCO15
1040
1585994251.91
  0
DICTIONARY
  5
7B7
102
{ACAD_REACTORS
330
613
102
}
330
613
100
AcDbDictionary
281
     1
  0
DICTIONARY
  5
614
102
{ACAD_REACTORS
330
613
102
}
330
613
100
AcDbDictionary
280
     1
281
     1
  0
SORTENTSTABLE
  5
2E9
102
{ACAD_REACTORS
330
8F
102
}
330
8F
100
AcDbSortentsTable
330
1F
331
23B0
  5
23CB
331
2379
  5
2394
331
2A28
  5
2A58
331
23B8
  5
23DA
331
2342
  5
2358
331
2381
  5
239C
331
2AA6
  5
2AA9
331
23C0
  5
23E2
331
234A
  5
2362
331
2389
  5
23A4
331
23C8
  5
2414
331
2352
  5
2369
331
1C19
  5
1C19
331
1C97
  5
1CC1
331
1C58
  5
1C5F
331
1C60
  5
1C7B
331
1E33
  5
2110
331
20E1
  5
234D
331
1C68
  5
1C86
331
2391
  5
23AC
331
235A
  5
2372
331
2A48
  5
2A60
331
2399
  5
23B4
331
2362
  5
237C
331
23D8
  5
256E
331
23A1
  5
23BC
331
236A
  5
2385
331
23E0
  5
26BA
331
25D7
  5
2916
331
23A9
  5
23C4
331
2A60
  5
2AB1
331
29EA
  5
2A47
331
2A21
  5
2A51
331
1C31
  5
1C31
331
1C78
  5
1C8F
331
2062
  5
21BA
331
1CB7
  5
206C
331
1C80
  5
1C97
331
1C0A
  5
1C0A
331
1CBF
  5
20CB
331
1C88
  5
1CB2
331
1C49
  5
1C4F
331
1C12
  5
1C12
331
20CA
  5
2347
331
23B1
  5
23CC
331
237A
  5
2395
331
2A29
  5
2A59
331
23B9
  5
23DB
331
2343
  5
2359
331
2382
  5
239D
331
29F2
  5
2A4B
331
23C1
  5
23E3
331
234B
  5
2363
331
238A
  5
23A5
331
2AA7
  5
2AAA
331
23C9
  5
24C0
331
2353
  5
236A
331
1C90
  5
1CBA
331
1C1A
  5
1C1A
331
1C98
  5
1CC2
331
1C59
  5
1C60
331
2ABF
  5
1C5E
331
1C61
  5
1C7D
331
1C2A
  5
1C2A
331
1C69
  5
1C87
331
235B
  5
2375
331
2392
  5
23AD
331
239A
  5
23B5
331
2363
  5
237D
331
23D9
  5
25D6
331
2A49
  5
2A61
331
2A51
  5
2A66
331
23A2
  5
23BD
331
236B
  5
2387
331
23E1
  5
26C5
331
25D8
  5
2917
331
23AA
  5
23C5
331
2373
  5
238D
331
1C32
  5
1C32
331
2A61
  5
2AB2
331
2A22
  5
2A53
331
1C79
  5
1C90
331
1CB8
  5
206F
331
1C81
  5
1C98
331
1C42
  5
1C45
331
206B
  5
21C3
331
1C0B
  5
1C0B
331
1CC0
  5
20CC
331
1C89
  5
1CB3
331
1DFD
  5
20E1
331
1C13
  5
1C13
331
20CB
  5
2348
331
26A0
  5
2919
331
23B2
  5
23CD
331
237B
  5
2396
331
2AA0
  5
2A6E
331
2A69
  5
2ABB
331
23BA
  5
23DC
331
2344
  5
235A
331
2383
  5
239E
331
2A2A
  5
2A5B
331
23C2
  5
23E4
331
234C
  5
2364
331
238B
  5
23A6
331
2AB0
  5
1C80
331
23CA
  5
24CD
331
2354
  5
236C
331
1C91
  5
1CBB
331
1C1B
  5
1C1B
331
1C99
  5
1CC3
331
1C5A
  5
1C63
331
1E2D
  5
2105
331
1C62
  5
1C7E
331
2393
  5
23AE
331
235C
  5
2376
331
239B
  5
23B6
331
2364
  5
237E
331
23DA
  5
25D8
331
2A4A
  5
2A63
331
2AC0
  5
1C5B
331
2A52
  5
2A69
331
23A3
  5
23BE
331
236C
  5
2388
331
23E2
  5
26CB
331
2A5A
  5
2AA4
331
23AB
  5
23C6
331
2374
  5
238E
331
25D9
  5
2918
331
1C33
  5
1C33
331
29EC
  5
2A48
331
2A23
  5
2A54
331
1C7A
  5
1C91
331
1C3B
  5
1C3E
331
1CB9
  5
2071
331
1C82
  5
1C99
331
1C43
  5
1C47
331
206C
  5
21CD
331
1C0C
  5
1C0C
331
1CC1
  5
20CD
331
1C8A
  5
1CB4
331
20CC
  5
2349
331
23B3
  5
23D5
331
237C
  5
2397
331
2AA1
  5
2AA0
331
2A6A
  5
2ABE
331
23BB
  5
23DD
331
2345
  5
235C
331
2384
  5
239F
331
29F4
  5
2A4D
331
23C3
  5
23E5
331
234D
  5
2365
331
238C
  5
23A7
331
2AA9
  5
2AB4
331
23CB
  5
2391
331
2355
  5
236D
331
2AB1
  5
1C82
331
1C92
  5
1CBC
331
1C53
  5
1C58
331
1C1C
  5
1C1C
331
2AB9
  5
1C64
331
1C5B
  5
1C67
331
1C24
  5
1C24
331
1C63
  5
1C7F
331
1C2C
  5
1C2C
331
1C6B
  5
1C88
331
2394
  5
23AF
331
235D
  5
2377
331
2A4B
  5
2A65
331
239C
  5
23B7
331
2365
  5
237F
331
23DB
  5
25D9
331
2A53
  5
2A6B
331
23A4
  5
23BF
331
236D
  5
2389
331
23E3
  5
27D4
331
2A5B
  5
2AA6
331
23AC
  5
23C7
331
2375
  5
238F
331
1C34
  5
1C34
331
2A63
  5
2AB3
331
2A24
  5
2A55
331
1CB2
  5
1E58
331
1C7B
  5
1C92
331
1C3C
  5
1C3F
331
1E5E
  5
212E
331
1CBA
  5
2072
331
1C83
  5
1C9C
331
1C44
  5
1C48
331
1C0D
  5
1C0D
331
1CC2
  5
20DF
331
1C8B
  5
1CB5
331
1C4C
  5
1C53
331
20CD
  5
234A
331
23B4
  5
23D6
331
237D
  5
2398
331
2A6B
  5
2ABF
331
23BC
  5
23DE
331
2346
  5
235D
331
2385
  5
23A0
331
2AAA
  5
2AB5
331
23C4
  5
23E6
331
234E
  5
2366
331
238D
  5
23A8
331
23CC
  5
2386
331
2356
  5
236E
331
1C93
  5
1CBD
331
1C1D
  5
1C1D
331
2ABA
  5
1C68
331
1C5C
  5
1C69
331
1C64
  5
1C81
331
1C2D
  5
1C2D
331
1C6C
  5
1C89
331
2395
  5
23B0
331
235E
  5
2378
331
239D
  5
23B8
331
2366
  5
2380
331
23DC
  5
2694
331
2A54
  5
2A6C
331
23A5
  5
23C0
331
236E
  5
238A
331
23E4
  5
27FA
331
29E6
  5
2A3E
331
23AD
  5
23C8
331
212F
  5
2352
331
2376
  5
2390
331
2A64
  5
2AB7
331
29EE
  5
2A49
331
1C35
  5
1C35
331
1CB3
  5
1E5E
331
1C7C
  5
1C93
331
1C3D
  5
1C40
331
1CBB
  5
2073
331
1C84
  5
1C9D
331
1C0E
  5
1C0E
331
1C45
  5
1C49
331
1CC3
  5
20E0
331
1C8C
  5
1CB6
331
1C16
  5
1C16
331
1C4D
  5
1C56
331
23B5
  5
23D7
331
237E
  5
2399
331
2AA3
  5
2AA3
331
2A6C
  5
2AC0
331
23BD
  5
23DF
331
2347
  5
235E
331
2386
  5
23A1
331
26B3
  5
291A
331
23C5
  5
23E7
331
238E
  5
23A9
331
2A3D
  5
2A5C
331
26BB
  5
29CC
331
23CD
  5
2381
331
2357
  5
236F
331
1C1E
  5
1C1E
331
1C94
  5
1CBE
331
1C5D
  5
1C6B
331
1C2E
  5
1C2E
331
1C65
  5
1C83
331
1C6D
  5
1C8A
331
2396
  5
23B1
331
2110
  5
234E
331
235F
  5
2379
331
23D5
  5
235B
331
26CB
  5
291F
331
239E
  5
23B9
331
2367
  5
2382
331
23DD
  5
269F
331
2A55
  5
2A6D
331
23A6
  5
23C1
331
236F
  5
238B
331
23E5
  5
2876
331
2A5D
  5
2AA7
331
23AE
  5
23C9
331
2377
  5
2392
331
2A26
  5
2A56
331
1C75
  5
1C8C
331
1E58
  5
2119
331
1CB4
  5
2039
331
1C7D
  5
1C94
331
1C3E
  5
1C42
331
1CBC
  5
2074
331
1C0F
  5
1C0F
331
1C85
  5
1CA0
331
1C17
  5
1C17
331
1C8D
  5
1CB7
331
23B6
  5
23D8
331
237F
  5
239A
331
2A6D
  5
2AE4
331
23BE
  5
23E0
331
2348
  5
235F
331
2387
  5
23A2
331
2AAC
  5
2ABC
331
23C6
  5
23F6
331
2350
  5
2367
331
238F
  5
23AA
331
2A3E
  5
2A5D
331
287A
  5
29D0
331
2AB4
  5
1C74
331
1C95
  5
1CBF
331
1C56
  5
1C5A
331
20DF
  5
234B
331
1C9D
  5
1DF7
331
1C5E
  5
1C71
331
1C27
  5
1C27
331
1C66
  5
1C84
331
1C2F
  5
1C2F
331
1C6E
  5
1C8B
331
2358
  5
2370
331
2397
  5
23B2
331
2111
  5
234F
331
2360
  5
237A
331
23D6
  5
2360
331
24CD
  5
2914
331
239F
  5
23BA
331
2368
  5
2383
331
23DE
  5
26B3
331
23A7
  5
23C2
331
2370
  5
238C
331
23E6
  5
287A
331
29E8
  5
2A3F
331
2A5E
  5
2AB0
331
23AF
  5
23CA
331
1C76
  5
1C8D
331
2A66
  5
2AB9
331
2A27
  5
2A57
331
1CB5
  5
2062
331
1C7E
  5
1C95
331
1C3F
  5
1C43
331
1C08
  5
1C08
331
1CBD
  5
20C9
331
1C86
  5
1CA3
331
1C47
  5
1C4C
331
1C8E
  5
1CB8
331
1C4F
  5
1C57
331
2378
  5
2393
331
29F0
  5
2A4A
331
23B7
  5
23D9
331
2341
  5
2357
331
2380
  5
239B
331
23F6
  5
290F
331
27D4
  5
29CD
331
23BF
  5
23E1
331
2349
  5
2361
331
2388
  5
23A3
331
2AAD
  5
2ABD
331
26B5
  5
291C
331
23C7
  5
23F7
331
2351
  5
2368
331
2BAC
  5
2B0B
331
2A3F
  5
2A5E
331
287B
  5
29D3
331
2AB5
  5
1C7C
331
1C18
  5
1C18
331
1C96
  5
1CC0
331
2A47
  5
2A5F
331
1C57
  5
1C5D
331
1C5F
  5
1C73
331
2039
  5
21A6
331
1C67
  5
1C85
331
1CA6
  5
1E52
331
1E52
  5
2111
331
2390
  5
23AB
331
2359
  5
2371
331
26C5
  5
291B
331
2398
  5
23B3
331
2361
  5
237B
331
23D7
  5
236B
331
23A0
  5
23BB
331
211A
  5
2350
331
2369
  5
2384
331
23DF
  5
26B5
331
2A57
  5
2AA1
331
25D6
  5
2915
331
23A8
  5
23C3
331
2A20
  5
2A50
331
1C30
  5
1C30
331
2A67
  5
2ABA
331
1C77
  5
1C8E
331
1CB6
  5
206B
331
1C7F
  5
1C96
331
1C40
  5
1C44
331
1C09
  5
1C09
331
1CBE
  5
20CA
331
1C87
  5
1CA6
331
1C48
  5
1C4D
331
20C9
  5
2346
331
1C8F
  5
1CB9
331
1E03
  5
20FF
  0
DIMASSOC
  5
1C15
102
{ACAD_REACTORS
330
1C14
102
}
330
1C14
100
AcDbDimAssoc
330
1C13
 90
        2
 70
     0
 71
     0
  1
AcDbOsnapPointRef
 72
     6
331
1C0F
 73
     0
 91
        0
 40
0.0
 10
0.0
 20
0.0
 30
0.0
332
1C0C
 74
     0
 92
        0
 75
     0
  0
DIMASSOC
  5
1C20
102
{ACAD_REACTORS
330
1C1F
102
}
330
1C1F
100
AcDbDimAssoc
330
1C1E
 90
        3
 70
     0
 71
     0
  1
AcDbOsnapPointRef
 72
    13
331
1C1A
 73
     0
 91
        0
 40
0.0
 10
0.0
 20
0.0
 30
2.000000000000000E+50
 75
     0
  1
AcDbOsnapPointRef
 72
    13
331
1C1B
 73
     0
 91
        0
 40
0.0
 10
0.0
 20
0.0
 30
2.000000000000000E+50
 75
     0
  0
DIMASSOC
  5
1C26
102
{ACAD_REACTORS
330
1C25
102
}
330
1C25
100
AcDbDimAssoc
330
1C24
 90
        3
 70
     0
 71
     0
  1
AcDbOsnapPointRef
 72
     1
331
1C17
 73
     0
 91
        0
 40
0.0
 10
0.0
 20
0.0
 30
2.000000000000000E+50
 75
     0
  1
AcDbOsnapPointRef
 72
     1
331
1C1D
 73
     0
 91
        0
 40
0.0
 10
0.0
 20
0.0
 30
2.000000000000000E+50
 75
     0
  0
DIMASSOC
  5
1C29
102
{ACAD_REACTORS
330
1C28
102
}
330
1C28
100
AcDbDimAssoc
330
1C27
 90
        3
 70
     0
 71
     0
  1
AcDbOsnapPointRef
 72
    13
331
1C09
 73
     0
 91
        0
 40
0.0
 10
0.0
 20
0.0
 30
2.000000000000000E+50
 75
     0
  1
AcDbOsnapPointRef
 72
    13
331
1C0A
 73
     0
 91
        0
 40
0.0
 10
0.0
 20
0.0
 30
2.000000000000000E+50
 75
     0
  0
DIMASSOC
  5
1C55
102
{ACAD_REACTORS
330
1C54
102
}
330
1C54
100
AcDbDimAssoc
330
1C53
 90
        1
 70
     0
 71
     0
  1
AcDbOsnapPointRef
 72
    13
331
1C3A
 73
     0
 91
        0
 40
0.0
 10
0.0
 20
0.0
 30
2.000000000000000E+50
 75
     0
  0
DIMASSOC
  5
1C9B
102
{ACAD_REACTORS
330
1C9A
102
}
330
1C9A
100
AcDbDimAssoc
330
1C99
 90
        3
 70
     0
 71
     1
  1
AcDbOsnapPointRef
 72
    13
331
1C98
 73
     0
 91
        0
 40
0.0
 10
0.0
 20
0.0
 30
2.000000000000000E+50
 75
     0
  1
AcDbOsnapPointRef
 72
    13
331
1C0F
 73
     0
 91
        0
 40
0.0
 10
0.0
 20
0.0
 30
2.000000000000000E+50
 75
     0
  0
DIMASSOC
  5
1C9F
102
{ACAD_REACTORS
330
1C9E
102
}
330
1C9E
100
AcDbDimAssoc
330
1C9D
 90
        3
 70
     0
 71
     0
  1
AcDbOsnapPointRef
 72
    13
331
1C67
 73
     0
 91
        0
 40
0.0
 10
0.0
 20
0.0
 30
2.000000000000000E+50
 75
     0
  1
AcDbOsnapPointRef
 72
    13
331
1C5E
 73
     0
 91
        0
 40
0.0
 10
0.0
 20
0.0
 30
2.000000000000000E+50
 75
     0
  0
DIMASSOC
  5
1CA8
102
{ACAD_REACTORS
330
1CA7
102
}
330
1CA7
100
AcDbDimAssoc
330
1CA6
 90
        3
 70
     0
 71
     0
  1
AcDbOsnapPointRef
 72
    13
331
1C47
 73
     2
 91
        0
 40
0.0
 10
0.0
 20
0.0
 30
2.000000000000000E+50
 75
     0
  1
AcDbOsnapPointRef
 72
     1
331
1C47
 73
     2
 91
        0
 40
1.0
 10
0.0
 20
0.0
 30
2.000000000000000E+50
 75
     0
  0
DIMASSOC
  5
27E2
102
{ACAD_REACTORS
330
27E1
102
}
330
27E1
100
AcDbDimAssoc
330
27D4
 90
        3
 70
     0
 71
     0
  1
AcDbOsnapPointRef
 72
    13
331
25D9
 73
     0
 91
        0
 40
0.0
 10
0.0
 20
0.0
 30
2.000000000000000E+50
 75
     0
  1
AcDbOsnapPointRef
 72
     1
331
25D9
 73
     0
 91
        0
 40
0.0
 10
0.0
 20
0.0
 30
2.000000000000000E+50
 75
     0
  0
DIMASSOC
  5
2C24
102
{ACAD_REACTORS
330
2C23
102
}
330
2C23
100
AcDbDimAssoc
330
2C16
 90
        3
 70
     0
 71
     0
  1
AcDbOsnapPointRef
 72
     1
331
287A
 73
     0
 91
        0
 40
0.0
 10
3.141271921727006
 20
6.283370481929414
 30
2.000000000000000E+50
 75
     0
  1
AcDbOsnapPointRef
 72
    11
331
1C4C
 73
     0
 91
        0
 40
1.0
 10
0.0
 20
0.0
 30
0.0
332
20E1
 74
     0
 92
        0
 75
     0
  0
DIMASSOC
  5
2CB0
102
{ACAD_REACTORS
330
2CAF
102
}
330
2CAF
100
AcDbDimAssoc
330
2CA2
 90
        3
 70
     0
 71
     0
  1
AcDbOsnapPointRef
 72
    13
331
1C09
 73
     0
 91
        0
 40
0.0
 10
0.0
 20
0.0
 30
2.000000000000000E+50
 75
     0
  1
AcDbOsnapPointRef
 72
    13
331
1C2E
 73
     0
 91
        0
 40
0.0
 10
0.0
 20
0.0
 30
2.000000000000000E+50
 75
     0
  0
DIMASSOC
  5
2D5F
102
{ACAD_REACTORS
330
2D5E
102
}
330
2D5E
100
AcDbDimAssoc
330
2D51
 90
        3
 70
     0
 71
     0
  1
AcDbOsnapPointRef
 72
    13
331
1C0D
 73
     0
 91
        0
 40
0.0
 10
0.0
 20
0.0
 30
2.000000000000000E+50
 75
     0
  1
AcDbOsnapPointRef
 72
     6
331
1C47
 73
     0
 91
        0
 40
0.9883401606555707
 10
0.0
 20
0.0
 30
0.0
332
20C9
 74
     0
 92
        0
 75
     0
  0
XRECORD
  5
2ECB
102
{ACAD_REACTORS
330
2ECA
102
}
330
2ECA
100
AcDbXrecord
280
     1
 70
     1
  0
LAYOUT
  5
1E
102
{ACAD_REACTORS
330
1A
102
}
330
1A
100
AcDbPlotSettings
  1

  2

  4

  6

 40
0.0
 41
0.0
 42
0.0
 43
0.0
 44
0.0
 45
0.0
 46
0.0
 47
0.0
 48
0.0
 49
0.0
140
0.0
141
0.0
142
1.0
143
1.0
 70
   688
 72
     0
 73
     0
 74
     5
  7
monochrome.ctb
 75
    16
147
1.0
 76
     0
 77
     2
 78
   300
148
0.0
149
0.0
100
AcDbLayout
  1
Layout1
 70
     1
 71
     1
 10
0.0
 20
0.0
 11
420.0
 21
297.0
 12
0.0
 22
0.0
 32
0.0
 14
1.000000000000000E+20
 24
1.000000000000000E+20
 34
1.000000000000000E+20
 15
-1.000000000000000E+20
 25
-1.000000000000000E+20
 35
-1.000000000000000E+20
146
0.0
 13
0.0
 23
0.0
 33
0.0
 16
1.0
 26
0.0
 36
0.0
 17
0.0
 27
1.0
 37
0.0
 76
     0
330
1B
  0
LAYOUT
  5
26
102
{ACAD_REACTORS
330
1A
102
}
330
1A
100
AcDbPlotSettings
  1

  2

  4

  6

 40
0.0
 41
0.0
 42
0.0
 43
0.0
 44
0.0
 45
0.0
 46
0.0
 47
0.0
 48
0.0
 49
0.0
140
0.0
141
0.0
142
1.0
143
1.0
 70
   688
 72
     0
 73
     0
 74
     5
  7
monochrome.ctb
 75
    16
147
1.0
 76
     0
 77
     2
 78
   300
148
0.0
149
0.0
100
AcDbLayout
  1
Layout2
 70
     1
 71
     2
 10
0.0
 20
0.0
 11
12.0
 21
9.0
 12
0.0
 22
0.0
 32
0.0
 14
0.0
 24
0.0
 34
0.0
 15
0.0
 25
0.0
 35
0.0
146
0.0
 13
0.0
 23
0.0
 33
0.0
 16
1.0
 26
0.0
 36
0.0
 17
0.0
 27
1.0
 37
0.0
 76
     0
330
23
  0
LAYOUT
  5
22
102
{ACAD_REACTORS
330
1A
102
}
330
1A
100
AcDbPlotSettings
  1

  2
\\RD-SR-210\PH-PR-040
  4
A4
  6

 40
4.233333110809326
 41
4.233341693878173
 42
4.233322143554687
 43
4.23333740234375
 44
209.9733276367187
 45
296.9259948730469
 46
0.0
 47
1.785286031920321
 48
0.0
 49
0.0
140
1189.0
141
841.0
142
1.0
143
4.173559069072511
 70
 11956
 72
     1
 73
     1
 74
     4
  7
monochrome.ctb
 75
     0
147
0.2396036532489355
 76
     0
 77
     2
 78
   300
148
0.0
149
0.0
100
AcDbLayout
  1
Model
 70
     1
 71
     0
 10
0.0
 20
0.0
 11
12.0
 21
9.0
 12
0.0
 22
0.0
 32
0.0
 14
0.0
 24
0.0
 34
0.0
 15
0.0
 25
0.0
 35
0.0
146
0.0
 13
0.0
 23
0.0
 33
0.0
 16
1.0
 26
0.0
 36
0.0
 17
0.0
 27
1.0
 37
0.0
 76
     0
330
1F
331
2CD3
1001
ACAD_PSEXT
1000
\\RD-SR-210\PH-PR-040
1000
HP LaserJet 5100 PCL 6
1000
PH, 3.OG, Konstruktion
1000
HP LJ 5100tn, Printserver: Jet Direct-Karte 620N, Sprache PCL6, Management per http: ja 
1070
     0
  0
MATERIAL
  5
2CDD
102
{ACAD_XDICTIONARY
360
2CDE
102
}
102
{ACAD_REACTORS
330
BD
102
}
330
BD
100
AcDbMaterial
  1
ByBlock
 72
     0
 43
0.0008202099737533
 43
0.0
 43
0.0
 43
0.0
 43
0.0
 43
0.0008202099737533
 43
0.0
 43
0.0
 43
0.0
 43
0.0
 43
1.0
 43
0.0
 43
0.0
 43
0.0
 43
0.0
 43
1.0
 77
     0
 47
0.0008202099737533
 47
0.0
 47
0.0
 47
0.0
 47
0.0
 47
0.0008202099737533
 47
0.0
 47
0.0
 47
0.0
 47
0.0
 47
1.0
 47
0.0
 47
0.0
 47
0.0
 47
0.0
 47
1.0
171
     0
 49
0.0008202099737533
 49
0.0
 49
0.0
 49
0.0
 49
0.0
 49
0.0008202099737533
 49
0.0
 49
0.0
 49
0.0
 49
0.0
 49
1.0
 49
0.0
 49
0.0
 49
0.0
 49
0.0
 49
1.0
175
     0
142
0.0008202099737533
142
0.0
142
0.0
142
0.0
142
0.0
142
0.0008202099737533
142
0.0
142
0.0
142
0.0
142
0.0
142
1.0
142
0.0
142
0.0
142
0.0
142
0.0
142
1.0
179
     0
144
0.0008202099737533
144
0.0
144
0.0
144
0.0
144
0.0
144
0.0008202099737533
144
0.0
144
0.0
144
0.0
144
0.0
144
1.0
144
0.0
144
0.0
144
0.0
144
0.0
144
1.0
147
0.0008202099737533
147
0.0
147
0.0
147
0.0
147
0.0
147
0.0008202099737533
147
0.0
147
0.0
147
0.0
147
0.0
147
1.0
147
0.0
147
0.0
147
0.0
147
0.0
147
1.0
  0
MATERIAL
  5
2CD5
102
{ACAD_XDICTIONARY
360
2CD6
102
}
102
{ACAD_REACTORS
330
BD
102
}
330
BD
100
AcDbMaterial
  1
ByLayer
 72
     0
 43
0.0008202099737533
 43
0.0
 43
0.0
 43
0.0
 43
0.0
 43
0.0008202099737533
 43
0.0
 43
0.0
 43
0.0
 43
0.0
 43
1.0
 43
0.0
 43
0.0
 43
0.0
 43
0.0
 43
1.0
 77
     0
 47
0.0008202099737533
 47
0.0
 47
0.0
 47
0.0
 47
0.0
 47
0.0008202099737533
 47
0.0
 47
0.0
 47
0.0
 47
0.0
 47
1.0
 47
0.0
 47
0.0
 47
0.0
 47
0.0
 47
1.0
171
     0
 49
0.0008202099737533
 49
0.0
 49
0.0
 49
0.0
 49
0.0
 49
0.0008202099737533
 49
0.0
 49
0.0
 49
0.0
 49
0.0
 49
1.0
 49
0.0
 49
0.0
 49
0.0
 49
0.0
 49
1.0
175
     0
142
0.0008202099737533
142
0.0
142
0.0
142
0.0
142
0.0
142
0.0008202099737533
142
0.0
142
0.0
142
0.0
142
0.0
142
1.0
142
0.0
142
0.0
142
0.0
142
0.0
142
1.0
179
     0
144
0.0008202099737533
144
0.0
144
0.0
144
0.0
144
0.0
144
0.0008202099737533
144
0.0
144
0.0
144
0.0
144
0.0
144
1.0
144
0.0
144
0.0
144
0.0
144
0.0
144
1.0
147
0.0008202099737533
147
0.0
147
0.0
147
0.0
147
0.0
147
0.0008202099737533
147
0.0
147
0.0
147
0.0
147
0.0
147
1.0
147
0.0
147
0.0
147
0.0
147
0.0
147
1.0
  0
MATERIAL
  5
2CE5
102
{ACAD_XDICTIONARY
360
2CE6
102
}
102
{ACAD_REACTORS
330
BD
102
}
330
BD
100
AcDbMaterial
  1
Global
 72
     0
 43
0.0008202099737533
 43
0.0
 43
0.0
 43
0.0
 43
0.0
 43
0.0008202099737533
 43
0.0
 43
0.0
 43
0.0
 43
0.0
 43
1.0
 43
0.0
 43
0.0
 43
0.0
 43
0.0
 43
1.0
 77
     0
 47
0.0008202099737533
 47
0.0
 47
0.0
 47
0.0
 47
0.0
 47
0.0008202099737533
 47
0.0
 47
0.0
 47
0.0
 47
0.0
 47
1.0
 47
0.0
 47
0.0
 47
0.0
 47
0.0
 47
1.0
171
     0
 49
0.0008202099737533
 49
0.0
 49
0.0
 49
0.0
 49
0.0
 49
0.0008202099737533
 49
0.0
 49
0.0
 49
0.0
 49
0.0
 49
1.0
 49
0.0
 49
0.0
 49
0.0
 49
0.0
 49
1.0
175
     0
142
0.0008202099737533
142
0.0
142
0.0
142
0.0
142
0.0
142
0.0008202099737533
142
0.0
142
0.0
142
0.0
142
0.0
142
1.0
142
0.0
142
0.0
142
0.0
142
0.0
142
1.0
179
     0
144
0.0008202099737533
144
0.0
144
0.0
144
0.0
144
0.0
144
0.0008202099737533
144
0.0
144
0.0
144
0.0
144
0.0
144
1.0
144
0.0
144
0.0
144
0.0
144
0.0
144
1.0
147
0.0008202099737533
147
0.0
147
0.0
147
0.0
147
0.0
147
0.0008202099737533
147
0.0
147
0.0
147
0.0
147
0.0
147
1.0
147
0.0
147
0.0
147
0.0
147
0.0
147
1.0
  0
MLEADERSTYLE
  5
2D11
102
{ACAD_REACTORS
330
2D10
102
}
330
2D10
100
AcDbMLeaderStyle
170
     2
171
     1
172
     0
 90
        2
 40
0.0
 41
0.0
173
     1
 91
-1056964608
340
14
 92
       -2
290
     1
 42
2.0
291
     1
 43
0.36
  3
Standard
 44
4.0
300

342
11
174
     1
178
     6
175
     1
176
     0
 93
-1056964608
 45
4.0
292
     0
297
     0
 46
4.0
 94
-1056964608
 47
1.0
 49
1.0
140
1.0
293
     1
141
0.0
294
     1
177
     0
142
1.0
295
     0
296
     0
143
0.125
1001
ACAD_MLEADERVER
1070
     2
  0
MLINESTYLE
  5
18
102
{ACAD_REACTORS
330
17
102
}
330
17
100
AcDbMlineStyle
  2
STANDARD
 70
     0
  3

 62
   256
 51
90.0
 52
90.0
 71
     2
 49
0.5
 62
   256
  6
BYLAYER
 49
-0.5
 62
   256
  6
BYLAYER
  0
ACDBPLACEHOLDER
  5
F
102
{ACAD_REACTORS
330
E
102
}
330
E
  0
SCALE
  5
2CFF
102
{ACAD_REACTORS
330
2CFE
102
}
330
2CFE
100
AcDbScale
 70
     0
300
1:1
140
1.0
141
1.0
290
     1
  0
SCALE
  5
2D00
102
{ACAD_REACTORS
330
2CFE
102
}
330
2CFE
100
AcDbScale
 70
     0
300
1:2
140
1.0
141
2.0
290
     0
  0
SCALE
  5
2D01
102
{ACAD_REACTORS
330
2CFE
102
}
330
2CFE
100
AcDbScale
 70
     0
300
1:4
140
1.0
141
4.0
290
     0
  0
SCALE
  5
2D02
102
{ACAD_REACTORS
330
2CFE
102
}
330
2CFE
100
AcDbScale
 70
     0
300
1:5
140
1.0
141
5.0
290
     0
  0
SCALE
  5
2D03
102
{ACAD_REACTORS
330
2CFE
102
}
330
2CFE
100
AcDbScale
 70
     0
300
1:8
140
1.0
141
8.0
290
     0
  0
SCALE
  5
2D04
102
{ACAD_REACTORS
330
2CFE
102
}
330
2CFE
100
AcDbScale
 70
     0
300
1:10
140
1.0
141
10.0
290
     0
  0
SCALE
  5
2D05
102
{ACAD_REACTORS
330
2CFE
102
}
330
2CFE
100
AcDbScale
 70
     0
300
1:16
140
1.0
141
16.0
290
     0
  0
SCALE
  5
2D06
102
{ACAD_REACTORS
330
2CFE
102
}
330
2CFE
100
AcDbScale
 70
     0
300
1:20
140
1.0
141
20.0
290
     0
  0
SCALE
  5
2D07
102
{ACAD_REACTORS
330
2CFE
102
}
330
2CFE
100
AcDbScale
 70
     0
300
1:30
140
1.0
141
30.0
290
     0
  0
SCALE
  5
2D08
102
{ACAD_REACTORS
330
2CFE
102
}
330
2CFE
100
AcDbScale
 70
     0
300
1:40
140
1.0
141
40.0
290
     0
  0
SCALE
  5
2D09
102
{ACAD_REACTORS
330
2CFE
102
}
330
2CFE
100
AcDbScale
 70
     0
300
1:50
140
1.0
141
50.0
290
     0
  0
SCALE
  5
2D0A
102
{ACAD_REACTORS
330
2CFE
102
}
330
2CFE
100
AcDbScale
 70
     0
300
1:100
140
1.0
141
100.0
290
     0
  0
SCALE
  5
2D0B
102
{ACAD_REACTORS
330
2CFE
102
}
330
2CFE
100
AcDbScale
 70
     0
300
2:1
140
2.0
141
1.0
290
     0
  0
SCALE
  5
2D0C
102
{ACAD_REACTORS
330
2CFE
102
}
330
2CFE
100
AcDbScale
 70
     0
300
4:1
140
4.0
141
1.0
290
     0
  0
SCALE
  5
2D0D
102
{ACAD_REACTORS
330
2CFE
102
}
330
2CFE
100
AcDbScale
 70
     0
300
8:1
140
8.0
141
1.0
290
     0
  0
SCALE
  5
2D0E
102
{ACAD_REACTORS
330
2CFE
102
}
330
2CFE
100
AcDbScale
 70
     0
300
10:1
140
10.0
141
1.0
290
     0
  0
SCALE
  5
2D0F
102
{ACAD_REACTORS
330
2CFE
102
}
330
2CFE
100
AcDbScale
 70
     0
300
100:1
140
100.0
141
1.0
290
     0
  0
TABLESTYLE
  5
11B
102
{ACAD_XDICTIONARY
360
2EC7
102
}
102
{ACAD_REACTORS
330
11A
102
}
330
11A
100
AcDbTableStyle
  3
Standard
 70
     0
 71
     0
 40
1.5
 41
1.5
280
     0
281
     0
  7
STANDARD
140
4.5
170
     2
 62
     0
 63
     7
283
     0
274
    -2
284
     1
 64
     0
275
    -2
285
     1
 65
     0
276
    -2
286
     1
 66
     0
277
    -2
287
     1
 67
     0
278
    -2
288
     1
 68
     0
279
    -2
289
     1
 69
     0
  7
STANDARD
140
6.0
170
     5
 62
     0
 63
     7
283
     0
274
    -2
284
     1
 64
     0
275
    -2
285
     1
 65
     0
276
    -2
286
     1
 66
     0
277
    -2
287
     1
 67
     0
278
    -2
288
     1
 68
     0
279
    -2
289
     1
 69
     0
  7
STANDARD
140
4.5
170
     5
 62
     0
 63
     7
283
     0
274
    -2
284
     1
 64
     0
275
    -2
285
     1
 65
     0
276
    -2
286
     1
 66
     0
277
    -2
287
     1
 67
     0
278
    -2
288
     1
 68
     0
279
    -2
289
     1
 69
     0
  0
VISUALSTYLE
  5
2CF3
102
{ACAD_REACTORS
330
2CED
102
}
330
2CED
100
AcDbVisualStyle
  2
2dWireframe
 70
     4
 71
     0
 72
     2
 73
     0
 90
        0
 40
-0.6
 41
-30.0
 62
     5
 63
     7
421
 16777215
 74
     1
 91
        4
 64
     7
 65
   257
 75
     1
175
     1
 42
1.0
 92
        0
 66
   257
 43
1.0
 76
     1
 77
     6
 78
     2
 67
     7
 79
     5
170
     0
171
     0
290
     0
174
     0
 93
        1
 44
0.0
173
     0
291
     0
 45
0.0
1001
ACAD
1000
AcDbSavedByObjectVersion
1070
     0
  0
VISUALSTYLE
  5
2CF5
102
{ACAD_REACTORS
330
2CED
102
}
330
2CED
100
AcDbVisualStyle
  2
3D Hidden
 70
     6
 71
     1
 72
     2
 73
     2
 90
        0
 40
-0.6
 41
-30.0
 62
     5
 63
     7
421
 16777215
 74
     2
 91
        2
 64
     7
 65
   257
 75
     2
175
     1
 42
40.0
 92
        0
 66
   257
 43
1.0
 76
     1
 77
     6
 78
     2
 67
     7
 79
     3
170
     0
171
     0
290
     0
174
     0
 93
        1
 44
0.0
173
     0
291
     0
 45
0.0
1001
ACAD
1000
AcDbSavedByObjectVersion
1070
     0
  0
VISUALSTYLE
  5
2CF4
102
{ACAD_REACTORS
330
2CED
102
}
330
2CED
100
AcDbVisualStyle
  2
3dWireframe
 70
     5
 71
     0
 72
     2
 73
     0
 90
        0
 40
-0.6
 41
-30.0
 62
     5
 63
     7
421
 16777215
 74
     1
 91
        4
 64
     7
 65
   257
 75
     1
175
     1
 42
1.0
 92
        0
 66
   257
 43
1.0
 76
     1
 77
     6
 78
     2
 67
     7
 79
     5
170
     0
171
     0
290
     0
174
     0
 93
        1
 44
0.0
173
     0
291
     0
 45
0.0
1001
ACAD
1000
AcDbSavedByObjectVersion
1070
     0
  0
VISUALSTYLE
  5
2CF2
102
{ACAD_REACTORS
330
2CED
102
}
330
2CED
100
AcDbVisualStyle
  2
Basic
 70
     7
 71
     1
 72
     0
 73
     1
 90
        0
 40
-0.6
 41
-30.0
 62
     5
 63
     7
421
 16777215
 74
     0
 91
        4
 64
     7
 65
   257
 75
     1
175
     1
 42
1.0
 92
        8
 66
     7
 43
1.0
 76
     1
 77
     6
 78
     2
 67
     7
 79
     5
170
     0
171
     0
290
     0
174
     0
 93
        1
 44
0.0
173
     0
291
     1
 45
0.0
1001
ACAD
1000
AcDbSavedByObjectVersion
1070
     0
  0
VISUALSTYLE
  5
2CF9
102
{ACAD_REACTORS
330
2CED
102
}
330
2CED
100
AcDbVisualStyle
  2
Brighten
 70
    12
 71
     2
 72
     2
 73
     0
 90
        0
 40
-0.6
 41
-30.0
 62
     5
 63
     7
421
 16777215
 74
     1
 91
        4
 64
     7
 65
   257
 75
     1
175
     1
 42
1.0
 92
        8
 66
     7
 43
1.0
 76
     1
 77
     6
 78
     2
 67
     7
 79
     5
170
     0
171
     0
290
     0
174
     0
 93
        1
 44
50.0
173
     0
291
     1
 45
0.0
1001
ACAD
1000
AcDbSavedByObjectVersion
1070
     0
  0
VISUALSTYLE
  5
2CFD
102
{ACAD_REACTORS
330
2CED
102
}
330
2CED
100
AcDbVisualStyle
  2
ColorChange
 70
    16
 71
     2
 72
     2
 73
     3
 90
        0
 40
-0.6
 41
-30.0
 62
     5
 63
     8
421
  8421504
 74
     1
 91
        4
 64
     7
 65
   257
 75
     1
175
     1
 42
1.0
 92
        8
 66
     8
424
  8421504
 43
1.0
 76
     1
 77
     6
 78
     2
 67
     7
 79
     5
170
     0
171
     0
290
     0
174
     0
 93
        1
 44
0.0
173
     0
291
     1
 45
0.0
1001
ACAD
1000
AcDbSavedByObjectVersion
1070
     0
  0
VISUALSTYLE
  5
2CF6
102
{ACAD_REACTORS
330
2CED
102
}
330
2CED
100
AcDbVisualStyle
  2
Conceptual
 70
     9
 71
     3
 72
     2
 73
     0
 90
        0
 40
-0.6
 41
-30.0
 62
     5
 63
     7
421
 16777215
 74
     2
 91
        2
 64
     7
 65
   257
 75
     1
175
     1
 42
40.0
 92
        8
 66
     7
 43
1.0
 76
     1
 77
     6
 78
     2
 67
     7
 79
     3
170
     0
171
     0
290
     0
174
     0
 93
        1
 44
0.0
173
     0
291
     0
 45
0.0
1001
ACAD
1000
AcDbSavedByObjectVersion
1070
     0
  0
VISUALSTYLE
  5
2CF8
102
{ACAD_REACTORS
330
2CED
102
}
330
2CED
100
AcDbVisualStyle
  2
Dim
 70
    11
 71
     2
 72
     2
 73
     0
 90
        0
 40
-0.6
 41
-30.0
 62
     5
 63
     7
421
 16777215
 74
     1
 91
        4
 64
     7
 65
   257
 75
     1
175
     1
 42
1.0
 92
        8
 66
     7
 43
1.0
 76
     1
 77
     6
 78
     2
 67
     7
 79
     5
170
     0
171
     0
290
     0
174
     0
 93
        1
 44
-50.0
173
     0
291
     1
 45
0.0
1001
ACAD
1000
AcDbSavedByObjectVersion
1070
     0
  0
VISUALSTYLE
  5
2CFC
102
{ACAD_REACTORS
330
2CED
102
}
330
2CED
100
AcDbVisualStyle
  2
Facepattern
 70
    15
 71
     2
 72
     2
 73
     0
 90
        0
 40
-0.6
 41
-30.0
 62
     5
 63
     7
421
 16777215
 74
     1
 91
        4
 64
     7
 65
   257
 75
     1
175
     1
 42
1.0
 92
        8
 66
     7
 43
1.0
 76
     1
 77
     6
 78
     2
 67
     7
 79
     5
170
     0
171
     0
290
     0
174
     0
 93
        1
 44
0.0
173
     0
291
     1
 45
0.0
1001
ACAD
1000
AcDbSavedByObjectVersion
1070
     0
  0
VISUALSTYLE
  5
2CEE
102
{ACAD_REACTORS
330
2CED
102
}
330
2CED
100
AcDbVisualStyle
  2
Flat
 70
     0
 71
     2
 72
     1
 73
     1
 90
        2
 40
-0.6
 41
30.0
 62
     5
 63
     7
421
 16777215
 74
     0
 91
        4
 64
     7
 65
   257
 75
     1
175
     1
 42
1.0
 92
        8
 66
     7
 43
1.0
 76
     1
 77
     6
 78
     2
 67
     7
 79
     5
170
     0
171
     0
290
     0
174
     0
 93
       13
 44
0.0
173
     0
291
     1
 45
0.0
1001
ACAD
1000
AcDbSavedByObjectVersion
1070
     0
  0
VISUALSTYLE
  5
2CEF
102
{ACAD_REACTORS
330
2CED
102
}
330
2CED
100
AcDbVisualStyle
  2
FlatWithEdges
 70
     1
 71
     2
 72
     1
 73
     1
 90
        2
 40
-0.6
 41
30.0
 62
     5
 63
     7
421
 16777215
 74
     1
 91
        4
 64
     7
 65
   257
 75
     1
175
     1
 42
1.0
 92
        0
 66
   257
 43
1.0
 76
     1
 77
     6
 78
     2
 67
     7
 79
     5
170
     0
171
     0
290
     0
174
     0
 93
       13
 44
0.0
173
     0
291
     1
 45
0.0
1001
ACAD
1000
AcDbSavedByObjectVersion
1070
     0
  0
VISUALSTYLE
  5
2CF0
102
{ACAD_REACTORS
330
2CED
102
}
330
2CED
100
AcDbVisualStyle
  2
Gouraud
 70
     2
 71
     2
 72
     2
 73
     1
 90
        2
 40
-0.6
 41
30.0
 62
     5
 63
     7
421
 16777215
 74
     0
 91
        4
 64
     7
 65
   257
 75
     1
175
     1
 42
1.0
 92
        0
 66
     7
 43
1.0
 76
     1
 77
     6
 78
     2
 67
     7
 79
     5
170
     0
171
     0
290
     0
174
     0
 93
       13
 44
0.0
173
     0
291
     1
 45
0.0
1001
ACAD
1000
AcDbSavedByObjectVersion
1070
     0
  0
VISUALSTYLE
  5
2CF1
102
{ACAD_REACTORS
330
2CED
102
}
330
2CED
100
AcDbVisualStyle
  2
GouraudWithEdges
 70
     3
 71
     2
 72
     2
 73
     1
 90
        2
 40
-0.6
 41
30.0
 62
     5
 63
     7
421
 16777215
 74
     1
 91
        4
 64
     7
 65
   257
 75
     1
175
     1
 42
1.0
 92
        0
 66
   257
 43
1.0
 76
     1
 77
     6
 78
     2
 67
     7
 79
     5
170
     0
171
     0
290
     0
174
     0
 93
       13
 44
0.0
173
     0
291
     1
 45
0.0
1001
ACAD
1000
AcDbSavedByObjectVersion
1070
     0
  0
VISUALSTYLE
  5
2CFB
102
{ACAD_REACTORS
330
2CED
102
}
330
2CED
100
AcDbVisualStyle
  2
Linepattern
 70
    14
 71
     2
 72
     2
 73
     0
 90
        0
 40
-0.6
 41
-30.0
 62
     5
 63
     7
421
 16777215
 74
     1
 91
        4
 64
     7
 65
   257
 75
     7
175
     7
 42
1.0
 92
        8
 66
     7
 43
1.0
 76
     1
 77
     6
 78
     2
 67
     7
 79
     5
170
     0
171
     0
290
     0
174
     0
 93
        1
 44
0.0
173
     0
291
     1
 45
0.0
1001
ACAD
1000
AcDbSavedByObjectVersion
1070
     0
  0
VISUALSTYLE
  5
2CF7
102
{ACAD_REACTORS
330
2CED
102
}
330
2CED
100
AcDbVisualStyle
  2
Realistic
 70
     8
 71
     2
 72
     2
 73
     0
 90
        0
 40
-0.6
 41
-30.0
 62
     5
 63
     7
421
 16777215
 74
     1
 91
        0
 64
     7
 65
   257
 75
     1
175
     1
 42
1.0
 92
        8
 66
     8
424
  7895160
 43
1.0
 76
     1
 77
     6
 78
     2
 67
     7
 79
     5
170
     0
171
     0
290
     0
174
     0
 93
       13
 44
0.0
173
     0
291
     0
 45
0.0
1001
ACAD
1000
AcDbSavedByObjectVersion
1070
     0
  0
VISUALSTYLE
  5
2CFA
102
{ACAD_REACTORS
330
2CED
102
}
330
2CED
100
AcDbVisualStyle
  2
Thicken
 70
    13
 71
     2
 72
     2
 73
     0
 90
        0
 40
-0.6
 41
-30.0
 62
     5
 63
     7
421
 16777215
 74
     1
 91
        4
 64
     7
 65
   257
 75
     1
175
     1
 42
1.0
 92
       12
 66
     7
 43
1.0
 76
     1
 77
     6
 78
     2
 67
     7
 79
     5
170
     0
171
     0
290
     0
174
     0
 93
        1
 44
0.0
173
     0
291
     1
 45
0.0
1001
ACAD
1000
AcDbSavedByObjectVersion
1070
     0
  0
DICTIONARYVAR
  5
2EC6
102
{ACAD_REACTORS
330
94
102
}
330
94
100
DictionaryVariables
280
     0
  1
1:1
  0
DICTIONARYVAR
  5
2EC5
102
{ACAD_REACTORS
330
94
102
}
330
94
100
DictionaryVariables
280
     0
  1
STANDARD
  0
DICTIONARYVAR
  5
138
102
{ACAD_REACTORS
330
94
102
}
330
94
100
DictionaryVariables
280
     0
  1
STANDARD
  0
DICTIONARYVAR
  5
96
102
{ACAD_REACTORS
330
94
102
}
330
94
100
DictionaryVariables
280
     0
  1
2
  0
DICTIONARYVAR
  5
95
102
{ACAD_REACTORS
330
94
102
}
330
94
100
DictionaryVariables
280
     0
  1
1
  0
DICTIONARY
  5
272
102
{ACAD_REACTORS
330
5B
102
}
330
5B
100
AcDbDictionary
281
     1
  0
DICTIONARY
  5
61
102
{ACAD_REACTORS
330
5B
102
}
330
5B
100
AcDbDictionary
281
     1
  0
XRECORD
  5
123
102
{ACAD_REACTORS
330
5B
102
}
330
5B
100
AcDbXrecord
280
     1
 90
-1023410169
  0
XRECORD
  5
2CD0
102
{ACAD_REACTORS
330
2CCF
102
}
330
2CCF
100
AcDbXrecord
280
     1
330
15BD
330
1879
330
2039
330
2062
  0
DICTIONARY
  5
2CDE
330
2CDD
100
AcDbDictionary
280
     1
281
     1
  3
ACAD_XREC_ROUNDTRIP
360
2F0F
  3
BUMPTILE
360
2CE0
  3
DIFFUSETILE
360
2CDF
  3
OPACITYTILE
360
2CE3
  3
REFLECTIONTILE
360
2CE2
  3
REFRACTIONTILE
360
2CE4
  3
SPECULARTILE
360
2CE1
  0
DICTIONARY
  5
2CD6
330
2CD5
100
AcDbDictionary
280
     1
281
     1
  3
ACAD_XREC_ROUNDTRIP
360
2F0E
  3
BUMPTILE
360
2CD8
  3
DIFFUSETILE
360
2CD7
  3
OPACITYTILE
360
2CDB
  3
REFLECTIONTILE
360
2CDA
  3
REFRACTIONTILE
360
2CDC
  3
SPECULARTILE
360
2CD9
  0
DICTIONARY
  5
2CE6
330
2CE5
100
AcDbDictionary
280
     1
281
     1
  3
ACAD_XREC_ROUNDTRIP
360
2F10
  3
BUMPTILE
360
2CE8
  3
DIFFUSETILE
360
2CE7
  3
OPACITYTILE
360
2CEB
  3
REFLECTIONTILE
360
2CEA
  3
REFRACTIONTILE
360
2CEC
  3
SPECULARTILE
360
2CE9
  0
DICTIONARY
  5
2EC7
330
11B
100
AcDbDictionary
280
     1
281
     1
  3
ACAD_ROUNDTRIP_2008_TABLESTYLE_CELLSTYLEMAP
360
2EC8
  3
ACAD_XREC_ROUNDTRIP
360
2ECC
  0
XRECORD
  5
2F0F
102
{ACAD_REACTORS
330
2CDE
102
}
330
2CDE
100
AcDbXrecord
280
     1
102
MATERIAL
148
0.0
149
0.0
149
0.0
 93
        0
 94
      127
282
     0
 72
     0
 77
     0
171
     0
175
     0
179
     0
273
     0
  0
XRECORD
  5
2CE0
102
{ACAD_REACTORS
330
2CDE
102
}
330
2CDE
100
AcDbXrecord
280
     1
270
     1
271
     1
  0
XRECORD
  5
2CDF
102
{ACAD_REACTORS
330
2CDE
102
}
330
2CDE
100
AcDbXrecord
280
     1
270
     1
271
     1
  0
XRECORD
  5
2CE3
102
{ACAD_REACTORS
330
2CDE
102
}
330
2CDE
100
AcDbXrecord
280
     1
270
     1
271
     1
  0
XRECORD
  5
2CE2
102
{ACAD_REACTORS
330
2CDE
102
}
330
2CDE
100
AcDbXrecord
280
     1
270
     1
271
     1
  0
XRECORD
  5
2CE4
102
{ACAD_REACTORS
330
2CDE
102
}
330
2CDE
100
AcDbXrecord
280
     1
270
     1
271
     1
  0
XRECORD
  5
2CE1
102
{ACAD_REACTORS
330
2CDE
102
}
330
2CDE
100
AcDbXrecord
280
     1
270
     1
271
     1
  0
XRECORD
  5
2F0E
102
{ACAD_REACTORS
330
2CD6
102
}
330
2CD6
100
AcDbXrecord
280
     1
102
MATERIAL
148
0.0
149
0.0
149
0.0
 93
        0
 94
      127
282
     0
 72
     0
 77
     0
171
     0
175
     0
179
     0
273
     0
  0
XRECORD
  5
2CD8
102
{ACAD_REACTORS
330
2CD6
102
}
330
2CD6
100
AcDbXrecord
280
     1
270
     1
271
     1
  0
XRECORD
  5
2CD7
102
{ACAD_REACTORS
330
2CD6
102
}
330
2CD6
100
AcDbXrecord
280
     1
270
     1
271
     1
  0
XRECORD
  5
2CDB
102
{ACAD_REACTORS
330
2CD6
102
}
330
2CD6
100
AcDbXrecord
280
     1
270
     1
271
     1
  0
XRECORD
  5
2CDA
102
{ACAD_REACTORS
330
2CD6
102
}
330
2CD6
100
AcDbXrecord
280
     1
270
     1
271
     1
  0
XRECORD
  5
2CDC
102
{ACAD_REACTORS
330
2CD6
102
}
330
2CD6
100
AcDbXrecord
280
     1
270
     1
271
     1
  0
XRECORD
  5
2CD9
102
{ACAD_REACTORS
330
2CD6
102
}
330
2CD6
100
AcDbXrecord
280
     1
270
     1
271
     1
  0
XRECORD
  5
2F10
102
{ACAD_REACTORS
330
2CE6
102
}
330
2CE6
100
AcDbXrecord
280
     1
102
MATERIAL
148
0.0
149
0.0
149
0.0
 93
        0
 94
      127
282
     0
 72
     0
 77
     0
171
     0
175
     0
179
     0
273
     0
  0
XRECORD
  5
2CE8
102
{ACAD_REACTORS
330
2CE6
102
}
330
2CE6
100
AcDbXrecord
280
     1
270
     1
271
     1
  0
XRECORD
  5
2CE7
102
{ACAD_REACTORS
330
2CE6
102
}
330
2CE6
100
AcDbXrecord
280
     1
270
     1
271
     1
  0
XRECORD
  5
2CEB
102
{ACAD_REACTORS
330
2CE6
102
}
330
2CE6
100
AcDbXrecord
280
     1
270
     1
271
     1
  0
XRECORD
  5
2CEA
102
{ACAD_REACTORS
330
2CE6
102
}
330
2CE6
100
AcDbXrecord
280
     1
270
     1
271
     1
  0
XRECORD
  5
2CEC
102
{ACAD_REACTORS
330
2CE6
102
}
330
2CE6
100
AcDbXrecord
280
     1
270
     1
271
     1
  0
XRECORD
  5
2CE9
102
{ACAD_REACTORS
330
2CE6
102
}
330
2CE6
100
AcDbXrecord
280
     1
270
     1
271
     1
  0
CELLSTYLEMAP
  5
2EC8
102
{ACAD_REACTORS
330
2EC7
102
}
330
2EC7
100
AcDbCellStyleMap
 90
        3
300
CELLSTYLE
  1
TABLEFORMAT_BEGIN
 90
        5
170
     1
 91
        0
 92
    32768
 62
   257
 93
        1
300
CONTENTFORMAT
  1
CONTENTFORMAT_BEGIN
 90
        0
 91
        0
 92
        4
 93
        0
300

 40
0.0
140
1.0
 94
        5
 62
     0
340
11
144
6.0
309
CONTENTFORMAT_END
171
     1
301
MARGIN
  1
CELLMARGIN_BEGIN
 40
1.5
 40
1.5
 40
1.5
 40
1.5
 40
0.18
 40
0.18
309
CELLMARGIN_END
 94
        6
 95
        1
302
GRIDFORMAT
  1
GRIDFORMAT_BEGIN
 90
        0
 91
        1
 62
     0
 92
       -2
340
0
 93
        0
 40
0.045
309
GRIDFORMAT_END
 95
        2
302
GRIDFORMAT
  1
GRIDFORMAT_BEGIN
 90
        0
 91
        1
 62
     0
 92
       -2
340
0
 93
        0
 40
0.045
309
GRIDFORMAT_END
 95
        4
302
GRIDFORMAT
  1
GRIDFORMAT_BEGIN
 90
        0
 91
        1
 62
     0
 92
       -2
340
0
 93
        0
 40
0.045
309
GRIDFORMAT_END
 95
        8
302
GRIDFORMAT
  1
GRIDFORMAT_BEGIN
 90
        0
 91
        1
 62
     0
 92
       -2
340
0
 93
        0
 40
0.045
309
GRIDFORMAT_END
 95
       16
302
GRIDFORMAT
  1
GRIDFORMAT_BEGIN
 90
        0
 91
        1
 62
     0
 92
       -2
340
0
 93
        0
 40
0.045
309
GRIDFORMAT_END
 95
       32
302
GRIDFORMAT
  1
GRIDFORMAT_BEGIN
 90
        0
 91
        1
 62
     0
 92
       -2
340
0
 93
        0
 40
0.045
309
GRIDFORMAT_END
309
TABLEFORMAT_END
  1
CELLSTYLE_BEGIN
 90
        1
 91
        1
300
_TITLE
309
CELLSTYLE_END
300
CELLSTYLE
  1
TABLEFORMAT_BEGIN
 90
        5
170
     1
 91
        0
 92
        0
 62
   257
 93
        1
300
CONTENTFORMAT
  1
CONTENTFORMAT_BEGIN
 90
        0
 91
        0
 92
        4
 93
        0
300

 40
0.0
140
1.0
 94
        5
 62
     0
340
11
144
4.5
309
CONTENTFORMAT_END
171
     1
301
MARGIN
  1
CELLMARGIN_BEGIN
 40
1.5
 40
1.5
 40
1.5
 40
1.5
 40
0.18
 40
0.18
309
CELLMARGIN_END
 94
        6
 95
        1
302
GRIDFORMAT
  1
GRIDFORMAT_BEGIN
 90
        0
 91
        1
 62
     0
 92
       -2
340
0
 93
        0
 40
0.045
309
GRIDFORMAT_END
 95
        2
302
GRIDFORMAT
  1
GRIDFORMAT_BEGIN
 90
        0
 91
        1
 62
     0
 92
       -2
340
0
 93
        0
 40
0.045
309
GRIDFORMAT_END
 95
        4
302
GRIDFORMAT
  1
GRIDFORMAT_BEGIN
 90
        0
 91
        1
 62
     0
 92
       -2
340
0
 93
        0
 40
0.045
309
GRIDFORMAT_END
 95
        8
302
GRIDFORMAT
  1
GRIDFORMAT_BEGIN
 90
        0
 91
        1
 62
     0
 92
       -2
340
0
 93
        0
 40
0.045
309
GRIDFORMAT_END
 95
       16
302
GRIDFORMAT
  1
GRIDFORMAT_BEGIN
 90
        0
 91
        1
 62
     0
 92
       -2
340
0
 93
        0
 40
0.045
309
GRIDFORMAT_END
 95
       32
302
GRIDFORMAT
  1
GRIDFORMAT_BEGIN
 90
        0
 91
        1
 62
     0
 92
       -2
340
0
 93
        0
 40
0.045
309
GRIDFORMAT_END
309
TABLEFORMAT_END
  1
CELLSTYLE_BEGIN
 90
        2
 91
        1
300
_HEADER
309
CELLSTYLE_END
300
CELLSTYLE
  1
TABLEFORMAT_BEGIN
 90
        5
170
     1
 91
        0
 92
        0
 62
   257
 93
        1
300
CONTENTFORMAT
  1
CONTENTFORMAT_BEGIN
 90
        0
 91
        0
 92
        4
 93
        0
300

 40
0.0
140
1.0
 94
        2
 62
     0
340
11
144
4.5
309
CONTENTFORMAT_END
171
     1
301
MARGIN
  1
CELLMARGIN_BEGIN
 40
1.5
 40
1.5
 40
1.5
 40
1.5
 40
0.18
 40
0.18
309
CELLMARGIN_END
 94
        6
 95
        1
302
GRIDFORMAT
  1
GRIDFORMAT_BEGIN
 90
        0
 91
        1
 62
     0
 92
       -2
340
0
 93
        0
 40
0.045
309
GRIDFORMAT_END
 95
        2
302
GRIDFORMAT
  1
GRIDFORMAT_BEGIN
 90
        0
 91
        1
 62
     0
 92
       -2
340
0
 93
        0
 40
0.045
309
GRIDFORMAT_END
 95
        4
302
GRIDFORMAT
  1
GRIDFORMAT_BEGIN
 90
        0
 91
        1
 62
     0
 92
       -2
340
0
 93
        0
 40
0.045
309
GRIDFORMAT_END
 95
        8
302
GRIDFORMAT
  1
GRIDFORMAT_BEGIN
 90
        0
 91
        1
 62
     0
 92
       -2
340
0
 93
        0
 40
0.045
309
GRIDFORMAT_END
 95
       16
302
GRIDFORMAT
  1
GRIDFORMAT_BEGIN
 90
        0
 91
        1
 62
     0
 92
       -2
340
0
 93
        0
 40
0.045
309
GRIDFORMAT_END
 95
       32
302
GRIDFORMAT
  1
GRIDFORMAT_BEGIN
 90
        0
 91
        1
 62
     0
 92
       -2
340
0
 93
        0
 40
0.045
309
GRIDFORMAT_END
309
TABLEFORMAT_END
  1
CELLSTYLE_BEGIN
 90
        3
 91
        2
300
_DATA
309
CELLSTYLE_END
  0
XRECORD
  5
2ECC
102
{ACAD_REACTORS
330
2EC7
102
}
330
2EC7
100
AcDbXrecord
280
     1
102
ACAD_ROUNDTRIP_PRE2007_TABLESTYLE
 90
        4
 91
        0
  1

 92
        4
 93
        0
  2

 94
        4
 95
        0
  3

  0
ENDSEC
  0
EOF
