  0
SECTION
  2
HEADER
  9
$ACADVER
  1
AC1018
  9
$ACADMAINTVER
 70
   104
  9
$DWGCODEPAGE
  3
ANSI_1252
  9
$LASTSAVEDBY
  1
kbaersch
  9
$CUSTOMPROPERTYTAG
  1
AmdtFileType
  9
$CUSTOMPROPERTY
  1
84
  9
$INSBASE
 10
0.0
 20
0.0
 30
0.0
  9
$EXTMIN
 10
32.1925890288137
 20
109.9338586764688
 30
-0.0015258207003583
  9
$EXTMAX
 10
851.7572997589532
 20
824.5747848865805
 30
0.0000000349246037
  9
$LIMMIN
 10
0.0
 20
0.0
  9
$LIMMAX
 10
420.0
 20
297.0
  9
$ORTHOMODE
 70
     0
  9
$REGENMODE
 70
     1
  9
$FILLMODE
 70
     1
  9
$QTEXTMODE
 70
     0
  9
$MIRRTEXT
 70
     1
  9
$LTSCALE
 40
20.0
  9
$ATTMODE
 70
     1
  9
$TEXTSIZE
 40
10.5
  9
$TRACEWID
 40
1.0
  9
$TEXTSTYLE
  7
STANDARD
  9
$CLAYER
  8
0
  9
$CELTYPE
  6
ByLayer
  9
$CECOLOR
 62
   256
  9
$CELTSCALE
 40
1.0
  9
$DISPSILH
 70
     0
  9
$DIMSCALE
 40
1.0
  9
$DIMASZ
 40
2.5
  9
$DIMEXO
 40
1.0
  9
$DIMDLI
 40
10.0
  9
$DIMRND
 40
0.0
  9
$DIMDLE
 40
0.0
  9
$DIMEXE
 40
1.0
  9
$DIMTP
 40
0.1
  9
$DIMTM
 40
0.1
  9
$DIMTXT
 40
3.5
  9
$DIMCEN
 40
0.0
  9
$DIMTSZ
 40
0.0
  9
$DIMTOL
 70
     0
  9
$DIMLIM
 70
     0
  9
$DIMTIH
 70
     0
  9
$DIMTOH
 70
     0
  9
$DIMSE1
 70
     0
  9
$DIMSE2
 70
     0
  9
$DIMTAD
 70
     1
  9
$DIMZIN
 70
     8
  9
$DIMBLK
  1

  9
$DIMASO
 70
     1
  9
$DIMSHO
 70
     1
  9
$DIMPOST
  1

  9
$DIMAPOST
  1
"
  9
$DIMALT
 70
     0
  9
$DIMALTD
 70
     2
  9
$DIMALTF
 40
0.0393701
  9
$DIMLFAC
 40
1.0
  9
$DIMTOFL
 70
     1
  9
$DIMTVP
 40
0.0
  9
$DIMTIX
 70
     0
  9
$DIMSOXD
 70
     0
  9
$DIMSAH
 70
     0
  9
$DIMBLK1
  1

  9
$DIMBLK2
  1

  9
$DIMSTYLE
  2
AM_ISO
  9
$DIMCLRD
 70
   256
  9
$DIMCLRE
 70
   256
  9
$DIMCLRT
 70
     2
  9
$DIMTFAC
 40
0.71
  9
$DIMGAP
 40
1.5
  9
$DIMJUST
 70
     0
  9
$DIMSD1
 70
     0
  9
$DIMSD2
 70
     0
  9
$DIMTOLJ
 70
     0
  9
$DIMTZIN
 70
     8
  9
$DIMALTZ
 70
     0
  9
$DIMALTTZ
 70
     0
  9
$DIMUPT
 70
     0
  9
$DIMDEC
 70
     0
  9
$DIMTDEC
 70
     3
  9
$DIMALTU
 70
     2
  9
$DIMALTTD
 70
     4
  9
$DIMTXSTY
  7
STANDARD
  9
$DIMAUNIT
 70
     0
  9
$DIMADEC
 70
     0
  9
$DIMALTRND
 40
0.0
  9
$DIMAZIN
 70
     2
  9
$DIMDSEP
 70
    46
  9
$DIMATFIT
 70
     3
  9
$DIMFRAC
 70
     0
  9
$DIMLDRBLK
  1

  9
$DIMLUNIT
 70
     2
  9
$DIMLWD
 70
    -1
  9
$DIMLWE
 70
    -1
  9
$DIMTMOVE
 70
     0
  9
$LUNITS
 70
     2
  9
$LUPREC
 70
     2
  9
$SKETCHINC
 40
1.0
  9
$FILLETRAD
 40
0.0
  9
$AUNITS
 70
     0
  9
$AUPREC
 70
     0
  9
$MENU
  1
.
  9
$ELEVATION
 40
0.0
  9
$PELEVATION
 40
0.0
  9
$THICKNESS
 40
0.0
  9
$LIMCHECK
 70
     0
  9
$CHAMFERA
 40
0.5
  9
$CHAMFERB
 40
0.5
  9
$CHAMFERC
 40
5.0
  9
$CHAMFERD
 40
0.2617993877991494
  9
$SKPOLY
 70
     0
  9
$TDCREATE
 40
2454013.453631180
  9
$TDUCREATE
 40
2454013.411964514
  9
$TDUPDATE
 40
2455238.742572222
  9
$TDUUPDATE
 40
2455238.700905556
  9
$TDINDWG
 40
1.4056970370
  9
$TDUSRTIMER
 40
1.4056968519
  9
$USRTIMER
 70
     1
  9
$ANGBASE
 50
0.0
  9
$ANGDIR
 70
     0
  9
$PDMODE
 70
     0
  9
$PDSIZE
 40
0.0
  9
$PLINEWID
 40
0.0
  9
$SPLFRAME
 70
     0
  9
$SPLINETYPE
 70
     6
  9
$SPLINESEGS
 70
     8
  9
$HANDSEED
  5
3884
  9
$SURFTAB1
 70
     6
  9
$SURFTAB2
 70
     6
  9
$SURFTYPE
 70
     6
  9
$SURFU
 70
     6
  9
$SURFV
 70
     6
  9
$UCSBASE
  2

  9
$UCSNAME
  2

  9
$UCSORG
 10
0.0
 20
0.0
 30
0.0
  9
$UCSXDIR
 10
1.0
 20
0.0
 30
0.0
  9
$UCSYDIR
 10
0.0
 20
1.0
 30
0.0
  9
$UCSORTHOREF
  2

  9
$UCSORTHOVIEW
 70
     0
  9
$UCSORGTOP
 10
0.0
 20
0.0
 30
0.0
  9
$UCSORGBOTTOM
 10
0.0
 20
0.0
 30
0.0
  9
$UCSORGLEFT
 10
0.0
 20
0.0
 30
0.0
  9
$UCSORGRIGHT
 10
0.0
 20
0.0
 30
0.0
  9
$UCSORGFRONT
 10
0.0
 20
0.0
 30
0.0
  9
$UCSORGBACK
 10
0.0
 20
0.0
 30
0.0
  9
$PUCSBASE
  2

  9
$PUCSNAME
  2

  9
$PUCSORG
 10
0.0
 20
0.0
 30
0.0
  9
$PUCSXDIR
 10
1.0
 20
0.0
 30
0.0
  9
$PUCSYDIR
 10
0.0
 20
1.0
 30
0.0
  9
$PUCSORTHOREF
  2

  9
$PUCSORTHOVIEW
 70
     0
  9
$PUCSORGTOP
 10
0.0
 20
0.0
 30
0.0
  9
$PUCSORGBOTTOM
 10
0.0
 20
0.0
 30
0.0
  9
$PUCSORGLEFT
 10
0.0
 20
0.0
 30
0.0
  9
$PUCSORGRIGHT
 10
0.0
 20
0.0
 30
0.0
  9
$PUCSORGFRONT
 10
0.0
 20
0.0
 30
0.0
  9
$PUCSORGBACK
 10
0.0
 20
0.0
 30
0.0
  9
$USERI1
 70
     0
  9
$USERI2
 70
     0
  9
$USERI3
 70
     0
  9
$USERI4
 70
     0
  9
$USERI5
 70
     0
  9
$USERR1
 40
0.0
  9
$USERR2
 40
0.0
  9
$USERR3
 40
0.0
  9
$USERR4
 40
0.0
  9
$USERR5
 40
0.0
  9
$WORLDVIEW
 70
     1
  9
$SHADEDGE
 70
     3
  9
$SHADEDIF
 70
    70
  9
$TILEMODE
 70
     1
  9
$MAXACTVP
 70
    64
  9
$PINSBASE
 10
0.0
 20
0.0
 30
0.0
  9
$PLIMCHECK
 70
     0
  9
$PEXTMIN
 10
1.000000000000000E+20
 20
1.000000000000000E+20
 30
1.000000000000000E+20
  9
$PEXTMAX
 10
-1.000000000000000E+20
 20
-1.000000000000000E+20
 30
-1.000000000000000E+20
  9
$PLIMMIN
 10
0.0
 20
0.0
  9
$PLIMMAX
 10
420.0
 20
297.0
  9
$UNITMODE
 70
     0
  9
$VISRETAIN
 70
     1
  9
$PLINEGEN
 70
     0
  9
$PSLTSCALE
 70
     1
  9
$TREEDEPTH
 70
  3020
  9
$CMLSTYLE
  2
Standard
  9
$CMLJUST
 70
     0
  9
$CMLSCALE
 40
20.0
  9
$PROXYGRAPHICS
 70
     1
  9
$MEASUREMENT
 70
     1
  9
$CELWEIGHT
370
    -1
  9
$ENDCAPS
280
     0
  9
$JOINSTYLE
280
     0
  9
$LWDISPLAY
290
     0
  9
$INSUNITS
 70
     4
  9
$HYPERLINKBASE
  1

  9
$STYLESHEET
  1
monochrome.ctb
  9
$XEDIT
290
     1
  9
$CEPSNTYPE
380
     0
  9
$PSTYLEMODE
290
     1
  9
$FINGERPRINTGUID
  2
{BB2875AE-8CE9-4CBA-A609-76D2895BB90A}
  9
$VERSIONGUID
  2
{2F16F0A6-A7D8-40C7-8D12-B8BAE70F2BD6}
  9
$EXTNAMES
290
     1
  9
$PSVPSCALE
 40
0.0
  9
$OLESTARTUP
290
     0
  9
$SORTENTS
280
   127
  9
$INDEXCTL
280
     0
  9
$HIDETEXT
280
     0
  9
$XCLIPFRAME
290
     0
  9
$HALOGAP
280
     0
  9
$OBSCOLOR
 70
   257
  9
$OBSLTYPE
280
     0
  9
$INTERSECTIONDISPLAY
280
     0
  9
$INTERSECTIONCOLOR
 70
   257
  9
$DIMASSOC
280
     2
  9
$PROJECTNAME
  1

  0
ENDSEC
  0
SECTION
  2
CLASSES
  0
CLASS
  1
ACDBDICTIONARYWDFLT
  2
AcDbDictionaryWithDefault
  3
ObjectDBX Classes
 90
        0
 91
        1
280
     0
281
     0
  0
CLASS
  1
ACME_DOCUMENT
  2
AcMeDbDoc
  3
AcMeServices
 90
     1024
 91
        2
280
     0
281
     0
  0
CLASS
  1
AMGSETTINGSOBJ
  2
AmgSettingsObj
  3
"AcadM|Product Description: AutoCAD Mechanical|Company: Autodesk, Inc."
 90
     1024
 91
        4
280
     0
281
     0
  0
CLASS
  1
ACMESCOPE
  2
AcMeScope
  3
AcMeServices
 90
     1024
 91
        1
280
     0
281
     0
  0
CLASS
  1
ACMECOMMANDHISTORY
  2
AcMeCommandHistory
  3
AcMeServices
 90
     1024
 91
        1
280
     0
281
     0
  0
CLASS
  1
ACIMSYSVARMAN
  2
AcImSysVarManager
  3
AcMeServices
 90
     1024
 91
        5
280
     0
281
     0
  0
CLASS
  1
ACIMREALSYSVAR
  2
AcImRealSysVar
  3
AcMeServices
 90
     1024
 91
        3
280
     0
281
     0
  0
CLASS
  1
ACIMINTSYSVAR
  2
AcImIntSysVar
  3
AcMeServices
 90
     1024
 91
       28
280
     0
281
     0
  0
CLASS
  1
ACMEDRAWINGMAN
  2
AcMeDrawingMan
  3
AcMeServices
 90
     1024
 91
        1
280
     0
281
     0
  0
CLASS
  1
ACMEVIEW
  2
AcMeView
  3
AcMeServices
 90
     1024
 91
        1
280
     0
281
     0
  0
CLASS
  1
ACDBENTITYCACHE
  2
AcMeEntityCache
  3
AcMeServices
 90
     1024
 91
        1
280
     0
281
     0
  0
CLASS
  1
GSMANAGER
  2
AcMeGSManager
  3
AcMeServices
 90
     1024
 91
        1
280
     0
281
     0
  0
CLASS
  1
AMDTINTERNALREACTOR
  2
AmdtInternalReactor
  3
AcMeServices
 90
     1024
 91
        4
280
     0
281
     0
  0
CLASS
  1
ACMESTATEMGR
  2
AcMeStateMgr
  3
AcMeServices
 90
     1024
 91
        1
280
     0
281
     0
  0
CLASS
  1
ACGREFMASTER
  2
AcGrefMaster
  3
AcAttribServices
 90
     1024
 91
        1
280
     0
281
     0
  0
CLASS
  1
ACME_DATABASE
  2
AcMeDbDatabase
  3
AcMeServices
 90
     1024
 91
        1
280
     0
281
     0
  0
CLASS
  1
ACRFINSADJUSTERMGR
  2
AcRfInsAdjusterMgr
  3
AcMeServices
 90
     1024
 91
        1
280
     0
281
     0
  0
CLASS
  1
ACGREFACADMASTER
  2
AcGrefacadMaster
  3
AcGrefServices
 90
     1024
 91
        1
280
     0
281
     0
  0
CLASS
  1
AMIMASTER
  2
AmiMaster
  3
AmiServices
 90
     1024
 91
        1
280
     0
281
     0
  0
CLASS
  1
ACMDATADICTIONARY
  2
AcmDataDictionary
  3
"AcmSymBB|Product Description: AutoCAD Mechanical|Company: Autodesk, Inc."
 90
     1024
 91
        1
280
     0
281
     0
  0
CLASS
  1
ACMDATAENTRYBLOCK
  2
AcmDataEntryBlock
  3
AcmSymBB|Product Description: AutoCAD Mechanical|Company: Autodesk, Inc.
 90
     1024
 91
        4
280
     0
281
     0
  0
CLASS
  1
ACIMSTRSYSVAR
  2
AcImStrSysVar
  3
AcMeServices
 90
     1024
 91
        5
280
     0
281
     0
  0
CLASS
  1
ACMSTANDARDISO
  2
AcmStandardISO
  3
"Amdt_StdImp|Product Description: AutoCAD Mechanical|Company: Autodesk, Inc."
 90
     1024
 91
        1
280
     0
281
     0
  0
CLASS
  1
AMGOBJPROPCFG
  2
AmgObjPropCfg
  3
"AmgLay|Product Description: AutoCAD Mechanical|Company: Autodesk, Inc."
 90
     1025
 91
        1
280
     0
281
     0
  0
CLASS
  1
AMDTEDGESTANDARDISO
  2
AmdtEdgeStdISO
  3
"Amdt_StdImp|Product Description: AutoCAD Mechanical|Company: Autodesk, Inc."
 90
     1024
 91
        1
280
     0
281
     0
  0
CLASS
  1
ACMSURFSTANDARDISO
  2
AcmSurfTextStdISO
  3
"Amdt_StdImp|Product Description: AutoCAD Mechanical|Company: Autodesk, Inc."
 90
     1024
 91
        1
280
     0
281
     0
  0
CLASS
  1
ACMFCFSTANDARDISO
  2
AcmFCFStdISO
  3
"Amdt_StdImp|Product Description: AutoCAD Mechanical|Company: Autodesk, Inc."
 90
     1024
 91
        1
280
     0
281
     0
  0
CLASS
  1
ACMWELDSTANDARDISO
  2
AcmWeldingStdISO
  3
"Amdt_StdImp|Product Description: AutoCAD Mechanical|Company: Autodesk, Inc."
 90
     1024
 91
        1
280
     0
281
     0
  0
CLASS
  1
ACMIDSTANDARDISO
  2
AcmIdStdISO
  3
"Amdt_StdImp|Product Description: AutoCAD Mechanical|Company: Autodesk, Inc."
 90
     1024
 91
        1
280
     0
281
     0
  0
CLASS
  1
ACMDATUMSTANDARDISO
  2
AcmDatumStdISO
  3
"Amdt_StdImp|Product Description: AutoCAD Mechanical|Company: Autodesk, Inc."
 90
     1024
 91
        1
280
     0
281
     0
  0
CLASS
  1
ACMBOMSTANDARDISO
  2
AcmBOMStdISO
  3
"Amdt_StdImp|Product Description: AutoCAD Mechanical|Company: Autodesk, Inc."
 90
     1024
 91
        1
280
     0
281
     0
  0
CLASS
  1
ACMDETAILSTANDARDISO
  2
AmdtDetailSymStdISO
  3
"Amdt_StdImp|Product Description: AutoCAD Mechanical|Company: Autodesk, Inc."
 90
     1024
 91
        1
280
     0
281
     0
  0
CLASS
  1
ACMSECTIONSTANDARDISO
  2
AmdtSectionSymStdISO
  3
"Amdt_StdImp|Product Description: AutoCAD Mechanical|Company: Autodesk, Inc."
 90
     1024
 91
        1
280
     0
281
     0
  0
CLASS
  1
ACMCENTERLINESTANDARDISO
  2
AmdtCenterLineStdISO
  3
"Amdt_StdImp|Product Description: AutoCAD Mechanical|Company: Autodesk, Inc."
 90
     1024
 91
        1
280
     0
281
     0
  0
CLASS
  1
ACMNOTESTANDARDISO
  2
AmdtNoteStdISO
  3
"Amdt_StdImp|Product Description: AutoCAD Mechanical|Company: Autodesk, Inc."
 90
     1024
 91
        1
280
     0
281
     0
  0
CLASS
  1
ACAMGLAYSTD
  2
AcAmgLayStd
  3
"AmgLay|Product Description: AutoCAD Mechanical|Company: Autodesk, Inc."
 90
     1024
 91
        3
280
     0
281
     0
  0
CLASS
  1
ACAMGDIMSTD
  2
AcAmgDimStd
  3
"AmgDim|Product Description: AutoCAD Mechanical|Company: Autodesk, Inc."
 90
     1024
 91
        3
280
     0
281
     0
  0
CLASS
  1
ACAMGHOLECHARTSTDISO
  2
AcAmgHoleChartStdISO
  3
AmgDim|Product Description: AutoCAD Mechanical|Company: Autodesk, Inc.
 90
     1024
 91
        1
280
     0
281
     0
  0
CLASS
  1
ACAMGTITLESTD
  2
AcAmgTitleStd
  3
"AmgTitle|Product Description: AutoCAD Mechanical|Company: Autodesk, Inc."
 90
     4095
 91
        3
280
     0
281
     0
  0
CLASS
  1
LAYER_INDEX
  2
AcDbLayerIndex
  3
ObjectDBX Classes
 90
        0
 91
        0
280
     0
281
     0
  0
CLASS
  1
IDBUFFER
  2
AcDbIdBuffer
  3
ObjectDBX Classes
 90
        0
 91
        0
280
     0
281
     0
  0
CLASS
  1
DICTIONARYVAR
  2
AcDbDictionaryVar
  3
ObjectDBX Classes
 90
        0
 91
        9
280
     0
281
     0
  0
CLASS
  1
AM_DRAWING_MGR
  2
AcDmDwgMgr
  3
AcMechDwgViewMgmt
 90
     1024
 91
        1
280
     0
281
     0
  0
CLASS
  1
AM_DWG_DOCUMENT
  2
AcDmDwgDocument
  3
AcMechDwgViewMgmt
 90
     1024
 91
        1
280
     0
281
     0
  0
CLASS
  1
AM_DWG_SHEET
  2
AcDmSheet
  3
AcMechDwgViewMgmt
 90
     1024
 91
        2
280
     0
281
     0
  0
CLASS
  1
AM_VIEWDIMPARMAP
  2
AcDmViewDimParMap
  3
AcMechDwgViewMgmt
 90
     1024
 91
        2
280
     0
281
     0
  0
CLASS
  1
AM_DWGMGR_NAME
  2
AcDmDwgMgrName
  3
AcMechDwgViewMgmt
 90
     1024
 91
        1
280
     0
281
     0
  0
CLASS
  1
AMDTMENUSTATEMGR
  2
AmdtMenuStateMgr
  3
McadcomServices
 90
     1024
 91
        1
280
     0
281
     0
  0
CLASS
  1
AMDTMCOMMENUSTATE
  2
AmdtMcomMenuState
  3
McadcomServices
 90
     1024
 91
        1
280
     0
281
     0
  0
CLASS
  1
MAPIAMMOUDLE
  2
MApiAmModule
  3
MApiAmServices
 90
     1024
 91
        1
280
     0
281
     0
  0
CLASS
  1
AMDTADMENUSTATE
  2
AmdtAdMenuState
  3
DesignerServices
 90
     1024
 91
        1
280
     0
281
     0
  0
CLASS
  1
ADAPPL
  2
AcAdAppl
  3
DesignerServices
 90
     1024
 91
        1
280
     0
281
     0
  0
CLASS
  1
DEPMGR
  2
AcAdDepMgr
  3
DesignerServices
 90
     1024
 91
        1
280
     0
281
     0
  0
CLASS
  1
PARAMMGR
  2
AcAdParamMgr
  3
DesignerServices
 90
     1024
 91
        1
280
     0
281
     0
  0
CLASS
  1
PARAMSCOPE
  2
AcAdParamScope
  3
DesignerServices
 90
     1024
 91
        1
280
     0
281
     0
  0
CLASS
  1
NAMEDAPPL
  2
AcAdNamedAppl
  3
DesignerServices
 90
     1024
 91
        1
280
     0
281
     0
  0
CLASS
  1
AMDTDMMENUSTATE
  2
AmdtDmMenuState
  3
AcMechDwgViewMgmt
 90
     1024
 91
        1
280
     0
281
     0
  0
CLASS
  1
AMDTAMMENUSTATE
  2
AmdtAmMenuState
  3
DesignerAssemblies
 90
     1024
 91
        1
280
     0
281
     0
  0
CLASS
  1
ACAMPROJECT
  2
AcAmProject
  3
DesignerAssemblies
 90
     1024
 91
        1
280
     0
281
     0
  0
CLASS
  1
ACAMGRCOMPDEF
  2
AcAmGrCompDef
  3
DesignerAssemblies
 90
     1024
 91
        1
280
     0
281
     0
  0
CLASS
  1
ACCMCONTEXT
  2
AcCmContext
  3
DesignerAssemblies
 90
     1024
 91
        1
280
     0
281
     0
  0
CLASS
  1
ACAMCOMPDEF
  2
AcAmCompDef
  3
DesignerAssemblies
 90
     1024
 91
        1
280
     0
281
     0
  0
CLASS
  1
ACAMCOMPDEFMGR
  2
AcAmCompDefMgr
  3
DesignerAssemblies
 90
     1024
 91
        1
280
     0
281
     0
  0
CLASS
  1
AMCONTEXTMGR
  2
AcAmContextMgr
  3
DesignerAssemblies
 90
     1024
 91
        1
280
     0
281
     0
  0
CLASS
  1
ACAMCONTEXTMODELER
  2
AcAmContextModeler
  3
DesignerAssemblies
 90
     1024
 91
        1
280
     0
281
     0
  0
CLASS
  1
ACMTHREADLINESTANDARDISO
  2
AmdtThreadLineStdISO
  3
"Amdt_StdImp|Product Description: AutoCAD Mechanical|Company: Autodesk, Inc."
 90
     1024
 91
        1
280
     0
281
     0
  0
CLASS
  1
CATALOGSTATE
  2
AcAmCatalogState
  3
DesignerAssemblies
 90
     1024
 91
        1
280
     0
281
     0
  0
CLASS
  1
ACAMGRCOMPDEFSET
  2
AcAmGrCompDefSet
  3
DesignerAssemblies
 90
     1024
 91
        1
280
     0
281
     0
  0
CLASS
  1
AMDTBROWSERDBTAB
  2
AmdtBrowserDbTab
  3
McadcomServices
 90
     1024
 91
        1
280
     0
281
     0
  0
CLASS
  1
CBROWSERAPPOBJECT
  2
CBrowserAppObject
  3
McadcomServices
 90
     1024
 91
        3
280
     0
281
     0
  0
CLASS
  1
DM_PLACEHOLDER
  2
AcDmSelsetPlaceholder
  3
AcMechDwgViewMgmt
 90
     1024
 91
        1
280
     0
281
     0
  0
CLASS
  1
TABLESTYLE
  2
AcDbTableStyle
  3
ObjectDBX Classes
 90
     4095
 91
        1
280
     0
281
     0
  0
CLASS
  1
VAACXREFPANELOBJECT
  2
VaAcXREFPanelObject
  3
VAAC_ADDIN
 90
        0
 91
        0
280
     0
281
     0
  0
CLASS
  1
VAACIMAGEINVENTORY
  2
VaAcImageInventory
  3
VAAC_ADDIN
 90
        0
 91
        0
280
     0
281
     0
  0
CLASS
  1
AMDTNOTETEMPLATEDB
  2
AmdtNoteTemplateDB
  3
AcmSymBB|Product Description: AutoCAD Mechanical|Company: Autodesk, Inc.
 90
     1024
 91
       18
280
     0
281
     0
  0
CLASS
  1
ACAMGFILTERDAT
  2
AcAmgFilterDat
  3
"AcadM|Product Description: AutoCAD Mechanical|Company: Autodesk, Inc."
 90
     1024
 91
        6
280
     0
281
     0
  0
CLASS
  1
ACMBOM
  2
AcmBom
  3
"AcmSymBB|Product Description: AutoCAD Mechanical|Company: Autodesk, Inc."
 90
     1024
 91
        0
280
     0
281
     0
  0
CLASS
  1
AMDTFORMULAUPDATEDISPATCHER
  2
AmdtFormulaUpdateDispatcher
  3
AcMeServices
 90
     1024
 91
        1
280
     0
281
     0
  0
CLASS
  1
SORTENTSTABLE
  2
AcDbSortentsTable
  3
ObjectDBX Classes
 90
        0
 91
        1
280
     0
281
     0
  0
CLASS
  1
DIMASSOC
  2
AcDbDimAssoc
  3
"AcDbDimAssoc|Product Desc:     AcDim ARX App For Dimension|Company:          Autodesk, Inc.|WEB Address:      www.autodesk.com"
 90
        0
 91
       20
280
     0
281
     0
  0
CLASS
  1
ACDBELLIPSERES
  2
AcDbEllipseRes
  3
AcGrefServices
 90
     1024
 91
        2
280
     0
281
     0
  0
CLASS
  1
AMDTNOTE
  2
AmdtNote
  3
"AcmSymBB|Product Description: AutoCAD Mechanical|Company: Autodesk, Inc."
 90
     4095
 91
       10
280
     0
281
     1
  0
CLASS
  1
ACMSTANDARDDIN
  2
AcmStandardDIN
  3
"Amdt_StdImp|Product Description: AutoCAD Mechanical|Company: Autodesk, Inc."
 90
     1024
 91
        1
280
     0
281
     0
  0
CLASS
  1
AMDTEDGESTANDARDDIN13715
  2
AmdtEdgeStdDIN13715
  3
"Amdt_StdImp|Product Description: AutoCAD Mechanical|Company: Autodesk, Inc."
 90
     1024
 91
        1
280
     0
281
     0
  0
CLASS
  1
ACMSURFSTANDARDDIN
  2
AcmSurfTextStdDIN
  3
"Amdt_StdImp|Product Description: AutoCAD Mechanical|Company: Autodesk, Inc."
 90
     1024
 91
        1
280
     0
281
     0
  0
CLASS
  1
ACMFCFSTANDARDDIN
  2
AcmFCFStdDIN
  3
"Amdt_StdImp|Product Description: AutoCAD Mechanical|Company: Autodesk, Inc."
 90
     1024
 91
        1
280
     0
281
     0
  0
CLASS
  1
ACMWELDSTANDARDDIN
  2
AcmWeldingStdDIN
  3
"Amdt_StdImp|Product Description: AutoCAD Mechanical|Company: Autodesk, Inc."
 90
     1024
 91
        1
280
     0
281
     0
  0
CLASS
  1
ACMIDSTANDARDDIN
  2
AcmIdStdDIN
  3
"Amdt_StdImp|Product Description: AutoCAD Mechanical|Company: Autodesk, Inc."
 90
     1024
 91
        1
280
     0
281
     0
  0
CLASS
  1
ACMDATUMSTANDARDDIN
  2
AcmDatumStdDIN
  3
"Amdt_StdImp|Product Description: AutoCAD Mechanical|Company: Autodesk, Inc."
 90
     1024
 91
        1
280
     0
281
     0
  0
CLASS
  1
ACMBOMSTANDARDDIN
  2
AcmBOMStdDIN
  3
"Amdt_StdImp|Product Description: AutoCAD Mechanical|Company: Autodesk, Inc."
 90
     1024
 91
        1
280
     0
281
     0
  0
CLASS
  1
ACMDETAILSTANDARDDIN
  2
AmdtDetailSymStdDIN
  3
"Amdt_StdImp|Product Description: AutoCAD Mechanical|Company: Autodesk, Inc."
 90
     1024
 91
        1
280
     0
281
     0
  0
CLASS
  1
ACMSECTIONSTANDARDDIN
  2
AmdtSectionSymStdDIN
  3
"Amdt_StdImp|Product Description: AutoCAD Mechanical|Company: Autodesk, Inc."
 90
     1024
 91
        1
280
     0
281
     0
  0
CLASS
  1
ACMCENTERLINESTANDARDDIN
  2
AmdtCenterLineStdDIN
  3
"Amdt_StdImp|Product Description: AutoCAD Mechanical|Company: Autodesk, Inc."
 90
     1024
 91
        1
280
     0
281
     0
  0
CLASS
  1
ACMTHREADLINESTANDARDDIN
  2
AmdtThreadLineStdDIN
  3
"Amdt_StdImp|Product Description: AutoCAD Mechanical|Company: Autodesk, Inc."
 90
     1024
 91
        1
280
     0
281
     0
  0
CLASS
  1
ACMNOTESTANDARDDIN
  2
AmdtNoteStdDIN
  3
"Amdt_StdImp|Product Description: AutoCAD Mechanical|Company: Autodesk, Inc."
 90
     1024
 91
        1
280
     0
281
     0
  0
CLASS
  1
ACAMGHOLECHARTSTDDIN
  2
AcAmgHoleChartStdDIN
  3
AmgDim|Product Description: AutoCAD Mechanical|Company: Autodesk, Inc.
 90
     1024
 91
        1
280
     0
281
     0
  0
CLASS
  1
ACMSTANDARDANSI
  2
AcmStandardANSI
  3
"Amdt_StdImp|Product Description: AutoCAD Mechanical|Company: Autodesk, Inc."
 90
     1024
 91
        1
280
     0
281
     0
  0
CLASS
  1
ACMSURFSTANDARDANSI
  2
AcmSurfTextStdANSI
  3
"Amdt_StdImp|Product Description: AutoCAD Mechanical|Company: Autodesk, Inc."
 90
     1024
 91
        1
280
     0
281
     0
  0
CLASS
  1
ACMFCFSTANDARDANSI
  2
AcmFCFStdANSI
  3
"Amdt_StdImp|Product Description: AutoCAD Mechanical|Company: Autodesk, Inc."
 90
     1024
 91
        1
280
     0
281
     0
  0
CLASS
  1
ACMWELDSTANDARDANSI
  2
AcmWeldingStdANSI
  3
"Amdt_StdImp|Product Description: AutoCAD Mechanical|Company: Autodesk, Inc."
 90
     1024
 91
        1
280
     0
281
     0
  0
CLASS
  1
ACMIDSTANDARDANSI
  2
AcmIdStdANSI
  3
"Amdt_StdImp|Product Description: AutoCAD Mechanical|Company: Autodesk, Inc."
 90
     1024
 91
        1
280
     0
281
     0
  0
CLASS
  1
ACMDATUMSTANDARDANSI
  2
AcmDatumStdANSI
  3
"Amdt_StdImp|Product Description: AutoCAD Mechanical|Company: Autodesk, Inc."
 90
     1024
 91
        1
280
     0
281
     0
  0
CLASS
  1
ACMBOMSTANDARDANSI
  2
AcmBOMStdANSI
  3
"Amdt_StdImp|Product Description: AutoCAD Mechanical|Company: Autodesk, Inc."
 90
     1024
 91
        1
280
     0
281
     0
  0
CLASS
  1
ACMDETAILSTANDARDANSI
  2
AmdtDetailSymStdANSI
  3
"Amdt_StdImp|Product Description: AutoCAD Mechanical|Company: Autodesk, Inc."
 90
     1024
 91
        1
280
     0
281
     0
  0
CLASS
  1
ACMSECTIONSTANDARDANSI
  2
AmdtSectionSymStdANSI
  3
"Amdt_StdImp|Product Description: AutoCAD Mechanical|Company: Autodesk, Inc."
 90
     1024
 91
        1
280
     0
281
     0
  0
CLASS
  1
ACMCENTERLINESTANDARDANSI
  2
AmdtCenterLineStdANSI
  3
"Amdt_StdImp|Product Description: AutoCAD Mechanical|Company: Autodesk, Inc."
 90
     1024
 91
        1
280
     0
281
     0
  0
CLASS
  1
ACMTHREADLINESTANDARDANSI
  2
AmdtThreadLineStdANSI
  3
"Amdt_StdImp|Product Description: AutoCAD Mechanical|Company: Autodesk, Inc."
 90
     1024
 91
        1
280
     0
281
     0
  0
CLASS
  1
ACMNOTESTANDARDANSI
  2
AmdtNoteStdANSI
  3
"Amdt_StdImp|Product Description: AutoCAD Mechanical|Company: Autodesk, Inc."
 90
     1024
 91
        1
280
     0
281
     0
  0
CLASS
  1
AC_AM_MVD_DEP_MGR
  2
AcAmMVDdepMgr
  3
DesignerAssemblies
 90
     1024
 91
        1
280
     0
281
     0
  0
CLASS
  1
AC_AM_MASTER_VIEW_DEF
  2
AcAmMasterViewDef
  3
DesignerAssemblies
 90
     1024
 91
        1
280
     0
281
     0
  0
CLASS
  1
AC_AM_DIRTY_NODES
  2
AcAmDirtyNodes
  3
DesignerAssemblies
 90
     1024
 91
        1
280
     0
281
     0
  0
CLASS
  1
AC_AM_MAPPER_CACHE
  2
AcAmMapperCache
  3
DesignerAssemblies
 90
     1024
 91
        5
280
     0
281
     0
  0
CLASS
  1
ACAMMVDBACKUPOBJECT
  2
AcAmMVDBackupObject
  3
DesignerAssemblies
 90
     1024
 91
        1
280
     0
281
     0
  0
CLASS
  1
AC_AM_2D_XREF_MGR
  2
AcAmXrefMgr2d
  3
DesignerAssemblies
 90
     1024
 91
        1
280
     0
281
     0
  0
CLASS
  1
STDPART2D
  2
AmgStdPart
  3
AmgStdPart|Product Description: AutoCAD Mechanical|Company: Autodesk, Inc.
 90
     4095
 91
       33
280
     0
281
     1
  0
CLASS
  1
AC_AM_COMP_VIEW_INST
  2
AcAmCompView
  3
DesignerAssemblies
 90
     1024
 91
       14
280
     0
281
     0
  0
CLASS
  1
AC_AM_STDP_VIEW_DEF
  2
AcAmStdpViewDef
  3
DesignerAssemblies
 90
     1024
 91
        4
280
     0
281
     0
  0
CLASS
  1
ACAMCOMP
  2
AcAmComp
  3
DesignerAssemblies
 90
     1024
 91
       14
280
     0
281
     0
  0
CLASS
  1
ACAMSTDPCOMPDEF
  2
AcAmStdpCompDef
  3
DesignerAssemblies
 90
     1024
 91
        2
280
     0
281
     0
  0
CLASS
  1
AC_AM_HIDE_SITUATION
  2
AcAmHideSituation
  3
DesignerAssemblies
 90
     1024
 91
        5
280
     0
281
     0
  0
CLASS
  1
ACAMWBLOCKTEMPENTS
  2
AcAmStructInOutTempObjsHolder
  3
DesignerAssemblies
 90
     1024
 91
        0
280
     0
281
     0
  0
CLASS
  1
ACRFATTGENMGR
  2
AcRfAttGeneralMgr
  3
AcAttribServices
 90
     1024
 91
        1
280
     0
281
     0
  0
CLASS
  1
ACRFOBJATTMGR
  2
AcRfObjAttGroupMgr
  3
AcAttribServices
 90
     1024
 91
        3
280
     0
281
     0
  0
CLASS
  1
ACRFMCADAPIATTHOLDER
  2
AcRfMCADAPIAttHolder
  3
AcAttribServices
 90
     1024
 91
        1
280
     0
281
     0
  0
CLASS
  1
AMDTSYSATTR
  2
AmdtSystemAttribute
  3
AcAttribServices
 90
     1024
 91
       15
280
     0
281
     0
  0
CLASS
  1
OBJCLONER
  2
ObjCloner
  3
DesignerAssemblies
 90
     1024
 91
        0
280
     0
281
     1
  0
CLASS
  1
AC_AM_TRANSFORM_GHOST
  2
AcDbTransformGhost
  3
DesignerAssemblies
 90
     1024
 91
        0
280
     0
281
     1
  0
CLASS
  1
ACDBLINERES
  2
AcDbLineRes
  3
AcGrefServices
 90
     1024
 91
        1
280
     0
281
     0
  0
CLASS
  1
MATERIAL
  2
AcDbMaterial
  3
ObjectDBX Classes
 90
     1153
 91
        3
280
     0
281
     0
  0
CLASS
  1
VISUALSTYLE
  2
AcDbVisualStyle
  3
ObjectDBX Classes
 90
     4095
 91
       16
280
     0
281
     0
  0
CLASS
  1
SCALE
  2
AcDbScale
  3
ObjectDBX Classes
 90
     1153
 91
       17
280
     0
281
     0
  0
CLASS
  1
MLEADERSTYLE
  2
AcDbMLeaderStyle
  3
ACDB_MLEADERSTYLE_CLASS
 90
     4095
 91
        1
280
     0
281
     0
  0
CLASS
  1
ACMTAPERSTANDARDISO
  2
AcmTaperStdISO
  3
"Amdt_StdImp|Product Description: AutoCAD Mechanical|Company: Autodesk, Inc."
 90
     1024
 91
        1
280
     0
281
     0
  0
CLASS
  1
ACMANOOTATIONVIEWSTANDARDISO
  2
AmdtAnViewStdISO
  3
"Amdt_StdImp|Product Description: AutoCAD Mechanical|Company: Autodesk, Inc."
 90
     1024
 91
        1
280
     0
281
     0
  0
CLASS
  1
ACMTAPERSTANDARDDIN
  2
AcmTaperStdDIN
  3
"Amdt_StdImp|Product Description: AutoCAD Mechanical|Company: Autodesk, Inc."
 90
     1024
 91
        1
280
     0
281
     0
  0
CLASS
  1
ACMANOOTATIONVIEWSTANDARDDIN
  2
AmdtAnViewStdDIN
  3
"Amdt_StdImp|Product Description: AutoCAD Mechanical|Company: Autodesk, Inc."
 90
     1024
 91
        1
280
     0
281
     0
  0
CLASS
  1
ACMTAPERSTANDARDANSI
  2
AcmTaperStdANSI
  3
"Amdt_StdImp|Product Description: AutoCAD Mechanical|Company: Autodesk, Inc."
 90
     1024
 91
        1
280
     0
281
     0
  0
CLASS
  1
ACMANOOTATIONVIEWSTANDARDANSI
  2
AmdtAnViewStdANSI
  3
"Amdt_StdImp|Product Description: AutoCAD Mechanical|Company: Autodesk, Inc."
 90
     1024
 91
        1
280
     0
281
     0
  0
CLASS
  1
EXACXREFPANELOBJECT
  2
ExAcXREFPanelObject
  3
EXAC_ESW
 90
     1025
 91
        1
280
     0
281
     0
  0
CLASS
  1
NPOCOLLECTION
  2
AcDbImpNonPersistentObjectsCollection
  3
ObjectDBX Classes
 90
     1153
 91
        1
280
     0
281
     0
  0
CLASS
  1
IMAGE
  2
AcDbRasterImage
  3
ISM
 90
     2175
 91
        1
280
     0
281
     1
  0
CLASS
  1
IMAGEDEF_REACTOR
  2
AcDbRasterImageDefReactor
  3
ISM
 90
        1
 91
        1
280
     0
281
     0
  0
CLASS
  1
IMAGEDEF
  2
AcDbRasterImageDef
  3
ISM
 90
        0
 91
        1
280
     0
281
     0
  0
CLASS
  1
RASTERVARIABLES
  2
AcDbRasterVariables
  3
ISM
 90
        0
 91
        1
280
     0
281
     0
  0
CLASS
  1
CELLSTYLEMAP
  2
AcDbCellStyleMap
  3
ObjectDBX Classes
 90
     1152
 91
        3
280
     0
281
     0
  0
CLASS
  1
AEC_REFEDIT_STATUS_TRACKER
  2
AecDbRefEditStatusTracker
  3
AecArchBase50|Product Desc: Autodesk Architectural Desktop 2007 |Company: Autodesk,Inc. |WEB Address: www.autodesk.com
 90
      129
 91
        1
280
     0
281
     0
  0
ENDSEC
  0
SECTION
  2
TABLES
  0
TABLE
  2
VPORT
  5
8
330
0
100
AcDbSymbolTable
 70
     1
  0
VPORT
  5
3143
330
8
100
AcDbSymbolTableRecord
100
AcDbViewportTableRecord
  2
*Active
 70
     0
 10
0.0
 20
0.0
 11
1.0
 21
1.0
 12
789.912132827441
 22
478.7743267927983
 13
0.0
 23
0.0
 14
2.5
 24
2.5
 15
10.0
 25
10.0
 16
0.0
 26
0.0
 36
1.0
 17
0.0
 27
0.0
 37
0.0
 40
887.5442904262685
 41
2.180774748923959
 42
50.0
 43
0.0
 44
0.0
 50
0.0
 51
0.0
 71
     0
 72
   100
 73
     1
 74
     3
 75
     0
 76
     0
 77
     0
 78
     0
281
     0
 65
     1
110
0.0
120
0.0
130
0.0
111
1.0
121
0.0
131
0.0
112
0.0
122
1.0
132
0.0
 79
     0
146
0.0
  0
ENDTAB
  0
TABLE
  2
LTYPE
  5
5
330
0
100
AcDbSymbolTable
 70
    35
  0
LTYPE
  5
14
330
5
100
AcDbSymbolTableRecord
100
AcDbLinetypeTableRecord
  2
ByBlock
 70
     0
  3

 72
    65
 73
     0
 40
0.0
  0
LTYPE
  5
15
330
5
100
AcDbSymbolTableRecord
100
AcDbLinetypeTableRecord
  2
ByLayer
 70
     0
  3

 72
    65
 73
     0
 40
0.0
  0
LTYPE
  5
16
330
5
100
AcDbSymbolTableRecord
100
AcDbLinetypeTableRecord
  2
Continuous
 70
     0
  3
Solid line
 72
    65
 73
     0
 40
0.0
  0
LTYPE
  5
64
330
5
100
AcDbSymbolTableRecord
100
AcDbLinetypeTableRecord
  2
AM_ISO02W050
 70
     0
  3
__ __ __ __ __ __ __ __ __ __ __ __ __ __ __
 72
    65
 73
     2
 40
7.5
 49
6.0
 74
     0
 49
-1.5
 74
     0
  0
LTYPE
  5
65
330
5
100
AcDbSymbolTableRecord
100
AcDbLinetypeTableRecord
  2
AM_ISO08W050
 70
     0
  3
____ . ____ . ____ . ____ . ____ . ____ . ____
 72
    65
 73
     4
 40
18.0
 49
12.0
 74
     0
 49
-1.5
 74
     0
 49
3.0
 74
     0
 49
-1.5
 74
     0
  0
LTYPE
  5
66
330
5
100
AcDbSymbolTableRecord
100
AcDbLinetypeTableRecord
  2
AM_ISO09W050
 70
     0
  3
_____ . . _____ . . _____ . . ____ .. ____
 72
    65
 73
     6
 40
22.5
 49
12.0
 74
     0
 49
-1.5
 74
     0
 49
3.0
 74
     0
 49
-1.5
 74
     0
 49
3.0
 74
     0
 49
-1.5
 74
     0
  0
LTYPE
  5
67
330
5
100
AcDbSymbolTableRecord
100
AcDbLinetypeTableRecord
  2
Amconstr
 70
     0
  3
_______________________
 72
    65
 73
     2
 40
9999.0
 49
9999.0
 74
     0
 49
0.0
 74
     0
  0
LTYPE
  5
68
330
5
100
AcDbSymbolTableRecord
100
AcDbLinetypeTableRecord
  2
AM_ISO08W050x2
 70
     0
  3
__ . __ . __ . __ . __ . __
 72
    65
 73
     4
 40
9.0
 49
6.0
 74
     0
 49
-0.75
 74
     0
 49
1.5
 74
     0
 49
-0.75
 74
     0
  0
LTYPE
  5
69
330
5
100
AcDbSymbolTableRecord
100
AcDbLinetypeTableRecord
  2
AM_ISO02W050x2
 70
     0
  3
 _ _ _ _ _ _ _ _ _ _ _ _
 72
    65
 73
     2
 40
3.75
 49
3.0
 74
     0
 49
-0.75
 74
     0
  0
LTYPE
  5
6C
330
5
100
AcDbSymbolTableRecord
100
AcDbLinetypeTableRecord
  2
Amzigzag
 70
     0
  3
/\/-/\/-/\/-/\/-/\/-/\/
 72
    65
 73
     2
 40
11.0001
 49
0.0001
 74
     4
 75
   136
340
22C
 46
0.04
 50
0.0
 44
0.0
 45
0.0
 49
-11.0
 74
     0
  0
LTYPE
  5
7A
330
5
100
AcDbSymbolTableRecord
100
AcDbLinetypeTableRecord
  2
ACISOWELD
 70
     0
  3
_ _ _ _ _
 72
    65
 73
     2
 40
2.0
 49
2.0
 74
     0
 49
-1.0
 74
     0
  0
LTYPE
  5
7B
330
5
100
AcDbSymbolTableRecord
100
AcDbLinetypeTableRecord
  2
ACISOTGB
 70
     0
  3
__ . . __ . .
 72
    65
 73
     6
 40
9.0
 49
4.0
 74
     0
 49
-1.0
 74
     0
 49
1.0
 74
     0
 49
-1.0
 74
     0
 49
1.0
 74
     0
 49
-1.0
 74
     0
  0
LTYPE
  5
7C
330
5
100
AcDbSymbolTableRecord
100
AcDbLinetypeTableRecord
  2
ACISOTGL
 70
     0
  3
_ _ _ _ _
 72
    65
 73
     2
 40
3.0
 49
2.0
 74
     0
 49
-1.0
 74
     0
  0
LTYPE
  5
7E
330
5
100
AcDbSymbolTableRecord
100
AcDbLinetypeTableRecord
  2
CENTER
 70
     0
  3
__ . __
 72
    65
 73
     4
 40
7.0
 49
4.0
 74
     0
 49
-1.0
 74
     0
 49
1.0
 74
     0
 49
-1.0
 74
     0
  0
LTYPE
  5
D8
330
5
100
AcDbSymbolTableRecord
100
AcDbLinetypeTableRecord
  2
HIDDEN
 70
     0
  3
Hidden __ __ __ __ __ __ __ __ __ __ __ __ __ _
 72
    65
 73
     2
 40
9.524999999999998
 49
6.349999999999999
 74
     0
 49
-3.174999999999999
 74
     0
  0
LTYPE
  5
D9
330
5
100
AcDbSymbolTableRecord
100
AcDbLinetypeTableRecord
  2
PHANTOM2
 70
     0
  3
Phantom (.5x) ___ _ _ ___ _ _ ___ _ _ ___ _ _
 72
    65
 73
     6
 40
31.75
 49
15.875
 74
     0
 49
-3.174999999999999
 74
     0
 49
3.174999999999999
 74
     0
 49
-3.174999999999999
 74
     0
 49
3.174999999999999
 74
     0
 49
-3.174999999999999
 74
     0
  0
LTYPE
  5
6DA
330
5
100
AcDbSymbolTableRecord
100
AcDbLinetypeTableRecord
  2
AM_DIN_G_W050
 70
     0
  3
____ . ____ . ____ . ____ . ____ . ____ . ____
 72
    65
 73
     4
 40
13.75
 49
9.75
 74
     0
 49
-1.5
 74
     0
 49
1.0
 74
     0
 49
-1.5
 74
     0
  0
LTYPE
  5
6DB
330
5
100
AcDbSymbolTableRecord
100
AcDbLinetypeTableRecord
  2
ACDINWELD
 70
     0
  3
_ _ _ _ _
 72
    65
 73
     2
 40
2.0
 49
2.0
 74
     0
 49
-1.0
 74
     0
  0
LTYPE
  5
6DC
330
5
100
AcDbSymbolTableRecord
100
AcDbLinetypeTableRecord
  2
ACDINTGB
 70
     0
  3
__ . . __ . .
 72
    65
 73
     6
 40
9.0
 49
4.0
 74
     0
 49
-1.0
 74
     0
 49
1.0
 74
     0
 49
-1.0
 74
     0
 49
1.0
 74
     0
 49
-1.0
 74
     0
  0
LTYPE
  5
6DD
330
5
100
AcDbSymbolTableRecord
100
AcDbLinetypeTableRecord
  2
ACDINTGL
 70
     0
  3
_ _ _ _ _
 72
    65
 73
     2
 40
3.0
 49
2.0
 74
     0
 49
-1.0
 74
     0
  0
LTYPE
  5
796
330
5
100
AcDbSymbolTableRecord
100
AcDbLinetypeTableRecord
  2
STRICHPUNKT
 70
     0
  3
__ . __ . __ . __ . __ . __ . __ . __ . __ . __
 72
    65
 73
     4
 40
1.0
 49
0.5
 74
     0
 49
-0.25
 74
     0
 49
0.0
 74
     0
 49
-0.25
 74
     0
  0
LTYPE
  5
79A
330
5
100
AcDbSymbolTableRecord
100
AcDbLinetypeTableRecord
  2
ACANSTGB
 70
     0
  3
__ . . __ . .
 72
    65
 73
     6
 40
0.35433070866
 49
0.15748031496
 74
     0
 49
-0.03937007874
 74
     0
 49
0.03937007874
 74
     0
 49
-0.03937007874
 74
     0
 49
0.03937007874
 74
     0
 49
-0.03937007874
 74
     0
  0
LTYPE
  5
79B
330
5
100
AcDbSymbolTableRecord
100
AcDbLinetypeTableRecord
  2
ACANSTGL
 70
     0
  3
_ _ _ _ _
 72
    65
 73
     2
 40
0.11811023622
 49
0.07874015748
 74
     0
 49
-0.03937007874
 74
     0
  0
LTYPE
  5
BF6
330
5
100
AcDbSymbolTableRecord
100
AcDbLinetypeTableRecord
  2
AM_DIN_G_W050x2
 70
     0
  3
__ . __ . __ . __ . __ . __
 72
    65
 73
     4
 40
6.875
 49
4.75
 74
     0
 49
-0.875
 74
     0
 49
0.375
 74
     0
 49
-0.875
 74
     0
  0
ENDTAB
  0
TABLE
  2
LAYER
  5
2
102
{ACAD_XDICTIONARY
360
613
102
}
330
0
100
AcDbSymbolTable
 70
    26
  0
LAYER
  5
10
102
{ACAD_XDICTIONARY
360
35C5
102
}
330
2
100
AcDbSymbolTableRecord
100
AcDbLayerTableRecord
  2
0
 70
     0
 62
     7
  6
Continuous
370
    -3
390
F
  0
LAYER
  5
306
102
{ACAD_XDICTIONARY
360
35C7
102
}
330
2
100
AcDbSymbolTableRecord
100
AcDbLayerTableRecord
  2
AM_7
 70
     0
 62
     4
  6
AM_ISO08W050
370
    25
390
F
1001
AcAecLayerStandard
1000

1000

  0
LAYER
  5
32D
102
{ACAD_XDICTIONARY
360
35C9
102
}
330
2
100
AcDbSymbolTableRecord
100
AcDbLayerTableRecord
  2
AM_5
 70
     0
 62
     3
  6
Continuous
370
    25
390
F
1001
AcAecLayerStandard
1000

1000

  0
LAYER
  5
3F4
330
2
100
AcDbSymbolTableRecord
100
AcDbLayerTableRecord
  2
Defpoints
 70
     0
 62
     7
  6
Continuous
290
     0
370
    -3
390
F
  0
LAYER
  5
612
102
{ACAD_XDICTIONARY
360
35CB
102
}
330
2
100
AcDbSymbolTableRecord
100
AcDbLayerTableRecord
  2
AM_0
 70
     0
 62
     7
  6
Continuous
370
    50
390
F
1001
AcAecLayerStandard
1000

1000

  0
LAYER
  5
616
102
{ACAD_XDICTIONARY
360
35CD
102
}
330
2
100
AcDbSymbolTableRecord
100
AcDbLayerTableRecord
  2
AM_4
 70
     0
 62
     3
  6
Continuous
370
    25
390
F
1001
AcAecLayerStandard
1000

1000

  0
LAYER
  5
618
102
{ACAD_XDICTIONARY
360
35CF
102
}
330
2
100
AcDbSymbolTableRecord
100
AcDbLayerTableRecord
  2
AM_8
 70
     0
 62
     1
  6
Continuous
370
    25
390
F
1001
AcAecLayerStandard
1000

1000

  0
LAYER
  5
BF8
102
{ACAD_XDICTIONARY
360
35E3
102
}
330
2
100
AcDbSymbolTableRecord
100
AcDbLayerTableRecord
  2
P-0000
 70
     0
 62
     7
  6
Continuous
370
    -3
390
F
  0
LAYER
  5
CEA
102
{ACAD_XDICTIONARY
360
35E5
102
}
330
2
100
AcDbSymbolTableRecord
100
AcDbLayerTableRecord
  2
AM_CL
 70
     0
 62
     1
  6
Amconstr
370
    25
390
F
1001
AcAecLayerStandard
1000

1000

  0
LAYER
  5
1103
102
{ACAD_XDICTIONARY
360
35E7
102
}
330
2
100
AcDbSymbolTableRecord
100
AcDbLayerTableRecord
  2
AM_9
 70
     0
 62
  -253
  6
Continuous
370
     0
390
F
  0
LAYER
  5
274D
102
{ACAD_XDICTIONARY
360
35E9
102
}
330
2
100
AcDbSymbolTableRecord
100
AcDbLayerTableRecord
  2
P-5D9E
 70
     0
 62
     7
  6
Continuous
370
    -3
390
F
  0
LAYER
  5
274E
102
{ACAD_XDICTIONARY
360
35EB
102
}
330
2
100
AcDbSymbolTableRecord
100
AcDbLayerTableRecord
  2
P-2885
 70
     0
 62
     7
  6
Continuous
370
    -3
390
F
  0
LAYER
  5
2DA4
102
{ACAD_XDICTIONARY
360
35EF
102
}
330
2
100
AcDbSymbolTableRecord
100
AcDbLayerTableRecord
  2
AM_0N
 70
     0
 62
     7
  6
Continuous
370
    50
390
F
1001
AcAecLayerStandard
1000

1000

  0
LAYER
  5
2DA5
102
{ACAD_XDICTIONARY
360
35F1
102
}
330
2
100
AcDbSymbolTableRecord
100
AcDbLayerTableRecord
  2
AM_7N
 70
     0
 62
     4
  6
AM_ISO08W050
370
    25
390
F
1001
AcAecLayerStandard
1000

1000

  0
LAYER
  5
2DA6
102
{ACAD_XDICTIONARY
360
35F3
102
}
330
2
100
AcDbSymbolTableRecord
100
AcDbLayerTableRecord
  2
AM_4N
 70
     0
 62
     3
  6
Continuous
370
    25
390
F
1001
AcAecLayerStandard
1000

1000

  0
ENDTAB
  0
TABLE
  2
STYLE
  5
3
330
0
100
AcDbSymbolTable
 70
    17
  0
STYLE
  5
11
330
3
100
AcDbSymbolTableRecord
100
AcDbTextStyleTableRecord
  2
STANDARD
 70
     0
 40
0.0
 41
1.0
 50
0.0
 71
     0
 42
10.5
  3
ISOCP.SHX
  4

  0
STYLE
  5
6D
330
3
100
AcDbSymbolTableRecord
100
AcDbTextStyleTableRecord
  2
ACISOTS
 70
     0
 40
1.0
 41
1.0
 50
0.0
 71
     0
 42
2.5
  3
isocp.shx
  4
bigfont.shx
  0
STYLE
  5
79
330
3
100
AcDbSymbolTableRecord
100
AcDbTextStyleTableRecord
  2
ACISOGDT
 70
     0
 40
0.0
 41
1.0
 50
0.0
 71
     0
 42
2.5
  3
AMGDT
  4
bigfont.shx
  0
STYLE
  5
22C
330
3
100
AcDbSymbolTableRecord
100
AcDbTextStyleTableRecord
  2

 70
     1
 40
0.0
 41
1.0
 50
0.0
 71
     0
 42
2.5
  3
genltshp.shx
  4

  0
STYLE
  5
6E5
330
3
100
AcDbSymbolTableRecord
100
AcDbTextStyleTableRecord
  2
ACDINTS
 70
     0
 40
1.0
 41
1.0
 50
0.0
 71
     0
 42
0.2
  3
isocp.shx
  4

  0
STYLE
  5
6E6
330
3
100
AcDbSymbolTableRecord
100
AcDbTextStyleTableRecord
  2
ACDINGDT
 70
     0
 40
0.0
 41
1.0
 50
0.0
 71
     0
 42
0.2
  3
AMGDT
  4

  0
STYLE
  5
7A7
330
3
100
AcDbSymbolTableRecord
100
AcDbTextStyleTableRecord
  2
ACANSTS
 70
     0
 40
1.0
 41
1.0
 50
0.0
 71
     0
 42
2.0
  3
romans.shx
  4

  0
STYLE
  5
7A8
330
3
100
AcDbSymbolTableRecord
100
AcDbTextStyleTableRecord
  2
ACANSGDT
 70
     0
 40
0.0
 41
1.0
 50
0.0
 71
     0
 42
2.0
  3
amgdtans.shx
  4

  0
ENDTAB
  0
TABLE
  2
VIEW
  5
6
330
0
100
AcDbSymbolTable
 70
     0
  0
ENDTAB
  0
TABLE
  2
UCS
  5
7
330
0
100
AcDbSymbolTable
 70
     0
  0
ENDTAB
  0
TABLE
  2
APPID
  5
9
330
0
100
AcDbSymbolTable
 70
    47
  0
APPID
  5
12
330
9
100
AcDbSymbolTableRecord
100
AcDbRegAppTableRecord
  2
ACAD
 70
     0
  0
APPID
  5
46
330
9
100
AcDbSymbolTableRecord
100
AcDbRegAppTableRecord
  2
MCAD_NO_VIS
 70
     0
  0
APPID
  5
47
330
9
100
AcDbSymbolTableRecord
100
AcDbRegAppTableRecord
  2
ACAD_TEMP_GRAPHIC
 70
     0
  0
APPID
  5
58
330
9
100
AcDbSymbolTableRecord
100
AcDbRegAppTableRecord
  2
ACATTRIBSERVICES
 70
     0
  0
APPID
  5
EE
330
9
100
AcDbSymbolTableRecord
100
AcDbRegAppTableRecord
  2
AD_DRAW
 70
     0
  0
APPID
  5
10C
330
9
100
AcDbSymbolTableRecord
100
AcDbRegAppTableRecord
  2
DESIGNERASSEMBLIES
 70
     0
  0
APPID
  5
111
330
9
100
AcDbSymbolTableRecord
100
AcDbRegAppTableRecord
  2
ACADM_DIM_EDIT
 70
     0
  0
APPID
  5
112
330
9
100
AcDbSymbolTableRecord
100
AcDbRegAppTableRecord
  2
AMDT_DM_ADJ
 70
     0
  0
APPID
  5
1A3
330
9
100
AcDbSymbolTableRecord
100
AcDbRegAppTableRecord
  2
ACAD_DSTYLE_DIMARC_LENGTH_SYMBOL
 70
     0
  0
APPID
  5
1A4
330
9
100
AcDbSymbolTableRecord
100
AcDbRegAppTableRecord
  2
ACAD_DSTYLE_DIMJOGGED_JOGANGLE_SYMBOL
 70
     0
  0
APPID
  5
2D5
330
9
100
AcDbSymbolTableRecord
100
AcDbRegAppTableRecord
  2
ACAD_EXEMPT_FROM_CAD_STANDARDS
 70
     0
  0
APPID
  5
307
330
9
100
AcDbSymbolTableRecord
100
AcDbRegAppTableRecord
  2
AcAecLayerStandard
 70
     0
  0
APPID
  5
309
330
9
100
AcDbSymbolTableRecord
100
AcDbRegAppTableRecord
  2
GENIUS_GENODEF_13
 70
     0
  0
APPID
  5
30A
330
9
100
AcDbSymbolTableRecord
100
AcDbRegAppTableRecord
  2
GENIUS_GENOBJ-N-CEN_13
 70
     0
  0
APPID
  5
30B
330
9
100
AcDbSymbolTableRecord
100
AcDbRegAppTableRecord
  2
GENIUS_GENCEN_19
 70
     0
  0
APPID
  5
3A1
330
9
100
AcDbSymbolTableRecord
100
AcDbRegAppTableRecord
  2
GENIUS_GENFIL_13
 70
     0
  0
APPID
  5
3A2
330
9
100
AcDbSymbolTableRecord
100
AcDbRegAppTableRecord
  2
GENIUS_GENOBJ-N-CHA_13
 70
     0
  0
APPID
  5
4CC
330
9
100
AcDbSymbolTableRecord
100
AcDbRegAppTableRecord
  2
GENIUS_GENOENT_13
 70
     0
  0
APPID
  5
4CD
330
9
100
AcDbSymbolTableRecord
100
AcDbRegAppTableRecord
  2
GENIUS_GENOBJ-N-CRS_13
 70
     0
  0
APPID
  5
4CE
330
9
100
AcDbSymbolTableRecord
100
AcDbRegAppTableRecord
  2
GENIUS_GENOLIS_13
 70
     0
  0
APPID
  5
4CF
330
9
100
AcDbSymbolTableRecord
100
AcDbRegAppTableRecord
  2
GENIUS_GENOREF_13
 70
     0
  0
APPID
  5
5D0
330
9
100
AcDbSymbolTableRecord
100
AcDbRegAppTableRecord
  2
GENIUS_GENOBJ-N-FIL_13
 70
     0
  0
APPID
  5
619
330
9
100
AcDbSymbolTableRecord
100
AcDbRegAppTableRecord
  2
GENIUS_GENOBJ-N-HTC_13
 70
     0
  0
APPID
  5
61A
330
9
100
AcDbSymbolTableRecord
100
AcDbRegAppTableRecord
  2
GENIUS_GENHATCH_13
 70
     0
  0
APPID
  5
6E8
330
9
100
AcDbSymbolTableRecord
100
AcDbRegAppTableRecord
  2
GENIUS_GENBLLY_14
 70
     0
  0
APPID
  5
6E9
330
9
100
AcDbSymbolTableRecord
100
AcDbRegAppTableRecord
  2
GENIUS_GENCFG_13
 70
     0
  0
APPID
  5
6EA
330
9
100
AcDbSymbolTableRecord
100
AcDbRegAppTableRecord
  2
GENIUS_GENCFG0_13
 70
     0
  0
APPID
  5
6EB
330
9
100
AcDbSymbolTableRecord
100
AcDbRegAppTableRecord
  2
GENIUS_GENCFG1_13
 70
     0
  0
APPID
  5
6EC
330
9
100
AcDbSymbolTableRecord
100
AcDbRegAppTableRecord
  2
GENIUS_GENCFG2_13
 70
     0
  0
APPID
  5
6ED
330
9
100
AcDbSymbolTableRecord
100
AcDbRegAppTableRecord
  2
GENIUS_GENCFG3_13
 70
     0
  0
APPID
  5
6EE
330
9
100
AcDbSymbolTableRecord
100
AcDbRegAppTableRecord
  2
GENIUS_GENCFG4_13
 70
     0
  0
APPID
  5
6EF
330
9
100
AcDbSymbolTableRecord
100
AcDbRegAppTableRecord
  2
GENIUS_VERSION2
 70
     0
  0
APPID
  5
6F0
330
9
100
AcDbSymbolTableRecord
100
AcDbRegAppTableRecord
  2
GENIUS_GENCFG5_13
 70
     0
  0
APPID
  5
6F1
330
9
100
AcDbSymbolTableRecord
100
AcDbRegAppTableRecord
  2
GENIUS_GEVCFG0_13
 70
     0
  0
APPID
  5
6F2
330
9
100
AcDbSymbolTableRecord
100
AcDbRegAppTableRecord
  2
GENIUS_GENREC_14
 70
     0
  0
APPID
  5
6F3
330
9
100
AcDbSymbolTableRecord
100
AcDbRegAppTableRecord
  2
GENIUS_GENOBJ-N-REC_13
 70
     0
  0
APPID
  5
BC8
330
9
100
AcDbSymbolTableRecord
100
AcDbRegAppTableRecord
  2
ACAD_PSEXT
 70
     0
  0
APPID
  5
BF9
330
9
100
AcDbSymbolTableRecord
100
AcDbRegAppTableRecord
  2
ACME_LAYERS
 70
     0
  0
APPID
  5
10EC
330
9
100
AcDbSymbolTableRecord
100
AcDbRegAppTableRecord
  2
AMG_2DHIDE
 70
     0
  0
APPID
  5
10ED
330
9
100
AcDbSymbolTableRecord
100
AcDbRegAppTableRecord
  2
AMG_2DSTRUCT_BTR
 70
     0
  0
APPID
  5
1413
330
9
100
AcDbSymbolTableRecord
100
AcDbRegAppTableRecord
  2
GENIUS_GENDTOL_13
 70
     0
  0
APPID
  5
1A6F
330
9
100
AcDbSymbolTableRecord
100
AcDbRegAppTableRecord
  2
GENIUS_GEFWELD_13
 70
     0
  0
APPID
  5
1A70
330
9
100
AcDbSymbolTableRecord
100
AcDbRegAppTableRecord
  2
GENIUS_GENOBJ-F-WELS_13
 70
     0
  0
APPID
  5
1C78
330
9
100
AcDbSymbolTableRecord
100
AcDbRegAppTableRecord
  2
DCO15
 70
     0
  0
APPID
  5
2C01
330
9
100
AcDbSymbolTableRecord
100
AcDbRegAppTableRecord
  2
GENIUS_GENDIMSH_14
 70
     0
  0
APPID
  5
3182
330
9
100
AcDbSymbolTableRecord
100
AcDbRegAppTableRecord
  2
ACAD_MLEADERVER
 70
     0
  0
APPID
  5
36F3
330
9
100
AcDbSymbolTableRecord
100
AcDbRegAppTableRecord
  2
ACAD_DSTYLE_DIMINSPECT
 70
     0
  0
ENDTAB
  0
TABLE
  2
DIMSTYLE
  5
A
330
0
100
AcDbSymbolTable
 70
    30
100
AcDbDimStyleTable
 71
     1
340
81
  0
DIMSTYLE
105
81
102
{ACAD_REACTORS
330
B42
102
}
330
A
100
AcDbSymbolTableRecord
100
AcDbDimStyleTableRecord
  2
AM_ISO
 70
     0
  4
"
 41
2.5
 42
1.0
 43
10.0
 44
1.0
 47
0.1
 48
0.1
 73
     0
 74
     0
 77
     1
 78
     8
 79
     2
140
3.5
141
0.0
143
0.0393701
146
0.71
147
1.5
172
     1
176
   256
177
   256
178
     2
271
     2
272
     3
274
     4
283
     0
284
     8
340
11
371
    -1
372
    -1
1001
ACAD_DSTYLE_DIMJOGGED_JOGANGLE_SYMBOL
1070
   384
1040
0.7853981633974483
1001
ACAD_DSTYLE_DIMARC_LENGTH_SYMBOL
1070
   379
1070
     1
  0
DIMSTYLE
105
82
330
A
100
AcDbSymbolTableRecord
100
AcDbDimStyleTableRecord
  2
AM_ISO$3
 70
     0
  4
"
 41
2.5
 42
1.0
 43
10.0
 44
1.0
 47
0.1
 48
0.1
 73
     0
 77
     1
 78
     8
 79
     2
140
3.5
141
0.0
143
0.0393701
146
0.71
147
1.5
176
   256
177
   256
178
     2
271
     2
272
     3
274
     4
283
     0
284
     8
288
     1
289
     0
340
11
371
    -1
372
    -1
1001
ACAD_DSTYLE_DIMJOGGED_JOGANGLE_SYMBOL
1070
   384
1040
0.7853981633974483
1001
ACAD_DSTYLE_DIMARC_LENGTH_SYMBOL
1070
   379
1070
     1
  0
DIMSTYLE
105
83
330
A
100
AcDbSymbolTableRecord
100
AcDbDimStyleTableRecord
  2
AM_ISO$4
 70
     0
  4
"
 41
2.5
 42
1.0
 43
10.0
 44
1.0
 47
0.1
 48
0.1
 73
     0
 77
     1
 78
     8
 79
     2
140
3.5
141
0.0
143
0.0393701
146
0.71
147
1.5
176
   256
177
   256
178
     2
271
     2
272
     3
274
     4
283
     0
284
     8
288
     1
289
     0
340
11
371
    -1
372
    -1
1001
ACAD_DSTYLE_DIMJOGGED_JOGANGLE_SYMBOL
1070
   384
1040
0.7853981633974483
1001
ACAD_DSTYLE_DIMARC_LENGTH_SYMBOL
1070
   379
1070
     1
  0
DIMSTYLE
105
84
330
A
100
AcDbSymbolTableRecord
100
AcDbDimStyleTableRecord
  2
AM_ISO$6
 70
     0
  4
"
 41
2.5
 42
1.0
 43
10.0
 44
1.0
 47
0.1
 48
0.1
 73
     0
 74
     0
 78
     8
 79
     2
140
3.5
141
0.0
143
0.0393701
146
0.71
147
1.5
172
     1
176
   256
177
   256
178
     2
271
     2
272
     3
274
     4
283
     0
284
     8
340
11
371
    -1
372
    -1
1001
ACAD_DSTYLE_DIMJOGGED_JOGANGLE_SYMBOL
1070
   384
1040
0.7853981633974483
1001
ACAD_DSTYLE_DIMARC_LENGTH_SYMBOL
1070
   379
1070
     1
  0
DIMSTYLE
105
85
330
A
100
AcDbSymbolTableRecord
100
AcDbDimStyleTableRecord
  2
AM_ISO$7
 70
     0
  4
"
 41
2.5
 42
1.0
 43
10.0
 44
1.0
 47
0.1
 48
0.1
 73
     0
 74
     0
 77
     1
 78
     8
 79
     2
140
5.0
141
0.0
143
0.0393701
146
0.71
147
1.5
172
     1
176
   256
177
   256
178
     2
271
     2
272
     3
274
     4
283
     0
284
     8
340
11
371
    -1
372
    -1
1001
ACAD_DSTYLE_DIMJOGGED_JOGANGLE_SYMBOL
1070
   384
1040
0.7853981633974483
1001
ACAD_DSTYLE_DIMARC_LENGTH_SYMBOL
1070
   379
1070
     1
  0
DIMSTYLE
105
86
330
A
100
AcDbSymbolTableRecord
100
AcDbDimStyleTableRecord
  2
AM_ISO$SF
 70
     0
  4
"
 41
2.5
 42
1.0
 43
10.0
 44
1.0
 47
0.1
 48
0.1
 73
     0
 74
     0
 75
     1
 76
     1
 77
     1
 78
     8
 79
     2
140
3.5
141
0.0
143
0.0393701
146
0.71
147
1.5
172
     1
176
   256
177
   256
178
     2
271
     2
272
     3
274
     4
283
     0
284
     8
340
11
371
    -1
372
    -1
1001
ACAD_DSTYLE_DIMJOGGED_JOGANGLE_SYMBOL
1070
   384
1040
0.7853981633974483
1001
ACAD_DSTYLE_DIMARC_LENGTH_SYMBOL
1070
   379
1070
     1
  0
DIMSTYLE
105
8B
330
A
100
AcDbSymbolTableRecord
100
AcDbDimStyleTableRecord
  2
AM_ISO$SH
 70
     0
  4
"
 41
2.5
 42
1.0
 43
10.0
 44
1.0
 47
0.1
 48
0.1
 73
     0
 74
     0
 75
     1
 76
     1
 77
     1
 78
     8
 79
     2
140
3.5
141
0.0
143
0.0393701
144
2.0
146
0.71
147
1.5
172
     1
173
     1
176
   256
177
   256
178
     2
271
     2
272
     3
274
     4
283
     0
284
     8
340
11
343
87
371
    -1
372
    -1
1001
ACAD_DSTYLE_DIMJOGGED_JOGANGLE_SYMBOL
1070
   384
1040
0.7853981633974483
1001
ACAD_DSTYLE_DIMARC_LENGTH_SYMBOL
1070
   379
1070
     1
  0
DIMSTYLE
105
3EF
102
{ACAD_REACTORS
330
B2F
330
B45
330
B4B
330
B50
330
104E
330
1371
330
2BE9
330
2E3D
330
3119
330
36DB
102
}
330
A
100
AcDbSymbolTableRecord
100
AcDbDimStyleTableRecord
  2
AM_ISO$0
 70
     0
  4
"
 41
2.5
 42
1.0
 43
10.0
 44
1.0
 47
0.1
 48
0.1
 73
     0
 74
     0
 77
     1
 78
     8
 79
     2
140
3.5
141
0.0
143
0.0393701
146
0.71
147
1.5
172
     1
176
   256
177
   256
178
     2
271
     2
272
     3
274
     4
283
     0
284
     8
340
11
371
    -1
372
    -1
1001
ACAD_DSTYLE_DIMJOGGED_JOGANGLE_SYMBOL
1070
   384
1040
0.7853981633974483
1001
ACAD_DSTYLE_DIMARC_LENGTH_SYMBOL
1070
   379
1070
     1
  0
DIMSTYLE
105
6E7
330
A
100
AcDbSymbolTableRecord
100
AcDbDimStyleTableRecord
  2
STANDARD
 70
     0
340
11
  0
DIMSTYLE
105
7AA
330
A
100
AcDbSymbolTableRecord
100
AcDbDimStyleTableRecord
  2
AM_ANSI
 70
     0
  4
mm
 41
0.1
 42
0.05
 43
0.5
 44
0.1
 47
0.1
 48
0.1
 78
     7
 79
     2
140
0.12
141
0.0
146
0.71
147
0.06
176
   256
177
   256
178
     2
274
     4
284
     7
340
11
371
    -1
372
    -1
1001
ACAD_DSTYLE_DIMJOGGED_JOGANGLE_SYMBOL
1070
   384
1040
0.7853981633974483
1001
ACAD_DSTYLE_DIMARC_LENGTH_SYMBOL
1070
   379
1070
     1
  0
DIMSTYLE
105
7AB
330
A
100
AcDbSymbolTableRecord
100
AcDbDimStyleTableRecord
  2
AM_ANSI$3
 70
     0
  4
mm
 41
0.1
 42
0.05
 43
0.5
 44
0.1
 47
0.1
 48
0.1
 78
     7
 79
     2
140
0.12
141
0.0
146
0.71
147
0.06
176
   256
177
   256
178
     2
274
     4
284
     7
288
     1
289
     0
340
11
371
    -1
372
    -1
1001
ACAD_DSTYLE_DIMJOGGED_JOGANGLE_SYMBOL
1070
   384
1040
0.7853981633974483
1001
ACAD_DSTYLE_DIMARC_LENGTH_SYMBOL
1070
   379
1070
     1
  0
DIMSTYLE
105
7AC
330
A
100
AcDbSymbolTableRecord
100
AcDbDimStyleTableRecord
  2
AM_ANSI$4
 70
     0
  4
mm
 41
0.1
 42
0.05
 43
0.5
 44
0.1
 47
0.1
 48
0.1
 78
     7
 79
     2
140
0.12
141
0.0
146
0.71
147
0.06
176
   256
177
   256
178
     2
274
     4
284
     7
288
     1
289
     0
340
11
371
    -1
372
    -1
1001
ACAD_DSTYLE_DIMJOGGED_JOGANGLE_SYMBOL
1070
   384
1040
0.7853981633974483
1001
ACAD_DSTYLE_DIMARC_LENGTH_SYMBOL
1070
   379
1070
     1
  0
DIMSTYLE
105
7AD
330
A
100
AcDbSymbolTableRecord
100
AcDbDimStyleTableRecord
  2
AM_ANSI$7
 70
     0
  4
mm
 41
0.1
 42
0.05
 43
0.5
 44
0.1
 47
0.1
 48
0.1
 78
     7
 79
     2
140
0.24
141
0.0
146
0.71
147
0.06
176
   256
177
   256
178
     2
274
     4
284
     7
340
11
371
    -1
372
    -1
1001
ACAD_DSTYLE_DIMJOGGED_JOGANGLE_SYMBOL
1070
   384
1040
0.7853981633974483
1001
ACAD_DSTYLE_DIMARC_LENGTH_SYMBOL
1070
   379
1070
     1
  0
DIMSTYLE
105
7AE
330
A
100
AcDbSymbolTableRecord
100
AcDbDimStyleTableRecord
  2
AM_ANSI$SF
 70
     0
  4
mm
 41
0.1
 42
0.05
 43
0.5
 44
0.1
 47
0.1
 48
0.1
 75
     1
 76
     1
 78
     7
 79
     2
140
0.12
141
0.0
146
0.71
147
0.06
176
   256
177
   256
178
     2
274
     4
284
     7
340
11
371
    -1
372
    -1
1001
ACAD_DSTYLE_DIMJOGGED_JOGANGLE_SYMBOL
1070
   384
1040
0.7853981633974483
1001
ACAD_DSTYLE_DIMARC_LENGTH_SYMBOL
1070
   379
1070
     1
  0
DIMSTYLE
105
7AF
330
A
100
AcDbSymbolTableRecord
100
AcDbDimStyleTableRecord
  2
AM_ANSI$SH
 70
     0
  4
mm
 41
0.1
 42
0.05
 43
0.5
 44
0.1
 47
0.1
 48
0.1
 75
     1
 76
     1
 78
     7
 79
     2
140
0.12
141
0.0
146
0.71
147
0.06
173
     1
176
   256
177
   256
178
     2
274
     4
284
     7
340
11
343
87
371
    -1
372
    -1
1001
ACAD_DSTYLE_DIMJOGGED_JOGANGLE_SYMBOL
1070
   384
1040
0.7853981633974483
1001
ACAD_DSTYLE_DIMARC_LENGTH_SYMBOL
1070
   379
1070
     1
  0
DIMSTYLE
105
139F
102
{ACAD_REACTORS
330
B42
330
1967
102
}
330
A
100
AcDbSymbolTableRecord
100
AcDbDimStyleTableRecord
  2
AM_ISO$2
 70
     0
  4
"
 41
2.5
 42
1.0
 43
10.0
 44
1.0
 47
0.1
 48
0.1
 73
     0
 74
     0
 77
     1
 78
     8
 79
     2
140
3.5
141
0.0
143
0.0393701
146
0.71
147
1.5
172
     1
176
   256
177
   256
178
     2
271
     2
272
     3
274
     4
283
     0
284
     8
340
11
371
    -1
372
    -1
1001
ACAD_DSTYLE_DIMJOGGED_JOGANGLE_SYMBOL
1070
   384
1040
0.7853981633974483
1001
ACAD_DSTYLE_DIMARC_LENGTH_SYMBOL
1070
   379
1070
     1
  0
ENDTAB
  0
TABLE
  2
BLOCK_RECORD
  5
1
330
0
100
AcDbSymbolTable
 70
    51
  0
BLOCK_RECORD
  5
1F
102
{ACAD_XDICTIONARY
360
8F
102
}
330
1
100
AcDbSymbolTableRecord
100
AcDbBlockTableRecord
  2
*Model_Space
340
22
  0
BLOCK_RECORD
  5
1B
330
1
100
AcDbSymbolTableRecord
100
AcDbBlockTableRecord
  2
*Paper_Space
340
1E
  0
BLOCK_RECORD
  5
23
330
1
100
AcDbSymbolTableRecord
100
AcDbBlockTableRecord
  2
*Paper_Space0
340
26
  0
BLOCK_RECORD
  5
87
330
1
100
AcDbSymbolTableRecord
100
AcDbBlockTableRecord
  2
GENAXEH
340
0
  0
BLOCK_RECORD
  5
B7B
330
1
100
AcDbSymbolTableRecord
100
AcDbBlockTableRecord
  2
*D5
340
0
  0
BLOCK_RECORD
  5
B87
330
1
100
AcDbSymbolTableRecord
100
AcDbBlockTableRecord
  2
*D6
340
0
  0
BLOCK_RECORD
  5
B96
330
1
100
AcDbSymbolTableRecord
100
AcDbBlockTableRecord
  2
*D7
340
0
  0
BLOCK_RECORD
  5
BAE
330
1
100
AcDbSymbolTableRecord
100
AcDbBlockTableRecord
  2
*D9
340
0
  0
BLOCK_RECORD
  5
BBA
330
1
100
AcDbSymbolTableRecord
100
AcDbBlockTableRecord
  2
*D10
340
0
  0
BLOCK_RECORD
  5
104F
330
1
100
AcDbSymbolTableRecord
100
AcDbBlockTableRecord
  2
*D11
340
0
  0
BLOCK_RECORD
  5
1372
330
1
100
AcDbSymbolTableRecord
100
AcDbBlockTableRecord
  2
*D17
340
0
  0
BLOCK_RECORD
  5
1968
330
1
100
AcDbSymbolTableRecord
100
AcDbBlockTableRecord
  2
*D21
340
0
  0
BLOCK_RECORD
  5
1B3A
330
1
100
AcDbSymbolTableRecord
100
AcDbBlockTableRecord
  2
*U22
340
0
102
{BLKREFS
331
1B5F
102
}
  0
BLOCK_RECORD
  5
1B7B
330
1
100
AcDbSymbolTableRecord
100
AcDbBlockTableRecord
  2
*U23
340
0
102
{BLKREFS
331
1B84
102
}
  0
BLOCK_RECORD
  5
2BEA
330
1
100
AcDbSymbolTableRecord
100
AcDbBlockTableRecord
  2
*D25
340
0
  0
BLOCK_RECORD
  5
2E3E
330
1
100
AcDbSymbolTableRecord
100
AcDbBlockTableRecord
  2
*D32
340
0
  0
BLOCK_RECORD
  5
311A
330
1
100
AcDbSymbolTableRecord
100
AcDbBlockTableRecord
  2
*D33
340
0
  0
BLOCK_RECORD
  5
36DC
330
1
100
AcDbSymbolTableRecord
100
AcDbBlockTableRecord
  2
*D35
340
0
  0
BLOCK_RECORD
  5
3775
330
1
100
AcDbSymbolTableRecord
100
AcDbBlockTableRecord
  2
*U36
340
0
  0
BLOCK_RECORD
  5
377E
330
1
100
AcDbSymbolTableRecord
100
AcDbBlockTableRecord
  2
*U37
340
0
  0
BLOCK_RECORD
  5
3793
330
1
100
AcDbSymbolTableRecord
100
AcDbBlockTableRecord
  2
*U38
340
0
  0
BLOCK_RECORD
  5
37A2
330
1
100
AcDbSymbolTableRecord
100
AcDbBlockTableRecord
  2
*U39
340
0
  0
BLOCK_RECORD
  5
37B1
330
1
100
AcDbSymbolTableRecord
100
AcDbBlockTableRecord
  2
*U40
340
0
  0
BLOCK_RECORD
  5
37C0
330
1
100
AcDbSymbolTableRecord
100
AcDbBlockTableRecord
  2
*U41
340
0
  0
BLOCK_RECORD
  5
37CF
330
1
100
AcDbSymbolTableRecord
100
AcDbBlockTableRecord
  2
*U42
340
0
  0
BLOCK_RECORD
  5
37DE
330
1
100
AcDbSymbolTableRecord
100
AcDbBlockTableRecord
  2
*U43
340
0
  0
BLOCK_RECORD
  5
37ED
330
1
100
AcDbSymbolTableRecord
100
AcDbBlockTableRecord
  2
*U44
340
0
  0
BLOCK_RECORD
  5
37FC
330
1
100
AcDbSymbolTableRecord
100
AcDbBlockTableRecord
  2
*U45
340
0
  0
BLOCK_RECORD
  5
380B
330
1
100
AcDbSymbolTableRecord
100
AcDbBlockTableRecord
  2
*U46
340
0
  0
BLOCK_RECORD
  5
3820
330
1
100
AcDbSymbolTableRecord
100
AcDbBlockTableRecord
  2
*U47
340
0
  0
BLOCK_RECORD
  5
3835
330
1
100
AcDbSymbolTableRecord
100
AcDbBlockTableRecord
  2
*U48
340
0
  0
BLOCK_RECORD
  5
384A
330
1
100
AcDbSymbolTableRecord
100
AcDbBlockTableRecord
  2
*U49
340
0
  0
BLOCK_RECORD
  5
385F
330
1
100
AcDbSymbolTableRecord
100
AcDbBlockTableRecord
  2
*U50
340
0
  0
ENDTAB
  0
ENDSEC
  0
SECTION
  2
BLOCKS
  0
BLOCK
  5
20
330
1F
100
AcDbEntity
  8
0
100
AcDbBlockBegin
  2
*Model_Space
 70
     0
 10
0.0
 20
0.0
 30
0.0
  3
*Model_Space
  1

  0
ENDBLK
  5
21
330
1F
100
AcDbEntity
  8
0
100
AcDbBlockEnd
  0
BLOCK
  5
1C
330
1B
100
AcDbEntity
 67
     1
  8
0
100
AcDbBlockBegin
  2
*Paper_Space
 70
     0
 10
0.0
 20
0.0
 30
0.0
  3
*Paper_Space
  1

  0
ENDBLK
  5
1D
330
1B
100
AcDbEntity
 67
     1
  8
0
100
AcDbBlockEnd
  0
BLOCK
  5
24
330
23
100
AcDbEntity
 67
     1
  8
0
100
AcDbBlockBegin
  2
*Paper_Space0
 70
     0
 10
0.0
 20
0.0
 30
0.0
  3
*Paper_Space0
  1

  0
ENDBLK
  5
25
330
23
100
AcDbEntity
 67
     1
  8
0
100
AcDbBlockEnd
  0
BLOCK
  5
89
330
87
100
AcDbEntity
  8
0
100
AcDbBlockBegin
  2
GENAXEH
 70
     0
 10
0.0
 20
0.0
 30
0.0
  3
GENAXEH
  1

  0
LINE
  5
88
330
87
100
AcDbEntity
  8
0
100
AcDbLine
 10
-1.0
 20
0.0
 30
0.0
 11
1.0
 21
0.0
 31
0.0
  0
ENDBLK
  5
8A
330
87
100
AcDbEntity
  8
0
100
AcDbBlockEnd
  0
BLOCK
  5
B85
330
B7B
100
AcDbEntity
  8
0
100
AcDbBlockBegin
  2
*D5
 70
     1
 10
0.0
 20
0.0
 30
0.0
  3
*D5
  1

  0
LINE
  5
32F8
330
B7B
100
AcDbEntity
  8
AM_5
100
AcDbLine
 10
441.912426843534
 20
699.3460317554752
 30
0.0
 11
390.9762126074619
 21
750.2822459915473
 31
0.0
  0
LINE
  5
32F9
330
B7B
100
AcDbEntity
  8
AM_5
100
AcDbLine
 10
516.1586388681211
 20
773.5922437800622
 30
0.0
 11
465.2224246320489
 21
824.5284580161344
 31
0.0
  0
LINE
  5
32FA
330
B7B
100
AcDbEntity
  8
AM_5
100
AcDbLine
 10
393.4510863416148
 20
751.3429061633271
 30
0.0
 11
464.1617644602692
 21
822.0535842819815
 31
0.0
  0
SOLID
  5
32FB
330
B7B
100
AcDbEntity
  8
AM_5
100
AcDbTrace
 10
393.1564585161205
 20
751.6375339888214
 30
0.0
 11
393.7457141671092
 21
751.0482783378327
 31
0.0
 12
391.6833193886485
 22
749.5751392103606
 32
0.0
 13
391.6833193886485
 23
749.5751392103606
 33
0.0
  0
SOLID
  5
32FC
330
B7B
100
AcDbEntity
  8
AM_5
100
AcDbTrace
 10
463.8671366347749
 20
822.3482121074759
 30
0.0
 11
464.4563922857636
 21
821.7589564564871
 31
0.0
 12
465.9295314132354
 22
823.8213512349478
 32
0.0
 13
465.9295314132354
 23
823.8213512349478
 33
0.0
  0
MTEXT
  5
32FD
330
B7B
100
AcDbEntity
  8
AM_5
 62
     2
100
AcDbMText
 10
424.0334546279329
 20
791.4712159956634
 30
0.0
 40
10.5
 41
0.0
 71
     5
 72
     1
  1
105
 11
0.7071067811865476
 21
0.7071067811865475
 31
0.0
 73
     1
 44
1.0
  0
POINT
  5
32FE
330
B7B
100
AcDbEntity
  8
Defpoints
 62
     0
100
AcDbPoint
 10
442.6195336247205
 20
698.6389249742886
 30
0.0
  0
POINT
  5
32FF
330
B7B
100
AcDbEntity
  8
Defpoints
 62
     0
100
AcDbPoint
 10
516.8657456493076
 20
772.8851369988757
 30
0.0
  0
POINT
  5
3300
330
B7B
100
AcDbEntity
  8
Defpoints
 62
     0
100
AcDbPoint
 10
465.9295314132354
 20
823.8213512349478
 30
0.0
  0
ENDBLK
  5
B86
330
B7B
100
AcDbEntity
  8
0
100
AcDbBlockEnd
  0
BLOCK
  5
B94
330
B87
100
AcDbEntity
  8
0
100
AcDbBlockBegin
  2
*D6
 70
     1
 10
0.0
 20
0.0
 30
0.0
  3
*D6
  1

  0
LINE
  5
3301
330
B87
100
AcDbEntity
  8
AM_5
100
AcDbLine
 10
445.2763878742124
 20
694.6389249742887
 30
0.0
 11
515.273321230726
 21
694.6389249742887
 31
0.0
  0
ARC
  5
3302
330
B87
100
AcDbEntity
  8
AM_5
100
AcDbCircle
 10
444.2763878742125
 20
694.6389249742887
 30
0.0
 40
69.99693335651349
100
AcDbArc
 50
2.046476271377593
 51
42.95352372862216
  0
SOLID
  5
3303
330
B87
100
AcDbEntity
  8
AM_5
100
AcDbTrace
 10
514.6452766404546
 20
697.1459671128027
 30
0.0
 11
513.8120761950053
 21
697.1310855084707
 31
0.0
 12
514.2733212307259
 22
694.6389249742887
 32
0.0
 13
514.2733212307259
 23
694.6389249742887
 33
0.0
  0
SOLID
  5
3304
330
B87
100
AcDbEntity
  8
AM_5
100
AcDbTrace
 10
495.2077682338449
 20
742.0458581068698
 30
0.0
 11
495.8074528022479
 21
742.6244969085965
 31
0.0
 12
493.7716941128662
 22
744.134231212942
 32
0.0
 13
493.7716941128662
 23
744.134231212942
 33
0.0
  0
MTEXT
  5
3305
330
B87
100
AcDbEntity
  8
AM_5
 62
     2
100
AcDbMText
 10
515.1813087853033
 20
724.008704854654
 30
0.0
 40
10.5
 41
0.0
 71
     5
 72
     1
  1
45\U+00B0
 11
0.3826834323650885
 21
-0.9238795325112873
 31
0.0
 73
     1
 44
1.0
  0
POINT
  5
3306
330
B87
100
AcDbEntity
  8
Defpoints
 62
     0
100
AcDbPoint
 10
511.8882335643037
 20
712.7554644257262
 30
0.0
  0
POINT
  5
3307
330
B87
100
AcDbEntity
  8
Defpoints
 62
     0
100
AcDbPoint
 10
100.6195336247205
 20
694.6389249742886
 30
0.0
  0
POINT
  5
3308
330
B87
100
AcDbEntity
  8
Defpoints
 62
     0
100
AcDbPoint
 10
447.2053200623471
 20
697.5678571624232
 30
0.0
  0
POINT
  5
3309
330
B87
100
AcDbEntity
  8
Defpoints
 62
     0
100
AcDbPoint
 10
519.6941727740541
 20
770.0567098741296
 30
0.0
  0
POINT
  5
330A
330
B87
100
AcDbEntity
  8
Defpoints
 62
     0
100
AcDbPoint
 10
440.1342522504816
 20
694.6389249742887
 30
0.0
  0
ENDBLK
  5
B95
330
B87
100
AcDbEntity
  8
0
100
AcDbBlockEnd
  0
BLOCK
  5
BA0
330
B96
100
AcDbEntity
  8
0
100
AcDbBlockBegin
  2
*D7
 70
     1
 10
0.0
 20
0.0
 30
0.0
  3
*D7
  1

  0
LINE
  5
330B
330
B96
100
AcDbEntity
  8
AM_5
100
AcDbLine
 10
265.6195336247206
 20
464.8778269433592
 30
0.0
 11
64.95100316553983
 21
464.8778269433593
 31
0.0
  0
LINE
  5
330C
330
B96
100
AcDbEntity
  8
AM_5
100
AcDbLine
 10
265.6195336247206
 20
132.8778269433593
 30
0.0
 11
64.95100316553976
 21
132.8778269433593
 31
0.0
  0
LINE
  5
330D
330
B96
100
AcDbEntity
  8
AM_5
100
AcDbLine
 10
65.95100316553983
 20
462.3778269433593
 30
0.0
 11
65.95100316553976
 21
135.3778269433593
 31
0.0
  0
SOLID
  5
330E
330
B96
100
AcDbEntity
  8
AM_5
100
AcDbTrace
 10
65.53433649887316
 20
462.3778269433593
 30
0.0
 11
66.3676698322065
 21
462.3778269433593
 31
0.0
 12
65.95100316553983
 22
464.8778269433593
 32
0.0
 13
65.95100316553983
 23
464.8778269433593
 33
0.0
  0
SOLID
  5
330F
330
B96
100
AcDbEntity
  8
AM_5
100
AcDbTrace
 10
65.53433649887309
 20
135.3778269433593
 30
0.0
 11
66.36766983220643
 21
135.3778269433593
 31
0.0
 12
65.95100316553976
 22
132.8778269433593
 32
0.0
 13
65.95100316553976
 23
132.8778269433593
 33
0.0
  0
MTEXT
  5
3310
330
B96
100
AcDbEntity
  8
AM_5
 62
     2
100
AcDbMText
 10
59.19996970097282
 20
298.8778269433593
 30
0.0
 40
10.5
 41
0.0
 71
     5
 72
     1
  1
332
 11
0.0000000000000001
 21
1.0
 31
0.0
 73
     1
 44
1.0
  0
POINT
  5
3311
330
B96
100
AcDbEntity
  8
Defpoints
 62
     0
100
AcDbPoint
 10
266.6195336247206
 20
464.8778269433592
 30
0.0
  0
POINT
  5
3312
330
B96
100
AcDbEntity
  8
Defpoints
 62
     0
100
AcDbPoint
 10
266.6195336247206
 20
132.8778269433593
 30
0.0
  0
POINT
  5
3313
330
B96
100
AcDbEntity
  8
Defpoints
 62
     0
100
AcDbPoint
 10
65.95100316553976
 20
132.8778269433593
 30
0.0
  0
ENDBLK
  5
BA1
330
B96
100
AcDbEntity
  8
0
100
AcDbBlockEnd
  0
BLOCK
  5
BB8
330
BAE
100
AcDbEntity
  8
0
100
AcDbBlockBegin
  2
*D9
 70
     1
 10
0.0
 20
0.0
 30
0.0
  3
*D9
  1

  0
LINE
  5
331D
330
BAE
100
AcDbEntity
  8
AM_5
100
AcDbLine
 10
442.6195336247205
 20
131.8778269433594
 30
0.0
 11
442.6195336247205
 21
109.9766954824779
 31
0.0
  0
LINE
  5
331E
330
BAE
100
AcDbEntity
  8
AM_5
100
AcDbLine
 10
266.6195336247206
 20
128.8778269433593
 30
0.0
 11
266.6195336247206
 21
109.9766954824779
 31
0.0
  0
LINE
  5
331F
330
BAE
100
AcDbEntity
  8
AM_5
100
AcDbLine
 10
440.1195336247205
 20
110.9766954824779
 30
0.0
 11
269.1195336247206
 21
110.9766954824779
 31
0.0
  0
SOLID
  5
3320
330
BAE
100
AcDbEntity
  8
AM_5
100
AcDbTrace
 10
440.1195336247205
 20
111.3933621491446
 30
0.0
 11
440.1195336247205
 21
110.5600288158112
 31
0.0
 12
442.6195336247205
 22
110.9766954824779
 32
0.0
 13
442.6195336247205
 23
110.9766954824779
 33
0.0
  0
SOLID
  5
3321
330
BAE
100
AcDbEntity
  8
AM_5
100
AcDbTrace
 10
269.1195336247206
 20
111.3933621491446
 30
0.0
 11
269.1195336247206
 21
110.5600288158112
 31
0.0
 12
266.6195336247206
 22
110.9766954824779
 32
0.0
 13
266.6195336247206
 23
110.9766954824779
 33
0.0
  0
MTEXT
  5
3322
330
BAE
100
AcDbEntity
  8
AM_5
 62
     2
100
AcDbMText
 10
354.6195336247206
 20
117.7266954824779
 30
0.0
 40
10.5
 41
0.0
 71
     5
 72
     1
  1
176
 73
     1
 44
1.0
  0
POINT
  5
3323
330
BAE
100
AcDbEntity
  8
Defpoints
 62
     0
100
AcDbPoint
 10
442.6195336247205
 20
132.8778269433594
 30
0.0
  0
POINT
  5
3324
330
BAE
100
AcDbEntity
  8
Defpoints
 62
     0
100
AcDbPoint
 10
266.6195336247206
 20
129.8778269433593
 30
0.0
  0
POINT
  5
3325
330
BAE
100
AcDbEntity
  8
Defpoints
 62
     0
100
AcDbPoint
 10
266.6195336247206
 20
110.9766954824779
 30
0.0
  0
ENDBLK
  5
BB9
330
BAE
100
AcDbEntity
  8
0
100
AcDbBlockEnd
  0
BLOCK
  5
BC6
330
BBA
100
AcDbEntity
  8
0
100
AcDbBlockBegin
  2
*D10
 70
     1
 10
0.0
 20
0.0
 30
0.0
  3
*D10
  1

  0
LINE
  5
376A
330
BBA
100
AcDbEntity
  8
AM_5
100
AcDbLine
 10
99.61953362472058
 20
698.6389249742886
 30
0.0
 11
73.93413854280436
 21
698.6389249742886
 31
0.0
  0
LINE
  5
376B
330
BBA
100
AcDbEntity
  8
AM_5
100
AcDbLine
 10
99.61953362472058
 20
694.6389249742886
 30
0.0
 11
73.93413854280436
 21
694.6389249742886
 31
0.0
  0
LINE
  5
376C
330
BBA
100
AcDbEntity
  8
AM_5
100
AcDbLine
 10
74.93413854280436
 20
701.1389249742887
 30
0.0
 11
74.93413854280436
 21
703.6389249742886
 31
0.0
  0
LINE
  5
376D
330
BBA
100
AcDbEntity
  8
AM_5
100
AcDbLine
 10
74.93413854280436
 20
692.1389249742887
 30
0.0
 11
74.93413854280436
 21
681.3889249742886
 31
0.0
  0
LINE
  5
376E
330
BBA
100
AcDbEntity
  8
AM_5
100
AcDbLine
 10
74.93413854280436
 20
698.6389249742886
 30
0.0
 11
74.93413854280436
 21
694.6389249742886
 31
0.0
  0
SOLID
  5
376F
330
BBA
100
AcDbEntity
  8
AM_5
100
AcDbTrace
 10
74.51747187613769
 20
701.1389249742887
 30
0.0
 11
75.35080520947103
 21
701.1389249742887
 31
0.0
 12
74.93413854280436
 22
698.6389249742886
 32
0.0
 13
74.93413854280436
 23
698.6389249742886
 33
0.0
  0
SOLID
  5
3770
330
BBA
100
AcDbEntity
  8
AM_5
100
AcDbTrace
 10
74.51747187613769
 20
692.1389249742887
 30
0.0
 11
75.35080520947103
 21
692.1389249742887
 31
0.0
 12
74.93413854280436
 22
694.6389249742886
 32
0.0
 13
74.93413854280436
 23
694.6389249742886
 33
0.0
  0
MTEXT
  5
3771
330
BBA
100
AcDbEntity
  8
AM_5
 62
     2
100
AcDbMText
 10
68.18413854280425
 20
685.5139249742887
 30
0.0
 40
10.5
 41
0.0
 71
     5
 72
     1
  1
4
 11
0.0000000000000001
 21
1.0
 31
0.0
 73
     1
 44
1.0
  0
POINT
  5
3772
330
BBA
100
AcDbEntity
  8
Defpoints
 62
     0
100
AcDbPoint
 10
100.6195336247206
 20
698.6389249742886
 30
0.0
  0
POINT
  5
3773
330
BBA
100
AcDbEntity
  8
Defpoints
 62
     0
100
AcDbPoint
 10
100.6195336247206
 20
694.6389249742886
 30
0.0
  0
POINT
  5
3774
330
BBA
100
AcDbEntity
  8
Defpoints
 62
     0
100
AcDbPoint
 10
74.93413854280436
 20
694.6389249742886
 30
0.0
  0
ENDBLK
  5
BC7
330
BBA
100
AcDbEntity
  8
0
100
AcDbBlockEnd
  0
BLOCK
  5
1059
330
104F
100
AcDbEntity
  8
0
100
AcDbBlockBegin
  2
*D11
 70
     1
 10
0.0
 20
0.0
 30
0.0
  3
*D11
  1

  0
LINE
  5
3331
330
104F
100
AcDbEntity
  8
AM_5
100
AcDbLine
 10
266.6195336247213
 20
604.6389249742888
 30
0.0
 11
266.6195336247213
 21
566.321730493104
 31
0.0
  0
LINE
  5
3332
330
104F
100
AcDbEntity
  8
AM_5
100
AcDbLine
 10
776.6195336247212
 20
630.7904303739612
 30
0.0
 11
776.6195336247212
 21
566.321730493104
 31
0.0
  0
LINE
  5
3333
330
104F
100
AcDbEntity
  8
AM_5
100
AcDbLine
 10
269.1195336247213
 20
567.321730493104
 30
0.0
 11
774.1195336247212
 21
567.321730493104
 31
0.0
  0
SOLID
  5
3334
330
104F
100
AcDbEntity
  8
AM_5
100
AcDbTrace
 10
269.1195336247213
 20
567.7383971597707
 30
0.0
 11
269.1195336247213
 21
566.9050638264374
 31
0.0
 12
266.6195336247213
 22
567.321730493104
 32
0.0
 13
266.6195336247213
 23
567.321730493104
 33
0.0
  0
SOLID
  5
3335
330
104F
100
AcDbEntity
  8
AM_5
100
AcDbTrace
 10
774.1195336247212
 20
567.7383971597707
 30
0.0
 11
774.1195336247212
 21
566.9050638264374
 31
0.0
 12
776.6195336247212
 22
567.321730493104
 32
0.0
 13
776.6195336247212
 23
567.321730493104
 33
0.0
  0
MTEXT
  5
3336
330
104F
100
AcDbEntity
  8
AM_5
 62
     2
100
AcDbMText
 10
521.6195336247213
 20
574.071730493104
 30
0.0
 40
10.5
 41
0.0
 71
     5
 72
     1
  1
510
 73
     1
 44
1.0
  0
POINT
  5
3337
330
104F
100
AcDbEntity
  8
Defpoints
 62
     0
100
AcDbPoint
 10
266.6195336247213
 20
605.6389249742887
 30
0.0
  0
POINT
  5
3338
330
104F
100
AcDbEntity
  8
Defpoints
 62
     0
100
AcDbPoint
 10
776.6195336247212
 20
631.7904303739612
 30
0.0
  0
POINT
  5
3339
330
104F
100
AcDbEntity
  8
Defpoints
 62
     0
100
AcDbPoint
 10
776.6195336247212
 20
567.321730493104
 30
0.0
  0
ENDBLK
  5
105A
330
104F
100
AcDbEntity
  8
0
100
AcDbBlockEnd
  0
BLOCK
  5
137C
330
1372
100
AcDbEntity
  8
0
100
AcDbBlockBegin
  2
*D17
 70
     1
 10
0.0
 20
0.0
 30
0.0
  3
*D17
  1

  0
LINE
  5
334C
330
1372
100
AcDbEntity
  8
AM_5
100
AcDbLine
 10
150.3695336247207
 20
727.6389249742886
 30
0.0
 11
150.3695336247207
 21
756.2949455914704
 31
0.0
  0
LINE
  5
334D
330
1372
100
AcDbEntity
  8
AM_5
100
AcDbLine
 10
382.8695336247207
 20
727.6389249742886
 30
0.0
 11
382.8695336247207
 21
756.2949455914704
 31
0.0
  0
LINE
  5
334E
330
1372
100
AcDbEntity
  8
AM_5
100
AcDbLine
 10
152.8695336247207
 20
755.2949455914704
 30
0.0
 11
380.3695336247207
 21
755.2949455914704
 31
0.0
  0
SOLID
  5
334F
330
1372
100
AcDbEntity
  8
AM_5
100
AcDbTrace
 10
152.8695336247207
 20
755.711612258137
 30
0.0
 11
152.8695336247207
 21
754.8782789248037
 31
0.0
 12
150.3695336247207
 22
755.2949455914704
 32
0.0
 13
150.3695336247207
 23
755.2949455914704
 33
0.0
  0
SOLID
  5
3350
330
1372
100
AcDbEntity
  8
AM_5
100
AcDbTrace
 10
380.3695336247207
 20
755.711612258137
 30
0.0
 11
380.3695336247207
 21
754.8782789248037
 31
0.0
 12
382.8695336247207
 22
755.2949455914704
 32
0.0
 13
382.8695336247207
 23
755.2949455914704
 33
0.0
  0
MTEXT
  5
3351
330
1372
100
AcDbEntity
  8
AM_5
 62
     2
100
AcDbMText
 10
266.6195336247207
 20
762.0459790560373
 30
0.0
 40
10.5
 41
0.0
 71
     5
 72
     1
  1
%%c232.5
 73
     1
 44
1.0
  0
POINT
  5
3352
330
1372
100
AcDbEntity
  8
Defpoints
 62
     0
100
AcDbPoint
 10
150.3695336247207
 20
726.6389249742887
 30
0.0
  0
POINT
  5
3353
330
1372
100
AcDbEntity
  8
Defpoints
 62
     0
100
AcDbPoint
 10
382.8695336247207
 20
726.6389249742887
 30
0.0
  0
POINT
  5
3354
330
1372
100
AcDbEntity
  8
Defpoints
 62
     0
100
AcDbPoint
 10
382.8695336247207
 20
755.2949455914704
 30
0.0
  0
ENDBLK
  5
137D
330
1372
100
AcDbEntity
  8
0
100
AcDbBlockEnd
  0
BLOCK
  5
1975
330
1968
100
AcDbEntity
  8
0
100
AcDbBlockBegin
  2
*D21
 70
     1
 10
0.0
 20
0.0
 30
0.0
  3
*D21
  1

  0
LINE
  5
374D
330
1968
100
AcDbEntity
  8
AM_5
100
AcDbLine
 10
806.0731900410512
 20
631.724123403707
 30
0.0
 11
814.6880092237916
 21
631.511072049292
 31
0.0
  0
LINE
  5
374E
330
1968
100
AcDbEntity
  8
AM_5
100
AcDbLine
 10
513.8331567410174
 20
643.7054621933564
 30
0.0
 11
814.8387746754952
 21
643.7054621933565
 31
0.0
  0
ARC
  5
374F
330
1968
100
AcDbEntity
  8
AM_5
100
AcDbCircle
 10
321.602825966528
 20
643.7054621933565
 30
0.0
 40
492.235948708967
100
AcDbArc
 50
358.8743162641398
 51
359.7090021500652
  0
SOLID
  5
3750
330
1968
100
AcDbEntity
  8
AM_5
100
AcDbTrace
 10
814.1603402689506
 20
634.0259364793742
 30
0.0
 11
813.3272120242548
 21
634.0444235649831
 31
0.0
 12
813.6883148897759
 22
631.5357952880908
 32
0.0
 13
813.6883148897759
 23
631.5357952880908
 33
0.0
  0
SOLID
  5
3751
330
1968
100
AcDbEntity
  8
AM_5
100
AcDbTrace
 10
813.41576077089
 20
641.2065283511704
 30
0.0
 11
814.2490914172531
 21
641.2044121573627
 31
0.0
 12
813.8387746754952
 22
643.7054621933565
 32
0.0
 13
813.8387746754952
 23
643.7054621933565
 33
0.0
  0
MTEXT
  5
3752
330
1968
100
AcDbEntity
  8
AM_5
 62
     2
100
AcDbMText
 10
805.5621919638097
 20
616.9488135917812
 30
0.0
 40
10.5
 41
0.0
 71
     5
 72
     1
  1
1,5°
 11
0.0552026701815193
 21
0.9984751700492257
 31
0.0
 73
     1
 44
1.0
  0
POINT
  5
3753
330
1968
100
AcDbEntity
  8
Defpoints
 62
     0
100
AcDbPoint
 10
813.8220561644221
 20
639.6485391216805
 30
0.0
  0
POINT
  5
3754
330
1968
100
AcDbEntity
  8
Defpoints
 62
     0
100
AcDbPoint
 10
321.602825966528
 20
643.7054621933565
 30
0.0
  0
POINT
  5
3755
330
1968
100
AcDbEntity
  8
Defpoints
 62
     0
100
AcDbPoint
 10
321.602825966528
 20
643.7054621933565
 30
0.0
  0
POINT
  5
3756
330
1968
100
AcDbEntity
  8
Defpoints
 62
     0
100
AcDbPoint
 10
805.0734957070355
 20
631.7488466425057
 30
0.0
  0
POINT
  5
3757
330
1968
100
AcDbEntity
  8
Defpoints
 62
     0
100
AcDbPoint
 10
512.8331567410174
 20
643.7054621933565
 30
0.0
  0
ENDBLK
  5
1976
330
1968
100
AcDbEntity
  8
0
100
AcDbBlockEnd
  0
BLOCK
  5
1B3B
330
1B3A
100
AcDbEntity
  8
0
100
AcDbBlockBegin
  2
*U22
 70
     1
 10
396.9880080750286
 20
659.5402697290169
 30
0.0
  3
*U22
  1

  0
ARC
  5
1B3D
330
1B3A
100
AcDbEntity
  8
0
  6
ByBlock
 62
     0
100
AcDbCircle
 10
392.1706408266173
 20
614.6098309011001
 30
0.0
 40
1.251196395509536
100
AcDbArc
 50
218.6396032349403
 51
324.7537867695618
  0
ARC
  5
1B3E
330
1B3A
100
AcDbEntity
  8
0
  6
ByBlock
 62
     0
100
AcDbCircle
 10
402.1473807812492
 20
677.8954633343767
 30
0.0
 40
1.251196395509574
100
AcDbArc
 50
198.1257300832948
 51
304.2399136179093
  0
ARC
  5
1B3F
330
1B3A
100
AcDbEntity
  8
0
  6
ByBlock
 62
     0
100
AcDbCircle
 10
392.1370062978313
 20
616.5613703960232
 30
0.0
 40
1.251196395509472
100
AcDbArc
 50
218.0179707151941
 51
324.1321542498174
  0
ARC
  5
1B40
330
1B3A
100
AcDbEntity
  8
0
  6
ByBlock
 62
     0
100
AcDbCircle
 10
392.124546627742
 20
618.5131599436931
 30
0.0
 40
1.251196395509511
100
AcDbArc
 50
217.3963381954497
 51
323.5105217300746
  0
ARC
  5
1B41
330
1B3A
100
AcDbEntity
  8
0
  6
ByBlock
 62
     0
100
AcDbCircle
 10
392.1332632829929
 20
620.464969796546
 30
0.0
 40
1.251196395509559
100
AcDbArc
 50
216.7747056757018
 51
322.8888892103237
  0
ARC
  5
1B42
330
1B3A
100
AcDbEntity
  8
0
  6
ByBlock
 62
     0
100
AcDbCircle
 10
392.1631552375357
 20
622.4165702046284
 30
0.0
 40
1.251196395509589
100
AcDbArc
 50
216.1530731559596
 51
322.2672566905639
  0
ARC
  5
1B43
330
1B3A
100
AcDbEntity
  8
0
  6
ByBlock
 62
     0
100
AcDbCircle
 10
392.2142189727508
 20
624.3677314426394
 30
0.0
 40
1.251196395509425
100
AcDbArc
 50
215.5314406361986
 51
321.6456241708407
  0
ARC
  5
1B44
330
1B3A
100
AcDbEntity
  8
0
  6
ByBlock
 62
     0
100
AcDbCircle
 10
392.2864484778637
 20
626.3182238369759
 30
0.0
 40
1.251196395509543
100
AcDbArc
 50
214.9098081164601
 51
321.0239916510767
  0
ARC
  5
1B45
330
1B3A
100
AcDbEntity
  8
0
  6
ByBlock
 62
     0
100
AcDbCircle
 10
392.3798352506492
 20
628.2678177927627
 30
0.0
 40
1.251196395509591
100
AcDbArc
 50
214.2881755967162
 51
320.4023591313352
  0
ARC
  5
1B46
330
1B3A
100
AcDbEntity
  8
0
  6
ByBlock
 62
     0
100
AcDbCircle
 10
392.4943682984349
 20
630.2162838208827
 30
0.0
 40
1.251196395509562
100
AcDbArc
 50
213.6665430769695
 51
319.7807266115894
  0
ARC
  5
1B47
330
1B3A
100
AcDbEntity
  8
0
  6
ByBlock
 62
     0
100
AcDbCircle
 10
392.6300341393941
 20
632.1633925649871
 30
0.0
 40
1.251196395509285
100
AcDbArc
 50
213.0449105572054
 51
319.1590940918611
  0
ARC
  5
1B48
330
1B3A
100
AcDbEntity
  8
0
  6
ByBlock
 62
     0
100
AcDbCircle
 10
392.7868168041326
 20
634.1089148284965
 30
0.0
 40
1.251196395509472
100
AcDbArc
 50
212.4232780374685
 51
318.5374615720987
  0
ARC
  5
1B49
330
1B3A
100
AcDbEntity
  8
0
  6
ByBlock
 62
     0
100
AcDbCircle
 10
392.964697837569
 20
636.0526216015765
 30
0.0
 40
1.251196395509593
100
AcDbArc
 50
211.8016455177278
 51
317.9158290523444
  0
ARC
  5
1B4A
330
1B3A
100
AcDbEntity
  8
0
  6
ByBlock
 62
     0
100
AcDbCircle
 10
393.1636563011064
 20
637.9942840880963
 30
0.0
 40
1.251196395509462
100
AcDbArc
 50
211.1800129979735
 51
317.2941965326093
  0
ARC
  5
1B4B
330
1B3A
100
AcDbEntity
  8
0
  6
ByBlock
 62
     0
100
AcDbCircle
 10
393.383668775098
 20
639.9336737325621
 30
0.0
 40
1.25119639550953
100
AcDbArc
 50
210.5583804782324
 51
316.6725640128561
  0
ARC
  5
1B4C
330
1B3A
100
AcDbEntity
  8
0
  6
ByBlock
 62
     0
100
AcDbCircle
 10
393.624709361603
 20
641.8705622470175
 30
0.0
 40
1.251196395509549
100
AcDbArc
 50
209.9367479584822
 51
316.0509314931124
  0
ARC
  5
1B4D
330
1B3A
100
AcDbEntity
  8
0
  6
ByBlock
 62
     0
100
AcDbCircle
 10
393.886749687436
 20
643.8047216379185
 30
0.0
 40
1.25119639550957
100
AcDbArc
 50
209.3151154387421
 51
315.4292989733603
  0
ARC
  5
1B4E
330
1B3A
100
AcDbEntity
  8
0
  6
ByBlock
 62
     0
100
AcDbCircle
 10
394.1697589075053
 20
645.7359242329685
 30
0.0
 40
1.251196395509452
100
AcDbArc
 50
208.6934829189813
 51
314.8076664536193
  0
ARC
  5
1B4F
330
1B3A
100
AcDbEntity
  8
0
  6
ByBlock
 62
     0
100
AcDbCircle
 10
394.4737037084457
 20
647.6639427079199
 30
0.0
 40
1.251196395509475
100
AcDbArc
 50
208.0718503992379
 51
314.1860339338709
  0
ARC
  5
1B50
330
1B3A
100
AcDbEntity
  8
0
  6
ByBlock
 62
     0
100
AcDbCircle
 10
394.7985483125383
 20
649.5885501133315
 30
0.0
 40
1.251196395509597
100
AcDbArc
 50
207.4502178795
 51
313.5644014141146
  0
ARC
  5
1B51
330
1B3A
100
AcDbEntity
  8
0
  6
ByBlock
 62
     0
100
AcDbCircle
 10
395.1442544819227
 20
651.5095199012827
 30
0.0
 40
1.251196395509474
100
AcDbArc
 50
206.8285853597443
 51
312.942768894374
  0
ARC
  5
1B52
330
1B3A
100
AcDbEntity
  8
0
  6
ByBlock
 62
     0
100
AcDbCircle
 10
395.5107815230975
 20
653.4266259520426
 30
0.0
 40
1.251196395509508
100
AcDbArc
 50
206.2069528399999
 51
312.3211363746238
  0
ARC
  5
1B53
330
1B3A
100
AcDbEntity
  8
0
  6
ByBlock
 62
     0
100
AcDbCircle
 10
395.8980862917115
 20
655.3396426006847
 30
0.0
 40
1.251196395509663
100
AcDbArc
 50
205.585320320263
 51
311.6995038548661
  0
ARC
  5
1B54
330
1B3A
100
AcDbEntity
  8
0
  6
ByBlock
 62
     0
100
AcDbCircle
 10
396.3061231976404
 20
657.248344663651
 30
0.0
 40
1.251196395509529
100
AcDbArc
 50
204.963687800506
 51
311.0778713351313
  0
ARC
  5
1B55
330
1B3A
100
AcDbEntity
  8
0
  6
ByBlock
 62
     0
100
AcDbCircle
 10
396.7348442103554
 20
659.1525074652595
 30
0.0
 40
1.251196395509584
100
AcDbArc
 50
204.3420552807631
 51
310.4562388153804
  0
ARC
  5
1B56
330
1B3A
100
AcDbEntity
  8
0
  6
ByBlock
 62
     0
100
AcDbCircle
 10
397.1841988645751
 20
661.0519068641494
 30
0.0
 40
1.251196395509472
100
AcDbArc
 50
203.7204227610108
 51
309.8346062956425
  0
ARC
  5
1B57
330
1B3A
100
AcDbEntity
  8
0
  6
ByBlock
 62
     0
100
AcDbCircle
 10
397.6541342662073
 20
662.9463192796664
 30
0.0
 40
1.251196395509495
100
AcDbArc
 50
203.0987902412626
 51
309.2129737758901
  0
ARC
  5
1B58
330
1B3A
100
AcDbEntity
  8
0
  6
ByBlock
 62
     0
100
AcDbCircle
 10
398.1445950985736
 20
664.8355217181804
 30
0.0
 40
1.251196395509587
100
AcDbArc
 50
202.477157721525
 51
308.5913412561423
  0
ARC
  5
1B59
330
1B3A
100
AcDbEntity
  8
0
  6
ByBlock
 62
     0
100
AcDbCircle
 10
398.655523628923
 20
666.7192917993336
 30
0.0
 40
1.251196395509568
100
AcDbArc
 50
201.8555252017736
 51
307.969708736388
  0
ARC
  5
1B5A
330
1B3A
100
AcDbEntity
  8
0
  6
ByBlock
 62
     0
100
AcDbCircle
 10
399.1868597152251
 20
668.5974077822178
 30
0.0
 40
1.251196395509523
100
AcDbArc
 50
201.2338926820248
 51
307.3480762166493
  0
ARC
  5
1B5B
330
1B3A
100
AcDbEntity
  8
0
  6
ByBlock
 62
     0
100
AcDbCircle
 10
399.7385408132519
 20
670.4696485914763
 30
0.0
 40
1.251196395509614
100
AcDbArc
 50
200.6122601622867
 51
306.7264436968944
  0
ARC
  5
1B5C
330
1B3A
100
AcDbEntity
  8
0
  6
ByBlock
 62
     0
100
AcDbCircle
 10
400.310501983938
 20
672.3357938433252
 30
0.0
 40
1.251196395509386
100
AcDbArc
 50
199.9906276425269
 51
306.1048111771647
  0
ARC
  5
1B5D
330
1B3A
100
AcDbEntity
  8
0
  6
ByBlock
 62
     0
100
AcDbCircle
 10
400.9026759010266
 20
674.1956238714979
 30
0.0
 40
1.25119639550936
100
AcDbArc
 50
199.3689951227757
 51
305.483178657418
  0
ARC
  5
1B5E
330
1B3A
100
AcDbEntity
  8
0
  6
ByBlock
 62
     0
100
AcDbCircle
 10
401.5149928589927
 20
676.0489197530992
 30
0.0
 40
1.251196395509557
100
AcDbArc
 50
198.747362603042
 51
304.8615461376559
  0
ENDBLK
  5
1B3C
330
1B3A
100
AcDbEntity
  8
0
100
AcDbBlockEnd
  0
BLOCK
  5
1B7C
330
1B7B
100
AcDbEntity
  8
0
100
AcDbBlockBegin
  2
*U23
 70
     1
 10
389.8741488070136
 20
609.7469160637042
 30
0.0
  3
*U23
  1

  0
ARC
  5
1B7E
330
1B7B
100
AcDbEntity
  8
0
  6
ByBlock
 62
     0
100
AcDbCircle
 10
392.2447331396066
 20
612.1085352349123
 30
0.0
 40
1.251196395509451
100
AcDbArc
 50
38.63960323493382
 51
144.7537867695718
  0
ARC
  5
1B7F
330
1B7B
100
AcDbEntity
  8
0
  6
ByBlock
 62
     0
100
AcDbCircle
 10
385.9586827391165
 20
608.2111401363471
 30
0.0
 40
1.25119639550966
100
AcDbArc
 50
306.9429082326935
 51
53.05709176731273
  0
ARC
  5
1B80
330
1B7B
100
AcDbEntity
  8
0
  6
ByBlock
 62
     0
100
AcDbCircle
 10
391.6420829388014
 20
610.5803490275
 30
0.0
 40
1.25119639550941
100
AcDbArc
 50
20.30026423448067
 51
126.4144477691214
  0
ARC
  5
1B81
330
1B7B
100
AcDbEntity
  8
0
  6
ByBlock
 62
     0
100
AcDbCircle
 10
390.5892065343315
 20
609.3194003267329
 30
0.0
 40
1.251196395509361
100
AcDbArc
 50
1.960925234029602
 51
108.0751087686687
  0
ARC
  5
1B82
330
1B7B
100
AcDbEntity
  8
0
  6
ByBlock
 62
     0
100
AcDbCircle
 10
389.1930558100579
 20
608.4537771384083
 30
0.0
 40
1.251196395509209
100
AcDbArc
 50
343.6215862335744
 51
89.73576976822021
  0
ARC
  5
1B83
330
1B7B
100
AcDbEntity
  8
0
  6
ByBlock
 62
     0
100
AcDbCircle
 10
387.5954526830459
 20
608.0714100404283
 30
0.0
 40
1.251196395509402
100
AcDbArc
 50
325.2822472331322
 51
71.39643076776629
  0
ENDBLK
  5
1B7D
330
1B7B
100
AcDbEntity
  8
0
100
AcDbBlockEnd
  0
BLOCK
  5
2BF4
330
2BEA
100
AcDbEntity
  8
0
100
AcDbBlockBegin
  2
*D25
 70
     1
 10
0.0
 20
0.0
 30
0.0
  3
*D25
  1

  0
LINE
  5
3376
330
2BEA
100
AcDbEntity
  8
AM_5
100
AcDbLine
 10
462.4185234979436
 20
728.3374097841231
 30
0.0
 11
427.028155621721
 21
763.7277776603457
 31
0.0
  0
LINE
  5
3377
330
2BEA
100
AcDbEntity
  8
AM_5
100
AcDbLine
 10
511.9159981810021
 20
777.8348844671815
 30
0.0
 11
476.5256303047795
 21
813.2252523434042
 31
0.0
  0
LINE
  5
3378
330
2BEA
100
AcDbEntity
  8
AM_5
100
AcDbLine
 10
429.503029355874
 20
764.7884378321256
 30
0.0
 11
475.4649701329996
 21
810.7503786092513
 31
0.0
  0
SOLID
  5
3379
330
2BEA
100
AcDbEntity
  8
AM_5
100
AcDbTrace
 10
429.2084015303796
 20
765.08306565762
 30
0.0
 11
429.7976571813684
 21
764.4938100066313
 31
0.0
 12
427.7352624029076
 22
763.0206708791591
 32
0.0
 13
427.7352624029076
 23
763.0206708791591
 33
0.0
  0
SOLID
  5
337A
330
2BEA
100
AcDbEntity
  8
AM_5
100
AcDbTrace
 10
475.1703423075053
 20
811.0450064347457
 30
0.0
 11
475.759597958494
 21
810.4557507837569
 31
0.0
 12
477.232737085966
 22
812.5181455622175
 32
0.0
 13
477.232737085966
 23
812.5181455622175
 33
0.0
  0
MTEXT
  5
337B
330
2BEA
100
AcDbEntity
  8
AM_5
 62
     2
100
AcDbMText
 10
447.7110289714278
 20
792.5423789936975
 30
0.0
 40
10.5
 41
0.0
 71
     5
 72
     1
  1
70
 11
0.7071067811865476
 21
0.7071067811865475
 31
0.0
 73
     1
 44
1.0
  0
POINT
  5
337C
330
2BEA
100
AcDbEntity
  8
Defpoints
 62
     0
100
AcDbPoint
 10
463.1256302791301
 20
727.6303030029366
 30
0.0
  0
POINT
  5
337D
330
2BEA
100
AcDbEntity
  8
Defpoints
 62
     0
100
AcDbPoint
 10
512.6231049621887
 20
777.1277776859949
 30
0.0
  0
POINT
  5
337E
330
2BEA
100
AcDbEntity
  8
Defpoints
 62
     0
100
AcDbPoint
 10
477.232737085966
 20
812.5181455622175
 30
0.0
  0
ENDBLK
  5
2BF5
330
2BEA
100
AcDbEntity
  8
0
100
AcDbBlockEnd
  0
BLOCK
  5
2E48
330
2E3E
100
AcDbEntity
  8
0
100
AcDbBlockBegin
  2
*D32
 70
     1
 10
0.0
 20
0.0
 30
0.0
  3
*D32
  1

  0
LINE
  5
3398
330
2E3E
100
AcDbEntity
  8
AM_5
100
AcDbLine
 10
772.6215336247207
 20
335.377826943359
 30
0.0
 11
796.3640255602781
 21
335.377826943359
 31
0.0
  0
LINE
  5
3399
330
2E3E
100
AcDbEntity
  8
AM_5
100
AcDbLine
 10
772.6605488708133
 20
262.3879281295223
 30
0.0
 11
796.3640255602781
 21
262.3879281295223
 31
0.0
  0
LINE
  5
339A
330
2E3E
100
AcDbEntity
  8
AM_5
100
AcDbLine
 10
795.3640255602781
 20
332.877826943359
 30
0.0
 11
795.3640255602781
 21
264.8879281295223
 31
0.0
  0
SOLID
  5
339B
330
2E3E
100
AcDbEntity
  8
AM_5
100
AcDbTrace
 10
794.9473588936115
 20
332.877826943359
 30
0.0
 11
795.7806922269448
 21
332.877826943359
 31
0.0
 12
795.3640255602781
 22
335.377826943359
 32
0.0
 13
795.3640255602781
 23
335.377826943359
 33
0.0
  0
SOLID
  5
339C
330
2E3E
100
AcDbEntity
  8
AM_5
100
AcDbTrace
 10
794.9473588936115
 20
264.8879281295223
 30
0.0
 11
795.7806922269448
 21
264.8879281295223
 31
0.0
 12
795.3640255602781
 22
262.3879281295223
 32
0.0
 13
795.3640255602781
 23
262.3879281295223
 33
0.0
  0
MTEXT
  5
339D
330
2E3E
100
AcDbEntity
  8
AM_5
 62
     2
100
AcDbMText
 10
788.614025560278
 20
298.8828775364408
 30
0.0
 40
10.5
 41
0.0
 71
     5
 72
     1
  1
%%c73
 11
0.0000000000000001
 21
1.0
 31
0.0
 73
     1
 44
1.0
  0
POINT
  5
339E
330
2E3E
100
AcDbEntity
  8
Defpoints
 62
     0
100
AcDbPoint
 10
771.6215336247207
 20
335.377826943359
 30
0.0
  0
POINT
  5
339F
330
2E3E
100
AcDbEntity
  8
Defpoints
 62
     0
100
AcDbPoint
 10
771.6605488708133
 20
262.3879281295223
 30
0.0
  0
POINT
  5
33A0
330
2E3E
100
AcDbEntity
  8
Defpoints
 62
     0
100
AcDbPoint
 10
795.3640255602781
 20
262.3879281295223
 30
0.0
  0
ENDBLK
  5
2E49
330
2E3E
100
AcDbEntity
  8
0
100
AcDbBlockEnd
  0
BLOCK
  5
3124
330
311A
100
AcDbEntity
  8
0
100
AcDbBlockBegin
  2
*D33
 70
     1
 10
0.0
 20
0.0
 30
0.0
  3
*D33
  1

  0
LINE
  5
3761
330
311A
100
AcDbEntity
  8
AM_5
100
AcDbLine
 10
99.61953362472058
 20
698.6389249742886
 30
0.0
 11
42.67679815678832
 21
698.6389249742886
 31
0.0
  0
LINE
  5
3762
330
311A
100
AcDbEntity
  8
AM_5
100
AcDbLine
 10
206.8090257400441
 20
608.6389249742888
 30
0.0
 11
42.67679815678831
 21
608.6389249742888
 31
0.0
  0
LINE
  5
3763
330
311A
100
AcDbEntity
  8
AM_5
100
AcDbLine
 10
43.67679815678832
 20
696.1389249742886
 30
0.0
 11
43.6767981567883
 21
611.1389249742887
 31
0.0
  0
SOLID
  5
3764
330
311A
100
AcDbEntity
  8
AM_5
100
AcDbTrace
 10
43.26013149012165
 20
696.1389249742886
 30
0.0
 11
44.09346482345498
 21
696.1389249742886
 31
0.0
 12
43.67679815678832
 22
698.6389249742886
 32
0.0
 13
43.67679815678832
 23
698.6389249742886
 33
0.0
  0
SOLID
  5
3765
330
311A
100
AcDbEntity
  8
AM_5
100
AcDbTrace
 10
43.26013149012164
 20
611.1389249742887
 30
0.0
 11
44.09346482345497
 21
611.1389249742887
 31
0.0
 12
43.6767981567883
 22
608.6389249742888
 32
0.0
 13
43.6767981567883
 23
608.6389249742888
 33
0.0
  0
MTEXT
  5
3766
330
311A
100
AcDbEntity
  8
AM_5
 62
     2
100
AcDbMText
 10
36.92679815678821
 20
654.1726048452419
 30
0.0
 40
10.5
 41
0.0
 71
     5
 72
     1
  1
90
 11
0.0000000000000001
 21
1.0
 31
0.0
 73
     1
 44
1.0
  0
POINT
  5
3767
330
311A
100
AcDbEntity
  8
Defpoints
 62
     0
100
AcDbPoint
 10
100.6195336247206
 20
698.6389249742886
 30
0.0
  0
POINT
  5
3768
330
311A
100
AcDbEntity
  8
Defpoints
 62
     0
100
AcDbPoint
 10
207.8090257400441
 20
608.6389249742888
 30
0.0
  0
POINT
  5
3769
330
311A
100
AcDbEntity
  8
Defpoints
 62
     0
100
AcDbPoint
 10
43.6767981567883
 20
608.6389249742888
 30
0.0
  0
ENDBLK
  5
3125
330
311A
100
AcDbEntity
  8
0
100
AcDbBlockEnd
  0
BLOCK
  5
36DD
330
36DC
100
AcDbEntity
  8
0
100
AcDbBlockBegin
  2
*D35
 70
     1
 10
0.0
 20
0.0
 30
0.0
  3
*D35
  1

  0
LINE
  5
3758
330
36DC
100
AcDbEntity
  8
AM_5
100
AcDbLine
 10
441.1342522504817
 20
698.6389249742884
 30
0.0
 11
851.7572997589532
 21
698.6389249742883
 31
0.0
  0
LINE
  5
3759
330
36DC
100
AcDbEntity
  8
AM_5
100
AcDbLine
 10
777.6195336247208
 20
631.7904303739433
 30
0.0
 11
851.7572997589532
 21
631.7904303739433
 31
0.0
  0
LINE
  5
375A
330
36DC
100
AcDbEntity
  8
AM_5
100
AcDbLine
 10
850.7572997589532
 20
696.1389249742883
 30
0.0
 11
850.7572997589532
 21
634.2904303739433
 31
0.0
  0
SOLID
  5
375B
330
36DC
100
AcDbEntity
  8
AM_5
100
AcDbTrace
 10
850.3406330922866
 20
696.1389249742883
 30
0.0
 11
851.1739664256198
 21
696.1389249742883
 31
0.0
 12
850.7572997589532
 22
698.6389249742883
 32
0.0
 13
850.7572997589532
 23
698.6389249742883
 33
0.0
  0
SOLID
  5
375C
330
36DC
100
AcDbEntity
  8
AM_5
100
AcDbTrace
 10
850.3406330922866
 20
634.2904303739433
 30
0.0
 11
851.1739664256198
 21
634.2904303739433
 31
0.0
 12
850.7572997589532
 22
631.7904303739433
 32
0.0
 13
850.7572997589532
 23
631.7904303739433
 33
0.0
  0
MTEXT
  5
375D
330
36DC
100
AcDbEntity
  8
AM_5
 62
     2
100
AcDbMText
 10
844.0072997589531
 20
665.214677674116
 30
0.0
 40
10.5
 41
0.0
 71
     5
 72
     1
  1
67
 11
0.0000000000000001
 21
1.0
 31
0.0
 73
     1
 44
1.0
  0
POINT
  5
375E
330
36DC
100
AcDbEntity
  8
Defpoints
 62
     0
100
AcDbPoint
 10
440.1342522504817
 20
698.6389249742884
 30
0.0
  0
POINT
  5
375F
330
36DC
100
AcDbEntity
  8
Defpoints
 62
     0
100
AcDbPoint
 10
776.6195336247208
 20
631.7904303739433
 30
0.0
  0
POINT
  5
3760
330
36DC
100
AcDbEntity
  8
Defpoints
 62
     0
100
AcDbPoint
 10
850.7572997589532
 20
631.7904303739433
 30
0.0
  0
ENDBLK
  5
36DE
330
36DC
100
AcDbEntity
  8
0
100
AcDbBlockEnd
  0
BLOCK
  5
377A
330
3775
100
AcDbEntity
  8
0
100
AcDbBlockBegin
  2
*U36
 70
     1
 10
0.0
 20
0.0
 30
0.0
  3
*U36
  1

  0
ARC
  5
3776
330
3775
100
AcDbEntity
  8
AM_4
100
AcDbCircle
 10
-348.8206969376567
 20
381.0789902562957
 30
0.0
 40
4.0
210
0.0
220
0.0
230
-1.0
100
AcDbArc
 50
79.99999999999992
 51
349.9999999999999
  0
CIRCLE
  5
3777
330
3775
100
AcDbEntity
  8
AM_0
100
AcDbCircle
 10
-348.8206969376567
 20
381.0789902562957
 30
0.0
 40
3.32341765329346
210
0.0
220
0.0
230
-1.0
  0
LINE
  5
3778
330
3775
100
AcDbEntity
  8
AM_7
  6
AM_ISO08W050x2
100
AcDbLine
 10
341.8206969376567
 20
381.0789902562957
 30
0.0
 11
355.8206969376567
 21
381.0789902562957
 31
0.0
  0
LINE
  5
3779
330
3775
100
AcDbEntity
  8
AM_7
  6
AM_ISO08W050x2
100
AcDbLine
 10
348.8206969376567
 20
388.0789902562958
 30
0.0
 11
348.8206969376567
 21
374.0789902562958
 31
0.0
  0
ENDBLK
  5
377B
330
3775
100
AcDbEntity
  8
0
100
AcDbBlockEnd
  0
BLOCK
  5
3790
330
377E
100
AcDbEntity
  8
0
100
AcDbBlockBegin
  2
*U37
 70
     1
 10
0.0
 20
0.0
 30
0.0
  3
*U37
  1

  0
ARC
  5
377F
330
377E
100
AcDbEntity
  8
AM_0N
100
AcDbCircle
 10
480.5857677493418
 20
751.7047339761461
 30
0.0
 40
3.318843022839323
100
AcDbArc
 50
100.5615305952679
 51
160.5615305952688
  0
ARC
  5
3780
330
377E
100
AcDbEntity
  8
AM_0N
100
AcDbCircle
 10
480.1289934404743
 20
752.1615082850137
 30
0.0
 40
3.318843022839323
100
AcDbArc
 50
289.438469404731
 51
349.4384694047321
  0
LINE
  5
3781
330
377E
100
AcDbEntity
  8
AM_0N
100
AcDbLine
 10
477.8334513278103
 20
754.2175179755505
 30
0.0
 11
486.0358899895743
 21
762.4199566373146
 31
0.0
  0
LINE
  5
3782
330
377E
100
AcDbEntity
  8
AM_0N
100
AcDbLine
 10
482.6417774398788
 20
749.409191863482
 30
0.0
 11
490.8442161016428
 21
757.6116305252461
 31
0.0
  0
ARC
  5
3783
330
377E
100
AcDbEntity
  8
AM_0N
100
AcDbCircle
 10
488.5486739889788
 20
759.6676402157831
 30
0.0
 40
3.318843022839353
100
AcDbArc
 50
109.4384694047316
 51
169.4384694047318
  0
ARC
  5
3784
330
377E
100
AcDbEntity
  8
AM_0N
100
AcDbCircle
 10
490.9905848616268
 20
749.2628231034981
 30
0.0
 40
12.40285149704447
100
AcDbArc
 50
117.3830311596131
 51
152.6169688403868
  0
ARC
  5
3785
330
377E
100
AcDbEntity
  8
AM_0N
100
AcDbCircle
 10
477.6870825678262
 20
762.5663253972987
 30
0.0
 40
12.40285149704446
100
AcDbArc
 50
297.3830311596131
 51
332.6169688403869
  0
ARC
  5
3786
330
377E
100
AcDbEntity
  8
AM_0N
100
AcDbCircle
 10
488.0918996801113
 20
760.1244145246507
 30
0.0
 40
3.318843022839323
100
AcDbArc
 50
280.561530595268
 51
340.5615305952697
  0
LINE
  5
3787
330
377E
100
AcDbEntity
  8
AM_0N
100
AcDbLine
 10
487.9403587744173
 20
762.9302575102236
 30
0.0
 11
486.0358899895743
 21
762.4199566373146
 31
0.0
  0
LINE
  5
3788
330
377E
100
AcDbEntity
  8
AM_7N
  6
AM_ISO08W050x2
100
AcDbLine
 10
488.8643171143204
 20
751.3890908508044
 30
0.0
 11
479.8133503151326
 21
760.4400576499922
 31
0.0
  0
LINE
  5
3789
330
377E
100
AcDbEntity
  8
AM_0N
100
AcDbLine
 10
483.3916107349148
 20
751.553193070452
 30
0.0
 11
479.9774525347802
 21
754.9673512705865
 31
0.0
  0
LINE
  5
378A
330
377E
100
AcDbEntity
  8
AM_0N
100
AcDbLine
 10
491.3545169745519
 20
759.5160993100891
 30
0.0
 11
490.8442161016428
 21
757.6116305252461
 31
0.0
  0
LINE
  5
378B
330
377E
100
AcDbEntity
  8
AM_0N
100
AcDbLine
 10
491.3545169745519
 20
759.5160993100891
 30
0.0
 11
487.9403587744173
 21
762.9302575102236
 31
0.0
  0
LINE
  5
378C
330
377E
100
AcDbEntity
  8
AM_0N
100
AcDbLine
 10
488.7002148946728
 20
756.8617972302101
 30
0.0
 11
485.2860566945385
 21
760.2759554303446
 31
0.0
  0
LINE
  5
378D
330
377E
100
AcDbEntity
  8
AM_0N
100
AcDbLine
 10
477.3231504549015
 20
752.3130491907076
 30
0.0
 11
477.8334513278103
 21
754.2175179755505
 31
0.0
  0
LINE
  5
378E
330
377E
100
AcDbEntity
  8
AM_0N
100
AcDbLine
 10
480.7373086550358
 20
748.8988909905731
 30
0.0
 11
482.6417774398788
 21
749.409191863482
 31
0.0
  0
LINE
  5
378F
330
377E
100
AcDbEntity
  8
AM_0N
100
AcDbLine
 10
480.7373086550358
 20
748.8988909905731
 30
0.0
 11
477.3231504549015
 21
752.3130491907076
 31
0.0
  0
ENDBLK
  5
3791
330
377E
100
AcDbEntity
  8
0
100
AcDbBlockEnd
  0
BLOCK
  5
379F
330
3793
100
AcDbEntity
  8
0
100
AcDbBlockBegin
  2
*U38
 70
     1
 10
0.0
 20
0.0
 30
0.0
  3
*U38
  1

  0
CIRCLE
  5
3794
330
3793
100
AcDbEntity
  8
AM_0N
100
AcDbCircle
 10
266.6195336247208
 20
182.6278269433594
 30
0.0
 40
5.799999999999999
  0
ARC
  5
3795
330
3793
100
AcDbEntity
  8
AM_4N
100
AcDbCircle
 10
266.6195336247208
 20
182.6278269433594
 30
0.0
 40
4.0
100
AcDbArc
 50
170.0
 51
80.00000000000001
  0
CIRCLE
  5
3796
330
3793
100
AcDbEntity
  8
AM_0N
100
AcDbCircle
 10
266.6195336247208
 20
182.6278269433594
 30
0.0
 40
3.323417653293459
  0
LINE
  5
3797
330
3793
100
AcDbEntity
  8
AM_0N
100
AcDbLine
 10
262.8667568749882
 20
189.1278269433594
 30
0.0
 11
259.1139801252556
 21
182.6278269433592
 31
0.0
  0
LINE
  5
3798
330
3793
100
AcDbEntity
  8
AM_0N
100
AcDbLine
 10
259.1139801252556
 20
182.6278269433592
 30
0.0
 11
262.8667568749885
 21
176.1278269433594
 31
0.0
  0
LINE
  5
3799
330
3793
100
AcDbEntity
  8
AM_0N
100
AcDbLine
 10
262.8667568749885
 20
176.1278269433594
 30
0.0
 11
270.3723103744534
 21
176.1278269433594
 31
0.0
  0
LINE
  5
379A
330
3793
100
AcDbEntity
  8
AM_0N
100
AcDbLine
 10
270.3723103744534
 20
176.1278269433594
 30
0.0
 11
274.1250871241859
 21
182.6278269433594
 31
0.0
  0
LINE
  5
379B
330
3793
100
AcDbEntity
  8
AM_0N
100
AcDbLine
 10
274.1250871241859
 20
182.6278269433594
 30
0.0
 11
270.3723103744529
 21
189.1278269433594
 31
0.0
  0
LINE
  5
379C
330
3793
100
AcDbEntity
  8
AM_0N
100
AcDbLine
 10
270.3723103744529
 20
189.1278269433594
 30
0.0
 11
262.8667568749882
 21
189.1278269433594
 31
0.0
  0
LINE
  5
379D
330
3793
100
AcDbEntity
  8
AM_7N
  6
AM_ISO08W050x2
100
AcDbLine
 10
277.1250871241859
 20
182.6278269433594
 30
0.0
 11
256.1139801252557
 21
182.6278269433594
 31
0.0
  0
LINE
  5
379E
330
3793
100
AcDbEntity
  8
AM_7N
  6
AM_ISO08W050x2
100
AcDbLine
 10
266.6195336247208
 20
193.1333804428245
 30
0.0
 11
266.6195336247208
 21
172.1222734438943
 31
0.0
  0
ENDBLK
  5
37A0
330
3793
100
AcDbEntity
  8
0
100
AcDbBlockEnd
  0
BLOCK
  5
37AE
330
37A2
100
AcDbEntity
  8
0
100
AcDbBlockBegin
  2
*U39
 70
     1
 10
0.0
 20
0.0
 30
0.0
  3
*U39
  1

  0
CIRCLE
  5
37A3
330
37A2
100
AcDbEntity
  8
AM_0N
100
AcDbCircle
 10
184.4183703117845
 20
216.6766640181771
 30
0.0
 40
5.799999999999999
  0
ARC
  5
37A4
330
37A2
100
AcDbEntity
  8
AM_4N
100
AcDbCircle
 10
184.4183703117845
 20
216.6766640181771
 30
0.0
 40
4.0
100
AcDbArc
 50
170.0
 51
80.00000000000001
  0
CIRCLE
  5
37A5
330
37A2
100
AcDbEntity
  8
AM_0N
100
AcDbCircle
 10
184.4183703117845
 20
216.6766640181771
 30
0.0
 40
3.323417653293459
  0
LINE
  5
37A6
330
37A2
100
AcDbEntity
  8
AM_0N
100
AcDbLine
 10
180.6655935620519
 20
223.1766640181771
 30
0.0
 11
176.9128168123192
 21
216.6766640181769
 31
0.0
  0
LINE
  5
37A7
330
37A2
100
AcDbEntity
  8
AM_0N
100
AcDbLine
 10
176.9128168123192
 20
216.6766640181769
 30
0.0
 11
180.6655935620521
 21
210.1766640181771
 31
0.0
  0
LINE
  5
37A8
330
37A2
100
AcDbEntity
  8
AM_0N
100
AcDbLine
 10
180.6655935620521
 20
210.1766640181771
 30
0.0
 11
188.171147061517
 21
210.1766640181771
 31
0.0
  0
LINE
  5
37A9
330
37A2
100
AcDbEntity
  8
AM_0N
100
AcDbLine
 10
188.171147061517
 20
210.1766640181771
 30
0.0
 11
191.9239238112496
 21
216.6766640181771
 31
0.0
  0
LINE
  5
37AA
330
37A2
100
AcDbEntity
  8
AM_0N
100
AcDbLine
 10
191.9239238112496
 20
216.6766640181771
 30
0.0
 11
188.1711470615165
 21
223.1766640181771
 31
0.0
  0
LINE
  5
37AB
330
37A2
100
AcDbEntity
  8
AM_0N
100
AcDbLine
 10
188.1711470615165
 20
223.1766640181771
 30
0.0
 11
180.6655935620519
 21
223.1766640181771
 31
0.0
  0
LINE
  5
37AC
330
37A2
100
AcDbEntity
  8
AM_7N
  6
AM_ISO08W050x2
100
AcDbLine
 10
194.9239238112496
 20
216.6766640181771
 30
0.0
 11
173.9128168123193
 21
216.6766640181771
 31
0.0
  0
LINE
  5
37AD
330
37A2
100
AcDbEntity
  8
AM_7N
  6
AM_ISO08W050x2
100
AcDbLine
 10
184.4183703117845
 20
227.1822175176422
 30
0.0
 11
184.4183703117845
 21
206.171110518712
 31
0.0
  0
ENDBLK
  5
37AF
330
37A2
100
AcDbEntity
  8
0
100
AcDbBlockEnd
  0
BLOCK
  5
37BD
330
37B1
100
AcDbEntity
  8
0
100
AcDbBlockBegin
  2
*U40
 70
     1
 10
0.0
 20
0.0
 30
0.0
  3
*U40
  1

  0
CIRCLE
  5
37B2
330
37B1
100
AcDbEntity
  8
AM_0N
100
AcDbCircle
 10
150.3695336247208
 20
298.8778269433595
 30
0.0
 40
5.799999999999999
  0
ARC
  5
37B3
330
37B1
100
AcDbEntity
  8
AM_4N
100
AcDbCircle
 10
150.3695336247208
 20
298.8778269433595
 30
0.0
 40
4.0
100
AcDbArc
 50
170.0
 51
80.00000000000001
  0
CIRCLE
  5
37B4
330
37B1
100
AcDbEntity
  8
AM_0N
100
AcDbCircle
 10
150.3695336247208
 20
298.8778269433595
 30
0.0
 40
3.323417653293459
  0
LINE
  5
37B5
330
37B1
100
AcDbEntity
  8
AM_0N
100
AcDbLine
 10
146.6167568749882
 20
305.3778269433594
 30
0.0
 11
142.8639801252556
 21
298.8778269433592
 31
0.0
  0
LINE
  5
37B6
330
37B1
100
AcDbEntity
  8
AM_0N
100
AcDbLine
 10
142.8639801252556
 20
298.8778269433592
 30
0.0
 11
146.6167568749884
 21
292.3778269433594
 31
0.0
  0
LINE
  5
37B7
330
37B1
100
AcDbEntity
  8
AM_0N
100
AcDbLine
 10
146.6167568749884
 20
292.3778269433594
 30
0.0
 11
154.1223103744534
 21
292.3778269433594
 31
0.0
  0
LINE
  5
37B8
330
37B1
100
AcDbEntity
  8
AM_0N
100
AcDbLine
 10
154.1223103744534
 20
292.3778269433594
 30
0.0
 11
157.8750871241859
 21
298.8778269433595
 31
0.0
  0
LINE
  5
37B9
330
37B1
100
AcDbEntity
  8
AM_0N
100
AcDbLine
 10
157.8750871241859
 20
298.8778269433595
 30
0.0
 11
154.1223103744529
 21
305.3778269433594
 31
0.0
  0
LINE
  5
37BA
330
37B1
100
AcDbEntity
  8
AM_0N
100
AcDbLine
 10
154.1223103744529
 20
305.3778269433594
 30
0.0
 11
146.6167568749882
 21
305.3778269433594
 31
0.0
  0
LINE
  5
37BB
330
37B1
100
AcDbEntity
  8
AM_7N
  6
AM_ISO08W050x2
100
AcDbLine
 10
160.8750871241859
 20
298.8778269433595
 30
0.0
 11
139.8639801252557
 21
298.8778269433595
 31
0.0
  0
LINE
  5
37BC
330
37B1
100
AcDbEntity
  8
AM_7N
  6
AM_ISO08W050x2
100
AcDbLine
 10
150.3695336247208
 20
309.3833804428245
 30
0.0
 11
150.3695336247208
 21
288.3722734438943
 31
0.0
  0
ENDBLK
  5
37BE
330
37B1
100
AcDbEntity
  8
0
100
AcDbBlockEnd
  0
BLOCK
  5
37CC
330
37C0
100
AcDbEntity
  8
0
100
AcDbBlockBegin
  2
*U41
 70
     1
 10
0.0
 20
0.0
 30
0.0
  3
*U41
  1

  0
CIRCLE
  5
37C1
330
37C0
100
AcDbEntity
  8
AM_0N
100
AcDbCircle
 10
348.8206969376567
 20
216.6766630929485
 30
0.0
 40
5.799999999999999
  0
ARC
  5
37C2
330
37C0
100
AcDbEntity
  8
AM_4N
100
AcDbCircle
 10
348.8206969376567
 20
216.6766630929485
 30
0.0
 40
4.0
100
AcDbArc
 50
170.0
 51
80.00000000000001
  0
CIRCLE
  5
37C3
330
37C0
100
AcDbEntity
  8
AM_0N
100
AcDbCircle
 10
348.8206969376567
 20
216.6766630929485
 30
0.0
 40
3.323417653293459
  0
LINE
  5
37C4
330
37C0
100
AcDbEntity
  8
AM_0N
100
AcDbLine
 10
345.0679201879242
 20
223.1766630929485
 30
0.0
 11
341.3151434381915
 21
216.6766630929483
 31
0.0
  0
LINE
  5
37C5
330
37C0
100
AcDbEntity
  8
AM_0N
100
AcDbLine
 10
341.3151434381915
 20
216.6766630929483
 30
0.0
 11
345.0679201879244
 21
210.1766630929485
 31
0.0
  0
LINE
  5
37C6
330
37C0
100
AcDbEntity
  8
AM_0N
100
AcDbLine
 10
345.0679201879244
 20
210.1766630929485
 30
0.0
 11
352.5734736873893
 21
210.1766630929485
 31
0.0
  0
LINE
  5
37C7
330
37C0
100
AcDbEntity
  8
AM_0N
100
AcDbLine
 10
352.5734736873893
 20
210.1766630929485
 30
0.0
 11
356.3262504371219
 21
216.6766630929485
 31
0.0
  0
LINE
  5
37C8
330
37C0
100
AcDbEntity
  8
AM_0N
100
AcDbLine
 10
356.3262504371219
 20
216.6766630929485
 30
0.0
 11
352.5734736873888
 21
223.1766630929485
 31
0.0
  0
LINE
  5
37C9
330
37C0
100
AcDbEntity
  8
AM_0N
100
AcDbLine
 10
352.5734736873888
 20
223.1766630929485
 30
0.0
 11
345.0679201879242
 21
223.1766630929485
 31
0.0
  0
LINE
  5
37CA
330
37C0
100
AcDbEntity
  8
AM_7N
  6
AM_ISO08W050x2
100
AcDbLine
 10
359.3262504371219
 20
216.6766630929485
 30
0.0
 11
338.3151434381916
 21
216.6766630929485
 31
0.0
  0
LINE
  5
37CB
330
37C0
100
AcDbEntity
  8
AM_7N
  6
AM_ISO08W050x2
100
AcDbLine
 10
348.8206969376567
 20
227.1822165924136
 30
0.0
 11
348.8206969376567
 21
206.1711095934834
 31
0.0
  0
ENDBLK
  5
37CD
330
37C0
100
AcDbEntity
  8
0
100
AcDbBlockEnd
  0
BLOCK
  5
37DB
330
37CF
100
AcDbEntity
  8
0
100
AcDbBlockBegin
  2
*U42
 70
     1
 10
0.0
 20
0.0
 30
0.0
  3
*U42
  1

  0
CIRCLE
  5
37D0
330
37CF
100
AcDbEntity
  8
AM_0N
100
AcDbCircle
 10
382.8695336247208
 20
298.8778269433595
 30
0.0
 40
5.799999999999999
  0
ARC
  5
37D1
330
37CF
100
AcDbEntity
  8
AM_4N
100
AcDbCircle
 10
382.8695336247208
 20
298.8778269433595
 30
0.0
 40
4.0
100
AcDbArc
 50
170.0
 51
80.00000000000001
  0
CIRCLE
  5
37D2
330
37CF
100
AcDbEntity
  8
AM_0N
100
AcDbCircle
 10
382.8695336247208
 20
298.8778269433595
 30
0.0
 40
3.323417653293459
  0
LINE
  5
37D3
330
37CF
100
AcDbEntity
  8
AM_0N
100
AcDbLine
 10
379.1167568749882
 20
305.3778269433595
 30
0.0
 11
375.3639801252556
 21
298.8778269433593
 31
0.0
  0
LINE
  5
37D4
330
37CF
100
AcDbEntity
  8
AM_0N
100
AcDbLine
 10
375.3639801252556
 20
298.8778269433593
 30
0.0
 11
379.1167568749885
 21
292.3778269433595
 31
0.0
  0
LINE
  5
37D5
330
37CF
100
AcDbEntity
  8
AM_0N
100
AcDbLine
 10
379.1167568749885
 20
292.3778269433595
 30
0.0
 11
386.6223103744534
 21
292.3778269433595
 31
0.0
  0
LINE
  5
37D6
330
37CF
100
AcDbEntity
  8
AM_0N
100
AcDbLine
 10
386.6223103744534
 20
292.3778269433595
 30
0.0
 11
390.3750871241859
 21
298.8778269433595
 31
0.0
  0
LINE
  5
37D7
330
37CF
100
AcDbEntity
  8
AM_0N
100
AcDbLine
 10
390.3750871241859
 20
298.8778269433595
 30
0.0
 11
386.6223103744529
 21
305.3778269433595
 31
0.0
  0
LINE
  5
37D8
330
37CF
100
AcDbEntity
  8
AM_0N
100
AcDbLine
 10
386.6223103744529
 20
305.3778269433595
 30
0.0
 11
379.1167568749882
 21
305.3778269433595
 31
0.0
  0
LINE
  5
37D9
330
37CF
100
AcDbEntity
  8
AM_7N
  6
AM_ISO08W050x2
100
AcDbLine
 10
393.3750871241859
 20
298.8778269433595
 30
0.0
 11
372.3639801252557
 21
298.8778269433595
 31
0.0
  0
LINE
  5
37DA
330
37CF
100
AcDbEntity
  8
AM_7N
  6
AM_ISO08W050x2
100
AcDbLine
 10
382.8695336247208
 20
309.3833804428247
 30
0.0
 11
382.8695336247208
 21
288.3722734438944
 31
0.0
  0
ENDBLK
  5
37DC
330
37CF
100
AcDbEntity
  8
0
100
AcDbBlockEnd
  0
BLOCK
  5
37EA
330
37DE
100
AcDbEntity
  8
0
100
AcDbBlockBegin
  2
*U43
 70
     1
 10
0.0
 20
0.0
 30
0.0
  3
*U43
  1

  0
CIRCLE
  5
37DF
330
37DE
100
AcDbEntity
  8
AM_0N
100
AcDbCircle
 10
348.8206960738374
 20
381.0789902562958
 30
0.0
 40
5.799999999999999
  0
ARC
  5
37E0
330
37DE
100
AcDbEntity
  8
AM_4N
100
AcDbCircle
 10
348.8206960738374
 20
381.0789902562958
 30
0.0
 40
4.0
100
AcDbArc
 50
170.0
 51
80.00000000000001
  0
CIRCLE
  5
37E1
330
37DE
100
AcDbEntity
  8
AM_0N
100
AcDbCircle
 10
348.8206960738374
 20
381.0789902562958
 30
0.0
 40
3.323417653293459
  0
LINE
  5
37E2
330
37DE
100
AcDbEntity
  8
AM_0N
100
AcDbLine
 10
345.0679193241049
 20
387.5789902562958
 30
0.0
 11
341.3151425743722
 21
381.0789902562956
 31
0.0
  0
LINE
  5
37E3
330
37DE
100
AcDbEntity
  8
AM_0N
100
AcDbLine
 10
341.3151425743722
 20
381.0789902562956
 30
0.0
 11
345.0679193241051
 21
374.5789902562958
 31
0.0
  0
LINE
  5
37E4
330
37DE
100
AcDbEntity
  8
AM_0N
100
AcDbLine
 10
345.0679193241051
 20
374.5789902562958
 30
0.0
 11
352.57347282357
 21
374.5789902562958
 31
0.0
  0
LINE
  5
37E5
330
37DE
100
AcDbEntity
  8
AM_0N
100
AcDbLine
 10
352.57347282357
 20
374.5789902562958
 30
0.0
 11
356.3262495733026
 21
381.0789902562958
 31
0.0
  0
LINE
  5
37E6
330
37DE
100
AcDbEntity
  8
AM_0N
100
AcDbLine
 10
356.3262495733026
 20
381.0789902562958
 30
0.0
 11
352.5734728235696
 21
387.5789902562958
 31
0.0
  0
LINE
  5
37E7
330
37DE
100
AcDbEntity
  8
AM_0N
100
AcDbLine
 10
352.5734728235696
 20
387.5789902562958
 30
0.0
 11
345.0679193241049
 21
387.5789902562958
 31
0.0
  0
LINE
  5
37E8
330
37DE
100
AcDbEntity
  8
AM_7N
  6
AM_ISO08W050x2
100
AcDbLine
 10
359.3262495733025
 20
381.0789902562958
 30
0.0
 11
338.3151425743723
 21
381.0789902562958
 31
0.0
  0
LINE
  5
37E9
330
37DE
100
AcDbEntity
  8
AM_7N
  6
AM_ISO08W050x2
100
AcDbLine
 10
348.8206960738374
 20
391.5845437557609
 30
0.0
 11
348.8206960738374
 21
370.5734367568307
 31
0.0
  0
ENDBLK
  5
37EB
330
37DE
100
AcDbEntity
  8
0
100
AcDbBlockEnd
  0
BLOCK
  5
37F9
330
37ED
100
AcDbEntity
  8
0
100
AcDbBlockBegin
  2
*U44
 70
     1
 10
0.0
 20
0.0
 30
0.0
  3
*U44
  1

  0
CIRCLE
  5
37EE
330
37ED
100
AcDbEntity
  8
AM_0N
100
AcDbCircle
 10
266.6195331621064
 20
415.1278268684989
 30
0.0
 40
5.799999999999999
  0
ARC
  5
37EF
330
37ED
100
AcDbEntity
  8
AM_4N
100
AcDbCircle
 10
266.6195331621064
 20
415.1278268684989
 30
0.0
 40
4.0
100
AcDbArc
 50
170.0
 51
80.00000000000001
  0
CIRCLE
  5
37F0
330
37ED
100
AcDbEntity
  8
AM_0N
100
AcDbCircle
 10
266.6195331621064
 20
415.1278268684989
 30
0.0
 40
3.323417653293459
  0
LINE
  5
37F1
330
37ED
100
AcDbEntity
  8
AM_0N
100
AcDbLine
 10
262.8667564123738
 20
421.6278268684988
 30
0.0
 11
259.1139796626411
 21
415.1278268684986
 31
0.0
  0
LINE
  5
37F2
330
37ED
100
AcDbEntity
  8
AM_0N
100
AcDbLine
 10
259.1139796626411
 20
415.1278268684986
 30
0.0
 11
262.866756412374
 21
408.6278268684989
 31
0.0
  0
LINE
  5
37F3
330
37ED
100
AcDbEntity
  8
AM_0N
100
AcDbLine
 10
262.866756412374
 20
408.6278268684989
 30
0.0
 11
270.3723099118389
 21
408.6278268684989
 31
0.0
  0
LINE
  5
37F4
330
37ED
100
AcDbEntity
  8
AM_0N
100
AcDbLine
 10
270.3723099118389
 20
408.6278268684989
 30
0.0
 11
274.1250866615715
 21
415.1278268684989
 31
0.0
  0
LINE
  5
37F5
330
37ED
100
AcDbEntity
  8
AM_0N
100
AcDbLine
 10
274.1250866615715
 20
415.1278268684989
 30
0.0
 11
270.3723099118384
 21
421.6278268684988
 31
0.0
  0
LINE
  5
37F6
330
37ED
100
AcDbEntity
  8
AM_0N
100
AcDbLine
 10
270.3723099118384
 20
421.6278268684988
 30
0.0
 11
262.8667564123738
 21
421.6278268684988
 31
0.0
  0
LINE
  5
37F7
330
37ED
100
AcDbEntity
  8
AM_7N
  6
AM_ISO08W050x2
100
AcDbLine
 10
277.1250866615714
 20
415.1278268684989
 30
0.0
 11
256.1139796626412
 21
415.1278268684989
 31
0.0
  0
LINE
  5
37F8
330
37ED
100
AcDbEntity
  8
AM_7N
  6
AM_ISO08W050x2
100
AcDbLine
 10
266.6195331621064
 20
425.633380367964
 30
0.0
 11
266.6195331621064
 21
404.6222733690338
 31
0.0
  0
ENDBLK
  5
37FA
330
37ED
100
AcDbEntity
  8
0
100
AcDbBlockEnd
  0
BLOCK
  5
3808
330
37FC
100
AcDbEntity
  8
0
100
AcDbBlockBegin
  2
*U45
 70
     1
 10
0.0
 20
0.0
 30
0.0
  3
*U45
  1

  0
CIRCLE
  5
37FD
330
37FC
100
AcDbEntity
  8
AM_0N
100
AcDbCircle
 10
184.418370549817
 20
381.0789902562957
 30
0.0
 40
5.799999999999999
  0
ARC
  5
37FE
330
37FC
100
AcDbEntity
  8
AM_4N
100
AcDbCircle
 10
184.418370549817
 20
381.0789902562957
 30
0.0
 40
4.0
100
AcDbArc
 50
170.0
 51
80.00000000000001
  0
CIRCLE
  5
37FF
330
37FC
100
AcDbEntity
  8
AM_0N
100
AcDbCircle
 10
184.418370549817
 20
381.0789902562957
 30
0.0
 40
3.323417653293459
  0
LINE
  5
3800
330
37FC
100
AcDbEntity
  8
AM_0N
100
AcDbLine
 10
180.6655938000845
 20
387.5789902562957
 30
0.0
 11
176.9128170503518
 21
381.0789902562955
 31
0.0
  0
LINE
  5
3801
330
37FC
100
AcDbEntity
  8
AM_0N
100
AcDbLine
 10
176.9128170503518
 20
381.0789902562955
 30
0.0
 11
180.6655938000847
 21
374.5789902562957
 31
0.0
  0
LINE
  5
3802
330
37FC
100
AcDbEntity
  8
AM_0N
100
AcDbLine
 10
180.6655938000847
 20
374.5789902562957
 30
0.0
 11
188.1711472995496
 21
374.5789902562957
 31
0.0
  0
LINE
  5
3803
330
37FC
100
AcDbEntity
  8
AM_0N
100
AcDbLine
 10
188.1711472995496
 20
374.5789902562957
 30
0.0
 11
191.9239240492821
 21
381.0789902562957
 31
0.0
  0
LINE
  5
3804
330
37FC
100
AcDbEntity
  8
AM_0N
100
AcDbLine
 10
191.9239240492821
 20
381.0789902562957
 30
0.0
 11
188.1711472995491
 21
387.5789902562957
 31
0.0
  0
LINE
  5
3805
330
37FC
100
AcDbEntity
  8
AM_0N
100
AcDbLine
 10
188.1711472995491
 20
387.5789902562957
 30
0.0
 11
180.6655938000845
 21
387.5789902562957
 31
0.0
  0
LINE
  5
3806
330
37FC
100
AcDbEntity
  8
AM_7N
  6
AM_ISO08W050x2
100
AcDbLine
 10
194.9239240492821
 20
381.0789902562957
 30
0.0
 11
173.9128170503519
 21
381.0789902562957
 31
0.0
  0
LINE
  5
3807
330
37FC
100
AcDbEntity
  8
AM_7N
  6
AM_ISO08W050x2
100
AcDbLine
 10
184.418370549817
 20
391.5845437557608
 30
0.0
 11
184.418370549817
 21
370.5734367568306
 31
0.0
  0
ENDBLK
  5
3809
330
37FC
100
AcDbEntity
  8
0
100
AcDbBlockEnd
  0
BLOCK
  5
381D
330
380B
100
AcDbEntity
  8
0
100
AcDbBlockBegin
  2
*U46
 70
     1
 10
0.0
 20
0.0
 30
0.0
  3
*U46
  1

  0
ARC
  5
380C
330
380B
100
AcDbEntity
  8
AM_0N
100
AcDbCircle
 10
377.2389083971483
 20
707.3159371484986
 30
0.0
 40
3.318843022839323
100
AcDbArc
 50
55.56153059526793
 51
115.5615305952689
  0
ARC
  5
380D
330
380B
100
AcDbEntity
  8
AM_0N
100
AcDbCircle
 10
377.2389083971483
 20
707.9619135710427
 30
0.0
 40
3.318843022839323
100
AcDbArc
 50
244.438469404731
 51
304.4384694047321
  0
LINE
  5
380E
330
380B
100
AcDbEntity
  8
AM_0N
100
AcDbLine
 10
377.0695333971484
 20
711.0389253597706
 30
0.0
 11
388.6695333971484
 21
711.0389253597706
 31
0.0
  0
LINE
  5
380F
330
380B
100
AcDbEntity
  8
AM_0N
100
AcDbLine
 10
377.0695333971484
 20
704.2389253597706
 30
0.0
 11
388.6695333971484
 21
704.2389253597706
 31
0.0
  0
ARC
  5
3810
330
380B
100
AcDbEntity
  8
AM_0N
100
AcDbCircle
 10
388.5001583971484
 20
707.3159371484985
 30
0.0
 40
3.318843022839353
100
AcDbArc
 50
64.43846940473163
 51
124.4384694047317
  0
ARC
  5
3811
330
380B
100
AcDbEntity
  8
AM_0N
100
AcDbCircle
 10
382.8695333971483
 20
698.2319286742933
 30
0.0
 40
12.40285149704447
100
AcDbArc
 50
72.38303115961314
 51
107.6169688403868
  0
ARC
  5
3812
330
380B
100
AcDbEntity
  8
AM_0N
100
AcDbCircle
 10
382.8695333971483
 20
717.0459220452478
 30
0.0
 40
12.40285149704446
100
AcDbArc
 50
252.3830311596131
 51
287.6169688403868
  0
ARC
  5
3813
330
380B
100
AcDbEntity
  8
AM_0N
100
AcDbCircle
 10
388.5001583971484
 20
707.9619135710427
 30
0.0
 40
3.318843022839323
100
AcDbArc
 50
235.561530595268
 51
295.5615305952697
  0
LINE
  5
3814
330
380B
100
AcDbEntity
  8
AM_0N
100
AcDbLine
 10
390.3770333971483
 20
710.0530997751293
 30
0.0
 11
388.6695333971484
 21
711.0389253597706
 31
0.0
  0
LINE
  5
3815
330
380B
100
AcDbEntity
  8
AM_7N
  6
AM_ISO08W050x2
100
AcDbLine
 10
382.8695333971483
 20
701.2389253597706
 30
0.0
 11
382.8695333971483
 21
714.0389253597706
 31
0.0
  0
LINE
  5
3816
330
380B
100
AcDbEntity
  8
AM_0N
100
AcDbLine
 10
379.1157833971483
 20
705.2247509444119
 30
0.0
 11
379.1157833971483
 21
710.0530997751293
 31
0.0
  0
LINE
  5
3817
330
380B
100
AcDbEntity
  8
AM_0N
100
AcDbLine
 10
390.3770333971483
 20
705.2247509444119
 30
0.0
 11
388.6695333971484
 21
704.2389253597706
 31
0.0
  0
LINE
  5
3818
330
380B
100
AcDbEntity
  8
AM_0N
100
AcDbLine
 10
390.3770333971483
 20
705.2247509444119
 30
0.0
 11
390.3770333971483
 21
710.0530997751293
 31
0.0
  0
LINE
  5
3819
330
380B
100
AcDbEntity
  8
AM_0N
100
AcDbLine
 10
386.6232833971484
 20
705.2247509444119
 30
0.0
 11
386.6232833971484
 21
710.0530997751293
 31
0.0
  0
LINE
  5
381A
330
380B
100
AcDbEntity
  8
AM_0N
100
AcDbLine
 10
375.3620333971483
 20
710.0530997751293
 30
0.0
 11
377.0695333971484
 21
711.0389253597706
 31
0.0
  0
LINE
  5
381B
330
380B
100
AcDbEntity
  8
AM_0N
100
AcDbLine
 10
375.3620333971483
 20
705.2247509444119
 30
0.0
 11
377.0695333971484
 21
704.2389253597706
 31
0.0
  0
LINE
  5
381C
330
380B
100
AcDbEntity
  8
AM_0N
100
AcDbLine
 10
375.3620333971483
 20
705.2247509444119
 30
0.0
 11
375.3620333971483
 21
710.0530997751293
 31
0.0
  0
ENDBLK
  5
381E
330
380B
100
AcDbEntity
  8
0
100
AcDbBlockEnd
  0
BLOCK
  5
3832
330
3820
100
AcDbEntity
  8
0
100
AcDbBlockBegin
  2
*U47
 70
     1
 10
0.0
 20
0.0
 30
0.0
  3
*U47
  1

  0
ARC
  5
3821
330
3820
100
AcDbEntity
  8
AM_0N
100
AcDbCircle
 10
343.1900708462652
 20
707.3159371484986
 30
0.0
 40
3.318843022839323
100
AcDbArc
 50
55.56153059526793
 51
115.5615305952689
  0
ARC
  5
3822
330
3820
100
AcDbEntity
  8
AM_0N
100
AcDbCircle
 10
343.1900708462652
 20
707.9619135710427
 30
0.0
 40
3.318843022839323
100
AcDbArc
 50
244.438469404731
 51
304.4384694047321
  0
LINE
  5
3823
330
3820
100
AcDbEntity
  8
AM_0N
100
AcDbLine
 10
343.0206958462652
 20
711.0389253597706
 30
0.0
 11
354.6206958462652
 21
711.0389253597706
 31
0.0
  0
LINE
  5
3824
330
3820
100
AcDbEntity
  8
AM_0N
100
AcDbLine
 10
343.0206958462652
 20
704.2389253597706
 30
0.0
 11
354.6206958462652
 21
704.2389253597706
 31
0.0
  0
ARC
  5
3825
330
3820
100
AcDbEntity
  8
AM_0N
100
AcDbCircle
 10
354.4513208462652
 20
707.3159371484985
 30
0.0
 40
3.318843022839353
100
AcDbArc
 50
64.43846940473163
 51
124.4384694047317
  0
ARC
  5
3826
330
3820
100
AcDbEntity
  8
AM_0N
100
AcDbCircle
 10
348.8206958462652
 20
698.2319286742933
 30
0.0
 40
12.40285149704447
100
AcDbArc
 50
72.38303115961314
 51
107.6169688403868
  0
ARC
  5
3827
330
3820
100
AcDbEntity
  8
AM_0N
100
AcDbCircle
 10
348.8206958462652
 20
717.0459220452478
 30
0.0
 40
12.40285149704446
100
AcDbArc
 50
252.3830311596131
 51
287.6169688403868
  0
ARC
  5
3828
330
3820
100
AcDbEntity
  8
AM_0N
100
AcDbCircle
 10
354.4513208462652
 20
707.9619135710427
 30
0.0
 40
3.318843022839323
100
AcDbArc
 50
235.561530595268
 51
295.5615305952697
  0
LINE
  5
3829
330
3820
100
AcDbEntity
  8
AM_0N
100
AcDbLine
 10
356.3281958462652
 20
710.0530997751293
 30
0.0
 11
354.6206958462652
 21
711.0389253597706
 31
0.0
  0
LINE
  5
382A
330
3820
100
AcDbEntity
  8
AM_7N
  6
AM_ISO08W050x2
100
AcDbLine
 10
348.8206958462652
 20
701.2389253597706
 30
0.0
 11
348.8206958462652
 21
714.0389253597706
 31
0.0
  0
LINE
  5
382B
330
3820
100
AcDbEntity
  8
AM_0N
100
AcDbLine
 10
345.0669458462652
 20
705.2247509444119
 30
0.0
 11
345.0669458462652
 21
710.0530997751293
 31
0.0
  0
LINE
  5
382C
330
3820
100
AcDbEntity
  8
AM_0N
100
AcDbLine
 10
356.3281958462652
 20
705.2247509444119
 30
0.0
 11
354.6206958462652
 21
704.2389253597706
 31
0.0
  0
LINE
  5
382D
330
3820
100
AcDbEntity
  8
AM_0N
100
AcDbLine
 10
356.3281958462652
 20
705.2247509444119
 30
0.0
 11
356.3281958462652
 21
710.0530997751293
 31
0.0
  0
LINE
  5
382E
330
3820
100
AcDbEntity
  8
AM_0N
100
AcDbLine
 10
352.5744458462652
 20
705.2247509444119
 30
0.0
 11
352.5744458462652
 21
710.0530997751293
 31
0.0
  0
LINE
  5
382F
330
3820
100
AcDbEntity
  8
AM_0N
100
AcDbLine
 10
341.3131958462652
 20
710.0530997751293
 30
0.0
 11
343.0206958462652
 21
711.0389253597706
 31
0.0
  0
LINE
  5
3830
330
3820
100
AcDbEntity
  8
AM_0N
100
AcDbLine
 10
341.3131958462652
 20
705.2247509444119
 30
0.0
 11
343.0206958462652
 21
704.2389253597706
 31
0.0
  0
LINE
  5
3831
330
3820
100
AcDbEntity
  8
AM_0N
100
AcDbLine
 10
341.3131958462652
 20
705.2247509444119
 30
0.0
 11
341.3131958462652
 21
710.0530997751293
 31
0.0
  0
ENDBLK
  5
3833
330
3820
100
AcDbEntity
  8
0
100
AcDbBlockEnd
  0
BLOCK
  5
3847
330
3835
100
AcDbEntity
  8
0
100
AcDbBlockBegin
  2
*U48
 70
     1
 10
0.0
 20
0.0
 30
0.0
  3
*U48
  1

  0
ARC
  5
3836
330
3835
100
AcDbEntity
  8
AM_0N
100
AcDbCircle
 10
260.9889083971484
 20
707.3159371484986
 30
0.0
 40
3.318843022839323
100
AcDbArc
 50
55.56153059526793
 51
115.5615305952689
  0
ARC
  5
3837
330
3835
100
AcDbEntity
  8
AM_0N
100
AcDbCircle
 10
260.9889083971484
 20
707.9619135710427
 30
0.0
 40
3.318843022839323
100
AcDbArc
 50
244.438469404731
 51
304.4384694047321
  0
LINE
  5
3838
330
3835
100
AcDbEntity
  8
AM_0N
100
AcDbLine
 10
260.8195333971484
 20
711.0389253597706
 30
0.0
 11
272.4195333971484
 21
711.0389253597706
 31
0.0
  0
LINE
  5
3839
330
3835
100
AcDbEntity
  8
AM_0N
100
AcDbLine
 10
260.8195333971484
 20
704.2389253597706
 30
0.0
 11
272.4195333971484
 21
704.2389253597706
 31
0.0
  0
ARC
  5
383A
330
3835
100
AcDbEntity
  8
AM_0N
100
AcDbCircle
 10
272.2501583971484
 20
707.3159371484985
 30
0.0
 40
3.318843022839353
100
AcDbArc
 50
64.43846940473163
 51
124.4384694047317
  0
ARC
  5
383B
330
3835
100
AcDbEntity
  8
AM_0N
100
AcDbCircle
 10
266.6195333971484
 20
698.2319286742933
 30
0.0
 40
12.40285149704447
100
AcDbArc
 50
72.38303115961314
 51
107.6169688403868
  0
ARC
  5
383C
330
3835
100
AcDbEntity
  8
AM_0N
100
AcDbCircle
 10
266.6195333971484
 20
717.0459220452478
 30
0.0
 40
12.40285149704446
100
AcDbArc
 50
252.3830311596131
 51
287.6169688403868
  0
ARC
  5
383D
330
3835
100
AcDbEntity
  8
AM_0N
100
AcDbCircle
 10
272.2501583971484
 20
707.9619135710427
 30
0.0
 40
3.318843022839323
100
AcDbArc
 50
235.561530595268
 51
295.5615305952697
  0
LINE
  5
383E
330
3835
100
AcDbEntity
  8
AM_0N
100
AcDbLine
 10
274.1270333971484
 20
710.0530997751293
 30
0.0
 11
272.4195333971484
 21
711.0389253597706
 31
0.0
  0
LINE
  5
383F
330
3835
100
AcDbEntity
  8
AM_7N
  6
AM_ISO08W050x2
100
AcDbLine
 10
266.6195333971484
 20
701.2389253597706
 30
0.0
 11
266.6195333971484
 21
714.0389253597706
 31
0.0
  0
LINE
  5
3840
330
3835
100
AcDbEntity
  8
AM_0N
100
AcDbLine
 10
262.8657833971484
 20
705.2247509444119
 30
0.0
 11
262.8657833971484
 21
710.0530997751293
 31
0.0
  0
LINE
  5
3841
330
3835
100
AcDbEntity
  8
AM_0N
100
AcDbLine
 10
274.1270333971484
 20
705.2247509444119
 30
0.0
 11
272.4195333971484
 21
704.2389253597706
 31
0.0
  0
LINE
  5
3842
330
3835
100
AcDbEntity
  8
AM_0N
100
AcDbLine
 10
274.1270333971484
 20
705.2247509444119
 30
0.0
 11
274.1270333971484
 21
710.0530997751293
 31
0.0
  0
LINE
  5
3843
330
3835
100
AcDbEntity
  8
AM_0N
100
AcDbLine
 10
270.3732833971484
 20
705.2247509444119
 30
0.0
 11
270.3732833971484
 21
710.0530997751293
 31
0.0
  0
LINE
  5
3844
330
3835
100
AcDbEntity
  8
AM_0N
100
AcDbLine
 10
259.1120333971484
 20
710.0530997751293
 30
0.0
 11
260.8195333971484
 21
711.0389253597706
 31
0.0
  0
LINE
  5
3845
330
3835
100
AcDbEntity
  8
AM_0N
100
AcDbLine
 10
259.1120333971484
 20
705.2247509444119
 30
0.0
 11
260.8195333971484
 21
704.2389253597706
 31
0.0
  0
LINE
  5
3846
330
3835
100
AcDbEntity
  8
AM_0N
100
AcDbLine
 10
259.1120333971484
 20
705.2247509444119
 30
0.0
 11
259.1120333971484
 21
710.0530997751293
 31
0.0
  0
ENDBLK
  5
3848
330
3835
100
AcDbEntity
  8
0
100
AcDbBlockEnd
  0
BLOCK
  5
385C
330
384A
100
AcDbEntity
  8
0
100
AcDbBlockBegin
  2
*U49
 70
     1
 10
0.0
 20
0.0
 30
0.0
  3
*U49
  1

  0
ARC
  5
384B
330
384A
100
AcDbEntity
  8
AM_0N
100
AcDbCircle
 10
178.7877450842123
 20
707.3159371484986
 30
0.0
 40
3.318843022839323
100
AcDbArc
 50
55.56153059526793
 51
115.5615305952689
  0
ARC
  5
384C
330
384A
100
AcDbEntity
  8
AM_0N
100
AcDbCircle
 10
178.7877450842123
 20
707.9619135710427
 30
0.0
 40
3.318843022839323
100
AcDbArc
 50
244.438469404731
 51
304.4384694047321
  0
LINE
  5
384D
330
384A
100
AcDbEntity
  8
AM_0N
100
AcDbLine
 10
178.6183700842123
 20
711.0389253597706
 30
0.0
 11
190.2183700842123
 21
711.0389253597706
 31
0.0
  0
LINE
  5
384E
330
384A
100
AcDbEntity
  8
AM_0N
100
AcDbLine
 10
178.6183700842123
 20
704.2389253597706
 30
0.0
 11
190.2183700842123
 21
704.2389253597706
 31
0.0
  0
ARC
  5
384F
330
384A
100
AcDbEntity
  8
AM_0N
100
AcDbCircle
 10
190.0489950842123
 20
707.3159371484985
 30
0.0
 40
3.318843022839353
100
AcDbArc
 50
64.43846940473163
 51
124.4384694047317
  0
ARC
  5
3850
330
384A
100
AcDbEntity
  8
AM_0N
100
AcDbCircle
 10
184.4183700842123
 20
698.2319286742933
 30
0.0
 40
12.40285149704447
100
AcDbArc
 50
72.38303115961314
 51
107.6169688403868
  0
ARC
  5
3851
330
384A
100
AcDbEntity
  8
AM_0N
100
AcDbCircle
 10
184.4183700842123
 20
717.0459220452478
 30
0.0
 40
12.40285149704446
100
AcDbArc
 50
252.3830311596131
 51
287.6169688403868
  0
ARC
  5
3852
330
384A
100
AcDbEntity
  8
AM_0N
100
AcDbCircle
 10
190.0489950842123
 20
707.9619135710427
 30
0.0
 40
3.318843022839323
100
AcDbArc
 50
235.561530595268
 51
295.5615305952697
  0
LINE
  5
3853
330
384A
100
AcDbEntity
  8
AM_0N
100
AcDbLine
 10
191.9258700842123
 20
710.0530997751293
 30
0.0
 11
190.2183700842123
 21
711.0389253597706
 31
0.0
  0
LINE
  5
3854
330
384A
100
AcDbEntity
  8
AM_7N
  6
AM_ISO08W050x2
100
AcDbLine
 10
184.4183700842123
 20
701.2389253597706
 30
0.0
 11
184.4183700842123
 21
714.0389253597706
 31
0.0
  0
LINE
  5
3855
330
384A
100
AcDbEntity
  8
AM_0N
100
AcDbLine
 10
180.6646200842123
 20
705.2247509444119
 30
0.0
 11
180.6646200842123
 21
710.0530997751293
 31
0.0
  0
LINE
  5
3856
330
384A
100
AcDbEntity
  8
AM_0N
100
AcDbLine
 10
191.9258700842123
 20
705.2247509444119
 30
0.0
 11
190.2183700842123
 21
704.2389253597706
 31
0.0
  0
LINE
  5
3857
330
384A
100
AcDbEntity
  8
AM_0N
100
AcDbLine
 10
191.9258700842123
 20
705.2247509444119
 30
0.0
 11
191.9258700842123
 21
710.0530997751293
 31
0.0
  0
LINE
  5
3858
330
384A
100
AcDbEntity
  8
AM_0N
100
AcDbLine
 10
188.1721200842124
 20
705.2247509444119
 30
0.0
 11
188.1721200842124
 21
710.0530997751293
 31
0.0
  0
LINE
  5
3859
330
384A
100
AcDbEntity
  8
AM_0N
100
AcDbLine
 10
176.9108700842123
 20
710.0530997751293
 30
0.0
 11
178.6183700842123
 21
711.0389253597706
 31
0.0
  0
LINE
  5
385A
330
384A
100
AcDbEntity
  8
AM_0N
100
AcDbLine
 10
176.9108700842123
 20
705.2247509444119
 30
0.0
 11
178.6183700842123
 21
704.2389253597706
 31
0.0
  0
LINE
  5
385B
330
384A
100
AcDbEntity
  8
AM_0N
100
AcDbLine
 10
176.9108700842123
 20
705.2247509444119
 30
0.0
 11
176.9108700842123
 21
710.0530997751293
 31
0.0
  0
ENDBLK
  5
385D
330
384A
100
AcDbEntity
  8
0
100
AcDbBlockEnd
  0
BLOCK
  5
3871
330
385F
100
AcDbEntity
  8
0
100
AcDbBlockBegin
  2
*U50
 70
     1
 10
0.0
 20
0.0
 30
0.0
  3
*U50
  1

  0
ARC
  5
3860
330
385F
100
AcDbEntity
  8
AM_0N
100
AcDbCircle
 10
144.7389083971484
 20
707.3159371484986
 30
0.0
 40
3.318843022839323
100
AcDbArc
 50
55.56153059526793
 51
115.5615305952689
  0
ARC
  5
3861
330
385F
100
AcDbEntity
  8
AM_0N
100
AcDbCircle
 10
144.7389083971484
 20
707.9619135710427
 30
0.0
 40
3.318843022839323
100
AcDbArc
 50
244.438469404731
 51
304.4384694047321
  0
LINE
  5
3862
330
385F
100
AcDbEntity
  8
AM_0N
100
AcDbLine
 10
144.5695333971484
 20
711.0389253597706
 30
0.0
 11
156.1695333971484
 21
711.0389253597706
 31
0.0
  0
LINE
  5
3863
330
385F
100
AcDbEntity
  8
AM_0N
100
AcDbLine
 10
144.5695333971484
 20
704.2389253597706
 30
0.0
 11
156.1695333971484
 21
704.2389253597706
 31
0.0
  0
ARC
  5
3864
330
385F
100
AcDbEntity
  8
AM_0N
100
AcDbCircle
 10
156.0001583971484
 20
707.3159371484985
 30
0.0
 40
3.318843022839353
100
AcDbArc
 50
64.43846940473163
 51
124.4384694047317
  0
ARC
  5
3865
330
385F
100
AcDbEntity
  8
AM_0N
100
AcDbCircle
 10
150.3695333971484
 20
698.2319286742933
 30
0.0
 40
12.40285149704447
100
AcDbArc
 50
72.38303115961314
 51
107.6169688403868
  0
ARC
  5
3866
330
385F
100
AcDbEntity
  8
AM_0N
100
AcDbCircle
 10
150.3695333971484
 20
717.0459220452478
 30
0.0
 40
12.40285149704446
100
AcDbArc
 50
252.3830311596131
 51
287.6169688403868
  0
ARC
  5
3867
330
385F
100
AcDbEntity
  8
AM_0N
100
AcDbCircle
 10
156.0001583971484
 20
707.9619135710427
 30
0.0
 40
3.318843022839323
100
AcDbArc
 50
235.561530595268
 51
295.5615305952697
  0
LINE
  5
3868
330
385F
100
AcDbEntity
  8
AM_0N
100
AcDbLine
 10
157.8770333971484
 20
710.0530997751293
 30
0.0
 11
156.1695333971484
 21
711.0389253597706
 31
0.0
  0
LINE
  5
3869
330
385F
100
AcDbEntity
  8
AM_7N
  6
AM_ISO08W050x2
100
AcDbLine
 10
150.3695333971484
 20
701.2389253597706
 30
0.0
 11
150.3695333971484
 21
714.0389253597706
 31
0.0
  0
LINE
  5
386A
330
385F
100
AcDbEntity
  8
AM_0N
100
AcDbLine
 10
146.6157833971484
 20
705.2247509444119
 30
0.0
 11
146.6157833971484
 21
710.0530997751293
 31
0.0
  0
LINE
  5
386B
330
385F
100
AcDbEntity
  8
AM_0N
100
AcDbLine
 10
157.8770333971484
 20
705.2247509444119
 30
0.0
 11
156.1695333971484
 21
704.2389253597706
 31
0.0
  0
LINE
  5
386C
330
385F
100
AcDbEntity
  8
AM_0N
100
AcDbLine
 10
157.8770333971484
 20
705.2247509444119
 30
0.0
 11
157.8770333971484
 21
710.0530997751293
 31
0.0
  0
LINE
  5
386D
330
385F
100
AcDbEntity
  8
AM_0N
100
AcDbLine
 10
154.1232833971484
 20
705.2247509444119
 30
0.0
 11
154.1232833971484
 21
710.0530997751293
 31
0.0
  0
LINE
  5
386E
330
385F
100
AcDbEntity
  8
AM_0N
100
AcDbLine
 10
142.8620333971484
 20
710.0530997751293
 30
0.0
 11
144.5695333971484
 21
711.0389253597706
 31
0.0
  0
LINE
  5
386F
330
385F
100
AcDbEntity
  8
AM_0N
100
AcDbLine
 10
142.8620333971484
 20
705.2247509444119
 30
0.0
 11
144.5695333971484
 21
704.2389253597706
 31
0.0
  0
LINE
  5
3870
330
385F
100
AcDbEntity
  8
AM_0N
100
AcDbLine
 10
142.8620333971484
 20
705.2247509444119
 30
0.0
 11
142.8620333971484
 21
710.0530997751293
 31
0.0
  0
ENDBLK
  5
3872
330
385F
100
AcDbEntity
  8
0
100
AcDbBlockEnd
  0
ENDSEC
  0
SECTION
  2
ENTITIES
  0
LINE
  5
B24
330
1F
100
AcDbEntity
  8
0
100
AcDbLine
 10
440.1342522504817
 20
698.6389249742886
 30
0.0
 11
100.6195336247206
 21
698.6389249742886
 31
0.0
  0
LINE
  5
B25
102
{ACAD_REACTORS
330
B52
330
3127
102
}
330
1F
100
AcDbEntity
  8
0
100
AcDbLine
 10
100.6195336247206
 20
698.6389249742886
 30
0.0
 11
100.6195336247206
 21
694.6389249742886
 31
0.0
  0
LINE
  5
B26
102
{ACAD_REACTORS
330
B44
330
B52
102
}
330
1F
100
AcDbEntity
  8
0
100
AcDbLine
 10
100.6195336247206
 20
694.6389249742886
 30
0.0
 11
440.1342522504817
 21
694.6389249742889
 31
0.0
  0
LINE
  5
B27
102
{ACAD_REACTORS
330
B31
102
}
330
1F
100
AcDbEntity
  8
0
100
AcDbLine
 10
444.376892937601
 20
700.3962842871691
 30
0.0
 11
516.8657456493078
 21
772.885136998876
 31
0.0
  0
ARC
  5
B28
102
{ACAD_REACTORS
330
36E9
102
}
330
1F
100
AcDbEntity
  8
0
100
AcDbCircle
 10
440.1342522504817
 20
704.6389249742884
 30
0.0
 40
6.0
100
AcDbArc
 50
270.0
 51
314.9999999999994
1001
GENIUS_GENODEF_13
1002
{
1000
HIER
1070
     0
1002
}
1002
{
1000
MANEDIT
1070
     0
1002
}
1002
{
1000
NOSEL
1070
     0
1002
}
1002
{
1000
BEHIND
1070
     0
1002
}
1002
{
1000
OTHER
1070
     0
1002
}
1002
{
1000
REACTOR
1002
}
1001
GENIUS_GENOBJ-N-FIL_13
1002
{
1000
OWNER
1000
GEN
1002
}
  0
LINE
  5
B29
102
{ACAD_REACTORS
330
B44
102
}
330
1F
100
AcDbEntity
  8
0
100
AcDbLine
 10
447.2053200623472
 20
697.5678571624233
 30
0.0
 11
519.6941727740541
 21
770.0567098741297
 31
0.0
  0
ARC
  5
B2A
330
1F
100
AcDbEntity
  8
0
100
AcDbCircle
 10
440.1342522504817
 20
704.6389249742889
 30
0.0
 40
10.0
100
AcDbArc
 50
270.0
 51
314.9999999999994
1001
GENIUS_GENODEF_13
1002
{
1000
HIER
1070
     0
1002
}
1002
{
1000
MANEDIT
1070
     0
1002
}
1002
{
1000
NOSEL
1070
     0
1002
}
1002
{
1000
BEHIND
1070
     0
1002
}
1002
{
1000
OTHER
1070
     0
1002
}
1002
{
1000
REACTOR
1002
}
1001
GENIUS_GENOBJ-N-FIL_13
1002
{
1000
OWNER
1000
GEN
1002
}
  0
LINE
  5
B2B
102
{ACAD_REACTORS
330
B31
102
}
330
1F
100
AcDbEntity
  8
0
100
AcDbLine
 10
516.8657456493076
 20
772.8851369988757
 30
0.0
 11
519.6941727740541
 21
770.0567098741297
 31
0.0
  0
LINE
  5
B2E
330
1F
100
AcDbEntity
  8
AM_7
  6
AM_ISO08W050x2
100
AcDbLine
 10
266.6195336247206
 20
691.6389249742886
 30
0.0
 11
266.6195336247206
 21
701.6389249742887
 31
0.0
1001
GENIUS_GENODEF_13
1002
{
1000
HIER
1070
     0
1002
}
1002
{
1000
MANEDIT
1070
     0
1002
}
1002
{
1000
NOSEL
1070
     0
1002
}
1002
{
1000
BEHIND
1070
     0
1002
}
1002
{
1000
OTHER
1070
     0
1002
}
1002
{
1000
REACTOR
1002
}
1001
GENIUS_GENOBJ-N-CEN_13
1002
{
1000
OWNER
1000
GEN
1002
}
1001
GENIUS_GENCEN_19
1002
{
1040
3.0
1002
}
  0
DIMENSION
  5
B2F
102
{ACAD_XDICTIONARY
360
B30
102
}
102
{ACAD_REACTORS
330
B31
102
}
330
1F
100
AcDbEntity
  8
AM_5
100
AcDbDimension
  2
*D5
 10
465.9295314132354
 20
823.8213512349478
 30
0.0
 11
424.0334546279329
 21
791.4712159956634
 31
0.0
 70
    33
 71
     5
 42
104.9999999999994
  3
AM_ISO$0
100
AcDbAlignedDimension
 13
442.6195336247205
 23
698.6389249742886
 33
0.0
 14
516.8657456493076
 24
772.8851369988757
 34
0.0
1001
ACAD
1000
DSTYLE
1002
{
1070
   140
1040
10.5
1002
}
  0
ARC
  5
B32
330
1F
100
AcDbEntity
  8
0
100
AcDbCircle
 10
266.6195336247206
 20
298.8778269433593
 30
0.0
 40
166.0
100
AcDbArc
 50
90.0
 51
270.0
  0
LINE
  5
B33
102
{ACAD_REACTORS
330
B4D
102
}
330
1F
100
AcDbEntity
  8
0
  6
HIDDEN
100
AcDbLine
 10
442.6195336247205
 20
464.8778269433592
 30
0.0
 11
442.6195336247205
 21
132.8778269433594
 31
0.0
  0
LINE
  5
B34
330
1F
100
AcDbEntity
  8
0
100
AcDbLine
 10
519.6941727740543
 20
454.8778269433593
 30
0.0
 11
519.6941727740541
 21
142.8778269433593
 31
0.0
  0
CIRCLE
  5
B35
330
1F
100
AcDbEntity
  8
0
100
AcDbCircle
 10
266.6195336247206
 20
298.8778269433593
 30
0.0
 40
59.0
  0
LINE
  5
B36
102
{ACAD_REACTORS
330
B47
102
}
330
1F
100
AcDbEntity
  8
0
100
AcDbLine
 10
266.6195336247206
 20
464.8778269433592
 30
0.0
 11
512.6231054248028
 21
464.8778269433592
 31
0.0
  0
LINE
  5
B37
330
1F
100
AcDbEntity
  8
0
100
AcDbLine
 10
516.8657456493078
 20
454.8778269433593
 30
0.0
 11
519.6941727740541
 21
454.8778269433593
 31
0.0
  0
LINE
  5
B38
102
{ACAD_REACTORS
330
B47
102
}
330
1F
100
AcDbEntity
  8
0
100
AcDbLine
 10
266.6195336247206
 20
132.8778269433593
 30
0.0
 11
512.6231054248029
 21
132.8778266170153
 31
0.0
  0
ELLIPSE
  5
B3A
330
1F
100
AcDbEntity
  8
0
100
AcDbEllipse
 10
509.7946778374421
 20
454.8778269433593
 30
0.0
 11
0.0
 21
10.0
 31
0.0
210
0.0
220
0.0
230
1.0
 40
0.9899494936611972
 41
4.712388980384689
 42
5.57127933940785
  0
ELLIPSE
  5
B3C
330
1F
100
AcDbEntity
  8
0
100
AcDbEllipse
 10
509.7946778374421
 20
142.8778269433594
 30
0.0
 11
0.0
 21
10.00000000000011
 31
0.0
210
0.0
220
0.0
230
1.0
 40
0.989949493661186
 41
3.853498661164147
 42
4.712388980384689
  0
LINE
  5
B3D
330
1F
100
AcDbEntity
  8
0
100
AcDbLine
 10
516.8657456493078
 20
142.8778269433594
 30
0.0
 11
516.8657456493078
 21
454.8778269433593
 31
0.0
  0
LINE
  5
B3E
330
1F
100
AcDbEntity
  8
0
100
AcDbLine
 10
516.8657456493078
 20
142.8778269433594
 30
0.0
 11
519.6941727740541
 21
142.8778269433594
 31
0.0
  0
LINE
  5
B3F
330
1F
100
AcDbEntity
  8
AM_7
100
AcDbLine
 10
266.6195336247206
 20
298.8778269433593
 30
0.0
 11
266.6195336247206
 21
467.8778269433593
 31
0.0
1001
GENIUS_GENOREF_13
1005
B79
  0
LINE
  5
B40
102
{ACAD_REACTORS
330
B4D
102
}
330
1F
100
AcDbEntity
  8
AM_7
100
AcDbLine
 10
266.6195336247206
 20
298.8778269433593
 30
0.0
 11
266.6195336247206
 21
129.8778269433593
 31
0.0
1001
GENIUS_GENOREF_13
1005
B79
  0
DIMENSION
  5
B42
102
{ACAD_XDICTIONARY
360
B43
102
}
102
{ACAD_REACTORS
330
B44
102
}
330
1F
100
AcDbEntity
  8
AM_5
100
AcDbDimension
  2
*D6
 10
440.1342522504817
 20
694.6389249742889
 30
0.0
 11
515.1813087853031
 21
724.008704854654
 31
0.0
 70
    34
 71
     5
 42
0.7853981633974441
  3
AM_ISO
100
AcDb2LineAngularDimension
 13
447.2053200623472
 23
697.5678571624233
 33
0.0
 14
519.6941727740541
 24
770.0567098741297
 34
0.0
 15
100.6195336247206
 25
694.6389249742886
 35
0.0
 16
511.8882335643037
 26
712.7554644257262
 36
0.0
1001
ACAD
1000
DSTYLE
1002
{
1070
   140
1040
10.5
1002
}
  0
DIMENSION
  5
B45
102
{ACAD_XDICTIONARY
360
B46
102
}
102
{ACAD_REACTORS
330
B47
102
}
330
1F
100
AcDbEntity
  8
AM_5
100
AcDbDimension
  2
*D7
 10
65.95100316553976
 20
132.8778269433593
 30
0.0
 11
59.19996970097282
 21
298.8778269433593
 31
0.0
 70
    32
 71
     5
 42
332.0
  3
AM_ISO$0
100
AcDbAlignedDimension
 13
266.6195336247206
 23
464.8778269433592
 33
0.0
 14
266.6195336247206
 24
132.8778269433593
 34
0.0
 50
90.0
100
AcDbRotatedDimension
1001
ACAD
1000
DSTYLE
1002
{
1070
   140
1040
10.5
1002
}
  0
DIMENSION
  5
B4B
102
{ACAD_XDICTIONARY
360
B4C
102
}
102
{ACAD_REACTORS
330
B4D
102
}
330
1F
100
AcDbEntity
  8
AM_5
100
AcDbDimension
  2
*D9
 10
266.6195336247206
 20
110.9766954824779
 30
0.0
 11
354.6195336247206
 21
117.7266954824779
 31
0.0
 70
    32
 71
     5
 42
176.0
  3
AM_ISO$0
100
AcDbAlignedDimension
 13
442.6195336247205
 23
132.8778269433594
 33
0.0
 14
266.6195336247206
 24
129.8778269433593
 34
0.0
100
AcDbRotatedDimension
1001
ACAD
1000
DSTYLE
1002
{
1070
   140
1040
10.5
1002
}
  0
DIMENSION
  5
B50
102
{ACAD_XDICTIONARY
360
B51
102
}
102
{ACAD_REACTORS
330
B52
102
}
330
1F
100
AcDbEntity
  8
AM_5
100
AcDbDimension
  2
*D10
 10
74.93413854280436
 20
694.6389249742886
 30
0.0
 11
74.93413854280425
 21
685.5139249742887
 31
0.0
 70
   160
 71
     5
 42
4.0
  3
AM_ISO$0
100
AcDbAlignedDimension
 13
100.6195336247206
 23
698.6389249742886
 33
0.0
 14
100.6195336247206
 24
694.6389249742886
 34
0.0
 50
90.0
100
AcDbRotatedDimension
1001
ACAD
1000
DSTYLE
1002
{
1070
   140
1040
10.5
1002
}
  0
POINT
  5
B53
330
1F
100
AcDbEntity
  8
0
100
AcDbPoint
 10
442.6195336247205
 20
698.6389249742886
 30
0.0
  0
POINT
  5
B79
330
1F
100
AcDbEntity
  8
0
 60
     1
100
AcDbPoint
 10
-961.3128538916075
 20
-701.3869290285546
 30
0.0
1001
GENIUS_GENOENT_13
1002
{
1000
MYREF
1005
B79
1002
}
1002
{
1000
GRP
1005
0
1002
}
1001
GENIUS_GENOBJ-N-CRS_13
1002
{
1000
OWNER
1000
GEN
1002
}
1001
GENIUS_GENOLIS_13
1002
{
1000
ENT
1005
B40
1005
0
1005
B3F
1005
0
1002
}
1001
GENIUS_GENODEF_13
1002
{
1000
HIER
1070
    10
1002
}
1002
{
1000
MANEDIT
1070
     1
1002
}
1002
{
1000
NOSEL
1070
     0
1002
}
1002
{
1000
BEHIND
1070
     0
1002
}
1002
{
1000
OTHER
1070
     0
1002
}
1002
{
1000
REACTOR
1002
}
  0
ARC
  5
C13
330
1F
100
AcDbEntity
  8
P-0000
  6
Continuous
 62
     7
100
AcDbCircle
 10
203.7195336247213
 20
620.6389249742888
 30
0.0
 40
11.99999999999997
100
AcDbArc
 50
180.0
 51
270.0
1001
ACME_LAYERS
1000
1
  0
LINE
  5
C15
330
1F
100
AcDbEntity
  8
P-0000
  6
Continuous
 62
     7
100
AcDbLine
 10
203.7195336247213
 20
610.1389249742887
 30
0.0
 11
303.6186666790219
 21
610.1389249742887
 31
0.0
1001
ACME_LAYERS
1000
1
  0
LINE
  5
C16
102
{ACAD_REACTORS
330
3127
102
}
330
1F
100
AcDbEntity
  8
P-0000
  6
Continuous
 62
     7
100
AcDbLine
 10
203.7195336247213
 20
608.6389249742888
 30
0.0
 11
325.4856047506773
 21
608.6389249742888
 31
0.0
1001
ACME_LAYERS
1000
1
  0
LINE
  5
C17
330
1F
100
AcDbEntity
  8
P-0000
  6
Continuous
 62
     7
100
AcDbLine
 10
340.0195336247199
 20
694.6389249742887
 30
0.0
 11
193.2195336247213
 21
694.6389249742887
 31
0.0
1001
ACME_LAYERS
1000
1
  0
ARC
  5
C18
330
1F
100
AcDbEntity
  8
P-0000
  6
Continuous
 62
     7
100
AcDbCircle
 10
203.7195336247213
 20
620.6389249742888
 30
0.0
 40
10.49999999999997
100
AcDbArc
 50
180.0
 51
270.0
1001
ACME_LAYERS
1000
1
  0
LINE
  5
C19
330
1F
100
AcDbEntity
  8
P-0000
  6
Continuous
 62
     7
100
AcDbLine
 10
193.2195336247213
 20
694.6389249742887
 30
0.0
 11
193.2195336247213
 21
620.6389249742888
 31
0.0
1001
ACME_LAYERS
1000
1
  0
LINE
  5
C1A
330
1F
100
AcDbEntity
  8
P-0000
  6
Continuous
 62
     7
100
AcDbLine
 10
191.7195336247213
 20
694.6389249742887
 30
0.0
 11
191.7195336247213
 21
620.6389249742888
 31
0.0
1001
ACME_LAYERS
1000
1
  0
LINE
  5
C1C
330
1F
100
AcDbEntity
  8
P-0000
  6
Continuous
 62
     7
100
AcDbLine
 10
305.2367006677718
 20
610.1389249742887
 30
0.0
 11
325.4856047506773
 21
610.1389249742887
 31
0.0
1001
ACME_LAYERS
1000
1
  0
LINE
  5
C1D
330
1F
100
AcDbEntity
  8
P-0000
  6
Continuous
 62
     7
100
AcDbLine
 10
303.6186666790219
 20
610.1389249742887
 30
0.0
 11
305.2367006677718
 21
610.1389249742887
 31
0.0
1001
ACME_LAYERS
1000
1
  0
LINE
  5
C1E
330
1F
100
AcDbEntity
  8
P-0000
  6
Continuous
 62
     7
100
AcDbLine
 10
340.0195336247204
 20
678.6389249742886
 30
0.0
 11
340.0195336247211
 21
694.6389249742887
 31
0.0
1001
ACME_LAYERS
1000
1
  0
LINE
  5
C1F
330
1F
100
AcDbEntity
  8
P-0000
  6
Continuous
 62
     7
100
AcDbLine
 10
341.5195336247204
 20
678.3898359158314
 30
0.0
 11
341.5195336247212
 21
694.6389249742887
 31
0.0
1001
ACME_LAYERS
1000
1
  0
LINE
  5
C20
330
1F
100
AcDbEntity
  8
P-0000
  6
Continuous
 62
     7
100
AcDbLine
 10
341.5195336247212
 20
694.6389249742887
 30
0.0
 11
340.0195336247212
 21
694.6389249742887
 31
0.0
1001
ACME_LAYERS
1000
1
  0
LINE
  5
C21
330
1F
100
AcDbEntity
  8
P-0000
  6
Continuous
 62
     7
100
AcDbLine
 10
340.0195336247212
 20
664.6389249742887
 30
0.0
 11
340.0195336247199
 21
664.6389249742887
 31
0.0
1001
ACME_LAYERS
1000
1
  0
LINE
  5
C22
330
1F
100
AcDbEntity
  8
0
100
AcDbLine
 10
191.7195336247213
 20
694.6389249742887
 30
0.0
 11
193.2195336247213
 21
694.6389249742887
 31
0.0
  0
LINE
  5
C24
102
{ACAD_REACTORS
330
105C
102
}
330
1F
100
AcDbEntity
  8
AM_7
100
AcDbLine
 10
266.6195336247213
 20
605.6389249742887
 30
0.0
 11
266.6195336247206
 21
697.6389249742887
 31
0.0
1001
GENIUS_GENOBJ-N-CEN_13
1002
{
1000
OWNER
1000
GEN
1002
}
1001
GENIUS_GENODEF_13
1002
{
1000
HIER
1070
     0
1002
}
1002
{
1000
MANEDIT
1070
     0
1002
}
1002
{
1000
NOSEL
1070
     0
1002
}
1002
{
1000
BEHIND
1070
     0
1002
}
1002
{
1000
OTHER
1070
     0
1002
}
1002
{
1000
REACTOR
1002
}
1001
GENIUS_GENCEN_19
1002
{
1040
3.0
1002
}
  0
ARC
  5
C3D
330
1F
100
AcDbEntity
  8
P-0000
  6
Continuous
 62
     7
100
AcDbCircle
 10
510.3008979640908
 20
620.6134447342191
 30
0.0
 40
179.8963573793758
100
AcDbArc
 50
161.1828218506024
 51
181.6966950022529
1001
ACME_LAYERS
1000
1
  0
ARC
  5
C3F
330
1F
100
AcDbEntity
  8
P-0000
  6
Continuous
 62
     7
100
AcDbCircle
 10
510.3008979640908
 20
620.6134447342191
 30
0.0
 40
178.3963573793757
100
AcDbArc
 50
161.1031558266759
 51
181.6966950022529
1001
ACME_LAYERS
1000
1
  0
ARC
  5
CA5
330
1F
100
AcDbEntity
  8
P-0000
  6
Continuous
 62
     7
100
AcDbCircle
 10
325.4856047506773
 20
615.1389249742887
 30
0.0
 40
5.0
100
AcDbArc
 50
270.0
 51
1.69669500225296
1001
ACME_LAYERS
1000
1
1001
GENIUS_GENOBJ-N-FIL_13
1002
{
1000
OWNER
1000
GEN
1002
}
1001
GENIUS_GENODEF_13
1002
{
1000
HIER
1070
     0
1002
}
1002
{
1000
MANEDIT
1070
     0
1002
}
1002
{
1000
NOSEL
1070
     0
1002
}
1002
{
1000
BEHIND
1070
     0
1002
}
1002
{
1000
OTHER
1070
     0
1002
}
1002
{
1000
REACTOR
1002
}
  0
ARC
  5
CA7
330
1F
100
AcDbEntity
  8
P-0000
  6
Continuous
 62
     7
100
AcDbCircle
 10
325.4856047506773
 20
615.1389249742887
 30
0.0
 40
6.5
100
AcDbArc
 50
270.0
 51
1.69669500225296
1001
ACME_LAYERS
1000
1
1001
GENIUS_GENODEF_13
1002
{
1000
HIER
1070
     0
1002
}
1002
{
1000
MANEDIT
1070
     0
1002
}
1002
{
1000
NOSEL
1070
     0
1002
}
1002
{
1000
BEHIND
1070
     0
1002
}
1002
{
1000
OTHER
1070
     0
1002
}
1002
{
1000
REACTOR
1002
}
1001
GENIUS_GENOBJ-N-FIL_13
1002
{
1000
OWNER
1000
GEN
1002
}
  0
HATCH
  5
CD7
330
1F
100
AcDbEntity
  8
AM_8
100
AcDbHatch
 10
0.0
 20
0.0
 30
0.0
210
0.0
220
0.0
230
1.0
  2
_USER
 70
     0
 71
     0
 91
        2
 92
        1
 93
        5
 72
     1
 10
340.0195336247204
 20
678.6389249742886
 11
341.4561211058731
 21
678.2042569695804
 72
     2
 10
510.3008979640907
 20
620.613444734219
 40
178.3963573793757
 50
198.8338580000497
 51
198.8968441733249
 73
     0
 72
     1
 10
341.5195336247204
 20
678.3898359158314
 11
341.5195336247212
 21
694.6389249742887
 72
     1
 10
341.5195336247212
 20
694.6389249742887
 11
340.0195336247211
 21
694.6389249742887
 72
     1
 10
340.0195336247211
 20
694.6389249742887
 11
340.0195336247204
 21
678.6389249742886
 97
        0
 92
        1
 93
        8
 72
     1
 10
325.4856047506773
 20
608.6389249742888
 11
325.4856047506773
 21
610.1389249742887
 72
     1
 10
325.4856047506773
 20
610.1389249742887
 11
203.7195336247213
 21
610.1389249742887
 72
     2
 10
203.7195336247213
 20
620.6389249742888
 40
10.49999999999996
 50
89.99999999999984
 51
180.0000000000003
 73
     0
 72
     1
 10
193.2195336247213
 20
620.6389249742888
 11
193.2195336247213
 21
694.6389249742887
 72
     1
 10
193.2195336247213
 20
694.6389249742887
 11
191.7195336247213
 21
694.6389249742887
 72
     1
 10
191.7195336247213
 20
694.6389249742887
 11
191.7195336247213
 21
620.6389249742888
 72
     2
 10
203.7195336247213
 20
620.6389249742889
 40
11.99999999999999
 50
180.0000000000002
 51
270.0
 73
     1
 72
     1
 10
203.7195336247213
 20
608.6389249742889
 11
325.4856047506773
 21
608.6389249742888
 97
        0
 75
     0
 76
     0
 52
45.0
 41
4.0
 77
     0
 78
     1
 53
45.0
 43
20.80308846154821
 44
134.4568954630313
 45
-2.828427124746189
 46
2.82842712474619
 79
     0
 98
        1
 10
20.80308846154821
 20
134.4568954630313
1001
GENIUS_GENOBJ-N-HTC_13
1002
{
1000
OWNER
1000
GEN
1002
}
1001
GENIUS_GENODEF_13
1002
{
1000
HIER
1070
     0
1002
}
1002
{
1000
MANEDIT
1070
     0
1002
}
1002
{
1000
NOSEL
1070
     0
1002
}
1002
{
1000
BEHIND
1070
     0
1002
}
1002
{
1000
OTHER
1070
     0
1002
}
1002
{
1000
REACTOR
1002
}
1001
GENIUS_GENHATCH_13
1002
{
1000
DATA
1040
45.0
1042
2.5
1000
_U
1070
     0
1011
340.5178145588905
1021
683.0940797494154
1031
0.0
1002
}
1002
{
1000
UCS
1010
0.0
1020
0.0
1030
0.0
1010
1.0
1020
0.0
1030
0.0
1010
0.0
1020
1.0
1030
0.0
1002
}
1001
ACAD
1010
0.0
1020
0.0
1030
0.0
  0
LINE
  5
CE3
330
1F
100
AcDbEntity
  8
0
100
AcDbLine
 10
323.6856047506774
 20
608.6389249742888
 30
0.0
 11
323.6463393282155
 21
607.1394389868252
 31
0.0
  0
LINE
  5
D8F
330
1F
100
AcDbEntity
  8
0
100
AcDbLine
 10
341.5195336247205
 20
679.6964367746197
 30
0.0
 11
772.576705613108
 21
668.4088074771015
 31
0.0
  0
LINE
  5
E9B
330
1F
100
AcDbEntity
  8
0
100
AcDbLine
 10
323.6463393282156
 20
607.1394389868255
 30
0.0
 11
770.6657883865815
 21
595.433822753886
 31
0.0
  0
LINE
  5
EA7
102
{ACAD_REACTORS
330
36E9
102
}
330
1F
100
AcDbEntity
  8
0
100
AcDbLine
 10
777.5399217771624
 20
666.9386358708948
 30
0.0
 11
775.6991454722801
 21
596.6422248770276
 31
0.0
  0
LINE
  5
F26
330
1F
100
AcDbEntity
  8
0
100
AcDbLine
 10
323.6856047506774
 20
608.6389249742888
 30
0.0
 11
770.5076427336968
 21
596.9384781322852
 31
0.0
  0
LINE
  5
F2C
330
1F
100
AcDbEntity
  8
0
100
AcDbLine
 10
341.4802682022588
 20
678.1969507871564
 30
0.0
 11
772.3400291152727
 21
666.9144908805748
 31
0.0
  0
LINE
  5
F4A
102
{ACAD_REACTORS
330
36E9
330
1984
102
}
330
1F
100
AcDbEntity
  8
AM_7
100
AcDbLine
 10
321.6028259665279
 20
643.7054621933563
 30
0.0
 11
784.0564436240562
 21
631.5956880319835
 31
0.0
1001
GENIUS_GENODEF_13
1002
{
1000
HIER
1070
     0
1002
}
1002
{
1000
MANEDIT
1070
     0
1002
}
1002
{
1000
NOSEL
1070
     0
1002
}
1002
{
1000
BEHIND
1070
     0
1002
}
1002
{
1000
OTHER
1070
     0
1002
}
1002
{
1000
REACTOR
1002
}
1001
GENIUS_GENOBJ-N-CEN_13
1002
{
1000
OWNER
1000
GEN
1002
}
1001
GENIUS_GENCEN_19
1002
{
1040
3.0
1002
}
  0
LINE
  5
F4B
330
1F
100
AcDbEntity
  8
0
100
AcDbLine
 10
340.0195336247205
 20
678.6389249742889
 30
0.0
 11
341.4802682022588
 21
678.1969507871564
 31
0.0
  0
LINE
  5
F4C
330
1F
100
AcDbEntity
  8
0
100
AcDbLine
 10
325.4856047506773
 20
610.1389249742887
 30
0.0
 11
325.4856047506773
 21
608.6389249742888
 31
0.0
  0
LINE
  5
FA3
330
1F
100
AcDbEntity
  8
0
100
AcDbLine
 10
519.6941727740541
 20
335.3778269433591
 30
0.0
 11
771.6605488708136
 21
335.3677257571957
 31
0.0
  0
LINE
  5
FA9
102
{ACAD_REACTORS
330
2E4B
102
}
330
1F
100
AcDbEntity
  8
0
100
AcDbLine
 10
519.6941727740541
 20
262.3778269433591
 30
0.0
 11
771.6605488708133
 21
262.3879281295223
 31
0.0
  0
ELLIPSE
  5
FAB
330
1F
100
AcDbEntity
  8
0
100
AcDbEllipse
 10
776.3673807626807
 20
298.8778269433591
 30
0.0
 11
-0.0000000000000083
 21
36.49999999999946
 31
0.0
210
0.0
220
0.0
230
1.0
 40
0.0261769483078991
 41
3.408663927584703
 42
6.016114033184667
  0
LINE
  5
FB8
330
1F
100
AcDbEntity
  8
AM_7
100
AcDbLine
 10
97.61953362472059
 20
298.8778269433593
 30
0.0
 11
781.582411788319
 21
298.8778269433598
 31
0.0
1001
GENIUS_GENOBJ-N-CEN_13
1002
{
1000
OWNER
1000
GEN
1002
}
1001
GENIUS_GENODEF_13
1002
{
1000
HIER
1070
     0
1002
}
1002
{
1000
MANEDIT
1070
     0
1002
}
1002
{
1000
NOSEL
1070
     0
1002
}
1002
{
1000
BEHIND
1070
     0
1002
}
1002
{
1000
OTHER
1070
     0
1002
}
1002
{
1000
REACTOR
1002
}
1001
GENIUS_GENCEN_19
1002
{
1040
3.0
1002
}
  0
DIMENSION
  5
104E
102
{ACAD_XDICTIONARY
360
105B
102
}
102
{ACAD_REACTORS
330
105C
102
}
330
1F
100
AcDbEntity
  8
AM_5
100
AcDbDimension
  2
*D11
 10
776.6195336247212
 20
567.321730493104
 30
0.0
 11
521.6195336247213
 21
574.071730493104
 31
0.0
 70
    32
 71
     5
 42
510.0
  3
AM_ISO$0
100
AcDbAlignedDimension
 13
266.6195336247213
 23
605.6389249742887
 33
0.0
 14
776.6195336247212
 24
631.7904303739612
 34
0.0
100
AcDbRotatedDimension
1001
ACAD
1000
DSTYLE
1002
{
1070
   140
1040
10.5
1070
   271
1070
     0
1002
}
  0
LINE
  5
10B6
330
1F
100
AcDbEntity
  8
0
100
AcDbLine
 10
378.8695336247207
 20
698.6389249742886
 30
0.0
 11
378.8695336247207
 21
702.6389249742887
 31
0.0
  0
LINE
  5
10B7
330
1F
100
AcDbEntity
  8
AM_5
100
AcDbLine
 10
379.6695336247207
 20
698.6389249742886
 30
0.0
 11
379.6695336247207
 21
702.6389249742886
 31
0.0
  0
LINE
  5
10B8
330
1F
100
AcDbEntity
  8
0
100
AcDbLine
 10
379.6695336247207
 20
723.6389249742886
 30
0.0
 11
386.0695336247207
 21
723.6389249742886
 31
0.0
  0
LINE
  5
10B9
330
1F
100
AcDbEntity
  8
0
100
AcDbLine
 10
378.8695336247207
 20
722.8389249742887
 30
0.0
 11
386.8695336247207
 21
722.8389249742887
 31
0.0
  0
LINE
  5
10BA
330
1F
100
AcDbEntity
  8
0
100
AcDbLine
 10
386.8695336247207
 20
722.8389249742888
 30
0.0
 11
386.8695336247207
 21
711.0389253597706
 31
0.0
  0
LINE
  5
10BB
330
1F
100
AcDbEntity
  8
AM_5
100
AcDbLine
 10
386.0695336247207
 20
723.6389249742886
 30
0.0
 11
386.0695336247207
 21
711.0389253597705
 31
0.0
  0
LINE
  5
10BC
330
1F
100
AcDbEntity
  8
0
100
AcDbLine
 10
378.8695336247207
 20
722.8389249742887
 30
0.0
 11
379.6695336247207
 21
723.6389249742886
 31
0.0
  0
LINE
  5
10BD
330
1F
100
AcDbEntity
  8
0
100
AcDbLine
 10
386.0695336247207
 20
723.6389249742886
 30
0.0
 11
386.8695336247207
 21
722.8389249742887
 31
0.0
  0
LINE
  5
10BE
102
{ACAD_REACTORS
330
137F
102
}
330
1F
100
AcDbEntity
  8
AM_7
100
AcDbLine
 10
382.8695336247207
 20
726.6389249742887
 30
0.0
 11
382.8695336247206
 21
695.6389249742886
 31
0.0
1001
GENIUS_GENOBJ-N-CEN_13
1002
{
1000
OWNER
1000
GEN
1002
}
1001
GENIUS_GENODEF_13
1002
{
1000
HIER
1070
     0
1002
}
1002
{
1000
MANEDIT
1070
     0
1002
}
1002
{
1000
NOSEL
1070
     0
1002
}
1002
{
1000
BEHIND
1070
     0
1002
}
1002
{
1000
OTHER
1070
     0
1002
}
1002
{
1000
REACTOR
1002
}
1001
GENIUS_GENCEN_19
1002
{
1040
3.0
1002
}
  0
LINE
  5
10BF
330
1F
100
AcDbEntity
  8
0
100
AcDbLine
 10
146.3695336247207
 20
698.6389249742886
 30
0.0
 11
146.3695336247207
 21
702.6389249742886
 31
0.0
  0
LINE
  5
10C0
330
1F
100
AcDbEntity
  8
AM_5
100
AcDbLine
 10
147.1695336247206
 20
698.6389249742886
 30
0.0
 11
147.1695336247206
 21
702.6389249742886
 31
0.0
  0
LINE
  5
10C1
330
1F
100
AcDbEntity
  8
0
100
AcDbLine
 10
147.1695336247206
 20
723.6389249742886
 30
0.0
 11
153.5695336247207
 21
723.6389249742886
 31
0.0
  0
LINE
  5
10C2
330
1F
100
AcDbEntity
  8
0
100
AcDbLine
 10
146.3695336247207
 20
722.8389249742887
 30
0.0
 11
154.3695336247207
 21
722.8389249742887
 31
0.0
  0
LINE
  5
10C3
330
1F
100
AcDbEntity
  8
0
100
AcDbLine
 10
154.3695336247207
 20
722.8389249742888
 30
0.0
 11
154.3695336247207
 21
711.0389253597705
 31
0.0
  0
LINE
  5
10C4
330
1F
100
AcDbEntity
  8
AM_5
100
AcDbLine
 10
153.5695336247207
 20
723.6389249742886
 30
0.0
 11
153.5695336247207
 21
711.0389253597705
 31
0.0
  0
LINE
  5
10C5
330
1F
100
AcDbEntity
  8
0
100
AcDbLine
 10
146.3695336247207
 20
722.8389249742887
 30
0.0
 11
147.1695336247206
 21
723.6389249742886
 31
0.0
  0
LINE
  5
10C6
330
1F
100
AcDbEntity
  8
0
100
AcDbLine
 10
153.5695336247207
 20
723.6389249742886
 30
0.0
 11
154.3695336247207
 21
722.8389249742887
 31
0.0
  0
LINE
  5
10C7
102
{ACAD_REACTORS
330
137F
102
}
330
1F
100
AcDbEntity
  8
AM_7
100
AcDbLine
 10
150.3695336247207
 20
726.6389249742887
 30
0.0
 11
150.3695336247206
 21
695.6389249742886
 31
0.0
1001
GENIUS_GENOBJ-N-CEN_13
1002
{
1000
OWNER
1000
GEN
1002
}
1001
GENIUS_GENODEF_13
1002
{
1000
HIER
1070
     0
1002
}
1002
{
1000
MANEDIT
1070
     0
1002
}
1002
{
1000
NOSEL
1070
     0
1002
}
1002
{
1000
BEHIND
1070
     0
1002
}
1002
{
1000
OTHER
1070
     0
1002
}
1002
{
1000
REACTOR
1002
}
1001
GENIUS_GENCEN_19
1002
{
1040
3.0
1002
}
  0
CIRCLE
  5
111A
330
1F
100
AcDbEntity
  8
AM_CL
  6
HIDDEN
100
AcDbCircle
 10
266.6195336247208
 20
298.8778269433595
 30
0.0
 40
116.25
  0
LINE
  5
111B
330
1F
100
AcDbEntity
  8
0
  6
HIDDEN
 62
     1
100
AcDbLine
 10
266.6195334615482
 20
298.877826868499
 30
0.0
 11
351.6491238992306
 21
213.8482364308166
 31
0.0
  0
INSERT
  5
111F
330
1F
100
AcDbEntity
  8
AM_0
100
AcDbBlockReference
  2
*U36
 10
0.0
 20
0.0
 30
0.0
  0
LINE
  5
1126
330
1F
100
AcDbEntity
  8
0
  6
HIDDEN
 62
     1
100
AcDbLine
 10
266.6195333118273
 20
298.8778270182199
 30
0.0
 11
181.589943120368
 21
383.9074177021255
 31
0.0
  0
LINE
  5
1127
330
1F
100
AcDbEntity
  8
0
  6
HIDDEN
 62
     1
100
AcDbLine
 10
266.6195331621064
 20
298.877826868499
 30
0.0
 11
181.589942724424
 21
213.8482364308165
 31
0.0
  0
LINE
  5
1128
330
1F
100
AcDbEntity
  8
0
  6
HIDDEN
 62
     1
100
AcDbLine
 10
266.6195333118273
 20
298.8778270182199
 30
0.0
 11
351.6491235032864
 21
383.9074177021256
 31
0.0
  0
LINE
  5
1156
330
1F
100
AcDbEntity
  8
0
100
AcDbLine
 10
344.8206960738374
 20
711.0389253597706
 30
0.0
 11
344.8206960738375
 21
722.8389249742888
 31
0.0
  0
LINE
  5
1157
330
1F
100
AcDbEntity
  8
AM_5
100
AcDbLine
 10
345.6206960738374
 20
711.0389253597706
 30
0.0
 11
345.6206960738374
 21
723.6389249742886
 31
0.0
  0
LINE
  5
1158
330
1F
100
AcDbEntity
  8
0
100
AcDbLine
 10
345.6206960738374
 20
723.6389249742886
 30
0.0
 11
352.0206960738375
 21
723.6389249742886
 31
0.0
  0
LINE
  5
1159
330
1F
100
AcDbEntity
  8
0
100
AcDbLine
 10
344.8206960738375
 20
722.8389249742887
 30
0.0
 11
352.8206960738375
 21
722.8389249742887
 31
0.0
  0
LINE
  5
115A
330
1F
100
AcDbEntity
  8
0
100
AcDbLine
 10
352.8206960738375
 20
722.8389249742888
 30
0.0
 11
352.8206960738375
 21
711.0389253597706
 31
0.0
  0
LINE
  5
115B
330
1F
100
AcDbEntity
  8
AM_5
100
AcDbLine
 10
352.0206960738375
 20
723.6389249742886
 30
0.0
 11
352.0206960738375
 21
711.0389253597706
 31
0.0
  0
LINE
  5
115C
330
1F
100
AcDbEntity
  8
0
100
AcDbLine
 10
344.8206960738375
 20
722.8389249742887
 30
0.0
 11
345.6206960738374
 21
723.6389249742886
 31
0.0
  0
LINE
  5
115D
330
1F
100
AcDbEntity
  8
0
100
AcDbLine
 10
352.0206960738375
 20
723.6389249742886
 30
0.0
 11
352.8206960738375
 21
722.8389249742887
 31
0.0
  0
LINE
  5
115E
330
1F
100
AcDbEntity
  8
AM_7
100
AcDbLine
 10
348.8206960738375
 20
726.6389249742887
 30
0.0
 11
348.8206960738374
 21
695.6389249742886
 31
0.0
1001
GENIUS_GENOBJ-N-CEN_13
1002
{
1000
OWNER
1000
GEN
1002
}
1001
GENIUS_GENODEF_13
1002
{
1000
HIER
1070
     0
1002
}
1002
{
1000
MANEDIT
1070
     0
1002
}
1002
{
1000
NOSEL
1070
     0
1002
}
1002
{
1000
BEHIND
1070
     0
1002
}
1002
{
1000
OTHER
1070
     0
1002
}
1002
{
1000
REACTOR
1002
}
1001
GENIUS_GENCEN_19
1002
{
1040
3.0
1002
}
  0
LINE
  5
1161
330
1F
100
AcDbEntity
  8
0
100
AcDbLine
 10
263.4195336247207
 20
723.6389249742886
 30
0.0
 11
269.8195336247207
 21
723.6389249742886
 31
0.0
  0
LINE
  5
1162
330
1F
100
AcDbEntity
  8
0
100
AcDbLine
 10
262.6195336247207
 20
722.8389249742887
 30
0.0
 11
270.6195336247207
 21
722.8389249742887
 31
0.0
  0
LINE
  5
1163
330
1F
100
AcDbEntity
  8
0
100
AcDbLine
 10
270.6195336247207
 20
722.8389249742888
 30
0.0
 11
270.6195336247207
 21
711.0389253597706
 31
0.0
  0
LINE
  5
1164
330
1F
100
AcDbEntity
  8
AM_5
100
AcDbLine
 10
269.8195336247207
 20
723.6389249742886
 30
0.0
 11
269.8195336247207
 21
711.0389253597706
 31
0.0
  0
LINE
  5
1165
330
1F
100
AcDbEntity
  8
0
100
AcDbLine
 10
262.6195336247207
 20
722.8389249742887
 30
0.0
 11
263.4195336247207
 21
723.6389249742886
 31
0.0
  0
LINE
  5
1166
330
1F
100
AcDbEntity
  8
0
100
AcDbLine
 10
269.8195336247207
 20
723.6389249742886
 30
0.0
 11
270.6195336247207
 21
722.8389249742887
 31
0.0
  0
LINE
  5
1167
330
1F
100
AcDbEntity
  8
AM_7
100
AcDbLine
 10
266.6195336247207
 20
726.6389249742887
 30
0.0
 11
266.6195336247206
 21
695.6389249742886
 31
0.0
1001
GENIUS_GENOBJ-N-CEN_13
1002
{
1000
OWNER
1000
GEN
1002
}
1001
GENIUS_GENODEF_13
1002
{
1000
HIER
1070
     0
1002
}
1002
{
1000
MANEDIT
1070
     0
1002
}
1002
{
1000
NOSEL
1070
     0
1002
}
1002
{
1000
BEHIND
1070
     0
1002
}
1002
{
1000
OTHER
1070
     0
1002
}
1002
{
1000
REACTOR
1002
}
1001
GENIUS_GENCEN_19
1002
{
1040
3.0
1002
}
  0
LINE
  5
1168
330
1F
100
AcDbEntity
  8
0
100
AcDbLine
 10
180.4183703117846
 20
711.0389253597706
 30
0.0
 11
180.4183703117846
 21
722.8389249742888
 31
0.0
  0
LINE
  5
1169
330
1F
100
AcDbEntity
  8
AM_5
100
AcDbLine
 10
181.2183703117846
 20
711.0389253597706
 30
0.0
 11
181.2183703117846
 21
723.6389249742886
 31
0.0
  0
LINE
  5
116A
330
1F
100
AcDbEntity
  8
0
100
AcDbLine
 10
181.2183703117846
 20
723.6389249742886
 30
0.0
 11
187.6183703117847
 21
723.6389249742886
 31
0.0
  0
LINE
  5
116B
330
1F
100
AcDbEntity
  8
0
100
AcDbLine
 10
180.4183703117846
 20
722.8389249742887
 30
0.0
 11
188.4183703117846
 21
722.8389249742887
 31
0.0
  0
LINE
  5
116C
330
1F
100
AcDbEntity
  8
0
100
AcDbLine
 10
188.4183703117846
 20
722.8389249742888
 30
0.0
 11
188.4183703117846
 21
711.0389253597706
 31
0.0
  0
LINE
  5
116D
330
1F
100
AcDbEntity
  8
AM_5
100
AcDbLine
 10
187.6183703117847
 20
723.6389249742886
 30
0.0
 11
187.6183703117847
 21
711.0389253597706
 31
0.0
  0
LINE
  5
116E
330
1F
100
AcDbEntity
  8
0
100
AcDbLine
 10
180.4183703117846
 20
722.8389249742887
 30
0.0
 11
181.2183703117846
 21
723.6389249742886
 31
0.0
  0
LINE
  5
116F
330
1F
100
AcDbEntity
  8
0
100
AcDbLine
 10
187.6183703117847
 20
723.6389249742886
 30
0.0
 11
188.4183703117846
 21
722.8389249742887
 31
0.0
  0
LINE
  5
1170
330
1F
100
AcDbEntity
  8
AM_7
100
AcDbLine
 10
184.4183703117846
 20
726.6389249742887
 30
0.0
 11
184.4183703117845
 21
695.6389249742886
 31
0.0
1001
GENIUS_GENOBJ-N-CEN_13
1002
{
1000
OWNER
1000
GEN
1002
}
1001
GENIUS_GENODEF_13
1002
{
1000
HIER
1070
     0
1002
}
1002
{
1000
MANEDIT
1070
     0
1002
}
1002
{
1000
NOSEL
1070
     0
1002
}
1002
{
1000
BEHIND
1070
     0
1002
}
1002
{
1000
OTHER
1070
     0
1002
}
1002
{
1000
REACTOR
1002
}
1001
GENIUS_GENCEN_19
1002
{
1040
3.0
1002
}
  0
LINE
  5
1181
330
1F
100
AcDbEntity
  8
0
100
AcDbLine
 10
479.1062435339463
 20
755.4903101816864
 30
0.0
 11
472.1765970783178
 21
762.419956637315
 31
0.0
  0
LINE
  5
1182
330
1F
100
AcDbEntity
  8
AM_5
100
AcDbLine
 10
479.6719289588954
 20
756.0559956066357
 30
0.0
 11
472.1765970783178
 21
763.5513274872133
 31
0.0
  0
LINE
  5
1183
330
1F
100
AcDbEntity
  8
0
100
AcDbLine
 10
472.1765970783178
 20
763.5513274872133
 30
0.0
 11
476.702080477912
 21
768.0768108868074
 31
0.0
  0
LINE
  5
1184
330
1F
100
AcDbEntity
  8
0
100
AcDbLine
 10
472.1765970783178
 20
762.419956637315
 30
0.0
 11
477.8334513278102
 21
768.0768108868074
 31
0.0
  0
LINE
  5
1185
330
1F
100
AcDbEntity
  8
0
100
AcDbLine
 10
477.8334513278102
 20
768.0768108868074
 30
0.0
 11
484.7630977834387
 21
761.1471644311789
 31
0.0
  0
LINE
  5
1186
330
1F
100
AcDbEntity
  8
AM_5
100
AcDbLine
 10
476.702080477912
 20
768.0768108868074
 30
0.0
 11
484.1974123584894
 21
760.5814790062297
 31
0.0
  0
LINE
  5
1187
330
1F
100
AcDbEntity
  8
0
100
AcDbLine
 10
472.1765970783178
 20
762.419956637315
 30
0.0
 11
472.1765970783178
 21
763.5513274872133
 31
0.0
  0
LINE
  5
1188
330
1F
100
AcDbEntity
  8
0
100
AcDbLine
 10
476.702080477912
 20
768.0768108868074
 30
0.0
 11
477.8334513278102
 21
768.0768108868074
 31
0.0
  0
LINE
  5
1189
330
1F
100
AcDbEntity
  8
AM_7
100
AcDbLine
 10
472.3180184345551
 20
767.9353895305699
 30
0.0
 11
494.2383286513382
 21
746.0150793137868
 31
0.0
1001
GENIUS_GENOBJ-N-CEN_13
1002
{
1000
OWNER
1000
GEN
1002
}
1001
GENIUS_GENODEF_13
1002
{
1000
HIER
1070
     0
1002
}
1002
{
1000
MANEDIT
1070
     0
1002
}
1002
{
1000
NOSEL
1070
     0
1002
}
1002
{
1000
BEHIND
1070
     0
1002
}
1002
{
1000
OTHER
1070
     0
1002
}
1002
{
1000
REACTOR
1002
}
1001
GENIUS_GENCEN_19
1002
{
1040
3.0
1002
}
  0
ELLIPSE
  5
1205
330
1F
100
AcDbEntity
  8
0
100
AcDbEllipse
 10
475.005024203064
 20
415.1278269433595
 30
0.0
 11
0.0
 21
4.0
 31
0.0
210
0.0
220
0.0
230
1.0
 40
0.7071067811865533
 41
0.0
 42
6.283185307179586
  0
ELLIPSE
  5
1206
330
1F
100
AcDbEntity
  8
0
100
AcDbEllipse
 10
475.005024203064
 20
182.6278269433596
 30
0.0
 11
0.0
 21
4.0
 31
0.0
210
0.0
220
0.0
230
1.0
 40
0.7071067811865533
 41
0.0
 42
6.283185307179586
  0
LINE
  5
1234
330
1F
100
AcDbEntity
  8
0
100
AcDbLine
 10
475.005024203064
 20
186.6278269433596
 30
0.0
 11
487.3086821957099
 21
186.6278269433443
 31
0.0
  0
LINE
  5
1235
330
1F
100
AcDbEntity
  8
0
100
AcDbLine
 10
475.005024203064
 20
178.6278269433596
 30
0.0
 11
487.3086536172873
 21
178.6278269433443
 31
0.0
  0
ELLIPSE
  5
1254
330
1F
100
AcDbEntity
  8
0
100
AcDbEllipse
 10
474.4393387781149
 20
182.6278269433596
 30
0.0
 11
0.0
 21
3.200000000000002
 31
0.0
210
0.0
220
0.0
230
1.0
 40
0.7071067811865632
 41
0.0
 42
6.283185307179586
  0
LINE
  5
1255
330
1F
100
AcDbEntity
  8
0
100
AcDbLine
 10
474.4393387781149
 20
419.1278269433595
 30
0.0
 11
487.3086821957099
 21
419.1278269433595
 31
0.0
  0
LINE
  5
1256
330
1F
100
AcDbEntity
  8
0
100
AcDbLine
 10
474.4393387781149
 20
411.1278269433595
 30
0.0
 11
487.3087107741326
 21
411.1278269433595
 31
0.0
  0
ELLIPSE
  5
1267
330
1F
100
AcDbEntity
  8
0
100
AcDbEllipse
 10
474.4393387781149
 20
415.1278269433595
 30
0.0
 11
0.0
 21
3.199999999999988
 31
0.0
210
0.0
220
0.0
230
1.0
 40
0.7071067811865665
 41
0.0
 42
6.283185307179586
  0
LINE
  5
127A
330
1F
100
AcDbEntity
  8
AM_7
  6
AM_ISO08W050x2
100
AcDbLine
 10
474.4393387781149
 20
182.6278269433596
 30
0.0
 11
474.4393387781149
 21
188.8278269433596
 31
0.0
1001
GENIUS_GENOREF_13
1005
127D
  0
LINE
  5
127C
330
1F
100
AcDbEntity
  8
AM_7
  6
AM_ISO08W050x2
100
AcDbLine
 10
474.4393387781149
 20
182.6278269433596
 30
0.0
 11
474.4393387781149
 21
176.4278269433596
 31
0.0
1001
GENIUS_GENOREF_13
1005
127D
  0
POINT
  5
127D
330
1F
100
AcDbEntity
  8
0
 60
     1
100
AcDbPoint
 10
0.0
 20
0.0
 30
0.0
1001
GENIUS_GENOENT_13
1002
{
1000
MYREF
1005
127D
1002
}
1002
{
1000
GRP
1005
0
1002
}
1001
GENIUS_GENOBJ-N-CRS_13
1002
{
1000
OWNER
1000
GEN
1002
}
1001
GENIUS_GENOLIS_13
1002
{
1000
ENT
1005
127C
1005
127B
1005
127A
1005
1279
1002
}
1001
GENIUS_GENODEF_13
1002
{
1000
HIER
1070
    10
1002
}
1002
{
1000
MANEDIT
1070
     1
1002
}
1002
{
1000
NOSEL
1070
     0
1002
}
1002
{
1000
BEHIND
1070
     0
1002
}
1002
{
1000
OTHER
1070
     0
1002
}
1002
{
1000
REACTOR
1002
}
  0
LINE
  5
12A0
330
1F
100
AcDbEntity
  8
AM_7
100
AcDbLine
 10
469.1765970783178
 20
182.6278269433798
 30
0.0
 11
497.9454354325248
 21
182.627826943186
 31
0.0
1001
GENIUS_GENOBJ-N-CEN_13
1002
{
1000
OWNER
1000
GEN
1002
}
1001
GENIUS_GENODEF_13
1002
{
1000
HIER
1070
     0
1002
}
1002
{
1000
MANEDIT
1070
     0
1002
}
1002
{
1000
NOSEL
1070
     0
1002
}
1002
{
1000
BEHIND
1070
     0
1002
}
1002
{
1000
OTHER
1070
     0
1002
}
1002
{
1000
REACTOR
1002
}
1001
GENIUS_GENCEN_19
1002
{
1040
3.0
1002
}
  0
LINE
  5
12AF
330
1F
100
AcDbEntity
  8
AM_7
  6
AM_ISO08W050x2
100
AcDbLine
 10
474.4393387781149
 20
415.1278269433595
 30
0.0
 11
474.4393387781149
 21
421.3278269433596
 31
0.0
1001
GENIUS_GENOREF_13
1005
12B2
  0
LINE
  5
12B1
330
1F
100
AcDbEntity
  8
AM_7
  6
AM_ISO08W050x2
100
AcDbLine
 10
474.4393387781149
 20
415.1278269433595
 30
0.0
 11
474.4393387781149
 21
408.9278269433596
 31
0.0
1001
GENIUS_GENOREF_13
1005
12B2
  0
POINT
  5
12B2
330
1F
100
AcDbEntity
  8
0
 60
     1
100
AcDbPoint
 10
0.0
 20
0.0
 30
0.0
1001
GENIUS_GENOENT_13
1002
{
1000
MYREF
1005
12B2
1002
}
1002
{
1000
GRP
1005
0
1002
}
1001
GENIUS_GENOBJ-N-CRS_13
1002
{
1000
OWNER
1000
GEN
1002
}
1001
GENIUS_GENOLIS_13
1002
{
1000
ENT
1005
12B1
1005
12B0
1005
12AF
1005
12AE
1002
}
1001
GENIUS_GENODEF_13
1002
{
1000
HIER
1070
    10
1002
}
1002
{
1000
MANEDIT
1070
     1
1002
}
1002
{
1000
NOSEL
1070
     0
1002
}
1002
{
1000
BEHIND
1070
     0
1002
}
1002
{
1000
OTHER
1070
     0
1002
}
1002
{
1000
REACTOR
1002
}
  0
LINE
  5
12D1
330
1F
100
AcDbEntity
  8
AM_7
100
AcDbLine
 10
469.1765970783178
 20
415.1278269433797
 30
0.0
 11
497.9454354325248
 21
415.127826943186
 31
0.0
1001
GENIUS_GENOBJ-N-CEN_13
1002
{
1000
OWNER
1000
GEN
1002
}
1001
GENIUS_GENODEF_13
1002
{
1000
HIER
1070
     0
1002
}
1002
{
1000
MANEDIT
1070
     0
1002
}
1002
{
1000
NOSEL
1070
     0
1002
}
1002
{
1000
BEHIND
1070
     0
1002
}
1002
{
1000
OTHER
1070
     0
1002
}
1002
{
1000
REACTOR
1002
}
1001
GENIUS_GENCEN_19
1002
{
1040
3.0
1002
}
  0
DIMENSION
  5
1371
102
{ACAD_XDICTIONARY
360
137E
102
}
102
{ACAD_REACTORS
330
137F
102
}
330
1F
100
AcDbEntity
  8
AM_5
100
AcDbDimension
  2
*D17
 10
382.8695336247207
 20
755.2949455914704
 30
0.0
 11
266.6195336247207
 21
762.0459790560373
 31
0.0
 70
    32
  1
%%c<>
 71
     5
 42
232.5
  3
AM_ISO$0
100
AcDbAlignedDimension
 13
150.3695336247207
 23
726.6389249742887
 33
0.0
 14
382.8695336247207
 24
726.6389249742887
 34
0.0
100
AcDbRotatedDimension
1001
ACAD
1000
DSTYLE
1002
{
1070
   140
1040
10.5
1002
}
  0
DIMENSION
  5
1967
102
{ACAD_XDICTIONARY
360
1977
102
}
102
{ACAD_REACTORS
330
1984
102
}
330
1F
100
AcDbEntity
  8
AM_5
100
AcDbDimension
  2
*D21
 10
512.8331567410173
 20
643.7054621933563
 30
0.0
 11
813.0881985580559
 21
616.5327234652882
 31
0.0
 70
   162
  1
1,5°
 71
     5
 42
0.0247257581244975
  3
AM_ISO$2
100
AcDb2LineAngularDimension
 13
321.6028259665279
 23
643.7054621933563
 33
0.0
 14
805.0734957070353
 24
631.7488466425056
 34
0.0
 15
321.6028259665279
 25
643.7054621933563
 35
0.0
 16
813.8220561644221
 26
639.6485391216805
 36
0.0
1001
ACAD
1000
DSTYLE
1002
{
1070
   140
1040
10.5
1002
}
1001
ACAD_DSTYLE_DIMINSPECT
1070
   396
1000
100%
1070
   395
1000

1070
   394
1070
    33
1070
   393
1070
     0
  0
INSERT
  5
1B5F
330
1F
100
AcDbEntity
  8
AM_5
 62
     2
370
    35
100
AcDbBlockReference
  2
*U22
 10
335.2637336910798
 20
661.4680545669584
 30
0.0
1001
GENIUS_GEFWELD_13
1040
2.0
1070
     0
1001
GENIUS_GENOBJ-F-WELS_13
1002
{
1000
OWNER
1000
GEF
1002
}
1001
GENIUS_GENODEF_13
1002
{
1000
HIER
1070
     0
1002
}
1002
{
1000
MANEDIT
1070
     0
1002
}
1002
{
1000
NOSEL
1070
     0
1002
}
1002
{
1000
BEHIND
1070
     0
1002
}
1002
{
1000
OTHER
1070
     0
1002
}
1002
{
1000
REACTOR
1002
}
  0
INSERT
  5
1B84
330
1F
100
AcDbEntity
  8
AM_5
 62
     2
370
    35
100
AcDbBlockReference
  2
*U23
 10
328.1498744230648
 20
611.6747009016457
 30
0.0
1001
GENIUS_GEFWELD_13
1040
2.0
1070
     0
1001
GENIUS_GENODEF_13
1002
{
1000
HIER
1070
     0
1002
}
1002
{
1000
MANEDIT
1070
     0
1002
}
1002
{
1000
NOSEL
1070
     0
1002
}
1002
{
1000
BEHIND
1070
     0
1002
}
1002
{
1000
OTHER
1070
     0
1002
}
1002
{
1000
REACTOR
1002
}
1001
GENIUS_GENOBJ-F-WELS_13
1002
{
1000
OWNER
1000
GEF
1002
}
  0
SOLID
  5
1C43
330
1F
100
AcDbEntity
  8
AM_0
100
AcDbTrace
 10
341.5195336247212
 20
694.6389249742887
 30
0.0
 11
341.5195336247212
 21
692.6389249742888
 31
0.0
 12
343.5195336247212
 22
694.6389249742887
 32
0.0
 13
343.5195336247212
 23
694.6389249742887
 33
0.0
1001
GENIUS_GEFWELD_13
1040
2.0
1070
     3
1001
GENIUS_GENOBJ-F-WELS_13
1002
{
1000
OWNER
1000
GEF
1002
}
1001
GENIUS_GENODEF_13
1002
{
1000
HIER
1070
     0
1002
}
1002
{
1000
MANEDIT
1070
     0
1002
}
1002
{
1000
NOSEL
1070
     0
1002
}
1002
{
1000
BEHIND
1070
     0
1002
}
1002
{
1000
OTHER
1070
     0
1002
}
1002
{
1000
REACTOR
1002
}
  0
SOLID
  5
1C49
330
1F
100
AcDbEntity
  8
AM_0
100
AcDbTrace
 10
191.7195336247213
 20
694.6389249742887
 30
0.0
 11
189.7195336247213
 21
694.6389249742887
 31
0.0
 12
191.7195336247213
 22
692.6389249742888
 32
0.0
 13
191.7195336247213
 23
692.6389249742888
 33
0.0
1001
GENIUS_GEFWELD_13
1040
2.0
1070
     3
1001
GENIUS_GENODEF_13
1002
{
1000
HIER
1070
     0
1002
}
1002
{
1000
MANEDIT
1070
     0
1002
}
1002
{
1000
NOSEL
1070
     0
1002
}
1002
{
1000
BEHIND
1070
     0
1002
}
1002
{
1000
OTHER
1070
     0
1002
}
1002
{
1000
REACTOR
1002
}
1001
GENIUS_GENOBJ-F-WELS_13
1002
{
1000
OWNER
1000
GEF
1002
}
  0
LINE
  5
1CEB
330
1F
100
AcDbEntity
  8
0
100
AcDbLine
 10
770.6657883866053
 20
595.4338227538917
 30
0.0
 11
775.6991454722801
 21
596.6422248770276
 31
0.0
1001
GENIUS_GENFIL_13
1070
     1
1040
0.5
1040
0.5
1040
5.0
1040
15.0
1002
{
1002
}
1001
GENIUS_GENODEF_13
1002
{
1000
HIER
1070
     0
1002
}
1002
{
1000
MANEDIT
1070
     0
1002
}
1002
{
1000
NOSEL
1070
     0
1002
}
1002
{
1000
BEHIND
1070
     0
1002
}
1002
{
1000
OTHER
1070
     0
1002
}
1002
{
1000
REACTOR
1002
}
1001
GENIUS_GENOBJ-N-CHA_13
1002
{
1000
OWNER
1000
GEN
1002
}
  0
LINE
  5
1CF6
330
1F
100
AcDbEntity
  8
0
100
AcDbLine
 10
772.5767056130814
 20
668.4088074771093
 30
0.0
 11
777.5399217771624
 21
666.9386358708948
 31
0.0
1001
GENIUS_GENFIL_13
1070
     1
1040
0.5
1040
0.5
1040
5.0
1040
15.0
1002
{
1002
}
1001
GENIUS_GENOBJ-N-CHA_13
1002
{
1000
OWNER
1000
GEN
1002
}
1001
GENIUS_GENODEF_13
1002
{
1000
HIER
1070
     0
1002
}
1002
{
1000
MANEDIT
1070
     0
1002
}
1002
{
1000
NOSEL
1070
     0
1002
}
1002
{
1000
BEHIND
1070
     0
1002
}
1002
{
1000
OTHER
1070
     0
1002
}
1002
{
1000
REACTOR
1002
}
  0
LINE
  5
1D2B
330
1F
100
AcDbEntity
  8
0
100
AcDbLine
 10
772.3400291152729
 20
666.914490880582
 30
0.0
 11
777.4992712205738
 21
665.3862537452153
 31
0.0
1001
GENIUS_GENFIL_13
1070
     1
1040
0.5
1040
0.5
1040
5.0
1040
15.0
1002
{
1002
}
1001
GENIUS_GENOBJ-N-CHA_13
1002
{
1000
OWNER
1000
GEN
1002
}
1001
GENIUS_GENODEF_13
1002
{
1000
HIER
1070
     0
1002
}
1002
{
1000
MANEDIT
1070
     0
1002
}
1002
{
1000
NOSEL
1070
     0
1002
}
1002
{
1000
BEHIND
1070
     0
1002
}
1002
{
1000
OTHER
1070
     0
1002
}
1002
{
1000
REACTOR
1002
}
  0
LINE
  5
1D35
330
1F
100
AcDbEntity
  8
0
100
AcDbLine
 10
770.5076427337208
 20
596.938478132291
 30
0.0
 11
775.7397960288686
 21
598.194607002707
 31
0.0
1001
GENIUS_GENFIL_13
1070
     1
1040
0.5
1040
0.5
1040
5.0
1040
15.0
1002
{
1002
}
1001
GENIUS_GENODEF_13
1002
{
1000
HIER
1070
     0
1002
}
1002
{
1000
MANEDIT
1070
     0
1002
}
1002
{
1000
NOSEL
1070
     0
1002
}
1002
{
1000
BEHIND
1070
     0
1002
}
1002
{
1000
OTHER
1070
     0
1002
}
1002
{
1000
REACTOR
1002
}
1001
GENIUS_GENOBJ-N-CHA_13
1002
{
1000
OWNER
1000
GEN
1002
}
  0
LINE
  5
226B
330
1F
100
AcDbEntity
  8
0
100
AcDbLine
 10
776.6195336247208
 20
334.083826943359
 30
0.0
 11
771.6215336247207
 21
335.377826943359
 31
0.0
  0
LINE
  5
226C
330
1F
100
AcDbEntity
  8
0
100
AcDbLine
 10
776.6195336247208
 20
263.6718269433591
 30
0.0
 11
771.6215336247207
 21
262.3778269433591
 31
0.0
  0
LINE
  5
2293
330
1F
100
AcDbEntity
  8
0
100
AcDbLine
 10
207.6195336247206
 20
694.6389249742887
 30
0.0
 11
207.6195336247206
 21
698.6389249742886
 31
0.0
  0
LINE
  5
2294
330
1F
100
AcDbEntity
  8
0
100
AcDbLine
 10
325.6195336247206
 20
694.6389249742887
 30
0.0
 11
325.6195336247206
 21
698.6389249742886
 31
0.0
  0
HATCH
  5
229D
330
1F
100
AcDbEntity
  8
AM_8
100
AcDbHatch
 10
0.0
 20
0.0
 30
0.0
210
0.0
220
0.0
230
1.0
  2
_U
 70
     0
 71
     0
 91
        1
 92
        1
 93
        4
 72
     1
 10
100.6195336247206
 20
694.6389249742886
 11
207.6195336247206
 21
694.6389249742887
 72
     1
 10
207.6195336247206
 20
694.6389249742887
 11
207.6195336247206
 21
698.6389249742886
 72
     1
 10
207.6195336247206
 20
698.6389249742886
 11
100.6195336247206
 21
698.6389249742886
 72
     1
 10
100.6195336247206
 20
698.6389249742886
 11
100.6195336247206
 21
694.6389249742886
 97
        0
 75
     0
 76
     0
 52
135.0
 41
2.7
 77
     0
 78
     1
 53
135.0
 43
-61.7242743839488
 44
1.927784837941544
 45
-1.909188309203678
 46
-1.909188309203678
 79
     0
 98
        1
 10
-61.7242743839488
 20
1.927784837941544
1001
GENIUS_GENOBJ-N-HTC_13
1002
{
1000
OWNER
1000
GEN
1002
}
1001
GENIUS_GENODEF_13
1002
{
1000
HIER
1070
     0
1002
}
1002
{
1000
MANEDIT
1070
     0
1002
}
1002
{
1000
NOSEL
1070
     0
1002
}
1002
{
1000
BEHIND
1070
     0
1002
}
1002
{
1000
OTHER
1070
     0
1002
}
1002
{
1000
REACTOR
1002
}
1001
GENIUS_GENHATCH_13
1002
{
1000
DATA
1040
135.0
1042
2.7
1000
_U
1070
     0
1011
124.1373696010132
1021
696.7340576499296
1031
0.0
1002
}
1002
{
1000
UCS
1010
0.0
1020
0.0
1030
0.0
1010
1.0
1020
0.0
1030
0.0
1010
0.0
1020
1.0
1030
0.0
1002
}
  0
HATCH
  5
22BC
330
1F
100
AcDbEntity
  8
AM_8
100
AcDbHatch
 10
0.0
 20
0.0
 30
0.0
210
0.0
220
0.0
230
1.0
  2
_U
 70
     0
 71
     0
 91
        1
 92
        1
 93
        8
 72
     2
 10
440.1342522504815
 20
704.6389249742892
 40
10.00000000000032
 50
45.00000000000137
 51
89.99999999999934
 73
     0
 72
     1
 10
440.1342522504817
 20
694.6389249742889
 11
325.6195336247206
 21
694.6389249742887
 72
     1
 10
325.6195336247206
 20
694.6389249742887
 11
325.6195336247206
 21
698.6389249742886
 72
     1
 10
325.6195336247206
 20
698.6389249742886
 11
440.1342522504817
 21
698.6389249742884
 72
     2
 10
440.1342522504817
 20
704.6389249742887
 40
6.000000000000227
 50
270.0
 51
314.9999999999985
 73
     1
 72
     1
 10
444.376892937601
 20
700.3962842871691
 11
516.8657456493076
 21
772.8851369988757
 72
     1
 10
516.8657456493076
 20
772.8851369988757
 11
519.6941727740541
 21
770.0567098741297
 72
     1
 10
519.6941727740541
 20
770.0567098741297
 11
447.2053200623471
 21
697.5678571624233
 97
        0
 75
     0
 76
     0
 52
135.0
 41
2.7
 77
     0
 78
     1
 53
135.0
 43
-61.7242743839488
 44
1.927784837941544
 45
-1.909188309203678
 46
-1.909188309203678
 79
     0
 98
        1
 10
-61.7242743839488
 20
1.927784837941544
1001
GENIUS_GENOBJ-N-HTC_13
1002
{
1000
OWNER
1000
GEN
1002
}
1001
GENIUS_GENODEF_13
1002
{
1000
HIER
1070
     0
1002
}
1002
{
1000
MANEDIT
1070
     0
1002
}
1002
{
1000
NOSEL
1070
     0
1002
}
1002
{
1000
BEHIND
1070
     0
1002
}
1002
{
1000
OTHER
1070
     0
1002
}
1002
{
1000
REACTOR
1002
}
1001
GENIUS_GENHATCH_13
1002
{
1000
DATA
1040
135.0
1042
2.7
1000
_U
1070
     0
1011
417.2625638457352
1021
696.5514985800882
1031
0.0
1002
}
1002
{
1000
UCS
1010
0.0
1020
0.0
1030
0.0
1010
1.0
1020
0.0
1030
0.0
1010
0.0
1020
1.0
1030
0.0
1002
}
  0
LINE
  5
2677
330
1F
100
AcDbEntity
  8
P-0000
  6
Continuous
 62
     7
100
AcDbLine
 10
405.1547515377563
 20
698.6389249742886
 30
0.0
 11
405.2714574133672
 21
698.6389249742886
 31
0.0
1001
ACME_LAYERS
1000
1
  0
LINE
  5
2678
330
1F
100
AcDbEntity
  8
P-0000
  6
Continuous
 62
     3
100
AcDbLine
 10
405.1547515377563
 20
698.6389249742886
 30
0.0
 11
406.3432541830918
 21
698.6389249742886
 31
0.0
1001
ACME_LAYERS
1000
1
  0
LINE
  5
2679
330
1F
100
AcDbEntity
  8
P-0000
  6
Continuous
 62
     7
100
AcDbLine
 10
138.6979607494663
 20
700.6389249742887
 30
0.0
 11
145.3695336247205
 21
700.6389249742887
 31
0.0
1001
ACME_LAYERS
1000
1
  0
LINE
  5
267A
330
1F
100
AcDbEntity
  8
P-0000
  6
Continuous
 62
     7
100
AcDbLine
 10
145.3695336247205
 20
700.6389249742887
 30
0.0
 11
146.3695336247207
 21
700.6389249742888
 31
0.0
1001
ACME_LAYERS
1000
1
  0
LINE
  5
267B
330
1F
100
AcDbEntity
  8
P-0000
  6
Continuous
 62
     7
100
AcDbLine
 10
155.3695336247206
 20
700.6389249742887
 30
0.0
 11
162.0411064999744
 21
700.6389249742887
 31
0.0
1001
ACME_LAYERS
1000
1
  0
LINE
  5
267C
330
1F
100
AcDbEntity
  8
P-0000
  6
Continuous
 62
     7
100
AcDbLine
 10
155.3695336247206
 20
702.6389249742886
 30
0.0
 11
162.0411064999744
 21
702.6389249742886
 31
0.0
1001
ACME_LAYERS
1000
1
  0
LINE
  5
267D
330
1F
100
AcDbEntity
  8
P-0000
  6
Continuous
 62
     7
100
AcDbLine
 10
138.6979607494662
 20
702.6389249742886
 30
0.0
 11
145.3695336247205
 21
702.6389249742886
 31
0.0
1001
ACME_LAYERS
1000
1
  0
LINE
  5
267E
330
1F
100
AcDbEntity
  8
P-0000
  6
Continuous
 62
     7
100
AcDbLine
 10
145.3695336247205
 20
702.6389249742886
 30
0.0
 11
146.3695336247207
 21
702.6389249742886
 31
0.0
1001
ACME_LAYERS
1000
1
  0
LINE
  5
267F
330
1F
100
AcDbEntity
  8
P-0000
  6
Continuous
 62
     7
100
AcDbLine
 10
127.9676098360739
 20
698.6389249742886
 30
0.0
 11
134.2126793752276
 21
698.6389249742886
 31
0.0
1001
ACME_LAYERS
1000
1
  0
LINE
  5
2680
330
1F
100
AcDbEntity
  8
P-0000
  6
Continuous
 62
     7
100
AcDbLine
 10
127.967609836074
 20
700.6389249742887
 30
0.0
 11
134.2126793752276
 21
700.6389249742887
 31
0.0
1001
ACME_LAYERS
1000
1
  0
LINE
  5
2681
330
1F
100
AcDbEntity
  8
P-0000
  6
Continuous
 62
     7
100
AcDbLine
 10
172.7714574133674
 20
698.6389249742886
 30
0.0
 11
166.5263878742129
 21
698.6389249742886
 31
0.0
1001
ACME_LAYERS
1000
1
  0
LINE
  5
2682
330
1F
100
AcDbEntity
  8
P-0000
  6
Continuous
 62
     7
100
AcDbLine
 10
172.7714574133674
 20
700.6389249742887
 30
0.0
 11
166.5263878742129
 21
700.6389249742887
 31
0.0
1001
ACME_LAYERS
1000
1
  0
LINE
  5
2683
330
1F
100
AcDbEntity
  8
P-0000
  6
Continuous
 62
     7
100
AcDbLine
 10
179.3695336247206
 20
704.1389249742886
 30
0.0
 11
176.7714574133673
 21
702.6389249742886
 31
0.0
1001
ACME_LAYERS
1000
1
  0
LINE
  5
2684
330
1F
100
AcDbEntity
  8
P-0000
  6
Continuous
 62
     7
100
AcDbLine
 10
176.7714574133673
 20
702.6389249742886
 30
0.0
 11
173.7714574133674
 21
700.9068741667198
 31
0.0
1001
ACME_LAYERS
1000
1
  0
LINE
  5
2686
330
1F
100
AcDbEntity
  8
P-0000
  6
Continuous
 62
     7
100
AcDbLine
 10
172.7714574133674
 20
698.6389249742886
 30
0.0
 11
173.8432541830919
 21
698.6389249742886
 31
0.0
1001
ACME_LAYERS
1000
1
  0
LINE
  5
2687
330
1F
100
AcDbEntity
  8
P-0000
  6
Continuous
 62
     7
100
AcDbLine
 10
180.3695336247206
 20
702.4068741667198
 30
0.0
 11
266.6195336247206
 21
702.4068741667198
 31
0.0
1001
ACME_LAYERS
1000
1
  0
LINE
  5
2688
330
1F
100
AcDbEntity
  8
P-0000
  6
Continuous
 62
     7
100
AcDbLine
 10
179.3695336247206
 20
704.1389249742886
 30
0.0
 11
266.6195336247206
 21
704.1389249742886
 31
0.0
1001
ACME_LAYERS
1000
1
  0
LINE
  5
2689
330
1F
100
AcDbEntity
  8
P-0000
  6
Continuous
 62
     7
100
AcDbLine
 10
121.3695336247206
 20
704.1389249742886
 30
0.0
 11
141.8695336247206
 21
704.1389249742886
 31
0.0
1001
ACME_LAYERS
1000
1
  0
LINE
  5
268A
330
1F
100
AcDbEntity
  8
P-0000
  6
Continuous
 62
     7
100
AcDbLine
 10
180.3695336247206
 20
702.4068741667198
 30
0.0
 11
174.7714574133674
 21
699.1748233591509
 31
0.0
1001
ACME_LAYERS
1000
1
  0
LINE
  5
268B
330
1F
100
AcDbEntity
  8
P-0000
  6
Continuous
 62
     7
100
AcDbLine
 10
163.4553200623475
 20
700.0531385366618
 30
0.0
 11
163.6979607494667
 21
699.8104978495425
 31
0.0
1001
ACME_LAYERS
1000
1
  0
LINE
  5
268C
330
1F
100
AcDbEntity
  8
P-0000
  6
Continuous
 62
     7
100
AcDbLine
 10
162.0411064999744
 20
702.6389249742886
 30
0.0
 11
163.6979607494668
 21
702.6389249742886
 31
0.0
1001
ACME_LAYERS
1000
1
  0
LINE
  5
268D
330
1F
100
AcDbEntity
  8
P-0000
  6
Continuous
 62
     7
100
AcDbLine
 10
137.2837471870932
 20
700.0531385366618
 30
0.0
 11
137.0411064999738
 21
699.8104978495425
 31
0.0
1001
ACME_LAYERS
1000
1
  0
LINE
  5
268E
330
1F
100
AcDbEntity
  8
P-0000
  6
Continuous
 62
     7
100
AcDbLine
 10
134.2126793752276
 20
698.6389249742886
 30
0.0
 11
135.8695336247189
 21
698.6389249742886
 31
0.0
1001
ACME_LAYERS
1000
1
  0
LINE
  5
268F
330
1F
100
AcDbEntity
  8
P-0000
  6
Continuous
 62
     7
100
AcDbLine
 10
179.3695336247206
 20
704.1389249742886
 30
0.0
 11
180.3695336247206
 21
702.4068741667198
 31
0.0
1001
ACME_LAYERS
1000
1
  0
LINE
  5
2690
330
1F
100
AcDbEntity
  8
P-0000
  6
Continuous
 62
     7
100
AcDbLine
 10
121.3695336247206
 20
704.1389249742886
 30
0.0
 11
126.967609836074
 21
700.9068741667198
 31
0.0
1001
ACME_LAYERS
1000
1
  0
LINE
  5
2691
330
1F
100
AcDbEntity
  8
P-0000
  6
Continuous
 62
     7
100
AcDbLine
 10
120.3695336247206
 20
702.4068741667198
 30
0.0
 11
125.9676098360739
 21
699.1748233591509
 31
0.0
1001
ACME_LAYERS
1000
1
  0
LINE
  5
2692
330
1F
100
AcDbEntity
  8
P-0000
  6
Continuous
 62
     7
100
AcDbLine
 10
120.3695336247206
 20
702.4068741667198
 30
0.0
 11
121.3695336247206
 21
704.1389249742886
 31
0.0
1001
ACME_LAYERS
1000
1
  0
LINE
  5
2693
330
1F
100
AcDbEntity
  8
P-0000
  6
Continuous
 62
     7
100
AcDbLine
 10
155.3695336247206
 20
702.6389249742886
 30
0.0
 11
155.3695336247206
 21
700.6389249742887
 31
0.0
1001
ACME_LAYERS
1000
1
  0
LINE
  5
2694
330
1F
100
AcDbEntity
  8
P-0000
  6
Continuous
 62
     7
100
AcDbLine
 10
145.3695336247205
 20
702.6389249742886
 30
0.0
 11
145.3695336247205
 21
700.6389249742887
 31
0.0
1001
ACME_LAYERS
1000
1
  0
LINE
  5
2695
330
1F
100
AcDbEntity
  8
P-0000
  6
Continuous
 62
     7
100
AcDbLine
 10
135.86953362472
 20
701.4673520990348
 30
0.0
 11
135.6268929376007
 21
701.2247114119157
 31
0.0
1001
ACME_LAYERS
1000
1
  0
LINE
  5
2696
330
1F
100
AcDbEntity
  8
P-0000
  6
Continuous
 62
     7
100
AcDbLine
 10
164.8695336247206
 20
701.4673520990348
 30
0.0
 11
165.1121743118398
 21
701.2247114119157
 31
0.0
1001
ACME_LAYERS
1000
1
  0
LINE
  5
2697
330
1F
100
AcDbEntity
  8
P-0000
  6
Continuous
 62
     3
100
AcDbLine
 10
137.8695336247206
 20
700.6389249742887
 30
0.0
 11
138.6979607494663
 21
700.6389249742887
 31
0.0
1001
ACME_LAYERS
1000
1
  0
LINE
  5
2698
330
1F
100
AcDbEntity
  8
P-0000
  6
Continuous
 62
     3
100
AcDbLine
 10
137.2837471870932
 20
700.0531385366618
 30
0.0
 11
137.8695336247206
 21
700.6389249742887
 31
0.0
1001
ACME_LAYERS
1000
1
  0
LINE
  5
2699
330
1F
100
AcDbEntity
  8
P-0000
  6
Continuous
 62
     3
100
AcDbLine
 10
162.8695336247206
 20
700.6389249742887
 30
0.0
 11
163.4553200623475
 21
700.0531385366618
 31
0.0
1001
ACME_LAYERS
1000
1
  0
LINE
  5
269A
330
1F
100
AcDbEntity
  8
P-0000
  6
Continuous
 62
     3
100
AcDbLine
 10
162.0411064999744
 20
700.6389249742887
 30
0.0
 11
162.8695336247206
 21
700.6389249742887
 31
0.0
1001
ACME_LAYERS
1000
1
  0
LINE
  5
269B
330
1F
100
AcDbEntity
  8
P-0000
  6
Continuous
 62
     7
100
AcDbLine
 10
387.8695336247206
 20
700.6389249742887
 30
0.0
 11
394.5411064999748
 21
700.6389249742887
 31
0.0
1001
ACME_LAYERS
1000
1
  0
LINE
  5
269C
330
1F
100
AcDbEntity
  8
P-0000
  6
Continuous
 62
     7
100
AcDbLine
 10
377.8695336247206
 20
700.6389249742887
 30
0.0
 11
378.8695336247207
 21
700.6389249742887
 31
0.0
1001
ACME_LAYERS
1000
1
  0
LINE
  5
269D
330
1F
100
AcDbEntity
  8
P-0000
  6
Continuous
 62
     7
100
AcDbLine
 10
371.1979607494668
 20
700.6389249742887
 30
0.0
 11
377.8695336247206
 21
700.6389249742887
 31
0.0
1001
ACME_LAYERS
1000
1
  0
LINE
  5
269E
330
1F
100
AcDbEntity
  8
P-0000
  6
Continuous
 62
     7
100
AcDbLine
 10
371.1979607494668
 20
702.6389249742886
 30
0.0
 11
377.8695336247206
 21
702.6389249742886
 31
0.0
1001
ACME_LAYERS
1000
1
  0
LINE
  5
269F
330
1F
100
AcDbEntity
  8
P-0000
  6
Continuous
 62
     7
100
AcDbLine
 10
387.8695336247206
 20
702.6389249742886
 30
0.0
 11
394.5411064999751
 21
702.6389249742886
 31
0.0
1001
ACME_LAYERS
1000
1
  0
LINE
  5
26A0
330
1F
100
AcDbEntity
  8
P-0000
  6
Continuous
 62
     7
100
AcDbLine
 10
377.8695336247206
 20
702.6389249742886
 30
0.0
 11
378.8695336247207
 21
702.6389249742886
 31
0.0
1001
ACME_LAYERS
1000
1
  0
LINE
  5
26A1
330
1F
100
AcDbEntity
  8
P-0000
  6
Continuous
 62
     7
100
AcDbLine
 10
399.0263878742136
 20
698.6389249742886
 30
0.0
 11
405.1547515377563
 21
698.6389249742886
 31
0.0
1001
ACME_LAYERS
1000
1
  0
LINE
  5
26A2
330
1F
100
AcDbEntity
  8
P-0000
  6
Continuous
 62
     7
100
AcDbLine
 10
399.0263878742136
 20
700.6389249742887
 30
0.0
 11
405.2714574133672
 21
700.6389249742887
 31
0.0
1001
ACME_LAYERS
1000
1
  0
LINE
  5
26A3
330
1F
100
AcDbEntity
  8
P-0000
  6
Continuous
 62
     7
100
AcDbLine
 10
366.7126793752283
 20
698.6389249742886
 30
0.0
 11
360.4676098360737
 21
698.6389249742886
 31
0.0
1001
ACME_LAYERS
1000
1
  0
LINE
  5
26A4
330
1F
100
AcDbEntity
  8
P-0000
  6
Continuous
 62
     7
100
AcDbLine
 10
366.7126793752283
 20
700.6389249742887
 30
0.0
 11
360.4676098360737
 21
700.6389249742887
 31
0.0
1001
ACME_LAYERS
1000
1
  0
LINE
  5
26A5
330
1F
100
AcDbEntity
  8
P-0000
  6
Continuous
 62
     7
100
AcDbLine
 10
356.4676098360739
 20
702.6389249742886
 30
0.0
 11
353.8695336247206
 21
704.1389249742886
 31
0.0
1001
ACME_LAYERS
1000
1
  0
LINE
  5
26A6
330
1F
100
AcDbEntity
  8
P-0000
  6
Continuous
 62
     7
100
AcDbLine
 10
359.4676098360737
 20
700.9068741667198
 30
0.0
 11
356.4676098360739
 21
702.6389249742886
 31
0.0
1001
ACME_LAYERS
1000
1
  0
LINE
  5
26A9
330
1F
100
AcDbEntity
  8
P-0000
  6
Continuous
 62
     7
100
AcDbLine
 10
266.6195336247206
 20
698.6389249742886
 30
0.0
 11
359.3958130663493
 21
698.6389249742886
 31
0.0
1001
ACME_LAYERS
1000
1
  0
LINE
  5
26AA
330
1F
100
AcDbEntity
  8
P-0000
  6
Continuous
 62
     7
100
AcDbLine
 10
266.6195336247206
 20
702.4068741667198
 30
0.0
 11
352.8695336247206
 21
702.4068741667198
 31
0.0
1001
ACME_LAYERS
1000
1
  0
LINE
  5
26AB
330
1F
100
AcDbEntity
  8
P-0000
  6
Continuous
 62
     7
100
AcDbLine
 10
266.6195336247206
 20
704.1389249742886
 30
0.0
 11
353.8695336247206
 21
704.1389249742886
 31
0.0
1001
ACME_LAYERS
1000
1
  0
LINE
  5
26AC
330
1F
100
AcDbEntity
  8
P-0000
  6
Continuous
 62
     7
100
AcDbLine
 10
357.3206960738374
 20
704.1389249742886
 30
0.0
 11
374.3695336247206
 21
704.1389249742885
 31
0.0
1001
ACME_LAYERS
1000
1
  0
LINE
  5
26AD
330
1F
100
AcDbEntity
  8
P-0000
  6
Continuous
 62
     7
100
AcDbLine
 10
358.4676098360737
 20
699.1748233591509
 30
0.0
 11
352.8695336247206
 21
702.4068741667198
 31
0.0
1001
ACME_LAYERS
1000
1
  0
LINE
  5
26AE
330
1F
100
AcDbEntity
  8
P-0000
  6
Continuous
 62
     7
100
AcDbLine
 10
369.5411064999745
 20
699.8104978495425
 30
0.0
 11
369.7837471870937
 21
700.0531385366618
 31
0.0
1001
ACME_LAYERS
1000
1
  0
LINE
  5
26AF
330
1F
100
AcDbEntity
  8
P-0000
  6
Continuous
 62
     7
100
AcDbLine
 10
356.4676098360739
 20
702.6389249742886
 30
0.0
 11
369.5411064999744
 21
702.6389249742886
 31
0.0
1001
ACME_LAYERS
1000
1
  0
LINE
  5
26B0
330
1F
100
AcDbEntity
  8
P-0000
  6
Continuous
 62
     7
100
AcDbLine
 10
396.1979607494674
 20
699.8104978495425
 30
0.0
 11
395.9553200623479
 21
700.0531385366618
 31
0.0
1001
ACME_LAYERS
1000
1
  0
LINE
  5
26B1
330
1F
100
AcDbEntity
  8
P-0000
  6
Continuous
 62
     7
100
AcDbLine
 10
366.7126793752283
 20
698.6389249742886
 30
0.0
 11
368.3695336247206
 21
698.6389249742886
 31
0.0
1001
ACME_LAYERS
1000
1
  0
LINE
  5
26B2
330
1F
100
AcDbEntity
  8
P-0000
  6
Continuous
 62
     7
100
AcDbLine
 10
352.8695336247206
 20
702.4068741667198
 30
0.0
 11
353.8695336247206
 21
704.1389249742886
 31
0.0
1001
ACME_LAYERS
1000
1
  0
LINE
  5
26B3
330
1F
100
AcDbEntity
  8
P-0000
  6
Continuous
 62
     7
100
AcDbLine
 10
406.2714574133671
 20
700.9068741667198
 30
0.0
 11
411.8695336247205
 21
704.1389249742886
 31
0.0
1001
ACME_LAYERS
1000
1
  0
LINE
  5
26B4
330
1F
100
AcDbEntity
  8
P-0000
  6
Continuous
 62
     7
100
AcDbLine
 10
407.2714574133673
 20
699.1748233591509
 30
0.0
 11
412.8695336247205
 21
702.4068741667198
 31
0.0
1001
ACME_LAYERS
1000
1
  0
LINE
  5
26B5
330
1F
100
AcDbEntity
  8
P-0000
  6
Continuous
 62
     7
100
AcDbLine
 10
411.8695336247205
 20
704.1389249742886
 30
0.0
 11
412.8695336247205
 21
702.4068741667198
 31
0.0
1001
ACME_LAYERS
1000
1
  0
LINE
  5
26B6
330
1F
100
AcDbEntity
  8
P-0000
  6
Continuous
 62
     7
100
AcDbLine
 10
377.8695336247206
 20
700.6389249742887
 30
0.0
 11
377.8695336247206
 21
702.6389249742886
 31
0.0
1001
ACME_LAYERS
1000
1
  0
LINE
  5
26B7
330
1F
100
AcDbEntity
  8
P-0000
  6
Continuous
 62
     7
100
AcDbLine
 10
387.8695336247206
 20
700.6389249742887
 30
0.0
 11
387.8695336247206
 21
702.6389249742886
 31
0.0
1001
ACME_LAYERS
1000
1
  0
LINE
  5
26B8
330
1F
100
AcDbEntity
  8
P-0000
  6
Continuous
 62
     7
100
AcDbLine
 10
397.6121743118405
 20
701.2247114119157
 30
0.0
 11
397.3695336247212
 21
701.4673520990348
 31
0.0
1001
ACME_LAYERS
1000
1
  0
LINE
  5
26B9
330
1F
100
AcDbEntity
  8
P-0000
  6
Continuous
 62
     7
100
AcDbLine
 10
368.1268929376014
 20
701.2247114119157
 30
0.0
 11
368.3695336247206
 21
701.4673520990348
 31
0.0
1001
ACME_LAYERS
1000
1
  0
LINE
  5
26BA
330
1F
100
AcDbEntity
  8
P-0000
  6
Continuous
 62
     3
100
AcDbLine
 10
394.5411064999748
 20
700.6389249742887
 30
0.0
 11
395.3695336247206
 21
700.6389249742887
 31
0.0
1001
ACME_LAYERS
1000
1
  0
LINE
  5
26BB
330
1F
100
AcDbEntity
  8
P-0000
  6
Continuous
 62
     3
100
AcDbLine
 10
395.3695336247206
 20
700.6389249742887
 30
0.0
 11
395.9553200623479
 21
700.0531385366618
 31
0.0
1001
ACME_LAYERS
1000
1
  0
LINE
  5
26BC
330
1F
100
AcDbEntity
  8
P-0000
  6
Continuous
 62
     3
100
AcDbLine
 10
369.7837471870937
 20
700.0531385366618
 30
0.0
 11
370.3695336247206
 21
700.6389249742887
 31
0.0
1001
ACME_LAYERS
1000
1
  0
LINE
  5
26BD
330
1F
100
AcDbEntity
  8
P-0000
  6
Continuous
 62
     3
100
AcDbLine
 10
370.3695336247206
 20
700.6389249742887
 30
0.0
 11
371.1979607494668
 21
700.6389249742887
 31
0.0
1001
ACME_LAYERS
1000
1
  0
LINE
  5
26BE
330
1F
100
AcDbEntity
  8
P-0000
  6
Continuous
 62
     3
100
AcDbLine
 10
163.6979607494667
 20
699.8104978495425
 30
0.0
 11
164.8695336247206
 21
698.6389249742886
 31
0.0
1001
ACME_LAYERS
1000
1
  0
LINE
  5
26BF
330
1F
100
AcDbEntity
  8
P-0000
  6
Continuous
 62
     7
100
AcDbLine
 10
164.8695336247206
 20
698.6389249742886
 30
0.0
 11
166.5263878742129
 21
698.6389249742886
 31
0.0
1001
ACME_LAYERS
1000
1
  0
LINE
  5
26C0
330
1F
100
AcDbEntity
  8
P-0000
  6
Continuous
 62
     3
100
AcDbLine
 10
165.1121743118398
 20
701.2247114119157
 30
0.0
 11
165.6979607494668
 21
700.6389249742887
 31
0.0
1001
ACME_LAYERS
1000
1
  0
LINE
  5
26C1
330
1F
100
AcDbEntity
  8
P-0000
  6
Continuous
 62
     3
100
AcDbLine
 10
165.6979607494668
 20
700.6389249742887
 30
0.0
 11
166.5263878742129
 21
700.6389249742887
 31
0.0
1001
ACME_LAYERS
1000
1
  0
LINE
  5
26C2
330
1F
100
AcDbEntity
  8
P-0000
  6
Continuous
 62
     3
100
AcDbLine
 10
172.7714574133674
 20
700.6389249742887
 30
0.0
 11
173.3073557982295
 21
700.6389249742887
 31
0.0
1001
ACME_LAYERS
1000
1
  0
LINE
  5
26C3
330
1F
100
AcDbEntity
  8
P-0000
  6
Continuous
 62
     3
100
AcDbLine
 10
173.3073557982295
 20
700.6389249742887
 30
0.0
 11
173.7714574133674
 21
700.9068741667198
 31
0.0
1001
ACME_LAYERS
1000
1
  0
LINE
  5
26C4
330
1F
100
AcDbEntity
  8
P-0000
  6
Continuous
 62
     3
100
AcDbLine
 10
174.7714574133674
 20
699.1748233591509
 30
0.0
 11
173.8432541830919
 21
698.6389249742886
 31
0.0
1001
ACME_LAYERS
1000
1
  0
LINE
  5
26C5
330
1F
100
AcDbEntity
  8
P-0000
  6
Continuous
 62
     7
100
AcDbLine
 10
173.8432541830919
 20
698.6389249742886
 30
0.0
 11
266.6195336247206
 21
698.6389249742886
 31
0.0
1001
ACME_LAYERS
1000
1
  0
LINE
  5
26C6
330
1F
100
AcDbEntity
  8
P-0000
  6
Continuous
 62
     3
100
AcDbLine
 10
126.967609836074
 20
700.9068741667198
 30
0.0
 11
127.4317114512117
 21
700.6389249742887
 31
0.0
1001
ACME_LAYERS
1000
1
  0
LINE
  5
26C7
330
1F
100
AcDbEntity
  8
P-0000
  6
Continuous
 62
     3
100
AcDbLine
 10
127.4317114512117
 20
700.6389249742887
 30
0.0
 11
127.967609836074
 21
700.6389249742887
 31
0.0
1001
ACME_LAYERS
1000
1
  0
LINE
  5
26C8
330
1F
100
AcDbEntity
  8
P-0000
  6
Continuous
 62
     3
100
AcDbLine
 10
125.9676098360739
 20
699.1748233591509
 30
0.0
 11
126.8958130663494
 21
698.6389249742886
 31
0.0
1001
ACME_LAYERS
1000
1
  0
LINE
  5
26C9
330
1F
100
AcDbEntity
  8
P-0000
  6
Continuous
 62
     3
100
AcDbLine
 10
126.8958130663494
 20
698.6389249742886
 30
0.0
 11
127.9676098360739
 21
698.6389249742886
 31
0.0
1001
ACME_LAYERS
1000
1
  0
LINE
  5
26CA
330
1F
100
AcDbEntity
  8
P-0000
  6
Continuous
 62
     3
100
AcDbLine
 10
135.86953362472
 20
701.4673520990348
 30
0.0
 11
137.0411064999744
 21
702.6389249742886
 31
0.0
1001
ACME_LAYERS
1000
1
  0
LINE
  5
26CB
330
1F
100
AcDbEntity
  8
P-0000
  6
Continuous
 62
     3
100
AcDbLine
 10
137.0411064999744
 20
702.6389249742886
 30
0.0
 11
138.6979607494662
 21
702.6389249742886
 31
0.0
1001
ACME_LAYERS
1000
1
  0
LINE
  5
26CC
330
1F
100
AcDbEntity
  8
P-0000
  6
Continuous
 62
     3
100
AcDbLine
 10
359.4676098360737
 20
700.9068741667198
 30
0.0
 11
359.9317114512116
 21
700.6389249742887
 31
0.0
1001
ACME_LAYERS
1000
1
  0
LINE
  5
26CD
330
1F
100
AcDbEntity
  8
P-0000
  6
Continuous
 62
     3
100
AcDbLine
 10
359.9317114512116
 20
700.6389249742887
 30
0.0
 11
360.4676098360737
 21
700.6389249742887
 31
0.0
1001
ACME_LAYERS
1000
1
  0
LINE
  5
26CE
330
1F
100
AcDbEntity
  8
P-0000
  6
Continuous
 62
     3
100
AcDbLine
 10
358.4676098360737
 20
699.1748233591509
 30
0.0
 11
359.3958130663493
 21
698.6389249742886
 31
0.0
1001
ACME_LAYERS
1000
1
  0
LINE
  5
26CF
330
1F
100
AcDbEntity
  8
P-0000
  6
Continuous
 62
     7
100
AcDbLine
 10
359.3958130663493
 20
698.6389249742886
 30
0.0
 11
360.4676098360737
 21
698.6389249742886
 31
0.0
1001
ACME_LAYERS
1000
1
  0
LINE
  5
26D0
330
1F
100
AcDbEntity
  8
P-0000
  6
Continuous
 62
     3
100
AcDbLine
 10
366.7126793752283
 20
700.6389249742887
 30
0.0
 11
367.5411064999744
 21
700.6389249742887
 31
0.0
1001
ACME_LAYERS
1000
1
  0
LINE
  5
26D1
330
1F
100
AcDbEntity
  8
P-0000
  6
Continuous
 62
     3
100
AcDbLine
 10
367.5411064999744
 20
700.6389249742887
 30
0.0
 11
368.1268929376014
 21
701.2247114119157
 31
0.0
1001
ACME_LAYERS
1000
1
  0
LINE
  5
26D2
330
1F
100
AcDbEntity
  8
P-0000
  6
Continuous
 62
     3
100
AcDbLine
 10
369.5411064999745
 20
699.8104978495425
 30
0.0
 11
368.3695336247206
 21
698.6389249742886
 31
0.0
1001
ACME_LAYERS
1000
1
  0
LINE
  5
26D3
330
1F
100
AcDbEntity
  8
P-0000
  6
Continuous
 62
     7
100
AcDbLine
 10
368.3695336247206
 20
698.6389249742886
 30
0.0
 11
397.3695336247223
 21
698.6389249742886
 31
0.0
1001
ACME_LAYERS
1000
1
  0
LINE
  5
26D4
330
1F
100
AcDbEntity
  8
P-0000
  6
Continuous
 62
     3
100
AcDbLine
 10
368.3695336247206
 20
701.4673520990348
 30
0.0
 11
369.5411064999744
 21
702.6389249742886
 31
0.0
1001
ACME_LAYERS
1000
1
  0
LINE
  5
26D5
330
1F
100
AcDbEntity
  8
P-0000
  6
Continuous
 62
     7
100
AcDbLine
 10
369.5411064999744
 20
702.6389249742886
 30
0.0
 11
371.1979607494668
 21
702.6389249742886
 31
0.0
1001
ACME_LAYERS
1000
1
  0
LINE
  5
26D6
330
1F
100
AcDbEntity
  8
P-0000
  6
Continuous
 62
     3
100
AcDbLine
 10
394.5411064999751
 20
702.6389249742886
 30
0.0
 11
396.197960749467
 21
702.6389249742886
 31
0.0
1001
ACME_LAYERS
1000
1
  0
LINE
  5
26D7
330
1F
100
AcDbEntity
  8
P-0000
  6
Continuous
 62
     3
100
AcDbLine
 10
396.197960749467
 20
702.6389249742886
 30
0.0
 11
397.3695336247212
 21
701.4673520990348
 31
0.0
1001
ACME_LAYERS
1000
1
  0
LINE
  5
26D8
330
1F
100
AcDbEntity
  8
P-0000
  6
Continuous
 62
     3
100
AcDbLine
 10
397.6121743118405
 20
701.2247114119157
 30
0.0
 11
398.1979607494677
 21
700.6389249742887
 31
0.0
1001
ACME_LAYERS
1000
1
  0
LINE
  5
26D9
330
1F
100
AcDbEntity
  8
P-0000
  6
Continuous
 62
     3
100
AcDbLine
 10
398.1979607494677
 20
700.6389249742887
 30
0.0
 11
399.0263878742136
 21
700.6389249742887
 31
0.0
1001
ACME_LAYERS
1000
1
  0
LINE
  5
26DA
330
1F
100
AcDbEntity
  8
P-0000
  6
Continuous
 62
     3
100
AcDbLine
 10
405.2714574133672
 20
700.6389249742887
 30
0.0
 11
405.8073557982294
 21
700.6389249742887
 31
0.0
1001
ACME_LAYERS
1000
1
  0
LINE
  5
26DB
330
1F
100
AcDbEntity
  8
P-0000
  6
Continuous
 62
     3
100
AcDbLine
 10
405.8073557982294
 20
700.6389249742887
 30
0.0
 11
406.2714574133671
 21
700.9068741667198
 31
0.0
1001
ACME_LAYERS
1000
1
  0
LINE
  5
26DC
330
1F
100
AcDbEntity
  8
P-0000
  6
Continuous
 62
     3
100
AcDbLine
 10
407.2714574133673
 20
699.1748233591509
 30
0.0
 11
406.3432541830918
 21
698.6389249742886
 31
0.0
1001
ACME_LAYERS
1000
1
  0
LINE
  5
26DD
330
1F
100
AcDbEntity
  8
P-0000
  6
Continuous
 62
     3
100
AcDbLine
 10
134.2126793752276
 20
700.6389249742887
 30
0.0
 11
135.0411064999734
 21
700.6389249742887
 31
0.0
1001
ACME_LAYERS
1000
1
  0
LINE
  5
26DE
330
1F
100
AcDbEntity
  8
P-0000
  6
Continuous
 62
     3
100
AcDbLine
 10
135.0411064999734
 20
700.6389249742887
 30
0.0
 11
135.6268929376007
 21
701.2247114119157
 31
0.0
1001
ACME_LAYERS
1000
1
  0
LINE
  5
26DF
330
1F
100
AcDbEntity
  8
P-0000
  6
Continuous
 62
     3
100
AcDbLine
 10
137.0411064999738
 20
699.8104978495425
 30
0.0
 11
135.8695336247189
 21
698.6389249742886
 31
0.0
1001
ACME_LAYERS
1000
1
  0
LINE
  5
26E0
330
1F
100
AcDbEntity
  8
P-0000
  6
Continuous
 62
     7
100
AcDbLine
 10
135.8695336247189
 20
698.6389249742886
 30
0.0
 11
164.8695336247206
 21
698.6389249742886
 31
0.0
1001
ACME_LAYERS
1000
1
  0
LINE
  5
26E1
330
1F
100
AcDbEntity
  8
P-0000
  6
Continuous
 62
     3
100
AcDbLine
 10
164.8695336247206
 20
701.4673520990348
 30
0.0
 11
163.6979607494668
 21
702.6389249742886
 31
0.0
1001
ACME_LAYERS
1000
1
  0
LINE
  5
26E2
330
1F
100
AcDbEntity
  8
P-0000
  6
Continuous
 62
     7
100
AcDbLine
 10
163.6979607494668
 20
702.6389249742886
 30
0.0
 11
176.7714574133673
 21
702.6389249742886
 31
0.0
1001
ACME_LAYERS
1000
1
  0
LINE
  5
26E3
330
1F
100
AcDbEntity
  8
P-0000
  6
Continuous
 62
     3
100
AcDbLine
 10
396.1979607494674
 20
699.8104978495425
 30
0.0
 11
397.3695336247223
 21
698.6389249742886
 31
0.0
1001
ACME_LAYERS
1000
1
  0
LINE
  5
26E4
330
1F
100
AcDbEntity
  8
P-0000
  6
Continuous
 62
     7
100
AcDbLine
 10
397.3695336247223
 20
698.6389249742886
 30
0.0
 11
399.0263878742136
 21
698.6389249742886
 31
0.0
1001
ACME_LAYERS
1000
1
  0
ARC
  5
26E5
330
1F
100
AcDbEntity
  8
P-0000
  6
Continuous
 62
     7
100
AcDbCircle
 10
172.7714574133674
 20
702.6389249742886
 30
0.0
 40
4.0
100
AcDbArc
 50
270.0
 51
299.9999999999996
1001
ACME_LAYERS
1000
1
  0
ARC
  5
26E6
330
1F
100
AcDbEntity
  8
P-0000
  6
Continuous
 62
     7
100
AcDbCircle
 10
166.5263878742129
 20
702.6389249742886
 30
0.0
 40
3.999999999999949
100
AcDbArc
 50
225.0
 51
270.0
1001
ACME_LAYERS
1000
1
  0
ARC
  5
26E7
330
1F
100
AcDbEntity
  8
P-0000
  6
Continuous
 62
     7
100
AcDbCircle
 10
162.0411064999744
 20
698.6389249742886
 30
0.0
 40
4.000000000000031
100
AcDbArc
 50
45.00000000000005
 51
90.0
1001
ACME_LAYERS
1000
1
  0
ARC
  5
26E8
330
1F
100
AcDbEntity
  8
P-0000
  6
Continuous
 62
     7
100
AcDbCircle
 10
134.2126793752276
 20
702.6389249742886
 30
0.0
 40
4.0
100
AcDbArc
 50
270.0
 51
314.9999999999999
1001
ACME_LAYERS
1000
1
  0
ARC
  5
26E9
330
1F
100
AcDbEntity
  8
P-0000
  6
Continuous
 62
     7
100
AcDbCircle
 10
360.4676098360737
 20
702.6389249742886
 30
0.0
 40
3.999999999999934
100
AcDbArc
 50
239.9999999999995
 51
270.0
1001
ACME_LAYERS
1000
1
  0
ARC
  5
26EA
330
1F
100
AcDbEntity
  8
P-0000
  6
Continuous
 62
     7
100
AcDbCircle
 10
366.7126793752283
 20
702.6389249742886
 30
0.0
 40
4.0
100
AcDbArc
 50
270.0
 51
314.9999999999999
1001
ACME_LAYERS
1000
1
  0
ARC
  5
26EB
330
1F
100
AcDbEntity
  8
P-0000
  6
Continuous
 62
     7
100
AcDbCircle
 10
371.1979607494668
 20
698.6389249742886
 30
0.0
 40
4.0
100
AcDbArc
 50
90.0
 51
134.9999999999999
1001
ACME_LAYERS
1000
1
  0
ARC
  5
26EC
330
1F
100
AcDbEntity
  8
P-0000
  6
Continuous
 62
     7
100
AcDbCircle
 10
399.0263878742136
 20
702.6389249742886
 30
0.0
 40
3.999999999999952
100
AcDbArc
 50
225.0
 51
270.0
1001
ACME_LAYERS
1000
1
  0
ARC
  5
26ED
330
1F
100
AcDbEntity
  8
P-0000
  6
Continuous
 62
     7
100
AcDbCircle
 10
138.6979607494663
 20
698.6389249742886
 30
0.0
 40
4.0
100
AcDbArc
 50
90.0
 51
134.9999999999999
1001
ACME_LAYERS
1000
1
  0
ARC
  5
26EE
330
1F
100
AcDbEntity
  8
P-0000
  6
Continuous
 62
     7
100
AcDbCircle
 10
127.967609836074
 20
702.6389249742886
 30
0.0
 40
3.99999999999998
100
AcDbArc
 50
239.9999999999967
 51
270.0
1001
ACME_LAYERS
1000
1
  0
ARC
  5
26EF
330
1F
100
AcDbEntity
  8
P-0000
  6
Continuous
 62
     7
100
AcDbCircle
 10
127.967609836074
 20
702.6389249742886
 30
0.0
 40
2.000000000000016
100
AcDbArc
 50
239.9999999999995
 51
270.0
1001
ACME_LAYERS
1000
1
  0
ARC
  5
26F0
330
1F
100
AcDbEntity
  8
P-0000
  6
Continuous
 62
     7
100
AcDbCircle
 10
134.2126793752276
 20
702.6389249742886
 30
0.0
 40
2.0
100
AcDbArc
 50
270.0
 51
314.9999999999999
1001
ACME_LAYERS
1000
1
  0
ARC
  5
26F1
330
1F
100
AcDbEntity
  8
P-0000
  6
Continuous
 62
     7
100
AcDbCircle
 10
138.6979607494663
 20
698.6389249742886
 30
0.0
 40
2.0
100
AcDbArc
 50
90.0
 51
134.9999999999999
1001
ACME_LAYERS
1000
1
  0
ARC
  5
26F2
330
1F
100
AcDbEntity
  8
P-0000
  6
Continuous
 62
     7
100
AcDbCircle
 10
162.0411064999744
 20
698.6389249742886
 30
0.0
 40
2.000000000000018
100
AcDbArc
 50
45.00000000000005
 51
90.0
1001
ACME_LAYERS
1000
1
  0
ARC
  5
26F3
330
1F
100
AcDbEntity
  8
P-0000
  6
Continuous
 62
     7
100
AcDbCircle
 10
166.5263878742129
 20
702.6389249742886
 30
0.0
 40
1.99999999999993
100
AcDbArc
 50
225.0
 51
270.0
1001
ACME_LAYERS
1000
1
  0
ARC
  5
26F4
330
1F
100
AcDbEntity
  8
P-0000
  6
Continuous
 62
     7
100
AcDbCircle
 10
172.7714574133674
 20
702.6389249742886
 30
0.0
 40
2.0
100
AcDbArc
 50
270.0
 51
299.9999999999996
1001
ACME_LAYERS
1000
1
  0
ARC
  5
26F5
330
1F
100
AcDbEntity
  8
P-0000
  6
Continuous
 62
     7
100
AcDbCircle
 10
394.5411064999748
 20
698.6389249742886
 30
0.0
 40
4.000000000000092
100
AcDbArc
 50
45.00000000000005
 51
89.99999999999674
1001
ACME_LAYERS
1000
1
  0
ARC
  5
26F6
330
1F
100
AcDbEntity
  8
P-0000
  6
Continuous
 62
     7
100
AcDbCircle
 10
405.2714574133672
 20
702.6389249742886
 30
0.0
 40
4.0
100
AcDbArc
 50
270.0
 51
300.0000000000033
1001
ACME_LAYERS
1000
1
  0
ARC
  5
26F7
330
1F
100
AcDbEntity
  8
P-0000
  6
Continuous
 62
     7
100
AcDbCircle
 10
405.2714574133672
 20
702.6389249742886
 30
0.0
 40
2.0
100
AcDbArc
 50
270.0
 51
299.9999999999996
1001
ACME_LAYERS
1000
1
  0
ARC
  5
26F8
330
1F
100
AcDbEntity
  8
P-0000
  6
Continuous
 62
     7
100
AcDbCircle
 10
399.0263878742136
 20
702.6389249742886
 30
0.0
 40
1.999999999999935
100
AcDbArc
 50
225.0
 51
270.0
1001
ACME_LAYERS
1000
1
  0
ARC
  5
26F9
330
1F
100
AcDbEntity
  8
P-0000
  6
Continuous
 62
     7
100
AcDbCircle
 10
394.5411064999748
 20
698.6389249742886
 30
0.0
 40
2.000000000000015
100
AcDbArc
 50
45.00000000000005
 51
90.0
1001
ACME_LAYERS
1000
1
  0
ARC
  5
26FA
330
1F
100
AcDbEntity
  8
P-0000
  6
Continuous
 62
     7
100
AcDbCircle
 10
371.1979607494668
 20
698.6389249742886
 30
0.0
 40
2.0
100
AcDbArc
 50
90.0
 51
134.9999999999999
1001
ACME_LAYERS
1000
1
  0
ARC
  5
26FB
330
1F
100
AcDbEntity
  8
P-0000
  6
Continuous
 62
     7
100
AcDbCircle
 10
366.7126793752283
 20
702.6389249742886
 30
0.0
 40
2.0
100
AcDbArc
 50
270.0
 51
314.9999999999999
1001
ACME_LAYERS
1000
1
  0
ARC
  5
26FC
330
1F
100
AcDbEntity
  8
P-0000
  6
Continuous
 62
     7
100
AcDbCircle
 10
360.4676098360737
 20
702.6389249742886
 30
0.0
 40
1.999999999999917
100
AcDbArc
 50
239.9999999999995
 51
270.0
1001
ACME_LAYERS
1000
1
  0
HATCH
  5
26FD
330
1F
100
AcDbEntity
  8
P-0000
  6
Continuous
 62
     1
100
AcDbHatch
 10
0.0
 20
0.0
 30
0.0
210
0.0
220
0.0
230
1.0
  2
_U
 70
     0
 71
     0
 91
        1
 92
        1
 93
       18
 72
     2
 10
405.2714574133672
 20
702.6389249742886
 40
2.0
 50
270.0
 51
299.9999999999997
 73
     1
 72
     1
 10
406.2714574133671
 20
700.9068741667198
 11
411.8695336247205
 21
704.1389249742886
 72
     1
 10
411.8695336247205
 20
704.1389249742886
 11
412.8695336247205
 21
702.4068741667198
 72
     1
 10
412.8695336247205
 20
702.4068741667198
 11
407.2714574133673
 21
699.1748233591509
 72
     2
 10
405.2714574133672
 20
702.6389249742886
 40
4.0
 50
59.99999999999804
 51
89.99999999999836
 73
     0
 72
     1
 10
405.2714574133672
 20
698.6389249742886
 11
405.1547515377563
 21
698.6389249742886
 72
     1
 10
405.1547515377563
 20
698.6389249742886
 11
399.0263878742136
 21
698.6389249742886
 72
     2
 10
399.0263878742136
 20
702.6389249742886
 40
3.999999999999952
 50
90.0
 51
135.0000000000011
 73
     0
 72
     1
 10
396.1979607494674
 20
699.8104978495425
 11
395.9553200623479
 21
700.0531385366618
 72
     1
 10
395.9553200623479
 20
700.0531385366618
 11
395.3695336247206
 21
700.6389249742887
 72
     1
 10
395.3695336247206
 20
700.6389249742887
 11
394.5411064999748
 21
700.6389249742887
 72
     1
 10
394.5411064999748
 20
700.6389249742887
 11
387.8695336247206
 21
700.6389249742887
 72
     1
 10
387.8695336247206
 20
700.6389249742887
 11
387.8695336247206
 21
702.6389249742886
 72
     1
 10
387.8695336247206
 20
702.6389249742886
 11
394.5411064999751
 21
702.6389249742886
 72
     2
 10
394.5411064999748
 20
698.6389249742886
 40
4.000000000000092
 50
270.0000000000017
 51
315.0000000000009
 73
     0
 72
     1
 10
397.3695336247212
 20
701.4673520990348
 11
397.6121743118405
 21
701.2247114119157
 72
     2
 10
399.0263878742136
 20
702.6389249742886
 40
1.999999999999935
 50
224.9999999999977
 51
270.0
 73
     1
 72
     1
 10
399.0263878742136
 20
700.6389249742887
 11
405.2714574133672
 21
700.6389249742887
 97
        0
 75
     0
 76
     0
 52
45.0
 41
5.0
 77
     0
 78
     1
 53
45.0
 43
182.2478289874623
 44
1068.831524211445
 45
-3.535533905932737
 46
3.535533905932737
 79
     0
 98
        1
 10
182.2478289874623
 20
1068.831524211445
1001
ACME_LAYERS
1000
1
  0
HATCH
  5
26FE
330
1F
100
AcDbEntity
  8
P-0000
  6
Continuous
 62
     1
100
AcDbHatch
 10
0.0
 20
0.0
 30
0.0
210
0.0
220
0.0
230
1.0
  2
_U
 70
     0
 71
     0
 91
        1
 92
        1
 93
       18
 72
     2
 10
366.7126793752283
 20
702.6389249742886
 40
2.0
 50
270.0
 51
315.0000000000023
 73
     1
 72
     1
 10
368.1268929376014
 20
701.2247114119157
 11
368.3695336247206
 21
701.4673520990348
 72
     2
 10
371.1979607494668
 20
698.6389249742886
 40
4.0
 50
225.0
 51
270.0
 73
     0
 72
     1
 10
371.1979607494668
 20
702.6389249742886
 11
377.8695336247206
 21
702.6389249742886
 72
     1
 10
377.8695336247206
 20
702.6389249742886
 11
377.8695336247206
 21
700.6389249742887
 72
     1
 10
377.8695336247206
 20
700.6389249742887
 11
371.1979607494668
 21
700.6389249742887
 72
     1
 10
371.1979607494668
 20
700.6389249742887
 11
370.3695336247206
 21
700.6389249742887
 72
     1
 10
370.3695336247206
 20
700.6389249742887
 11
369.7837471870937
 21
700.0531385366618
 72
     1
 10
369.7837471870937
 20
700.0531385366618
 11
369.5411064999745
 21
699.8104978495425
 72
     2
 10
366.7126793752283
 20
702.6389249742886
 40
4.0
 50
44.99999999999913
 51
90.0
 73
     0
 72
     1
 10
366.7126793752283
 20
698.6389249742886
 11
360.4676098360737
 21
698.6389249742886
 72
     2
 10
360.4676098360737
 20
702.6389249742886
 40
3.999999999999934
 50
90.0
 51
120.0000000000006
 73
     0
 72
     1
 10
358.4676098360737
 20
699.1748233591509
 11
352.8695336247206
 21
702.4068741667198
 72
     1
 10
352.8695336247206
 20
702.4068741667198
 11
353.8695336247206
 21
704.1389249742886
 72
     1
 10
353.8695336247206
 20
704.1389249742886
 11
356.4676098360739
 21
702.6389249742886
 72
     1
 10
356.4676098360739
 20
702.6389249742886
 11
359.4676098360737
 21
700.9068741667198
 72
     2
 10
360.4676098360737
 20
702.6389249742886
 40
1.999999999999917
 50
239.9999999999986
 51
270.0
 73
     1
 72
     1
 10
360.4676098360737
 20
700.6389249742887
 11
366.7126793752282
 21
700.6389249742887
 97
        0
 75
     0
 76
     0
 52
45.0
 41
5.0
 77
     0
 78
     1
 53
45.0
 43
182.2478289874623
 44
1068.831524211445
 45
-3.535533905932737
 46
3.535533905932737
 79
     0
 98
        1
 10
182.2478289874623
 20
1068.831524211445
1001
ACME_LAYERS
1000
1
  0
HATCH
  5
26FF
330
1F
100
AcDbEntity
  8
P-0000
  6
Continuous
 62
     1
100
AcDbHatch
 10
0.0
 20
0.0
 30
0.0
210
0.0
220
0.0
230
1.0
  2
_U
 70
     0
 71
     0
 91
        1
 92
        1
 93
       18
 72
     1
 10
176.7714574133673
 20
702.6389249742886
 11
173.7714574133674
 21
700.9068741667198
 72
     2
 10
172.7714574133674
 20
702.6389249742886
 40
2.0
 50
59.99999999999865
 51
90.0
 73
     0
 72
     1
 10
172.7714574133674
 20
700.6389249742887
 11
166.5263878742129
 21
700.6389249742887
 72
     2
 10
166.5263878742129
 20
702.6389249742886
 40
1.99999999999993
 50
90.0
 51
135.0000000000021
 73
     0
 72
     1
 10
165.1121743118398
 20
701.2247114119157
 11
164.8695336247206
 21
701.4673520990348
 72
     2
 10
162.0411064999744
 20
698.6389249742886
 40
4.000000000000031
 50
45.0
 51
90.0
 73
     1
 72
     1
 10
162.0411064999744
 20
702.6389249742886
 11
155.3695336247206
 21
702.6389249742886
 72
     1
 10
155.3695336247206
 20
702.6389249742886
 11
155.3695336247206
 21
700.6389249742887
 72
     1
 10
155.3695336247206
 20
700.6389249742887
 11
162.0411064999744
 21
700.6389249742887
 72
     1
 10
162.0411064999744
 20
700.6389249742887
 11
162.8695336247206
 21
700.6389249742887
 72
     1
 10
162.8695336247206
 20
700.6389249742887
 11
163.4553200623475
 21
700.0531385366618
 72
     1
 10
163.4553200623475
 20
700.0531385366618
 11
163.6979607494667
 21
699.8104978495425
 72
     2
 10
166.5263878742129
 20
702.6389249742886
 40
3.999999999999949
 50
224.9999999999989
 51
270.0
 73
     1
 72
     1
 10
166.5263878742129
 20
698.6389249742886
 11
172.7714574133674
 21
698.6389249742886
 72
     2
 10
172.7714574133674
 20
702.6389249742886
 40
4.0
 50
270.0
 51
300.0000000000005
 73
     1
 72
     1
 10
174.7714574133674
 20
699.1748233591509
 11
180.3695336247206
 21
702.4068741667198
 72
     1
 10
180.3695336247206
 20
702.4068741667198
 11
179.3695336247206
 21
704.1389249742886
 72
     1
 10
179.3695336247206
 20
704.1389249742886
 11
176.7714574133673
 21
702.6389249742886
 97
        0
 75
     0
 76
     0
 52
45.0
 41
5.0
 77
     0
 78
     1
 53
45.0
 43
182.2478289874623
 44
1068.831524211445
 45
-3.535533905932737
 46
3.535533905932737
 79
     0
 98
        1
 10
182.2478289874623
 20
1068.831524211445
1001
ACME_LAYERS
1000
1
  0
HATCH
  5
2700
330
1F
100
AcDbEntity
  8
P-0000
  6
Continuous
 62
     1
100
AcDbHatch
 10
0.0
 20
0.0
 30
0.0
210
0.0
220
0.0
230
1.0
  2
_U
 70
     0
 71
     0
 91
        1
 92
        1
 93
       17
 72
     2
 10
134.2126793752276
 20
702.6389249742886
 40
2.0
 50
270.0
 51
315.0000000000016
 73
     1
 72
     1
 10
135.6268929376007
 20
701.2247114119157
 11
135.86953362472
 21
701.4673520990348
 72
     2
 10
138.6979607494663
 20
698.6389249742886
 40
4.0
 50
224.999999999999
 51
269.9999999999983
 73
     0
 72
     1
 10
138.6979607494662
 20
702.6389249742886
 11
145.3695336247206
 21
702.6389249742886
 72
     1
 10
145.3695336247205
 20
702.6389249742886
 11
145.3695336247205
 21
700.6389249742887
 72
     1
 10
145.3695336247205
 20
700.6389249742887
 11
138.6979607494663
 21
700.6389249742887
 72
     1
 10
138.6979607494663
 20
700.6389249742887
 11
137.8695336247206
 21
700.6389249742887
 72
     1
 10
137.8695336247206
 20
700.6389249742887
 11
137.2837471870932
 21
700.0531385366618
 72
     1
 10
137.2837471870932
 20
700.0531385366618
 11
137.0411064999738
 21
699.8104978495425
 72
     2
 10
134.2126793752276
 20
702.6389249742886
 40
4.0
 50
44.99999999999928
 51
90.0
 73
     0
 72
     1
 10
134.2126793752276
 20
698.6389249742886
 11
127.9676098360739
 21
698.6389249742886
 72
     2
 10
127.967609836074
 20
702.6389249742886
 40
3.99999999999998
 50
90.00000000000133
 51
120.0000000000017
 73
     0
 72
     1
 10
125.9676098360739
 20
699.1748233591509
 11
120.3695336247206
 21
702.4068741667198
 72
     1
 10
120.3695336247206
 20
702.4068741667198
 11
121.3695336247206
 21
704.1389249742886
 72
     1
 10
121.3695336247206
 20
704.1389249742886
 11
126.967609836074
 21
700.9068741667198
 72
     2
 10
127.967609836074
 20
702.6389249742886
 40
2.000000000000016
 50
240.0000000000002
 51
270.0
 73
     1
 72
     1
 10
127.967609836074
 20
700.6389249742887
 11
134.2126793752276
 21
700.6389249742887
 97
        0
 75
     0
 76
     0
 52
45.0
 41
5.0
 77
     0
 78
     1
 53
45.0
 43
182.2478289874623
 44
1068.831524211445
 45
-3.535533905932737
 46
3.535533905932737
 79
     0
 98
        1
 10
182.2478289874623
 20
1068.831524211445
1001
ACME_LAYERS
1000
1
  0
LINE
  5
2703
330
1F
100
AcDbEntity
  8
AM_5
100
AcDbLine
 10
263.4195336247207
 20
711.0389253597706
 30
0.0
 11
263.4195336247207
 21
723.6389249742886
 31
0.0
  0
LINE
  5
2704
330
1F
100
AcDbEntity
  8
0
100
AcDbLine
 10
262.6195336247207
 20
711.0389253597706
 30
0.0
 11
262.6195336247207
 21
722.8389249742888
 31
0.0
  0
LINE
  5
2705
330
1F
100
AcDbEntity
  8
P-0000
  6
Continuous
 62
     7
100
AcDbLine
 10
386.8695336247207
 20
700.6389249742888
 30
0.0
 11
387.8695336247206
 21
700.6389249742887
 31
0.0
1001
ACME_LAYERS
1000
1
  0
LINE
  5
2706
330
1F
100
AcDbEntity
  8
P-0000
  6
Continuous
 62
     7
100
AcDbLine
 10
386.8695336247207
 20
702.6389249742886
 30
0.0
 11
387.8695336247206
 21
702.6389249742886
 31
0.0
1001
ACME_LAYERS
1000
1
  0
LINE
  5
2707
330
1F
100
AcDbEntity
  8
P-0000
  6
Continuous
 62
     7
100
AcDbLine
 10
391.3695336247206
 20
704.1389249742885
 30
0.0
 11
411.8695336247205
 21
704.1389249742886
 31
0.0
1001
ACME_LAYERS
1000
1
  0
SOLID
  5
2713
330
1F
100
AcDbEntity
  8
AM_0
100
AcDbTrace
 10
386.8695336247207
 20
698.6389249742886
 30
0.0
 11
387.8695336247207
 21
698.6389249742886
 31
0.0
 12
386.8695336247207
 22
699.6389249742886
 32
0.0
 13
386.8695336247207
 23
699.6389249742886
 33
0.0
1001
GENIUS_GEFWELD_13
1040
1.0
1070
     3
1001
GENIUS_GENOBJ-F-WELS_13
1002
{
1000
OWNER
1000
GEF
1002
}
1001
GENIUS_GENODEF_13
1002
{
1000
HIER
1070
     0
1002
}
1002
{
1000
MANEDIT
1070
     0
1002
}
1002
{
1000
NOSEL
1070
     0
1002
}
1002
{
1000
BEHIND
1070
     0
1002
}
1002
{
1000
OTHER
1070
     0
1002
}
1002
{
1000
REACTOR
1002
}
  0
SOLID
  5
2719
330
1F
100
AcDbEntity
  8
AM_0
100
AcDbTrace
 10
378.8695336247207
 20
698.6389249742886
 30
0.0
 11
378.8695336247207
 21
699.6389249742886
 31
0.0
 12
377.8695336247207
 22
698.6389249742886
 32
0.0
 13
377.8695336247207
 23
698.6389249742886
 33
0.0
1001
GENIUS_GEFWELD_13
1040
1.0
1070
     3
1001
GENIUS_GENODEF_13
1002
{
1000
HIER
1070
     0
1002
}
1002
{
1000
MANEDIT
1070
     0
1002
}
1002
{
1000
NOSEL
1070
     0
1002
}
1002
{
1000
BEHIND
1070
     0
1002
}
1002
{
1000
OTHER
1070
     0
1002
}
1002
{
1000
REACTOR
1002
}
1001
GENIUS_GENOBJ-F-WELS_13
1002
{
1000
OWNER
1000
GEF
1002
}
  0
SOLID
  5
2736
330
1F
100
AcDbEntity
  8
AM_0
100
AcDbTrace
 10
154.3695336247207
 20
698.6389249742886
 30
0.0
 11
155.3695336247207
 21
698.6389249742886
 31
0.0
 12
154.3695336247207
 22
699.6389249742886
 32
0.0
 13
154.3695336247207
 23
699.6389249742886
 33
0.0
1001
GENIUS_GEFWELD_13
1040
1.0
1070
     3
1001
GENIUS_GENODEF_13
1002
{
1000
HIER
1070
     0
1002
}
1002
{
1000
MANEDIT
1070
     0
1002
}
1002
{
1000
NOSEL
1070
     0
1002
}
1002
{
1000
BEHIND
1070
     0
1002
}
1002
{
1000
OTHER
1070
     0
1002
}
1002
{
1000
REACTOR
1002
}
1001
GENIUS_GENOBJ-F-WELS_13
1002
{
1000
OWNER
1000
GEF
1002
}
  0
SOLID
  5
2745
330
1F
100
AcDbEntity
  8
AM_0
100
AcDbTrace
 10
146.3695336247207
 20
698.6389249742886
 30
0.0
 11
146.3695336247207
 21
699.6389249742886
 31
0.0
 12
145.3695336247207
 22
698.6389249742886
 32
0.0
 13
145.3695336247207
 23
698.6389249742886
 33
0.0
1001
GENIUS_GEFWELD_13
1040
1.0
1070
     3
1001
GENIUS_GENOBJ-F-WELS_13
1002
{
1000
OWNER
1000
GEF
1002
}
1001
GENIUS_GENODEF_13
1002
{
1000
HIER
1070
     0
1002
}
1002
{
1000
MANEDIT
1070
     0
1002
}
1002
{
1000
NOSEL
1070
     0
1002
}
1002
{
1000
BEHIND
1070
     0
1002
}
1002
{
1000
OTHER
1070
     0
1002
}
1002
{
1000
REACTOR
1002
}
  0
LINE
  5
2749
330
1F
100
AcDbEntity
  8
P-0000
  6
Continuous
 62
     7
100
AcDbLine
 10
154.3695336247207
 20
700.6389249742888
 30
0.0
 11
155.3695336247206
 21
700.6389249742887
 31
0.0
1001
ACME_LAYERS
1000
1
  0
LINE
  5
274A
330
1F
100
AcDbEntity
  8
P-0000
  6
Continuous
 62
     7
100
AcDbLine
 10
154.3695336247207
 20
702.6389249742886
 30
0.0
 11
155.3695336247206
 21
702.6389249742886
 31
0.0
1001
ACME_LAYERS
1000
1
  0
LINE
  5
274B
330
1F
100
AcDbEntity
  8
P-0000
  6
Continuous
 62
     7
100
AcDbLine
 10
158.8695336247206
 20
704.1389249742885
 30
0.0
 11
175.9183703117845
 21
704.1389249742886
 31
0.0
1001
ACME_LAYERS
1000
1
  0
CIRCLE
  5
282D
330
1F
100
AcDbEntity
  8
P-0000
  6
Continuous
 62
     7
100
AcDbCircle
 10
266.6195331621064
 20
298.8778268684989
 30
0.0
 40
86.25
1001
ACME_LAYERS
1000
1
  0
CIRCLE
  5
282E
330
1F
100
AcDbEntity
  8
P-0000
  6
Continuous
 62
     7
100
AcDbCircle
 10
266.6195331621064
 20
298.8778268684989
 30
0.0
 40
146.25
1001
ACME_LAYERS
1000
1
  0
LINE
  5
2832
330
1F
100
AcDbEntity
  8
P-0000
  6
STRICHPUNKT
 62
     3
100
AcDbLine
 10
176.6401952561183
 20
208.8984889625108
 30
0.0
 11
192.196544442222
 21
224.4548381486148
 31
0.0
1001
ACME_LAYERS
1000
1
  0
CIRCLE
  5
2833
330
1F
100
AcDbEntity
  8
P-0000
  6
Continuous
 62
     7
100
AcDbCircle
 10
184.4183698491701
 20
216.6766635555628
 30
0.0
 40
4.99999999999992
1001
ACME_LAYERS
1000
1
  0
CIRCLE
  5
2834
330
1F
100
AcDbEntity
  8
P-0000
  6
Continuous
 62
     7
100
AcDbCircle
 10
266.6195331621062
 20
182.6278268684989
 30
0.0
 40
5.0
1001
ACME_LAYERS
1000
1
  0
CIRCLE
  5
2835
330
1F
100
AcDbEntity
  8
P-0000
  6
Continuous
 62
     7
100
AcDbCircle
 10
150.3695331621063
 20
298.8778268684989
 30
0.0
 40
5.0
1001
ACME_LAYERS
1000
1
  0
LINE
  5
2836
330
1F
100
AcDbEntity
  8
P-0000
  6
STRICHPUNKT
 62
     3
100
AcDbLine
 10
176.6401952561181
 20
388.857164774487
 30
0.0
 11
192.1965444422222
 21
373.3008155883831
 31
0.0
1001
ACME_LAYERS
1000
1
  0
CIRCLE
  5
2837
330
1F
100
AcDbEntity
  8
P-0000
  6
Continuous
 62
     7
100
AcDbCircle
 10
184.4183698491701
 20
381.0789901814351
 30
0.0
 40
5.0
1001
ACME_LAYERS
1000
1
  0
POINT
  5
2838
330
1F
100
AcDbEntity
  8
P-2885
  6
Continuous
 62
    18
100
AcDbPoint
 10
220.7469501832052
 20
405.9445974416444
 30
0.0
1001
ACME_LAYERS
1000
1
  0
POINT
  5
2839
330
1F
100
AcDbEntity
  8
P-5D9E
 62
    18
100
AcDbPoint
 10
270.333109032051
 20
305.2304978617981
 30
0.0
1001
ACME_LAYERS
1000
1
  0
CIRCLE
  5
283A
330
1F
100
AcDbEntity
  8
P-0000
  6
Continuous
 62
     7
100
AcDbCircle
 10
266.6195331621064
 20
415.1278268684989
 30
0.0
 40
5.0
1001
ACME_LAYERS
1000
1
  0
LINE
  5
283B
330
1F
100
AcDbEntity
  8
P-0000
  6
STRICHPUNKT
 62
     3
100
AcDbLine
 10
356.5988710680946
 20
208.8984889625107
 30
0.0
 11
341.0425218819904
 21
224.4548381486148
 31
0.0
1001
ACME_LAYERS
1000
1
  0
CIRCLE
  5
283C
330
1F
100
AcDbEntity
  8
P-0000
  6
Continuous
 62
     7
100
AcDbCircle
 10
348.8206964750424
 20
216.6766635555626
 30
0.0
 40
5.0
1001
ACME_LAYERS
1000
1
  0
LINE
  5
283D
330
1F
100
AcDbEntity
  8
P-0000
  6
STRICHPUNKT
 62
     3
100
AcDbLine
 10
356.5988710680948
 20
388.857164774487
 30
0.0
 11
341.0425218819904
 21
373.3008155883831
 31
0.0
1001
ACME_LAYERS
1000
1
  0
CIRCLE
  5
283E
330
1F
100
AcDbEntity
  8
P-0000
  6
Continuous
 62
     7
100
AcDbCircle
 10
348.8206964750426
 20
381.0789901814351
 30
0.0
 40
5.000000000000101
1001
ACME_LAYERS
1000
1
  0
CIRCLE
  5
283F
330
1F
100
AcDbEntity
  8
P-0000
  6
Continuous
 62
     7
100
AcDbCircle
 10
382.8695331621063
 20
298.8778268684989
 30
0.0
 40
5.000000000000227
1001
ACME_LAYERS
1000
1
  0
SOLID
  5
2AAE
330
1F
100
AcDbEntity
  8
AM_0
100
AcDbTrace
 10
341.5195336247205
 20
679.6964367746197
 30
0.0
 11
343.5195336247205
 21
679.6964367746197
 31
0.0
 12
341.5195336247205
 22
681.6964367746197
 32
0.0
 13
341.5195336247205
 23
681.6964367746197
 33
0.0
1001
GENIUS_GEFWELD_13
1040
2.0
1070
     3
1001
GENIUS_GENOBJ-F-WELS_13
1002
{
1000
OWNER
1000
GEF
1002
}
1001
GENIUS_GENODEF_13
1002
{
1000
HIER
1070
     0
1002
}
1002
{
1000
MANEDIT
1070
     0
1002
}
1002
{
1000
NOSEL
1070
     0
1002
}
1002
{
1000
BEHIND
1070
     0
1002
}
1002
{
1000
OTHER
1070
     0
1002
}
1002
{
1000
REACTOR
1002
}
  0
SOLID
  5
2ABD
330
1F
100
AcDbEntity
  8
AM_0
100
AcDbTrace
 10
323.6856047506773
 20
608.6389249742888
 30
0.0
 11
321.6856047506774
 21
608.6389249742888
 31
0.0
 12
323.6856047506773
 22
606.6389249742887
 32
0.0
 13
323.6856047506773
 23
606.6389249742887
 33
0.0
1001
GENIUS_GEFWELD_13
1040
2.0
1070
     3
1001
GENIUS_GENOBJ-F-WELS_13
1002
{
1000
OWNER
1000
GEF
1002
}
1001
GENIUS_GENODEF_13
1002
{
1000
HIER
1070
     0
1002
}
1002
{
1000
MANEDIT
1070
     0
1002
}
1002
{
1000
NOSEL
1070
     0
1002
}
1002
{
1000
BEHIND
1070
     0
1002
}
1002
{
1000
OTHER
1070
     0
1002
}
1002
{
1000
REACTOR
1002
}
  0
LINE
  5
2BA6
330
1F
100
AcDbEntity
  8
0
100
AcDbLine
 10
512.6231049621885
 20
777.1277776859951
 30
0.0
 11
516.8657456493076
 21
772.8851369988757
 31
0.0
  0
LINE
  5
2BA7
330
1F
100
AcDbEntity
  8
0
100
AcDbLine
 10
467.3682709662495
 20
723.3876623158173
 30
0.0
 11
463.1256302791302
 21
727.6303030029366
 31
0.0
  0
LINE
  5
2BA8
102
{ACAD_REACTORS
330
2BF7
102
}
330
1F
100
AcDbEntity
  8
0
100
AcDbLine
 10
463.1256302791302
 20
727.6303030029366
 30
0.0
 11
512.6231049621885
 21
777.1277776859951
 31
0.0
  0
HATCH
  5
2BD9
330
1F
100
AcDbEntity
  8
AM_8
100
AcDbHatch
 10
0.0
 20
0.0
 30
0.0
210
0.0
220
0.0
230
1.0
  2
_USER
 70
     0
 71
     0
 91
        1
 92
        1
 93
        4
 72
     1
 10
467.3682709662493
 20
723.3876623158174
 11
463.1256302791302
 21
727.6303030029366
 72
     1
 10
463.1256302791302
 20
727.6303030029366
 11
512.6231049621885
 21
777.1277776859951
 72
     1
 10
512.6231049621885
 20
777.1277776859951
 11
516.8657456493078
 21
772.885136998876
 72
     1
 10
516.8657456493078
 20
772.885136998876
 11
467.3682709662493
 21
723.3876623158174
 97
        0
 75
     0
 76
     0
 52
135.0
 41
1.5
 77
     0
 78
     1
 53
135.0
 43
-61.7242743839488
 44
1.927784837941544
 45
-1.060660171779821
 46
-1.060660171779821
 79
     0
 98
        1
 10
-61.7242743839488
 20
1.927784837941544
1001
GENIUS_GENODEF_13
1002
{
1000
HIER
1070
     0
1002
}
1002
{
1000
MANEDIT
1070
     0
1002
}
1002
{
1000
NOSEL
1070
     0
1002
}
1002
{
1000
BEHIND
1070
     0
1002
}
1002
{
1000
OTHER
1070
     0
1002
}
1002
{
1000
REACTOR
1002
}
1001
GENIUS_GENOBJ-N-HTC_13
1002
{
1000
OWNER
1000
GEN
1002
}
1001
GENIUS_GENHATCH_13
1002
{
1000
DATA
1040
135.0
1042
2.7
1000
_U
1070
     0
1011
480.4712737298132
1021
739.3080257934525
1031
0.0
1002
}
1002
{
1000
UCS
1010
0.0
1020
0.0
1030
0.0
1010
1.0
1020
0.0
1030
0.0
1010
0.0
1020
1.0
1030
0.0
1002
}
1001
ACAD
1010
0.0
1020
0.0
1030
0.0
  0
DIMENSION
  5
2BE9
102
{ACAD_XDICTIONARY
360
2BF6
102
}
102
{ACAD_REACTORS
330
2BF7
102
}
330
1F
100
AcDbEntity
  8
AM_5
100
AcDbDimension
  2
*D25
 10
477.232737085966
 20
812.5181455622175
 30
0.0
 11
447.7110289714278
 21
792.5423789936975
 31
0.0
 70
    33
 71
     5
 42
70.00000000000011
  3
AM_ISO$0
100
AcDbAlignedDimension
 13
463.1256302791302
 23
727.6303030029366
 33
0.0
 14
512.6231049621886
 24
777.1277776859951
 34
0.0
1001
ACAD
1000
DSTYLE
1002
{
1070
   140
1040
10.5
1002
}
  0
LINE
  5
2C6E
330
1F
100
AcDbEntity
  8
0
100
AcDbLine
 10
512.6231054248028
 20
459.8778266170153
 30
0.0
 11
512.6231054248028
 21
137.8778269433595
 31
0.0
  0
LINE
  5
2C6F
330
1F
100
AcDbEntity
  8
0
100
AcDbLine
 10
463.1256307417445
 20
459.8778266170151
 30
0.0
 11
463.1256307417443
 21
137.8778269433595
 31
0.0
  0
ELLIPSE
  5
2C70
330
1F
100
AcDbEntity
  8
0
100
AcDbEllipse
 10
509.08757151887
 20
137.8778269433595
 30
0.0
 11
0.0
 21
5.0
 31
0.0
210
0.0
220
0.0
230
1.0
 40
0.7071067811865533
 41
3.141592653589793
 42
4.712388980384689
  0
ELLIPSE
  5
2C71
330
1F
100
AcDbEntity
  8
0
100
AcDbEllipse
 10
466.6611646476772
 20
137.8778269433595
 30
0.0
 11
0.0
 21
-5.0
 31
0.0
210
0.0
220
0.0
230
1.0
 40
0.7071067811865305
 41
4.712388980384689
 42
6.283185307179586
  0
ELLIPSE
  5
2C72
330
1F
100
AcDbEntity
  8
0
100
AcDbEllipse
 10
509.0875715188691
 20
459.8778266170153
 30
0.0
 11
0.0000000000000277
 21
-5.0
 31
0.0
210
0.0
220
0.0
230
-1.0
 40
0.7071067811865533
 41
3.141592653589793
 42
4.712388980384689
  0
ELLIPSE
  5
2C73
330
1F
100
AcDbEntity
  8
0
100
AcDbEllipse
 10
466.6611646476761
 20
459.8778266170151
 30
0.0
 11
-0.0000000000000277
 21
5.0
 31
0.0
210
0.0
220
0.0
230
-1.0
 40
0.7071067811865305
 41
4.712388980384689
 42
6.283185307179586
  0
ELLIPSE
  5
2C74
330
1F
100
AcDbEntity
  8
0
100
AcDbEllipse
 10
512.6231054248028
 20
459.8778266170152
 30
0.0
 11
0.0
 21
5.000000326344036
 31
0.0
210
0.0
220
0.0
230
1.0
 40
0.848528082041448
 41
4.712388980384689
 42
6.283185307179586
  0
LINE
  5
2C75
330
1F
100
AcDbEntity
  8
0
100
AcDbLine
 10
516.8657461119221
 20
459.8778266170152
 30
0.0
 11
516.8657456493078
 21
454.8778269433593
 31
0.0
  0
ELLIPSE
  5
2C76
330
1F
100
AcDbEntity
  8
0
100
AcDbEllipse
 10
512.6231054248029
 20
137.8778269433593
 30
0.0
 11
0.0000000000000052
 21
-5.000000326344033
 31
0.0
210
0.0
220
0.0
230
-1.0
 40
0.848528082041448
 41
4.712388980384689
 42
6.283185307179586
  0
LINE
  5
2C77
330
1F
100
AcDbEntity
  8
0
100
AcDbLine
 10
516.8657461119222
 20
137.8778269433593
 30
0.0
 11
516.865745649308
 21
142.8778266170152
 31
0.0
  0
ELLIPSE
  5
2C8B
102
{ACAD_REACTORS
330
2E4B
102
}
330
1F
100
AcDbEntity
  8
0
100
AcDbEllipse
 10
771.6215336247207
 20
298.8778269433591
 30
0.0
 11
0.0
 21
36.49999999999995
 31
0.0
210
0.0
220
0.0
230
1.0
 40
0.0454377462892809
 41
3.141592653589793
 42
6.283185307179586
  0
LINE
  5
2C8C
330
1F
100
AcDbEntity
  8
0
100
AcDbLine
 10
772.3400291152729
 20
666.914490880582
 30
0.0
 11
770.5076427337208
 21
596.938478132291
 31
0.0
  0
LINE
  5
2DE3
330
1F
100
AcDbEntity
  8
0
100
AcDbLine
 10
480.7325892423341
 20
747.5000039877731
 30
0.0
 11
492.7534045225054
 21
759.5208192679445
 31
0.0
  0
LINE
  5
2DE4
330
1F
100
AcDbEntity
  8
0
100
AcDbLine
 10
492.7534044108464
 20
759.5208188344498
 30
0.0
 11
493.884775260745
 21
758.3894479845513
 31
0.0
  0
LINE
  5
2DE5
330
1F
100
AcDbEntity
  8
0
100
AcDbLine
 10
493.884775260745
 20
758.3894479845513
 30
0.0
 11
481.8639599805736
 21
746.36863270438
 31
0.0
  0
LINE
  5
2DE6
330
1F
100
AcDbEntity
  8
0
100
AcDbLine
 10
481.8639599805736
 20
746.36863270438
 30
0.0
 11
480.7325891306751
 21
747.5000035542786
 31
0.0
  0
INSERT
  5
2DE7
330
1F
100
AcDbEntity
  8
AM_0N
100
AcDbBlockReference
  2
*U37
 10
0.0
 20
0.0
 30
0.0
  0
DIMENSION
  5
2E3D
102
{ACAD_XDICTIONARY
360
2E4A
102
}
102
{ACAD_REACTORS
330
2E4B
102
}
330
1F
100
AcDbEntity
  8
AM_5
100
AcDbDimension
  2
*D32
 10
795.3640255602781
 20
262.3879281295223
 30
0.0
 11
788.614025560278
 21
298.8828775364408
 31
0.0
 70
    32
  1
%%c<>
 71
     5
 42
72.9898988138367
  3
AM_ISO$0
100
AcDbAlignedDimension
 13
771.6215336247207
 23
335.377826943359
 33
0.0
 14
771.6605488708133
 24
262.3879281295223
 34
0.0
 50
90.0
100
AcDbRotatedDimension
1001
ACAD
1000
DSTYLE
1002
{
1070
   140
1040
10.5
1070
   271
1070
     0
1002
}
  0
INSERT
  5
2E90
330
1F
100
AcDbEntity
  8
AM_0N
100
AcDbBlockReference
  2
*U38
 10
0.0
 20
0.0
 30
0.0
  0
INSERT
  5
2E92
330
1F
100
AcDbEntity
  8
AM_0N
100
AcDbBlockReference
  2
*U39
 10
0.0
 20
0.0
 30
0.0
  0
INSERT
  5
2E94
330
1F
100
AcDbEntity
  8
AM_0N
100
AcDbBlockReference
  2
*U40
 10
0.0
 20
0.0
 30
0.0
  0
INSERT
  5
2E96
330
1F
100
AcDbEntity
  8
AM_0N
100
AcDbBlockReference
  2
*U41
 10
0.0
 20
0.0
 30
0.0
  0
INSERT
  5
2E98
330
1F
100
AcDbEntity
  8
AM_0N
100
AcDbBlockReference
  2
*U42
 10
0.0
 20
0.0
 30
0.0
  0
INSERT
  5
2E9A
330
1F
100
AcDbEntity
  8
AM_0N
100
AcDbBlockReference
  2
*U43
 10
0.0
 20
0.0
 30
0.0
  0
INSERT
  5
2E9C
330
1F
100
AcDbEntity
  8
AM_0N
100
AcDbBlockReference
  2
*U44
 10
0.0
 20
0.0
 30
0.0
  0
INSERT
  5
2E9E
330
1F
100
AcDbEntity
  8
AM_0N
100
AcDbBlockReference
  2
*U45
 10
0.0
 20
0.0
 30
0.0
  0
LINE
  5
2ECC
330
1F
100
AcDbEntity
  8
0
100
AcDbLine
 10
374.3695333971484
 20
704.2389253597706
 30
0.0
 11
377.0695333971484
 21
704.2389253597706
 31
0.0
  0
LINE
  5
2ECD
330
1F
100
AcDbEntity
  8
0
100
AcDbLine
 10
391.3695336247206
 20
704.2389249742886
 30
0.0
 11
391.3695336247206
 21
702.6389249742886
 31
0.0
  0
LINE
  5
2ECE
330
1F
100
AcDbEntity
  8
0
100
AcDbLine
 10
391.3695336247206
 20
702.6389249742886
 30
0.0
 11
374.3695336247206
 21
702.6389249742886
 31
0.0
  0
LINE
  5
2ECF
330
1F
100
AcDbEntity
  8
0
100
AcDbLine
 10
374.3695336247206
 20
702.6389249742886
 30
0.0
 11
374.3695336247206
 21
704.2389249742886
 31
0.0
  0
INSERT
  5
2ED0
330
1F
100
AcDbEntity
  8
AM_0N
100
AcDbBlockReference
  2
*U46
 10
0.0
 20
0.0
 30
0.0
  0
LINE
  5
2ED2
330
1F
100
AcDbEntity
  8
0
100
AcDbLine
 10
340.3206958462652
 20
704.2389253597706
 30
0.0
 11
343.0206958462652
 21
704.2389253597706
 31
0.0
  0
LINE
  5
2ED3
330
1F
100
AcDbEntity
  8
0
100
AcDbLine
 10
357.3206960738374
 20
704.2389249742886
 30
0.0
 11
357.3206960738374
 21
702.6389249742886
 31
0.0
  0
LINE
  5
2ED4
330
1F
100
AcDbEntity
  8
0
100
AcDbLine
 10
357.3206960738374
 20
702.6389249742886
 30
0.0
 11
356.4676098360739
 21
702.6389249742886
 31
0.0
  0
LINE
  5
2ED5
330
1F
100
AcDbEntity
  8
0
100
AcDbLine
 10
340.3206960738375
 20
704.1389249742886
 30
0.0
 11
340.3206960738375
 21
704.2389249742886
 31
0.0
  0
INSERT
  5
2ED6
330
1F
100
AcDbEntity
  8
AM_0N
100
AcDbBlockReference
  2
*U47
 10
0.0
 20
0.0
 30
0.0
  0
LINE
  5
2ED8
330
1F
100
AcDbEntity
  8
0
100
AcDbLine
 10
258.1195333971484
 20
704.2389253597706
 30
0.0
 11
260.8195333971484
 21
704.2389253597706
 31
0.0
  0
LINE
  5
2ED9
330
1F
100
AcDbEntity
  8
0
100
AcDbLine
 10
275.1195336247207
 20
704.2389249742886
 30
0.0
 11
275.1195336247207
 21
704.1389249742886
 31
0.0
  0
LINE
  5
2EDB
330
1F
100
AcDbEntity
  8
0
100
AcDbLine
 10
258.1195336247207
 20
704.1389249742886
 30
0.0
 11
258.1195336247207
 21
704.2389249742886
 31
0.0
  0
INSERT
  5
2EDC
330
1F
100
AcDbEntity
  8
AM_0N
100
AcDbBlockReference
  2
*U48
 10
0.0
 20
0.0
 30
0.0
  0
LINE
  5
2EDE
330
1F
100
AcDbEntity
  8
0
100
AcDbLine
 10
175.9183700842123
 20
704.2389253597706
 30
0.0
 11
178.6183700842123
 21
704.2389253597706
 31
0.0
  0
LINE
  5
2EDF
330
1F
100
AcDbEntity
  8
0
100
AcDbLine
 10
192.9183703117845
 20
704.2389249742886
 30
0.0
 11
192.9183703117845
 21
704.1389249742886
 31
0.0
  0
LINE
  5
2EE0
330
1F
100
AcDbEntity
  8
0
100
AcDbLine
 10
176.7714574133673
 20
702.6389249742886
 30
0.0
 11
175.9183703117845
 21
702.6389249742886
 31
0.0
  0
LINE
  5
2EE1
330
1F
100
AcDbEntity
  8
0
100
AcDbLine
 10
175.9183703117845
 20
702.6389249742886
 30
0.0
 11
175.9183703117845
 21
704.2389249742886
 31
0.0
  0
INSERT
  5
2EE2
330
1F
100
AcDbEntity
  8
AM_0N
100
AcDbBlockReference
  2
*U49
 10
0.0
 20
0.0
 30
0.0
  0
LINE
  5
2EE4
330
1F
100
AcDbEntity
  8
0
100
AcDbLine
 10
141.8695333971484
 20
704.2389253597706
 30
0.0
 11
144.5695333971484
 21
704.2389253597706
 31
0.0
  0
LINE
  5
2EE5
330
1F
100
AcDbEntity
  8
0
100
AcDbLine
 10
158.8695336247206
 20
704.2389249742886
 30
0.0
 11
158.8695336247206
 21
702.6389249742886
 31
0.0
  0
LINE
  5
2EE6
330
1F
100
AcDbEntity
  8
0
100
AcDbLine
 10
158.8695336247206
 20
702.6389249742886
 30
0.0
 11
141.8695336247206
 21
702.6389249742886
 31
0.0
  0
LINE
  5
2EE7
330
1F
100
AcDbEntity
  8
0
100
AcDbLine
 10
141.8695336247206
 20
702.6389249742886
 30
0.0
 11
141.8695336247206
 21
704.2389249742886
 31
0.0
  0
INSERT
  5
2EE8
330
1F
100
AcDbEntity
  8
AM_0N
100
AcDbBlockReference
  2
*U50
 10
0.0
 20
0.0
 30
0.0
  0
LINE
  5
2F2B
330
1F
100
AcDbEntity
  8
0
100
AcDbLine
 10
154.3695336247207
 20
702.6389249742886
 30
0.0
 11
154.3695336247207
 21
698.6389249742886
 31
0.0
  0
LINE
  5
2F2C
330
1F
100
AcDbEntity
  8
AM_5
100
AcDbLine
 10
153.5695336247207
 20
702.6389249742886
 30
0.0
 11
153.5695336247207
 21
698.6389249742886
 31
0.0
  0
LINE
  5
2F2F
330
1F
100
AcDbEntity
  8
AM_5
100
AcDbLine
 10
147.1695336247206
 20
711.0389253597705
 30
0.0
 11
147.1695336247206
 21
723.6389249742886
 31
0.0
  0
LINE
  5
2F30
330
1F
100
AcDbEntity
  8
0
100
AcDbLine
 10
146.3695336247207
 20
711.0389253597706
 30
0.0
 11
146.3695336247207
 21
722.8389249742888
 31
0.0
  0
LINE
  5
2F34
330
1F
100
AcDbEntity
  8
0
100
AcDbLine
 10
386.8695336247207
 20
702.6389249742885
 30
0.0
 11
386.8695336247207
 21
698.6389249742886
 31
0.0
  0
LINE
  5
2F35
330
1F
100
AcDbEntity
  8
AM_5
100
AcDbLine
 10
386.0695336247207
 20
702.6389249742886
 30
0.0
 11
386.0695336247207
 21
698.6389249742886
 31
0.0
  0
LINE
  5
2F3A
330
1F
100
AcDbEntity
  8
AM_5
100
AcDbLine
 10
379.6695336247207
 20
711.0389253597705
 30
0.0
 11
379.6695336247207
 21
723.6389249742886
 31
0.0
  0
LINE
  5
2F3B
330
1F
100
AcDbEntity
  8
0
100
AcDbLine
 10
378.8695336247207
 20
711.0389253597705
 30
0.0
 11
378.8695336247207
 21
722.8389249742888
 31
0.0
  0
LINE
  5
2F59
330
1F
100
AcDbEntity
  8
0
100
AcDbLine
 10
493.1908681716885
 20
415.430265732848
 30
0.0
 11
490.8632494247124
 21
421.1302657330105
 31
0.0
  0
ARC
  5
2F5A
330
1F
100
AcDbEntity
  8
0
100
AcDbCircle
 10
492.4502395342955
 20
415.1278269432171
 30
0.0
 40
0.8
100
AcDbArc
 50
337.7871462685878
 51
22.21285373040998
1001
GENIUS_GENOBJ-N-FIL_13
1002
{
1000
OWNER
1000
GEN
1002
}
1001
GENIUS_GENODEF_13
1002
{
1000
HIER
1070
     0
1002
}
1002
{
1000
MANEDIT
1070
     0
1002
}
1002
{
1000
NOSEL
1070
     0
1002
}
1002
{
1000
BEHIND
1070
     0
1002
}
1002
{
1000
OTHER
1070
     0
1002
}
1002
{
1000
REACTOR
1002
}
  0
LINE
  5
2F5B
330
1F
100
AcDbEntity
  8
0
100
AcDbLine
 10
493.1908681716832
 20
414.8253881535731
 30
0.0
 11
490.8632494247174
 21
409.1253881537354
 31
0.0
  0
LINE
  5
2F5C
330
1F
100
AcDbEntity
  8
0
100
AcDbLine
 10
494.2774076248463
 20
421.1302657330095
 30
0.0
 11
496.6050263718231
 21
415.4302657328241
 31
0.0
  0
ARC
  5
2F5D
330
1F
100
AcDbEntity
  8
0
100
AcDbCircle
 10
495.8643977344297
 20
415.127826943194
 30
0.0
 40
0.8
100
AcDbArc
 50
337.7871462685153
 51
22.21285373033984
1001
GENIUS_GENODEF_13
1002
{
1000
HIER
1070
     0
1002
}
1002
{
1000
MANEDIT
1070
     0
1002
}
1002
{
1000
NOSEL
1070
     0
1002
}
1002
{
1000
BEHIND
1070
     0
1002
}
1002
{
1000
OTHER
1070
     0
1002
}
1002
{
1000
REACTOR
1002
}
1001
GENIUS_GENOBJ-N-FIL_13
1002
{
1000
OWNER
1000
GEN
1002
}
  0
LINE
  5
2F5E
330
1F
100
AcDbEntity
  8
0
100
AcDbLine
 10
496.605026371817
 20
414.8253881535492
 30
0.0
 11
494.2774076248522
 21
409.1253881537344
 31
0.0
  0
ARC
  5
2F5F
330
1F
100
AcDbEntity
  8
0
100
AcDbCircle
 10
493.536778987465
 20
409.4278269433796
 30
0.0
 40
0.8
100
AcDbArc
 50
270.0
 51
337.7871462684887
1001
GENIUS_GENOBJ-N-FIL_13
1002
{
1000
OWNER
1000
GEN
1002
}
1001
GENIUS_GENODEF_13
1002
{
1000
HIER
1070
     0
1002
}
1002
{
1000
MANEDIT
1070
     0
1002
}
1002
{
1000
NOSEL
1070
     0
1002
}
1002
{
1000
BEHIND
1070
     0
1002
}
1002
{
1000
OTHER
1070
     0
1002
}
1002
{
1000
REACTOR
1002
}
  0
LINE
  5
2F60
330
1F
100
AcDbEntity
  8
0
100
AcDbLine
 10
485.1482828786402
 20
421.1302657330134
 30
0.0
 11
484.330578656466
 21
419.1278269433595
 31
0.0
  0
LINE
  5
2F61
330
1F
100
AcDbEntity
  8
0
100
AcDbLine
 10
484.3305786564538
 20
411.1278269433595
 30
0.0
 11
485.1482828786378
 21
409.1253881537387
 31
0.0
  0
ARC
  5
2F62
330
1F
100
AcDbEntity
  8
0
100
AcDbCircle
 10
485.8889115160267
 20
409.4278269433797
 30
0.0
 40
0.8
100
AcDbArc
 50
202.2128537311902
 51
270.0
1001
GENIUS_GENODEF_13
1002
{
1000
HIER
1070
     0
1002
}
1002
{
1000
MANEDIT
1070
     0
1002
}
1002
{
1000
NOSEL
1070
     0
1002
}
1002
{
1000
BEHIND
1070
     0
1002
}
1002
{
1000
OTHER
1070
     0
1002
}
1002
{
1000
REACTOR
1002
}
1001
GENIUS_GENOBJ-N-FIL_13
1002
{
1000
OWNER
1000
GEN
1002
}
  0
LINE
  5
2F63
330
1F
100
AcDbEntity
  8
0
100
AcDbLine
 10
493.536778987465
 20
408.6278269433796
 30
0.0
 11
485.8889115160267
 21
408.6278269433796
 31
0.0
  0
ARC
  5
2F64
330
1F
100
AcDbEntity
  8
0
100
AcDbCircle
 10
490.1226207873299
 20
409.4278269433796
 30
0.0
 40
0.8
100
AcDbArc
 50
270.0
 51
337.7871462685618
1001
GENIUS_GENODEF_13
1002
{
1000
HIER
1070
     0
1002
}
1002
{
1000
MANEDIT
1070
     0
1002
}
1002
{
1000
NOSEL
1070
     0
1002
}
1002
{
1000
BEHIND
1070
     0
1002
}
1002
{
1000
OTHER
1070
     0
1002
}
1002
{
1000
REACTOR
1002
}
1001
GENIUS_GENOBJ-N-FIL_13
1002
{
1000
OWNER
1000
GEN
1002
}
  0
LINE
  5
2F65
330
1F
100
AcDbEntity
  8
0
100
AcDbLine
 10
493.5367789874529
 20
421.6278269433795
 30
0.0
 11
485.8889115160321
 21
421.6278269433797
 31
0.0
  0
ARC
  5
2F66
330
1F
100
AcDbEntity
  8
0
100
AcDbCircle
 10
493.5367789874529
 20
420.8278269433795
 30
0.0
 40
0.8
100
AcDbArc
 50
22.21285373033984
 51
90.0
1001
GENIUS_GENOBJ-N-FIL_13
1002
{
1000
OWNER
1000
GEN
1002
}
1001
GENIUS_GENODEF_13
1002
{
1000
HIER
1070
     0
1002
}
1002
{
1000
MANEDIT
1070
     0
1002
}
1002
{
1000
NOSEL
1070
     0
1002
}
1002
{
1000
BEHIND
1070
     0
1002
}
1002
{
1000
OTHER
1070
     0
1002
}
1002
{
1000
REACTOR
1002
}
  0
ARC
  5
2F67
330
1F
100
AcDbEntity
  8
0
100
AcDbCircle
 10
490.1226207873194
 20
420.8278269433796
 30
0.0
 40
0.8
100
AcDbArc
 50
22.21285373040998
 51
90.0
1001
GENIUS_GENODEF_13
1002
{
1000
HIER
1070
     0
1002
}
1002
{
1000
MANEDIT
1070
     0
1002
}
1002
{
1000
NOSEL
1070
     0
1002
}
1002
{
1000
BEHIND
1070
     0
1002
}
1002
{
1000
OTHER
1070
     0
1002
}
1002
{
1000
REACTOR
1002
}
1001
GENIUS_GENOBJ-N-FIL_13
1002
{
1000
OWNER
1000
GEN
1002
}
  0
ARC
  5
2F68
330
1F
100
AcDbEntity
  8
0
100
AcDbCircle
 10
485.8889115160321
 20
420.8278269433796
 30
0.0
 40
0.8
100
AcDbArc
 50
90.0
 51
157.7871462693709
1001
GENIUS_GENOBJ-N-FIL_13
1002
{
1000
OWNER
1000
GEN
1002
}
1001
GENIUS_GENODEF_13
1002
{
1000
HIER
1070
     0
1002
}
1002
{
1000
MANEDIT
1070
     0
1002
}
1002
{
1000
NOSEL
1070
     0
1002
}
1002
{
1000
BEHIND
1070
     0
1002
}
1002
{
1000
OTHER
1070
     0
1002
}
1002
{
1000
REACTOR
1002
}
  0
ELLIPSE
  5
2F69
330
1F
100
AcDbEntity
  8
0
100
AcDbEllipse
 10
487.3086821957099
 20
415.1278269432575
 30
0.0
 11
0.0
 21
5.80000000012211
 31
0.0
210
0.0
220
0.0
230
1.0
 40
0.7071067811716504
 41
2.33180908097527
 42
7.0929688797455
  0
ELLIPSE
  5
2F6A
330
1F
100
AcDbEntity
  8
0
100
AcDbEllipse
 10
487.3086821957099
 20
415.1278269432575
 30
0.0
 11
0.0
 21
4.00000000010209
 31
0.0
210
0.0
220
0.0
230
1.0
 40
0.707106781168506
 41
3.141582549591569
 42
6.283185307179586
  0
LINE
  5
2F6B
330
1F
100
AcDbEntity
  8
AM_7
  6
AM_DIN_G_W050x2
100
AcDbLine
 10
487.3086821957099
 20
415.1278269432575
 30
0.0
 11
487.3086821957099
 21
422.1278269433596
 31
0.0
1001
GENIUS_GENOREF_13
1005
2F6D
  0
LINE
  5
2F6C
330
1F
100
AcDbEntity
  8
AM_7
  6
AM_DIN_G_W050x2
100
AcDbLine
 10
487.3086821957099
 20
415.1278269432575
 30
0.0
 11
487.3086821957099
 21
408.1278269431554
 31
0.0
1001
GENIUS_GENOREF_13
1005
2F6D
  0
POINT
  5
2F6D
330
1F
100
AcDbEntity
  8
0
 60
     1
100
AcDbPoint
 10
-0.000000380735969
 20
2.701996925851233
 30
0.0
1001
GENIUS_GENOBJ-N-CRS_13
1002
{
1000
OWNER
1000
GEN
1002
}
1001
GENIUS_GENOENT_13
1002
{
1000
MYREF
1005
2F6D
1002
}
1002
{
1000
GRP
1005
0
1002
}
1001
GENIUS_GENOLIS_13
1002
{
1000
ENT
1005
2F6C
1005
0
1005
2F6B
1005
0
1002
}
1001
GENIUS_GENODEF_13
1002
{
1000
HIER
1070
    10
1002
}
1002
{
1000
MANEDIT
1070
     1
1002
}
1002
{
1000
NOSEL
1070
     0
1002
}
1002
{
1000
BEHIND
1070
     0
1002
}
1002
{
1000
OTHER
1070
     0
1002
}
1002
{
1000
REACTOR
1002
}
  0
LINE
  5
2F8B
330
1F
100
AcDbEntity
  8
0
100
AcDbLine
 10
493.1908681716885
 20
182.9302657328327
 30
0.0
 11
490.8632494247124
 21
188.6302657329953
 31
0.0
  0
ARC
  5
2F8C
330
1F
100
AcDbEntity
  8
0
100
AcDbCircle
 10
492.4502395342955
 20
182.6278269432018
 30
0.0
 40
0.8
100
AcDbArc
 50
337.7871462685894
 51
22.21285373040998
1001
GENIUS_GENOBJ-N-FIL_13
1002
{
1000
OWNER
1000
GEN
1002
}
1001
GENIUS_GENODEF_13
1002
{
1000
HIER
1070
     0
1002
}
1002
{
1000
MANEDIT
1070
     0
1002
}
1002
{
1000
NOSEL
1070
     0
1002
}
1002
{
1000
BEHIND
1070
     0
1002
}
1002
{
1000
OTHER
1070
     0
1002
}
1002
{
1000
REACTOR
1002
}
  0
LINE
  5
2F8D
330
1F
100
AcDbEntity
  8
0
100
AcDbLine
 10
493.1908681716832
 20
182.325388153558
 30
0.0
 11
490.8632494247174
 21
176.6253881537202
 31
0.0
  0
LINE
  5
2F8E
330
1F
100
AcDbEntity
  8
0
100
AcDbLine
 10
494.2774076248463
 20
188.6302657329943
 30
0.0
 11
496.6050263718231
 21
182.9302657328088
 31
0.0
  0
ARC
  5
2F8F
330
1F
100
AcDbEntity
  8
0
100
AcDbCircle
 10
495.8643977344297
 20
182.6278269431788
 30
0.0
 40
0.8
100
AcDbArc
 50
337.7871462685137
 51
22.21285373033984
1001
GENIUS_GENODEF_13
1002
{
1000
HIER
1070
     0
1002
}
1002
{
1000
MANEDIT
1070
     0
1002
}
1002
{
1000
NOSEL
1070
     0
1002
}
1002
{
1000
BEHIND
1070
     0
1002
}
1002
{
1000
OTHER
1070
     0
1002
}
1002
{
1000
REACTOR
1002
}
1001
GENIUS_GENOBJ-N-FIL_13
1002
{
1000
OWNER
1000
GEN
1002
}
  0
LINE
  5
2F90
330
1F
100
AcDbEntity
  8
0
100
AcDbLine
 10
496.605026371817
 20
182.3253881535339
 30
0.0
 11
494.2774076248522
 21
176.6253881537192
 31
0.0
  0
ARC
  5
2F91
330
1F
100
AcDbEntity
  8
0
100
AcDbCircle
 10
493.536778987465
 20
176.9278269433644
 30
0.0
 40
0.8
100
AcDbArc
 50
270.0
 51
337.7871462684887
1001
GENIUS_GENOBJ-N-FIL_13
1002
{
1000
OWNER
1000
GEN
1002
}
1001
GENIUS_GENODEF_13
1002
{
1000
HIER
1070
     0
1002
}
1002
{
1000
MANEDIT
1070
     0
1002
}
1002
{
1000
NOSEL
1070
     0
1002
}
1002
{
1000
BEHIND
1070
     0
1002
}
1002
{
1000
OTHER
1070
     0
1002
}
1002
{
1000
REACTOR
1002
}
  0
LINE
  5
2F92
330
1F
100
AcDbEntity
  8
0
100
AcDbLine
 10
485.1482828786402
 20
188.6302657329981
 30
0.0
 11
484.330578656466
 21
186.6278269433443
 31
0.0
  0
LINE
  5
2F93
330
1F
100
AcDbEntity
  8
0
100
AcDbLine
 10
484.3305786564538
 20
178.6278269433443
 30
0.0
 11
485.1482828786378
 21
176.6253881537234
 31
0.0
  0
ARC
  5
2F94
330
1F
100
AcDbEntity
  8
0
100
AcDbCircle
 10
485.8889115160267
 20
176.9278269433644
 30
0.0
 40
0.8
100
AcDbArc
 50
202.2128537311886
 51
270.0
1001
GENIUS_GENODEF_13
1002
{
1000
HIER
1070
     0
1002
}
1002
{
1000
MANEDIT
1070
     0
1002
}
1002
{
1000
NOSEL
1070
     0
1002
}
1002
{
1000
BEHIND
1070
     0
1002
}
1002
{
1000
OTHER
1070
     0
1002
}
1002
{
1000
REACTOR
1002
}
1001
GENIUS_GENOBJ-N-FIL_13
1002
{
1000
OWNER
1000
GEN
1002
}
  0
LINE
  5
2F95
330
1F
100
AcDbEntity
  8
0
100
AcDbLine
 10
493.536778987465
 20
176.1278269433644
 30
0.0
 11
485.8889115160267
 21
176.1278269433644
 31
0.0
  0
ARC
  5
2F96
330
1F
100
AcDbEntity
  8
0
100
AcDbCircle
 10
490.1226207873299
 20
176.9278269433644
 30
0.0
 40
0.8
100
AcDbArc
 50
270.0
 51
337.7871462685618
1001
GENIUS_GENODEF_13
1002
{
1000
HIER
1070
     0
1002
}
1002
{
1000
MANEDIT
1070
     0
1002
}
1002
{
1000
NOSEL
1070
     0
1002
}
1002
{
1000
BEHIND
1070
     0
1002
}
1002
{
1000
OTHER
1070
     0
1002
}
1002
{
1000
REACTOR
1002
}
1001
GENIUS_GENOBJ-N-FIL_13
1002
{
1000
OWNER
1000
GEN
1002
}
  0
LINE
  5
2F97
330
1F
100
AcDbEntity
  8
0
100
AcDbLine
 10
493.5367789874529
 20
189.1278269433643
 30
0.0
 11
485.8889115160321
 21
189.1278269433644
 31
0.0
  0
ARC
  5
2F98
330
1F
100
AcDbEntity
  8
0
100
AcDbCircle
 10
493.5367789874529
 20
188.3278269433643
 30
0.0
 40
0.8
100
AcDbArc
 50
22.21285373033984
 51
90.0
1001
GENIUS_GENOBJ-N-FIL_13
1002
{
1000
OWNER
1000
GEN
1002
}
1001
GENIUS_GENODEF_13
1002
{
1000
HIER
1070
     0
1002
}
1002
{
1000
MANEDIT
1070
     0
1002
}
1002
{
1000
NOSEL
1070
     0
1002
}
1002
{
1000
BEHIND
1070
     0
1002
}
1002
{
1000
OTHER
1070
     0
1002
}
1002
{
1000
REACTOR
1002
}
  0
ARC
  5
2F99
330
1F
100
AcDbEntity
  8
0
100
AcDbCircle
 10
490.1226207873194
 20
188.3278269433644
 30
0.0
 40
0.8
100
AcDbArc
 50
22.21285373040998
 51
90.0
1001
GENIUS_GENODEF_13
1002
{
1000
HIER
1070
     0
1002
}
1002
{
1000
MANEDIT
1070
     0
1002
}
1002
{
1000
NOSEL
1070
     0
1002
}
1002
{
1000
BEHIND
1070
     0
1002
}
1002
{
1000
OTHER
1070
     0
1002
}
1002
{
1000
REACTOR
1002
}
1001
GENIUS_GENOBJ-N-FIL_13
1002
{
1000
OWNER
1000
GEN
1002
}
  0
ARC
  5
2F9A
330
1F
100
AcDbEntity
  8
0
100
AcDbCircle
 10
485.8889115160321
 20
188.3278269433644
 30
0.0
 40
0.8
100
AcDbArc
 50
90.0
 51
157.7871462693709
1001
GENIUS_GENOBJ-N-FIL_13
1002
{
1000
OWNER
1000
GEN
1002
}
1001
GENIUS_GENODEF_13
1002
{
1000
HIER
1070
     0
1002
}
1002
{
1000
MANEDIT
1070
     0
1002
}
1002
{
1000
NOSEL
1070
     0
1002
}
1002
{
1000
BEHIND
1070
     0
1002
}
1002
{
1000
OTHER
1070
     0
1002
}
1002
{
1000
REACTOR
1002
}
  0
ELLIPSE
  5
2F9B
330
1F
100
AcDbEntity
  8
0
100
AcDbEllipse
 10
487.3086821957099
 20
182.6278269432422
 30
0.0
 11
0.0
 21
5.80000000012211
 31
0.0
210
0.0
220
0.0
230
1.0
 40
0.7071067811716504
 41
2.33180908097527
 42
7.0929688797455
  0
ELLIPSE
  5
2F9C
330
1F
100
AcDbEntity
  8
0
100
AcDbEllipse
 10
487.3086821957099
 20
182.6278269432422
 30
0.0
 11
0.0
 21
4.00000000010209
 31
0.0
210
0.0
220
0.0
230
1.0
 40
0.707106781168506
 41
3.141582549591569
 42
6.283185307179586
  0
LINE
  5
2F9D
330
1F
100
AcDbEntity
  8
AM_7
  6
AM_DIN_G_W050x2
100
AcDbLine
 10
487.3086821957099
 20
182.6278269432422
 30
0.0
 11
487.3086821957099
 21
189.6278269433443
 31
0.0
1001
GENIUS_GENOREF_13
1005
2F9F
  0
LINE
  5
2F9E
330
1F
100
AcDbEntity
  8
AM_7
  6
AM_DIN_G_W050x2
100
AcDbLine
 10
487.3086821957099
 20
182.6278269432422
 30
0.0
 11
487.3086821957099
 21
175.6278269431402
 31
0.0
1001
GENIUS_GENOREF_13
1005
2F9F
  0
POINT
  5
2F9F
330
1F
100
AcDbEntity
  8
0
 60
     1
100
AcDbPoint
 10
-0.000000380735969
 20
-229.798003074164
 30
0.0
1001
GENIUS_GENOBJ-N-CRS_13
1002
{
1000
OWNER
1000
GEN
1002
}
1001
GENIUS_GENOENT_13
1002
{
1000
MYREF
1005
2F9F
1002
}
1002
{
1000
GRP
1005
0
1002
}
1001
GENIUS_GENOLIS_13
1002
{
1000
ENT
1005
2F9E
1005
0
1005
2F9D
1005
0
1002
}
1001
GENIUS_GENODEF_13
1002
{
1000
HIER
1070
    10
1002
}
1002
{
1000
MANEDIT
1070
     1
1002
}
1002
{
1000
NOSEL
1070
     0
1002
}
1002
{
1000
BEHIND
1070
     0
1002
}
1002
{
1000
OTHER
1070
     0
1002
}
1002
{
1000
REACTOR
1002
}
  0
HATCH
  5
30C4
330
1F
100
AcDbEntity
  8
0
 62
     1
100
AcDbHatch
 10
0.0
 20
0.0
 30
0.0
210
0.0
220
0.0
230
1.0
  2
ANSI31
 70
     0
 71
     0
 91
        3
 92
        7
 72
     0
 73
     1
 93
        6
 10
367.942549838321
 20
607.4800160813322
 10
367.0784904148256
 20
606.0021280848908
 10
770.6657883865817
 20
595.433822753886
 10
775.69914547228
 20
596.6422248770275
 10
775.7397960288683
 20
598.1946070027069
 10
770.5076427336963
 20
596.9384781322853
 97
        0
 92
        7
 72
     0
 73
     1
 93
        6
 10
341.5195336247206
 20
679.6964367746197
 10
341.5195336247204
 20
678.1959225858834
 10
772.3400291152998
 20
666.9144908805742
 10
777.4992712205739
 20
665.3862537452152
 10
777.5399217771624
 20
666.9386358708948
 10
772.5767056131078
 20
668.4088074771015
 97
        0
 92
        7
 72
     0
 73
     1
 93
        4
 10
323.6856047506773
 20
608.6389249742888
 10
323.6463393282156
 20
607.1394389868255
 10
367.0784904148256
 20
606.0021280848909
 10
367.942549838321
 20
607.4800160813321
 97
        0
 75
     0
 76
     1
 52
0.0
 41
1.0
 77
     0
 78
     1
 53
45.0
 43
-61.7242743839488
 44
1.927784837941544
 45
-2.245064030267287
 46
2.245064030267288
 79
     0
 47
0.5290691768658237
 98
        3
 10
506.0220759435524
 20
602.7943063110852
 10
507.0802939510213
 20
674.7477135915391
 10
340.4112768325063
 20
607.5559279362555
1001
ACAD
1010
0.0
1020
0.0
1030
0.0
  0
DIMENSION
  5
3119
102
{ACAD_XDICTIONARY
360
3126
102
}
102
{ACAD_REACTORS
330
3127
102
}
330
1F
100
AcDbEntity
  8
AM_5
100
AcDbDimension
  2
*D33
 10
43.6767981567883
 20
608.6389249742888
 30
0.0
 11
43.67679815678821
 21
654.1726048452419
 31
0.0
 70
   160
 71
     5
 42
89.99999999999989
  3
AM_ISO$0
100
AcDbAlignedDimension
 13
100.6195336247206
 23
698.6389249742886
 33
0.0
 14
207.8090257400441
 24
608.6389249742888
 34
0.0
 50
90.0
100
AcDbRotatedDimension
1001
ACAD
1000
DSTYLE
1002
{
1070
   140
1040
10.5
1002
}
  0
LINE
  5
369E
330
1F
100
AcDbEntity
  8
AM_9
 60
     1
100
AcDbLine
 10
377.0695333971484
 20
704.2389253597706
 30
0.0
 11
388.6695333971484
 21
704.2389253597706
 31
0.0
1001
AMG_2DHIDE
1002
{
1040
131072.0000000002
1002
{
1000
OE
1000
CON1
1002
}
1002
}
  0
LINE
  5
369F
330
1F
100
AcDbEntity
  8
0
100
AcDbLine
 10
388.6695333971484
 20
704.2389253597706
 30
0.0
 11
391.3695333971483
 21
704.2389253597706
 31
0.0
  0
LINE
  5
36A1
330
1F
100
AcDbEntity
  8
AM_9
 60
     1
100
AcDbLine
 10
343.0206958462652
 20
704.2389253597706
 30
0.0
 11
354.6206958462652
 21
704.2389253597706
 31
0.0
1001
AMG_2DHIDE
1002
{
1040
131072.0000000002
1002
{
1000
OE
1000
CON1
1002
}
1002
}
  0
LINE
  5
36A2
330
1F
100
AcDbEntity
  8
0
100
AcDbLine
 10
354.6206958462652
 20
704.2389253597706
 30
0.0
 11
357.3206958462652
 21
704.2389253597706
 31
0.0
  0
LINE
  5
36A4
330
1F
100
AcDbEntity
  8
AM_9
 60
     1
100
AcDbLine
 10
260.8195333971484
 20
704.2389253597706
 30
0.0
 11
272.4195333971484
 21
704.2389253597706
 31
0.0
1001
AMG_2DHIDE
1002
{
1040
131072.0000000002
1002
{
1000
OE
1000
CON1
1002
}
1002
}
  0
LINE
  5
36A5
330
1F
100
AcDbEntity
  8
0
100
AcDbLine
 10
272.4195333971484
 20
704.2389253597706
 30
0.0
 11
275.1195333971484
 21
704.2389253597706
 31
0.0
  0
LINE
  5
36A7
330
1F
100
AcDbEntity
  8
AM_9
 60
     1
100
AcDbLine
 10
178.6183700842123
 20
704.2389253597706
 30
0.0
 11
190.2183700842123
 21
704.2389253597706
 31
0.0
1001
AMG_2DHIDE
1002
{
1040
131072.0000000002
1002
{
1000
OE
1000
CON1
1002
}
1002
}
  0
LINE
  5
36A8
330
1F
100
AcDbEntity
  8
0
100
AcDbLine
 10
190.2183700842123
 20
704.2389253597706
 30
0.0
 11
192.9183700842123
 21
704.2389253597706
 31
0.0
  0
LINE
  5
36AA
330
1F
100
AcDbEntity
  8
AM_9
 60
     1
100
AcDbLine
 10
144.5695333971484
 20
704.2389253597706
 30
0.0
 11
156.1695333971484
 21
704.2389253597706
 31
0.0
1001
AMG_2DHIDE
1002
{
1040
131072.0000000002
1002
{
1000
OE
1000
CON1
1002
}
1002
}
  0
LINE
  5
36AB
330
1F
100
AcDbEntity
  8
0
100
AcDbLine
 10
156.1695333971484
 20
704.2389253597706
 30
0.0
 11
158.8695333971484
 21
704.2389253597706
 31
0.0
  0
DIMENSION
  5
36DB
102
{ACAD_XDICTIONARY
360
36E8
102
}
102
{ACAD_REACTORS
330
36E9
102
}
330
1F
100
AcDbEntity
  8
AM_5
100
AcDbDimension
  2
*D35
 10
850.7572997589532
 20
631.7904303739433
 30
0.0
 11
844.0072997589531
 21
665.214677674116
 31
0.0
 70
    32
 71
     5
 42
66.84849460034502
  3
AM_ISO$0
100
AcDbAlignedDimension
 13
440.1342522504817
 23
698.6389249742884
 33
0.0
 14
776.6195336247208
 24
631.7904303739433
 34
0.0
 50
90.00000000000003
100
AcDbRotatedDimension
1001
ACAD_DSTYLE_DIMINSPECT
1070
   396
1000
100%
1070
   395
1000

1070
   394
1070
    33
1070
   393
1070
     0
1001
ACAD
1000
DSTYLE
1002
{
1070
   140
1040
10.5
1070
   271
1070
     0
1002
}
  0
ENDSEC
  0
SECTION
  2
OBJECTS
  0
DICTIONARY
  5
C
330
0
100
AcDbDictionary
281
     1
  3
ACAD_2007HEADERVARS_RT
350
3875
  3
ACAD_COLOR
350
BE
  3
ACAD_GROUP
350
D
  3
ACAD_IMAGE_DICT
350
346A
  3
ACAD_IMAGE_VARS
350
348F
  3
ACAD_LAYOUT
350
1A
  3
ACAD_MATERIAL
350
BD
  3
ACAD_MLEADERSTYLE
350
3180
  3
ACAD_MLINESTYLE
350
17
  3
ACAD_PLOTSETTINGS
350
19
  3
ACAD_PLOTSTYLENAME
350
E
  3
ACAD_SCALELIST
350
316E
  3
ACAD_TABLESTYLE
350
11A
  3
ACAD_VISUALSTYLE
350
315D
  3
ACDB_RECOMPOSE_DATA
350
3649
  3
AcDbVariableDictionary
350
94
  3
AcmDictionary
350
5B
  3
AMG
350
41
  3
AMGSNAPSETTINGS
350
26B
  3
ASE_INDEX_DICTIONARY
350
313E
  0
DICTIONARY
  5
613
330
2
100
AcDbDictionary
280
     1
281
     1
  3
ACAD_LAYERSTATES
360
7B7
  3
AMLAYER_GROUPCOLORS
360
614
  0
DICTIONARY
  5
35C5
330
10
100
AcDbDictionary
280
     1
281
     1
  3
ADSK_XREC_LAYER_RECONCILED
360
35C6
  0
DICTIONARY
  5
35C7
330
306
100
AcDbDictionary
280
     1
281
     1
  3
ADSK_XREC_LAYER_RECONCILED
360
35C8
  0
DICTIONARY
  5
35C9
330
32D
100
AcDbDictionary
280
     1
281
     1
  3
ADSK_XREC_LAYER_RECONCILED
360
35CA
  0
DICTIONARY
  5
35CB
330
612
100
AcDbDictionary
280
     1
281
     1
  3
ADSK_XREC_LAYER_RECONCILED
360
35CC
  0
DICTIONARY
  5
35CD
330
616
100
AcDbDictionary
280
     1
281
     1
  3
ADSK_XREC_LAYER_RECONCILED
360
35CE
  0
DICTIONARY
  5
35CF
330
618
100
AcDbDictionary
280
     1
281
     1
  3
ADSK_XREC_LAYER_RECONCILED
360
35D0
  0
DICTIONARY
  5
35E3
330
BF8
100
AcDbDictionary
280
     1
281
     1
  3
ADSK_XREC_LAYER_RECONCILED
360
35E4
  0
DICTIONARY
  5
35E5
330
CEA
100
AcDbDictionary
280
     1
281
     1
  3
ADSK_XREC_LAYER_RECONCILED
360
35E6
  0
DICTIONARY
  5
35E7
330
1103
100
AcDbDictionary
280
     1
281
     1
  3
ADSK_XREC_LAYER_RECONCILED
360
35E8
  0
DICTIONARY
  5
35E9
330
274D
100
AcDbDictionary
280
     1
281
     1
  3
ADSK_XREC_LAYER_RECONCILED
360
35EA
  0
DICTIONARY
  5
35EB
330
274E
100
AcDbDictionary
280
     1
281
     1
  3
ADSK_XREC_LAYER_RECONCILED
360
35EC
  0
DICTIONARY
  5
35EF
330
2DA4
100
AcDbDictionary
280
     1
281
     1
  3
ADSK_XREC_LAYER_RECONCILED
360
35F0
  0
DICTIONARY
  5
35F1
330
2DA5
100
AcDbDictionary
280
     1
281
     1
  3
ADSK_XREC_LAYER_RECONCILED
360
35F2
  0
DICTIONARY
  5
35F3
330
2DA6
100
AcDbDictionary
280
     1
281
     1
  3
ADSK_XREC_LAYER_RECONCILED
360
35F4
  0
DICTIONARY
  5
8F
330
1F
100
AcDbDictionary
280
     1
281
     1
  3
ACAD_SORTENTS
360
2E9
  0
DICTIONARY
  5
B30
330
B2F
100
AcDbDictionary
280
     1
281
     1
  3
ACAD_DIMASSOC
360
B31
  0
DICTIONARY
  5
B43
330
B42
100
AcDbDictionary
280
     1
281
     1
  3
ACAD_DIMASSOC
360
B44
  0
DICTIONARY
  5
B46
330
B45
100
AcDbDictionary
280
     1
281
     1
  3
ACAD_DIMASSOC
360
B47
  0
DICTIONARY
  5
B4C
330
B4B
100
AcDbDictionary
280
     1
281
     1
  3
ACAD_DIMASSOC
360
B4D
  0
DICTIONARY
  5
B51
330
B50
100
AcDbDictionary
280
     1
281
     1
  3
ACAD_DIMASSOC
360
B52
  0
DICTIONARY
  5
105B
330
104E
100
AcDbDictionary
280
     1
281
     1
  3
ACAD_DIMASSOC
360
105C
  0
DICTIONARY
  5
137E
330
1371
100
AcDbDictionary
280
     1
281
     1
  3
ACAD_DIMASSOC
360
137F
  0
DICTIONARY
  5
1977
330
1967
100
AcDbDictionary
280
     1
281
     1
  3
ACAD_DIMASSOC
360
1984
  0
DICTIONARY
  5
2BF6
330
2BE9
100
AcDbDictionary
280
     1
281
     1
  3
ACAD_DIMASSOC
360
2BF7
  0
DICTIONARY
  5
2E4A
330
2E3D
100
AcDbDictionary
280
     1
281
     1
  3
ACAD_DIMASSOC
360
2E4B
  0
DICTIONARY
  5
3126
330
3119
100
AcDbDictionary
280
     1
281
     1
  3
ACAD_DIMASSOC
360
3127
  0
DICTIONARY
  5
36E8
330
36DB
100
AcDbDictionary
280
     1
281
     1
  3
ACAD_DIMASSOC
360
36E9
  0
DICTIONARY
  5
3875
102
{ACAD_REACTORS
330
C
102
}
330
C
100
AcDbDictionary
281
     1
  3
DIMARCSYM
350
3876
  0
DICTIONARY
  5
BE
102
{ACAD_REACTORS
330
C
102
}
330
C
100
AcDbDictionary
281
     1
  0
DICTIONARY
  5
D
102
{ACAD_REACTORS
330
C
102
}
330
C
100
AcDbDictionary
281
     1
  0
DICTIONARY
  5
346A
102
{ACAD_REACTORS
330
C
102
}
330
C
100
AcDbDictionary
281
     1
  3
ACO-Logo
350
346B
  0
RASTERVARIABLES
  5
348F
102
{ACAD_REACTORS
330
C
102
}
330
C
100
AcDbRasterVariables
 90
        0
 70
     1
 71
     1
 72
     1
  0
DICTIONARY
  5
1A
102
{ACAD_REACTORS
330
C
102
}
330
C
100
AcDbDictionary
281
     1
  3
Layout1
350
1E
  3
Layout2
350
26
  3
Model
350
22
  0
DICTIONARY
  5
BD
102
{ACAD_REACTORS
330
C
102
}
330
C
100
AcDbDictionary
281
     1
  3
ByBlock
350
314D
  3
ByLayer
350
3145
  3
Global
350
3155
  0
DICTIONARY
  5
3180
102
{ACAD_REACTORS
330
C
102
}
330
C
100
AcDbDictionary
281
     1
  3
Standard
350
3181
  0
DICTIONARY
  5
17
102
{ACAD_REACTORS
330
C
102
}
330
C
100
AcDbDictionary
281
     1
  3
Standard
350
18
  0
DICTIONARY
  5
19
102
{ACAD_REACTORS
330
C
102
}
330
C
100
AcDbDictionary
281
     1
  0
ACDBDICTIONARYWDFLT
  5
E
102
{ACAD_REACTORS
330
C
102
}
330
C
100
AcDbDictionary
281
     1
  3
Normal
350
F
100
AcDbDictionaryWithDefault
340
F
  0
DICTIONARY
  5
316E
102
{ACAD_REACTORS
330
C
102
}
330
C
100
AcDbDictionary
281
     1
  3
A0
350
316F
  3
A1
350
3170
  3
A2
350
3171
  3
A3
350
3172
  3
A4
350
3173
  3
A5
350
3174
  3
A6
350
3175
  3
A7
350
3176
  3
A8
350
3177
  3
A9
350
3178
  3
B0
350
3179
  3
B1
350
317A
  3
B2
350
317B
  3
B3
350
317C
  3
B4
350
317D
  3
B5
350
317E
  3
B6
350
317F
  0
DICTIONARY
  5
11A
102
{ACAD_REACTORS
330
C
102
}
330
C
100
AcDbDictionary
281
     1
  3
Standard
350
11B
  0
DICTIONARY
  5
315D
102
{ACAD_REACTORS
330
C
102
}
330
C
100
AcDbDictionary
281
     1
  3
2dWireframe
350
3163
  3
3D Hidden
350
3165
  3
3dWireframe
350
3164
  3
Basic
350
3162
  3
Brighten
350
3169
  3
ColorChange
350
316D
  3
Conceptual
350
3166
  3
Dim
350
3168
  3
Facepattern
350
316C
  3
Flat
350
315E
  3
FlatWithEdges
350
315F
  3
Gouraud
350
3160
  3
GouraudWithEdges
350
3161
  3
Linepattern
350
316B
  3
Realistic
350
3167
  3
Thicken
350
316A
  0
XRECORD
  5
3649
102
{ACAD_REACTORS
330
C
102
}
330
C
100
AcDbXrecord
280
     1
 90
        1
330
11B
  0
DICTIONARY
  5
94
102
{ACAD_REACTORS
330
C
102
}
330
C
100
AcDbDictionary
281
     1
  3
CANNOSCALE
350
364C
  3
CMLEADERSTYLE
350
364A
  3
CTABLESTYLE
350
138
  3
DIMASSOC
350
96
  3
INDEXCTL
350
95
  3
LAYEREVAL
350
364E
  3
LAYERNOTIFY
350
364F
  3
LIGHTINGUNITS
350
364D
  3
MSLTSCALE
350
364B
  0
DICTIONARY
  5
5B
102
{ACAD_REACTORS
330
C
102
}
330
C
100
AcDbDictionary
281
     1
  3
AcmBOM
350
272
  3
AcmStdDictionary
350
61
  3
AMDTSECTSYM_ARROWCOLOR
350
123
  0
DICTIONARY
  5
41
102
{ACAD_REACTORS
330
C
102
}
330
C
100
AcDbDictionary
281
     1
  0
DICTIONARY
  5
26B
102
{ACAD_REACTORS
330
C
102
}
330
C
100
AcDbDictionary
281
     1
  0
DICTIONARY
  5
313E
102
{ACAD_REACTORS
330
C
102
}
330
C
100
AcDbDictionary
281
     1
  3
ASEBlockHierarchyIndexRecord
350
313F
1001
DCO15
1040
1585994065.226
  0
DICTIONARY
  5
7B7
102
{ACAD_REACTORS
330
613
102
}
330
613
100
AcDbDictionary
281
     1
  0
DICTIONARY
  5
614
102
{ACAD_REACTORS
330
613
102
}
330
613
100
AcDbDictionary
280
     1
281
     1
  0
XRECORD
  5
35C6
102
{ACAD_REACTORS
330
35C5
102
}
330
35C5
100
AcDbXrecord
280
     1
290
     1
  0
XRECORD
  5
35C8
102
{ACAD_REACTORS
330
35C7
102
}
330
35C7
100
AcDbXrecord
280
     1
290
     1
  0
XRECORD
  5
35CA
102
{ACAD_REACTORS
330
35C9
102
}
330
35C9
100
AcDbXrecord
280
     1
290
     1
  0
XRECORD
  5
35CC
102
{ACAD_REACTORS
330
35CB
102
}
330
35CB
100
AcDbXrecord
280
     1
290
     1
  0
XRECORD
  5
35CE
102
{ACAD_REACTORS
330
35CD
102
}
330
35CD
100
AcDbXrecord
280
     1
290
     1
  0
XRECORD
  5
35D0
102
{ACAD_REACTORS
330
35CF
102
}
330
35CF
100
AcDbXrecord
280
     1
290
     1
  0
XRECORD
  5
35E4
102
{ACAD_REACTORS
330
35E3
102
}
330
35E3
100
AcDbXrecord
280
     1
290
     1
  0
XRECORD
  5
35E6
102
{ACAD_REACTORS
330
35E5
102
}
330
35E5
100
AcDbXrecord
280
     1
290
     1
  0
XRECORD
  5
35E8
102
{ACAD_REACTORS
330
35E7
102
}
330
35E7
100
AcDbXrecord
280
     1
290
     1
  0
XRECORD
  5
35EA
102
{ACAD_REACTORS
330
35E9
102
}
330
35E9
100
AcDbXrecord
280
     1
290
     1
  0
XRECORD
  5
35EC
102
{ACAD_REACTORS
330
35EB
102
}
330
35EB
100
AcDbXrecord
280
     1
290
     1
  0
XRECORD
  5
35F0
102
{ACAD_REACTORS
330
35EF
102
}
330
35EF
100
AcDbXrecord
280
     1
290
     1
  0
XRECORD
  5
35F2
102
{ACAD_REACTORS
330
35F1
102
}
330
35F1
100
AcDbXrecord
280
     1
290
     1
  0
XRECORD
  5
35F4
102
{ACAD_REACTORS
330
35F3
102
}
330
35F3
100
AcDbXrecord
280
     1
290
     1
  0
SORTENTSTABLE
  5
2E9
102
{ACAD_REACTORS
330
8F
102
}
330
8F
100
AcDbSortentsTable
330
1F
331
FA9
  5
10C1
331
C13
  5
C15
331
1157
  5
11A2
331
2E90
  5
2ED8
331
2C8B
  5
2DDF
331
2E98
  5
2EDC
331
2736
  5
2842
331
2EDF
  5
2F31
331
2EE7
  5
2F3B
331
269E
  5
26BA
331
26DD
  5
26F9
331
2F8B
  5
2F8C
331
26A6
  5
26C3
331
26E5
  5
2701
331
2F93
  5
2F94
331
2F9B
  5
2F9C
331
26AE
  5
26CA
331
2677
  5
268E
331
26ED
  5
2719
331
2F2C
  5
116C
331
B35
  5
B36
331
26B6
  5
26D2
331
2F34
  5
1137
331
B3D
  5
B3E
331
B45
  5
B48
331
1206
  5
1C43
331
1167
  5
12AF
331
116F
  5
13CE
331
10B9
  5
1127
331
F4A
  5
10BE
331
10C1
  5
1167
331
CE3
  5
F4A
331
1256
  5
1ABB
331
26F7
  5
2834
331
282E
  5
2AAE
331
2ABD
  5
2C8B
331
1187
  5
1A7C
331
26FF
  5
283C
331
2836
  5
2BD8
331
2707
  5
26C8
331
283E
  5
2C73
331
2C74
  5
2CEF
331
267F
  5
2698
331
26BE
  5
26DA
331
1C49
  5
2682
331
2687
  5
269F
331
26C6
  5
26E2
331
2F5C
  5
2F5D
331
268F
  5
26A8
331
26CE
  5
26EA
331
2F64
  5
2F65
331
2697
  5
26B2
331
26D6
  5
26F2
331
2F6C
  5
2F8B
331
B26
  5
B26
331
B2E
  5
B2F
331
1128
  5
1188
331
C1C
  5
C1E
331
E9B
  5
FA3
331
C24
  5
CF8
331
1158
  5
11E8
331
2C8C
  5
2DE2
331
2ED0
  5
2EE8
331
2ED8
  5
2F24
331
2AAE
  5
2C78
331
2EE0
  5
2F32
331
269F
  5
26BB
331
26DE
  5
26FA
331
2F8C
  5
2F8D
331
26E6
  5
2702
331
2F94
  5
2F95
331
26AF
  5
26CB
331
26EE
  5
2736
331
2F9C
  5
2F9D
331
B36
  5
B37
331
26B7
  5
26D3
331
2F35
  5
1156
331
B3E
  5
B3F
331
1168
  5
12B1
331
1170
  5
15BD
331
10BA
  5
112A
331
F4B
  5
10BF
331
26F0
  5
2749
331
10C2
  5
1168
331
FA3
  5
10C2
331
26F8
  5
2835
331
1267
  5
2263
331
2700
  5
283D
331
2837
  5
2BE9
331
2BA6
  5
2C8C
331
283F
  5
2C74
331
2C75
  5
2CF0
331
2678
  5
268F
331
26BF
  5
26DB
331
2680
  5
2699
331
30C4
  5
C21
331
2688
  5
26A0
331
26C7
  5
26E3
331
2F5D
  5
2F5E
331
2690
  5
26A9
331
26CF
  5
26EB
331
2F65
  5
2F66
331
26D7
  5
26F3
331
B27
  5
B27
331
B2F
  5
B32
331
1188
  5
1A82
331
FAB
  5
10C3
331
C15
  5
C16
331
C1D
  5
C1F
331
1159
  5
11FD
331
2E92
  5
2ED9
331
12AF
  5
2294
331
2E9A
  5
2EDE
331
2ED9
  5
2F2B
331
2EE1
  5
2F34
331
2698
  5
26B3
331
26A0
  5
26BC
331
26DF
  5
26FB
331
2F8D
  5
2F8E
331
26E7
  5
2703
331
2F95
  5
2F96
331
26B0
  5
26CC
331
26EF
  5
2745
331
2F9D
  5
2F9E
331
B37
  5
B38
331
B3F
  5
B40
331
1161
  5
1267
331
C3D
  5
D90
331
1169
  5
12C1
331
CA5
  5
EA6
331
F2C
  5
F73
331
26F1
  5
274A
331
10BB
  5
113D
331
F4C
  5
10C0
331
111A
  5
1181
331
26F9
  5
2836
331
1181
  5
1879
331
10C3
  5
1169
331
2838
  5
2C1D
331
2BA7
  5
2C98
331
2C6E
  5
2CE7
331
2DE3
  5
2E9E
331
2C76
  5
2CF1
331
2679
  5
2690
331
26B8
  5
26D4
331
1C43
  5
2681
331
2681
  5
269A
331
26C0
  5
26DC
331
2689
  5
26A1
331
26C8
  5
26E4
331
2F5E
  5
2F5F
331
2691
  5
26AA
331
26D0
  5
26EC
331
2F66
  5
2F67
331
B28
  5
B28
331
1189
  5
1A97
331
C16
  5
C17
331
12A0
  5
2293
331
C1E
  5
C20
331
2719
  5
283F
331
115A
  5
1234
331
2ED2
  5
2F1B
331
2749
  5
2692
331
2EE2
  5
2F35
331
1CEB
  5
10B8
331
2699
  5
26B4
331
26D8
  5
26F4
331
26A1
  5
26BE
331
26E0
  5
26FC
331
2F8E
  5
2F8F
331
1D2B
  5
10B7
331
26A9
  5
26C4
331
26E8
  5
2704
331
2F96
  5
2F97
331
2F9E
  5
2FA2
331
26B1
  5
26CD
331
2F2F
  5
1166
331
B38
  5
B39
331
B40
  5
B42
331
1162
  5
127A
331
B50
  5
B53
331
116A
  5
12C3
331
26F2
  5
274B
331
10BC
  5
1157
331
111B
  5
1182
331
26FA
  5
2837
331
1182
  5
1967
331
10C4
  5
116B
331
2839
  5
2C6E
331
2BA8
  5
2C99
331
2C6F
  5
2CE8
331
2DE4
  5
2EC9
331
2C77
  5
2D0B
331
1B84
  5
2680
331
226B
  5
2687
331
267A
  5
2691
331
26B9
  5
26D5
331
2EE8
  5
2F59
331
2682
  5
269B
331
2293
  5
2689
331
26C1
  5
26DD
331
268A
  5
26A3
331
26C9
  5
26E5
331
2F5F
  5
2F60
331
2692
  5
26AB
331
26D1
  5
26ED
331
2F67
  5
2F68
331
B29
  5
B29
331
C17
  5
C18
331
C1F
  5
C22
331
115B
  5
1240
331
2E94
  5
2EDA
331
2ED3
  5
2F1E
331
2E9C
  5
2EDF
331
2EDB
  5
2F2C
331
274A
  5
2697
331
269A
  5
26B5
331
26D9
  5
26F5
331
26A2
  5
26BF
331
26E1
  5
26FD
331
2F8F
  5
2F90
331
26AA
  5
26C5
331
26E9
  5
2705
331
2F97
  5
2F98
331
26B2
  5
26CE
331
2F30
  5
115E
331
1163
  5
127C
331
C3F
  5
EA7
331
F26
  5
FB8
331
116B
  5
12D1
331
CA7
  5
F26
331
26F3
  5
282D
331
10BD
  5
1159
331
CD7
  5
F2C
331
26FB
  5
2838
331
2832
  5
2ABD
331
1183
  5
19BF
331
10C5
  5
116E
331
2703
  5
1266
331
283A
  5
2C6F
331
2C70
  5
2CE9
331
2DE5
  5
2ECB
331
2713
  5
283E
331
2BD9
  5
2CE4
331
2E3D
  5
2ED7
331
12B1
  5
2385
331
226C
  5
2688
331
2ECC
  5
2EE3
331
12D1
  5
238E
331
267B
  5
2693
331
26BA
  5
26D6
331
2294
  5
268A
331
2683
  5
269C
331
26C2
  5
26DE
331
1967
  5
267E
331
268B
  5
26A4
331
26CA
  5
26E6
331
2F60
  5
2F61
331
22BC
  5
268D
331
2693
  5
26AE
331
26D2
  5
26EE
331
2F68
  5
2F69
331
B2A
  5
B2A
331
C18
  5
C19
331
127A
  5
226B
331
D8F
  5
F4C
331
C20
  5
C24
331
2BE9
  5
2CE5
331
104E
  5
10C5
331
115C
  5
1246
331
2ED4
  5
2F1F
331
EA7
  5
FE1
331
2EDC
  5
2F2D
331
274B
  5
26A2
331
2EE4
  5
2F36
331
1371
  5
23F2
331
269B
  5
26B6
331
26DA
  5
26F6
331
26A3
  5
26C0
331
26E2
  5
26FE
331
2F90
  5
2F91
331
26AB
  5
26C6
331
26EA
  5
2706
331
2F98
  5
2F99
331
B32
  5
B33
331
1D35
  5
10BC
331
26B3
  5
26CF
331
B3A
  5
B3B
331
B42
  5
B45
331
1164
  5
128C
331
10B6
  5
10C7
331
116C
  5
12E1
331
26F4
  5
282E
331
10BE
  5
115B
331
26FC
  5
2839
331
2833
  5
2BA6
331
10C6
  5
1170
331
1184
  5
19C0
331
2704
  5
1254
331
283B
  5
2C70
331
2C71
  5
2CEA
331
2DE6
  5
2ECE
331
2ECD
  5
2EE4
331
267C
  5
2694
331
26BB
  5
26D7
331
2684
  5
269D
331
26C3
  5
26DF
331
2F59
  5
2F5A
331
229D
  5
268C
331
268C
  5
26A5
331
26CB
  5
26E7
331
2F61
  5
2F62
331
2694
  5
26AF
331
26D3
  5
26EF
331
2F69
  5
2F6A
331
B2B
  5
B2B
331
C19
  5
C1A
331
C21
  5
C2F
331
115D
  5
124C
331
2E96
  5
2EDB
331
2ED5
  5
2F21
331
2E9E
  5
2EE0
331
2EE5
  5
2F39
331
269C
  5
26B7
331
26DB
  5
26F7
331
1CF6
  5
1069
331
1B5F
  5
267F
331
26A4
  5
26C1
331
26E3
  5
26FF
331
2F91
  5
2F92
331
26AC
  5
26C7
331
26EB
  5
2707
331
2F99
  5
2F9A
331
B33
  5
B34
331
26B4
  5
26D0
331
B4B
  5
B4E
331
1165
  5
128E
331
B53
  5
B54
331
116D
  5
1371
331
10B7
  5
111C
331
1234
  5
1AB5
331
26F5
  5
2832
331
10BF
  5
115D
331
1254
  5
1C49
331
26FD
  5
283A
331
2834
  5
2BA7
331
1185
  5
19CE
331
10C7
  5
117F
331
1126
  5
1186
331
2705
  5
26B8
331
283C
  5
2C71
331
2C72
  5
2CEB
331
2DE7
  5
2ECF
331
2ECE
  5
2EE6
331
267D
  5
2695
331
26BC
  5
26D8
331
2F3A
  5
111F
331
26C4
  5
26E0
331
2F5A
  5
2F5B
331
268D
  5
26A6
331
26CC
  5
26E8
331
2F62
  5
2F63
331
2695
  5
26B0
331
26D4
  5
26F0
331
2F6A
  5
2F6B
331
B24
  5
B24
331
127C
  5
2292
331
FB8
  5
10C4
331
C1A
  5
C1C
331
C22
  5
C3F
331
1156
  5
1189
331
115E
  5
1253
331
2ED6
  5
2F22
331
2EDE
  5
2F2E
331
2745
  5
2873
331
2EE6
  5
2F3A
331
269D
  5
26B9
331
26DC
  5
26F8
331
26A5
  5
26C2
331
26E4
  5
2700
331
2F92
  5
2F93
331
2F9A
  5
2F9B
331
26AD
  5
26C9
331
26EC
  5
2713
331
2F2B
  5
116A
331
B34
  5
B35
331
26B5
  5
26D1
331
B3C
  5
B3D
331
1166
  5
12A0
331
1205
  5
1B84
331
116E
  5
13A0
331
10B8
  5
1126
331
1235
  5
1AAF
331
26F6
  5
2833
331
282D
  5
2889
331
10C0
  5
1165
331
111F
  5
1184
331
1255
  5
1B5F
331
26FE
  5
283B
331
2835
  5
2BA8
331
1186
  5
1A76
331
1127
  5
1187
331
2706
  5
26BD
331
283D
  5
2C72
331
2C73
  5
2CEE
331
2ECF
  5
2EE7
331
267E
  5
2696
331
26BD
  5
26D9
331
2F3B
  5
111A
331
2686
  5
269E
331
26C5
  5
26E1
331
2F5B
  5
2F5C
331
268E
  5
26A7
331
26CD
  5
26E9
331
2F63
  5
2F64
331
2696
  5
26B1
331
26D5
  5
26F1
331
2F6B
  5
2F6C
331
B25
  5
B25
  0
DIMASSOC
  5
B31
102
{ACAD_REACTORS
330
B30
102
}
330
B30
100
AcDbDimAssoc
330
B2F
 90
        2
 70
     0
 71
     0
  1
AcDbOsnapPointRef
 72
     6
331
B2B
 73
     0
 91
        0
 40
0.0
 10
0.0
 20
0.0
 30
0.0
332
B27
 74
     0
 92
        0
 75
     0
  0
DIMASSOC
  5
B44
102
{ACAD_REACTORS
330
B43
102
}
330
B43
100
AcDbDimAssoc
330
B42
 90
       15
 70
     0
 71
     0
  1
AcDbOsnapPointRef
 72
    13
331
B29
 73
     2
 91
        0
 40
0.0
 10
0.0
 20
0.0
 30
2.000000000000000E+50
 75
     0
  1
AcDbOsnapPointRef
 72
     1
331
B29
 73
     2
 91
        0
 40
1.0
 10
0.0
 20
0.0
 30
2.000000000000000E+50
 75
     0
  1
AcDbOsnapPointRef
 72
    13
331
B26
 73
     2
 91
        0
 40
0.0
 10
0.0
 20
0.0
 30
2.000000000000000E+50
 75
     0
  1
AcDbOsnapPointRef
 72
     1
331
B26
 73
     2
 91
        0
 40
0.9999999999999998
 10
0.0
 20
0.0
 30
2.000000000000000E+50
 75
     0
  0
DIMASSOC
  5
B47
102
{ACAD_REACTORS
330
B46
102
}
330
B46
100
AcDbDimAssoc
330
B45
 90
        3
 70
     0
 71
     0
  1
AcDbOsnapPointRef
 72
    13
331
B36
 73
     0
 91
        0
 40
0.0
 10
0.0
 20
0.0
 30
2.000000000000000E+50
 75
     0
  1
AcDbOsnapPointRef
 72
    13
331
B38
 73
     0
 91
        0
 40
0.0
 10
0.0
 20
0.0
 30
2.000000000000000E+50
 75
     0
  0
DIMASSOC
  5
B4D
102
{ACAD_REACTORS
330
B4C
102
}
330
B4C
100
AcDbDimAssoc
330
B4B
 90
        3
 70
     0
 71
     0
  1
AcDbOsnapPointRef
 72
     1
331
B33
 73
     0
 91
        0
 40
0.0
 10
0.0
 20
0.0
 30
2.000000000000000E+50
 75
     0
  1
AcDbOsnapPointRef
 72
     1
331
B40
 73
     0
 91
        0
 40
0.0
 10
0.0
 20
0.0
 30
2.000000000000000E+50
 75
     0
  0
DIMASSOC
  5
B52
102
{ACAD_REACTORS
330
B51
102
}
330
B51
100
AcDbDimAssoc
330
B50
 90
        3
 70
     0
 71
     0
  1
AcDbOsnapPointRef
 72
    13
331
B25
 73
     0
 91
        0
 40
0.0
 10
0.0
 20
0.0
 30
2.000000000000000E+50
 75
     0
  1
AcDbOsnapPointRef
 72
    13
331
B26
 73
     0
 91
        0
 40
0.0
 10
0.0
 20
0.0
 30
2.000000000000000E+50
 75
     0
  0
DIMASSOC
  5
105C
102
{ACAD_REACTORS
330
105B
102
}
330
105B
100
AcDbDimAssoc
330
104E
 90
        1
 70
     0
 71
     0
  1
AcDbOsnapPointRef
 72
    13
331
C24
 73
     0
 91
        0
 40
0.0
 10
0.0
 20
0.0
 30
2.000000000000000E+50
 75
     0
  0
DIMASSOC
  5
137F
102
{ACAD_REACTORS
330
137E
102
}
330
137E
100
AcDbDimAssoc
330
1371
 90
        3
 70
     0
 71
     0
  1
AcDbOsnapPointRef
 72
    13
331
10C7
 73
     0
 91
        0
 40
0.0
 10
0.0
 20
0.0
 30
2.000000000000000E+50
 75
     0
  1
AcDbOsnapPointRef
 72
    13
331
10BE
 73
     0
 91
        0
 40
0.0
 10
0.0
 20
0.0
 30
2.000000000000000E+50
 75
     0
  0
DIMASSOC
  5
1984
102
{ACAD_REACTORS
330
1977
102
}
330
1977
100
AcDbDimAssoc
330
1967
 90
        1
 70
     0
 71
     0
  1
AcDbOsnapPointRef
 72
    13
331
F4A
 73
     2
 91
        0
 40
0.0
 10
0.0
 20
0.0
 30
2.000000000000000E+50
 75
     0
  0
DIMASSOC
  5
2BF7
102
{ACAD_REACTORS
330
2BF6
102
}
330
2BF6
100
AcDbDimAssoc
330
2BE9
 90
        3
 70
     0
 71
     0
  1
AcDbOsnapPointRef
 72
    13
331
2BA8
 73
     0
 91
        0
 40
0.0
 10
0.0
 20
0.0
 30
2.000000000000000E+50
 75
     0
  1
AcDbOsnapPointRef
 72
     1
331
2BA8
 73
     0
 91
        0
 40
0.0
 10
0.0
 20
0.0
 30
2.000000000000000E+50
 75
     0
  0
DIMASSOC
  5
2E4B
102
{ACAD_REACTORS
330
2E4A
102
}
330
2E4A
100
AcDbDimAssoc
330
2E3D
 90
        3
 70
     0
 71
     0
  1
AcDbOsnapPointRef
 72
     1
331
2C8B
 73
     0
 91
        0
 40
0.0
 10
3.141592653589793
 20
6.283185307179586
 30
2.000000000000000E+50
 75
     0
  1
AcDbOsnapPointRef
 72
     1
331
FA9
 73
     0
 91
        0
 40
0.0
 10
0.0
 20
0.0
 30
2.000000000000000E+50
 75
     0
  0
DIMASSOC
  5
3127
102
{ACAD_REACTORS
330
3126
102
}
330
3126
100
AcDbDimAssoc
330
3119
 90
        3
 70
     0
 71
     0
  1
AcDbOsnapPointRef
 72
    13
331
B25
 73
     0
 91
        0
 40
0.0
 10
0.0
 20
0.0
 30
2.000000000000000E+50
 75
     0
  1
AcDbOsnapPointRef
 72
    10
331
C16
 73
     0
 91
        0
 40
0.0335848243891567
 10
0.0
 20
0.0
 30
0.0
 75
     0
  0
DIMASSOC
  5
36E9
102
{ACAD_REACTORS
330
36E8
102
}
330
36E8
100
AcDbDimAssoc
330
36DB
 90
        3
 70
     0
 71
     0
  1
AcDbOsnapPointRef
 72
    13
331
B28
 73
     0
 91
        0
 40
0.0
 10
0.0
 20
0.0
 30
2.000000000000000E+50
 75
     0
  1
AcDbOsnapPointRef
 72
     6
331
EA7
 73
     0
 91
        0
 40
0.5000000000002548
 10
0.0
 20
0.0
 30
0.0
332
F4A
 74
     0
 92
        0
 75
     0
  0
XRECORD
  5
3876
102
{ACAD_REACTORS
330
3875
102
}
330
3875
100
AcDbXrecord
280
     1
 70
     1
  0
IMAGEDEF
  5
346B
102
{ACAD_REACTORS
330
346A
330
3580
102
}
330
346A
100
AcDbRasterImageDef
 90
        0
  1
L:\calink52\templates\ACO-Logo.jpg
 10
75.0
 20
57.0
 11
0.3527777777777778
 21
0.3527777777777778
280
     1
281
     5
  0
LAYOUT
  5
1E
102
{ACAD_REACTORS
330
1A
102
}
330
1A
100
AcDbPlotSettings
  1

  2

  4

  6

 40
0.0
 41
0.0
 42
0.0
 43
0.0
 44
0.0
 45
0.0
 46
0.0
 47
0.0
 48
0.0
 49
0.0
140
0.0
141
0.0
142
1.0
143
1.0
 70
   688
 72
     0
 73
     0
 74
     5
  7
monochrome.ctb
 75
    16
147
1.0
 76
     0
 77
     2
 78
   300
148
0.0
149
0.0
100
AcDbLayout
  1
Layout1
 70
     1
 71
     1
 10
0.0
 20
0.0
 11
420.0
 21
297.0
 12
0.0
 22
0.0
 32
0.0
 14
1.000000000000000E+20
 24
1.000000000000000E+20
 34
1.000000000000000E+20
 15
-1.000000000000000E+20
 25
-1.000000000000000E+20
 35
-1.000000000000000E+20
146
0.0
 13
0.0
 23
0.0
 33
0.0
 16
1.0
 26
0.0
 36
0.0
 17
0.0
 27
1.0
 37
0.0
 76
     0
330
1B
  0
LAYOUT
  5
26
102
{ACAD_REACTORS
330
1A
102
}
330
1A
100
AcDbPlotSettings
  1

  2

  4

  6

 40
0.0
 41
0.0
 42
0.0
 43
0.0
 44
0.0
 45
0.0
 46
0.0
 47
0.0
 48
0.0
 49
0.0
140
0.0
141
0.0
142
1.0
143
1.0
 70
   688
 72
     0
 73
     0
 74
     5
  7
monochrome.ctb
 75
    16
147
1.0
 76
     0
 77
     2
 78
   300
148
0.0
149
0.0
100
AcDbLayout
  1
Layout2
 70
     1
 71
     2
 10
0.0
 20
0.0
 11
12.0
 21
9.0
 12
0.0
 22
0.0
 32
0.0
 14
0.0
 24
0.0
 34
0.0
 15
0.0
 25
0.0
 35
0.0
146
0.0
 13
0.0
 23
0.0
 33
0.0
 16
1.0
 26
0.0
 36
0.0
 17
0.0
 27
1.0
 37
0.0
 76
     0
330
23
  0
LAYOUT
  5
22
102
{ACAD_REACTORS
330
1A
102
}
330
1A
100
AcDbPlotSettings
  1

  2
\\RD-SR-210\PH-PR-040
  4
A4
  6

 40
4.233333110809326
 41
4.233341693878173
 42
4.233322143554687
 43
4.23333740234375
 44
209.9733276367187
 45
296.9259948730469
 46
0.0
 47
1.785286031920321
 48
0.0
 49
0.0
140
1189.0
141
841.0
142
1.0
143
4.173559069072511
 70
 11956
 72
     1
 73
     1
 74
     4
  7
monochrome.ctb
 75
     0
147
0.2396036532489355
 76
     0
 77
     2
 78
   300
148
0.0
149
0.0
100
AcDbLayout
  1
Model
 70
     1
 71
     0
 10
0.0
 20
0.0
 11
12.0
 21
9.0
 12
0.0
 22
0.0
 32
0.0
 14
0.0
 24
0.0
 34
0.0
 15
0.0
 25
0.0
 35
0.0
146
0.0
 13
0.0
 23
0.0
 33
0.0
 16
1.0
 26
0.0
 36
0.0
 17
0.0
 27
1.0
 37
0.0
 76
     0
330
1F
331
3143
1001
ACAD_PSEXT
1000
\\RD-SR-210\PH-PR-040
1000
HP LaserJet 5100 PCL 6
1000
PH, 3.OG, Konstruktion
1000
HP LJ 5100tn, Printserver: Jet Direct-Karte 620N, Sprache PCL6, Management per http: ja 
1070
     0
  0
MATERIAL
  5
314D
102
{ACAD_XDICTIONARY
360
314E
102
}
102
{ACAD_REACTORS
330
BD
102
}
330
BD
100
AcDbMaterial
  1
ByBlock
 72
     0
 43
0.0008202099737533
 43
0.0
 43
0.0
 43
0.0
 43
0.0
 43
0.0008202099737533
 43
0.0
 43
0.0
 43
0.0
 43
0.0
 43
1.0
 43
0.0
 43
0.0
 43
0.0
 43
0.0
 43
1.0
 77
     0
 47
0.0008202099737533
 47
0.0
 47
0.0
 47
0.0
 47
0.0
 47
0.0008202099737533
 47
0.0
 47
0.0
 47
0.0
 47
0.0
 47
1.0
 47
0.0
 47
0.0
 47
0.0
 47
0.0
 47
1.0
171
     0
 49
0.0008202099737533
 49
0.0
 49
0.0
 49
0.0
 49
0.0
 49
0.0008202099737533
 49
0.0
 49
0.0
 49
0.0
 49
0.0
 49
1.0
 49
0.0
 49
0.0
 49
0.0
 49
0.0
 49
1.0
175
     0
142
0.0008202099737533
142
0.0
142
0.0
142
0.0
142
0.0
142
0.0008202099737533
142
0.0
142
0.0
142
0.0
142
0.0
142
1.0
142
0.0
142
0.0
142
0.0
142
0.0
142
1.0
179
     0
144
0.0008202099737533
144
0.0
144
0.0
144
0.0
144
0.0
144
0.0008202099737533
144
0.0
144
0.0
144
0.0
144
0.0
144
1.0
144
0.0
144
0.0
144
0.0
144
0.0
144
1.0
147
0.0008202099737533
147
0.0
147
0.0
147
0.0
147
0.0
147
0.0008202099737533
147
0.0
147
0.0
147
0.0
147
0.0
147
1.0
147
0.0
147
0.0
147
0.0
147
0.0
147
1.0
  0
MATERIAL
  5
3145
102
{ACAD_XDICTIONARY
360
3146
102
}
102
{ACAD_REACTORS
330
BD
102
}
330
BD
100
AcDbMaterial
  1
ByLayer
 72
     0
 43
0.0008202099737533
 43
0.0
 43
0.0
 43
0.0
 43
0.0
 43
0.0008202099737533
 43
0.0
 43
0.0
 43
0.0
 43
0.0
 43
1.0
 43
0.0
 43
0.0
 43
0.0
 43
0.0
 43
1.0
 77
     0
 47
0.0008202099737533
 47
0.0
 47
0.0
 47
0.0
 47
0.0
 47
0.0008202099737533
 47
0.0
 47
0.0
 47
0.0
 47
0.0
 47
1.0
 47
0.0
 47
0.0
 47
0.0
 47
0.0
 47
1.0
171
     0
 49
0.0008202099737533
 49
0.0
 49
0.0
 49
0.0
 49
0.0
 49
0.0008202099737533
 49
0.0
 49
0.0
 49
0.0
 49
0.0
 49
1.0
 49
0.0
 49
0.0
 49
0.0
 49
0.0
 49
1.0
175
     0
142
0.0008202099737533
142
0.0
142
0.0
142
0.0
142
0.0
142
0.0008202099737533
142
0.0
142
0.0
142
0.0
142
0.0
142
1.0
142
0.0
142
0.0
142
0.0
142
0.0
142
1.0
179
     0
144
0.0008202099737533
144
0.0
144
0.0
144
0.0
144
0.0
144
0.0008202099737533
144
0.0
144
0.0
144
0.0
144
0.0
144
1.0
144
0.0
144
0.0
144
0.0
144
0.0
144
1.0
147
0.0008202099737533
147
0.0
147
0.0
147
0.0
147
0.0
147
0.0008202099737533
147
0.0
147
0.0
147
0.0
147
0.0
147
1.0
147
0.0
147
0.0
147
0.0
147
0.0
147
1.0
  0
MATERIAL
  5
3155
102
{ACAD_XDICTIONARY
360
3156
102
}
102
{ACAD_REACTORS
330
BD
102
}
330
BD
100
AcDbMaterial
  1
Global
 72
     0
 43
0.0008202099737533
 43
0.0
 43
0.0
 43
0.0
 43
0.0
 43
0.0008202099737533
 43
0.0
 43
0.0
 43
0.0
 43
0.0
 43
1.0
 43
0.0
 43
0.0
 43
0.0
 43
0.0
 43
1.0
 77
     0
 47
0.0008202099737533
 47
0.0
 47
0.0
 47
0.0
 47
0.0
 47
0.0008202099737533
 47
0.0
 47
0.0
 47
0.0
 47
0.0
 47
1.0
 47
0.0
 47
0.0
 47
0.0
 47
0.0
 47
1.0
171
     0
 49
0.0008202099737533
 49
0.0
 49
0.0
 49
0.0
 49
0.0
 49
0.0008202099737533
 49
0.0
 49
0.0
 49
0.0
 49
0.0
 49
1.0
 49
0.0
 49
0.0
 49
0.0
 49
0.0
 49
1.0
175
     0
142
0.0008202099737533
142
0.0
142
0.0
142
0.0
142
0.0
142
0.0008202099737533
142
0.0
142
0.0
142
0.0
142
0.0
142
1.0
142
0.0
142
0.0
142
0.0
142
0.0
142
1.0
179
     0
144
0.0008202099737533
144
0.0
144
0.0
144
0.0
144
0.0
144
0.0008202099737533
144
0.0
144
0.0
144
0.0
144
0.0
144
1.0
144
0.0
144
0.0
144
0.0
144
0.0
144
1.0
147
0.0008202099737533
147
0.0
147
0.0
147
0.0
147
0.0
147
0.0008202099737533
147
0.0
147
0.0
147
0.0
147
0.0
147
1.0
147
0.0
147
0.0
147
0.0
147
0.0
147
1.0
  0
MLEADERSTYLE
  5
3181
102
{ACAD_REACTORS
330
3180
102
}
330
3180
100
AcDbMLeaderStyle
170
     2
171
     1
172
     0
 90
        2
 40
0.0
 41
0.0
173
     1
 91
-1056964608
340
14
 92
       -2
290
     1
 42
2.0
291
     1
 43
0.36
  3
Standard
 44
4.0
300

342
11
174
     1
178
     6
175
     1
176
     0
 93
-1056964608
 45
4.0
292
     0
297
     0
 46
4.0
 94
-1056964608
 47
1.0
 49
1.0
140
1.0
293
     1
141
0.0
294
     1
177
     0
142
1.0
295
     0
296
     0
143
0.125
1001
ACAD_MLEADERVER
1070
     2
  0
MLINESTYLE
  5
18
102
{ACAD_REACTORS
330
17
102
}
330
17
100
AcDbMlineStyle
  2
STANDARD
 70
     0
  3

 62
   256
 51
90.0
 52
90.0
 71
     2
 49
0.5
 62
   256
  6
BYLAYER
 49
-0.5
 62
   256
  6
BYLAYER
  0
ACDBPLACEHOLDER
  5
F
102
{ACAD_REACTORS
330
E
102
}
330
E
  0
SCALE
  5
316F
102
{ACAD_REACTORS
330
316E
102
}
330
316E
100
AcDbScale
 70
     0
300
1:1
140
1.0
141
1.0
290
     1
  0
SCALE
  5
3170
102
{ACAD_REACTORS
330
316E
102
}
330
316E
100
AcDbScale
 70
     0
300
1:2
140
1.0
141
2.0
290
     0
  0
SCALE
  5
3171
102
{ACAD_REACTORS
330
316E
102
}
330
316E
100
AcDbScale
 70
     0
300
1:4
140
1.0
141
4.0
290
     0
  0
SCALE
  5
3172
102
{ACAD_REACTORS
330
316E
102
}
330
316E
100
AcDbScale
 70
     0
300
1:5
140
1.0
141
5.0
290
     0
  0
SCALE
  5
3173
102
{ACAD_REACTORS
330
316E
102
}
330
316E
100
AcDbScale
 70
     0
300
1:8
140
1.0
141
8.0
290
     0
  0
SCALE
  5
3174
102
{ACAD_REACTORS
330
316E
102
}
330
316E
100
AcDbScale
 70
     0
300
1:10
140
1.0
141
10.0
290
     0
  0
SCALE
  5
3175
102
{ACAD_REACTORS
330
316E
102
}
330
316E
100
AcDbScale
 70
     0
300
1:16
140
1.0
141
16.0
290
     0
  0
SCALE
  5
3176
102
{ACAD_REACTORS
330
316E
102
}
330
316E
100
AcDbScale
 70
     0
300
1:20
140
1.0
141
20.0
290
     0
  0
SCALE
  5
3177
102
{ACAD_REACTORS
330
316E
102
}
330
316E
100
AcDbScale
 70
     0
300
1:30
140
1.0
141
30.0
290
     0
  0
SCALE
  5
3178
102
{ACAD_REACTORS
330
316E
102
}
330
316E
100
AcDbScale
 70
     0
300
1:40
140
1.0
141
40.0
290
     0
  0
SCALE
  5
3179
102
{ACAD_REACTORS
330
316E
102
}
330
316E
100
AcDbScale
 70
     0
300
1:50
140
1.0
141
50.0
290
     0
  0
SCALE
  5
317A
102
{ACAD_REACTORS
330
316E
102
}
330
316E
100
AcDbScale
 70
     0
300
1:100
140
1.0
141
100.0
290
     0
  0
SCALE
  5
317B
102
{ACAD_REACTORS
330
316E
102
}
330
316E
100
AcDbScale
 70
     0
300
2:1
140
2.0
141
1.0
290
     0
  0
SCALE
  5
317C
102
{ACAD_REACTORS
330
316E
102
}
330
316E
100
AcDbScale
 70
     0
300
4:1
140
4.0
141
1.0
290
     0
  0
SCALE
  5
317D
102
{ACAD_REACTORS
330
316E
102
}
330
316E
100
AcDbScale
 70
     0
300
8:1
140
8.0
141
1.0
290
     0
  0
SCALE
  5
317E
102
{ACAD_REACTORS
330
316E
102
}
330
316E
100
AcDbScale
 70
     0
300
10:1
140
10.0
141
1.0
290
     0
  0
SCALE
  5
317F
102
{ACAD_REACTORS
330
316E
102
}
330
316E
100
AcDbScale
 70
     0
300
100:1
140
100.0
141
1.0
290
     0
  0
TABLESTYLE
  5
11B
102
{ACAD_XDICTIONARY
360
3647
102
}
102
{ACAD_REACTORS
330
11A
102
}
330
11A
100
AcDbTableStyle
  3
Standard
 70
     0
 71
     0
 40
1.5
 41
1.5
280
     0
281
     0
  7
STANDARD
140
4.5
170
     2
 62
     0
 63
     7
283
     0
274
    -2
284
     1
 64
     0
275
    -2
285
     1
 65
     0
276
    -2
286
     1
 66
     0
277
    -2
287
     1
 67
     0
278
    -2
288
     1
 68
     0
279
    -2
289
     1
 69
     0
  7
STANDARD
140
6.0
170
     5
 62
     0
 63
     7
283
     0
274
    -2
284
     1
 64
     0
275
    -2
285
     1
 65
     0
276
    -2
286
     1
 66
     0
277
    -2
287
     1
 67
     0
278
    -2
288
     1
 68
     0
279
    -2
289
     1
 69
     0
  7
STANDARD
140
4.5
170
     5
 62
     0
 63
     7
283
     0
274
    -2
284
     1
 64
     0
275
    -2
285
     1
 65
     0
276
    -2
286
     1
 66
     0
277
    -2
287
     1
 67
     0
278
    -2
288
     1
 68
     0
279
    -2
289
     1
 69
     0
  0
VISUALSTYLE
  5
3163
102
{ACAD_REACTORS
330
315D
102
}
330
315D
100
AcDbVisualStyle
  2
2dWireframe
 70
     4
 71
     0
 72
     2
 73
     0
 90
        0
 40
-0.6
 41
-30.0
 62
     5
 63
     7
421
 16777215
 74
     1
 91
        4
 64
     7
 65
   257
 75
     1
175
     1
 42
1.0
 92
        0
 66
   257
 43
1.0
 76
     1
 77
     6
 78
     2
 67
     7
 79
     5
170
     0
171
     0
290
     0
174
     0
 93
        1
 44
0.0
173
     0
291
     0
 45
0.0
1001
ACAD
1000
AcDbSavedByObjectVersion
1070
     0
  0
VISUALSTYLE
  5
3165
102
{ACAD_REACTORS
330
315D
102
}
330
315D
100
AcDbVisualStyle
  2
3D Hidden
 70
     6
 71
     1
 72
     2
 73
     2
 90
        0
 40
-0.6
 41
-30.0
 62
     5
 63
     7
421
 16777215
 74
     2
 91
        2
 64
     7
 65
   257
 75
     2
175
     1
 42
40.0
 92
        0
 66
   257
 43
1.0
 76
     1
 77
     6
 78
     2
 67
     7
 79
     3
170
     0
171
     0
290
     0
174
     0
 93
        1
 44
0.0
173
     0
291
     0
 45
0.0
1001
ACAD
1000
AcDbSavedByObjectVersion
1070
     0
  0
VISUALSTYLE
  5
3164
102
{ACAD_REACTORS
330
315D
102
}
330
315D
100
AcDbVisualStyle
  2
3dWireframe
 70
     5
 71
     0
 72
     2
 73
     0
 90
        0
 40
-0.6
 41
-30.0
 62
     5
 63
     7
421
 16777215
 74
     1
 91
        4
 64
     7
 65
   257
 75
     1
175
     1
 42
1.0
 92
        0
 66
   257
 43
1.0
 76
     1
 77
     6
 78
     2
 67
     7
 79
     5
170
     0
171
     0
290
     0
174
     0
 93
        1
 44
0.0
173
     0
291
     0
 45
0.0
1001
ACAD
1000
AcDbSavedByObjectVersion
1070
     0
  0
VISUALSTYLE
  5
3162
102
{ACAD_REACTORS
330
315D
102
}
330
315D
100
AcDbVisualStyle
  2
Basic
 70
     7
 71
     1
 72
     0
 73
     1
 90
        0
 40
-0.6
 41
-30.0
 62
     5
 63
     7
421
 16777215
 74
     0
 91
        4
 64
     7
 65
   257
 75
     1
175
     1
 42
1.0
 92
        8
 66
     7
 43
1.0
 76
     1
 77
     6
 78
     2
 67
     7
 79
     5
170
     0
171
     0
290
     0
174
     0
 93
        1
 44
0.0
173
     0
291
     1
 45
0.0
1001
ACAD
1000
AcDbSavedByObjectVersion
1070
     0
  0
VISUALSTYLE
  5
3169
102
{ACAD_REACTORS
330
315D
102
}
330
315D
100
AcDbVisualStyle
  2
Brighten
 70
    12
 71
     2
 72
     2
 73
     0
 90
        0
 40
-0.6
 41
-30.0
 62
     5
 63
     7
421
 16777215
 74
     1
 91
        4
 64
     7
 65
   257
 75
     1
175
     1
 42
1.0
 92
        8
 66
     7
 43
1.0
 76
     1
 77
     6
 78
     2
 67
     7
 79
     5
170
     0
171
     0
290
     0
174
     0
 93
        1
 44
50.0
173
     0
291
     1
 45
0.0
1001
ACAD
1000
AcDbSavedByObjectVersion
1070
     0
  0
VISUALSTYLE
  5
316D
102
{ACAD_REACTORS
330
315D
102
}
330
315D
100
AcDbVisualStyle
  2
ColorChange
 70
    16
 71
     2
 72
     2
 73
     3
 90
        0
 40
-0.6
 41
-30.0
 62
     5
 63
     8
421
  8421504
 74
     1
 91
        4
 64
     7
 65
   257
 75
     1
175
     1
 42
1.0
 92
        8
 66
     8
424
  8421504
 43
1.0
 76
     1
 77
     6
 78
     2
 67
     7
 79
     5
170
     0
171
     0
290
     0
174
     0
 93
        1
 44
0.0
173
     0
291
     1
 45
0.0
1001
ACAD
1000
AcDbSavedByObjectVersion
1070
     0
  0
VISUALSTYLE
  5
3166
102
{ACAD_REACTORS
330
315D
102
}
330
315D
100
AcDbVisualStyle
  2
Conceptual
 70
     9
 71
     3
 72
     2
 73
     0
 90
        0
 40
-0.6
 41
-30.0
 62
     5
 63
     7
421
 16777215
 74
     2
 91
        2
 64
     7
 65
   257
 75
     1
175
     1
 42
40.0
 92
        8
 66
     7
 43
1.0
 76
     1
 77
     6
 78
     2
 67
     7
 79
     3
170
     0
171
     0
290
     0
174
     0
 93
        1
 44
0.0
173
     0
291
     0
 45
0.0
1001
ACAD
1000
AcDbSavedByObjectVersion
1070
     0
  0
VISUALSTYLE
  5
3168
102
{ACAD_REACTORS
330
315D
102
}
330
315D
100
AcDbVisualStyle
  2
Dim
 70
    11
 71
     2
 72
     2
 73
     0
 90
        0
 40
-0.6
 41
-30.0
 62
     5
 63
     7
421
 16777215
 74
     1
 91
        4
 64
     7
 65
   257
 75
     1
175
     1
 42
1.0
 92
        8
 66
     7
 43
1.0
 76
     1
 77
     6
 78
     2
 67
     7
 79
     5
170
     0
171
     0
290
     0
174
     0
 93
        1
 44
-50.0
173
     0
291
     1
 45
0.0
1001
ACAD
1000
AcDbSavedByObjectVersion
1070
     0
  0
VISUALSTYLE
  5
316C
102
{ACAD_REACTORS
330
315D
102
}
330
315D
100
AcDbVisualStyle
  2
Facepattern
 70
    15
 71
     2
 72
     2
 73
     0
 90
        0
 40
-0.6
 41
-30.0
 62
     5
 63
     7
421
 16777215
 74
     1
 91
        4
 64
     7
 65
   257
 75
     1
175
     1
 42
1.0
 92
        8
 66
     7
 43
1.0
 76
     1
 77
     6
 78
     2
 67
     7
 79
     5
170
     0
171
     0
290
     0
174
     0
 93
        1
 44
0.0
173
     0
291
     1
 45
0.0
1001
ACAD
1000
AcDbSavedByObjectVersion
1070
     0
  0
VISUALSTYLE
  5
315E
102
{ACAD_REACTORS
330
315D
102
}
330
315D
100
AcDbVisualStyle
  2
Flat
 70
     0
 71
     2
 72
     1
 73
     1
 90
        2
 40
-0.6
 41
30.0
 62
     5
 63
     7
421
 16777215
 74
     0
 91
        4
 64
     7
 65
   257
 75
     1
175
     1
 42
1.0
 92
        8
 66
     7
 43
1.0
 76
     1
 77
     6
 78
     2
 67
     7
 79
     5
170
     0
171
     0
290
     0
174
     0
 93
       13
 44
0.0
173
     0
291
     1
 45
0.0
1001
ACAD
1000
AcDbSavedByObjectVersion
1070
     0
  0
VISUALSTYLE
  5
315F
102
{ACAD_REACTORS
330
315D
102
}
330
315D
100
AcDbVisualStyle
  2
FlatWithEdges
 70
     1
 71
     2
 72
     1
 73
     1
 90
        2
 40
-0.6
 41
30.0
 62
     5
 63
     7
421
 16777215
 74
     1
 91
        4
 64
     7
 65
   257
 75
     1
175
     1
 42
1.0
 92
        0
 66
   257
 43
1.0
 76
     1
 77
     6
 78
     2
 67
     7
 79
     5
170
     0
171
     0
290
     0
174
     0
 93
       13
 44
0.0
173
     0
291
     1
 45
0.0
1001
ACAD
1000
AcDbSavedByObjectVersion
1070
     0
  0
VISUALSTYLE
  5
3160
102
{ACAD_REACTORS
330
315D
102
}
330
315D
100
AcDbVisualStyle
  2
Gouraud
 70
     2
 71
     2
 72
     2
 73
     1
 90
        2
 40
-0.6
 41
30.0
 62
     5
 63
     7
421
 16777215
 74
     0
 91
        4
 64
     7
 65
   257
 75
     1
175
     1
 42
1.0
 92
        0
 66
     7
 43
1.0
 76
     1
 77
     6
 78
     2
 67
     7
 79
     5
170
     0
171
     0
290
     0
174
     0
 93
       13
 44
0.0
173
     0
291
     1
 45
0.0
1001
ACAD
1000
AcDbSavedByObjectVersion
1070
     0
  0
VISUALSTYLE
  5
3161
102
{ACAD_REACTORS
330
315D
102
}
330
315D
100
AcDbVisualStyle
  2
GouraudWithEdges
 70
     3
 71
     2
 72
     2
 73
     1
 90
        2
 40
-0.6
 41
30.0
 62
     5
 63
     7
421
 16777215
 74
     1
 91
        4
 64
     7
 65
   257
 75
     1
175
     1
 42
1.0
 92
        0
 66
   257
 43
1.0
 76
     1
 77
     6
 78
     2
 67
     7
 79
     5
170
     0
171
     0
290
     0
174
     0
 93
       13
 44
0.0
173
     0
291
     1
 45
0.0
1001
ACAD
1000
AcDbSavedByObjectVersion
1070
     0
  0
VISUALSTYLE
  5
316B
102
{ACAD_REACTORS
330
315D
102
}
330
315D
100
AcDbVisualStyle
  2
Linepattern
 70
    14
 71
     2
 72
     2
 73
     0
 90
        0
 40
-0.6
 41
-30.0
 62
     5
 63
     7
421
 16777215
 74
     1
 91
        4
 64
     7
 65
   257
 75
     7
175
     7
 42
1.0
 92
        8
 66
     7
 43
1.0
 76
     1
 77
     6
 78
     2
 67
     7
 79
     5
170
     0
171
     0
290
     0
174
     0
 93
        1
 44
0.0
173
     0
291
     1
 45
0.0
1001
ACAD
1000
AcDbSavedByObjectVersion
1070
     0
  0
VISUALSTYLE
  5
3167
102
{ACAD_REACTORS
330
315D
102
}
330
315D
100
AcDbVisualStyle
  2
Realistic
 70
     8
 71
     2
 72
     2
 73
     0
 90
        0
 40
-0.6
 41
-30.0
 62
     5
 63
     7
421
 16777215
 74
     1
 91
        0
 64
     7
 65
   257
 75
     1
175
     1
 42
1.0
 92
        8
 66
     8
424
  7895160
 43
1.0
 76
     1
 77
     6
 78
     2
 67
     7
 79
     5
170
     0
171
     0
290
     0
174
     0
 93
       13
 44
0.0
173
     0
291
     0
 45
0.0
1001
ACAD
1000
AcDbSavedByObjectVersion
1070
     0
  0
VISUALSTYLE
  5
316A
102
{ACAD_REACTORS
330
315D
102
}
330
315D
100
AcDbVisualStyle
  2
Thicken
 70
    13
 71
     2
 72
     2
 73
     0
 90
        0
 40
-0.6
 41
-30.0
 62
     5
 63
     7
421
 16777215
 74
     1
 91
        4
 64
     7
 65
   257
 75
     1
175
     1
 42
1.0
 92
       12
 66
     7
 43
1.0
 76
     1
 77
     6
 78
     2
 67
     7
 79
     5
170
     0
171
     0
290
     0
174
     0
 93
        1
 44
0.0
173
     0
291
     1
 45
0.0
1001
ACAD
1000
AcDbSavedByObjectVersion
1070
     0
  0
DICTIONARYVAR
  5
364C
102
{ACAD_REACTORS
330
94
102
}
330
94
100
DictionaryVariables
280
     0
  1
1:1
  0
DICTIONARYVAR
  5
364A
102
{ACAD_REACTORS
330
94
102
}
330
94
100
DictionaryVariables
280
     0
  1
STANDARD
  0
DICTIONARYVAR
  5
138
102
{ACAD_REACTORS
330
94
102
}
330
94
100
DictionaryVariables
280
     0
  1
STANDARD
  0
DICTIONARYVAR
  5
96
102
{ACAD_REACTORS
330
94
102
}
330
94
100
DictionaryVariables
280
     0
  1
2
  0
DICTIONARYVAR
  5
95
102
{ACAD_REACTORS
330
94
102
}
330
94
100
DictionaryVariables
280
     0
  1
1
  0
DICTIONARYVAR
  5
364E
102
{ACAD_REACTORS
330
94
102
}
330
94
100
DictionaryVariables
280
     0
  1
1
  0
DICTIONARYVAR
  5
364F
102
{ACAD_REACTORS
330
94
102
}
330
94
100
DictionaryVariables
280
     0
  1
15
  0
DICTIONARYVAR
  5
364D
102
{ACAD_REACTORS
330
94
102
}
330
94
100
DictionaryVariables
280
     0
  1
0
  0
DICTIONARYVAR
  5
364B
102
{ACAD_REACTORS
330
94
102
}
330
94
100
DictionaryVariables
280
     0
  1
0
  0
DICTIONARY
  5
272
102
{ACAD_REACTORS
330
5B
102
}
330
5B
100
AcDbDictionary
281
     1
  0
DICTIONARY
  5
61
102
{ACAD_REACTORS
330
5B
102
}
330
5B
100
AcDbDictionary
281
     1
  0
XRECORD
  5
123
102
{ACAD_REACTORS
330
5B
102
}
330
5B
100
AcDbXrecord
280
     1
 90
-1023410169
  0
XRECORD
  5
313F
102
{ACAD_REACTORS
330
313E
102
}
330
313E
100
AcDbXrecord
280
     1
330
0
330
1B5F
330
1B84
330
0
  0
DICTIONARY
  5
314E
330
314D
100
AcDbDictionary
280
     1
281
     1
  3
ACAD_XREC_ROUNDTRIP
360
3879
  3
BUMPTILE
360
3150
  3
DIFFUSETILE
360
314F
  3
OPACITYTILE
360
3153
  3
REFLECTIONTILE
360
3152
  3
REFRACTIONTILE
360
3154
  3
SPECULARTILE
360
3151
  0
DICTIONARY
  5
3146
330
3145
100
AcDbDictionary
280
     1
281
     1
  3
ACAD_XREC_ROUNDTRIP
360
3878
  3
BUMPTILE
360
3148
  3
DIFFUSETILE
360
3147
  3
OPACITYTILE
360
314B
  3
REFLECTIONTILE
360
314A
  3
REFRACTIONTILE
360
314C
  3
SPECULARTILE
360
3149
  0
DICTIONARY
  5
3156
330
3155
100
AcDbDictionary
280
     1
281
     1
  3
ACAD_XREC_ROUNDTRIP
360
387A
  3
BUMPTILE
360
3158
  3
DIFFUSETILE
360
3157
  3
OPACITYTILE
360
315B
  3
REFLECTIONTILE
360
315A
  3
REFRACTIONTILE
360
315C
  3
SPECULARTILE
360
3159
  0
DICTIONARY
  5
3647
330
11B
100
AcDbDictionary
280
     1
281
     1
  3
ACAD_ROUNDTRIP_2008_TABLESTYLE_CELLSTYLEMAP
360
3874
  3
ACAD_XREC_ROUNDTRIP
360
3877
  0
XRECORD
  5
3879
102
{ACAD_REACTORS
330
314E
102
}
330
314E
100
AcDbXrecord
280
     1
102
MATERIAL
148
0.0
149
0.0
149
0.0
 93
        0
 94
      127
282
     0
 72
     0
 77
     0
171
     0
175
     0
179
     0
273
     0
  0
XRECORD
  5
3150
102
{ACAD_REACTORS
330
314E
102
}
330
314E
100
AcDbXrecord
280
     1
270
     1
271
     1
  0
XRECORD
  5
314F
102
{ACAD_REACTORS
330
314E
102
}
330
314E
100
AcDbXrecord
280
     1
270
     1
271
     1
  0
XRECORD
  5
3153
102
{ACAD_REACTORS
330
314E
102
}
330
314E
100
AcDbXrecord
280
     1
270
     1
271
     1
  0
XRECORD
  5
3152
102
{ACAD_REACTORS
330
314E
102
}
330
314E
100
AcDbXrecord
280
     1
270
     1
271
     1
  0
XRECORD
  5
3154
102
{ACAD_REACTORS
330
314E
102
}
330
314E
100
AcDbXrecord
280
     1
270
     1
271
     1
  0
XRECORD
  5
3151
102
{ACAD_REACTORS
330
314E
102
}
330
314E
100
AcDbXrecord
280
     1
270
     1
271
     1
  0
XRECORD
  5
3878
102
{ACAD_REACTORS
330
3146
102
}
330
3146
100
AcDbXrecord
280
     1
102
MATERIAL
148
0.0
149
0.0
149
0.0
 93
        0
 94
      127
282
     0
 72
     0
 77
     0
171
     0
175
     0
179
     0
273
     0
  0
XRECORD
  5
3148
102
{ACAD_REACTORS
330
3146
102
}
330
3146
100
AcDbXrecord
280
     1
270
     1
271
     1
  0
XRECORD
  5
3147
102
{ACAD_REACTORS
330
3146
102
}
330
3146
100
AcDbXrecord
280
     1
270
     1
271
     1
  0
XRECORD
  5
314B
102
{ACAD_REACTORS
330
3146
102
}
330
3146
100
AcDbXrecord
280
     1
270
     1
271
     1
  0
XRECORD
  5
314A
102
{ACAD_REACTORS
330
3146
102
}
330
3146
100
AcDbXrecord
280
     1
270
     1
271
     1
  0
XRECORD
  5
314C
102
{ACAD_REACTORS
330
3146
102
}
330
3146
100
AcDbXrecord
280
     1
270
     1
271
     1
  0
XRECORD
  5
3149
102
{ACAD_REACTORS
330
3146
102
}
330
3146
100
AcDbXrecord
280
     1
270
     1
271
     1
  0
XRECORD
  5
387A
102
{ACAD_REACTORS
330
3156
102
}
330
3156
100
AcDbXrecord
280
     1
102
MATERIAL
148
0.0
149
0.0
149
0.0
 93
        0
 94
      127
282
     0
 72
     0
 77
     0
171
     0
175
     0
179
     0
273
     0
  0
XRECORD
  5
3158
102
{ACAD_REACTORS
330
3156
102
}
330
3156
100
AcDbXrecord
280
     1
270
     1
271
     1
  0
XRECORD
  5
3157
102
{ACAD_REACTORS
330
3156
102
}
330
3156
100
AcDbXrecord
280
     1
270
     1
271
     1
  0
XRECORD
  5
315B
102
{ACAD_REACTORS
330
3156
102
}
330
3156
100
AcDbXrecord
280
     1
270
     1
271
     1
  0
XRECORD
  5
315A
102
{ACAD_REACTORS
330
3156
102
}
330
3156
100
AcDbXrecord
280
     1
270
     1
271
     1
  0
XRECORD
  5
315C
102
{ACAD_REACTORS
330
3156
102
}
330
3156
100
AcDbXrecord
280
     1
270
     1
271
     1
  0
XRECORD
  5
3159
102
{ACAD_REACTORS
330
3156
102
}
330
3156
100
AcDbXrecord
280
     1
270
     1
271
     1
  0
CELLSTYLEMAP
  5
3874
102
{ACAD_REACTORS
330
3647
102
}
330
3647
100
AcDbCellStyleMap
 90
        3
300
CELLSTYLE
  1
TABLEFORMAT_BEGIN
 90
        5
170
     1
 91
        0
 92
    32768
 62
   257
 93
        1
300
CONTENTFORMAT
  1
CONTENTFORMAT_BEGIN
 90
        0
 91
        0
 92
        4
 93
        0
300

 40
0.0
140
1.0
 94
        5
 62
     0
340
11
144
6.0
309
CONTENTFORMAT_END
171
     1
301
MARGIN
  1
CELLMARGIN_BEGIN
 40
1.5
 40
1.5
 40
1.5
 40
1.5
 40
0.18
 40
0.18
309
CELLMARGIN_END
 94
        6
 95
        1
302
GRIDFORMAT
  1
GRIDFORMAT_BEGIN
 90
        0
 91
        1
 62
     0
 92
       -2
340
0
 93
        0
 40
0.045
309
GRIDFORMAT_END
 95
        2
302
GRIDFORMAT
  1
GRIDFORMAT_BEGIN
 90
        0
 91
        1
 62
     0
 92
       -2
340
0
 93
        0
 40
0.045
309
GRIDFORMAT_END
 95
        4
302
GRIDFORMAT
  1
GRIDFORMAT_BEGIN
 90
        0
 91
        1
 62
     0
 92
       -2
340
0
 93
        0
 40
0.045
309
GRIDFORMAT_END
 95
        8
302
GRIDFORMAT
  1
GRIDFORMAT_BEGIN
 90
        0
 91
        1
 62
     0
 92
       -2
340
0
 93
        0
 40
0.045
309
GRIDFORMAT_END
 95
       16
302
GRIDFORMAT
  1
GRIDFORMAT_BEGIN
 90
        0
 91
        1
 62
     0
 92
       -2
340
0
 93
        0
 40
0.045
309
GRIDFORMAT_END
 95
       32
302
GRIDFORMAT
  1
GRIDFORMAT_BEGIN
 90
        0
 91
        1
 62
     0
 92
       -2
340
0
 93
        0
 40
0.045
309
GRIDFORMAT_END
309
TABLEFORMAT_END
  1
CELLSTYLE_BEGIN
 90
        1
 91
        1
300
_TITLE
309
CELLSTYLE_END
300
CELLSTYLE
  1
TABLEFORMAT_BEGIN
 90
        5
170
     1
 91
        0
 92
        0
 62
   257
 93
        1
300
CONTENTFORMAT
  1
CONTENTFORMAT_BEGIN
 90
        0
 91
        0
 92
        4
 93
        0
300

 40
0.0
140
1.0
 94
        5
 62
     0
340
11
144
4.5
309
CONTENTFORMAT_END
171
     1
301
MARGIN
  1
CELLMARGIN_BEGIN
 40
1.5
 40
1.5
 40
1.5
 40
1.5
 40
0.18
 40
0.18
309
CELLMARGIN_END
 94
        6
 95
        1
302
GRIDFORMAT
  1
GRIDFORMAT_BEGIN
 90
        0
 91
        1
 62
     0
 92
       -2
340
0
 93
        0
 40
0.045
309
GRIDFORMAT_END
 95
        2
302
GRIDFORMAT
  1
GRIDFORMAT_BEGIN
 90
        0
 91
        1
 62
     0
 92
       -2
340
0
 93
        0
 40
0.045
309
GRIDFORMAT_END
 95
        4
302
GRIDFORMAT
  1
GRIDFORMAT_BEGIN
 90
        0
 91
        1
 62
     0
 92
       -2
340
0
 93
        0
 40
0.045
309
GRIDFORMAT_END
 95
        8
302
GRIDFORMAT
  1
GRIDFORMAT_BEGIN
 90
        0
 91
        1
 62
     0
 92
       -2
340
0
 93
        0
 40
0.045
309
GRIDFORMAT_END
 95
       16
302
GRIDFORMAT
  1
GRIDFORMAT_BEGIN
 90
        0
 91
        1
 62
     0
 92
       -2
340
0
 93
        0
 40
0.045
309
GRIDFORMAT_END
 95
       32
302
GRIDFORMAT
  1
GRIDFORMAT_BEGIN
 90
        0
 91
        1
 62
     0
 92
       -2
340
0
 93
        0
 40
0.045
309
GRIDFORMAT_END
309
TABLEFORMAT_END
  1
CELLSTYLE_BEGIN
 90
        2
 91
        1
300
_HEADER
309
CELLSTYLE_END
300
CELLSTYLE
  1
TABLEFORMAT_BEGIN
 90
        5
170
     1
 91
        0
 92
        0
 62
   257
 93
        1
300
CONTENTFORMAT
  1
CONTENTFORMAT_BEGIN
 90
        0
 91
        0
 92
        4
 93
        0
300

 40
0.0
140
1.0
 94
        2
 62
     0
340
11
144
4.5
309
CONTENTFORMAT_END
171
     1
301
MARGIN
  1
CELLMARGIN_BEGIN
 40
1.5
 40
1.5
 40
1.5
 40
1.5
 40
0.18
 40
0.18
309
CELLMARGIN_END
 94
        6
 95
        1
302
GRIDFORMAT
  1
GRIDFORMAT_BEGIN
 90
        0
 91
        1
 62
     0
 92
       -2
340
0
 93
        0
 40
0.045
309
GRIDFORMAT_END
 95
        2
302
GRIDFORMAT
  1
GRIDFORMAT_BEGIN
 90
        0
 91
        1
 62
     0
 92
       -2
340
0
 93
        0
 40
0.045
309
GRIDFORMAT_END
 95
        4
302
GRIDFORMAT
  1
GRIDFORMAT_BEGIN
 90
        0
 91
        1
 62
     0
 92
       -2
340
0
 93
        0
 40
0.045
309
GRIDFORMAT_END
 95
        8
302
GRIDFORMAT
  1
GRIDFORMAT_BEGIN
 90
        0
 91
        1
 62
     0
 92
       -2
340
0
 93
        0
 40
0.045
309
GRIDFORMAT_END
 95
       16
302
GRIDFORMAT
  1
GRIDFORMAT_BEGIN
 90
        0
 91
        1
 62
     0
 92
       -2
340
0
 93
        0
 40
0.045
309
GRIDFORMAT_END
 95
       32
302
GRIDFORMAT
  1
GRIDFORMAT_BEGIN
 90
        0
 91
        1
 62
     0
 92
       -2
340
0
 93
        0
 40
0.045
309
GRIDFORMAT_END
309
TABLEFORMAT_END
  1
CELLSTYLE_BEGIN
 90
        3
 91
        2
300
_DATA
309
CELLSTYLE_END
  0
XRECORD
  5
3877
102
{ACAD_REACTORS
330
3647
102
}
330
3647
100
AcDbXrecord
280
     1
102
ACAD_ROUNDTRIP_PRE2007_TABLESTYLE
 90
        4
 91
        0
  1

 92
        4
 93
        0
  2

 94
        4
 95
        0
  3

  0
ENDSEC
  0
EOF
