  0
SECTION
  2
HEADER
  9
$ACADVER
  1
AC1015
  9
$ACADMAINTVER
 70
    20
  9
$DWGCODEPAGE
  3
ANSI_1252
  9
$INSBASE
 10
0.0
 20
0.0
 30
0.0
  9
$EXTMIN
 10
0.0000014177719549
 20
0.0000003538323199
 30
0.0
  9
$EXTMAX
 10
1188.000001417772
 20
840.0000003538323
 30
0.0
  9
$LIMMIN
 10
-0.0000000000001137
 20
0.0
  9
$LIMMAX
 10
1188.0
 20
840.0
  9
$ORTHOMODE
 70
     0
  9
$REGENMODE
 70
     1
  9
$FILLMODE
 70
     1
  9
$QTEXTMODE
 70
     0
  9
$MIRRTEXT
 70
     1
  9
$LTSCALE
 40
2.0
  9
$ATTMODE
 70
     1
  9
$TEXTSIZE
 40
2.5
  9
$TRACEWID
 40
1.0
  9
$TEXTSTYLE
  7
STANDARD
  9
$CLAYER
  8
0
  9
$CELTYPE
  6
ByLayer
  9
$CECOLOR
 62
   256
  9
$CELTSCALE
 40
1.0
  9
$DISPSILH
 70
     0
  9
$DIMSCALE
 40
1.0
  9
$DIMASZ
 40
2.5
  9
$DIMEXO
 40
1.0
  9
$DIMDLI
 40
10.0
  9
$DIMRND
 40
0.0
  9
$DIMDLE
 40
0.0
  9
$DIMEXE
 40
1.0
  9
$DIMTP
 40
0.0
  9
$DIMTM
 40
2.0
  9
$DIMTXT
 40
3.5
  9
$DIMCEN
 40
0.0
  9
$DIMTSZ
 40
0.0
  9
$DIMTOL
 70
     0
  9
$DIMLIM
 70
     0
  9
$DIMTIH
 70
     0
  9
$DIMTOH
 70
     0
  9
$DIMSE1
 70
     0
  9
$DIMSE2
 70
     0
  9
$DIMTAD
 70
     1
  9
$DIMZIN
 70
     8
  9
$DIMBLK
  1

  9
$DIMASO
 70
     1
  9
$DIMSHO
 70
     1
  9
$DIMPOST
  1

  9
$DIMAPOST
  1
"
  9
$DIMALT
 70
     0
  9
$DIMALTD
 70
     2
  9
$DIMALTF
 40
0.0393701
  9
$DIMLFAC
 40
1.0
  9
$DIMTOFL
 70
     1
  9
$DIMTVP
 40
0.0
  9
$DIMTIX
 70
     0
  9
$DIMSOXD
 70
     0
  9
$DIMSAH
 70
     0
  9
$DIMBLK1
  1

  9
$DIMBLK2
  1

  9
$DIMSTYLE
  2
AM_DIN
  9
$DIMCLRD
 70
   256
  9
$DIMCLRE
 70
   256
  9
$DIMCLRT
 70
     2
  9
$DIMTFAC
 40
0.71
  9
$DIMGAP
 40
1.5
  9
$DIMJUST
 70
     0
  9
$DIMSD1
 70
     0
  9
$DIMSD2
 70
     0
  9
$DIMTOLJ
 70
     0
  9
$DIMTZIN
 70
     8
  9
$DIMALTZ
 70
     0
  9
$DIMALTTZ
 70
     0
  9
$DIMUPT
 70
     0
  9
$DIMDEC
 70
     1
  9
$DIMTDEC
 70
     3
  9
$DIMALTU
 70
     2
  9
$DIMALTTD
 70
     4
  9
$DIMTXSTY
  7
STANDARD
  9
$DIMAUNIT
 70
     0
  9
$DIMADEC
 70
     1
  9
$DIMALTRND
 40
0.0
  9
$DIMAZIN
 70
     2
  9
$DIMDSEP
 70
    46
  9
$DIMATFIT
 70
     3
  9
$DIMFRAC
 70
     0
  9
$DIMLDRBLK
  1

  9
$DIMLUNIT
 70
     2
  9
$DIMLWD
 70
    -1
  9
$DIMLWE
 70
    -1
  9
$DIMTMOVE
 70
     0
  9
$LUNITS
 70
     2
  9
$LUPREC
 70
     2
  9
$SKETCHINC
 40
1.0
  9
$FILLETRAD
 40
0.0
  9
$AUNITS
 70
     0
  9
$AUPREC
 70
     0
  9
$MENU
  1
.
  9
$ELEVATION
 40
0.0
  9
$PELEVATION
 40
0.0
  9
$THICKNESS
 40
0.0
  9
$LIMCHECK
 70
     0
  9
$CHAMFERA
 40
5.0
  9
$CHAMFERB
 40
5.0
  9
$CHAMFERC
 40
20.0
  9
$CHAMFERD
 40
0.0
  9
$SKPOLY
 70
     0
  9
$TDCREATE
 40
2452702.557501690
  9
$TDUCREATE
 40
2452702.474168357
  9
$TDUPDATE
 40
2455810.581374734
  9
$TDUUPDATE
 40
2455810.498041401
  9
$TDINDWG
 40
0.2139435880
  9
$TDUSRTIMER
 40
0.2139435880
  9
$USRTIMER
 70
     1
  9
$ANGBASE
 50
0.0
  9
$ANGDIR
 70
     0
  9
$PDMODE
 70
     0
  9
$PDSIZE
 40
0.0
  9
$PLINEWID
 40
0.0
  9
$SPLFRAME
 70
     0
  9
$SPLINETYPE
 70
     6
  9
$SPLINESEGS
 70
     8
  9
$HANDSEED
  5
2B4E
  9
$SURFTAB1
 70
     6
  9
$SURFTAB2
 70
     6
  9
$SURFTYPE
 70
     6
  9
$SURFU
 70
     6
  9
$SURFV
 70
     6
  9
$UCSBASE
  2

  9
$UCSNAME
  2

  9
$UCSORG
 10
0.0
 20
0.0
 30
0.0
  9
$UCSXDIR
 10
1.0
 20
0.0
 30
0.0
  9
$UCSYDIR
 10
0.0
 20
1.0
 30
0.0
  9
$UCSORTHOREF
  2

  9
$UCSORTHOVIEW
 70
     0
  9
$UCSORGTOP
 10
0.0
 20
0.0
 30
0.0
  9
$UCSORGBOTTOM
 10
0.0
 20
0.0
 30
0.0
  9
$UCSORGLEFT
 10
0.0
 20
0.0
 30
0.0
  9
$UCSORGRIGHT
 10
0.0
 20
0.0
 30
0.0
  9
$UCSORGFRONT
 10
0.0
 20
0.0
 30
0.0
  9
$UCSORGBACK
 10
0.0
 20
0.0
 30
0.0
  9
$PUCSBASE
  2

  9
$PUCSNAME
  2

  9
$PUCSORG
 10
0.0
 20
0.0
 30
0.0
  9
$PUCSXDIR
 10
1.0
 20
0.0
 30
0.0
  9
$PUCSYDIR
 10
0.0
 20
1.0
 30
0.0
  9
$PUCSORTHOREF
  2

  9
$PUCSORTHOVIEW
 70
     0
  9
$PUCSORGTOP
 10
0.0
 20
0.0
 30
0.0
  9
$PUCSORGBOTTOM
 10
0.0
 20
0.0
 30
0.0
  9
$PUCSORGLEFT
 10
0.0
 20
0.0
 30
0.0
  9
$PUCSORGRIGHT
 10
0.0
 20
0.0
 30
0.0
  9
$PUCSORGFRONT
 10
0.0
 20
0.0
 30
0.0
  9
$PUCSORGBACK
 10
0.0
 20
0.0
 30
0.0
  9
$USERI1
 70
     0
  9
$USERI2
 70
     0
  9
$USERI3
 70
     0
  9
$USERI4
 70
     0
  9
$USERI5
 70
     0
  9
$USERR1
 40
0.0
  9
$USERR2
 40
0.0
  9
$USERR3
 40
0.0
  9
$USERR4
 40
0.0
  9
$USERR5
 40
0.0
  9
$WORLDVIEW
 70
     1
  9
$SHADEDGE
 70
     3
  9
$SHADEDIF
 70
    70
  9
$TILEMODE
 70
     1
  9
$MAXACTVP
 70
    64
  9
$PINSBASE
 10
0.0
 20
0.0
 30
0.0
  9
$PLIMCHECK
 70
     0
  9
$PEXTMIN
 10
1.000000000000000E+20
 20
1.000000000000000E+20
 30
1.000000000000000E+20
  9
$PEXTMAX
 10
-1.000000000000000E+20
 20
-1.000000000000000E+20
 30
-1.000000000000000E+20
  9
$PLIMMIN
 10
0.0
 20
0.0
  9
$PLIMMAX
 10
420.0
 20
297.0
  9
$UNITMODE
 70
     0
  9
$VISRETAIN
 70
     1
  9
$PLINEGEN
 70
     0
  9
$PSLTSCALE
 70
     1
  9
$TREEDEPTH
 70
  3020
  9
$CMLSTYLE
  2
Standard
  9
$CMLJUST
 70
     0
  9
$CMLSCALE
 40
20.0
  9
$PROXYGRAPHICS
 70
     1
  9
$MEASUREMENT
 70
     1
  9
$CELWEIGHT
370
    -1
  9
$ENDCAPS
280
     0
  9
$JOINSTYLE
280
     0
  9
$LWDISPLAY
290
     0
  9
$INSUNITS
 70
     4
  9
$HYPERLINKBASE
  1

  9
$STYLESHEET
  1
monochrome-duenn.ctb
  9
$XEDIT
290
     1
  9
$CEPSNTYPE
380
     0
  9
$PSTYLEMODE
290
     1
  9
$FINGERPRINTGUID
  2
{D5091DE6-A8E7-4749-B1FA-F4240FAEB0F0}
  9
$VERSIONGUID
  2
{4D852B8C-3468-4C22-83A9-8084471C6928}
  9
$EXTNAMES
290
     1
  9
$PSVPSCALE
 40
0.0
  9
$OLESTARTUP
290
     0
  0
ENDSEC
  0
SECTION
  2
CLASSES
  0
CLASS
  1
ACDBDICTIONARYWDFLT
  2
AcDbDictionaryWithDefault
  3
ObjectDBX Classes
 90
        0
280
     0
281
     0
  0
CLASS
  1
ACDBPLACEHOLDER
  2
AcDbPlaceHolder
  3
ObjectDBX Classes
 90
        0
280
     0
281
     0
  0
CLASS
  1
LAYOUT
  2
AcDbLayout
  3
ObjectDBX Classes
 90
        0
280
     0
281
     0
  0
CLASS
  1
AMGSETTINGSOBJ
  2
AmgSettingsObj
  3
"AcadM|Product Description: AutoCAD Mechanical|Company: Autodesk, Inc."
 90
     1024
280
     0
281
     0
  0
CLASS
  1
ACME_DOCUMENT
  2
AcMeDbDoc
  3
AcMeServices
 90
     1024
280
     0
281
     0
  0
CLASS
  1
ACMESCOPE
  2
AcMeScope
  3
AcMeServices
 90
     1024
280
     0
281
     0
  0
CLASS
  1
ACMECOMMANDHISTORY
  2
AcMeCommandHistory
  3
AcMeServices
 90
     1024
280
     0
281
     0
  0
CLASS
  1
DICTIONARYVAR
  2
AcDbDictionaryVar
  3
ObjectDBX Classes
 90
        0
280
     0
281
     0
  0
CLASS
  1
ACIMSYSVARMAN
  2
AcImSysVarManager
  3
AcMeServices
 90
     1024
280
     0
281
     0
  0
CLASS
  1
ACIMREALSYSVAR
  2
AcImRealSysVar
  3
AcMeServices
 90
     1024
280
     0
281
     0
  0
CLASS
  1
ACIMINTSYSVAR
  2
AcImIntSysVar
  3
AcMeServices
 90
     1024
280
     0
281
     0
  0
CLASS
  1
ACMEDRAWINGMAN
  2
AcMeDrawingMan
  3
AcMeServices
 90
     1024
280
     0
281
     0
  0
CLASS
  1
ACMEVIEW
  2
AcMeView
  3
AcMeServices
 90
     1024
280
     0
281
     0
  0
CLASS
  1
ACDBENTITYCACHE
  2
AcMeEntityCache
  3
AcMeServices
 90
     1024
280
     0
281
     0
  0
CLASS
  1
GSMANAGER
  2
AcMeGSManager
  3
AcMeServices
 90
     1024
280
     0
281
     0
  0
CLASS
  1
AMDTINTERNALREACTOR
  2
AmdtInternalReactor
  3
AcMeServices
 90
     1024
280
     0
281
     0
  0
CLASS
  1
ACMESTATEMGR
  2
AcMeStateMgr
  3
AcMeServices
 90
     1024
280
     0
281
     0
  0
CLASS
  1
ACGREFMASTER
  2
AcGrefMaster
  3
AcAttribServices
 90
     1024
280
     0
281
     0
  0
CLASS
  1
ACME_DATABASE
  2
AcMeDbDatabase
  3
AcMeServices
 90
     1024
280
     0
281
     0
  0
CLASS
  1
ACRFINSADJUSTERMGR
  2
AcRfInsAdjusterMgr
  3
AcMeServices
 90
     1024
280
     0
281
     0
  0
CLASS
  1
ACGREFACADMASTER
  2
AcGrefacadMaster
  3
AcGrefServices
 90
     1024
280
     0
281
     0
  0
CLASS
  1
AMIMASTER
  2
AmiMaster
  3
AmiServices
 90
     1024
280
     0
281
     0
  0
CLASS
  1
ACMDATADICTIONARY
  2
AcmDataDictionary
  3
"AcmSymBB|Product Description: AutoCAD Mechanical|Company: Autodesk, Inc."
 90
     1024
280
     0
281
     0
  0
CLASS
  1
ACMDATAENTRYBLOCK
  2
AcmDataEntryBlock
  3
AcmSymBB|Product Description: AutoCAD Mechanical|Company: Autodesk, Inc.
 90
     1024
280
     0
281
     0
  0
CLASS
  1
ACIMSTRSYSVAR
  2
AcImStrSysVar
  3
AcMeServices
 90
     1024
280
     0
281
     0
  0
CLASS
  1
ACMSTANDARDDIN
  2
AcmStandardDIN
  3
"Amdt_StdImp|Product Description: AutoCAD Mechanical|Company: Autodesk, Inc."
 90
     1024
280
     0
281
     0
  0
CLASS
  1
AMGOBJPROPCFG
  2
AmgObjPropCfg
  3
"AmgLay|Product Description: AutoCAD Mechanical|Company: Autodesk, Inc."
 90
     1025
280
     0
281
     0
  0
CLASS
  1
AMDTEDGESTANDARDDIN
  2
AmdtEdgeStdDIN
  3
"Amdt_StdImp|Product Description: AutoCAD Mechanical|Company: Autodesk, Inc."
 90
     1024
280
     0
281
     0
  0
CLASS
  1
ACMSURFSTANDARDDIN
  2
AcmSurfTextStdDIN
  3
"Amdt_StdImp|Product Description: AutoCAD Mechanical|Company: Autodesk, Inc."
 90
     1024
280
     0
281
     0
  0
CLASS
  1
ACMFCFSTANDARDDIN
  2
AcmFCFStdDIN
  3
"Amdt_StdImp|Product Description: AutoCAD Mechanical|Company: Autodesk, Inc."
 90
     1024
280
     0
281
     0
  0
CLASS
  1
ACMWELDSTANDARDDIN
  2
AcmWeldingStdDIN
  3
"Amdt_StdImp|Product Description: AutoCAD Mechanical|Company: Autodesk, Inc."
 90
     1024
280
     0
281
     0
  0
CLASS
  1
ACMIDSTANDARDDIN
  2
AcmIdStdDIN
  3
"Amdt_StdImp|Product Description: AutoCAD Mechanical|Company: Autodesk, Inc."
 90
     1024
280
     0
281
     0
  0
CLASS
  1
ACMDATUMSTANDARDDIN
  2
AcmDatumStdDIN
  3
"Amdt_StdImp|Product Description: AutoCAD Mechanical|Company: Autodesk, Inc."
 90
     1024
280
     0
281
     0
  0
CLASS
  1
ACMBOMSTANDARDDIN
  2
AcmBOMStdDIN
  3
"Amdt_StdImp|Product Description: AutoCAD Mechanical|Company: Autodesk, Inc."
 90
     1024
280
     0
281
     0
  0
CLASS
  1
ACMDETAILSTANDARDDIN
  2
AmdtDetailSymStdDIN
  3
"Amdt_StdImp|Product Description: AutoCAD Mechanical|Company: Autodesk, Inc."
 90
     1024
280
     0
281
     0
  0
CLASS
  1
ACMSECTIONSTANDARDDIN
  2
AmdtSectionSymStdDIN
  3
"Amdt_StdImp|Product Description: AutoCAD Mechanical|Company: Autodesk, Inc."
 90
     1024
280
     0
281
     0
  0
CLASS
  1
ACMCENTERLINESTANDARDDIN
  2
AmdtCenterLineStdDIN
  3
"Amdt_StdImp|Product Description: AutoCAD Mechanical|Company: Autodesk, Inc."
 90
     1024
280
     0
281
     0
  0
CLASS
  1
ACAMGLAYSTD
  2
AcAmgLayStd
  3
"AmgLay|Product Description: AutoCAD Mechanical|Company: Autodesk, Inc."
 90
     1024
280
     0
281
     0
  0
CLASS
  1
ACAMGDIMSTD
  2
AcAmgDimStd
  3
"AmgDim|Product Description: AutoCAD Mechanical|Company: Autodesk, Inc."
 90
     1024
280
     0
281
     0
  0
CLASS
  1
ACAMGTITLESTD
  2
AcAmgTitleStd
  3
"AmgTitle|Product Description: AutoCAD Mechanical|Company: Autodesk, Inc."
 90
     4095
280
     0
281
     0
  0
CLASS
  1
LAYER_INDEX
  2
AcDbLayerIndex
  3
ObjectDBX Classes
 90
    32768
280
     0
281
     0
  0
CLASS
  1
IDBUFFER
  2
AcDbIdBuffer
  3
ObjectDBX Classes
 90
    32768
280
     0
281
     0
  0
CLASS
  1
TABLESTYLE
  2
AcDbTableStyle
  3
ObjectDBX Classes
 90
     4095
280
     0
281
     0
  0
CLASS
  1
AM_DRAWING_MGR
  2
AcDmDwgMgr
  3
AcMechDwgViewMgmt
 90
     1024
280
     0
281
     0
  0
CLASS
  1
AM_DWG_DOCUMENT
  2
AcDmDwgDocument
  3
AcMechDwgViewMgmt
 90
     1024
280
     0
281
     0
  0
CLASS
  1
AM_DWG_SHEET
  2
AcDmSheet
  3
AcMechDwgViewMgmt
 90
     1024
280
     0
281
     0
  0
CLASS
  1
AM_VIEWDIMPARMAP
  2
AcDmViewDimParMap
  3
AcMechDwgViewMgmt
 90
     1024
280
     0
281
     0
  0
CLASS
  1
AM_DWGMGR_NAME
  2
AcDmDwgMgrName
  3
AcMechDwgViewMgmt
 90
     1024
280
     0
281
     0
  0
CLASS
  1
AMDTMENUSTATEMGR
  2
AmdtMenuStateMgr
  3
McadcomServices
 90
     1024
280
     0
281
     0
  0
CLASS
  1
AMDTMCOMMENUSTATE
  2
AmdtMcomMenuState
  3
McadcomServices
 90
     1024
280
     0
281
     0
  0
CLASS
  1
MAPIAMMOUDLE
  2
MApiAmModule
  3
MApiAmServices
 90
     1024
280
     0
281
     0
  0
CLASS
  1
AMDTADMENUSTATE
  2
AmdtAdMenuState
  3
DesignerServices
 90
     1024
280
     0
281
     0
  0
CLASS
  1
ADAPPL
  2
AcAdAppl
  3
DesignerServices
 90
     1024
280
     0
281
     0
  0
CLASS
  1
DEPMGR
  2
AcAdDepMgr
  3
DesignerServices
 90
     1024
280
     0
281
     0
  0
CLASS
  1
PARAMMGR
  2
AcAdParamMgr
  3
DesignerServices
 90
     1024
280
     0
281
     0
  0
CLASS
  1
PARAMSCOPE
  2
AcAdParamScope
  3
DesignerServices
 90
     1024
280
     0
281
     0
  0
CLASS
  1
NAMEDAPPL
  2
AcAdNamedAppl
  3
DesignerServices
 90
     1024
280
     0
281
     0
  0
CLASS
  1
AMDTDMMENUSTATE
  2
AmdtDmMenuState
  3
AcMechDwgViewMgmt
 90
     1024
280
     0
281
     0
  0
CLASS
  1
AMDTAMMENUSTATE
  2
AmdtAmMenuState
  3
DesignerAssemblies
 90
     1024
280
     0
281
     0
  0
CLASS
  1
ACAMPROJECT
  2
AcAmProject
  3
DesignerAssemblies
 90
     1024
280
     0
281
     0
  0
CLASS
  1
ACAMGRCOMPDEF
  2
AcAmGrCompDef
  3
DesignerAssemblies
 90
     1024
280
     0
281
     0
  0
CLASS
  1
ACCMCONTEXT
  2
AcCmContext
  3
DesignerAssemblies
 90
     1024
280
     0
281
     0
  0
CLASS
  1
ACAMCOMPDEF
  2
AcAmCompDef
  3
DesignerAssemblies
 90
     1024
280
     0
281
     0
  0
CLASS
  1
ACAMCOMPDEFMGR
  2
AcAmCompDefMgr
  3
DesignerAssemblies
 90
     1024
280
     0
281
     0
  0
CLASS
  1
AMCONTEXTMGR
  2
AcAmContextMgr
  3
DesignerAssemblies
 90
     1024
280
     0
281
     0
  0
CLASS
  1
ACAMCONTEXTMODELER
  2
AcAmContextModeler
  3
DesignerAssemblies
 90
     1024
280
     0
281
     0
  0
CLASS
  1
ACMTHREADLINESTANDARDDIN
  2
AmdtThreadLineStdDIN
  3
"Amdt_StdImp|Product Description: AutoCAD Mechanical|Company: Autodesk, Inc."
 90
     1024
280
     0
281
     0
  0
CLASS
  1
ACMNOTESTANDARDDIN
  2
AmdtNoteStdDIN
  3
"Amdt_StdImp|Product Description: AutoCAD Mechanical|Company: Autodesk, Inc."
 90
     1024
280
     0
281
     0
  0
CLASS
  1
AMDTNOTETEMPLATEDB
  2
AmdtNoteTemplateDB
  3
AcmSymBB|Product Description: AutoCAD Mechanical|Company: Autodesk, Inc.
 90
     1024
280
     0
281
     0
  0
CLASS
  1
CATALOGSTATE
  2
AcAmCatalogState
  3
DesignerAssemblies
 90
     1024
280
     0
281
     0
  0
CLASS
  1
ACAMGRCOMPDEFSET
  2
AcAmGrCompDefSet
  3
DesignerAssemblies
 90
     1024
280
     0
281
     0
  0
CLASS
  1
AMDTBROWSERDBTAB
  2
AmdtBrowserDbTab
  3
McadcomServices
 90
     1024
280
     0
281
     0
  0
CLASS
  1
CBROWSERAPPOBJECT
  2
CBrowserAppObject
  3
McadcomServices
 90
     1024
280
     0
281
     0
  0
CLASS
  1
DM_PLACEHOLDER
  2
AcDmSelsetPlaceholder
  3
AcMechDwgViewMgmt
 90
     1024
280
     0
281
     0
  0
CLASS
  1
DIMASSOC
  2
AcDbDimAssoc
  3
"AcDbDimAssoc|Product Desc:     AcDim ARX App For Dimension|Company:          Autodesk, Inc.|WEB Address:      www.autodesk.com"
 90
        0
280
     0
281
     0
  0
CLASS
  1
AMDTSECTIONSYM
  2
AmdtSectionSym
  3
"AcmSymBB|Product Description: AutoCAD Mechanical|Company: Autodesk, Inc."
 90
     4095
280
     0
281
     1
  0
CLASS
  1
AMDTSECTIONSYMLABEL
  2
AmdtSectionSymLabel
  3
"AcmSymBB|Product Description: AutoCAD Mechanical|Company: Autodesk, Inc."
 90
     4095
280
     0
281
     1
  0
CLASS
  1
ACMSTANDARDISO
  2
AcmStandardISO
  3
"Amdt_StdImp|Product Description: AutoCAD Mechanical|Company: Autodesk, Inc."
 90
     1024
280
     0
281
     0
  0
CLASS
  1
AMDTEDGESTANDARDISO
  2
AmdtEdgeStdISO
  3
"Amdt_StdImp|Product Description: AutoCAD Mechanical|Company: Autodesk, Inc."
 90
     1024
280
     0
281
     0
  0
CLASS
  1
ACMSURFSTANDARDISO
  2
AcmSurfTextStdISO
  3
"Amdt_StdImp|Product Description: AutoCAD Mechanical|Company: Autodesk, Inc."
 90
     1024
280
     0
281
     0
  0
CLASS
  1
ACMFCFSTANDARDISO
  2
AcmFCFStdISO
  3
"Amdt_StdImp|Product Description: AutoCAD Mechanical|Company: Autodesk, Inc."
 90
     1024
280
     0
281
     0
  0
CLASS
  1
ACMWELDSTANDARDISO
  2
AcmWeldingStdISO
  3
"Amdt_StdImp|Product Description: AutoCAD Mechanical|Company: Autodesk, Inc."
 90
     1024
280
     0
281
     0
  0
CLASS
  1
ACMIDSTANDARDISO
  2
AcmIdStdISO
  3
"Amdt_StdImp|Product Description: AutoCAD Mechanical|Company: Autodesk, Inc."
 90
     1024
280
     0
281
     0
  0
CLASS
  1
ACMDATUMSTANDARDISO
  2
AcmDatumStdISO
  3
"Amdt_StdImp|Product Description: AutoCAD Mechanical|Company: Autodesk, Inc."
 90
     1024
280
     0
281
     0
  0
CLASS
  1
ACMBOMSTANDARDISO
  2
AcmBOMStdISO
  3
"Amdt_StdImp|Product Description: AutoCAD Mechanical|Company: Autodesk, Inc."
 90
     1024
280
     0
281
     0
  0
CLASS
  1
ACMDETAILSTANDARDISO
  2
AmdtDetailSymStdISO
  3
"Amdt_StdImp|Product Description: AutoCAD Mechanical|Company: Autodesk, Inc."
 90
     1024
280
     0
281
     0
  0
CLASS
  1
ACMSECTIONSTANDARDISO
  2
AmdtSectionSymStdISO
  3
"Amdt_StdImp|Product Description: AutoCAD Mechanical|Company: Autodesk, Inc."
 90
     1024
280
     0
281
     0
  0
CLASS
  1
ACMCENTERLINESTANDARDISO
  2
AmdtCenterLineStdISO
  3
"Amdt_StdImp|Product Description: AutoCAD Mechanical|Company: Autodesk, Inc."
 90
     1024
280
     0
281
     0
  0
CLASS
  1
ACMNOTESTANDARDISO
  2
AmdtNoteStdISO
  3
"Amdt_StdImp|Product Description: AutoCAD Mechanical|Company: Autodesk, Inc."
 90
     1024
280
     0
281
     0
  0
CLASS
  1
ACAMGHOLECHARTSTDISO
  2
AcAmgHoleChartStdISO
  3
AmgDim|Product Description: AutoCAD Mechanical|Company: Autodesk, Inc.
 90
     1024
280
     0
281
     0
  0
CLASS
  1
ACMTHREADLINESTANDARDISO
  2
AmdtThreadLineStdISO
  3
"Amdt_StdImp|Product Description: AutoCAD Mechanical|Company: Autodesk, Inc."
 90
     1024
280
     0
281
     0
  0
CLASS
  1
ACAMGFILTERDAT
  2
AcAmgFilterDat
  3
"AcadM|Product Description: AutoCAD Mechanical|Company: Autodesk, Inc."
 90
     1024
280
     0
281
     0
  0
CLASS
  1
MATERIAL
  2
AcDbMaterial
  3
ObjectDBX Classes
 90
     1153
280
     0
281
     0
  0
CLASS
  1
VISUALSTYLE
  2
AcDbVisualStyle
  3
ObjectDBX Classes
 90
     4095
280
     0
281
     0
  0
CLASS
  1
SCALE
  2
AcDbScale
  3
ObjectDBX Classes
 90
     1153
280
     0
281
     0
  0
CLASS
  1
MLEADERSTYLE
  2
AcDbMLeaderStyle
  3
ACDB_MLEADERSTYLE_CLASS
 90
     4095
280
     0
281
     0
  0
CLASS
  1
ACRFATTGENMGR
  2
AcRfAttGeneralMgr
  3
AcAttribServices
 90
     1024
280
     0
281
     0
  0
CLASS
  1
ACRFOBJATTMGR
  2
AcRfObjAttGroupMgr
  3
AcAttribServices
 90
     1024
280
     0
281
     0
  0
CLASS
  1
ACRFMCADAPIATTHOLDER
  2
AcRfMCADAPIAttHolder
  3
AcAttribServices
 90
     1024
280
     0
281
     0
  0
CLASS
  1
AMDTSYSATTR
  2
AmdtSystemAttribute
  3
AcAttribServices
 90
     1024
280
     0
281
     0
  0
CLASS
  1
ACMTAPERSTANDARDISO
  2
AcmTaperStdISO
  3
"Amdt_StdImp|Product Description: AutoCAD Mechanical|Company: Autodesk, Inc."
 90
     1024
280
     0
281
     0
  0
CLASS
  1
ACMANOOTATIONVIEWSTANDARDISO
  2
AmdtAnViewStdISO
  3
"Amdt_StdImp|Product Description: AutoCAD Mechanical|Company: Autodesk, Inc."
 90
     1024
280
     0
281
     0
  0
CLASS
  1
ACMTAPERSTANDARDDIN
  2
AcmTaperStdDIN
  3
"Amdt_StdImp|Product Description: AutoCAD Mechanical|Company: Autodesk, Inc."
 90
     1024
280
     0
281
     0
  0
CLASS
  1
ACMANOOTATIONVIEWSTANDARDDIN
  2
AmdtAnViewStdDIN
  3
"Amdt_StdImp|Product Description: AutoCAD Mechanical|Company: Autodesk, Inc."
 90
     1024
280
     0
281
     0
  0
CLASS
  1
EXACXREFPANELOBJECT
  2
ExAcXREFPanelObject
  3
EXAC_ESW
 90
     1025
280
     0
281
     0
  0
CLASS
  1
NPOCOLLECTION
  2
AcDbImpNonPersistentObjectsCollection
  3
ObjectDBX Classes
 90
     1153
280
     0
281
     0
  0
CLASS
  1
AEC_REFEDIT_STATUS_TRACKER
  2
AecDbRefEditStatusTracker
  3
AecArchBase50|Product Desc: Autodesk Architectural Desktop 2007 |Company: Autodesk,Inc. |WEB Address: www.autodesk.com
 90
      129
280
     0
281
     0
  0
CLASS
  1
IMAGE
  2
AcDbRasterImage
  3
ISM
 90
     2175
280
     0
281
     1
  0
CLASS
  1
IMAGEDEF_REACTOR
  2
AcDbRasterImageDefReactor
  3
ISM
 90
        1
280
     0
281
     0
  0
CLASS
  1
IMAGEDEF
  2
AcDbRasterImageDef
  3
ISM
 90
        0
280
     0
281
     0
  0
CLASS
  1
ACMSTANDARDANSI
  2
AcmStandardANSI
  3
"Amdt_StdImp|Product Description: AutoCAD Mechanical|Company: Autodesk, Inc."
 90
     1024
280
     0
281
     0
  0
CLASS
  1
ACMSURFSTANDARDANSI
  2
AcmSurfTextStdANSI
  3
"Amdt_StdImp|Product Description: AutoCAD Mechanical|Company: Autodesk, Inc."
 90
     1024
280
     0
281
     0
  0
CLASS
  1
ACMFCFSTANDARDANSI
  2
AcmFCFStdANSI
  3
"Amdt_StdImp|Product Description: AutoCAD Mechanical|Company: Autodesk, Inc."
 90
     1024
280
     0
281
     0
  0
CLASS
  1
ACMWELDSTANDARDANSI
  2
AcmWeldingStdANSI
  3
"Amdt_StdImp|Product Description: AutoCAD Mechanical|Company: Autodesk, Inc."
 90
     1024
280
     0
281
     0
  0
CLASS
  1
ACMIDSTANDARDANSI
  2
AcmIdStdANSI
  3
"Amdt_StdImp|Product Description: AutoCAD Mechanical|Company: Autodesk, Inc."
 90
     1024
280
     0
281
     0
  0
CLASS
  1
ACMDATUMSTANDARDANSI
  2
AcmDatumStdANSI
  3
"Amdt_StdImp|Product Description: AutoCAD Mechanical|Company: Autodesk, Inc."
 90
     1024
280
     0
281
     0
  0
CLASS
  1
ACMBOMSTANDARDANSI
  2
AcmBOMStdANSI
  3
"Amdt_StdImp|Product Description: AutoCAD Mechanical|Company: Autodesk, Inc."
 90
     1024
280
     0
281
     0
  0
CLASS
  1
ACMDETAILSTANDARDANSI
  2
AmdtDetailSymStdANSI
  3
"Amdt_StdImp|Product Description: AutoCAD Mechanical|Company: Autodesk, Inc."
 90
     1024
280
     0
281
     0
  0
CLASS
  1
ACMSECTIONSTANDARDANSI
  2
AmdtSectionSymStdANSI
  3
"Amdt_StdImp|Product Description: AutoCAD Mechanical|Company: Autodesk, Inc."
 90
     1024
280
     0
281
     0
  0
CLASS
  1
ACMCENTERLINESTANDARDANSI
  2
AmdtCenterLineStdANSI
  3
"Amdt_StdImp|Product Description: AutoCAD Mechanical|Company: Autodesk, Inc."
 90
     1024
280
     0
281
     0
  0
CLASS
  1
ACMTHREADLINESTANDARDANSI
  2
AmdtThreadLineStdANSI
  3
"Amdt_StdImp|Product Description: AutoCAD Mechanical|Company: Autodesk, Inc."
 90
     1024
280
     0
281
     0
  0
CLASS
  1
ACMNOTESTANDARDANSI
  2
AmdtNoteStdANSI
  3
"Amdt_StdImp|Product Description: AutoCAD Mechanical|Company: Autodesk, Inc."
 90
     1024
280
     0
281
     0
  0
CLASS
  1
ACMTAPERSTANDARDANSI
  2
AcmTaperStdANSI
  3
"Amdt_StdImp|Product Description: AutoCAD Mechanical|Company: Autodesk, Inc."
 90
     1024
280
     0
281
     0
  0
CLASS
  1
ACMANOOTATIONVIEWSTANDARDANSI
  2
AmdtAnViewStdANSI
  3
"Amdt_StdImp|Product Description: AutoCAD Mechanical|Company: Autodesk, Inc."
 90
     1024
280
     0
281
     0
  0
CLASS
  1
ACAMGHOLECHARTSTDANSI
  2
AcAmgHoleChartStdANSI
  3
AmgDim|Product Description: AutoCAD Mechanical|Company: Autodesk, Inc.
 90
     1024
280
     0
281
     0
  0
CLASS
  1
RASTERVARIABLES
  2
AcDbRasterVariables
  3
ISM
 90
        0
280
     0
281
     0
  0
CLASS
  1
CAMSSTRUCTBTNSTATE
  2
StructBtnState
  3
DesignerAssemblies
 90
     1024
280
     0
281
     0
  0
CLASS
  1
CELLSTYLEMAP
  2
AcDbCellStyleMap
  3
ObjectDBX Classes
 90
     1152
280
     0
281
     0
  0
CLASS
  1
ACMWELDSYM
  2
AcmWelding
  3
"AcmSymBB|Product Description: AutoCAD Mechanical|Company: Autodesk, Inc."
 90
    36863
280
     0
281
     1
  0
CLASS
  1
ACDBLINERES
  2
AcDbLineRes
  3
AcGrefServices
 90
     1024
280
     0
281
     0
  0
CLASS
  1
AMDTNOTE
  2
AmdtNote
  3
"AcmSymBB|Product Description: AutoCAD Mechanical|Company: Autodesk, Inc."
 90
    36863
280
     0
281
     1
  0
CLASS
  1
SORTENTSTABLE
  2
AcDbSortentsTable
  3
ObjectDBX Classes
 90
        0
280
     0
281
     0
  0
ENDSEC
  0
SECTION
  2
TABLES
  0
TABLE
  2
VPORT
  5
8
330
0
100
AcDbSymbolTable
 70
     1
  0
VPORT
  5
7AE
330
8
100
AcDbSymbolTableRecord
100
AcDbViewportTableRecord
  2
*Active
 70
     0
 10
0.0
 20
0.0
 11
1.0
 21
1.0
 12
620.1084949815249
 22
399.5625768483336
 13
0.0
 23
0.0
 14
5.0
 24
5.0
 15
20.0
 25
20.0
 16
0.0
 26
0.0
 36
1.0
 17
0.0
 27
0.0
 37
0.0
 40
1025.533208577236
 41
1.850956696878147
 42
50.0
 43
0.0
 44
0.0
 50
0.0
 51
0.0
 71
    16
 72
   100
 73
     1
 74
     3
 75
     0
 76
     0
 77
     0
 78
     0
281
     0
 65
     1
110
0.0
120
0.0
130
0.0
111
1.0
121
0.0
131
0.0
112
0.0
122
1.0
132
0.0
 79
     0
146
0.0
  0
ENDTAB
  0
TABLE
  2
LTYPE
  5
5
330
0
100
AcDbSymbolTable
 70
    36
  0
LTYPE
  5
14
330
5
100
AcDbSymbolTableRecord
100
AcDbLinetypeTableRecord
  2
ByBlock
 70
     0
  3

 72
    65
 73
     0
 40
0.0
  0
LTYPE
  5
15
330
5
100
AcDbSymbolTableRecord
100
AcDbLinetypeTableRecord
  2
ByLayer
 70
     0
  3

 72
    65
 73
     0
 40
0.0
  0
LTYPE
  5
16
330
5
100
AcDbSymbolTableRecord
100
AcDbLinetypeTableRecord
  2
Continuous
 70
     0
  3
Solid line
 72
    65
 73
     0
 40
0.0
  0
LTYPE
  5
52
330
5
100
AcDbSymbolTableRecord
100
AcDbLinetypeTableRecord
  2
Amconstr
 70
     0
  3
_______________________
 72
    65
 73
     2
 40
9999.0
 49
9999.0
 74
     0
 49
0.0
 74
     0
  0
LTYPE
  5
57
330
5
100
AcDbSymbolTableRecord
100
AcDbLinetypeTableRecord
  2
Amzigzag
 70
     0
  3
/\/-/\/-/\/-/\/-/\/-/\/
 72
    65
 73
     2
 40
11.0001
 49
0.0001
 74
     4
 75
   135
340
56
 46
0.04
 50
0.0
 44
0.0
 45
0.0
 49
-11.0
 74
     0
  0
LTYPE
  5
58
330
5
100
AcDbSymbolTableRecord
100
AcDbLinetypeTableRecord
  2
AM_DIN_F_W050
 70
     0
  3
__ __ __ __ __ __ __ __ __ __ __ __ __ __ __
 72
    65
 73
     2
 40
6.25
 49
4.75
 74
     0
 49
-1.5
 74
     0
  0
LTYPE
  5
59
330
5
100
AcDbSymbolTableRecord
100
AcDbLinetypeTableRecord
  2
AM_DIN_G_W050
 70
     0
  3
____ . ____ . ____ . ____ . ____ . ____ . ____
 72
    65
 73
     4
 40
13.75
 49
9.75
 74
     0
 49
-1.5
 74
     0
 49
1.0
 74
     0
 49
-1.5
 74
     0
  0
LTYPE
  5
5A
330
5
100
AcDbSymbolTableRecord
100
AcDbLinetypeTableRecord
  2
AM_DIN_K_W050
 70
     0
  3
_____ . . _____ . . _____ . . ____ .. ____
 72
    65
 73
     6
 40
16.25
 49
9.75
 74
     0
 49
-1.5
 74
     0
 49
1.0
 74
     0
 49
-1.5
 74
     0
 49
1.0
 74
     0
 49
-1.5
 74
     0
  0
LTYPE
  5
5B
330
5
100
AcDbSymbolTableRecord
100
AcDbLinetypeTableRecord
  2
AM_DIN_G_W050x2
 70
     0
  3
__ . __ . __ . __ . __ . __
 72
    65
 73
     4
 40
6.875
 49
4.75
 74
     0
 49
-0.875
 74
     0
 49
0.375
 74
     0
 49
-0.875
 74
     0
  0
LTYPE
  5
5C
330
5
100
AcDbSymbolTableRecord
100
AcDbLinetypeTableRecord
  2
AM_DIN_F_W050x2
 70
     0
  3
 _ _ _ _ _ _ _ _ _ _ _ _
 72
    65
 73
     2
 40
3.125
 49
2.25
 74
     0
 49
-0.875
 74
     0
  0
LTYPE
  5
69
330
5
100
AcDbSymbolTableRecord
100
AcDbLinetypeTableRecord
  2
ACDINWELD
 70
     0
  3
_ _ _ _ _
 72
    65
 73
     2
 40
2.0
 49
2.0
 74
     0
 49
-1.0
 74
     0
  0
LTYPE
  5
6A
330
5
100
AcDbSymbolTableRecord
100
AcDbLinetypeTableRecord
  2
ACDINTGB
 70
     0
  3
__ . . __ . .
 72
    65
 73
     6
 40
9.0
 49
4.0
 74
     0
 49
-1.0
 74
     0
 49
1.0
 74
     0
 49
-1.0
 74
     0
 49
1.0
 74
     0
 49
-1.0
 74
     0
  0
LTYPE
  5
6B
330
5
100
AcDbSymbolTableRecord
100
AcDbLinetypeTableRecord
  2
ACDINTGL
 70
     0
  3
_ _ _ _ _
 72
    65
 73
     2
 40
3.0
 49
2.0
 74
     0
 49
-1.0
 74
     0
  0
LTYPE
  5
6D
330
5
100
AcDbSymbolTableRecord
100
AcDbLinetypeTableRecord
  2
CENTER
 70
     0
  3
__ . __
 72
    65
 73
     4
 40
7.0
 49
4.0
 74
     0
 49
-1.0
 74
     0
 49
1.0
 74
     0
 49
-1.0
 74
     0
  0
LTYPE
  5
CB
330
5
100
AcDbSymbolTableRecord
100
AcDbLinetypeTableRecord
  2
HIDDEN
 70
     0
  3
Verdeckt
 72
    65
 73
     2
 40
9.525
 49
6.349999999999999
 74
     0
 49
-3.174999999999999
 74
     0
  0
LTYPE
  5
CC
330
5
100
AcDbSymbolTableRecord
100
AcDbLinetypeTableRecord
  2
PHANTOM2
 70
     0
  3
Phantom (.5x) ___ _ _ ___ _ _ ___ _ _ ___ _ _
 72
    65
 73
     6
 40
31.75
 49
15.875
 74
     0
 49
-3.174999999999999
 74
     0
 49
3.174999999999999
 74
     0
 49
-3.174999999999999
 74
     0
 49
3.174999999999999
 74
     0
 49
-3.174999999999999
 74
     0
  0
LTYPE
  5
445
330
5
100
AcDbSymbolTableRecord
100
AcDbLinetypeTableRecord
  2
ACISOWELD
 70
     0
  3
_ _ _ _ _
 72
    65
 73
     2
 40
2.0
 49
2.0
 74
     0
 49
-1.0
 74
     0
  0
LTYPE
  5
446
330
5
100
AcDbSymbolTableRecord
100
AcDbLinetypeTableRecord
  2
ACISOTGB
 70
     0
  3
__ . . __ . .
 72
    65
 73
     6
 40
9.0
 49
4.0
 74
     0
 49
-1.0
 74
     0
 49
1.0
 74
     0
 49
-1.0
 74
     0
 49
1.0
 74
     0
 49
-1.0
 74
     0
  0
LTYPE
  5
447
330
5
100
AcDbSymbolTableRecord
100
AcDbLinetypeTableRecord
  2
ACISOTGL
 70
     0
  3
_ _ _ _ _
 72
    65
 73
     2
 40
3.0
 49
2.0
 74
     0
 49
-1.0
 74
     0
  0
LTYPE
  5
44A
330
5
100
AcDbSymbolTableRecord
100
AcDbLinetypeTableRecord
  2
VERDECKT2
 70
     0
  3
Verdeckt (.5x) _ _ _ _ _ _ _ _ _ _ _ _ _ _ _ _ 
 72
    65
 73
     2
 40
4.762499999999999
 49
3.174999999999999
 74
     0
 49
-1.587499999999999
 74
     0
  0
LTYPE
  5
821
330
5
100
AcDbSymbolTableRecord
100
AcDbLinetypeTableRecord
  2
AM_ISO02W050
 70
     0
  3
__ __ __ __ __ __ __ __ __ __ __ __ __ __ __
 72
    65
 73
     2
 40
7.5
 49
6.0
 74
     0
 49
-1.5
 74
     0
  0
LTYPE
  5
822
330
5
100
AcDbSymbolTableRecord
100
AcDbLinetypeTableRecord
  2
gen3
 70
     0
  3
-- -- -- -- -- -- -- -- -- -- -- -- -- -- --
 72
    65
 73
     2
 40
6.25
 49
4.75
 74
     0
 49
-1.5
 74
     0
  0
LTYPE
  5
823
330
5
100
AcDbSymbolTableRecord
100
AcDbLinetypeTableRecord
  2
gen7
 70
     0
  3
____ . ____ . ____ . ____ . ____ . ____ . ____
 72
    65
 73
     4
 40
13.75
 49
9.75
 74
     0
 49
-1.5
 74
     0
 49
1.0
 74
     0
 49
-1.5
 74
     0
  0
LTYPE
  5
824
330
5
100
AcDbSymbolTableRecord
100
AcDbLinetypeTableRecord
  2
gen3a
 70
     0
  3
 - - - - -
 72
    65
 73
     2
 40
3.125
 49
2.25
 74
     0
 49
-0.875
 74
     0
  0
LTYPE
  5
825
330
5
100
AcDbSymbolTableRecord
100
AcDbLinetypeTableRecord
  2
gen7a
 70
     0
  3
__ . __ . __
 72
    65
 73
     4
 40
6.875
 49
4.75
 74
     0
 49
-0.875
 74
     0
 49
0.375
 74
     0
 49
-0.875
 74
     0
  0
LTYPE
  5
826
330
5
100
AcDbSymbolTableRecord
100
AcDbLinetypeTableRecord
  2
gen4a
 70
     0
  3
_____ . . _____ . . _____ . . ____ .. ____
 72
    65
 73
     6
 40
16.25
 49
9.75
 74
     0
 49
-1.5
 74
     0
 49
1.0
 74
     0
 49
-1.5
 74
     0
 49
1.0
 74
     0
 49
-1.5
 74
     0
  0
LTYPE
  5
827
330
5
100
AcDbSymbolTableRecord
100
AcDbLinetypeTableRecord
  2
genzigzag
 70
     0
  3
/\/-/\/-/\/-/\/-/\/-/\/
 72
    65
 73
     2
 40
12.0001
 49
0.0001
 74
     4
 75
   135
340
82A
 46
2.0
 50
0.0
 44
0.0
 45
0.0
 49
-12.0
 74
     0
  0
LTYPE
  5
883
330
5
100
AcDbSymbolTableRecord
100
AcDbLinetypeTableRecord
  2
AUSGEZOGEN
 70
     0
  3
Ausgezogene Linie
 72
    65
 73
     0
 40
0.0
  0
LTYPE
  5
884
330
5
100
AcDbSymbolTableRecord
100
AcDbLinetypeTableRecord
  2
STRICHPUNKT
 70
     0
  3
__ . __ . __ . __ . __ . __ . __ . __ . __ . __
 72
    65
 73
     4
 40
1.0
 49
0.5
 74
     0
 49
-0.25
 74
     0
 49
0.0
 74
     0
 49
-0.25
 74
     0
  0
LTYPE
  5
885
330
5
100
AcDbSymbolTableRecord
100
AcDbLinetypeTableRecord
  2
CENTER2
 70
     0
  3
Center (.5x) ___ _ ___ _ ___ _ ___ _ ___ _ ___
 72
    65
 73
     4
 40
1.125
 49
0.75
 74
     0
 49
-0.125
 74
     0
 49
0.125
 74
     0
 49
-0.125
 74
     0
  0
LTYPE
  5
886
330
5
100
AcDbSymbolTableRecord
100
AcDbLinetypeTableRecord
  2
HIDDEN2
 70
     0
  3
Hidden (.5x) _ _ _ _ _ _ _ _ _ _ _ _ _ _ _ _ _
 72
    65
 73
     2
 40
0.1875
 49
0.125
 74
     0
 49
-0.0625
 74
     0
  0
LTYPE
  5
887
330
5
100
AcDbSymbolTableRecord
100
AcDbLinetypeTableRecord
  2
Amzigzag2
 70
     0
  3
/\/-/\/-/\/-/\/-/\/-/\/
 72
    65
 73
     2
 40
0.4401
 49
0.0001
 74
     4
 75
   135
340
56
 46
0.0016
 50
0.0
 44
0.0
 45
0.0
 49
-0.4400000000000001
 74
     0
  0
LTYPE
  5
888
330
5
100
AcDbSymbolTableRecord
100
AcDbLinetypeTableRecord
  2
ACANSTGB
 70
     0
  3
__ . . __ . .
 72
    65
 73
     6
 40
0.35433070866
 49
0.15748031496
 74
     0
 49
-0.03937007874
 74
     0
 49
0.03937007874
 74
     0
 49
-0.03937007874
 74
     0
 49
0.03937007874
 74
     0
 49
-0.03937007874
 74
     0
  0
LTYPE
  5
889
330
5
100
AcDbSymbolTableRecord
100
AcDbLinetypeTableRecord
  2
ACANSTGL
 70
     0
  3
_ _ _ _ _
 72
    65
 73
     2
 40
0.11811023622
 49
0.07874015748
 74
     0
 49
-0.03937007874
 74
     0
  0
LTYPE
  5
88A
330
5
100
AcDbSymbolTableRecord
100
AcDbLinetypeTableRecord
  2
AM_ISO08W050
 70
     0
  3
____ . ____ . ____ . ____ . ____ . ____ . ____
 72
    65
 73
     4
 40
18.0
 49
12.0
 74
     0
 49
-1.5
 74
     0
 49
3.0
 74
     0
 49
-1.5
 74
     0
  0
LTYPE
  5
88B
330
5
100
AcDbSymbolTableRecord
100
AcDbLinetypeTableRecord
  2
AM_ISO09W050
 70
     0
  3
_____ . . _____ . . _____ . . ____ .. ____
 72
    65
 73
     6
 40
22.5
 49
12.0
 74
     0
 49
-1.5
 74
     0
 49
3.0
 74
     0
 49
-1.5
 74
     0
 49
3.0
 74
     0
 49
-1.5
 74
     0
  0
LTYPE
  5
88C
330
5
100
AcDbSymbolTableRecord
100
AcDbLinetypeTableRecord
  2
AM_ISO08W050x2
 70
     0
  3
__ . __ . __ . __ . __ . __
 72
    65
 73
     4
 40
9.0
 49
6.0
 74
     0
 49
-0.75
 74
     0
 49
1.5
 74
     0
 49
-0.75
 74
     0
  0
LTYPE
  5
88D
330
5
100
AcDbSymbolTableRecord
100
AcDbLinetypeTableRecord
  2
AM_ISO02W050x2
 70
     0
  3
 _ _ _ _ _ _ _ _ _ _ _ _
 72
    65
 73
     2
 40
3.75
 49
3.0
 74
     0
 49
-0.75
 74
     0
  0
ENDTAB
  0
TABLE
  2
LAYER
  5
2
102
{ACAD_XDICTIONARY
360
47B
102
}
330
0
100
AcDbSymbolTable
 70
    25
  0
LAYER
  5
10
102
{ACAD_XDICTIONARY
360
9FA
102
}
330
2
100
AcDbSymbolTableRecord
100
AcDbLayerTableRecord
  2
0
 70
     0
 62
     7
  6
Continuous
370
    -3
390
F
  0
LAYER
  5
44B
102
{ACAD_XDICTIONARY
360
9FC
102
}
330
2
100
AcDbSymbolTableRecord
100
AcDbLayerTableRecord
  2
AM_7
 70
     0
 62
     4
  6
AM_DIN_G_W050
370
    25
390
F
1001
AcAecLayerStandard
1000

1000

  0
LAYER
  5
44C
102
{ACAD_XDICTIONARY
360
9FE
102
}
330
2
100
AcDbSymbolTableRecord
100
AcDbLayerTableRecord
  2
AM_5
 70
     0
 62
     3
  6
Continuous
370
    25
390
F
1001
AcAecLayerStandard
1000

1000

  0
LAYER
  5
44D
330
2
100
AcDbSymbolTableRecord
100
AcDbLayerTableRecord
  2
Defpoints
 70
     0
 62
     7
  6
Continuous
290
     0
370
    -3
390
F
  0
LAYER
  5
44E
102
{ACAD_XDICTIONARY
360
A00
102
}
330
2
100
AcDbSymbolTableRecord
100
AcDbLayerTableRecord
  2
AM_8
 70
     0
 62
     1
  6
Continuous
370
    25
390
F
1001
AcAecLayerStandard
1000

1000

  0
LAYER
  5
457
102
{ACAD_XDICTIONARY
360
A02
102
}
330
2
100
AcDbSymbolTableRecord
100
AcDbLayerTableRecord
  2
0N
 70
     0
 62
     7
  6
Continuous
370
    -3
390
F
  0
LAYER
  5
458
102
{ACAD_XDICTIONARY
360
A04
102
}
330
2
100
AcDbSymbolTableRecord
100
AcDbLayerTableRecord
  2
P-0000
 70
     0
 62
     7
  6
Continuous
370
    -3
390
F
  0
LAYER
  5
459
102
{ACAD_XDICTIONARY
360
A06
102
}
330
2
100
AcDbSymbolTableRecord
100
AcDbLayerTableRecord
  2
P-2885
 70
     0
 62
     7
  6
Continuous
370
    -3
390
F
  0
LAYER
  5
45A
102
{ACAD_XDICTIONARY
360
A08
102
}
330
2
100
AcDbSymbolTableRecord
100
AcDbLayerTableRecord
  2
verdeckt
 70
     0
 62
     6
  6
VERDECKT2
370
    -3
390
F
1001
AcAecLayerStandard
1000

1000

  0
LAYER
  5
45B
102
{ACAD_XDICTIONARY
360
A0A
102
}
330
2
100
AcDbSymbolTableRecord
100
AcDbLayerTableRecord
  2
AM_10
 70
     0
 62
     7
  6
AM_DIN_G_W050
370
    50
390
F
1001
AcAecLayerStandard
1000

1000

  0
LAYER
  5
828
102
{ACAD_XDICTIONARY
360
829
102
}
330
2
100
AcDbSymbolTableRecord
100
AcDbLayerTableRecord
  2
RAHM2
 70
     0
 62
     1
  6
Continuous
370
    -3
390
F
  0
LAYER
  5
87B
102
{ACAD_XDICTIONARY
360
A0D
102
}
330
2
100
AcDbSymbolTableRecord
100
AcDbLayerTableRecord
  2
AM_BOR
 70
     0
 62
     7
  6
Continuous
370
    50
390
F
1001
AcAecLayerStandard
1000

1000

  0
LAYER
  5
88E
102
{ACAD_XDICTIONARY
360
88F
102
}
330
2
100
AcDbSymbolTableRecord
100
AcDbLayerTableRecord
  2
MITTE
 70
     0
 62
     1
  6
STRICHPUNKT
370
    -3
390
F
  0
LAYER
  5
890
102
{ACAD_XDICTIONARY
360
891
102
}
330
2
100
AcDbSymbolTableRecord
100
AcDbLayerTableRecord
  2
TEXT50
 70
     0
 62
     7
  6
Continuous
370
    -3
390
F
  0
LAYER
  5
892
102
{ACAD_XDICTIONARY
360
893
102
}
330
2
100
AcDbSymbolTableRecord
100
AcDbLayerTableRecord
  2
TEXT35
 70
     0
 62
   132
  6
Continuous
370
    -3
390
F
  0
LAYER
  5
894
102
{ACAD_XDICTIONARY
360
895
102
}
330
2
100
AcDbSymbolTableRecord
100
AcDbLayerTableRecord
  2
TEXT25
 70
     0
 62
     3
  6
Continuous
370
    -3
390
F
  0
LAYER
  5
896
102
{ACAD_XDICTIONARY
360
897
102
}
330
2
100
AcDbSymbolTableRecord
100
AcDbLayerTableRecord
  2
KOPF
 70
     0
 62
     1
  6
AUSGEZOGEN
370
    -3
390
F
  0
LAYER
  5
898
102
{ACAD_XDICTIONARY
360
899
102
}
330
2
100
AcDbSymbolTableRecord
100
AcDbLayerTableRecord
  2
Sperrlayer
 70
     1
 62
     7
  6
Continuous
370
    50
390
F
  0
LAYER
  5
89C
102
{ACAD_XDICTIONARY
360
89D
102
}
330
2
100
AcDbSymbolTableRecord
100
AcDbLayerTableRecord
  2
4A
 70
     0
 62
     3
  6
AM_DIN_K_W050
370
    -3
390
F
  0
LAYER
  5
89E
102
{ACAD_XDICTIONARY
360
89F
102
}
330
2
100
AcDbSymbolTableRecord
100
AcDbLayerTableRecord
  2
AM_0
 70
     0
 62
     7
  6
Continuous
370
    30
390
F
  0
LAYER
  5
BDD
330
2
100
AcDbSymbolTableRecord
100
AcDbLayerTableRecord
  2
AM_CL
 70
     0
 62
     1
  6
Amconstr
370
    25
390
F
1001
AcAecLayerStandard
1000

1000

  0
LAYER
  5
CFF
102
{ACAD_XDICTIONARY
360
D00
102
}
330
2
100
AcDbSymbolTableRecord
100
AcDbLayerTableRecord
  2
FASEN
 70
     0
 62
     7
  6
Continuous
370
    -3
390
F
  0
LAYER
  5
29D7
102
{ACAD_XDICTIONARY
360
29D8
102
}
330
2
100
AcDbSymbolTableRecord
100
AcDbLayerTableRecord
  2
4
 70
     0
 62
     3
  6
Continuous
370
    -3
390
F
  0
LAYER
  5
29D9
102
{ACAD_XDICTIONARY
360
29DA
102
}
330
2
100
AcDbSymbolTableRecord
100
AcDbLayerTableRecord
  2
6
 70
     0
 62
     2
  6
Continuous
370
    -3
390
F
  0
LAYER
  5
29ED
330
2
100
AcDbSymbolTableRecord
100
AcDbLayerTableRecord
  2
AM_4
 70
     0
 62
     3
  6
Continuous
370
    25
390
F
1001
AcAecLayerStandard
1000

1000

  0
ENDTAB
  0
TABLE
  2
STYLE
  5
3
330
0
100
AcDbSymbolTable
 70
    14
  0
STYLE
  5
11
330
3
100
AcDbSymbolTableRecord
100
AcDbTextStyleTableRecord
  2
STANDARD
 70
     0
 40
0.0
 41
1.0
 50
0.0
 71
     0
 42
2.5
  3
ISOCP.SHX
  4

  0
STYLE
  5
56
330
3
100
AcDbSymbolTableRecord
100
AcDbTextStyleTableRecord
  2

 70
     1
 40
0.0
 41
1.0
 50
0.0
 71
     0
 42
2.5
  3
ltypeshp.shx
  4

  0
STYLE
  5
5D
330
3
100
AcDbSymbolTableRecord
100
AcDbTextStyleTableRecord
  2
ACDINTS
 70
     0
 40
1.0
 41
1.0
 50
0.0
 71
     0
 42
2.5
  3
isocp.shx
  4

  0
STYLE
  5
68
330
3
100
AcDbSymbolTableRecord
100
AcDbTextStyleTableRecord
  2
ACDINGDT
 70
     0
 40
0.0
 41
1.0
 50
0.0
 71
     0
 42
2.5
  3
amgdt.shx
  4

  0
STYLE
  5
45C
330
3
100
AcDbSymbolTableRecord
100
AcDbTextStyleTableRecord
  2
ACISOTS
 70
     0
 40
1.0
 41
1.0
 50
0.0
 71
     0
 42
2.5
  3
isocp.shx
  4
bigfont.shx
  0
STYLE
  5
45D
330
3
100
AcDbSymbolTableRecord
100
AcDbTextStyleTableRecord
  2
ACISOGDT
 70
     0
 40
0.0
 41
1.0
 50
0.0
 71
     0
 42
2.5
  3
AMGDT
  4
bigfont.shx
  0
STYLE
  5
82A
330
3
100
AcDbSymbolTableRecord
100
AcDbTextStyleTableRecord
  2

 70
     1
 40
0.0
 41
1.0
 50
0.0
 71
     0
 42
0.2
  3
genltshp.shx
  4

  0
STYLE
  5
8A0
330
3
100
AcDbSymbolTableRecord
100
AcDbTextStyleTableRecord
  2
TEXT20
 70
     0
 40
2.0
 41
0.8
 50
0.0
 71
     0
 42
2.0
  3
isocp3.shx
  4

  0
STYLE
  5
8A1
330
3
100
AcDbSymbolTableRecord
100
AcDbTextStyleTableRecord
  2
TEXT35
 70
     0
 40
3.5
 41
0.8
 50
0.0
 71
     0
 42
3.5
  3
isocp3.shx
  4

  0
STYLE
  5
8A2
330
3
100
AcDbSymbolTableRecord
100
AcDbTextStyleTableRecord
  2
TEXT50
 70
     0
 40
5.0
 41
0.8
 50
0.0
 71
     0
 42
5.0
  3
isocp3.shx
  4

  0
STYLE
  5
8A3
330
3
100
AcDbSymbolTableRecord
100
AcDbTextStyleTableRecord
  2
ACANSTS
 70
     0
 40
1.0
 41
1.0
 50
0.0
 71
     0
 42
2.0
  3
romans.shx
  4

  0
STYLE
  5
8A4
330
3
100
AcDbSymbolTableRecord
100
AcDbTextStyleTableRecord
  2
ACANSGDT
 70
     0
 40
0.0
 41
1.0
 50
0.0
 71
     0
 42
2.0
  3
amgdt.shx
  4

  0
STYLE
  5
8A5
330
3
100
AcDbSymbolTableRecord
100
AcDbTextStyleTableRecord
  2
KOPF
 70
     0
 40
0.0
 41
0.9
 50
10.0
 71
     0
 42
2.5
  3
dutchi.ttf
  4

1001
ACAD
1000
Dutch801 Rm BT
1071
 16777234
  0
STYLE
  5
8A6
330
3
100
AcDbSymbolTableRecord
100
AcDbTextStyleTableRecord
  2
Anschrift
 70
     0
 40
0.0
 41
1.0
 50
0.0
 71
     0
 42
2.0
  3
C:\Programme\Autodesk\ACADM 2009\Fonts\isocp.shx
  4

  0
ENDTAB
  0
TABLE
  2
VIEW
  5
6
330
0
100
AcDbSymbolTable
 70
     6
  0
VIEW
  5
97D
330
6
100
AcDbSymbolTableRecord
100
AcDbViewTableRecord
  2
AM_VIEW1
 70
     0
 40
420.0
 10
318.4916864608075
 20
630.0
 41
636.9833729216152
 11
0.0
 21
0.0
 31
1.0
 12
0.0
 22
0.0
 32
0.0
 42
50.0
 43
0.0
 44
0.0
 50
0.0
 71
    16
281
     0
 72
     0
  0
VIEW
  5
97E
330
6
100
AcDbSymbolTableRecord
100
AcDbViewTableRecord
  2
AM_VIEW2
 70
     0
 40
420.0
 10
869.5083135391923
 20
630.0
 41
636.9833729216152
 11
0.0
 21
0.0
 31
1.0
 12
0.0
 22
0.0
 32
0.0
 42
50.0
 43
0.0
 44
0.0
 50
0.0
 71
    16
281
     0
 72
     0
  0
VIEW
  5
97F
330
6
100
AcDbSymbolTableRecord
100
AcDbViewTableRecord
  2
AM_VIEW3
 70
     0
 40
420.0
 10
318.4916864608075
 20
210.0
 41
636.9833729216152
 11
0.0
 21
0.0
 31
1.0
 12
0.0
 22
0.0
 32
0.0
 42
50.0
 43
0.0
 44
0.0
 50
0.0
 71
    16
281
     0
 72
     0
  0
VIEW
  5
980
330
6
100
AcDbSymbolTableRecord
100
AcDbViewTableRecord
  2
AM_VIEW4
 70
     0
 40
420.0
 10
869.5083135391923
 20
210.0
 41
636.9833729216152
 11
0.0
 21
0.0
 31
1.0
 12
0.0
 22
0.0
 32
0.0
 42
50.0
 43
0.0
 44
0.0
 50
0.0
 71
    16
281
     0
 72
     0
  0
VIEW
  5
981
330
6
100
AcDbSymbolTableRecord
100
AcDbViewTableRecord
  2
AM_VIEW5
 70
     0
 40
420.0
 10
593.9999999999998
 20
420.0
 41
636.9833729216152
 11
0.0
 21
0.0
 31
1.0
 12
0.0
 22
0.0
 32
0.0
 42
50.0
 43
0.0
 44
0.0
 50
0.0
 71
    16
281
     0
 72
     0
  0
VIEW
  5
982
330
6
100
AcDbSymbolTableRecord
100
AcDbViewTableRecord
  2
AM_VIEW6
 70
     0
 40
839.9916000000001
 10
593.9999999999997
 20
420.0
 41
1273.954006175772
 11
0.0
 21
0.0
 31
1.0
 12
0.0
 22
0.0
 32
0.0
 42
50.0
 43
0.0
 44
0.0
 50
0.0
 71
    16
281
     0
 72
     0
  0
ENDTAB
  0
TABLE
  2
UCS
  5
7
330
0
100
AcDbSymbolTable
 70
     0
  0
ENDTAB
  0
TABLE
  2
APPID
  5
9
330
0
100
AcDbSymbolTable
 70
    50
  0
APPID
  5
12
330
9
100
AcDbSymbolTableRecord
100
AcDbRegAppTableRecord
  2
ACAD
 70
     0
  0
APPID
  5
30
330
9
100
AcDbSymbolTableRecord
100
AcDbRegAppTableRecord
  2
MCAD_NO_VIS
 70
     0
  0
APPID
  5
31
330
9
100
AcDbSymbolTableRecord
100
AcDbRegAppTableRecord
  2
ACAD_TEMP_GRAPHIC
 70
     0
  0
APPID
  5
44
330
9
100
AcDbSymbolTableRecord
100
AcDbRegAppTableRecord
  2
ACATTRIBSERVICES
 70
     0
  0
APPID
  5
CE
330
9
100
AcDbSymbolTableRecord
100
AcDbRegAppTableRecord
  2
AD_DRAW
 70
     0
  0
APPID
  5
EC
330
9
100
AcDbSymbolTableRecord
100
AcDbRegAppTableRecord
  2
DESIGNERASSEMBLIES
 70
     0
  0
APPID
  5
F6
330
9
100
AcDbSymbolTableRecord
100
AcDbRegAppTableRecord
  2
ACAD_DSTYLE_DIMARC_LENGTH_SYMBOL
 70
     0
  0
APPID
  5
F7
330
9
100
AcDbSymbolTableRecord
100
AcDbRegAppTableRecord
  2
ACAD_DSTYLE_DIMJOGGED_JOGANGLE_SYMBOL
 70
     0
  0
APPID
  5
107
330
9
100
AcDbSymbolTableRecord
100
AcDbRegAppTableRecord
  2
ACADM_DIM_EDIT
 70
     0
  0
APPID
  5
108
330
9
100
AcDbSymbolTableRecord
100
AcDbRegAppTableRecord
  2
AMDT_DM_ADJ
 70
     0
  0
APPID
  5
46C
330
9
100
AcDbSymbolTableRecord
100
AcDbRegAppTableRecord
  2
AcAecLayerStandard
 70
     0
  0
APPID
  5
46D
330
9
100
AcDbSymbolTableRecord
100
AcDbRegAppTableRecord
  2
GENIUS_GENODEF_13
 70
     0
  0
APPID
  5
46E
330
9
100
AcDbSymbolTableRecord
100
AcDbRegAppTableRecord
  2
GENIUS_GENOBJ-N-CEN_13
 70
     0
  0
APPID
  5
46F
330
9
100
AcDbSymbolTableRecord
100
AcDbRegAppTableRecord
  2
GENIUS_GENCEN_19
 70
     0
  0
APPID
  5
470
330
9
100
AcDbSymbolTableRecord
100
AcDbRegAppTableRecord
  2
GENIUS_GENOENT_13
 70
     0
  0
APPID
  5
471
330
9
100
AcDbSymbolTableRecord
100
AcDbRegAppTableRecord
  2
GENIUS_GENOBJ-N-CRS_13
 70
     0
  0
APPID
  5
472
330
9
100
AcDbSymbolTableRecord
100
AcDbRegAppTableRecord
  2
GENIUS_GENOLIS_13
 70
     0
  0
APPID
  5
473
330
9
100
AcDbSymbolTableRecord
100
AcDbRegAppTableRecord
  2
GENIUS_GENOREF_13
 70
     0
  0
APPID
  5
474
330
9
100
AcDbSymbolTableRecord
100
AcDbRegAppTableRecord
  2
GENIUS_GENBLLY_14
 70
     0
  0
APPID
  5
475
330
9
100
AcDbSymbolTableRecord
100
AcDbRegAppTableRecord
  2
GENIUS_VERSION2
 70
     0
  0
APPID
  5
476
330
9
100
AcDbSymbolTableRecord
100
AcDbRegAppTableRecord
  2
GENIUS_GENREC_14
 70
     0
  0
APPID
  5
477
330
9
100
AcDbSymbolTableRecord
100
AcDbRegAppTableRecord
  2
GENIUS_GENOBJ-N-REC_13
 70
     0
  0
APPID
  5
478
330
9
100
AcDbSymbolTableRecord
100
AcDbRegAppTableRecord
  2
ACME_LAYERS
 70
     0
  0
APPID
  5
479
330
9
100
AcDbSymbolTableRecord
100
AcDbRegAppTableRecord
  2
GENIUS_GENFIL_13
 70
     0
  0
APPID
  5
47A
330
9
100
AcDbSymbolTableRecord
100
AcDbRegAppTableRecord
  2
GENIUS_GENOBJ-N-CHA_13
 70
     0
  0
APPID
  5
7ED
330
9
100
AcDbSymbolTableRecord
100
AcDbRegAppTableRecord
  2
ACAD_MLEADERVER
 70
     0
  0
APPID
  5
82D
330
9
100
AcDbSymbolTableRecord
100
AcDbRegAppTableRecord
  2
GENIUS_GENCFG_13
 70
     0
  0
APPID
  5
82E
330
9
100
AcDbSymbolTableRecord
100
AcDbRegAppTableRecord
  2
GENIUS_GENCFG0_13
 70
     0
  0
APPID
  5
82F
330
9
100
AcDbSymbolTableRecord
100
AcDbRegAppTableRecord
  2
GENIUS_GENCFG1_13
 70
     0
  0
APPID
  5
830
330
9
100
AcDbSymbolTableRecord
100
AcDbRegAppTableRecord
  2
GENIUS_GENCFG2_13
 70
     0
  0
APPID
  5
831
330
9
100
AcDbSymbolTableRecord
100
AcDbRegAppTableRecord
  2
GENIUS_GENCFG3_13
 70
     0
  0
APPID
  5
832
330
9
100
AcDbSymbolTableRecord
100
AcDbRegAppTableRecord
  2
GENIUS_GENCFG4_13
 70
     0
  0
APPID
  5
833
330
9
100
AcDbSymbolTableRecord
100
AcDbRegAppTableRecord
  2
GENIUS_GENCFG5_13
 70
     0
  0
APPID
  5
834
330
9
100
AcDbSymbolTableRecord
100
AcDbRegAppTableRecord
  2
GENIUS_GEVCFG0_13
 70
     0
  0
APPID
  5
8AF
330
9
100
AcDbSymbolTableRecord
100
AcDbRegAppTableRecord
  2
ACAD_EXEMPT_FROM_CAD_STANDARDS
 70
     0
  0
APPID
  5
956
330
9
100
AcDbSymbolTableRecord
100
AcDbRegAppTableRecord
  2
GENIUS_GENTRA_14
 70
     0
  0
APPID
  5
97B
330
9
100
AcDbSymbolTableRecord
100
AcDbRegAppTableRecord
  2
GENIUS_GENOBJ-N-TIT_13
 70
     0
  0
APPID
  5
97C
330
9
100
AcDbSymbolTableRecord
100
AcDbRegAppTableRecord
  2
GENIUS_GENTITLE_13
 70
     0
  0
APPID
  5
983
330
9
100
AcDbSymbolTableRecord
100
AcDbRegAppTableRecord
  2
GENIUS_GENSCREG_15
 70
     0
  0
APPID
  5
984
330
9
100
AcDbSymbolTableRecord
100
AcDbRegAppTableRecord
  2
GENIUS_GENOBJ-N-SDF_13
 70
     0
  0
APPID
  5
A72
330
9
100
AcDbSymbolTableRecord
100
AcDbRegAppTableRecord
  2
ACAD_DSTYLE_DIMINSPECT
 70
     0
  0
APPID
  5
BEB
330
9
100
AcDbSymbolTableRecord
100
AcDbRegAppTableRecord
  2
ACAD_PSEXT
 70
     0
  0
APPID
  5
1CAB
330
9
100
AcDbSymbolTableRecord
100
AcDbRegAppTableRecord
  2
GENIUS_GENDTOL_13
 70
     0
  0
APPID
  5
1CFB
330
9
100
AcDbSymbolTableRecord
100
AcDbRegAppTableRecord
  2
ACAD_DSTYLE_DIMANGULAR_EXTENSION
 70
     0
  0
APPID
  5
29DB
330
9
100
AcDbSymbolTableRecord
100
AcDbRegAppTableRecord
  2
GENIUS_AMGTXT_16
 70
     0
  0
APPID
  5
29EF
330
9
100
AcDbSymbolTableRecord
100
AcDbRegAppTableRecord
  2
GENIUS_GENOBJ-N-HTC_13
 70
     0
  0
APPID
  5
29F0
330
9
100
AcDbSymbolTableRecord
100
AcDbRegAppTableRecord
  2
GENIUS_GENHATCH_13
 70
     0
  0
APPID
  5
2B4B
330
9
100
AcDbSymbolTableRecord
100
AcDbRegAppTableRecord
  2
ACAD_DSTYLE_DIM_LINETYPE
 70
     0
  0
APPID
  5
2B4C
330
9
100
AcDbSymbolTableRecord
100
AcDbRegAppTableRecord
  2
ACAD_DSTYLE_DIM_EXT1_LINETYPE
 70
     0
  0
APPID
  5
2B4D
330
9
100
AcDbSymbolTableRecord
100
AcDbRegAppTableRecord
  2
ACAD_DSTYLE_DIM_EXT2_LINETYPE
 70
     0
  0
ENDTAB
  0
TABLE
  2
DIMSTYLE
  5
A
330
0
100
AcDbSymbolTable
 70
    28
100
AcDbDimStyleTable
 71
     2
340
70
340
463
  0
DIMSTYLE
105
70
330
A
100
AcDbSymbolTableRecord
100
AcDbDimStyleTableRecord
  2
AM_DIN
 70
     0
  4
"
 41
2.5
 42
1.0
 43
10.0
 44
1.0
 47
0.1
 48
0.1
 73
     0
 74
     0
 77
     1
 78
     8
 79
     2
140
3.5
141
0.0
143
0.0393701
146
0.71
147
1.5
172
     1
176
   256
177
   256
178
     2
271
     2
272
     3
274
     4
283
     0
284
     8
340
11
371
    -1
372
    -1
1001
ACAD_DSTYLE_DIMJOGGED_JOGANGLE_SYMBOL
1070
   384
1040
1.570796326794896
  0
DIMSTYLE
105
71
330
A
100
AcDbSymbolTableRecord
100
AcDbDimStyleTableRecord
  2
AM_DIN$3
 70
     0
  4
"
 41
2.5
 42
1.0
 43
10.0
 44
1.0
 47
0.1
 48
0.1
 73
     0
 77
     1
 78
     8
 79
     2
140
3.5
141
0.0
143
0.0393701
146
0.71
147
1.5
176
   256
177
   256
178
     2
271
     2
272
     3
274
     4
283
     0
284
     8
288
     1
289
     0
340
11
371
    -1
372
    -1
1001
ACAD_DSTYLE_DIMJOGGED_JOGANGLE_SYMBOL
1070
   384
1040
1.570796326794896
  0
DIMSTYLE
105
72
330
A
100
AcDbSymbolTableRecord
100
AcDbDimStyleTableRecord
  2
AM_DIN$4
 70
     0
  4
"
 41
2.5
 42
1.0
 43
10.0
 44
1.0
 47
0.1
 48
0.1
 73
     0
 77
     1
 78
     8
 79
     2
140
3.5
141
0.0
143
0.0393701
146
0.71
147
1.5
176
   256
177
   256
178
     2
271
     2
272
     3
274
     4
283
     0
284
     8
288
     1
289
     0
340
11
371
    -1
372
    -1
1001
ACAD_DSTYLE_DIMJOGGED_JOGANGLE_SYMBOL
1070
   384
1040
1.570796326794896
  0
DIMSTYLE
105
73
330
A
100
AcDbSymbolTableRecord
100
AcDbDimStyleTableRecord
  2
AM_DIN$6
 70
     0
  4
"
 41
2.5
 42
1.0
 43
10.0
 44
1.0
 47
0.1
 48
0.1
 73
     0
 74
     0
 78
     8
 79
     2
140
3.5
141
0.0
143
0.0393701
146
0.71
147
1.5
172
     1
176
   256
177
   256
178
     2
271
     2
272
     3
274
     4
283
     0
284
     8
340
11
371
    -1
372
    -1
1001
ACAD_DSTYLE_DIMJOGGED_JOGANGLE_SYMBOL
1070
   384
1040
1.570796326794896
  0
DIMSTYLE
105
74
330
A
100
AcDbSymbolTableRecord
100
AcDbDimStyleTableRecord
  2
AM_DIN$7
 70
     0
  4
"
 41
2.5
 42
1.0
 43
10.0
 44
1.0
 47
0.1
 48
0.1
 73
     0
 74
     0
 77
     1
 78
     8
 79
     2
140
5.0
141
0.0
143
0.0393701
146
0.71
147
1.5
172
     1
176
   256
177
   256
178
     2
271
     2
272
     3
274
     4
283
     0
284
     8
340
11
371
    -1
372
    -1
1001
ACAD_DSTYLE_DIMJOGGED_JOGANGLE_SYMBOL
1070
   384
1040
1.570796326794896
  0
DIMSTYLE
105
75
330
A
100
AcDbSymbolTableRecord
100
AcDbDimStyleTableRecord
  2
AM_DIN$SF
 70
     0
  4
"
 41
2.5
 42
1.0
 43
10.0
 44
1.0
 47
0.1
 48
0.1
 73
     0
 74
     0
 75
     1
 76
     1
 77
     1
 78
     8
 79
     2
140
3.5
141
0.0
143
0.0393701
146
0.71
147
1.5
172
     1
176
   256
177
   256
178
     2
271
     2
272
     3
274
     4
283
     0
284
     8
340
11
371
    -1
372
    -1
1001
ACAD_DSTYLE_DIMJOGGED_JOGANGLE_SYMBOL
1070
   384
1040
1.570796326794896
  0
DIMSTYLE
105
7A
330
A
100
AcDbSymbolTableRecord
100
AcDbDimStyleTableRecord
  2
AM_DIN$SH
 70
     0
  4
"
 41
2.5
 42
1.0
 43
10.0
 44
1.0
 47
0.1
 48
0.1
 73
     0
 74
     0
 75
     1
 76
     1
 77
     1
 78
     8
 79
     2
140
3.5
141
0.0
143
0.0393701
144
2.0
146
0.71
147
1.5
172
     1
173
     1
176
   256
177
   256
178
     2
271
     2
272
     3
274
     4
283
     0
284
     8
340
11
343
76
371
    -1
372
    -1
1001
ACAD_DSTYLE_DIMJOGGED_JOGANGLE_SYMBOL
1070
   384
1040
1.570796326794896
  0
DIMSTYLE
105
463
330
A
100
AcDbSymbolTableRecord
100
AcDbDimStyleTableRecord
  2
AM_ISO
 70
     0
  4
"
 41
2.5
 42
1.0
 43
10.0
 44
1.0
 47
0.1
 48
0.1
 73
     0
 74
     0
 77
     1
 78
     8
 79
     2
140
3.5
141
0.0
143
0.0393701
146
0.71
147
1.5
172
     1
176
   256
177
   256
178
     2
271
     2
272
     3
274
     4
283
     0
284
     8
340
11
371
    -1
372
    -1
1001
ACAD_DSTYLE_DIMJOGGED_JOGANGLE_SYMBOL
1070
   384
1040
0.7853981633974483
1001
ACAD_DSTYLE_DIMARC_LENGTH_SYMBOL
1070
   379
1070
     1
  0
DIMSTYLE
105
464
330
A
100
AcDbSymbolTableRecord
100
AcDbDimStyleTableRecord
  2
AM_ISO$3
 70
     0
  4
"
 41
2.5
 42
1.0
 43
10.0
 44
1.0
 47
0.1
 48
0.1
 73
     0
 77
     1
 78
     8
 79
     2
140
3.5
141
0.0
143
0.0393701
146
0.71
147
1.5
176
   256
177
   256
178
     2
271
     2
272
     3
274
     4
283
     0
284
     8
288
     1
289
     0
340
11
371
    -1
372
    -1
1001
ACAD_DSTYLE_DIMJOGGED_JOGANGLE_SYMBOL
1070
   384
1040
0.7853981633974483
1001
ACAD_DSTYLE_DIMARC_LENGTH_SYMBOL
1070
   379
1070
     1
  0
DIMSTYLE
105
465
330
A
100
AcDbSymbolTableRecord
100
AcDbDimStyleTableRecord
  2
AM_ISO$4
 70
     0
  4
"
 41
2.5
 42
1.0
 43
10.0
 44
1.0
 47
0.1
 48
0.1
 73
     0
 77
     1
 78
     8
 79
     2
140
3.5
141
0.0
143
0.0393701
146
0.71
147
1.5
176
   256
177
   256
178
     2
271
     2
272
     3
274
     4
283
     0
284
     8
288
     1
289
     0
340
11
371
    -1
372
    -1
1001
ACAD_DSTYLE_DIMJOGGED_JOGANGLE_SYMBOL
1070
   384
1040
0.7853981633974483
1001
ACAD_DSTYLE_DIMARC_LENGTH_SYMBOL
1070
   379
1070
     1
  0
DIMSTYLE
105
466
330
A
100
AcDbSymbolTableRecord
100
AcDbDimStyleTableRecord
  2
AM_ISO$6
 70
     0
  4
"
 41
2.5
 42
1.0
 43
10.0
 44
1.0
 47
0.1
 48
0.1
 73
     0
 74
     0
 78
     8
 79
     2
140
3.5
141
0.0
143
0.0393701
146
0.71
147
1.5
172
     1
176
   256
177
   256
178
     2
271
     2
272
     3
274
     4
283
     0
284
     8
340
11
371
    -1
372
    -1
1001
ACAD_DSTYLE_DIMJOGGED_JOGANGLE_SYMBOL
1070
   384
1040
0.7853981633974483
1001
ACAD_DSTYLE_DIMARC_LENGTH_SYMBOL
1070
   379
1070
     1
  0
DIMSTYLE
105
467
330
A
100
AcDbSymbolTableRecord
100
AcDbDimStyleTableRecord
  2
AM_ISO$7
 70
     0
  4
"
 41
2.5
 42
1.0
 43
10.0
 44
1.0
 47
0.1
 48
0.1
 73
     0
 74
     0
 77
     1
 78
     8
 79
     2
140
5.0
141
0.0
143
0.0393701
146
0.71
147
1.5
172
     1
176
   256
177
   256
178
     2
271
     2
272
     3
274
     4
283
     0
284
     8
340
11
371
    -1
372
    -1
1001
ACAD_DSTYLE_DIMJOGGED_JOGANGLE_SYMBOL
1070
   384
1040
0.7853981633974483
1001
ACAD_DSTYLE_DIMARC_LENGTH_SYMBOL
1070
   379
1070
     1
  0
DIMSTYLE
105
468
330
A
100
AcDbSymbolTableRecord
100
AcDbDimStyleTableRecord
  2
AM_ISO$SF
 70
     0
  4
"
 41
2.5
 42
1.0
 43
10.0
 44
1.0
 47
0.1
 48
0.1
 73
     0
 74
     0
 75
     1
 76
     1
 77
     1
 78
     8
 79
     2
140
3.5
141
0.0
143
0.0393701
146
0.71
147
1.5
172
     1
176
   256
177
   256
178
     2
271
     2
272
     3
274
     4
283
     0
284
     8
340
11
371
    -1
372
    -1
1001
ACAD_DSTYLE_DIMJOGGED_JOGANGLE_SYMBOL
1070
   384
1040
0.7853981633974483
1001
ACAD_DSTYLE_DIMARC_LENGTH_SYMBOL
1070
   379
1070
     1
  0
DIMSTYLE
105
469
330
A
100
AcDbSymbolTableRecord
100
AcDbDimStyleTableRecord
  2
AM_ISO$SH
 70
     0
  4
"
 41
2.5
 42
1.0
 43
10.0
 44
1.0
 47
0.1
 48
0.1
 73
     0
 74
     0
 75
     1
 76
     1
 77
     1
 78
     8
 79
     2
140
3.5
141
0.0
143
0.0393701
144
2.0
146
0.71
147
1.5
172
     1
173
     1
176
   256
177
   256
178
     2
271
     2
272
     3
274
     4
283
     0
284
     8
340
11
343
76
371
    -1
372
    -1
1001
ACAD_DSTYLE_DIMJOGGED_JOGANGLE_SYMBOL
1070
   384
1040
0.7853981633974483
1001
ACAD_DSTYLE_DIMARC_LENGTH_SYMBOL
1070
   379
1070
     1
  0
DIMSTYLE
105
46A
330
A
100
AcDbSymbolTableRecord
100
AcDbDimStyleTableRecord
  2
AM_ISO$0
 70
     0
  4
"
 40
3.0
 41
2.5
 42
1.0
 43
10.0
 44
1.0
 47
0.1
 48
0.1
 73
     0
 74
     0
 77
     1
 78
     8
 79
     2
140
3.5
141
0.0
143
0.0393701
146
0.71
147
1.5
172
     1
176
   256
177
   256
178
     2
271
     2
272
     2
283
     0
284
     8
340
11
371
    -1
372
    -1
1001
ACAD_DSTYLE_DIMJOGGED_JOGANGLE_SYMBOL
1070
   384
1040
0.7853981633974483
1001
ACAD_DSTYLE_DIMARC_LENGTH_SYMBOL
1070
   379
1070
     1
  0
DIMSTYLE
105
46B
330
A
100
AcDbSymbolTableRecord
100
AcDbDimStyleTableRecord
  2
AM_ISO$2
 70
     0
  4
"
 40
3.0
 41
2.5
 42
1.0
 43
10.0
 44
1.0
 47
0.1
 48
0.1
 73
     0
 74
     0
 77
     1
 78
     8
 79
     2
140
3.5
141
0.0
143
0.0393701
146
0.71
147
1.5
172
     1
176
   256
177
   256
178
     2
271
     2
272
     2
283
     0
284
     8
340
11
371
    -1
372
    -1
1001
ACAD_DSTYLE_DIMJOGGED_JOGANGLE_SYMBOL
1070
   384
1040
0.7853981633974483
1001
ACAD_DSTYLE_DIMARC_LENGTH_SYMBOL
1070
   379
1070
     1
  0
DIMSTYLE
105
725
102
{ACAD_REACTORS
330
26C2
330
26CF
330
26DD
330
26E0
330
26E3
330
270A
330
270B
330
270C
330
2714
330
2716
102
}
330
A
100
AcDbSymbolTableRecord
100
AcDbDimStyleTableRecord
  2
AM_DIN$0
 70
     0
  4
"
 41
2.5
 42
1.0
 43
10.0
 44
1.0
 47
0.1
 48
0.1
 73
     0
 74
     0
 77
     1
 78
     8
 79
     2
140
3.5
141
0.0
143
0.0393701
146
0.71
147
1.5
172
     1
176
   256
177
   256
178
     2
271
     2
272
     3
274
     4
283
     0
284
     8
340
11
371
    -1
372
    -1
1001
ACAD_DSTYLE_DIMJOGGED_JOGANGLE_SYMBOL
1070
   384
1040
1.570796326794896
  0
DIMSTYLE
105
82B
330
A
100
AcDbSymbolTableRecord
100
AcDbDimStyleTableRecord
  2
GEN-ISO
 70
     0
 41
2.5
 42
1.0
 43
7.0
 44
1.0
 47
0.1
 48
0.1
 73
     0
 74
     0
 77
     1
 78
     8
140
3.5
141
0.0
143
0.0393701
146
0.71
147
0.6
172
     1
176
   256
177
   256
178
     2
271
     2
272
     3
274
     4
283
     0
340
11
  0
DIMSTYLE
105
82C
330
A
100
AcDbSymbolTableRecord
100
AcDbDimStyleTableRecord
  2
ISO-25
 70
     0
 41
2.5
 42
0.625
 43
3.75
 44
1.25
 74
     0
 77
     1
 78
     8
140
2.5
141
2.5
143
0.0394
145
1.0
147
0.625
172
     1
340
11
  0
DIMSTYLE
105
8A7
330
A
100
AcDbSymbolTableRecord
100
AcDbDimStyleTableRecord
  2
STANDARD
 70
     0
340
11
  0
DIMSTYLE
105
8A8
102
{ACAD_REACTORS
330
93D
102
}
330
A
100
AcDbSymbolTableRecord
100
AcDbDimStyleTableRecord
  2
AM_ANSI
 70
     0
  4
mm
 41
0.1
 42
0.05
 43
0.5
 44
0.1
 47
0.1
 48
0.1
 78
     7
 79
     2
140
0.12
141
0.0
146
0.71
147
0.06
176
   256
177
   256
178
     2
274
     4
284
     7
340
11
371
    -1
372
    -1
1001
ACAD_DSTYLE_DIMJOGGED_JOGANGLE_SYMBOL
1070
   384
1040
0.7853981633974483
1001
ACAD_DSTYLE_DIMARC_LENGTH_SYMBOL
1070
   379
1070
     1
  0
DIMSTYLE
105
8A9
330
A
100
AcDbSymbolTableRecord
100
AcDbDimStyleTableRecord
  2
AM_ANSI$3
 70
     0
  4
mm
 41
0.1
 42
0.05
 43
0.5
 44
0.1
 47
0.1
 48
0.1
 78
     7
 79
     2
140
0.12
141
0.0
146
0.71
147
0.06
176
   256
177
   256
178
     2
274
     4
284
     7
288
     1
289
     0
340
11
371
    -1
372
    -1
1001
ACAD_DSTYLE_DIMJOGGED_JOGANGLE_SYMBOL
1070
   384
1040
0.7853981633974483
1001
ACAD_DSTYLE_DIMARC_LENGTH_SYMBOL
1070
   379
1070
     1
  0
DIMSTYLE
105
8AA
330
A
100
AcDbSymbolTableRecord
100
AcDbDimStyleTableRecord
  2
AM_ANSI$4
 70
     0
  4
mm
 41
0.1
 42
0.05
 43
0.5
 44
0.1
 47
0.1
 48
0.1
 78
     7
 79
     2
140
0.12
141
0.0
146
0.71
147
0.06
176
   256
177
   256
178
     2
274
     4
284
     7
288
     1
289
     0
340
11
371
    -1
372
    -1
1001
ACAD_DSTYLE_DIMJOGGED_JOGANGLE_SYMBOL
1070
   384
1040
0.7853981633974483
1001
ACAD_DSTYLE_DIMARC_LENGTH_SYMBOL
1070
   379
1070
     1
  0
DIMSTYLE
105
8AB
330
A
100
AcDbSymbolTableRecord
100
AcDbDimStyleTableRecord
  2
AM_ANSI$7
 70
     0
  4
mm
 41
0.1
 42
0.05
 43
0.5
 44
0.1
 47
0.1
 48
0.1
 78
     7
 79
     2
140
0.24
141
0.0
146
0.71
147
0.06
176
   256
177
   256
178
     2
274
     4
284
     7
340
11
371
    -1
372
    -1
1001
ACAD_DSTYLE_DIMJOGGED_JOGANGLE_SYMBOL
1070
   384
1040
0.7853981633974483
1001
ACAD_DSTYLE_DIMARC_LENGTH_SYMBOL
1070
   379
1070
     1
  0
DIMSTYLE
105
8AC
330
A
100
AcDbSymbolTableRecord
100
AcDbDimStyleTableRecord
  2
AM_ANSI$SF
 70
     0
  4
mm
 41
0.1
 42
0.05
 43
0.5
 44
0.1
 47
0.1
 48
0.1
 75
     1
 76
     1
 78
     7
 79
     2
140
0.12
141
0.0
146
0.71
147
0.06
176
   256
177
   256
178
     2
274
     4
284
     7
340
11
371
    -1
372
    -1
1001
ACAD_DSTYLE_DIMJOGGED_JOGANGLE_SYMBOL
1070
   384
1040
0.7853981633974483
1001
ACAD_DSTYLE_DIMARC_LENGTH_SYMBOL
1070
   379
1070
     1
  0
DIMSTYLE
105
8AD
330
A
100
AcDbSymbolTableRecord
100
AcDbDimStyleTableRecord
  2
AM_ANSI$SH
 70
     0
  4
mm
 41
0.1
 42
0.05
 43
0.5
 44
0.1
 47
0.1
 48
0.1
 75
     1
 76
     1
 78
     7
 79
     2
140
0.12
141
0.0
146
0.71
147
0.06
173
     1
176
   256
177
   256
178
     2
274
     4
284
     7
340
11
343
76
371
    -1
372
    -1
1001
ACAD_DSTYLE_DIMJOGGED_JOGANGLE_SYMBOL
1070
   384
1040
0.7853981633974483
1001
ACAD_DSTYLE_DIMARC_LENGTH_SYMBOL
1070
   379
1070
     1
  0
DIMSTYLE
105
8AE
330
A
100
AcDbSymbolTableRecord
100
AcDbDimStyleTableRecord
  2
GEN-ISO$0
 70
     0
  3
<>
  4
<>
 40
25.0
 41
2.0
 42
1.0
 43
7.0
 44
1.0
 47
0.1
 48
0.1
 77
     1
 78
     8
140
3.0
141
0.0
143
0.0393701
146
0.71
147
0.6
172
     1
176
   256
177
   256
178
     2
271
     2
272
     3
274
     4
283
     0
340
11
  0
DIMSTYLE
105
D01
102
{ACAD_REACTORS
330
4D
330
2715
102
}
330
A
100
AcDbSymbolTableRecord
100
AcDbDimStyleTableRecord
  2
AM_DIN$2
 70
     0
  4
"
 41
3.5
 42
1.0
 43
10.0
 44
1.0
 47
0.1
 48
0.1
 73
     0
 74
     0
 77
     1
 78
     8
 79
     2
140
3.5
141
0.0
143
0.0393701
146
0.71
147
1.5
172
     1
176
   256
177
   256
178
     2
271
     2
272
     3
274
     4
283
     0
284
     8
340
11
371
    -1
372
    -1
1001
ACAD_DSTYLE_DIMJOGGED_JOGANGLE_SYMBOL
1070
   384
1040
1.570796326794896
1001
ACAD_DSTYLE_DIM_LINETYPE
1070
   380
1005
14
1001
ACAD_DSTYLE_DIM_EXT1_LINETYPE
1070
   381
1005
14
1001
ACAD_DSTYLE_DIM_EXT2_LINETYPE
1070
   382
1005
14
  0
ENDTAB
  0
TABLE
  2
BLOCK_RECORD
  5
1
330
0
100
AcDbSymbolTable
 70
    23
  0
BLOCK_RECORD
  5
1F
102
{ACAD_XDICTIONARY
360
81
102
}
330
1
100
AcDbSymbolTableRecord
100
AcDbBlockTableRecord
  2
*Model_Space
340
22
  0
BLOCK_RECORD
  5
1B
330
1
100
AcDbSymbolTableRecord
100
AcDbBlockTableRecord
  2
*Paper_Space
340
1E
  0
BLOCK_RECORD
  5
23
330
1
100
AcDbSymbolTableRecord
100
AcDbBlockTableRecord
  2
*Paper_Space0
340
26
  0
BLOCK_RECORD
  5
76
330
1
100
AcDbSymbolTableRecord
100
AcDbBlockTableRecord
  2
GENAXEH
340
0
  0
BLOCK_RECORD
  5
835
330
1
100
AcDbSymbolTableRecord
100
AcDbBlockTableRecord
  2
ACO_A3
340
0
  0
BLOCK_RECORD
  5
8B0
102
{ACAD_XDICTIONARY
360
938
102
}
330
1
100
AcDbSymbolTableRecord
100
AcDbBlockTableRecord
  2
ACO-SF02-GR
340
0
  0
BLOCK_RECORD
  5
989
330
1
100
AcDbSymbolTableRecord
100
AcDbBlockTableRecord
  2
ACO_A2
340
0
  0
BLOCK_RECORD
  5
128F
102
{ACAD_XDICTIONARY
360
133F
102
}
330
1
100
AcDbSymbolTableRecord
100
AcDbBlockTableRecord
  2
A$C5DDC2E70
340
0
1001
ACAD
1000
DesignCenter Data
1002
{
1070
     1
1070
     4
1002
}
  0
BLOCK_RECORD
  5
271C
330
1
100
AcDbSymbolTableRecord
100
AcDbBlockTableRecord
  2
*D7
340
0
  0
BLOCK_RECORD
  5
272C
330
1
100
AcDbSymbolTableRecord
100
AcDbBlockTableRecord
  2
*D8
340
0
  0
BLOCK_RECORD
  5
2734
330
1
100
AcDbSymbolTableRecord
100
AcDbBlockTableRecord
  2
*D9
340
0
  0
BLOCK_RECORD
  5
2744
330
1
100
AcDbSymbolTableRecord
100
AcDbBlockTableRecord
  2
*D10
340
0
  0
BLOCK_RECORD
  5
2750
330
1
100
AcDbSymbolTableRecord
100
AcDbBlockTableRecord
  2
*D11
340
0
  0
BLOCK_RECORD
  5
275C
330
1
100
AcDbSymbolTableRecord
100
AcDbBlockTableRecord
  2
*D12
340
0
  0
BLOCK_RECORD
  5
2768
330
1
100
AcDbSymbolTableRecord
100
AcDbBlockTableRecord
  2
*D13
340
0
  0
BLOCK_RECORD
  5
2778
330
1
100
AcDbSymbolTableRecord
100
AcDbBlockTableRecord
  2
*D14
340
0
  0
BLOCK_RECORD
  5
2786
330
1
100
AcDbSymbolTableRecord
100
AcDbBlockTableRecord
  2
*D15
340
0
  0
BLOCK_RECORD
  5
2794
330
1
100
AcDbSymbolTableRecord
100
AcDbBlockTableRecord
  2
*D16
340
0
  0
BLOCK_RECORD
  5
27A2
330
1
100
AcDbSymbolTableRecord
100
AcDbBlockTableRecord
  2
*D17
340
0
  0
BLOCK_RECORD
  5
27B2
330
1
100
AcDbSymbolTableRecord
100
AcDbBlockTableRecord
  2
*D18
340
0
  0
BLOCK_RECORD
  5
27C3
330
1
100
AcDbSymbolTableRecord
100
AcDbBlockTableRecord
  2
*D19
340
0
  0
BLOCK_RECORD
  5
27CF
330
1
100
AcDbSymbolTableRecord
100
AcDbBlockTableRecord
  2
*D20
340
0
  0
BLOCK_RECORD
  5
2B10
330
1
100
AcDbSymbolTableRecord
100
AcDbBlockTableRecord
  2
*S21
340
0
  0
BLOCK_RECORD
  5
2B23
330
1
100
AcDbSymbolTableRecord
100
AcDbBlockTableRecord
  2
*S22
340
0
  0
ENDTAB
  0
ENDSEC
  0
SECTION
  2
BLOCKS
  0
BLOCK
  5
20
330
1F
100
AcDbEntity
  8
0
100
AcDbBlockBegin
  2
*Model_Space
 70
     0
 10
0.0
 20
0.0
 30
0.0
  3
*Model_Space
  1

  0
ENDBLK
  5
21
330
1F
100
AcDbEntity
  8
0
100
AcDbBlockEnd
  0
BLOCK
  5
1C
330
1B
100
AcDbEntity
 67
     1
  8
0
100
AcDbBlockBegin
  2
*Paper_Space
 70
     0
 10
0.0
 20
0.0
 30
0.0
  3
*Paper_Space
  1

  0
ENDBLK
  5
1D
330
1B
100
AcDbEntity
 67
     1
  8
0
100
AcDbBlockEnd
  0
BLOCK
  5
24
330
23
100
AcDbEntity
 67
     1
  8
0
100
AcDbBlockBegin
  2
*Paper_Space0
 70
     0
 10
0.0
 20
0.0
 30
0.0
  3
*Paper_Space0
  1

  0
ENDBLK
  5
25
330
23
100
AcDbEntity
 67
     1
  8
0
100
AcDbBlockEnd
  0
BLOCK
  5
78
330
76
100
AcDbEntity
  8
0
100
AcDbBlockBegin
  2
GENAXEH
 70
     0
 10
0.0
 20
0.0
 30
0.0
  3
GENAXEH
  1

  0
LINE
  5
77
330
76
100
AcDbEntity
  8
0
100
AcDbLine
 10
-1.0
 20
0.0
 30
0.0
 11
1.0
 21
0.0
 31
0.0
  0
ENDBLK
  5
79
330
76
100
AcDbEntity
  8
0
100
AcDbBlockEnd
  0
BLOCK
  5
876
330
835
100
AcDbEntity
  8
0
100
AcDbBlockBegin
  2
ACO_A3
 70
     0
 10
0.0
 20
0.0
 30
0.0
  3
ACO_A3
  1

  0
LINE
  5
836
330
835
100
AcDbEntity
  8
AM_BOR
 62
     1
370
    25
100
AcDbLine
 10
420.0
 20
297.0
 30
0.0
 11
419.9999999999999
 21
0.0
 31
0.0
  0
LINE
  5
837
330
835
100
AcDbEntity
  8
AM_BOR
 62
     1
370
    25
100
AcDbLine
 10
230.0
 20
5.00000000000005
 30
0.0
 11
230.0
 21
0.0000000000000233
 31
0.0
  0
LINE
  5
838
330
835
100
AcDbEntity
  8
AM_BOR
 62
     1
370
    25
100
AcDbLine
 10
157.12
 20
10.00000000000003
 30
0.0
 11
9.999999999999943
 21
10.00000000000005
 31
0.0
  0
TEXT
  5
839
330
835
100
AcDbEntity
  8
AM_BOR
 62
     1
370
    25
100
AcDbText
 10
411.0
 20
262.0
 30
0.0
 40
4.0
  1
A
100
AcDbText
  0
TEXT
  5
83A
330
835
100
AcDbEntity
  8
AM_BOR
 62
     1
370
    25
100
AcDbText
 10
411.0
 20
216.0
 30
0.0
 40
4.0
  1
B
100
AcDbText
  0
TEXT
  5
83B
330
835
100
AcDbEntity
  8
AM_BOR
 62
     1
370
    25
100
AcDbText
 10
411.0
 20
170.0
 30
0.0
 40
4.0
  1
C
100
AcDbText
  0
TEXT
  5
83C
330
835
100
AcDbEntity
  8
AM_BOR
 62
     1
370
    25
100
AcDbText
 10
411.0
 20
123.0
 30
0.0
 40
4.0
  1
D
100
AcDbText
  0
TEXT
  5
83D
330
835
100
AcDbEntity
  8
AM_BOR
 62
     1
370
    25
100
AcDbText
 10
411.0
 20
77.0
 30
0.0
 40
4.0
  1
E
100
AcDbText
  0
TEXT
  5
83E
330
835
100
AcDbEntity
  8
AM_BOR
 62
     1
370
    25
100
AcDbText
 10
411.0
 20
31.0
 30
0.0
 40
4.0
  1
F
100
AcDbText
  0
LINE
  5
83F
330
835
100
AcDbEntity
  8
AM_BOR
 62
     1
370
    25
100
AcDbLine
 10
415.0
 20
240.83
 30
0.0
 11
410.0
 21
240.83
 31
0.0
  0
LINE
  5
840
330
835
100
AcDbEntity
  8
AM_BOR
 62
     1
370
    25
100
AcDbLine
 10
415.0
 20
194.664
 30
0.0
 11
410.0
 21
194.664
 31
0.0
  0
LINE
  5
841
330
835
100
AcDbEntity
  8
AM_BOR
 62
     1
370
    25
100
AcDbLine
 10
415.0
 20
148.498
 30
0.0
 11
410.0
 21
148.498
 31
0.0
  0
LINE
  5
842
330
835
100
AcDbEntity
  8
AM_BOR
 62
     1
370
    25
100
AcDbLine
 10
415.0
 20
102.332
 30
0.0
 11
410.0
 21
102.332
 31
0.0
  0
LINE
  5
843
330
835
100
AcDbEntity
  8
AM_BOR
 62
     1
370
    25
100
AcDbLine
 10
415.0
 20
56.166
 30
0.0
 11
410.0
 21
56.166
 31
0.0
  0
LINE
  5
844
330
835
100
AcDbEntity
  8
AM_BOR
 62
     1
370
    25
100
AcDbLine
 10
60.0
 20
291.9999999999999
 30
0.0
 11
60.0
 21
287.0
 31
0.0
  0
LINE
  5
845
330
835
100
AcDbEntity
  8
AM_BOR
 62
     1
370
    25
100
AcDbLine
 10
110.0
 20
291.9999999999999
 30
0.0
 11
110.0
 21
287.0
 31
0.0
  0
LINE
  5
846
330
835
100
AcDbEntity
  8
AM_BOR
 62
     1
370
    25
100
AcDbLine
 10
160.0
 20
291.9999999999999
 30
0.0
 11
160.0
 21
287.0
 31
0.0
  0
LINE
  5
847
330
835
100
AcDbEntity
  8
AM_BOR
 62
     1
370
    25
100
AcDbLine
 10
210.0
 20
291.9999999999999
 30
0.0
 11
210.0
 21
287.0
 31
0.0
  0
LINE
  5
848
330
835
100
AcDbEntity
  8
AM_BOR
 62
     1
370
    25
100
AcDbLine
 10
260.0
 20
291.9999999999999
 30
0.0
 11
260.0
 21
287.0
 31
0.0
  0
LINE
  5
849
330
835
100
AcDbEntity
  8
AM_BOR
 62
     1
370
    25
100
AcDbLine
 10
310.0
 20
291.9999999999999
 30
0.0
 11
310.0
 21
287.0
 31
0.0
  0
LINE
  5
84A
330
835
100
AcDbEntity
  8
AM_BOR
 62
     1
370
    25
100
AcDbLine
 10
360.0
 20
291.9999999999999
 30
0.0
 11
360.0
 21
287.0
 31
0.0
  0
TEXT
  5
84B
330
835
100
AcDbEntity
  8
AM_BOR
 62
     1
370
    25
100
AcDbText
 10
384.0
 20
287.5
 30
0.0
 40
4.0
  1
8
100
AcDbText
  0
TEXT
  5
84C
330
835
100
AcDbEntity
  8
AM_BOR
 62
     1
370
    25
100
AcDbText
 10
334.0
 20
287.5
 30
0.0
 40
4.0
  1
7
100
AcDbText
  0
TEXT
  5
84D
330
835
100
AcDbEntity
  8
AM_BOR
 62
     1
370
    25
100
AcDbText
 10
284.0
 20
287.5
 30
0.0
 40
4.0
  1
6
100
AcDbText
  0
TEXT
  5
84E
330
835
100
AcDbEntity
  8
AM_BOR
 62
     1
370
    25
100
AcDbText
 10
233.5
 20
287.5
 30
0.0
 40
4.0
  1
5
100
AcDbText
  0
TEXT
  5
84F
330
835
100
AcDbEntity
  8
AM_BOR
 62
     1
370
    25
100
AcDbText
 10
183.5
 20
287.5
 30
0.0
 40
4.0
  1
4
100
AcDbText
  0
TEXT
  5
850
330
835
100
AcDbEntity
  8
AM_BOR
 62
     1
370
    25
100
AcDbText
 10
133.5
 20
287.5
 30
0.0
 40
4.0
  1
3
100
AcDbText
  0
TEXT
  5
851
330
835
100
AcDbEntity
  8
AM_BOR
 62
     1
370
    25
100
AcDbText
 10
83.49999999999999
 20
287.5
 30
0.0
 40
4.0
  1
2
100
AcDbText
  0
TEXT
  5
852
330
835
100
AcDbEntity
  8
AM_BOR
 62
     1
370
    25
100
AcDbText
 10
33.5
 20
287.5
 30
0.0
 40
4.0
  1
1
100
AcDbText
  0
TEXT
  5
853
330
835
100
AcDbEntity
  8
AM_BOR
 62
     1
370
    25
100
AcDbText
 10
33.5
 20
5.5
 30
0.0
 40
4.0
  1
1
100
AcDbText
  0
TEXT
  5
854
330
835
100
AcDbEntity
  8
AM_BOR
 62
     1
370
    25
100
AcDbText
 10
83.49999999999999
 20
5.5
 30
0.0
 40
4.0
  1
2
100
AcDbText
  0
TEXT
  5
855
330
835
100
AcDbEntity
  8
AM_BOR
 62
     1
370
    25
100
AcDbText
 10
133.5
 20
5.5
 30
0.0
 40
4.0
  1
3
100
AcDbText
  0
TEXT
  5
856
330
835
100
AcDbEntity
  8
AM_BOR
 62
     1
370
    25
100
AcDbText
 10
6.0
 20
262.0
 30
0.0
 40
4.0
  1
A
100
AcDbText
  0
TEXT
  5
857
330
835
100
AcDbEntity
  8
AM_BOR
 62
     1
370
    25
100
AcDbText
 10
6.0
 20
216.0
 30
0.0
 40
4.0
  1
B
100
AcDbText
  0
TEXT
  5
858
330
835
100
AcDbEntity
  8
AM_BOR
 62
     1
370
    25
100
AcDbText
 10
6.0
 20
170.0
 30
0.0
 40
4.0
  1
C
100
AcDbText
  0
TEXT
  5
859
330
835
100
AcDbEntity
  8
AM_BOR
 62
     1
370
    25
100
AcDbText
 10
6.0
 20
123.0
 30
0.0
 40
4.0
  1
D
100
AcDbText
  0
TEXT
  5
85A
330
835
100
AcDbEntity
  8
AM_BOR
 62
     1
370
    25
100
AcDbText
 10
6.0
 20
77.0
 30
0.0
 40
4.0
  1
E
100
AcDbText
  0
TEXT
  5
85B
330
835
100
AcDbEntity
  8
AM_BOR
 62
     1
370
    25
100
AcDbText
 10
6.0
 20
31.0
 30
0.0
 40
4.0
  1
F
100
AcDbText
  0
LINE
  5
85C
330
835
100
AcDbEntity
  8
AM_BOR
 62
     1
370
    25
100
AcDbLine
 10
110.0
 20
10.0
 30
0.0
 11
110.0
 21
5.0
 31
0.0
  0
LINE
  5
85D
330
835
100
AcDbEntity
  8
AM_BOR
 62
     1
370
    25
100
AcDbLine
 10
60.0
 20
10.0
 30
0.0
 11
60.0
 21
5.0
 31
0.0
  0
LINE
  5
85E
330
835
100
AcDbEntity
  8
AM_BOR
 62
     1
370
    25
100
AcDbLine
 10
10.0
 20
240.83
 30
0.0
 11
5.0
 21
240.83
 31
0.0
  0
LINE
  5
85F
330
835
100
AcDbEntity
  8
AM_BOR
 62
     1
370
    25
100
AcDbLine
 10
10.0
 20
194.664
 30
0.0
 11
5.0
 21
194.664
 31
0.0
  0
LINE
  5
860
330
835
100
AcDbEntity
  8
AM_BOR
 62
     1
370
    25
100
AcDbLine
 10
10.0
 20
148.498
 30
0.0
 11
5.0
 21
148.498
 31
0.0
  0
LINE
  5
861
330
835
100
AcDbEntity
  8
AM_BOR
 62
     1
370
    25
100
AcDbLine
 10
10.0
 20
102.332
 30
0.0
 11
5.0
 21
102.332
 31
0.0
  0
LINE
  5
862
330
835
100
AcDbEntity
  8
AM_BOR
 62
     1
370
    25
100
AcDbLine
 10
10.0
 20
56.166
 30
0.0
 11
5.0
 21
56.166
 31
0.0
  0
LINE
  5
863
330
835
100
AcDbEntity
  8
AM_BOR
 62
     1
370
    25
100
AcDbLine
 10
410.0
 20
287.0
 30
0.0
 11
409.9999999999999
 21
5.0
 31
0.0
  0
LINE
  5
864
330
835
100
AcDbEntity
  8
AM_BOR
 62
     1
370
    25
100
AcDbLine
 10
10.00000000000001
 20
287.0
 30
0.0
 11
410.0
 21
287.0
 31
0.0
  0
LINE
  5
865
330
835
100
AcDbEntity
  8
AM_BOR
 62
     1
370
    25
100
AcDbLine
 10
10.0
 20
10.0
 30
0.0
 11
10.00000000000001
 21
287.0
 31
0.0
  0
LINE
  5
866
330
835
100
AcDbEntity
  8
0
100
AcDbLine
 10
414.9999999999999
 20
5.0
 30
0.0
 11
4.999999999999943
 21
5.00000000000005
 31
0.0
  0
LINE
  5
867
330
835
100
AcDbEntity
  8
0
100
AcDbLine
 10
415.0
 20
292.0
 30
0.0
 11
414.9999999999999
 21
5.0
 31
0.0
  0
LINE
  5
868
330
835
100
AcDbEntity
  8
0
100
AcDbLine
 10
5.000000000000017
 20
292.0
 30
0.0
 11
415.0
 21
292.0
 31
0.0
  0
LINE
  5
869
330
835
100
AcDbEntity
  8
AM_BOR
 62
     1
370
    25
100
AcDbLine
 10
0.0000000000000182
 20
297.0
 30
0.0
 11
420.0
 21
297.0
 31
0.0
  0
LINE
  5
86A
330
835
100
AcDbEntity
  8
AM_BOR
 62
     1
370
    25
100
AcDbLine
 10
0.0
 20
0.0
 30
0.0
 11
0.0000000000000182
 21
297.0
 31
0.0
  0
LINE
  5
86B
330
835
100
AcDbEntity
  8
AM_BOR
 62
     1
370
    25
100
AcDbLine
 10
125.0
 20
0.0000000000000514
 30
0.0
 11
125.0
 21
5.000000000000035
 31
0.0
  0
TEXT
  5
86C
330
835
100
AcDbEntity
  8
0
 60
     1
100
AcDbText
 10
420.0
 20
297.0
 30
0.0
 40
2.0
  1
!GENTITLE-MAX
100
AcDbText
  0
TEXT
  5
86D
330
835
100
AcDbEntity
  8
0
 60
     1
100
AcDbText
 10
410.0
 20
287.0
 30
0.0
 40
2.0
  1
!GENTITLE-RU
100
AcDbText
  0
TEXT
  5
86E
330
835
100
AcDbEntity
  8
0
 60
     1
100
AcDbText
 10
409.9999999999999
 20
5.0
 30
0.0
 40
2.0
  1
!GENTITLE-INSERT
100
AcDbText
  0
TEXT
  5
86F
330
835
100
AcDbEntity
  8
0
 60
     1
100
AcDbText
 10
10.0
 20
10.00000000000005
 30
0.0
 40
2.0
  1
!GENTITLE-LL
100
AcDbText
  0
LINE
  5
870
330
835
100
AcDbEntity
  8
0
100
AcDbLine
 10
5.0
 20
5.0
 30
0.0
 11
5.000000000000017
 21
292.0
 31
0.0
  0
LINE
  5
871
330
835
100
AcDbEntity
  8
AM_BOR
 62
     1
370
    25
100
AcDbLine
 10
419.9999999999999
 20
0.0
 30
0.0
 11
-0.0000000000000568
 21
0.0000000000000514
 31
0.0
1001
GENIUS_VERSION2
1070
     2
  0
MTEXT
  5
872
330
835
100
AcDbEntity
  8
RAHM2
100
AcDbMText
 10
200.9022607207866
 20
9.282855530033319
 30
0.0
 40
2.5
 41
51.25
 71
     5
 72
     5
  1
{\f@Arial Unicode MS|b0|i0|c0|p34;\W0.9;ACO Passavant GmbH\f@Arial Unicode MS|b0|i1|c0|p34;\P\Fgeniso|c0;\H0.72x;\W1;Schutzvermerk nach DIN 34}
 73
     1
 44
1.0
1001
ACAD
1000
MTEXTBEGIN
1070
    73
1070
     1
1070
    44
1040
1.0
1070
    74
1070
     0
1000
MTEXTEND
  0
LWPOLYLINE
  5
873
330
835
100
AcDbEntity
  8
RAHM2
100
AcDbPolyline
 90
        4
 70
     1
 43
0.0
 10
227.1200012618346
 20
4.999999363303718
 10
157.1200012618346
 20
4.999999363303718
 10
157.1200012618346
 20
13.49999936330372
 10
227.1200012618346
 20
13.49999936330371
1001
GENIUS_GENREC_14
1002
{
1000
PXDIR
1011
157.1200012618346
1021
4.999999363303718
1031
0.0
1002
}
1002
{
1000
PORI
1011
227.1200012618346
1021
4.999999363303718
1031
0.0
1002
}
1002
{
1000
PINS
1011
227.1200012618346
1021
4.999999363303718
1031
0.0
1002
}
1002
{
1000
HVAL
1000
8.5
1002
}
1002
{
1000
H
1070
     2
1002
}
1002
{
1000
WVAL
1000
-70
1002
}
1002
{
1000
W
1070
     2
1002
}
1002
{
1000
C
1070
     1
1002
}
1001
GENIUS_GENODEF_13
1002
{
1000
HIER
1070
     0
1002
}
1002
{
1000
MANEDIT
1070
     0
1002
}
1002
{
1000
NOSEL
1070
     0
1002
}
1002
{
1000
BEHIND
1070
     0
1002
}
1002
{
1000
REACTOR
1002
}
1001
GENIUS_GENOBJ-N-REC_13
1002
{
1000
OWNER
1000
GEN
1002
}
  0
MTEXT
  5
874
102
{ACAD_XDICTIONARY
360
2B45
102
}
330
835
100
AcDbEntity
  8
RAHM2
100
AcDbMText
 10
158.8183538069352
 20
12.32474664768888
 30
0.0
 40
3.5
 41
4.301759591192151
 71
     1
 72
     5
  1
\fArial|b0|i0|c0|p32;\U+00A9
 73
     1
 44
1.0
1001
ACAD
1000
MTEXTBEGIN
1070
    73
1070
     1
1070
    44
1040
1.0
1070
    74
1070
     0
1000
MTEXTEND
  0
MTEXT
  5
875
330
835
100
AcDbEntity
  8
RAHM2
100
AcDbMText
 10
165.5515431528593
 20
11.24554752031341
 30
0.0
 40
2.0
 41
5.5175
 71
     1
 72
     5
  1
2004
 73
     1
 44
1.0
1001
ACAD
1000
MTEXTBEGIN
1070
    73
1070
     1
1070
    44
1040
1.0
1070
    74
1070
     0
1000
MTEXTEND
  0
ENDBLK
  5
877
330
835
100
AcDbEntity
  8
0
100
AcDbBlockEnd
  0
BLOCK
  5
939
330
8B0
100
AcDbEntity
  8
0
100
AcDbBlockBegin
  2
ACO-SF02-GR
 70
     2
 10
0.0
 20
0.0
 30
0.0
  3
ACO-SF02-GR
  1

  0
LINE
  5
8B1
330
8B0
100
AcDbEntity
  8
KOPF
 62
    12
100
AcDbLine
 10
0.0
 20
5.0
 30
0.0
 11
-83.0
 21
5.0
 31
0.0
  0
LWPOLYLINE
  5
8B2
330
8B0
100
AcDbEntity
  8
KOPF
 62
    12
100
AcDbPolyline
 90
        2
 70
     0
 43
0.5
 10
-83.0
 20
10.0
 10
0.0
 20
10.0
  0
LINE
  5
8B3
330
8B0
100
AcDbEntity
  8
KOPF
100
AcDbLine
 10
-83.0
 20
10.0
 30
0.0
 11
0.0
 21
10.0
 31
0.0
  0
LINE
  5
8B4
330
8B0
100
AcDbEntity
  8
KOPF
100
AcDbLine
 10
0.0
 20
5.0
 30
0.0
 11
-83.0
 21
5.0
 31
0.0
  0
LWPOLYLINE
  5
8B5
330
8B0
100
AcDbEntity
  8
KOPF
 62
    12
100
AcDbPolyline
 90
        2
 70
     0
 43
0.5
 10
0.0
 20
68.49999999999997
 10
-182.0
 20
68.49999999999997
  0
LWPOLYLINE
  5
8B6
330
8B0
100
AcDbEntity
  8
KOPF
 62
    12
100
AcDbPolyline
 90
        2
 70
     0
 43
0.5
 10
0.0
 20
46.99999999999997
 10
-182.0
 20
46.99999999999997
  0
LWPOLYLINE
  5
8B7
330
8B0
100
AcDbEntity
  8
KOPF
 62
    12
100
AcDbPolyline
 90
        2
 70
     0
 43
0.5
 10
-0.2154115848244373
 20
27.23910754630094
 10
-182.1882840408789
 20
27.23910754630094
  0
LINE
  5
8B8
330
8B0
100
AcDbEntity
  8
KOPF
 62
    12
100
AcDbLine
 10
0.0
 20
88.49999999999996
 30
0.0
 11
-182.0
 21
88.49999999999996
 31
0.0
  0
LINE
  5
8B9
330
8B0
100
AcDbEntity
  8
KOPF
 62
    12
100
AcDbLine
 10
-182.0
 20
83.49999999999997
 30
0.0
 11
0.0
 21
83.49999999999997
 31
0.0
  0
LINE
  5
8BA
330
8B0
100
AcDbEntity
  8
KOPF
 62
    12
100
AcDbLine
 10
0.0
 20
73.49999999999997
 30
0.0
 11
-182.0
 21
73.49999999999997
 31
0.0
  0
LINE
  5
8BB
330
8B0
100
AcDbEntity
  8
KOPF
 62
    12
100
AcDbLine
 10
-162.682677
 20
78.49999999999997
 30
0.0
 11
0.0
 21
78.49999999999997
 31
0.0
  0
LINE
  5
8BC
330
8B0
100
AcDbEntity
  8
KOPF
100
AcDbLine
 10
0.0
 20
68.49999999999997
 30
0.0
 11
-182.0
 21
68.49999999999997
 31
0.0
  0
LINE
  5
8BD
330
8B0
100
AcDbEntity
  8
KOPF
100
AcDbLine
 10
0.0
 20
88.49999999999996
 30
0.0
 11
-182.0
 21
88.49999999999996
 31
0.0
  0
LINE
  5
8BE
330
8B0
100
AcDbEntity
  8
KOPF
100
AcDbLine
 10
-182.0
 20
83.49999999999997
 30
0.0
 11
0.0
 21
83.49999999999997
 31
0.0
  0
LINE
  5
8BF
330
8B0
100
AcDbEntity
  8
KOPF
100
AcDbLine
 10
0.0
 20
73.49999999999997
 30
0.0
 11
-182.0
 21
73.49999999999997
 31
0.0
  0
LINE
  5
8C0
330
8B0
100
AcDbEntity
  8
KOPF
100
AcDbLine
 10
-162.682677
 20
78.49999999999997
 30
0.0
 11
0.0
 21
78.49999999999997
 31
0.0
  0
LINE
  5
8C1
330
8B0
100
AcDbEntity
  8
KOPF
 62
    12
100
AcDbLine
 10
-182.0
 20
57.74999999999997
 30
0.0
 11
-100.0
 21
57.74999999999997
 31
0.0
  0
LINE
  5
8C2
330
8B0
100
AcDbEntity
  8
KOPF
 62
    12
100
AcDbLine
 10
-182.0
 20
41.99999999999996
 30
0.0
 11
-113.4
 21
41.99999999999996
 31
0.0
  0
LINE
  5
8C3
330
8B0
100
AcDbEntity
  8
KOPF
100
AcDbLine
 10
-182.0
 20
57.74999999999997
 30
0.0
 11
-100.0
 21
57.74999999999997
 31
0.0
  0
LINE
  5
8C4
330
8B0
100
AcDbEntity
  8
KOPF
100
AcDbLine
 10
-182.0
 20
41.99999999999996
 30
0.0
 11
-113.4
 21
41.99999999999996
 31
0.0
  0
LINE
  5
8C5
330
8B0
100
AcDbEntity
  8
KOPF
 62
    12
100
AcDbLine
 10
-142.0
 20
68.49999999999997
 30
0.0
 11
-142.0
 21
46.99999999999997
 31
0.0
  0
LINE
  5
8C6
330
8B0
100
AcDbEntity
  8
KOPF
 62
    12
100
AcDbLine
 10
-142.0
 20
68.49999999999997
 30
0.0
 11
-142.0
 21
46.99999999999997
 31
0.0
  0
ATTDEF
  5
8C7
330
8B0
100
AcDbEntity
  8
TEXT35
100
AcDbText
 10
-140.2
 20
49.4
 30
0.0
 40
3.5
  1

 41
0.8
  7
TEXT35
100
AcDbAttributeDefinition
  3
Oberfläche:
  2
F63
 70
     0
  0
LWPOLYLINE
  5
8C8
330
8B0
100
AcDbEntity
  8
KOPF
 62
    12
100
AcDbPolyline
 90
        2
 70
     0
 43
0.7
 10
-182.0
 20
103.4999999999999
 10
-182.0
 20
0.0
  0
LINE
  5
8C9
330
8B0
100
AcDbEntity
  8
KOPF
100
AcDbLine
 10
-182.0
 20
103.4999999999999
 30
0.0
 11
-182.0
 21
0.0
 31
0.0
  0
TEXT
  5
8CA
330
8B0
100
AcDbEntity
  8
KOPF
100
AcDbText
 10
-179.738589
 20
38.32439403633659
 30
0.0
 40
2.0
  1
Gezeichnet:
 41
0.8
  7
TEXT20
100
AcDbText
  0
ATTDEF
  5
8CB
330
8B0
100
AcDbEntity
  8
TEXT35
100
AcDbText
 10
-176.6
 20
3.399999999999999
 30
0.0
 40
3.5
  1

 41
0.8
  7
TEXT35
100
AcDbAttributeDefinition
  3
Z-Titel 3
  2
F13
 70
     0
  0
ATTDEF
  5
8CC
330
8B0
100
AcDbEntity
  8
TEXT50
100
AcDbText
 10
-176.6
 20
10.63250279796295
 30
0.0
 40
5.0
  1

 41
0.8
  7
TEXT50
100
AcDbAttributeDefinition
  3
Z-Titel 2
  2
F3
 70
     0
  0
ATTDEF
  5
8CD
330
8B0
100
AcDbEntity
  8
TEXT50
100
AcDbText
 10
-176.6
 20
18.56318324460701
 30
0.0
 40
5.0
  1

 41
0.8
  7
TEXT50
100
AcDbAttributeDefinition
  3
Z-Titel 1
  2
F2
 70
     0
  0
TEXT
  5
8CE
330
8B0
100
AcDbEntity
  8
KOPF
100
AcDbText
 10
-179.738589
 20
28.52395361420514
 30
0.0
 40
2.0
  1
Update:
 41
0.8
  7
TEXT20
100
AcDbText
  0
TEXT
  5
8CF
330
8B0
100
AcDbEntity
  8
KOPF
100
AcDbText
 10
-179.738589
 20
33.43577642824449
 30
0.0
 40
2.0
  1
Geprüft
 41
0.8
  7
TEXT20
100
AcDbText
  0
LINE
  5
8D0
330
8B0
100
AcDbEntity
  8
KOPF
 62
    12
100
AcDbLine
 10
-163.0
 20
46.99999999999997
 30
0.0
 11
-163.0
 21
27.0
 31
0.0
  0
LINE
  5
8D1
330
8B0
100
AcDbEntity
  8
KOPF
100
AcDbLine
 10
-163.0
 20
46.99999999999997
 30
0.0
 11
-163.0
 21
27.0
 31
0.0
  0
ATTDEF
  5
8D2
330
8B0
100
AcDbEntity
  8
TEXT25
100
AcDbText
 10
-161.5009557098303
 20
28.32091209119023
 30
0.0
 40
2.0
  1

 41
0.8
  7
TEXT20
100
AcDbAttributeDefinition
  3
Update am:
  2
F53
 70
     0
  0
ATTDEF
  5
8D3
330
8B0
100
AcDbEntity
  8
TEXT25
100
AcDbText
 10
-161.5539333606331
 20
33.12227989587696
 30
0.0
 40
2.0
  1

 41
0.8
  7
TEXT20
100
AcDbAttributeDefinition
  3
Geprüft am:
  2
F22
 70
     0
  0
ATTDEF
  5
8D4
330
8B0
100
AcDbEntity
  8
TEXT25
100
AcDbText
 10
-161.5207141482394
 20
38.33983936444393
 30
0.0
 40
2.0
  1

 41
0.8
  7
TEXT20
100
AcDbAttributeDefinition
  3
Gezeichnet am:
  2
F9
 70
     0
  0
TEXT
  5
8D5
330
8B0
100
AcDbEntity
  8
KOPF
100
AcDbText
 10
-155.964455
 20
43.13467299999999
 30
0.0
 40
2.0
  1
Datum
 41
0.8
  7
TEXT20
100
AcDbText
  0
LINE
  5
8D6
330
8B0
100
AcDbEntity
  8
KOPF
 62
    12
100
AcDbLine
 10
-138.4
 20
46.99999999999997
 30
0.0
 11
-138.4
 21
27.0
 31
0.0
  0
LINE
  5
8D7
330
8B0
100
AcDbEntity
  8
KOPF
100
AcDbLine
 10
-138.4
 20
46.99999999999997
 30
0.0
 11
-138.4
 21
27.0
 31
0.0
  0
TEXT
  5
8D8
330
8B0
100
AcDbEntity
  8
KOPF
100
AcDbText
 10
-130.065072
 20
43.14125800000002
 30
0.0
 40
2.0
  1
Name
 41
0.8
  7
TEXT20
100
AcDbText
  0
ATTDEF
  5
8D9
330
8B0
100
AcDbEntity
  8
TEXT25
100
AcDbText
 10
-136.2746977811447
 20
33.28471223400234
 30
0.0
 40
2.0
  1

 41
0.8
  7
TEXT20
100
AcDbAttributeDefinition
  3
Geprüft von:
  2
F21
 70
     0
  0
ATTDEF
  5
8DA
330
8B0
100
AcDbEntity
  8
TEXT25
100
AcDbText
 10
-136.3996291720711
 20
28.23101841142455
 30
0.0
 40
2.0
  1

 41
0.8
  7
TEXT20
100
AcDbAttributeDefinition
  3
Update von:
  2
F52
 70
     0
  0
ATTDEF
  5
8DB
330
8B0
100
AcDbEntity
  8
TEXT25
100
AcDbText
 10
-136.1922113552417
 20
38.48172579575253
 30
0.0
 40
2.0
  1

 41
0.8
  7
TEXT20
100
AcDbAttributeDefinition
  3
Gezeichnet von
  2
F8
 70
     0
  0
TEXT
  5
8DC
330
8B0
100
AcDbEntity
  8
KOPF
100
AcDbText
 10
-174.6925639999999
 20
69.53813999999997
 30
0.0
 40
2.0
  1
Index
 41
0.8
  7
TEXT20
100
AcDbText
  0
LINE
  5
8DD
330
8B0
100
AcDbEntity
  8
KOPF
100
AcDbLine
 10
-182.0
 20
78.49999999999997
 30
0.0
 11
-162.682677
 21
78.49999999999997
 31
0.0
  0
LINE
  5
8DE
330
8B0
100
AcDbEntity
  8
KOPF
100
AcDbLine
 10
-182.0
 20
78.49999999999997
 30
0.0
 11
-162.682677
 21
78.49999999999997
 31
0.0
  0
TEXT
  5
8DF
330
8B0
100
AcDbEntity
  8
KOPF
100
AcDbText
 10
-180.0
 20
65.166273
 30
0.0
 40
2.0
  1
Werkstoff:
 41
0.8
  7
TEXT20
100
AcDbText
  0
TEXT
  5
8E0
330
8B0
100
AcDbEntity
  8
KOPF
100
AcDbText
 10
-181.0
 20
54.49999999999997
 30
0.0
 40
2.0
  1
zul. Abweich.:
 41
0.8
  7
TEXT20
100
AcDbText
  0
ATTDEF
  5
8E1
330
8B0
100
AcDbEntity
  8
TEXT35
100
AcDbText
 10
-179.7
 20
59.6
 30
0.0
 40
3.5
  1

 41
0.8
  7
TEXT35
100
AcDbAttributeDefinition
  3
Werkstoff:
  2
F61
 70
     0
  0
ATTDEF
  5
8E2
330
8B0
100
AcDbEntity
  8
TEXT35
100
AcDbText
 10
-179.7
 20
49.7
 30
0.0
 40
3.5
  1

 41
0.8
  7
TEXT35
100
AcDbAttributeDefinition
  3
zul. Abweichung
  2
F62
 70
     0
  0
ATTDEF
  5
8E3
330
8B0
100
AcDbEntity
  8
TEXT25
100
AcDbText
 10
-174.360415155955
 20
74.59999999999999
 30
0.0
 40
2.0
  1

 41
0.8
  7
TEXT20
100
AcDbAttributeDefinition
  3
Index vv.:
  2
F72
 70
     0
  0
ATTDEF
  5
8E4
330
8B0
100
AcDbEntity
  8
TEXT25
100
AcDbText
 10
-174.4435409453564
 20
79.47378932523601
 30
0.0
 40
2.0
  1

 41
0.8
  7
TEXT20
100
AcDbAttributeDefinition
  3
Index v.:
  2
F68
 70
     0
  0
ATTDEF
  5
8E5
330
8B0
100
AcDbEntity
  8
TEXT25
100
AcDbText
 10
-174.3700408782365
 20
84.63034186138365
 30
0.0
 40
2.0
  1

 41
0.8
  7
TEXT20
100
AcDbAttributeDefinition
  3
Index l.:
  2
F64
 70
     0
  0
LINE
  5
8E6
330
8B0
100
AcDbEntity
  8
KOPF
100
AcDbLine
 10
-162.682677
 20
88.49999999999996
 30
0.0
 11
-162.682677
 21
68.49999999999997
 31
0.0
  0
LINE
  5
8E7
330
8B0
100
AcDbEntity
  8
KOPF
100
AcDbLine
 10
-162.682677
 20
88.49999999999996
 30
0.0
 11
-162.682677
 21
68.49999999999997
 31
0.0
  0
TEXT
  5
8E8
330
8B0
100
AcDbEntity
  8
KOPF
100
AcDbText
 10
-156.706568
 20
69.53813999999997
 30
0.0
 40
2.0
  1
Datum
 41
0.8
  7
TEXT20
100
AcDbText
  0
ATTDEF
  5
8E9
330
8B0
100
AcDbEntity
  8
TEXT25
100
AcDbText
 10
-160.9
 20
75.09999999999999
 30
0.0
 40
2.0
  1

 41
0.8
  7
TEXT20
100
AcDbAttributeDefinition
  3
Datum vv.:
  2
F73
 70
     0
  0
ATTDEF
  5
8EA
330
8B0
100
AcDbEntity
  8
TEXT25
100
AcDbText
 10
-160.9
 20
79.40000000000001
 30
0.0
 40
2.0
  1

 41
0.8
  7
TEXT20
100
AcDbAttributeDefinition
  3
Datum v.:
  2
F69
 70
     0
  0
ATTDEF
  5
8EB
330
8B0
100
AcDbEntity
  8
TEXT25
100
AcDbText
 10
-160.6
 20
84.50000000000001
 30
0.0
 40
2.0
  1

 41
0.8
  7
TEXT20
100
AcDbAttributeDefinition
  3
Datum l.:
  2
F65
 70
     0
  0
LINE
  5
8EC
330
8B0
100
AcDbEntity
  8
KOPF
 62
    12
100
AcDbLine
 10
-142.0
 20
68.49999999999997
 30
0.0
 11
-142.0
 21
88.49999999999996
 31
0.0
  0
LINE
  5
8ED
330
8B0
100
AcDbEntity
  8
KOPF
100
AcDbLine
 10
-142.0
 20
68.49999999999997
 30
0.0
 11
-142.0
 21
88.49999999999996
 31
0.0
  0
ATTDEF
  5
8EE
330
8B0
100
AcDbEntity
  8
TEXT35
100
AcDbText
 10
-139.9
 20
59.29999999999999
 30
0.0
 40
3.5
  1

 41
0.8
  7
TEXT35
100
AcDbAttributeDefinition
  3
Gewicht:
  2
F60
 70
     0
  0
TEXT
  5
8EF
330
8B0
100
AcDbEntity
  8
KOPF
100
AcDbText
 10
-140.387393
 20
54.54752599999996
 30
0.0
 40
2.0
  1
Oberfläche
 41
0.8
  7
TEXT20
100
AcDbText
  0
TEXT
  5
8F0
330
8B0
100
AcDbEntity
  8
KOPF
100
AcDbText
 10
-140.1020469999999
 20
65.166273
 30
0.0
 40
2.0
  1
Gewicht:
 41
0.8
  7
TEXT20
100
AcDbText
  0
TEXT
  5
8F1
330
8B0
100
AcDbEntity
  8
KOPF
100
AcDbText
 10
-140.1020469999999
 20
65.166273
 30
0.0
 40
2.0
  1
Gewicht:
 41
0.8
  7
TEXT20
100
AcDbText
  0
ATTDEF
  5
8F2
330
8B0
100
AcDbEntity
  8
TEXT25
100
AcDbText
 10
-140.4
 20
74.59999999999999
 30
0.0
 40
2.0
  1

 41
0.8
  7
TEXT20
100
AcDbAttributeDefinition
  3
Bennenung vv.:
  2
F74
 70
     0
  0
ATTDEF
  5
8F3
330
8B0
100
AcDbEntity
  8
TEXT25
100
AcDbText
 10
-140.5063960262479
 20
79.64480359078786
 30
0.0
 40
2.0
  1

 41
0.8
  7
TEXT20
100
AcDbAttributeDefinition
  3
Benennung v.:
  2
F70
 70
     0
  0
ATTDEF
  5
8F4
330
8B0
100
AcDbEntity
  8
TEXT25
100
AcDbText
 10
-140.390233442385
 20
84.56120109651198
 30
0.0
 40
2.0
  1

 41
0.8
  7
TEXT20
100
AcDbAttributeDefinition
  3
Bennenung l.:
  2
F66
 70
     0
  0
LINE
  5
8F5
330
8B0
100
AcDbEntity
  8
KOPF
 62
    12
100
AcDbLine
 10
-100.0
 20
68.49999999999997
 30
0.0
 11
-100.0
 21
46.99999999999997
 31
0.0
  0
LWPOLYLINE
  5
8F6
330
8B0
100
AcDbEntity
  8
KOPF
 62
    12
100
AcDbPolyline
 90
        2
 70
     0
 43
0.5
 10
-83.0
 20
46.99999999999997
 10
-83.0
 20
0.0
  0
LINE
  5
8F7
330
8B0
100
AcDbEntity
  8
KOPF
100
AcDbLine
 10
-83.0
 20
46.99999999999997
 30
0.0
 11
-83.0
 21
0.0
 31
0.0
  0
TEXT
  5
8F8
330
8B0
100
AcDbEntity
  8
KOPF
100
AcDbText
 10
-81.0
 20
1.714285999999985
 30
0.0
 40
2.0
  1
Ersetzt durch:
 41
0.8
  7
TEXT20
100
AcDbText
  0
LINE
  5
8F9
330
8B0
100
AcDbEntity
  8
KOPF
 62
    12
100
AcDbLine
 10
-113.4
 20
27.0
 30
0.0
 11
-113.4
 21
46.99999999999997
 31
0.0
  0
LWPOLYLINE
  5
8FA
330
8B0
100
AcDbEntity
  8
KOPF
100
AcDbPolyline
 90
        2
 70
     0
 43
0.5
 10
-113.4
 20
27.0
 10
-113.4
 20
46.99999999999997
  0
LINE
  5
8FB
330
8B0
100
AcDbEntity
  8
KOPF
100
AcDbLine
 10
-113.4
 20
27.0
 30
0.0
 11
-113.4
 21
46.99999999999997
 31
0.0
  0
LINE
  5
8FC
330
8B0
100
AcDbEntity
  8
KOPF
100
AcDbLine
 10
-113.4
 20
27.0
 30
0.0
 11
-113.4
 21
46.99999999999997
 31
0.0
  0
ATTDEF
  5
8FD
330
8B0
100
AcDbEntity
  8
TEXT35
100
AcDbText
 10
-104.4935632823758
 20
33.13408015176805
 30
0.0
 40
3.5
  1

 41
0.8
  7
TEXT35
100
AcDbAttributeDefinition
  3
Maßstab 2:
  2
F54
 70
     0
  0
ATTDEF
  5
8FE
330
8B0
100
AcDbEntity
  8
TEXT35
100
AcDbText
 10
-104.487948258847
 20
28.6
 30
0.0
 40
3.5
  1

 41
0.8
  7
TEXT35
100
AcDbAttributeDefinition
  3
Maßstab 3:
  2
F55
 70
     0
  0
ATTDEF
  5
8FF
330
8B0
100
AcDbEntity
  8
TEXT50
100
AcDbText
 10
-106.6
 20
37.8
 30
0.0
 40
5.0
  1

 41
0.8
  7
TEXT50
100
AcDbAttributeDefinition
  3
Maßstab 1:
  2
F25
 70
     0
  0
TEXT
  5
900
330
8B0
100
AcDbEntity
  8
KOPF
100
AcDbText
 10
-112.263457
 20
43.88678899999999
 30
0.0
 40
2.0
  1
Massstab:
 41
0.8
  7
TEXT20
100
AcDbText
  0
LINE
  5
901
330
8B0
100
AcDbEntity
  8
KOPF
 62
    12
100
AcDbLine
 10
-57.80813400000011
 20
27.0
 30
0.0
 11
-57.80813400000011
 21
46.99999999999997
 31
0.0
  0
LINE
  5
902
330
8B0
100
AcDbEntity
  8
KOPF
100
AcDbLine
 10
-57.80813400000011
 20
27.0
 30
0.0
 11
-57.80813400000011
 21
46.99999999999997
 31
0.0
  0
TEXT
  5
903
330
8B0
100
AcDbEntity
  8
KOPF
100
AcDbText
 10
-81.59296000000006
 20
23.69783599999999
 30
0.0
 40
2.0
  1
Zeichnung Nr.:
 41
0.8
  7
TEXT20
100
AcDbText
  0
TEXT
  5
904
330
8B0
100
AcDbEntity
  8
KOPF
100
AcDbText
 10
-81.00375700000006
 20
5.924711999999997
 30
0.0
 40
2.0
  1
Ersatz für:
 41
0.8
  7
TEXT20
100
AcDbText
  0
TEXT
  5
905
330
8B0
100
AcDbEntity
  8
KOPF
100
AcDbText
 10
-81.59296000000006
 20
23.69783599999999
 30
0.0
 40
2.0
  1
Zeichnung Nr.:
 41
0.8
  7
TEXT20
100
AcDbText
  0
ATTDEF
  5
906
330
8B0
100
AcDbEntity
  8
TEXT50
100
AcDbText
 10
-78.29193986361122
 20
14.50587824180555
 30
0.0
 40
5.0
  1

 41
0.8
  7
TEXT50
100
AcDbAttributeDefinition
  3
Standart:
  2
F1
 70
     0
  0
TEXT
  5
907
330
8B0
100
AcDbEntity
  8
KOPF
100
AcDbText
 10
-81.48889200000008
 20
43.86057200000001
 30
0.0
 40
2.0
  1
Masseinheit:
 41
0.8
  7
TEXT20
100
AcDbText
  0
LINE
  5
908
330
8B0
100
AcDbEntity
  8
KOPF
 62
    12
100
AcDbLine
 10
-57.80813400000011
 20
36.213444
 30
0.0
 11
-83.0
 21
36.213444
 31
0.0
  0
LINE
  5
909
330
8B0
100
AcDbEntity
  8
KOPF
100
AcDbLine
 10
-57.80813400000011
 20
36.213444
 30
0.0
 11
-83.0
 21
36.213444
 31
0.0
  0
ATTDEF
  5
90A
330
8B0
100
AcDbEntity
  8
TEXT35
100
AcDbText
 10
-79.40896486611496
 20
38.08722024605356
 30
0.0
 40
3.5
  1

 41
0.8
  7
TEXT35
100
AcDbAttributeDefinition
  3
Maßeinheit:
  2
F56
 70
     0
  0
TEXT
  5
90B
330
8B0
100
AcDbEntity
  8
KOPF
100
AcDbText
 10
-33.57569784693112
 20
42.62823225872138
 30
0.0
 40
1.54
  1
Diese Zeichnung darf weder kopiert
 41
0.8
  7
TEXT20
100
AcDbText
  0
TEXT
  5
90C
330
8B0
100
AcDbEntity
  8
KOPF
100
AcDbText
 10
-33.57569784693112
 20
40.26106040199917
 30
0.0
 40
1.54
  1
noch dritten Personen, insbesondere
 41
0.8
  7
TEXT20
100
AcDbText
1001
GENIUS_GENTRA_14
1002
{
1070
     1
1000
/
1000
noch dritten Personen, insbesondere
1000
DEU
1070
     0
1040
0.8
1070
     0
1002
}
  0
TEXT
  5
90D
330
8B0
100
AcDbEntity
  8
KOPF
100
AcDbText
 10
-33.57569784693112
 20
35.63814072439632
 30
0.0
 40
1.54
  1
mitgeteilt werden und bleibt unser
 41
0.8
  7
TEXT20
100
AcDbText
  0
TEXT
  5
90E
330
8B0
100
AcDbEntity
  8
KOPF
100
AcDbText
 10
-33.57569784693112
 20
33.37532604459598
 30
0.0
 40
1.54
  1
Eigentum.
 41
0.8
  7
TEXT20
100
AcDbText
  0
TEXT
  5
90F
330
8B0
100
AcDbEntity
  8
KOPF
100
AcDbText
 10
-33.57569784693112
 20
37.97994933403727
 30
0.0
 40
1.54
  1
zum Zweck anderweitiger Benutzung
 41
0.8
  7
TEXT20
100
AcDbText
  0
TEXT
  5
910
330
8B0
100
AcDbEntity
  8
KOPF
100
AcDbText
 10
-33.7904806989385
 20
30.30982488917614
 30
0.0
 40
1.54
  1
Schutzvermerk nach DIN 34 beachten
 41
0.75
  7
TEXT20
100
AcDbText
  0
LINE
  5
911
330
8B0
100
AcDbEntity
  8
KOPF
100
AcDbLine
 10
-34.94281200000012
 20
47.01203199999999
 30
0.0
 11
-34.94281200000012
 21
27.0
 31
0.0
  0
LINE
  5
912
330
8B0
100
AcDbEntity
  8
KOPF
100
AcDbLine
 10
-34.94281200000012
 20
47.01203199999999
 30
0.0
 11
-34.94281200000012
 21
27.0
 31
0.0
  0
LINE
  5
913
330
8B0
100
AcDbEntity
  8
MITTE
100
AcDbLine
 10
-45.85521401410289
 20
36.04852954632858
 30
0.0
 11
-35.23444858652556
 21
36.04852954632858
 31
0.0
  0
LINE
  5
914
330
8B0
100
AcDbEntity
  8
TEXT50
100
AcDbLine
 10
-45.05865660703466
 20
32.02559619470341
 30
0.0
 11
-36.50894043783512
 21
34.06858135367652
 31
0.0
  0
LINE
  5
915
330
8B0
100
AcDbEntity
  8
TEXT50
100
AcDbLine
 10
-36.50894043783512
 20
38.02847773898061
 30
0.0
 11
-45.05865660703466
 21
40.07146289795374
 31
0.0
  0
TEXT
  5
916
330
8B0
100
AcDbEntity
  8
KOPF
100
AcDbText
 10
-57.12244047883302
 20
43.82431699999997
 30
0.0
 40
2.0
  1
Projektion: ISO-E
 41
0.8
  7
TEXT20
100
AcDbText
  0
LINE
  5
917
330
8B0
100
AcDbEntity
  8
TEXT50
100
AcDbLine
 10
-45.05865660703466
 20
40.07146289795374
 30
0.0
 11
-45.05865660703466
 21
32.02559619470346
 31
0.0
  0
LINE
  5
918
330
8B0
100
AcDbEntity
  8
MITTE
100
AcDbLine
 10
-51.4945506424383
 20
40.07146289795374
 30
0.0
 11
-51.4945506424383
 21
30.76413131482123
 31
0.0
  0
CIRCLE
  5
919
330
8B0
100
AcDbEntity
  8
TEXT50
100
AcDbCircle
 10
-51.4945506424383
 20
36.04852954632858
 30
0.0
 40
4.022933351625178
  0
CIRCLE
  5
91A
330
8B0
100
AcDbEntity
  8
TEXT50
100
AcDbCircle
 10
-51.4945506424383
 20
36.04852954632858
 30
0.0
 40
1.979948192651899
  0
LINE
  5
91B
330
8B0
100
AcDbEntity
  8
MITTE
100
AcDbLine
 10
-56.48631039339966
 20
36.04852954632858
 30
0.0
 11
-46.50279089147699
 21
36.04852954632858
 31
0.0
  0
LINE
  5
91C
330
8B0
100
AcDbEntity
  8
TEXT50
100
AcDbLine
 10
-36.50894043783512
 20
38.02847773898061
 30
0.0
 11
-36.50894043783512
 21
34.06858135367652
 31
0.0
  0
LWPOLYLINE
  5
91D
330
8B0
100
AcDbEntity
  8
KOPF
 62
    12
100
AcDbPolyline
 90
        2
 70
     0
 43
0.5
 10
-12.0
 20
27.0
 10
-12.0
 20
10.0
  0
LINE
  5
91E
330
8B0
100
AcDbEntity
  8
KOPF
100
AcDbLine
 10
-12.0
 20
27.0
 30
0.0
 11
-12.0
 21
10.0
 31
0.0
  0
ATTDEF
  5
91F
330
8B0
100
AcDbEntity
  8
TEXT50
100
AcDbText
 10
-5.58570360403041
 20
17.00587824180555
 30
0.0
 40
5.0
  1

 41
0.8
  7
TEXT50
 72
     4
 11
-5.58570360403041
 21
17.00587824180555
 31
0.0
100
AcDbAttributeDefinition
  3
Index:
  2
F1B
 70
     0
  0
TEXT
  5
920
330
8B0
100
AcDbEntity
  8
KOPF
100
AcDbText
 10
-8.353129999999964
 20
23.330072
 30
0.0
 40
2.0
  1
Index
 41
0.8
  7
TEXT20
100
AcDbText
  0
TEXT
  5
921
330
8B0
100
AcDbEntity
  8
KOPF
100
AcDbText
 10
-94.40535829344497
 20
70.39773773357916
 30
0.0
 40
2.0
  1
Benennung
 41
0.8
  7
TEXT20
100
AcDbText
  0
LINE
  5
922
330
8B0
100
AcDbEntity
  8
KOPF
100
AcDbLine
 10
-15.0
 20
88.49999999999996
 30
0.0
 11
-15.0
 21
68.49999999999997
 31
0.0
  0
LINE
  5
923
330
8B0
100
AcDbEntity
  8
KOPF
100
AcDbLine
 10
-15.0
 20
88.49999999999996
 30
0.0
 11
-15.0
 21
68.49999999999997
 31
0.0
  0
TEXT
  5
924
330
8B0
100
AcDbEntity
  8
KOPF
100
AcDbText
 10
-11.65833600000008
 20
69.53813999999997
 30
0.0
 40
2.0
  1
Name
 41
0.8
  7
TEXT20
100
AcDbText
  0
TEXT
  5
925
330
8B0
100
AcDbEntity
  8
KOPF
100
AcDbText
 10
-11.65833600000008
 20
69.53813999999997
 30
0.0
 40
2.0
  1
Name
 41
0.8
  7
TEXT20
100
AcDbText
  0
ATTDEF
  5
926
330
8B0
100
AcDbEntity
  8
TEXT25
100
AcDbText
 10
-13.39999999999998
 20
74.90000000000001
 30
0.0
 40
2.0
  1

 41
0.8
  7
TEXT20
100
AcDbAttributeDefinition
  3
Name vv.:
  2
F75
 70
     0
  0
ATTDEF
  5
927
330
8B0
100
AcDbEntity
  8
TEXT25
100
AcDbText
 10
-13.39999999999998
 20
79.7
 30
0.0
 40
2.0
  1

 41
0.8
  7
TEXT20
100
AcDbAttributeDefinition
  3
Name v.:
  2
F71
 70
     0
  0
ATTDEF
  5
928
330
8B0
100
AcDbEntity
  8
TEXT25
100
AcDbText
 10
-13.31006638105163
 20
84.29999999999999
 30
0.0
 40
2.0
  1

 41
0.8
  7
TEXT20
100
AcDbAttributeDefinition
  3
Name l.:
  2
F67
 70
     0
  0
LINE
  5
929
330
8B0
100
AcDbEntity
  8
KOPF
100
AcDbLine
 10
-182.0
 20
36.99999999999997
 30
0.0
 11
-113.4
 21
36.99999999999997
 31
0.0
  0
LINE
  5
92A
330
8B0
100
AcDbEntity
  8
KOPF
100
AcDbLine
 10
-182.0
 20
31.99999999999997
 30
0.0
 11
-113.4
 21
31.99999999999997
 31
0.0
  0
MTEXT
  5
92B
330
8B0
100
AcDbEntity
  8
Sperrlayer
 62
     1
100
AcDbMText
 10
-166.0749851709908
 20
9.027899370527848
 30
0.0
 40
10.0
 41
771.0
 71
     1
 72
     5
  1
VORABZUG - nicht FREIGEGEBEN !
  7
TEXT20
 11
0.8660254037844387
 21
0.5
 31
0.0
 73
     1
 44
1.0
1001
ACAD
1000
MTEXTBEGIN
1070
    73
1070
     1
1070
    44
1040
1.0
1070
    74
1070
     0
1000
MTEXTEND
  0
ATTDEF
  5
92C
330
8B0
100
AcDbEntity
  8
AM_BOR
 62
     2
370
    35
100
AcDbText
 10
-100.7395275842899
 20
38.58583043117892
 30
0.0
 40
3.0
  1
-
 72
     1
 11
-99.68952758428997
 21
38.58583043117892
 31
0.0
100
AcDbAttributeDefinition
  3
Maßstab
  2
GEN-TITLE-SCA{5.42}
 70
     0
1001
GENIUS_GENTRA_14
1002
{
1070
     3
1000
GENTRAPR,%s,(GENMSG gendwg 83)
1000
Maßstab
1000
DEU
1070
     0
1070
     0
1002
}
  0
TEXT
  5
92D
330
8B0
100
AcDbEntity
  8
0N
100
AcDbText
 10
-180.0433753026868
 20
97.16012098886922
 30
0.0
 40
3.5
  1
Zeichnungen größer darstellenden Maßstabes bzw. Einzelteilzeichnungen
 41
0.9
100
AcDbText
  0
TEXT
  5
92E
330
8B0
100
AcDbEntity
  8
0N
100
AcDbText
 10
-180.0433753026868
 20
91.14471067045299
 30
0.0
 40
3.5
  1
haben vorrangige Gültigkeit
 41
0.9
100
AcDbText
  0
LINE
  5
92F
330
8B0
100
AcDbEntity
  8
KOPF
 62
    12
100
AcDbLine
 10
0.0
 20
103.4999999999999
 30
0.0
 11
-182.0
 21
103.4999999999999
 31
0.0
  0
LINE
  5
930
330
8B0
100
AcDbEntity
  8
KOPF
100
AcDbLine
 10
0.0
 20
103.4999999999999
 30
0.0
 11
-182.0
 21
103.4999999999999
 31
0.0
  0
TEXT
  5
931
330
8B0
100
AcDbEntity
  8
0N
100
AcDbText
 10
-50.10402338551751
 20
63.31558948216224
 30
0.0
 40
3.5
  1
ACO Haustechnik
  7
Anschrift
100
AcDbText
  0
TEXT
  5
932
330
8B0
100
AcDbEntity
  8
KOPF
100
AcDbText
 10
-49.87580542490343
 20
59.20935299973598
 30
0.0
 40
2.0
  1
ACO Passavant GmbH
  7
Anschrift
100
AcDbText
  0
TEXT
  5
933
330
8B0
100
AcDbEntity
  8
KOPF
100
AcDbText
 10
-49.87580542490343
 20
55.94457150873341
 30
0.0
 40
2.0
  1
Ulsterstrasse 3
  7
Anschrift
100
AcDbText
  0
TEXT
  5
934
330
8B0
100
AcDbEntity
  8
KOPF
100
AcDbText
 10
-49.87580542490343
 20
52.67979001773084
 30
0.0
 40
2.0
  1
36269 Philippsthal
  7
Anschrift
100
AcDbText
  0
TEXT
  5
935
330
8B0
100
AcDbEntity
  8
KOPF
100
AcDbText
 10
-49.87580542490343
 20
49.41500852672827
 30
0.0
 40
2.0
  1
www.aco-haustechnik.de
  7
Anschrift
100
AcDbText
  0
IMAGE
  5
936
330
8B0
100
AcDbEntity
  8
0N
 92
      140
310
8C00000001000000840000000600000005000000D8E09288BC7856C020EE296E8D3848400000000000000000D8E09288BC7856C05505A7591AA950400000000000000000701116DB117C50C05505A7591AA950400000000000000000701116DB117C50C020EE296E8D3848400000000000000000D8E09288BC7856C020EE29
310
6E8D3848400000000000000000
100
AcDbRasterImage
 90
        0
 10
-89.88650717109283
 20
48.44181611106273
 30
0.0
 11
0.3193055645228697
 21
0.0
 31
0.0
 12
0.0
 22
0.3193055645228696
 32
0.0
 13
75.0
 23
57.0
340
93C
 70
     7
280
     0
281
    50
282
    50
283
     0
360
937
 71
     1
 91
        2
 14
-0.5
 24
-0.5
 14
74.5
 24
56.5
  0
ENDBLK
  5
93A
330
8B0
100
AcDbEntity
  8
0
100
AcDbBlockEnd
  0
BLOCK
  5
9CF
330
989
100
AcDbEntity
  8
0
100
AcDbBlockBegin
  2
ACO_A2
 70
     0
 10
0.0
 20
0.0
 30
0.0
  3
ACO_A2
  1

  0
LINE
  5
98A
330
989
100
AcDbEntity
  8
AM_BOR
 62
     1
370
    25
100
AcDbLine
 10
10.00000000000002
 20
410.0
 30
0.0
 11
584.0
 21
410.0
 31
0.0
  0
LINE
  5
98B
330
989
100
AcDbEntity
  8
0
100
AcDbLine
 10
5.0
 20
5.0
 30
0.0
 11
5.000000000000024
 21
415.0
 31
0.0
  0
TEXT
  5
98C
330
989
100
AcDbEntity
  8
0
 60
     1
100
AcDbText
 10
583.9999999999998
 20
5.0
 30
0.0
 40
3.5
  1
!GENTITLE-INSERT
100
AcDbText
  0
TEXT
  5
98D
330
989
100
AcDbEntity
  8
0
 60
     1
100
AcDbText
 10
10.0
 20
10.00000000000005
 30
0.0
 40
3.5
  1
!GENTITLE-LL
100
AcDbText
  0
TEXT
  5
98E
330
989
100
AcDbEntity
  8
0
 60
     1
100
AcDbText
 10
584.0
 20
410.0
 30
0.0
 40
3.5
  1
!GENTITLE-RU
100
AcDbText
  0
TEXT
  5
98F
330
989
100
AcDbEntity
  8
0
 60
     1
100
AcDbText
 10
594.0
 20
420.0
 30
0.0
 40
3.5
  1
!GENTITLE-MAX
100
AcDbText
  0
LINE
  5
990
330
989
100
AcDbEntity
  8
AM_BOR
 62
     1
370
    25
100
AcDbLine
 10
593.9999999999998
 20
0.0
 30
0.0
 11
401.9999999999998
 21
0.0
 31
0.0
  0
LINE
  5
991
330
989
100
AcDbEntity
  8
AM_BOR
 62
     1
370
    25
100
AcDbLine
 10
331.1199999999999
 20
10.00000000000003
 30
0.0
 11
9.999999999999886
 21
10.00000000000007
 31
0.0
  0
LINE
  5
992
330
989
100
AcDbEntity
  8
AM_BOR
 62
     1
370
    25
100
AcDbLine
 10
444.2499999999999
 20
415.0
 30
0.0
 11
444.2499999999999
 21
410.0
 31
0.0
  0
LINE
  5
993
330
989
100
AcDbEntity
  8
AM_BOR
 62
     1
370
    25
100
AcDbLine
 10
516.6249999999998
 20
415.0
 30
0.0
 11
516.6249999999998
 21
410.0
 31
0.0
  0
TEXT
  5
994
330
989
100
AcDbEntity
  8
AM_BOR
 62
     1
370
    25
100
AcDbText
 10
480.0
 20
410.5
 30
0.0
 40
4.0
  1
7
100
AcDbText
  0
TEXT
  5
995
330
989
100
AcDbEntity
  8
AM_BOR
 62
     1
370
    25
100
AcDbText
 10
552.5
 20
410.5
 30
0.0
 40
4.0
  1
8
100
AcDbText
  0
TEXT
  5
996
330
989
100
AcDbEntity
  8
AM_BOR
 62
     1
370
    25
100
AcDbText
 10
407.5
 20
410.5
 30
0.0
 40
4.0
  1
6
100
AcDbText
  0
LINE
  5
997
330
989
100
AcDbEntity
  8
AM_BOR
 62
     1
370
    25
100
AcDbLine
 10
371.8749999999999
 20
415.0
 30
0.0
 11
371.8749999999999
 21
410.0
 31
0.0
  0
TEXT
  5
998
330
989
100
AcDbEntity
  8
AM_BOR
 62
     1
370
    25
100
AcDbText
 10
335.0
 20
410.5
 30
0.0
 40
4.0
  1
5
100
AcDbText
  0
LINE
  5
999
330
989
100
AcDbEntity
  8
AM_BOR
 62
     1
370
    25
100
AcDbLine
 10
82.37499999999991
 20
415.0
 30
0.0
 11
82.37499999999991
 21
410.0
 31
0.0
  0
LINE
  5
99A
330
989
100
AcDbEntity
  8
AM_BOR
 62
     1
370
    25
100
AcDbLine
 10
154.7499999999999
 20
415.0
 30
0.0
 11
154.7499999999999
 21
410.0
 31
0.0
  0
LINE
  5
99B
330
989
100
AcDbEntity
  8
AM_BOR
 62
     1
370
    25
100
AcDbLine
 10
227.1249999999999
 20
415.0
 30
0.0
 11
227.1249999999999
 21
410.0
 31
0.0
  0
LINE
  5
99C
330
989
100
AcDbEntity
  8
AM_BOR
 62
     1
370
    25
100
AcDbLine
 10
299.4999999999999
 20
415.0
 30
0.0
 11
299.4999999999999
 21
410.0
 31
0.0
  0
TEXT
  5
99D
330
989
100
AcDbEntity
  8
AM_BOR
 62
     1
370
    25
100
AcDbText
 10
45.50000000000002
 20
410.5
 30
0.0
 40
4.0
  1
1
100
AcDbText
  0
TEXT
  5
99E
330
989
100
AcDbEntity
  8
AM_BOR
 62
     1
370
    25
100
AcDbText
 10
117.5
 20
410.5
 30
0.0
 40
4.0
  1
2
100
AcDbText
  0
TEXT
  5
99F
330
989
100
AcDbEntity
  8
AM_BOR
 62
     1
370
    25
100
AcDbText
 10
190.5
 20
410.5
 30
0.0
 40
4.0
  1
3
100
AcDbText
  0
TEXT
  5
9A0
330
989
100
AcDbEntity
  8
AM_BOR
 62
     1
370
    25
100
AcDbText
 10
263.0
 20
410.5
 30
0.0
 40
4.0
  1
4
100
AcDbText
  0
LINE
  5
9A1
330
989
100
AcDbEntity
  8
AM_BOR
 62
     1
370
    25
100
AcDbLine
 10
588.9831138758759
 20
76.71791910685186
 30
0.0
 11
584.0
 21
76.71791910685186
 31
0.0
  0
LINE
  5
9A2
330
989
100
AcDbEntity
  8
AM_BOR
 62
     1
370
    25
100
AcDbLine
 10
588.9831138758759
 20
143.3779191068518
 30
0.0
 11
584.0
 21
143.3779191068518
 31
0.0
  0
LINE
  5
9A3
330
989
100
AcDbEntity
  8
AM_BOR
 62
     1
370
    25
100
AcDbLine
 10
588.9831138758759
 20
210.0379191068519
 30
0.0
 11
584.0
 21
210.0379191068519
 31
0.0
  0
LINE
  5
9A4
330
989
100
AcDbEntity
  8
AM_BOR
 62
     1
370
    25
100
AcDbLine
 10
588.9831138758759
 20
276.6979191068519
 30
0.0
 11
584.0
 21
276.6979191068519
 31
0.0
  0
LINE
  5
9A5
330
989
100
AcDbEntity
  8
AM_BOR
 62
     1
370
    25
100
AcDbLine
 10
588.9831138758759
 20
343.3579191068519
 30
0.0
 11
584.0
 21
343.3579191068519
 31
0.0
  0
TEXT
  5
9A6
330
989
100
AcDbEntity
  8
AM_BOR
 62
     1
370
    25
100
AcDbText
 10
585.0
 20
43.0
 30
0.0
 40
4.0
  1
F
100
AcDbText
  0
TEXT
  5
9A7
330
989
100
AcDbEntity
  8
AM_BOR
 62
     1
370
    25
100
AcDbText
 10
585.0
 20
109.0
 30
0.0
 40
4.0
  1
E
100
AcDbText
  0
TEXT
  5
9A8
330
989
100
AcDbEntity
  8
AM_BOR
 62
     1
370
    25
100
AcDbText
 10
585.0
 20
176.0
 30
0.0
 40
4.0
  1
D
100
AcDbText
  0
TEXT
  5
9A9
330
989
100
AcDbEntity
  8
AM_BOR
 62
     1
370
    25
100
AcDbText
 10
585.0
 20
243.0
 30
0.0
 40
4.0
  1
C
100
AcDbText
  0
TEXT
  5
9AA
330
989
100
AcDbEntity
  8
AM_BOR
 62
     1
370
    25
100
AcDbText
 10
585.0
 20
310.0
 30
0.0
 40
4.0
  1
B
100
AcDbText
  0
TEXT
  5
9AB
330
989
100
AcDbEntity
  8
AM_BOR
 62
     1
370
    25
100
AcDbText
 10
585.0
 20
376.0
 30
0.0
 40
4.0
  1
A
100
AcDbText
  0
TEXT
  5
9AC
330
989
100
AcDbEntity
  8
AM_BOR
 62
     1
370
    25
100
AcDbText
 10
263.0
 20
5.5
 30
0.0
 40
4.0
  1
4
100
AcDbText
  0
TEXT
  5
9AD
330
989
100
AcDbEntity
  8
AM_BOR
 62
     1
370
    25
100
AcDbText
 10
190.5
 20
5.5
 30
0.0
 40
4.0
  1
3
100
AcDbText
  0
TEXT
  5
9AE
330
989
100
AcDbEntity
  8
AM_BOR
 62
     1
370
    25
100
AcDbText
 10
117.5
 20
5.5
 30
0.0
 40
4.0
  1
2
100
AcDbText
  0
TEXT
  5
9AF
330
989
100
AcDbEntity
  8
AM_BOR
 62
     1
370
    25
100
AcDbText
 10
45.49999999999999
 20
5.5
 30
0.0
 40
4.0
  1
1
100
AcDbText
  0
TEXT
  5
9B0
330
989
100
AcDbEntity
  8
AM_BOR
 62
     1
370
    25
100
AcDbText
 10
6.0
 20
376.0
 30
0.0
 40
4.0
  1
A
100
AcDbText
  0
TEXT
  5
9B1
330
989
100
AcDbEntity
  8
AM_BOR
 62
     1
370
    25
100
AcDbText
 10
6.0
 20
310.0
 30
0.0
 40
4.0
  1
B
100
AcDbText
  0
TEXT
  5
9B2
330
989
100
AcDbEntity
  8
AM_BOR
 62
     1
370
    25
100
AcDbText
 10
6.0
 20
243.0
 30
0.0
 40
4.0
  1
C
100
AcDbText
  0
TEXT
  5
9B3
330
989
100
AcDbEntity
  8
AM_BOR
 62
     1
370
    25
100
AcDbText
 10
6.0
 20
176.0
 30
0.0
 40
4.0
  1
D
100
AcDbText
  0
TEXT
  5
9B4
330
989
100
AcDbEntity
  8
AM_BOR
 62
     1
370
    25
100
AcDbText
 10
6.0
 20
109.0
 30
0.0
 40
4.0
  1
E
100
AcDbText
  0
TEXT
  5
9B5
330
989
100
AcDbEntity
  8
AM_BOR
 62
     1
370
    25
100
AcDbText
 10
6.0
 20
43.0
 30
0.0
 40
4.0
  1
F
100
AcDbText
  0
LINE
  5
9B6
330
989
100
AcDbEntity
  8
AM_BOR
 62
     1
370
    25
100
AcDbLine
 10
9.983113875875869
 20
343.3579191068519
 30
0.0
 11
5.0
 21
343.3579191068519
 31
0.0
  0
LINE
  5
9B7
330
989
100
AcDbEntity
  8
AM_BOR
 62
     1
370
    25
100
AcDbLine
 10
9.983113875875869
 20
276.6979191068519
 30
0.0
 11
5.0
 21
276.6979191068519
 31
0.0
  0
LINE
  5
9B8
330
989
100
AcDbEntity
  8
AM_BOR
 62
     1
370
    25
100
AcDbLine
 10
9.983113875875869
 20
210.0379191068519
 30
0.0
 11
5.0
 21
210.0379191068519
 31
0.0
  0
LINE
  5
9B9
330
989
100
AcDbEntity
  8
AM_BOR
 62
     1
370
    25
100
AcDbLine
 10
9.983113875875869
 20
143.3779191068518
 30
0.0
 11
5.0
 21
143.3779191068518
 31
0.0
  0
LINE
  5
9BA
330
989
100
AcDbEntity
  8
AM_BOR
 62
     1
370
    25
100
AcDbLine
 10
9.983113875875869
 20
76.71791910685186
 30
0.0
 11
5.0
 21
76.71791910685186
 31
0.0
  0
LINE
  5
9BB
330
989
100
AcDbEntity
  8
AM_BOR
 62
     1
370
    25
100
AcDbLine
 10
299.4999999999999
 20
10.00000000000007
 30
0.0
 11
299.4999999999999
 21
5.00000000000007
 31
0.0
  0
LINE
  5
9BC
330
989
100
AcDbEntity
  8
AM_BOR
 62
     1
370
    25
100
AcDbLine
 10
227.1249999999999
 20
10.00000000000007
 30
0.0
 11
227.1249999999999
 21
5.00000000000007
 31
0.0
  0
LINE
  5
9BD
330
989
100
AcDbEntity
  8
AM_BOR
 62
     1
370
    25
100
AcDbLine
 10
154.7499999999999
 20
10.00000000000007
 30
0.0
 11
154.7499999999999
 21
5.00000000000007
 31
0.0
  0
LINE
  5
9BE
330
989
100
AcDbEntity
  8
AM_BOR
 62
     1
370
    25
100
AcDbLine
 10
82.37499999999988
 20
10.00000000000007
 30
0.0
 11
82.37499999999988
 21
5.00000000000007
 31
0.0
  0
LINE
  5
9BF
330
989
100
AcDbEntity
  8
AM_BOR
 62
     1
370
    25
100
AcDbLine
 10
584.0
 20
410.0
 30
0.0
 11
583.9999999999998
 21
5.0
 31
0.0
  0
LINE
  5
9C0
330
989
100
AcDbEntity
  8
AM_BOR
 62
     1
370
    25
100
AcDbLine
 10
10.0
 20
10.0
 30
0.0
 11
10.00000000000002
 21
410.0
 31
0.0
  0
LINE
  5
9C1
330
989
100
AcDbEntity
  8
0
100
AcDbLine
 10
588.9999999999998
 20
5.0
 30
0.0
 11
4.999999999999886
 21
5.000000000000071
 31
0.0
  0
LINE
  5
9C2
330
989
100
AcDbEntity
  8
0
100
AcDbLine
 10
589.0
 20
415.0
 30
0.0
 11
588.9999999999998
 21
5.0
 31
0.0
  0
LINE
  5
9C3
330
989
100
AcDbEntity
  8
0
100
AcDbLine
 10
5.000000000000024
 20
415.0
 30
0.0
 11
589.0
 21
415.0
 31
0.0
  0
LINE
  5
9C4
330
989
100
AcDbEntity
  8
AM_BOR
 62
     1
370
    25
100
AcDbLine
 10
593.9999999999998
 20
0.0
 30
0.0
 11
-0.0000000000001137
 21
0.0000000000000727
 31
0.0
  0
LINE
  5
9C5
330
989
100
AcDbEntity
  8
AM_BOR
 62
     1
370
    25
100
AcDbLine
 10
0.0000000000000257
 20
420.0
 30
0.0
 11
594.0
 21
420.0
 31
0.0
  0
LINE
  5
9C6
330
989
100
AcDbEntity
  8
AM_BOR
 62
     1
370
    25
100
AcDbLine
 10
0.0
 20
0.0
 30
0.0
 11
0.0000000000000257
 21
420.0
 31
0.0
  0
LINE
  5
9C7
330
989
100
AcDbEntity
  8
AM_BOR
 62
     1
370
    25
100
AcDbLine
 10
210.0
 20
5.0
 30
0.0
 11
210.0
 21
0.0
 31
0.0
  0
LINE
  5
9C8
330
989
100
AcDbEntity
  8
AM_BOR
 62
     1
370
    25
100
AcDbLine
 10
0.0
 20
297.0
 30
0.0
 11
5.0
 21
297.0
 31
0.0
  0
LINE
  5
9C9
330
989
100
AcDbEntity
  8
AM_BOR
 62
     1
370
    25
100
AcDbLine
 10
105.0
 20
420.0
 30
0.0
 11
105.0
 21
415.0
 31
0.0
  0
LINE
  5
9CA
330
989
100
AcDbEntity
  8
AM_BOR
 62
     1
370
    25
100
AcDbLine
 10
594.0
 20
420.0
 30
0.0
 11
593.9999999999998
 21
0.0
 31
0.0
1001
GENIUS_VERSION2
1070
     2
  0
MTEXT
  5
9CB
330
989
100
AcDbEntity
  8
RAHM2
100
AcDbMText
 10
374.9022607207864
 20
9.282856166729633
 30
0.0
 40
2.5
 41
51.25
 71
     5
 72
     5
  1
{\f@Arial Unicode MS|b0|i0|c0|p34;\W0.9;ACO Passavant GmbH\f@Arial Unicode MS|b0|i1|c0|p34;\P\Fgeniso|c0;\H0.72x;\W1;Schutzvermerk nach DIN 34}
 73
     1
 44
1.0
1001
ACAD
1000
MTEXTBEGIN
1070
    73
1070
     1
1070
    44
1040
1.0
1070
    74
1070
     0
1000
MTEXTEND
  0
LWPOLYLINE
  5
9CC
330
989
100
AcDbEntity
  8
RAHM2
100
AcDbPolyline
 90
        4
 70
     1
 43
0.0
 10
401.1200012618344
 20
5.000000000000031
 10
331.1200012618344
 20
5.000000000000031
 10
331.1200012618344
 20
13.50000000000003
 10
401.1200012618344
 20
13.50000000000002
1001
GENIUS_GENREC_14
1002
{
1000
PXDIR
1011
331.1200012618344
1021
5.000000000000031
1031
0.0
1002
}
1002
{
1000
PORI
1011
401.1200012618344
1021
5.000000000000031
1031
0.0
1002
}
1002
{
1000
PINS
1011
401.1200012618344
1021
5.000000000000031
1031
0.0
1002
}
1002
{
1000
HVAL
1000
8.5
1002
}
1002
{
1000
H
1070
     2
1002
}
1002
{
1000
WVAL
1000
-70
1002
}
1002
{
1000
W
1070
     2
1002
}
1002
{
1000
C
1070
     1
1002
}
1001
GENIUS_GENODEF_13
1002
{
1000
HIER
1070
     0
1002
}
1002
{
1000
MANEDIT
1070
     0
1002
}
1002
{
1000
NOSEL
1070
     0
1002
}
1002
{
1000
BEHIND
1070
     0
1002
}
1002
{
1000
REACTOR
1002
}
1001
GENIUS_GENOBJ-N-REC_13
1002
{
1000
OWNER
1000
GEN
1002
}
  0
MTEXT
  5
9CD
102
{ACAD_XDICTIONARY
360
2B49
102
}
330
989
100
AcDbEntity
  8
RAHM2
100
AcDbMText
 10
332.8183538069351
 20
12.32474728438519
 30
0.0
 40
3.5
 41
4.301759591192151
 71
     1
 72
     5
  1
\fArial|b0|i0|c0|p32;\U+00A9
 73
     1
 44
1.0
1001
ACAD
1000
MTEXTBEGIN
1070
    73
1070
     1
1070
    44
1040
1.0
1070
    74
1070
     0
1000
MTEXTEND
  0
MTEXT
  5
9CE
330
989
100
AcDbEntity
  8
RAHM2
100
AcDbMText
 10
339.5515431528592
 20
11.24554815700972
 30
0.0
 40
2.0
 41
5.5175
 71
     1
 72
     5
  1
2004
 73
     1
 44
1.0
1001
ACAD
1000
MTEXTBEGIN
1070
    73
1070
     1
1070
    44
1040
1.0
1070
    74
1070
     0
1000
MTEXTEND
  0
ENDBLK
  5
9D0
330
989
100
AcDbEntity
  8
0
100
AcDbBlockEnd
  0
BLOCK
  5
1340
330
128F
100
AcDbEntity
  8
0
100
AcDbBlockBegin
  2
A$C5DDC2E70
 70
     0
 10
0.0
 20
0.0
 30
0.0
  3
A$C5DDC2E70
  1

  0
LINE
  5
1290
330
128F
100
AcDbEntity
  8
0
  6
Continuous
 62
     7
100
AcDbLine
 10
967.0255162667771
 20
128.1741438908266
 30
0.0
 11
967.0255162667771
 21
132.1741438908266
 31
0.0
  0
LINE
  5
1291
330
128F
100
AcDbEntity
  8
0
  6
Continuous
 62
     2
100
AcDbLine
 10
966.9653704560769
 20
128.1741438908266
 30
0.0
 11
966.615415801978
 21
132.1741438908266
 31
0.0
  0
LINE
  5
1292
330
128F
100
AcDbEntity
  8
0
  6
Continuous
 62
     7
100
AcDbLine
 10
921.7755162667772
 20
132.1741438908266
 30
0.0
 11
921.7755162667772
 21
133.6741438908266
 31
0.0
  0
LINE
  5
1293
330
128F
100
AcDbEntity
  8
0
  6
Continuous
 62
     7
100
AcDbLine
 10
921.2755162667772
 20
133.6741438908266
 30
0.0
 11
921.2755162667772
 21
156.6739082040267
 31
0.0
  0
LINE
  5
1294
330
128F
100
AcDbEntity
  8
0
  6
Continuous
 62
     7
100
AcDbLine
 10
913.2755162667772
 20
133.6741438908266
 30
0.0
 11
913.2755162667772
 21
156.6739082040267
 31
0.0
  0
LINE
  5
1295
330
128F
100
AcDbEntity
  8
0
  6
Continuous
 62
     7
100
AcDbLine
 10
912.7755162667773
 20
132.1741438908266
 30
0.0
 11
912.7755162667773
 21
133.6741438908266
 31
0.0
  0
LINE
  5
1296
330
128F
100
AcDbEntity
  8
0
  6
Continuous
 62
     2
100
AcDbLine
 10
935.4191808547776
 20
128.1741438908266
 30
0.0
 11
935.0692262006777
 21
132.1741438908266
 31
0.0
  0
LINE
  5
1297
330
128F
100
AcDbEntity
  8
0
  6
Continuous
 62
     7
100
AcDbLine
 10
887.7266795796776
 20
132.1741438908266
 30
0.0
 11
887.7266795796776
 21
133.6741438908266
 31
0.0
  0
LINE
  5
1298
330
128F
100
AcDbEntity
  8
0
  6
Continuous
 62
     7
100
AcDbLine
 10
887.2266795796777
 20
133.6741438908266
 30
0.0
 11
887.2266795796777
 21
156.6741081783266
 31
0.0
  0
LINE
  5
1299
330
128F
100
AcDbEntity
  8
0
  6
Continuous
 62
     7
100
AcDbLine
 10
879.2266795796777
 20
133.6741438908266
 30
0.0
 11
879.2266795796777
 21
156.6741081783266
 31
0.0
  0
LINE
  5
129A
330
128F
100
AcDbEntity
  8
0
  6
Continuous
 62
     7
100
AcDbLine
 10
878.7266795796776
 20
132.1741438908266
 30
0.0
 11
878.7266795796776
 21
133.6741438908266
 31
0.0
  0
LINE
  5
129B
330
128F
100
AcDbEntity
  8
0
  6
Continuous
 62
     7
100
AcDbLine
 10
875.9255162667777
 20
128.1741438908266
 30
0.0
 11
875.9255162667777
 21
30.1741438908266
 31
0.0
  0
LINE
  5
129C
330
128F
100
AcDbEntity
  8
0
  6
Continuous
 62
     7
100
AcDbLine
 10
875.7755162667772
 20
132.1741438908266
 30
0.0
 11
875.7755162667772
 21
128.1741438908266
 31
0.0
  0
LINE
  5
129D
330
128F
100
AcDbEntity
  8
0
  6
Continuous
 62
     2
100
AcDbLine
 10
903.8729912534773
 20
128.1741438908266
 30
0.0
 11
903.5230365993776
 21
132.1741438908266
 31
0.0
  0
LINE
  5
129E
330
128F
100
AcDbEntity
  8
0
  6
Continuous
 62
     2
100
AcDbLine
 10
919.5295286764777
 20
157.1741438908266
 30
0.0
 11
921.2755162667772
 21
153.4298614204265
 31
0.0
  0
LINE
  5
129F
330
128F
100
AcDbEntity
  8
0
  6
Continuous
 62
     2
100
AcDbLine
 10
917.9968803901774
 20
157.1741438908266
 30
0.0
 11
921.2755162667772
 21
150.1430865636266
 31
0.0
  0
LINE
  5
12A0
330
128F
100
AcDbEntity
  8
0
  6
Continuous
 62
     2
100
AcDbLine
 10
916.4642321038773
 20
157.1741438908266
 30
0.0
 11
921.2755162667772
 21
146.8563117069266
 31
0.0
  0
LINE
  5
12A1
330
128F
100
AcDbEntity
  8
0
  6
Continuous
 62
     2
100
AcDbLine
 10
914.931583817477
 20
157.1741438908266
 30
0.0
 11
921.2755162667772
 21
143.5695368502265
 31
0.0
  0
LINE
  5
12A2
330
128F
100
AcDbEntity
  8
0
  6
Continuous
 62
     2
100
AcDbLine
 10
913.5187642036781
 20
156.9171704735265
 30
0.0
 11
921.2755162667772
 21
140.2827619935267
 31
0.0
  0
LINE
  5
12A3
330
128F
100
AcDbEntity
  8
0
  6
Continuous
 62
     2
100
AcDbLine
 10
913.2755162667772
 20
154.1520425008266
 30
0.0
 11
921.2755162667772
 21
136.9959871367266
 31
0.0
  0
LINE
  5
12A4
330
128F
100
AcDbEntity
  8
0
  6
Continuous
 62
     2
100
AcDbLine
 10
913.2755162667772
 20
150.8652676441265
 30
0.0
 11
921.2755162667772
 21
133.7092122800266
 31
0.0
  0
LINE
  5
12A5
330
128F
100
AcDbEntity
  8
0
  6
Continuous
 62
     2
100
AcDbLine
 10
921.2918689251774
 20
133.6741438908266
 30
0.0
 11
921.7755162667772
 21
132.6369588198265
 31
0.0
  0
LINE
  5
12A6
330
128F
100
AcDbEntity
  8
0
  6
Continuous
 62
     2
100
AcDbLine
 10
913.2755162667772
 20
147.5784927874265
 30
0.0
 11
920.4586821260773
 21
132.1741438908266
 31
0.0
  0
LINE
  5
12A7
330
128F
100
AcDbEntity
  8
0
  6
Continuous
 62
     2
100
AcDbLine
 10
913.2755162667772
 20
144.2917179306266
 30
0.0
 11
918.926033839778
 21
132.1741438908266
 31
0.0
  0
LINE
  5
12A8
330
128F
100
AcDbEntity
  8
0
  6
Continuous
 62
     2
100
AcDbLine
 10
913.2755162667772
 20
141.0049430739266
 30
0.0
 11
917.3933855534778
 21
132.1741438908266
 31
0.0
  0
LINE
  5
12A9
330
128F
100
AcDbEntity
  8
0
  6
Continuous
 62
     2
100
AcDbLine
 10
913.2755162667772
 20
137.7181682172265
 30
0.0
 11
915.8607372670775
 21
132.1741438908266
 31
0.0
  0
LINE
  5
12AA
330
128F
100
AcDbEntity
  8
0
  6
Continuous
 62
     2
100
AcDbLine
 10
913.2755162667772
 20
134.4313933604267
 30
0.0
 11
914.3280889807774
 21
132.1741438908266
 31
0.0
  0
LINE
  5
12AB
330
128F
100
AcDbEntity
  8
0
  6
Continuous
 62
     2
100
AcDbLine
 10
912.7755162667773
 20
132.2168719640267
 30
0.0
 11
912.7954406944773
 21
132.1741438908266
 31
0.0
  0
LINE
  5
12AC
330
128F
100
AcDbEntity
  8
0
  6
Continuous
 62
     7
100
AcDbLine
 10
874.4255162667778
 20
128.1741438908266
 30
0.0
 11
874.4255162667778
 21
30.1741438908266
 31
0.0
  0
LINE
  5
12AD
330
128F
100
AcDbEntity
  8
0
  6
Continuous
 62
     7
100
AcDbLine
 10
920.7753100528771
 20
157.1741438908266
 30
0.0
 11
921.2755162667772
 21
156.6739082040267
 31
0.0
  0
LINE
  5
12AE
330
128F
100
AcDbEntity
  8
0
  6
Continuous
 62
     7
100
AcDbLine
 10
805.5255162667773
 20
132.1741438908266
 30
0.0
 11
805.5255162667773
 21
133.6741438908266
 31
0.0
  0
LINE
  5
12AF
330
128F
100
AcDbEntity
  8
0
  6
Continuous
 62
     7
100
AcDbLine
 10
805.0255162667772
 20
133.6741438908266
 30
0.0
 11
805.0255162667772
 21
156.6741438908266
 31
0.0
  0
LINE
  5
12B0
330
128F
100
AcDbEntity
  8
0
  6
Continuous
 62
     7
100
AcDbLine
 10
797.0255162667772
 20
133.6741438908266
 30
0.0
 11
797.0255162667772
 21
156.6741438908266
 31
0.0
  0
LINE
  5
12B1
330
128F
100
AcDbEntity
  8
0
  6
Continuous
 62
     7
100
AcDbLine
 10
796.5255162667772
 20
132.1741438908266
 30
0.0
 11
796.5255162667772
 21
133.6741438908266
 31
0.0
  0
LINE
  5
12B2
330
128F
100
AcDbEntity
  8
FASEN
  6
Continuous
 62
     7
100
AcDbLine
 10
886.7265615661771
 20
157.1740556853267
 30
0.0
 11
887.2265795925777
 21
156.6740081970265
 31
0.0
  0
LINE
  5
12B3
330
128F
100
AcDbEntity
  8
FASEN
  6
Continuous
 62
     7
100
AcDbLine
 10
804.5254131230777
 20
157.1740408146265
 30
0.0
 11
805.0253983883775
 21
156.6740260893266
 31
0.0
  0
LINE
  5
12B4
330
128F
100
AcDbEntity
  8
0
  6
Continuous
 62
     2
100
AcDbLine
 10
875.9255162667777
 20
39.80264717882665
 30
0.0
 11
874.4255162667778
 21
38.75233587152661
 31
0.0
  0
LINE
  5
12B5
330
128F
100
AcDbEntity
  8
0
  6
Continuous
 62
     2
100
AcDbLine
 10
847.1790344172777
 20
19.6741438908266
 30
0.0
 11
845.0368124071774
 21
18.1741438908266
 31
0.0
  0
LINE
  5
12B6
330
128F
100
AcDbEntity
  8
0
  6
Continuous
 62
     2
100
AcDbLine
 10
875.9255162667777
 20
55.89043423752662
 30
0.0
 11
874.4255162667778
 21
54.84012293022658
 31
0.0
  0
LINE
  5
12B7
330
128F
100
AcDbEntity
  8
0
  6
Continuous
 62
     2
100
AcDbLine
 10
824.2032933965774
 20
19.6741438908266
 30
0.0
 11
822.0610713864775
 21
18.1741438908266
 31
0.0
  0
LINE
  5
12B8
330
128F
100
AcDbEntity
  8
0
  6
Continuous
 62
     7
100
AcDbLine
 10
913.7757224805772
 20
157.1741438908266
 30
0.0
 11
913.2755162667772
 21
156.6739082040267
 31
0.0
  0
LINE
  5
12B9
330
128F
100
AcDbEntity
  8
0
  6
Continuous
 62
     7
100
AcDbLine
 10
732.2755162667772
 20
18.85620796972659
 30
0.0
 11
732.2755162667772
 21
20.35672219392666
 31
0.0
  0
LINE
  5
12BA
330
128F
100
AcDbEntity
  8
0
  6
Continuous
 62
     7
100
AcDbLine
 10
727.6255162667776
 20
128.1741438908266
 30
0.0
 11
727.6255162667776
 21
122.1741438908266
 31
0.0
  0
LINE
  5
12BB
330
128F
100
AcDbEntity
  8
0
  6
Continuous
 62
     7
100
AcDbLine
 10
726.2755162667772
 20
132.1741438908266
 30
0.0
 11
726.2755162667772
 21
128.1741438908266
 31
0.0
  0
LINE
  5
12BC
330
128F
100
AcDbEntity
  8
0
  6
Continuous
 62
     7
100
AcDbLine
 10
726.2755162667772
 20
120.2338858426267
 30
0.0
 11
726.2755162667772
 21
121.7344000668265
 31
0.0
  0
LINE
  5
12BD
330
128F
100
AcDbEntity
  8
0
  6
Continuous
 62
     7
100
AcDbLine
 10
726.1255162667776
 20
128.1741438908266
 30
0.0
 11
726.1255162667776
 21
122.1741438908266
 31
0.0
  0
LINE
  5
12BE
330
128F
100
AcDbEntity
  8
0
  6
Continuous
 62
     7
100
AcDbLine
 10
723.3243529537776
 20
132.1741438908266
 30
0.0
 11
723.3243529537776
 21
133.6741438908266
 31
0.0
  0
LINE
  5
12BF
330
128F
100
AcDbEntity
  8
0
  6
Continuous
 62
     7
100
AcDbLine
 10
722.8243529537776
 20
133.6741438908266
 30
0.0
 11
722.8243529537776
 21
156.6741328596265
 31
0.0
  0
LINE
  5
12C0
330
128F
100
AcDbEntity
  8
0
  6
Continuous
 62
     7
100
AcDbLine
 10
714.8243529537776
 20
133.6741438908266
 30
0.0
 11
714.8243529537776
 21
156.6741328596265
 31
0.0
  0
LINE
  5
12C1
330
128F
100
AcDbEntity
  8
0
  6
Continuous
 62
     7
100
AcDbLine
 10
714.3243529537776
 20
132.1741438908266
 30
0.0
 11
714.3243529537776
 21
133.6741438908266
 31
0.0
  0
LINE
  5
12C2
330
128F
100
AcDbEntity
  8
0
  6
Continuous
 62
     2
100
AcDbLine
 10
714.5958536456774
 20
128.1741438908266
 30
0.0
 11
714.2458989915776
 21
132.1741438908266
 31
0.0
  0
LINE
  5
12C3
330
128F
100
AcDbEntity
  8
0
  6
Continuous
 62
     2
100
AcDbLine
 10
875.9255162667777
 20
71.97822129622659
 30
0.0
 11
874.4255162667778
 21
70.92790998892656
 31
0.0
  0
LINE
  5
12C4
330
128F
100
AcDbEntity
  8
0
  6
Continuous
 62
     2
100
AcDbLine
 10
801.2275523758775
 20
19.6741438908266
 30
0.0
 11
799.0853303656777
 21
18.1741438908266
 31
0.0
  0
LINE
  5
12C5
330
128F
100
AcDbEntity
  8
0
  6
Continuous
 62
     2
100
AcDbLine
 10
875.9255162667777
 20
88.06600835482663
 30
0.0
 11
874.4255162667778
 21
87.0156970475266
 31
0.0
  0
LINE
  5
12C6
330
128F
100
AcDbEntity
  8
0
  6
Continuous
 62
     2
100
AcDbLine
 10
778.2518113550777
 20
19.6741438908266
 30
0.0
 11
776.1095893449773
 21
18.1741438908266
 31
0.0
  0
LINE
  5
12C7
330
128F
100
AcDbEntity
  8
FASEN
  6
Continuous
 62
     7
100
AcDbLine
 10
879.7267975931772
 20
157.1740556853267
 30
0.0
 11
879.2267795668776
 21
156.6740081970265
 31
0.0
  0
LINE
  5
12C8
330
128F
100
AcDbEntity
  8
0
  6
Continuous
 62
     7
100
AcDbLine
 10
689.2755162667772
 20
132.1741438908266
 30
0.0
 11
689.2755162667772
 21
133.6741438908266
 31
0.0
  0
LINE
  5
12C9
330
128F
100
AcDbEntity
  8
0
  6
Continuous
 62
     7
100
AcDbLine
 10
688.7755162667772
 20
133.6741438908266
 30
0.0
 11
688.7755162667772
 21
156.6739082040267
 31
0.0
  0
LINE
  5
12CA
330
128F
100
AcDbEntity
  8
0
  6
Continuous
 62
     7
100
AcDbLine
 10
680.7755162667772
 20
133.6741438908266
 30
0.0
 11
680.7755162667772
 21
156.6739082040267
 31
0.0
  0
LINE
  5
12CB
330
128F
100
AcDbEntity
  8
0
  6
Continuous
 62
     7
100
AcDbLine
 10
680.2755162667772
 20
132.1741438908266
 30
0.0
 11
680.2755162667772
 21
133.6741438908266
 31
0.0
  0
LINE
  5
12CC
330
128F
100
AcDbEntity
  8
0
  6
Continuous
 62
     2
100
AcDbLine
 10
683.0496640443775
 20
128.1741438908266
 30
0.0
 11
682.6997093902773
 21
132.1741438908266
 31
0.0
  0
LINE
  5
12CD
330
128F
100
AcDbEntity
  8
FASEN
  6
Continuous
 62
     7
100
AcDbLine
 10
722.3242452931772
 20
157.1740453319266
 30
0.0
 11
722.8242406259774
 21
156.6740205384267
 31
0.0
  0
LINE
  5
12CE
330
128F
100
AcDbEntity
  8
0
  6
Continuous
 62
     7
100
AcDbLine
 10
6.993544476777515
 20
0.5457482225266404
 30
0.0
 11
2.599312680377352
 21
1.600709939326634
 31
0.0
  0
LINE
  5
12CF
330
128F
100
AcDbEntity
  8
0
  6
Continuous
 62
     7
100
AcDbLine
 10
7.343712389177653
 20
2.004303135126633
 30
0.0
 11
2.949480726177625
 21
3.059264819926625
 31
0.0
  0
LINE
  5
12D0
330
128F
100
AcDbEntity
  8
0
  6
Continuous
 62
     2
100
AcDbLine
 10
875.9255162667777
 20
104.1537954135267
 30
0.0
 11
874.4255162667778
 21
103.1034841062267
 31
0.0
  0
LINE
  5
12D1
330
128F
100
AcDbEntity
  8
0
  6
Continuous
 62
     2
100
AcDbLine
 10
755.2760703343774
 20
19.6741438908266
 30
0.0
 11
753.1338483242775
 21
18.1741438908266
 31
0.0
  0
LINE
  5
12D2
330
128F
100
AcDbEntity
  8
0
  6
Continuous
 62
     2
100
AcDbLine
 10
875.9255162667777
 20
120.2415824722266
 30
0.0
 11
874.4255162667778
 21
119.1912711649265
 31
0.0
  0
LINE
  5
12D3
330
128F
100
AcDbEntity
  8
0
  6
Continuous
 62
     2
100
AcDbLine
 10
651.5034744430777
 20
128.1741438908266
 30
0.0
 11
651.1535197889775
 21
132.1741438908266
 31
0.0
  0
LINE
  5
12D4
330
128F
100
AcDbEntity
  8
0
  6
Continuous
 62
     7
100
AcDbLine
 10
688.2753100528775
 20
157.1741438908266
 30
0.0
 11
688.7755162667772
 21
156.6739082040267
 31
0.0
  0
LINE
  5
12D5
330
128F
100
AcDbEntity
  8
FASEN
  6
Continuous
 62
     7
100
AcDbLine
 10
797.5256194240773
 20
157.1740408283267
 30
0.0
 11
797.0256341607774
 21
156.6740261049267
 31
0.0
  0
LINE
  5
12D6
330
128F
100
AcDbEntity
  8
0
  6
Continuous
 62
     2
100
AcDbLine
 10
619.4713590498777
 20
133.7283011077265
 30
0.0
 11
618.9289979873774
 21
139.9275164197265
 31
0.0
  0
LINE
  5
12D7
330
128F
100
AcDbEntity
  8
FASEN
  6
Continuous
 62
     7
100
AcDbLine
 10
598.5090119755778
 20
195.7028414908266
 30
0.0
 11
593.5592645011775
 21
200.6525889652266
 31
0.0
  0
LINE
  5
12D8
330
128F
100
AcDbEntity
  8
FASEN
  6
Continuous
 62
     7
100
AcDbLine
 10
598.5090119720775
 20
194.9957347128265
 30
0.0
 11
592.8521577225774
 21
200.6525889623267
 31
0.0
  0
LINE
  5
12D9
330
128F
100
AcDbEntity
  8
0
  6
Continuous
 62
     2
100
AcDbLine
 10
683.5975019966772
 20
157.1741438908266
 30
0.0
 11
688.7755162667772
 21
154.7595961827266
 31
0.0
  0
LINE
  5
12DA
330
128F
100
AcDbEntity
  8
0
  6
Continuous
 62
     2
100
AcDbLine
 10
680.7755162667772
 20
156.2800293628265
 30
0.0
 11
688.7755162667772
 21
152.5495680976266
 31
0.0
  0
LINE
  5
12DB
330
128F
100
AcDbEntity
  8
0
  6
Continuous
 62
     2
100
AcDbLine
 10
680.7755162667772
 20
154.0700012777265
 30
0.0
 11
688.7755162667772
 21
150.3395400125266
 31
0.0
  0
LINE
  5
12DC
330
128F
100
AcDbEntity
  8
0
  6
Continuous
 62
     2
100
AcDbLine
 10
680.7755162667772
 20
151.8599731926265
 30
0.0
 11
688.7755162667772
 21
148.1295119274266
 31
0.0
  0
LINE
  5
12DD
330
128F
100
AcDbEntity
  8
0
  6
Continuous
 62
     2
100
AcDbLine
 10
134.1533121810775
 20
3.193826844726572
 30
0.0
 11
120.9532268409775
 21
4.348684669526619
 31
0.0
  0
LINE
  5
12DE
330
128F
100
AcDbEntity
  8
FASEN
  6
Continuous
 62
     7
100
AcDbLine
 10
598.5088661527774
 20
195.7028415418265
 30
0.0
 11
598.5088453213775
 21
194.9957347673267
 31
0.0
  0
LINE
  5
12DF
330
128F
100
AcDbEntity
  8
0
  6
Continuous
 62
     2
100
AcDbLine
 10
584.9006218542772
 20
168.2990383033266
 30
0.0
 11
584.3582607916773
 21
174.4982536154266
 31
0.0
  0
LINE
  5
12E0
330
128F
100
AcDbEntity
  8
0
  6
Continuous
 62
     7
100
AcDbLine
 10
582.5980133517773
 20
178.3798213989266
 30
0.0
 11
576.2362444086774
 21
184.7415903420267
 31
0.0
  0
LINE
  5
12E1
330
128F
100
AcDbEntity
  8
0
  6
Continuous
 62
     7
100
AcDbLine
 10
625.5107976409776
 20
133.3457167661265
 30
0.0
 11
553.6077313668775
 21
205.2487830402267
 31
0.0
  0
LINE
  5
12E2
330
128F
100
AcDbEntity
  8
0
  6
Continuous
 62
     7
100
AcDbLine
 10
622.6823705162773
 20
130.5172896413266
 30
0.0
 11
550.7793042421776
 21
202.4203559154266
 31
0.0
  0
LINE
  5
12E3
330
128F
100
AcDbEntity
  8
0
  6
Continuous
 62
     2
100
AcDbLine
 10
680.7755162667772
 20
149.6499451076265
 30
0.0
 11
688.7755162667772
 21
145.9194838423266
 31
0.0
  0
LINE
  5
12E4
330
128F
100
AcDbEntity
  8
0
  6
Continuous
 62
     2
100
AcDbLine
 10
680.7755162667772
 20
147.4399170225265
 30
0.0
 11
688.7755162667772
 21
143.7094557572265
 31
0.0
  0
LINE
  5
12E5
330
128F
100
AcDbEntity
  8
0
  6
Continuous
 62
     2
100
AcDbLine
 10
680.7755162667772
 20
145.2298889374267
 30
0.0
 11
688.7755162667772
 21
141.4994276721265
 31
0.0
  0
LINE
  5
12E6
330
128F
100
AcDbEntity
  8
0
  6
Continuous
 62
     2
100
AcDbLine
 10
680.7755162667772
 20
143.0198608523267
 30
0.0
 11
688.7755162667772
 21
139.2893995871266
 31
0.0
  0
LINE
  5
12E7
330
128F
100
AcDbEntity
  8
0
  6
Continuous
 62
     2
100
AcDbLine
 10
680.7755162667772
 20
140.8098327672266
 30
0.0
 11
688.7755162667772
 21
137.0793715020265
 31
0.0
  0
LINE
  5
12E8
330
128F
100
AcDbEntity
  8
0
  6
Continuous
 62
     2
100
AcDbLine
 10
680.7755162667772
 20
138.5998046821266
 30
0.0
 11
688.7755162667772
 21
134.8693434169265
 31
0.0
  0
LINE
  5
12E9
330
128F
100
AcDbEntity
  8
0
  6
Continuous
 62
     2
100
AcDbLine
 10
680.7755162667772
 20
136.3897765970266
 30
0.0
 11
689.2755162667772
 21
132.4261615027267
 31
0.0
  0
LINE
  5
12EA
330
128F
100
AcDbEntity
  8
0
  6
Continuous
 62
     2
100
AcDbLine
 10
680.7755162667772
 20
134.1797485119266
 30
0.0
 11
685.0765492565774
 21
132.1741438908266
 31
0.0
  0
LINE
  5
12EB
330
128F
100
AcDbEntity
  8
0
  6
Continuous
 62
     2
100
AcDbLine
 10
680.2755162667772
 20
132.2028742559266
 30
0.0
 11
680.3371287335776
 21
132.1741438908266
 31
0.0
  0
LINE
  5
12EC
330
128F
100
AcDbEntity
  8
0
  6
Continuous
 62
     2
100
AcDbLine
 10
258.8955116857778
 20
6.460316297326585
 30
0.0
 11
245.6954263456773
 21
7.615174122126632
 31
0.0
  0
LINE
  5
12ED
330
128F
100
AcDbEntity
  8
0
  6
Continuous
 62
     2
100
AcDbLine
 10
383.6377111904776
 20
9.726805749926597
 30
0.0
 11
370.4376258503776
 21
10.88166357472664
 31
0.0
  0
LINE
  5
12EE
330
128F
100
AcDbEntity
  8
0
  6
Continuous
 62
     2
100
AcDbLine
 10
726.4242008999772
 20
128.1741438908266
 30
0.0
 11
726.1255162667776
 21
127.9650026591266
 31
0.0
  0
LINE
  5
12EF
330
128F
100
AcDbEntity
  8
FASEN
  6
Continuous
 62
     7
100
AcDbLine
 10
715.3244606144776
 20
157.1740453319266
 30
0.0
 11
714.8244652816774
 21
156.6740205384267
 31
0.0
  0
LINE
  5
12F0
330
128F
100
AcDbEntity
  8
0
  6
Continuous
 62
     7
100
AcDbLine
 10
681.2757224805773
 20
157.1741438908266
 30
0.0
 11
680.7755162667772
 21
156.6739082040267
 31
0.0
  0
LINE
  5
12F1
330
128F
100
AcDbEntity
  8
0
  6
Continuous
 62
     2
100
AcDbLine
 10
508.3799106950773
 20
12.99329520252661
 30
0.0
 11
495.1798253549777
 21
14.14815302732665
 31
0.0
  0
LINE
  5
12F2
330
128F
100
AcDbEntity
  8
0
  6
Continuous
 62
     2
100
AcDbLine
 10
633.1221101997775
 20
16.25978465512662
 30
0.0
 11
619.9220248596775
 21
17.41464247992667
 31
0.0
  0
LINE
  5
12F3
330
128F
100
AcDbEntity
  8
0
  6
Continuous
 62
     7
100
AcDbLine
 10
738.1255162667776
 20
18.1741438908266
 30
0.0
 11
863.9255162667778
 21
18.1741438908266
 31
0.0
  0
LINE
  5
12F4
330
128F
100
AcDbEntity
  8
0
  6
Continuous
 62
     7
100
AcDbLine
 10
732.3160412474776
 20
19.6741438908266
 30
0.0
 11
863.9255162667778
 21
19.6741438908266
 31
0.0
  0
LINE
  5
12F5
330
128F
100
AcDbEntity
  8
0
  6
Continuous
 62
     7
100
AcDbLine
 10
731.8667506915776
 20
29.1741438908266
 30
0.0
 11
732.9590755057775
 21
29.1741438908266
 31
0.0
  0
LINE
  5
12F6
330
128F
100
AcDbEntity
  8
0
  6
Continuous
 62
     9
100
AcDbLine
 10
734.5307044390774
 20
30.1741438908266
 30
0.0
 11
874.4255162667778
 21
30.1741438908266
 31
0.0
  0
LINE
  5
12F7
330
128F
100
AcDbEntity
  8
0
  6
Continuous
 62
     7
100
AcDbLine
 10
732.2755162667772
 20
18.85620796972659
 30
0.0
 11
12.18599072007737
 21
0.0000001309266509
 31
0.0
  0
LINE
  5
12F8
330
128F
100
AcDbEntity
  8
0
  6
Continuous
 62
     7
100
AcDbLine
 10
732.2755162667772
 20
20.35672219392666
 30
0.0
 11
12.14672516417749
 21
1.499486150426605
 31
0.0
  0
LINE
  5
12F9
330
128F
100
AcDbEntity
  8
0
  6
Continuous
 62
     2
100
AcDbLine
 10
1.852453112277544
 20
99.84875882322672
 30
0.0
 11
0.2595847527773003
 21
99.98811674722652
 31
0.0
  0
LINE
  5
12FA
330
128F
100
AcDbEntity
  8
0
  6
Continuous
 62
     2
100
AcDbLine
 10
114.1429554898777
 20
104.2046306161267
 30
0.0
 11
100.9428701497772
 21
105.3594884409267
 31
0.0
  0
LINE
  5
12FB
330
128F
100
AcDbEntity
  8
0
  6
Continuous
 62
     2
100
AcDbLine
 10
238.8851549945775
 20
107.4711200687266
 30
0.0
 11
225.6850696544775
 21
108.6259778935266
 31
0.0
  0
LINE
  5
12FC
330
128F
100
AcDbEntity
  8
0
  6
Continuous
 62
     2
100
AcDbLine
 10
363.6273544992773
 20
110.7376095213267
 30
0.0
 11
350.4272691591777
 21
111.8924673461265
 31
0.0
  0
LINE
  5
12FD
330
128F
100
AcDbEntity
  8
0
  6
Continuous
 62
     7
100
AcDbLine
 10
581.5384492237776
 20
177.3180651833265
 30
0.0
 11
582.5991093955776
 21
178.3787253551265
 31
0.0
  0
LINE
  5
12FE
330
128F
100
AcDbEntity
  8
0
  6
Continuous
 62
     7
100
AcDbLine
 10
582.2455560049775
 20
178.7322787457267
 30
0.0
 11
598.5090119722777
 21
194.9957347130266
 31
0.0
  0
LINE
  5
12FF
330
128F
100
AcDbEntity
  8
0
  6
Continuous
 62
     7
100
AcDbLine
 10
576.5887017554773
 20
184.3891329952266
 30
0.0
 11
592.8521577227775
 21
200.6525889625266
 31
0.0
  0
LINE
  5
1300
330
128F
100
AcDbEntity
  8
0
  6
Continuous
 62
     7
100
AcDbLine
 10
575.1744881930776
 20
183.6820262140265
 30
0.0
 11
576.2351483648776
 21
184.7426863858266
 31
0.0
  0
LINE
  5
1301
330
128F
100
AcDbEntity
  8
0
  6
Continuous
 62
     2
100
AcDbLine
 10
488.3695540039775
 20
114.0040989739266
 30
0.0
 11
475.1694686638775
 21
115.1589567987266
 31
0.0
  0
LINE
  5
1302
330
128F
100
AcDbEntity
  8
0
  6
Continuous
 62
     2
100
AcDbLine
 10
613.1117535085778
 20
117.2705884265265
 30
0.0
 11
599.9116681684772
 21
118.4254462513265
 31
0.0
  0
LINE
  5
1303
330
128F
100
AcDbEntity
  8
0
  6
Continuous
 62
     7
100
AcDbLine
 10
727.6255162667776
 20
122.1741438908266
 30
0.0
 11
726.1255162667776
 21
122.1741438908266
 31
0.0
  0
LINE
  5
1304
330
128F
100
AcDbEntity
  8
0
  6
Continuous
 62
     7
100
AcDbLine
 10
628.3392247657775
 20
128.1741438908266
 30
0.0
 11
967.0255162667771
 21
128.1741438908266
 31
0.0
  0
LINE
  5
1305
330
128F
100
AcDbEntity
  8
0
  6
Continuous
 62
     7
100
AcDbLine
 10
967.0255162667771
 20
132.1741438908266
 30
0.0
 11
628.3392247657775
 21
132.1741438908266
 31
0.0
  0
LINE
  5
1306
330
128F
100
AcDbEntity
  8
0
  6
Continuous
 62
     7
100
AcDbLine
 10
887.7258089082774
 20
133.6741438908266
 30
0.0
 11
878.7275502511775
 21
133.6741438908266
 31
0.0
  0
LINE
  5
1307
330
128F
100
AcDbEntity
  8
0
  6
Continuous
 62
     7
100
AcDbLine
 10
805.5239662267776
 20
133.6741438908266
 30
0.0
 11
796.5270663067776
 21
133.6741438908266
 31
0.0
  0
LINE
  5
1308
330
128F
100
AcDbEntity
  8
0
  6
Continuous
 62
     7
100
AcDbLine
 10
723.3234822823774
 20
133.6741438908266
 30
0.0
 11
714.3252236252774
 21
133.6741438908266
 31
0.0
  0
LINE
  5
1309
330
128F
100
AcDbEntity
  8
0
  6
Continuous
 62
     7
100
AcDbLine
 10
689.2755162667772
 20
133.6741438908266
 30
0.0
 11
688.7755162667772
 21
133.6741438908266
 31
0.0
  0
LINE
  5
130A
330
128F
100
AcDbEntity
  8
0
  6
Continuous
 62
     7
100
AcDbLine
 10
680.7755162667772
 20
133.6741438908266
 30
0.0
 11
680.2755162667772
 21
133.6741438908266
 31
0.0
  0
LINE
  5
130B
330
128F
100
AcDbEntity
  8
0
  6
Continuous
 62
     7
100
AcDbLine
 10
912.7755162667773
 20
133.6741438908266
 30
0.0
 11
913.2755162667772
 21
133.6741438908266
 31
0.0
  0
LINE
  5
130C
330
128F
100
AcDbEntity
  8
0
  6
Continuous
 62
     7
100
AcDbLine
 10
921.2755162667772
 20
133.6741438908266
 30
0.0
 11
921.7755162667772
 21
133.6741438908266
 31
0.0
  0
LINE
  5
130D
330
128F
100
AcDbEntity
  8
0
  6
Continuous
 62
     7
100
AcDbLine
 10
726.2755162667772
 20
120.2338858426267
 30
0.0
 11
9.529030335277639
 21
101.4652185770267
 31
0.0
  0
LINE
  5
130E
330
128F
100
AcDbEntity
  8
0
  6
Continuous
 62
     7
100
AcDbLine
 10
726.2755162667772
 20
121.7344000668265
 30
0.0
 11
9.489765044377236
 21
102.9647046034265
 31
0.0
  0
LINE
  5
130F
330
128F
100
AcDbEntity
  8
0
  6
Continuous
 62
     2
100
AcDbLine
 10
726.2755162667772
 20
121.5500598358267
 30
0.0
 11
724.6538676731774
 21
121.6919357039266
 31
0.0
  0
LINE
  5
1310
330
128F
100
AcDbEntity
  8
FASEN
  6
Continuous
 62
     7
100
AcDbLine
 10
886.0551067044776
 20
156.6741438908266
 30
0.0
 11
879.2266797775774
 21
156.6741073200267
 31
0.0
  0
LINE
  5
1311
330
128F
100
AcDbEntity
  8
FASEN
  6
Continuous
 62
     7
100
AcDbLine
 10
805.0255162667772
 20
156.6741438906265
 30
0.0
 11
797.0255162667772
 21
156.6741438906265
 31
0.0
  0
LINE
  5
1312
330
128F
100
AcDbEntity
  8
FASEN
  6
Continuous
 62
     7
100
AcDbLine
 10
722.8243527392773
 20
156.6741339064265
 30
0.0
 11
714.8243531683775
 21
156.6741339064265
 31
0.0
  0
LINE
  5
1313
330
128F
100
AcDbEntity
  8
FASEN
  6
Continuous
 62
     7
100
AcDbLine
 10
887.2266793818775
 20
156.6741073200267
 30
0.0
 11
886.0551067044776
 21
156.6741438908266
 31
0.0
  0
LINE
  5
1314
330
128F
100
AcDbEntity
  8
FASEN
  6
Continuous
 62
     7
100
AcDbLine
 10
886.7264489207773
 20
157.1741438908266
 30
0.0
 11
879.7269102385776
 21
157.1741438908266
 31
0.0
  0
LINE
  5
1315
330
128F
100
AcDbEntity
  8
FASEN
  6
Continuous
 62
     7
100
AcDbLine
 10
804.5255162714775
 20
157.1741438908266
 30
0.0
 11
797.5255162628773
 21
157.1741438908266
 31
0.0
  0
LINE
  5
1316
330
128F
100
AcDbEntity
  8
FASEN
  6
Continuous
 62
     7
100
AcDbLine
 10
722.3241692740775
 20
157.1741438908266
 30
0.0
 11
715.3245366335777
 21
157.1741438908266
 31
0.0
  0
LINE
  5
1317
330
128F
100
AcDbEntity
  8
0
  6
Continuous
 62
     7
100
AcDbLine
 10
688.2753100528775
 20
157.1741438908266
 30
0.0
 11
681.2757224805773
 21
157.1741438908266
 31
0.0
  0
LINE
  5
1318
330
128F
100
AcDbEntity
  8
0
  6
Continuous
 62
     7
100
AcDbLine
 10
913.7757224805772
 20
157.1741438908266
 30
0.0
 11
920.7753100528771
 21
157.1741438908266
 31
0.0
  0
LINE
  5
1319
330
128F
100
AcDbEntity
  8
FASEN
  6
Continuous
 62
     7
100
AcDbLine
 10
593.5592645709776
 20
200.6524431429266
 30
0.0
 11
592.8521577991777
 21
200.6524223116266
 31
0.0
  0
LINE
  5
131A
330
128F
100
AcDbEntity
  8
0
  6
Continuous
 62
     7
100
AcDbLine
 10
4.75902000197766
 20
100.7097231600266
 30
0.0
 11
0.4260229092774353
 21
99.42623094752661
 31
0.0
  0
LINE
  5
131B
330
128F
100
AcDbEntity
  8
0
  6
Continuous
 62
     7
100
AcDbLine
 10
4.332997116377555
 20
102.1479528012266
 30
0.0
 11
-0.0000001077223715
 21
100.8644605498266
 31
0.0
  0
LINE
  5
131C
330
128F
100
AcDbEntity
  8
0
  6
Continuous
 62
     9
100
AcDbLine
 10
12.14672516417749
 20
1.499486150426605
 30
0.0
 11
9.529030335277639
 21
101.4652185770267
 31
0.0
  0
LINE
  5
131D
330
128F
100
AcDbEntity
  8
0
  6
Continuous
 62
     9
100
AcDbLine
 10
7.343712389177653
 20
2.004303135126633
 30
0.0
 11
4.75902000197766
 21
100.7097231600266
 31
0.0
  0
LINE
  5
131E
330
128F
100
AcDbEntity
  8
0
  6
Continuous
 62
     7
100
AcDbLine
 10
0.4260229092774353
 20
99.42623094752661
 30
0.0
 11
2.949480726177625
 21
3.059264819926625
 31
0.0
  0
LINE
  5
131F
330
128F
100
AcDbEntity
  8
0
  6
Continuous
 62
     7
100
AcDbLine
 10
-0.0000001077223715
 20
100.8644605498266
 30
0.0
 11
2.599312680377352
 21
1.600709939326634
 31
0.0
  0
LINE
  5
1320
330
128F
100
AcDbEntity
  8
0
  6
Continuous
 62
     7
100
AcDbLine
 10
0.4260229092774353
 20
99.42623094752661
 30
0.0
 11
-0.0000001077223715
 21
100.8644605498266
 31
0.0
  0
LINE
  5
1321
330
128F
100
AcDbEntity
  8
0
  6
Continuous
 62
     7
100
AcDbLine
 10
2.949480726177625
 20
3.059264819926625
 30
0.0
 11
2.599312680377352
 21
1.600709939326634
 31
0.0
  0
ARC
  5
1322
330
128F
100
AcDbEntity
  8
0
  6
Continuous
 62
     7
100
AcDbCircle
 10
912.2789736441772
 20
140.8187651848266
 30
0.0
 40
216.59258821
100
AcDbArc
 50
213.2688779112173
 51
213.7912579276968
  0
ARC
  5
1323
330
128F
100
AcDbEntity
  8
0
  6
Continuous
 62
     7
100
AcDbCircle
 10
10.01330401047744
 20
82.97155810392656
 30
0.0
 40
20.0
100
AcDbArc
 50
91.49999999998973
 51
106.5000000000122
  0
ARC
  5
1324
330
128F
100
AcDbEntity
  8
0
  6
Continuous
 62
     7
100
AcDbCircle
 10
11.66245175387757
 20
19.99314663042662
 30
0.0
 40
20.0
100
AcDbArc
 50
256.4999999999984
 51
271.4999999999897
  0
ARC
  5
1325
330
128F
100
AcDbEntity
  8
0
  6
Continuous
 62
     7
100
AcDbCircle
 10
10.01330387897724
 20
82.97155806492652
 30
0.0
 40
18.5
100
AcDbArc
 50
91.49999999998973
 51
106.5000000000122
  0
ARC
  5
1326
330
128F
100
AcDbEntity
  8
0
  6
Continuous
 62
     7
100
AcDbCircle
 10
11.66245162047744
 20
19.99314666252667
 30
0.0
 40
18.5
100
AcDbArc
 50
256.4999999999984
 51
271.4999999999897
  0
ARC
  5
1327
330
128F
100
AcDbEntity
  8
0
  6
Continuous
 62
     7
100
AcDbCircle
 10
738.1255162667776
 20
30.1741438908266
 30
0.0
 40
12.0
100
AcDbArc
 50
241.0449756049882
 51
270.0
  0
ARC
  5
1328
330
128F
100
AcDbEntity
  8
0
  6
Continuous
 62
     7
100
AcDbCircle
 10
863.9255162667778
 20
30.1741438908266
 30
0.0
 40
12.0
100
AcDbArc
 50
270.0
 51
0.0
  0
ARC
  5
1329
330
128F
100
AcDbEntity
  8
0
  6
Continuous
 62
     7
100
AcDbCircle
 10
863.9255162667778
 20
30.1741438908266
 30
0.0
 40
10.5
100
AcDbArc
 50
270.0
 51
0.0
  0
ARC
  5
132A
330
128F
100
AcDbEntity
  8
0
  6
Continuous
 62
     7
100
AcDbCircle
 10
739.0924953921776
 20
23.64436891452658
 30
0.0
 40
8.3032307036
100
AcDbArc
 50
178.1822245092034
 51
178.7462242303006
  0
ARC
  5
132B
330
128F
100
AcDbEntity
  8
0
  6
Continuous
 62
     7
100
AcDbCircle
 10
738.8747368675776
 20
22.04261294362664
 30
0.0
 40
8.1968428204
100
AcDbArc
 50
170.1991377201
 51
172.1590544786016
  0
ARC
  5
132C
330
128F
100
AcDbEntity
  8
0
  6
Continuous
 62
     7
100
AcDbCircle
 10
628.3392247657775
 20
136.1741438908266
 30
0.0
 40
8.0
100
AcDbArc
 50
224.9999999999931
 51
270.0
  0
ARC
  5
132D
330
128F
100
AcDbEntity
  8
0
  6
Continuous
 62
     7
100
AcDbCircle
 10
735.3905323160774
 20
22.93793799422656
 30
0.0
 40
4.4838429144
100
AcDbArc
 50
225.9938631426941
 51
226.7107216482239
  0
ARC
  5
132E
330
128F
100
AcDbEntity
  8
0
  6
Continuous
 62
     7
100
AcDbCircle
 10
628.3392247657775
 20
136.1741438908266
 30
0.0
 40
4.0
100
AcDbArc
 50
224.9999999999931
 51
270.0
  0
SPLINE
  5
132F
330
128F
100
AcDbEntity
  8
0
  6
Continuous
 62
     7
100
AcDbSpline
210
0.0
220
0.0
230
1.0
 70
     8
 71
     3
 72
     8
 73
     4
 74
     2
 42
0.0000000001
 43
0.0000000001
 44
0.0000000001
 12
-0.021870032865349
 22
-0.9997608222282309
 32
0.0
 13
0.1276590109313742
 23
-0.9918181168581382
 33
0.0
 40
0.0
 40
0.0
 40
0.0
 40
0.0
 40
1.099788235077073
 40
1.099788235077073
 40
1.099788235077073
 40
1.099788235077073
 10
730.7912525873775
 20
23.82604998682666
 30
0.0
 10
730.7832351190955
 20
23.4595415901008
 30
0.0
 10
730.7997045049029
 20
23.09124711701221
 30
0.0
 10
730.8465037976775
 20
22.72765048492658
 30
0.0
 11
730.7912525873775
 21
23.82604998682666
 31
0.0
 11
730.8465037976775
 21
22.72765048492658
 31
0.0
  0
SPLINE
  5
1330
330
128F
100
AcDbEntity
  8
0
  6
Continuous
 62
     7
100
AcDbSpline
210
0.0
220
0.0
230
1.0
 70
     8
 71
     3
 72
     9
 73
     5
 74
     3
 42
0.0000000001
 43
0.0000000001
 44
0.0000000001
 12
0.564703662184213
 22
-0.8252937500767458
 32
0.0
 13
0.5632179002311558
 23
-0.8263084150964505
 33
0.0
 40
0.0
 40
0.0
 40
0.0
 40
0.0
 40
0.1194931328802965
 40
0.4476867268261863
 40
0.4476867268261863
 40
0.4476867268261863
 40
0.4476867268261863
 10
726.1255162667776
 20
122.1741438908266
 30
0.0
 10
726.1480090033587
 20
122.1412715789122
 30
0.0
 10
726.2322497467819
 20
122.018093800158
 30
0.0
 10
726.3163800360602
 20
121.8948404863793
 30
0.0
 10
726.3779948716774
 20
121.8044441102265
 30
0.0
 11
726.1255162667776
 21
122.1741438908266
 31
0.0
 11
726.1929709301775
 21
122.0755108477267
 31
0.0
 11
726.3779948716774
 21
121.8044441102265
 31
0.0
  0
LINE
  5
1331
330
128F
100
AcDbEntity
  8
0
  6
Continuous
 62
     7
100
AcDbLine
 10
726.3779948716774
 20
121.8044441102265
 30
0.0
 11
726.3979057003775
 21
121.7752280370266
 31
0.0
  0
SPLINE
  5
1332
330
128F
100
AcDbEntity
  8
0
  6
Continuous
 62
     7
100
AcDbSpline
210
0.0
220
0.0
230
1.0
 70
     8
 71
     3
 72
    14
 73
    10
 74
     8
 42
0.0000000001
 43
0.0000000001
 44
0.0000000001
 12
0.5630996098147369
 22
-0.8263890303159227
 32
0.0
 13
0.5263465588829768
 23
-0.850270133517607
 33
0.0
 40
0.0
 40
0.0
 40
0.0
 40
0.0
 40
0.6002790472188752
 40
1.41176681726021
 40
2.439964710029353
 40
3.775408534765588
 40
5.568646538516719
 40
7.994224154516349
 40
9.307050192355314
 40
9.307050192355314
 40
9.307050192355314
 40
9.307050192355314
 10
726.3979057003775
 20
121.7752280370266
 30
0.0
 10
726.5105779994671
 20
121.6098733637765
 30
0.0
 10
726.7750937064329
 20
121.2206614934626
 30
0.0
 10
727.2302965356471
 20
120.5466549230394
 30
0.0
 10
727.8192342575275
 20
119.6672686097301
 30
0.0
 10
728.5843164578696
 20
118.5120053325921
 30
0.0
 10
729.595560100664
 20
116.9611298236694
 30
0.0
 10
730.586926455332
 20
115.4063704669061
 30
0.0
 10
731.2466195945011
 20
114.3491659048862
 30
0.0
 10
731.4769534169772
 20
113.9770803147266
 30
0.0
 11
726.3979057003775
 21
121.7752280370266
 31
0.0
 11
726.7353154278776
 21
121.2787508368267
 31
0.0
 11
727.1894814590778
 21
120.6062587424267
 31
0.0
 11
727.7616041019773
 21
119.7519364448267
 31
0.0
 11
728.4989266106776
 21
118.6384887688266
 31
0.0
 11
729.4782607981773
 21
117.1362880208266
 31
0.0
 11
730.7820174392773
 21
115.0908918753266
 31
0.0
 11
731.4769534169772
 21
113.9770803147266
 31
0.0
  0
SPLINE
  5
1333
330
128F
100
AcDbEntity
  8
0
  6
Continuous
 62
     7
100
AcDbSpline
210
0.0
220
0.0
230
1.0
 70
     8
 71
     3
 72
    18
 73
    14
 74
    12
 42
0.0000000001
 43
0.0000000001
 44
0.0000000001
 12
-0.5225165269935087
 22
-0.8526291567959905
 32
0.0
 13
1.0
 23
0.0
 33
0.0
 40
0.0
 40
0.0
 40
0.0
 40
0.0
 40
1.805936066914205
 40
3.480197345788758
 40
5.025245766363378
 40
6.421880187376351
 40
7.613006097251993
 40
8.672064363516902
 40
9.682949650205573
 40
10.72404403835859
 40
11.83923309030905
 40
13.03974082006007
 40
14.31773429194626
 40
14.31773429194626
 40
14.31773429194626
 40
14.31773429194626
 10
734.5307044390774
 20
30.1741438908266
 30
0.0
 10
734.216160625192
 20
29.66087930883976
 30
0.0
 10
733.6619981117695
 20
28.63827125652661
 30
0.0
 10
733.0490162794576
 20
27.07436778666649
 30
0.0
 10
732.6961386814689
 20
25.57028474805136
 30
0.0
 10
732.6160469090459
 20
24.18655002971861
 30
0.0
 10
732.7967365645791
 20
22.97462595950669
 30
0.0
 10
733.2057766880522
 20
21.9557871564624
 30
0.0
 10
733.8306045495158
 20
21.11339453639426
 30
0.0
 10
734.6679959971054
 20
20.4514462547478
 30
0.0
 10
735.6965220910206
 20
19.98697210043179
 30
0.0
 10
736.8717335186743
 20
19.72397266734428
 30
0.0
 10
737.6995184428156
 20
19.6741438908266
 30
0.0
 10
738.1255162667776
 20
19.6741438908266
 30
0.0
 11
734.5307044390774
 21
30.1741438908266
 31
0.0
 11
733.6759417457774
 21
28.58329951882661
 31
0.0
 11
733.0729017347776
 21
27.02141169472657
 31
0.0
 11
732.7311034938775
 21
25.51464410002666
 31
0.0
 11
732.6640194462775
 21
24.11962172152664
 31
0.0
 11
732.8511264020776
 21
22.94328336872661
 31
0.0
 11
733.2526807201775
 21
21.96330452152665
 31
0.0
 11
733.8561878912774
 21
21.15233710092661
 31
0.0
 11
734.6695193305777
 21
20.50243749722665
 31
0.0
 11
735.6814538796775
 21
20.03378507812659
 31
0.0
 11
736.8504443080773
 21
19.76050831822658
 31
0.0
 11
738.1255162667776
 21
19.6741438908266
 31
0.0
  0
SPLINE
  5
1334
330
128F
100
AcDbEntity
  8
0
  6
Continuous
 62
     7
100
AcDbSpline
210
0.0
220
0.0
230
1.0
 70
     8
 71
     3
 72
    39
 73
    35
 74
    33
 42
0.0000000001
 43
0.0000000001
 44
0.0000000001
 12
0.5724873293594796
 22
-0.8199135672269674
 32
0.0
 13
-0.5225165269947908
 23
-0.8526291567952048
 33
0.0
 40
0.0
 40
0.0
 40
0.0
 40
0.0
 40
0.1137077010835237
 40
0.4598768537813383
 40
1.032308309711936
 40
1.807577458741624
 40
2.782916524823886
 40
4.034235687650411
 40
5.693256056565695
 40
7.927204440571665
 40
10.78530662225212
 40
14.22427037691305
 40
18.1744726991956
 40
22.5176844050078
 40
27.12671707911704
 40
31.83406739637189
 40
36.45037515390207
 40
40.91256591622948
 40
45.19836779802056
 40
49.34408240381155
 40
53.38483430275376
 40
57.35072528775252
 40
61.33589064485974
 40
65.43415058321601
 40
69.7165121734833
 40
74.10809314208094
 40
78.32786037387212
 40
82.14404857830915
 40
85.58724462962805
 40
88.75735438941475
 40
91.74467867955611
 40
94.5864540039482
 40
97.28029045934945
 40
99.82053010331904
 40
99.82053010331904
 40
99.82053010331904
 40
99.82053010331904
 10
727.6255162667776
 20
122.1741438908266
 30
0.0
 10
727.6472150061512
 20
122.1430670618877
 30
0.0
 10
727.7349453979454
 20
122.017361436999
 30
0.0
 10
727.9316275287639
 20
121.7350089497094
 30
0.0
 10
728.2535234753119
 20
121.2711307802373
 30
0.0
 10
728.6932786311839
 20
120.6337690818844
 30
0.0
 10
729.258607640314
 20
119.8081215736747
 30
0.0
 10
729.9853580062695
 20
118.7359925453927
 30
0.0
 10
730.9384544847095
 20
117.310485202719
 30
0.0
 10
732.1723850950932
 20
115.4285417294147
 30
0.0
 10
733.7014453951117
 20
113.0308282332632
 30
0.0
 10
735.4882877161678
 20
110.1194533960253
 30
0.0
 10
737.457890533663
 20
106.7403464989715
 30
0.0
 10
739.5143778297973
 20
102.9621807419788
 30
0.0
 10
741.5429976353605
 20
98.88444784843915
 30
0.0
 10
743.4227424303625
 20
94.63556150355508
 30
0.0
 10
745.0568667855772
 20
90.3379995273057
 30
0.0
 10
746.387446596774
 20
86.08345031381219
 30
0.0
 10
747.3967004609983
 20
81.9022463970735
 30
0.0
 10
748.0837348435921
 20
77.79825689212741
 30
0.0
 10
748.4544833924583
 20
73.76062490958067
 30
0.0
 10
748.5176882646623
 20
69.76003814017454
 30
0.0
 10
748.2766818222748
 20
65.747032631199
 30
0.0
 10
747.7215606736947
 20
61.65884821199864
 30
0.0
 10
746.8413656973281
 20
57.48970254055304
 30
0.0
 10
745.6656490021859
 20
53.35250510034882
 30
0.0
 10
744.2938297616888
 20
49.44148932174853
 30
0.0
 10
742.8501958885179
 20
45.89657500879916
 30
0.0
 10
741.4134567514787
 20
42.73007923588934
 30
0.0
 10
739.9993012998641
 20
39.85879155531046
 30
0.0
 10
738.6032565928535
 20
37.20337639850047
 30
0.0
 10
737.2249641515859
 20
34.71889696642269
 30
0.0
 10
735.873800485707
 20
32.39044252166798
 30
0.0
 10
734.9731435045779
 20
30.89610468605845
 30
0.0
 10
734.5307044390774
 20
30.1741438908266
 30
0.0
 11
727.6255162667776
 21
122.1741438908266
 31
0.0
 11
727.6905920607778
 21
122.0808991466265
 31
0.0
 11
727.8884545409773
 21
121.7968506979266
 31
0.0
 11
728.2147985291776
 21
121.3265557127265
 31
0.0
 11
728.6550687442777
 21
120.6884300267265
 31
0.0
 11
729.2060838389775
 21
119.8836513868266
 31
0.0
 11
729.9081573425773
 21
118.8478461721265
 31
0.0
 11
730.8301704202777
 21
117.4686288328266
 31
0.0
 11
732.0548355584774
 21
115.6002817875267
 31
0.0
 11
733.5910260848777
 21
113.1901227165265
 31
0.0
 11
735.3887463902774
 21
110.2584553736267
 31
0.0
 11
737.3759388070775
 21
106.8444892511265
 31
0.0
 11
739.4490944645776
 21
103.0280100436266
 31
0.0
 11
741.4973939873775
 21
98.8991298981266
 31
0.0
 11
743.3960964175776
 21
94.59168563372669
 31
0.0
 11
745.0305966154774
 21
90.27442881772662
 31
0.0
 11
746.3565565613776
 21
86.01379780562661
 31
0.0
 11
747.3571463481776
 21
81.84643438872672
 31
0.0
 11
748.0379197625775
 21
77.75699712292658
 31
0.0
 11
748.4053009019776
 21
73.73298084472662
 31
0.0
 11
748.4675944845776
 21
69.76757912302662
 31
0.0
 11
748.2300423525775
 21
65.78950020122658
 31
0.0
 11
747.6816800439774
 21
61.72809240332663
 31
0.0
 11
746.8018080222773
 21
57.53709657712659
 31
0.0
 11
745.6069814176776
 21
53.3111797785266
 31
0.0
 11
744.2152098417773
 21
49.32753730322656
 31
0.0
 11
742.7792224190775
 21
45.79182909502662
 31
0.0
 11
741.3587333014775
 21
42.65530080492658
 31
0.0
 11
739.9595954547776
 21
39.81065510202666
 31
0.0
 11
738.5705947686774
 21
37.16588979892663
 31
0.0
 11
737.1928800596775
 21
34.68041415532662
 31
0.0
 11
735.8414938383775
 21
32.35006865962657
 31
0.0
 11
734.5307044390774
 21
30.1741438908266
 31
0.0
  0
SPLINE
  5
1335
330
128F
100
AcDbEntity
  8
0
  6
Continuous
 62
     7
100
AcDbSpline
210
0.0
220
0.0
230
1.0
 70
     8
 71
     3
 72
    10
 73
     6
 74
     4
 42
0.0000000001
 43
0.0000000001
 44
0.0000000001
 12
-0.0000299512572789
 22
-0.9999999995514611
 32
0.0
 13
0.5485002676522793
 23
-0.8361503790499517
 33
0.0
 40
0.0
 40
0.0
 40
0.0
 40
0.0
 40
0.5535380860116254
 40
1.310758090053815
 40
1.998901891347181
 40
1.998901891347181
 40
1.998901891347181
 40
1.998901891347181
 10
730.6919145251777
 20
23.91444396152656
 30
0.0
 10
730.6919089987904
 20
23.72993126627211
 30
0.0
 10
730.7138649221229
 20
23.29270623624124
 30
0.0
 10
730.8493474840267
 20
22.63532219373229
 30
0.0
 10
731.0589206974798
 20
22.19464421695741
 30
0.0
 10
731.1847363838774
 20
22.00284698352664
 30
0.0
 11
730.6919145251777
 21
23.91444396152656
 31
0.0
 11
730.7223814912776
 21
23.36174496872661
 31
0.0
 11
730.8846622277774
 21
22.62211864612664
 31
0.0
 11
731.1847363838774
 21
22.00284698352664
 31
0.0
  0
SPLINE
  5
1336
330
128F
100
AcDbEntity
  8
0
  6
Continuous
 62
     7
100
AcDbSpline
210
0.0
220
0.0
230
1.0
 70
     8
 71
     3
 72
    45
 73
    41
 74
    39
 42
0.0000000001
 43
0.0000000001
 44
0.0000000001
 12
0.5626400556023445
 22
-0.8267019824772351
 32
0.0
 13
-0.5056062368190539
 23
-0.8627643555975611
 33
0.0
 40
0.0
 40
0.0
 40
0.0
 40
0.0
 40
0.1183460318284323
 40
0.4747601810109968
 40
1.07101663867349
 40
1.912465943693938
 40
3.002900088992777
 40
4.348689221480187
 40
5.955497235898937
 40
7.830236850632939
 40
9.972273861753489
 40
12.37526818109521
 40
15.02933354984491
 40
17.90018464917529
 40
20.95613828696881
 40
24.15492928655681
 40
27.42190401341394
 40
30.69556492522543
 40
33.94093876716631
 40
37.13202719633351
 40
40.24533315301228
 40
43.28560929618388
 40
46.25801497956081
 40
49.18440285010126
 40
52.08514687878073
 40
54.97531885302193
 40
57.88608384530037
 40
60.83595472747394
 40
63.84148240112922
 40
66.92775027680126
 40
70.10096860387523
 40
73.36624341806349
 40
76.70096571007753
 40
80.07292503749956
 40
83.44618690133451
 40
86.75870903800776
 40
89.9265634409372
 40
92.9007902853781
 40
95.65160418046119
 40
98.14716070853723
 40
98.14716070853723
 40
98.14716070853723
 40
98.14716070853723
 10
726.2755162667772
 20
120.2338858426267
 30
0.0
 10
726.2977116727532
 20
120.2012735429164
 30
0.0
 10
726.3867173022556
 20
120.0704219612142
 30
0.0
 10
726.5871965128226
 20
119.7750219735057
 30
0.0
 10
726.9219771952236
 20
119.2794671780109
 30
0.0
 10
727.39143917762
 20
118.5796281275489
 30
0.0
 10
727.9959859704717
 20
117.6695645410515
 30
0.0
 10
728.7350762806044
 20
116.5426192803818
 30
0.0
 10
729.6074977695706
 20
115.1905163898116
 30
0.0
 10
730.6092175355392
 20
113.6060493044567
 30
0.0
 10
731.7321923496479
 20
111.784391235522
 30
0.0
 10
732.9632855073424
 20
109.724439742492
 30
0.0
 10
734.2812643785929
 20
107.4337575348442
 30
0.0
 10
735.6585317537423
 20
104.9266372865635
 30
0.0
 10
737.0606328785274
 20
102.2268180162419
 30
0.0
 10
738.4462416108274
 20
99.37082937746197
 30
0.0
 10
739.7712666156185
 20
96.40640107822306
 30
0.0
 10
740.9967526520065
 20
93.38253655625361
 30
0.0
 10
742.094924090723
 20
90.33686765516845
 30
0.0
 10
743.0471467321457
 20
87.29829571019569
 30
0.0
 10
743.8434714021975
 20
84.28575579483677
 30
0.0
 10
744.4803322097857
 20
81.3099476114715
 30
0.0
 10
744.9594030533022
 20
78.36775863851406
 30
0.0
 10
745.2834318403798
 20
75.45123960212939
 30
0.0
 10
745.4547131062431
 20
72.54921345833986
 30
0.0
 10
745.474555956244
 20
69.64740949480258
 30
0.0
 10
745.3425058199534
 20
66.73215069305276
 30
0.0
 10
745.0562965462145
 20
63.7893530229056
 30
0.0
 10
744.6125768680026
 20
60.80703356941914
 30
0.0
 10
744.0076323866605
 20
57.77728622839599
 30
0.0
 10
743.2384404689193
 20
54.69577598152764
 30
0.0
 10
742.3071887154073
 20
51.57288600551074
 30
0.0
 10
741.2231936014895
 20
48.42965088182416
 30
0.0
 10
740.0049377660312
 20
45.29748146477056
 30
0.0
 10
738.6805138136851
 20
42.21692493199792
 30
0.0
 10
737.2896947743531
 20
39.24086666145963
 30
0.0
 10
735.8785783463891
 20
36.42253695534866
 30
0.0
 10
734.4906264249378
 20
33.80300033393738
 30
0.0
 10
733.1607939945622
 20
31.40696085203715
 30
0.0
 10
732.2873403398875
 20
29.89183629742754
 30
0.0
 10
731.8667506915776
 20
29.1741438908266
 30
0.0
 11
726.2755162667772
 21
120.2338858426267
 31
0.0
 11
726.3420769731774
 21
120.1360315856266
 31
0.0
 11
726.5422231347774
 21
119.8411204808267
 31
0.0
 11
726.8760008986774
 21
119.3470413701266
 31
0.0
 11
727.3447456504773
 21
118.6482457701265
 31
0.0
 11
727.9480878653775
 21
117.7399370137266
 31
0.0
 11
728.6860841081775
 21
116.6145437781265
 31
0.0
 11
729.5571499862776
 21
115.2643303760267
 31
0.0
 11
730.5588009092775
 21
113.6796083021265
 31
0.0
 11
731.6825894011771
 21
111.8560343435265
 31
0.0
 11
732.9149141489774
 21
109.7930856251266
 31
0.0
 11
734.2379051495773
 21
107.4922688584265
 31
0.0
 11
735.6192831820776
 21
104.9756082206265
 31
0.0
 11
737.0265567929773
 21
102.2629649303267
 31
0.0
 11
738.4213276546774
 21
99.3842711115267
 31
0.0
 11
739.7527020738776
 21
96.40088946952666
 31
0.0
 11
740.9803494022776
 21
93.36613448722664
 31
0.0
 11
742.0791624397775
 21
90.31243815612652
 31
0.0
 11
743.0314904218776
 21
87.26676634562659
 31
0.0
 11
743.8253880885777
 21
84.25638423122654
 31
0.0
 11
744.4601759058778
 21
81.2831160876267
 31
0.0
 11
744.9367519274773
 21
78.34916468342658
 31
0.0
 11
745.2591352348772
 21
75.44058857612663
 31
0.0
 11
745.4296846721772
 21
72.54486262062664
 31
0.0
 11
745.4494963884776
 21
69.65475855042666
 31
0.0
 11
745.3182433631773
 21
66.74695431292661
 31
0.0
 11
745.0335547558775
 21
63.81085305132661
 31
0.0
 11
744.5924897451777
 21
60.83786494952665
 31
0.0
 11
743.9897786560777
 21
57.81102026512655
 31
0.0
 11
743.2231523755772
 21
54.73179979602662
 31
0.0
 11
742.2921294901775
 21
51.60206881732666
 31
0.0
 11
741.2070871236774
 21
48.44880767562665
 31
0.0
 11
739.9868519826777
 21
45.30538026172666
 31
0.0
 11
738.6564052216772
 21
42.20557268412664
 31
0.0
 11
737.2555532344777
 21
39.20383708352665
 31
0.0
 11
735.8385321370774
 21
36.37057876002666
 31
0.0
 11
734.4469592011773
 21
33.74197645342656
 31
0.0
 11
733.1126952706772
 21
31.33641688252658
 31
0.0
 11
731.8667506915776
 21
29.1741438908266
 31
0.0
  0
SPLINE
  5
1337
330
128F
100
AcDbEntity
  8
0
  6
Continuous
 62
     7
100
AcDbSpline
210
0.0
220
0.0
230
1.0
 70
     8
 71
     3
 72
    12
 73
     8
 74
     6
 42
0.0000000001
 43
0.0000000001
 44
0.0000000001
 12
-0.3905847906795683
 22
-0.9205669564403219
 32
0.0
 13
-0.0000299512716626
 23
-0.9999999995514608
 33
0.0
 40
0.0
 40
0.0
 40
0.0
 40
0.0
 40
1.586955573861393
 40
2.963727891726871
 40
4.146121222632651
 40
5.159355672695053
 40
5.476266890731428
 40
5.476266890731428
 40
5.476266890731428
 40
5.476266890731428
 10
732.0998593023777
 20
29.1741438908266
 30
0.0
 10
731.8932457321663
 20
28.6871776032814
 30
0.0
 10
731.5271215161665
 20
27.76905290567324
 30
0.0
 10
731.094427299625
 20
26.45527778692826
 30
0.0
 10
730.8138405252264
 20
25.29648404516523
 30
0.0
 10
730.7046769235244
 20
24.46350708287591
 30
0.0
 10
730.6919176891423
 20
24.02008103415797
 30
0.0
 10
730.6919145251777
 20
23.91444396152656
 30
0.0
 11
732.0998593023777
 21
29.1741438908266
 31
0.0
 11
731.5174494789776
 21
27.69792344962662
 31
0.0
 11
731.0932645449774
 21
26.38812607712657
 31
0.0
 11
730.8229010986774
 21
25.23705805312659
 31
0.0
 11
730.7005537774776
 21
24.23123740122662
 31
0.0
 11
730.6919145251777
 21
23.91444396152656
 31
0.0
  0
LINE
  5
1338
330
128F
100
AcDbEntity
  8
AM_7
100
AcDbLine
 10
801.0255162667771
 20
72.17414389086332
 30
0.0
 11
7.838905907303796
 21
51.40382152228642
 31
0.0
1001
GENIUS_GENODEF_13
1002
{
1000
HIER
1070
     0
1002
}
1002
{
1000
MANEDIT
1070
     0
1002
}
1002
{
1000
NOSEL
1070
     0
1002
}
1002
{
1000
BEHIND
1070
     0
1002
}
1002
{
1000
OTHER
1070
     0
1002
}
1002
{
1000
REACTOR
1002
}
1001
GENIUS_GENOBJ-N-CEN_13
1002
{
1000
OWNER
1000
GEN
1002
}
1001
GENIUS_GENCEN_19
1002
{
1040
3.0
1002
}
  0
LINE
  5
1339
330
128F
100
AcDbEntity
  8
AM_7
100
AcDbLine
 10
801.0255162667771
 20
10.27308871059335
 30
0.0
 11
801.0255162667771
 21
159.6741438908266
 31
0.0
1001
GENIUS_GENODEF_13
1002
{
1000
HIER
1070
     0
1002
}
1002
{
1000
MANEDIT
1070
     0
1002
}
1002
{
1000
NOSEL
1070
     0
1002
}
1002
{
1000
BEHIND
1070
     0
1002
}
1002
{
1000
OTHER
1070
     0
1002
}
1002
{
1000
REACTOR
1002
}
1001
GENIUS_GENOBJ-N-CEN_13
1002
{
1000
OWNER
1000
GEN
1002
}
1001
GENIUS_GENCEN_19
1002
{
1040
3.0
1002
}
  0
LINE
  5
133A
330
128F
100
AcDbEntity
  8
AM_7
100
AcDbLine
 10
684.7755162667772
 20
130.6741438908266
 30
0.0
 11
684.7755162667772
 21
159.6739082040267
 31
0.0
1001
GENIUS_GENODEF_13
1002
{
1000
HIER
1070
     0
1002
}
1002
{
1000
MANEDIT
1070
     0
1002
}
1002
{
1000
NOSEL
1070
     0
1002
}
1002
{
1000
BEHIND
1070
     0
1002
}
1002
{
1000
OTHER
1070
     0
1002
}
1002
{
1000
REACTOR
1002
}
1001
GENIUS_GENOBJ-N-CEN_13
1002
{
1000
OWNER
1000
GEN
1002
}
1001
GENIUS_GENCEN_19
1002
{
1040
3.0
1002
}
  0
LINE
  5
133B
330
128F
100
AcDbEntity
  8
AM_7
100
AcDbLine
 10
917.2755162667773
 20
130.6741438908266
 30
0.0
 11
917.2755162667773
 21
159.6739082040267
 31
0.0
1001
GENIUS_GENODEF_13
1002
{
1000
HIER
1070
     0
1002
}
1002
{
1000
MANEDIT
1070
     0
1002
}
1002
{
1000
NOSEL
1070
     0
1002
}
1002
{
1000
BEHIND
1070
     0
1002
}
1002
{
1000
OTHER
1070
     0
1002
}
1002
{
1000
REACTOR
1002
}
1001
GENIUS_GENOBJ-N-CEN_13
1002
{
1000
OWNER
1000
GEN
1002
}
1001
GENIUS_GENCEN_19
1002
{
1040
3.0
1002
}
  0
LINE
  5
133C
330
128F
100
AcDbEntity
  8
AM_7
100
AcDbLine
 10
577.2958085366676
 20
179.439385526917
 30
0.0
 11
597.8019051910869
 21
199.945482181336
 31
0.0
1001
GENIUS_GENODEF_13
1002
{
1000
HIER
1070
     0
1002
}
1002
{
1000
MANEDIT
1070
     0
1002
}
1002
{
1000
NOSEL
1070
     0
1002
}
1002
{
1000
BEHIND
1070
     0
1002
}
1002
{
1000
OTHER
1070
     0
1002
}
1002
{
1000
REACTOR
1002
}
1001
GENIUS_GENOBJ-N-CEN_13
1002
{
1000
OWNER
1000
GEN
1002
}
1001
GENIUS_GENCEN_19
1002
{
1040
3.0
1002
}
  0
LINE
  5
133D
330
128F
100
AcDbEntity
  8
AM_CL
100
AcDbLine
 10
875.9255162667777
 20
72.17414389086332
 30
0.0
 11
0.7512822740900447
 21
72.17414389086332
 31
0.0
  0
LINE
  5
133E
330
128F
100
AcDbEntity
  8
0
  6
Continuous
 62
     7
100
AcDbLine
 10
733.4430252352076
 20
32.3933308851988
 30
0.0
 11
733.4430252352076
 21
28.39333088519879
 31
0.0
  0
ENDBLK
  5
1341
330
128F
100
AcDbEntity
  8
0
100
AcDbBlockEnd
  0
BLOCK
  5
271D
330
271C
100
AcDbEntity
  8
0
100
AcDbBlockBegin
  2
*D7
 70
     1
 10
0.0
 20
0.0
 30
0.0
  3
*D7
  1

  0
LINE
  5
2A92
330
271C
100
AcDbEntity
  8
AM_5
100
AcDbLine
 10
760.064986980512
 20
751.2656586733148
 30
0.0
 11
760.064986980512
 21
784.7558389929258
 31
0.0
  0
LINE
  5
2A93
330
271C
100
AcDbEntity
  8
AM_5
100
AcDbLine
 10
1115.064986980512
 20
751.2656586733148
 30
0.0
 11
1115.064986980512
 21
784.7558389929258
 31
0.0
  0
LINE
  5
2A94
330
271C
100
AcDbEntity
  8
AM_5
100
AcDbLine
 10
766.0649869805119
 20
782.7558389929259
 30
0.0
 11
1109.064986980512
 21
782.7558389929259
 31
0.0
  0
SOLID
  5
2A95
330
271C
100
AcDbEntity
  8
AM_5
100
AcDbTrace
 10
766.0649869805119
 20
783.7558389929259
 30
0.0
 11
766.0649869805119
 21
781.7558389929258
 31
0.0
 12
760.064986980512
 22
782.7558389929259
 32
0.0
 13
760.064986980512
 23
782.7558389929259
 33
0.0
  0
SOLID
  5
2A96
330
271C
100
AcDbEntity
  8
AM_5
100
AcDbTrace
 10
1109.064986980512
 20
783.7558389929259
 30
0.0
 11
1109.064986980512
 21
781.7558389929258
 31
0.0
 12
1115.064986980512
 22
782.7558389929259
 32
0.0
 13
1115.064986980512
 23
782.7558389929259
 33
0.0
  0
MTEXT
  5
2A97
330
271C
100
AcDbEntity
  8
AM_5
 62
     2
100
AcDbMText
 10
942.2635206307022
 20
790.2558389929258
 30
0.0
 40
9.0
 41
0.0
 71
     5
 72
     1
  1
355
 73
     1
 44
1.0
1001
ACAD
1000
MTEXTBEGIN
1070
    73
1070
     1
1070
    44
1040
1.0
1070
    74
1070
     0
1000
MTEXTEND
  0
POINT
  5
2A98
330
271C
100
AcDbEntity
  8
Defpoints
 62
     0
100
AcDbPoint
 10
760.064986980512
 20
749.2656586733148
 30
0.0
  0
POINT
  5
2A99
330
271C
100
AcDbEntity
  8
Defpoints
 62
     0
100
AcDbPoint
 10
1115.064986980512
 20
749.2656586733148
 30
0.0
  0
POINT
  5
2A9A
330
271C
100
AcDbEntity
  8
Defpoints
 62
     0
100
AcDbPoint
 10
1115.064986980512
 20
782.7558389929259
 30
0.0
  0
ENDBLK
  5
271E
330
271C
100
AcDbEntity
  8
0
100
AcDbBlockEnd
  0
BLOCK
  5
272D
330
272C
100
AcDbEntity
  8
0
100
AcDbBlockBegin
  2
*D8
 70
     1
 10
0.0
 20
0.0
 30
0.0
  3
*D8
  1

  0
LINE
  5
297A
330
272C
100
AcDbEntity
  8
AM_5
100
AcDbLine
 10
357.0686714910087
 20
423.7132785605015
 30
0.0
 11
398.6166952449018
 21
347.884191095123
 31
0.0
  0
MTEXT
  5
297B
330
272C
100
AcDbEntity
  8
AM_5
 62
     2
100
AcDbMText
 10
387.7812432784316
 20
394.6650439371707
 30
0.0
 40
9.0
 41
0.0
 71
     5
 72
     1
  1
 R2  R76.5{}{\H0.71x;\C3;\S+2^ -1;}
 11
0.4805154289554274
 21
-0.8769862727179836
 31
0.0
 73
     1
 44
1.0
1001
ACAD
1000
MTEXTBEGIN
1070
    73
1070
     1
1070
    44
1040
1.0
1070
    74
1070
     0
1000
MTEXTEND
  0
LINE
  5
297C
330
272C
100
AcDbEntity
  8
AM_5
100
AcDbLine
 10
364.4934343135009
 20
416.405677468179
 30
0.0
 11
393.5707574849849
 21
363.3368023974859
 31
0.0
  0
LINE
  5
297D
330
272C
100
AcDbEntity
  8
AM_5
100
AcDbLine
 10
411.0690522433625
 20
372.9244104061624
 30
0.0
 11
381.9917290718784
 21
425.9932854768554
 31
0.0
  0
ARC
  5
297E
330
272C
100
AcDbEntity
  8
AM_5
  6
Continuous
100
AcDbCircle
 10
402.3199048641735
 20
368.1306064018241
 30
0.0
 40
9.97637893700778
100
AcDbArc
 50
208.7190709014397
 51
28.71907090143998
  0
ARC
  5
297F
330
272C
100
AcDbEntity
  8
AM_5
  6
Continuous
100
AcDbCircle
 10
373.2425816926896
 20
421.1994814725171
 30
0.0
 40
9.976378937008007
100
AcDbArc
 50
28.71907090143981
 51
208.7190709014398
  0
LINE
  5
2980
330
272C
100
AcDbEntity
  8
AM_5
100
AcDbLine
 10
438.2592181337231
 20
275.532823595892
 30
0.0
 11
401.4997878186343
 21
342.6222734588151
 31
0.0
  0
SOLID
  5
2981
330
272C
100
AcDbEntity
  8
AM_5
100
AcDbTrace
 10
399.4936815176198
 20
348.3647065240784
 30
0.0
 11
397.7397089721838
 21
347.4036756661676
 31
0.0
 12
401.4997878186343
 22
342.6222734588151
 32
0.0
 13
401.4997878186343
 23
342.6222734588151
 33
0.0
  0
POINT
  5
2982
330
272C
100
AcDbEntity
  8
Defpoints
 62
     0
100
AcDbPoint
 10
401.4997878186343
 20
342.6222734588151
 30
0.0
  0
POINT
  5
2983
330
272C
100
AcDbEntity
  8
Defpoints
 62
     0
100
AcDbPoint
 10
438.2592181337231
 20
275.532823595892
 30
0.0
  0
ENDBLK
  5
272E
330
272C
100
AcDbEntity
  8
0
100
AcDbBlockEnd
  0
BLOCK
  5
2735
330
2734
100
AcDbEntity
  8
0
100
AcDbBlockBegin
  2
*D9
 70
     1
 10
0.0
 20
0.0
 30
0.0
  3
*D9
  1

  0
LINE
  5
2A77
330
2734
100
AcDbEntity
  8
AM_5
100
AcDbLine
 10
758.064986980512
 20
749.2656586733148
 30
0.0
 11
722.5782944533039
 21
749.2656586733148
 31
0.0
  0
LINE
  5
2A78
330
2734
100
AcDbEntity
  8
AM_5
100
AcDbLine
 10
758.064986980512
 20
604.265658673315
 30
0.0
 11
722.5782944533039
 21
604.265658673315
 31
0.0
  0
LINE
  5
2A79
330
2734
100
AcDbEntity
  8
AM_5
100
AcDbLine
 10
724.578294453304
 20
743.2656586733148
 30
0.0
 11
724.578294453304
 21
610.2656586733151
 31
0.0
  0
SOLID
  5
2A7A
330
2734
100
AcDbEntity
  8
AM_5
100
AcDbTrace
 10
723.578294453304
 20
743.2656586733148
 30
0.0
 11
725.578294453304
 21
743.2656586733148
 31
0.0
 12
724.578294453304
 22
749.2656586733148
 32
0.0
 13
724.578294453304
 23
749.2656586733148
 33
0.0
  0
SOLID
  5
2A7B
330
2734
100
AcDbEntity
  8
AM_5
100
AcDbTrace
 10
723.578294453304
 20
610.2656586733151
 30
0.0
 11
725.578294453304
 21
610.2656586733151
 31
0.0
 12
724.578294453304
 22
604.265658673315
 32
0.0
 13
724.578294453304
 23
604.265658673315
 33
0.0
  0
MTEXT
  5
2A7C
330
2734
100
AcDbEntity
  8
AM_5
 62
     2
100
AcDbMText
 10
717.0782944533039
 20
674.4793507016777
 30
0.0
 40
9.0
 41
0.0
 71
     5
 72
     1
  1
145
 11
0.0000000000000001
 21
1.0
 31
0.0
 73
     1
 44
1.0
1001
ACAD
1000
MTEXTBEGIN
1070
    73
1070
     1
1070
    44
1040
1.0
1070
    74
1070
     0
1000
MTEXTEND
  0
POINT
  5
2A7D
330
2734
100
AcDbEntity
  8
Defpoints
 62
     0
100
AcDbPoint
 10
760.064986980512
 20
749.2656586733148
 30
0.0
  0
POINT
  5
2A7E
330
2734
100
AcDbEntity
  8
Defpoints
 62
     0
100
AcDbPoint
 10
760.064986980512
 20
604.265658673315
 30
0.0
  0
POINT
  5
2A7F
330
2734
100
AcDbEntity
  8
Defpoints
 62
     0
100
AcDbPoint
 10
724.578294453304
 20
604.265658673315
 30
0.0
  0
ENDBLK
  5
2736
330
2734
100
AcDbEntity
  8
0
100
AcDbBlockEnd
  0
BLOCK
  5
2745
330
2744
100
AcDbEntity
  8
0
100
AcDbBlockBegin
  2
*D10
 70
     1
 10
0.0
 20
0.0
 30
0.0
  3
*D10
  1

  0
LINE
  5
27E0
330
2744
100
AcDbEntity
  8
AM_5
100
AcDbLine
 10
508.0470522636059
 20
316.4223680734619
 30
0.0
 11
577.602851610088
 21
357.1759605371241
 31
0.0
  0
MTEXT
  5
27E1
330
2744
100
AcDbEntity
  8
AM_5
 62
     2
100
AcDbMText
 10
533.6765730948374
 20
346.4787084515786
 30
0.0
 40
9.0
 41
0.0
 71
     5
 72
     1
  1
R1 R167.5{}{\H0.71x;\C3;\S+2^ -1;}
 11
0.8628088760146381
 21
0.5055302596980291
 31
0.0
 73
     1
 44
1.0
1001
ACAD
1000
MTEXTBEGIN
1070
    73
1070
     1
1070
    44
1040
1.0
1070
    74
1070
     0
1000
MTEXTEND
  0
LINE
  5
27E2
330
2744
100
AcDbEntity
  8
AM_5
100
AcDbLine
 10
515.1381697818477
 20
324.0541561363774
 30
0.0
 11
562.30169927757
 21
351.6878441721082
 31
0.0
  0
LINE
  5
27E3
330
2744
100
AcDbEntity
  8
AM_5
100
AcDbLine
 10
552.2149764078269
 20
368.90326076678
 30
0.0
 11
505.0514469121047
 21
341.2695727310491
 31
0.0
  0
ARC
  5
27E4
330
2744
100
AcDbEntity
  8
AM_5
  6
Continuous
100
AcDbCircle
 10
557.2583378426986
 20
360.2955524694441
 30
0.0
 40
9.976378937007869
100
AcDbArc
 50
300.366558510844
 51
120.3665585108452
  0
ARC
  5
27E5
330
2744
100
AcDbEntity
  8
AM_5
  6
Continuous
100
AcDbCircle
 10
510.0948083469764
 20
332.6618644337133
 30
0.0
 40
9.976378937007876
100
AcDbArc
 50
120.3665585108452
 51
300.366558510844
  0
SOLID
  5
27E6
330
2744
100
AcDbEntity
  8
AM_5
100
AcDbTrace
 10
577.0973213503899
 20
358.0387694131387
 30
0.0
 11
578.1083818697859
 21
356.3131516611094
 31
0.0
 12
582.7797048661758
 22
360.2091420953123
 32
0.0
 13
582.7797048661758
 23
360.2091420953123
 33
0.0
  0
POINT
  5
27E7
330
2744
100
AcDbEntity
  8
Defpoints
 62
     0
100
AcDbPoint
 10
582.7797048661758
 20
360.2091420953123
 30
0.0
  0
POINT
  5
27E8
330
2744
100
AcDbEntity
  8
Defpoints
 62
     0
100
AcDbPoint
 10
438.2592181337229
 20
275.5328235958919
 30
0.0
  0
ENDBLK
  5
2746
330
2744
100
AcDbEntity
  8
0
100
AcDbBlockEnd
  0
BLOCK
  5
2751
330
2750
100
AcDbEntity
  8
0
100
AcDbBlockBegin
  2
*D11
 70
     1
 10
0.0
 20
0.0
 30
0.0
  3
*D11
  1

  0
LINE
  5
2AEC
330
2750
100
AcDbEntity
  8
AM_5
100
AcDbLine
 10
438.259218133722
 20
96.03282342333553
 30
0.0
 11
438.259218133722
 21
36.03282342333462
 31
0.0
  0
LINE
  5
2AED
330
2750
100
AcDbEntity
  8
AM_5
100
AcDbLine
 10
615.8592181337226
 20
96.03282342333463
 30
0.0
 11
615.8592181337226
 21
36.03282342333462
 31
0.0
  0
LINE
  5
2AEE
330
2750
100
AcDbEntity
  8
AM_5
100
AcDbLine
 10
444.2592181337221
 20
38.03282342333462
 30
0.0
 11
609.8592181337226
 21
38.03282342333462
 31
0.0
  0
SOLID
  5
2AEF
330
2750
100
AcDbEntity
  8
AM_5
100
AcDbTrace
 10
444.2592181337221
 20
39.03282342333462
 30
0.0
 11
444.2592181337221
 21
37.03282342333462
 31
0.0
 12
438.259218133722
 22
38.03282342333462
 32
0.0
 13
438.259218133722
 23
38.03282342333462
 33
0.0
  0
SOLID
  5
2AF0
330
2750
100
AcDbEntity
  8
AM_5
100
AcDbTrace
 10
609.8592181337226
 20
39.03282342333462
 30
0.0
 11
609.8592181337226
 21
37.03282342333462
 31
0.0
 12
615.8592181337226
 22
38.03282342333462
 32
0.0
 13
615.8592181337226
 23
38.03282342333462
 33
0.0
  0
MTEXT
  5
2AF1
330
2750
100
AcDbEntity
  8
AM_5
 62
     2
100
AcDbMText
 10
527.0592181337223
 20
45.53282342333462
 30
0.0
 40
9.0
 41
0.0
 71
     5
 72
     1
  1
178
 73
     1
 44
1.0
1001
ACAD
1000
MTEXTBEGIN
1070
    73
1070
     1
1070
    44
1040
1.0
1070
    74
1070
     0
1000
MTEXTEND
  0
POINT
  5
2AF2
330
2750
100
AcDbEntity
  8
Defpoints
 62
     0
100
AcDbPoint
 10
438.259218133722
 20
98.03282342333552
 30
0.0
  0
POINT
  5
2AF3
330
2750
100
AcDbEntity
  8
Defpoints
 62
     0
100
AcDbPoint
 10
615.8592181337226
 20
98.03282342333462
 30
0.0
  0
POINT
  5
2AF4
330
2750
100
AcDbEntity
  8
Defpoints
 62
     0
100
AcDbPoint
 10
615.8592181337226
 20
38.03282342333462
 30
0.0
  0
ENDBLK
  5
2752
330
2750
100
AcDbEntity
  8
0
100
AcDbBlockEnd
  0
BLOCK
  5
275D
330
275C
100
AcDbEntity
  8
0
100
AcDbBlockBegin
  2
*D12
 70
     1
 10
0.0
 20
0.0
 30
0.0
  3
*D12
  1

  0
LINE
  5
2ADA
330
275C
100
AcDbEntity
  8
AM_5
100
AcDbLine
 10
183.2845789843891
 20
328.5328235210325
 30
0.0
 11
123.2845789843891
 21
328.5328235210325
 31
0.0
  0
LINE
  5
2ADB
330
275C
100
AcDbEntity
  8
AM_5
100
AcDbLine
 10
183.2845789843891
 20
222.5328236613687
 30
0.0
 11
123.2845789843891
 21
222.5328236613687
 31
0.0
  0
LINE
  5
2ADC
330
275C
100
AcDbEntity
  8
AM_5
100
AcDbLine
 10
125.2845789843891
 20
322.5328235210325
 30
0.0
 11
125.2845789843891
 21
228.5328236613686
 31
0.0
  0
SOLID
  5
2ADD
330
275C
100
AcDbEntity
  8
AM_5
100
AcDbTrace
 10
124.2845789843891
 20
322.5328235210325
 30
0.0
 11
126.2845789843891
 21
322.5328235210325
 31
0.0
 12
125.2845789843891
 22
328.5328235210325
 32
0.0
 13
125.2845789843891
 23
328.5328235210325
 33
0.0
  0
SOLID
  5
2ADE
330
275C
100
AcDbEntity
  8
AM_5
100
AcDbTrace
 10
124.2845789843891
 20
228.5328236613686
 30
0.0
 11
126.2845789843891
 21
228.5328236613686
 31
0.0
 12
125.2845789843891
 22
222.5328236613687
 32
0.0
 13
125.2845789843891
 23
222.5328236613687
 33
0.0
  0
MTEXT
  5
2ADF
330
275C
100
AcDbEntity
  8
AM_5
 62
     2
100
AcDbMText
 10
117.784578984389
 20
275.5328235912006
 30
0.0
 40
9.0
 41
0.0
 71
     5
 72
     1
  1
106
 11
0.0000000000000001
 21
1.0
 31
0.0
 73
     1
 44
1.0
1001
ACAD
1000
MTEXTBEGIN
1070
    73
1070
     1
1070
    44
1040
1.0
1070
    74
1070
     0
1000
MTEXTEND
  0
POINT
  5
2AE0
330
275C
100
AcDbEntity
  8
Defpoints
 62
     0
100
AcDbPoint
 10
185.2845789843891
 20
328.5328235210325
 30
0.0
  0
POINT
  5
2AE1
330
275C
100
AcDbEntity
  8
Defpoints
 62
     0
100
AcDbPoint
 10
185.2845789843891
 20
222.5328236613687
 30
0.0
  0
POINT
  5
2AE2
330
275C
100
AcDbEntity
  8
Defpoints
 62
     0
100
AcDbPoint
 10
125.2845789843891
 20
222.5328236613687
 30
0.0
  0
ENDBLK
  5
275E
330
275C
100
AcDbEntity
  8
0
100
AcDbBlockEnd
  0
BLOCK
  5
2769
330
2768
100
AcDbEntity
  8
0
100
AcDbBlockBegin
  2
*D13
 70
     1
 10
0.0
 20
0.0
 30
0.0
  3
*D13
  1

  0
LINE
  5
2B07
330
2768
100
AcDbEntity
  8
AM_5
100
AcDbLine
 10
185.2845789843891
 20
455.0328237590647
 30
0.0
 11
185.2845789843891
 21
485.5484927352822
 31
0.0
  0
LINE
  5
2B08
330
2768
100
AcDbEntity
  8
AM_5
100
AcDbLine
 10
615.8592181337226
 20
455.0328237590647
 30
0.0
 11
615.8592181337226
 21
485.5484927352822
 31
0.0
  0
LINE
  5
2B09
330
2768
100
AcDbEntity
  8
AM_5
100
AcDbLine
 10
191.2845789843891
 20
483.5484927352822
 30
0.0
 11
609.8592181337226
 21
483.5484927352822
 31
0.0
  0
SOLID
  5
2B0A
330
2768
100
AcDbEntity
  8
AM_5
100
AcDbTrace
 10
191.2845789843891
 20
484.5484927352822
 30
0.0
 11
191.2845789843891
 21
482.5484927352822
 31
0.0
 12
185.2845789843891
 22
483.5484927352822
 32
0.0
 13
185.2845789843891
 23
483.5484927352822
 33
0.0
  0
SOLID
  5
2B0B
330
2768
100
AcDbEntity
  8
AM_5
100
AcDbTrace
 10
609.8592181337226
 20
484.5484927352822
 30
0.0
 11
609.8592181337226
 21
482.5484927352822
 31
0.0
 12
615.8592181337226
 22
483.5484927352822
 32
0.0
 13
615.8592181337226
 23
483.5484927352822
 33
0.0
  0
MTEXT
  5
2B0C
330
2768
100
AcDbEntity
  8
AM_5
 62
     2
100
AcDbMText
 10
400.5718985590558
 20
491.0484927352822
 30
0.0
 40
9.0
 41
0.0
 71
     5
 72
     1
  1
431
 73
     1
 44
1.0
1001
ACAD
1000
MTEXTBEGIN
1070
    73
1070
     1
1070
    44
1040
1.0
1070
    74
1070
     0
1000
MTEXTEND
  0
POINT
  5
2B0D
330
2768
100
AcDbEntity
  8
Defpoints
 62
     0
100
AcDbPoint
 10
185.2845789843891
 20
453.0328237590647
 30
0.0
  0
POINT
  5
2B0E
330
2768
100
AcDbEntity
  8
Defpoints
 62
     0
100
AcDbPoint
 10
615.8592181337226
 20
453.0328237590647
 30
0.0
  0
POINT
  5
2B0F
330
2768
100
AcDbEntity
  8
Defpoints
 62
     0
100
AcDbPoint
 10
615.8592181337226
 20
483.5484927352822
 30
0.0
  0
ENDBLK
  5
276A
330
2768
100
AcDbEntity
  8
0
100
AcDbBlockEnd
  0
BLOCK
  5
2779
330
2778
100
AcDbEntity
  8
0
100
AcDbBlockBegin
  2
*D14
 70
     1
 10
0.0
 20
0.0
 30
0.0
  3
*D14
  1

  0
LINE
  5
277B
330
2778
100
AcDbEntity
  8
AM_5
100
AcDbLine
 10
605.7592181337231
 20
277.5328235958919
 30
0.0
 11
605.7592181337231
 21
413.7539974580697
 31
0.0
  0
LINE
  5
277C
330
2778
100
AcDbEntity
  8
AM_5
100
AcDbLine
 10
615.8592181337226
 20
277.5328235958919
 30
0.0
 11
615.8592181337226
 21
413.7539974580697
 31
0.0
  0
LINE
  5
277D
330
2778
100
AcDbEntity
  8
AM_5
100
AcDbLine
 10
599.7592181337231
 20
411.7539974580697
 30
0.0
 11
593.7592181337231
 21
411.7539974580697
 31
0.0
  0
LINE
  5
277E
330
2778
100
AcDbEntity
  8
AM_5
100
AcDbLine
 10
621.8592181337226
 20
411.7539974580697
 30
0.0
 11
649.1521315195493
 21
411.7539974580697
 31
0.0
  0
LINE
  5
277F
330
2778
100
AcDbEntity
  8
AM_5
100
AcDbLine
 10
605.7592181337231
 20
411.7539974580697
 30
0.0
 11
615.8592181337226
 21
411.7539974580697
 31
0.0
  0
SOLID
  5
2780
330
2778
100
AcDbEntity
  8
AM_5
100
AcDbTrace
 10
599.7592181337231
 20
412.7539974580697
 30
0.0
 11
599.7592181337231
 21
410.7539974580697
 31
0.0
 12
605.7592181337231
 22
411.7539974580697
 32
0.0
 13
605.7592181337231
 23
411.7539974580697
 33
0.0
  0
SOLID
  5
2781
330
2778
100
AcDbEntity
  8
AM_5
100
AcDbTrace
 10
621.8592181337226
 20
412.7539974580697
 30
0.0
 11
621.8592181337226
 21
410.7539974580697
 31
0.0
 12
615.8592181337226
 22
411.7539974580697
 32
0.0
 13
615.8592181337226
 23
411.7539974580697
 33
0.0
  0
MTEXT
  5
2782
330
2778
100
AcDbEntity
  8
AM_5
 62
     2
100
AcDbMText
 10
638.5056748266359
 20
419.7039974580697
 30
0.0
 40
9.0
 41
0.0
 71
     5
 72
     1
  1
(10)
 73
     1
 44
1.0
1001
ACAD
1000
MTEXTBEGIN
1070
    73
1070
     1
1070
    44
1040
1.0
1070
    74
1070
     0
1000
MTEXTEND
  0
POINT
  5
2783
330
2778
100
AcDbEntity
  8
Defpoints
 62
     0
100
AcDbPoint
 10
605.7592181337231
 20
275.5328235958919
 30
0.0
  0
POINT
  5
2784
330
2778
100
AcDbEntity
  8
Defpoints
 62
     0
100
AcDbPoint
 10
615.8592181337226
 20
275.5328235958919
 30
0.0
  0
POINT
  5
2785
330
2778
100
AcDbEntity
  8
Defpoints
 62
     0
100
AcDbPoint
 10
615.8592181337226
 20
411.7539974580697
 30
0.0
  0
ENDBLK
  5
277A
330
2778
100
AcDbEntity
  8
0
100
AcDbBlockEnd
  0
BLOCK
  5
2787
330
2786
100
AcDbEntity
  8
0
100
AcDbBlockBegin
  2
*D15
 70
     1
 10
0.0
 20
0.0
 30
0.0
  3
*D15
  1

  0
LINE
  5
2789
330
2786
100
AcDbEntity
  8
AM_5
100
AcDbLine
 10
1107.064986980512
 20
749.2656586733148
 30
0.0
 11
1152.648995530876
 21
749.2656586733148
 31
0.0
  0
LINE
  5
278A
330
2786
100
AcDbEntity
  8
AM_5
100
AcDbLine
 10
1107.064986980512
 20
745.2656586733148
 30
0.0
 11
1152.648995530876
 21
745.2656586733148
 31
0.0
  0
LINE
  5
278B
330
2786
100
AcDbEntity
  8
AM_5
100
AcDbLine
 10
1150.648995530876
 20
755.2656586733148
 30
0.0
 11
1150.648995530876
 21
761.2656586733148
 31
0.0
  0
LINE
  5
278C
330
2786
100
AcDbEntity
  8
AM_5
100
AcDbLine
 10
1150.648995530876
 20
739.2656586733148
 30
0.0
 11
1150.648995530876
 21
715.3401271772519
 31
0.0
  0
LINE
  5
278D
330
2786
100
AcDbEntity
  8
AM_5
100
AcDbLine
 10
1150.648995530876
 20
749.2656586733148
 30
0.0
 11
1150.648995530876
 21
745.2656586733148
 31
0.0
  0
SOLID
  5
278E
330
2786
100
AcDbEntity
  8
AM_5
100
AcDbTrace
 10
1149.648995530876
 20
755.2656586733148
 30
0.0
 11
1151.648995530877
 21
755.2656586733148
 31
0.0
 12
1150.648995530876
 22
749.2656586733148
 32
0.0
 13
1150.648995530876
 23
749.2656586733148
 33
0.0
  0
SOLID
  5
278F
330
2786
100
AcDbEntity
  8
AM_5
100
AcDbTrace
 10
1149.648995530876
 20
739.2656586733148
 30
0.0
 11
1151.648995530877
 21
739.2656586733148
 31
0.0
 12
1150.648995530876
 22
745.2656586733148
 32
0.0
 13
1150.648995530876
 23
745.2656586733148
 33
0.0
  0
MTEXT
  5
2790
330
2786
100
AcDbEntity
  8
AM_5
 62
     2
100
AcDbMText
 10
1140.67198765686
 20
724.3028929252834
 30
0.0
 40
9.0
 41
0.0
 71
     5
 72
     1
  1
4{}{\H0.71x;\C3;\S+1^  0;}
 11
0.0000000000000001
 21
1.0
 31
0.0
 73
     1
 44
1.0
1001
ACAD
1000
MTEXTBEGIN
1070
    73
1070
     1
1070
    44
1040
1.0
1070
    74
1070
     0
1000
MTEXTEND
  0
POINT
  5
2791
330
2786
100
AcDbEntity
  8
Defpoints
 62
     0
100
AcDbPoint
 10
1105.064986980512
 20
749.2656586733148
 30
0.0
  0
POINT
  5
2792
330
2786
100
AcDbEntity
  8
Defpoints
 62
     0
100
AcDbPoint
 10
1105.064986980512
 20
745.2656586733148
 30
0.0
  0
POINT
  5
2793
330
2786
100
AcDbEntity
  8
Defpoints
 62
     0
100
AcDbPoint
 10
1150.648995530876
 20
745.2656586733148
 30
0.0
  0
ENDBLK
  5
2788
330
2786
100
AcDbEntity
  8
0
100
AcDbBlockEnd
  0
BLOCK
  5
2795
330
2794
100
AcDbEntity
  8
0
100
AcDbBlockBegin
  2
*D16
 70
     1
 10
0.0
 20
0.0
 30
0.0
  3
*D16
  1

  0
LINE
  5
2797
330
2794
100
AcDbEntity
  8
AM_5
100
AcDbLine
 10
183.2845789843891
 20
453.0328237590647
 30
0.0
 11
123.4235696752494
 21
453.0328237590648
 31
0.0
  0
LINE
  5
2798
330
2794
100
AcDbEntity
  8
AM_5
100
AcDbLine
 10
183.2845789843891
 20
443.0328237590649
 30
0.0
 11
123.4235696752494
 21
443.032823759065
 31
0.0
  0
LINE
  5
2799
330
2794
100
AcDbEntity
  8
AM_5
100
AcDbLine
 10
125.4235696752494
 20
459.0328237590648
 30
0.0
 11
125.4235696752494
 21
465.0328237590648
 31
0.0
  0
LINE
  5
279A
330
2794
100
AcDbEntity
  8
AM_5
100
AcDbLine
 10
125.4235696752494
 20
437.032823759065
 30
0.0
 11
125.4235696752493
 21
409.7399103732382
 31
0.0
  0
LINE
  5
279B
330
2794
100
AcDbEntity
  8
AM_5
100
AcDbLine
 10
125.4235696752494
 20
453.0328237590648
 30
0.0
 11
125.4235696752494
 21
443.032823759065
 31
0.0
  0
SOLID
  5
279C
330
2794
100
AcDbEntity
  8
AM_5
100
AcDbTrace
 10
124.4235696752494
 20
459.0328237590648
 30
0.0
 11
126.4235696752494
 21
459.0328237590648
 31
0.0
 12
125.4235696752494
 22
453.0328237590648
 32
0.0
 13
125.4235696752494
 23
453.0328237590648
 33
0.0
  0
SOLID
  5
279D
330
2794
100
AcDbEntity
  8
AM_5
100
AcDbTrace
 10
124.4235696752494
 20
437.032823759065
 30
0.0
 11
126.4235696752494
 21
437.032823759065
 31
0.0
 12
125.4235696752494
 22
443.032823759065
 32
0.0
 13
125.4235696752494
 23
443.032823759065
 33
0.0
  0
MTEXT
  5
279E
330
2794
100
AcDbEntity
  8
AM_5
 62
     2
100
AcDbMText
 10
117.4735696752493
 20
420.3863670661516
 30
0.0
 40
9.0
 41
0.0
 71
     5
 72
     1
  1
(10)
 11
0.0000000000000001
 21
1.0
 31
0.0
 73
     1
 44
1.0
1001
ACAD
1000
MTEXTBEGIN
1070
    73
1070
     1
1070
    44
1040
1.0
1070
    74
1070
     0
1000
MTEXTEND
  0
POINT
  5
279F
330
2794
100
AcDbEntity
  8
Defpoints
 62
     0
100
AcDbPoint
 10
185.2845789843891
 20
453.0328237590647
 30
0.0
  0
POINT
  5
27A0
330
2794
100
AcDbEntity
  8
Defpoints
 62
     0
100
AcDbPoint
 10
185.2845789843891
 20
443.0328237590649
 30
0.0
  0
POINT
  5
27A1
330
2794
100
AcDbEntity
  8
Defpoints
 62
     0
100
AcDbPoint
 10
125.4235696752494
 20
443.032823759065
 30
0.0
  0
ENDBLK
  5
2796
330
2794
100
AcDbEntity
  8
0
100
AcDbBlockEnd
  0
BLOCK
  5
27A3
330
27A2
100
AcDbEntity
  8
0
100
AcDbBlockBegin
  2
*D17
 70
     1
 10
0.0
 20
0.0
 30
0.0
  3
*D17
  1

  0
LINE
  5
2AB6
330
27A2
100
AcDbEntity
  8
AM_5
100
AcDbLine
 10
482.7473578545371
 20
749.8133190313512
 30
0.0
 11
465.1482256148074
 21
749.8133190313512
 31
0.0
  0
LINE
  5
2AB7
330
27A2
100
AcDbEntity
  8
AM_5
100
AcDbLine
 10
482.7473578545371
 20
634.4946975252703
 30
0.0
 11
465.1482256148073
 21
634.4946975252703
 31
0.0
  0
LINE
  5
2AB8
330
27A2
100
AcDbEntity
  8
AM_5
100
AcDbLine
 10
467.1482256148074
 20
743.8133190313513
 30
0.0
 11
467.1482256148074
 21
640.4946975252703
 31
0.0
  0
SOLID
  5
2AB9
330
27A2
100
AcDbEntity
  8
AM_5
100
AcDbTrace
 10
466.1482256148074
 20
743.8133190313513
 30
0.0
 11
468.1482256148075
 21
743.8133190313513
 31
0.0
 12
467.1482256148074
 22
749.8133190313512
 32
0.0
 13
467.1482256148074
 23
749.8133190313512
 33
0.0
  0
SOLID
  5
2ABA
330
27A2
100
AcDbEntity
  8
AM_5
100
AcDbTrace
 10
466.1482256148074
 20
640.4946975252703
 30
0.0
 11
468.1482256148075
 21
640.4946975252703
 31
0.0
 12
467.1482256148074
 22
634.4946975252703
 32
0.0
 13
467.1482256148074
 23
634.4946975252703
 33
0.0
  0
MTEXT
  5
2ABB
330
27A2
100
AcDbEntity
  8
AM_5
 62
     2
100
AcDbMText
 10
459.6482256148073
 20
692.1540082783109
 30
0.0
 40
9.0
 41
0.0
 71
     5
 72
     1
  1
115
 11
0.0000000000000001
 21
1.0
 31
0.0
 73
     1
 44
1.0
1001
ACAD
1000
MTEXTBEGIN
1070
    73
1070
     1
1070
    44
1040
1.0
1070
    74
1070
     0
1000
MTEXTEND
  0
POINT
  5
2ABC
330
27A2
100
AcDbEntity
  8
Defpoints
 62
     0
100
AcDbPoint
 10
484.747357854537
 20
749.8133190313512
 30
0.0
  0
POINT
  5
2ABD
330
27A2
100
AcDbEntity
  8
Defpoints
 62
     0
100
AcDbPoint
 10
484.747357854537
 20
634.4946975252703
 30
0.0
  0
POINT
  5
2ABE
330
27A2
100
AcDbEntity
  8
Defpoints
 62
     0
100
AcDbPoint
 10
467.1482256148074
 20
634.4946975252703
 30
0.0
  0
ENDBLK
  5
27A4
330
27A2
100
AcDbEntity
  8
0
100
AcDbBlockEnd
  0
BLOCK
  5
27B3
330
27B2
100
AcDbEntity
  8
0
100
AcDbBlockBegin
  2
*D18
 70
     1
 10
0.0
 20
0.0
 30
0.0
  3
*D18
  1

  0
LINE
  5
27B5
330
27B2
100
AcDbEntity
  8
AM_5
100
AcDbLine
 10
367.6092181337229
 20
634.4946975252705
 30
0.0
 11
261.2339608737591
 21
634.4946975252707
 31
0.0
  0
ARC
  5
27B6
330
27B2
100
AcDbEntity
  8
AM_5
100
AcDbCircle
 10
369.6092181337229
 20
634.4946975252705
 30
0.0
 40
106.3752572599637
100
AcDbArc
 50
173.5331348766951
 51
179.9999999999999
  0
LINE
  5
27B7
330
27B2
100
AcDbEntity
  8
AM_5
100
AcDbLine
 10
263.9108100006575
 20
646.4755937880473
 30
0.0
 11
266.4111649129247
 21
668.5343386597006
 31
0.0
  0
ARC
  5
27B8
330
27B2
100
AcDbEntity
  8
AM_5
100
AcDbCircle
 10
369.6092181337229
 20
634.4946975252705
 30
0.0
 40
106.3752572599637
100
AcDbArc
 50
173.5357098490158
 51
176.7678549245079
  0
ARC
  5
27B9
330
27B2
100
AcDbEntity
  8
AM_5
100
AcDbCircle
 10
369.6092181337229
 20
634.4946975252705
 30
0.0
 40
106.3752572599637
100
AcDbArc
 50
184.7321450754949
 51
187.964290150987
  0
ARC
  5
27BA
330
27B2
100
AcDbEntity
  8
AM_5
100
AcDbCircle
 10
369.6092181337229
 20
634.4946975252705
 30
0.0
 40
106.3752572599637
100
AcDbArc
 50
179.9999999999999
 51
181.5000000000028
  0
SOLID
  5
27BB
330
27B2
100
AcDbEntity
  8
AM_5
100
AcDbTrace
 10
264.4027753986523
 20
640.4641089373277
 30
0.0
 11
262.4035709123151
 21
640.5205130312359
 31
0.0
 12
263.2339608737591
 22
634.4946975252705
 32
0.0
 13
263.2339608737591
 23
634.4946975252705
 33
0.0
  0
SOLID
  5
27BC
330
27B2
100
AcDbEntity
  8
AM_5
100
AcDbTrace
 10
262.59804507111
 20
625.6646302301487
 30
0.0
 11
264.5950879929503
 21
625.7733480682784
 31
0.0
 12
263.2704130176409
 22
631.7101179147345
 32
0.0
 13
263.2704130176409
 23
631.7101179147345
 33
0.0
  0
MTEXT
  5
27BD
330
27B2
100
AcDbEntity
  8
AM_5
 62
     2
100
AcDbMText
 10
272.613266129647
 20
656.6602517264863
 30
0.0
 40
9.0
 41
0.0
 71
     5
 72
     1
  1
1.5\U+00B0
 11
-0.1126285996516786
 21
-0.9936371563807895
 31
0.0
 73
     1
 44
1.0
1001
ACAD
1000
MTEXTBEGIN
1070
    73
1070
     1
1070
    44
1040
1.0
1070
    74
1070
     0
1000
MTEXTEND
  0
POINT
  5
27BE
330
27B2
100
AcDbEntity
  8
Defpoints
 62
     0
100
AcDbPoint
 10
263.25016234068
 20
632.6381933006955
 30
0.0
  0
POINT
  5
27BF
330
27B2
100
AcDbEntity
  8
Defpoints
 62
     0
100
AcDbPoint
 10
369.6092181337229
 20
634.4946975252705
 30
0.0
  0
POINT
  5
27C0
330
27B2
100
AcDbEntity
  8
Defpoints
 62
     0
100
AcDbPoint
 10
369.6092181337229
 20
634.4946975252705
 30
0.0
  0
POINT
  5
27C1
330
27B2
100
AcDbEntity
  8
Defpoints
 62
     0
100
AcDbPoint
 10
514.7592181337223
 20
634.4946975252704
 30
0.0
  0
POINT
  5
27C2
330
27B2
100
AcDbEntity
  8
Defpoints
 62
     0
100
AcDbPoint
 10
185.2845789843891
 20
629.6679869812281
 30
0.0
  0
ENDBLK
  5
27B4
330
27B2
100
AcDbEntity
  8
0
100
AcDbBlockEnd
  0
BLOCK
  5
27C4
330
27C3
100
AcDbEntity
  8
0
100
AcDbBlockBegin
  2
*D19
 70
     1
 10
0.0
 20
0.0
 30
0.0
  3
*D19
  1

  0
LINE
  5
27C6
330
27C3
100
AcDbEntity
  8
AM_5
100
AcDbLine
 10
183.2845789843891
 20
629.6679869812281
 30
0.0
 11
159.284577984389
 21
629.6679869812281
 31
0.0
  0
LINE
  5
27C7
330
27C3
100
AcDbEntity
  8
AM_5
100
AcDbLine
 10
183.2845789843891
 20
604.8133190313522
 30
0.0
 11
159.284577984389
 21
604.8133190313522
 31
0.0
  0
LINE
  5
27C8
330
27C3
100
AcDbEntity
  8
AM_5
100
AcDbLine
 10
161.284577984389
 20
623.667986981228
 30
0.0
 11
161.284577984389
 21
610.8133190313521
 31
0.0
  0
SOLID
  5
27C9
330
27C3
100
AcDbEntity
  8
AM_5
100
AcDbTrace
 10
160.284577984389
 20
623.667986981228
 30
0.0
 11
162.284577984389
 21
623.667986981228
 31
0.0
 12
161.284577984389
 22
629.6679869812281
 32
0.0
 13
161.284577984389
 23
629.6679869812281
 33
0.0
  0
SOLID
  5
27CA
330
27C3
100
AcDbEntity
  8
AM_5
100
AcDbTrace
 10
160.284577984389
 20
610.8133190313521
 30
0.0
 11
162.284577984389
 21
610.8133190313521
 31
0.0
 12
161.284577984389
 22
604.8133190313522
 32
0.0
 13
161.284577984389
 23
604.8133190313522
 33
0.0
  0
MTEXT
  5
27CB
330
27C3
100
AcDbEntity
  8
AM_5
 62
     2
100
AcDbMText
 10
153.3345779843889
 20
617.2406530062901
 30
0.0
 40
9.0
 41
0.0
 71
     5
 72
     1
  1
(25)
 11
0.0000000000000001
 21
1.0
 31
0.0
 73
     1
 44
1.0
1001
ACAD
1000
MTEXTBEGIN
1070
    73
1070
     1
1070
    44
1040
1.0
1070
    74
1070
     0
1000
MTEXTEND
  0
POINT
  5
27CC
330
27C3
100
AcDbEntity
  8
Defpoints
 62
     0
100
AcDbPoint
 10
185.2845789843891
 20
629.6679869812281
 30
0.0
  0
POINT
  5
27CD
330
27C3
100
AcDbEntity
  8
Defpoints
 62
     0
100
AcDbPoint
 10
185.2845789843891
 20
604.8133190313522
 30
0.0
  0
POINT
  5
27CE
330
27C3
100
AcDbEntity
  8
Defpoints
 62
     0
100
AcDbPoint
 10
161.284577984389
 20
604.8133190313522
 30
0.0
  0
ENDBLK
  5
27C5
330
27C3
100
AcDbEntity
  8
0
100
AcDbBlockEnd
  0
BLOCK
  5
27D0
330
27CF
100
AcDbEntity
  8
0
100
AcDbBlockBegin
  2
*D20
 70
     1
 10
0.0
 20
0.0
 30
0.0
  3
*D20
  1

  0
LINE
  5
27D2
330
27CF
100
AcDbEntity
  8
AM_5
100
AcDbLine
 10
369.6092181337228
 20
273.5328235911997
 30
0.0
 11
369.6092181337228
 21
36.10468049899737
 31
0.0
  0
LINE
  5
27D3
330
27CF
100
AcDbEntity
  8
AM_5
100
AcDbLine
 10
438.2592181337225
 20
273.5328235911997
 30
0.0
 11
438.2592181337225
 21
36.10468049899737
 31
0.0
  0
LINE
  5
27D4
330
27CF
100
AcDbEntity
  8
AM_5
100
AcDbLine
 10
375.6092181337228
 20
38.10468049899737
 30
0.0
 11
432.2592181337224
 21
38.10468049899737
 31
0.0
  0
SOLID
  5
27D5
330
27CF
100
AcDbEntity
  8
AM_5
100
AcDbTrace
 10
375.6092181337228
 20
39.10468049899737
 30
0.0
 11
375.6092181337228
 21
37.10468049899737
 31
0.0
 12
369.6092181337228
 22
38.10468049899737
 32
0.0
 13
369.6092181337228
 23
38.10468049899737
 33
0.0
  0
SOLID
  5
27D6
330
27CF
100
AcDbEntity
  8
AM_5
100
AcDbTrace
 10
432.2592181337224
 20
39.10468049899737
 30
0.0
 11
432.2592181337224
 21
37.10468049899737
 31
0.0
 12
438.2592181337225
 22
38.10468049899737
 32
0.0
 13
438.2592181337225
 23
38.10468049899737
 33
0.0
  0
MTEXT
  5
27D7
330
27CF
100
AcDbEntity
  8
AM_5
 62
     2
100
AcDbMText
 10
403.9342181337226
 20
48.24206731002099
 30
0.0
 40
9.0
 41
0.0
 71
     5
 72
     1
  1
69{}{\H0.71x;\C3;\S 0^ -2;}
 73
     1
 44
1.0
1001
ACAD
1000
MTEXTBEGIN
1070
    73
1070
     1
1070
    44
1040
1.0
1070
    74
1070
     0
1000
MTEXTEND
  0
POINT
  5
27D8
330
27CF
100
AcDbEntity
  8
Defpoints
 62
     0
100
AcDbPoint
 10
369.6092181337228
 20
275.5328235911997
 30
0.0
  0
POINT
  5
27D9
330
27CF
100
AcDbEntity
  8
Defpoints
 62
     0
100
AcDbPoint
 10
438.2592181337225
 20
275.5328235911997
 30
0.0
  0
POINT
  5
27DA
330
27CF
100
AcDbEntity
  8
Defpoints
 62
     0
100
AcDbPoint
 10
438.2592181337225
 20
38.10468049899737
 30
0.0
  0
ENDBLK
  5
27D1
330
27CF
100
AcDbEntity
  8
0
100
AcDbBlockEnd
  0
BLOCK
  5
2B1F
330
2B10
100
AcDbEntity
  8
0
100
AcDbBlockBegin
  2
*S21
 70
     1
 10
0.0
 20
0.0
 30
0.0
  3
*S21
  1

  0
LINE
  5
2B11
330
2B10
100
AcDbEntity
  8
AM_10
  6
CENTER
 62
     7
100
AcDbLine
 10
163.126056267074
 20
261.5328235912007
 30
0.0
 11
163.126056267074
 21
247.5328235912007
 31
0.0
  0
TRACE
  5
2B12
330
2B10
100
AcDbEntity
  8
AM_10
  6
Continuous
 62
     7
100
AcDbTrace
 10
-161.282921309074
 20
261.5328235912007
 30
0.0000000000000014
 11
-164.969191225074
 21
261.5328235912007
 31
0.0000000000000014
 12
-163.1260562670741
 22
275.5328235912007
 32
0.0000000000000014
 13
-163.1260562670741
 23
275.5328235912007
 33
0.0000000000000014
210
0.0
220
0.0
230
-1.0
  0
LINE
  5
2B13
330
2B10
100
AcDbEntity
  8
AM_10
  6
CENTER
 62
     7
100
AcDbLine
 10
644.9369980400779
 20
261.5328235911996
 30
0.0
 11
644.9369980400778
 21
247.5328235911996
 31
0.0
  0
TRACE
  5
2B14
330
2B10
100
AcDbEntity
  8
AM_10
  6
Continuous
 62
     7
100
AcDbTrace
 10
646.7801329980779
 20
261.5328235911996
 30
0.0
 11
643.0938630820778
 21
261.5328235911996
 31
0.0
 12
644.9369980400779
 22
275.5328235911997
 32
0.0
 13
644.9369980400779
 23
275.5328235911997
 33
0.0
  0
LINE
  5
2B15
330
2B10
100
AcDbEntity
  8
AM_10
  6
CENTER
 62
     7
100
AcDbLine
 10
153.1260562670741
 20
275.5328235912007
 30
0.0
 11
173.1260562670741
 21
275.5328235912006
 31
0.0
  0
LINE
  5
2B16
330
2B10
100
AcDbEntity
  8
AM_10
  6
CENTER
 62
     7
100
AcDbLine
 10
177.1260562670741
 20
275.5328235912006
 30
0.0
 11
179.1260562670741
 21
275.5328235912006
 31
0.0
  0
LINE
  5
2B17
330
2B10
100
AcDbEntity
  8
AM_10
  6
CENTER
 62
     7
100
AcDbLine
 10
183.1260562670741
 20
275.5328235912006
 30
0.0
 11
203.1260562670741
 21
275.5328235912005
 31
0.0
  0
LINE
  5
2B18
330
2B10
100
AcDbEntity
  8
AM_10
  6
CENTER
 62
     7
100
AcDbLine
 10
654.9369980400779
 20
275.5328235911997
 30
0.0
 11
634.9369980400779
 21
275.5328235911997
 31
0.0
  0
LINE
  5
2B19
330
2B10
100
AcDbEntity
  8
AM_10
  6
CENTER
 62
     7
100
AcDbLine
 10
630.9369980400779
 20
275.5328235911997
 30
0.0
 11
628.9369980400778
 21
275.5328235911997
 31
0.0
  0
LINE
  5
2B1A
330
2B10
100
AcDbEntity
  8
AM_10
  6
CENTER
 62
     7
100
AcDbLine
 10
624.9369980400778
 20
275.5328235911997
 30
0.0
 11
604.9369980400779
 21
275.5328235911997
 31
0.0
  0
LINE
  5
2B1B
330
2B10
100
AcDbEntity
  8
AM_10
  6
CENTER
 62
     1
100
AcDbLine
 10
203.1260562670741
 20
275.5328235912005
 30
0.0
 11
604.9369980400779
 21
275.5328235911997
 31
0.0
  0
MTEXT
  5
2B1C
330
2B10
100
AcDbEntity
  8
AM_10
 62
     7
100
AcDbMText
 10
145.1260562670741
 20
275.5328235912007
 30
0.0
 40
10.0
 41
0.0
 71
     5
 72
     5
  1
A
 73
     1
 44
1.0
1001
ACAD
1000
MTEXTBEGIN
1070
    73
1070
     1
1070
    44
1040
1.0
1070
    74
1070
     0
1000
MTEXTEND
  0
MTEXT
  5
2B1D
330
2B10
100
AcDbEntity
  8
AM_10
 62
     7
100
AcDbMText
 10
662.4369980400778
 20
275.5328235911997
 30
0.0
 40
10.0
 41
0.0
 71
     5
 72
     5
  1
B
 73
     1
 44
1.0
1001
ACAD
1000
MTEXTBEGIN
1070
    73
1070
     1
1070
    44
1040
1.0
1070
    74
1070
     0
1000
MTEXTEND
  0
MTEXT
  5
2B1E
330
2B10
100
AcDbEntity
  8
AM_10
 62
     7
100
AcDbMText
 10
383.0141927155721
 20
780.7286618004127
 30
0.0
 40
10.0
 41
0.0
 71
     5
 72
     5
  1
A-B
 73
     1
 44
1.0
1001
ACAD
1000
MTEXTBEGIN
1070
    73
1070
     1
1070
    44
1040
1.0
1070
    74
1070
     0
1000
MTEXTEND
  0
ENDBLK
  5
2B20
330
2B10
100
AcDbEntity
  8
0
100
AcDbBlockEnd
  0
BLOCK
  5
2B32
330
2B23
100
AcDbEntity
  8
0
100
AcDbBlockBegin
  2
*S22
 70
     1
 10
0.0
 20
0.0
 30
0.0
  3
*S22
  1

  0
LINE
  5
2B24
330
2B23
100
AcDbEntity
  8
AM_10
  6
CENTER
 62
     7
100
AcDbLine
 10
163.126056267074
 20
261.5328235912007
 30
0.0
 11
163.126056267074
 21
247.5328235912007
 31
0.0
  0
TRACE
  5
2B25
330
2B23
100
AcDbEntity
  8
AM_10
  6
Continuous
 62
     7
100
AcDbTrace
 10
-161.282921309074
 20
261.5328235912007
 30
0.0000000000000014
 11
-164.969191225074
 21
261.5328235912007
 31
0.0000000000000014
 12
-163.1260562670741
 22
275.5328235912007
 32
0.0000000000000014
 13
-163.1260562670741
 23
275.5328235912007
 33
0.0000000000000014
210
0.0
220
0.0
230
-1.0
  0
LINE
  5
2B26
330
2B23
100
AcDbEntity
  8
AM_10
  6
CENTER
 62
     7
100
AcDbLine
 10
644.9369980400779
 20
261.5328235911996
 30
0.0
 11
644.9369980400778
 21
247.5328235911996
 31
0.0
  0
TRACE
  5
2B27
330
2B23
100
AcDbEntity
  8
AM_10
  6
Continuous
 62
     7
100
AcDbTrace
 10
646.7801329980779
 20
261.5328235911996
 30
0.0
 11
643.0938630820778
 21
261.5328235911996
 31
0.0
 12
644.9369980400779
 22
275.5328235911997
 32
0.0
 13
644.9369980400779
 23
275.5328235911997
 33
0.0
  0
LINE
  5
2B28
330
2B23
100
AcDbEntity
  8
AM_10
  6
CENTER
 62
     7
100
AcDbLine
 10
153.1260562670741
 20
275.5328235912007
 30
0.0
 11
173.1260562670741
 21
275.5328235912006
 31
0.0
  0
LINE
  5
2B29
330
2B23
100
AcDbEntity
  8
AM_10
  6
CENTER
 62
     7
100
AcDbLine
 10
177.1260562670741
 20
275.5328235912006
 30
0.0
 11
179.1260562670741
 21
275.5328235912006
 31
0.0
  0
LINE
  5
2B2A
330
2B23
100
AcDbEntity
  8
AM_10
  6
CENTER
 62
     7
100
AcDbLine
 10
183.1260562670741
 20
275.5328235912006
 30
0.0
 11
203.1260562670741
 21
275.5328235912005
 31
0.0
  0
LINE
  5
2B2B
330
2B23
100
AcDbEntity
  8
AM_10
  6
CENTER
 62
     7
100
AcDbLine
 10
654.9369980400779
 20
275.5328235911997
 30
0.0
 11
634.9369980400779
 21
275.5328235911997
 31
0.0
  0
LINE
  5
2B2C
330
2B23
100
AcDbEntity
  8
AM_10
  6
CENTER
 62
     7
100
AcDbLine
 10
630.9369980400779
 20
275.5328235911997
 30
0.0
 11
628.9369980400778
 21
275.5328235911997
 31
0.0
  0
LINE
  5
2B2D
330
2B23
100
AcDbEntity
  8
AM_10
  6
CENTER
 62
     7
100
AcDbLine
 10
624.9369980400778
 20
275.5328235911997
 30
0.0
 11
604.9369980400779
 21
275.5328235911997
 31
0.0
  0
LINE
  5
2B2E
330
2B23
100
AcDbEntity
  8
AM_10
  6
CENTER
 62
     1
100
AcDbLine
 10
203.1260562670741
 20
275.5328235912005
 30
0.0
 11
604.9369980400779
 21
275.5328235911997
 31
0.0
  0
MTEXT
  5
2B2F
330
2B23
100
AcDbEntity
  8
AM_10
 62
     7
100
AcDbMText
 10
145.1260562670741
 20
275.5328235912007
 30
0.0
 40
10.0
 41
0.0
 71
     5
 72
     5
  1
A
 73
     1
 44
1.0
1001
ACAD
1000
MTEXTBEGIN
1070
    73
1070
     1
1070
    44
1040
1.0
1070
    74
1070
     0
1000
MTEXTEND
  0
MTEXT
  5
2B30
330
2B23
100
AcDbEntity
  8
AM_10
 62
     7
100
AcDbMText
 10
662.4369980400778
 20
275.5328235911997
 30
0.0
 40
10.0
 41
0.0
 71
     5
 72
     5
  1
B
 73
     1
 44
1.0
1001
ACAD
1000
MTEXTBEGIN
1070
    73
1070
     1
1070
    44
1040
1.0
1070
    74
1070
     0
1000
MTEXTEND
  0
MTEXT
  5
2B31
330
2B23
100
AcDbEntity
  8
AM_10
 62
     7
100
AcDbMText
 10
383.0141927155721
 20
780.7286618004127
 30
0.0
 40
10.0
 41
0.0
 71
     5
 72
     5
  1
A-B
 73
     1
 44
1.0
1001
ACAD
1000
MTEXTBEGIN
1070
    73
1070
     1
1070
    44
1040
1.0
1070
    74
1070
     0
1000
MTEXTEND
  0
ENDBLK
  5
2B33
330
2B23
100
AcDbEntity
  8
0
100
AcDbBlockEnd
  0
ENDSEC
  0
SECTION
  2
ENTITIES
  0
LINE
  5
2693
330
1F
100
AcDbEntity
  8
0
100
AcDbLine
 10
605.8592181337226
 20
745.8133190313522
 30
0.0
 11
185.2845789843891
 21
745.8133190313531
 31
0.0
1001
GENIUS_GENFIL_13
1070
     0
1040
0.5
1040
0.5
1040
20.0
1040
0.0
1002
{
1002
}
1001
GENIUS_GENOBJ-N-CHA_13
1002
{
1000
OWNER
1000
GEN
1002
}
1001
GENIUS_GENODEF_13
1002
{
1000
HIER
1070
     0
1002
}
1002
{
1000
MANEDIT
1070
     0
1002
}
1002
{
1000
NOSEL
1070
     0
1002
}
1002
{
1000
BEHIND
1070
     0
1002
}
1002
{
1000
OTHER
1070
     0
1002
}
1002
{
1000
REACTOR
1002
}
  0
LINE
  5
2694
330
1F
100
AcDbEntity
  8
P-0000
  6
Continuous
 62
     7
100
AcDbLine
 10
364.9592181337236
 20
745.8133190313522
 30
0.0
 11
511.759218133722
 21
745.8133190313522
 31
0.0
1001
ACME_LAYERS
1000
1
  0
LINE
  5
2695
330
1F
100
AcDbEntity
  8
P-0000
  6
Continuous
 62
     7
100
AcDbLine
 10
363.4592181337227
 20
745.8133190313522
 30
0.0
 11
513.2592181337229
 21
745.8133190313522
 31
0.0
  0
LINE
  5
2696
330
1F
100
AcDbEntity
  8
0
100
AcDbLine
 10
604.3592181337226
 20
749.8133190313512
 30
0.0
 11
185.2845789843891
 21
749.8133190313526
 31
0.0
  0
HATCH
  5
2697
330
1F
100
AcDbEntity
  8
AM_8
100
AcDbHatch
 10
0.0
 20
0.0
 30
0.0
210
0.0
220
0.0
230
1.0
  2
ANSI31
 70
     0
 71
     1
 91
        1
 92
        7
 72
     0
 73
     1
 93
        9
 10
615.8592181337221
 20
604.8133190313522
 10
615.8592181337226
 20
749.8133190313527
 10
605.8592181337224
 20
749.8133190313523
 10
605.8592181337224
 20
745.813319031352
 10
514.7592181337229
 20
745.8133190313523
 10
514.7592181337224
 20
634.4946975252703
 10
369.6092181337221
 20
634.4946975252703
 10
185.2845789843891
 20
629.667986981228
 10
185.2845789843893
 20
604.8133190313522
 97
        9
330
26A0
330
26AF
330
26B0
330
26B3
330
270F
330
270D
330
26DB
330
26CD
330
2698
 75
     0
 76
     1
 52
0.0
 41
2.0
 77
     0
 78
     1
 53
45.0
 43
-1480.34242699482
 44
800.8807249087231
 45
-4.490128060534575
 46
4.490128060534576
 79
     0
 47
0.923791515161332
 98
        1
 10
527.9088622325916
 20
614.7898272146237
1001
ACAD
1010
0.0
1020
0.0
1030
0.0
  0
LINE
  5
2698
102
{ACAD_REACTORS
330
2697
102
}
330
1F
100
AcDbEntity
  8
0
100
AcDbLine
 10
615.8592181337226
 20
604.8133190313522
 30
0.0
 11
615.8592181337226
 21
749.8133190313522
 31
0.0
  0
LINE
  5
2699
330
1F
100
AcDbEntity
  8
0
100
AcDbLine
 10
605.8592181337226
 20
745.8133190313522
 30
0.0
 11
264.8444995079617
 21
745.8133190313531
 31
0.0
1001
GENIUS_GENFIL_13
1070
     0
1040
0.5
1040
0.5
1040
20.0
1040
0.0
1002
{
1002
}
1001
GENIUS_GENOBJ-N-CHA_13
1002
{
1000
OWNER
1000
GEN
1002
}
1001
GENIUS_GENODEF_13
1002
{
1000
HIER
1070
     0
1002
}
1002
{
1000
MANEDIT
1070
     0
1002
}
1002
{
1000
NOSEL
1070
     0
1002
}
1002
{
1000
BEHIND
1070
     0
1002
}
1002
{
1000
OTHER
1070
     0
1002
}
1002
{
1000
REACTOR
1002
}
  0
LINE
  5
269A
330
1F
100
AcDbEntity
  8
P-0000
  6
Continuous
 62
     7
100
AcDbLine
 10
364.9592181337236
 20
745.8133190313522
 30
0.0
 11
511.759218133722
 21
745.8133190313522
 31
0.0
1001
ACME_LAYERS
1000
1
  0
LINE
  5
269B
330
1F
100
AcDbEntity
  8
P-0000
  6
Continuous
 62
     7
100
AcDbLine
 10
363.4592181337227
 20
745.8133190313522
 30
0.0
 11
513.2592181337229
 21
745.8133190313522
 31
0.0
  0
LINE
  5
269C
330
1F
100
AcDbEntity
  8
0
100
AcDbLine
 10
770.0649869805119
 20
745.2656586733148
 30
0.0
 11
937.5649869805119
 21
745.2656586733148
 31
0.0
  0
LINE
  5
269D
330
1F
100
AcDbEntity
  8
verdeckt
100
AcDbLine
 10
861.064986980512
 20
745.2656586733148
 30
0.0
 11
861.064986980512
 21
634.4946975252703
 31
0.0
  0
LINE
  5
269E
102
{ACAD_REACTORS
330
26C4
330
26D1
102
}
330
1F
100
AcDbEntity
  8
0N
100
AcDbLine
 10
760.064986980512
 20
749.2656586733148
 30
0.0
 11
937.5649869805119
 21
749.2656586733148
 31
0.0
  0
LINE
  5
269F
330
1F
100
AcDbEntity
  8
0N
100
AcDbLine
 10
760.064986980512
 20
749.2656586733148
 30
0.0
 11
760.064986980512
 21
604.265658673315
 31
0.0
  0
LINE
  5
26A0
102
{ACAD_REACTORS
330
2697
102
}
330
1F
100
AcDbEntity
  8
0N
100
AcDbLine
 10
604.3592181337226
 20
749.8133190313522
 30
0.0
 11
615.8592181337226
 21
749.8133190313526
 31
0.0
  0
LINE
  5
26A1
330
1F
100
AcDbEntity
  8
0N
100
AcDbLine
 10
770.0649869805119
 20
749.2656586733148
 30
0.0
 11
770.0649869805119
 21
745.2656586733148
 31
0.0
  0
LINE
  5
26A2
330
1F
100
AcDbEntity
  8
0
100
AcDbLine
 10
438.2592181337229
 20
443.032823759064
 30
0.0
 11
185.2845789843891
 21
443.0328237590649
 31
0.0
  0
LINE
  5
26A3
102
{ACAD_REACTORS
330
26E2
102
}
330
1F
100
AcDbEntity
  8
0
100
AcDbLine
 10
185.2845789843891
 20
328.5328235210325
 30
0.0
 11
383.0935584536717
 21
328.5328235210313
 31
0.0
  0
POINT
  5
26A4
330
1F
100
AcDbEntity
  8
P-2885
  6
Continuous
 62
    18
100
AcDbPoint
 10
494.2318015752378
 20
382.5995940894845
 30
0.0
 50
180.0
1001
ACME_LAYERS
1000
1
  0
LINE
  5
26A5
330
1F
100
AcDbEntity
  8
0
100
AcDbLine
 10
605.8592181337226
 20
745.8133190313522
 30
0.0
 11
264.8444995079617
 21
745.8133190313526
 31
0.0
1001
GENIUS_GENFIL_13
1070
     0
1040
0.5
1040
0.5
1040
20.0
1040
0.0
1002
{
1002
}
1001
GENIUS_GENOBJ-N-CHA_13
1002
{
1000
OWNER
1000
GEN
1002
}
1001
GENIUS_GENODEF_13
1002
{
1000
HIER
1070
     0
1002
}
1002
{
1000
MANEDIT
1070
     0
1002
}
1002
{
1000
NOSEL
1070
     0
1002
}
1002
{
1000
BEHIND
1070
     0
1002
}
1002
{
1000
OTHER
1070
     0
1002
}
1002
{
1000
REACTOR
1002
}
  0
LINE
  5
26A6
330
1F
100
AcDbEntity
  8
P-0000
  6
Continuous
 62
     7
100
AcDbLine
 10
364.9592181337236
 20
745.8133190313522
 30
0.0
 11
511.759218133722
 21
745.8133190313522
 31
0.0
1001
ACME_LAYERS
1000
1
  0
LINE
  5
26A7
330
1F
100
AcDbEntity
  8
P-0000
  6
Continuous
 62
     7
100
AcDbLine
 10
363.4592181337219
 20
745.8133190313522
 30
0.0
 11
364.9592181337218
 21
745.8133190313522
 31
0.0
1001
ACME_LAYERS
1000
1
  0
LINE
  5
26A8
330
1F
100
AcDbEntity
  8
P-0000
  6
Continuous
 62
     7
100
AcDbLine
 10
363.4592181337227
 20
745.8133190313522
 30
0.0
 11
513.2592181337229
 21
745.8133190313522
 31
0.0
  0
LINE
  5
26A9
330
1F
100
AcDbEntity
  8
0
100
AcDbLine
 10
264.8444995079617
 20
749.8133190313512
 30
0.0
 11
604.3592181337226
 21
749.8133190313512
 31
0.0
1001
GENIUS_GENFIL_13
1070
     0
1040
0.5
1040
0.5
1040
20.0
1040
0.0
1002
{
1002
}
1001
GENIUS_GENODEF_13
1002
{
1000
HIER
1070
     0
1002
}
1002
{
1000
MANEDIT
1070
     0
1002
}
1002
{
1000
NOSEL
1070
     0
1002
}
1002
{
1000
BEHIND
1070
     0
1002
}
1002
{
1000
OTHER
1070
     0
1002
}
1002
{
1000
REACTOR
1002
}
1001
GENIUS_GENOBJ-N-CHA_13
1002
{
1000
OWNER
1000
GEN
1002
}
  0
LINE
  5
26AA
330
1F
100
AcDbEntity
  8
0
100
AcDbLine
 10
604.3592181337226
 20
745.8133190313512
 30
0.0
 11
264.8444995079617
 21
745.8133190313517
 31
0.0
1001
GENIUS_GENFIL_13
1070
     0
1040
0.5
1040
0.5
1040
20.0
1040
0.0
1002
{
1002
}
1001
GENIUS_GENOBJ-N-CHA_13
1002
{
1000
OWNER
1000
GEN
1002
}
1001
GENIUS_GENODEF_13
1002
{
1000
HIER
1070
     0
1002
}
1002
{
1000
MANEDIT
1070
     0
1002
}
1002
{
1000
NOSEL
1070
     0
1002
}
1002
{
1000
BEHIND
1070
     0
1002
}
1002
{
1000
OTHER
1070
     0
1002
}
1002
{
1000
REACTOR
1002
}
  0
LINE
  5
26AB
330
1F
100
AcDbEntity
  8
P-0000
  6
Continuous
 62
     7
100
AcDbLine
 10
364.9592181337236
 20
745.8133190313512
 30
0.0
 11
511.759218133722
 21
745.8133190313512
 31
0.0
1001
ACME_LAYERS
1000
1
  0
LINE
  5
26AC
330
1F
100
AcDbEntity
  8
P-0000
  6
Continuous
 62
     7
100
AcDbLine
 10
363.4592181337219
 20
745.8133190313512
 30
0.0
 11
364.9592181337218
 21
745.8133190313512
 31
0.0
1001
ACME_LAYERS
1000
1
  0
LINE
  5
26AD
330
1F
100
AcDbEntity
  8
P-0000
  6
Continuous
 62
     7
100
AcDbLine
 10
363.4592181337227
 20
745.8133190313512
 30
0.0
 11
513.2592181337229
 21
745.8133190313512
 31
0.0
  0
LINE
  5
26AE
330
1F
100
AcDbEntity
  8
P-0000
  6
Continuous
 62
     7
100
AcDbLine
 10
531.1354975753517
 20
749.8133190313512
 30
0.0
 11
438.3592181337223
 21
749.8133190313512
 31
0.0
1001
ACME_LAYERS
1000
1
  0
LINE
  5
26AF
102
{ACAD_REACTORS
330
2697
102
}
330
1F
100
AcDbEntity
  8
0
100
AcDbLine
 10
605.8592181337226
 20
749.8133190313522
 30
0.0
 11
605.8592181337226
 21
745.8133190313522
 31
0.0
  0
LINE
  5
26B0
102
{ACAD_REACTORS
330
2697
102
}
330
1F
100
AcDbEntity
  8
0
100
AcDbLine
 10
605.8592181337226
 20
745.8133190313522
 30
0.0
 11
264.8444995079617
 21
745.8133190313526
 31
0.0
1001
GENIUS_GENFIL_13
1070
     0
1040
0.5
1040
0.5
1040
20.0
1040
0.0
1002
{
1002
}
1001
GENIUS_GENOBJ-N-CHA_13
1002
{
1000
OWNER
1000
GEN
1002
}
1001
GENIUS_GENODEF_13
1002
{
1000
HIER
1070
     0
1002
}
1002
{
1000
MANEDIT
1070
     0
1002
}
1002
{
1000
NOSEL
1070
     0
1002
}
1002
{
1000
BEHIND
1070
     0
1002
}
1002
{
1000
OTHER
1070
     0
1002
}
1002
{
1000
REACTOR
1002
}
  0
LINE
  5
26B1
330
1F
100
AcDbEntity
  8
P-0000
  6
Continuous
 62
     7
100
AcDbLine
 10
364.9592181337236
 20
745.8133190313522
 30
0.0
 11
511.759218133722
 21
745.8133190313522
 31
0.0
1001
ACME_LAYERS
1000
1
  0
LINE
  5
26B2
330
1F
100
AcDbEntity
  8
P-0000
  6
Continuous
 62
     7
100
AcDbLine
 10
363.4592181337219
 20
745.8133190313522
 30
0.0
 11
364.9592181337218
 21
745.8133190313522
 31
0.0
1001
ACME_LAYERS
1000
1
  0
LINE
  5
26B3
102
{ACAD_REACTORS
330
2697
102
}
330
1F
100
AcDbEntity
  8
P-0000
  6
Continuous
 62
     7
100
AcDbLine
 10
514.7592181337229
 20
745.8133190313522
 30
0.0
 11
514.7592181337222
 21
634.4946975252703
 31
0.0
  0
LINE
  5
26B4
330
1F
100
AcDbEntity
  8
P-0000
  6
Continuous
 62
     7
100
AcDbLine
 10
363.4592181337227
 20
745.8133190313522
 30
0.0
 11
513.2592181337229
 21
745.8133190313522
 31
0.0
  0
ARC
  5
26B5
330
1F
100
AcDbEntity
  8
verdeckt
100
AcDbCircle
 10
937.5649869805119
 20
684.7255890790852
 30
0.0
 40
53.0
100
AcDbArc
 50
180.2486052245961
 51
182.9402758915426
  0
ARC
  5
26B6
330
1F
100
AcDbEntity
  8
0N
100
AcDbCircle
 10
438.2592181337229
 20
275.5328235958919
 30
0.0
 40
76.5
100
AcDbArc
 50
359.9999999964826
 51
136.1470053242784
  0
LINE
  5
26B7
330
1F
100
AcDbEntity
  8
0
100
AcDbLine
 10
438.259218133722
 20
108.0328234233357
 30
0.0
 11
185.2845789843891
 21
108.0328234233357
 31
0.0
  0
LINE
  5
26B8
102
{ACAD_REACTORS
330
26E2
102
}
330
1F
100
AcDbEntity
  8
0
100
AcDbLine
 10
185.2845789843891
 20
222.5328236613687
 30
0.0
 11
383.0935584536717
 21
222.5328236613683
 31
0.0
  0
POINT
  5
26B9
330
1F
100
AcDbEntity
  8
P-2885
  6
Continuous
 62
    18
100
AcDbPoint
 10
494.2318015752369
 20
168.4660530835306
 30
0.0
 50
180.0
1001
ACME_LAYERS
1000
1
  0
LINE
  5
26BA
102
{ACAD_REACTORS
330
26DF
102
}
330
1F
100
AcDbEntity
  8
0
100
AcDbLine
 10
185.2845789843891
 20
98.03282342333659
 30
0.0
 11
615.8592181337226
 21
98.03282342333478
 31
0.0
  0
ARC
  5
26BB
330
1F
100
AcDbEntity
  8
0N
100
AcDbCircle
 10
438.2592181337229
 20
275.5328235865077
 30
0.0
 40
76.5
100
AcDbArc
 50
223.8529946757216
 51
0.000000003517439
  0
LINE
  5
26BC
330
1F
100
AcDbEntity
  8
0
100
AcDbLine
 10
1105.064986980512
 20
745.2656586733148
 30
0.0
 11
937.5649869805119
 21
745.2656586733148
 31
0.0
  0
LINE
  5
26BD
330
1F
100
AcDbEntity
  8
verdeckt
100
AcDbLine
 10
1014.064986980512
 20
745.2656586733148
 30
0.0
 11
1014.064986980512
 21
634.4946975252703
 31
0.0
  0
LINE
  5
26BE
102
{ACAD_REACTORS
330
26C4
102
}
330
1F
100
AcDbEntity
  8
0N
100
AcDbLine
 10
1115.064986980512
 20
749.2656586733148
 30
0.0
 11
937.5649869805119
 21
749.2656586733148
 31
0.0
  0
LINE
  5
26BF
330
1F
100
AcDbEntity
  8
0N
100
AcDbLine
 10
1115.064986980512
 20
749.2656586733148
 30
0.0
 11
1115.064986980512
 21
604.265658673315
 31
0.0
  0
LINE
  5
26C0
330
1F
100
AcDbEntity
  8
0N
100
AcDbLine
 10
1105.064986980512
 20
749.2656586733148
 30
0.0
 11
1105.064986980512
 21
745.2656586733148
 31
0.0
  0
ARC
  5
26C1
330
1F
100
AcDbEntity
  8
verdeckt
100
AcDbCircle
 10
937.5649869805119
 20
684.7255890790852
 30
0.0
 40
53.0
100
AcDbArc
 50
357.0597241084574
 51
359.7513947753908
  0
DIMENSION
  5
26C2
102
{ACAD_XDICTIONARY
360
26C3
102
}
102
{ACAD_REACTORS
330
26C4
102
}
330
1F
100
AcDbEntity
  8
AM_5
100
AcDbDimension
  2
*D7
 10
1115.064986980512
 20
782.7558389929259
 30
0.0
 11
942.2635206307022
 21
782.7558389929259
 31
0.0
 70
   160
  1
<>
 71
     5
 42
355.0
  3
AM_DIN$0
100
AcDbAlignedDimension
 13
760.064986980512
 23
749.2656586733148
 33
0.0
 14
1115.064986980512
 24
749.2656586733148
 34
0.0
100
AcDbRotatedDimension
1001
ACAD
1000
DSTYLE
1002
{
1070
    40
1040
2.0
1070
    41
1040
3.0
1070
    47
1040
2.0
1070
    48
1040
1.0
1070
   140
1040
4.5
1070
   179
1070
     1
1070
   271
1070
     0
1002
}
1001
ACAD_DSTYLE_DIMINSPECT
1070
   396
1000
100%
1070
   395
1000

1070
   394
1070
    33
1070
   393
1070
     0
  0
LINE
  5
26C8
330
1F
100
AcDbEntity
  8
0N
100
AcDbLine
 10
990.564986980512
 20
629.6679869812281
 30
0.0
 11
990.564986980512
 21
745.2656586733148
 31
0.0
  0
LINE
  5
26C9
330
1F
100
AcDbEntity
  8
0N
100
AcDbLine
 10
884.564986980512
 20
629.6679869812281
 30
0.0
 11
884.564986980512
 21
745.2656586733148
 31
0.0
  0
LINE
  5
26CA
330
1F
100
AcDbEntity
  8
AM_7
100
AcDbLine
 10
937.5649869805119
 20
752.2656586733148
 30
0.0
 11
937.5649869805119
 21
616.2656586733151
 31
0.0
1001
GENIUS_GENODEF_13
1002
{
1000
HIER
1070
     0
1002
}
1002
{
1000
MANEDIT
1070
     0
1002
}
1002
{
1000
NOSEL
1070
     0
1002
}
1002
{
1000
BEHIND
1070
     0
1002
}
1002
{
1000
OTHER
1070
     0
1002
}
1002
{
1000
REACTOR
1002
}
1001
GENIUS_GENOBJ-N-CEN_13
1002
{
1000
OWNER
1000
GEN
1002
}
1001
GENIUS_GENCEN_19
1002
{
1040
3.0
1002
}
  0
LINE
  5
26CB
330
1F
100
AcDbEntity
  8
AM_7
100
AcDbLine
 10
937.5649869805119
 20
679.3331890051554
 30
0.0
 11
937.5649869805119
 21
695.3356287098326
 31
0.0
1001
GENIUS_GENOREF_13
1005
271B
  0
LINE
  5
26CC
330
1F
100
AcDbEntity
  8
AM_7
100
AcDbLine
 10
937.5649869805119
 20
679.3331890051554
 30
0.0
 11
937.5649869805119
 21
604.265658673315
 31
0.0
1001
GENIUS_GENOREF_13
1005
271B
  0
LINE
  5
26CD
102
{ACAD_REACTORS
330
2697
102
}
330
1F
100
AcDbEntity
  8
0N
100
AcDbLine
 10
185.2845789843891
 20
604.8133190313522
 30
0.0
 11
615.8592181337226
 21
604.8133190313522
 31
0.0
  0
LINE
  5
26CE
102
{ACAD_REACTORS
330
26D1
102
}
330
1F
100
AcDbEntity
  8
0N
100
AcDbLine
 10
760.064986980512
 20
604.265658673315
 30
0.0
 11
1115.064986980512
 21
604.265658673315
 31
0.0
  0
DIMENSION
  5
26CF
102
{ACAD_XDICTIONARY
360
26D0
102
}
102
{ACAD_REACTORS
330
26D1
102
}
330
1F
100
AcDbEntity
  8
AM_5
100
AcDbDimension
  2
*D9
 10
724.578294453304
 20
604.265658673315
 30
0.0
 11
724.5782944533039
 21
674.4793507016777
 31
0.0
 70
   160
  1
<>
 71
     5
 42
144.9999999999997
  3
AM_DIN$0
100
AcDbAlignedDimension
 13
760.064986980512
 23
749.2656586733148
 33
0.0
 14
760.064986980512
 24
604.265658673315
 34
0.0
 50
90.0
100
AcDbRotatedDimension
1001
ACAD
1000
DSTYLE
1002
{
1070
    40
1040
2.0
1070
    41
1040
3.0
1070
    47
1040
2.0
1070
    48
1040
1.0
1070
   140
1040
4.5
1070
   179
1070
     1
1070
   271
1070
     0
1002
}
1001
ACAD_DSTYLE_DIMINSPECT
1070
   396
1000
100%
1070
   395
1000

1070
   394
1070
    33
1070
   393
1070
     0
  0
LINE
  5
26D2
330
1F
100
AcDbEntity
  8
AM_7
100
AcDbLine
 10
438.2592181337225
 20
260.5328235958918
 30
0.0
 11
438.2592181337229
 21
468.032823759064
 31
0.0
1001
GENIUS_GENOBJ-N-CEN_13
1002
{
1000
OWNER
1000
GEN
1002
}
1001
GENIUS_GENODEF_13
1002
{
1000
HIER
1070
     0
1002
}
1002
{
1000
MANEDIT
1070
     0
1002
}
1002
{
1000
NOSEL
1070
     0
1002
}
1002
{
1000
BEHIND
1070
     0
1002
}
1002
{
1000
OTHER
1070
     0
1002
}
1002
{
1000
REACTOR
1002
}
1001
GENIUS_GENCEN_19
1002
{
1040
15.0
1002
}
  0
LINE
  5
26D3
102
{ACAD_REACTORS
330
26DF
102
}
330
1F
100
AcDbEntity
  8
AM_7
100
AcDbLine
 10
438.2592181337229
 20
290.5328235879717
 30
0.0
 11
438.259218133722
 21
83.03282342479974
 31
0.0
1001
GENIUS_GENOBJ-N-CEN_13
1002
{
1000
OWNER
1000
GEN
1002
}
1001
GENIUS_GENODEF_13
1002
{
1000
HIER
1070
     0
1002
}
1002
{
1000
MANEDIT
1070
     0
1002
}
1002
{
1000
NOSEL
1070
     0
1002
}
1002
{
1000
BEHIND
1070
     0
1002
}
1002
{
1000
OTHER
1070
     0
1002
}
1002
{
1000
REACTOR
1002
}
1001
GENIUS_GENCEN_19
1002
{
1040
15.0
1002
}
  0
ARC
  5
26D4
330
1F
100
AcDbEntity
  8
0N
100
AcDbCircle
 10
438.2592181337229
 20
275.5328235958919
 30
0.0
 40
167.5
100
AcDbArc
 50
270.0
 51
90.0
  0
LINE
  5
26D5
330
1F
100
AcDbEntity
  8
0N
100
AcDbLine
 10
185.2845789843891
 20
453.0328237590647
 30
0.0
 11
615.8592181337226
 21
453.0328237590647
 31
0.0
  0
LINE
  5
26D6
102
{ACAD_REACTORS
330
26DF
102
}
330
1F
100
AcDbEntity
  8
0N
100
AcDbLine
 10
615.8592181337226
 20
453.0328237590647
 30
0.0
 11
615.8592181337226
 21
98.03282342333478
 31
0.0
  0
LINE
  5
26DA
330
1F
100
AcDbEntity
  8
AM_7
100
AcDbLine
 10
438.3592181337223
 20
749.8133190313512
 30
0.0
 11
438.2352196159745
 21
634.4946975252703
 31
0.0
  0
LINE
  5
26DB
102
{ACAD_REACTORS
330
2697
102
}
330
1F
100
AcDbEntity
  8
0N
100
AcDbLine
 10
185.2845789843891
 20
749.8133190313526
 30
0.0
 11
185.2845789843891
 21
604.8133190313522
 31
0.0
  0
LINE
  5
26DC
330
1F
100
AcDbEntity
  8
0N
100
AcDbLine
 10
185.2845789843891
 20
453.0328237590647
 30
0.0
 11
185.2845789843891
 21
98.03282342333659
 31
0.0
  0
DIMENSION
  5
26DD
102
{ACAD_XDICTIONARY
360
26DE
102
}
102
{ACAD_REACTORS
330
26DF
102
}
330
1F
100
AcDbEntity
  8
AM_5
100
AcDbDimension
  2
*D11
 10
615.8592181337226
 20
38.03282342333462
 30
0.0
 11
527.0592181337223
 21
45.53282342333462
 31
0.0
 70
    32
  1
<>
 71
     5
 42
177.6000000000005
  3
AM_DIN$0
100
AcDbAlignedDimension
 13
438.259218133722
 23
98.03282342333552
 33
0.0
 14
615.8592181337226
 24
98.03282342333462
 34
0.0
100
AcDbRotatedDimension
1001
ACAD
1000
DSTYLE
1002
{
1070
    40
1040
2.0
1070
    41
1040
3.0
1070
    47
1040
2.0
1070
    48
1040
1.0
1070
   140
1040
4.5
1070
   179
1070
     1
1070
   271
1070
     0
1002
}
1001
ACAD_DSTYLE_DIMINSPECT
1070
   396
1000
100%
1070
   395
1000

1070
   394
1070
    33
1070
   393
1070
     0
  0
DIMENSION
  5
26E0
102
{ACAD_XDICTIONARY
360
26E1
102
}
102
{ACAD_REACTORS
330
26E2
102
}
330
1F
100
AcDbEntity
  8
AM_5
100
AcDbDimension
  2
*D12
 10
125.2845789843891
 20
222.5328236613687
 30
0.0
 11
117.784578984389
 21
275.5328235912006
 31
0.0
 70
    32
  1
<>
 71
     5
 42
105.9999998596638
  3
AM_DIN$0
100
AcDbAlignedDimension
 13
185.2845789843891
 23
328.5328235210325
 33
0.0
 14
185.2845789843891
 24
222.5328236613687
 34
0.0
 50
90.0
100
AcDbRotatedDimension
1001
ACAD
1000
DSTYLE
1002
{
1070
    40
1040
2.0
1070
    41
1040
3.0
1070
    47
1040
2.0
1070
    48
1040
1.0
1070
   140
1040
4.5
1070
   179
1070
     1
1070
   271
1070
     0
1070
   272
1070
     0
1002
}
1001
ACAD_DSTYLE_DIMINSPECT
1070
   396
1000
100%
1070
   395
1000

1070
   394
1070
    33
1070
   393
1070
     0
  0
DIMENSION
  5
26E3
330
1F
100
AcDbEntity
  8
AM_5
100
AcDbDimension
  2
*D13
 10
615.8592181337226
 20
483.5484927352822
 30
0.0
 11
400.5718985590558
 21
491.0484927352822
 31
0.0
 70
    32
  1
<>
 71
     5
 42
430.5746391493335
  3
AM_DIN$0
100
AcDbAlignedDimension
 13
185.2845789843891
 23
453.0328237590647
 33
0.0
 14
615.8592181337226
 24
453.0328237590647
 34
0.0
100
AcDbRotatedDimension
1001
ACAD
1000
DSTYLE
1002
{
1070
    40
1040
2.0
1070
    41
1040
3.0
1070
    47
1040
2.0
1070
    48
1040
1.0
1070
   140
1040
4.5
1070
   179
1070
     1
1070
   271
1070
     0
1002
}
1001
ACAD_DSTYLE_DIMINSPECT
1070
   396
1000
100%
1070
   395
1000

1070
   394
1070
    33
1070
   393
1070
     0
  0
LINE
  5
2707
330
1F
100
AcDbEntity
  8
AM_7
100
AcDbLine
 10
179.2845789843891
 20
275.5328235912007
 30
0.0
 11
621.8592181337226
 21
275.5328235912007
 31
0.0
1001
GENIUS_GENOBJ-N-CEN_13
1002
{
1000
OWNER
1000
GEN
1002
}
1001
GENIUS_GENODEF_13
1002
{
1000
HIER
1070
     0
1002
}
1002
{
1000
MANEDIT
1070
     0
1002
}
1002
{
1000
NOSEL
1070
     0
1002
}
1002
{
1000
BEHIND
1070
     0
1002
}
1002
{
1000
OTHER
1070
     0
1002
}
1002
{
1000
REACTOR
1002
}
1001
GENIUS_GENCEN_19
1002
{
1040
6.0
1002
}
  0
INSERT
  5
2708
330
1F
100
AcDbEntity
  8
AM_10
100
AcDbBlockReference
  2
*S21
 10
0.0
 20
0.0
 30
0.0
  0
INSERT
  5
2709
330
1F
100
AcDbEntity
  8
AM_10
100
AcDbBlockReference
  2
*S22
 10
0.0
 20
0.0
 30
0.0
  0
DIMENSION
  5
270A
330
1F
100
AcDbEntity
  8
AM_5
100
AcDbDimension
  2
*D14
 10
615.8592181337226
 20
411.7539974580697
 30
0.0
 11
638.5056748266359
 21
419.7039974580697
 31
0.0
 70
    32
  1
(<>)
 71
     5
 42
10.09999999999945
  3
AM_DIN$0
100
AcDbAlignedDimension
 13
605.7592181337231
 23
275.5328235958919
 33
0.0
 14
615.8592181337226
 24
275.5328235958919
 34
0.0
100
AcDbRotatedDimension
1001
ACAD_DSTYLE_DIMINSPECT
1070
   396
1000
100%
1070
   395
1000

1070
   394
1070
    33
1070
   393
1070
     0
1001
ACAD
1000
DSTYLE
1002
{
1070
    40
1040
2.0
1070
    41
1040
3.0
1070
    47
1040
2.0
1070
    48
1040
1.0
1070
   140
1040
4.5
1070
   179
1070
     1
1070
   271
1070
     0
1002
}
  0
DIMENSION
  5
270B
330
1F
100
AcDbEntity
  8
AM_5
100
AcDbDimension
  2
*D15
 10
1150.648995530876
 20
745.2656586733148
 30
0.0
 11
1140.67198765686
 21
724.3028929252834
 31
0.0
 70
    32
  1
<>{}{\H0.71x;\C3;\S+1^  0;}
 71
     5
 42
4.0
  3
AM_DIN$0
100
AcDbAlignedDimension
 13
1105.064986980512
 23
749.2656586733148
 33
0.0
 14
1105.064986980512
 24
745.2656586733148
 34
0.0
 50
90.0
100
AcDbRotatedDimension
1001
ACAD_DSTYLE_DIMINSPECT
1070
   396
1000
100%
1070
   395
1000

1070
   394
1070
    33
1070
   393
1070
     0
1001
GENIUS_GENDTOL_13
1000
TolSmNrm
1000

1000
{\H0.71x;$2\S$+$P^ $-$M;}
1040
4.0
1001
ACAD
1000
DSTYLE
1002
{
1070
    40
1040
2.0
1070
    41
1040
3.0
1070
    47
1040
2.0
1070
    48
1040
1.0
1070
   140
1040
4.5
1070
   179
1070
     1
1070
   271
1070
     0
1002
}
  0
DIMENSION
  5
270C
330
1F
100
AcDbEntity
  8
AM_5
100
AcDbDimension
  2
*D16
 10
125.4235696752494
 20
443.032823759065
 30
0.0
 11
117.4735696752493
 21
420.3863670661516
 31
0.0
 70
    32
  1
(<>)
 71
     5
 42
9.999999999999772
  3
AM_DIN$0
100
AcDbAlignedDimension
 13
185.2845789843891
 23
453.0328237590647
 33
0.0
 14
185.2845789843891
 24
443.0328237590649
 34
0.0
 50
90.0
100
AcDbRotatedDimension
1001
ACAD_DSTYLE_DIMINSPECT
1070
   396
1000
100%
1070
   395
1000

1070
   394
1070
    33
1070
   393
1070
     0
1001
ACAD
1000
DSTYLE
1002
{
1070
    40
1040
2.0
1070
    41
1040
3.0
1070
    47
1040
2.0
1070
    48
1040
1.0
1070
   140
1040
4.5
1070
   179
1070
     1
1070
   271
1070
     0
1002
}
  0
LINE
  5
270D
102
{ACAD_REACTORS
330
2697
102
}
330
1F
100
AcDbEntity
  8
0
100
AcDbLine
 10
369.6092181337228
 20
634.4946975252703
 30
0.0
 11
185.2845789843891
 21
629.6679869812281
 31
0.0
  0
LINE
  5
270E
330
1F
100
AcDbEntity
  8
AM_CL
100
AcDbLine
 10
369.6092181337228
 20
328.5328235210313
 30
0.0
 11
369.6092181337228
 21
222.5328236613683
 31
0.0
  0
LINE
  5
270F
102
{ACAD_REACTORS
330
2697
102
}
330
1F
100
AcDbEntity
  8
0
100
AcDbLine
 10
369.6092181337228
 20
634.4946975252703
 30
0.0
 11
514.7592181337222
 21
634.4946975252703
 31
0.0
  0
LINE
  5
2710
330
1F
100
AcDbEntity
  8
verdeckt
100
AcDbLine
 10
861.064986980512
 20
634.4946975252703
 30
0.0
 11
884.564986980512
 21
634.4946975252703
 31
0.0
  0
LINE
  5
2711
330
1F
100
AcDbEntity
  8
verdeckt
100
AcDbLine
 10
990.5649869805124
 20
634.4946975252703
 30
0.0
 11
1014.064986980512
 21
634.4946975252703
 31
0.0
  0
LINE
  5
2712
330
1F
100
AcDbEntity
  8
0
100
AcDbLine
 10
884.564986980512
 20
629.6679869812281
 30
0.0
 11
990.564986980512
 21
629.6679869812281
 31
0.0
  0
LINE
  5
2713
330
1F
100
AcDbEntity
  8
0
100
AcDbLine
 10
884.564986980512
 20
634.4946975252703
 30
0.0
 11
990.5649869805124
 21
634.4946975252703
 31
0.0
  0
DIMENSION
  5
2714
330
1F
100
AcDbEntity
  8
AM_5
100
AcDbDimension
  2
*D17
 10
467.1482256148074
 20
634.4946975252703
 30
0.0
 11
459.6482256148073
 21
692.1540082783109
 31
0.0
 70
    32
  1
<>
 71
     5
 42
115.3186215060809
  3
AM_DIN$0
100
AcDbAlignedDimension
 13
484.747357854537
 23
749.8133190313512
 33
0.0
 14
484.747357854537
 24
634.4946975252703
 34
0.0
 50
90.0
100
AcDbRotatedDimension
1001
ACAD
1000
DSTYLE
1002
{
1070
    40
1040
2.0
1070
    41
1040
3.0
1070
    47
1040
2.0
1070
    48
1040
1.0
1070
   140
1040
4.5
1070
   179
1070
     1
1070
   271
1070
     0
1002
}
1001
ACAD_DSTYLE_DIMINSPECT
1070
   396
1000
100%
1070
   395
1000

1070
   394
1070
    33
1070
   393
1070
     0
  0
DIMENSION
  5
2715
330
1F
100
AcDbEntity
  8
AM_5
100
AcDbDimension
  2
*D18
 10
185.2845789843891
 20
629.6679869812281
 30
0.0
 11
272.613266129647
 21
656.6602517264864
 31
0.0
 70
    34
  1
<>
 71
     5
 42
0.0261799387799657
  3
AM_DIN$2
100
AcDb2LineAngularDimension
 13
369.6092181337228
 23
634.4946975252703
 33
0.0
 14
514.7592181337222
 24
634.4946975252703
 34
0.0
 15
369.6092181337228
 25
634.4946975252703
 35
0.0
 16
263.25016234068
 26
632.6381933006955
 36
0.0
1001
ACAD_DSTYLE_DIMINSPECT
1070
   396
1000
100%
1070
   395
1000

1070
   394
1070
    33
1070
   393
1070
     0
1001
ACAD
1000
DSTYLE
1002
{
1070
    40
1040
2.0
1070
    41
1040
3.0
1070
    47
1040
2.0
1070
    48
1040
1.0
1070
   140
1040
4.5
1070
   179
1070
     1
1070
   271
1070
     0
1070
   345
1005
0
1070
   346
1005
0
1070
   347
1005
0
1002
}
  0
DIMENSION
  5
2716
330
1F
100
AcDbEntity
  8
AM_5
100
AcDbDimension
  2
*D19
 10
161.284577984389
 20
604.8133190313522
 30
0.0
 11
153.3345779843889
 21
617.2406530062901
 31
0.0
 70
    32
  1
(<>)
 71
     5
 42
24.85466794987587
  3
AM_DIN$0
100
AcDbAlignedDimension
 13
185.2845789843891
 23
629.6679869812281
 33
0.0
 14
185.2845789843891
 24
604.8133190313522
 34
0.0
 50
90.0
100
AcDbRotatedDimension
1001
ACAD_DSTYLE_DIMINSPECT
1070
   396
1000
100%
1070
   395
1000

1070
   394
1070
    33
1070
   393
1070
     0
1001
ACAD
1000
DSTYLE
1002
{
1070
    41
1040
3.0
1070
   140
1040
4.5
1070
    40
1040
2.0
1070
    47
1040
2.0
1070
    48
1040
1.0
1070
   179
1070
     1
1070
   271
1070
     0
1002
}
  0
LINE
  5
2717
330
1F
100
AcDbEntity
  8
0
100
AcDbLine
 10
383.0935584536717
 20
745.8133190313522
 30
0.0
 11
383.0935584536717
 21
634.4946975252703
 31
0.0
  0
POINT
  5
271B
330
1F
100
AcDbEntity
  8
0
 60
     1
100
AcDbPoint
 10
79.57135035814599
 20
-37.41236849736151
 30
0.0
1001
GENIUS_GENOLIS_13
1002
{
1000
ENT
1005
26CC
1005
0
1005
26CB
1005
0
1002
}
1001
GENIUS_GENOBJ-N-CRS_13
1002
{
1000
OWNER
1000
GEN
1002
}
1001
GENIUS_GENOENT_13
1002
{
1000
MYREF
1005
271B
1002
}
1002
{
1000
GRP
1005
0
1002
}
1001
GENIUS_GENODEF_13
1002
{
1000
HIER
1070
    10
1002
}
1002
{
1000
MANEDIT
1070
     1
1002
}
1002
{
1000
NOSEL
1070
     0
1002
}
1002
{
1000
BEHIND
1070
     0
1002
}
1002
{
1000
OTHER
1070
     0
1002
}
1002
{
1000
REACTOR
1002
}
  0
ENDSEC
  0
SECTION
  2
OBJECTS
  0
DICTIONARY
  5
C
330
0
100
AcDbDictionary
281
     1
  3
ACAD_2007HEADERVARS_RT
350
2B39
  3
ACAD_COLOR
350
9B
  3
ACAD_GROUP
350
D
  3
ACAD_IMAGE_DICT
350
93B
  3
ACAD_IMAGE_VARS
350
979
  3
ACAD_LAYOUT
350
1A
  3
ACAD_MATERIAL
350
9A
  3
ACAD_MLEADERSTYLE
350
7EB
  3
ACAD_MLINESTYLE
350
17
  3
ACAD_PLOTSETTINGS
350
19
  3
ACAD_PLOTSTYLENAME
350
E
  3
ACAD_SCALELIST
350
7D9
  3
ACAD_TABLESTYLE
350
9C
  3
ACAD_VISUALSTYLE
350
7C8
  3
ACDB_RECOMPOSE_DATA
350
A2C
  3
AcDbVariableDictionary
350
34
  3
AcmDictionary
350
47
  3
AcmSystemVariableManager
350
2B47
  3
AEC_PROPERTY_SET_DEFS
350
878
  3
AMG
350
2B
  3
AMGSNAPSETTINGS
350
536
  3
DWGPROPS
350
2B38
  0
DICTIONARY
  5
47B
330
2
100
AcDbDictionary
280
     1
281
     1
  3
ACAD_LAYERSTATES
360
47C
  0
DICTIONARY
  5
9FA
330
10
100
AcDbDictionary
280
     1
281
     1
  3
ADSK_XREC_LAYER_RECONCILED
360
9FB
  0
DICTIONARY
  5
9FC
330
44B
100
AcDbDictionary
280
     1
281
     1
  3
ADSK_XREC_LAYER_RECONCILED
360
9FD
  0
DICTIONARY
  5
9FE
330
44C
100
AcDbDictionary
280
     1
281
     1
  3
ADSK_XREC_LAYER_RECONCILED
360
9FF
  0
DICTIONARY
  5
A00
330
44E
100
AcDbDictionary
280
     1
281
     1
  3
ADSK_XREC_LAYER_RECONCILED
360
A01
  0
DICTIONARY
  5
A02
330
457
100
AcDbDictionary
280
     1
281
     1
  3
ADSK_XREC_LAYER_RECONCILED
360
A03
  0
DICTIONARY
  5
A04
330
458
100
AcDbDictionary
280
     1
281
     1
  3
ADSK_XREC_LAYER_RECONCILED
360
A05
  0
DICTIONARY
  5
A06
330
459
100
AcDbDictionary
280
     1
281
     1
  3
ADSK_XREC_LAYER_RECONCILED
360
A07
  0
DICTIONARY
  5
A08
330
45A
100
AcDbDictionary
280
     1
281
     1
  3
ADSK_XREC_LAYER_RECONCILED
360
A09
  0
DICTIONARY
  5
A0A
330
45B
100
AcDbDictionary
280
     1
281
     1
  3
ADSK_XREC_LAYER_RECONCILED
360
A0B
  0
DICTIONARY
  5
829
330
828
100
AcDbDictionary
280
     1
281
     1
  3
ADSK_XREC_LAYER_RECONCILED
360
A0C
  0
DICTIONARY
  5
A0D
330
87B
100
AcDbDictionary
280
     1
281
     1
  3
ADSK_XREC_LAYER_RECONCILED
360
A0E
  0
DICTIONARY
  5
88F
330
88E
100
AcDbDictionary
280
     1
281
     1
  3
ADSK_XREC_LAYER_RECONCILED
360
A0F
  0
DICTIONARY
  5
891
330
890
100
AcDbDictionary
280
     1
281
     1
  3
ADSK_XREC_LAYER_RECONCILED
360
A10
  0
DICTIONARY
  5
893
330
892
100
AcDbDictionary
280
     1
281
     1
  3
ADSK_XREC_LAYER_RECONCILED
360
A11
  0
DICTIONARY
  5
895
330
894
100
AcDbDictionary
280
     1
281
     1
  3
ADSK_XREC_LAYER_RECONCILED
360
A12
  0
DICTIONARY
  5
897
330
896
100
AcDbDictionary
280
     1
281
     1
  3
ADSK_XREC_LAYER_RECONCILED
360
A13
  0
DICTIONARY
  5
899
330
898
100
AcDbDictionary
280
     1
281
     1
  3
ADSK_XREC_LAYER_RECONCILED
360
A14
  0
DICTIONARY
  5
89D
330
89C
100
AcDbDictionary
280
     1
281
     1
  3
ADSK_XREC_LAYER_RECONCILED
360
A15
  0
DICTIONARY
  5
89F
330
89E
100
AcDbDictionary
280
     1
281
     1
  3
ADSK_XREC_LAYER_RECONCILED
360
A16
  0
DICTIONARY
  5
D00
330
CFF
100
AcDbDictionary
280
     1
281
     1
  0
DICTIONARY
  5
29D8
330
29D7
100
AcDbDictionary
280
     1
281
     1
  0
DICTIONARY
  5
29DA
330
29D9
100
AcDbDictionary
280
     1
281
     1
  0
DICTIONARY
  5
81
330
1F
100
AcDbDictionary
280
     1
281
     1
  3
ACAD_SORTENTS
360
1C6F
  0
DICTIONARY
  5
938
330
8B0
100
AcDbDictionary
280
     1
281
     1
  0
DICTIONARY
  5
133F
330
128F
100
AcDbDictionary
280
     1
281
     1
  0
DICTIONARY
  5
2B45
330
874
100
AcDbDictionary
280
     1
281
     1
  3
ACAD_MTEXT_RT
360
2B46
  0
IMAGEDEF_REACTOR
  5
937
330
936
100
AcDbRasterImageDefReactor
 90
        2
330
936
  0
DICTIONARY
  5
2B49
330
9CD
100
AcDbDictionary
280
     1
281
     1
  3
ACAD_MTEXT_RT
360
2B4A
  0
DICTIONARY
  5
26C3
330
26C2
100
AcDbDictionary
280
     1
281
     1
  3
ACAD_DIMASSOC
360
26C4
  0
DICTIONARY
  5
26D0
330
26CF
100
AcDbDictionary
280
     1
281
     1
  3
ACAD_DIMASSOC
360
26D1
  0
DICTIONARY
  5
26DE
330
26DD
100
AcDbDictionary
280
     1
281
     1
  3
ACAD_DIMASSOC
360
26DF
  0
DICTIONARY
  5
26E1
330
26E0
100
AcDbDictionary
280
     1
281
     1
  3
ACAD_DIMASSOC
360
26E2
  0
DICTIONARY
  5
2B39
102
{ACAD_REACTORS
330
C
102
}
330
C
100
AcDbDictionary
281
     1
  3
DIMJOGANG
350
2B3A
  0
DICTIONARY
  5
9B
102
{ACAD_REACTORS
330
C
102
}
330
C
100
AcDbDictionary
281
     1
  0
DICTIONARY
  5
D
102
{ACAD_REACTORS
330
C
102
}
330
C
100
AcDbDictionary
281
     1
  0
DICTIONARY
  5
93B
102
{ACAD_REACTORS
330
C
102
}
330
C
100
AcDbDictionary
281
     1
  3
ACO-Logo
350
93C
  0
RASTERVARIABLES
  5
979
102
{ACAD_REACTORS
330
C
102
}
330
C
100
AcDbRasterVariables
 90
        0
 70
     1
 71
     1
 72
     1
  0
DICTIONARY
  5
1A
102
{ACAD_REACTORS
330
C
102
}
330
C
100
AcDbDictionary
281
     1
  3
Layout1
350
1E
  3
Layout2
350
26
  3
Model
350
22
  0
DICTIONARY
  5
9A
102
{ACAD_REACTORS
330
C
102
}
330
C
100
AcDbDictionary
281
     1
  3
ByBlock
350
7B8
  3
ByLayer
350
7B0
  3
Global
350
7C0
  0
DICTIONARY
  5
7EB
102
{ACAD_REACTORS
330
C
102
}
330
C
100
AcDbDictionary
281
     1
  3
Standard
350
7EC
  0
DICTIONARY
  5
17
102
{ACAD_REACTORS
330
C
102
}
330
C
100
AcDbDictionary
281
     1
  3
Standard
350
18
  0
DICTIONARY
  5
19
102
{ACAD_REACTORS
330
C
102
}
330
C
100
AcDbDictionary
281
     1
  0
ACDBDICTIONARYWDFLT
  5
E
102
{ACAD_REACTORS
330
C
102
}
330
C
100
AcDbDictionary
281
     1
  3
Normal
350
F
100
AcDbDictionaryWithDefault
340
F
  0
DICTIONARY
  5
7D9
102
{ACAD_REACTORS
330
C
102
}
330
C
100
AcDbDictionary
281
     1
  3
A0
350
7DA
  3
A1
350
7DB
  3
A2
350
7DC
  3
A3
350
7DD
  3
A4
350
7DE
  3
A5
350
7DF
  3
A6
350
7E0
  3
A7
350
7E1
  3
A8
350
7E2
  3
A9
350
7E3
  3
B0
350
7E4
  3
B1
350
7E5
  3
B2
350
7E6
  3
B3
350
7E7
  3
B4
350
7E8
  3
B5
350
7E9
  3
B6
350
7EA
  0
DICTIONARY
  5
9C
102
{ACAD_REACTORS
330
C
102
}
330
C
100
AcDbDictionary
281
     1
  3
Standard
350
9D
  0
DICTIONARY
  5
7C8
102
{ACAD_REACTORS
330
C
102
}
330
C
100
AcDbDictionary
281
     1
  3
2dWireframe
350
7CE
  3
3D Hidden
350
7D0
  3
3dWireframe
350
7CF
  3
Basic
350
7CD
  3
Brighten
350
7D4
  3
ColorChange
350
7D8
  3
Conceptual
350
7D1
  3
Dim
350
7D3
  3
Facepattern
350
7D7
  3
Flat
350
7C9
  3
FlatWithEdges
350
7CA
  3
Gouraud
350
7CB
  3
GouraudWithEdges
350
7CC
  3
Linepattern
350
7D6
  3
Realistic
350
7D2
  3
Thicken
350
7D5
  0
XRECORD
  5
A2C
102
{ACAD_REACTORS
330
C
102
}
330
C
100
AcDbXrecord
280
     1
 90
        1
330
9D
  0
DICTIONARY
  5
34
102
{ACAD_REACTORS
330
C
102
}
330
C
100
AcDbDictionary
281
     1
  3
CANNOSCALE
350
A2F
  3
CMLEADERSTYLE
350
A2D
  3
CTABLESTYLE
350
10F
  3
DIMASSOC
350
2B36
  3
INDEXCTL
350
35
  3
LAYEREVAL
350
A31
  3
LAYERNOTIFY
350
A32
  3
LIGHTINGUNITS
350
A30
  3
MSLTSCALE
350
A2E
  3
SORTENTS
350
2B35
  0
DICTIONARY
  5
47
102
{ACAD_REACTORS
330
C
102
}
330
C
100
AcDbDictionary
281
     1
  3
AcmStdDictionary
350
4C
  3
AMDTSECTSYM_ARROWCOLOR
350
F5
  0
DICTIONARY
  5
878
102
{ACAD_REACTORS
330
C
102
}
330
C
100
AcDbDictionary
281
     1
  0
DICTIONARY
  5
2B
102
{ACAD_REACTORS
330
C
102
}
330
C
100
AcDbDictionary
281
     1
  0
DICTIONARY
  5
536
102
{ACAD_REACTORS
330
C
102
}
330
C
100
AcDbDictionary
281
     1
  0
XRECORD
  5
2B38
102
{ACAD_REACTORS
330
C
102
}
330
C
100
AcDbXrecord
280
     1
  1
DWGPROPS COOKIE
  2

  3

  4

  6

  7

  8
atittmar
  9

300
AmdtFileType=84
301
=
302
=
303
=
304
=
305
=
306
=
307
=
308
=
309
=
 40
0.2139434143518518
 41
2452702.55750169
 42
2455810.581374734
  1

 90
        1
  0
DICTIONARY
  5
47C
102
{ACAD_REACTORS
330
47B
102
}
330
47B
100
AcDbDictionary
281
     1
  0
XRECORD
  5
9FB
102
{ACAD_REACTORS
330
9FA
102
}
330
9FA
100
AcDbXrecord
280
     1
290
     1
  0
XRECORD
  5
9FD
102
{ACAD_REACTORS
330
9FC
102
}
330
9FC
100
AcDbXrecord
280
     1
290
     1
  0
XRECORD
  5
9FF
102
{ACAD_REACTORS
330
9FE
102
}
330
9FE
100
AcDbXrecord
280
     1
290
     1
  0
XRECORD
  5
A01
102
{ACAD_REACTORS
330
A00
102
}
330
A00
100
AcDbXrecord
280
     1
290
     1
  0
XRECORD
  5
A03
102
{ACAD_REACTORS
330
A02
102
}
330
A02
100
AcDbXrecord
280
     1
290
     1
  0
XRECORD
  5
A05
102
{ACAD_REACTORS
330
A04
102
}
330
A04
100
AcDbXrecord
280
     1
290
     1
  0
XRECORD
  5
A07
102
{ACAD_REACTORS
330
A06
102
}
330
A06
100
AcDbXrecord
280
     1
290
     1
  0
XRECORD
  5
A09
102
{ACAD_REACTORS
330
A08
102
}
330
A08
100
AcDbXrecord
280
     1
290
     1
  0
XRECORD
  5
A0B
102
{ACAD_REACTORS
330
A0A
102
}
330
A0A
100
AcDbXrecord
280
     1
290
     1
  0
XRECORD
  5
A0C
102
{ACAD_REACTORS
330
829
102
}
330
829
100
AcDbXrecord
280
     1
290
     1
  0
XRECORD
  5
A0E
102
{ACAD_REACTORS
330
A0D
102
}
330
A0D
100
AcDbXrecord
280
     1
290
     1
  0
XRECORD
  5
A0F
102
{ACAD_REACTORS
330
88F
102
}
330
88F
100
AcDbXrecord
280
     1
290
     1
  0
XRECORD
  5
A10
102
{ACAD_REACTORS
330
891
102
}
330
891
100
AcDbXrecord
280
     1
290
     1
  0
XRECORD
  5
A11
102
{ACAD_REACTORS
330
893
102
}
330
893
100
AcDbXrecord
280
     1
290
     1
  0
XRECORD
  5
A12
102
{ACAD_REACTORS
330
895
102
}
330
895
100
AcDbXrecord
280
     1
290
     1
  0
XRECORD
  5
A13
102
{ACAD_REACTORS
330
897
102
}
330
897
100
AcDbXrecord
280
     1
290
     1
  0
XRECORD
  5
A14
102
{ACAD_REACTORS
330
899
102
}
330
899
100
AcDbXrecord
280
     1
290
     1
  0
XRECORD
  5
A15
102
{ACAD_REACTORS
330
89D
102
}
330
89D
100
AcDbXrecord
280
     1
290
     1
  0
XRECORD
  5
A16
102
{ACAD_REACTORS
330
89F
102
}
330
89F
100
AcDbXrecord
280
     1
290
     1
  0
SORTENTSTABLE
  5
1C6F
102
{ACAD_REACTORS
330
81
102
}
330
81
100
AcDbSortentsTable
330
1F
331
26D3
  5
26D3
331
270A
  5
270A
331
2716
  5
2716
331
26AB
  5
26AB
331
26B7
  5
26B7
331
2697
  5
2697
331
2709
  5
2709
331
26D2
  5
26D2
331
2715
  5
2715
331
26AA
  5
26AA
331
26B6
  5
26B6
331
2696
  5
2696
331
2708
  5
2708
331
2714
  5
2714
331
26DD
  5
26DD
331
26E0
  5
26E0
331
26A9
  5
26A9
331
26B5
  5
26B5
331
2695
  5
2695
331
2707
  5
2707
331
2713
  5
2713
331
26DC
  5
26DC
331
26A8
  5
26A8
331
26B4
  5
26B4
331
2694
  5
2694
331
26CF
  5
26CF
331
2712
  5
2712
331
26DB
  5
26DB
331
26A7
  5
26A7
331
26B3
  5
26B3
331
26BF
  5
26BF
331
2693
  5
2693
331
26C2
  5
26C2
331
26CE
  5
26CE
331
269F
  5
269F
331
2711
  5
2711
331
26DA
  5
26DA
331
26A6
  5
26A6
331
26B2
  5
26B2
331
26BE
  5
26BE
331
26C1
  5
26C1
331
269E
  5
269E
331
26CD
  5
26CD
331
2710
  5
2710
331
26A5
  5
26A5
331
26B1
  5
26B1
331
26BD
  5
26BD
331
26C0
  5
26C0
331
26CC
  5
26CC
331
269D
  5
269D
331
270F
  5
270F
331
26A4
  5
26A4
331
26B0
  5
26B0
331
26BC
  5
26BC
331
26CB
  5
26CB
331
269C
  5
269C
331
270E
  5
270E
331
26A3
  5
26A3
331
26AF
  5
26AF
331
26BB
  5
26BB
331
26CA
  5
26CA
331
269B
  5
269B
331
270D
  5
270D
331
26D6
  5
26D6
331
26A2
  5
26A2
331
26AE
  5
26AE
331
26BA
  5
26BA
331
269A
  5
269A
331
26C9
  5
26C9
331
270C
  5
270C
331
26D5
  5
26D5
331
26A1
  5
26A1
331
26AD
  5
26AD
331
26B9
  5
26B9
331
26C8
  5
26C8
331
2699
  5
2699
331
270B
  5
270B
331
26D4
  5
26D4
331
2717
  5
2717
331
26A0
  5
26A0
331
26E3
  5
26E3
331
26AC
  5
26AC
331
26B8
  5
26B8
331
2698
  5
2698
  0
XRECORD
  5
2B46
102
{ACAD_REACTORS
330
2B45
102
}
330
2B45
100
AcDbXrecord
280
     1
 40
30543.0
  1
\fArial|b0|i0|c0|p32;©
  0
XRECORD
  5
2B4A
102
{ACAD_REACTORS
330
2B49
102
}
330
2B49
100
AcDbXrecord
280
     1
 40
30543.0
  1
\fArial|b0|i0|c0|p32;©
  0
DIMASSOC
  5
26C4
102
{ACAD_REACTORS
330
26C3
102
}
330
26C3
100
AcDbDimAssoc
330
26C2
 90
        3
 70
     0
 71
     0
  1
AcDbOsnapPointRef
 72
    13
331
269E
 73
     0
 91
        0
 40
0.0
 10
0.0
 20
0.0
 30
2.000000000000000E+50
 75
     0
  1
AcDbOsnapPointRef
 72
    13
331
26BE
 73
     0
 91
        0
 40
0.0
 10
0.0
 20
0.0
 30
2.000000000000000E+50
 75
     0
  0
DIMASSOC
  5
26D1
102
{ACAD_REACTORS
330
26D0
102
}
330
26D0
100
AcDbDimAssoc
330
26CF
 90
        3
 70
     0
 71
     0
  1
AcDbOsnapPointRef
 72
    13
331
269E
 73
     0
 91
        0
 40
0.0
 10
0.0
 20
0.0
 30
2.000000000000000E+50
 75
     0
  1
AcDbOsnapPointRef
 72
    13
331
26CE
 73
     0
 91
        0
 40
0.0
 10
0.0
 20
0.0
 30
2.000000000000000E+50
 75
     0
  0
DIMASSOC
  5
26DF
102
{ACAD_REACTORS
330
26DE
102
}
330
26DE
100
AcDbDimAssoc
330
26DD
 90
        3
 70
     0
 71
     0
  1
AcDbOsnapPointRef
 72
     6
331
26BA
 73
     0
 91
        0
 40
0.5875279594941385
 10
0.0
 20
0.0
 30
0.0
332
26D3
 74
     0
 92
        0
 75
     0
  1
AcDbOsnapPointRef
 72
     1
331
26D6
 73
     0
 91
        0
 40
0.0
 10
0.0
 20
0.0
 30
2.000000000000000E+50
 75
     0
  0
DIMASSOC
  5
26E2
102
{ACAD_REACTORS
330
26E1
102
}
330
26E1
100
AcDbDimAssoc
330
26E0
 90
        3
 70
     0
 71
     0
  1
AcDbOsnapPointRef
 72
    13
331
26A3
 73
     0
 91
        0
 40
0.0
 10
0.0
 20
0.0
 30
2.000000000000000E+50
 75
     0
  1
AcDbOsnapPointRef
 72
    13
331
26B8
 73
     0
 91
        0
 40
0.0
 10
0.0
 20
0.0
 30
2.000000000000000E+50
 75
     0
  0
XRECORD
  5
2B3A
102
{ACAD_REACTORS
330
2B39
102
}
330
2B39
100
AcDbXrecord
280
     1
 40
1.570796326794896
  0
IMAGEDEF
  5
93C
102
{ACAD_REACTORS
330
93B
330
937
102
}
330
93B
100
AcDbRasterImageDef
 90
        0
  1
L:\calink52\templates\ACO-Logo.jpg
 10
75.0
 20
57.0
 11
0.3527777777777778
 21
0.3527777777777778
280
     1
281
     5
  0
LAYOUT
  5
1E
102
{ACAD_XDICTIONARY
360
2B3B
102
}
102
{ACAD_REACTORS
330
1A
102
}
330
1A
100
AcDbPlotSettings
  1

  2
C:\Programme\Acadm 2000i\plotters\PH36.pc3
  4

  6

 40
0.0
 41
0.0
 42
0.0
 43
0.0
 44
0.0
 45
0.0
 46
0.0
 47
0.0
 48
0.0
 49
0.0
140
0.0
141
0.0
142
1.0
143
1.0
 70
   688
 72
     0
 73
     0
 74
     5
  7
monochrome.ctb
 75
    16
147
1.0
148
0.0
149
0.0
100
AcDbLayout
  1
Layout1
 70
     1
 71
     1
 10
0.0
 20
0.0
 11
420.0
 21
297.0
 12
0.0
 22
0.0
 32
0.0
 14
1.000000000000000E+20
 24
1.000000000000000E+20
 34
1.000000000000000E+20
 15
-1.000000000000000E+20
 25
-1.000000000000000E+20
 35
-1.000000000000000E+20
146
0.0
 13
0.0
 23
0.0
 33
0.0
 16
1.0
 26
0.0
 36
0.0
 17
0.0
 27
1.0
 37
0.0
 76
     0
330
1B
  0
LAYOUT
  5
26
102
{ACAD_XDICTIONARY
360
2B3F
102
}
102
{ACAD_REACTORS
330
1A
102
}
330
1A
100
AcDbPlotSettings
  1

  2
C:\Programme\Acadm 2000i\plotters\PH36.pc3
  4

  6

 40
0.0
 41
0.0
 42
0.0
 43
0.0
 44
0.0
 45
0.0
 46
0.0
 47
0.0
 48
0.0
 49
0.0
140
0.0
141
0.0
142
1.0
143
1.0
 70
   688
 72
     0
 73
     0
 74
     5
  7
monochrome.ctb
 75
    16
147
1.0
148
0.0
149
0.0
100
AcDbLayout
  1
Layout2
 70
     1
 71
     2
 10
0.0
 20
0.0
 11
12.0
 21
9.0
 12
0.0
 22
0.0
 32
0.0
 14
0.0
 24
0.0
 34
0.0
 15
0.0
 25
0.0
 35
0.0
146
0.0
 13
0.0
 23
0.0
 33
0.0
 16
1.0
 26
0.0
 36
0.0
 17
0.0
 27
1.0
 37
0.0
 76
     0
330
23
  0
LAYOUT
  5
22
102
{ACAD_XDICTIONARY
360
2B3D
102
}
102
{ACAD_REACTORS
330
1A
102
}
330
1A
100
AcDbPlotSettings
  1

  2
\\rd-sr-230\ST-PR-055
  4
A4
  6

 40
6.805083274841308
 41
5.619739055633544
 42
7.016738891601562
 43
7.14373779296875
 44
209.9733276367187
 45
296.9683227539062
 46
0.0
 47
0.0
 48
0.0000000000000515
 49
0.0
140
1187.999999999999
141
840.0
142
1.0
143
4.282404042661251
 70
 11952
 72
     1
 73
     1
 74
     4
  7
monochrome.ctb
 75
     0
147
0.2335136969884237
148
-0.0000000000000515
149
0.0
100
AcDbLayout
  1
Model
 70
     1
 71
     0
 10
0.0
 20
0.0
 11
12.0
 21
9.0
 12
0.0
 22
0.0
 32
0.0
 14
0.0
 24
0.0
 34
0.0
 15
0.0
 25
0.0
 35
0.0
146
0.0
 13
0.0
 23
0.0
 33
0.0
 16
1.0
 26
0.0
 36
0.0
 17
0.0
 27
1.0
 37
0.0
 76
     0
330
1F
331
7AE
1001
ACAD_PSEXT
1000
\\rd-sr-230\ST-PR-055
1000
Xerox Document Centre 440
1000
ST
1000

1070
     0
  0
MATERIAL
  5
7B8
102
{ACAD_XDICTIONARY
360
7B9
102
}
102
{ACAD_REACTORS
330
9A
102
}
330
9A
100
AcDbMaterial
  1
ByBlock
 72
     0
 43
0.0008202099737533
 43
0.0
 43
0.0
 43
0.0
 43
0.0
 43
0.0008202099737533
 43
0.0
 43
0.0
 43
0.0
 43
0.0
 43
1.0
 43
0.0
 43
0.0
 43
0.0
 43
0.0
 43
1.0
 77
     0
 47
0.0008202099737533
 47
0.0
 47
0.0
 47
0.0
 47
0.0
 47
0.0008202099737533
 47
0.0
 47
0.0
 47
0.0
 47
0.0
 47
1.0
 47
0.0
 47
0.0
 47
0.0
 47
0.0
 47
1.0
171
     0
 49
0.0008202099737533
 49
0.0
 49
0.0
 49
0.0
 49
0.0
 49
0.0008202099737533
 49
0.0
 49
0.0
 49
0.0
 49
0.0
 49
1.0
 49
0.0
 49
0.0
 49
0.0
 49
0.0
 49
1.0
175
     0
142
0.0008202099737533
142
0.0
142
0.0
142
0.0
142
0.0
142
0.0008202099737533
142
0.0
142
0.0
142
0.0
142
0.0
142
1.0
142
0.0
142
0.0
142
0.0
142
0.0
142
1.0
179
     0
144
0.0008202099737533
144
0.0
144
0.0
144
0.0
144
0.0
144
0.0008202099737533
144
0.0
144
0.0
144
0.0
144
0.0
144
1.0
144
0.0
144
0.0
144
0.0
144
0.0
144
1.0
147
0.0008202099737533
147
0.0
147
0.0
147
0.0
147
0.0
147
0.0008202099737533
147
0.0
147
0.0
147
0.0
147
0.0
147
1.0
147
0.0
147
0.0
147
0.0
147
0.0
147
1.0
  0
MATERIAL
  5
7B0
102
{ACAD_XDICTIONARY
360
7B1
102
}
102
{ACAD_REACTORS
330
9A
102
}
330
9A
100
AcDbMaterial
  1
ByLayer
 72
     0
 43
0.0008202099737533
 43
0.0
 43
0.0
 43
0.0
 43
0.0
 43
0.0008202099737533
 43
0.0
 43
0.0
 43
0.0
 43
0.0
 43
1.0
 43
0.0
 43
0.0
 43
0.0
 43
0.0
 43
1.0
 77
     0
 47
0.0008202099737533
 47
0.0
 47
0.0
 47
0.0
 47
0.0
 47
0.0008202099737533
 47
0.0
 47
0.0
 47
0.0
 47
0.0
 47
1.0
 47
0.0
 47
0.0
 47
0.0
 47
0.0
 47
1.0
171
     0
 49
0.0008202099737533
 49
0.0
 49
0.0
 49
0.0
 49
0.0
 49
0.0008202099737533
 49
0.0
 49
0.0
 49
0.0
 49
0.0
 49
1.0
 49
0.0
 49
0.0
 49
0.0
 49
0.0
 49
1.0
175
     0
142
0.0008202099737533
142
0.0
142
0.0
142
0.0
142
0.0
142
0.0008202099737533
142
0.0
142
0.0
142
0.0
142
0.0
142
1.0
142
0.0
142
0.0
142
0.0
142
0.0
142
1.0
179
     0
144
0.0008202099737533
144
0.0
144
0.0
144
0.0
144
0.0
144
0.0008202099737533
144
0.0
144
0.0
144
0.0
144
0.0
144
1.0
144
0.0
144
0.0
144
0.0
144
0.0
144
1.0
147
0.0008202099737533
147
0.0
147
0.0
147
0.0
147
0.0
147
0.0008202099737533
147
0.0
147
0.0
147
0.0
147
0.0
147
1.0
147
0.0
147
0.0
147
0.0
147
0.0
147
1.0
  0
MATERIAL
  5
7C0
102
{ACAD_XDICTIONARY
360
7C1
102
}
102
{ACAD_REACTORS
330
9A
102
}
330
9A
100
AcDbMaterial
  1
Global
 72
     0
 43
0.0008202099737533
 43
0.0
 43
0.0
 43
0.0
 43
0.0
 43
0.0008202099737533
 43
0.0
 43
0.0
 43
0.0
 43
0.0
 43
1.0
 43
0.0
 43
0.0
 43
0.0
 43
0.0
 43
1.0
 77
     0
 47
0.0008202099737533
 47
0.0
 47
0.0
 47
0.0
 47
0.0
 47
0.0008202099737533
 47
0.0
 47
0.0
 47
0.0
 47
0.0
 47
1.0
 47
0.0
 47
0.0
 47
0.0
 47
0.0
 47
1.0
171
     0
 49
0.0008202099737533
 49
0.0
 49
0.0
 49
0.0
 49
0.0
 49
0.0008202099737533
 49
0.0
 49
0.0
 49
0.0
 49
0.0
 49
1.0
 49
0.0
 49
0.0
 49
0.0
 49
0.0
 49
1.0
175
     0
142
0.0008202099737533
142
0.0
142
0.0
142
0.0
142
0.0
142
0.0008202099737533
142
0.0
142
0.0
142
0.0
142
0.0
142
1.0
142
0.0
142
0.0
142
0.0
142
0.0
142
1.0
179
     0
144
0.0008202099737533
144
0.0
144
0.0
144
0.0
144
0.0
144
0.0008202099737533
144
0.0
144
0.0
144
0.0
144
0.0
144
1.0
144
0.0
144
0.0
144
0.0
144
0.0
144
1.0
147
0.0008202099737533
147
0.0
147
0.0
147
0.0
147
0.0
147
0.0008202099737533
147
0.0
147
0.0
147
0.0
147
0.0
147
1.0
147
0.0
147
0.0
147
0.0
147
0.0
147
1.0
  0
MLEADERSTYLE
  5
7EC
102
{ACAD_REACTORS
330
7EB
102
}
330
7EB
100
AcDbMLeaderStyle
170
     2
171
     1
172
     0
 90
        2
 40
0.0
 41
0.0
173
     1
 91
-1056964608
340
14
 92
       -2
290
     1
 42
2.0
291
     1
 43
0.36
  3
Standard
 44
4.0
300

342
11
174
     1
178
     6
175
     1
176
     0
 93
-1056964608
 45
4.0
292
     0
297
     0
 46
4.0
 94
-1056964608
 47
1.0
 49
1.0
140
1.0
293
     1
141
0.0
294
     1
177
     0
142
1.0
295
     0
296
     0
143
0.125
1001
ACAD_MLEADERVER
1070
     2
  0
MLINESTYLE
  5
18
102
{ACAD_REACTORS
330
17
102
}
330
17
100
AcDbMlineStyle
  2
STANDARD
 70
     0
  3

 62
   256
 51
90.0
 52
90.0
 71
     2
 49
0.5
 62
   256
  6
BYLAYER
 49
-0.5
 62
   256
  6
BYLAYER
  0
ACDBPLACEHOLDER
  5
F
102
{ACAD_REACTORS
330
E
102
}
330
E
  0
SCALE
  5
7DA
102
{ACAD_REACTORS
330
7D9
102
}
330
7D9
100
AcDbScale
 70
     0
300
1:1
140
1.0
141
1.0
290
     1
  0
SCALE
  5
7DB
102
{ACAD_REACTORS
330
7D9
102
}
330
7D9
100
AcDbScale
 70
     0
300
1:2
140
1.0
141
2.0
290
     0
  0
SCALE
  5
7DC
102
{ACAD_REACTORS
330
7D9
102
}
330
7D9
100
AcDbScale
 70
     0
300
1:4
140
1.0
141
4.0
290
     0
  0
SCALE
  5
7DD
102
{ACAD_REACTORS
330
7D9
102
}
330
7D9
100
AcDbScale
 70
     0
300
1:5
140
1.0
141
5.0
290
     0
  0
SCALE
  5
7DE
102
{ACAD_REACTORS
330
7D9
102
}
330
7D9
100
AcDbScale
 70
     0
300
1:8
140
1.0
141
8.0
290
     0
  0
SCALE
  5
7DF
102
{ACAD_REACTORS
330
7D9
102
}
330
7D9
100
AcDbScale
 70
     0
300
1:10
140
1.0
141
10.0
290
     0
  0
SCALE
  5
7E0
102
{ACAD_REACTORS
330
7D9
102
}
330
7D9
100
AcDbScale
 70
     0
300
1:16
140
1.0
141
16.0
290
     0
  0
SCALE
  5
7E1
102
{ACAD_REACTORS
330
7D9
102
}
330
7D9
100
AcDbScale
 70
     0
300
1:20
140
1.0
141
20.0
290
     0
  0
SCALE
  5
7E2
102
{ACAD_REACTORS
330
7D9
102
}
330
7D9
100
AcDbScale
 70
     0
300
1:30
140
1.0
141
30.0
290
     0
  0
SCALE
  5
7E3
102
{ACAD_REACTORS
330
7D9
102
}
330
7D9
100
AcDbScale
 70
     0
300
1:40
140
1.0
141
40.0
290
     0
  0
SCALE
  5
7E4
102
{ACAD_REACTORS
330
7D9
102
}
330
7D9
100
AcDbScale
 70
     0
300
1:50
140
1.0
141
50.0
290
     0
  0
SCALE
  5
7E5
102
{ACAD_REACTORS
330
7D9
102
}
330
7D9
100
AcDbScale
 70
     0
300
1:100
140
1.0
141
100.0
290
     0
  0
SCALE
  5
7E6
102
{ACAD_REACTORS
330
7D9
102
}
330
7D9
100
AcDbScale
 70
     0
300
2:1
140
2.0
141
1.0
290
     0
  0
SCALE
  5
7E7
102
{ACAD_REACTORS
330
7D9
102
}
330
7D9
100
AcDbScale
 70
     0
300
4:1
140
4.0
141
1.0
290
     0
  0
SCALE
  5
7E8
102
{ACAD_REACTORS
330
7D9
102
}
330
7D9
100
AcDbScale
 70
     0
300
8:1
140
8.0
141
1.0
290
     0
  0
SCALE
  5
7E9
102
{ACAD_REACTORS
330
7D9
102
}
330
7D9
100
AcDbScale
 70
     0
300
10:1
140
10.0
141
1.0
290
     0
  0
SCALE
  5
7EA
102
{ACAD_REACTORS
330
7D9
102
}
330
7D9
100
AcDbScale
 70
     0
300
100:1
140
100.0
141
1.0
290
     0
  0
TABLESTYLE
  5
9D
102
{ACAD_XDICTIONARY
360
A2A
102
}
102
{ACAD_REACTORS
330
9C
102
}
330
9C
100
AcDbTableStyle
  3
Standard
 70
     0
 71
     0
 40
1.5
 41
1.5
280
     0
281
     0
  7
STANDARD
140
4.5
170
     2
 62
     0
 63
     7
283
     0
274
    -2
284
     1
 64
     0
275
    -2
285
     1
 65
     0
276
    -2
286
     1
 66
     0
277
    -2
287
     1
 67
     0
278
    -2
288
     1
 68
     0
279
    -2
289
     1
 69
     0
  7
STANDARD
140
6.0
170
     5
 62
     0
 63
     7
283
     0
274
    -2
284
     1
 64
     0
275
    -2
285
     1
 65
     0
276
    -2
286
     1
 66
     0
277
    -2
287
     1
 67
     0
278
    -2
288
     1
 68
     0
279
    -2
289
     1
 69
     0
  7
STANDARD
140
4.5
170
     5
 62
     0
 63
     7
283
     0
274
    -2
284
     1
 64
     0
275
    -2
285
     1
 65
     0
276
    -2
286
     1
 66
     0
277
    -2
287
     1
 67
     0
278
    -2
288
     1
 68
     0
279
    -2
289
     1
 69
     0
  0
VISUALSTYLE
  5
7CE
102
{ACAD_REACTORS
330
7C8
102
}
330
7C8
100
AcDbVisualStyle
  2
2dWireframe
 70
     4
 71
     0
 72
     2
 73
     0
 90
        0
 40
-0.6
 41
-30.0
 62
     5
 63
     7
 74
     1
 91
        4
 64
     7
 65
   257
 75
     1
175
     1
 42
1.0
 92
        0
 66
   257
 43
1.0
 76
     1
 77
     6
 78
     2
 67
     7
 79
     5
170
     0
171
     0
290
     0
174
     0
 93
        1
 44
0.0
173
     0
291
     0
 45
0.0
1001
ACAD
1000
AcDbSavedByObjectVersion
1070
     0
  0
VISUALSTYLE
  5
7D0
102
{ACAD_REACTORS
330
7C8
102
}
330
7C8
100
AcDbVisualStyle
  2
3D Hidden
 70
     6
 71
     1
 72
     2
 73
     2
 90
        0
 40
-0.6
 41
-30.0
 62
     5
 63
     7
 74
     2
 91
        2
 64
     7
 65
   257
 75
     2
175
     1
 42
40.0
 92
        0
 66
   257
 43
1.0
 76
     1
 77
     6
 78
     2
 67
     7
 79
     3
170
     0
171
     0
290
     0
174
     0
 93
        1
 44
0.0
173
     0
291
     0
 45
0.0
1001
ACAD
1000
AcDbSavedByObjectVersion
1070
     0
  0
VISUALSTYLE
  5
7CF
102
{ACAD_REACTORS
330
7C8
102
}
330
7C8
100
AcDbVisualStyle
  2
3dWireframe
 70
     5
 71
     0
 72
     2
 73
     0
 90
        0
 40
-0.6
 41
-30.0
 62
     5
 63
     7
 74
     1
 91
        4
 64
     7
 65
   257
 75
     1
175
     1
 42
1.0
 92
        0
 66
   257
 43
1.0
 76
     1
 77
     6
 78
     2
 67
     7
 79
     5
170
     0
171
     0
290
     0
174
     0
 93
        1
 44
0.0
173
     0
291
     0
 45
0.0
1001
ACAD
1000
AcDbSavedByObjectVersion
1070
     0
  0
VISUALSTYLE
  5
7CD
102
{ACAD_REACTORS
330
7C8
102
}
330
7C8
100
AcDbVisualStyle
  2
Basic
 70
     7
 71
     1
 72
     0
 73
     1
 90
        0
 40
-0.6
 41
-30.0
 62
     5
 63
     7
 74
     0
 91
        4
 64
     7
 65
   257
 75
     1
175
     1
 42
1.0
 92
        8
 66
     7
 43
1.0
 76
     1
 77
     6
 78
     2
 67
     7
 79
     5
170
     0
171
     0
290
     0
174
     0
 93
        1
 44
0.0
173
     0
291
     1
 45
0.0
1001
ACAD
1000
AcDbSavedByObjectVersion
1070
     0
  0
VISUALSTYLE
  5
7D4
102
{ACAD_REACTORS
330
7C8
102
}
330
7C8
100
AcDbVisualStyle
  2
Brighten
 70
    12
 71
     2
 72
     2
 73
     0
 90
        0
 40
-0.6
 41
-30.0
 62
     5
 63
     7
 74
     1
 91
        4
 64
     7
 65
   257
 75
     1
175
     1
 42
1.0
 92
        8
 66
     7
 43
1.0
 76
     1
 77
     6
 78
     2
 67
     7
 79
     5
170
     0
171
     0
290
     0
174
     0
 93
        1
 44
50.0
173
     0
291
     1
 45
0.0
1001
ACAD
1000
AcDbSavedByObjectVersion
1070
     0
  0
VISUALSTYLE
  5
7D8
102
{ACAD_REACTORS
330
7C8
102
}
330
7C8
100
AcDbVisualStyle
  2
ColorChange
 70
    16
 71
     2
 72
     2
 73
     3
 90
        0
 40
-0.6
 41
-30.0
 62
     5
 63
     8
 74
     1
 91
        4
 64
     7
 65
   257
 75
     1
175
     1
 42
1.0
 92
        8
 66
     8
 43
1.0
 76
     1
 77
     6
 78
     2
 67
     7
 79
     5
170
     0
171
     0
290
     0
174
     0
 93
        1
 44
0.0
173
     0
291
     1
 45
0.0
1001
ACAD
1000
AcDbSavedByObjectVersion
1070
     0
  0
VISUALSTYLE
  5
7D1
102
{ACAD_REACTORS
330
7C8
102
}
330
7C8
100
AcDbVisualStyle
  2
Conceptual
 70
     9
 71
     3
 72
     2
 73
     0
 90
        0
 40
-0.6
 41
-30.0
 62
     5
 63
     7
 74
     2
 91
        2
 64
     7
 65
   257
 75
     1
175
     1
 42
40.0
 92
        8
 66
     7
 43
1.0
 76
     1
 77
     6
 78
     2
 67
     7
 79
     3
170
     0
171
     0
290
     0
174
     0
 93
        1
 44
0.0
173
     0
291
     0
 45
0.0
1001
ACAD
1000
AcDbSavedByObjectVersion
1070
     0
  0
VISUALSTYLE
  5
7D3
102
{ACAD_REACTORS
330
7C8
102
}
330
7C8
100
AcDbVisualStyle
  2
Dim
 70
    11
 71
     2
 72
     2
 73
     0
 90
        0
 40
-0.6
 41
-30.0
 62
     5
 63
     7
 74
     1
 91
        4
 64
     7
 65
   257
 75
     1
175
     1
 42
1.0
 92
        8
 66
     7
 43
1.0
 76
     1
 77
     6
 78
     2
 67
     7
 79
     5
170
     0
171
     0
290
     0
174
     0
 93
        1
 44
-50.0
173
     0
291
     1
 45
0.0
1001
ACAD
1000
AcDbSavedByObjectVersion
1070
     0
  0
VISUALSTYLE
  5
7D7
102
{ACAD_REACTORS
330
7C8
102
}
330
7C8
100
AcDbVisualStyle
  2
Facepattern
 70
    15
 71
     2
 72
     2
 73
     0
 90
        0
 40
-0.6
 41
-30.0
 62
     5
 63
     7
 74
     1
 91
        4
 64
     7
 65
   257
 75
     1
175
     1
 42
1.0
 92
        8
 66
     7
 43
1.0
 76
     1
 77
     6
 78
     2
 67
     7
 79
     5
170
     0
171
     0
290
     0
174
     0
 93
        1
 44
0.0
173
     0
291
     1
 45
0.0
1001
ACAD
1000
AcDbSavedByObjectVersion
1070
     0
  0
VISUALSTYLE
  5
7C9
102
{ACAD_REACTORS
330
7C8
102
}
330
7C8
100
AcDbVisualStyle
  2
Flat
 70
     0
 71
     2
 72
     1
 73
     1
 90
        2
 40
-0.6
 41
30.0
 62
     5
 63
     7
 74
     0
 91
        4
 64
     7
 65
   257
 75
     1
175
     1
 42
1.0
 92
        8
 66
     7
 43
1.0
 76
     1
 77
     6
 78
     2
 67
     7
 79
     5
170
     0
171
     0
290
     0
174
     0
 93
       13
 44
0.0
173
     0
291
     1
 45
0.0
1001
ACAD
1000
AcDbSavedByObjectVersion
1070
     0
  0
VISUALSTYLE
  5
7CA
102
{ACAD_REACTORS
330
7C8
102
}
330
7C8
100
AcDbVisualStyle
  2
FlatWithEdges
 70
     1
 71
     2
 72
     1
 73
     1
 90
        2
 40
-0.6
 41
30.0
 62
     5
 63
     7
 74
     1
 91
        4
 64
     7
 65
   257
 75
     1
175
     1
 42
1.0
 92
        0
 66
   257
 43
1.0
 76
     1
 77
     6
 78
     2
 67
     7
 79
     5
170
     0
171
     0
290
     0
174
     0
 93
       13
 44
0.0
173
     0
291
     1
 45
0.0
1001
ACAD
1000
AcDbSavedByObjectVersion
1070
     0
  0
VISUALSTYLE
  5
7CB
102
{ACAD_REACTORS
330
7C8
102
}
330
7C8
100
AcDbVisualStyle
  2
Gouraud
 70
     2
 71
     2
 72
     2
 73
     1
 90
        2
 40
-0.6
 41
30.0
 62
     5
 63
     7
 74
     0
 91
        4
 64
     7
 65
   257
 75
     1
175
     1
 42
1.0
 92
        0
 66
     7
 43
1.0
 76
     1
 77
     6
 78
     2
 67
     7
 79
     5
170
     0
171
     0
290
     0
174
     0
 93
       13
 44
0.0
173
     0
291
     1
 45
0.0
1001
ACAD
1000
AcDbSavedByObjectVersion
1070
     0
  0
VISUALSTYLE
  5
7CC
102
{ACAD_REACTORS
330
7C8
102
}
330
7C8
100
AcDbVisualStyle
  2
GouraudWithEdges
 70
     3
 71
     2
 72
     2
 73
     1
 90
        2
 40
-0.6
 41
30.0
 62
     5
 63
     7
 74
     1
 91
        4
 64
     7
 65
   257
 75
     1
175
     1
 42
1.0
 92
        0
 66
   257
 43
1.0
 76
     1
 77
     6
 78
     2
 67
     7
 79
     5
170
     0
171
     0
290
     0
174
     0
 93
       13
 44
0.0
173
     0
291
     1
 45
0.0
1001
ACAD
1000
AcDbSavedByObjectVersion
1070
     0
  0
VISUALSTYLE
  5
7D6
102
{ACAD_REACTORS
330
7C8
102
}
330
7C8
100
AcDbVisualStyle
  2
Linepattern
 70
    14
 71
     2
 72
     2
 73
     0
 90
        0
 40
-0.6
 41
-30.0
 62
     5
 63
     7
 74
     1
 91
        4
 64
     7
 65
   257
 75
     7
175
     7
 42
1.0
 92
        8
 66
     7
 43
1.0
 76
     1
 77
     6
 78
     2
 67
     7
 79
     5
170
     0
171
     0
290
     0
174
     0
 93
        1
 44
0.0
173
     0
291
     1
 45
0.0
1001
ACAD
1000
AcDbSavedByObjectVersion
1070
     0
  0
VISUALSTYLE
  5
7D2
102
{ACAD_REACTORS
330
7C8
102
}
330
7C8
100
AcDbVisualStyle
  2
Realistic
 70
     8
 71
     2
 72
     2
 73
     0
 90
        0
 40
-0.6
 41
-30.0
 62
     5
 63
     7
 74
     1
 91
        0
 64
     7
 65
   257
 75
     1
175
     1
 42
1.0
 92
        8
 66
     8
 43
1.0
 76
     1
 77
     6
 78
     2
 67
     7
 79
     5
170
     0
171
     0
290
     0
174
     0
 93
       13
 44
0.0
173
     0
291
     0
 45
0.0
1001
ACAD
1000
AcDbSavedByObjectVersion
1070
     0
  0
VISUALSTYLE
  5
7D5
102
{ACAD_REACTORS
330
7C8
102
}
330
7C8
100
AcDbVisualStyle
  2
Thicken
 70
    13
 71
     2
 72
     2
 73
     0
 90
        0
 40
-0.6
 41
-30.0
 62
     5
 63
     7
 74
     1
 91
        4
 64
     7
 65
   257
 75
     1
175
     1
 42
1.0
 92
       12
 66
     7
 43
1.0
 76
     1
 77
     6
 78
     2
 67
     7
 79
     5
170
     0
171
     0
290
     0
174
     0
 93
        1
 44
0.0
173
     0
291
     1
 45
0.0
1001
ACAD
1000
AcDbSavedByObjectVersion
1070
     0
  0
DICTIONARYVAR
  5
A2F
102
{ACAD_REACTORS
330
34
102
}
330
34
100
DictionaryVariables
280
     0
  1
1:2
  0
DICTIONARYVAR
  5
A2D
102
{ACAD_REACTORS
330
34
102
}
330
34
100
DictionaryVariables
280
     0
  1
STANDARD
  0
DICTIONARYVAR
  5
10F
102
{ACAD_REACTORS
330
34
102
}
330
34
100
DictionaryVariables
280
     0
  1
STANDARD
  0
DICTIONARYVAR
  5
2B36
102
{ACAD_REACTORS
330
34
102
}
330
34
100
DictionaryVariables
280
     0
  1
1
  0
DICTIONARYVAR
  5
35
102
{ACAD_REACTORS
330
34
102
}
330
34
100
DictionaryVariables
280
     0
  1
0
  0
DICTIONARYVAR
  5
A31
102
{ACAD_REACTORS
330
34
102
}
330
34
100
DictionaryVariables
280
     0
  1
1
  0
DICTIONARYVAR
  5
A32
102
{ACAD_REACTORS
330
34
102
}
330
34
100
DictionaryVariables
280
     0
  1
15
  0
DICTIONARYVAR
  5
A30
102
{ACAD_REACTORS
330
34
102
}
330
34
100
DictionaryVariables
280
     0
  1
0
  0
DICTIONARYVAR
  5
A2E
102
{ACAD_REACTORS
330
34
102
}
330
34
100
DictionaryVariables
280
     0
  1
0
  0
DICTIONARYVAR
  5
2B35
102
{ACAD_REACTORS
330
34
102
}
330
34
100
DictionaryVariables
280
     0
  1
127
  0
DICTIONARY
  5
4C
102
{ACAD_REACTORS
330
47
102
}
330
47
100
AcDbDictionary
281
     1
  0
XRECORD
  5
F5
102
{ACAD_REACTORS
330
47
102
}
330
47
100
AcDbXrecord
280
     1
 90
-1023410169
  0
DICTIONARY
  5
2B3B
330
1E
100
AcDbDictionary
280
     1
281
     1
  3
ACAD_XREC_ROUNDTRIP
360
2B3C
  0
DICTIONARY
  5
2B3F
330
26
100
AcDbDictionary
280
     1
281
     1
  3
ACAD_XREC_ROUNDTRIP
360
2B40
  0
DICTIONARY
  5
2B3D
330
22
100
AcDbDictionary
280
     1
281
     1
  3
ACAD_XREC_ROUNDTRIP
360
2B3E
  0
DICTIONARY
  5
7B9
330
7B8
100
AcDbDictionary
280
     1
281
     1
  3
ACAD_XREC_ROUNDTRIP
360
2B43
  3
BUMPTILE
360
7BB
  3
DIFFUSETILE
360
7BA
  3
OPACITYTILE
360
7BE
  3
REFLECTIONTILE
360
7BD
  3
REFRACTIONTILE
360
7BF
  3
SPECULARTILE
360
7BC
  0
DICTIONARY
  5
7B1
330
7B0
100
AcDbDictionary
280
     1
281
     1
  3
ACAD_XREC_ROUNDTRIP
360
2B42
  3
BUMPTILE
360
7B3
  3
DIFFUSETILE
360
7B2
  3
OPACITYTILE
360
7B6
  3
REFLECTIONTILE
360
7B5
  3
REFRACTIONTILE
360
7B7
  3
SPECULARTILE
360
7B4
  0
DICTIONARY
  5
7C1
330
7C0
100
AcDbDictionary
280
     1
281
     1
  3
ACAD_XREC_ROUNDTRIP
360
2B44
  3
BUMPTILE
360
7C3
  3
DIFFUSETILE
360
7C2
  3
OPACITYTILE
360
7C6
  3
REFLECTIONTILE
360
7C5
  3
REFRACTIONTILE
360
7C7
  3
SPECULARTILE
360
7C4
  0
DICTIONARY
  5
A2A
330
9D
100
AcDbDictionary
280
     1
281
     1
  3
ACAD_ROUNDTRIP_2008_TABLESTYLE_CELLSTYLEMAP
360
2B37
  3
ACAD_XREC_ROUNDTRIP
360
2B41
  0
XRECORD
  5
2B3C
102
{ACAD_REACTORS
330
2B3B
102
}
330
2B3B
100
AcDbXrecord
280
     1
102
SHADEPLOT
 70
     0
102
SHADEPLOTRESLEVEL
 70
     2
102
SHADEPLOTCUSTOMDPI
 70
   300
  0
XRECORD
  5
2B40
102
{ACAD_REACTORS
330
2B3F
102
}
330
2B3F
100
AcDbXrecord
280
     1
102
SHADEPLOT
 70
     0
102
SHADEPLOTRESLEVEL
 70
     2
102
SHADEPLOTCUSTOMDPI
 70
   300
  0
XRECORD
  5
2B3E
102
{ACAD_REACTORS
330
2B3D
102
}
330
2B3D
100
AcDbXrecord
280
     1
102
SHADEPLOT
 70
     0
102
SHADEPLOTRESLEVEL
 70
     2
102
SHADEPLOTCUSTOMDPI
 70
   300
  0
XRECORD
  5
2B43
102
{ACAD_REACTORS
330
7B9
102
}
330
7B9
100
AcDbXrecord
280
     1
102
MATERIAL
148
0.0
149
0.0
149
0.0
 93
        0
 94
      127
282
     0
 72
     0
 77
     0
171
     0
175
     0
179
     0
273
     0
  0
XRECORD
  5
7BB
102
{ACAD_REACTORS
330
7B9
102
}
330
7B9
100
AcDbXrecord
280
     1
270
     1
271
     1
  0
XRECORD
  5
7BA
102
{ACAD_REACTORS
330
7B9
102
}
330
7B9
100
AcDbXrecord
280
     1
270
     1
271
     1
  0
XRECORD
  5
7BE
102
{ACAD_REACTORS
330
7B9
102
}
330
7B9
100
AcDbXrecord
280
     1
270
     1
271
     1
  0
XRECORD
  5
7BD
102
{ACAD_REACTORS
330
7B9
102
}
330
7B9
100
AcDbXrecord
280
     1
270
     1
271
     1
  0
XRECORD
  5
7BF
102
{ACAD_REACTORS
330
7B9
102
}
330
7B9
100
AcDbXrecord
280
     1
270
     1
271
     1
  0
XRECORD
  5
7BC
102
{ACAD_REACTORS
330
7B9
102
}
330
7B9
100
AcDbXrecord
280
     1
270
     1
271
     1
  0
XRECORD
  5
2B42
102
{ACAD_REACTORS
330
7B1
102
}
330
7B1
100
AcDbXrecord
280
     1
102
MATERIAL
148
0.0
149
0.0
149
0.0
 93
        0
 94
      127
282
     0
 72
     0
 77
     0
171
     0
175
     0
179
     0
273
     0
  0
XRECORD
  5
7B3
102
{ACAD_REACTORS
330
7B1
102
}
330
7B1
100
AcDbXrecord
280
     1
270
     1
271
     1
  0
XRECORD
  5
7B2
102
{ACAD_REACTORS
330
7B1
102
}
330
7B1
100
AcDbXrecord
280
     1
270
     1
271
     1
  0
XRECORD
  5
7B6
102
{ACAD_REACTORS
330
7B1
102
}
330
7B1
100
AcDbXrecord
280
     1
270
     1
271
     1
  0
XRECORD
  5
7B5
102
{ACAD_REACTORS
330
7B1
102
}
330
7B1
100
AcDbXrecord
280
     1
270
     1
271
     1
  0
XRECORD
  5
7B7
102
{ACAD_REACTORS
330
7B1
102
}
330
7B1
100
AcDbXrecord
280
     1
270
     1
271
     1
  0
XRECORD
  5
7B4
102
{ACAD_REACTORS
330
7B1
102
}
330
7B1
100
AcDbXrecord
280
     1
270
     1
271
     1
  0
XRECORD
  5
2B44
102
{ACAD_REACTORS
330
7C1
102
}
330
7C1
100
AcDbXrecord
280
     1
102
MATERIAL
148
0.0
149
0.0
149
0.0
 93
        0
 94
      127
282
     0
 72
     0
 77
     0
171
     0
175
     0
179
     0
273
     0
  0
XRECORD
  5
7C3
102
{ACAD_REACTORS
330
7C1
102
}
330
7C1
100
AcDbXrecord
280
     1
270
     1
271
     1
  0
XRECORD
  5
7C2
102
{ACAD_REACTORS
330
7C1
102
}
330
7C1
100
AcDbXrecord
280
     1
270
     1
271
     1
  0
XRECORD
  5
7C6
102
{ACAD_REACTORS
330
7C1
102
}
330
7C1
100
AcDbXrecord
280
     1
270
     1
271
     1
  0
XRECORD
  5
7C5
102
{ACAD_REACTORS
330
7C1
102
}
330
7C1
100
AcDbXrecord
280
     1
270
     1
271
     1
  0
XRECORD
  5
7C7
102
{ACAD_REACTORS
330
7C1
102
}
330
7C1
100
AcDbXrecord
280
     1
270
     1
271
     1
  0
XRECORD
  5
7C4
102
{ACAD_REACTORS
330
7C1
102
}
330
7C1
100
AcDbXrecord
280
     1
270
     1
271
     1
  0
CELLSTYLEMAP
  5
2B37
102
{ACAD_REACTORS
330
A2A
102
}
330
A2A
100
AcDbCellStyleMap
 90
        3
300
CELLSTYLE
  1
TABLEFORMAT_BEGIN
 90
        5
170
     1
 91
        0
 92
    32768
 62
   257
 93
        1
300
CONTENTFORMAT
  1
CONTENTFORMAT_BEGIN
 90
        0
 91
        0
 92
        4
 93
        0
300

 40
0.0
140
1.0
 94
        5
 62
     0
340
11
144
6.0
309
CONTENTFORMAT_END
171
     1
301
MARGIN
  1
CELLMARGIN_BEGIN
 40
1.5
 40
1.5
 40
1.5
 40
1.5
 40
0.18
 40
0.18
309
CELLMARGIN_END
 94
        6
 95
        1
302
GRIDFORMAT
  1
GRIDFORMAT_BEGIN
 90
        0
 91
        1
 62
     0
 92
       -2
340
0
 93
        0
 40
0.045
309
GRIDFORMAT_END
 95
        2
302
GRIDFORMAT
  1
GRIDFORMAT_BEGIN
 90
        0
 91
        1
 62
     0
 92
       -2
340
0
 93
        0
 40
0.045
309
GRIDFORMAT_END
 95
        4
302
GRIDFORMAT
  1
GRIDFORMAT_BEGIN
 90
        0
 91
        1
 62
     0
 92
       -2
340
0
 93
        0
 40
0.045
309
GRIDFORMAT_END
 95
        8
302
GRIDFORMAT
  1
GRIDFORMAT_BEGIN
 90
        0
 91
        1
 62
     0
 92
       -2
340
0
 93
        0
 40
0.045
309
GRIDFORMAT_END
 95
       16
302
GRIDFORMAT
  1
GRIDFORMAT_BEGIN
 90
        0
 91
        1
 62
     0
 92
       -2
340
0
 93
        0
 40
0.045
309
GRIDFORMAT_END
 95
       32
302
GRIDFORMAT
  1
GRIDFORMAT_BEGIN
 90
        0
 91
        1
 62
     0
 92
       -2
340
0
 93
        0
 40
0.045
309
GRIDFORMAT_END
309
TABLEFORMAT_END
  1
CELLSTYLE_BEGIN
 90
        1
 91
        1
300
_TITLE
309
CELLSTYLE_END
300
CELLSTYLE
  1
TABLEFORMAT_BEGIN
 90
        5
170
     1
 91
        0
 92
        0
 62
   257
 93
        1
300
CONTENTFORMAT
  1
CONTENTFORMAT_BEGIN
 90
        0
 91
        0
 92
        4
 93
        0
300

 40
0.0
140
1.0
 94
        5
 62
     0
340
11
144
4.5
309
CONTENTFORMAT_END
171
     1
301
MARGIN
  1
CELLMARGIN_BEGIN
 40
1.5
 40
1.5
 40
1.5
 40
1.5
 40
0.18
 40
0.18
309
CELLMARGIN_END
 94
        6
 95
        1
302
GRIDFORMAT
  1
GRIDFORMAT_BEGIN
 90
        0
 91
        1
 62
     0
 92
       -2
340
0
 93
        0
 40
0.045
309
GRIDFORMAT_END
 95
        2
302
GRIDFORMAT
  1
GRIDFORMAT_BEGIN
 90
        0
 91
        1
 62
     0
 92
       -2
340
0
 93
        0
 40
0.045
309
GRIDFORMAT_END
 95
        4
302
GRIDFORMAT
  1
GRIDFORMAT_BEGIN
 90
        0
 91
        1
 62
     0
 92
       -2
340
0
 93
        0
 40
0.045
309
GRIDFORMAT_END
 95
        8
302
GRIDFORMAT
  1
GRIDFORMAT_BEGIN
 90
        0
 91
        1
 62
     0
 92
       -2
340
0
 93
        0
 40
0.045
309
GRIDFORMAT_END
 95
       16
302
GRIDFORMAT
  1
GRIDFORMAT_BEGIN
 90
        0
 91
        1
 62
     0
 92
       -2
340
0
 93
        0
 40
0.045
309
GRIDFORMAT_END
 95
       32
302
GRIDFORMAT
  1
GRIDFORMAT_BEGIN
 90
        0
 91
        1
 62
     0
 92
       -2
340
0
 93
        0
 40
0.045
309
GRIDFORMAT_END
309
TABLEFORMAT_END
  1
CELLSTYLE_BEGIN
 90
        2
 91
        1
300
_HEADER
309
CELLSTYLE_END
300
CELLSTYLE
  1
TABLEFORMAT_BEGIN
 90
        5
170
     1
 91
        0
 92
        0
 62
   257
 93
        1
300
CONTENTFORMAT
  1
CONTENTFORMAT_BEGIN
 90
        0
 91
        0
 92
        4
 93
        0
300

 40
0.0
140
1.0
 94
        2
 62
     0
340
11
144
4.5
309
CONTENTFORMAT_END
171
     1
301
MARGIN
  1
CELLMARGIN_BEGIN
 40
1.5
 40
1.5
 40
1.5
 40
1.5
 40
0.18
 40
0.18
309
CELLMARGIN_END
 94
        6
 95
        1
302
GRIDFORMAT
  1
GRIDFORMAT_BEGIN
 90
        0
 91
        1
 62
     0
 92
       -2
340
0
 93
        0
 40
0.045
309
GRIDFORMAT_END
 95
        2
302
GRIDFORMAT
  1
GRIDFORMAT_BEGIN
 90
        0
 91
        1
 62
     0
 92
       -2
340
0
 93
        0
 40
0.045
309
GRIDFORMAT_END
 95
        4
302
GRIDFORMAT
  1
GRIDFORMAT_BEGIN
 90
        0
 91
        1
 62
     0
 92
       -2
340
0
 93
        0
 40
0.045
309
GRIDFORMAT_END
 95
        8
302
GRIDFORMAT
  1
GRIDFORMAT_BEGIN
 90
        0
 91
        1
 62
     0
 92
       -2
340
0
 93
        0
 40
0.045
309
GRIDFORMAT_END
 95
       16
302
GRIDFORMAT
  1
GRIDFORMAT_BEGIN
 90
        0
 91
        1
 62
     0
 92
       -2
340
0
 93
        0
 40
0.045
309
GRIDFORMAT_END
 95
       32
302
GRIDFORMAT
  1
GRIDFORMAT_BEGIN
 90
        0
 91
        1
 62
     0
 92
       -2
340
0
 93
        0
 40
0.045
309
GRIDFORMAT_END
309
TABLEFORMAT_END
  1
CELLSTYLE_BEGIN
 90
        3
 91
        2
300
_DATA
309
CELLSTYLE_END
  0
XRECORD
  5
2B41
102
{ACAD_REACTORS
330
A2A
102
}
330
A2A
100
AcDbXrecord
280
     1
102
ACAD_ROUNDTRIP_PRE2007_TABLESTYLE
 90
        4
 91
        0
  1

 92
        4
 93
        0
  2

 94
        4
 95
        0
  3

  0
ENDSEC
  0
EOF
