  0
SECTION
  2
HEADER
  9
$ACADVER
  1
AC1018
  9
$ACADMAINTVER
 70
   104
  9
$DWGCODEPAGE
  3
ANSI_1252
  9
$LASTSAVEDBY
  1
kbaersch
  9
$CUSTOMPROPERTYTAG
  1
AmdtFileType
  9
$CUSTOMPROPERTY
  1
84
  9
$INSBASE
 10
0.0
 20
0.0
 30
0.0
  9
$EXTMIN
 10
24.28285698939067
 20
-16.39793583078312
 30
-0.0015258207003583
  9
$EXTMAX
 10
525.3683523105458
 20
491.8343932409958
 30
0.0000000349246037
  9
$LIMMIN
 10
0.0
 20
0.0
  9
$LIMMAX
 10
420.0
 20
297.0
  9
$ORTHOMODE
 70
     0
  9
$REGENMODE
 70
     1
  9
$FILLMODE
 70
     1
  9
$QTEXTMODE
 70
     0
  9
$MIRRTEXT
 70
     1
  9
$LTSCALE
 40
1.0
  9
$ATTMODE
 70
     1
  9
$TEXTSIZE
 40
2.5
  9
$TRACEWID
 40
1.0
  9
$TEXTSTYLE
  7
STANDARD
  9
$CLAYER
  8
0
  9
$CELTYPE
  6
ByLayer
  9
$CECOLOR
 62
   256
  9
$CELTSCALE
 40
1.0
  9
$DISPSILH
 70
     0
  9
$DIMSCALE
 40
1.0
  9
$DIMASZ
 40
2.5
  9
$DIMEXO
 40
1.0
  9
$DIMDLI
 40
10.0
  9
$DIMRND
 40
0.0
  9
$DIMDLE
 40
0.0
  9
$DIMEXE
 40
1.0
  9
$DIMTP
 40
0.1
  9
$DIMTM
 40
0.1
  9
$DIMTXT
 40
3.5
  9
$DIMCEN
 40
0.0
  9
$DIMTSZ
 40
0.0
  9
$DIMTOL
 70
     0
  9
$DIMLIM
 70
     0
  9
$DIMTIH
 70
     0
  9
$DIMTOH
 70
     0
  9
$DIMSE1
 70
     0
  9
$DIMSE2
 70
     0
  9
$DIMTAD
 70
     1
  9
$DIMZIN
 70
     8
  9
$DIMBLK
  1

  9
$DIMASO
 70
     1
  9
$DIMSHO
 70
     1
  9
$DIMPOST
  1

  9
$DIMAPOST
  1
"
  9
$DIMALT
 70
     0
  9
$DIMALTD
 70
     2
  9
$DIMALTF
 40
0.0393701
  9
$DIMLFAC
 40
1.0
  9
$DIMTOFL
 70
     1
  9
$DIMTVP
 40
0.0
  9
$DIMTIX
 70
     0
  9
$DIMSOXD
 70
     0
  9
$DIMSAH
 70
     0
  9
$DIMBLK1
  1

  9
$DIMBLK2
  1

  9
$DIMSTYLE
  2
AM_DIN
  9
$DIMCLRD
 70
   256
  9
$DIMCLRE
 70
   256
  9
$DIMCLRT
 70
     2
  9
$DIMTFAC
 40
0.71
  9
$DIMGAP
 40
1.5
  9
$DIMJUST
 70
     0
  9
$DIMSD1
 70
     0
  9
$DIMSD2
 70
     0
  9
$DIMTOLJ
 70
     0
  9
$DIMTZIN
 70
     8
  9
$DIMALTZ
 70
     0
  9
$DIMALTTZ
 70
     0
  9
$DIMUPT
 70
     0
  9
$DIMDEC
 70
     0
  9
$DIMTDEC
 70
     3
  9
$DIMALTU
 70
     2
  9
$DIMALTTD
 70
     4
  9
$DIMTXSTY
  7
STANDARD
  9
$DIMAUNIT
 70
     0
  9
$DIMADEC
 70
     0
  9
$DIMALTRND
 40
0.0
  9
$DIMAZIN
 70
     2
  9
$DIMDSEP
 70
    46
  9
$DIMATFIT
 70
     3
  9
$DIMFRAC
 70
     0
  9
$DIMLDRBLK
  1

  9
$DIMLUNIT
 70
     2
  9
$DIMLWD
 70
    -1
  9
$DIMLWE
 70
    -1
  9
$DIMTMOVE
 70
     0
  9
$LUNITS
 70
     2
  9
$LUPREC
 70
     2
  9
$SKETCHINC
 40
1.0
  9
$FILLETRAD
 40
0.0
  9
$AUNITS
 70
     0
  9
$AUPREC
 70
     0
  9
$MENU
  1
.
  9
$ELEVATION
 40
0.0
  9
$PELEVATION
 40
0.0
  9
$THICKNESS
 40
0.0
  9
$LIMCHECK
 70
     0
  9
$CHAMFERA
 40
2.5
  9
$CHAMFERB
 40
2.5
  9
$CHAMFERC
 40
20.0
  9
$CHAMFERD
 40
0.0
  9
$SKPOLY
 70
     0
  9
$TDCREATE
 40
2452702.515835023
  9
$TDUCREATE
 40
2452702.474168357
  9
$TDUPDATE
 40
2455985.730415382
  9
$TDUUPDATE
 40
2455985.688748715
  9
$TDINDWG
 40
0.0451727199
  9
$TDUSRTIMER
 40
0.0451727199
  9
$USRTIMER
 70
     1
  9
$ANGBASE
 50
0.0
  9
$ANGDIR
 70
     0
  9
$PDMODE
 70
     0
  9
$PDSIZE
 40
0.0
  9
$PLINEWID
 40
0.0
  9
$SPLFRAME
 70
     0
  9
$SPLINETYPE
 70
     6
  9
$SPLINESEGS
 70
     8
  9
$HANDSEED
  5
2D37
  9
$SURFTAB1
 70
     6
  9
$SURFTAB2
 70
     6
  9
$SURFTYPE
 70
     6
  9
$SURFU
 70
     6
  9
$SURFV
 70
     6
  9
$UCSBASE
  2

  9
$UCSNAME
  2

  9
$UCSORG
 10
0.0
 20
0.0
 30
0.0
  9
$UCSXDIR
 10
1.0
 20
0.0
 30
0.0
  9
$UCSYDIR
 10
0.0
 20
1.0
 30
0.0
  9
$UCSORTHOREF
  2

  9
$UCSORTHOVIEW
 70
     0
  9
$UCSORGTOP
 10
0.0
 20
0.0
 30
0.0
  9
$UCSORGBOTTOM
 10
0.0
 20
0.0
 30
0.0
  9
$UCSORGLEFT
 10
0.0
 20
0.0
 30
0.0
  9
$UCSORGRIGHT
 10
0.0
 20
0.0
 30
0.0
  9
$UCSORGFRONT
 10
0.0
 20
0.0
 30
0.0
  9
$UCSORGBACK
 10
0.0
 20
0.0
 30
0.0
  9
$PUCSBASE
  2

  9
$PUCSNAME
  2

  9
$PUCSORG
 10
0.0
 20
0.0
 30
0.0
  9
$PUCSXDIR
 10
1.0
 20
0.0
 30
0.0
  9
$PUCSYDIR
 10
0.0
 20
1.0
 30
0.0
  9
$PUCSORTHOREF
  2

  9
$PUCSORTHOVIEW
 70
     0
  9
$PUCSORGTOP
 10
0.0
 20
0.0
 30
0.0
  9
$PUCSORGBOTTOM
 10
0.0
 20
0.0
 30
0.0
  9
$PUCSORGLEFT
 10
0.0
 20
0.0
 30
0.0
  9
$PUCSORGRIGHT
 10
0.0
 20
0.0
 30
0.0
  9
$PUCSORGFRONT
 10
0.0
 20
0.0
 30
0.0
  9
$PUCSORGBACK
 10
0.0
 20
0.0
 30
0.0
  9
$USERI1
 70
     0
  9
$USERI2
 70
     0
  9
$USERI3
 70
     0
  9
$USERI4
 70
     0
  9
$USERI5
 70
     0
  9
$USERR1
 40
0.0
  9
$USERR2
 40
0.0
  9
$USERR3
 40
0.0
  9
$USERR4
 40
0.0
  9
$USERR5
 40
0.0
  9
$WORLDVIEW
 70
     1
  9
$SHADEDGE
 70
     3
  9
$SHADEDIF
 70
    70
  9
$TILEMODE
 70
     1
  9
$MAXACTVP
 70
    64
  9
$PINSBASE
 10
0.0
 20
0.0
 30
0.0
  9
$PLIMCHECK
 70
     0
  9
$PEXTMIN
 10
1.000000000000000E+20
 20
1.000000000000000E+20
 30
1.000000000000000E+20
  9
$PEXTMAX
 10
-1.000000000000000E+20
 20
-1.000000000000000E+20
 30
-1.000000000000000E+20
  9
$PLIMMIN
 10
0.0
 20
0.0
  9
$PLIMMAX
 10
420.0
 20
297.0
  9
$UNITMODE
 70
     0
  9
$VISRETAIN
 70
     1
  9
$PLINEGEN
 70
     0
  9
$PSLTSCALE
 70
     1
  9
$TREEDEPTH
 70
  3020
  9
$CMLSTYLE
  2
Standard
  9
$CMLJUST
 70
     0
  9
$CMLSCALE
 40
20.0
  9
$PROXYGRAPHICS
 70
     1
  9
$MEASUREMENT
 70
     1
  9
$CELWEIGHT
370
    -1
  9
$ENDCAPS
280
     0
  9
$JOINSTYLE
280
     0
  9
$LWDISPLAY
290
     0
  9
$INSUNITS
 70
     4
  9
$HYPERLINKBASE
  1

  9
$STYLESHEET
  1
monochrome.ctb
  9
$XEDIT
290
     1
  9
$CEPSNTYPE
380
     0
  9
$PSTYLEMODE
290
     1
  9
$FINGERPRINTGUID
  2
{D5091DE6-A8E7-4749-B1FA-F4240FAEB0F0}
  9
$VERSIONGUID
  2
{A2D64431-D898-45F0-BCC9-A1434F1805DD}
  9
$EXTNAMES
290
     1
  9
$PSVPSCALE
 40
0.0
  9
$OLESTARTUP
290
     0
  9
$SORTENTS
280
   127
  9
$INDEXCTL
280
     0
  9
$HIDETEXT
280
     0
  9
$XCLIPFRAME
290
     0
  9
$HALOGAP
280
     0
  9
$OBSCOLOR
 70
   257
  9
$OBSLTYPE
280
     0
  9
$INTERSECTIONDISPLAY
280
     0
  9
$INTERSECTIONCOLOR
 70
   257
  9
$DIMASSOC
280
     1
  9
$PROJECTNAME
  1

  0
ENDSEC
  0
SECTION
  2
CLASSES
  0
CLASS
  1
ACDBDICTIONARYWDFLT
  2
AcDbDictionaryWithDefault
  3
ObjectDBX Classes
 90
        0
 91
        1
280
     0
281
     0
  0
CLASS
  1
AMGSETTINGSOBJ
  2
AmgSettingsObj
  3
"AcadM|Product Description: AutoCAD Mechanical|Company: Autodesk, Inc."
 90
     1024
 91
        3
280
     0
281
     0
  0
CLASS
  1
ACME_DOCUMENT
  2
AcMeDbDoc
  3
AcMeServices
 90
     1024
 91
        2
280
     0
281
     0
  0
CLASS
  1
ACMESCOPE
  2
AcMeScope
  3
AcMeServices
 90
     1024
 91
        1
280
     0
281
     0
  0
CLASS
  1
ACMECOMMANDHISTORY
  2
AcMeCommandHistory
  3
AcMeServices
 90
     1024
 91
        1
280
     0
281
     0
  0
CLASS
  1
DICTIONARYVAR
  2
AcDbDictionaryVar
  3
ObjectDBX Classes
 90
        0
 91
       34
280
     0
281
     0
  0
CLASS
  1
ACIMSYSVARMAN
  2
AcImSysVarManager
  3
AcMeServices
 90
     1024
 91
        5
280
     0
281
     0
  0
CLASS
  1
ACIMREALSYSVAR
  2
AcImRealSysVar
  3
AcMeServices
 90
     1024
 91
        3
280
     0
281
     0
  0
CLASS
  1
ACIMINTSYSVAR
  2
AcImIntSysVar
  3
AcMeServices
 90
     1024
 91
       28
280
     0
281
     0
  0
CLASS
  1
ACMEDRAWINGMAN
  2
AcMeDrawingMan
  3
AcMeServices
 90
     1024
 91
        1
280
     0
281
     0
  0
CLASS
  1
ACMEVIEW
  2
AcMeView
  3
AcMeServices
 90
     1024
 91
        1
280
     0
281
     0
  0
CLASS
  1
ACDBENTITYCACHE
  2
AcMeEntityCache
  3
AcMeServices
 90
     1024
 91
        1
280
     0
281
     0
  0
CLASS
  1
GSMANAGER
  2
AcMeGSManager
  3
AcMeServices
 90
     1024
 91
        1
280
     0
281
     0
  0
CLASS
  1
AMDTINTERNALREACTOR
  2
AmdtInternalReactor
  3
AcMeServices
 90
     1024
 91
        2
280
     0
281
     0
  0
CLASS
  1
ACMESTATEMGR
  2
AcMeStateMgr
  3
AcMeServices
 90
     1024
 91
        1
280
     0
281
     0
  0
CLASS
  1
ACGREFMASTER
  2
AcGrefMaster
  3
AcAttribServices
 90
     1024
 91
        1
280
     0
281
     0
  0
CLASS
  1
ACME_DATABASE
  2
AcMeDbDatabase
  3
AcMeServices
 90
     1024
 91
        2
280
     0
281
     0
  0
CLASS
  1
ACRFINSADJUSTERMGR
  2
AcRfInsAdjusterMgr
  3
AcMeServices
 90
     1024
 91
        1
280
     0
281
     0
  0
CLASS
  1
ACGREFACADMASTER
  2
AcGrefacadMaster
  3
AcGrefServices
 90
     1024
 91
        1
280
     0
281
     0
  0
CLASS
  1
AMIMASTER
  2
AmiMaster
  3
AmiServices
 90
     1024
 91
        1
280
     0
281
     0
  0
CLASS
  1
ACMDATADICTIONARY
  2
AcmDataDictionary
  3
"AcmSymBB|Product Description: AutoCAD Mechanical|Company: Autodesk, Inc."
 90
     1024
 91
        1
280
     0
281
     0
  0
CLASS
  1
ACMDATAENTRYBLOCK
  2
AcmDataEntryBlock
  3
AcmSymBB|Product Description: AutoCAD Mechanical|Company: Autodesk, Inc.
 90
     1024
 91
        3
280
     0
281
     0
  0
CLASS
  1
ACIMSTRSYSVAR
  2
AcImStrSysVar
  3
AcMeServices
 90
     1024
 91
        5
280
     0
281
     0
  0
CLASS
  1
ACMSTANDARDDIN
  2
AcmStandardDIN
  3
"Amdt_StdImp|Product Description: AutoCAD Mechanical|Company: Autodesk, Inc."
 90
     1024
 91
        1
280
     0
281
     0
  0
CLASS
  1
AMGOBJPROPCFG
  2
AmgObjPropCfg
  3
"AmgLay|Product Description: AutoCAD Mechanical|Company: Autodesk, Inc."
 90
     1025
 91
        1
280
     0
281
     0
  0
CLASS
  1
AMDTEDGESTANDARDDIN
  2
AmdtEdgeStdDIN
  3
"Amdt_StdImp|Product Description: AutoCAD Mechanical|Company: Autodesk, Inc."
 90
     1024
 91
        1
280
     0
281
     0
  0
CLASS
  1
ACMSURFSTANDARDDIN
  2
AcmSurfTextStdDIN
  3
"Amdt_StdImp|Product Description: AutoCAD Mechanical|Company: Autodesk, Inc."
 90
     1024
 91
        1
280
     0
281
     0
  0
CLASS
  1
ACMFCFSTANDARDDIN
  2
AcmFCFStdDIN
  3
"Amdt_StdImp|Product Description: AutoCAD Mechanical|Company: Autodesk, Inc."
 90
     1024
 91
        1
280
     0
281
     0
  0
CLASS
  1
ACMWELDSTANDARDDIN
  2
AcmWeldingStdDIN
  3
"Amdt_StdImp|Product Description: AutoCAD Mechanical|Company: Autodesk, Inc."
 90
     1024
 91
        1
280
     0
281
     0
  0
CLASS
  1
ACMIDSTANDARDDIN
  2
AcmIdStdDIN
  3
"Amdt_StdImp|Product Description: AutoCAD Mechanical|Company: Autodesk, Inc."
 90
     1024
 91
        1
280
     0
281
     0
  0
CLASS
  1
ACMDATUMSTANDARDDIN
  2
AcmDatumStdDIN
  3
"Amdt_StdImp|Product Description: AutoCAD Mechanical|Company: Autodesk, Inc."
 90
     1024
 91
        1
280
     0
281
     0
  0
CLASS
  1
ACMBOMSTANDARDDIN
  2
AcmBOMStdDIN
  3
"Amdt_StdImp|Product Description: AutoCAD Mechanical|Company: Autodesk, Inc."
 90
     1024
 91
        1
280
     0
281
     0
  0
CLASS
  1
ACMDETAILSTANDARDDIN
  2
AmdtDetailSymStdDIN
  3
"Amdt_StdImp|Product Description: AutoCAD Mechanical|Company: Autodesk, Inc."
 90
     1024
 91
        1
280
     0
281
     0
  0
CLASS
  1
ACMSECTIONSTANDARDDIN
  2
AmdtSectionSymStdDIN
  3
"Amdt_StdImp|Product Description: AutoCAD Mechanical|Company: Autodesk, Inc."
 90
     1024
 91
        1
280
     0
281
     0
  0
CLASS
  1
ACMCENTERLINESTANDARDDIN
  2
AmdtCenterLineStdDIN
  3
"Amdt_StdImp|Product Description: AutoCAD Mechanical|Company: Autodesk, Inc."
 90
     1024
 91
        1
280
     0
281
     0
  0
CLASS
  1
ACAMGLAYSTD
  2
AcAmgLayStd
  3
"AmgLay|Product Description: AutoCAD Mechanical|Company: Autodesk, Inc."
 90
     1024
 91
        2
280
     0
281
     0
  0
CLASS
  1
ACAMGDIMSTD
  2
AcAmgDimStd
  3
"AmgDim|Product Description: AutoCAD Mechanical|Company: Autodesk, Inc."
 90
     1024
 91
        2
280
     0
281
     0
  0
CLASS
  1
ACAMGTITLESTD
  2
AcAmgTitleStd
  3
"AmgTitle|Product Description: AutoCAD Mechanical|Company: Autodesk, Inc."
 90
     4095
 91
        2
280
     0
281
     0
  0
CLASS
  1
LAYER_INDEX
  2
AcDbLayerIndex
  3
ObjectDBX Classes
 90
        0
 91
        0
280
     0
281
     0
  0
CLASS
  1
IDBUFFER
  2
AcDbIdBuffer
  3
ObjectDBX Classes
 90
        0
 91
        0
280
     0
281
     0
  0
CLASS
  1
ACAMGFILTERDAT
  2
AcAmgFilterDat
  3
"AcadM|Product Description: AutoCAD Mechanical|Company: Autodesk, Inc."
 90
     1024
 91
        6
280
     0
281
     0
  0
CLASS
  1
TABLESTYLE
  2
AcDbTableStyle
  3
ObjectDBX Classes
 90
     4095
 91
        1
280
     0
281
     0
  0
CLASS
  1
AM_DRAWING_MGR
  2
AcDmDwgMgr
  3
AcMechDwgViewMgmt
 90
     1024
 91
        1
280
     0
281
     0
  0
CLASS
  1
AM_DWG_DOCUMENT
  2
AcDmDwgDocument
  3
AcMechDwgViewMgmt
 90
     1024
 91
        1
280
     0
281
     0
  0
CLASS
  1
AM_DWG_SHEET
  2
AcDmSheet
  3
AcMechDwgViewMgmt
 90
     1024
 91
        2
280
     0
281
     0
  0
CLASS
  1
AM_VIEWDIMPARMAP
  2
AcDmViewDimParMap
  3
AcMechDwgViewMgmt
 90
     1024
 91
        2
280
     0
281
     0
  0
CLASS
  1
AM_DWGMGR_NAME
  2
AcDmDwgMgrName
  3
AcMechDwgViewMgmt
 90
     1024
 91
        1
280
     0
281
     0
  0
CLASS
  1
AMDTMENUSTATEMGR
  2
AmdtMenuStateMgr
  3
McadcomServices
 90
     1024
 91
        1
280
     0
281
     0
  0
CLASS
  1
AMDTMCOMMENUSTATE
  2
AmdtMcomMenuState
  3
McadcomServices
 90
     1024
 91
        1
280
     0
281
     0
  0
CLASS
  1
MAPIAMMOUDLE
  2
MApiAmModule
  3
MApiAmServices
 90
     1024
 91
        1
280
     0
281
     0
  0
CLASS
  1
AMDTADMENUSTATE
  2
AmdtAdMenuState
  3
DesignerServices
 90
     1024
 91
        1
280
     0
281
     0
  0
CLASS
  1
ADAPPL
  2
AcAdAppl
  3
DesignerServices
 90
     1024
 91
        1
280
     0
281
     0
  0
CLASS
  1
DEPMGR
  2
AcAdDepMgr
  3
DesignerServices
 90
     1024
 91
        1
280
     0
281
     0
  0
CLASS
  1
PARAMMGR
  2
AcAdParamMgr
  3
DesignerServices
 90
     1024
 91
        1
280
     0
281
     0
  0
CLASS
  1
PARAMSCOPE
  2
AcAdParamScope
  3
DesignerServices
 90
     1024
 91
        1
280
     0
281
     0
  0
CLASS
  1
NAMEDAPPL
  2
AcAdNamedAppl
  3
DesignerServices
 90
     1024
 91
        1
280
     0
281
     0
  0
CLASS
  1
AMDTDMMENUSTATE
  2
AmdtDmMenuState
  3
AcMechDwgViewMgmt
 90
     1024
 91
        1
280
     0
281
     0
  0
CLASS
  1
AMDTAMMENUSTATE
  2
AmdtAmMenuState
  3
DesignerAssemblies
 90
     1024
 91
        1
280
     0
281
     0
  0
CLASS
  1
ACAMPROJECT
  2
AcAmProject
  3
DesignerAssemblies
 90
     1024
 91
        1
280
     0
281
     0
  0
CLASS
  1
ACAMGRCOMPDEF
  2
AcAmGrCompDef
  3
DesignerAssemblies
 90
     1024
 91
        1
280
     0
281
     0
  0
CLASS
  1
ACCMCONTEXT
  2
AcCmContext
  3
DesignerAssemblies
 90
     1024
 91
        1
280
     0
281
     0
  0
CLASS
  1
ACAMCOMPDEF
  2
AcAmCompDef
  3
DesignerAssemblies
 90
     1024
 91
        1
280
     0
281
     0
  0
CLASS
  1
ACAMCOMPDEFMGR
  2
AcAmCompDefMgr
  3
DesignerAssemblies
 90
     1024
 91
        1
280
     0
281
     0
  0
CLASS
  1
AMCONTEXTMGR
  2
AcAmContextMgr
  3
DesignerAssemblies
 90
     1024
 91
        1
280
     0
281
     0
  0
CLASS
  1
ACAMCONTEXTMODELER
  2
AcAmContextModeler
  3
DesignerAssemblies
 90
     1024
 91
        1
280
     0
281
     0
  0
CLASS
  1
ACMTHREADLINESTANDARDDIN
  2
AmdtThreadLineStdDIN
  3
"Amdt_StdImp|Product Description: AutoCAD Mechanical|Company: Autodesk, Inc."
 90
     1024
 91
        1
280
     0
281
     0
  0
CLASS
  1
ACMNOTESTANDARDDIN
  2
AmdtNoteStdDIN
  3
"Amdt_StdImp|Product Description: AutoCAD Mechanical|Company: Autodesk, Inc."
 90
     1024
 91
        1
280
     0
281
     0
  0
CLASS
  1
AMDTNOTETEMPLATEDB
  2
AmdtNoteTemplateDB
  3
AcmSymBB|Product Description: AutoCAD Mechanical|Company: Autodesk, Inc.
 90
     1024
 91
       10
280
     0
281
     0
  0
CLASS
  1
CATALOGSTATE
  2
AcAmCatalogState
  3
DesignerAssemblies
 90
     1024
 91
        1
280
     0
281
     0
  0
CLASS
  1
ACAMGRCOMPDEFSET
  2
AcAmGrCompDefSet
  3
DesignerAssemblies
 90
     1024
 91
        1
280
     0
281
     0
  0
CLASS
  1
AMDTBROWSERDBTAB
  2
AmdtBrowserDbTab
  3
McadcomServices
 90
     1024
 91
        1
280
     0
281
     0
  0
CLASS
  1
CBROWSERAPPOBJECT
  2
CBrowserAppObject
  3
McadcomServices
 90
     1024
 91
        3
280
     0
281
     0
  0
CLASS
  1
DM_PLACEHOLDER
  2
AcDmSelsetPlaceholder
  3
AcMechDwgViewMgmt
 90
     1024
 91
        1
280
     0
281
     0
  0
CLASS
  1
SORTENTSTABLE
  2
AcDbSortentsTable
  3
ObjectDBX Classes
 90
        0
 91
        3
280
     0
281
     0
  0
CLASS
  1
ACMSTANDARDANSI
  2
AcmStandardANSI
  3
"Amdt_StdImp|Product Description: AutoCAD Mechanical|Company: Autodesk, Inc."
 90
     1024
 91
        1
280
     0
281
     0
  0
CLASS
  1
ACMSURFSTANDARDANSI
  2
AcmSurfTextStdANSI
  3
"Amdt_StdImp|Product Description: AutoCAD Mechanical|Company: Autodesk, Inc."
 90
     1024
 91
        1
280
     0
281
     0
  0
CLASS
  1
ACMFCFSTANDARDANSI
  2
AcmFCFStdANSI
  3
"Amdt_StdImp|Product Description: AutoCAD Mechanical|Company: Autodesk, Inc."
 90
     1024
 91
        1
280
     0
281
     0
  0
CLASS
  1
ACMWELDSTANDARDANSI
  2
AcmWeldingStdANSI
  3
"Amdt_StdImp|Product Description: AutoCAD Mechanical|Company: Autodesk, Inc."
 90
     1024
 91
        1
280
     0
281
     0
  0
CLASS
  1
ACMIDSTANDARDANSI
  2
AcmIdStdANSI
  3
"Amdt_StdImp|Product Description: AutoCAD Mechanical|Company: Autodesk, Inc."
 90
     1024
 91
        1
280
     0
281
     0
  0
CLASS
  1
ACMDATUMSTANDARDANSI
  2
AcmDatumStdANSI
  3
"Amdt_StdImp|Product Description: AutoCAD Mechanical|Company: Autodesk, Inc."
 90
     1024
 91
        1
280
     0
281
     0
  0
CLASS
  1
ACMBOMSTANDARDANSI
  2
AcmBOMStdANSI
  3
"Amdt_StdImp|Product Description: AutoCAD Mechanical|Company: Autodesk, Inc."
 90
     1024
 91
        1
280
     0
281
     0
  0
CLASS
  1
ACMDETAILSTANDARDANSI
  2
AmdtDetailSymStdANSI
  3
"Amdt_StdImp|Product Description: AutoCAD Mechanical|Company: Autodesk, Inc."
 90
     1024
 91
        1
280
     0
281
     0
  0
CLASS
  1
ACMSECTIONSTANDARDANSI
  2
AmdtSectionSymStdANSI
  3
"Amdt_StdImp|Product Description: AutoCAD Mechanical|Company: Autodesk, Inc."
 90
     1024
 91
        1
280
     0
281
     0
  0
CLASS
  1
ACMCENTERLINESTANDARDANSI
  2
AmdtCenterLineStdANSI
  3
"Amdt_StdImp|Product Description: AutoCAD Mechanical|Company: Autodesk, Inc."
 90
     1024
 91
        1
280
     0
281
     0
  0
CLASS
  1
ACMTHREADLINESTANDARDANSI
  2
AmdtThreadLineStdANSI
  3
"Amdt_StdImp|Product Description: AutoCAD Mechanical|Company: Autodesk, Inc."
 90
     1024
 91
        1
280
     0
281
     0
  0
CLASS
  1
ACMNOTESTANDARDANSI
  2
AmdtNoteStdANSI
  3
"Amdt_StdImp|Product Description: AutoCAD Mechanical|Company: Autodesk, Inc."
 90
     1024
 91
        1
280
     0
281
     0
  0
CLASS
  1
MATERIAL
  2
AcDbMaterial
  3
ObjectDBX Classes
 90
     1153
 91
        3
280
     0
281
     0
  0
CLASS
  1
VISUALSTYLE
  2
AcDbVisualStyle
  3
ObjectDBX Classes
 90
     4095
 91
       16
280
     0
281
     0
  0
CLASS
  1
SCALE
  2
AcDbScale
  3
ObjectDBX Classes
 90
     1153
 91
       17
280
     0
281
     0
  0
CLASS
  1
MLEADERSTYLE
  2
AcDbMLeaderStyle
  3
ACDB_MLEADERSTYLE_CLASS
 90
     4095
 91
        1
280
     0
281
     0
  0
CLASS
  1
ACRFATTGENMGR
  2
AcRfAttGeneralMgr
  3
AcAttribServices
 90
     1024
 91
        1
280
     0
281
     0
  0
CLASS
  1
ACRFOBJATTMGR
  2
AcRfObjAttGroupMgr
  3
AcAttribServices
 90
     1024
 91
        1
280
     0
281
     0
  0
CLASS
  1
ACRFMCADAPIATTHOLDER
  2
AcRfMCADAPIAttHolder
  3
AcAttribServices
 90
     1024
 91
        1
280
     0
281
     0
  0
CLASS
  1
AMDTSYSATTR
  2
AmdtSystemAttribute
  3
AcAttribServices
 90
     1024
 91
        1
280
     0
281
     0
  0
CLASS
  1
ACMTAPERSTANDARDDIN
  2
AcmTaperStdDIN
  3
"Amdt_StdImp|Product Description: AutoCAD Mechanical|Company: Autodesk, Inc."
 90
     1024
 91
        1
280
     0
281
     0
  0
CLASS
  1
ACMANOOTATIONVIEWSTANDARDDIN
  2
AmdtAnViewStdDIN
  3
"Amdt_StdImp|Product Description: AutoCAD Mechanical|Company: Autodesk, Inc."
 90
     1024
 91
        1
280
     0
281
     0
  0
CLASS
  1
ACMTAPERSTANDARDANSI
  2
AcmTaperStdANSI
  3
"Amdt_StdImp|Product Description: AutoCAD Mechanical|Company: Autodesk, Inc."
 90
     1024
 91
        1
280
     0
281
     0
  0
CLASS
  1
ACMANOOTATIONVIEWSTANDARDANSI
  2
AmdtAnViewStdANSI
  3
"Amdt_StdImp|Product Description: AutoCAD Mechanical|Company: Autodesk, Inc."
 90
     1024
 91
        1
280
     0
281
     0
  0
CLASS
  1
EXACXREFPANELOBJECT
  2
ExAcXREFPanelObject
  3
EXAC_ESW
 90
     1025
 91
        1
280
     0
281
     0
  0
CLASS
  1
NPOCOLLECTION
  2
AcDbImpNonPersistentObjectsCollection
  3
ObjectDBX Classes
 90
     1153
 91
        1
280
     0
281
     0
  0
CLASS
  1
CAMSSTRUCTBTNSTATE
  2
StructBtnState
  3
DesignerAssemblies
 90
     1024
 91
        1
280
     0
281
     0
  0
CLASS
  1
CELLSTYLEMAP
  2
AcDbCellStyleMap
  3
ObjectDBX Classes
 90
     1152
 91
        6
280
     0
281
     0
  0
CLASS
  1
AEC_REFEDIT_STATUS_TRACKER
  2
AecDbRefEditStatusTracker
  3
AecArchBase50|Product Desc: Autodesk Architectural Desktop 2007 |Company: Autodesk,Inc. |WEB Address: www.autodesk.com
 90
      129
 91
        1
280
     0
281
     0
  0
ENDSEC
  0
SECTION
  2
TABLES
  0
TABLE
  2
VPORT
  5
8
330
0
100
AcDbSymbolTable
 70
     1
  0
VPORT
  5
2002
330
8
100
AcDbSymbolTableRecord
100
AcDbViewportTableRecord
  2
*Active
 70
     0
 10
0.0
 20
0.0
 11
1.0
 21
1.0
 12
-45.12172721454362
 22
183.9863434943927
 13
0.0
 23
0.0
 14
2.5
 24
2.5
 15
10.0
 25
10.0
 16
0.0
 26
0.0
 36
1.0
 17
0.0
 27
0.0
 37
0.0
 40
875.1471995314437
 41
1.910788381742738
 42
50.0
 43
0.0
 44
0.0
 50
0.0
 51
0.0
 71
     0
 72
   100
 73
     1
 74
     3
 75
     0
 76
     0
 77
     0
 78
     0
281
     0
 65
     1
110
0.0
120
0.0
130
0.0
111
1.0
121
0.0
131
0.0
112
0.0
122
1.0
132
0.0
 79
     0
146
0.0
  0
ENDTAB
  0
TABLE
  2
LTYPE
  5
5
330
0
100
AcDbSymbolTable
 70
    34
  0
LTYPE
  5
14
330
5
100
AcDbSymbolTableRecord
100
AcDbLinetypeTableRecord
  2
ByBlock
 70
     0
  3

 72
    65
 73
     0
 40
0.0
  0
LTYPE
  5
15
330
5
100
AcDbSymbolTableRecord
100
AcDbLinetypeTableRecord
  2
ByLayer
 70
     0
  3

 72
    65
 73
     0
 40
0.0
  0
LTYPE
  5
16
330
5
100
AcDbSymbolTableRecord
100
AcDbLinetypeTableRecord
  2
Continuous
 70
     0
  3
Solid line
 72
    65
 73
     0
 40
0.0
  0
LTYPE
  5
52
330
5
100
AcDbSymbolTableRecord
100
AcDbLinetypeTableRecord
  2
Amconstr
 70
     0
  3
_______________________
 72
    65
 73
     2
 40
9999.0
 49
9999.0
 74
     0
 49
0.0
 74
     0
  0
LTYPE
  5
57
330
5
100
AcDbSymbolTableRecord
100
AcDbLinetypeTableRecord
  2
Amzigzag
 70
     0
  3
/\/-/\/-/\/-/\/-/\/-/\/
 72
    65
 73
     2
 40
11.0001
 49
0.0001
 74
     4
 75
   135
340
56
 46
0.04
 50
0.0
 44
0.0
 45
0.0
 49
-11.0
 74
     0
  0
LTYPE
  5
58
330
5
100
AcDbSymbolTableRecord
100
AcDbLinetypeTableRecord
  2
AM_DIN_F_W050
 70
     0
  3
__ __ __ __ __ __ __ __ __ __ __ __ __ __ __
 72
    65
 73
     2
 40
6.25
 49
4.75
 74
     0
 49
-1.5
 74
     0
  0
LTYPE
  5
59
330
5
100
AcDbSymbolTableRecord
100
AcDbLinetypeTableRecord
  2
AM_DIN_G_W050
 70
     0
  3
____ . ____ . ____ . ____ . ____ . ____ . ____
 72
    65
 73
     4
 40
13.75
 49
9.75
 74
     0
 49
-1.5
 74
     0
 49
1.0
 74
     0
 49
-1.5
 74
     0
  0
LTYPE
  5
5A
330
5
100
AcDbSymbolTableRecord
100
AcDbLinetypeTableRecord
  2
AM_DIN_K_W050
 70
     0
  3
_____ . . _____ . . _____ . . ____ .. ____
 72
    65
 73
     6
 40
16.25
 49
9.75
 74
     0
 49
-1.5
 74
     0
 49
1.0
 74
     0
 49
-1.5
 74
     0
 49
1.0
 74
     0
 49
-1.5
 74
     0
  0
LTYPE
  5
5B
330
5
100
AcDbSymbolTableRecord
100
AcDbLinetypeTableRecord
  2
AM_DIN_G_W050x2
 70
     0
  3
__ . __ . __ . __ . __ . __
 72
    65
 73
     4
 40
6.875
 49
4.75
 74
     0
 49
-0.875
 74
     0
 49
0.375
 74
     0
 49
-0.875
 74
     0
  0
LTYPE
  5
5C
330
5
100
AcDbSymbolTableRecord
100
AcDbLinetypeTableRecord
  2
AM_DIN_F_W050x2
 70
     0
  3
 _ _ _ _ _ _ _ _ _ _ _ _
 72
    65
 73
     2
 40
3.125
 49
2.25
 74
     0
 49
-0.875
 74
     0
  0
LTYPE
  5
69
330
5
100
AcDbSymbolTableRecord
100
AcDbLinetypeTableRecord
  2
ACDINWELD
 70
     0
  3
_ _ _ _ _
 72
    65
 73
     2
 40
2.0
 49
2.0
 74
     0
 49
-1.0
 74
     0
  0
LTYPE
  5
6A
330
5
100
AcDbSymbolTableRecord
100
AcDbLinetypeTableRecord
  2
ACDINTGB
 70
     0
  3
__ . . __ . .
 72
    65
 73
     6
 40
9.0
 49
4.0
 74
     0
 49
-1.0
 74
     0
 49
1.0
 74
     0
 49
-1.0
 74
     0
 49
1.0
 74
     0
 49
-1.0
 74
     0
  0
LTYPE
  5
6B
330
5
100
AcDbSymbolTableRecord
100
AcDbLinetypeTableRecord
  2
ACDINTGL
 70
     0
  3
_ _ _ _ _
 72
    65
 73
     2
 40
3.0
 49
2.0
 74
     0
 49
-1.0
 74
     0
  0
LTYPE
  5
6D
330
5
100
AcDbSymbolTableRecord
100
AcDbLinetypeTableRecord
  2
CENTER
 70
     0
  3
__ . __
 72
    65
 73
     4
 40
7.0
 49
4.0
 74
     0
 49
-1.0
 74
     0
 49
1.0
 74
     0
 49
-1.0
 74
     0
  0
LTYPE
  5
228
330
5
100
AcDbSymbolTableRecord
100
AcDbLinetypeTableRecord
  2
STRICHPUNKT
 70
     0
  3
Strichpunkt __ . __ . __ . __ . __ . __ . __ . 
 72
    65
 73
     4
 40
25.4
 49
12.7
 74
     0
 49
-6.349999999999999
 74
     0
 49
0.0
 74
     0
 49
-6.349999999999999
 74
     0
  0
LTYPE
  5
229
330
5
100
AcDbSymbolTableRecord
100
AcDbLinetypeTableRecord
  2
STRICHLINIE
 70
     0
  3
Strichlinie __ __ __ __ __ __ __ __ __ __ __ __
 72
    65
 73
     2
 40
19.05
 49
12.7
 74
     0
 49
-6.349999999999999
 74
     0
  0
LTYPE
  5
AE4
330
5
100
AcDbSymbolTableRecord
100
AcDbLinetypeTableRecord
  2
HIDDEN
 70
     0
  3
Verdeckt
 72
    65
 73
     2
 40
9.525
 49
6.349999999999999
 74
     0
 49
-3.174999999999999
 74
     0
  0
LTYPE
  5
AE5
330
5
100
AcDbSymbolTableRecord
100
AcDbLinetypeTableRecord
  2
PHANTOM2
 70
     0
  3
Phantom (.5x) ___ _ _ ___ _ _ ___ _ _ ___ _ _
 72
    65
 73
     6
 40
31.75
 49
15.875
 74
     0
 49
-3.174999999999999
 74
     0
 49
3.174999999999999
 74
     0
 49
-3.174999999999999
 74
     0
 49
3.174999999999999
 74
     0
 49
-3.174999999999999
 74
     0
  0
LTYPE
  5
182D
330
5
100
AcDbSymbolTableRecord
100
AcDbLinetypeTableRecord
  2
ACANSTGB
 70
     0
  3
__ . . __ . .
 72
    65
 73
     6
 40
0.35433070866
 49
0.15748031496
 74
     0
 49
-0.03937007874
 74
     0
 49
0.03937007874
 74
     0
 49
-0.03937007874
 74
     0
 49
0.03937007874
 74
     0
 49
-0.03937007874
 74
     0
  0
LTYPE
  5
182E
330
5
100
AcDbSymbolTableRecord
100
AcDbLinetypeTableRecord
  2
ACANSTGL
 70
     0
  3
_ _ _ _ _
 72
    65
 73
     2
 40
0.11811023622
 49
0.07874015748
 74
     0
 49
-0.03937007874
 74
     0
  0
ENDTAB
  0
TABLE
  2
LAYER
  5
2
102
{ACAD_XDICTIONARY
360
184D
102
}
330
0
100
AcDbSymbolTable
 70
    22
  0
LAYER
  5
10
102
{ACAD_XDICTIONARY
360
2B9F
102
}
330
2
100
AcDbSymbolTableRecord
100
AcDbLayerTableRecord
  2
0
 70
     0
 62
     7
  6
Continuous
370
    -3
390
F
  0
LAYER
  5
22A
102
{ACAD_XDICTIONARY
360
2BA1
102
}
330
2
100
AcDbSymbolTableRecord
100
AcDbLayerTableRecord
  2
P-0000
 70
     0
 62
     7
  6
Continuous
370
    -3
390
F
  0
LAYER
  5
22E
330
2
100
AcDbSymbolTableRecord
100
AcDbLayerTableRecord
  2
Defpoints
 70
     0
 62
     7
  6
Continuous
290
     0
370
    -3
390
F
  0
LAYER
  5
CC1
102
{ACAD_XDICTIONARY
360
2BA9
102
}
330
2
100
AcDbSymbolTableRecord
100
AcDbLayerTableRecord
  2
AM_5
 70
     0
 62
     3
  6
Continuous
370
    25
390
F
  0
LAYER
  5
CC2
102
{ACAD_XDICTIONARY
360
2BAB
102
}
330
2
100
AcDbSymbolTableRecord
100
AcDbLayerTableRecord
  2
AM_7
 70
     0
 62
     4
  6
AM_DIN_G_W050
370
    25
390
F
  0
LAYER
  5
1F42
102
{ACAD_XDICTIONARY
360
2BC5
102
}
330
2
100
AcDbSymbolTableRecord
100
AcDbLayerTableRecord
  2
AM_8
 70
     0
 62
     1
  6
Continuous
370
    25
390
F
  0
ENDTAB
  0
TABLE
  2
STYLE
  5
3
330
0
100
AcDbSymbolTable
 70
    16
  0
STYLE
  5
11
330
3
100
AcDbSymbolTableRecord
100
AcDbTextStyleTableRecord
  2
STANDARD
 70
     0
 40
0.0
 41
1.0
 50
0.0
 71
     0
 42
2.5
  3
ISOCP.SHX
  4

  0
STYLE
  5
56
330
3
100
AcDbSymbolTableRecord
100
AcDbTextStyleTableRecord
  2

 70
     1
 40
0.0
 41
1.0
 50
0.0
 71
     0
 42
2.5
  3
ltypeshp.shx
  4

  0
STYLE
  5
5D
330
3
100
AcDbSymbolTableRecord
100
AcDbTextStyleTableRecord
  2
ACDINTS
 70
     0
 40
1.0
 41
1.0
 50
0.0
 71
     0
 42
2.5
  3
isocp.shx
  4

  0
STYLE
  5
68
330
3
100
AcDbSymbolTableRecord
100
AcDbTextStyleTableRecord
  2
ACDINGDT
 70
     0
 40
0.0
 41
1.0
 50
0.0
 71
     0
 42
2.5
  3
amgdt.shx
  4

  0
STYLE
  5
1842
330
3
100
AcDbSymbolTableRecord
100
AcDbTextStyleTableRecord
  2
ACANSTS
 70
     0
 40
1.0
 41
1.0
 50
0.0
 71
     0
 42
2.0
  3
romans.shx
  4

  0
STYLE
  5
1843
330
3
100
AcDbSymbolTableRecord
100
AcDbTextStyleTableRecord
  2
ACANSGDT
 70
     0
 40
0.0
 41
1.0
 50
0.0
 71
     0
 42
2.0
  3
amgdtans.shx
  4

  0
ENDTAB
  0
TABLE
  2
VIEW
  5
6
330
0
100
AcDbSymbolTable
 70
     0
  0
ENDTAB
  0
TABLE
  2
UCS
  5
7
330
0
100
AcDbSymbolTable
 70
     0
  0
ENDTAB
  0
TABLE
  2
APPID
  5
9
330
0
100
AcDbSymbolTable
 70
    39
  0
APPID
  5
12
330
9
100
AcDbSymbolTableRecord
100
AcDbRegAppTableRecord
  2
ACAD
 70
     0
  0
APPID
  5
30
330
9
100
AcDbSymbolTableRecord
100
AcDbRegAppTableRecord
  2
MCAD_NO_VIS
 70
     0
  0
APPID
  5
31
330
9
100
AcDbSymbolTableRecord
100
AcDbRegAppTableRecord
  2
ACAD_TEMP_GRAPHIC
 70
     0
  0
APPID
  5
44
330
9
100
AcDbSymbolTableRecord
100
AcDbRegAppTableRecord
  2
ACATTRIBSERVICES
 70
     0
  0
APPID
  5
235
330
9
100
AcDbSymbolTableRecord
100
AcDbRegAppTableRecord
  2
ACME_LAYERS
 70
     0
  0
APPID
  5
AE7
330
9
100
AcDbSymbolTableRecord
100
AcDbRegAppTableRecord
  2
AD_DRAW
 70
     0
  0
APPID
  5
B05
330
9
100
AcDbSymbolTableRecord
100
AcDbRegAppTableRecord
  2
DESIGNERASSEMBLIES
 70
     0
  0
APPID
  5
B11
330
9
100
AcDbSymbolTableRecord
100
AcDbRegAppTableRecord
  2
ACADM_DIM_EDIT
 70
     0
  0
APPID
  5
B12
330
9
100
AcDbSymbolTableRecord
100
AcDbRegAppTableRecord
  2
AMDT_DM_ADJ
 70
     0
  0
APPID
  5
B19
330
9
100
AcDbSymbolTableRecord
100
AcDbRegAppTableRecord
  2
GENIUS_GENDIMSH_14
 70
     0
  0
APPID
  5
CC3
330
9
100
AcDbSymbolTableRecord
100
AcDbRegAppTableRecord
  2
GENIUS_GENODEF_13
 70
     0
  0
APPID
  5
CC4
330
9
100
AcDbSymbolTableRecord
100
AcDbRegAppTableRecord
  2
GENIUS_GENOBJ-N-CEN_13
 70
     0
  0
APPID
  5
CC5
330
9
100
AcDbSymbolTableRecord
100
AcDbRegAppTableRecord
  2
GENIUS_GENCEN_19
 70
     0
  0
APPID
  5
167F
330
9
100
AcDbSymbolTableRecord
100
AcDbRegAppTableRecord
  2
GENIUS_GENBLLY_14
 70
     0
  0
APPID
  5
1680
330
9
100
AcDbSymbolTableRecord
100
AcDbRegAppTableRecord
  2
GENIUS_GENCFG_13
 70
     0
  0
APPID
  5
1681
330
9
100
AcDbSymbolTableRecord
100
AcDbRegAppTableRecord
  2
GENIUS_GENCFG0_13
 70
     0
  0
APPID
  5
1682
330
9
100
AcDbSymbolTableRecord
100
AcDbRegAppTableRecord
  2
GENIUS_GENCFG1_13
 70
     0
  0
APPID
  5
1683
330
9
100
AcDbSymbolTableRecord
100
AcDbRegAppTableRecord
  2
GENIUS_GENCFG2_13
 70
     0
  0
APPID
  5
1684
330
9
100
AcDbSymbolTableRecord
100
AcDbRegAppTableRecord
  2
GENIUS_GENCFG3_13
 70
     0
  0
APPID
  5
1685
330
9
100
AcDbSymbolTableRecord
100
AcDbRegAppTableRecord
  2
GENIUS_GENCFG4_13
 70
     0
  0
APPID
  5
1686
330
9
100
AcDbSymbolTableRecord
100
AcDbRegAppTableRecord
  2
GENIUS_VERSION2
 70
     0
  0
APPID
  5
1687
330
9
100
AcDbSymbolTableRecord
100
AcDbRegAppTableRecord
  2
GENIUS_GENOENT_13
 70
     0
  0
APPID
  5
1688
330
9
100
AcDbSymbolTableRecord
100
AcDbRegAppTableRecord
  2
GENIUS_GENCFG5_13
 70
     0
  0
APPID
  5
1689
330
9
100
AcDbSymbolTableRecord
100
AcDbRegAppTableRecord
  2
GENIUS_GEVCFG0_13
 70
     0
  0
APPID
  5
168A
330
9
100
AcDbSymbolTableRecord
100
AcDbRegAppTableRecord
  2
GENIUS_GENREC_14
 70
     0
  0
APPID
  5
168B
330
9
100
AcDbSymbolTableRecord
100
AcDbRegAppTableRecord
  2
GENIUS_GENOBJ-N-REC_13
 70
     0
  0
APPID
  5
1CD8
330
9
100
AcDbSymbolTableRecord
100
AcDbRegAppTableRecord
  2
GENIUS_GENSCREG_15
 70
     0
  0
APPID
  5
1CD9
330
9
100
AcDbSymbolTableRecord
100
AcDbRegAppTableRecord
  2
GENIUS_GENOBJ-N-SDF_13
 70
     0
  0
APPID
  5
1E80
330
9
100
AcDbSymbolTableRecord
100
AcDbRegAppTableRecord
  2
GENIUS_GENOBJ-N-CRS_13
 70
     0
  0
APPID
  5
1E81
330
9
100
AcDbSymbolTableRecord
100
AcDbRegAppTableRecord
  2
GENIUS_GENOLIS_13
 70
     0
  0
APPID
  5
1E82
330
9
100
AcDbSymbolTableRecord
100
AcDbRegAppTableRecord
  2
GENIUS_GENOREF_13
 70
     0
  0
APPID
  5
1F1E
330
9
100
AcDbSymbolTableRecord
100
AcDbRegAppTableRecord
  2
GENIUS_GENDTOL_13
 70
     0
  0
APPID
  5
1F43
330
9
100
AcDbSymbolTableRecord
100
AcDbRegAppTableRecord
  2
GENIUS_GENOBJ-N-HTC_13
 70
     0
  0
APPID
  5
1F44
330
9
100
AcDbSymbolTableRecord
100
AcDbRegAppTableRecord
  2
GENIUS_GENHATCH_13
 70
     0
  0
APPID
  5
1FB3
330
9
100
AcDbSymbolTableRecord
100
AcDbRegAppTableRecord
  2
ACAD_PSEXT
 70
     0
  0
APPID
  5
2041
330
9
100
AcDbSymbolTableRecord
100
AcDbRegAppTableRecord
  2
ACAD_MLEADERVER
 70
     0
  0
APPID
  5
2B73
330
9
100
AcDbSymbolTableRecord
100
AcDbRegAppTableRecord
  2
ACAD_EXEMPT_FROM_CAD_STANDARDS
 70
     0
  0
APPID
  5
2B7A
330
9
100
AcDbSymbolTableRecord
100
AcDbRegAppTableRecord
  2
AcAecLayerStandard
 70
     0
  0
APPID
  5
2BE9
330
9
100
AcDbSymbolTableRecord
100
AcDbRegAppTableRecord
  2
ACAD_DSTYLE_DIMINSPECT
 70
     0
  0
ENDTAB
  0
TABLE
  2
DIMSTYLE
  5
A
330
0
100
AcDbSymbolTable
 70
    27
100
AcDbDimStyleTable
 71
     1
340
70
  0
DIMSTYLE
105
70
330
A
100
AcDbSymbolTableRecord
100
AcDbDimStyleTableRecord
  2
AM_DIN
 70
     0
  4
"
 41
2.5
 42
1.0
 43
10.0
 44
1.0
 47
0.1
 48
0.1
 73
     0
 74
     0
 77
     1
 78
     8
 79
     2
140
3.5
141
0.0
143
0.0393701
146
0.71
147
1.5
172
     1
176
   256
177
   256
178
     2
271
     2
272
     3
274
     4
283
     0
284
     8
340
11
371
    -1
372
    -1
  0
DIMSTYLE
105
71
330
A
100
AcDbSymbolTableRecord
100
AcDbDimStyleTableRecord
  2
AM_DIN$3
 70
     0
  4
"
 41
2.5
 42
1.0
 43
10.0
 44
1.0
 47
0.1
 48
0.1
 73
     0
 77
     1
 78
     8
 79
     2
140
3.5
141
0.0
143
0.0393701
146
0.71
147
1.5
176
   256
177
   256
178
     2
271
     2
272
     3
274
     4
283
     0
284
     8
288
     1
289
     0
340
11
371
    -1
372
    -1
  0
DIMSTYLE
105
72
330
A
100
AcDbSymbolTableRecord
100
AcDbDimStyleTableRecord
  2
AM_DIN$4
 70
     0
  4
"
 41
2.5
 42
1.0
 43
10.0
 44
1.0
 47
0.1
 48
0.1
 73
     0
 77
     1
 78
     8
 79
     2
140
3.5
141
0.0
143
0.0393701
146
0.71
147
1.5
176
   256
177
   256
178
     2
271
     2
272
     3
274
     4
283
     0
284
     8
288
     1
289
     0
340
11
371
    -1
372
    -1
  0
DIMSTYLE
105
73
330
A
100
AcDbSymbolTableRecord
100
AcDbDimStyleTableRecord
  2
AM_DIN$6
 70
     0
  4
"
 41
2.5
 42
1.0
 43
10.0
 44
1.0
 47
0.1
 48
0.1
 73
     0
 74
     0
 78
     8
 79
     2
140
3.5
141
0.0
143
0.0393701
146
0.71
147
1.5
172
     1
176
   256
177
   256
178
     2
271
     2
272
     3
274
     4
283
     0
284
     8
340
11
371
    -1
372
    -1
  0
DIMSTYLE
105
74
330
A
100
AcDbSymbolTableRecord
100
AcDbDimStyleTableRecord
  2
AM_DIN$7
 70
     0
  4
"
 41
2.5
 42
1.0
 43
10.0
 44
1.0
 47
0.1
 48
0.1
 73
     0
 74
     0
 77
     1
 78
     8
 79
     2
140
5.0
141
0.0
143
0.0393701
146
0.71
147
1.5
172
     1
176
   256
177
   256
178
     2
271
     2
272
     3
274
     4
283
     0
284
     8
340
11
371
    -1
372
    -1
  0
DIMSTYLE
105
75
330
A
100
AcDbSymbolTableRecord
100
AcDbDimStyleTableRecord
  2
AM_DIN$SF
 70
     0
  4
"
 41
2.5
 42
1.0
 43
10.0
 44
1.0
 47
0.1
 48
0.1
 73
     0
 74
     0
 75
     1
 76
     1
 77
     1
 78
     8
 79
     2
140
3.5
141
0.0
143
0.0393701
146
0.71
147
1.5
172
     1
176
   256
177
   256
178
     2
271
     2
272
     3
274
     4
283
     0
284
     8
340
11
371
    -1
372
    -1
  0
DIMSTYLE
105
7A
330
A
100
AcDbSymbolTableRecord
100
AcDbDimStyleTableRecord
  2
AM_DIN$SH
 70
     0
  4
"
 41
2.5
 42
1.0
 43
10.0
 44
1.0
 47
0.1
 48
0.1
 73
     0
 74
     0
 75
     1
 76
     1
 77
     1
 78
     8
 79
     2
140
3.5
141
0.0
143
0.0393701
144
2.0
146
0.71
147
1.5
172
     1
173
     1
176
   256
177
   256
178
     2
271
     2
272
     3
274
     4
283
     0
284
     8
340
11
343
76
371
    -1
372
    -1
  0
DIMSTYLE
105
1534
102
{ACAD_REACTORS
330
2C2D
330
2BD3
330
2C05
330
2CA1
330
2C79
102
}
330
A
100
AcDbSymbolTableRecord
100
AcDbDimStyleTableRecord
  2
AM_DIN$0
 70
     0
  4
"
 41
2.5
 42
1.0
 43
10.0
 44
1.0
 47
0.1
 48
0.1
 73
     0
 74
     0
 77
     1
 78
     8
 79
     2
140
3.5
141
0.0
143
0.0393701
146
0.71
147
1.5
172
     1
176
   256
177
   256
178
     2
271
     2
272
     3
274
     4
283
     0
284
     8
340
11
371
    -1
372
    -1
  0
DIMSTYLE
105
167E
330
A
100
AcDbSymbolTableRecord
100
AcDbDimStyleTableRecord
  2
STANDARD
 70
     0
340
11
  0
DIMSTYLE
105
1846
330
A
100
AcDbSymbolTableRecord
100
AcDbDimStyleTableRecord
  2
AM_ANSI
 70
     0
  4
mm
 41
0.1
 42
0.05
 43
0.5
 44
0.1
 47
0.1
 48
0.1
 78
     7
 79
     2
140
0.12
141
0.0
146
0.71
147
0.06
176
   256
177
   256
178
     2
274
     4
284
     7
340
11
371
    -1
372
    -1
  0
DIMSTYLE
105
1847
330
A
100
AcDbSymbolTableRecord
100
AcDbDimStyleTableRecord
  2
AM_ANSI$3
 70
     0
  4
mm
 41
0.1
 42
0.05
 43
0.5
 44
0.1
 47
0.1
 48
0.1
 78
     7
 79
     2
140
0.12
141
0.0
146
0.71
147
0.06
176
   256
177
   256
178
     2
274
     4
284
     7
288
     1
289
     0
340
11
371
    -1
372
    -1
  0
DIMSTYLE
105
1848
330
A
100
AcDbSymbolTableRecord
100
AcDbDimStyleTableRecord
  2
AM_ANSI$4
 70
     0
  4
mm
 41
0.1
 42
0.05
 43
0.5
 44
0.1
 47
0.1
 48
0.1
 78
     7
 79
     2
140
0.12
141
0.0
146
0.71
147
0.06
176
   256
177
   256
178
     2
274
     4
284
     7
288
     1
289
     0
340
11
371
    -1
372
    -1
  0
DIMSTYLE
105
1849
330
A
100
AcDbSymbolTableRecord
100
AcDbDimStyleTableRecord
  2
AM_ANSI$7
 70
     0
  4
mm
 41
0.1
 42
0.05
 43
0.5
 44
0.1
 47
0.1
 48
0.1
 78
     7
 79
     2
140
0.24
141
0.0
146
0.71
147
0.06
176
   256
177
   256
178
     2
274
     4
284
     7
340
11
371
    -1
372
    -1
  0
DIMSTYLE
105
184A
330
A
100
AcDbSymbolTableRecord
100
AcDbDimStyleTableRecord
  2
AM_ANSI$SF
 70
     0
  4
mm
 41
0.1
 42
0.05
 43
0.5
 44
0.1
 47
0.1
 48
0.1
 75
     1
 76
     1
 78
     7
 79
     2
140
0.12
141
0.0
146
0.71
147
0.06
176
   256
177
   256
178
     2
274
     4
284
     7
340
11
371
    -1
372
    -1
  0
DIMSTYLE
105
184B
330
A
100
AcDbSymbolTableRecord
100
AcDbDimStyleTableRecord
  2
AM_ANSI$SH
 70
     0
  4
mm
 41
0.1
 42
0.05
 43
0.5
 44
0.1
 47
0.1
 48
0.1
 75
     1
 76
     1
 78
     7
 79
     2
140
0.12
141
0.0
146
0.71
147
0.06
173
     1
176
   256
177
   256
178
     2
274
     4
284
     7
340
11
343
76
371
    -1
372
    -1
  0
DIMSTYLE
105
1EA7
330
A
100
AcDbSymbolTableRecord
100
AcDbDimStyleTableRecord
  2
AM_DIN$2
 70
     0
  4
"
 41
2.5
 42
1.0
 43
10.0
 44
1.0
 47
0.1
 48
0.1
 73
     0
 74
     0
 77
     1
 78
     8
 79
     2
140
3.5
141
0.0
143
0.0393701
146
0.71
147
1.5
172
     1
176
   256
177
   256
178
     2
271
     2
272
     3
274
     4
283
     0
284
     8
340
11
371
    -1
372
    -1
  0
ENDTAB
  0
TABLE
  2
BLOCK_RECORD
  5
1
330
0
100
AcDbSymbolTable
 70
   152
  0
BLOCK_RECORD
  5
1F
102
{ACAD_XDICTIONARY
360
81
102
}
330
1
100
AcDbSymbolTableRecord
100
AcDbBlockTableRecord
  2
*Model_Space
340
22
  0
BLOCK_RECORD
  5
1B
330
1
100
AcDbSymbolTableRecord
100
AcDbBlockTableRecord
  2
*Paper_Space
340
1E
  0
BLOCK_RECORD
  5
23
330
1
100
AcDbSymbolTableRecord
100
AcDbBlockTableRecord
  2
*Paper_Space0
340
26
  0
BLOCK_RECORD
  5
76
330
1
100
AcDbSymbolTableRecord
100
AcDbBlockTableRecord
  2
GENAXEH
340
0
  0
BLOCK_RECORD
  5
2BD4
330
1
100
AcDbSymbolTableRecord
100
AcDbBlockTableRecord
  2
*D147
340
0
  0
BLOCK_RECORD
  5
2C06
330
1
100
AcDbSymbolTableRecord
100
AcDbBlockTableRecord
  2
*D148
340
0
  0
BLOCK_RECORD
  5
2C2E
330
1
100
AcDbSymbolTableRecord
100
AcDbBlockTableRecord
  2
*D149
340
0
  0
BLOCK_RECORD
  5
2C7A
330
1
100
AcDbSymbolTableRecord
100
AcDbBlockTableRecord
  2
*D150
340
0
  0
BLOCK_RECORD
  5
2CA2
330
1
100
AcDbSymbolTableRecord
100
AcDbBlockTableRecord
  2
*D151
340
0
  0
ENDTAB
  0
ENDSEC
  0
SECTION
  2
BLOCKS
  0
BLOCK
  5
20
330
1F
100
AcDbEntity
  8
0
100
AcDbBlockBegin
  2
*Model_Space
 70
     0
 10
0.0
 20
0.0
 30
0.0
  3
*Model_Space
  1

  0
ENDBLK
  5
21
330
1F
100
AcDbEntity
  8
0
100
AcDbBlockEnd
  0
BLOCK
  5
1C
330
1B
100
AcDbEntity
 67
     1
  8
0
100
AcDbBlockBegin
  2
*Paper_Space
 70
     0
 10
0.0
 20
0.0
 30
0.0
  3
*Paper_Space
  1

  0
ENDBLK
  5
1D
330
1B
100
AcDbEntity
 67
     1
  8
0
100
AcDbBlockEnd
  0
BLOCK
  5
24
330
23
100
AcDbEntity
 67
     1
  8
0
100
AcDbBlockBegin
  2
*Paper_Space0
 70
     0
 10
0.0
 20
0.0
 30
0.0
  3
*Paper_Space0
  1

  0
ENDBLK
  5
25
330
23
100
AcDbEntity
 67
     1
  8
0
100
AcDbBlockEnd
  0
BLOCK
  5
78
330
76
100
AcDbEntity
  8
0
100
AcDbBlockBegin
  2
GENAXEH
 70
     0
 10
0.0
 20
0.0
 30
0.0
  3
GENAXEH
  1

  0
LINE
  5
77
330
76
100
AcDbEntity
  8
0
100
AcDbLine
 10
-1.0
 20
0.0
 30
0.0
 11
1.0
 21
0.0
 31
0.0
  0
ENDBLK
  5
79
330
76
100
AcDbEntity
  8
0
100
AcDbBlockEnd
  0
BLOCK
  5
2BD5
330
2BD4
100
AcDbEntity
  8
0
100
AcDbBlockBegin
  2
*D147
 70
     1
 10
0.0
 20
0.0
 30
0.0
  3
*D147
  1

  0
LINE
  5
2C67
330
2BD4
100
AcDbEntity
  8
AM_5
100
AcDbLine
 10
223.9183085575809
 20
436.0315376093788
 30
0.0
 11
352.61767361483
 21
436.0315376093788
 31
0.0
  0
LINE
  5
2C68
330
2BD4
100
AcDbEntity
  8
AM_5
100
AcDbLine
 10
302.8080758677441
 20
337.03718890781
 30
0.0
 11
352.6176736148299
 21
337.03718890781
 31
0.0
  0
LINE
  5
2C69
330
2BD4
100
AcDbEntity
  8
AM_5
100
AcDbLine
 10
351.61767361483
 20
433.5315376093789
 30
0.0
 11
351.6176736148299
 21
339.5371889078099
 31
0.0
  0
SOLID
  5
2C6A
330
2BD4
100
AcDbEntity
  8
AM_5
100
AcDbTrace
 10
351.2010069481633
 20
433.5315376093789
 30
0.0
 11
352.0343402814967
 21
433.5315376093789
 31
0.0
 12
351.61767361483
 22
436.0315376093788
 32
0.0
 13
351.61767361483
 23
436.0315376093788
 33
0.0
  0
SOLID
  5
2C6B
330
2BD4
100
AcDbEntity
  8
AM_5
100
AcDbTrace
 10
351.2010069481632
 20
339.5371889078099
 30
0.0
 11
352.0343402814966
 21
339.5371889078099
 31
0.0
 12
351.6176736148299
 22
337.03718890781
 32
0.0
 13
351.6176736148299
 23
337.03718890781
 33
0.0
  0
MTEXT
  5
2C6C
330
2BD4
100
AcDbEntity
  8
AM_5
 62
     2
100
AcDbMText
 10
346.1176736148299
 20
386.5343632585945
 30
0.0
 40
8.0
 41
0.0
 71
     5
 72
     1
  1
99
 11
0.0000000000000001
 21
1.0
 31
0.0
 73
     1
 44
1.0
  0
POINT
  5
2C6D
330
2BD4
100
AcDbEntity
  8
Defpoints
 62
     0
100
AcDbPoint
 10
222.9183085575809
 20
436.0315376093788
 30
0.0
  0
POINT
  5
2C6E
330
2BD4
100
AcDbEntity
  8
Defpoints
 62
     0
100
AcDbPoint
 10
301.8080758677442
 20
337.03718890781
 30
0.0
  0
POINT
  5
2C6F
330
2BD4
100
AcDbEntity
  8
Defpoints
 62
     0
100
AcDbPoint
 10
351.6176736148299
 20
337.03718890781
 30
0.0
  0
ENDBLK
  5
2BD6
330
2BD4
100
AcDbEntity
  8
0
100
AcDbBlockEnd
  0
BLOCK
  5
2C07
330
2C06
100
AcDbEntity
  8
0
100
AcDbBlockBegin
  2
*D148
 70
     1
 10
0.0
 20
0.0
 30
0.0
  3
*D148
  1

  0
LINE
  5
2C70
330
2C06
100
AcDbEntity
  8
AM_5
100
AcDbLine
 10
48.30807586775979
 20
119.5570006486966
 30
0.0
 11
48.30807586775978
 21
-16.39793583078312
 31
0.0
  0
LINE
  5
2C71
330
2C06
100
AcDbEntity
  8
AM_5
100
AcDbLine
 10
301.8080758677606
 20
119.5570006486966
 30
0.0
 11
301.8080758677606
 21
-16.39793583078312
 31
0.0
  0
LINE
  5
2C72
330
2C06
100
AcDbEntity
  8
AM_5
100
AcDbLine
 10
50.80807586775978
 20
-15.39793583078312
 30
0.0
 11
299.3080758677606
 21
-15.39793583078312
 31
0.0
  0
SOLID
  5
2C73
330
2C06
100
AcDbEntity
  8
AM_5
100
AcDbTrace
 10
50.80807586775978
 20
-14.98126916411646
 30
0.0
 11
50.80807586775978
 21
-15.81460249744979
 31
0.0
 12
48.30807586775978
 22
-15.39793583078312
 32
0.0
 13
48.30807586775978
 23
-15.39793583078312
 33
0.0
  0
SOLID
  5
2C74
330
2C06
100
AcDbEntity
  8
AM_5
100
AcDbTrace
 10
299.3080758677606
 20
-14.98126916411646
 30
0.0
 11
299.3080758677606
 21
-15.81460249744979
 31
0.0
 12
301.8080758677606
 22
-15.39793583078312
 32
0.0
 13
301.8080758677606
 23
-15.39793583078312
 33
0.0
  0
MTEXT
  5
2C75
330
2C06
100
AcDbEntity
  8
AM_5
 62
     2
100
AcDbMText
 10
175.0580758677602
 20
-9.897148429208323
 30
0.0
 40
8.0
 41
0.0
 71
     5
 72
     1
  1
254
 73
     1
 44
1.0
  0
POINT
  5
2C76
330
2C06
100
AcDbEntity
  8
Defpoints
 62
     0
100
AcDbPoint
 10
48.30807586775979
 20
120.5570006486966
 30
0.0
  0
POINT
  5
2C77
330
2C06
100
AcDbEntity
  8
Defpoints
 62
     0
100
AcDbPoint
 10
301.8080758677606
 20
120.5570006486966
 30
0.0
  0
POINT
  5
2C78
330
2C06
100
AcDbEntity
  8
Defpoints
 62
     0
100
AcDbPoint
 10
301.8080758677606
 20
-15.39793583078312
 30
0.0
  0
ENDBLK
  5
2C08
330
2C06
100
AcDbEntity
  8
0
100
AcDbBlockEnd
  0
BLOCK
  5
2C2F
330
2C2E
100
AcDbEntity
  8
0
100
AcDbBlockBegin
  2
*D149
 70
     1
 10
0.0
 20
0.0
 30
0.0
  3
*D149
  1

  0
LINE
  5
2C5E
330
2C2E
100
AcDbEntity
  8
AM_5
100
AcDbLine
 10
291.80807586776
 20
131.5570006486969
 30
0.0
 11
291.80807586776
 21
277.8003034088081
 31
0.0
  0
LINE
  5
2C5F
330
2C2E
100
AcDbEntity
  8
AM_5
100
AcDbLine
 10
58.30807586776019
 20
131.5570006486966
 30
0.0
 11
58.3080758677602
 21
277.8003034088081
 31
0.0
  0
LINE
  5
2C60
330
2C2E
100
AcDbEntity
  8
AM_5
100
AcDbLine
 10
289.3080758677601
 20
276.8003034088081
 30
0.0
 11
60.8080758677602
 21
276.8003034088081
 31
0.0
  0
SOLID
  5
2C61
330
2C2E
100
AcDbEntity
  8
AM_5
100
AcDbTrace
 10
289.3080758677601
 20
277.2169700754748
 30
0.0
 11
289.3080758677601
 21
276.3836367421414
 31
0.0
 12
291.80807586776
 22
276.8003034088081
 32
0.0
 13
291.80807586776
 23
276.8003034088081
 33
0.0
  0
SOLID
  5
2C62
330
2C2E
100
AcDbEntity
  8
AM_5
100
AcDbTrace
 10
60.8080758677602
 20
277.2169700754748
 30
0.0
 11
60.8080758677602
 21
276.3836367421414
 31
0.0
 12
58.3080758677602
 22
276.8003034088081
 32
0.0
 13
58.3080758677602
 23
276.8003034088081
 33
0.0
  0
MTEXT
  5
2C63
330
2C2E
100
AcDbEntity
  8
AM_5
 62
     2
100
AcDbMText
 10
175.0580758677601
 20
282.3010908103829
 30
0.0
 40
8.0
 41
0.0
 71
     5
 72
     1
  1
234
 73
     1
 44
1.0
  0
POINT
  5
2C64
330
2C2E
100
AcDbEntity
  8
Defpoints
 62
     0
100
AcDbPoint
 10
291.80807586776
 20
130.5570006486969
 30
0.0
  0
POINT
  5
2C65
330
2C2E
100
AcDbEntity
  8
Defpoints
 62
     0
100
AcDbPoint
 10
58.30807586776019
 20
130.5570006486966
 30
0.0
  0
POINT
  5
2C66
330
2C2E
100
AcDbEntity
  8
Defpoints
 62
     0
100
AcDbPoint
 10
58.3080758677602
 20
276.8003034088081
 30
0.0
  0
ENDBLK
  5
2C30
330
2C2E
100
AcDbEntity
  8
0
100
AcDbBlockEnd
  0
BLOCK
  5
2C7B
330
2C7A
100
AcDbEntity
  8
0
100
AcDbBlockBegin
  2
*D150
 70
     1
 10
0.0
 20
0.0
 30
0.0
  3
*D150
  1

  0
LINE
  5
2CF6
330
2C7A
100
AcDbEntity
  8
AM_5
100
AcDbLine
 10
260.0483156360314
 20
357.0315376093796
 30
0.0
 11
260.0483156360314
 21
476.1993576051875
 31
0.0
  0
LINE
  5
2CF7
330
2C7A
100
AcDbEntity
  8
AM_5
100
AcDbLine
 10
90.0483156360314
 20
357.5674359942413
 30
0.0
 11
90.04831563603142
 21
476.1993576051875
 31
0.0
  0
LINE
  5
2CF8
330
2C7A
100
AcDbEntity
  8
AM_5
100
AcDbLine
 10
257.5483156360314
 20
475.1993576051875
 30
0.0
 11
92.54831563603142
 21
475.1993576051875
 31
0.0
  0
SOLID
  5
2CF9
330
2C7A
100
AcDbEntity
  8
AM_5
100
AcDbTrace
 10
257.5483156360314
 20
475.6160242718542
 30
0.0
 11
257.5483156360314
 21
474.7826909385208
 31
0.0
 12
260.0483156360314
 22
475.1993576051875
 32
0.0
 13
260.0483156360314
 23
475.1993576051875
 33
0.0
  0
SOLID
  5
2CFA
330
2C7A
100
AcDbEntity
  8
AM_5
100
AcDbTrace
 10
92.54831563603142
 20
475.6160242718542
 30
0.0
 11
92.54831563603142
 21
474.7826909385208
 31
0.0
 12
90.04831563603142
 22
475.1993576051875
 32
0.0
 13
90.04831563603142
 23
475.1993576051875
 33
0.0
  0
MTEXT
  5
2CFB
330
2C7A
100
AcDbEntity
  8
AM_5
 62
     2
100
AcDbMText
 10
176.7342006026147
 20
480.6993576051874
 30
0.0
 40
8.0
 41
0.0
 71
     5
 72
     1
  1
%%c170
 73
     1
 44
1.0
  0
POINT
  5
2CFC
330
2C7A
100
AcDbEntity
  8
Defpoints
 62
     0
100
AcDbPoint
 10
260.0483156360314
 20
356.0315376093795
 30
0.0
  0
POINT
  5
2CFD
330
2C7A
100
AcDbEntity
  8
Defpoints
 62
     0
100
AcDbPoint
 10
90.0483156360314
 20
356.5674359942414
 30
0.0
  0
POINT
  5
2CFE
330
2C7A
100
AcDbEntity
  8
Defpoints
 62
     0
100
AcDbPoint
 10
90.04831563603142
 20
475.1993576051875
 30
0.0
  0
ENDBLK
  5
2C7C
330
2C7A
100
AcDbEntity
  8
0
100
AcDbBlockEnd
  0
BLOCK
  5
2CA3
330
2CA2
100
AcDbEntity
  8
0
100
AcDbBlockBegin
  2
*D151
 70
     1
 10
0.0
 20
0.0
 30
0.0
  3
*D151
  1

  0
LINE
  5
2CE4
330
2CA2
100
AcDbEntity
  8
AM_5
100
AcDbLine
 10
120.2962376936747
 20
434.8525564244913
 30
0.0
 11
120.2962376936747
 21
456.3729005650359
 31
0.0
  0
LINE
  5
2CE5
330
2CA2
100
AcDbEntity
  8
AM_5
100
AcDbLine
 10
229.8012257937931
 20
434.861362140847
 30
0.0
 11
229.8012257937931
 21
456.3729005650359
 31
0.0
  0
LINE
  5
2CE6
330
2CA2
100
AcDbEntity
  8
AM_5
100
AcDbLine
 10
122.7962376936746
 20
455.3729005650359
 30
0.0
 11
227.3012257937931
 21
455.3729005650359
 31
0.0
  0
SOLID
  5
2CE7
330
2CA2
100
AcDbEntity
  8
AM_5
100
AcDbTrace
 10
122.7962376936746
 20
455.7895672317026
 30
0.0
 11
122.7962376936746
 21
454.9562338983692
 31
0.0
 12
120.2962376936747
 22
455.3729005650359
 32
0.0
 13
120.2962376936747
 23
455.3729005650359
 33
0.0
  0
SOLID
  5
2CE8
330
2CA2
100
AcDbEntity
  8
AM_5
100
AcDbTrace
 10
227.3012257937931
 20
455.7895672317026
 30
0.0
 11
227.3012257937931
 21
454.9562338983692
 31
0.0
 12
229.8012257937931
 22
455.3729005650359
 32
0.0
 13
229.8012257937931
 23
455.3729005650359
 33
0.0
  0
MTEXT
  5
2CE9
330
2CA2
100
AcDbEntity
  8
AM_5
 62
     2
100
AcDbMText
 10
175.0487317437339
 20
460.8729005650359
 30
0.0
 40
8.0
 41
0.0
 71
     5
 72
     1
  1
%%c110
 73
     1
 44
1.0
  0
POINT
  5
2CEA
330
2CA2
100
AcDbEntity
  8
Defpoints
 62
     0
100
AcDbPoint
 10
120.2962376936747
 20
433.8525564244913
 30
0.0
  0
POINT
  5
2CEB
330
2CA2
100
AcDbEntity
  8
Defpoints
 62
     0
100
AcDbPoint
 10
229.8012257937931
 20
433.861362140847
 30
0.0
  0
POINT
  5
2CEC
330
2CA2
100
AcDbEntity
  8
Defpoints
 62
     0
100
AcDbPoint
 10
229.8012257937931
 20
455.3729005650359
 30
0.0
  0
ENDBLK
  5
2CA4
330
2CA2
100
AcDbEntity
  8
0
100
AcDbBlockEnd
  0
ENDSEC
  0
SECTION
  2
ENTITIES
  0
LINE
  5
FA6
330
1F
100
AcDbEntity
  8
P-0000
  6
Continuous
 62
     7
100
AcDbLine
 10
165.0580758677602
 20
257.307000648697
 30
0.0
 11
165.0580758677602
 21
247.3070006486967
 31
0.0
1001
ACME_LAYERS
1000
1
  0
LINE
  5
FA7
330
1F
100
AcDbEntity
  8
AM_7
  6
AM_DIN_G_W050x2
100
AcDbLine
 10
175.0580758677602
 20
258.3070006486967
 30
0.0
 11
175.0580758677602
 21
247.3070006486967
 31
0.0
1001
ACME_LAYERS
1000
1
  0
LINE
  5
FA8
330
1F
100
AcDbEntity
  8
P-0000
  6
Continuous
 62
     7
100
AcDbLine
 10
185.0580758677601
 20
257.307000648697
 30
0.0
 11
185.0580758677603
 21
247.3070006486967
 31
0.0
1001
ACME_LAYERS
1000
1
  0
LINE
  5
FA9
330
1F
100
AcDbEntity
  8
AM_7
  6
AM_DIN_G_W050x2
100
AcDbLine
 10
175.0580758677602
 20
258.3070006486967
 30
0.0
 11
175.0580758677602
 21
247.3070006486967
 31
0.0
1001
ACME_LAYERS
1000
1
  0
HATCH
  5
FAE
330
1F
100
AcDbEntity
  8
P-0000
  6
Continuous
 62
     1
100
AcDbHatch
 10
0.0
 20
0.0
 30
0.0
210
0.0
220
0.0
230
1.0
  2
_U
 70
     0
 71
     0
 91
        1
 92
        1
 93
       24
 72
     2
 10
77.99718469943728
 20
341.03718890781
 40
4.0
 50
-90.00000000000001
 51
-60.00000000000029
 73
     1
 72
     2
 10
77.99718469943728
 20
341.03718890781
 40
4.000000000000032
 50
-60.00000000000029
 51
-0.0000000000000127
 73
     1
 72
     1
 10
81.99718469943729
 20
341.03718890781
 11
81.99718469943729
 21
353.5315376093795
 72
     2
 10
82.49718469943728
 20
353.5315376093795
 40
0.5
 50
180.0
 51
270.0
 73
     0
 72
     1
 10
82.49718469943728
 20
354.0315376093795
 11
108.5040568618224
 21
354.0315376093795
 72
     1
 10
108.5040568618224
 20
354.0315376093795
 11
114.05807586776
 21
354.0315376093795
 72
     1
 10
114.05807586776
 20
354.0315376093795
 11
114.05807586776
 21
356.0315376093795
 72
     1
 10
114.05807586776
 20
356.0315376093795
 11
112.5580758677601
 21
356.0315376093795
 72
     2
 10
112.5580758677601
 20
356.5315376093795
 40
0.5
 50
450.0
 51
540.0
 73
     0
 72
     1
 10
112.0580758677601
 20
356.5315376093795
 11
112.0580758677601
 21
358.5315376093795
 72
     1
 10
112.0580758677601
 20
358.5315376093795
 11
110.0580758677601
 21
358.5315376093795
 72
     1
 10
110.0580758677601
 20
358.5315376093795
 11
110.0580758677601
 21
356.5315376093795
 72
     2
 10
109.5580758677601
 20
356.5315376093795
 40
0.5
 50
360.0
 51
450.0
 73
     0
 72
     1
 10
109.5580758677601
 20
356.0315376093795
 11
82.55807586775254
 21
356.0315376093796
 72
     2
 10
82.55807586775254
 20
356.5315376093796
 40
0.5
 50
450.0
 51
540.0
 73
     0
 72
     1
 10
82.05807586775256
 20
356.5315376093796
 11
82.05807586775256
 21
358.5315376093797
 72
     1
 10
82.05807586775256
 20
358.5315376093797
 11
80.05807586775254
 21
358.5315376093797
 72
     1
 10
80.05807586775254
 20
358.5315376093797
 11
80.05807586775254
 21
356.0315376093795
 72
     1
 10
80.05807586775254
 20
356.0315376093795
 11
80.05807586775254
 21
341.03718890781
 72
     2
 10
78.05807586775255
 20
341.03718890781
 40
2.0
 50
360.0
 51
450.0
 73
     0
 72
     1
 10
78.05807586775249
 20
339.03718890781
 11
70.24638407019899
 21
339.03718890781
 72
     1
 10
70.24638407019906
 20
339.03718890781
 11
63.30807586776025
 21
339.03718890781
 72
     1
 10
63.30807586776025
 20
339.03718890781
 11
63.30807586776025
 21
337.03718890781
 72
     1
 10
63.30807586776025
 20
337.03718890781
 11
77.99718469943726
 21
337.03718890781
 97
        0
 75
     0
 76
     0
 52
-45.00000000000001
 41
2.0
 77
     0
 78
     1
 53
315.0
 43
-53.62151941734547
 44
416.5759284819567
 45
1.414213562373095
 46
1.414213562373094
 79
     0
 98
        1
 10
300.9971846994372
 20
-152.3841307337191
1001
ACME_LAYERS
1000
1
  0
ARC
  5
FB1
330
1F
100
AcDbEntity
  8
P-0000
  6
Continuous
 62
     7
100
AcDbCircle
 10
78.05807586775255
 20
341.03718890781
 30
0.0
 40
2.0
100
AcDbArc
 50
270.0
 51
0.0
1001
ACME_LAYERS
1000
1
  0
ARC
  5
FB4
330
1F
100
AcDbEntity
  8
P-0000
  6
Continuous
 62
     7
100
AcDbCircle
 10
77.99718469943728
 20
341.03718890781
 30
0.0
 40
4.0
100
AcDbArc
 50
270.0
 51
300.0000000000004
1001
ACME_LAYERS
1000
1
  0
LINE
  5
FB5
330
1F
100
AcDbEntity
  8
P-0000
  6
Continuous
 62
     7
100
AcDbLine
 10
80.05807586775254
 20
356.0315376093795
 30
0.0
 11
70.24638407019906
 21
339.03718890781
 31
0.0
1001
ACME_LAYERS
1000
1
  0
LINE
  5
FDC
330
1F
100
AcDbEntity
  8
P-0000
  6
Continuous
 62
     7
100
AcDbLine
 10
63.30807586776025
 20
337.03718890781
 30
0.0
 11
53.30807586776025
 21
337.03718890781
 31
0.0
1001
ACME_LAYERS
1000
1
  0
LINE
  5
FDD
330
1F
100
AcDbEntity
  8
P-0000
  6
Continuous
 62
     7
100
AcDbLine
 10
63.30807586776025
 20
339.03718890781
 30
0.0
 11
53.30807586776025
 21
339.03718890781
 31
0.0
1001
ACME_LAYERS
1000
1
  0
HATCH
  5
FDF
330
1F
100
AcDbEntity
  8
P-0000
  6
Continuous
 62
     1
100
AcDbHatch
 10
0.0
 20
0.0
 30
0.0
210
0.0
220
0.0
230
1.0
  2
_U
 70
     0
 71
     0
 91
        1
 92
        1
 93
        4
 72
     1
 10
53.30807586776025
 20
337.03718890781
 11
48.30807586775996
 21
337.03718890781
 72
     1
 10
48.30807586775996
 20
337.03718890781
 11
48.30807586775996
 21
339.03718890781
 72
     1
 10
48.30807586775996
 20
339.03718890781
 11
53.30807586776025
 21
339.03718890781
 72
     1
 10
53.30807586776025
 20
339.03718890781
 11
53.30807586776025
 21
337.03718890781
 97
        0
 75
     0
 76
     0
 52
-45.00000000000001
 41
2.0
 77
     0
 78
     1
 53
315.0
 43
-53.62151941734547
 44
416.5759284819567
 45
1.414213562373095
 46
1.414213562373094
 79
     0
 98
        1
 10
300.9971846994372
 20
-152.3841307337191
1001
ACME_LAYERS
1000
1
  0
LINE
  5
FE0
330
1F
100
AcDbEntity
  8
P-0000
  6
Continuous
 62
     7
100
AcDbLine
 10
53.30807586776025
 20
337.03718890781
 30
0.0
 11
48.30807586775996
 21
337.03718890781
 31
0.0
1001
ACME_LAYERS
1000
1
  0
LINE
  5
FE1
330
1F
100
AcDbEntity
  8
P-0000
  6
Continuous
 62
     7
100
AcDbLine
 10
53.30807586776025
 20
339.03718890781
 30
0.0
 11
48.30807586775996
 21
339.03718890781
 31
0.0
1001
ACME_LAYERS
1000
1
  0
LINE
  5
FE2
330
1F
100
AcDbEntity
  8
P-0000
  6
Continuous
 62
     7
100
AcDbLine
 10
48.30807586775996
 20
339.03718890781
 30
0.0
 11
48.30807586775996
 21
337.03718890781
 31
0.0
1001
ACME_LAYERS
1000
1
  0
LINE
  5
FE3
330
1F
100
AcDbEntity
  8
P-0000
  6
Continuous
 62
     7
100
AcDbLine
 10
53.30807586776025
 20
339.03718890781
 30
0.0
 11
53.30807586776025
 21
337.03718890781
 31
0.0
1001
ACME_LAYERS
1000
1
  0
LINE
  5
FE4
330
1F
100
AcDbEntity
  8
AM_7
  6
AM_DIN_G_W050x2
100
AcDbLine
 10
58.30807586776025
 20
345.03718890781
 30
0.0
 11
58.30807586776025
 21
331.03718890781
 31
0.0
1001
ACME_LAYERS
1000
1
  0
LINE
  5
FE5
330
1F
100
AcDbEntity
  8
P-0000
  6
Continuous
 62
     7
100
AcDbLine
 10
70.24638407019906
 20
339.03718890781
 30
0.0
 11
63.30807586776025
 21
339.03718890781
 31
0.0
1001
ACME_LAYERS
1000
1
  0
LINE
  5
FE6
330
1F
100
AcDbEntity
  8
P-0000
  6
Continuous
 62
     7
100
AcDbLine
 10
77.99718469943723
 20
337.03718890781
 30
0.0
 11
63.30807586776025
 21
337.03718890781
 31
0.0
1001
ACME_LAYERS
1000
1
  0
LINE
  5
FE7
330
1F
100
AcDbEntity
  8
P-0000
  6
Continuous
 62
     7
100
AcDbLine
 10
63.30807586776025
 20
339.03718890781
 30
0.0
 11
63.30807586776025
 21
337.03718890781
 31
0.0
1001
ACME_LAYERS
1000
1
  0
LINE
  5
FE8
330
1F
100
AcDbEntity
  8
P-0000
  6
Continuous
 62
     7
100
AcDbLine
 10
78.05807586775249
 20
339.03718890781
 30
0.0
 11
70.24638407019906
 21
339.03718890781
 31
0.0
1001
ACME_LAYERS
1000
1
  0
HATCH
  5
1010
330
1F
100
AcDbEntity
  8
P-0000
  6
Continuous
 62
     1
100
AcDbHatch
 10
0.0
 20
0.0
 30
0.0
210
0.0
220
0.0
230
1.0
  2
_U
 70
     0
 71
     0
 91
        1
 92
        1
 93
       17
 72
     2
 10
272.0580758677517
 20
341.03718890781
 40
2.0
 50
180.0
 51
270.0
 73
     1
 72
     1
 10
272.0580758677516
 20
339.03718890781
 11
279.8697676653051
 21
339.03718890781
 72
     1
 10
279.8697676653051
 20
339.03718890781
 11
286.8080758677439
 21
339.03718890781
 72
     1
 10
286.8080758677439
 20
339.03718890781
 11
286.8080758677439
 21
337.03718890781
 72
     1
 10
286.8080758677439
 20
337.03718890781
 11
272.1189670360669
 21
337.03718890781
 72
     2
 10
272.1189670360669
 20
341.03718890781
 40
4.000000000000032
 50
450.0
 51
479.9999999999998
 73
     0
 72
     2
 10
272.1189670360669
 20
341.03718890781
 40
4.0
 50
119.9999999999997
 51
180.0
 73
     0
 72
     1
 10
268.1189670360669
 20
341.03718890781
 11
268.1189670360669
 21
353.5315376093794
 72
     2
 10
267.6189670360669
 20
353.5315376093794
 40
0.5
 50
-0.0000000000000127
 51
89.99999999999998
 73
     1
 72
     1
 10
267.6189670360669
 20
354.0315376093794
 11
259.5580758677521
 21
354.0315376093794
 72
     1
 10
259.5580758677521
 20
354.0315376093794
 11
259.5580758677521
 21
356.0315376093795
 72
     1
 10
259.5580758677521
 20
356.0315376093795
 11
267.5580758677516
 21
356.0315376093795
 72
     2
 10
267.5580758677516
 20
356.5315376093796
 40
0.5
 50
-90.00000000000001
 51
-0.0000000000000127
 73
     1
 72
     1
 10
268.0580758677517
 20
356.5315376093796
 11
268.0580758677517
 21
358.5315376093796
 72
     1
 10
268.0580758677517
 20
358.5315376093797
 11
270.0580758677517
 21
358.5315376093797
 72
     1
 10
270.0580758677517
 20
358.5315376093797
 11
270.0580758677517
 21
356.0315376093795
 72
     1
 10
270.0580758677517
 20
356.0315376093794
 11
270.0580758677517
 21
341.03718890781
 97
        0
 75
     0
 76
     0
 52
-45.00000000000001
 41
2.0
 77
     0
 78
     1
 53
315.0
 43
300.9971846994372
 44
-152.3841307337191
 45
1.414213562373095
 46
1.414213562373094
 79
     0
 98
        1
 10
300.9971846994372
 20
-152.3841307337191
1001
ACME_LAYERS
1000
1
  0
LINE
  5
1013
330
1F
100
AcDbEntity
  8
P-0000
  6
Continuous
 62
     7
100
AcDbLine
 10
240.0580758677441
 20
358.5315376093794
 30
0.0
 11
268.0580758677517
 21
358.5315376093797
 31
0.0
1001
ACME_LAYERS
1000
1
  0
LINE
  5
1014
330
1F
100
AcDbEntity
  8
P-0000
  6
Continuous
 62
     7
100
AcDbLine
 10
241.6120948736818
 20
354.0315376093794
 30
0.0
 11
270.1189670360669
 21
337.5730872926721
 31
0.0
1001
ACME_LAYERS
1000
1
  0
LINE
  5
1015
330
1F
100
AcDbEntity
  8
P-0000
  6
Continuous
 62
     7
100
AcDbLine
 10
267.6189670360669
 20
354.0315376093794
 30
0.0
 11
259.5580758677521
 21
354.0315376093794
 31
0.0
1001
ACME_LAYERS
1000
1
  0
LINE
  5
1016
330
1F
100
AcDbEntity
  8
P-0000
  6
Continuous
 62
     7
100
AcDbLine
 10
259.5580758677521
 20
356.0315376093795
 30
0.0
 11
267.5580758677516
 21
356.0315376093795
 31
0.0
1001
ACME_LAYERS
1000
1
  0
LINE
  5
1024
330
1F
100
AcDbEntity
  8
P-0000
  6
Continuous
 62
     7
100
AcDbLine
 10
165.0580758677603
 20
354.0315376093795
 30
0.0
 11
173.5580758677602
 21
354.0315376093795
 31
0.0
1001
ACME_LAYERS
1000
1
  0
LINE
  5
1025
330
1F
100
AcDbEntity
  8
P-0000
  6
STRICHLINIE
 62
     6
100
AcDbLine
 10
173.5580758677601
 20
339.03718890781
 30
0.0
 11
170.0580758677599
 21
339.03718890781
 31
0.0
1001
ACME_LAYERS
1000
1
  0
LINE
  5
1026
330
1F
100
AcDbEntity
  8
P-0000
  6
Continuous
 62
     7
100
AcDbLine
 10
180.0580758677605
 20
337.03718890781
 30
0.0
 11
170.0580758677599
 21
337.03718890781
 31
0.0
1001
ACME_LAYERS
1000
1
  0
LINE
  5
1027
330
1F
100
AcDbEntity
  8
P-0000
  6
Continuous
 62
     7
100
AcDbLine
 10
120.0580758677525
 20
356.0315376093795
 30
0.0
 11
175.0483156360314
 21
356.0315376093793
 31
0.0
1001
ACME_LAYERS
1000
1
  0
LINE
  5
102C
330
1F
100
AcDbEntity
  8
P-0000
  6
Continuous
 62
     7
100
AcDbLine
 10
120.0580758677525
 20
354.0315376093795
 30
0.0
 11
165.0580758677603
 21
354.0315376093795
 31
0.0
1001
ACME_LAYERS
1000
1
  0
LINE
  5
102D
330
1F
100
AcDbEntity
  8
P-0000
  6
Continuous
 62
     7
100
AcDbLine
 10
82.55807586775254
 20
356.0315376093796
 30
0.0
 11
109.5580758677601
 21
356.0315376093795
 31
0.0
1001
ACME_LAYERS
1000
1
  0
LINE
  5
102E
330
1F
100
AcDbEntity
  8
P-0000
  6
Continuous
 62
     7
100
AcDbLine
 10
82.05807586775256
 20
358.5315376093797
 30
0.0
 11
110.0580758677601
 21
358.5315376093795
 31
0.0
1001
ACME_LAYERS
1000
1
  0
LINE
  5
102F
330
1F
100
AcDbEntity
  8
P-0000
  6
Continuous
 62
     7
100
AcDbLine
 10
108.5040568618224
 20
354.0315376093795
 30
0.0
 11
82.49718469943728
 21
354.0315376093795
 31
0.0
1001
ACME_LAYERS
1000
1
  0
LINE
  5
1030
330
1F
100
AcDbEntity
  8
P-0000
  6
Continuous
 62
     7
100
AcDbLine
 10
79.99718469943722
 20
337.5730872926722
 30
0.0
 11
108.5040568618224
 21
354.0315376093795
 31
0.0
1001
ACME_LAYERS
1000
1
  0
LINE
  5
1031
330
1F
100
AcDbEntity
  8
P-0000
  6
Continuous
 62
     7
100
AcDbLine
 10
80.05807586775254
 20
356.0315376093795
 30
0.0
 11
80.05807586775254
 21
341.03718890781
 31
0.0
1001
ACME_LAYERS
1000
1
  0
LINE
  5
1032
330
1F
100
AcDbEntity
  8
P-0000
  6
Continuous
 62
     7
100
AcDbLine
 10
81.99718469943729
 20
353.5315376093795
 30
0.0
 11
81.99718469943729
 21
341.03718890781
 31
0.0
1001
ACME_LAYERS
1000
1
  0
LINE
  5
1033
330
1F
100
AcDbEntity
  8
P-0000
  6
Continuous
 62
     7
100
AcDbLine
 10
80.05807586775254
 20
356.0315376093795
 30
0.0
 11
80.05807586775254
 21
358.5315376093797
 31
0.0
1001
ACME_LAYERS
1000
1
  0
LINE
  5
1034
330
1F
100
AcDbEntity
  8
P-0000
  6
Continuous
 62
     7
100
AcDbLine
 10
82.05807586775256
 20
356.5315376093796
 30
0.0
 11
82.05807586775256
 21
358.5315376093797
 31
0.0
1001
ACME_LAYERS
1000
1
  0
LINE
  5
1035
330
1F
100
AcDbEntity
  8
P-0000
  6
Continuous
 62
     7
100
AcDbLine
 10
82.05807586775256
 20
358.5315376093797
 30
0.0
 11
80.05807586775254
 21
358.5315376093797
 31
0.0
1001
ACME_LAYERS
1000
1
  0
ARC
  5
1036
330
1F
100
AcDbEntity
  8
P-0000
  6
Continuous
 62
     7
100
AcDbCircle
 10
82.55807586775254
 20
356.5315376093796
 30
0.0
 40
0.5
100
AcDbArc
 50
180.0
 51
270.0
1001
ACME_LAYERS
1000
1
  0
ARC
  5
1037
330
1F
100
AcDbEntity
  8
P-0000
  6
Continuous
 62
     7
100
AcDbCircle
 10
82.49718469943728
 20
353.5315376093795
 30
0.0
 40
0.5
100
AcDbArc
 50
90.0
 51
180.0
1001
ACME_LAYERS
1000
1
  0
LINE
  5
1038
330
1F
100
AcDbEntity
  8
P-0000
  6
Continuous
 62
     7
100
AcDbLine
 10
91.54831563603066
 20
356.0315376093797
 30
0.0
 11
92.54831563603067
 21
356.0315376093796
 31
0.0
1001
ACME_LAYERS
1000
1
  0
LINE
  5
1039
330
1F
100
AcDbEntity
  8
P-0000
  6
Continuous
 62
     7
100
AcDbLine
 10
91.54831563603066
 20
356.0315376093797
 30
0.0
 11
92.54831563603067
 21
356.0315376093796
 31
0.0
1001
ACME_LAYERS
1000
1
  0
ARC
  5
103A
330
1F
100
AcDbEntity
  8
P-0000
  6
Continuous
 62
     7
100
AcDbCircle
 10
77.99718469943728
 20
341.03718890781
 30
0.0
 40
4.000000000000032
100
AcDbArc
 50
300.0000000000004
 51
0.0
1001
ACME_LAYERS
1000
1
  0
LINE
  5
103B
330
1F
100
AcDbEntity
  8
P-0000
  6
Continuous
 62
     7
100
AcDbLine
 10
112.5580758677601
 20
356.0315376093795
 30
0.0
 11
114.05807586776
 21
356.0315376093795
 31
0.0
1001
ACME_LAYERS
1000
1
  0
LINE
  5
103C
330
1F
100
AcDbEntity
  8
P-0000
  6
Continuous
 62
     7
100
AcDbLine
 10
108.5040568618224
 20
354.0315376093795
 30
0.0
 11
114.05807586776
 21
354.0315376093795
 31
0.0
1001
ACME_LAYERS
1000
1
  0
LINE
  5
103D
330
1F
100
AcDbEntity
  8
P-0000
  6
Continuous
 62
     7
100
AcDbLine
 10
112.0580758677601
 20
358.5315376093795
 30
0.0
 11
110.0580758677601
 21
358.5315376093795
 31
0.0
1001
ACME_LAYERS
1000
1
  0
LINE
  5
103E
330
1F
100
AcDbEntity
  8
P-0000
  6
Continuous
 62
     7
100
AcDbLine
 10
112.0580758677601
 20
358.5315376093795
 30
0.0
 11
112.0580758677601
 21
356.5315376093795
 31
0.0
1001
ACME_LAYERS
1000
1
  0
LINE
  5
103F
330
1F
100
AcDbEntity
  8
P-0000
  6
Continuous
 62
     7
100
AcDbLine
 10
110.0580758677601
 20
358.5315376093795
 30
0.0
 11
110.0580758677601
 21
356.5315376093795
 31
0.0
1001
ACME_LAYERS
1000
1
  0
ARC
  5
1040
330
1F
100
AcDbEntity
  8
P-0000
  6
Continuous
 62
     7
100
AcDbCircle
 10
112.5580758677601
 20
356.5315376093795
 30
0.0
 40
0.5
100
AcDbArc
 50
180.0
 51
270.0
1001
ACME_LAYERS
1000
1
  0
ARC
  5
1041
330
1F
100
AcDbEntity
  8
P-0000
  6
Continuous
 62
     7
100
AcDbCircle
 10
109.5580758677601
 20
356.5315376093795
 30
0.0
 40
0.5
100
AcDbArc
 50
270.0
 51
0.0
1001
ACME_LAYERS
1000
1
  0
LINE
  5
1042
330
1F
100
AcDbEntity
  8
P-0000
  6
Continuous
 62
     7
100
AcDbLine
 10
114.05807586776
 20
356.0315376093795
 30
0.0
 11
120.0580758677525
 21
356.0315376093795
 31
0.0
1001
ACME_LAYERS
1000
1
  0
LINE
  5
1043
330
1F
100
AcDbEntity
  8
P-0000
  6
Continuous
 62
     7
100
AcDbLine
 10
114.05807586776
 20
354.0315376093795
 30
0.0
 11
120.0580758677525
 21
354.0315376093795
 31
0.0
1001
ACME_LAYERS
1000
1
  0
LINE
  5
1044
330
1F
100
AcDbEntity
  8
P-0000
  6
Continuous
 62
     7
100
AcDbLine
 10
114.05807586776
 20
356.0315376093795
 30
0.0
 11
114.05807586776
 21
354.0315376093795
 31
0.0
1001
ACME_LAYERS
1000
1
  0
LINE
  5
1045
330
1F
100
AcDbEntity
  8
P-0000
  6
Continuous
 62
     7
100
AcDbLine
 10
165.0580758677602
 20
339.03718890781
 30
0.0
 11
165.0580758677603
 21
354.0315376093795
 31
0.0
1001
ACME_LAYERS
1000
1
  0
LINE
  5
1046
330
1F
100
AcDbEntity
  8
P-0000
  6
STRICHLINIE
 62
     6
100
AcDbLine
 10
170.0580758677599
 20
339.03718890781
 30
0.0
 11
165.0580758677602
 21
339.03718890781
 31
0.0
1001
ACME_LAYERS
1000
1
  0
LINE
  5
1047
330
1F
100
AcDbEntity
  8
P-0000
  6
Continuous
 62
     7
100
AcDbLine
 10
170.0580758677599
 20
337.03718890781
 30
0.0
 11
165.0580758677602
 21
337.03718890781
 31
0.0
1001
ACME_LAYERS
1000
1
  0
LINE
  5
1048
330
1F
100
AcDbEntity
  8
P-0000
  6
Continuous
 62
     7
100
AcDbLine
 10
165.0580758677602
 20
337.03718890781
 30
0.0
 11
165.0580758677602
 21
339.03718890781
 31
0.0
1001
ACME_LAYERS
1000
1
  0
LINE
  5
1049
330
1F
100
AcDbEntity
  8
P-0000
  6
STRICHLINIE
 62
     6
100
AcDbLine
 10
170.0580758677599
 20
339.03718890781
 30
0.0
 11
170.0580758677599
 21
337.03718890781
 31
0.0
1001
ACME_LAYERS
1000
1
  0
LINE
  5
104B
330
1F
100
AcDbEntity
  8
AM_7
  6
AM_DIN_G_W050x2
100
AcDbLine
 10
175.0483156360314
 20
356.0315376093793
 30
0.0
 11
175.0483156360315
 21
378.0315376093793
 31
0.0
1001
ACME_LAYERS
1000
1
  0
LINE
  5
1056
330
1F
100
AcDbEntity
  8
P-0000
  6
Continuous
 62
     7
100
AcDbLine
 10
175.0678360994728
 20
356.0315376093793
 30
0.0
 11
230.0580758677516
 21
356.0315376093794
 31
0.0
1001
ACME_LAYERS
1000
1
  0
LINE
  5
1057
330
1F
100
AcDbEntity
  8
P-0000
  6
Continuous
 62
     7
100
AcDbLine
 10
185.0580758677603
 20
354.0315376093795
 30
0.0
 11
236.0580758677441
 21
354.0315376093794
 31
0.0
1001
ACME_LAYERS
1000
1
  0
LINE
  5
1058
330
1F
100
AcDbEntity
  8
AM_7
  6
AM_DIN_G_W050x2
100
AcDbLine
 10
175.0580758677521
 20
353.53718890781
 30
0.0
 11
175.058075867752
 21
317.6565108385912
 31
0.0
1001
ACME_LAYERS
1000
1
  0
LINE
  5
1059
330
1F
100
AcDbEntity
  8
P-0000
  6
Continuous
 62
     7
100
AcDbLine
 10
185.0580758677602
 20
339.03718890781
 30
0.0
 11
185.0580758677603
 21
354.0315376093795
 31
0.0
1001
ACME_LAYERS
1000
1
  0
LINE
  5
105A
330
1F
100
AcDbEntity
  8
P-0000
  6
STRICHLINIE
 62
     6
100
AcDbLine
 10
176.5580758677601
 20
339.03718890781
 30
0.0
 11
176.5580758677602
 21
354.0315376093795
 31
0.0
1001
ACME_LAYERS
1000
1
  0
LINE
  5
105B
330
1F
100
AcDbEntity
  8
P-0000
  6
STRICHLINIE
 62
     6
100
AcDbLine
 10
173.5580758677601
 20
339.03718890781
 30
0.0
 11
173.5580758677602
 21
354.0315376093795
 31
0.0
1001
ACME_LAYERS
1000
1
  0
LINE
  5
105C
330
1F
100
AcDbEntity
  8
P-0000
  6
Continuous
 62
     7
100
AcDbLine
 10
176.5580758677602
 20
354.0315376093795
 30
0.0
 11
185.0580758677603
 21
354.0315376093795
 31
0.0
1001
ACME_LAYERS
1000
1
  0
LINE
  5
105D
330
1F
100
AcDbEntity
  8
P-0000
  6
Continuous
 62
     7
100
AcDbLine
 10
176.0678360994893
 20
356.0315376093793
 30
0.0
 11
185.0500916752894
 21
356.0315376093793
 31
0.0
1001
ACME_LAYERS
1000
1
  0
LINE
  5
105E
330
1F
100
AcDbEntity
  8
P-0000
  6
STRICHPUNKT
 62
     3
100
AcDbLine
 10
175.0483156360314
 20
354.0315376093795
 30
0.0
 11
175.0483156360314
 21
356.0315376093793
 31
0.0
1001
ACME_LAYERS
1000
1
  0
LINE
  5
105F
330
1F
100
AcDbEntity
  8
P-0000
  6
STRICHPUNKT
 62
     3
100
AcDbLine
 10
175.0678360994891
 20
356.0315376093793
 30
0.0
 11
175.067836099489
 21
354.0315376093795
 31
0.0
1001
ACME_LAYERS
1000
1
  0
LINE
  5
1060
330
1F
100
AcDbEntity
  8
P-0000
  6
Continuous
 62
     7
100
AcDbLine
 10
175.0678360994891
 20
356.0315376093793
 30
0.0
 11
176.0678360994893
 21
356.0315376093793
 31
0.0
1001
ACME_LAYERS
1000
1
  0
LINE
  5
1061
330
1F
100
AcDbEntity
  8
P-0000
  6
Continuous
 62
     7
100
AcDbLine
 10
173.5580758677602
 20
354.0315376093795
 30
0.0
 11
175.0483156360314
 21
354.0315376093795
 31
0.0
1001
ACME_LAYERS
1000
1
  0
LINE
  5
1062
330
1F
100
AcDbEntity
  8
P-0000
  6
Continuous
 62
     7
100
AcDbLine
 10
175.067836099489
 20
354.0315376093795
 30
0.0
 11
176.5580758677602
 21
354.0315376093795
 31
0.0
1001
ACME_LAYERS
1000
1
  0
LINE
  5
1063
330
1F
100
AcDbEntity
  8
P-0000
  6
Continuous
 62
     7
100
AcDbLine
 10
175.04831563603
 20
351.0315376093793
 30
0.0
 11
175.0483156360329
 21
351.0315376093793
 31
0.0
1001
ACME_LAYERS
1000
1
  0
LINE
  5
1064
330
1F
100
AcDbEntity
  8
P-0000
  6
Continuous
 62
     7
100
AcDbLine
 10
175.0678360994875
 20
351.0315376093793
 30
0.0
 11
175.0678360994903
 21
351.0315376093793
 31
0.0
1001
ACME_LAYERS
1000
1
  0
LINE
  5
1065
330
1F
100
AcDbEntity
  8
P-0000
  6
Continuous
 62
     7
100
AcDbLine
 10
185.0580758677602
 20
337.03718890781
 30
0.0
 11
180.0580758677605
 21
337.03718890781
 31
0.0
1001
ACME_LAYERS
1000
1
  0
LINE
  5
1066
330
1F
100
AcDbEntity
  8
P-0000
  6
STRICHLINIE
 62
     6
100
AcDbLine
 10
185.0580758677602
 20
339.03718890781
 30
0.0
 11
180.0580758677605
 21
339.03718890781
 31
0.0
1001
ACME_LAYERS
1000
1
  0
LINE
  5
1067
330
1F
100
AcDbEntity
  8
P-0000
  6
STRICHLINIE
 62
     6
100
AcDbLine
 10
180.0580758677605
 20
339.03718890781
 30
0.0
 11
176.5580758677601
 21
339.03718890781
 31
0.0
1001
ACME_LAYERS
1000
1
  0
LINE
  5
1068
330
1F
100
AcDbEntity
  8
P-0000
  6
STRICHLINIE
 62
     6
100
AcDbLine
 10
176.5580758677601
 20
339.03718890781
 30
0.0
 11
173.5580758677601
 21
339.03718890781
 31
0.0
1001
ACME_LAYERS
1000
1
  0
LINE
  5
1069
330
1F
100
AcDbEntity
  8
P-0000
  6
STRICHLINIE
 62
     6
100
AcDbLine
 10
180.0580758677605
 20
339.03718890781
 30
0.0
 11
180.0580758677605
 21
337.03718890781
 31
0.0
1001
ACME_LAYERS
1000
1
  0
LINE
  5
106A
330
1F
100
AcDbEntity
  8
P-0000
  6
Continuous
 62
     7
100
AcDbLine
 10
185.0580758677602
 20
337.03718890781
 30
0.0
 11
185.0580758677602
 21
339.03718890781
 31
0.0
1001
ACME_LAYERS
1000
1
  0
HATCH
  5
106B
330
1F
100
AcDbEntity
  8
P-0000
  6
Continuous
 62
     1
100
AcDbHatch
 10
0.0
 20
0.0
 30
0.0
210
0.0
220
0.0
230
1.0
  2
_U
 70
     0
 71
     0
 91
        1
 92
        1
 93
       11
 72
     1
 10
240.558075867744
 20
356.0315376093794
 11
252.0580758677521
 21
356.0315376093795
 72
     1
 10
252.0580758677521
 20
356.0315376093795
 11
252.0580758677521
 21
354.0315376093794
 72
     1
 10
252.0580758677521
 20
354.0315376093794
 11
241.6120948736818
 21
354.0315376093794
 72
     1
 10
241.6120948736818
 20
354.0315376093794
 11
236.0580758677441
 21
354.0315376093794
 72
     1
 10
236.0580758677441
 20
354.0315376093794
 11
236.0580758677441
 21
356.0315376093794
 72
     1
 10
236.0580758677441
 20
356.0315376093794
 11
237.558075867744
 21
356.0315376093794
 72
     2
 10
237.558075867744
 20
356.5315376093794
 40
0.5
 50
-90.00000000000001
 51
-0.0000000000000127
 73
     1
 72
     1
 10
238.0580758677441
 20
356.5315376093794
 11
238.0580758677441
 21
358.5315376093794
 72
     1
 10
238.0580758677441
 20
358.5315376093794
 11
240.0580758677441
 21
358.5315376093794
 72
     1
 10
240.0580758677441
 20
358.5315376093794
 11
240.0580758677441
 21
356.5315376093794
 72
     2
 10
240.558075867744
 20
356.5315376093794
 40
0.5
 50
180.0
 51
270.0
 73
     1
 97
        0
 75
     0
 76
     0
 52
-45.00000000000001
 41
2.0
 77
     0
 78
     1
 53
315.0
 43
-53.62151941734547
 44
416.5759284819567
 45
1.414213562373095
 46
1.414213562373094
 79
     0
 98
        1
 10
300.9971846994372
 20
-152.3841307337191
1001
ACME_LAYERS
1000
1
  0
LINE
  5
106C
330
1F
100
AcDbEntity
  8
P-0000
  6
Continuous
 62
     7
100
AcDbLine
 10
240.558075867744
 20
356.0315376093794
 30
0.0
 11
252.0580758677521
 21
356.0315376093795
 31
0.0
1001
ACME_LAYERS
1000
1
  0
LINE
  5
106D
330
1F
100
AcDbEntity
  8
P-0000
  6
Continuous
 62
     7
100
AcDbLine
 10
236.0580758677441
 20
354.0315376093794
 30
0.0
 11
241.6120948736818
 21
354.0315376093794
 31
0.0
1001
ACME_LAYERS
1000
1
  0
LINE
  5
106E
330
1F
100
AcDbEntity
  8
P-0000
  6
Continuous
 62
     7
100
AcDbLine
 10
230.0580758677516
 20
356.0315376093794
 30
0.0
 11
236.0580758677441
 21
356.0315376093794
 31
0.0
1001
ACME_LAYERS
1000
1
  0
LINE
  5
106F
330
1F
100
AcDbEntity
  8
P-0000
  6
Continuous
 62
     7
100
AcDbLine
 10
236.0580758677441
 20
354.0315376093794
 30
0.0
 11
236.0580758677441
 21
356.0315376093794
 31
0.0
1001
ACME_LAYERS
1000
1
  0
LINE
  5
1070
330
1F
100
AcDbEntity
  8
P-0000
  6
Continuous
 62
     7
100
AcDbLine
 10
236.0580758677441
 20
356.0315376093794
 30
0.0
 11
237.558075867744
 21
356.0315376093794
 31
0.0
1001
ACME_LAYERS
1000
1
  0
LINE
  5
1071
330
1F
100
AcDbEntity
  8
P-0000
  6
Continuous
 62
     7
100
AcDbLine
 10
240.0580758677441
 20
356.5315376093794
 30
0.0
 11
240.0580758677441
 21
358.5315376093794
 31
0.0
1001
ACME_LAYERS
1000
1
  0
LINE
  5
1072
330
1F
100
AcDbEntity
  8
P-0000
  6
Continuous
 62
     7
100
AcDbLine
 10
238.0580758677441
 20
356.5315376093794
 30
0.0
 11
238.0580758677441
 21
358.5315376093794
 31
0.0
1001
ACME_LAYERS
1000
1
  0
LINE
  5
1073
330
1F
100
AcDbEntity
  8
P-0000
  6
Continuous
 62
     7
100
AcDbLine
 10
240.0580758677441
 20
358.5315376093794
 30
0.0
 11
238.0580758677441
 21
358.5315376093794
 31
0.0
1001
ACME_LAYERS
1000
1
  0
ARC
  5
1074
330
1F
100
AcDbEntity
  8
P-0000
  6
Continuous
 62
     7
100
AcDbCircle
 10
240.558075867744
 20
356.5315376093794
 30
0.0
 40
0.5
100
AcDbArc
 50
180.0
 51
270.0
1001
ACME_LAYERS
1000
1
  0
ARC
  5
1075
330
1F
100
AcDbEntity
  8
P-0000
  6
Continuous
 62
     7
100
AcDbCircle
 10
237.558075867744
 20
356.5315376093794
 30
0.0
 40
0.5
100
AcDbArc
 50
270.0
 51
0.0
1001
ACME_LAYERS
1000
1
  0
LINE
  5
1076
330
1F
100
AcDbEntity
  8
P-0000
  6
Continuous
 62
     7
100
AcDbLine
 10
259.5580758677521
 20
354.0315376093794
 30
0.0
 11
252.0580758677521
 21
354.0315376093794
 31
0.0
1001
ACME_LAYERS
1000
1
  0
LINE
  5
1077
330
1F
100
AcDbEntity
  8
P-0000
  6
Continuous
 62
     7
100
AcDbLine
 10
252.0580758677521
 20
356.0315376093795
 30
0.0
 11
259.5580758677521
 21
356.0315376093795
 31
0.0
1001
ACME_LAYERS
1000
1
  0
LINE
  5
1078
330
1F
100
AcDbEntity
  8
P-0000
  6
Continuous
 62
     7
100
AcDbLine
 10
252.0580758677521
 20
354.0315376093794
 30
0.0
 11
241.6120948736818
 21
354.0315376093794
 31
0.0
1001
ACME_LAYERS
1000
1
  0
LINE
  5
1079
330
1F
100
AcDbEntity
  8
P-0000
  6
Continuous
 62
     7
100
AcDbLine
 10
252.0580758677521
 20
356.0315376093795
 30
0.0
 11
252.0580758677521
 21
354.0315376093794
 31
0.0
1001
ACME_LAYERS
1000
1
  0
LINE
  5
107A
330
1F
100
AcDbEntity
  8
P-0000
  6
Continuous
 62
     7
100
AcDbLine
 10
257.5678360994735
 20
356.0315376093795
 30
0.0
 11
258.5678360994736
 21
356.0315376093797
 31
0.0
1001
ACME_LAYERS
1000
1
  0
LINE
  5
107B
330
1F
100
AcDbEntity
  8
P-0000
  6
Continuous
 62
     7
100
AcDbLine
 10
257.5678360994735
 20
356.0315376093795
 30
0.0
 11
258.5678360994736
 21
356.0315376093797
 31
0.0
1001
ACME_LAYERS
1000
1
  0
LINE
  5
107C
330
1F
100
AcDbEntity
  8
P-0000
  6
Continuous
 62
     7
100
AcDbLine
 10
259.5580758677521
 20
356.0315376093795
 30
0.0
 11
259.5580758677521
 21
354.0315376093794
 31
0.0
1001
ACME_LAYERS
1000
1
  0
LINE
  5
107D
330
1F
100
AcDbEntity
  8
P-0000
  6
Continuous
 62
     7
100
AcDbLine
 10
165.0580758677602
 20
257.307000648697
 30
0.0
 11
185.0580758677601
 21
257.307000648697
 31
0.0
1001
ACME_LAYERS
1000
1
  0
LINE
  5
108C
330
1F
100
AcDbEntity
  8
P-0000
  6
Continuous
 62
     7
100
AcDbLine
 10
296.8080758677439
 20
339.03718890781
 30
0.0
 11
286.8080758677439
 21
339.03718890781
 31
0.0
1001
ACME_LAYERS
1000
1
  0
LINE
  5
108D
330
1F
100
AcDbEntity
  8
P-0000
  6
Continuous
 62
     7
100
AcDbLine
 10
296.8080758677439
 20
337.03718890781
 30
0.0
 11
286.8080758677439
 21
337.03718890781
 31
0.0
1001
ACME_LAYERS
1000
1
  0
LINE
  5
108E
330
1F
100
AcDbEntity
  8
P-0000
  6
Continuous
 62
     7
100
AcDbLine
 10
268.1189670360669
 20
341.03718890781
 30
0.0
 11
268.1189670360669
 21
353.5315376093794
 31
0.0
1001
ACME_LAYERS
1000
1
  0
LINE
  5
108F
330
1F
100
AcDbEntity
  8
P-0000
  6
Continuous
 62
     7
100
AcDbLine
 10
270.0580758677517
 20
341.03718890781
 30
0.0
 11
270.0580758677517
 21
356.0315376093794
 31
0.0
1001
ACME_LAYERS
1000
1
  0
LINE
  5
1090
330
1F
100
AcDbEntity
  8
P-0000
  6
Continuous
 62
     7
100
AcDbLine
 10
279.8697676653051
 20
339.03718890781
 30
0.0
 11
270.0580758677517
 21
356.0315376093794
 31
0.0
1001
ACME_LAYERS
1000
1
  0
LINE
  5
1091
330
1F
100
AcDbEntity
  8
P-0000
  6
Continuous
 62
     7
100
AcDbLine
 10
270.0580758677517
 20
358.5315376093797
 30
0.0
 11
268.0580758677517
 21
358.5315376093797
 31
0.0
1001
ACME_LAYERS
1000
1
  0
LINE
  5
1092
330
1F
100
AcDbEntity
  8
P-0000
  6
Continuous
 62
     7
100
AcDbLine
 10
268.0580758677517
 20
358.5315376093797
 30
0.0
 11
268.0580758677517
 21
356.5315376093796
 31
0.0
1001
ACME_LAYERS
1000
1
  0
ARC
  5
1093
330
1F
100
AcDbEntity
  8
P-0000
  6
Continuous
 62
     7
100
AcDbCircle
 10
267.5580758677516
 20
356.5315376093796
 30
0.0
 40
0.5
100
AcDbArc
 50
270.0
 51
0.0
1001
ACME_LAYERS
1000
1
  0
ARC
  5
1094
330
1F
100
AcDbEntity
  8
P-0000
  6
Continuous
 62
     7
100
AcDbCircle
 10
267.6189670360669
 20
353.5315376093794
 30
0.0
 40
0.5
100
AcDbArc
 50
0.0
 51
90.0
1001
ACME_LAYERS
1000
1
  0
LINE
  5
1095
330
1F
100
AcDbEntity
  8
P-0000
  6
Continuous
 62
     7
100
AcDbLine
 10
270.0580758677517
 20
358.5315376093797
 30
0.0
 11
270.0580758677517
 21
356.0315376093794
 31
0.0
1001
ACME_LAYERS
1000
1
  0
LINE
  5
1096
330
1F
100
AcDbEntity
  8
P-0000
  6
Continuous
 62
     7
100
AcDbLine
 10
279.8697676653051
 20
339.03718890781
 30
0.0
 11
272.0580758677516
 21
339.03718890781
 31
0.0
1001
ACME_LAYERS
1000
1
  0
LINE
  5
1097
330
1F
100
AcDbEntity
  8
P-0000
  6
Continuous
 62
     7
100
AcDbLine
 10
286.8080758677439
 20
337.03718890781
 30
0.0
 11
272.1189670360669
 21
337.03718890781
 31
0.0
1001
ACME_LAYERS
1000
1
  0
ARC
  5
1098
330
1F
100
AcDbEntity
  8
P-0000
  6
Continuous
 62
     7
100
AcDbCircle
 10
272.0580758677517
 20
341.03718890781
 30
0.0
 40
2.0
100
AcDbArc
 50
180.0
 51
270.0
1001
ACME_LAYERS
1000
1
  0
ARC
  5
1099
330
1F
100
AcDbEntity
  8
P-0000
  6
Continuous
 62
     7
100
AcDbCircle
 10
272.1189670360669
 20
341.03718890781
 30
0.0
 40
4.0
100
AcDbArc
 50
180.0
 51
239.9999999999995
1001
ACME_LAYERS
1000
1
  0
ARC
  5
109A
330
1F
100
AcDbEntity
  8
P-0000
  6
Continuous
 62
     7
100
AcDbCircle
 10
272.1189670360669
 20
341.03718890781
 30
0.0
 40
4.000000000000032
100
AcDbArc
 50
239.9999999999995
 51
270.0
1001
ACME_LAYERS
1000
1
  0
LINE
  5
109B
330
1F
100
AcDbEntity
  8
P-0000
  6
Continuous
 62
     7
100
AcDbLine
 10
286.8080758677439
 20
339.03718890781
 30
0.0
 11
279.8697676653051
 21
339.03718890781
 31
0.0
1001
ACME_LAYERS
1000
1
  0
LINE
  5
109C
330
1F
100
AcDbEntity
  8
P-0000
  6
Continuous
 62
     7
100
AcDbLine
 10
286.8080758677439
 20
337.03718890781
 30
0.0
 11
286.8080758677439
 21
339.03718890781
 31
0.0
1001
ACME_LAYERS
1000
1
  0
LINE
  5
109D
330
1F
100
AcDbEntity
  8
AM_7
  6
AM_DIN_G_W050x2
100
AcDbLine
 10
291.8080758677439
 20
331.0371889078099
 30
0.0
 11
291.8080758677439
 21
345.0371889078099
 31
0.0
1001
ACME_LAYERS
1000
1
  0
HATCH
  5
109E
330
1F
100
AcDbEntity
  8
P-0000
  6
Continuous
 62
     1
100
AcDbHatch
 10
0.0
 20
0.0
 30
0.0
210
0.0
220
0.0
230
1.0
  2
_U
 70
     0
 71
     0
 91
        1
 92
        1
 93
        4
 72
     1
 10
301.8080758677442
 20
337.03718890781
 11
296.8080758677439
 21
337.03718890781
 72
     1
 10
296.8080758677439
 20
337.03718890781
 11
296.8080758677439
 21
339.03718890781
 72
     1
 10
296.8080758677439
 20
339.03718890781
 11
301.8080758677442
 21
339.03718890781
 72
     1
 10
301.8080758677442
 20
339.03718890781
 11
301.8080758677442
 21
337.03718890781
 97
        0
 75
     0
 76
     0
 52
-45.00000000000001
 41
2.0
 77
     0
 78
     1
 53
315.0
 43
300.9971846994372
 44
-152.3841307337191
 45
1.414213562373095
 46
1.414213562373094
 79
     0
 98
        1
 10
300.9971846994372
 20
-152.3841307337191
1001
ACME_LAYERS
1000
1
  0
LINE
  5
109F
330
1F
100
AcDbEntity
  8
P-0000
  6
Continuous
 62
     7
100
AcDbLine
 10
301.8080758677442
 20
339.03718890781
 30
0.0
 11
296.8080758677439
 21
339.03718890781
 31
0.0
1001
ACME_LAYERS
1000
1
  0
LINE
  5
10A0
330
1F
100
AcDbEntity
  8
P-0000
  6
Continuous
 62
     7
100
AcDbLine
 10
301.8080758677442
 20
337.03718890781
 30
0.0
 11
296.8080758677439
 21
337.03718890781
 31
0.0
1001
ACME_LAYERS
1000
1
  0
LINE
  5
10A1
330
1F
100
AcDbEntity
  8
P-0000
  6
Continuous
 62
     7
100
AcDbLine
 10
296.8080758677439
 20
337.03718890781
 30
0.0
 11
296.8080758677439
 21
339.03718890781
 31
0.0
1001
ACME_LAYERS
1000
1
  0
LINE
  5
10A2
330
1F
100
AcDbEntity
  8
P-0000
  6
Continuous
 62
     7
100
AcDbLine
 10
301.8080758677442
 20
337.03718890781
 30
0.0
 11
301.8080758677442
 21
339.03718890781
 31
0.0
1001
ACME_LAYERS
1000
1
  0
ARC
  5
10B0
330
1F
100
AcDbEntity
  8
P-0000
  6
Continuous
 62
     7
100
AcDbCircle
 10
175.0580758677602
 20
130.5570006486966
 30
0.0
 40
95.00000000000754
100
AcDbArc
 50
4.528063013807845
 51
179.0952922027696
1001
ACME_LAYERS
1000
1
  0
ARC
  5
10B1
330
1F
100
AcDbEntity
  8
P-0000
  6
Continuous
 62
     7
100
AcDbCircle
 10
175.0580758677602
 20
130.5570006486966
 30
0.0
 40
95.00000000000763
100
AcDbArc
 50
180.9047077972304
 51
355.4719369861921
1001
ACME_LAYERS
1000
1
  0
LINE
  5
10B4
330
1F
100
AcDbEntity
  8
P-0000
  6
Continuous
 62
     7
100
AcDbLine
 10
58.3080758677601
 20
120.5570006486966
 30
0.0
 11
80.35459124337346
 21
120.5570006486966
 31
0.0
1001
ACME_LAYERS
1000
1
  0
LINE
  5
10B5
330
1F
100
AcDbEntity
  8
P-0000
  6
Continuous
 62
     7
100
AcDbLine
 10
58.3080758677601
 20
140.5570006486968
 30
0.0
 11
80.35459124337352
 21
140.5570006486966
 31
0.0
1001
ACME_LAYERS
1000
1
  0
LINE
  5
10B6
330
1F
100
AcDbEntity
  8
P-0000
  6
Continuous
 62
     7
100
AcDbLine
 10
70.24638407019899
 20
132.0570006486966
 30
0.0
 11
80.06991871118911
 21
132.0570006486966
 31
0.0
1001
ACME_LAYERS
1000
1
  0
LINE
  5
10B7
330
1F
100
AcDbEntity
  8
P-0000
  6
Continuous
 62
     7
100
AcDbLine
 10
70.24638407019899
 20
129.0570006486966
 30
0.0
 11
80.06991871118911
 21
129.0570006486966
 31
0.0
1001
ACME_LAYERS
1000
1
  0
LINE
  5
10B8
330
1F
100
AcDbEntity
  8
AM_7
  6
AM_DIN_G_W050x2
100
AcDbLine
 10
280.30807586776
 20
130.5570006486966
 30
0.0
 11
69.80807586776039
 21
130.5570006486966
 31
0.0
1001
ACME_LAYERS
1000
1
  0
LINE
  5
10B9
330
1F
100
AcDbEntity
  8
P-0000
  6
Continuous
 62
     7
100
AcDbLine
 10
70.24638407019899
 20
132.0570006486966
 30
0.0
 11
80.06991871118911
 21
132.0570006486966
 31
0.0
1001
ACME_LAYERS
1000
1
  0
LINE
  5
10BA
330
1F
100
AcDbEntity
  8
P-0000
  6
Continuous
 62
     7
100
AcDbLine
 10
70.24638407019899
 20
129.0570006486966
 30
0.0
 11
80.06991871118911
 21
129.0570006486966
 31
0.0
1001
ACME_LAYERS
1000
1
  0
LINE
  5
10C8
330
1F
100
AcDbEntity
  8
P-0000
  6
Continuous
 62
     7
100
AcDbLine
 10
48.30807586775979
 20
120.5570006486966
 30
0.0
 11
48.30807586775979
 21
140.5570006486966
 31
0.0
1001
ACME_LAYERS
1000
1
  0
LINE
  5
10C9
330
1F
100
AcDbEntity
  8
AM_7
  6
AM_DIN_G_W050x2
100
AcDbLine
 10
58.30807586776019
 20
141.5570006486966
 30
0.0
 11
58.30807586776019
 21
119.5570006486966
 31
0.0
1001
ACME_LAYERS
1000
1
  0
LINE
  5
10CA
330
1F
100
AcDbEntity
  8
AM_7
  6
AM_DIN_G_W050x2
100
AcDbLine
 10
58.30807586776019
 20
141.5570006486966
 30
0.0
 11
58.30807586776019
 21
119.5570006486966
 31
0.0
1001
ACME_LAYERS
1000
1
  0
LINE
  5
10CE
330
1F
100
AcDbEntity
  8
AM_7
  6
AM_DIN_G_W050x2
100
AcDbLine
 10
58.30807586776019
 20
141.5570006486966
 30
0.0
 11
58.30807586776019
 21
119.5570006486966
 31
0.0
1001
ACME_LAYERS
1000
1
  0
LINE
  5
10CF
330
1F
100
AcDbEntity
  8
AM_7
  6
AM_DIN_G_W050x2
100
AcDbLine
 10
58.30807586776019
 20
141.5570006486966
 30
0.0
 11
58.30807586776019
 21
119.5570006486966
 31
0.0
1001
ACME_LAYERS
1000
1
  0
LINE
  5
10D2
330
1F
100
AcDbEntity
  8
AM_7
  6
AM_DIN_G_W050x2
100
AcDbLine
 10
47.30807586776019
 20
130.5570006486966
 30
0.0
 11
58.30807586776019
 21
130.5570006486966
 31
0.0
1001
ACME_LAYERS
1000
1
  0
LINE
  5
10D3
330
1F
100
AcDbEntity
  8
P-0000
  6
Continuous
 62
     7
100
AcDbLine
 10
48.30807586775979
 20
140.5570006486966
 30
0.0
 11
58.3080758677601
 21
140.5570006486968
 31
0.0
1001
ACME_LAYERS
1000
1
  0
CIRCLE
  5
10D4
330
1F
100
AcDbEntity
  8
P-0000
  6
Continuous
 62
     7
100
AcDbCircle
 10
58.30807586776019
 20
130.5570006486966
 30
0.0
 40
5.000000000000312
1001
ACME_LAYERS
1000
1
  0
LINE
  5
10D5
330
1F
100
AcDbEntity
  8
AM_7
  6
AM_DIN_G_W050x2
100
AcDbLine
 10
47.30807586776019
 20
130.5570006486966
 30
0.0
 11
58.30807586776019
 21
130.5570006486966
 31
0.0
1001
ACME_LAYERS
1000
1
  0
LINE
  5
10D6
330
1F
100
AcDbEntity
  8
AM_7
  6
AM_DIN_G_W050x2
100
AcDbLine
 10
58.30807586776019
 20
130.5570006486966
 30
0.0
 11
69.80807586776039
 21
130.5570006486966
 31
0.0
1001
ACME_LAYERS
1000
1
  0
LINE
  5
10D7
330
1F
100
AcDbEntity
  8
AM_7
  6
AM_DIN_G_W050x2
100
AcDbLine
 10
58.30807586776019
 20
130.5570006486966
 30
0.0
 11
69.80807586776039
 21
130.5570006486966
 31
0.0
1001
ACME_LAYERS
1000
1
  0
LINE
  5
10D8
330
1F
100
AcDbEntity
  8
P-0000
  6
Continuous
 62
     7
100
AcDbLine
 10
70.24638407019899
 20
132.0570006486966
 30
0.0
 11
70.24638407019899
 21
129.0570006486966
 31
0.0
1001
ACME_LAYERS
1000
1
  0
LINE
  5
10D9
330
1F
100
AcDbEntity
  8
P-0000
  6
Continuous
 62
     7
100
AcDbLine
 10
70.24638407019899
 20
132.0570006486966
 30
0.0
 11
70.24638407019899
 21
129.0570006486966
 31
0.0
1001
ACME_LAYERS
1000
1
  0
LINE
  5
116D
330
1F
100
AcDbEntity
  8
P-0000
  6
Continuous
 62
     7
100
AcDbLine
 10
48.30807586775979
 20
120.5570006486966
 30
0.0
 11
58.3080758677601
 21
120.5570006486966
 31
0.0
1001
ACME_LAYERS
1000
1
  0
CIRCLE
  5
118D
330
1F
100
AcDbEntity
  8
P-0000
  6
Continuous
 62
     7
100
AcDbCircle
 10
175.0580758677602
 20
130.5570006486966
 30
0.0
 40
93.00000000000009
1001
ACME_LAYERS
1000
1
  0
LINE
  5
118F
330
1F
100
AcDbEntity
  8
P-0000
  6
STRICHLINIE
 62
     6
100
AcDbLine
 10
241.612094873698
 20
129.0570006486966
 30
0.0
 11
267.7551632006501
 21
129.0570006486966
 31
0.0
1001
ACME_LAYERS
1000
1
  0
LINE
  5
1190
330
1F
100
AcDbEntity
  8
P-0000
  6
STRICHLINIE
 62
     2
100
AcDbLine
 10
241.612094873698
 20
132.0570006486966
 30
0.0
 11
267.7551632006501
 21
132.0570006486966
 31
0.0
1001
ACME_LAYERS
1000
1
  0
LINE
  5
1191
330
1F
100
AcDbEntity
  8
P-0000
  6
STRICHLINIE
 62
     6
100
AcDbLine
 10
241.612094873698
 20
132.0570006486966
 30
0.0
 11
267.7551632006501
 21
132.0570006486966
 31
0.0
1001
ACME_LAYERS
1000
1
  0
LINE
  5
119A
330
1F
100
AcDbEntity
  8
AM_7
  6
AM_DIN_G_W050x2
100
AcDbLine
 10
175.0580758677602
 20
235.8070006486964
 30
0.0
 11
175.0580758677602
 21
67.55700064869649
 31
0.0
1001
ACME_LAYERS
1000
1
  0
LINE
  5
11A0
330
1F
100
AcDbEntity
  8
P-0000
  6
STRICHLINIE
 62
     6
100
AcDbLine
 10
82.36098853487032
 20
129.0570006486966
 30
0.0
 11
82.36098853487026
 21
120.5570006486966
 31
0.0
1001
ACME_LAYERS
1000
1
  0
ARC
  5
11A1
330
1F
100
AcDbEntity
  8
P-0000
  6
Continuous
 62
     7
100
AcDbCircle
 10
175.05807586776
 20
130.5570006486968
 30
0.0
 40
60.99999999999985
100
AcDbArc
 50
151.4090546389389
 51
163.5909453610609
1001
ACME_LAYERS
1000
1
  0
ARC
  5
11A2
330
1F
100
AcDbEntity
  8
P-0000
  6
Continuous
 62
     7
100
AcDbCircle
 10
175.0580758677602
 20
130.5570006486966
 30
0.0
 40
95.00000000000751
100
AcDbArc
 50
175.4719369861921
 51
184.5280630138078
1001
ACME_LAYERS
1000
1
  0
LINE
  5
11A4
330
1F
100
AcDbEntity
  8
P-0000
  6
STRICHPUNKT
 62
     3
100
AcDbLine
 10
186.0580758677602
 20
247.3070006486967
 30
0.0
 11
164.0580758677602
 21
247.3070006486967
 31
0.0
1001
ACME_LAYERS
1000
1
  0
LINE
  5
11A5
330
1F
100
AcDbEntity
  8
P-0000
  6
STRICHPUNKT
 62
     3
100
AcDbLine
 10
186.0580758677602
 20
247.3070006486967
 30
0.0
 11
164.0580758677602
 21
247.3070006486967
 31
0.0
1001
ACME_LAYERS
1000
1
  0
LINE
  5
11A6
330
1F
100
AcDbEntity
  8
P-0000
  6
STRICHLINIE
 62
     6
100
AcDbLine
 10
173.5580758677601
 20
223.2540879815866
 30
0.0
 11
165.0580758677602
 21
223.2540879815864
 31
0.0
1001
ACME_LAYERS
1000
1
  0
CIRCLE
  5
11A7
330
1F
100
AcDbEntity
  8
P-0000
  6
Continuous
 62
     7
100
AcDbCircle
 10
175.0580758677602
 20
247.3070006486967
 30
0.0
 40
5.000000000000284
1001
ACME_LAYERS
1000
1
  0
ARC
  5
11A8
330
1F
100
AcDbEntity
  8
P-0000
  6
Continuous
 62
     7
100
AcDbCircle
 10
175.0580758677602
 20
130.5570006486966
 30
0.0
 40
95.00000000000751
100
AcDbArc
 50
85.47193698619215
 51
94.52806301380784
1001
ACME_LAYERS
1000
1
  0
LINE
  5
11A9
330
1F
100
AcDbEntity
  8
P-0000
  6
STRICHPUNKT
 62
     3
100
AcDbLine
 10
186.0580758677602
 20
247.3070006486967
 30
0.0
 11
164.0580758677602
 21
247.3070006486967
 31
0.0
1001
ACME_LAYERS
1000
1
  0
LINE
  5
11AA
330
1F
100
AcDbEntity
  8
AM_7
  6
AM_DIN_G_W050x2
100
AcDbLine
 10
186.0580758677602
 20
247.3070006486967
 30
0.0
 11
164.0580758677602
 21
247.3070006486967
 31
0.0
1001
ACME_LAYERS
1000
1
  0
LINE
  5
11AB
330
1F
100
AcDbEntity
  8
P-0000
  6
Continuous
 62
     7
100
AcDbLine
 10
165.0580758677602
 20
247.3070006486967
 30
0.0
 11
165.0580758677602
 21
225.2604852730832
 31
0.0
1001
ACME_LAYERS
1000
1
  0
LINE
  5
11AC
330
1F
100
AcDbEntity
  8
P-0000
  6
STRICHLINIE
 62
     2
100
AcDbLine
 10
165.0580758677602
 20
225.2604852730832
 30
0.0
 11
165.0580758677602
 21
223.2540879815864
 31
0.0
1001
ACME_LAYERS
1000
1
  0
LINE
  5
11AD
330
1F
100
AcDbEntity
  8
P-0000
  6
STRICHLINIE
 62
     6
100
AcDbLine
 10
165.0580758677602
 20
225.2604852730832
 30
0.0
 11
165.0580758677602
 21
223.2540879815864
 31
0.0
1001
ACME_LAYERS
1000
1
  0
LINE
  5
11AE
330
1F
100
AcDbEntity
  8
P-0000
  6
STRICHLINIE
 62
     6
100
AcDbLine
 10
108.5040568618223
 20
132.0570006486966
 30
0.0
 11
82.36098853487032
 21
132.0570006486966
 31
0.0
1001
ACME_LAYERS
1000
1
  0
LINE
  5
11AF
330
1F
100
AcDbEntity
  8
P-0000
  6
STRICHLINIE
 62
     6
100
AcDbLine
 10
108.5040568618223
 20
129.0570006486966
 30
0.0
 11
82.36098853487032
 21
129.0570006486966
 31
0.0
1001
ACME_LAYERS
1000
1
  0
LINE
  5
11B3
330
1F
100
AcDbEntity
  8
P-0000
  6
STRICHLINIE
 62
     6
100
AcDbLine
 10
82.36098853487032
 20
140.5570006486966
 30
0.0
 11
82.36098853487032
 21
132.0570006486966
 31
0.0
1001
ACME_LAYERS
1000
1
  0
LINE
  5
11B4
330
1F
100
AcDbEntity
  8
P-0000
  6
STRICHLINIE
 62
     2
100
AcDbLine
 10
80.35459124337352
 20
140.5570006486966
 30
0.0
 11
82.36098853487032
 21
140.5570006486966
 31
0.0
1001
ACME_LAYERS
1000
1
  0
LINE
  5
11B5
330
1F
100
AcDbEntity
  8
P-0000
  6
STRICHLINIE
 62
     2
100
AcDbLine
 10
82.36098853487032
 20
132.0570006486966
 30
0.0
 11
82.36098853487032
 21
129.0570006486966
 31
0.0
1001
ACME_LAYERS
1000
1
  0
ARC
  5
11B6
330
1F
100
AcDbEntity
  8
P-0000
  6
Continuous
 62
     7
100
AcDbCircle
 10
175.0580758677602
 20
130.5570006486966
 30
0.0
 40
95.00000000000763
100
AcDbArc
 50
179.0952922027696
 51
180.9047077972304
1001
ACME_LAYERS
1000
1
  0
LINE
  5
11B7
330
1F
100
AcDbEntity
  8
P-0000
  6
STRICHLINIE
 62
     6
100
AcDbLine
 10
82.36098853487032
 20
132.0570006486966
 30
0.0
 11
82.36098853487032
 21
129.0570006486966
 31
0.0
1001
ACME_LAYERS
1000
1
  0
LINE
  5
11BA
330
1F
100
AcDbEntity
  8
P-0000
  6
STRICHLINIE
 62
     6
100
AcDbLine
 10
108.5040568618223
 20
132.0570006486966
 30
0.0
 11
108.5040568618223
 21
129.0570006486966
 31
0.0
1001
ACME_LAYERS
1000
1
  0
LINE
  5
11BC
330
1F
100
AcDbEntity
  8
P-0000
  6
STRICHLINIE
 62
     6
100
AcDbLine
 10
176.5580758677601
 20
197.1110196546345
 30
0.0
 11
176.5580758677601
 21
223.2540879815866
 31
0.0
1001
ACME_LAYERS
1000
1
  0
LINE
  5
11BD
330
1F
100
AcDbEntity
  8
P-0000
  6
STRICHLINIE
 62
     2
100
AcDbLine
 10
173.5580758677601
 20
197.1110196546345
 30
0.0
 11
173.5580758677601
 21
223.2540879815866
 31
0.0
1001
ACME_LAYERS
1000
1
  0
LINE
  5
11BE
330
1F
100
AcDbEntity
  8
P-0000
  6
STRICHLINIE
 62
     6
100
AcDbLine
 10
173.5580758677601
 20
197.1110196546345
 30
0.0
 11
173.5580758677601
 21
223.2540879815866
 31
0.0
1001
ACME_LAYERS
1000
1
  0
LINE
  5
11BF
330
1F
100
AcDbEntity
  8
P-0000
  6
Continuous
 62
     7
100
AcDbLine
 10
185.0580758677603
 20
247.3070006486967
 30
0.0
 11
185.0580758677602
 21
225.2604852730832
 31
0.0
1001
ACME_LAYERS
1000
1
  0
LINE
  5
11C0
330
1F
100
AcDbEntity
  8
P-0000
  6
STRICHPUNKT
 62
     3
100
AcDbLine
 10
175.0580758677602
 20
247.3070006486967
 30
0.0
 11
175.0580758677602
 21
235.8070006486964
 31
0.0
1001
ACME_LAYERS
1000
1
  0
LINE
  5
11C1
330
1F
100
AcDbEntity
  8
AM_7
  6
AM_DIN_G_W050x2
100
AcDbLine
 10
175.0580758677602
 20
247.3070006486967
 30
0.0
 11
175.0580758677602
 21
235.8070006486964
 31
0.0
1001
ACME_LAYERS
1000
1
  0
LINE
  5
11C2
330
1F
100
AcDbEntity
  8
P-0000
  6
STRICHLINIE
 62
     6
100
AcDbLine
 10
185.0580758677602
 20
223.2540879815864
 30
0.0
 11
176.5580758677601
 21
223.2540879815866
 31
0.0
1001
ACME_LAYERS
1000
1
  0
LINE
  5
11C3
330
1F
100
AcDbEntity
  8
P-0000
  6
Continuous
 62
     7
100
AcDbLine
 10
176.5580758677601
 20
235.3686924462579
 30
0.0
 11
176.5580758677601
 21
225.5451578052677
 31
0.0
1001
ACME_LAYERS
1000
1
  0
LINE
  5
11C4
330
1F
100
AcDbEntity
  8
P-0000
  6
Continuous
 62
     7
100
AcDbLine
 10
173.5580758677601
 20
235.3686924462579
 30
0.0
 11
173.5580758677601
 21
225.5451578052677
 31
0.0
1001
ACME_LAYERS
1000
1
  0
LINE
  5
11C5
330
1F
100
AcDbEntity
  8
P-0000
  6
Continuous
 62
     7
100
AcDbLine
 10
176.5580758677601
 20
235.3686924462579
 30
0.0
 11
176.5580758677601
 21
225.5451578052677
 31
0.0
1001
ACME_LAYERS
1000
1
  0
LINE
  5
11C6
330
1F
100
AcDbEntity
  8
P-0000
  6
Continuous
 62
     7
100
AcDbLine
 10
173.5580758677601
 20
235.3686924462579
 30
0.0
 11
173.5580758677601
 21
225.5451578052677
 31
0.0
1001
ACME_LAYERS
1000
1
  0
LINE
  5
11C7
330
1F
100
AcDbEntity
  8
P-0000
  6
Continuous
 62
     7
100
AcDbLine
 10
176.5580758677601
 20
235.3686924462579
 30
0.0
 11
173.5580758677601
 21
235.3686924462579
 31
0.0
1001
ACME_LAYERS
1000
1
  0
LINE
  5
11C8
330
1F
100
AcDbEntity
  8
P-0000
  6
Continuous
 62
     7
100
AcDbLine
 10
176.5580758677601
 20
235.3686924462579
 30
0.0
 11
173.5580758677601
 21
235.3686924462579
 31
0.0
1001
ACME_LAYERS
1000
1
  0
LINE
  5
11C9
330
1F
100
AcDbEntity
  8
P-0000
  6
STRICHLINIE
 62
     2
100
AcDbLine
 10
176.5580758677601
 20
223.2540879815866
 30
0.0
 11
173.5580758677601
 21
223.2540879815866
 31
0.0
1001
ACME_LAYERS
1000
1
  0
LINE
  5
11CA
330
1F
100
AcDbEntity
  8
P-0000
  6
STRICHLINIE
 62
     6
100
AcDbLine
 10
176.5580758677601
 20
223.2540879815866
 30
0.0
 11
173.5580758677601
 21
223.2540879815866
 31
0.0
1001
ACME_LAYERS
1000
1
  0
LINE
  5
11CB
330
1F
100
AcDbEntity
  8
P-0000
  6
STRICHLINIE
 62
     6
100
AcDbLine
 10
185.0580758677602
 20
225.2604852730832
 30
0.0
 11
185.0580758677602
 21
223.2540879815864
 31
0.0
1001
ACME_LAYERS
1000
1
  0
LINE
  5
11CC
330
1F
100
AcDbEntity
  8
P-0000
  6
STRICHLINIE
 62
     6
100
AcDbLine
 10
176.5580758677601
 20
197.1110196546345
 30
0.0
 11
173.5580758677601
 21
197.1110196546345
 31
0.0
1001
ACME_LAYERS
1000
1
  0
LINE
  5
11CE
330
1F
100
AcDbEntity
  8
P-0000
  6
Continuous
 62
     7
100
AcDbLine
 10
219.2522496919199
 20
172.6298541292963
 30
0.0
 11
219.6058030825131
 21
172.2763007387029
 31
0.0
1001
ACME_LAYERS
1000
1
  0
LINE
  5
1209
330
1F
100
AcDbEntity
  8
P-0000
  6
STRICHLINIE
 62
     6
100
AcDbLine
 10
241.612094873698
 20
129.0570006486966
 30
0.0
 11
241.612094873698
 21
132.0570006486966
 31
0.0
1001
ACME_LAYERS
1000
1
  0
LINE
  5
1211
330
1F
100
AcDbEntity
  8
P-0000
  6
Continuous
 62
     7
100
AcDbLine
 10
185.05807586776
 20
3.807000648696146
 30
0.0
 11
165.0580758677602
 21
3.807000648696146
 31
0.0
1001
ACME_LAYERS
1000
1
  0
LINE
  5
1212
330
1F
100
AcDbEntity
  8
P-0000
  6
STRICHPUNKT
 62
     3
100
AcDbLine
 10
164.0580758677602
 20
13.8070006486966
 30
0.0
 11
186.0580758677602
 21
13.8070006486966
 31
0.0
1001
ACME_LAYERS
1000
1
  0
LINE
  5
1213
330
1F
100
AcDbEntity
  8
P-0000
  6
STRICHPUNKT
 62
     3
100
AcDbLine
 10
164.0580758677602
 20
13.8070006486966
 30
0.0
 11
186.0580758677602
 21
13.8070006486966
 31
0.0
1001
ACME_LAYERS
1000
1
  0
LINE
  5
1214
330
1F
100
AcDbEntity
  8
P-0000
  6
STRICHLINIE
 62
     6
100
AcDbLine
 10
165.05807586776
 20
37.85991331580664
 30
0.0
 11
173.55807586776
 21
37.85991331580664
 31
0.0
1001
ACME_LAYERS
1000
1
  0
CIRCLE
  5
1215
330
1F
100
AcDbEntity
  8
P-0000
  6
Continuous
 62
     7
100
AcDbCircle
 10
175.0580758677602
 20
13.8070006486966
 30
0.0
 40
5.0
1001
ACME_LAYERS
1000
1
  0
ARC
  5
1216
330
1F
100
AcDbEntity
  8
P-0000
  6
Continuous
 62
     7
100
AcDbCircle
 10
175.0580758677602
 20
130.5570006486966
 30
0.0
 40
95.00000000000753
100
AcDbArc
 50
265.4719369861922
 51
274.5280630138079
1001
ACME_LAYERS
1000
1
  0
LINE
  5
1217
330
1F
100
AcDbEntity
  8
P-0000
  6
STRICHPUNKT
 62
     3
100
AcDbLine
 10
164.0580758677602
 20
13.8070006486966
 30
0.0
 11
186.0580758677602
 21
13.8070006486966
 31
0.0
1001
ACME_LAYERS
1000
1
  0
LINE
  5
1218
330
1F
100
AcDbEntity
  8
AM_7
  6
AM_DIN_G_W050x2
100
AcDbLine
 10
164.0580758677602
 20
13.8070006486966
 30
0.0
 11
186.0580758677602
 21
13.8070006486966
 31
0.0
1001
ACME_LAYERS
1000
1
  0
LINE
  5
1219
330
1F
100
AcDbEntity
  8
P-0000
  6
STRICHLINIE
 62
     6
100
AcDbLine
 10
80.35459124337346
 20
120.5570006486966
 30
0.0
 11
82.36098853487026
 21
120.5570006486966
 31
0.0
1001
ACME_LAYERS
1000
1
  0
LINE
  5
121A
330
1F
100
AcDbEntity
  8
P-0000
  6
STRICHLINIE
 62
     6
100
AcDbLine
 10
80.35459124337346
 20
120.5570006486966
 30
0.0
 11
82.36098853487026
 21
120.5570006486966
 31
0.0
1001
ACME_LAYERS
1000
1
  0
LINE
  5
121B
330
1F
100
AcDbEntity
  8
P-0000
  6
Continuous
 62
     7
100
AcDbLine
 10
133.3387757777537
 20
86.00927343394449
 30
0.0
 11
132.9852223871605
 21
86.36282682453781
 31
0.0
1001
ACME_LAYERS
1000
1
  0
LINE
  5
121C
330
1F
100
AcDbEntity
  8
P-0000
  6
Continuous
 62
     7
100
AcDbLine
 10
165.0580758677599
 20
13.80700064869649
 30
0.0
 11
165.05807586776
 21
35.85351602430984
 31
0.0
1001
ACME_LAYERS
1000
1
  0
LINE
  5
121D
330
1F
100
AcDbEntity
  8
P-0000
  6
STRICHLINIE
 62
     6
100
AcDbLine
 10
165.05807586776
 20
35.85351602430984
 30
0.0
 11
165.05807586776
 21
37.85991331580664
 31
0.0
1001
ACME_LAYERS
1000
1
  0
LINE
  5
121E
330
1F
100
AcDbEntity
  8
P-0000
  6
Continuous
 62
     7
100
AcDbLine
 10
165.0580758677602
 20
3.807000648696146
 30
0.0
 11
165.0580758677599
 21
13.80700064869649
 31
0.0
1001
ACME_LAYERS
1000
1
  0
LINE
  5
121F
330
1F
100
AcDbEntity
  8
P-0000
  6
STRICHLINIE
 62
     6
100
AcDbLine
 10
173.55807586776
 20
64.0029816427587
 30
0.0
 11
173.55807586776
 21
37.85991331580664
 31
0.0
1001
ACME_LAYERS
1000
1
  0
LINE
  5
1220
330
1F
100
AcDbEntity
  8
P-0000
  6
STRICHLINIE
 62
     6
100
AcDbLine
 10
176.55807586776
 20
64.0029816427587
 30
0.0
 11
176.55807586776
 21
37.85991331580664
 31
0.0
1001
ACME_LAYERS
1000
1
  0
LINE
  5
1221
330
1F
100
AcDbEntity
  8
P-0000
  6
STRICHLINIE
 62
     6
100
AcDbLine
 10
176.55807586776
 20
64.0029816427587
 30
0.0
 11
176.55807586776
 21
37.85991331580664
 31
0.0
1001
ACME_LAYERS
1000
1
  0
LINE
  5
1222
330
1F
100
AcDbEntity
  8
AM_7
  6
AM_DIN_G_W050x2
100
AcDbLine
 10
175.0580758677602
 20
65.55700064869649
 30
0.0
 11
175.0580758677602
 21
37.55700064869649
 31
0.0
1001
ACME_LAYERS
1000
1
  0
LINE
  5
1223
330
1F
100
AcDbEntity
  8
AM_7
  6
AM_DIN_G_W050x2
100
AcDbLine
 10
175.0580758677602
 20
67.55700064869649
 30
0.0
 11
175.0580758677602
 21
65.55700064869649
 31
0.0
1001
ACME_LAYERS
1000
1
  0
LINE
  5
1224
330
1F
100
AcDbEntity
  8
P-0000
  6
STRICHLINIE
 62
     6
100
AcDbLine
 10
173.55807586776
 20
64.0029816427587
 30
0.0
 11
176.55807586776
 21
64.0029816427587
 31
0.0
1001
ACME_LAYERS
1000
1
  0
LINE
  5
1237
330
1F
100
AcDbEntity
  8
P-0000
  6
Continuous
 62
     7
100
AcDbLine
 10
185.05807586776
 20
13.80700064869649
 30
0.0
 11
185.05807586776
 21
35.85351602430984
 31
0.0
1001
ACME_LAYERS
1000
1
  0
LINE
  5
1238
330
1F
100
AcDbEntity
  8
P-0000
  6
Continuous
 62
     7
100
AcDbLine
 10
176.55807586776
 20
25.74530885113546
 30
0.0
 11
176.55807586776
 21
35.5688434921255
 31
0.0
1001
ACME_LAYERS
1000
1
  0
LINE
  5
1239
330
1F
100
AcDbEntity
  8
P-0000
  6
Continuous
 62
     7
100
AcDbLine
 10
173.55807586776
 20
25.74530885113546
 30
0.0
 11
173.55807586776
 21
35.5688434921255
 31
0.0
1001
ACME_LAYERS
1000
1
  0
LINE
  5
123A
330
1F
100
AcDbEntity
  8
P-0000
  6
Continuous
 62
     7
100
AcDbLine
 10
176.55807586776
 20
25.74530885113546
 30
0.0
 11
176.55807586776
 21
35.5688434921255
 31
0.0
1001
ACME_LAYERS
1000
1
  0
LINE
  5
123B
330
1F
100
AcDbEntity
  8
AM_7
  6
AM_DIN_G_W050x2
100
AcDbLine
 10
175.0580758677602
 20
37.55700064869649
 30
0.0
 11
175.0580758677602
 21
25.30700064869694
 31
0.0
1001
ACME_LAYERS
1000
1
  0
LINE
  5
123C
330
1F
100
AcDbEntity
  8
P-0000
  6
Continuous
 62
     7
100
AcDbLine
 10
173.55807586776
 20
25.74530885113546
 30
0.0
 11
173.55807586776
 21
35.5688434921255
 31
0.0
1001
ACME_LAYERS
1000
1
  0
LINE
  5
123D
330
1F
100
AcDbEntity
  8
P-0000
  6
STRICHLINIE
 62
     6
100
AcDbLine
 10
176.55807586776
 20
37.85991331580664
 30
0.0
 11
185.05807586776
 21
37.85991331580664
 31
0.0
1001
ACME_LAYERS
1000
1
  0
LINE
  5
123E
330
1F
100
AcDbEntity
  8
P-0000
  6
STRICHLINIE
 62
     2
100
AcDbLine
 10
173.55807586776
 20
37.85991331580664
 30
0.0
 11
176.55807586776
 21
37.85991331580664
 31
0.0
1001
ACME_LAYERS
1000
1
  0
LINE
  5
123F
330
1F
100
AcDbEntity
  8
P-0000
  6
STRICHLINIE
 62
     6
100
AcDbLine
 10
173.55807586776
 20
37.85991331580664
 30
0.0
 11
176.55807586776
 21
37.85991331580664
 31
0.0
1001
ACME_LAYERS
1000
1
  0
LINE
  5
1240
330
1F
100
AcDbEntity
  8
P-0000
  6
STRICHLINIE
 62
     2
100
AcDbLine
 10
185.05807586776
 20
35.85351602430984
 30
0.0
 11
185.05807586776
 21
37.85991331580664
 31
0.0
1001
ACME_LAYERS
1000
1
  0
LINE
  5
1241
330
1F
100
AcDbEntity
  8
P-0000
  6
STRICHLINIE
 62
     6
100
AcDbLine
 10
185.05807586776
 20
35.85351602430984
 30
0.0
 11
185.05807586776
 21
37.85991331580664
 31
0.0
1001
ACME_LAYERS
1000
1
  0
LINE
  5
1242
330
1F
100
AcDbEntity
  8
P-0000
  6
STRICHPUNKT
 62
     3
100
AcDbLine
 10
175.0580758677602
 20
8.8070006486966
 30
0.0
 11
175.0580758677602
 21
18.8070006486966
 31
0.0
1001
ACME_LAYERS
1000
1
  0
LINE
  5
1243
330
1F
100
AcDbEntity
  8
P-0000
  6
Continuous
 62
     7
100
AcDbLine
 10
185.05807586776
 20
3.807000648696146
 30
0.0
 11
185.05807586776
 21
13.80700064869649
 31
0.0
1001
ACME_LAYERS
1000
1
  0
LINE
  5
1244
330
1F
100
AcDbEntity
  8
P-0000
  6
STRICHPUNKT
 62
     3
100
AcDbLine
 10
175.0580758677602
 20
2.8070006486966
 30
0.0
 11
175.0580758677602
 21
13.8070006486966
 31
0.0
1001
ACME_LAYERS
1000
1
  0
LINE
  5
1245
330
1F
100
AcDbEntity
  8
AM_7
  6
AM_DIN_G_W050x2
100
AcDbLine
 10
175.0580758677602
 20
2.8070006486966
 30
0.0
 11
175.0580758677602
 21
13.8070006486966
 31
0.0
1001
ACME_LAYERS
1000
1
  0
LINE
  5
1246
330
1F
100
AcDbEntity
  8
P-0000
  6
STRICHPUNKT
 62
     3
100
AcDbLine
 10
175.0580758677602
 20
13.8070006486966
 30
0.0
 11
175.0580758677602
 21
25.30700064869694
 31
0.0
1001
ACME_LAYERS
1000
1
  0
LINE
  5
1247
330
1F
100
AcDbEntity
  8
P-0000
  6
STRICHPUNKT
 62
     3
100
AcDbLine
 10
175.0580758677602
 20
13.8070006486966
 30
0.0
 11
175.0580758677602
 21
25.30700064869694
 31
0.0
1001
ACME_LAYERS
1000
1
  0
LINE
  5
1248
330
1F
100
AcDbEntity
  8
P-0000
  6
STRICHPUNKT
 62
     3
100
AcDbLine
 10
175.0580758677602
 20
18.8070006486966
 30
0.0
 11
175.0580758677602
 21
25.30700064869694
 31
0.0
1001
ACME_LAYERS
1000
1
  0
LINE
  5
1249
330
1F
100
AcDbEntity
  8
P-0000
  6
Continuous
 62
     7
100
AcDbLine
 10
173.55807586776
 20
25.74530885113546
 30
0.0
 11
176.55807586776
 21
25.74530885113546
 31
0.0
1001
ACME_LAYERS
1000
1
  0
LINE
  5
124A
330
1F
100
AcDbEntity
  8
P-0000
  6
Continuous
 62
     7
100
AcDbLine
 10
173.55807586776
 20
25.74530885113546
 30
0.0
 11
176.55807586776
 21
25.74530885113546
 31
0.0
1001
ACME_LAYERS
1000
1
  0
LINE
  5
124B
330
1F
100
AcDbEntity
  8
P-0000
  6
STRICHPUNKT
 62
     3
100
AcDbLine
 10
175.0580758677602
 20
3.307000648696828
 30
0.0
 11
175.0580758677602
 21
8.8070006486966
 31
0.0
1001
ACME_LAYERS
1000
1
  0
LINE
  5
124E
330
1F
100
AcDbEntity
  8
P-0000
  6
STRICHLINIE
 62
     6
100
AcDbLine
 10
267.75516320065
 20
120.5570006486966
 30
0.0
 11
267.7551632006501
 21
129.0570006486966
 31
0.0
1001
ACME_LAYERS
1000
1
  0
ARC
  5
124F
330
1F
100
AcDbEntity
  8
P-0000
  6
Continuous
 62
     7
100
AcDbCircle
 10
175.0580758677602
 20
130.5570006486966
 30
0.0
 40
95.00000000000753
100
AcDbArc
 50
355.4719369861921
 51
4.528063013807845
1001
ACME_LAYERS
1000
1
  0
LINE
  5
1250
330
1F
100
AcDbEntity
  8
P-0000
  6
Continuous
 62
     7
100
AcDbLine
 10
301.8080758677606
 20
140.5570006486966
 30
0.0
 11
301.8080758677606
 21
120.5570006486966
 31
0.0
1001
ACME_LAYERS
1000
1
  0
LINE
  5
1251
330
1F
100
AcDbEntity
  8
AM_7
  6
AM_DIN_G_W050x2
100
AcDbLine
 10
291.80807586776
 20
119.5570006486969
 30
0.0
 11
291.80807586776
 21
141.5570006486969
 31
0.0
1001
ACME_LAYERS
1000
1
  0
LINE
  5
1252
330
1F
100
AcDbEntity
  8
AM_7
  6
AM_DIN_G_W050x2
100
AcDbLine
 10
291.80807586776
 20
119.5570006486969
 30
0.0
 11
291.80807586776
 21
141.5570006486969
 31
0.0
1001
ACME_LAYERS
1000
1
  0
CIRCLE
  5
1253
330
1F
100
AcDbEntity
  8
P-0000
  6
Continuous
 62
     7
100
AcDbCircle
 10
291.80807586776
 20
130.5570006486969
 30
0.0
 40
5.0
1001
ACME_LAYERS
1000
1
  0
LINE
  5
1254
330
1F
100
AcDbEntity
  8
P-0000
  6
Continuous
 62
     7
100
AcDbLine
 10
291.8080758677603
 20
140.5570006486966
 30
0.0
 11
269.7615604921469
 21
140.5570006486966
 31
0.0
1001
ACME_LAYERS
1000
1
  0
LINE
  5
1255
330
1F
100
AcDbEntity
  8
AM_7
  6
AM_DIN_G_W050x2
100
AcDbLine
 10
291.80807586776
 20
130.5570006486969
 30
0.0
 11
280.30807586776
 21
130.5570006486966
 31
0.0
1001
ACME_LAYERS
1000
1
  0
LINE
  5
1256
330
1F
100
AcDbEntity
  8
P-0000
  6
Continuous
 62
     7
100
AcDbLine
 10
279.8697676653213
 20
129.057000648697
 30
0.0
 11
270.0462330243311
 21
129.057000648697
 31
0.0
1001
ACME_LAYERS
1000
1
  0
LINE
  5
1257
330
1F
100
AcDbEntity
  8
P-0000
  6
Continuous
 62
     7
100
AcDbLine
 10
279.8697676653214
 20
132.0570006486966
 30
0.0
 11
270.0462330243312
 21
132.0570006486966
 31
0.0
1001
ACME_LAYERS
1000
1
  0
LINE
  5
1258
330
1F
100
AcDbEntity
  8
P-0000
  6
STRICHLINIE
 62
     6
100
AcDbLine
 10
267.7551632006501
 20
132.0570006486966
 30
0.0
 11
267.7551632006501
 21
140.5570006486966
 31
0.0
1001
ACME_LAYERS
1000
1
  0
LINE
  5
1259
330
1F
100
AcDbEntity
  8
P-0000
  6
STRICHLINIE
 62
     6
100
AcDbLine
 10
269.7615604921469
 20
140.5570006486966
 30
0.0
 11
267.7551632006501
 21
140.5570006486966
 31
0.0
1001
ACME_LAYERS
1000
1
  0
LINE
  5
125A
330
1F
100
AcDbEntity
  8
P-0000
  6
STRICHLINIE
 62
     6
100
AcDbLine
 10
267.7551632006501
 20
129.0570006486966
 30
0.0
 11
267.7551632006501
 21
132.0570006486966
 31
0.0
1001
ACME_LAYERS
1000
1
  0
LINE
  5
125B
330
1F
100
AcDbEntity
  8
P-0000
  6
Continuous
 62
     7
100
AcDbLine
 10
279.8697676653213
 20
129.057000648697
 30
0.0
 11
279.8697676653214
 21
132.0570006486966
 31
0.0
1001
ACME_LAYERS
1000
1
  0
LINE
  5
125C
330
1F
100
AcDbEntity
  8
P-0000
  6
Continuous
 62
     7
100
AcDbLine
 10
301.8080758677606
 20
140.5570006486966
 30
0.0
 11
291.8080758677603
 21
140.5570006486966
 31
0.0
1001
ACME_LAYERS
1000
1
  0
LINE
  5
125D
330
1F
100
AcDbEntity
  8
AM_7
  6
AM_DIN_G_W050x2
100
AcDbLine
 10
302.8080758677601
 20
130.5570006486969
 30
0.0
 11
291.80807586776
 21
130.5570006486969
 31
0.0
1001
ACME_LAYERS
1000
1
  0
LINE
  5
1262
330
1F
100
AcDbEntity
  8
P-0000
  6
Continuous
 62
     7
100
AcDbLine
 10
291.8080758677602
 20
120.5570006486965
 30
0.0
 11
269.7615604921468
 21
120.5570006486966
 31
0.0
1001
ACME_LAYERS
1000
1
  0
LINE
  5
1263
330
1F
100
AcDbEntity
  8
P-0000
  6
STRICHLINIE
 62
     6
100
AcDbLine
 10
269.7615604921468
 20
120.5570006486966
 30
0.0
 11
267.75516320065
 21
120.5570006486966
 31
0.0
1001
ACME_LAYERS
1000
1
  0
LINE
  5
1264
330
1F
100
AcDbEntity
  8
P-0000
  6
Continuous
 62
     7
100
AcDbLine
 10
301.8080758677606
 20
120.5570006486966
 30
0.0
 11
291.8080758677602
 21
120.5570006486965
 31
0.0
1001
ACME_LAYERS
1000
1
  0
HATCH
  5
29B0
330
1F
100
AcDbEntity
  8
P-0000
  6
Continuous
 62
     1
100
AcDbHatch
 10
0.0
 20
0.0
 30
0.0
210
0.0
220
0.0
230
1.0
  2
_U
 70
     0
 71
     0
 91
        1
 92
        1
 93
        6
 72
     1
 10
175.0483156360314
 20
436.0315376093789
 11
175.0483156360314
 21
421.0315376093789
 72
     1
 10
175.0483156360314
 20
421.0315376093789
 11
173.5483156360314
 21
421.0315376093789
 72
     1
 10
173.5483156360314
 20
421.0315376093789
 11
170.9441525799972
 21
421.0315376093789
 72
     1
 10
170.9441525799972
 20
421.0315376093789
 11
170.9441525799972
 21
432.0315376093789
 72
     1
 10
170.9441525799972
 20
432.0315376093789
 11
170.9441525799972
 21
436.0315376093789
 72
     1
 10
170.9441525799972
 20
436.0315376093789
 11
175.0483156360314
 21
436.0315376093789
 97
        0
 75
     0
 76
     0
 52
44.99999999999999
 41
1.0
 77
     0
 78
     1
 53
44.99999999999999
 43
300.9971846994376
 44
-132.4473180589755
 45
-0.7071067811865474
 46
0.7071067811865478
 79
     0
 98
        1
 10
300.9971846994376
 20
-132.4473180589755
1001
ACME_LAYERS
1000
1
  0
LINE
  5
29B1
330
1F
100
AcDbEntity
  8
P-0000
  6
Continuous
 62
     7
100
AcDbLine
 10
173.5483156360314
 20
398.0315376093793
 30
0.0
 11
121.5483156360314
 21
398.0315376093793
 31
0.0
1001
ACME_LAYERS
1000
1
  0
LINE
  5
29B2
330
1F
100
AcDbEntity
  8
P-0000
  6
Continuous
 62
     7
100
AcDbLine
 10
173.5483156360314
 20
421.0315376093789
 30
0.0
 11
170.9441525799972
 21
421.0315376093789
 31
0.0
1001
ACME_LAYERS
1000
1
  0
LINE
  5
29B3
330
1F
100
AcDbEntity
  8
P-0000
  6
Continuous
 62
     7
100
AcDbLine
 10
175.0483156360314
 20
436.0315376093789
 30
0.0
 11
170.9441525799972
 21
436.0315376093789
 31
0.0
1001
ACME_LAYERS
1000
1
  0
LINE
  5
29B4
330
1F
100
AcDbEntity
  8
P-0000
  6
Continuous
 62
     7
100
AcDbLine
 10
107.2726126211668
 20
362.0315376093793
 30
0.0
 11
173.5483156360314
 21
362.0315376093793
 31
0.0
1001
ACME_LAYERS
1000
1
  0
LINE
  5
29B5
330
1F
100
AcDbEntity
  8
P-0000
  6
Continuous
 62
     7
100
AcDbLine
 10
122.5483156360314
 20
404.0011867090113
 30
0.0
 11
173.5483156360314
 21
404.0011867090113
 31
0.0
1001
ACME_LAYERS
1000
1
  0
LINE
  5
29B6
330
1F
100
AcDbEntity
  8
P-0000
  6
Continuous
 62
     7
100
AcDbLine
 10
173.5483156360314
 20
356.0315376093793
 30
0.0
 11
107.2726126211668
 21
356.031537609379
 31
0.0
1001
ACME_LAYERS
1000
1
  0
LINE
  5
29B8
330
1F
100
AcDbEntity
  8
P-0000
  6
Continuous
 62
     7
100
AcDbLine
 10
120.375541054751
 20
398.0315376093793
 30
0.0
 11
107.2726126211668
 21
362.0315376093793
 31
0.0
1001
ACME_LAYERS
1000
1
  0
LINE
  5
29BA
330
1F
100
AcDbEntity
  8
P-0000
  6
Continuous
 62
     7
100
AcDbLine
 10
132.7505290198027
 20
432.0315376093789
 30
0.0
 11
122.5483156360314
 21
404.0011867090113
 31
0.0
1001
ACME_LAYERS
1000
1
  0
HATCH
  5
29BC
330
1F
100
AcDbEntity
  8
P-0000
  6
Continuous
 62
     3
100
AcDbHatch
 10
0.0
 20
0.0
 30
0.0
210
0.0
220
0.0
230
1.0
  2
_U
 70
     0
 71
     0
 91
        1
 92
        1
 93
        4
 72
     1
 10
122.5483156360314
 20
404.0011867090113
 11
122.5483156360314
 21
399.0315376093793
 72
     2
 10
121.5483156360314
 20
399.0315376093793
 40
1.0
 50
360.0
 51
450.0
 73
     0
 72
     1
 10
121.5483156360314
 20
398.0315376093793
 11
120.3755410547511
 21
398.0315376093793
 72
     1
 10
120.375541054751
 20
398.0315376093793
 11
122.5483156360313
 21
404.0011867090113
 97
        0
 75
     0
 76
     0
 52
44.99999999999999
 41
1.0
 77
     0
 78
     1
 53
44.99999999999999
 43
300.9971846994376
 44
-132.4473180589755
 45
-0.7071067811865474
 46
0.7071067811865478
 79
     0
 98
        1
 10
300.9971846994376
 20
-132.4473180589755
1001
ACME_LAYERS
1000
1
  0
LINE
  5
29BD
330
1F
100
AcDbEntity
  8
P-0000
  6
Continuous
 62
     7
100
AcDbLine
 10
122.5483156360314
 20
404.0011867090113
 30
0.0
 11
122.5483156360314
 21
399.0315376093793
 31
0.0
1001
ACME_LAYERS
1000
1
  0
LINE
  5
29BE
330
1F
100
AcDbEntity
  8
P-0000
  6
Continuous
 62
     7
100
AcDbLine
 10
122.5483156360314
 20
404.0011867090113
 30
0.0
 11
120.375541054751
 21
398.0315376093793
 31
0.0
1001
ACME_LAYERS
1000
1
  0
ARC
  5
29BF
330
1F
100
AcDbEntity
  8
P-0000
  6
Continuous
 62
     7
100
AcDbCircle
 10
121.5483156360314
 20
399.0315376093793
 30
0.0
 40
1.0
100
AcDbArc
 50
270.0
 51
0.0
1001
ACME_LAYERS
1000
1
  0
LINE
  5
29C0
330
1F
100
AcDbEntity
  8
P-0000
  6
Continuous
 62
     7
100
AcDbLine
 10
121.5483156360314
 20
398.0315376093793
 30
0.0
 11
120.375541054751
 21
398.0315376093793
 31
0.0
1001
ACME_LAYERS
1000
1
  0
LINE
  5
29C1
330
1F
100
AcDbEntity
  8
P-0000
  6
Continuous
 62
     7
100
AcDbLine
 10
134.1786770265449
 20
432.0315376093789
 30
0.0
 11
135.1183696473308
 21
432.6895174660532
 31
0.0
1001
ACME_LAYERS
1000
1
  0
LINE
  5
29C2
330
1F
100
AcDbEntity
  8
P-0000
  6
Continuous
 62
     7
100
AcDbLine
 10
170.9441525799972
 20
436.0315376093789
 30
0.0
 11
136.3347655018195
 21
436.0315376093789
 31
0.0
1001
ACME_LAYERS
1000
1
  0
LINE
  5
29C3
330
1F
100
AcDbEntity
  8
P-0000
  6
Continuous
 62
     7
100
AcDbLine
 10
136.3347655018195
 20
436.0315376093789
 30
0.0
 11
135.1183696473308
 21
432.6895174660532
 31
0.0
1001
ACME_LAYERS
1000
1
  0
LINE
  5
29C4
330
1F
100
AcDbEntity
  8
P-0000
  6
Continuous
 62
     7
100
AcDbLine
 10
136.3347655018195
 20
436.0315376093789
 30
0.0
 11
134.2064099568677
 21
436.0315376093789
 31
0.0
1001
ACME_LAYERS
1000
1
  0
LINE
  5
29C5
330
1F
100
AcDbEntity
  8
P-0000
  6
Continuous
 62
     7
100
AcDbLine
 10
134.2064099568677
 20
436.0315376093789
 30
0.0
 11
127.1783227144819
 21
436.0315376093789
 31
0.0
1001
ACME_LAYERS
1000
1
  0
HATCH
  5
29C6
330
1F
100
AcDbEntity
  8
P-0000
  6
Continuous
 62
     1
100
AcDbHatch
 10
0.0
 20
0.0
 30
0.0
210
0.0
220
0.0
230
1.0
  2
_U
 70
     0
 71
     0
 91
        1
 92
        1
 93
        5
 72
     1
 10
136.3347655018195
 20
436.0315376093789
 11
135.1183696473308
 21
432.6895174660532
 72
     2
 10
134.1786770265449
 20
433.0315376093789
 40
1.0
 50
380.0000000000031
 51
450.0
 73
     0
 72
     1
 10
134.1786770265449
 20
432.0315376093789
 11
132.7505290198027
 21
432.0315376093789
 72
     1
 10
132.7505290198027
 20
432.0315376093789
 11
134.2064099568678
 21
436.0315376093789
 72
     1
 10
134.2064099568677
 20
436.0315376093789
 11
136.3347655018195
 21
436.0315376093789
 97
        0
 75
     0
 76
     0
 52
44.99999999999999
 41
1.0
 77
     0
 78
     1
 53
44.99999999999999
 43
0.0
 44
0.0
 45
-0.7071067811865474
 46
0.7071067811865478
 79
     0
 98
        1
 10
300.9971846994376
 20
-132.4473180589755
1001
ACME_LAYERS
1000
1
1001
ACAD
1010
0.0
1020
0.0
1030
0.0
  0
LINE
  5
29C7
330
1F
100
AcDbEntity
  8
P-0000
  6
Continuous
 62
     7
100
AcDbLine
 10
134.2064099568677
 20
436.0315376093789
 30
0.0
 11
132.7505290198027
 21
432.0315376093789
 31
0.0
1001
ACME_LAYERS
1000
1
  0
ARC
  5
29C8
330
1F
100
AcDbEntity
  8
P-0000
  6
Continuous
 62
     7
100
AcDbCircle
 10
134.1786770265449
 20
433.0315376093789
 30
0.0
 40
1.0
100
AcDbArc
 50
270.0
 51
339.9999999999965
1001
ACME_LAYERS
1000
1
  0
LINE
  5
29C9
330
1F
100
AcDbEntity
  8
P-0000
  6
Continuous
 62
     7
100
AcDbLine
 10
134.1786770265449
 20
432.0315376093789
 30
0.0
 11
132.7505290198027
 21
432.0315376093789
 31
0.0
1001
ACME_LAYERS
1000
1
  0
LINE
  5
29CA
330
1F
100
AcDbEntity
  8
P-0000
  6
Continuous
 62
     7
100
AcDbLine
 10
170.9441525799972
 20
421.0315376093789
 30
0.0
 11
170.9441525799972
 21
432.0315376093789
 31
0.0
1001
ACME_LAYERS
1000
1
  0
LINE
  5
29CB
330
1F
100
AcDbEntity
  8
P-0000
  6
Continuous
 62
     7
100
AcDbLine
 10
170.9441525799972
 20
432.0315376093789
 30
0.0
 11
170.9441525799972
 21
436.0315376093789
 31
0.0
1001
ACME_LAYERS
1000
1
  0
LINE
  5
29CC
330
1F
100
AcDbEntity
  8
P-0000
  6
Continuous
 62
     7
100
AcDbLine
 10
104.2726126211668
 20
356.031537609379
 30
0.0
 11
90.0483156360314
 21
356.0315376093793
 31
0.0
1001
ACME_LAYERS
1000
1
  0
LINE
  5
29CE
330
1F
100
AcDbEntity
  8
P-0000
  6
Continuous
 62
     7
100
AcDbLine
 10
90.0483156360314
 20
357.1033343791035
 30
0.0
 11
90.0483156360314
 21
356.0315376093793
 31
0.0
1001
ACME_LAYERS
1000
1
  0
LINE
  5
29CF
330
1F
100
AcDbEntity
  8
P-0000
  6
Continuous
 62
     7
100
AcDbLine
 10
107.2726126211668
 20
356.031537609379
 30
0.0
 11
104.2726126211668
 21
356.031537609379
 31
0.0
1001
ACME_LAYERS
1000
1
  0
LINE
  5
29D0
330
1F
100
AcDbEntity
  8
P-0000
  6
Continuous
 62
     7
100
AcDbLine
 10
104.2726126211668
 20
362.0315376093793
 30
0.0
 11
107.2726126211668
 21
362.0315376093793
 31
0.0
1001
ACME_LAYERS
1000
1
  0
LINE
  5
29D1
330
1F
100
AcDbEntity
  8
P-0000
  6
Continuous
 62
     7
100
AcDbLine
 10
104.2726126211668
 20
362.0315376093793
 30
0.0
 11
104.2726126211668
 21
356.031537609379
 31
0.0
1001
ACME_LAYERS
1000
1
  0
LINE
  5
29D2
330
1F
100
AcDbEntity
  8
P-0000
  6
Continuous
 62
     7
100
AcDbLine
 10
107.2726126211668
 20
362.0315376093793
 30
0.0
 11
107.2726126211668
 21
356.031537609379
 31
0.0
1001
ACME_LAYERS
1000
1
  0
LINE
  5
29D3
330
1F
100
AcDbEntity
  8
P-0000
  6
Continuous
 62
     7
100
AcDbLine
 10
173.5483156360314
 20
398.0315376093793
 30
0.0
 11
173.5483156360314
 21
362.0315376093793
 31
0.0
1001
ACME_LAYERS
1000
1
  0
LINE
  5
29D4
330
1F
100
AcDbEntity
  8
P-0000
  6
Continuous
 62
     7
100
AcDbLine
 10
176.5483156360314
 20
398.0315376093793
 30
0.0
 11
176.5483156360314
 21
362.0315376093793
 31
0.0
1001
ACME_LAYERS
1000
1
  0
LINE
  5
29D5
330
1F
100
AcDbEntity
  8
P-0000
  6
Continuous
 62
     7
100
AcDbLine
 10
251.4959860470116
 20
380.6006668086685
 30
0.0
 11
252.4747752632965
 21
377.9114655385202
 31
0.0
1001
ACME_LAYERS
1000
1
  0
LINE
  5
29D6
330
1F
100
AcDbEntity
  8
P-0000
  6
Continuous
 62
     7
100
AcDbLine
 10
242.824018650896
 20
362.0315376093791
 30
0.0
 11
229.7210902173116
 21
398.0315376093792
 31
0.0
1001
ACME_LAYERS
1000
1
  0
LINE
  5
29D7
330
1F
100
AcDbEntity
  8
P-0000
  6
Continuous
 62
     7
100
AcDbLine
 10
176.5483156360314
 20
404.0011867090113
 30
0.0
 11
227.5483156360314
 21
404.0011867090113
 31
0.0
1001
ACME_LAYERS
1000
1
  0
LINE
  5
29D8
330
1F
100
AcDbEntity
  8
P-0000
  6
Continuous
 62
     7
100
AcDbLine
 10
176.5483156360314
 20
404.0011867090113
 30
0.0
 11
227.5483156360314
 21
404.0011867090113
 31
0.0
1001
ACME_LAYERS
1000
1
  0
LINE
  5
29D9
330
1F
100
AcDbEntity
  8
P-0000
  6
Continuous
 62
     7
100
AcDbLine
 10
222.9183085575809
 20
436.0315376093789
 30
0.0
 11
215.8902213151951
 21
436.0315376093789
 31
0.0
1001
ACME_LAYERS
1000
1
  0
LINE
  5
29DA
330
1F
100
AcDbEntity
  8
P-0000
  6
Continuous
 62
     7
100
AcDbLine
 10
228.5483156360314
 20
398.0315376093792
 30
0.0
 11
176.5483156360314
 21
398.0315376093793
 31
0.0
1001
ACME_LAYERS
1000
1
  0
LINE
  5
29DB
330
1F
100
AcDbEntity
  8
P-0000
  6
Continuous
 62
     7
100
AcDbLine
 10
221.3497748291886
 20
421.0315376093789
 30
0.0
 11
179.1524786920656
 21
421.0315376093789
 31
0.0
1001
ACME_LAYERS
1000
1
  0
LINE
  5
29DC
330
1F
100
AcDbEntity
  8
P-0000
  6
Continuous
 62
     7
100
AcDbLine
 10
173.5483156360314
 20
421.0315376093789
 30
0.0
 11
173.5483156360314
 21
404.0011867090113
 31
0.0
1001
ACME_LAYERS
1000
1
  0
LINE
  5
29DD
330
1F
100
AcDbEntity
  8
P-0000
  6
Continuous
 62
     7
100
AcDbLine
 10
176.5483156360314
 20
421.0315376093789
 30
0.0
 11
176.5483156360314
 21
404.0011867090113
 31
0.0
1001
ACME_LAYERS
1000
1
  0
LINE
  5
29DE
330
1F
100
AcDbEntity
  8
P-0000
  6
Continuous
 62
     7
100
AcDbLine
 10
213.7618657702432
 20
436.0315376093789
 30
0.0
 11
179.1524786920656
 21
436.0315376093789
 31
0.0
1001
ACME_LAYERS
1000
1
  0
HATCH
  5
29DF
330
1F
100
AcDbEntity
  8
P-0000
  6
Continuous
 62
     1
100
AcDbHatch
 10
0.0
 20
0.0
 30
0.0
210
0.0
220
0.0
230
1.0
  2
_U
 70
     0
 71
     0
 91
        1
 92
        1
 93
        5
 72
     1
 10
179.1524786920656
 20
436.0315376093789
 11
179.1524786920656
 21
421.0315376093789
 72
     1
 10
179.1524786920656
 20
421.0315376093789
 11
176.5483156360313
 21
421.0315376093789
 72
     1
 10
176.5483156360314
 20
421.0315376093789
 11
175.0483156360314
 21
421.0315376093789
 72
     1
 10
175.0483156360314
 20
421.0315376093789
 11
175.0483156360314
 21
436.0315376093789
 72
     1
 10
175.0483156360314
 20
436.0315376093789
 11
179.1524786920656
 21
436.0315376093789
 97
        0
 75
     0
 76
     0
 52
44.99999999999999
 41
1.0
 77
     0
 78
     1
 53
44.99999999999999
 43
300.9971846994376
 44
-132.4473180589755
 45
-0.7071067811865474
 46
0.7071067811865478
 79
     0
 98
        1
 10
300.9971846994376
 20
-132.4473180589755
1001
ACME_LAYERS
1000
1
  0
LINE
  5
29E0
330
1F
100
AcDbEntity
  8
P-0000
  6
Continuous
 62
     7
100
AcDbLine
 10
179.1524786920656
 20
436.0315376093789
 30
0.0
 11
179.1524786920656
 21
421.0315376093789
 31
0.0
1001
ACME_LAYERS
1000
1
  0
LINE
  5
29E1
330
1F
100
AcDbEntity
  8
P-0000
  6
Continuous
 62
     7
100
AcDbLine
 10
179.1524786920656
 20
436.0315376093789
 30
0.0
 11
175.0483156360314
 21
436.0315376093789
 31
0.0
1001
ACME_LAYERS
1000
1
  0
LINE
  5
29E2
330
1F
100
AcDbEntity
  8
P-0000
  6
Continuous
 62
     7
100
AcDbLine
 10
179.1524786920656
 20
421.0315376093789
 30
0.0
 11
176.5483156360314
 21
421.0315376093789
 31
0.0
1001
ACME_LAYERS
1000
1
  0
LINE
  5
29E3
330
1F
100
AcDbEntity
  8
P-0000
  6
Continuous
 62
     7
100
AcDbLine
 10
176.5483156360314
 20
421.0315376093789
 30
0.0
 11
175.0483156360314
 21
421.0315376093789
 31
0.0
1001
ACME_LAYERS
1000
1
  0
LINE
  5
29E4
330
1F
100
AcDbEntity
  8
P-0000
  6
Continuous
 62
     7
100
AcDbLine
 10
175.0483156360314
 20
421.0315376093789
 30
0.0
 11
173.5483156360314
 21
421.0315376093789
 31
0.0
1001
ACME_LAYERS
1000
1
  0
HATCH
  5
29E5
330
1F
100
AcDbEntity
  8
P-0000
  6
Continuous
 62
     1
100
AcDbHatch
 10
0.0
 20
0.0
 30
0.0
210
0.0
220
0.0
230
1.0
  2
_U
 70
     0
 71
     0
 91
        1
 92
        1
 93
        5
 72
     1
 10
217.34610225226
 20
432.0315376093789
 11
215.8902213151951
 21
436.0315376093789
 72
     1
 10
215.8902213151951
 20
436.0315376093789
 11
213.7618657702432
 21
436.0315376093789
 72
     1
 10
213.7618657702432
 20
436.0315376093789
 11
214.9782616247319
 21
432.6895174660532
 72
     2
 10
215.9179542455178
 20
433.0315376093789
 40
1.000000000000016
 50
200.0000000000031
 51
270.0
 73
     1
 72
     1
 10
215.9179542455178
 20
432.0315376093789
 11
217.34610225226
 21
432.0315376093789
 97
        0
 75
     0
 76
     0
 52
44.99999999999999
 41
1.0
 77
     0
 78
     1
 53
44.99999999999999
 43
2.457288399971091
 44
474.5296206413583
 45
-0.7071067811865474
 46
0.7071067811865478
 79
     0
 98
        1
 10
300.9971846994376
 20
-132.4473180589755
1001
ACME_LAYERS
1000
1
  0
LINE
  5
29E6
330
1F
100
AcDbEntity
  8
P-0000
  6
Continuous
 62
     7
100
AcDbLine
 10
214.9782616247319
 20
432.6895174660532
 30
0.0
 11
213.7618657702432
 21
436.0315376093789
 31
0.0
1001
ACME_LAYERS
1000
1
  0
LINE
  5
29E7
330
1F
100
AcDbEntity
  8
P-0000
  6
Continuous
 62
     7
100
AcDbLine
 10
217.34610225226
 20
432.0315376093789
 30
0.0
 11
215.8902213151951
 21
436.0315376093789
 31
0.0
1001
ACME_LAYERS
1000
1
  0
LINE
  5
29E8
330
1F
100
AcDbEntity
  8
P-0000
  6
Continuous
 62
     7
100
AcDbLine
 10
215.8902213151951
 20
436.0315376093789
 30
0.0
 11
213.7618657702432
 21
436.0315376093789
 31
0.0
1001
ACME_LAYERS
1000
1
  0
ARC
  5
29E9
330
1F
100
AcDbEntity
  8
P-0000
  6
Continuous
 62
     7
100
AcDbCircle
 10
215.9179542455178
 20
433.0315376093789
 30
0.0
 40
1.000000000000016
100
AcDbArc
 50
200.0000000000035
 51
270.0
1001
ACME_LAYERS
1000
1
  0
ARC
  5
29EA
330
1F
100
AcDbEntity
  8
P-0000
  6
Continuous
 62
     7
100
AcDbCircle
 10
215.9179542455178
 20
433.0315376093789
 30
0.0
 40
1.000000000000016
100
AcDbArc
 50
200.0000000000035
 51
270.0
1001
ACME_LAYERS
1000
1
  0
LINE
  5
29EB
330
1F
100
AcDbEntity
  8
P-0000
  6
Continuous
 62
     7
100
AcDbLine
 10
217.34610225226
 20
432.0315376093789
 30
0.0
 11
215.9179542455178
 21
432.0315376093789
 31
0.0
1001
ACME_LAYERS
1000
1
  0
LINE
  5
29EC
330
1F
100
AcDbEntity
  8
P-0000
  6
Continuous
 62
     7
100
AcDbLine
 10
173.5483156360314
 20
404.0011867090113
 30
0.0
 11
175.0483156360314
 21
404.0011867090113
 31
0.0
1001
ACME_LAYERS
1000
1
  0
LINE
  5
29ED
330
1F
100
AcDbEntity
  8
P-0000
  6
Continuous
 62
     7
100
AcDbLine
 10
175.0483156360314
 20
404.0011867090113
 30
0.0
 11
176.5483156360314
 21
404.0011867090113
 31
0.0
1001
ACME_LAYERS
1000
1
  0
LINE
  5
29EE
330
1F
100
AcDbEntity
  8
P-0000
  6
Continuous
 62
     7
100
AcDbLine
 10
175.0483156360314
 20
404.0011867090113
 30
0.0
 11
176.5483156360314
 21
404.0011867090113
 31
0.0
1001
ACME_LAYERS
1000
1
  0
LINE
  5
29EF
330
1F
100
AcDbEntity
  8
P-0000
  6
Continuous
 62
     7
100
AcDbLine
 10
176.5483156360314
 20
398.0315376093793
 30
0.0
 11
175.0483156360314
 21
398.0315376093793
 31
0.0
1001
ACME_LAYERS
1000
1
  0
LINE
  5
29F0
330
1F
100
AcDbEntity
  8
P-0000
  6
Continuous
 62
     7
100
AcDbLine
 10
175.0483156360314
 20
398.0315376093793
 30
0.0
 11
173.5483156360314
 21
398.0315376093793
 31
0.0
1001
ACME_LAYERS
1000
1
  0
LINE
  5
29F1
330
1F
100
AcDbEntity
  8
P-0000
  6
Continuous
 62
     7
100
AcDbLine
 10
234.1946200070118
 20
428.1357793292867
 30
0.0
 11
251.4959860470116
 21
380.6006668086685
 31
0.0
1001
ACME_LAYERS
1000
1
  0
LINE
  5
29F2
330
1F
100
AcDbEntity
  8
P-0000
  6
Continuous
 62
     7
100
AcDbLine
 10
227.5483156360314
 20
404.0011867090113
 30
0.0
 11
221.3497748291886
 21
421.0315376093789
 31
0.0
1001
ACME_LAYERS
1000
1
  0
ARC
  5
29F3
330
1F
100
AcDbEntity
  8
P-0000
  6
Continuous
 62
     7
100
AcDbCircle
 10
222.9183085575809
 20
424.0315376093789
 30
0.0
 40
11.99999999999995
100
AcDbArc
 50
20.00000000000351
 51
90.0
1001
ACME_LAYERS
1000
1
  0
HATCH
  5
29F4
330
1F
100
AcDbEntity
  8
P-0000
  6
Continuous
 62
     3
100
AcDbHatch
 10
0.0
 20
0.0
 30
0.0
210
0.0
220
0.0
230
1.0
  2
_U
 70
     0
 71
     0
 91
        1
 92
        1
 93
        4
 72
     1
 10
229.7210902173116
 20
398.0315376093792
 11
227.5483156360313
 21
404.0011867090112
 72
     1
 10
227.5483156360314
 20
404.0011867090113
 11
227.5483156360314
 21
399.0315376093793
 72
     2
 10
228.5483156360314
 20
399.0315376093791
 40
1.0
 50
180.0
 51
270.0
 73
     1
 72
     1
 10
228.5483156360314
 20
398.0315376093792
 11
229.7210902173117
 21
398.0315376093792
 97
        0
 75
     0
 76
     0
 52
44.99999999999999
 41
1.0
 77
     0
 78
     1
 53
44.99999999999999
 43
300.9971846994376
 44
-132.4473180589755
 45
-0.7071067811865474
 46
0.7071067811865478
 79
     0
 98
        1
 10
300.9971846994376
 20
-132.4473180589755
1001
ACME_LAYERS
1000
1
  0
LINE
  5
29F5
330
1F
100
AcDbEntity
  8
P-0000
  6
Continuous
 62
     7
100
AcDbLine
 10
229.7210902173116
 20
398.0315376093792
 30
0.0
 11
228.5483156360314
 21
398.0315376093792
 31
0.0
1001
ACME_LAYERS
1000
1
  0
LINE
  5
29F6
330
1F
100
AcDbEntity
  8
P-0000
  6
Continuous
 62
     7
100
AcDbLine
 10
229.7210902173116
 20
398.0315376093792
 30
0.0
 11
227.5483156360314
 21
404.0011867090113
 31
0.0
1001
ACME_LAYERS
1000
1
  0
LINE
  5
29F7
330
1F
100
AcDbEntity
  8
P-0000
  6
Continuous
 62
     7
100
AcDbLine
 10
227.5483156360314
 20
399.0315376093791
 30
0.0
 11
227.5483156360314
 21
404.0011867090113
 31
0.0
1001
ACME_LAYERS
1000
1
  0
LINE
  5
29F8
330
1F
100
AcDbEntity
  8
P-0000
  6
Continuous
 62
     7
100
AcDbLine
 10
227.5483156360314
 20
399.0315376093791
 30
0.0
 11
227.5483156360314
 21
404.0011867090113
 31
0.0
1001
ACME_LAYERS
1000
1
  0
ARC
  5
29F9
330
1F
100
AcDbEntity
  8
P-0000
  6
Continuous
 62
     7
100
AcDbCircle
 10
228.5483156360314
 20
399.0315376093791
 30
0.0
 40
1.0
100
AcDbArc
 50
180.0
 51
270.0
1001
ACME_LAYERS
1000
1
  0
ARC
  5
29FA
330
1F
100
AcDbEntity
  8
P-0000
  6
Continuous
 62
     7
100
AcDbCircle
 10
228.5483156360314
 20
399.0315376093791
 30
0.0
 40
1.0
100
AcDbArc
 50
180.0
 51
270.0
1001
ACME_LAYERS
1000
1
  0
LINE
  5
29FB
330
1F
100
AcDbEntity
  8
P-0000
  6
Continuous
 62
     7
100
AcDbLine
 10
176.5483156360314
 20
362.0315376093793
 30
0.0
 11
242.824018650896
 21
362.0315376093791
 31
0.0
1001
ACME_LAYERS
1000
1
  0
LINE
  5
29FC
330
1F
100
AcDbEntity
  8
P-0000
  6
Continuous
 62
     7
100
AcDbLine
 10
176.5483156360314
 20
362.0315376093793
 30
0.0
 11
242.824018650896
 21
362.0315376093791
 31
0.0
1001
ACME_LAYERS
1000
1
  0
LINE
  5
29FD
330
1F
100
AcDbEntity
  8
P-0000
  6
Continuous
 62
     7
100
AcDbLine
 10
176.5483156360314
 20
362.0315376093793
 30
0.0
 11
242.824018650896
 21
362.0315376093791
 31
0.0
1001
ACME_LAYERS
1000
1
  0
LINE
  5
29FE
330
1F
100
AcDbEntity
  8
P-0000
  6
Continuous
 62
     7
100
AcDbLine
 10
242.824018650896
 20
356.0315376093789
 30
0.0
 11
176.5483156360314
 21
356.0315376093793
 31
0.0
1001
ACME_LAYERS
1000
1
  0
LINE
  5
29FF
330
1F
100
AcDbEntity
  8
P-0000
  6
Continuous
 62
     7
100
AcDbLine
 10
173.5483156360314
 20
362.0315376093793
 30
0.0
 11
175.0483156360314
 21
362.0315376093793
 31
0.0
1001
ACME_LAYERS
1000
1
  0
LINE
  5
2A00
330
1F
100
AcDbEntity
  8
P-0000
  6
Continuous
 62
     7
100
AcDbLine
 10
175.0483156360314
 20
362.0315376093793
 30
0.0
 11
176.5483156360314
 21
362.0315376093793
 31
0.0
1001
ACME_LAYERS
1000
1
  0
LINE
  5
2A01
330
1F
100
AcDbEntity
  8
P-0000
  6
Continuous
 62
     7
100
AcDbLine
 10
175.0483156360314
 20
362.0315376093793
 30
0.0
 11
176.5483156360314
 21
362.0315376093793
 31
0.0
1001
ACME_LAYERS
1000
1
  0
LINE
  5
2A02
330
1F
100
AcDbEntity
  8
P-0000
  6
Continuous
 62
     7
100
AcDbLine
 10
175.0483156360314
 20
362.0315376093793
 30
0.0
 11
176.5483156360314
 21
362.0315376093793
 31
0.0
1001
ACME_LAYERS
1000
1
  0
LINE
  5
2A03
330
1F
100
AcDbEntity
  8
P-0000
  6
Continuous
 62
     7
100
AcDbLine
 10
175.0483156360314
 20
356.0315376093793
 30
0.0
 11
173.5483156360314
 21
356.0315376093793
 31
0.0
1001
ACME_LAYERS
1000
1
  0
LINE
  5
2A04
330
1F
100
AcDbEntity
  8
P-0000
  6
Continuous
 62
     7
100
AcDbLine
 10
176.5483156360314
 20
356.0315376093793
 30
0.0
 11
175.0483156360314
 21
356.0315376093793
 31
0.0
1001
ACME_LAYERS
1000
1
  0
LINE
  5
2A05
330
1F
100
AcDbEntity
  8
P-0000
  6
Continuous
 62
     7
100
AcDbLine
 10
252.4747752632965
 20
377.9114655385202
 30
0.0
 11
260.0483156360314
 21
357.1033343791033
 31
0.0
1001
ACME_LAYERS
1000
1
  0
LINE
  5
2A06
330
1F
100
AcDbEntity
  8
P-0000
  6
Continuous
 62
     7
100
AcDbLine
 10
254.0483156360314
 20
356.0315376093789
 30
0.0
 11
245.824018650896
 21
356.0315376093789
 31
0.0
1001
ACME_LAYERS
1000
1
  0
LINE
  5
2A07
330
1F
100
AcDbEntity
  8
P-0000
  6
Continuous
 62
     7
100
AcDbLine
 10
245.824018650896
 20
356.0315376093789
 30
0.0
 11
245.824018650896
 21
362.0315376093791
 31
0.0
1001
ACME_LAYERS
1000
1
  0
LINE
  5
2A08
330
1F
100
AcDbEntity
  8
P-0000
  6
Continuous
 62
     7
100
AcDbLine
 10
242.824018650896
 20
356.0315376093789
 30
0.0
 11
242.824018650896
 21
362.0315376093791
 31
0.0
1001
ACME_LAYERS
1000
1
  0
LINE
  5
2A09
330
1F
100
AcDbEntity
  8
P-0000
  6
Continuous
 62
     7
100
AcDbLine
 10
242.824018650896
 20
362.0315376093791
 30
0.0
 11
245.824018650896
 21
362.0315376093791
 31
0.0
1001
ACME_LAYERS
1000
1
  0
LINE
  5
2A0A
330
1F
100
AcDbEntity
  8
P-0000
  6
Continuous
 62
     7
100
AcDbLine
 10
242.824018650896
 20
362.0315376093791
 30
0.0
 11
245.824018650896
 21
362.0315376093791
 31
0.0
1001
ACME_LAYERS
1000
1
  0
LINE
  5
2A0B
330
1F
100
AcDbEntity
  8
P-0000
  6
Continuous
 62
     7
100
AcDbLine
 10
245.824018650896
 20
356.0315376093789
 30
0.0
 11
242.824018650896
 21
356.0315376093789
 31
0.0
1001
ACME_LAYERS
1000
1
  0
LINE
  5
2A0C
330
1F
100
AcDbEntity
  8
P-0000
  6
Continuous
 62
     7
100
AcDbLine
 10
260.5483156360314
 20
353.8315376093789
 30
0.0
 11
260.5483156360314
 21
356.0315376093789
 31
0.0
1001
ACME_LAYERS
1000
1
  0
LINE
  5
2A0D
330
1F
100
AcDbEntity
  8
P-0000
  6
Continuous
 62
     7
100
AcDbLine
 10
259.2720853694832
 20
350.0749698405872
 30
0.0
 11
254.0483156360314
 21
356.0315376093789
 31
0.0
1001
ACME_LAYERS
1000
1
  0
LINE
  5
2A0E
330
1F
100
AcDbEntity
  8
P-0000
  6
Continuous
 62
     7
100
AcDbLine
 10
260.0483156360314
 20
356.0315376093789
 30
0.0
 11
260.0483156360314
 21
357.1033343791033
 31
0.0
1001
ACME_LAYERS
1000
1
  0
LINE
  5
2A0F
330
1F
100
AcDbEntity
  8
P-0000
  6
Continuous
 62
     7
100
AcDbLine
 10
260.5483156360314
 20
356.0315376093789
 30
0.0
 11
260.0483156360314
 21
356.0315376093789
 31
0.0
1001
ACME_LAYERS
1000
1
  0
LINE
  5
2A10
330
1F
100
AcDbEntity
  8
P-0000
  6
Continuous
 62
     7
100
AcDbLine
 10
260.0483156360314
 20
356.0315376093789
 30
0.0
 11
260.0483156360314
 21
357.1033343791033
 31
0.0
1001
ACME_LAYERS
1000
1
  0
LINE
  5
2A11
330
1F
100
AcDbEntity
  8
P-0000
  6
Continuous
 62
     7
100
AcDbLine
 10
261.7483156360314
 20
352.3315376093789
 30
0.0
 11
260.1894884439614
 21
350.1339958381795
 31
0.0
1001
ACME_LAYERS
1000
1
  0
LINE
  5
2A12
330
1F
100
AcDbEntity
  8
P-0000
  6
Continuous
 62
     7
100
AcDbLine
 10
260.5483156360314
 20
353.8315376093789
 30
0.0
 11
261.7483156360314
 21
353.8315376093789
 31
0.0
1001
ACME_LAYERS
1000
1
  0
LINE
  5
2A13
330
1F
100
AcDbEntity
  8
P-0000
  6
Continuous
 62
     7
100
AcDbLine
 10
261.7483156360314
 20
353.8315376093789
 30
0.0
 11
261.7483156360314
 21
352.3315376093789
 31
0.0
1001
ACME_LAYERS
1000
1
  0
ARC
  5
2A14
330
1F
100
AcDbEntity
  8
P-0000
  6
Continuous
 62
     7
100
AcDbCircle
 10
259.7001086418767
 20
350.4811376093791
 30
0.0
 40
0.6000000000000228
100
AcDbArc
 50
270.0
 51
324.6500000000005
1001
ACME_LAYERS
1000
1
  0
ARC
  5
2A15
330
1F
100
AcDbEntity
  8
P-0000
  6
Continuous
 62
     7
100
AcDbCircle
 10
259.6998822199386
 20
350.4501376093791
 30
0.0
 40
0.5689999999999894
100
AcDbArc
 50
221.2500000000011
 51
270.0
1001
ACME_LAYERS
1000
1
  0
LINE
  5
2A16
330
1F
100
AcDbEntity
  8
P-0000
  6
Continuous
 62
     7
100
AcDbLine
 10
259.7001086418767
 20
349.8811376093789
 30
0.0
 11
259.6998822199386
 21
349.8811376093789
 31
0.0
1001
ACME_LAYERS
1000
1
  0
LINE
  5
2A17
330
1F
100
AcDbEntity
  8
AM_7
100
AcDbLine
 10
175.0483156360313
 20
347.831537609379
 30
0.0
 11
175.0483156360314
 21
439.031537609379
 31
0.0
1001
GENIUS_GENOBJ-N-CEN_13
1002
{
1000
OWNER
1000
GEN
1002
}
1001
GENIUS_GENODEF_13
1002
{
1000
HIER
1070
     0
1002
}
1002
{
1000
MANEDIT
1070
     0
1002
}
1002
{
1000
NOSEL
1070
     0
1002
}
1002
{
1000
BEHIND
1070
     0
1002
}
1002
{
1000
OTHER
1070
     0
1002
}
1002
{
1000
REACTOR
1002
}
1001
GENIUS_GENCEN_19
1002
{
1040
3.0
1002
}
  0
HATCH
  5
2A18
330
1F
100
AcDbEntity
  8
AM_8
100
AcDbHatch
 10
0.0
 20
0.0
 30
0.0
210
0.0
220
0.0
230
1.0
  2
_U
 70
     0
 71
     0
 91
        1
 92
        1
 93
        4
 72
     1
 10
107.2726126211668
 20
362.0315376093791
 11
104.2726126211668
 21
362.0315376093791
 72
     1
 10
104.2726126211668
 20
362.0315376093791
 11
104.2726126211668
 21
356.031537609379
 72
     1
 10
104.2726126211668
 20
356.0315376093791
 11
107.2726126211668
 21
356.031537609379
 72
     1
 10
107.2726126211668
 20
356.031537609379
 11
107.2726126211668
 21
362.0315376093791
 97
        0
 75
     0
 76
     0
 52
44.99999999999999
 41
1.0
 77
     0
 78
     1
 53
44.99999999999999
 43
2.457288399971091
 44
474.5296206413583
 45
-0.7071067811865474
 46
0.7071067811865478
 79
     0
 98
        1
 10
2.457288399971091
 20
474.5296206413583
1001
GENIUS_GENODEF_13
1002
{
1000
HIER
1070
     0
1002
}
1002
{
1000
MANEDIT
1070
     0
1002
}
1002
{
1000
NOSEL
1070
     0
1002
}
1002
{
1000
BEHIND
1070
     0
1002
}
1002
{
1000
OTHER
1070
     0
1002
}
1002
{
1000
REACTOR
1002
}
1001
GENIUS_GENOBJ-N-HTC_13
1002
{
1000
OWNER
1000
GEN
1002
}
1001
GENIUS_GENHATCH_13
1002
{
1000
DATA
1040
45.0
1042
1.0
1000
_U
1070
     0
1011
105.6757818394617
1021
357.0942896938286
1031
0.0
1002
}
1002
{
1000
UCS
1010
0.0
1020
0.0
1030
0.0
1010
1.0
1020
0.0
1030
0.0
1010
0.0
1020
1.0
1030
0.0
1002
}
  0
HATCH
  5
2A19
330
1F
100
AcDbEntity
  8
AM_8
100
AcDbHatch
 10
0.0
 20
0.0
 30
0.0
210
0.0
220
0.0
230
1.0
  2
_U
 70
     0
 71
     0
 91
        1
 92
        1
 93
        4
 72
     1
 10
245.824018650896
 20
362.0315376093791
 11
242.824018650896
 21
362.0315376093791
 72
     1
 10
242.824018650896
 20
362.0315376093791
 11
242.824018650896
 21
356.0315376093789
 72
     1
 10
242.824018650896
 20
356.0315376093789
 11
245.824018650896
 21
356.0315376093789
 72
     1
 10
245.824018650896
 20
356.031537609379
 11
245.824018650896
 21
362.0315376093791
 97
        0
 75
     0
 76
     0
 52
44.99999999999999
 41
1.0
 77
     0
 78
     1
 53
44.99999999999999
 43
2.457288399971091
 44
474.5296206413583
 45
-0.7071067811865474
 46
0.7071067811865478
 79
     0
 98
        1
 10
2.457288399971091
 20
474.5296206413583
1001
GENIUS_GENODEF_13
1002
{
1000
HIER
1070
     0
1002
}
1002
{
1000
MANEDIT
1070
     0
1002
}
1002
{
1000
NOSEL
1070
     0
1002
}
1002
{
1000
BEHIND
1070
     0
1002
}
1002
{
1000
OTHER
1070
     0
1002
}
1002
{
1000
REACTOR
1002
}
1001
GENIUS_GENOBJ-N-HTC_13
1002
{
1000
OWNER
1000
GEN
1002
}
1001
GENIUS_GENHATCH_13
1002
{
1000
DATA
1040
135.0
1042
1.0
1000
_U
1070
     0
1011
243.5929954663436
1021
356.4901246558974
1031
0.0
1002
}
1002
{
1000
UCS
1010
0.0
1020
0.0
1030
0.0
1010
1.0
1020
0.0
1030
0.0
1010
0.0
1020
1.0
1030
0.0
1002
}
  0
LINE
  5
2A1A
330
1F
100
AcDbEntity
  8
AM_7
100
AcDbLine
 10
112.8326791233441
 20
192.7823973931129
 30
0.0
 11
242.2332200804876
 21
63.38185643596919
 31
0.0
1001
ACME_LAYERS
1000
1
  0
ARC
  5
2A1B
330
1F
100
AcDbEntity
  8
P-0000
  6
Continuous
 62
     7
100
AcDbCircle
 10
175.0580758677602
 20
130.5570006486967
 30
0.0
 40
38.7135501342118
100
AcDbArc
 50
2.22054519690523
 51
42.77945480310007
1001
ACME_LAYERS
1000
1
  0
ARC
  5
2A1C
330
1F
100
AcDbEntity
  8
P-0000
  6
Continuous
 62
     7
100
AcDbCircle
 10
175.0580758677602
 20
130.5570006486967
 30
0.0
 40
38.71355013421183
100
AcDbArc
 50
137.2205451968999
 51
177.7794548030948
1001
ACME_LAYERS
1000
1
  0
ARC
  5
2A1D
330
1F
100
AcDbEntity
  8
P-0000
  6
Continuous
 62
     7
100
AcDbCircle
 10
175.0580758677602
 20
130.5570006486967
 30
0.0
 40
40.75000000000008
100
AcDbArc
 50
17.10952366925252
 51
27.89047633075051
1001
ACME_LAYERS
1000
1
  0
ARC
  5
2A1E
330
1F
100
AcDbEntity
  8
P-0000
  6
Continuous
 62
     7
100
AcDbCircle
 10
175.0580758677602
 20
130.5570006486967
 30
0.0
 40
40.75000000000008
100
AcDbArc
 50
152.1095236692494
 51
162.8904763307474
1001
ACME_LAYERS
1000
1
  0
ARC
  5
2A1F
330
1F
100
AcDbEntity
  8
P-0000
  6
Continuous
 62
     7
100
AcDbCircle
 10
175.0580758677602
 20
130.5570006486967
 30
0.0
 40
42.29778661622868
100
AcDbArc
 50
17.03229767647405
 51
27.96770232352848
1001
ACME_LAYERS
1000
1
  0
ARC
  5
2A20
330
1F
100
AcDbEntity
  8
P-0000
  6
Continuous
 62
     7
100
AcDbCircle
 10
175.0580758677602
 20
130.5570006486967
 30
0.0
 40
42.29778661622869
100
AcDbArc
 50
152.0322976764715
 51
162.9677023235259
1001
ACME_LAYERS
1000
1
  0
ARC
  5
2A21
330
1F
100
AcDbEntity
  8
P-0000
  6
Continuous
 62
     7
100
AcDbCircle
 10
175.0580758677602
 20
130.5570006486967
 30
0.0
 40
52.50000000000002
100
AcDbArc
 50
16.63724507778031
 51
28.362754922215
1001
ACME_LAYERS
1000
1
  0
ARC
  5
2A22
330
1F
100
AcDbEntity
  8
P-0000
  6
Continuous
 62
     7
100
AcDbCircle
 10
175.0580758677602
 20
130.5570006486967
 30
0.0
 40
52.49999999999999
100
AcDbArc
 50
151.637245077785
 51
163.3627549222197
1001
ACME_LAYERS
1000
1
  0
ARC
  5
2A23
330
1F
100
AcDbEntity
  8
P-0000
  6
Continuous
 62
     7
100
AcDbCircle
 10
175.0580758677602
 20
130.5570006486967
 30
0.0
 40
54.67277458128037
100
AcDbArc
 50
16.57216193381643
 51
28.42783806618501
1001
ACME_LAYERS
1000
1
  0
ARC
  5
2A24
330
1F
100
AcDbEntity
  8
P-0000
  6
Continuous
 62
     7
100
AcDbCircle
 10
175.0580758677602
 20
130.5570006486967
 30
0.0
 40
54.67277458128038
100
AcDbArc
 50
151.5721619338149
 51
163.4278380661835
1001
ACME_LAYERS
1000
1
  0
ARC
  5
2A25
330
1F
100
AcDbEntity
  8
P-0000
  6
Continuous
 62
     7
100
AcDbCircle
 10
175.0580758677602
 20
130.5570006486967
 30
0.0
 40
67.77570301486457
100
AcDbArc
 50
1.268163709333909
 51
13.73183629067669
1001
ACME_LAYERS
1000
1
  0
ARC
  5
2A26
330
1F
100
AcDbEntity
  8
P-0000
  6
Continuous
 62
     7
100
AcDbCircle
 10
175.0580758677602
 20
130.5570006486967
 30
0.0
 40
67.77570301486455
100
AcDbArc
 50
166.2681637093233
 51
178.7318362906661
1001
ACME_LAYERS
1000
1
  0
ARC
  5
2A27
330
1F
100
AcDbEntity
  8
P-0000
  6
Continuous
 62
     7
100
AcDbCircle
 10
175.0580758677602
 20
130.5570006486967
 30
0.0
 40
70.7757030148646
100
AcDbArc
 50
1.214401282436269
 51
13.78559871755494
1001
ACME_LAYERS
1000
1
  0
ARC
  5
2A28
330
1F
100
AcDbEntity
  8
P-0000
  6
Continuous
 62
     7
100
AcDbCircle
 10
175.0580758677602
 20
130.5570006486967
 30
0.0
 40
70.77570301486457
100
AcDbArc
 50
166.214401282445
 51
178.7855987175637
1001
ACME_LAYERS
1000
1
  0
LINE
  5
2A29
330
1F
100
AcDbEntity
  8
AM_7
100
AcDbLine
 10
90.05660315432221
 20
153.3330766177187
 30
0.0
 11
140.5614354446556
 21
139.8003475916546
 31
0.0
1001
ACME_LAYERS
1000
1
  0
LINE
  5
2A2A
330
1F
100
AcDbEntity
  8
P-0000
  6
Continuous
 62
     7
100
AcDbLine
 10
146.6433578252171
 20
156.8503983476803
 30
0.0
 11
171.0953341679633
 21
132.398422004934
 31
0.0
1001
ACME_LAYERS
1000
1
  0
LINE
  5
2A2B
330
1F
100
AcDbEntity
  8
P-0000
  6
Continuous
 62
     7
100
AcDbLine
 10
148.7646781687769
 20
158.9717186912398
 30
0.0
 11
173.2166545115229
 21
134.5197423484937
 31
0.0
1001
ACME_LAYERS
1000
1
  0
LINE
  5
2A2C
330
1F
100
AcDbEntity
  8
P-0000
  6
Continuous
 62
     7
100
AcDbLine
 10
173.5580758677602
 20
169.2414802754687
 30
0.0
 11
173.5580758677602
 21
134.661163704731
 31
0.0
1001
ACME_LAYERS
1000
1
  0
LINE
  5
2A2D
330
1F
100
AcDbEntity
  8
P-0000
  6
Continuous
 62
     7
100
AcDbLine
 10
176.5580758677602
 20
169.2414802754687
 30
0.0
 11
176.5580758677602
 21
134.661163704731
 31
0.0
1001
ACME_LAYERS
1000
1
  0
LINE
  5
2A2E
330
1F
100
AcDbEntity
  8
P-0000
  6
Continuous
 62
     7
100
AcDbLine
 10
201.3514735667436
 20
158.9717186912397
 30
0.0
 11
176.8994972239975
 21
134.5197423484937
 31
0.0
1001
ACME_LAYERS
1000
1
  0
LINE
  5
2A2F
330
1F
100
AcDbEntity
  8
P-0000
  6
Continuous
 62
     7
100
AcDbLine
 10
203.4727939103033
 20
156.8503983476801
 30
0.0
 11
179.0208175675571
 21
132.398422004934
 31
0.0
1001
ACME_LAYERS
1000
1
  0
LINE
  5
2A30
330
1F
100
AcDbEntity
  8
P-0000
  6
Continuous
 62
     7
100
AcDbLine
 10
93.35539450872335
 20
154.0020824089233
 30
0.0
 11
133.695145246668
 21
143.1930787758181
 31
0.0
1001
ACME_LAYERS
1000
1
  0
LINE
  5
2A31
330
1F
100
AcDbEntity
  8
P-0000
  6
Continuous
 62
     7
100
AcDbLine
 10
257.5372143621046
 20
151.1043049300558
 30
0.0
 11
217.19746362416
 21
140.2953012969509
 31
0.0
1001
ACME_LAYERS
1000
1
  0
LINE
  5
2A32
330
1F
100
AcDbEntity
  8
P-0000
  6
Continuous
 62
     7
100
AcDbLine
 10
92.57893737341584
 20
151.104304930056
 30
0.0
 11
132.9186881113604
 21
140.295301296951
 31
0.0
1001
ACME_LAYERS
1000
1
  0
LINE
  5
2A33
330
1F
100
AcDbEntity
  8
P-0000
  6
Continuous
 62
     7
100
AcDbLine
 10
256.760757226797
 20
154.0020824089231
 30
0.0
 11
216.4210064888524
 21
143.1930787758181
 31
0.0
1001
ACME_LAYERS
1000
1
  0
LINE
  5
2A34
330
1F
100
AcDbEntity
  8
AM_7
100
AcDbLine
 10
175.0580758677602
 20
130.5570006486967
 30
0.0
 11
175.0580758677602
 21
218.5570006486968
 31
0.0
1001
ACME_LAYERS
1000
1
  0
ARC
  5
2A35
330
1F
100
AcDbEntity
  8
P-0000
  6
Continuous
 62
     7
100
AcDbCircle
 10
175.0580758677602
 20
130.5570006486967
 30
0.0
 40
70.77570301486464
100
AcDbArc
 50
91.21440128244275
 51
103.7855987175565
1001
ACME_LAYERS
1000
1
  0
ARC
  5
2A36
330
1F
100
AcDbEntity
  8
P-0000
  6
Continuous
 62
     7
100
AcDbCircle
 10
175.0580758677602
 20
130.5570006486967
 30
0.0
 40
67.77570301486455
100
AcDbArc
 50
91.26816370933395
 51
103.7318362906703
1001
ACME_LAYERS
1000
1
  0
ARC
  5
2A37
330
1F
100
AcDbEntity
  8
P-0000
  6
Continuous
 62
     7
100
AcDbCircle
 10
175.0580758677602
 20
130.5570006486967
 30
0.0
 40
38.71355013421182
100
AcDbArc
 50
92.22054519689873
 51
132.7794548031
1001
ACME_LAYERS
1000
1
  0
ARC
  5
2A38
330
1F
100
AcDbEntity
  8
P-0000
  6
Continuous
 62
     7
100
AcDbCircle
 10
175.0580758677602
 20
130.5570006486967
 30
0.0
 40
40.74999999999999
100
AcDbArc
 50
92.10952366924749
 51
102.8904763307473
1001
ACME_LAYERS
1000
1
  0
ARC
  5
2A39
330
1F
100
AcDbEntity
  8
P-0000
  6
Continuous
 62
     7
100
AcDbCircle
 10
175.0580758677602
 20
130.5570006486967
 30
0.0
 40
42.29778661622868
100
AcDbArc
 50
92.03229767647385
 51
102.9677023235241
1001
ACME_LAYERS
1000
1
  0
ARC
  5
2A3A
330
1F
100
AcDbEntity
  8
P-0000
  6
Continuous
 62
     7
100
AcDbCircle
 10
175.0580758677602
 20
130.5570006486967
 30
0.0
 40
52.50000000000001
100
AcDbArc
 50
91.63724507777358
 51
103.3627549222207
1001
ACME_LAYERS
1000
1
  0
ARC
  5
2A3B
330
1F
100
AcDbEntity
  8
P-0000
  6
Continuous
 62
     7
100
AcDbCircle
 10
175.0580758677602
 20
130.5570006486967
 30
0.0
 40
54.67277458128041
100
AcDbArc
 50
91.57216193381611
 51
103.4278380661849
1001
ACME_LAYERS
1000
1
  0
LINE
  5
2A3C
330
1F
100
AcDbEntity
  8
P-0000
  6
Continuous
 62
     7
100
AcDbLine
 10
151.6129941075339
 20
212.2596820077335
 30
0.0
 11
162.4219977406389
 21
171.919931269789
 31
0.0
1001
ACME_LAYERS
1000
1
  0
LINE
  5
2A3D
330
1F
100
AcDbEntity
  8
P-0000
  6
Continuous
 62
     7
100
AcDbLine
 10
154.510771586401
 20
213.0361391430412
 30
0.0
 11
165.3197752195061
 21
172.6963884050965
 31
0.0
1001
ACME_LAYERS
1000
1
  0
ARC
  5
2A3E
330
1F
100
AcDbEntity
  8
P-0000
  6
Continuous
 62
     7
100
AcDbCircle
 10
175.0580758677602
 20
130.5570006486967
 30
0.0
 40
85.0
100
AcDbArc
 50
103.9888455218953
 51
106.0111544781077
1001
ACME_LAYERS
1000
1
  0
LINE
  5
2A3F
330
1F
100
AcDbEntity
  8
P-0000
  6
Continuous
 62
     7
100
AcDbLine
 10
116.0240191336422
 20
191.7123777263745
 30
0.0
 11
145.5547662384818
 21
162.1816306215348
 31
0.0
1001
ACME_LAYERS
1000
1
  0
ARC
  5
2A40
330
1F
100
AcDbEntity
  8
P-0000
  6
Continuous
 62
     7
100
AcDbCircle
 10
175.0580758677602
 20
130.5570006486967
 30
0.0
 40
67.77570301486456
100
AcDbArc
 50
136.2681637093372
 51
148.7318362906659
1001
ACME_LAYERS
1000
1
  0
LINE
  5
2A41
330
1F
100
AcDbEntity
  8
P-0000
  6
Continuous
 62
     7
100
AcDbLine
 10
102.2073795395324
 20
174.3494205920198
 30
0.0
 11
138.3750106045467
 21
153.4680290606827
 31
0.0
1001
ACME_LAYERS
1000
1
  0
LINE
  5
2A42
330
1F
100
AcDbEntity
  8
P-0000
  6
Continuous
 62
     7
100
AcDbLine
 10
100.7073795395324
 20
171.7513443806663
 30
0.0
 11
136.8750106045467
 21
150.8699528493292
 31
0.0
1001
ACME_LAYERS
1000
1
  0
LINE
  5
2A43
330
1F
100
AcDbEntity
  8
P-0000
  6
Continuous
 62
     7
100
AcDbLine
 10
113.9026987900826
 20
189.5910573828148
 30
0.0
 11
143.4334458949223
 21
160.0603102779752
 31
0.0
1001
ACME_LAYERS
1000
1
  0
ARC
  5
2A44
330
1F
100
AcDbEntity
  8
P-0000
  6
Continuous
 62
     7
100
AcDbCircle
 10
175.0580758677602
 20
130.5570006486967
 30
0.0
 40
70.77570301486462
100
AcDbArc
 50
136.2144012824402
 51
148.7855987175641
1001
ACME_LAYERS
1000
1
  0
ARC
  5
2A45
330
1F
100
AcDbEntity
  8
P-0000
  6
Continuous
 62
     7
100
AcDbCircle
 10
175.0580758677602
 20
130.5570006486967
 30
0.0
 40
85.00000000000007
100
AcDbArc
 50
133.9888455218985
 51
136.0111544781084
1001
ACME_LAYERS
1000
1
  0
ARC
  5
2A46
330
1F
100
AcDbEntity
  8
P-0000
  6
Continuous
 62
     7
100
AcDbCircle
 10
175.0580758677602
 20
130.5570006486967
 30
0.0
 40
85.00000000000012
100
AcDbArc
 50
148.988845521897
 51
151.0111544781132
1001
ACME_LAYERS
1000
1
  0
ARC
  5
2A47
330
1F
100
AcDbEntity
  8
P-0000
  6
Continuous
 62
     7
100
AcDbCircle
 10
175.0580758677602
 20
130.5570006486967
 30
0.0
 40
85.00000000000005
100
AcDbArc
 50
163.9888455218927
 51
166.011154478105
1001
ACME_LAYERS
1000
1
  0
ARC
  5
2A48
330
1F
100
AcDbEntity
  8
P-0000
  6
Continuous
 62
     7
100
AcDbCircle
 10
175.0580758677602
 20
130.5570006486967
 30
0.0
 40
67.77570301486456
100
AcDbArc
 50
151.2681637093293
 51
163.7318362906657
1001
ACME_LAYERS
1000
1
  0
ARC
  5
2A49
330
1F
100
AcDbEntity
  8
P-0000
  6
Continuous
 62
     7
100
AcDbCircle
 10
175.0580758677602
 20
130.5570006486967
 30
0.0
 40
70.77570301486457
100
AcDbArc
 50
151.2144012824407
 51
163.7855987175645
1001
ACME_LAYERS
1000
1
  0
LINE
  5
2A4A
330
1F
100
AcDbEntity
  8
P-0000
  6
Continuous
 62
     7
100
AcDbLine
 10
131.2656559244374
 20
203.4076969769246
 30
0.0
 11
152.1470474557744
 21
167.2400659119102
 31
0.0
1001
ACME_LAYERS
1000
1
  0
LINE
  5
2A4B
330
1F
100
AcDbEntity
  8
P-0000
  6
Continuous
 62
     7
100
AcDbLine
 10
133.8637321357907
 20
204.9076969769246
 30
0.0
 11
154.7451236671277
 21
168.7400659119103
 31
0.0
1001
ACME_LAYERS
1000
1
  0
ARC
  5
2A4C
330
1F
100
AcDbEntity
  8
P-0000
  6
Continuous
 62
     7
100
AcDbCircle
 10
175.0580758677602
 20
130.5570006486967
 30
0.0
 40
52.50000000000009
100
AcDbArc
 50
106.6372450777792
 51
118.3627549222222
1001
ACME_LAYERS
1000
1
  0
ARC
  5
2A4D
330
1F
100
AcDbEntity
  8
P-0000
  6
Continuous
 62
     7
100
AcDbCircle
 10
175.0580758677602
 20
130.5570006486967
 30
0.0
 40
54.67277458128035
100
AcDbArc
 50
106.5721619338236
 51
118.4278380661843
1001
ACME_LAYERS
1000
1
  0
ARC
  5
2A4E
330
1F
100
AcDbEntity
  8
P-0000
  6
Continuous
 62
     7
100
AcDbCircle
 10
175.0580758677602
 20
130.5570006486967
 30
0.0
 40
70.77570301486459
100
AcDbArc
 50
106.2144012824422
 51
118.7855987175513
1001
ACME_LAYERS
1000
1
  0
ARC
  5
2A4F
330
1F
100
AcDbEntity
  8
P-0000
  6
Continuous
 62
     7
100
AcDbCircle
 10
175.0580758677602
 20
130.5570006486967
 30
0.0
 40
67.77570301486457
100
AcDbArc
 50
106.2681637093327
 51
118.7318362906679
1001
ACME_LAYERS
1000
1
  0
ARC
  5
2A50
330
1F
100
AcDbEntity
  8
P-0000
  6
Continuous
 62
     7
100
AcDbCircle
 10
175.0580758677602
 20
130.5570006486967
 30
0.0
 40
85.00000000000001
100
AcDbArc
 50
118.988845521897
 51
121.0111544781102
1001
ACME_LAYERS
1000
1
  0
ARC
  5
2A51
330
1F
100
AcDbEntity
  8
P-0000
  6
Continuous
 62
     7
100
AcDbCircle
 10
175.0580758677602
 20
130.5570006486967
 30
0.0
 40
70.7757030148646
100
AcDbArc
 50
121.2144012824422
 51
133.7855987175552
1001
ACME_LAYERS
1000
1
  0
ARC
  5
2A52
330
1F
100
AcDbEntity
  8
P-0000
  6
Continuous
 62
     7
100
AcDbCircle
 10
175.0580758677602
 20
130.5570006486967
 30
0.0
 40
67.77570301486459
100
AcDbArc
 50
121.268163709331
 51
133.7318362906651
1001
ACME_LAYERS
1000
1
  0
ARC
  5
2A53
330
1F
100
AcDbEntity
  8
P-0000
  6
Continuous
 62
     7
100
AcDbCircle
 10
175.0580758677602
 20
130.5570006486967
 30
0.0
 40
40.7500000000001
100
AcDbArc
 50
122.1095236692536
 51
132.8904763307461
1001
ACME_LAYERS
1000
1
  0
ARC
  5
2A54
330
1F
100
AcDbEntity
  8
P-0000
  6
Continuous
 62
     7
100
AcDbCircle
 10
175.0580758677602
 20
130.5570006486967
 30
0.0
 40
42.29778661622862
100
AcDbArc
 50
122.0322976764766
 51
132.9677023235358
1001
ACME_LAYERS
1000
1
  0
ARC
  5
2A55
330
1F
100
AcDbEntity
  8
P-0000
  6
Continuous
 62
     7
100
AcDbCircle
 10
175.0580758677602
 20
130.5570006486967
 30
0.0
 40
52.50000000000003
100
AcDbArc
 50
136.6372450777845
 51
148.3627549222325
1001
ACME_LAYERS
1000
1
  0
ARC
  5
2A56
330
1F
100
AcDbEntity
  8
P-0000
  6
Continuous
 62
     7
100
AcDbCircle
 10
175.0580758677602
 20
130.5570006486967
 30
0.0
 40
54.67277458128041
100
AcDbArc
 50
136.5721619338146
 51
148.4278380661869
1001
ACME_LAYERS
1000
1
  0
ARC
  5
2A57
330
1F
100
AcDbEntity
  8
P-0000
  6
Continuous
 62
     7
100
AcDbCircle
 10
175.0580758677602
 20
130.5570006486967
 30
0.0
 40
52.5
100
AcDbArc
 50
121.6372450777819
 51
133.3627549222293
1001
ACME_LAYERS
1000
1
  0
ARC
  5
2A58
330
1F
100
AcDbEntity
  8
P-0000
  6
Continuous
 62
     7
100
AcDbCircle
 10
175.0580758677602
 20
130.5570006486967
 30
0.0
 40
54.67277458128034
100
AcDbArc
 50
121.5721619338202
 51
133.427838066183
1001
ACME_LAYERS
1000
1
  0
ARC
  5
2A59
330
1F
100
AcDbEntity
  8
P-0000
  6
Continuous
 62
     7
100
AcDbCircle
 10
175.0580758677602
 20
130.5570006486967
 30
0.0
 40
40.74999999999999
100
AcDbArc
 50
137.1095236692585
 51
147.8904763307422
1001
ACME_LAYERS
1000
1
  0
ARC
  5
2A5A
330
1F
100
AcDbEntity
  8
P-0000
  6
Continuous
 62
     7
100
AcDbCircle
 10
175.0580758677602
 20
130.5570006486967
 30
0.0
 40
42.29778661622867
100
AcDbArc
 50
137.032297676471
 51
147.9677023235337
1001
ACME_LAYERS
1000
1
  0
LINE
  5
2A5B
330
1F
100
AcDbEntity
  8
P-0000
  6
Continuous
 62
     7
100
AcDbLine
 10
143.4334458949223
 20
160.0603102779752
 30
0.0
 11
145.2023423326428
 21
158.2914138402547
 31
0.0
1001
ACME_LAYERS
1000
1
  0
LINE
  5
2A5C
330
1F
100
AcDbEntity
  8
P-0000
  6
Continuous
 62
     7
100
AcDbLine
 10
145.5547662384818
 20
162.1816306215348
 30
0.0
 11
147.3236626762023
 21
160.4127341838143
 31
0.0
1001
ACME_LAYERS
1000
1
  0
LINE
  5
2A5D
330
1F
100
AcDbEntity
  8
P-0000
  6
Continuous
 62
     7
100
AcDbLine
 10
136.8750106045467
 20
150.8699528493292
 30
0.0
 11
139.0414574446676
 21
149.6191541830001
 31
0.0
1001
ACME_LAYERS
1000
1
  0
LINE
  5
2A5E
330
1F
100
AcDbEntity
  8
P-0000
  6
Continuous
 62
     7
100
AcDbLine
 10
138.3750106045467
 20
153.4680290606827
 30
0.0
 11
140.5414574446677
 21
152.2172303943537
 31
0.0
1001
ACME_LAYERS
1000
1
  0
ARC
  5
2A5F
330
1F
100
AcDbEntity
  8
P-0000
  6
Continuous
 62
     7
100
AcDbCircle
 10
175.0580758677602
 20
130.5570006486967
 30
0.0
 40
40.75000000000014
100
AcDbArc
 50
107.1095236692541
 51
117.8904763307425
1001
ACME_LAYERS
1000
1
  0
ARC
  5
2A60
330
1F
100
AcDbEntity
  8
P-0000
  6
Continuous
 62
     7
100
AcDbCircle
 10
175.0580758677602
 20
130.5570006486967
 30
0.0
 40
42.29778661622858
100
AcDbArc
 50
107.0322976764715
 51
117.9677023235314
1001
ACME_LAYERS
1000
1
  0
LINE
  5
2A61
330
1F
100
AcDbEntity
  8
P-0000
  6
Continuous
 62
     7
100
AcDbLine
 10
152.1470474557744
 20
167.2400659119102
 30
0.0
 11
153.3978461221031
 21
165.0736190717891
 31
0.0
1001
ACME_LAYERS
1000
1
  0
LINE
  5
2A62
330
1F
100
AcDbEntity
  8
P-0000
  6
Continuous
 62
     7
100
AcDbLine
 10
154.7451236671277
 20
168.7400659119103
 30
0.0
 11
155.9959223334566
 21
166.5736190717892
 31
0.0
1001
ACME_LAYERS
1000
1
  0
LINE
  5
2A63
330
1F
100
AcDbEntity
  8
P-0000
  6
Continuous
 62
     7
100
AcDbLine
 10
165.3197752195061
 20
172.6963884050965
 30
0.0
 11
165.9672362523756
 21
170.2800309345066
 31
0.0
1001
ACME_LAYERS
1000
1
  0
LINE
  5
2A64
330
1F
100
AcDbEntity
  8
P-0000
  6
Continuous
 62
     7
100
AcDbLine
 10
162.4219977406389
 20
171.919931269789
 30
0.0
 11
163.0694587735082
 21
169.503573799199
 31
0.0
1001
ACME_LAYERS
1000
1
  0
LINE
  5
2A65
330
1F
100
AcDbEntity
  8
P-0000
  6
Continuous
 62
     7
100
AcDbLine
 10
176.5580758677602
 20
215.5437643239892
 30
0.0
 11
176.5580758677602
 21
173.780981261315
 31
0.0
1001
ACME_LAYERS
1000
1
  0
LINE
  5
2A66
330
1F
100
AcDbEntity
  8
P-0000
  6
Continuous
 62
     7
100
AcDbLine
 10
198.5031576279865
 20
212.2596820077335
 30
0.0
 11
187.6941539948816
 21
171.919931269789
 31
0.0
1001
ACME_LAYERS
1000
1
  0
LINE
  5
2A67
330
1F
100
AcDbEntity
  8
P-0000
  6
Continuous
 62
     7
100
AcDbLine
 10
173.5580758677602
 20
215.5437643239892
 30
0.0
 11
173.5580758677602
 21
173.780981261315
 31
0.0
1001
ACME_LAYERS
1000
1
  0
LINE
  5
2A68
330
1F
100
AcDbEntity
  8
P-0000
  6
Continuous
 62
     7
100
AcDbLine
 10
195.6053801491194
 20
213.0361391430412
 30
0.0
 11
184.7963765160144
 21
172.6963884050965
 31
0.0
1001
ACME_LAYERS
1000
1
  0
LINE
  5
2A69
330
1F
100
AcDbEntity
  8
P-0000
  6
Continuous
 62
     7
100
AcDbLine
 10
176.5580758677602
 20
216.5570006486968
 30
0.0
 11
176.5580758677602
 21
215.5437643239892
 31
0.0
1001
ACME_LAYERS
1000
1
  0
LINE
  5
2A6A
330
1F
100
AcDbEntity
  8
P-0000
  6
Continuous
 62
     7
100
AcDbLine
 10
173.5580758677602
 20
216.5570006486968
 30
0.0
 11
173.5580758677602
 21
215.5437643239892
 31
0.0
1001
ACME_LAYERS
1000
1
  0
LINE
  5
2A6B
330
1F
100
AcDbEntity
  8
P-0000
  6
Continuous
 62
     7
100
AcDbLine
 10
173.5580758677602
 20
216.5570006486968
 30
0.0
 11
176.5580758677602
 21
216.5570006486968
 31
0.0
1001
ACME_LAYERS
1000
1
  0
LINE
  5
2A6C
330
1F
100
AcDbEntity
  8
P-0000
  6
Continuous
 62
     7
100
AcDbLine
 10
173.5580758677602
 20
216.5570006486968
 30
0.0
 11
176.5580758677602
 21
216.5570006486968
 31
0.0
1001
ACME_LAYERS
1000
1
  0
ARC
  5
2A6D
330
1F
100
AcDbEntity
  8
P-0000
  6
Continuous
 62
     7
100
AcDbCircle
 10
175.0580758677602
 20
130.5570006486967
 30
0.0
 40
85.00000000000003
100
AcDbArc
 50
88.98884552189569
 51
91.01115447810432
1001
ACME_LAYERS
1000
1
  0
ARC
  5
2A6E
330
1F
100
AcDbEntity
  8
P-0000
  6
Continuous
 62
     7
100
AcDbCircle
 10
175.0580758677602
 20
130.5570006486967
 30
0.0
 40
84.99999999999998
100
AcDbArc
 50
73.98884552189227
 51
76.01115447810467
1001
ACME_LAYERS
1000
1
  0
ARC
  5
2A6F
330
1F
100
AcDbEntity
  8
P-0000
  6
Continuous
 62
     7
100
AcDbCircle
 10
175.0580758677602
 20
130.5570006486967
 30
0.0
 40
85.00000000000005
100
AcDbArc
 50
58.98884552188974
 51
61.01115447810296
1001
ACME_LAYERS
1000
1
  0
ARC
  5
2A70
330
1F
100
AcDbEntity
  8
P-0000
  6
Continuous
 62
     7
100
AcDbCircle
 10
175.0580758677602
 20
130.5570006486967
 30
0.0
 40
52.50000000000007
100
AcDbArc
 50
31.63724507776742
 51
43.36275492221552
1001
ACME_LAYERS
1000
1
  0
ARC
  5
2A71
330
1F
100
AcDbEntity
  8
P-0000
  6
Continuous
 62
     7
100
AcDbCircle
 10
175.0580758677602
 20
130.5570006486967
 30
0.0
 40
54.67277458128038
100
AcDbArc
 50
31.57216193381301
 51
43.42783806618537
1001
ACME_LAYERS
1000
1
  0
ARC
  5
2A72
330
1F
100
AcDbEntity
  8
P-0000
  6
Continuous
 62
     7
100
AcDbCircle
 10
175.0580758677602
 20
130.5570006486967
 30
0.0
 40
67.77570301486466
100
AcDbArc
 50
46.26816370933485
 51
58.73183629066903
1001
ACME_LAYERS
1000
1
  0
ARC
  5
2A73
330
1F
100
AcDbEntity
  8
P-0000
  6
Continuous
 62
     7
100
AcDbCircle
 10
175.0580758677602
 20
130.5570006486967
 30
0.0
 40
70.7757030148646
100
AcDbArc
 50
46.21440128244477
 51
58.78559871755772
1001
ACME_LAYERS
1000
1
  0
LINE
  5
2A74
330
1F
100
AcDbEntity
  8
P-0000
  6
Continuous
 62
     7
100
AcDbLine
 10
218.8504958110832
 20
203.4076969769245
 30
0.0
 11
197.9691042797461
 21
167.2400659119102
 31
0.0
1001
ACME_LAYERS
1000
1
  0
LINE
  5
2A75
330
1F
100
AcDbEntity
  8
P-0000
  6
Continuous
 62
     7
100
AcDbLine
 10
236.213452945438
 20
189.5910573828147
 30
0.0
 11
206.6827058405983
 21
160.0603102779752
 31
0.0
1001
ACME_LAYERS
1000
1
  0
LINE
  5
2A76
330
1F
100
AcDbEntity
  8
P-0000
  6
Continuous
 62
     7
100
AcDbLine
 10
249.408772195988
 20
171.7513443806663
 30
0.0
 11
213.2411411309738
 21
150.8699528493291
 31
0.0
1001
ACME_LAYERS
1000
1
  0
LINE
  5
2A77
330
1F
100
AcDbEntity
  8
P-0000
  6
Continuous
 62
     7
100
AcDbLine
 10
234.0921326018782
 20
191.7123777263743
 30
0.0
 11
204.5613854970386
 21
162.1816306215348
 31
0.0
1001
ACME_LAYERS
1000
1
  0
LINE
  5
2A78
330
1F
100
AcDbEntity
  8
P-0000
  6
Continuous
 62
     7
100
AcDbLine
 10
247.908772195988
 20
174.3494205920194
 30
0.0
 11
211.7411411309737
 21
153.4680290606825
 31
0.0
1001
ACME_LAYERS
1000
1
  0
ARC
  5
2A79
330
1F
100
AcDbEntity
  8
P-0000
  6
Continuous
 62
     7
100
AcDbCircle
 10
175.0580758677602
 20
130.5570006486967
 30
0.0
 40
52.50000000000004
100
AcDbArc
 50
61.63724507777773
 51
73.36275492222077
1001
ACME_LAYERS
1000
1
  0
ARC
  5
2A7A
330
1F
100
AcDbEntity
  8
P-0000
  6
Continuous
 62
     7
100
AcDbCircle
 10
175.0580758677602
 20
130.5570006486967
 30
0.0
 40
54.67277458128032
100
AcDbArc
 50
61.57216193381565
 51
73.4278380661764
1001
ACME_LAYERS
1000
1
  0
LINE
  5
2A7B
330
1F
100
AcDbEntity
  8
P-0000
  6
Continuous
 62
     7
100
AcDbLine
 10
216.2524195997299
 20
204.9076969769245
 30
0.0
 11
195.3710280683927
 21
168.7400659119103
 31
0.0
1001
ACME_LAYERS
1000
1
  0
ARC
  5
2A7C
330
1F
100
AcDbEntity
  8
P-0000
  6
Continuous
 62
     7
100
AcDbCircle
 10
175.0580758677602
 20
130.5570006486967
 30
0.0
 40
67.7757030148646
100
AcDbArc
 50
61.26816370933213
 51
73.73183629066732
1001
ACME_LAYERS
1000
1
  0
ARC
  5
2A7D
330
1F
100
AcDbEntity
  8
P-0000
  6
Continuous
 62
     7
100
AcDbCircle
 10
175.0580758677602
 20
130.5570006486967
 30
0.0
 40
67.77570301486457
100
AcDbArc
 50
76.26816370932964
 51
88.73183629066605
1001
ACME_LAYERS
1000
1
  0
ARC
  5
2A7E
330
1F
100
AcDbEntity
  8
P-0000
  6
Continuous
 62
     7
100
AcDbCircle
 10
175.0580758677602
 20
130.5570006486967
 30
0.0
 40
70.7757030148646
100
AcDbArc
 50
76.21440128244349
 51
88.78559871755724
1001
ACME_LAYERS
1000
1
  0
ARC
  5
2A7F
330
1F
100
AcDbEntity
  8
P-0000
  6
Continuous
 62
     7
100
AcDbCircle
 10
175.0580758677602
 20
130.5570006486967
 30
0.0
 40
52.50000000000005
100
AcDbArc
 50
76.63724507777925
 51
88.36275492221991
1001
ACME_LAYERS
1000
1
  0
ARC
  5
2A80
330
1F
100
AcDbEntity
  8
P-0000
  6
Continuous
 62
     7
100
AcDbCircle
 10
175.0580758677602
 20
130.5570006486967
 30
0.0
 40
54.67277458128037
100
AcDbArc
 50
76.57216193381507
 51
88.42783806617736
1001
ACME_LAYERS
1000
1
  0
ARC
  5
2A81
330
1F
100
AcDbEntity
  8
P-0000
  6
Continuous
 62
     7
100
AcDbCircle
 10
175.0580758677602
 20
130.5570006486967
 30
0.0
 40
70.77570301486467
100
AcDbArc
 50
61.21440128244863
 51
73.78559871755782
1001
ACME_LAYERS
1000
1
  0
ARC
  5
2A82
330
1F
100
AcDbEntity
  8
P-0000
  6
Continuous
 62
     7
100
AcDbCircle
 10
175.0580758677602
 20
130.5570006486967
 30
0.0
 40
38.71355013421175
100
AcDbArc
 50
47.22054519689993
 51
87.77945480310128
1001
ACME_LAYERS
1000
1
  0
ARC
  5
2A83
330
1F
100
AcDbEntity
  8
P-0000
  6
Continuous
 62
     7
100
AcDbCircle
 10
175.0580758677602
 20
130.5570006486967
 30
0.0
 40
42.29778661622874
100
AcDbArc
 50
62.03229767646856
 51
72.96770232352847
1001
ACME_LAYERS
1000
1
  0
LINE
  5
2A84
330
1F
100
AcDbEntity
  8
P-0000
  6
Continuous
 62
     7
100
AcDbLine
 10
195.3710280683927
 20
168.7400659119103
 30
0.0
 11
194.1202294020636
 21
166.5736190717893
 31
0.0
1001
ACME_LAYERS
1000
1
  0
ARC
  5
2A85
330
1F
100
AcDbEntity
  8
P-0000
  6
Continuous
 62
     7
100
AcDbCircle
 10
175.0580758677602
 20
130.5570006486967
 30
0.0
 40
40.75000000000007
100
AcDbArc
 50
77.10952366924633
 51
87.89047633074599
1001
ACME_LAYERS
1000
1
  0
ARC
  5
2A86
330
1F
100
AcDbEntity
  8
P-0000
  6
Continuous
 62
     7
100
AcDbCircle
 10
175.0580758677602
 20
130.5570006486967
 30
0.0
 40
42.29778661622874
100
AcDbArc
 50
77.03229767647591
 51
87.96770232352612
1001
ACME_LAYERS
1000
1
  0
LINE
  5
2A87
330
1F
100
AcDbEntity
  8
P-0000
  6
Continuous
 62
     7
100
AcDbLine
 10
176.5580758677602
 20
173.780981261315
 30
0.0
 11
176.5580758677602
 21
171.2793839286571
 31
0.0
1001
ACME_LAYERS
1000
1
  0
LINE
  5
2A88
330
1F
100
AcDbEntity
  8
P-0000
  6
Continuous
 62
     7
100
AcDbLine
 10
173.5580758677602
 20
173.780981261315
 30
0.0
 11
173.5580758677602
 21
171.2793839286571
 31
0.0
1001
ACME_LAYERS
1000
1
  0
LINE
  5
2A89
330
1F
100
AcDbEntity
  8
P-0000
  6
Continuous
 62
     7
100
AcDbLine
 10
187.6941539948816
 20
171.919931269789
 30
0.0
 11
187.046692962012
 21
169.5035737991991
 31
0.0
1001
ACME_LAYERS
1000
1
  0
LINE
  5
2A8A
330
1F
100
AcDbEntity
  8
P-0000
  6
Continuous
 62
     7
100
AcDbLine
 10
184.7963765160144
 20
172.6963884050965
 30
0.0
 11
184.1489154831448
 21
170.2800309345066
 31
0.0
1001
ACME_LAYERS
1000
1
  0
ARC
  5
2A8B
330
1F
100
AcDbEntity
  8
P-0000
  6
Continuous
 62
     7
100
AcDbCircle
 10
175.0580758677602
 20
130.5570006486967
 30
0.0
 40
40.75000000000017
100
AcDbArc
 50
62.10952366924882
 51
72.89047633074592
1001
ACME_LAYERS
1000
1
  0
ARC
  5
2A8C
330
1F
100
AcDbEntity
  8
P-0000
  6
Continuous
 62
     7
100
AcDbCircle
 10
175.0580758677602
 20
130.5570006486967
 30
0.0
 40
40.74999999999998
100
AcDbArc
 50
47.10952366925384
 51
57.89047633074638
1001
ACME_LAYERS
1000
1
  0
ARC
  5
2A8D
330
1F
100
AcDbEntity
  8
P-0000
  6
Continuous
 62
     7
100
AcDbCircle
 10
175.0580758677602
 20
130.5570006486967
 30
0.0
 40
42.29778661622864
100
AcDbArc
 50
47.03229767646424
 51
57.96770232352339
1001
ACME_LAYERS
1000
1
  0
ARC
  5
2A8E
330
1F
100
AcDbEntity
  8
P-0000
  6
Continuous
 62
     7
100
AcDbCircle
 10
175.0580758677602
 20
130.5570006486967
 30
0.0
 40
52.50000000000007
100
AcDbArc
 50
46.63724507777065
 51
58.36275492221807
1001
ACME_LAYERS
1000
1
  0
ARC
  5
2A8F
330
1F
100
AcDbEntity
  8
P-0000
  6
Continuous
 62
     7
100
AcDbCircle
 10
175.0580758677602
 20
130.5570006486967
 30
0.0
 40
54.67277458128037
100
AcDbArc
 50
46.57216193381693
 51
58.42783806617974
1001
ACME_LAYERS
1000
1
  0
LINE
  5
2A90
330
1F
100
AcDbEntity
  8
P-0000
  6
Continuous
 62
     7
100
AcDbLine
 10
197.9691042797461
 20
167.2400659119102
 30
0.0
 11
196.7183056134173
 21
165.0736190717893
 31
0.0
1001
ACME_LAYERS
1000
1
  0
ARC
  5
2A91
330
1F
100
AcDbEntity
  8
P-0000
  6
Continuous
 62
     7
100
AcDbCircle
 10
175.0580758677602
 20
130.5570006486967
 30
0.0
 40
40.75000000000011
100
AcDbArc
 50
32.10952366925776
 51
42.89047633074146
1001
ACME_LAYERS
1000
1
  0
LINE
  5
2A92
330
1F
100
AcDbEntity
  8
P-0000
  6
Continuous
 62
     7
100
AcDbLine
 10
206.6827058405983
 20
160.0603102779752
 30
0.0
 11
204.9138094028777
 21
158.2914138402547
 31
0.0
1001
ACME_LAYERS
1000
1
  0
LINE
  5
2A93
330
1F
100
AcDbEntity
  8
P-0000
  6
Continuous
 62
     7
100
AcDbLine
 10
204.5613854970386
 20
162.1816306215348
 30
0.0
 11
202.7924890593181
 21
160.4127341838143
 31
0.0
1001
ACME_LAYERS
1000
1
  0
ARC
  5
2A94
330
1F
100
AcDbEntity
  8
P-0000
  6
Continuous
 62
     7
100
AcDbCircle
 10
175.0580758677602
 20
130.5570006486967
 30
0.0
 40
42.29778661622868
100
AcDbArc
 50
32.03229767646625
 51
42.96770232352894
1001
ACME_LAYERS
1000
1
  0
LINE
  5
2A95
330
1F
100
AcDbEntity
  8
P-0000
  6
Continuous
 62
     7
100
AcDbLine
 10
213.2411411309738
 20
150.8699528493291
 30
0.0
 11
211.0746942908527
 21
149.6191541830003
 31
0.0
1001
ACME_LAYERS
1000
1
  0
LINE
  5
2A96
330
1F
100
AcDbEntity
  8
P-0000
  6
Continuous
 62
     7
100
AcDbLine
 10
211.7411411309737
 20
153.4680290606825
 30
0.0
 11
209.5746942908527
 21
152.2172303943537
 31
0.0
1001
ACME_LAYERS
1000
1
  0
ARC
  5
2A97
330
1F
100
AcDbEntity
  8
P-0000
  6
Continuous
 62
     7
100
AcDbCircle
 10
175.0580758677602
 20
130.5570006486967
 30
0.0
 40
70.77570301486467
100
AcDbArc
 50
31.21440128243587
 51
43.78559871755978
1001
ACME_LAYERS
1000
1
  0
ARC
  5
2A98
330
1F
100
AcDbEntity
  8
P-0000
  6
Continuous
 62
     7
100
AcDbCircle
 10
175.0580758677602
 20
130.5570006486967
 30
0.0
 40
85.00000000000003
100
AcDbArc
 50
43.98884552189155
 51
46.01115447810149
1001
ACME_LAYERS
1000
1
  0
ARC
  5
2A99
330
1F
100
AcDbEntity
  8
P-0000
  6
Continuous
 62
     7
100
AcDbCircle
 10
175.0580758677602
 20
130.5570006486967
 30
0.0
 40
70.77570301486459
100
AcDbArc
 50
16.21440128243547
 51
28.7855987175593
1001
ACME_LAYERS
1000
1
  0
ARC
  5
2A9A
330
1F
100
AcDbEntity
  8
P-0000
  6
Continuous
 62
     7
100
AcDbCircle
 10
175.0580758677602
 20
130.5570006486967
 30
0.0
 40
67.7757030148646
100
AcDbArc
 50
16.26816370933424
 51
28.73183629067072
1001
ACME_LAYERS
1000
1
  0
ARC
  5
2A9B
330
1F
100
AcDbEntity
  8
P-0000
  6
Continuous
 62
     7
100
AcDbCircle
 10
175.0580758677602
 20
130.5570006486967
 30
0.0
 40
67.77570301486462
100
AcDbArc
 50
31.26816370933405
 51
43.73183629066279
1001
ACME_LAYERS
1000
1
  0
ARC
  5
2A9C
330
1F
100
AcDbEntity
  8
P-0000
  6
Continuous
 62
     7
100
AcDbCircle
 10
175.0580758677602
 20
130.5570006486967
 30
0.0
 40
85.0
100
AcDbArc
 50
28.98884552188678
 51
31.011154478103
1001
ACME_LAYERS
1000
1
  0
ARC
  5
2A9D
330
1F
100
AcDbEntity
  8
P-0000
  6
Continuous
 62
     7
100
AcDbCircle
 10
175.0580758677602
 20
130.5570006486967
 30
0.0
 40
85.0
100
AcDbArc
 50
13.98884552189493
 51
16.01115447810728
1001
ACME_LAYERS
1000
1
  0
ARC
  5
2A9E
330
1F
100
AcDbEntity
  8
P-0000
  6
Continuous
 62
     7
100
AcDbCircle
 10
170.9539128117259
 20
128.8570006486968
 30
0.0
 40
0.2000000000000297
100
AcDbArc
 50
315.0000000000253
 51
90.0
1001
ACME_LAYERS
1000
1
  0
ARC
  5
2A9F
330
1F
100
AcDbEntity
  8
P-0000
  6
Continuous
 62
     7
100
AcDbCircle
 10
170.953912811726
 20
132.2570006486967
 30
0.0
 40
0.1999999999999886
100
AcDbArc
 50
270.0
 51
45.00000000000921
1001
ACME_LAYERS
1000
1
  0
ARC
  5
2AA0
330
1F
100
AcDbEntity
  8
P-0000
  6
Continuous
 62
     7
100
AcDbCircle
 10
175.0580758677602
 20
130.5570006486967
 30
0.0
 40
38.71355013421183
100
AcDbArc
 50
227.2205451969
 51
267.7794548030948
1001
ACME_LAYERS
1000
1
  0
ARC
  5
2AA1
330
1F
100
AcDbEntity
  8
P-0000
  6
Continuous
 62
     7
100
AcDbCircle
 10
175.0580758677602
 20
130.5570006486967
 30
0.0
 40
40.75000000000009
100
AcDbArc
 50
257.1095236692527
 51
267.8904763307525
1001
ACME_LAYERS
1000
1
  0
ARC
  5
2AA2
330
1F
100
AcDbEntity
  8
P-0000
  6
Continuous
 62
     7
100
AcDbCircle
 10
175.0580758677602
 20
130.5570006486967
 30
0.0
 40
42.29778661622864
100
AcDbArc
 50
257.0322976764759
 51
267.9677023235261
1001
ACME_LAYERS
1000
1
  0
ARC
  5
2AA3
330
1F
100
AcDbEntity
  8
P-0000
  6
Continuous
 62
     7
100
AcDbCircle
 10
175.0580758677602
 20
130.5570006486967
 30
0.0
 40
52.50000000000007
100
AcDbArc
 50
256.6372450777793
 51
268.36275492222
1001
ACME_LAYERS
1000
1
  0
ARC
  5
2AA4
330
1F
100
AcDbEntity
  8
P-0000
  6
Continuous
 62
     7
100
AcDbCircle
 10
175.0580758677602
 20
130.5570006486967
 30
0.0
 40
54.67277458128029
100
AcDbArc
 50
256.5721619338151
 51
268.4278380661774
1001
ACME_LAYERS
1000
1
  0
ARC
  5
2AA5
330
1F
100
AcDbEntity
  8
P-0000
  6
Continuous
 62
     7
100
AcDbCircle
 10
175.0580758677602
 20
130.5570006486967
 30
0.0
 40
67.77570301486452
100
AcDbArc
 50
256.2681637093296
 51
268.7318362906661
1001
ACME_LAYERS
1000
1
  0
ARC
  5
2AA6
330
1F
100
AcDbEntity
  8
P-0000
  6
Continuous
 62
     7
100
AcDbCircle
 10
175.0580758677602
 20
130.5570006486967
 30
0.0
 40
70.77570301486453
100
AcDbArc
 50
256.2144012824372
 51
268.7855987175572
1001
ACME_LAYERS
1000
1
  0
LINE
  5
2AA7
330
1F
100
AcDbEntity
  8
P-0000
  6
Continuous
 62
     7
100
AcDbLine
 10
167.160830723336
 20
124.7810758478322
 30
0.0
 11
171.0953341679633
 21
128.7155792924595
 31
0.0
1001
ACME_LAYERS
1000
1
  0
LINE
  5
2AA8
330
1F
100
AcDbEntity
  8
P-0000
  6
Continuous
 62
     7
100
AcDbLine
 10
169.2821510668955
 20
122.6597555042724
 30
0.0
 11
173.2166545115229
 21
126.5942589488999
 31
0.0
1001
ACME_LAYERS
1000
1
  0
LINE
  5
2AA9
330
1F
100
AcDbEntity
  8
AM_7
100
AcDbLine
 10
175.0580758677602
 20
130.5570006486967
 30
0.0
 11
87.05807586776023
 21
130.5570006486967
 31
0.0
1001
ACME_LAYERS
1000
1
  0
ARC
  5
2AAA
330
1F
100
AcDbEntity
  8
P-0000
  6
Continuous
 62
     7
100
AcDbCircle
 10
175.0580758677602
 20
130.5570006486967
 30
0.0
 40
52.5
100
AcDbArc
 50
241.6372450777778
 51
253.3627549222208
1001
ACME_LAYERS
1000
1
  0
ARC
  5
2AAB
330
1F
100
AcDbEntity
  8
P-0000
  6
Continuous
 62
     7
100
AcDbCircle
 10
175.0580758677602
 20
130.5570006486967
 30
0.0
 40
54.67277458128025
100
AcDbArc
 50
241.5721619338156
 51
253.4278380661764
1001
ACME_LAYERS
1000
1
  0
ARC
  5
2AAC
330
1F
100
AcDbEntity
  8
P-0000
  6
Continuous
 62
     7
100
AcDbCircle
 10
175.0580758677602
 20
130.5570006486967
 30
0.0
 40
67.77570301486456
100
AcDbArc
 50
226.2681637093348
 51
238.731836290669
1001
ACME_LAYERS
1000
1
  0
LINE
  5
2AAD
330
1F
100
AcDbEntity
  8
P-0000
  6
Continuous
 62
     7
100
AcDbLine
 10
151.6129941075335
 20
48.85431928965999
 30
0.0
 11
162.4219977406387
 21
89.19407002760465
 31
0.0
1001
ACME_LAYERS
1000
1
  0
LINE
  5
2AAE
330
1F
100
AcDbEntity
  8
P-0000
  6
Continuous
 62
     7
100
AcDbLine
 10
131.2656559244372
 20
57.70630432046903
 30
0.0
 11
152.1470474557744
 21
93.87393538548337
 31
0.0
1001
ACME_LAYERS
1000
1
  0
LINE
  5
2AAF
330
1F
100
AcDbEntity
  8
P-0000
  6
Continuous
 62
     7
100
AcDbLine
 10
113.9026987900824
 20
71.52294391457883
 30
0.0
 11
143.433445894922
 21
101.0536910194184
 31
0.0
1001
ACME_LAYERS
1000
1
  0
LINE
  5
2AB0
330
1F
100
AcDbEntity
  8
P-0000
  6
Continuous
 62
     7
100
AcDbLine
 10
154.5107715864008
 20
48.07786215435249
 30
0.0
 11
165.3197752195058
 21
88.41761289229713
 31
0.0
1001
ACME_LAYERS
1000
1
  0
LINE
  5
2AB1
330
1F
100
AcDbEntity
  8
P-0000
  6
Continuous
 62
     7
100
AcDbLine
 10
133.8637321357905
 20
56.20630432046903
 30
0.0
 11
154.7451236671276
 21
92.37393538548337
 31
0.0
1001
ACME_LAYERS
1000
1
  0
LINE
  5
2AB2
330
1F
100
AcDbEntity
  8
P-0000
  6
Continuous
 62
     7
100
AcDbLine
 10
116.024019133642
 20
69.40162357101929
 30
0.0
 11
145.5547662384817
 21
98.9323706758588
 31
0.0
1001
ACME_LAYERS
1000
1
  0
ARC
  5
2AB3
330
1F
100
AcDbEntity
  8
P-0000
  6
Continuous
 62
     7
100
AcDbCircle
 10
175.0580758677602
 20
130.5570006486967
 30
0.0
 40
52.50000000000005
100
AcDbArc
 50
196.6372450777803
 51
208.362754922215
1001
ACME_LAYERS
1000
1
  0
ARC
  5
2AB4
330
1F
100
AcDbEntity
  8
P-0000
  6
Continuous
 62
     7
100
AcDbCircle
 10
175.0580758677602
 20
130.5570006486967
 30
0.0
 40
54.67277458128029
100
AcDbArc
 50
196.5721619338164
 51
208.427838066185
1001
ACME_LAYERS
1000
1
  0
ARC
  5
2AB5
330
1F
100
AcDbEntity
  8
P-0000
  6
Continuous
 62
     7
100
AcDbCircle
 10
175.0580758677602
 20
130.5570006486967
 30
0.0
 40
67.77570301486456
100
AcDbArc
 50
211.2681637093341
 51
223.7318362906628
1001
ACME_LAYERS
1000
1
  0
LINE
  5
2AB6
330
1F
100
AcDbEntity
  8
P-0000
  6
Continuous
 62
     7
100
AcDbLine
 10
100.7073795395324
 20
89.36265691672724
 30
0.0
 11
136.8750106045467
 21
110.2440484480643
 31
0.0
1001
ACME_LAYERS
1000
1
  0
LINE
  5
2AB7
330
1F
100
AcDbEntity
  8
P-0000
  6
Continuous
 62
     7
100
AcDbLine
 10
90.07131219246781
 20
132.0570006486969
 30
0.0
 11
131.8340952551419
 21
132.0570006486969
 31
0.0
1001
ACME_LAYERS
1000
1
  0
LINE
  5
2AB8
330
1F
100
AcDbEntity
  8
P-0000
  6
Continuous
 62
     7
100
AcDbLine
 10
102.2073795395324
 20
86.76458070537398
 30
0.0
 11
138.3750106045467
 21
107.6459722367111
 31
0.0
1001
ACME_LAYERS
1000
1
  0
LINE
  5
2AB9
330
1F
100
AcDbEntity
  8
P-0000
  6
Continuous
 62
     7
100
AcDbLine
 10
93.35539450872335
 20
107.1119188884705
 30
0.0
 11
133.695145246668
 21
117.9209225215754
 31
0.0
1001
ACME_LAYERS
1000
1
  0
LINE
  5
2ABA
330
1F
100
AcDbEntity
  8
P-0000
  6
Continuous
 62
     7
100
AcDbLine
 10
123.9794440563841
 20
118.423436774967
 30
0.0
 11
132.9186881113604
 21
120.8187000004427
 31
0.0
1001
ACME_LAYERS
1000
1
  0
LINE
  5
2ABB
330
1F
100
AcDbEntity
  8
P-0000
  6
Continuous
 62
     7
100
AcDbLine
 10
122.5795088141524
 20
129.0570006486969
 30
0.0
 11
131.8340952551419
 21
129.0570006486969
 31
0.0
1001
ACME_LAYERS
1000
1
  0
ARC
  5
2ABC
330
1F
100
AcDbEntity
  8
P-0000
  6
Continuous
 62
     7
100
AcDbCircle
 10
175.0580758677602
 20
130.5570006486967
 30
0.0
 40
70.7757030148646
100
AcDbArc
 50
181.2144012824363
 51
193.7855987175549
1001
ACME_LAYERS
1000
1
  0
LINE
  5
2ABD
330
1F
100
AcDbEntity
  8
P-0000
  6
Continuous
 62
     7
100
AcDbLine
 10
106.3211232754864
 20
113.6919039820359
 30
0.0
 11
109.2195806030075
 21
114.4685432822413
 31
0.0
1001
ACME_LAYERS
1000
1
  0
LINE
  5
2ABE
330
1F
100
AcDbEntity
  8
P-0000
  6
Continuous
 62
     7
100
AcDbLine
 10
90.07131219246781
 20
129.0570006486969
 30
0.0
 11
104.2982699236486
 21
129.0570006486969
 31
0.0
1001
ACME_LAYERS
1000
1
  0
ARC
  5
2ABF
330
1F
100
AcDbEntity
  8
P-0000
  6
Continuous
 62
     7
100
AcDbCircle
 10
175.0580758677602
 20
130.5570006486967
 30
0.0
 40
85.0
100
AcDbArc
 50
178.9888455218957
 51
181.0111544781042
1001
ACME_LAYERS
1000
1
  0
LINE
  5
2AC0
330
1F
100
AcDbEntity
  8
P-0000
  6
Continuous
 62
     7
100
AcDbLine
 10
89.05807586776024
 20
129.0570006486968
 30
0.0
 11
89.05807586776024
 21
132.0570006486967
 31
0.0
1001
ACME_LAYERS
1000
1
  0
LINE
  5
2AC1
330
1F
100
AcDbEntity
  8
P-0000
  6
Continuous
 62
     7
100
AcDbLine
 10
89.05807586776024
 20
129.0570006486968
 30
0.0
 11
89.05807586776024
 21
132.0570006486967
 31
0.0
1001
ACME_LAYERS
1000
1
  0
LINE
  5
2AC2
330
1F
100
AcDbEntity
  8
P-0000
  6
Continuous
 62
     7
100
AcDbLine
 10
89.05807586776024
 20
132.0570006486967
 30
0.0
 11
90.07131219246781
 21
132.0570006486969
 31
0.0
1001
ACME_LAYERS
1000
1
  0
LINE
  5
2AC3
330
1F
100
AcDbEntity
  8
P-0000
  6
Continuous
 62
     7
100
AcDbLine
 10
89.05807586776024
 20
129.0570006486968
 30
0.0
 11
90.07131219246781
 21
129.0570006486969
 31
0.0
1001
ACME_LAYERS
1000
1
  0
ARC
  5
2AC4
330
1F
100
AcDbEntity
  8
P-0000
  6
Continuous
 62
     7
100
AcDbCircle
 10
175.0580758677602
 20
130.5570006486967
 30
0.0
 40
52.5
100
AcDbArc
 50
166.6372450777801
 51
178.36275492222
1001
ACME_LAYERS
1000
1
  0
ARC
  5
2AC5
330
1F
100
AcDbEntity
  8
P-0000
  6
Continuous
 62
     7
100
AcDbCircle
 10
175.0580758677602
 20
130.5570006486967
 30
0.0
 40
54.67277458128032
100
AcDbArc
 50
166.5721619338214
 51
178.4278380661774
1001
ACME_LAYERS
1000
1
  0
LINE
  5
2AC6
330
1F
100
AcDbEntity
  8
P-0000
  6
Continuous
 62
     7
100
AcDbLine
 10
109.2195806030075
 20
114.4685432822413
 30
0.0
 11
121.8798819048684
 21
117.8608607920096
 31
0.0
1001
ACME_LAYERS
1000
1
  0
LINE
  5
2AC7
330
1F
100
AcDbEntity
  8
P-0000
  6
Continuous
 62
     7
100
AcDbLine
 10
107.2989737547664
 20
129.0570006486969
 30
0.0
 11
120.4058821293977
 21
129.0570006486969
 31
0.0
1001
ACME_LAYERS
1000
1
  0
ARC
  5
2AC8
330
1F
100
AcDbEntity
  8
P-0000
  6
Continuous
 62
     7
100
AcDbCircle
 10
175.0580758677602
 20
130.5570006486967
 30
0.0
 40
67.77570301486455
100
AcDbArc
 50
181.2681637093339
 51
193.7318362906767
1001
ACME_LAYERS
1000
1
  0
LINE
  5
2AC9
330
1F
100
AcDbEntity
  8
P-0000
  6
Continuous
 62
     7
100
AcDbLine
 10
104.2982699236486
 20
129.0570006486969
 30
0.0
 11
107.2989737547664
 21
129.0570006486969
 31
0.0
1001
ACME_LAYERS
1000
1
  0
ARC
  5
2ACA
330
1F
100
AcDbEntity
  8
P-0000
  6
Continuous
 62
     7
100
AcDbCircle
 10
175.0580758677602
 20
130.5570006486967
 30
0.0
 40
52.49999999999999
100
AcDbArc
 50
181.6372450777799
 51
193.3627549222199
1001
ACME_LAYERS
1000
1
  0
ARC
  5
2ACB
330
1F
100
AcDbEntity
  8
P-0000
  6
Continuous
 62
     7
100
AcDbCircle
 10
175.0580758677602
 20
130.5570006486967
 30
0.0
 40
54.67277458128037
100
AcDbArc
 50
181.5721619338225
 51
193.4278380661786
1001
ACME_LAYERS
1000
1
  0
LINE
  5
2ACC
330
1F
100
AcDbEntity
  8
P-0000
  6
Continuous
 62
     7
100
AcDbLine
 10
120.4058821293977
 20
129.0570006486969
 30
0.0
 11
122.5795088141524
 21
129.0570006486969
 31
0.0
1001
ACME_LAYERS
1000
1
  0
LINE
  5
2ACD
330
1F
100
AcDbEntity
  8
P-0000
  6
Continuous
 62
     7
100
AcDbLine
 10
121.8798819048684
 20
117.8608607920096
 30
0.0
 11
123.9794440563841
 21
118.423436774967
 31
0.0
1001
ACME_LAYERS
1000
1
  0
ARC
  5
2ACE
330
1F
100
AcDbEntity
  8
P-0000
  6
Continuous
 62
     7
100
AcDbCircle
 10
175.0580758677602
 20
130.5570006486967
 30
0.0
 40
85.00000000000003
100
AcDbArc
 50
208.9888455218868
 51
211.011154478103
1001
ACME_LAYERS
1000
1
  0
LINE
  5
2ACF
330
1F
100
AcDbEntity
  8
P-0000
  6
Continuous
 62
     7
100
AcDbLine
 10
92.57893737341584
 20
110.0096963673376
 30
0.0
 11
106.3211232754864
 21
113.6919039820359
 31
0.0
1001
ACME_LAYERS
1000
1
  0
ARC
  5
2AD0
330
1F
100
AcDbEntity
  8
P-0000
  6
Continuous
 62
     7
100
AcDbCircle
 10
175.0580758677602
 20
130.5570006486967
 30
0.0
 40
85.00000000000001
100
AcDbArc
 50
193.9888455218949
 51
196.0111544781073
1001
ACME_LAYERS
1000
1
  0
ARC
  5
2AD1
330
1F
100
AcDbEntity
  8
P-0000
  6
Continuous
 62
     7
100
AcDbCircle
 10
175.0580758677602
 20
130.5570006486967
 30
0.0
 40
70.77570301486463
100
AcDbArc
 50
196.2144012824355
 51
208.7855987175593
1001
ACME_LAYERS
1000
1
  0
ARC
  5
2AD2
330
1F
100
AcDbEntity
  8
P-0000
  6
Continuous
 62
     7
100
AcDbCircle
 10
175.0580758677602
 20
130.5570006486967
 30
0.0
 40
67.77570301486463
100
AcDbArc
 50
196.2681637093342
 51
208.7318362906561
1001
ACME_LAYERS
1000
1
  0
ARC
  5
2AD3
330
1F
100
AcDbEntity
  8
P-0000
  6
Continuous
 62
     7
100
AcDbCircle
 10
175.0580758677602
 20
130.5570006486967
 30
0.0
 40
70.77570301486457
100
AcDbArc
 50
211.2144012824359
 51
223.7855987175598
1001
ACME_LAYERS
1000
1
  0
ARC
  5
2AD4
330
1F
100
AcDbEntity
  8
P-0000
  6
Continuous
 62
     7
100
AcDbCircle
 10
175.0580758677602
 20
130.5570006486967
 30
0.0
 40
38.7135501342119
100
AcDbArc
 50
182.2205451969052
 51
222.7794548031001
1001
ACME_LAYERS
1000
1
  0
ARC
  5
2AD5
330
1F
100
AcDbEntity
  8
P-0000
  6
Continuous
 62
     7
100
AcDbCircle
 10
175.0580758677602
 20
130.5570006486967
 30
0.0
 40
40.75000000000006
100
AcDbArc
 50
197.1095236692525
 51
207.8904763307505
1001
ACME_LAYERS
1000
1
  0
ARC
  5
2AD6
330
1F
100
AcDbEntity
  8
P-0000
  6
Continuous
 62
     7
100
AcDbCircle
 10
175.0580758677602
 20
130.5570006486967
 30
0.0
 40
42.29778661622864
100
AcDbArc
 50
197.032297676474
 51
207.9677023235285
1001
ACME_LAYERS
1000
1
  0
LINE
  5
2AD7
330
1F
100
AcDbEntity
  8
P-0000
  6
Continuous
 62
     7
100
AcDbLine
 10
136.3735962409883
 20
132.057000648697
 30
0.0
 11
170.953912811726
 21
132.0570006486966
 31
0.0
1001
ACME_LAYERS
1000
1
  0
LINE
  5
2AD8
330
1F
100
AcDbEntity
  8
P-0000
  6
Continuous
 62
     7
100
AcDbLine
 10
136.3735962409882
 20
129.0570006486968
 30
0.0
 11
170.9539128117259
 21
129.0570006486966
 31
0.0
1001
ACME_LAYERS
1000
1
  0
ARC
  5
2AD9
330
1F
100
AcDbEntity
  8
P-0000
  6
Continuous
 62
     7
100
AcDbCircle
 10
175.0580758677602
 20
130.5570006486967
 30
0.0
 40
40.75000000000005
100
AcDbArc
 50
167.1095236692606
 51
177.8904763307524
1001
ACME_LAYERS
1000
1
  0
ARC
  5
2ADA
330
1F
100
AcDbEntity
  8
P-0000
  6
Continuous
 62
     7
100
AcDbCircle
 10
175.0580758677602
 20
130.5570006486967
 30
0.0
 40
42.29778661622868
100
AcDbArc
 50
167.0322976764755
 51
177.967702323526
1001
ACME_LAYERS
1000
1
  0
LINE
  5
2ADB
330
1F
100
AcDbEntity
  8
P-0000
  6
Continuous
 62
     7
100
AcDbLine
 10
133.695145246668
 20
143.1930787758181
 30
0.0
 11
136.1115027172579
 21
142.5456177429486
 31
0.0
1001
ACME_LAYERS
1000
1
  0
LINE
  5
2ADC
330
1F
100
AcDbEntity
  8
P-0000
  6
Continuous
 62
     7
100
AcDbLine
 10
132.9186881113604
 20
140.295301296951
 30
0.0
 11
135.3350455819504
 21
139.6478402640812
 31
0.0
1001
ACME_LAYERS
1000
1
  0
LINE
  5
2ADD
330
1F
100
AcDbEntity
  8
P-0000
  6
Continuous
 62
     7
100
AcDbLine
 10
131.8340952551419
 20
132.0570006486969
 30
0.0
 11
134.3356925877998
 21
132.0570006486967
 31
0.0
1001
ACME_LAYERS
1000
1
  0
ARC
  5
2ADE
330
1F
100
AcDbEntity
  8
P-0000
  6
Continuous
 62
     7
100
AcDbCircle
 10
175.0580758677602
 20
130.5570006486967
 30
0.0
 40
42.29778661622865
100
AcDbArc
 50
182.0322976764739
 51
192.9677023235244
1001
ACME_LAYERS
1000
1
  0
ARC
  5
2ADF
330
1F
100
AcDbEntity
  8
P-0000
  6
Continuous
 62
     7
100
AcDbCircle
 10
175.0580758677602
 20
130.5570006486967
 30
0.0
 40
40.75000000000008
100
AcDbArc
 50
182.1095236692475
 51
192.8904763307393
1001
ACME_LAYERS
1000
1
  0
LINE
  5
2AE0
330
1F
100
AcDbEntity
  8
P-0000
  6
Continuous
 62
     7
100
AcDbLine
 10
131.8340952551419
 20
129.0570006486969
 30
0.0
 11
134.3356925877998
 21
129.0570006486968
 31
0.0
1001
ACME_LAYERS
1000
1
  0
LINE
  5
2AE1
330
1F
100
AcDbEntity
  8
P-0000
  6
Continuous
 62
     7
100
AcDbLine
 10
132.9186881113604
 20
120.8187000004427
 30
0.0
 11
135.3350455819504
 21
121.4661610333123
 31
0.0
1001
ACME_LAYERS
1000
1
  0
LINE
  5
2AE2
330
1F
100
AcDbEntity
  8
P-0000
  6
Continuous
 62
     7
100
AcDbLine
 10
133.695145246668
 20
117.9209225215754
 30
0.0
 11
136.111502717258
 21
118.5683835544449
 31
0.0
1001
ACME_LAYERS
1000
1
  0
LINE
  5
2AE3
330
1F
100
AcDbEntity
  8
P-0000
  6
Continuous
 62
     7
100
AcDbLine
 10
158.413000894117
 20
116.8878476947702
 30
0.0
 11
158.4815492218185
 21
116.8192993670688
 31
0.0
1001
ACME_LAYERS
1000
1
  0
LINE
  5
2AE4
330
1F
100
AcDbEntity
  8
P-0000
  6
Continuous
 62
     7
100
AcDbLine
 10
158.133194951009
 20
117.1676536378784
 30
0.0
 11
158.2576246846601
 21
117.0432239042272
 31
0.0
1001
ACME_LAYERS
1000
1
  0
LINE
  5
2AE5
330
1F
100
AcDbEntity
  8
P-0000
  6
Continuous
 62
     7
100
AcDbLine
 10
166.1001705515561
 20
123.7204156760522
 30
0.0
 11
166.1027015809809
 21
123.7178846466274
 31
0.0
1001
ACME_LAYERS
1000
1
  0
ARC
  5
2AE6
330
1F
100
AcDbEntity
  8
P-0000
  6
Continuous
 62
     7
100
AcDbCircle
 10
175.0580758677602
 20
130.5570006486967
 30
0.0
 40
40.75000000000009
100
AcDbArc
 50
227.1095236692538
 51
237.8904763307464
1001
ACME_LAYERS
1000
1
  0
ARC
  5
2AE7
330
1F
100
AcDbEntity
  8
P-0000
  6
Continuous
 62
     7
100
AcDbCircle
 10
175.0580758677602
 20
130.5570006486967
 30
0.0
 40
42.29778661622866
100
AcDbArc
 50
227.0322976764642
 51
237.9677023235234
1001
ACME_LAYERS
1000
1
  0
LINE
  5
2AE8
330
1F
100
AcDbEntity
  8
P-0000
  6
Continuous
 62
     7
100
AcDbLine
 10
146.643357825217
 20
104.2636029497133
 30
0.0
 11
150.8973747560452
 21
108.5176198805417
 31
0.0
1001
ACME_LAYERS
1000
1
  0
ARC
  5
2AE9
330
1F
100
AcDbEntity
  8
P-0000
  6
Continuous
 62
     7
100
AcDbCircle
 10
175.0580758677602
 20
130.5570006486967
 30
0.0
 40
52.49999999999999
100
AcDbArc
 50
211.6372450777674
 51
223.3627549222155
1001
ACME_LAYERS
1000
1
  0
ARC
  5
2AEA
330
1F
100
AcDbEntity
  8
P-0000
  6
Continuous
 62
     7
100
AcDbCircle
 10
175.0580758677602
 20
130.5570006486967
 30
0.0
 40
54.67277458128032
100
AcDbArc
 50
211.572161933813
 51
223.4278380661854
1001
ACME_LAYERS
1000
1
  0
ARC
  5
2AEB
330
1F
100
AcDbEntity
  8
P-0000
  6
Continuous
 62
     7
100
AcDbCircle
 10
175.0580758677602
 20
130.5570006486967
 30
0.0
 40
40.75000000000001
100
AcDbArc
 50
212.1095236692577
 51
222.8904763307415
1001
ACME_LAYERS
1000
1
  0
ARC
  5
2AEC
330
1F
100
AcDbEntity
  8
P-0000
  6
Continuous
 62
     7
100
AcDbCircle
 10
175.0580758677602
 20
130.5570006486967
 30
0.0
 40
42.29778661622863
100
AcDbArc
 50
212.0322976764663
 51
222.9677023235289
1001
ACME_LAYERS
1000
1
  0
LINE
  5
2AED
330
1F
100
AcDbEntity
  8
P-0000
  6
Continuous
 62
     7
100
AcDbLine
 10
136.8750106045467
 20
110.2440484480643
 30
0.0
 11
139.0414574446676
 21
111.4948471143934
 31
0.0
1001
ACME_LAYERS
1000
1
  0
LINE
  5
2AEE
330
1F
100
AcDbEntity
  8
P-0000
  6
Continuous
 62
     7
100
AcDbLine
 10
138.3750106045467
 20
107.6459722367111
 30
0.0
 11
140.5414574446678
 21
108.8967709030398
 31
0.0
1001
ACME_LAYERS
1000
1
  0
LINE
  5
2AEF
330
1F
100
AcDbEntity
  8
P-0000
  6
Continuous
 62
     7
100
AcDbLine
 10
143.433445894922
 20
101.0536910194184
 30
0.0
 11
145.2023423326428
 21
102.8225874571388
 31
0.0
1001
ACME_LAYERS
1000
1
  0
LINE
  5
2AF0
330
1F
100
AcDbEntity
  8
P-0000
  6
Continuous
 62
     7
100
AcDbLine
 10
145.5547662384817
 20
98.9323706758588
 30
0.0
 11
147.3236626762023
 21
100.7012671135791
 31
0.0
1001
ACME_LAYERS
1000
1
  0
ARC
  5
2AF1
330
1F
100
AcDbEntity
  8
P-0000
  6
Continuous
 62
     7
100
AcDbCircle
 10
175.0580758677602
 20
130.5570006486967
 30
0.0
 40
52.50000000000001
100
AcDbArc
 50
226.6372450777707
 51
238.362754922218
1001
ACME_LAYERS
1000
1
  0
ARC
  5
2AF2
330
1F
100
AcDbEntity
  8
P-0000
  6
Continuous
 62
     7
100
AcDbCircle
 10
175.0580758677602
 20
130.5570006486967
 30
0.0
 40
54.67277458128027
100
AcDbArc
 50
226.5721619338169
 51
238.4278380661797
1001
ACME_LAYERS
1000
1
  0
LINE
  5
2AF3
330
1F
100
AcDbEntity
  8
P-0000
  6
Continuous
 62
     7
100
AcDbLine
 10
148.7646781687767
 20
102.1422826061537
 30
0.0
 11
153.0186950996049
 21
106.3962995369819
 31
0.0
1001
ACME_LAYERS
1000
1
  0
ARC
  5
2AF4
330
1F
100
AcDbEntity
  8
P-0000
  6
Continuous
 62
     7
100
AcDbCircle
 10
152.6651417090117
 20
110.2853868335079
 30
0.0
 40
1.000000000000088
100
AcDbArc
 50
135.0000000000069
 51
224.9999999999908
1001
ACME_LAYERS
1000
1
  0
ARC
  5
2AF5
330
1F
100
AcDbEntity
  8
P-0000
  6
Continuous
 62
     7
100
AcDbCircle
 10
154.7864620525714
 20
108.1640664899482
 30
0.0
 40
0.9999999999999275
100
AcDbArc
 50
224.9999999999931
 51
315.000000000007
1001
ACME_LAYERS
1000
1
  0
ARC
  5
2AF6
330
1F
100
AcDbEntity
  8
P-0000
  6
Continuous
 62
     7
100
AcDbCircle
 10
175.0580758677602
 20
130.5570006486967
 30
0.0
 40
40.75000000000001
100
AcDbArc
 50
242.1095236692488
 51
252.8904763307459
1001
ACME_LAYERS
1000
1
  0
ARC
  5
2AF7
330
1F
100
AcDbEntity
  8
P-0000
  6
Continuous
 62
     7
100
AcDbCircle
 10
175.0580758677602
 20
130.5570006486967
 30
0.0
 40
42.29778661622864
100
AcDbArc
 50
242.0322976764686
 51
252.9677023235285
1001
ACME_LAYERS
1000
1
  0
LINE
  5
2AF8
330
1F
100
AcDbEntity
  8
P-0000
  6
Continuous
 62
     7
100
AcDbLine
 10
152.1470474557744
 20
93.87393538548337
 30
0.0
 11
153.3978461221032
 21
96.0403822256044
 31
0.0
1001
ACME_LAYERS
1000
1
  0
LINE
  5
2AF9
330
1F
100
AcDbEntity
  8
P-0000
  6
Continuous
 62
     7
100
AcDbLine
 10
154.7451236671276
 20
92.37393538548337
 30
0.0
 11
155.9959223334566
 21
94.5403822256044
 31
0.0
1001
ACME_LAYERS
1000
1
  0
LINE
  5
2AFA
330
1F
100
AcDbEntity
  8
P-0000
  6
Continuous
 62
     7
100
AcDbLine
 10
165.3197752195058
 20
88.41761289229713
 30
0.0
 11
165.9672362523756
 21
90.83397036288705
 31
0.0
1001
ACME_LAYERS
1000
1
  0
LINE
  5
2AFB
330
1F
100
AcDbEntity
  8
P-0000
  6
Continuous
 62
     7
100
AcDbLine
 10
162.4219977406387
 20
89.19407002760465
 30
0.0
 11
163.0694587735082
 21
91.61042749819456
 31
0.0
1001
ACME_LAYERS
1000
1
  0
ARC
  5
2AFC
330
1F
100
AcDbEntity
  8
P-0000
  6
Continuous
 62
     7
100
AcDbCircle
 10
175.0580758677602
 20
130.5570006486967
 30
0.0
 40
85.00000000000007
100
AcDbArc
 50
223.9888455218915
 51
226.0111544781015
1001
ACME_LAYERS
1000
1
  0
ARC
  5
2AFD
330
1F
100
AcDbEntity
  8
P-0000
  6
Continuous
 62
     7
100
AcDbCircle
 10
175.0580758677602
 20
130.5570006486967
 30
0.0
 40
67.77570301486457
100
AcDbArc
 50
241.2681637093321
 51
253.7318362906673
1001
ACME_LAYERS
1000
1
  0
ARC
  5
2AFE
330
1F
100
AcDbEntity
  8
P-0000
  6
Continuous
 62
     7
100
AcDbCircle
 10
175.0580758677602
 20
130.5570006486967
 30
0.0
 40
70.7757030148646
100
AcDbArc
 50
241.2144012824486
 51
253.7855987175578
1001
ACME_LAYERS
1000
1
  0
ARC
  5
2AFF
330
1F
100
AcDbEntity
  8
P-0000
  6
Continuous
 62
     7
100
AcDbCircle
 10
175.0580758677602
 20
130.5570006486967
 30
0.0
 40
70.7757030148645
100
AcDbArc
 50
226.2144012824447
 51
238.7855987175577
1001
ACME_LAYERS
1000
1
  0
ARC
  5
2B00
330
1F
100
AcDbEntity
  8
P-0000
  6
Continuous
 62
     7
100
AcDbCircle
 10
175.0580758677602
 20
130.5570006486967
 30
0.0
 40
52.50000000000007
100
AcDbArc
 50
286.6372450777792
 51
298.3627549222223
1001
ACME_LAYERS
1000
1
  0
ARC
  5
2B01
330
1F
100
AcDbEntity
  8
P-0000
  6
Continuous
 62
     7
100
AcDbCircle
 10
175.0580758677602
 20
130.5570006486967
 30
0.0
 40
54.67277458128037
100
AcDbArc
 50
286.5721619338236
 51
298.4278380661844
1001
ACME_LAYERS
1000
1
  0
ARC
  5
2B02
330
1F
100
AcDbEntity
  8
P-0000
  6
Continuous
 62
     7
100
AcDbCircle
 10
175.0580758677602
 20
130.5570006486967
 30
0.0
 40
67.77570301486463
100
AcDbArc
 50
301.268163709331
 51
313.7318362906652
1001
ACME_LAYERS
1000
1
  0
LINE
  5
2B03
330
1F
100
AcDbEntity
  8
P-0000
  6
Continuous
 62
     7
100
AcDbLine
 10
234.0921326018779
 20
69.40162357101894
 30
0.0
 11
204.5613854970384
 21
98.93237067585857
 31
0.0
1001
ACME_LAYERS
1000
1
  0
LINE
  5
2B04
330
1F
100
AcDbEntity
  8
P-0000
  6
Continuous
 62
     7
100
AcDbLine
 10
216.2524195997296
 20
56.2063043204688
 30
0.0
 11
195.3710280683925
 21
92.37393538548316
 31
0.0
1001
ACME_LAYERS
1000
1
  0
LINE
  5
2B05
330
1F
100
AcDbEntity
  8
P-0000
  6
Continuous
 62
     7
100
AcDbLine
 10
195.6053801491192
 20
48.07786215435237
 30
0.0
 11
184.7963765160141
 21
88.41761289229692
 31
0.0
1001
ACME_LAYERS
1000
1
  0
LINE
  5
2B06
330
1F
100
AcDbEntity
  8
P-0000
  6
Continuous
 62
     7
100
AcDbLine
 10
173.55807586776
 20
45.57023697340435
 30
0.0
 11
173.55807586776
 21
87.33302003607844
 31
0.0
1001
ACME_LAYERS
1000
1
  0
LINE
  5
2B07
330
1F
100
AcDbEntity
  8
P-0000
  6
Continuous
 62
     7
100
AcDbLine
 10
236.2134529454377
 20
71.52294391457861
 30
0.0
 11
206.6827058405981
 21
101.0536910194181
 31
0.0
1001
ACME_LAYERS
1000
1
  0
LINE
  5
2B08
330
1F
100
AcDbEntity
  8
P-0000
  6
Continuous
 62
     7
100
AcDbLine
 10
218.8504958110828
 20
57.7063043204688
 30
0.0
 11
197.9691042797458
 21
93.87393538548314
 31
0.0
1001
ACME_LAYERS
1000
1
  0
LINE
  5
2B09
330
1F
100
AcDbEntity
  8
P-0000
  6
Continuous
 62
     7
100
AcDbLine
 10
198.5031576279862
 20
48.85431928965989
 30
0.0
 11
187.6941539948813
 21
89.19407002760442
 31
0.0
1001
ACME_LAYERS
1000
1
  0
LINE
  5
2B0A
330
1F
100
AcDbEntity
  8
P-0000
  6
Continuous
 62
     7
100
AcDbLine
 10
176.55807586776
 20
45.57023697340435
 30
0.0
 11
176.55807586776
 21
87.33302003607844
 31
0.0
1001
ACME_LAYERS
1000
1
  0
LINE
  5
2B0B
330
1F
100
AcDbEntity
  8
AM_7
100
AcDbLine
 10
175.0580758677602
 20
42.55700064869677
 30
0.0
 11
175.0580758677602
 21
130.5570006486967
 31
0.0
1001
ACME_LAYERS
1000
1
  0
ARC
  5
2B0C
330
1F
100
AcDbEntity
  8
P-0000
  6
Continuous
 62
     7
100
AcDbCircle
 10
175.0580758677602
 20
130.5570006486967
 30
0.0
 40
42.29778661622863
100
AcDbArc
 50
347.0322976764756
 51
357.9677023235261
1001
ACME_LAYERS
1000
1
  0
ARC
  5
2B0D
330
1F
100
AcDbEntity
  8
P-0000
  6
Continuous
 62
     7
100
AcDbCircle
 10
175.0580758677602
 20
130.5570006486967
 30
0.0
 40
42.29778661622867
100
AcDbArc
 50
2.03229767647394
 51
12.96770232352446
1001
ACME_LAYERS
1000
1
  0
ARC
  5
2B0E
330
1F
100
AcDbEntity
  8
P-0000
  6
Continuous
 62
     7
100
AcDbCircle
 10
175.0580758677602
 20
130.5570006486967
 30
0.0
 40
52.5
100
AcDbArc
 50
316.6372450777845
 51
328.3627549222326
1001
ACME_LAYERS
1000
1
  0
ARC
  5
2B0F
330
1F
100
AcDbEntity
  8
P-0000
  6
Continuous
 62
     7
100
AcDbCircle
 10
175.0580758677602
 20
130.5570006486967
 30
0.0
 40
54.67277458128038
100
AcDbArc
 50
316.5721619338146
 51
328.427838066187
1001
ACME_LAYERS
1000
1
  0
LINE
  5
2B10
330
1F
100
AcDbEntity
  8
P-0000
  6
Continuous
 62
     7
100
AcDbLine
 10
218.2820564803785
 20
129.0570006486966
 30
0.0
 11
215.7804591477206
 21
129.0570006486966
 31
0.0
1001
ACME_LAYERS
1000
1
  0
LINE
  5
2B11
330
1F
100
AcDbEntity
  8
P-0000
  6
Continuous
 62
     7
100
AcDbLine
 10
218.2820564803785
 20
132.0570006486966
 30
0.0
 11
215.7804591477206
 21
132.0570006486966
 31
0.0
1001
ACME_LAYERS
1000
1
  0
LINE
  5
2B12
330
1F
100
AcDbEntity
  8
P-0000
  6
Continuous
 62
     7
100
AcDbLine
 10
256.7607572267969
 20
107.1119188884701
 30
0.0
 11
216.4210064888524
 21
117.9209225215751
 31
0.0
1001
ACME_LAYERS
1000
1
  0
LINE
  5
2B13
330
1F
100
AcDbEntity
  8
P-0000
  6
Continuous
 62
     7
100
AcDbLine
 10
247.9087721959879
 20
86.76458070537364
 30
0.0
 11
211.7411411309736
 21
107.6459722367107
 31
0.0
1001
ACME_LAYERS
1000
1
  0
LINE
  5
2B14
330
1F
100
AcDbEntity
  8
P-0000
  6
Continuous
 62
     7
100
AcDbLine
 10
257.5372143621045
 20
110.0096963673372
 30
0.0
 11
217.1974636241599
 21
120.8187000004423
 31
0.0
1001
ACME_LAYERS
1000
1
  0
LINE
  5
2B15
330
1F
100
AcDbEntity
  8
P-0000
  6
Continuous
 62
     7
100
AcDbLine
 10
249.4087721959878
 20
89.36265691672691
 30
0.0
 11
213.2411411309736
 21
110.244048448064
 31
0.0
1001
ACME_LAYERS
1000
1
  0
LINE
  5
2B16
330
1F
100
AcDbEntity
  8
AM_7
100
AcDbLine
 10
263.0580758677602
 20
130.5570006486966
 30
0.0
 11
175.0580758677602
 21
130.5570006486967
 31
0.0
1001
ACME_LAYERS
1000
1
  0
ARC
  5
2B17
330
1F
100
AcDbEntity
  8
P-0000
  6
Continuous
 62
     7
100
AcDbCircle
 10
175.0580758677602
 20
130.5570006486967
 30
0.0
 40
38.7135501342118
100
AcDbArc
 50
317.2205451968999
 51
357.7794548030948
1001
ACME_LAYERS
1000
1
  0
ARC
  5
2B18
330
1F
100
AcDbEntity
  8
P-0000
  6
Continuous
 62
     7
100
AcDbCircle
 10
175.0580758677602
 20
130.5570006486967
 30
0.0
 40
40.75000000000011
100
AcDbArc
 50
332.1095236692495
 51
342.8904763307475
1001
ACME_LAYERS
1000
1
  0
ARC
  5
2B19
330
1F
100
AcDbEntity
  8
P-0000
  6
Continuous
 62
     7
100
AcDbCircle
 10
175.0580758677602
 20
130.5570006486967
 30
0.0
 40
42.29778661622865
100
AcDbArc
 50
332.0322976764715
 51
342.9677023235259
1001
ACME_LAYERS
1000
1
  0
LINE
  5
2B1A
330
1F
100
AcDbEntity
  8
P-0000
  6
Continuous
 62
     7
100
AcDbLine
 10
176.5580758677602
 20
91.87252102192486
 30
0.0
 11
176.5580758677602
 21
126.4528375926625
 31
0.0
1001
ACME_LAYERS
1000
1
  0
LINE
  5
2B1B
330
1F
100
AcDbEntity
  8
P-0000
  6
Continuous
 62
     7
100
AcDbLine
 10
173.5580758677601
 20
91.87252102192486
 30
0.0
 11
173.5580758677602
 21
126.4528375926625
 31
0.0
1001
ACME_LAYERS
1000
1
  0
LINE
  5
2B1C
330
1F
100
AcDbEntity
  8
P-0000
  6
Continuous
 62
     7
100
AcDbLine
 10
201.3514735667436
 20
102.1422826061537
 30
0.0
 11
176.8994972239975
 21
126.5942589488997
 31
0.0
1001
ACME_LAYERS
1000
1
  0
LINE
  5
2B1D
330
1F
100
AcDbEntity
  8
P-0000
  6
Continuous
 62
     7
100
AcDbLine
 10
203.4727939103032
 20
104.2636029497133
 30
0.0
 11
179.0208175675571
 21
128.7155792924595
 31
0.0
1001
ACME_LAYERS
1000
1
  0
LINE
  5
2B1E
330
1F
100
AcDbEntity
  8
P-0000
  6
Continuous
 62
     7
100
AcDbLine
 10
213.7425554945322
 20
129.0570006486966
 30
0.0
 11
179.1622389237944
 21
129.0570006486968
 31
0.0
1001
ACME_LAYERS
1000
1
  0
LINE
  5
2B1F
330
1F
100
AcDbEntity
  8
P-0000
  6
Continuous
 62
     7
100
AcDbLine
 10
213.7425554945322
 20
132.0570006486966
 30
0.0
 11
179.1622389237944
 21
132.0570006486967
 31
0.0
1001
ACME_LAYERS
1000
1
  0
ARC
  5
2B20
330
1F
100
AcDbEntity
  8
P-0000
  6
Continuous
 62
     7
100
AcDbCircle
 10
176.7580758677603
 20
134.661163704731
 30
0.0
 40
0.2000000000000028
100
AcDbArc
 50
180.0
 51
315.000000000007
1001
ACME_LAYERS
1000
1
  0
ARC
  5
2B21
330
1F
100
AcDbEntity
  8
P-0000
  6
Continuous
 62
     7
100
AcDbCircle
 10
173.3580758677602
 20
134.661163704731
 30
0.0
 40
0.1999999999999795
100
AcDbArc
 50
224.9999999999931
 51
0.0
1001
ACME_LAYERS
1000
1
  0
ARC
  5
2B22
330
1F
100
AcDbEntity
  8
P-0000
  6
Continuous
 62
     7
100
AcDbCircle
 10
179.1622389237944
 20
132.2570006486967
 30
0.0
 40
0.1999999999999795
100
AcDbArc
 50
135.0000000000069
 51
270.0
1001
ACME_LAYERS
1000
1
  0
ARC
  5
2B23
330
1F
100
AcDbEntity
  8
P-0000
  6
Continuous
 62
     7
100
AcDbCircle
 10
176.7580758677603
 20
126.4528375926625
 30
0.0
 40
0.1999999999999795
100
AcDbArc
 50
44.99999999999309
 51
180.0
1001
ACME_LAYERS
1000
1
  0
ARC
  5
2B24
330
1F
100
AcDbEntity
  8
P-0000
  6
Continuous
 62
     7
100
AcDbCircle
 10
173.3580758677602
 20
126.4528375926625
 30
0.0
 40
0.1999999999999886
100
AcDbArc
 50
0.0
 51
134.9999999999908
1001
ACME_LAYERS
1000
1
  0
ARC
  5
2B25
330
1F
100
AcDbEntity
  8
P-0000
  6
Continuous
 62
     7
100
AcDbCircle
 10
179.1622389237944
 20
128.8570006486968
 30
0.0
 40
0.1999999999999886
100
AcDbArc
 50
90.0
 51
224.9999999999931
1001
ACME_LAYERS
1000
1
  0
ARC
  5
2B26
330
1F
100
AcDbEntity
  8
P-0000
  6
Continuous
 62
     7
100
AcDbCircle
 10
175.0580758677602
 20
130.5570006486967
 30
0.0
 40
40.74999999999999
100
AcDbArc
 50
2.109523669247563
 51
12.89047633073938
1001
ACME_LAYERS
1000
1
  0
LINE
  5
2B27
330
1F
100
AcDbEntity
  8
P-0000
  6
Continuous
 62
     7
100
AcDbLine
 10
216.4210064888524
 20
143.1930787758181
 30
0.0
 11
214.0046490182625
 21
142.5456177429486
 31
0.0
1001
ACME_LAYERS
1000
1
  0
LINE
  5
2B28
330
1F
100
AcDbEntity
  8
P-0000
  6
Continuous
 62
     7
100
AcDbLine
 10
217.19746362416
 20
140.2953012969509
 30
0.0
 11
214.78110615357
 21
139.6478402640812
 31
0.0
1001
ACME_LAYERS
1000
1
  0
ARC
  5
2B29
330
1F
100
AcDbEntity
  8
P-0000
  6
Continuous
 62
     7
100
AcDbCircle
 10
175.0580758677602
 20
130.5570006486967
 30
0.0
 40
40.75000000000006
100
AcDbArc
 50
347.1095236692606
 51
357.8904763307524
1001
ACME_LAYERS
1000
1
  0
LINE
  5
2B2A
330
1F
100
AcDbEntity
  8
P-0000
  6
Continuous
 62
     7
100
AcDbLine
 10
216.4210064888524
 20
117.9209225215751
 30
0.0
 11
214.0046490182625
 21
118.5683835544447
 31
0.0
1001
ACME_LAYERS
1000
1
  0
LINE
  5
2B2B
330
1F
100
AcDbEntity
  8
P-0000
  6
Continuous
 62
     7
100
AcDbLine
 10
217.1974636241599
 20
120.8187000004423
 30
0.0
 11
214.78110615357
 21
121.4661610333122
 31
0.0
1001
ACME_LAYERS
1000
1
  0
ARC
  5
2B2C
330
1F
100
AcDbEntity
  8
P-0000
  6
Continuous
 62
     7
100
AcDbCircle
 10
175.0580758677602
 20
130.5570006486967
 30
0.0
 40
38.71355013421182
100
AcDbArc
 50
272.2205451969052
 51
312.7794548031001
1001
ACME_LAYERS
1000
1
  0
ARC
  5
2B2D
330
1F
100
AcDbEntity
  8
P-0000
  6
Continuous
 62
     7
100
AcDbCircle
 10
175.0580758677602
 20
130.5570006486967
 30
0.0
 40
42.29778661622864
100
AcDbArc
 50
287.0322976764715
 51
297.9677023235226
1001
ACME_LAYERS
1000
1
  0
LINE
  5
2B2E
330
1F
100
AcDbEntity
  8
P-0000
  6
Continuous
 62
     7
100
AcDbLine
 10
195.3710280683925
 20
92.37393538548316
 30
0.0
 11
194.1202294020636
 21
94.54038222560427
 31
0.0
1001
ACME_LAYERS
1000
1
  0
ARC
  5
2B2F
330
1F
100
AcDbEntity
  8
P-0000
  6
Continuous
 62
     7
100
AcDbCircle
 10
175.0580758677602
 20
130.5570006486967
 30
0.0
 40
40.74999999999999
100
AcDbArc
 50
272.109523669254
 51
282.8904763307473
1001
ACME_LAYERS
1000
1
  0
ARC
  5
2B30
330
1F
100
AcDbEntity
  8
P-0000
  6
Continuous
 62
     7
100
AcDbCircle
 10
175.0580758677602
 20
130.5570006486967
 30
0.0
 40
42.29778661622868
100
AcDbArc
 50
272.0322976764739
 51
282.9677023235241
1001
ACME_LAYERS
1000
1
  0
LINE
  5
2B31
330
1F
100
AcDbEntity
  8
P-0000
  6
Continuous
 62
     7
100
AcDbLine
 10
173.55807586776
 20
87.33302003607844
 30
0.0
 11
173.5580758677602
 21
89.8346173687363
 31
0.0
1001
ACME_LAYERS
1000
1
  0
LINE
  5
2B32
330
1F
100
AcDbEntity
  8
P-0000
  6
Continuous
 62
     7
100
AcDbLine
 10
176.55807586776
 20
87.33302003607844
 30
0.0
 11
176.5580758677602
 21
89.8346173687363
 31
0.0
1001
ACME_LAYERS
1000
1
  0
LINE
  5
2B33
330
1F
100
AcDbEntity
  8
P-0000
  6
Continuous
 62
     7
100
AcDbLine
 10
184.7963765160141
 20
88.41761289229692
 30
0.0
 11
184.1489154831448
 21
90.83397036288705
 31
0.0
1001
ACME_LAYERS
1000
1
  0
ARC
  5
2B34
330
1F
100
AcDbEntity
  8
P-0000
  6
Continuous
 62
     7
100
AcDbCircle
 10
175.0580758677602
 20
130.5570006486967
 30
0.0
 40
40.75000000000011
100
AcDbArc
 50
287.1095236692541
 51
297.8904763307426
1001
ACME_LAYERS
1000
1
  0
LINE
  5
2B35
330
1F
100
AcDbEntity
  8
P-0000
  6
Continuous
 62
     7
100
AcDbLine
 10
187.6941539948813
 20
89.19407002760442
 30
0.0
 11
187.046692962012
 21
91.61042749819456
 31
0.0
1001
ACME_LAYERS
1000
1
  0
ARC
  5
2B36
330
1F
100
AcDbEntity
  8
P-0000
  6
Continuous
 62
     7
100
AcDbCircle
 10
175.0580758677602
 20
130.5570006486967
 30
0.0
 40
40.7500000000001
100
AcDbArc
 50
302.1095236692536
 51
312.8904763307462
1001
ACME_LAYERS
1000
1
  0
ARC
  5
2B37
330
1F
100
AcDbEntity
  8
P-0000
  6
Continuous
 62
     7
100
AcDbCircle
 10
175.0580758677602
 20
130.5570006486967
 30
0.0
 40
42.29778661622868
100
AcDbArc
 50
302.0322976764766
 51
312.9677023235266
1001
ACME_LAYERS
1000
1
  0
ARC
  5
2B38
330
1F
100
AcDbEntity
  8
P-0000
  6
Continuous
 62
     7
100
AcDbCircle
 10
175.0580758677602
 20
130.5570006486967
 30
0.0
 40
40.74999999999994
100
AcDbArc
 50
317.1095236692585
 51
327.8904763307422
1001
ACME_LAYERS
1000
1
  0
LINE
  5
2B39
330
1F
100
AcDbEntity
  8
P-0000
  6
Continuous
 62
     7
100
AcDbLine
 10
206.6827058405981
 20
101.0536910194181
 30
0.0
 11
204.9138094028777
 21
102.822587457139
 31
0.0
1001
ACME_LAYERS
1000
1
  0
LINE
  5
2B3A
330
1F
100
AcDbEntity
  8
P-0000
  6
Continuous
 62
     7
100
AcDbLine
 10
204.5613854970384
 20
98.93237067585857
 30
0.0
 11
202.7924890593181
 21
100.7012671135793
 31
0.0
1001
ACME_LAYERS
1000
1
  0
ARC
  5
2B3B
330
1F
100
AcDbEntity
  8
P-0000
  6
Continuous
 62
     7
100
AcDbCircle
 10
175.0580758677602
 20
130.5570006486967
 30
0.0
 40
42.29778661622868
100
AcDbArc
 50
317.0322976764711
 51
327.9677023235337
1001
ACME_LAYERS
1000
1
  0
LINE
  5
2B3C
330
1F
100
AcDbEntity
  8
P-0000
  6
Continuous
 62
     7
100
AcDbLine
 10
211.7411411309736
 20
107.6459722367107
 30
0.0
 11
209.5746942908526
 21
108.8967709030397
 31
0.0
1001
ACME_LAYERS
1000
1
  0
LINE
  5
2B3D
330
1F
100
AcDbEntity
  8
P-0000
  6
Continuous
 62
     7
100
AcDbLine
 10
213.2411411309736
 20
110.244048448064
 30
0.0
 11
211.0746942908527
 21
111.4948471143932
 31
0.0
1001
ACME_LAYERS
1000
1
  0
ARC
  5
2B3E
330
1F
100
AcDbEntity
  8
P-0000
  6
Continuous
 62
     7
100
AcDbCircle
 10
175.0580758677602
 20
130.5570006486967
 30
0.0
 40
52.5
100
AcDbArc
 50
301.6372450777819
 51
313.3627549222294
1001
ACME_LAYERS
1000
1
  0
ARC
  5
2B3F
330
1F
100
AcDbEntity
  8
P-0000
  6
Continuous
 62
     7
100
AcDbCircle
 10
175.0580758677602
 20
130.5570006486967
 30
0.0
 40
54.67277458128034
100
AcDbArc
 50
301.5721619338203
 51
313.4278380661831
1001
ACME_LAYERS
1000
1
  0
LINE
  5
2B40
330
1F
100
AcDbEntity
  8
P-0000
  6
Continuous
 62
     7
100
AcDbLine
 10
197.9691042797458
 20
93.87393538548314
 30
0.0
 11
196.718305613417
 21
96.04038222560427
 31
0.0
1001
ACME_LAYERS
1000
1
  0
ARC
  5
2B41
330
1F
100
AcDbEntity
  8
P-0000
  6
Continuous
 62
     7
100
AcDbCircle
 10
175.0580758677602
 20
130.5570006486967
 30
0.0
 40
52.50000000000005
100
AcDbArc
 50
331.637245077785
 51
343.3627549222197
1001
ACME_LAYERS
1000
1
  0
ARC
  5
2B42
330
1F
100
AcDbEntity
  8
P-0000
  6
Continuous
 62
     7
100
AcDbCircle
 10
175.0580758677602
 20
130.5570006486967
 30
0.0
 40
54.67277458128034
100
AcDbArc
 50
331.572161933815
 51
343.4278380661836
1001
ACME_LAYERS
1000
1
  0
ARC
  5
2B43
330
1F
100
AcDbEntity
  8
P-0000
  6
Continuous
 62
     7
100
AcDbCircle
 10
175.0580758677602
 20
130.5570006486967
 30
0.0
 40
70.77570301486456
100
AcDbArc
 50
346.2144012824451
 51
358.7855987175637
1001
ACME_LAYERS
1000
1
  0
LINE
  5
2B44
330
1F
100
AcDbEntity
  8
P-0000
  6
Continuous
 62
     7
100
AcDbLine
 10
260.0448395430527
 20
129.0570006486966
 30
0.0
 11
218.2820564803785
 21
129.0570006486966
 31
0.0
1001
ACME_LAYERS
1000
1
  0
LINE
  5
2B45
330
1F
100
AcDbEntity
  8
P-0000
  6
Continuous
 62
     7
100
AcDbLine
 10
260.0448395430527
 20
132.0570006486966
 30
0.0
 11
218.2820564803785
 21
132.0570006486966
 31
0.0
1001
ACME_LAYERS
1000
1
  0
ARC
  5
2B46
330
1F
100
AcDbEntity
  8
P-0000
  6
Continuous
 62
     7
100
AcDbCircle
 10
175.0580758677602
 20
130.5570006486967
 30
0.0
 40
54.67277458128034
100
AcDbArc
 50
1.572161933822576
 51
13.4278380661786
1001
ACME_LAYERS
1000
1
  0
ARC
  5
2B47
330
1F
100
AcDbEntity
  8
P-0000
  6
Continuous
 62
     7
100
AcDbCircle
 10
175.0580758677602
 20
130.5570006486967
 30
0.0
 40
52.50000000000003
100
AcDbArc
 50
1.637245077779987
 51
13.36275492221991
1001
ACME_LAYERS
1000
1
  0
ARC
  5
2B48
330
1F
100
AcDbEntity
  8
P-0000
  6
Continuous
 62
     7
100
AcDbCircle
 10
175.0580758677602
 20
130.5570006486967
 30
0.0
 40
54.6727745812803
100
AcDbArc
 50
346.5721619338214
 51
358.4278380661774
1001
ACME_LAYERS
1000
1
  0
ARC
  5
2B49
330
1F
100
AcDbEntity
  8
P-0000
  6
Continuous
 62
     7
100
AcDbCircle
 10
175.0580758677602
 20
130.5570006486967
 30
0.0
 40
52.50000000000002
100
AcDbArc
 50
346.6372450777801
 51
358.36275492222
1001
ACME_LAYERS
1000
1
  0
ARC
  5
2B4A
330
1F
100
AcDbEntity
  8
P-0000
  6
Continuous
 62
     7
100
AcDbCircle
 10
175.0580758677602
 20
130.5570006486967
 30
0.0
 40
85.0
100
AcDbArc
 50
358.9888455218957
 51
1.011154478104254
1001
ACME_LAYERS
1000
1
  0
LINE
  5
2B4B
330
1F
100
AcDbEntity
  8
P-0000
  6
Continuous
 62
     7
100
AcDbLine
 10
261.0580758677603
 20
132.0570006486966
 30
0.0
 11
261.0580758677603
 21
129.0570006486966
 31
0.0
1001
ACME_LAYERS
1000
1
  0
LINE
  5
2B4C
330
1F
100
AcDbEntity
  8
P-0000
  6
Continuous
 62
     7
100
AcDbLine
 10
261.0580758677603
 20
132.0570006486966
 30
0.0
 11
260.0448395430527
 21
132.0570006486966
 31
0.0
1001
ACME_LAYERS
1000
1
  0
ARC
  5
2B4D
330
1F
100
AcDbEntity
  8
P-0000
  6
Continuous
 62
     7
100
AcDbCircle
 10
175.0580758677602
 20
130.5570006486967
 30
0.0
 40
67.77570301486457
100
AcDbArc
 50
346.2681637093233
 51
358.7318362906661
1001
ACME_LAYERS
1000
1
  0
LINE
  5
2B4E
330
1F
100
AcDbEntity
  8
P-0000
  6
Continuous
 62
     7
100
AcDbLine
 10
245.8860730270464
 20
119.3389479593153
 30
0.0
 11
243.9319862220297
 21
119.6484449042734
 31
0.0
1001
ACME_LAYERS
1000
1
  0
LINE
  5
2B4F
330
1F
100
AcDbEntity
  8
P-0000
  6
Continuous
 62
     7
100
AcDbLine
 10
261.0580758677603
 20
129.0570006486966
 30
0.0
 11
260.0448395430527
 21
129.0570006486966
 31
0.0
1001
ACME_LAYERS
1000
1
  0
ARC
  5
2B50
330
1F
100
AcDbEntity
  8
P-0000
  6
Continuous
 62
     7
100
AcDbCircle
 10
175.0580758677602
 20
130.5570006486967
 30
0.0
 40
70.77570301486462
100
AcDbArc
 50
331.2144012824407
 51
343.7855987175645
1001
ACME_LAYERS
1000
1
  0
ARC
  5
2B51
330
1F
100
AcDbEntity
  8
P-0000
  6
Continuous
 62
     7
100
AcDbCircle
 10
175.0580758677602
 20
130.5570006486967
 30
0.0
 40
67.7757030148646
100
AcDbArc
 50
331.2681637093293
 51
343.7318362906657
1001
ACME_LAYERS
1000
1
  0
ARC
  5
2B52
330
1F
100
AcDbEntity
  8
P-0000
  6
Continuous
 62
     7
100
AcDbCircle
 10
175.0580758677602
 20
130.5570006486967
 30
0.0
 40
67.77570301486459
100
AcDbArc
 50
316.2681637093371
 51
328.731836290666
1001
ACME_LAYERS
1000
1
  0
ARC
  5
2B53
330
1F
100
AcDbEntity
  8
P-0000
  6
Continuous
 62
     7
100
AcDbCircle
 10
175.0580758677602
 20
130.5570006486967
 30
0.0
 40
70.77570301486462
100
AcDbArc
 50
316.2144012824402
 51
328.7855987175642
1001
ACME_LAYERS
1000
1
  0
ARC
  5
2B54
330
1F
100
AcDbEntity
  8
P-0000
  6
Continuous
 62
     7
100
AcDbCircle
 10
175.0580758677602
 20
130.5570006486967
 30
0.0
 40
85.00000000000005
100
AcDbArc
 50
343.9888455218927
 51
346.0111544781051
1001
ACME_LAYERS
1000
1
  0
ARC
  5
2B55
330
1F
100
AcDbEntity
  8
P-0000
  6
Continuous
 62
     7
100
AcDbCircle
 10
175.0580758677602
 20
130.5570006486967
 30
0.0
 40
85.0
100
AcDbArc
 50
328.988845521897
 51
331.0111544781133
1001
ACME_LAYERS
1000
1
  0
ARC
  5
2B56
330
1F
100
AcDbEntity
  8
P-0000
  6
Continuous
 62
     7
100
AcDbCircle
 10
175.0580758677602
 20
130.5570006486967
 30
0.0
 40
70.77570301486456
100
AcDbArc
 50
301.2144012824423
 51
313.7855987175552
1001
ACME_LAYERS
1000
1
  0
ARC
  5
2B57
330
1F
100
AcDbEntity
  8
P-0000
  6
Continuous
 62
     7
100
AcDbCircle
 10
175.0580758677602
 20
130.5570006486967
 30
0.0
 40
67.77570301486463
100
AcDbArc
 50
286.2681637093327
 51
298.7318362906679
1001
ACME_LAYERS
1000
1
  0
ARC
  5
2B58
330
1F
100
AcDbEntity
  8
P-0000
  6
Continuous
 62
     7
100
AcDbCircle
 10
175.0580758677602
 20
130.5570006486967
 30
0.0
 40
67.77570301486455
100
AcDbArc
 50
271.2681637093339
 51
283.7318362906704
1001
ACME_LAYERS
1000
1
  0
ARC
  5
2B59
330
1F
100
AcDbEntity
  8
P-0000
  6
Continuous
 62
     7
100
AcDbCircle
 10
175.0580758677602
 20
130.5570006486967
 30
0.0
 40
52.49999999999999
100
AcDbArc
 50
271.6372450777801
 51
283.3627549222208
1001
ACME_LAYERS
1000
1
  0
ARC
  5
2B5A
330
1F
100
AcDbEntity
  8
P-0000
  6
Continuous
 62
     7
100
AcDbCircle
 10
175.0580758677602
 20
130.5570006486967
 30
0.0
 40
54.67277458128029
100
AcDbArc
 50
271.5721619338227
 51
283.4278380661849
1001
ACME_LAYERS
1000
1
  0
ARC
  5
2B5B
330
1F
100
AcDbEntity
  8
P-0000
  6
Continuous
 62
     7
100
AcDbCircle
 10
175.0580758677602
 20
130.5570006486967
 30
0.0
 40
70.7757030148646
100
AcDbArc
 50
271.2144012824428
 51
283.7855987175565
1001
ACME_LAYERS
1000
1
  0
ARC
  5
2B5C
330
1F
100
AcDbEntity
  8
P-0000
  6
Continuous
 62
     7
100
AcDbCircle
 10
175.0580758677602
 20
130.5570006486967
 30
0.0
 40
70.77570301486464
100
AcDbArc
 50
286.2144012824422
 51
298.7855987175514
1001
ACME_LAYERS
1000
1
  0
ARC
  5
2B5D
330
1F
100
AcDbEntity
  8
P-0000
  6
Continuous
 62
     7
100
AcDbCircle
 10
175.0580758677602
 20
130.5570006486967
 30
0.0
 40
85.0
100
AcDbArc
 50
313.9888455218985
 51
316.0111544781084
1001
ACME_LAYERS
1000
1
  0
LWPOLYLINE
  5
2B5E
330
1F
100
AcDbEntity
  8
0
 62
     1
100
AcDbPolyline
 90
        4
 70
     1
 43
0.0
 10
158.1201241577467
 20
115.0609245789657
 42
-3.664441495333134
 10
159.5983822627923
 20
113.6096586925729
 10
159.3637933066107
 20
112.7341607892085
 42
3.685001202565794
 10
157.2447291560917
 20
114.8263631952142
  0
LWPOLYLINE
  5
2B5F
330
1F
100
AcDbEntity
  8
0
 62
     1
100
AcDbPolyline
 90
        7
 70
     1
 43
0.0
 10
165.3220846031669
 20
125.0424903434566
 42
-0.0323236910300514
 10
165.8597392110596
 20
124.4241762784593
 10
163.0567612766356
 20
121.6211983440353
 42
-0.0323236910300515
 10
162.4384472116386
 20
122.1588529519281
 10
161.7976064755964
 20
121.5180122158859
 42
0.2369604974400691
 10
167.9828351423155
 20
119.4981024127795
 42
0.2369604974400691
 10
165.9629253392091
 20
125.6833310794986
  0
LWPOLYLINE
  5
2B60
330
1F
100
AcDbEntity
  8
0
 62
     1
100
AcDbPolyline
 90
        3
 70
     1
 43
0.0
 10
167.152663614823
 20
120.3282739402721
 42
-0.1369919174131033
 10
163.8324063310782
 20
121.1151761626714
 10
166.3657613924236
 20
123.6485312240167
 42
-0.136991917413112
  0
CIRCLE
  5
2B61
330
1F
100
AcDbEntity
  8
0
 62
     1
100
AcDbCircle
 10
154.1885194358617
 20
109.6874442167982
 30
0.0
 40
2.945395679406091
  0
CIRCLE
  5
2B62
330
1F
100
AcDbEntity
  8
0
 62
     1
100
AcDbCircle
 10
154.1885194358617
 20
109.6874442167982
 30
0.0
 40
2.039120085742678
  0
HATCH
  5
2B63
330
1F
100
AcDbEntity
  8
P-0000
  6
Continuous
 62
     1
100
AcDbHatch
 10
0.0
 20
0.0
 30
0.0
210
0.0
220
0.0
230
1.0
  2
_SOLID
 70
     1
 71
     0
 91
        2
 92
        1
 93
        2
 72
     2
 10
154.1885194358617
 20
109.6874442167982
 40
2.94539567940609
 50
-168.5408440973838
 51
97.58584919039989
 73
     1
 72
     2
 10
154.1885194358617
 20
109.6874442167982
 40
2.945395679406102
 50
97.58584919039989
 51
191.4591559026161
 73
     1
 97
        0
 92
       16
 93
        2
 72
     2
 10
154.1885194358618
 20
109.6874442167981
 40
2.039120085742667
 50
348.5408440973829
 51
622.4141508095998
 73
     0
 72
     2
 10
154.1885194358618
 20
109.6874442167981
 40
2.0391200857427
 50
262.4141508095998
 51
348.5408440973829
 73
     0
 97
        0
 75
     0
 76
     1
 98
        1
 10
391.3096569053827
 20
351.1116458499332
450
        0
451
        0
460
0.0
461
0.0
452
        0
462
0.0
453
        0
470

1001
GENIUS_GENOBJ-N-HTC_13
1002
{
1000
OWNER
1000
GEN
1002
}
1001
GENIUS_GENODEF_13
1002
{
1000
HIER
1070
     0
1002
}
1002
{
1000
MANEDIT
1070
     0
1002
}
1002
{
1000
NOSEL
1070
     0
1002
}
1002
{
1000
BEHIND
1070
     0
1002
}
1002
{
1000
OTHER
1070
     0
1002
}
1002
{
1000
REACTOR
1002
}
1001
GENIUS_GENHATCH_13
1002
{
1000
DATA
1040
45.0
1042
1.44
1000
_U
1070
     0
1011
153.8635653095517
1021
112.1274588761423
1031
0.0
1002
}
1002
{
1000
UCS
1010
0.0
1020
0.0
1030
0.0
1010
1.0
1020
0.0
1030
0.0
1010
0.0
1020
1.0
1030
0.0
1002
}
  0
HATCH
  5
2B64
330
1F
100
AcDbEntity
  8
P-0000
  6
Continuous
 62
     1
100
AcDbHatch
 10
0.0
 20
0.0
 30
0.0
210
0.0
220
0.0
230
1.0
  2
_SOLID
 70
     1
 71
     0
 91
        1
 92
        1
 93
        4
 72
     2
 10
160.0897629114705
 20
115.5886876924071
 40
2.945395679406138
 50
-104.2690827340749
 51
195.0000000000002
 73
     1
 72
     1
 10
157.2447291560918
 20
114.8263631952142
 11
158.1201241577467
 21
115.0609245789657
 72
     2
 10
160.0897629114705
 20
115.588687692407
 40
2.039120085742747
 50
525.0000000000004
 51
823.9441995009098
 73
     0
 72
     1
 10
159.5983822627923
 20
113.6096586925729
 11
159.3637933066106
 21
112.7341607892085
 97
        0
 75
     0
 76
     1
 98
        1
 10
391.3096569053827
 20
351.1116458499332
450
        0
451
        0
460
0.0
461
0.0
452
        0
462
0.0
453
        0
470

1001
GENIUS_GENOBJ-N-HTC_13
1002
{
1000
OWNER
1000
GEN
1002
}
1001
GENIUS_GENODEF_13
1002
{
1000
HIER
1070
     0
1002
}
1002
{
1000
MANEDIT
1070
     0
1002
}
1002
{
1000
NOSEL
1070
     0
1002
}
1002
{
1000
BEHIND
1070
     0
1002
}
1002
{
1000
OTHER
1070
     0
1002
}
1002
{
1000
REACTOR
1002
}
1001
GENIUS_GENHATCH_13
1002
{
1000
DATA
1040
45.0
1042
1.44
1000
_U
1070
     0
1011
157.6701574932282
1021
116.0326971158696
1031
0.0
1002
}
1002
{
1000
UCS
1010
0.0
1020
0.0
1030
0.0
1010
1.0
1020
0.0
1030
0.0
1010
0.0
1020
1.0
1030
0.0
1002
}
  0
HATCH
  5
2B65
330
1F
100
AcDbEntity
  8
P-0000
  6
Continuous
 62
     1
100
AcDbHatch
 10
0.0
 20
0.0
 30
0.0
210
0.0
220
0.0
230
1.0
  2
_SOLID
 70
     1
 71
     0
 91
        2
 92
        1
 93
        7
 72
     2
 10
166.9016228443668
 20
126.6672340808222
 40
6.343929155653269
 50
-134.711302922078
 51
-127.3058370354236
 73
     1
 72
     1
 10
163.0567612766356
 20
121.6211983440353
 11
165.8597392110596
 21
124.4241762784593
 72
     2
 10
160.8137034742752
 20
120.5793147107324
 40
6.343929155648805
 50
37.3058370354063
 51
44.71130292206662
 73
     1
 72
     1
 10
165.3220846031669
 20
125.0424903434566
 11
165.9629253392091
 21
125.6833310794986
 72
     2
 10
160.81370347428
 20
120.5793147107342
 40
7.250204749307338
 50
315.252609692649
 51
368.5764263576699
 73
     0
 72
     2
 10
166.9016228443609
 20
126.6672340808153
 40
7.250204749307513
 50
441.42357364233
 51
494.7473903073499
 73
     0
 72
     1
 10
161.7976064755964
 20
121.5180122158859
 11
162.4384472116386
 21
122.1588529519281
 97
        0
 92
       16
 93
        3
 72
     2
 10
160.8137034742798
 20
120.5793147107343
 40
6.343929155643888
 50
331.0658750272334
 51
362.2678899573994
 73
     0
 72
     2
 10
166.9016228443607
 20
126.6672340808152
 40
6.343929155643888
 50
447.7321100426006
 51
478.9341249727667
 73
     0
 72
     1
 10
163.8324063310782
 20
121.1151761626714
 11
166.3657613924236
 21
123.6485312240167
 97
        0
 75
     0
 76
     1
 98
        1
 10
391.3096569053827
 20
351.1116458499332
450
        0
451
        0
460
0.0
461
0.0
452
        0
462
0.0
453
        0
470

1001
GENIUS_GENOBJ-N-HTC_13
1002
{
1000
OWNER
1000
GEN
1002
}
1001
GENIUS_GENODEF_13
1002
{
1000
HIER
1070
     0
1002
}
1002
{
1000
MANEDIT
1070
     0
1002
}
1002
{
1000
NOSEL
1070
     0
1002
}
1002
{
1000
BEHIND
1070
     0
1002
}
1002
{
1000
OTHER
1070
     0
1002
}
1002
{
1000
REACTOR
1002
}
1001
GENIUS_GENHATCH_13
1002
{
1000
DATA
1040
45.0
1042
1.44
1000
_U
1070
     0
1011
163.5576861257106
1021
120.8001299174794
1031
0.0
1002
}
1002
{
1000
UCS
1010
0.0
1020
0.0
1030
0.0
1010
1.0
1020
0.0
1030
0.0
1010
0.0
1020
1.0
1030
0.0
1002
}
  0
LINE
  5
2B66
330
1F
100
AcDbEntity
  8
P-0000
  6
Continuous
 62
     7
100
AcDbLine
 10
166.100170551556
 20
125.8417360196119
 30
0.0
 11
167.160830723336
 21
124.7810758478322
 31
0.0
1001
GENIUS_GENOBJ-N-CEN_13
1002
{
1000
OWNER
1000
GEN
1002
}
1001
GENIUS_GENODEF_13
1002
{
1000
HIER
1070
     0
1002
}
1002
{
1000
MANEDIT
1070
     0
1002
}
1002
{
1000
NOSEL
1070
     0
1002
}
1002
{
1000
BEHIND
1070
     0
1002
}
1002
{
1000
OTHER
1070
     0
1002
}
1002
{
1000
REACTOR
1002
}
1001
GENIUS_GENCEN_19
1002
{
1040
3.0
1002
}
  0
LINE
  5
2B67
330
1F
100
AcDbEntity
  8
P-0000
  6
Continuous
 62
     7
100
AcDbLine
 10
169.2821510668955
 20
122.6597555042724
 30
0.0
 11
170.3428112386753
 21
121.5990953324926
 31
0.0
1001
GENIUS_GENOBJ-N-CEN_13
1002
{
1000
OWNER
1000
GEN
1002
}
1001
GENIUS_GENODEF_13
1002
{
1000
HIER
1070
     0
1002
}
1002
{
1000
MANEDIT
1070
     0
1002
}
1002
{
1000
NOSEL
1070
     0
1002
}
1002
{
1000
BEHIND
1070
     0
1002
}
1002
{
1000
OTHER
1070
     0
1002
}
1002
{
1000
REACTOR
1002
}
1001
GENIUS_GENCEN_19
1002
{
1040
3.0
1002
}
  0
LINE
  5
2B68
330
1F
100
AcDbEntity
  8
P-0000
  6
Continuous
 62
     7
100
AcDbLine
 10
149.8367145842654
 20
109.5782800523215
 30
0.0
 11
150.8973747560452
 21
108.5176198805417
 31
0.0
1001
GENIUS_GENOBJ-N-CEN_13
1002
{
1000
OWNER
1000
GEN
1002
}
1001
GENIUS_GENODEF_13
1002
{
1000
HIER
1070
     0
1002
}
1002
{
1000
MANEDIT
1070
     0
1002
}
1002
{
1000
NOSEL
1070
     0
1002
}
1002
{
1000
BEHIND
1070
     0
1002
}
1002
{
1000
OTHER
1070
     0
1002
}
1002
{
1000
REACTOR
1002
}
1001
GENIUS_GENCEN_19
1002
{
1040
3.0
1002
}
  0
LINE
  5
2B69
330
1F
100
AcDbEntity
  8
P-0000
  6
Continuous
 62
     7
100
AcDbLine
 10
153.0186950996049
 20
106.3962995369819
 30
0.0
 11
154.0793552713848
 21
105.3356393652021
 31
0.0
1001
GENIUS_GENOBJ-N-CEN_13
1002
{
1000
OWNER
1000
GEN
1002
}
1001
GENIUS_GENODEF_13
1002
{
1000
HIER
1070
     0
1002
}
1002
{
1000
MANEDIT
1070
     0
1002
}
1002
{
1000
NOSEL
1070
     0
1002
}
1002
{
1000
BEHIND
1070
     0
1002
}
1002
{
1000
OTHER
1070
     0
1002
}
1002
{
1000
REACTOR
1002
}
1001
GENIUS_GENCEN_19
1002
{
1040
3.0
1002
}
  0
LINE
  5
2B6B
330
1F
100
AcDbEntity
  8
P-0000
  6
Continuous
 62
     7
100
AcDbLine
 10
166.100170551556
 20
125.8417360196121
 30
0.0
 11
149.8367145842654
 21
109.5782800523213
 31
0.0
1001
GENIUS_GENODEF_13
1002
{
1000
HIER
1070
     0
1002
}
1002
{
1000
MANEDIT
1070
     0
1002
}
1002
{
1000
NOSEL
1070
     0
1002
}
1002
{
1000
BEHIND
1070
     0
1002
}
1002
{
1000
OTHER
1070
     0
1002
}
1002
{
1000
REACTOR
1002
}
1001
GENIUS_GENOBJ-N-CEN_13
1002
{
1000
OWNER
1000
GEN
1002
}
1001
GENIUS_GENCEN_19
1002
{
1040
3.0
1002
}
  0
LINE
  5
2B6C
330
1F
100
AcDbEntity
  8
P-0000
  6
Continuous
 62
     7
100
AcDbLine
 10
170.3428112386753
 20
121.5990953324926
 30
0.0
 11
154.0793552713847
 21
105.3356393652021
 31
0.0
1001
GENIUS_GENODEF_13
1002
{
1000
HIER
1070
     0
1002
}
1002
{
1000
MANEDIT
1070
     0
1002
}
1002
{
1000
NOSEL
1070
     0
1002
}
1002
{
1000
BEHIND
1070
     0
1002
}
1002
{
1000
OTHER
1070
     0
1002
}
1002
{
1000
REACTOR
1002
}
1001
GENIUS_GENOBJ-N-CEN_13
1002
{
1000
OWNER
1000
GEN
1002
}
1001
GENIUS_GENCEN_19
1002
{
1040
3.0
1002
}
  0
LINE
  5
2B6D
330
1F
100
AcDbEntity
  8
P-0000
  6
Continuous
 62
     7
100
AcDbLine
 10
98.61004351480952
 20
380.5883726632777
 30
0.0
 11
97.63168680916999
 21
377.8990140115146
 31
0.0
1001
ACME_LAYERS
1000
1
  0
LINE
  5
2B6E
330
1F
100
AcDbEntity
  8
P-0000
  6
Continuous
 62
     7
100
AcDbLine
 10
115.9037643694442
 20
428.1262671076034
 30
0.0
 11
98.61004351480952
 21
380.5883726632777
 31
0.0
1001
ACME_LAYERS
1000
1
  0
ARC
  5
2B6F
330
1F
100
AcDbEntity
  8
P-0000
  6
Continuous
 62
     7
100
AcDbCircle
 10
127.1807357486931
 20
424.0238389837239
 30
0.0
 40
11.99999999999995
100
AcDbArc
 50
90.00921474702431
 51
160.0092147470223
1001
ACME_LAYERS
1000
1
  0
LINE
  5
2B70
330
1F
100
AcDbEntity
  8
P-0000
  6
Continuous
 62
     7
100
AcDbLine
 10
97.63168680916999
 20
377.8990140115146
 30
0.0
 11
90.06149305772993
 21
357.0896650863175
 31
0.0
1001
ACME_LAYERS
1000
1
  0
LINE
  5
2B71
330
1F
100
AcDbEntity
  8
P-0000
  6
Continuous
 62
     7
100
AcDbLine
 10
128.7497519398239
 20
421.0240912861543
 30
0.0
 11
170.947047531219
 21
421.0308777791682
 31
0.0
1001
ACME_LAYERS
1000
1
  0
ARC
  5
2B85
330
1F
100
AcDbEntity
  8
P-0000
  6
Continuous
 62
     7
100
AcDbCircle
 10
175.0580758677603
 20
130.5570006486966
 30
0.0
 40
61.00000000000016
100
AcDbArc
 50
196.4090546389388
 51
208.5909453610608
1001
ACME_LAYERS
1000
1
  0
ARC
  5
2B86
330
1F
100
AcDbEntity
  8
P-0000
  6
Continuous
 62
     7
100
AcDbCircle
 10
175.0580758677608
 20
130.5570006486969
 30
0.0
 40
61.00000000000065
100
AcDbArc
 50
211.4090546389388
 51
223.5909453610606
1001
ACME_LAYERS
1000
1
  0
ARC
  5
2B87
330
1F
100
AcDbEntity
  8
P-0000
  6
Continuous
 62
     7
100
AcDbCircle
 10
175.0580758677603
 20
130.5570006486967
 30
0.0
 40
61.00000000000015
100
AcDbArc
 50
181.4090546389388
 51
193.5909453610607
1001
ACME_LAYERS
1000
1
  0
ARC
  5
2B88
330
1F
100
AcDbEntity
  8
P-0000
  6
Continuous
 62
     7
100
AcDbCircle
 10
175.0580758677603
 20
130.5570006486966
 30
0.0
 40
61.00000000000018
100
AcDbArc
 50
166.4090546389388
 51
178.5909453610607
1001
ACME_LAYERS
1000
1
  0
ARC
  5
2B89
330
1F
100
AcDbEntity
  8
P-0000
  6
Continuous
 62
     7
100
AcDbCircle
 10
175.05807586776
 20
130.5570006486968
 30
0.0
 40
60.99999999999985
100
AcDbArc
 50
106.4090546389375
 51
118.5909453610618
1001
ACME_LAYERS
1000
1
  0
ARC
  5
2B8A
330
1F
100
AcDbEntity
  8
P-0000
  6
Continuous
 62
     7
100
AcDbCircle
 10
175.0580758677602
 20
130.5570006486965
 30
0.0
 40
61.00000000000018
100
AcDbArc
 50
91.40905463893862
 51
103.5909453610617
1001
ACME_LAYERS
1000
1
  0
ARC
  5
2B8B
330
1F
100
AcDbEntity
  8
P-0000
  6
Continuous
 62
     7
100
AcDbCircle
 10
175.0580758677602
 20
130.5570006486965
 30
0.0
 40
61.00000000000015
100
AcDbArc
 50
76.40905463893824
 51
88.59094536106139
1001
ACME_LAYERS
1000
1
  0
ARC
  5
2B8C
330
1F
100
AcDbEntity
  8
P-0000
  6
Continuous
 62
     7
100
AcDbCircle
 10
175.0580758677602
 20
130.5570006486965
 30
0.0
 40
61.00000000000016
100
AcDbArc
 50
61.40905463893822
 51
73.59094536106251
1001
ACME_LAYERS
1000
1
  0
ARC
  5
2B8D
330
1F
100
AcDbEntity
  8
P-0000
  6
Continuous
 62
     7
100
AcDbCircle
 10
175.0580758677599
 20
130.5570006486961
 30
0.0
 40
61.00000000000065
100
AcDbArc
 50
46.40905463893876
 51
58.5909453610621
1001
ACME_LAYERS
1000
1
  0
ARC
  5
2B8E
330
1F
100
AcDbEntity
  8
P-0000
  6
Continuous
 62
     7
100
AcDbCircle
 10
175.0580758677602
 20
130.5570006486968
 30
0.0
 40
60.99999999999985
100
AcDbArc
 50
16.40905463893894
 51
28.59094536106043
1001
ACME_LAYERS
1000
1
  0
ARC
  5
2B8F
330
1F
100
AcDbEntity
  8
P-0000
  6
Continuous
 62
     7
100
AcDbCircle
 10
175.0580758677599
 20
130.5570006486966
 30
0.0
 40
61.00000000000018
100
AcDbArc
 50
1.409054638939079
 51
13.59094536106078
1001
ACME_LAYERS
1000
1
  0
ARC
  5
2B90
330
1F
100
AcDbEntity
  8
P-0000
  6
Continuous
 62
     7
100
AcDbCircle
 10
175.0580758677599
 20
130.5570006486967
 30
0.0
 40
61.00000000000015
100
AcDbArc
 50
346.4090546389394
 51
358.5909453610611
1001
ACME_LAYERS
1000
1
  0
ARC
  5
2B91
330
1F
100
AcDbEntity
  8
P-0000
  6
Continuous
 62
     7
100
AcDbCircle
 10
175.0580758677599
 20
130.5570006486966
 30
0.0
 40
61.00000000000016
100
AcDbArc
 50
331.4090546389396
 51
343.590945361061
1001
ACME_LAYERS
1000
1
  0
ARC
  5
2B92
330
1F
100
AcDbEntity
  8
P-0000
  6
Continuous
 62
     7
100
AcDbCircle
 10
175.0580758677595
 20
130.5570006486969
 30
0.0
 40
61.00000000000065
100
AcDbArc
 50
316.4090546389384
 51
328.5909453610618
1001
ACME_LAYERS
1000
1
  0
ARC
  5
2B93
330
1F
100
AcDbEntity
  8
P-0000
  6
Continuous
 62
     7
100
AcDbCircle
 10
175.0580758677601
 20
130.5570006486969
 30
0.0
 40
61.00000000000015
100
AcDbArc
 50
271.4090546389386
 51
283.5909453610618
1001
ACME_LAYERS
1000
1
  0
ARC
  5
2B94
330
1F
100
AcDbEntity
  8
P-0000
  6
Continuous
 62
     7
100
AcDbCircle
 10
175.0580758677602
 20
130.5570006486969
 30
0.0
 40
61.00000000000016
100
AcDbArc
 50
286.4090546389375
 51
298.5909453610589
1001
ACME_LAYERS
1000
1
  0
ARC
  5
2B95
330
1F
100
AcDbEntity
  8
P-0000
  6
Continuous
 62
     7
100
AcDbCircle
 10
175.0580758677599
 20
130.5570006486973
 30
0.0
 40
61.00000000000065
100
AcDbArc
 50
301.4090546389379
 51
313.5909453610612
1001
ACME_LAYERS
1000
1
  0
ARC
  5
2B96
330
1F
100
AcDbEntity
  8
P-0000
  6
Continuous
 62
     7
100
AcDbCircle
 10
175.0580758677601
 20
130.5570006486969
 30
0.0
 40
61.00000000000015
100
AcDbArc
 50
256.409054638938
 51
268.5909453610614
1001
ACME_LAYERS
1000
1
  0
ARC
  5
2B97
330
1F
100
AcDbEntity
  8
P-0000
  6
Continuous
 62
     7
100
AcDbCircle
 10
175.05807586776
 20
130.5570006486969
 30
0.0
 40
61.00000000000016
100
AcDbArc
 50
241.409054638941
 51
253.5909453610626
1001
ACME_LAYERS
1000
1
  0
ARC
  5
2B98
330
1F
100
AcDbEntity
  8
P-0000
  6
Continuous
 62
     7
100
AcDbCircle
 10
175.0580758677603
 20
130.5570006486973
 30
0.0
 40
61.00000000000065
100
AcDbArc
 50
226.4090546389393
 51
238.5909453610616
1001
ACME_LAYERS
1000
1
  0
ARC
  5
2B99
330
1F
100
AcDbEntity
  8
P-0000
  6
Continuous
 62
     7
100
AcDbCircle
 10
175.0580758677596
 20
130.5570006486967
 30
0.0
 40
85.00000000000005
100
AcDbArc
 50
193.9888455218955
 51
196.011154478108
1001
ACME_LAYERS
1000
1
  0
ARC
  5
2B9A
330
1F
100
AcDbEntity
  8
P-0000
  6
Continuous
 62
     7
100
AcDbCircle
 10
175.0580758677596
 20
130.5570006486967
 30
0.0
 40
85.0
100
AcDbArc
 50
208.9888455218873
 51
211.0111544781033
1001
ACME_LAYERS
1000
1
  0
ARC
  5
2B9B
330
1F
100
AcDbEntity
  8
P-0000
  6
Continuous
 62
     7
100
AcDbCircle
 10
175.0580758677601
 20
130.5570006486966
 30
0.0
 40
85.00000000000003
100
AcDbArc
 50
283.9888455219016
 51
286.011154478114
1001
ACME_LAYERS
1000
1
  0
ARC
  5
2B9C
330
1F
100
AcDbEntity
  8
P-0000
  6
Continuous
 62
     7
100
AcDbCircle
 10
175.0580758677601
 20
130.5570006486966
 30
0.0
 40
84.99999999999998
100
AcDbArc
 50
298.988845521894
 51
301.0111544781102
1001
ACME_LAYERS
1000
1
  0
ARC
  5
2B9D
330
1F
100
AcDbEntity
  8
P-0000
  6
Continuous
 62
     7
100
AcDbCircle
 10
175.0580758677603
 20
130.5570006486966
 30
0.0
 40
85.00000000000003
100
AcDbArc
 50
253.9888455218859
 51
256.0111544780983
1001
ACME_LAYERS
1000
1
  0
ARC
  5
2B9E
330
1F
100
AcDbEntity
  8
P-0000
  6
Continuous
 62
     7
100
AcDbCircle
 10
175.0580758677603
 20
130.5570006486966
 30
0.0
 40
84.99999999999998
100
AcDbArc
 50
238.9888455218895
 51
241.0111544781061
1001
ACME_LAYERS
1000
1
  0
DIMENSION
  5
2BD3
330
1F
100
AcDbEntity
  8
AM_5
100
AcDbDimension
  2
*D147
 10
351.6176736148299
 20
337.03718890781
 30
0.0
 11
346.1176736148299
 21
386.5343632585945
 31
0.0
 70
    32
 71
     5
 42
98.99434870156898
  3
AM_DIN$0
100
AcDbAlignedDimension
 13
222.9183085575809
 23
436.0315376093788
 33
0.0
 14
301.8080758677442
 24
337.03718890781
 34
0.0
 50
90.00000000000003
100
AcDbRotatedDimension
1001
ACAD_DSTYLE_DIMINSPECT
1070
   396
1000
100%
1070
   395
1000

1070
   394
1070
    33
1070
   393
1070
     0
1001
ACAD
1000
DSTYLE
1002
{
1070
   140
1040
8.0
1070
   271
1070
     0
1002
}
  0
DIMENSION
  5
2C05
330
1F
100
AcDbEntity
  8
AM_5
100
AcDbDimension
  2
*D148
 10
301.8080758677606
 20
-15.39793583078312
 30
0.0
 11
175.0580758677602
 21
-9.897148429208323
 31
0.0
 70
    32
 71
     5
 42
253.5000000000008
  3
AM_DIN$0
100
AcDbAlignedDimension
 13
48.30807586775979
 23
120.5570006486966
 33
0.0
 14
301.8080758677606
 24
120.5570006486966
 34
0.0
 50
0.0000000000001132
100
AcDbRotatedDimension
1001
ACAD_DSTYLE_DIMINSPECT
1070
   396
1000
100%
1070
   395
1000

1070
   394
1070
    33
1070
   393
1070
     0
1001
ACAD
1000
DSTYLE
1002
{
1070
   140
1040
8.0
1070
   271
1070
     0
1002
}
  0
DIMENSION
  5
2C2D
330
1F
100
AcDbEntity
  8
AM_5
100
AcDbDimension
  2
*D149
 10
58.3080758677602
 20
276.8003034088081
 30
0.0
 11
175.0580758677601
 21
282.3010908103829
 31
0.0
 70
    32
 71
     5
 42
233.4999999999999
  3
AM_DIN$0
100
AcDbAlignedDimension
 13
291.80807586776
 23
130.5570006486969
 33
0.0
 14
58.30807586776019
 24
130.5570006486966
 34
0.0
 50
0.0000000000000114
100
AcDbRotatedDimension
1001
ACAD_DSTYLE_DIMINSPECT
1070
   396
1000
100%
1070
   395
1000

1070
   394
1070
    33
1070
   393
1070
     0
1001
ACAD
1000
DSTYLE
1002
{
1070
   140
1040
8.0
1070
   271
1070
     0
1002
}
  0
DIMENSION
  5
2C79
330
1F
100
AcDbEntity
  8
AM_5
100
AcDbDimension
  2
*D150
 10
90.04831563603142
 20
475.1993576051875
 30
0.0
 11
176.7342006026147
 21
475.1993576051875
 31
0.0
 70
   160
  1
%%c<>
 71
     5
 42
170.0
  3
AM_DIN$0
100
AcDbAlignedDimension
 13
260.0483156360314
 23
356.0315376093795
 33
0.0
 14
90.0483156360314
 24
356.5674359942414
 34
0.0
100
AcDbRotatedDimension
1001
ACAD_DSTYLE_DIMINSPECT
1070
   396
1000
100%
1070
   395
1000

1070
   394
1070
    33
1070
   393
1070
     0
1001
ACAD
1000
DSTYLE
1002
{
1070
   140
1040
8.0
1070
   271
1070
     0
1002
}
  0
DIMENSION
  5
2CA1
330
1F
100
AcDbEntity
  8
AM_5
100
AcDbDimension
  2
*D151
 10
229.8012257937931
 20
455.3729005650359
 30
0.0
 11
175.0487317437339
 21
460.8729005650359
 31
0.0
 70
    32
  1
%%c<>
 71
     5
 42
109.5049881001185
  3
AM_DIN$0
100
AcDbAlignedDimension
 13
120.2962376936747
 23
433.8525564244913
 33
0.0
 14
229.8012257937931
 24
433.861362140847
 34
0.0
 50
0.0000000000000114
100
AcDbRotatedDimension
1001
ACAD_DSTYLE_DIMINSPECT
1070
   396
1000
100%
1070
   395
1000

1070
   394
1070
    33
1070
   393
1070
     0
1001
ACAD
1000
DSTYLE
1002
{
1070
   140
1040
8.0
1070
   271
1070
     0
1002
}
  0
ENDSEC
  0
SECTION
  2
OBJECTS
  0
DICTIONARY
  5
C
330
0
100
AcDbDictionary
281
     1
  3
ACAD_COLOR
350
AB4
  3
ACAD_GROUP
350
D
  3
ACAD_LAYOUT
350
1A
  3
ACAD_MATERIAL
350
AB3
  3
ACAD_MLEADERSTYLE
350
203F
  3
ACAD_MLINESTYLE
350
17
  3
ACAD_PLOTSETTINGS
350
19
  3
ACAD_PLOTSTYLENAME
350
E
  3
ACAD_SCALELIST
350
202D
  3
ACAD_TABLESTYLE
350
AB5
  3
ACAD_VISUALSTYLE
350
201C
  3
ACDB_RECOMPOSE_DATA
350
2D15
  3
AcDbVariableDictionary
350
34
  3
AcmDictionary
350
47
  3
AEC_PROPERTY_SET_DEFS
350
2412
  3
AMG
350
2B
  3
AMGSNAPSETTINGS
350
51D
  0
DICTIONARY
  5
184D
330
2
100
AcDbDictionary
280
     1
281
     1
  3
ACAD_LAYERSTATES
360
184E
  3
AMLAYER_GROUPCOLORS
360
1F3D
  0
DICTIONARY
  5
2B9F
330
10
100
AcDbDictionary
280
     1
281
     1
  3
ADSK_XREC_LAYER_RECONCILED
360
2BA0
  0
DICTIONARY
  5
2BA1
330
22A
100
AcDbDictionary
280
     1
281
     1
  3
ADSK_XREC_LAYER_RECONCILED
360
2BA2
  0
DICTIONARY
  5
2BA9
330
CC1
100
AcDbDictionary
280
     1
281
     1
  3
ADSK_XREC_LAYER_RECONCILED
360
2BAA
  0
DICTIONARY
  5
2BAB
330
CC2
100
AcDbDictionary
280
     1
281
     1
  3
ADSK_XREC_LAYER_RECONCILED
360
2BAC
  0
DICTIONARY
  5
2BC5
330
1F42
100
AcDbDictionary
280
     1
281
     1
  3
ADSK_XREC_LAYER_RECONCILED
360
2BC6
  0
DICTIONARY
  5
81
330
1F
100
AcDbDictionary
280
     1
281
     1
  3
ACAD_SORTENTS
360
13FE
  0
DICTIONARY
  5
AB4
102
{ACAD_REACTORS
330
C
102
}
330
C
100
AcDbDictionary
281
     1
  0
DICTIONARY
  5
D
102
{ACAD_REACTORS
330
C
102
}
330
C
100
AcDbDictionary
281
     1
  0
DICTIONARY
  5
1A
102
{ACAD_REACTORS
330
C
102
}
330
C
100
AcDbDictionary
281
     1
  3
Layout1
350
1E
  3
Layout2
350
26
  3
Model
350
22
  0
DICTIONARY
  5
AB3
102
{ACAD_REACTORS
330
C
102
}
330
C
100
AcDbDictionary
281
     1
  3
ByBlock
350
200C
  3
ByLayer
350
2004
  3
Global
350
2014
  0
DICTIONARY
  5
203F
102
{ACAD_REACTORS
330
C
102
}
330
C
100
AcDbDictionary
281
     1
  3
Standard
350
2040
  0
DICTIONARY
  5
17
102
{ACAD_REACTORS
330
C
102
}
330
C
100
AcDbDictionary
281
     1
  3
Standard
350
18
  0
DICTIONARY
  5
19
102
{ACAD_REACTORS
330
C
102
}
330
C
100
AcDbDictionary
281
     1
  0
ACDBDICTIONARYWDFLT
  5
E
102
{ACAD_REACTORS
330
C
102
}
330
C
100
AcDbDictionary
281
     1
  3
Normal
350
F
100
AcDbDictionaryWithDefault
340
F
  0
DICTIONARY
  5
202D
102
{ACAD_REACTORS
330
C
102
}
330
C
100
AcDbDictionary
281
     1
  3
A0
350
202E
  3
A1
350
202F
  3
A2
350
2030
  3
A3
350
2031
  3
A4
350
2032
  3
A5
350
2033
  3
A6
350
2034
  3
A7
350
2035
  3
A8
350
2036
  3
A9
350
2037
  3
B0
350
2038
  3
B1
350
2039
  3
B2
350
203A
  3
B3
350
203B
  3
B4
350
203C
  3
B5
350
203D
  3
B6
350
203E
  0
DICTIONARY
  5
AB5
102
{ACAD_REACTORS
330
C
102
}
330
C
100
AcDbDictionary
281
     1
  3
Standard
350
AB6
  0
DICTIONARY
  5
201C
102
{ACAD_REACTORS
330
C
102
}
330
C
100
AcDbDictionary
281
     1
  3
2dWireframe
350
2022
  3
3D Hidden
350
2024
  3
3dWireframe
350
2023
  3
Basic
350
2021
  3
Brighten
350
2028
  3
ColorChange
350
202C
  3
Conceptual
350
2025
  3
Dim
350
2027
  3
Facepattern
350
202B
  3
Flat
350
201D
  3
FlatWithEdges
350
201E
  3
Gouraud
350
201F
  3
GouraudWithEdges
350
2020
  3
Linepattern
350
202A
  3
Realistic
350
2026
  3
Thicken
350
2029
  0
XRECORD
  5
2D15
102
{ACAD_REACTORS
330
C
102
}
330
C
100
AcDbXrecord
280
     1
 90
        1
330
AB6
  0
DICTIONARY
  5
34
102
{ACAD_REACTORS
330
C
102
}
330
C
100
AcDbDictionary
281
     1
  3
CANNOSCALE
350
2D12
  3
CMLEADERSTYLE
350
2D11
  3
CTABLESTYLE
350
B1B
  3
INDEXCTL
350
35
  0
DICTIONARY
  5
47
102
{ACAD_REACTORS
330
C
102
}
330
C
100
AcDbDictionary
281
     1
  3
AcmStdDictionary
350
4C
  3
AMDTSECTSYM_ARROWCOLOR
350
B0D
  0
DICTIONARY
  5
2412
102
{ACAD_REACTORS
330
C
102
}
330
C
100
AcDbDictionary
281
     1
  0
DICTIONARY
  5
2B
102
{ACAD_REACTORS
330
C
102
}
330
C
100
AcDbDictionary
281
     1
  0
DICTIONARY
  5
51D
102
{ACAD_REACTORS
330
C
102
}
330
C
100
AcDbDictionary
281
     1
  0
DICTIONARY
  5
184E
102
{ACAD_REACTORS
330
184D
102
}
330
184D
100
AcDbDictionary
281
     1
  0
DICTIONARY
  5
1F3D
102
{ACAD_REACTORS
330
184D
102
}
330
184D
100
AcDbDictionary
280
     1
281
     1
  0
XRECORD
  5
2BA0
102
{ACAD_REACTORS
330
2B9F
102
}
330
2B9F
100
AcDbXrecord
280
     1
290
     1
  0
XRECORD
  5
2BA2
102
{ACAD_REACTORS
330
2BA1
102
}
330
2BA1
100
AcDbXrecord
280
     1
290
     1
  0
XRECORD
  5
2BAA
102
{ACAD_REACTORS
330
2BA9
102
}
330
2BA9
100
AcDbXrecord
280
     1
290
     1
  0
XRECORD
  5
2BAC
102
{ACAD_REACTORS
330
2BAB
102
}
330
2BAB
100
AcDbXrecord
280
     1
290
     1
  0
XRECORD
  5
2BC6
102
{ACAD_REACTORS
330
2BC5
102
}
330
2BC5
100
AcDbXrecord
280
     1
290
     1
  0
SORTENTSTABLE
  5
13FE
102
{ACAD_REACTORS
330
81
102
}
330
81
100
AcDbSortentsTable
330
1F
331
2B62
  5
2B66
331
2AEC
  5
2AF0
331
2A76
  5
2A7A
331
FE0
  5
FE0
331
FA9
  5
FA9
331
102F
  5
102F
331
FE8
  5
FE8
331
FB1
  5
FB1
331
1222
  5
1238
331
11B3
  5
11B7
331
1037
  5
1037
331
1066
  5
1066
331
10B5
  5
10B5
331
103F
  5
103F
331
106E
  5
106E
331
123A
  5
123E
331
11C3
  5
11C7
331
1076
  5
1076
331
1242
  5
1246
331
29E0
  5
29E4
331
2A27
  5
2A2B
331
29E8
  5
29EC
331
29B1
  5
29B5
331
2A2F
  5
2A33
331
29F0
  5
29F4
331
2A37
  5
2A3B
331
29F8
  5
29FC
331
2B2B
  5
2B2F
331
2AF4
  5
2AF8
331
2AB5
  5
2AB9
331
2A7E
  5
2A82
331
2A3F
  5
2A43
331
2B33
  5
2B37
331
2AFC
  5
2B00
331
2ABD
  5
2AC1
331
2A86
  5
2A8A
331
2A47
  5
2A4B
331
2B3B
  5
2B3F
331
2B04
  5
2B08
331
2AC5
  5
2AC9
331
2A8E
  5
2A92
331
2A4F
  5
2A53
331
2B43
  5
2B47
331
2B0C
  5
2B10
331
2ACD
  5
2AD1
331
2A96
  5
2A9A
331
2A57
  5
2A5B
331
124A
  5
1250
331
11CB
  5
120F
331
1010
  5
1010
331
1047
  5
1047
331
108E
  5
108E
331
1252
  5
1256
331
1096
  5
1096
331
125A
  5
1262
331
1213
  5
1217
331
11A4
  5
11A8
331
109E
  5
109E
331
1057
  5
1057
331
10D5
  5
10D5
331
1262
  5
1CFE
331
121B
  5
121F
331
11AC
  5
11B3
331
105F
  5
105F
331
2A00
  5
2A04
331
29C1
  5
29C5
331
2A08
  5
2A0C
331
29C9
  5
29CE
331
2A10
  5
2A14
331
29D1
  5
29D5
331
2A18
  5
2A1C
331
29D9
  5
29DD
331
2B4B
  5
2B4F
331
2B14
  5
2B18
331
2AD5
  5
2AD9
331
2A9E
  5
2AA2
331
2A5F
  5
2A63
331
2B53
  5
2B57
331
2B1C
  5
2B20
331
2ADD
  5
2AE1
331
2AA6
  5
2AAA
331
2A67
  5
2A6B
331
2B5B
  5
2B5F
331
2B24
  5
2B28
331
2AE5
  5
2AE9
331
2AAE
  5
2AB2
331
2A6F
  5
2A73
331
2B63
  5
2B67
331
2AED
  5
2AF1
331
2A77
  5
2A7B
331
FE1
  5
FE1
331
1030
  5
1030
331
1223
  5
1239
331
11B4
  5
11BA
331
1038
  5
1038
331
1067
  5
1067
331
11BC
  5
11C0
331
10B6
  5
10B6
331
106F
  5
106F
331
116D
  5
116D
331
123B
  5
123F
331
11C4
  5
11C8
331
1077
  5
1077
331
1243
  5
1247
331
118D
  5
118D
331
2A20
  5
2A24
331
29E1
  5
29E5
331
2A28
  5
2A2C
331
29E9
  5
29ED
331
29B2
  5
29B6
331
2A30
  5
2A34
331
29F1
  5
29F5
331
29BA
  5
29BF
331
29F9
  5
29FD
331
2A38
  5
2A3C
331
2B6B
  5
2B6F
331
2B2C
  5
2B30
331
2AF5
  5
2AF9
331
2AB6
  5
2ABA
331
2A7F
  5
2A83
331
2A40
  5
2A44
331
2B34
  5
2B38
331
2AFD
  5
2B01
331
2ABE
  5
2AC2
331
2A87
  5
2A8B
331
2A48
  5
2A4C
331
2B3C
  5
2B40
331
2B05
  5
2B09
331
2AC6
  5
2ACA
331
2A8F
  5
2A93
331
2A50
  5
2A54
331
2B44
  5
2B48
331
2B0D
  5
2B11
331
2ACE
  5
2AD2
331
2A97
  5
2A9B
331
1040
  5
1040
331
124B
  5
1251
331
11CC
  5
1211
331
1048
  5
1048
331
108F
  5
108F
331
1253
  5
1257
331
10CE
  5
10CE
331
1097
  5
1097
331
125B
  5
1263
331
1214
  5
1218
331
11A5
  5
11A9
331
1058
  5
1058
331
109F
  5
109F
331
10D6
  5
10D6
331
1263
  5
1CFF
331
121C
  5
1220
331
11AD
  5
11B4
331
2A01
  5
2A05
331
29C2
  5
29C6
331
2A09
  5
2A0D
331
29CA
  5
29CF
331
2A11
  5
2A15
331
29D2
  5
29D6
331
2A19
  5
2A1D
331
29DA
  5
29DE
331
2A58
  5
2A5C
331
2B4C
  5
2B50
331
2B15
  5
2B19
331
2AD6
  5
2ADA
331
2A9F
  5
2AA3
331
2A60
  5
2A64
331
2B54
  5
2B58
331
2B1D
  5
2B21
331
2ADE
  5
2AE2
331
2AA7
  5
2AAB
331
2A68
  5
2A6C
331
2B5C
  5
2B60
331
2B25
  5
2B29
331
2AE6
  5
2AEA
331
2AAF
  5
2AB3
331
2A70
  5
2A74
331
2B64
  5
2B68
331
2AEE
  5
2AF2
331
FE2
  5
FE2
331
1060
  5
1060
331
1031
  5
1031
331
1224
  5
123A
331
11B5
  5
11BC
331
1068
  5
1068
331
1039
  5
1039
331
11BD
  5
11C1
331
10B7
  5
10B7
331
1070
  5
1070
331
123C
  5
1240
331
11C5
  5
11C9
331
1078
  5
1078
331
1244
  5
1248
331
2A21
  5
2A25
331
29E2
  5
29E6
331
2A29
  5
2A2D
331
29EA
  5
29EE
331
29B3
  5
29B8
331
2A31
  5
2A35
331
29F2
  5
29F6
331
29FA
  5
29FE
331
2A78
  5
2A7C
331
2A39
  5
2A3D
331
2B6C
  5
2B70
331
2B2D
  5
2B31
331
2AF6
  5
2AFA
331
2AB7
  5
2ABB
331
2A80
  5
2A84
331
2A41
  5
2A45
331
2B35
  5
2B39
331
2AFE
  5
2B02
331
2ABF
  5
2AC3
331
2A88
  5
2A8C
331
2A49
  5
2A4D
331
2B3D
  5
2B41
331
2B06
  5
2B0A
331
2AC7
  5
2ACB
331
2A90
  5
2A94
331
2A51
  5
2A55
331
2B45
  5
2B49
331
2B0E
  5
2B12
331
2ACF
  5
2AD3
331
1041
  5
1041
331
1049
  5
1049
331
1090
  5
1090
331
1254
  5
1258
331
10CF
  5
10CF
331
1098
  5
1098
331
125C
  5
1264
331
1215
  5
1219
331
11A6
  5
11AA
331
10A0
  5
10A0
331
1059
  5
1059
331
10D7
  5
10D7
331
1264
  5
1D03
331
121D
  5
1221
331
11AE
  5
11B5
331
2A02
  5
2A06
331
29C3
  5
29C7
331
2A0A
  5
2A0E
331
29CB
  5
29D0
331
2A12
  5
2A16
331
29D3
  5
29D7
331
2A1A
  5
2A1E
331
29DB
  5
29DF
331
2A98
  5
2A9C
331
2A59
  5
2A5D
331
2B4D
  5
2B51
331
2B16
  5
2B1A
331
2AD7
  5
2ADB
331
2AA0
  5
2AA4
331
2A61
  5
2A65
331
2B55
  5
2B59
331
2B1E
  5
2B22
331
2ADF
  5
2AE3
331
2AA8
  5
2AAC
331
2A69
  5
2A6D
331
2B5D
  5
2B61
331
2B26
  5
2B2A
331
2AE7
  5
2AEB
331
2A71
  5
2A75
331
2B65
  5
2B69
331
2AEF
  5
2AF3
331
FE3
  5
FE3
331
1061
  5
1061
331
FB4
  5
FB4
331
1032
  5
1032
331
11B6
  5
11BD
331
10B0
  5
10B0
331
1069
  5
1069
331
103A
  5
103A
331
11BE
  5
11C2
331
1071
  5
1071
331
10B8
  5
10B8
331
123D
  5
1241
331
11C6
  5
11CA
331
1079
  5
1079
331
1245
  5
1249
331
118F
  5
118F
331
2A22
  5
2A26
331
29E3
  5
29E7
331
2A2A
  5
2A2E
331
29EB
  5
29EF
331
29B4
  5
29BA
331
2A32
  5
2A36
331
29F3
  5
29F7
331
29BC
  5
29C0
331
29FB
  5
29FF
331
2AB0
  5
2AB4
331
2A79
  5
2A7D
331
2A3A
  5
2A3E
331
2B6D
  5
2B71
331
2B2E
  5
2B32
331
2AF7
  5
2AFB
331
2AB8
  5
2ABC
331
2A81
  5
2A85
331
2A42
  5
2A46
331
2B36
  5
2B3A
331
2AFF
  5
2B03
331
2AC0
  5
2AC4
331
2A89
  5
2A8D
331
2A4A
  5
2A4E
331
2B3E
  5
2B42
331
2B07
  5
2B0B
331
2AC8
  5
2ACC
331
2A91
  5
2A95
331
2A52
  5
2A56
331
2B46
  5
2B4A
331
2B85
  5
11A4
331
2B0F
  5
2B13
331
1042
  5
1042
331
11CE
  5
1212
331
10C8
  5
10C8
331
1091
  5
1091
331
1013
  5
1013
331
1255
  5
1259
331
1099
  5
1099
331
FDC
  5
FDC
331
125D
  5
1CFB
331
1216
  5
121A
331
11A7
  5
11AB
331
105A
  5
105A
331
10A1
  5
10A1
331
10D8
  5
10D8
331
121E
  5
1222
331
11AF
  5
11B6
331
2A03
  5
2A07
331
29C4
  5
29C8
331
2A0B
  5
2A0F
331
29CC
  5
29D1
331
2A13
  5
2A17
331
29D4
  5
29D8
331
2A1B
  5
2A1F
331
29DC
  5
29E0
331
2AD0
  5
2AD4
331
2A99
  5
2A9D
331
2A5A
  5
2A5E
331
2B4E
  5
2B52
331
2B17
  5
2B1B
331
2AD8
  5
2ADC
331
2AA1
  5
2AA5
331
2A62
  5
2A66
331
2B56
  5
2B5A
331
2B1F
  5
2B23
331
2AE0
  5
2AE4
331
2AA9
  5
2AAD
331
2A6A
  5
2A6E
331
2B5E
  5
2B62
331
2B27
  5
2B2B
331
2AE8
  5
2AEC
331
2A72
  5
2A76
331
2B66
  5
2B6A
331
FE4
  5
FE4
331
1033
  5
1033
331
FB5
  5
FB5
331
1062
  5
1062
331
11B7
  5
11BE
331
103B
  5
103B
331
106A
  5
106A
331
10B1
  5
10B1
331
11BF
  5
11C3
331
10B9
  5
10B9
331
1072
  5
1072
331
123E
  5
1242
331
11C7
  5
11CB
331
107A
  5
107A
331
1246
  5
124A
331
2A23
  5
2A27
331
29E4
  5
29E8
331
2A2B
  5
2A2F
331
29EC
  5
29F0
331
29B5
  5
29BC
331
2A33
  5
2A37
331
29F4
  5
29F8
331
29BD
  5
29C1
331
29FC
  5
2A00
331
2AF0
  5
2AF4
331
2AB1
  5
2AB5
331
2A7A
  5
2A7E
331
2A3B
  5
2A3F
331
2B6E
  5
2B85
331
2B2F
  5
2B33
331
2AF8
  5
2AFC
331
2AB9
  5
2ABD
331
2A82
  5
2A86
331
2A43
  5
2A47
331
2B37
  5
2B3B
331
2B00
  5
2B04
331
2AC1
  5
2AC5
331
2A8A
  5
2A8E
331
2A4B
  5
2A4F
331
2B3F
  5
2B43
331
2B08
  5
2B0C
331
2AC9
  5
2ACD
331
2A92
  5
2A96
331
2A53
  5
2A57
331
2B47
  5
2B4B
331
2B86
  5
11A5
331
1190
  5
1190
331
1043
  5
1043
331
124E
  5
1252
331
10C9
  5
10C9
331
1014
  5
1014
331
104B
  5
104B
331
1092
  5
1092
331
1256
  5
125A
331
109A
  5
109A
331
FA6
  5
FA6
331
FDD
  5
FDD
331
1024
  5
1024
331
11A0
  5
11A0
331
1217
  5
121B
331
11A8
  5
11AC
331
10A2
  5
10A2
331
105B
  5
105B
331
10D9
  5
10D9
331
121F
  5
1223
331
2A04
  5
2A08
331
29C5
  5
29C9
331
2A0C
  5
2A10
331
2A14
  5
2A18
331
29D5
  5
29D9
331
2A1C
  5
2A20
331
29DD
  5
29E1
331
2B10
  5
2B14
331
2AD1
  5
2AD5
331
2A9A
  5
2A9E
331
2A5B
  5
2A5F
331
2B4F
  5
2B53
331
2B18
  5
2B1C
331
2AD9
  5
2ADD
331
2AA2
  5
2AA6
331
2A63
  5
2A67
331
2B57
  5
2B5B
331
2B20
  5
2B24
331
2AE1
  5
2AE5
331
2AAA
  5
2AAE
331
2A6B
  5
2A6F
331
2B5F
  5
2B63
331
2AE9
  5
2AED
331
2A73
  5
2A77
331
2B67
  5
2B6B
331
102C
  5
102C
331
FAE
  5
FAE
331
FE5
  5
FE5
331
1034
  5
1034
331
1063
  5
1063
331
103C
  5
103C
331
106B
  5
106B
331
1237
  5
123B
331
11C0
  5
11C4
331
1073
  5
1073
331
10BA
  5
10BA
331
123F
  5
1243
331
107B
  5
107B
331
1247
  5
124B
331
2A24
  5
2A28
331
29E5
  5
29E9
331
2A2C
  5
2A30
331
29ED
  5
29F1
331
29B6
  5
29BD
331
2A34
  5
2A38
331
29F5
  5
29F9
331
29BE
  5
29C2
331
29FD
  5
2A01
331
2B28
  5
2B2C
331
2AF1
  5
2AF5
331
2AB2
  5
2AB6
331
2A7B
  5
2A7F
331
2A3C
  5
2A40
331
2B6F
  5
2B86
331
2B30
  5
2B34
331
2AF9
  5
2AFD
331
2ABA
  5
2ABE
331
2A83
  5
2A87
331
2A44
  5
2A48
331
2B38
  5
2B3C
331
2B01
  5
2B05
331
2AC2
  5
2AC6
331
2A8B
  5
2A8F
331
2A4C
  5
2A50
331
2B40
  5
2B44
331
2B09
  5
2B0D
331
2ACA
  5
2ACE
331
2A93
  5
2A97
331
2A54
  5
2A58
331
2B87
  5
11A3
331
11C8
  5
11CC
331
1044
  5
1044
331
1191
  5
1191
331
124F
  5
1253
331
10CA
  5
10CA
331
1015
  5
1015
331
1093
  5
1093
331
1257
  5
125B
331
10D2
  5
10D2
331
109B
  5
109B
331
FA7
  5
FA7
331
1025
  5
1025
331
11A1
  5
11A1
331
1218
  5
121C
331
11A9
  5
11AD
331
105C
  5
105C
331
2A05
  5
2A09
331
29C6
  5
29CA
331
2A0D
  5
2A11
331
29CE
  5
29D2
331
2A15
  5
2A19
331
29D6
  5
29DA
331
2A1D
  5
2A21
331
29DE
  5
29E2
331
2B48
  5
2B4C
331
2B11
  5
2B15
331
2AD2
  5
2AD6
331
2A9B
  5
2A9F
331
2A5C
  5
2A60
331
2B50
  5
2B54
331
2B19
  5
2B1D
331
2ADA
  5
2ADE
331
2AA3
  5
2AA7
331
2A64
  5
2A68
331
2B58
  5
2B5C
331
2B21
  5
2B25
331
2AE2
  5
2AE6
331
2AAB
  5
2AAF
331
2A6C
  5
2A70
331
2B60
  5
2B64
331
2AEA
  5
2AEE
331
2A74
  5
2A78
331
102D
  5
102D
331
FE6
  5
FE6
331
1220
  5
1224
331
1035
  5
1035
331
1064
  5
1064
331
103D
  5
103D
331
106C
  5
106C
331
1238
  5
123C
331
11C1
  5
11C5
331
1074
  5
1074
331
1240
  5
1244
331
107C
  5
107C
331
2A25
  5
2A29
331
29E6
  5
29EA
331
2A2D
  5
2A31
331
29EE
  5
29F2
331
2A35
  5
2A39
331
29F6
  5
29FA
331
29BF
  5
29C3
331
29FE
  5
2A02
331
2B68
  5
2B6C
331
2B29
  5
2B2D
331
2AF2
  5
2AF6
331
2AB3
  5
2AB7
331
2A7C
  5
2A80
331
2A3D
  5
2A41
331
2B70
  5
2B87
331
2B31
  5
2B35
331
2AFA
  5
2AFE
331
2ABB
  5
2ABF
331
2A84
  5
2A88
331
2A45
  5
2A49
331
2B39
  5
2B3D
331
2B02
  5
2B06
331
2AC3
  5
2AC7
331
2A8C
  5
2A90
331
2A4D
  5
2A51
331
2B41
  5
2B45
331
2B0A
  5
2B0E
331
2ACB
  5
2ACF
331
2A94
  5
2A98
331
2A55
  5
2A59
331
1248
  5
124E
331
11C9
  5
11CE
331
1045
  5
1045
331
108C
  5
108C
331
1250
  5
1254
331
1209
  5
1213
331
1016
  5
1016
331
1094
  5
1094
331
119A
  5
119A
331
1258
  5
125C
331
1211
  5
1215
331
11A2
  5
11A6
331
109C
  5
109C
331
FDF
  5
FDF
331
1026
  5
1026
331
10D3
  5
10D3
331
1219
  5
121D
331
11AA
  5
11AE
331
105D
  5
105D
331
2A06
  5
2A0A
331
29C7
  5
29CB
331
2A0E
  5
2A12
331
29CF
  5
29D3
331
2A16
  5
2A1A
331
29D7
  5
29DB
331
2A1E
  5
2A22
331
29DF
  5
29E3
331
2B49
  5
2B4D
331
2B88
  5
11A2
331
2B12
  5
2B16
331
2AD3
  5
2AD7
331
2A9C
  5
2AA0
331
2A5D
  5
2A61
331
2B51
  5
2B55
331
2B1A
  5
2B1E
331
2ADB
  5
2ADF
331
2AA4
  5
2AA8
331
2A65
  5
2A69
331
2B59
  5
2B5D
331
2B22
  5
2B26
331
2AE3
  5
2AE7
331
2AAC
  5
2AB0
331
2A6D
  5
2A71
331
2B61
  5
2B65
331
2AEB
  5
2AEF
331
2A75
  5
2A79
331
FA8
  5
FA8
331
FE7
  5
FE7
331
102E
  5
102E
331
1221
  5
1237
331
1036
  5
1036
331
1065
  5
1065
331
11BA
  5
11BF
331
10B4
  5
10B4
331
103E
  5
103E
331
106D
  5
106D
331
1239
  5
123D
331
11C2
  5
11C6
331
1075
  5
1075
331
1241
  5
1245
331
107D
  5
107D
331
2A26
  5
2A2A
331
29E7
  5
29EB
331
29B0
  5
29B4
331
2A2E
  5
2A32
331
29EF
  5
29F3
331
29B8
  5
29BE
331
2A36
  5
2A3A
331
29F7
  5
29FB
331
29FF
  5
2A03
331
2B69
  5
2B6D
331
2B2A
  5
2B2E
331
2AF3
  5
2AF7
331
2AB4
  5
2AB8
331
2A7D
  5
2A81
331
2A3E
  5
2A42
331
2B71
  5
2B88
331
2B32
  5
2B36
331
2AFB
  5
2AFF
331
2ABC
  5
2AC0
331
2A85
  5
2A89
331
2A46
  5
2A4A
331
2B3A
  5
2B3E
331
2B03
  5
2B07
331
2AC4
  5
2AC8
331
2A8D
  5
2A91
331
2A4E
  5
2A52
331
2B42
  5
2B46
331
2B0B
  5
2B0F
331
2ACC
  5
2AD0
331
2A95
  5
2A99
331
2A56
  5
2A5A
331
1249
  5
124F
331
11CA
  5
1209
331
1046
  5
1046
331
108D
  5
108D
331
1251
  5
1255
331
1095
  5
1095
331
1259
  5
125D
331
1212
  5
1216
331
1027
  5
1027
331
1056
  5
1056
331
109D
  5
109D
331
10D4
  5
10D4
331
121A
  5
121E
331
11AB
  5
11AF
331
105E
  5
105E
331
29C0
  5
29C4
331
2A07
  5
2A0B
331
29C8
  5
29CC
331
2A0F
  5
2A13
331
29D0
  5
29D4
331
2A17
  5
2A1B
331
29D8
  5
29DC
331
2A1F
  5
2A23
331
2B4A
  5
2B4E
331
2B13
  5
2B17
331
2AD4
  5
2AD8
331
2A9D
  5
2AA1
331
2A5E
  5
2A62
331
2B52
  5
2B56
331
2B1B
  5
2B1F
331
2ADC
  5
2AE0
331
2AA5
  5
2AA9
331
2A66
  5
2A6A
331
2B5A
  5
2B5E
331
2B23
  5
2B27
331
2AE4
  5
2AE8
331
2AAD
  5
2AB1
331
2A6E
  5
2A72
  0
LAYOUT
  5
1E
102
{ACAD_REACTORS
330
1A
102
}
330
1A
100
AcDbPlotSettings
  1

  2
C:\Programme\Acadm 2000i\plotters\PH36.pc3
  4

  6

 40
0.0
 41
0.0
 42
0.0
 43
0.0
 44
0.0
 45
0.0
 46
0.0
 47
0.0
 48
0.0
 49
0.0
140
0.0
141
0.0
142
1.0
143
1.0
 70
   688
 72
     0
 73
     0
 74
     5
  7
monochrome.ctb
 75
    16
147
1.0
 76
     0
 77
     2
 78
   300
148
0.0
149
0.0
100
AcDbLayout
  1
Layout1
 70
     1
 71
     1
 10
0.0
 20
0.0
 11
420.0
 21
297.0
 12
0.0
 22
0.0
 32
0.0
 14
1.000000000000000E+20
 24
1.000000000000000E+20
 34
1.000000000000000E+20
 15
-1.000000000000000E+20
 25
-1.000000000000000E+20
 35
-1.000000000000000E+20
146
0.0
 13
0.0
 23
0.0
 33
0.0
 16
1.0
 26
0.0
 36
0.0
 17
0.0
 27
1.0
 37
0.0
 76
     0
330
1B
  0
LAYOUT
  5
26
102
{ACAD_REACTORS
330
1A
102
}
330
1A
100
AcDbPlotSettings
  1

  2
C:\Programme\Acadm 2000i\plotters\PH36.pc3
  4

  6

 40
0.0
 41
0.0
 42
0.0
 43
0.0
 44
0.0
 45
0.0
 46
0.0
 47
0.0
 48
0.0
 49
0.0
140
0.0
141
0.0
142
1.0
143
1.0
 70
   688
 72
     0
 73
     0
 74
     5
  7
monochrome.ctb
 75
    16
147
1.0
 76
     0
 77
     2
 78
   300
148
0.0
149
0.0
100
AcDbLayout
  1
Layout2
 70
     1
 71
     2
 10
0.0
 20
0.0
 11
12.0
 21
9.0
 12
0.0
 22
0.0
 32
0.0
 14
0.0
 24
0.0
 34
0.0
 15
0.0
 25
0.0
 35
0.0
146
0.0
 13
0.0
 23
0.0
 33
0.0
 16
1.0
 26
0.0
 36
0.0
 17
0.0
 27
1.0
 37
0.0
 76
     0
330
23
  0
LAYOUT
  5
22
102
{ACAD_REACTORS
330
1A
102
}
330
1A
100
AcDbPlotSettings
  1

  2
\\PH-SR-200\PH-PR-021 (ph36)
  4
A4
  6

 40
5.746749877929687
 41
5.365768432617187
 42
5.70440673828125
 43
5.74676513671875
 44
209.8886566162109
 45
297.0530090332031
 46
0.0
 47
2.493859364930216
 48
0.0000000000000364
 49
0.0
140
841.0
141
594.0
142
1.0
143
2.993385826771653
 70
 11956
 72
     1
 73
     1
 74
     4
  7
monochrome.ctb
 75
     0
147
0.3340698653198653
 76
     0
 77
     2
 78
   300
148
-0.0000000000000364
149
0.0
100
AcDbLayout
  1
Model
 70
     1
 71
     0
 10
0.0
 20
0.0
 11
12.0
 21
9.0
 12
0.0
 22
0.0
 32
0.0
 14
0.0
 24
0.0
 34
0.0
 15
0.0
 25
0.0
 35
0.0
146
0.0
 13
0.0
 23
0.0
 33
0.0
 16
1.0
 26
0.0
 36
0.0
 17
0.0
 27
1.0
 37
0.0
 76
     0
330
1F
331
2002
1001
ACAD_PSEXT
1000
\\PH-SR-200\PH-PR-021 (ph36)
1000
HP LaserJet 5000 Series PS
1000
PH Konstruktion
1000
HPLJ5000N^M^J
1070
     0
  0
MATERIAL
  5
200C
102
{ACAD_XDICTIONARY
360
200D
102
}
102
{ACAD_REACTORS
330
AB3
102
}
330
AB3
100
AcDbMaterial
  1
ByBlock
 72
     0
 43
0.0008202099737533
 43
0.0
 43
0.0
 43
0.0
 43
0.0
 43
0.0008202099737533
 43
0.0
 43
0.0
 43
0.0
 43
0.0
 43
1.0
 43
0.0
 43
0.0
 43
0.0
 43
0.0
 43
1.0
 77
     0
 47
0.0008202099737533
 47
0.0
 47
0.0
 47
0.0
 47
0.0
 47
0.0008202099737533
 47
0.0
 47
0.0
 47
0.0
 47
0.0
 47
1.0
 47
0.0
 47
0.0
 47
0.0
 47
0.0
 47
1.0
171
     0
 49
0.0008202099737533
 49
0.0
 49
0.0
 49
0.0
 49
0.0
 49
0.0008202099737533
 49
0.0
 49
0.0
 49
0.0
 49
0.0
 49
1.0
 49
0.0
 49
0.0
 49
0.0
 49
0.0
 49
1.0
175
     0
142
0.0008202099737533
142
0.0
142
0.0
142
0.0
142
0.0
142
0.0008202099737533
142
0.0
142
0.0
142
0.0
142
0.0
142
1.0
142
0.0
142
0.0
142
0.0
142
0.0
142
1.0
179
     0
144
0.0008202099737533
144
0.0
144
0.0
144
0.0
144
0.0
144
0.0008202099737533
144
0.0
144
0.0
144
0.0
144
0.0
144
1.0
144
0.0
144
0.0
144
0.0
144
0.0
144
1.0
147
0.0008202099737533
147
0.0
147
0.0
147
0.0
147
0.0
147
0.0008202099737533
147
0.0
147
0.0
147
0.0
147
0.0
147
1.0
147
0.0
147
0.0
147
0.0
147
0.0
147
1.0
  0
MATERIAL
  5
2004
102
{ACAD_XDICTIONARY
360
2005
102
}
102
{ACAD_REACTORS
330
AB3
102
}
330
AB3
100
AcDbMaterial
  1
ByLayer
 72
     0
 43
0.0008202099737533
 43
0.0
 43
0.0
 43
0.0
 43
0.0
 43
0.0008202099737533
 43
0.0
 43
0.0
 43
0.0
 43
0.0
 43
1.0
 43
0.0
 43
0.0
 43
0.0
 43
0.0
 43
1.0
 77
     0
 47
0.0008202099737533
 47
0.0
 47
0.0
 47
0.0
 47
0.0
 47
0.0008202099737533
 47
0.0
 47
0.0
 47
0.0
 47
0.0
 47
1.0
 47
0.0
 47
0.0
 47
0.0
 47
0.0
 47
1.0
171
     0
 49
0.0008202099737533
 49
0.0
 49
0.0
 49
0.0
 49
0.0
 49
0.0008202099737533
 49
0.0
 49
0.0
 49
0.0
 49
0.0
 49
1.0
 49
0.0
 49
0.0
 49
0.0
 49
0.0
 49
1.0
175
     0
142
0.0008202099737533
142
0.0
142
0.0
142
0.0
142
0.0
142
0.0008202099737533
142
0.0
142
0.0
142
0.0
142
0.0
142
1.0
142
0.0
142
0.0
142
0.0
142
0.0
142
1.0
179
     0
144
0.0008202099737533
144
0.0
144
0.0
144
0.0
144
0.0
144
0.0008202099737533
144
0.0
144
0.0
144
0.0
144
0.0
144
1.0
144
0.0
144
0.0
144
0.0
144
0.0
144
1.0
147
0.0008202099737533
147
0.0
147
0.0
147
0.0
147
0.0
147
0.0008202099737533
147
0.0
147
0.0
147
0.0
147
0.0
147
1.0
147
0.0
147
0.0
147
0.0
147
0.0
147
1.0
  0
MATERIAL
  5
2014
102
{ACAD_XDICTIONARY
360
2015
102
}
102
{ACAD_REACTORS
330
AB3
102
}
330
AB3
100
AcDbMaterial
  1
Global
 72
     0
 43
0.0008202099737533
 43
0.0
 43
0.0
 43
0.0
 43
0.0
 43
0.0008202099737533
 43
0.0
 43
0.0
 43
0.0
 43
0.0
 43
1.0
 43
0.0
 43
0.0
 43
0.0
 43
0.0
 43
1.0
 77
     0
 47
0.0008202099737533
 47
0.0
 47
0.0
 47
0.0
 47
0.0
 47
0.0008202099737533
 47
0.0
 47
0.0
 47
0.0
 47
0.0
 47
1.0
 47
0.0
 47
0.0
 47
0.0
 47
0.0
 47
1.0
171
     0
 49
0.0008202099737533
 49
0.0
 49
0.0
 49
0.0
 49
0.0
 49
0.0008202099737533
 49
0.0
 49
0.0
 49
0.0
 49
0.0
 49
1.0
 49
0.0
 49
0.0
 49
0.0
 49
0.0
 49
1.0
175
     0
142
0.0008202099737533
142
0.0
142
0.0
142
0.0
142
0.0
142
0.0008202099737533
142
0.0
142
0.0
142
0.0
142
0.0
142
1.0
142
0.0
142
0.0
142
0.0
142
0.0
142
1.0
179
     0
144
0.0008202099737533
144
0.0
144
0.0
144
0.0
144
0.0
144
0.0008202099737533
144
0.0
144
0.0
144
0.0
144
0.0
144
1.0
144
0.0
144
0.0
144
0.0
144
0.0
144
1.0
147
0.0008202099737533
147
0.0
147
0.0
147
0.0
147
0.0
147
0.0008202099737533
147
0.0
147
0.0
147
0.0
147
0.0
147
1.0
147
0.0
147
0.0
147
0.0
147
0.0
147
1.0
  0
MLEADERSTYLE
  5
2040
102
{ACAD_REACTORS
330
203F
102
}
330
203F
100
AcDbMLeaderStyle
170
     2
171
     1
172
     0
 90
        2
 40
0.0
 41
0.0
173
     1
 91
-1056964608
340
14
 92
       -2
290
     1
 42
2.0
291
     1
 43
0.36
  3
Standard
 44
4.0
300

342
11
174
     1
178
     6
175
     1
176
     0
 93
-1056964608
 45
4.0
292
     0
297
     0
 46
4.0
 94
-1056964608
 47
1.0
 49
1.0
140
1.0
293
     1
141
0.0
294
     1
177
     0
142
1.0
295
     0
296
     0
143
0.125
1001
ACAD_MLEADERVER
1070
     2
  0
MLINESTYLE
  5
18
102
{ACAD_REACTORS
330
17
102
}
330
17
100
AcDbMlineStyle
  2
STANDARD
 70
     0
  3

 62
   256
 51
90.0
 52
90.0
 71
     2
 49
0.5
 62
   256
  6
BYLAYER
 49
-0.5
 62
   256
  6
BYLAYER
  0
ACDBPLACEHOLDER
  5
F
102
{ACAD_REACTORS
330
E
102
}
330
E
  0
SCALE
  5
202E
102
{ACAD_REACTORS
330
202D
102
}
330
202D
100
AcDbScale
 70
     0
300
1:1
140
1.0
141
1.0
290
     1
  0
SCALE
  5
202F
102
{ACAD_REACTORS
330
202D
102
}
330
202D
100
AcDbScale
 70
     0
300
1:2
140
1.0
141
2.0
290
     0
  0
SCALE
  5
2030
102
{ACAD_REACTORS
330
202D
102
}
330
202D
100
AcDbScale
 70
     0
300
1:4
140
1.0
141
4.0
290
     0
  0
SCALE
  5
2031
102
{ACAD_REACTORS
330
202D
102
}
330
202D
100
AcDbScale
 70
     0
300
1:5
140
1.0
141
5.0
290
     0
  0
SCALE
  5
2032
102
{ACAD_REACTORS
330
202D
102
}
330
202D
100
AcDbScale
 70
     0
300
1:8
140
1.0
141
8.0
290
     0
  0
SCALE
  5
2033
102
{ACAD_REACTORS
330
202D
102
}
330
202D
100
AcDbScale
 70
     0
300
1:10
140
1.0
141
10.0
290
     0
  0
SCALE
  5
2034
102
{ACAD_REACTORS
330
202D
102
}
330
202D
100
AcDbScale
 70
     0
300
1:16
140
1.0
141
16.0
290
     0
  0
SCALE
  5
2035
102
{ACAD_REACTORS
330
202D
102
}
330
202D
100
AcDbScale
 70
     0
300
1:20
140
1.0
141
20.0
290
     0
  0
SCALE
  5
2036
102
{ACAD_REACTORS
330
202D
102
}
330
202D
100
AcDbScale
 70
     0
300
1:30
140
1.0
141
30.0
290
     0
  0
SCALE
  5
2037
102
{ACAD_REACTORS
330
202D
102
}
330
202D
100
AcDbScale
 70
     0
300
1:40
140
1.0
141
40.0
290
     0
  0
SCALE
  5
2038
102
{ACAD_REACTORS
330
202D
102
}
330
202D
100
AcDbScale
 70
     0
300
1:50
140
1.0
141
50.0
290
     0
  0
SCALE
  5
2039
102
{ACAD_REACTORS
330
202D
102
}
330
202D
100
AcDbScale
 70
     0
300
1:100
140
1.0
141
100.0
290
     0
  0
SCALE
  5
203A
102
{ACAD_REACTORS
330
202D
102
}
330
202D
100
AcDbScale
 70
     0
300
2:1
140
2.0
141
1.0
290
     0
  0
SCALE
  5
203B
102
{ACAD_REACTORS
330
202D
102
}
330
202D
100
AcDbScale
 70
     0
300
4:1
140
4.0
141
1.0
290
     0
  0
SCALE
  5
203C
102
{ACAD_REACTORS
330
202D
102
}
330
202D
100
AcDbScale
 70
     0
300
8:1
140
8.0
141
1.0
290
     0
  0
SCALE
  5
203D
102
{ACAD_REACTORS
330
202D
102
}
330
202D
100
AcDbScale
 70
     0
300
10:1
140
10.0
141
1.0
290
     0
  0
SCALE
  5
203E
102
{ACAD_REACTORS
330
202D
102
}
330
202D
100
AcDbScale
 70
     0
300
100:1
140
100.0
141
1.0
290
     0
  0
TABLESTYLE
  5
AB6
102
{ACAD_XDICTIONARY
360
2D13
102
}
102
{ACAD_REACTORS
330
AB5
102
}
330
AB5
100
AcDbTableStyle
  3
Standard
 70
     0
 71
     0
 40
1.5
 41
1.5
280
     0
281
     0
  7
STANDARD
140
4.5
170
     2
 62
     0
 63
     7
283
     0
274
    -2
284
     1
 64
     0
275
    -2
285
     1
 65
     0
276
    -2
286
     1
 66
     0
277
    -2
287
     1
 67
     0
278
    -2
288
     1
 68
     0
279
    -2
289
     1
 69
     0
  7
STANDARD
140
6.0
170
     5
 62
     0
 63
     7
283
     0
274
    -2
284
     1
 64
     0
275
    -2
285
     1
 65
     0
276
    -2
286
     1
 66
     0
277
    -2
287
     1
 67
     0
278
    -2
288
     1
 68
     0
279
    -2
289
     1
 69
     0
  7
STANDARD
140
4.5
170
     5
 62
     0
 63
     7
283
     0
274
    -2
284
     1
 64
     0
275
    -2
285
     1
 65
     0
276
    -2
286
     1
 66
     0
277
    -2
287
     1
 67
     0
278
    -2
288
     1
 68
     0
279
    -2
289
     1
 69
     0
  0
VISUALSTYLE
  5
2022
102
{ACAD_REACTORS
330
201C
102
}
330
201C
100
AcDbVisualStyle
  2
2dWireframe
 70
     4
 71
     0
 72
     2
 73
     0
 90
        0
 40
-0.6
 41
-30.0
 62
     5
 63
     7
421
 16777215
 74
     1
 91
        4
 64
     7
 65
   257
 75
     1
175
     1
 42
1.0
 92
        0
 66
   257
 43
1.0
 76
     1
 77
     6
 78
     2
 67
     7
 79
     5
170
     0
171
     0
290
     0
174
     0
 93
        1
 44
0.0
173
     0
291
     0
 45
0.0
1001
ACAD
1000
AcDbSavedByObjectVersion
1070
     0
  0
VISUALSTYLE
  5
2024
102
{ACAD_REACTORS
330
201C
102
}
330
201C
100
AcDbVisualStyle
  2
3D Hidden
 70
     6
 71
     1
 72
     2
 73
     2
 90
        0
 40
-0.6
 41
-30.0
 62
     5
 63
     7
421
 16777215
 74
     2
 91
        2
 64
     7
 65
   257
 75
     2
175
     1
 42
40.0
 92
        0
 66
   257
 43
1.0
 76
     1
 77
     6
 78
     2
 67
     7
 79
     3
170
     0
171
     0
290
     0
174
     0
 93
        1
 44
0.0
173
     0
291
     0
 45
0.0
1001
ACAD
1000
AcDbSavedByObjectVersion
1070
     0
  0
VISUALSTYLE
  5
2023
102
{ACAD_REACTORS
330
201C
102
}
330
201C
100
AcDbVisualStyle
  2
3dWireframe
 70
     5
 71
     0
 72
     2
 73
     0
 90
        0
 40
-0.6
 41
-30.0
 62
     5
 63
     7
421
 16777215
 74
     1
 91
        4
 64
     7
 65
   257
 75
     1
175
     1
 42
1.0
 92
        0
 66
   257
 43
1.0
 76
     1
 77
     6
 78
     2
 67
     7
 79
     5
170
     0
171
     0
290
     0
174
     0
 93
        1
 44
0.0
173
     0
291
     0
 45
0.0
1001
ACAD
1000
AcDbSavedByObjectVersion
1070
     0
  0
VISUALSTYLE
  5
2021
102
{ACAD_REACTORS
330
201C
102
}
330
201C
100
AcDbVisualStyle
  2
Basic
 70
     7
 71
     1
 72
     0
 73
     1
 90
        0
 40
-0.6
 41
-30.0
 62
     5
 63
     7
421
 16777215
 74
     0
 91
        4
 64
     7
 65
   257
 75
     1
175
     1
 42
1.0
 92
        8
 66
     7
 43
1.0
 76
     1
 77
     6
 78
     2
 67
     7
 79
     5
170
     0
171
     0
290
     0
174
     0
 93
        1
 44
0.0
173
     0
291
     1
 45
0.0
1001
ACAD
1000
AcDbSavedByObjectVersion
1070
     0
  0
VISUALSTYLE
  5
2028
102
{ACAD_REACTORS
330
201C
102
}
330
201C
100
AcDbVisualStyle
  2
Brighten
 70
    12
 71
     2
 72
     2
 73
     0
 90
        0
 40
-0.6
 41
-30.0
 62
     5
 63
     7
421
 16777215
 74
     1
 91
        4
 64
     7
 65
   257
 75
     1
175
     1
 42
1.0
 92
        8
 66
     7
 43
1.0
 76
     1
 77
     6
 78
     2
 67
     7
 79
     5
170
     0
171
     0
290
     0
174
     0
 93
        1
 44
50.0
173
     0
291
     1
 45
0.0
1001
ACAD
1000
AcDbSavedByObjectVersion
1070
     0
  0
VISUALSTYLE
  5
202C
102
{ACAD_REACTORS
330
201C
102
}
330
201C
100
AcDbVisualStyle
  2
ColorChange
 70
    16
 71
     2
 72
     2
 73
     3
 90
        0
 40
-0.6
 41
-30.0
 62
     5
 63
     8
421
  8421504
 74
     1
 91
        4
 64
     7
 65
   257
 75
     1
175
     1
 42
1.0
 92
        8
 66
     8
424
  8421504
 43
1.0
 76
     1
 77
     6
 78
     2
 67
     7
 79
     5
170
     0
171
     0
290
     0
174
     0
 93
        1
 44
0.0
173
     0
291
     1
 45
0.0
1001
ACAD
1000
AcDbSavedByObjectVersion
1070
     0
  0
VISUALSTYLE
  5
2025
102
{ACAD_REACTORS
330
201C
102
}
330
201C
100
AcDbVisualStyle
  2
Conceptual
 70
     9
 71
     3
 72
     2
 73
     0
 90
        0
 40
-0.6
 41
-30.0
 62
     5
 63
     7
421
 16777215
 74
     2
 91
        2
 64
     7
 65
   257
 75
     1
175
     1
 42
40.0
 92
        8
 66
     7
 43
1.0
 76
     1
 77
     6
 78
     2
 67
     7
 79
     3
170
     0
171
     0
290
     0
174
     0
 93
        1
 44
0.0
173
     0
291
     0
 45
0.0
1001
ACAD
1000
AcDbSavedByObjectVersion
1070
     0
  0
VISUALSTYLE
  5
2027
102
{ACAD_REACTORS
330
201C
102
}
330
201C
100
AcDbVisualStyle
  2
Dim
 70
    11
 71
     2
 72
     2
 73
     0
 90
        0
 40
-0.6
 41
-30.0
 62
     5
 63
     7
421
 16777215
 74
     1
 91
        4
 64
     7
 65
   257
 75
     1
175
     1
 42
1.0
 92
        8
 66
     7
 43
1.0
 76
     1
 77
     6
 78
     2
 67
     7
 79
     5
170
     0
171
     0
290
     0
174
     0
 93
        1
 44
-50.0
173
     0
291
     1
 45
0.0
1001
ACAD
1000
AcDbSavedByObjectVersion
1070
     0
  0
VISUALSTYLE
  5
202B
102
{ACAD_REACTORS
330
201C
102
}
330
201C
100
AcDbVisualStyle
  2
Facepattern
 70
    15
 71
     2
 72
     2
 73
     0
 90
        0
 40
-0.6
 41
-30.0
 62
     5
 63
     7
421
 16777215
 74
     1
 91
        4
 64
     7
 65
   257
 75
     1
175
     1
 42
1.0
 92
        8
 66
     7
 43
1.0
 76
     1
 77
     6
 78
     2
 67
     7
 79
     5
170
     0
171
     0
290
     0
174
     0
 93
        1
 44
0.0
173
     0
291
     1
 45
0.0
1001
ACAD
1000
AcDbSavedByObjectVersion
1070
     0
  0
VISUALSTYLE
  5
201D
102
{ACAD_REACTORS
330
201C
102
}
330
201C
100
AcDbVisualStyle
  2
Flat
 70
     0
 71
     2
 72
     1
 73
     1
 90
        2
 40
-0.6
 41
30.0
 62
     5
 63
     7
421
 16777215
 74
     0
 91
        4
 64
     7
 65
   257
 75
     1
175
     1
 42
1.0
 92
        8
 66
     7
 43
1.0
 76
     1
 77
     6
 78
     2
 67
     7
 79
     5
170
     0
171
     0
290
     0
174
     0
 93
       13
 44
0.0
173
     0
291
     1
 45
0.0
1001
ACAD
1000
AcDbSavedByObjectVersion
1070
     0
  0
VISUALSTYLE
  5
201E
102
{ACAD_REACTORS
330
201C
102
}
330
201C
100
AcDbVisualStyle
  2
FlatWithEdges
 70
     1
 71
     2
 72
     1
 73
     1
 90
        2
 40
-0.6
 41
30.0
 62
     5
 63
     7
421
 16777215
 74
     1
 91
        4
 64
     7
 65
   257
 75
     1
175
     1
 42
1.0
 92
        0
 66
   257
 43
1.0
 76
     1
 77
     6
 78
     2
 67
     7
 79
     5
170
     0
171
     0
290
     0
174
     0
 93
       13
 44
0.0
173
     0
291
     1
 45
0.0
1001
ACAD
1000
AcDbSavedByObjectVersion
1070
     0
  0
VISUALSTYLE
  5
201F
102
{ACAD_REACTORS
330
201C
102
}
330
201C
100
AcDbVisualStyle
  2
Gouraud
 70
     2
 71
     2
 72
     2
 73
     1
 90
        2
 40
-0.6
 41
30.0
 62
     5
 63
     7
421
 16777215
 74
     0
 91
        4
 64
     7
 65
   257
 75
     1
175
     1
 42
1.0
 92
        0
 66
     7
 43
1.0
 76
     1
 77
     6
 78
     2
 67
     7
 79
     5
170
     0
171
     0
290
     0
174
     0
 93
       13
 44
0.0
173
     0
291
     1
 45
0.0
1001
ACAD
1000
AcDbSavedByObjectVersion
1070
     0
  0
VISUALSTYLE
  5
2020
102
{ACAD_REACTORS
330
201C
102
}
330
201C
100
AcDbVisualStyle
  2
GouraudWithEdges
 70
     3
 71
     2
 72
     2
 73
     1
 90
        2
 40
-0.6
 41
30.0
 62
     5
 63
     7
421
 16777215
 74
     1
 91
        4
 64
     7
 65
   257
 75
     1
175
     1
 42
1.0
 92
        0
 66
   257
 43
1.0
 76
     1
 77
     6
 78
     2
 67
     7
 79
     5
170
     0
171
     0
290
     0
174
     0
 93
       13
 44
0.0
173
     0
291
     1
 45
0.0
1001
ACAD
1000
AcDbSavedByObjectVersion
1070
     0
  0
VISUALSTYLE
  5
202A
102
{ACAD_REACTORS
330
201C
102
}
330
201C
100
AcDbVisualStyle
  2
Linepattern
 70
    14
 71
     2
 72
     2
 73
     0
 90
        0
 40
-0.6
 41
-30.0
 62
     5
 63
     7
421
 16777215
 74
     1
 91
        4
 64
     7
 65
   257
 75
     7
175
     7
 42
1.0
 92
        8
 66
     7
 43
1.0
 76
     1
 77
     6
 78
     2
 67
     7
 79
     5
170
     0
171
     0
290
     0
174
     0
 93
        1
 44
0.0
173
     0
291
     1
 45
0.0
1001
ACAD
1000
AcDbSavedByObjectVersion
1070
     0
  0
VISUALSTYLE
  5
2026
102
{ACAD_REACTORS
330
201C
102
}
330
201C
100
AcDbVisualStyle
  2
Realistic
 70
     8
 71
     2
 72
     2
 73
     0
 90
        0
 40
-0.6
 41
-30.0
 62
     5
 63
     7
421
 16777215
 74
     1
 91
        0
 64
     7
 65
   257
 75
     1
175
     1
 42
1.0
 92
        8
 66
     8
424
  7895160
 43
1.0
 76
     1
 77
     6
 78
     2
 67
     7
 79
     5
170
     0
171
     0
290
     0
174
     0
 93
       13
 44
0.0
173
     0
291
     0
 45
0.0
1001
ACAD
1000
AcDbSavedByObjectVersion
1070
     0
  0
VISUALSTYLE
  5
2029
102
{ACAD_REACTORS
330
201C
102
}
330
201C
100
AcDbVisualStyle
  2
Thicken
 70
    13
 71
     2
 72
     2
 73
     0
 90
        0
 40
-0.6
 41
-30.0
 62
     5
 63
     7
421
 16777215
 74
     1
 91
        4
 64
     7
 65
   257
 75
     1
175
     1
 42
1.0
 92
       12
 66
     7
 43
1.0
 76
     1
 77
     6
 78
     2
 67
     7
 79
     5
170
     0
171
     0
290
     0
174
     0
 93
        1
 44
0.0
173
     0
291
     1
 45
0.0
1001
ACAD
1000
AcDbSavedByObjectVersion
1070
     0
  0
DICTIONARYVAR
  5
2D12
102
{ACAD_REACTORS
330
34
102
}
330
34
100
DictionaryVariables
280
     0
  1
1:1
  0
DICTIONARYVAR
  5
2D11
102
{ACAD_REACTORS
330
34
102
}
330
34
100
DictionaryVariables
280
     0
  1
STANDARD
  0
DICTIONARYVAR
  5
B1B
102
{ACAD_REACTORS
330
34
102
}
330
34
100
DictionaryVariables
280
     0
  1
STANDARD
  0
DICTIONARYVAR
  5
35
102
{ACAD_REACTORS
330
34
102
}
330
34
100
DictionaryVariables
280
     0
  1
1
  0
DICTIONARY
  5
4C
102
{ACAD_REACTORS
330
47
102
}
330
47
100
AcDbDictionary
281
     1
  0
XRECORD
  5
B0D
102
{ACAD_REACTORS
330
47
102
}
330
47
100
AcDbXrecord
280
     1
 90
-1023410169
  0
DICTIONARY
  5
200D
330
200C
100
AcDbDictionary
280
     1
281
     1
  3
ACAD_XREC_ROUNDTRIP
360
2D31
  3
BUMPTILE
360
200F
  3
DIFFUSETILE
360
200E
  3
OPACITYTILE
360
2012
  3
REFLECTIONTILE
360
2011
  3
REFRACTIONTILE
360
2013
  3
SPECULARTILE
360
2010
  0
DICTIONARY
  5
2005
330
2004
100
AcDbDictionary
280
     1
281
     1
  3
ACAD_XREC_ROUNDTRIP
360
2D30
  3
BUMPTILE
360
2007
  3
DIFFUSETILE
360
2006
  3
OPACITYTILE
360
200A
  3
REFLECTIONTILE
360
2009
  3
REFRACTIONTILE
360
200B
  3
SPECULARTILE
360
2008
  0
DICTIONARY
  5
2015
330
2014
100
AcDbDictionary
280
     1
281
     1
  3
ACAD_XREC_ROUNDTRIP
360
2D32
  3
BUMPTILE
360
2017
  3
DIFFUSETILE
360
2016
  3
OPACITYTILE
360
201A
  3
REFLECTIONTILE
360
2019
  3
REFRACTIONTILE
360
201B
  3
SPECULARTILE
360
2018
  0
DICTIONARY
  5
2D13
330
AB6
100
AcDbDictionary
280
     1
281
     1
  3
ACAD_ROUNDTRIP_2008_TABLESTYLE_CELLSTYLEMAP
360
2D14
  3
ACAD_XREC_ROUNDTRIP
360
2D16
  0
XRECORD
  5
2D31
102
{ACAD_REACTORS
330
200D
102
}
330
200D
100
AcDbXrecord
280
     1
102
MATERIAL
148
0.0
149
0.0
149
0.0
 93
        0
 94
      127
282
     0
 72
     0
 77
     0
171
     0
175
     0
179
     0
273
     0
  0
XRECORD
  5
200F
102
{ACAD_REACTORS
330
200D
102
}
330
200D
100
AcDbXrecord
280
     1
270
     1
271
     1
  0
XRECORD
  5
200E
102
{ACAD_REACTORS
330
200D
102
}
330
200D
100
AcDbXrecord
280
     1
270
     1
271
     1
  0
XRECORD
  5
2012
102
{ACAD_REACTORS
330
200D
102
}
330
200D
100
AcDbXrecord
280
     1
270
     1
271
     1
  0
XRECORD
  5
2011
102
{ACAD_REACTORS
330
200D
102
}
330
200D
100
AcDbXrecord
280
     1
270
     1
271
     1
  0
XRECORD
  5
2013
102
{ACAD_REACTORS
330
200D
102
}
330
200D
100
AcDbXrecord
280
     1
270
     1
271
     1
  0
XRECORD
  5
2010
102
{ACAD_REACTORS
330
200D
102
}
330
200D
100
AcDbXrecord
280
     1
270
     1
271
     1
  0
XRECORD
  5
2D30
102
{ACAD_REACTORS
330
2005
102
}
330
2005
100
AcDbXrecord
280
     1
102
MATERIAL
148
0.0
149
0.0
149
0.0
 93
        0
 94
      127
282
     0
 72
     0
 77
     0
171
     0
175
     0
179
     0
273
     0
  0
XRECORD
  5
2007
102
{ACAD_REACTORS
330
2005
102
}
330
2005
100
AcDbXrecord
280
     1
270
     1
271
     1
  0
XRECORD
  5
2006
102
{ACAD_REACTORS
330
2005
102
}
330
2005
100
AcDbXrecord
280
     1
270
     1
271
     1
  0
XRECORD
  5
200A
102
{ACAD_REACTORS
330
2005
102
}
330
2005
100
AcDbXrecord
280
     1
270
     1
271
     1
  0
XRECORD
  5
2009
102
{ACAD_REACTORS
330
2005
102
}
330
2005
100
AcDbXrecord
280
     1
270
     1
271
     1
  0
XRECORD
  5
200B
102
{ACAD_REACTORS
330
2005
102
}
330
2005
100
AcDbXrecord
280
     1
270
     1
271
     1
  0
XRECORD
  5
2008
102
{ACAD_REACTORS
330
2005
102
}
330
2005
100
AcDbXrecord
280
     1
270
     1
271
     1
  0
XRECORD
  5
2D32
102
{ACAD_REACTORS
330
2015
102
}
330
2015
100
AcDbXrecord
280
     1
102
MATERIAL
148
0.0
149
0.0
149
0.0
 93
        0
 94
      127
282
     0
 72
     0
 77
     0
171
     0
175
     0
179
     0
273
     0
  0
XRECORD
  5
2017
102
{ACAD_REACTORS
330
2015
102
}
330
2015
100
AcDbXrecord
280
     1
270
     1
271
     1
  0
XRECORD
  5
2016
102
{ACAD_REACTORS
330
2015
102
}
330
2015
100
AcDbXrecord
280
     1
270
     1
271
     1
  0
XRECORD
  5
201A
102
{ACAD_REACTORS
330
2015
102
}
330
2015
100
AcDbXrecord
280
     1
270
     1
271
     1
  0
XRECORD
  5
2019
102
{ACAD_REACTORS
330
2015
102
}
330
2015
100
AcDbXrecord
280
     1
270
     1
271
     1
  0
XRECORD
  5
201B
102
{ACAD_REACTORS
330
2015
102
}
330
2015
100
AcDbXrecord
280
     1
270
     1
271
     1
  0
XRECORD
  5
2018
102
{ACAD_REACTORS
330
2015
102
}
330
2015
100
AcDbXrecord
280
     1
270
     1
271
     1
  0
CELLSTYLEMAP
  5
2D14
102
{ACAD_REACTORS
330
2D13
102
}
330
2D13
100
AcDbCellStyleMap
 90
        3
300
CELLSTYLE
  1
TABLEFORMAT_BEGIN
 90
        5
170
     1
 91
        0
 92
    32768
 62
   257
 93
        1
300
CONTENTFORMAT
  1
CONTENTFORMAT_BEGIN
 90
        0
 91
        0
 92
        4
 93
        0
300

 40
0.0
140
1.0
 94
        5
 62
     0
340
11
144
6.0
309
CONTENTFORMAT_END
171
     1
301
MARGIN
  1
CELLMARGIN_BEGIN
 40
1.5
 40
1.5
 40
1.5
 40
1.5
 40
0.18
 40
0.18
309
CELLMARGIN_END
 94
        6
 95
        1
302
GRIDFORMAT
  1
GRIDFORMAT_BEGIN
 90
        0
 91
        1
 62
     0
 92
       -2
340
0
 93
        0
 40
0.045
309
GRIDFORMAT_END
 95
        2
302
GRIDFORMAT
  1
GRIDFORMAT_BEGIN
 90
        0
 91
        1
 62
     0
 92
       -2
340
0
 93
        0
 40
0.045
309
GRIDFORMAT_END
 95
        4
302
GRIDFORMAT
  1
GRIDFORMAT_BEGIN
 90
        0
 91
        1
 62
     0
 92
       -2
340
0
 93
        0
 40
0.045
309
GRIDFORMAT_END
 95
        8
302
GRIDFORMAT
  1
GRIDFORMAT_BEGIN
 90
        0
 91
        1
 62
     0
 92
       -2
340
0
 93
        0
 40
0.045
309
GRIDFORMAT_END
 95
       16
302
GRIDFORMAT
  1
GRIDFORMAT_BEGIN
 90
        0
 91
        1
 62
     0
 92
       -2
340
0
 93
        0
 40
0.045
309
GRIDFORMAT_END
 95
       32
302
GRIDFORMAT
  1
GRIDFORMAT_BEGIN
 90
        0
 91
        1
 62
     0
 92
       -2
340
0
 93
        0
 40
0.045
309
GRIDFORMAT_END
309
TABLEFORMAT_END
  1
CELLSTYLE_BEGIN
 90
        1
 91
        1
300
_TITLE
309
CELLSTYLE_END
300
CELLSTYLE
  1
TABLEFORMAT_BEGIN
 90
        5
170
     1
 91
        0
 92
        0
 62
   257
 93
        1
300
CONTENTFORMAT
  1
CONTENTFORMAT_BEGIN
 90
        0
 91
        0
 92
        4
 93
        0
300

 40
0.0
140
1.0
 94
        5
 62
     0
340
11
144
4.5
309
CONTENTFORMAT_END
171
     1
301
MARGIN
  1
CELLMARGIN_BEGIN
 40
1.5
 40
1.5
 40
1.5
 40
1.5
 40
0.18
 40
0.18
309
CELLMARGIN_END
 94
        6
 95
        1
302
GRIDFORMAT
  1
GRIDFORMAT_BEGIN
 90
        0
 91
        1
 62
     0
 92
       -2
340
0
 93
        0
 40
0.045
309
GRIDFORMAT_END
 95
        2
302
GRIDFORMAT
  1
GRIDFORMAT_BEGIN
 90
        0
 91
        1
 62
     0
 92
       -2
340
0
 93
        0
 40
0.045
309
GRIDFORMAT_END
 95
        4
302
GRIDFORMAT
  1
GRIDFORMAT_BEGIN
 90
        0
 91
        1
 62
     0
 92
       -2
340
0
 93
        0
 40
0.045
309
GRIDFORMAT_END
 95
        8
302
GRIDFORMAT
  1
GRIDFORMAT_BEGIN
 90
        0
 91
        1
 62
     0
 92
       -2
340
0
 93
        0
 40
0.045
309
GRIDFORMAT_END
 95
       16
302
GRIDFORMAT
  1
GRIDFORMAT_BEGIN
 90
        0
 91
        1
 62
     0
 92
       -2
340
0
 93
        0
 40
0.045
309
GRIDFORMAT_END
 95
       32
302
GRIDFORMAT
  1
GRIDFORMAT_BEGIN
 90
        0
 91
        1
 62
     0
 92
       -2
340
0
 93
        0
 40
0.045
309
GRIDFORMAT_END
309
TABLEFORMAT_END
  1
CELLSTYLE_BEGIN
 90
        2
 91
        1
300
_HEADER
309
CELLSTYLE_END
300
CELLSTYLE
  1
TABLEFORMAT_BEGIN
 90
        5
170
     1
 91
        0
 92
        0
 62
   257
 93
        1
300
CONTENTFORMAT
  1
CONTENTFORMAT_BEGIN
 90
        0
 91
        0
 92
        4
 93
        0
300

 40
0.0
140
1.0
 94
        2
 62
     0
340
11
144
4.5
309
CONTENTFORMAT_END
171
     1
301
MARGIN
  1
CELLMARGIN_BEGIN
 40
1.5
 40
1.5
 40
1.5
 40
1.5
 40
0.18
 40
0.18
309
CELLMARGIN_END
 94
        6
 95
        1
302
GRIDFORMAT
  1
GRIDFORMAT_BEGIN
 90
        0
 91
        1
 62
     0
 92
       -2
340
0
 93
        0
 40
0.045
309
GRIDFORMAT_END
 95
        2
302
GRIDFORMAT
  1
GRIDFORMAT_BEGIN
 90
        0
 91
        1
 62
     0
 92
       -2
340
0
 93
        0
 40
0.045
309
GRIDFORMAT_END
 95
        4
302
GRIDFORMAT
  1
GRIDFORMAT_BEGIN
 90
        0
 91
        1
 62
     0
 92
       -2
340
0
 93
        0
 40
0.045
309
GRIDFORMAT_END
 95
        8
302
GRIDFORMAT
  1
GRIDFORMAT_BEGIN
 90
        0
 91
        1
 62
     0
 92
       -2
340
0
 93
        0
 40
0.045
309
GRIDFORMAT_END
 95
       16
302
GRIDFORMAT
  1
GRIDFORMAT_BEGIN
 90
        0
 91
        1
 62
     0
 92
       -2
340
0
 93
        0
 40
0.045
309
GRIDFORMAT_END
 95
       32
302
GRIDFORMAT
  1
GRIDFORMAT_BEGIN
 90
        0
 91
        1
 62
     0
 92
       -2
340
0
 93
        0
 40
0.045
309
GRIDFORMAT_END
309
TABLEFORMAT_END
  1
CELLSTYLE_BEGIN
 90
        3
 91
        2
300
_DATA
309
CELLSTYLE_END
  0
XRECORD
  5
2D16
102
{ACAD_REACTORS
330
2D13
102
}
330
2D13
100
AcDbXrecord
280
     1
102
ACAD_ROUNDTRIP_PRE2007_TABLESTYLE
 90
        4
 91
        0
  1

 92
        4
 93
        0
  2

 94
        4
 95
        0
  3

  0
ENDSEC
  0
EOF
