  0
SECTION
  2
HEADER
  9
$ACADVER
  1
AC1018
  9
$ACADMAINTVER
 70
   104
  9
$DWGCODEPAGE
  3
ANSI_1252
  9
$LASTSAVEDBY
  1
nlazaar
  9
$INSBASE
 10
0.0
 20
0.0
 30
0.0
  9
$EXTMIN
 10
39.67087876574942
 20
119.56491976201
 30
-0.0000000000000153
  9
$EXTMAX
 10
686.3088268104711
 20
963.8909493767249
 30
0.0
  9
$LIMMIN
 10
0.0
 20
0.0
  9
$LIMMAX
 10
420.0
 20
297.0
  9
$ORTHOMODE
 70
     1
  9
$REGENMODE
 70
     1
  9
$FILLMODE
 70
     1
  9
$QTEXTMODE
 70
     0
  9
$MIRRTEXT
 70
     1
  9
$LTSCALE
 40
1.0
  9
$ATTMODE
 70
     1
  9
$TEXTSIZE
 40
2.5
  9
$TRACEWID
 40
1.0
  9
$TEXTSTYLE
  7
Standard
  9
$CLAYER
  8
0
  9
$CELTYPE
  6
ByLayer
  9
$CECOLOR
 62
   256
  9
$CELTSCALE
 40
1.0
  9
$DISPSILH
 70
     0
  9
$DIMSCALE
 40
1.0
  9
$DIMASZ
 40
2.5
  9
$DIMEXO
 40
0.625
  9
$DIMDLI
 40
3.75
  9
$DIMRND
 40
0.0
  9
$DIMDLE
 40
0.0
  9
$DIMEXE
 40
1.25
  9
$DIMTP
 40
0.0
  9
$DIMTM
 40
0.0
  9
$DIMTXT
 40
2.5
  9
$DIMCEN
 40
2.5
  9
$DIMTSZ
 40
0.0
  9
$DIMTOL
 70
     0
  9
$DIMLIM
 70
     0
  9
$DIMTIH
 70
     0
  9
$DIMTOH
 70
     0
  9
$DIMSE1
 70
     0
  9
$DIMSE2
 70
     0
  9
$DIMTAD
 70
     1
  9
$DIMZIN
 70
     8
  9
$DIMBLK
  1

  9
$DIMASO
 70
     1
  9
$DIMSHO
 70
     1
  9
$DIMPOST
  1

  9
$DIMAPOST
  1

  9
$DIMALT
 70
     0
  9
$DIMALTD
 70
     3
  9
$DIMALTF
 40
0.03937007874016
  9
$DIMLFAC
 40
1.0
  9
$DIMTOFL
 70
     1
  9
$DIMTVP
 40
0.0
  9
$DIMTIX
 70
     0
  9
$DIMSOXD
 70
     0
  9
$DIMSAH
 70
     0
  9
$DIMBLK1
  1

  9
$DIMBLK2
  1

  9
$DIMSTYLE
  2
ISO-25
  9
$DIMCLRD
 70
     0
  9
$DIMCLRE
 70
     0
  9
$DIMCLRT
 70
     0
  9
$DIMTFAC
 40
1.0
  9
$DIMGAP
 40
0.625
  9
$DIMJUST
 70
     0
  9
$DIMSD1
 70
     0
  9
$DIMSD2
 70
     0
  9
$DIMTOLJ
 70
     0
  9
$DIMTZIN
 70
     8
  9
$DIMALTZ
 70
     0
  9
$DIMALTTZ
 70
     0
  9
$DIMUPT
 70
     0
  9
$DIMDEC
 70
     2
  9
$DIMTDEC
 70
     2
  9
$DIMALTU
 70
     2
  9
$DIMALTTD
 70
     3
  9
$DIMTXSTY
  7
Standard
  9
$DIMAUNIT
 70
     0
  9
$DIMADEC
 70
     0
  9
$DIMALTRND
 40
0.0
  9
$DIMAZIN
 70
     0
  9
$DIMDSEP
 70
    44
  9
$DIMATFIT
 70
     3
  9
$DIMFRAC
 70
     0
  9
$DIMLDRBLK
  1

  9
$DIMLUNIT
 70
     2
  9
$DIMLWD
 70
    -2
  9
$DIMLWE
 70
    -2
  9
$DIMTMOVE
 70
     0
  9
$LUNITS
 70
     2
  9
$LUPREC
 70
     4
  9
$SKETCHINC
 40
1.0
  9
$FILLETRAD
 40
0.5
  9
$AUNITS
 70
     0
  9
$AUPREC
 70
     0
  9
$MENU
  1
.
  9
$ELEVATION
 40
0.0
  9
$PELEVATION
 40
0.0
  9
$THICKNESS
 40
0.0
  9
$LIMCHECK
 70
     0
  9
$CHAMFERA
 40
10.0
  9
$CHAMFERB
 40
10.0
  9
$CHAMFERC
 40
20.0
  9
$CHAMFERD
 40
0.0
  9
$SKPOLY
 70
     0
  9
$TDCREATE
 40
2452544.525936887
  9
$TDUCREATE
 40
2452544.442603553
  9
$TDUPDATE
 40
2455652.614648866
  9
$TDUUPDATE
 40
2455652.531315533
  9
$TDINDWG
 40
0.3228606597
  9
$TDUSRTIMER
 40
0.3228603125
  9
$USRTIMER
 70
     1
  9
$ANGBASE
 50
0.0
  9
$ANGDIR
 70
     0
  9
$PDMODE
 70
     0
  9
$PDSIZE
 40
0.0
  9
$PLINEWID
 40
0.0
  9
$SPLFRAME
 70
     0
  9
$SPLINETYPE
 70
     6
  9
$SPLINESEGS
 70
     8
  9
$HANDSEED
  5
111B
  9
$SURFTAB1
 70
     6
  9
$SURFTAB2
 70
     6
  9
$SURFTYPE
 70
     6
  9
$SURFU
 70
     6
  9
$SURFV
 70
     6
  9
$UCSBASE
  2

  9
$UCSNAME
  2

  9
$UCSORG
 10
0.0
 20
0.0
 30
0.0
  9
$UCSXDIR
 10
1.0
 20
0.0
 30
0.0
  9
$UCSYDIR
 10
0.0
 20
1.0
 30
0.0
  9
$UCSORTHOREF
  2

  9
$UCSORTHOVIEW
 70
     0
  9
$UCSORGTOP
 10
0.0
 20
0.0
 30
0.0
  9
$UCSORGBOTTOM
 10
0.0
 20
0.0
 30
0.0
  9
$UCSORGLEFT
 10
0.0
 20
0.0
 30
0.0
  9
$UCSORGRIGHT
 10
0.0
 20
0.0
 30
0.0
  9
$UCSORGFRONT
 10
0.0
 20
0.0
 30
0.0
  9
$UCSORGBACK
 10
0.0
 20
0.0
 30
0.0
  9
$PUCSBASE
  2

  9
$PUCSNAME
  2

  9
$PUCSORG
 10
0.0
 20
0.0
 30
0.0
  9
$PUCSXDIR
 10
1.0
 20
0.0
 30
0.0
  9
$PUCSYDIR
 10
0.0
 20
1.0
 30
0.0
  9
$PUCSORTHOREF
  2

  9
$PUCSORTHOVIEW
 70
     0
  9
$PUCSORGTOP
 10
0.0
 20
0.0
 30
0.0
  9
$PUCSORGBOTTOM
 10
0.0
 20
0.0
 30
0.0
  9
$PUCSORGLEFT
 10
0.0
 20
0.0
 30
0.0
  9
$PUCSORGRIGHT
 10
0.0
 20
0.0
 30
0.0
  9
$PUCSORGFRONT
 10
0.0
 20
0.0
 30
0.0
  9
$PUCSORGBACK
 10
0.0
 20
0.0
 30
0.0
  9
$USERI1
 70
     0
  9
$USERI2
 70
     0
  9
$USERI3
 70
     0
  9
$USERI4
 70
     0
  9
$USERI5
 70
     0
  9
$USERR1
 40
0.0
  9
$USERR2
 40
0.0
  9
$USERR3
 40
0.0
  9
$USERR4
 40
0.0
  9
$USERR5
 40
0.0
  9
$WORLDVIEW
 70
     1
  9
$SHADEDGE
 70
     3
  9
$SHADEDIF
 70
    70
  9
$TILEMODE
 70
     1
  9
$MAXACTVP
 70
    64
  9
$PINSBASE
 10
0.0
 20
0.0
 30
0.0
  9
$PLIMCHECK
 70
     0
  9
$PEXTMIN
 10
0.0
 20
0.0
 30
0.0
  9
$PEXTMAX
 10
0.0
 20
0.0
 30
0.0
  9
$PLIMMIN
 10
0.0
 20
0.0
  9
$PLIMMAX
 10
12.0
 20
9.0
  9
$UNITMODE
 70
     0
  9
$VISRETAIN
 70
     1
  9
$PLINEGEN
 70
     0
  9
$PSLTSCALE
 70
     1
  9
$TREEDEPTH
 70
  3020
  9
$CMLSTYLE
  2
Standard
  9
$CMLJUST
 70
     0
  9
$CMLSCALE
 40
20.0
  9
$PROXYGRAPHICS
 70
     1
  9
$MEASUREMENT
 70
     1
  9
$CELWEIGHT
370
    -1
  9
$ENDCAPS
280
     0
  9
$JOINSTYLE
280
     0
  9
$LWDISPLAY
290
     0
  9
$INSUNITS
 70
     4
  9
$HYPERLINKBASE
  1

  9
$STYLESHEET
  1
monochrome-duenn.ctb
  9
$XEDIT
290
     1
  9
$CEPSNTYPE
380
     0
  9
$PSTYLEMODE
290
     1
  9
$FINGERPRINTGUID
  2
{FDEAD578-A652-11D2-9A35-0060089B3A3F}
  9
$VERSIONGUID
  2
{E4935B01-770D-4476-9CB8-46B17A6AB3E3}
  9
$EXTNAMES
290
     1
  9
$PSVPSCALE
 40
0.0
  9
$OLESTARTUP
290
     0
  9
$SORTENTS
280
   127
  9
$INDEXCTL
280
     0
  9
$HIDETEXT
280
     1
  9
$XCLIPFRAME
290
     0
  9
$HALOGAP
280
     0
  9
$OBSCOLOR
 70
   257
  9
$OBSLTYPE
280
     0
  9
$INTERSECTIONDISPLAY
280
     0
  9
$INTERSECTIONCOLOR
 70
   257
  9
$DIMASSOC
280
     2
  9
$PROJECTNAME
  1

  0
ENDSEC
  0
SECTION
  2
CLASSES
  0
CLASS
  1
ACDBDICTIONARYWDFLT
  2
AcDbDictionaryWithDefault
  3
ObjectDBX Classes
 90
        0
 91
        1
280
     0
281
     0
  0
CLASS
  1
DICTIONARYVAR
  2
AcDbDictionaryVar
  3
ObjectDBX Classes
 90
        0
 91
        9
280
     0
281
     0
  0
CLASS
  1
TABLESTYLE
  2
AcDbTableStyle
  3
ObjectDBX Classes
 90
     4095
 91
        1
280
     0
281
     0
  0
CLASS
  1
ACME_DOCUMENT
  2
AcMeDbDoc
  3
AcMeServices
 90
     1024
 91
        2
280
     0
281
     0
  0
CLASS
  1
AMGSETTINGSOBJ
  2
AmgSettingsObj
  3
"AcadM|Product Description: AutoCAD Mechanical|Company: Autodesk, Inc."
 90
     1024
 91
        2
280
     0
281
     0
  0
CLASS
  1
ACMESCOPE
  2
AcMeScope
  3
AcMeServices
 90
     1024
 91
        1
280
     0
281
     0
  0
CLASS
  1
ACMECOMMANDHISTORY
  2
AcMeCommandHistory
  3
AcMeServices
 90
     1024
 91
        1
280
     0
281
     0
  0
CLASS
  1
ACIMSYSVARMAN
  2
AcImSysVarManager
  3
AcMeServices
 90
     1024
 91
        5
280
     0
281
     0
  0
CLASS
  1
ACIMINTSYSVAR
  2
AcImIntSysVar
  3
AcMeServices
 90
     1024
 91
       32
280
     0
281
     0
  0
CLASS
  1
ACMEDRAWINGMAN
  2
AcMeDrawingMan
  3
AcMeServices
 90
     1024
 91
        1
280
     0
281
     0
  0
CLASS
  1
ACMEVIEW
  2
AcMeView
  3
AcMeServices
 90
     1024
 91
        1
280
     0
281
     0
  0
CLASS
  1
ACDBENTITYCACHE
  2
AcMeEntityCache
  3
AcMeServices
 90
     1024
 91
        1
280
     0
281
     0
  0
CLASS
  1
GSMANAGER
  2
AcMeGSManager
  3
AcMeServices
 90
     1024
 91
        1
280
     0
281
     0
  0
CLASS
  1
AMDTINTERNALREACTOR
  2
AmdtInternalReactor
  3
AcMeServices
 90
     1024
 91
        8
280
     0
281
     0
  0
CLASS
  1
ACMESTATEMGR
  2
AcMeStateMgr
  3
AcMeServices
 90
     1024
 91
        1
280
     0
281
     0
  0
CLASS
  1
ACGREFMASTER
  2
AcGrefMaster
  3
AcAttribServices
 90
     1024
 91
        1
280
     0
281
     0
  0
CLASS
  1
AM_DRAWING_MGR
  2
AcDmDwgMgr
  3
AcMechDwgViewMgmt
 90
     1024
 91
        1
280
     0
281
     0
  0
CLASS
  1
AM_DWG_DOCUMENT
  2
AcDmDwgDocument
  3
AcMechDwgViewMgmt
 90
     1024
 91
        1
280
     0
281
     0
  0
CLASS
  1
AM_DWG_SHEET
  2
AcDmSheet
  3
AcMechDwgViewMgmt
 90
     1024
 91
        2
280
     0
281
     0
  0
CLASS
  1
AM_VIEWDIMPARMAP
  2
AcDmViewDimParMap
  3
AcMechDwgViewMgmt
 90
     1024
 91
        2
280
     0
281
     0
  0
CLASS
  1
ACIMREALSYSVAR
  2
AcImRealSysVar
  3
AcMeServices
 90
     1024
 91
        1
280
     0
281
     0
  0
CLASS
  1
AM_DWGMGR_NAME
  2
AcDmDwgMgrName
  3
AcMechDwgViewMgmt
 90
     1024
 91
        1
280
     0
281
     0
  0
CLASS
  1
ACME_DATABASE
  2
AcMeDbDatabase
  3
AcMeServices
 90
     1024
 91
        2
280
     0
281
     0
  0
CLASS
  1
ACRFINSADJUSTERMGR
  2
AcRfInsAdjusterMgr
  3
AcMeServices
 90
     1024
 91
        1
280
     0
281
     0
  0
CLASS
  1
ACGREFACADMASTER
  2
AcGrefacadMaster
  3
AcGrefServices
 90
     1024
 91
        1
280
     0
281
     0
  0
CLASS
  1
AMDTMENUSTATEMGR
  2
AmdtMenuStateMgr
  3
McadcomServices
 90
     1024
 91
        1
280
     0
281
     0
  0
CLASS
  1
AMDTMCOMMENUSTATE
  2
AmdtMcomMenuState
  3
McadcomServices
 90
     1024
 91
        1
280
     0
281
     0
  0
CLASS
  1
AMIMASTER
  2
AmiMaster
  3
AmiServices
 90
     1024
 91
        1
280
     0
281
     0
  0
CLASS
  1
MAPIAMMOUDLE
  2
MApiAmModule
  3
MApiAmServices
 90
     1024
 91
        1
280
     0
281
     0
  0
CLASS
  1
ACIMSTRSYSVAR
  2
AcImStrSysVar
  3
AcMeServices
 90
     1024
 91
        5
280
     0
281
     0
  0
CLASS
  1
AMDTADMENUSTATE
  2
AmdtAdMenuState
  3
DesignerServices
 90
     1024
 91
        1
280
     0
281
     0
  0
CLASS
  1
ADAPPL
  2
AcAdAppl
  3
DesignerServices
 90
     1024
 91
        1
280
     0
281
     0
  0
CLASS
  1
DEPMGR
  2
AcAdDepMgr
  3
DesignerServices
 90
     1024
 91
        1
280
     0
281
     0
  0
CLASS
  1
PARAMMGR
  2
AcAdParamMgr
  3
DesignerServices
 90
     1024
 91
        1
280
     0
281
     0
  0
CLASS
  1
PARAMSCOPE
  2
AcAdParamScope
  3
DesignerServices
 90
     1024
 91
        1
280
     0
281
     0
  0
CLASS
  1
NAMEDAPPL
  2
AcAdNamedAppl
  3
DesignerServices
 90
     1024
 91
        1
280
     0
281
     0
  0
CLASS
  1
AMDTDMMENUSTATE
  2
AmdtDmMenuState
  3
AcMechDwgViewMgmt
 90
     1024
 91
        1
280
     0
281
     0
  0
CLASS
  1
AMDTAMMENUSTATE
  2
AmdtAmMenuState
  3
DesignerAssemblies
 90
     1024
 91
        1
280
     0
281
     0
  0
CLASS
  1
ACAMPROJECT
  2
AcAmProject
  3
DesignerAssemblies
 90
     1024
 91
        1
280
     0
281
     0
  0
CLASS
  1
ACAMGRCOMPDEF
  2
AcAmGrCompDef
  3
DesignerAssemblies
 90
     1024
 91
        1
280
     0
281
     0
  0
CLASS
  1
ACCMCONTEXT
  2
AcCmContext
  3
DesignerAssemblies
 90
     1024
 91
        1
280
     0
281
     0
  0
CLASS
  1
ACAMCOMPDEF
  2
AcAmCompDef
  3
DesignerAssemblies
 90
     1024
 91
        1
280
     0
281
     0
  0
CLASS
  1
ACAMCOMPDEFMGR
  2
AcAmCompDefMgr
  3
DesignerAssemblies
 90
     1024
 91
        1
280
     0
281
     0
  0
CLASS
  1
AMCONTEXTMGR
  2
AcAmContextMgr
  3
DesignerAssemblies
 90
     1024
 91
        1
280
     0
281
     0
  0
CLASS
  1
ACAMCONTEXTMODELER
  2
AcAmContextModeler
  3
DesignerAssemblies
 90
     1024
 91
        1
280
     0
281
     0
  0
CLASS
  1
ACMDATADICTIONARY
  2
AcmDataDictionary
  3
"AcmSymBB|Product Description: AutoCAD Mechanical|Company: Autodesk, Inc."
 90
     1024
 91
        1
280
     0
281
     0
  0
CLASS
  1
CATALOGSTATE
  2
AcAmCatalogState
  3
DesignerAssemblies
 90
     1024
 91
        1
280
     0
281
     0
  0
CLASS
  1
ACAMGRCOMPDEFSET
  2
AcAmGrCompDefSet
  3
DesignerAssemblies
 90
     1024
 91
        1
280
     0
281
     0
  0
CLASS
  1
AMDTBROWSERDBTAB
  2
AmdtBrowserDbTab
  3
McadcomServices
 90
     1024
 91
        1
280
     0
281
     0
  0
CLASS
  1
CBROWSERAPPOBJECT
  2
CBrowserAppObject
  3
McadcomServices
 90
     1024
 91
        3
280
     0
281
     0
  0
CLASS
  1
DM_PLACEHOLDER
  2
AcDmSelsetPlaceholder
  3
AcMechDwgViewMgmt
 90
     1024
 91
        1
280
     0
281
     0
  0
CLASS
  1
ACMSTANDARDDIN
  2
AcmStandardDIN
  3
"Amdt_StdImp|Product Description: AutoCAD Mechanical|Company: Autodesk, Inc."
 90
     1024
 91
        1
280
     0
281
     0
  0
CLASS
  1
AMGOBJPROPCFG
  2
AmgObjPropCfg
  3
"AmgLay|Product Description: AutoCAD Mechanical|Company: Autodesk, Inc."
 90
     1025
 91
        1
280
     0
281
     0
  0
CLASS
  1
AMDTEDGESTANDARDDIN13715
  2
AmdtEdgeStdDIN13715
  3
"Amdt_StdImp|Product Description: AutoCAD Mechanical|Company: Autodesk, Inc."
 90
     1024
 91
        1
280
     0
281
     0
  0
CLASS
  1
ACMSURFSTANDARDDIN
  2
AcmSurfTextStdDIN
  3
"Amdt_StdImp|Product Description: AutoCAD Mechanical|Company: Autodesk, Inc."
 90
     1024
 91
        1
280
     0
281
     0
  0
CLASS
  1
ACMFCFSTANDARDDIN
  2
AcmFCFStdDIN
  3
"Amdt_StdImp|Product Description: AutoCAD Mechanical|Company: Autodesk, Inc."
 90
     1024
 91
        1
280
     0
281
     0
  0
CLASS
  1
ACMWELDSTANDARDDIN
  2
AcmWeldingStdDIN
  3
"Amdt_StdImp|Product Description: AutoCAD Mechanical|Company: Autodesk, Inc."
 90
     1024
 91
        1
280
     0
281
     0
  0
CLASS
  1
ACMIDSTANDARDDIN
  2
AcmIdStdDIN
  3
"Amdt_StdImp|Product Description: AutoCAD Mechanical|Company: Autodesk, Inc."
 90
     1024
 91
        1
280
     0
281
     0
  0
CLASS
  1
ACMDATUMSTANDARDDIN
  2
AcmDatumStdDIN
  3
"Amdt_StdImp|Product Description: AutoCAD Mechanical|Company: Autodesk, Inc."
 90
     1024
 91
        1
280
     0
281
     0
  0
CLASS
  1
ACMBOMSTANDARDDIN
  2
AcmBOMStdDIN
  3
"Amdt_StdImp|Product Description: AutoCAD Mechanical|Company: Autodesk, Inc."
 90
     1024
 91
        1
280
     0
281
     0
  0
CLASS
  1
ACMDETAILSTANDARDDIN
  2
AmdtDetailSymStdDIN
  3
"Amdt_StdImp|Product Description: AutoCAD Mechanical|Company: Autodesk, Inc."
 90
     1024
 91
        1
280
     0
281
     0
  0
CLASS
  1
ACMSECTIONSTANDARDDIN
  2
AmdtSectionSymStdDIN
  3
"Amdt_StdImp|Product Description: AutoCAD Mechanical|Company: Autodesk, Inc."
 90
     1024
 91
        1
280
     0
281
     0
  0
CLASS
  1
ACMCENTERLINESTANDARDDIN
  2
AmdtCenterLineStdDIN
  3
"Amdt_StdImp|Product Description: AutoCAD Mechanical|Company: Autodesk, Inc."
 90
     1024
 91
        1
280
     0
281
     0
  0
CLASS
  1
ACMTHREADLINESTANDARDDIN
  2
AmdtThreadLineStdDIN
  3
"Amdt_StdImp|Product Description: AutoCAD Mechanical|Company: Autodesk, Inc."
 90
     1024
 91
        1
280
     0
281
     0
  0
CLASS
  1
ACMNOTESTANDARDDIN
  2
AmdtNoteStdDIN
  3
"Amdt_StdImp|Product Description: AutoCAD Mechanical|Company: Autodesk, Inc."
 90
     1024
 91
        1
280
     0
281
     0
  0
CLASS
  1
AMDTNOTETEMPLATEDB
  2
AmdtNoteTemplateDB
  3
AcmSymBB|Product Description: AutoCAD Mechanical|Company: Autodesk, Inc.
 90
     1024
 91
       12
280
     0
281
     0
  0
CLASS
  1
ACAMGLAYSTD
  2
AcAmgLayStd
  3
"AmgLay|Product Description: AutoCAD Mechanical|Company: Autodesk, Inc."
 90
     1024
 91
        2
280
     0
281
     0
  0
CLASS
  1
ACAMGDIMSTD
  2
AcAmgDimStd
  3
"AmgDim|Product Description: AutoCAD Mechanical|Company: Autodesk, Inc."
 90
     1024
 91
        2
280
     0
281
     0
  0
CLASS
  1
ACAMGHOLECHARTSTDDIN
  2
AcAmgHoleChartStdDIN
  3
AmgDim|Product Description: AutoCAD Mechanical|Company: Autodesk, Inc.
 90
     1024
 91
        1
280
     0
281
     0
  0
CLASS
  1
ACAMGTITLESTD
  2
AcAmgTitleStd
  3
"AmgTitle|Product Description: AutoCAD Mechanical|Company: Autodesk, Inc."
 90
     4095
 91
        2
280
     0
281
     0
  0
CLASS
  1
ACAMGFILTERDAT
  2
AcAmgFilterDat
  3
"AcadM|Product Description: AutoCAD Mechanical|Company: Autodesk, Inc."
 90
     1024
 91
        6
280
     0
281
     0
  0
CLASS
  1
ACMSTANDARDANSI
  2
AcmStandardANSI
  3
"Amdt_StdImp|Product Description: AutoCAD Mechanical|Company: Autodesk, Inc."
 90
     1024
 91
        1
280
     0
281
     0
  0
CLASS
  1
ACMSURFSTANDARDANSI
  2
AcmSurfTextStdANSI
  3
"Amdt_StdImp|Product Description: AutoCAD Mechanical|Company: Autodesk, Inc."
 90
     1024
 91
        1
280
     0
281
     0
  0
CLASS
  1
ACMFCFSTANDARDANSI
  2
AcmFCFStdANSI
  3
"Amdt_StdImp|Product Description: AutoCAD Mechanical|Company: Autodesk, Inc."
 90
     1024
 91
        1
280
     0
281
     0
  0
CLASS
  1
ACMWELDSTANDARDANSI
  2
AcmWeldingStdANSI
  3
"Amdt_StdImp|Product Description: AutoCAD Mechanical|Company: Autodesk, Inc."
 90
     1024
 91
        1
280
     0
281
     0
  0
CLASS
  1
ACMIDSTANDARDANSI
  2
AcmIdStdANSI
  3
"Amdt_StdImp|Product Description: AutoCAD Mechanical|Company: Autodesk, Inc."
 90
     1024
 91
        1
280
     0
281
     0
  0
CLASS
  1
ACMDATUMSTANDARDANSI
  2
AcmDatumStdANSI
  3
"Amdt_StdImp|Product Description: AutoCAD Mechanical|Company: Autodesk, Inc."
 90
     1024
 91
        1
280
     0
281
     0
  0
CLASS
  1
ACMBOMSTANDARDANSI
  2
AcmBOMStdANSI
  3
"Amdt_StdImp|Product Description: AutoCAD Mechanical|Company: Autodesk, Inc."
 90
     1024
 91
        1
280
     0
281
     0
  0
CLASS
  1
ACMDETAILSTANDARDANSI
  2
AmdtDetailSymStdANSI
  3
"Amdt_StdImp|Product Description: AutoCAD Mechanical|Company: Autodesk, Inc."
 90
     1024
 91
        1
280
     0
281
     0
  0
CLASS
  1
ACMSECTIONSTANDARDANSI
  2
AmdtSectionSymStdANSI
  3
"Amdt_StdImp|Product Description: AutoCAD Mechanical|Company: Autodesk, Inc."
 90
     1024
 91
        1
280
     0
281
     0
  0
CLASS
  1
ACMCENTERLINESTANDARDANSI
  2
AmdtCenterLineStdANSI
  3
"Amdt_StdImp|Product Description: AutoCAD Mechanical|Company: Autodesk, Inc."
 90
     1024
 91
        1
280
     0
281
     0
  0
CLASS
  1
ACMTHREADLINESTANDARDANSI
  2
AmdtThreadLineStdANSI
  3
"Amdt_StdImp|Product Description: AutoCAD Mechanical|Company: Autodesk, Inc."
 90
     1024
 91
        1
280
     0
281
     0
  0
CLASS
  1
ACMNOTESTANDARDANSI
  2
AmdtNoteStdANSI
  3
"Amdt_StdImp|Product Description: AutoCAD Mechanical|Company: Autodesk, Inc."
 90
     1024
 91
        1
280
     0
281
     0
  0
CLASS
  1
ACMDATAENTRYBLOCK
  2
AcmDataEntryBlock
  3
AcmSymBB|Product Description: AutoCAD Mechanical|Company: Autodesk, Inc.
 90
     1024
 91
        0
280
     0
281
     0
  0
CLASS
  1
AMDTSECTIONSYM
  2
AmdtSectionSym
  3
"AcmSymBB|Product Description: AutoCAD Mechanical|Company: Autodesk, Inc."
 90
     4095
 91
        3
280
     0
281
     1
  0
CLASS
  1
AMDTSECTIONSYMLABEL
  2
AmdtSectionSymLabel
  3
"AcmSymBB|Product Description: AutoCAD Mechanical|Company: Autodesk, Inc."
 90
     4095
 91
        3
280
     0
281
     1
  0
CLASS
  1
DIMASSOC
  2
AcDbDimAssoc
  3
"AcDbDimAssoc|Product Desc:     AcDim ARX App For Dimension|Company:          Autodesk, Inc.|WEB Address:      www.autodesk.com"
 90
        0
 91
        9
280
     0
281
     0
  0
CLASS
  1
MATERIAL
  2
AcDbMaterial
  3
ObjectDBX Classes
 90
     1153
 91
        3
280
     0
281
     0
  0
CLASS
  1
VISUALSTYLE
  2
AcDbVisualStyle
  3
ObjectDBX Classes
 90
     4095
 91
       16
280
     0
281
     0
  0
CLASS
  1
SCALE
  2
AcDbScale
  3
ObjectDBX Classes
 90
     1153
 91
       17
280
     0
281
     0
  0
CLASS
  1
MLEADERSTYLE
  2
AcDbMLeaderStyle
  3
ACDB_MLEADERSTYLE_CLASS
 90
     4095
 91
        1
280
     0
281
     0
  0
CLASS
  1
ACMTAPERSTANDARDDIN
  2
AcmTaperStdDIN
  3
"Amdt_StdImp|Product Description: AutoCAD Mechanical|Company: Autodesk, Inc."
 90
     1024
 91
        1
280
     0
281
     0
  0
CLASS
  1
ACMANOOTATIONVIEWSTANDARDDIN
  2
AmdtAnViewStdDIN
  3
"Amdt_StdImp|Product Description: AutoCAD Mechanical|Company: Autodesk, Inc."
 90
     1024
 91
        1
280
     0
281
     0
  0
CLASS
  1
ACMTAPERSTANDARDANSI
  2
AcmTaperStdANSI
  3
"Amdt_StdImp|Product Description: AutoCAD Mechanical|Company: Autodesk, Inc."
 90
     1024
 91
        1
280
     0
281
     0
  0
CLASS
  1
ACMANOOTATIONVIEWSTANDARDANSI
  2
AmdtAnViewStdANSI
  3
"Amdt_StdImp|Product Description: AutoCAD Mechanical|Company: Autodesk, Inc."
 90
     1024
 91
        1
280
     0
281
     0
  0
CLASS
  1
EXACXREFPANELOBJECT
  2
ExAcXREFPanelObject
  3
EXAC_ESW
 90
     1025
 91
        1
280
     0
281
     0
  0
CLASS
  1
NPOCOLLECTION
  2
AcDbImpNonPersistentObjectsCollection
  3
ObjectDBX Classes
 90
     1153
 91
        1
280
     0
281
     0
  0
CLASS
  1
CAMSSTRUCTBTNSTATE
  2
StructBtnState
  3
DesignerAssemblies
 90
     1024
 91
        1
280
     0
281
     0
  0
CLASS
  1
CELLSTYLEMAP
  2
AcDbCellStyleMap
  3
ObjectDBX Classes
 90
     1152
 91
       15
280
     0
281
     0
  0
CLASS
  1
SORTENTSTABLE
  2
AcDbSortentsTable
  3
ObjectDBX Classes
 90
        0
 91
        1
280
     0
281
     0
  0
CLASS
  1
STDPART2D
  2
AmgStdPart
  3
AmgStdPart|Product Description: AutoCAD Mechanical|Company: Autodesk, Inc.
 90
     4095
 91
        7
280
     0
281
     1
  0
CLASS
  1
ACMDATAENTRYPART
  2
AcmDataEntryPart
  3
AcmSymBB|Product Description: AutoCAD Mechanical|Company: Autodesk, Inc.
 90
     1024
 91
        6
280
     0
281
     0
  0
CLASS
  1
ACMPARTREF
  2
AcmPartRef
  3
"AcmSymBB|Product Description: AutoCAD Mechanical|Company: Autodesk, Inc."
 90
     4095
 91
        6
280
     0
281
     1
  0
CLASS
  1
ACDBSTDPARTRES_LINE
  2
AcDbStdPartRes_Line
  3
AmgStdPart|Product Description: AutoCAD Mechanical|Company: Autodesk, Inc.
 90
     1024
 91
        5
280
     0
281
     0
  0
CLASS
  1
ACDBSTDPARTRES_ARC
  2
AcDbStdPartRes_Arc
  3
AmgStdPart|Product Description: AutoCAD Mechanical|Company: Autodesk, Inc.
 90
     1024
 91
        1
280
     0
281
     0
  0
ENDSEC
  0
SECTION
  2
TABLES
  0
TABLE
  2
VPORT
  5
8
330
0
100
AcDbSymbolTable
 70
     1
  0
VPORT
  5
A23
330
8
100
AcDbSymbolTableRecord
100
AcDbViewportTableRecord
  2
*Active
 70
     0
 10
0.0
 20
0.0
 11
1.0
 21
1.0
 12
384.4551495906306
 22
544.0017020064638
 13
0.0
 23
0.0
 14
10.0
 24
10.0
 15
10.0
 25
10.0
 16
0.0
 26
0.0
 36
1.0
 17
0.0
 27
0.0
 37
0.0
 40
1051.863999667167
 41
1.803695150115473
 42
50.0
 43
0.0
 44
0.0
 50
0.0
 51
0.0
 71
     0
 72
   100
 73
     1
 74
     0
 75
     0
 76
     0
 77
     0
 78
     0
281
     0
 65
     1
110
0.0
120
0.0
130
0.0
111
1.0
121
0.0
131
0.0
112
0.0
122
1.0
132
0.0
 79
     0
146
0.0
  0
ENDTAB
  0
TABLE
  2
LTYPE
  5
5
330
0
100
AcDbSymbolTable
 70
    33
  0
LTYPE
  5
14
330
5
100
AcDbSymbolTableRecord
100
AcDbLinetypeTableRecord
  2
ByBlock
 70
     0
  3

 72
    65
 73
     0
 40
0.0
  0
LTYPE
  5
15
330
5
100
AcDbSymbolTableRecord
100
AcDbLinetypeTableRecord
  2
ByLayer
 70
     0
  3

 72
    65
 73
     0
 40
0.0
  0
LTYPE
  5
16
330
5
100
AcDbSymbolTableRecord
100
AcDbLinetypeTableRecord
  2
Continuous
 70
     0
  3
Solid line
 72
    65
 73
     0
 40
0.0
  0
LTYPE
  5
B0
330
5
100
AcDbSymbolTableRecord
100
AcDbLinetypeTableRecord
  2
HIDDEN
 70
     0
  3
Verdeckt
 72
    65
 73
     2
 40
9.525
 49
6.349999999999999
 74
     0
 49
-3.174999999999999
 74
     0
  0
LTYPE
  5
B1
330
5
100
AcDbSymbolTableRecord
100
AcDbLinetypeTableRecord
  2
PHANTOM2
 70
     0
  3
Phantom (.5x) ___ _ _ ___ _ _ ___ _ _ ___ _ _
 72
    65
 73
     6
 40
31.75
 49
15.875
 74
     0
 49
-3.174999999999999
 74
     0
 49
3.174999999999999
 74
     0
 49
-3.174999999999999
 74
     0
 49
3.174999999999999
 74
     0
 49
-3.174999999999999
 74
     0
  0
LTYPE
  5
B2
330
5
100
AcDbSymbolTableRecord
100
AcDbLinetypeTableRecord
  2
CENTER
 70
     0
  3
Mitte ____ _ ____ _ ____ _ ____ _ ____ _ ____
 72
    65
 73
     4
 40
50.8
 49
31.75
 74
     0
 49
-6.349999999999999
 74
     0
 49
6.349999999999999
 74
     0
 49
-6.349999999999999
 74
     0
  0
LTYPE
  5
E9
330
5
100
AcDbSymbolTableRecord
100
AcDbLinetypeTableRecord
  2
Amconstr
 70
     0
  3
_______________________
 72
    65
 73
     2
 40
9999.0
 49
9999.0
 74
     0
 49
0.0
 74
     0
  0
LTYPE
  5
EE
330
5
100
AcDbSymbolTableRecord
100
AcDbLinetypeTableRecord
  2
Amzigzag
 70
     0
  3
/\/-/\/-/\/-/\/-/\/-/\/
 72
    65
 73
     2
 40
11.0001
 49
0.0001
 74
     4
 75
   136
340
ED
 46
0.04
 50
0.0
 44
0.0
 45
0.0
 49
-11.0
 74
     0
  0
LTYPE
  5
EF
330
5
100
AcDbSymbolTableRecord
100
AcDbLinetypeTableRecord
  2
AM_DIN_F_W050
 70
     0
  3
__ __ __ __ __ __ __ __ __ __ __ __ __ __ __
 72
    65
 73
     2
 40
6.25
 49
4.75
 74
     0
 49
-1.5
 74
     0
  0
LTYPE
  5
F0
330
5
100
AcDbSymbolTableRecord
100
AcDbLinetypeTableRecord
  2
AM_DIN_G_W050
 70
     0
  3
____ . ____ . ____ . ____ . ____ . ____ . ____
 72
    65
 73
     4
 40
13.75
 49
9.75
 74
     0
 49
-1.5
 74
     0
 49
1.0
 74
     0
 49
-1.5
 74
     0
  0
LTYPE
  5
F1
330
5
100
AcDbSymbolTableRecord
100
AcDbLinetypeTableRecord
  2
AM_DIN_K_W050
 70
     0
  3
_____ . . _____ . . _____ . . ____ .. ____
 72
    65
 73
     6
 40
16.25
 49
9.75
 74
     0
 49
-1.5
 74
     0
 49
1.0
 74
     0
 49
-1.5
 74
     0
 49
1.0
 74
     0
 49
-1.5
 74
     0
  0
LTYPE
  5
F2
330
5
100
AcDbSymbolTableRecord
100
AcDbLinetypeTableRecord
  2
AM_DIN_G_W050x2
 70
     0
  3
__ . __ . __ . __ . __ . __
 72
    65
 73
     4
 40
6.875
 49
4.75
 74
     0
 49
-0.875
 74
     0
 49
0.375
 74
     0
 49
-0.875
 74
     0
  0
LTYPE
  5
F3
330
5
100
AcDbSymbolTableRecord
100
AcDbLinetypeTableRecord
  2
AM_DIN_F_W050x2
 70
     0
  3
 _ _ _ _ _ _ _ _ _ _ _ _
 72
    65
 73
     2
 40
3.125
 49
2.25
 74
     0
 49
-0.875
 74
     0
  0
LTYPE
  5
102
330
5
100
AcDbSymbolTableRecord
100
AcDbLinetypeTableRecord
  2
ACDINWELD
 70
     0
  3
_ _ _ _ _
 72
    65
 73
     2
 40
2.0
 49
2.0
 74
     0
 49
-1.0
 74
     0
  0
LTYPE
  5
103
330
5
100
AcDbSymbolTableRecord
100
AcDbLinetypeTableRecord
  2
ACDINTGB
 70
     0
  3
__ . . __ . .
 72
    65
 73
     6
 40
9.0
 49
4.0
 74
     0
 49
-1.0
 74
     0
 49
1.0
 74
     0
 49
-1.0
 74
     0
 49
1.0
 74
     0
 49
-1.0
 74
     0
  0
LTYPE
  5
104
330
5
100
AcDbSymbolTableRecord
100
AcDbLinetypeTableRecord
  2
ACDINTGL
 70
     0
  3
_ _ _ _ _
 72
    65
 73
     2
 40
3.0
 49
2.0
 74
     0
 49
-1.0
 74
     0
  0
LTYPE
  5
1D0
330
5
100
AcDbSymbolTableRecord
100
AcDbLinetypeTableRecord
  2
AM_ISO02W050
 70
     0
  3
__ __ __ __ __ __ __ __ __ __ __ __ __ __ __
 72
    65
 73
     2
 40
7.5
 49
6.0
 74
     0
 49
-1.5
 74
     0
  0
LTYPE
  5
1D8
330
5
100
AcDbSymbolTableRecord
100
AcDbLinetypeTableRecord
  2
ACANSTGB
 70
     0
  3
__ . . __ . .
 72
    65
 73
     6
 40
0.35433070866
 49
0.15748031496
 74
     0
 49
-0.03937007874
 74
     0
 49
0.03937007874
 74
     0
 49
-0.03937007874
 74
     0
 49
0.03937007874
 74
     0
 49
-0.03937007874
 74
     0
  0
LTYPE
  5
1D9
330
5
100
AcDbSymbolTableRecord
100
AcDbLinetypeTableRecord
  2
ACANSTGL
 70
     0
  3
_ _ _ _ _
 72
    65
 73
     2
 40
0.11811023622
 49
0.07874015748
 74
     0
 49
-0.03937007874
 74
     0
  0
LTYPE
  5
1DB
330
5
100
AcDbSymbolTableRecord
100
AcDbLinetypeTableRecord
  2
GEN7
 70
     0
  3
____ . ____ . ____ . ____ . ____ . ____ . ____
 72
    65
 73
     4
 40
13.75
 49
9.75
 74
     0
 49
-1.5
 74
     0
 49
1.0
 74
     0
 49
-1.5
 74
     0
  0
LTYPE
  5
1DC
330
5
100
AcDbSymbolTableRecord
100
AcDbLinetypeTableRecord
  2
GEN7A
 70
     0
  3
__ . __ . __
 72
    65
 73
     4
 40
6.875
 49
4.75
 74
     0
 49
-0.875
 74
     0
 49
0.375
 74
     0
 49
-0.875
 74
     0
  0
ENDTAB
  0
TABLE
  2
LAYER
  5
2
102
{ACAD_XDICTIONARY
360
1F8
102
}
330
0
100
AcDbSymbolTable
 70
    29
  0
LAYER
  5
10
102
{ACAD_XDICTIONARY
360
EDF
102
}
330
2
100
AcDbSymbolTableRecord
100
AcDbLayerTableRecord
  2
0
 70
     0
 62
     7
  6
Continuous
370
    -3
390
F
  0
LAYER
  5
1E8
102
{ACAD_XDICTIONARY
360
EF3
102
}
330
2
100
AcDbSymbolTableRecord
100
AcDbLayerTableRecord
  2
0N
 70
     0
 62
     7
  6
Continuous
370
    -3
390
F
  0
LAYER
  5
4FD
102
{ACAD_XDICTIONARY
360
EF7
102
}
330
2
100
AcDbSymbolTableRecord
100
AcDbLayerTableRecord
  2
5
 70
     0
 62
     3
  6
Continuous
370
    -3
390
F
  0
LAYER
  5
4FE
102
{ACAD_XDICTIONARY
360
EF9
102
}
330
2
100
AcDbSymbolTableRecord
100
AcDbLayerTableRecord
  2
7
 70
     0
 62
     4
  6
GEN7
370
    -3
390
F
  0
LAYER
  5
4FF
330
2
100
AcDbSymbolTableRecord
100
AcDbLayerTableRecord
  2
DEFPOINTS
 70
     0
 62
     7
  6
Continuous
290
     0
370
    -3
390
F
  0
LAYER
  5
501
102
{ACAD_XDICTIONARY
360
EFD
102
}
330
2
100
AcDbSymbolTableRecord
100
AcDbLayerTableRecord
  2
7A
 70
     0
 62
     4
  6
GEN7A
370
    -3
390
F
  0
LAYER
  5
7A8
102
{ACAD_XDICTIONARY
360
F03
102
}
330
2
100
AcDbSymbolTableRecord
100
AcDbLayerTableRecord
  2
AM_7
 70
     0
 62
     4
  6
AM_DIN_G_W050
370
    25
390
F
1001
AcAecLayerStandard
1000

1000

  0
LAYER
  5
E43
102
{ACAD_XDICTIONARY
360
F07
102
}
330
2
100
AcDbSymbolTableRecord
100
AcDbLayerTableRecord
  2
AM_0N
 70
     0
 62
     7
  6
Continuous
370
    50
390
F
1001
AcAecLayerStandard
1000

1000

  0
LAYER
  5
E45
102
{ACAD_XDICTIONARY
360
F09
102
}
330
2
100
AcDbSymbolTableRecord
100
AcDbLayerTableRecord
  2
AM_INV
 70
     0
 62
  -253
  6
Continuous
370
     0
390
F
1001
AcAecLayerStandard
1000

1000

  0
LAYER
  5
E4A
102
{ACAD_XDICTIONARY
360
F0B
102
}
330
2
100
AcDbSymbolTableRecord
100
AcDbLayerTableRecord
  2
AM_4N
 70
     0
 62
     3
  6
Continuous
370
    25
390
F
1001
AcAecLayerStandard
1000

1000

  0
LAYER
  5
E4B
102
{ACAD_XDICTIONARY
360
F0D
102
}
330
2
100
AcDbSymbolTableRecord
100
AcDbLayerTableRecord
  2
AM_7N
 70
     0
 62
     4
  6
AM_DIN_G_W050
370
    25
390
F
1001
AcAecLayerStandard
1000

1000

  0
LAYER
  5
E4C
102
{ACAD_XDICTIONARY
360
F0F
102
}
330
2
100
AcDbSymbolTableRecord
100
AcDbLayerTableRecord
  2
AM_9
 70
     0
 62
  -253
  6
Continuous
370
     0
390
F
1001
AcAecLayerStandard
1000

1000

  0
ENDTAB
  0
TABLE
  2
STYLE
  5
3
330
0
100
AcDbSymbolTable
 70
    14
  0
STYLE
  5
11
330
3
100
AcDbSymbolTableRecord
100
AcDbTextStyleTableRecord
  2
Standard
 70
     0
 40
0.0
 41
1.0
 50
0.0
 71
     0
 42
2.5
  3
isocp.shx
  4

  0
STYLE
  5
ED
330
3
100
AcDbSymbolTableRecord
100
AcDbTextStyleTableRecord
  2

 70
     1
 40
0.0
 41
1.0
 50
0.0
 71
     0
 42
2.5
  3
genltshp.shx
  4

  0
STYLE
  5
F4
330
3
100
AcDbSymbolTableRecord
100
AcDbTextStyleTableRecord
  2
ACDINTS
 70
     0
 40
1.0
 41
1.0
 50
0.0
 71
     0
 42
2.5
  3
isocp.shx
  4

  0
STYLE
  5
101
330
3
100
AcDbSymbolTableRecord
100
AcDbTextStyleTableRecord
  2
ACDINGDT
 70
     0
 40
0.0
 41
1.0
 50
0.0
 71
     0
 42
2.5
  3
AMGDT
  4

  0
STYLE
  5
1EE
330
3
100
AcDbSymbolTableRecord
100
AcDbTextStyleTableRecord
  2
ACANSTS
 70
     0
 40
1.0
 41
1.0
 50
0.0
 71
     0
 42
2.0
  3
romans.shx
  4

  0
STYLE
  5
1EF
330
3
100
AcDbSymbolTableRecord
100
AcDbTextStyleTableRecord
  2
ACANSGDT
 70
     0
 40
0.0
 41
1.0
 50
0.0
 71
     0
 42
2.0
  3
amgdtans.shx
  4

  0
ENDTAB
  0
TABLE
  2
VIEW
  5
6
330
0
100
AcDbSymbolTable
 70
     0
  0
ENDTAB
  0
TABLE
  2
UCS
  5
7
330
0
100
AcDbSymbolTable
 70
     0
  0
ENDTAB
  0
TABLE
  2
APPID
  5
9
330
0
100
AcDbSymbolTable
 70
    41
  0
APPID
  5
12
330
9
100
AcDbSymbolTableRecord
100
AcDbRegAppTableRecord
  2
ACAD
 70
     0
  0
APPID
  5
81
330
9
100
AcDbSymbolTableRecord
100
AcDbRegAppTableRecord
  2
MCAD_NO_VIS
 70
     0
  0
APPID
  5
82
330
9
100
AcDbSymbolTableRecord
100
AcDbRegAppTableRecord
  2
ACAD_TEMP_GRAPHIC
 70
     0
  0
APPID
  5
B4
330
9
100
AcDbSymbolTableRecord
100
AcDbRegAppTableRecord
  2
AD_DRAW
 70
     0
  0
APPID
  5
B7
330
9
100
AcDbSymbolTableRecord
100
AcDbRegAppTableRecord
  2
ACATTRIBSERVICES
 70
     0
  0
APPID
  5
D7
330
9
100
AcDbSymbolTableRecord
100
AcDbRegAppTableRecord
  2
DESIGNERASSEMBLIES
 70
     0
  0
APPID
  5
DD
330
9
100
AcDbSymbolTableRecord
100
AcDbRegAppTableRecord
  2
ACADM_DIM_EDIT
 70
     0
  0
APPID
  5
DE
330
9
100
AcDbSymbolTableRecord
100
AcDbRegAppTableRecord
  2
AMDT_DM_ADJ
 70
     0
  0
APPID
  5
10F
330
9
100
AcDbSymbolTableRecord
100
AcDbRegAppTableRecord
  2
ACAD_DSTYLE_DIMARC_LENGTH_SYMBOL
 70
     0
  0
APPID
  5
110
330
9
100
AcDbSymbolTableRecord
100
AcDbRegAppTableRecord
  2
ACAD_DSTYLE_DIMJOGGED_JOGANGLE_SYMBOL
 70
     0
  0
APPID
  5
16A
330
9
100
AcDbSymbolTableRecord
100
AcDbRegAppTableRecord
  2
GENIUS_GENBLLY_14
 70
     0
  0
APPID
  5
16B
330
9
100
AcDbSymbolTableRecord
100
AcDbRegAppTableRecord
  2
GENIUS_GENCFG_13
 70
     0
  0
APPID
  5
16C
330
9
100
AcDbSymbolTableRecord
100
AcDbRegAppTableRecord
  2
GENIUS_GENCFG0_13
 70
     0
  0
APPID
  5
16D
330
9
100
AcDbSymbolTableRecord
100
AcDbRegAppTableRecord
  2
GENIUS_GENCFG1_13
 70
     0
  0
APPID
  5
16E
330
9
100
AcDbSymbolTableRecord
100
AcDbRegAppTableRecord
  2
GENIUS_GENCFG2_13
 70
     0
  0
APPID
  5
16F
330
9
100
AcDbSymbolTableRecord
100
AcDbRegAppTableRecord
  2
GENIUS_GENCFG3_13
 70
     0
  0
APPID
  5
170
330
9
100
AcDbSymbolTableRecord
100
AcDbRegAppTableRecord
  2
GENIUS_GENCFG4_13
 70
     0
  0
APPID
  5
171
330
9
100
AcDbSymbolTableRecord
100
AcDbRegAppTableRecord
  2
GENIUS_VERSION2
 70
     0
  0
APPID
  5
172
330
9
100
AcDbSymbolTableRecord
100
AcDbRegAppTableRecord
  2
GENIUS_GENOENT_13
 70
     0
  0
APPID
  5
173
330
9
100
AcDbSymbolTableRecord
100
AcDbRegAppTableRecord
  2
GENIUS_GENCFG5_13
 70
     0
  0
APPID
  5
174
330
9
100
AcDbSymbolTableRecord
100
AcDbRegAppTableRecord
  2
GENIUS_GEVCFG0_13
 70
     0
  0
APPID
  5
175
330
9
100
AcDbSymbolTableRecord
100
AcDbRegAppTableRecord
  2
GENIUS_GENREC_14
 70
     0
  0
APPID
  5
176
330
9
100
AcDbSymbolTableRecord
100
AcDbRegAppTableRecord
  2
GENIUS_GENODEF_13
 70
     0
  0
APPID
  5
177
330
9
100
AcDbSymbolTableRecord
100
AcDbRegAppTableRecord
  2
GENIUS_GENOBJ-N-REC_13
 70
     0
  0
APPID
  5
507
330
9
100
AcDbSymbolTableRecord
100
AcDbRegAppTableRecord
  2
GENIUS_GENOBJ-N-CRS_13
 70
     0
  0
APPID
  5
508
330
9
100
AcDbSymbolTableRecord
100
AcDbRegAppTableRecord
  2
GENIUS_GENOREF_13
 70
     0
  0
APPID
  5
509
330
9
100
AcDbSymbolTableRecord
100
AcDbRegAppTableRecord
  2
GENIUS_GENOLIS_13
 70
     0
  0
APPID
  5
50A
330
9
100
AcDbSymbolTableRecord
100
AcDbRegAppTableRecord
  2
GENIUS_GENOBJ-N-CEN_13
 70
     0
  0
APPID
  5
50B
330
9
100
AcDbSymbolTableRecord
100
AcDbRegAppTableRecord
  2
GENIUS_GENCEN_19
 70
     0
  0
APPID
  5
50C
330
9
100
AcDbSymbolTableRecord
100
AcDbRegAppTableRecord
  2
AcAecLayerStandard
 70
     0
  0
APPID
  5
6BA
330
9
100
AcDbSymbolTableRecord
100
AcDbRegAppTableRecord
  2
ACAD_EXEMPT_FROM_CAD_STANDARDS
 70
     0
  0
APPID
  5
A62
330
9
100
AcDbSymbolTableRecord
100
AcDbRegAppTableRecord
  2
ACAD_MLEADERVER
 70
     0
  0
APPID
  5
E3D
330
9
100
AcDbSymbolTableRecord
100
AcDbRegAppTableRecord
  2
GEVID1301574329
 70
     0
  0
APPID
  5
E3E
330
9
100
AcDbSymbolTableRecord
100
AcDbRegAppTableRecord
  2
GEVDC
 70
     0
  0
APPID
  5
E40
330
9
100
AcDbSymbolTableRecord
100
AcDbRegAppTableRecord
  2
GEVID1301574330
 70
     0
  0
APPID
  5
E44
330
9
100
AcDbSymbolTableRecord
100
AcDbRegAppTableRecord
  2
GENIUS_GENBH_13
 70
     0
  0
APPID
  5
E4E
330
9
100
AcDbSymbolTableRecord
100
AcDbRegAppTableRecord
  2
GENIUS_GENOBJ-NBEHI-BHF_13
 70
     0
  0
APPID
  5
E50
330
9
100
AcDbSymbolTableRecord
100
AcDbRegAppTableRecord
  2
GENIUS_GENOBJ-NBEHI-BHB_13
 70
     0
  0
APPID
  5
EB1
330
9
100
AcDbSymbolTableRecord
100
AcDbRegAppTableRecord
  2
GEVID1301574333
 70
     0
  0
APPID
  5
EB4
330
9
100
AcDbSymbolTableRecord
100
AcDbRegAppTableRecord
  2
GEVID1301574334
 70
     0
  0
APPID
  5
EC3
330
9
100
AcDbSymbolTableRecord
100
AcDbRegAppTableRecord
  2
GEVID1301574335
 70
     0
  0
ENDTAB
  0
TABLE
  2
DIMSTYLE
  5
A
330
0
100
AcDbSymbolTable
 70
    26
100
AcDbDimStyleTable
 71
     2
340
27
340
1F7
  0
DIMSTYLE
105
27
330
A
100
AcDbSymbolTableRecord
100
AcDbDimStyleTableRecord
  2
ISO-25
 70
     0
 41
2.5
 42
0.625
 43
3.75
 44
1.25
 73
     0
 74
     0
 77
     1
 78
     8
140
2.5
141
2.5
143
0.03937007874016
147
0.625
171
     3
172
     1
271
     2
272
     2
274
     3
278
    44
283
     0
284
     8
340
11
  0
DIMSTYLE
105
10E
330
A
100
AcDbSymbolTableRecord
100
AcDbDimStyleTableRecord
  2
AM_DIN
 70
     0
  4
"
 41
2.5
 42
1.0
 43
10.0
 44
1.0
 47
0.1
 48
0.1
 73
     0
 74
     0
 77
     1
 78
     8
 79
     2
140
3.5
141
0.0
143
0.0393701
146
0.71
147
1.5
172
     1
176
   256
177
   256
178
     2
271
     2
272
     3
274
     4
283
     0
284
     8
340
11
371
    -1
372
    -1
1001
ACAD_DSTYLE_DIMJOGGED_JOGANGLE_SYMBOL
1070
   384
1040
1.570796326794896
  0
DIMSTYLE
105
129
330
A
100
AcDbSymbolTableRecord
100
AcDbDimStyleTableRecord
  2
AM_DIN$6
 70
     0
  4
"
 41
2.5
 42
1.0
 43
10.0
 44
1.0
 47
0.1
 48
0.1
 73
     0
 74
     0
 78
     8
 79
     2
140
3.5
141
0.0
143
0.0393701
146
0.71
147
1.5
172
     1
176
   256
177
   256
178
     2
271
     2
272
     3
274
     4
283
     0
284
     8
340
11
371
    -1
372
    -1
1001
ACAD_DSTYLE_DIMJOGGED_JOGANGLE_SYMBOL
1070
   384
1040
1.570796326794896
  0
DIMSTYLE
105
12E
330
A
100
AcDbSymbolTableRecord
100
AcDbDimStyleTableRecord
  2
AM_DIN$7
 70
     0
  4
"
 41
2.5
 42
1.0
 43
10.0
 44
1.0
 47
0.1
 48
0.1
 73
     0
 74
     0
 77
     1
 78
     8
 79
     2
140
5.0
141
0.0
143
0.0393701
146
0.71
147
1.5
172
     1
176
   256
177
   256
178
     2
271
     2
272
     3
274
     4
283
     0
284
     8
340
11
371
    -1
372
    -1
1001
ACAD_DSTYLE_DIMJOGGED_JOGANGLE_SYMBOL
1070
   384
1040
1.570796326794896
  0
DIMSTYLE
105
133
330
A
100
AcDbSymbolTableRecord
100
AcDbDimStyleTableRecord
  2
AM_DIN$SF
 70
     0
  4
"
 41
2.5
 42
1.0
 43
10.0
 44
1.0
 47
0.1
 48
0.1
 73
     0
 74
     0
 75
     1
 76
     1
 77
     1
 78
     8
 79
     2
140
3.5
141
0.0
143
0.0393701
146
0.71
147
1.5
172
     1
176
   256
177
   256
178
     2
271
     2
272
     3
274
     4
283
     0
284
     8
340
11
371
    -1
372
    -1
1001
ACAD_DSTYLE_DIMJOGGED_JOGANGLE_SYMBOL
1070
   384
1040
1.570796326794896
  0
DIMSTYLE
105
13C
330
A
100
AcDbSymbolTableRecord
100
AcDbDimStyleTableRecord
  2
AM_DIN$SH
 70
     0
  4
"
 41
2.5
 42
1.0
 43
10.0
 44
1.0
 47
0.1
 48
0.1
 73
     0
 74
     0
 75
     1
 76
     1
 77
     1
 78
     8
 79
     2
140
3.5
141
0.0
143
0.0393701
144
2.0
146
0.71
147
1.5
172
     1
173
     1
176
   256
177
   256
178
     2
271
     2
272
     3
274
     4
283
     0
284
     8
340
11
343
134
371
    -1
372
    -1
1001
ACAD_DSTYLE_DIMJOGGED_JOGANGLE_SYMBOL
1070
   384
1040
1.570796326794896
  0
DIMSTYLE
105
169
330
A
100
AcDbSymbolTableRecord
100
AcDbDimStyleTableRecord
  2
STANDARD
 70
     0
340
11
  0
DIMSTYLE
105
1F1
330
A
100
AcDbSymbolTableRecord
100
AcDbDimStyleTableRecord
  2
AM_ANSI
 70
     0
  4
mm
 41
0.1
 42
0.05
 43
0.5
 44
0.1
 47
0.1
 48
0.1
 78
     7
 79
     2
140
0.12
141
0.0
146
0.71
147
0.06
176
   256
177
   256
178
     2
274
     4
284
     7
340
11
371
    -1
372
    -1
1001
ACAD_DSTYLE_DIMJOGGED_JOGANGLE_SYMBOL
1070
   384
1040
0.7853981633974483
1001
ACAD_DSTYLE_DIMARC_LENGTH_SYMBOL
1070
   379
1070
     1
  0
DIMSTYLE
105
1F2
330
A
100
AcDbSymbolTableRecord
100
AcDbDimStyleTableRecord
  2
AM_ANSI$3
 70
     0
  4
mm
 41
0.1
 42
0.05
 43
0.5
 44
0.1
 47
0.1
 48
0.1
 78
     7
 79
     2
140
0.12
141
0.0
146
0.71
147
0.06
176
   256
177
   256
178
     2
274
     4
284
     7
288
     1
289
     0
340
11
371
    -1
372
    -1
1001
ACAD_DSTYLE_DIMJOGGED_JOGANGLE_SYMBOL
1070
   384
1040
0.7853981633974483
1001
ACAD_DSTYLE_DIMARC_LENGTH_SYMBOL
1070
   379
1070
     1
  0
DIMSTYLE
105
1F3
330
A
100
AcDbSymbolTableRecord
100
AcDbDimStyleTableRecord
  2
AM_ANSI$4
 70
     0
  4
mm
 41
0.1
 42
0.05
 43
0.5
 44
0.1
 47
0.1
 48
0.1
 78
     7
 79
     2
140
0.12
141
0.0
146
0.71
147
0.06
176
   256
177
   256
178
     2
274
     4
284
     7
288
     1
289
     0
340
11
371
    -1
372
    -1
1001
ACAD_DSTYLE_DIMJOGGED_JOGANGLE_SYMBOL
1070
   384
1040
0.7853981633974483
1001
ACAD_DSTYLE_DIMARC_LENGTH_SYMBOL
1070
   379
1070
     1
  0
DIMSTYLE
105
1F4
330
A
100
AcDbSymbolTableRecord
100
AcDbDimStyleTableRecord
  2
AM_ANSI$7
 70
     0
  4
mm
 41
0.1
 42
0.05
 43
0.5
 44
0.1
 47
0.1
 48
0.1
 78
     7
 79
     2
140
0.24
141
0.0
146
0.71
147
0.06
176
   256
177
   256
178
     2
274
     4
284
     7
340
11
371
    -1
372
    -1
1001
ACAD_DSTYLE_DIMJOGGED_JOGANGLE_SYMBOL
1070
   384
1040
0.7853981633974483
1001
ACAD_DSTYLE_DIMARC_LENGTH_SYMBOL
1070
   379
1070
     1
  0
DIMSTYLE
105
1F5
330
A
100
AcDbSymbolTableRecord
100
AcDbDimStyleTableRecord
  2
AM_ANSI$SF
 70
     0
  4
mm
 41
0.1
 42
0.05
 43
0.5
 44
0.1
 47
0.1
 48
0.1
 75
     1
 76
     1
 78
     7
 79
     2
140
0.12
141
0.0
146
0.71
147
0.06
176
   256
177
   256
178
     2
274
     4
284
     7
340
11
371
    -1
372
    -1
1001
ACAD_DSTYLE_DIMJOGGED_JOGANGLE_SYMBOL
1070
   384
1040
0.7853981633974483
1001
ACAD_DSTYLE_DIMARC_LENGTH_SYMBOL
1070
   379
1070
     1
  0
DIMSTYLE
105
1F6
330
A
100
AcDbSymbolTableRecord
100
AcDbDimStyleTableRecord
  2
AM_ANSI$SH
 70
     0
  4
mm
 41
0.1
 42
0.05
 43
0.5
 44
0.1
 47
0.1
 48
0.1
 75
     1
 76
     1
 78
     7
 79
     2
140
0.12
141
0.0
146
0.71
147
0.06
173
     1
176
   256
177
   256
178
     2
274
     4
284
     7
340
11
343
134
371
    -1
372
    -1
1001
ACAD_DSTYLE_DIMJOGGED_JOGANGLE_SYMBOL
1070
   384
1040
0.7853981633974483
1001
ACAD_DSTYLE_DIMARC_LENGTH_SYMBOL
1070
   379
1070
     1
  0
DIMSTYLE
105
1F7
330
A
100
AcDbSymbolTableRecord
100
AcDbDimStyleTableRecord
  2
GEN-ISO
 70
     0
  4
"
 41
2.5
 42
1.0
 43
7.0
 44
1.0
 47
0.1
 48
0.1
 73
     0
 74
     0
 77
     1
 78
     8
140
3.5
141
0.0
143
0.0393701
146
0.71
147
0.6
172
     1
176
   256
177
   256
178
     2
271
     2
272
     3
274
     4
283
     0
340
11
  0
DIMSTYLE
105
503
102
{ACAD_REACTORS
330
6C7
102
}
330
A
100
AcDbSymbolTableRecord
100
AcDbDimStyleTableRecord
  2
GEN-ISO$3
 70
     0
  4
"
 40
5.0
 41
2.5
 42
1.0
 43
7.0
 44
1.0
 47
0.1
 48
0.1
 73
     0
 74
     0
 77
     1
 78
     8
140
3.5
141
0.0
143
0.03937
146
0.71
147
0.6
172
     1
176
   256
177
   256
178
     2
271
     2
272
     3
274
     4
283
     0
340
11
  0
DIMSTYLE
105
505
102
{ACAD_REACTORS
330
5AF
330
5B0
330
5B1
330
5B2
330
C94
102
}
330
A
100
AcDbSymbolTableRecord
100
AcDbDimStyleTableRecord
  2
GEN-ISO$0
 70
     0
  4
"
 40
5.0
 41
2.5
 42
1.0
 43
7.0
 44
1.0
 47
0.1
 48
0.1
 73
     0
 74
     0
 77
     1
 78
     8
140
3.5
141
0.0
143
0.03937
146
0.71
147
0.6
172
     1
176
   256
177
   256
178
     2
271
     2
272
     3
274
     4
283
     0
340
11
  0
DIMSTYLE
105
6C6
330
A
100
AcDbSymbolTableRecord
100
AcDbDimStyleTableRecord
  2
ISO-25$3
 70
     0
 41
2.5
 42
0.625
 43
3.75
 44
1.25
 73
     0
 74
     0
 77
     1
 78
     8
140
2.5
141
2.5
143
0.03937007874016
147
0.625
171
     3
172
     1
271
     2
272
     2
274
     3
278
    44
283
     0
284
     8
340
11
  0
DIMSTYLE
105
715
330
A
100
AcDbSymbolTableRecord
100
AcDbDimStyleTableRecord
  2
ISO-25$4
 70
     0
 41
2.5
 42
0.625
 43
3.75
 44
1.25
 73
     0
 74
     0
 77
     1
 78
     8
140
2.5
141
2.5
143
0.03937007874016
147
0.625
171
     3
172
     1
271
     2
272
     2
274
     3
278
    44
283
     0
284
     8
340
11
  0
ENDTAB
  0
TABLE
  2
BLOCK_RECORD
  5
1
330
0
100
AcDbSymbolTable
 70
    51
  0
BLOCK_RECORD
  5
1F
102
{ACAD_XDICTIONARY
360
B0D
102
}
330
1
100
AcDbSymbolTableRecord
100
AcDbBlockTableRecord
  2
*Model_Space
340
22
  0
BLOCK_RECORD
  5
50
330
1
100
AcDbSymbolTableRecord
100
AcDbBlockTableRecord
  2
*Paper_Space
340
51
  0
BLOCK_RECORD
  5
55
330
1
100
AcDbSymbolTableRecord
100
AcDbBlockTableRecord
  2
*Paper_Space0
340
56
  0
BLOCK_RECORD
  5
134
330
1
100
AcDbSymbolTableRecord
100
AcDbBlockTableRecord
  2
GENAXEH
340
0
  0
BLOCK_RECORD
  5
5EF
330
1
100
AcDbSymbolTableRecord
100
AcDbBlockTableRecord
  2
*D9
340
0
  0
BLOCK_RECORD
  5
5FB
330
1
100
AcDbSymbolTableRecord
100
AcDbBlockTableRecord
  2
*D10
340
0
  0
BLOCK_RECORD
  5
607
330
1
100
AcDbSymbolTableRecord
100
AcDbBlockTableRecord
  2
*D11
340
0
  0
BLOCK_RECORD
  5
613
330
1
100
AcDbSymbolTableRecord
100
AcDbBlockTableRecord
  2
*D12
340
0
  0
BLOCK_RECORD
  5
6C8
330
1
100
AcDbSymbolTableRecord
100
AcDbBlockTableRecord
  2
*D15
340
0
  0
BLOCK_RECORD
  5
10B7
330
1
100
AcDbSymbolTableRecord
100
AcDbBlockTableRecord
  2
*U49
340
0
  0
BLOCK_RECORD
  5
10DD
330
1
100
AcDbSymbolTableRecord
100
AcDbBlockTableRecord
  2
*U50
340
0
  0
ENDTAB
  0
ENDSEC
  0
SECTION
  2
BLOCKS
  0
BLOCK
  5
20
330
1F
100
AcDbEntity
  8
0
100
AcDbBlockBegin
  2
*Model_Space
 70
     0
 10
0.0
 20
0.0
 30
0.0
  3
*Model_Space
  1

  0
ENDBLK
  5
21
330
1F
100
AcDbEntity
  8
0
100
AcDbBlockEnd
  0
BLOCK
  5
52
330
50
100
AcDbEntity
 67
     1
  8
0
100
AcDbBlockBegin
  2
*Paper_Space
 70
     0
 10
0.0
 20
0.0
 30
0.0
  3
*Paper_Space
  1

  0
ENDBLK
  5
53
330
50
100
AcDbEntity
 67
     1
  8
0
100
AcDbBlockEnd
  0
BLOCK
  5
57
330
55
100
AcDbEntity
 67
     1
  8
0
100
AcDbBlockBegin
  2
*Paper_Space0
 70
     0
 10
0.0
 20
0.0
 30
0.0
  3
*Paper_Space0
  1

  0
ENDBLK
  5
58
330
55
100
AcDbEntity
 67
     1
  8
0
100
AcDbBlockEnd
  0
BLOCK
  5
136
330
134
100
AcDbEntity
  8
0
100
AcDbBlockBegin
  2
GENAXEH
 70
     0
 10
0.0
 20
0.0
 30
0.0
  3
GENAXEH
  1

  0
LINE
  5
135
330
134
100
AcDbEntity
  8
0
100
AcDbLine
 10
-1.0
 20
0.0
 30
0.0
 11
1.0
 21
0.0
 31
0.0
  0
ENDBLK
  5
137
330
134
100
AcDbEntity
  8
0
100
AcDbBlockEnd
  0
BLOCK
  5
5F9
330
5EF
100
AcDbEntity
  8
0
100
AcDbBlockBegin
  2
*D9
 70
     1
 10
0.0
 20
0.0
 30
0.0
  3
*D9
  1

  0
LINE
  5
E74
330
5EF
100
AcDbEntity
  8
5
370
    -2
100
AcDbLine
 10
211.3842808437821
 20
182.6865233378606
 30
0.0
 11
120.7744917764702
 21
182.6865233378606
 31
0.0
  0
LINE
  5
E75
330
5EF
100
AcDbEntity
  8
5
370
    -2
100
AcDbLine
 10
211.4416760504009
 20
622.449546029239
 30
0.0
 11
120.7744917764703
 21
622.449546029239
 31
0.0
  0
LINE
  5
E76
330
5EF
100
AcDbEntity
  8
5
370
    -2
100
AcDbLine
 10
125.7744917764702
 20
195.1865233378606
 30
0.0
 11
125.7744917764703
 21
609.949546029239
 31
0.0
  0
SOLID
  5
E77
330
5EF
100
AcDbEntity
  8
5
100
AcDbTrace
 10
123.6911584431369
 20
195.1865233378606
 30
0.0
 11
127.8578251098035
 21
195.1865233378606
 31
0.0
 12
125.7744917764702
 22
182.6865233378606
 32
0.0
 13
125.7744917764702
 23
182.6865233378606
 33
0.0
  0
SOLID
  5
E78
330
5EF
100
AcDbEntity
  8
5
100
AcDbTrace
 10
123.691158443137
 20
609.949546029239
 30
0.0
 11
127.8578251098036
 21
609.949546029239
 31
0.0
 12
125.7744917764703
 22
622.449546029239
 32
0.0
 13
125.7744917764703
 23
622.449546029239
 33
0.0
  0
MTEXT
  5
E79
330
5EF
100
AcDbEntity
  8
5
 62
     2
100
AcDbMText
 10
115.2744917764702
 20
402.5680346835498
 30
0.0
 40
15.0
 41
0.0
 71
     5
 72
     1
  1
440
 11
0.0000000000000001
 21
1.0
 31
0.0
 73
     1
 44
1.0
  0
POINT
  5
E7A
330
5EF
100
AcDbEntity
  8
DEFPOINTS
 62
     0
100
AcDbPoint
 10
216.3842808437821
 20
182.6865233378606
 30
0.0
  0
POINT
  5
E7B
330
5EF
100
AcDbEntity
  8
DEFPOINTS
 62
     0
100
AcDbPoint
 10
216.4416760504009
 20
622.449546029239
 30
0.0
  0
POINT
  5
E7C
330
5EF
100
AcDbEntity
  8
DEFPOINTS
 62
     0
100
AcDbPoint
 10
125.7744917764703
 20
622.449546029239
 30
0.0
  0
ENDBLK
  5
5FA
330
5EF
100
AcDbEntity
  8
0
100
AcDbBlockEnd
  0
BLOCK
  5
605
330
5FB
100
AcDbEntity
  8
0
100
AcDbBlockBegin
  2
*D10
 70
     1
 10
0.0
 20
0.0
 30
0.0
  3
*D10
  1

  0
LINE
  5
E6B
330
5FB
100
AcDbEntity
  8
5
370
    -2
100
AcDbLine
 10
656.2046987418498
 20
627.5069412358576
 30
0.0
 11
656.2046987418498
 21
766.4975946987304
 31
0.0
  0
LINE
  5
E6C
330
5FB
100
AcDbEntity
  8
5
370
    -2
100
AcDbLine
 10
216.4416760503991
 20
627.4495460292413
 30
0.0
 11
216.4416760503991
 21
766.4975946987304
 31
0.0
  0
LINE
  5
E6D
330
5FB
100
AcDbEntity
  8
5
370
    -2
100
AcDbLine
 10
643.7046987418498
 20
761.4975946987304
 30
0.0
 11
228.9416760503991
 21
761.4975946987304
 31
0.0
  0
SOLID
  5
E6E
330
5FB
100
AcDbEntity
  8
5
100
AcDbTrace
 10
643.7046987418498
 20
763.5809280320638
 30
0.0
 11
643.7046987418498
 21
759.4142613653971
 31
0.0
 12
656.2046987418498
 22
761.4975946987304
 32
0.0
 13
656.2046987418498
 23
761.4975946987304
 33
0.0
  0
SOLID
  5
E6F
330
5FB
100
AcDbEntity
  8
5
100
AcDbTrace
 10
228.9416760503991
 20
763.5809280320638
 30
0.0
 11
228.9416760503991
 21
759.4142613653971
 31
0.0
 12
216.4416760503991
 22
761.4975946987304
 32
0.0
 13
216.4416760503991
 23
761.4975946987304
 33
0.0
  0
MTEXT
  5
E70
330
5FB
100
AcDbEntity
  8
5
 62
     2
100
AcDbMText
 10
436.3231873961244
 20
771.9975946987305
 30
0.0
 40
15.0
 41
0.0
 71
     5
 72
     1
  1
440
 73
     1
 44
1.0
  0
POINT
  5
E71
330
5FB
100
AcDbEntity
  8
DEFPOINTS
 62
     0
100
AcDbPoint
 10
656.2046987418498
 20
622.5069412358577
 30
0.0
  0
POINT
  5
E72
330
5FB
100
AcDbEntity
  8
DEFPOINTS
 62
     0
100
AcDbPoint
 10
216.4416760503991
 20
622.4495460292413
 30
0.0
  0
POINT
  5
E73
330
5FB
100
AcDbEntity
  8
DEFPOINTS
 62
     0
100
AcDbPoint
 10
216.4416760503991
 20
761.4975946987304
 30
0.0
  0
ENDBLK
  5
606
330
5FB
100
AcDbEntity
  8
0
100
AcDbBlockEnd
  0
BLOCK
  5
611
330
607
100
AcDbEntity
  8
0
100
AcDbBlockBegin
  2
*D11
 70
     1
 10
0.0
 20
0.0
 30
0.0
  3
*D11
  1

  0
LINE
  5
E7D
330
607
100
AcDbEntity
  8
5
370
    -2
100
AcDbLine
 10
203.29448979281
 20
637.5967322869374
 30
0.0
 11
51.94482294129568
 21
637.5967322869374
 31
0.0
  0
LINE
  5
E7E
330
607
100
AcDbEntity
  8
5
370
    -2
100
AcDbLine
 10
203.294489792811
 20
167.596732286816
 30
0.0
 11
51.94482294129557
 21
167.596732286816
 31
0.0
  0
LINE
  5
E7F
330
607
100
AcDbEntity
  8
5
370
    -2
100
AcDbLine
 10
56.94482294129567
 20
625.0967322869374
 30
0.0
 11
56.94482294129557
 21
180.096732286816
 31
0.0
  0
SOLID
  5
E80
330
607
100
AcDbEntity
  8
5
100
AcDbTrace
 10
54.86148960796234
 20
625.0967322869374
 30
0.0
 11
59.02815627462901
 21
625.0967322869374
 31
0.0
 12
56.94482294129567
 22
637.5967322869374
 32
0.0
 13
56.94482294129567
 23
637.5967322869374
 33
0.0
  0
SOLID
  5
E81
330
607
100
AcDbEntity
  8
5
100
AcDbTrace
 10
54.86148960796224
 20
180.096732286816
 30
0.0
 11
59.02815627462891
 21
180.096732286816
 31
0.0
 12
56.94482294129556
 22
167.596732286816
 32
0.0
 13
56.94482294129556
 23
167.596732286816
 33
0.0
  0
MTEXT
  5
E82
330
607
100
AcDbEntity
  8
5
 62
     2
100
AcDbMText
 10
46.44482294129555
 20
402.5967322868766
 30
0.0
 40
15.0
 41
0.0
 71
     5
 72
     1
  1
470
 11
0.0000000000000001
 21
1.0
 31
0.0
 73
     1
 44
1.0
  0
POINT
  5
E83
330
607
100
AcDbEntity
  8
DEFPOINTS
 62
     0
100
AcDbPoint
 10
208.2944897928101
 20
637.5967322869374
 30
0.0
  0
POINT
  5
E84
330
607
100
AcDbEntity
  8
DEFPOINTS
 62
     0
100
AcDbPoint
 10
208.2944897928109
 20
167.596732286816
 30
0.0
  0
POINT
  5
E85
330
607
100
AcDbEntity
  8
DEFPOINTS
 62
     0
100
AcDbPoint
 10
56.94482294129556
 20
167.596732286816
 30
0.0
  0
ENDBLK
  5
612
330
607
100
AcDbEntity
  8
0
100
AcDbBlockEnd
  0
BLOCK
  5
61D
330
613
100
AcDbEntity
  8
0
100
AcDbBlockBegin
  2
*D12
 70
     1
 10
0.0
 20
0.0
 30
0.0
  3
*D12
  1

  0
LINE
  5
E8E
330
613
100
AcDbEntity
  8
5
370
    -2
100
AcDbLine
 10
671.2944897927846
 20
169.5967322869377
 30
0.0
 11
671.2944897927846
 21
119.5967322868163
 31
0.0
  0
LINE
  5
E8F
330
613
100
AcDbEntity
  8
5
370
    -2
100
AcDbLine
 10
201.2944897928091
 20
169.596732286816
 30
0.0
 11
201.2944897928091
 21
119.5967322868163
 31
0.0
  0
LINE
  5
E90
330
613
100
AcDbEntity
  8
5
370
    -2
100
AcDbLine
 10
658.7944897927846
 20
124.5967322868163
 30
0.0
 11
213.7944897928091
 21
124.5967322868163
 31
0.0
  0
SOLID
  5
E91
330
613
100
AcDbEntity
  8
5
100
AcDbTrace
 10
658.7944897927846
 20
126.6800656201496
 30
0.0
 11
658.7944897927846
 21
122.5133989534829
 31
0.0
 12
671.2944897927846
 22
124.5967322868163
 32
0.0
 13
671.2944897927846
 23
124.5967322868163
 33
0.0
  0
SOLID
  5
E92
330
613
100
AcDbEntity
  8
5
100
AcDbTrace
 10
213.7944897928091
 20
126.6800656201496
 30
0.0
 11
213.7944897928091
 21
122.5133989534829
 31
0.0
 12
201.2944897928091
 22
124.5967322868163
 32
0.0
 13
201.2944897928091
 23
124.5967322868163
 33
0.0
  0
MTEXT
  5
E93
330
613
100
AcDbEntity
  8
5
 62
     2
100
AcDbMText
 10
436.2944897927969
 20
135.0967322868163
 30
0.0
 40
15.0
 41
0.0
 71
     5
 72
     1
  1
470
 73
     1
 44
1.0
  0
POINT
  5
E94
330
613
100
AcDbEntity
  8
DEFPOINTS
 62
     0
100
AcDbPoint
 10
671.2944897927846
 20
174.5967322869377
 30
0.0
  0
POINT
  5
E95
330
613
100
AcDbEntity
  8
DEFPOINTS
 62
     0
100
AcDbPoint
 10
201.2944897928091
 20
174.596732286816
 30
0.0
  0
POINT
  5
E96
330
613
100
AcDbEntity
  8
DEFPOINTS
 62
     0
100
AcDbPoint
 10
201.2944897928091
 20
124.5967322868163
 30
0.0
  0
ENDBLK
  5
61E
330
613
100
AcDbEntity
  8
0
100
AcDbBlockEnd
  0
BLOCK
  5
6CE
330
6C8
100
AcDbEntity
  8
0
100
AcDbBlockBegin
  2
*D15
 70
     1
 10
0.0
 20
0.0
 30
0.0
  3
*D15
  1

  0
LINE
  5
E97
330
6C8
100
AcDbEntity
  8
5
370
    -2
100
AcDbLine
 10
342.7626343784659
 20
356.3773292012464
 30
0.0
 11
391.0205948230532
 21
380.2243288784894
 31
0.0
  0
LINE
  5
E98
330
6C8
100
AcDbEntity
  8
5
370
    -2
100
AcDbLine
 10
481.5683847625797
 20
424.9691356952298
 30
0.0
 11
492.7747944085607
 21
430.5068593111631
 31
0.0
  0
MTEXT
  5
E99
102
{ACAD_XDICTIONARY
360
1119
102
}
330
6C8
100
AcDbEntity
  8
5
 62
     2
100
AcDbMText
 10
354.5817215372932
 20
373.9298588956034
 30
0.0
 40
15.0
 41
0.0
 71
     5
 72
     1
  1
\U+220576
 11
0.8965127716784786
 21
0.4430178892746567
 31
0.0
 73
     1
 44
1.0
  0
LINE
  5
E9A
330
6C8
100
AcDbEntity
  8
5
370
    -2
100
AcDbLine
 10
470.3619751165987
 20
419.4314120792967
 30
0.0
 11
402.2270044690342
 21
385.7620524944226
 31
0.0
  0
SOLID
  5
E9B
330
6C8
100
AcDbEntity
  8
5
100
AcDbTrace
 10
480.6454308265908
 20
426.8368706362267
 30
0.0
 11
482.4913386985685
 21
423.101400754233
 31
0.0
 12
470.3619751165987
 22
419.4314120792967
 32
0.0
 13
470.3619751165987
 23
419.4314120792967
 33
0.0
  0
SOLID
  5
E9C
330
6C8
100
AcDbEntity
  8
5
100
AcDbTrace
 10
390.0976408870644
 20
382.0920638194863
 30
0.0
 11
391.9435487590421
 21
378.3565939374926
 31
0.0
 12
402.2270044690342
 22
385.7620524944226
 32
0.0
 13
402.2270044690342
 23
385.7620524944226
 33
0.0
  0
POINT
  5
E9D
330
6C8
100
AcDbEntity
  8
DEFPOINTS
 62
     0
100
AcDbPoint
 10
402.2270044690342
 20
385.7620524944226
 30
0.0
  0
POINT
  5
E9E
330
6C8
100
AcDbEntity
  8
DEFPOINTS
 62
     0
100
AcDbPoint
 10
470.3619751165987
 20
419.4314120792967
 30
0.0
  0
ENDBLK
  5
6CF
330
6C8
100
AcDbEntity
  8
0
100
AcDbBlockEnd
  0
BLOCK
  5
10DA
330
10B7
100
AcDbEntity
  8
0
100
AcDbBlockBegin
  2
*U49
 70
     1
 10
0.0
 20
0.0
 30
0.0
  3
*U49
  1

  0
LINE
  5
10B8
330
10B7
100
AcDbEntity
  8
AM_7N
  6
AM_DIN_G_W050x2
100
AcDbLine
 10
216.4416760503991
 20
903.5394429040355
 30
0.0
 11
216.4416760503991
 21
930.8394429040355
 31
0.0
  0
LINE
  5
10B9
330
10B7
100
AcDbEntity
  8
AM_0N
100
AcDbLine
 10
220.4416760503991
 20
915.8394429040354
 30
0.0
 11
220.4416760503991
 21
927.0726304040355
 31
0.0
  0
LINE
  5
10BA
330
10B7
100
AcDbEntity
  8
AM_4N
100
AcDbLine
 10
219.7650935503991
 20
915.8394429040354
 30
0.0
 11
219.7650935503991
 21
927.7492129040355
 31
0.0
  0
LINE
  5
10BB
330
10B7
100
AcDbEntity
  8
AM_4N
100
AcDbLine
 10
213.1182585503991
 20
915.8394429040354
 30
0.0
 11
213.1182585503991
 21
927.7492129040355
 31
0.0
  0
LINE
  5
10BC
330
10B7
100
AcDbEntity
  8
AM_0N
100
AcDbLine
 10
212.4416760503991
 20
915.8394429040354
 30
0.0
 11
212.4416760503991
 21
927.0726304040355
 31
0.0
  0
LINE
  5
10BD
330
10B7
100
AcDbEntity
  8
AM_0N
100
AcDbLine
 10
212.4416760503991
 20
911.8394429040355
 30
0.0
 11
212.4416760503991
 21
915.0726304040356
 31
0.0
  0
LINE
  5
10BE
330
10B7
100
AcDbEntity
  8
AM_0N
100
AcDbLine
 10
220.4416760503991
 20
911.8394429040355
 30
0.0
 11
220.4416760503991
 21
915.0726304040356
 31
0.0
  0
ARC
  5
10BF
330
10B7
100
AcDbEntity
  8
AM_0N
100
AcDbCircle
 10
216.4416760503991
 20
918.9485758776834
 30
0.0
 40
12.4091329736479
100
AcDbArc
 50
252.3875260144767
 51
287.6124739855232
  0
LINE
  5
10C0
330
10B7
100
AcDbEntity
  8
AM_0N
100
AcDbLine
 10
222.2566760503991
 20
911.2394429040355
 30
0.0
 11
210.6266760503991
 21
911.2394429040355
 31
0.0
  0
LINE
  5
10C1
330
10B7
100
AcDbEntity
  8
AM_0N
100
AcDbLine
 10
212.4416760503991
 20
911.8394429040355
 30
0.0
 11
220.4416760503991
 21
911.8394429040355
 31
0.0
  0
LINE
  5
10C2
330
10B7
100
AcDbEntity
  8
AM_0N
100
AcDbLine
 10
209.9416760503991
 20
906.5394429040356
 30
0.0
 11
222.9416760503991
 21
906.5394429040356
 31
0.0
  0
LINE
  5
10C3
330
10B7
100
AcDbEntity
  8
AM_0N
100
AcDbLine
 10
223.9491760503991
 20
907.1211233002442
 30
0.0
 11
223.9491760503991
 21
911.2394429040355
 31
0.0
  0
LINE
  5
10C4
330
10B7
100
AcDbEntity
  8
AM_0N
100
AcDbLine
 10
220.1963993006665
 20
907.1211233002442
 30
0.0
 11
220.1963993006665
 21
911.2394429040355
 31
0.0
  0
ARC
  5
10C5
330
10B7
100
AcDbEntity
  8
AM_0N
100
AcDbCircle
 10
222.0727876755328
 20
909.8567159648274
 30
0.0
 40
3.317273060791837
100
AcDbArc
 50
235.5531276177371
 51
295.5531276177362
  0
LINE
  5
10C6
330
10B7
100
AcDbEntity
  8
AM_0N
100
AcDbLine
 10
223.9491760503991
 20
907.1211233002442
 30
0.0
 11
222.9416760503991
 21
906.5394429040356
 31
0.0
  0
LINE
  5
10C7
330
10B7
100
AcDbEntity
  8
AM_0N
100
AcDbLine
 10
220.4416760503991
 20
911.8394429040355
 30
0.0
 11
222.2566760503991
 21
911.8394429040355
 31
0.0
  0
LINE
  5
10C8
330
10B7
100
AcDbEntity
  8
AM_0N
100
AcDbLine
 10
222.2566760503991
 20
911.2394429040355
 30
0.0
 11
222.2566760503991
 21
911.8394429040355
 31
0.0
  0
LINE
  5
10C9
330
10B7
100
AcDbEntity
  8
AM_0N
100
AcDbLine
 10
223.9491760503991
 20
911.2394429040355
 30
0.0
 11
222.2566760503991
 21
911.2394429040355
 31
0.0
  0
LINE
  5
10CA
330
10B7
100
AcDbEntity
  8
AM_0N
100
AcDbLine
 10
210.6266760503991
 20
911.2394429040355
 30
0.0
 11
208.9341760503991
 21
911.2394429040355
 31
0.0
  0
LINE
  5
10CB
330
10B7
100
AcDbEntity
  8
AM_0N
100
AcDbLine
 10
208.9341760503991
 20
907.1211233002442
 30
0.0
 11
209.9416760503991
 21
906.5394429040356
 31
0.0
  0
LINE
  5
10CC
330
10B7
100
AcDbEntity
  8
AM_0N
100
AcDbLine
 10
212.6869528001317
 20
907.1211233002442
 30
0.0
 11
212.6869528001317
 21
911.2394429040355
 31
0.0
  0
ARC
  5
10CD
330
10B7
100
AcDbEntity
  8
AM_0N
100
AcDbCircle
 10
210.8105644252654
 20
909.8567159648274
 30
0.0
 40
3.317273060791837
100
AcDbArc
 50
244.4468723822637
 51
304.4468723822628
  0
LINE
  5
10CE
330
10B7
100
AcDbEntity
  8
AM_0N
100
AcDbLine
 10
210.6266760503991
 20
911.2394429040355
 30
0.0
 11
210.6266760503991
 21
911.8394429040355
 31
0.0
  0
LINE
  5
10CF
330
10B7
100
AcDbEntity
  8
AM_0N
100
AcDbLine
 10
210.6266760503991
 20
911.8394429040355
 30
0.0
 11
212.4416760503991
 21
911.8394429040355
 31
0.0
  0
LINE
  5
10D0
330
10B7
100
AcDbEntity
  8
AM_0N
100
AcDbLine
 10
208.9341760503991
 20
907.1211233002442
 30
0.0
 11
208.9341760503991
 21
911.2394429040355
 31
0.0
  0
LINE
  5
10D1
330
10B7
100
AcDbEntity
  8
AM_0N
100
AcDbLine
 10
220.4416760503991
 20
915.8394429040354
 30
0.0
 11
212.4416760503991
 21
915.8394429040354
 31
0.0
  0
LINE
  5
10D2
330
10B7
100
AcDbEntity
  8
AM_4N
100
AcDbLine
 10
219.7650935503991
 20
915.8394429040354
 30
0.0
 11
220.4416760503991
 21
915.0726304040356
 31
0.0
  0
LINE
  5
10D3
330
10B7
100
AcDbEntity
  8
AM_0N
100
AcDbLine
 10
220.4416760503991
 20
915.8394429040354
 30
0.0
 11
220.4416760503991
 21
915.0726304040356
 31
0.0
  0
LINE
  5
10D4
330
10B7
100
AcDbEntity
  8
AM_4N
100
AcDbLine
 10
213.1182585503991
 20
915.8394429040354
 30
0.0
 11
212.4416760503991
 21
915.0726304040356
 31
0.0
  0
LINE
  5
10D5
330
10B7
100
AcDbEntity
  8
AM_0N
100
AcDbLine
 10
212.4416760503991
 20
915.8394429040354
 30
0.0
 11
212.4416760503991
 21
915.0726304040356
 31
0.0
  0
LINE
  5
10D6
330
10B7
100
AcDbEntity
  8
AM_0N
100
AcDbLine
 10
220.4416760503991
 20
927.0726304040355
 30
0.0
 11
212.4416760503991
 21
927.0726304040355
 31
0.0
  0
LINE
  5
10D7
330
10B7
100
AcDbEntity
  8
AM_0N
100
AcDbLine
 10
219.6748635503991
 20
927.8394429040355
 30
0.0
 11
220.4416760503991
 21
927.0726304040355
 31
0.0
  0
LINE
  5
10D8
330
10B7
100
AcDbEntity
  8
AM_0N
100
AcDbLine
 10
219.6748635503991
 20
927.8394429040355
 30
0.0
 11
213.2084885503991
 21
927.8394429040355
 31
0.0
  0
LINE
  5
10D9
330
10B7
100
AcDbEntity
  8
AM_0N
100
AcDbLine
 10
212.4416760503991
 20
927.0726304040355
 30
0.0
 11
213.2084885503991
 21
927.8394429040355
 31
0.0
  0
ENDBLK
  5
10DB
330
10B7
100
AcDbEntity
  8
0
100
AcDbBlockEnd
  0
BLOCK
  5
1100
330
10DD
100
AcDbEntity
  8
0
100
AcDbBlockBegin
  2
*U50
 70
     1
 10
0.0
 20
0.0
 30
0.0
  3
*U50
  1

  0
LINE
  5
10DE
330
10DD
100
AcDbEntity
  8
AM_7N
  6
AM_DIN_G_W050x2
100
AcDbLine
 10
656.1473035349995
 20
903.5394429040355
 30
0.0
 11
656.1473035349995
 21
930.8394429040355
 31
0.0
  0
LINE
  5
10DF
330
10DD
100
AcDbEntity
  8
AM_0N
100
AcDbLine
 10
652.1473035349995
 20
915.8394429040354
 30
0.0
 11
652.1473035349995
 21
927.0726304040355
 31
0.0
  0
LINE
  5
10E0
330
10DD
100
AcDbEntity
  8
AM_4N
100
AcDbLine
 10
652.8238860349995
 20
915.8394429040354
 30
0.0
 11
652.8238860349995
 21
927.7492129040355
 31
0.0
  0
LINE
  5
10E1
330
10DD
100
AcDbEntity
  8
AM_4N
100
AcDbLine
 10
659.4707210349995
 20
915.8394429040354
 30
0.0
 11
659.4707210349995
 21
927.7492129040355
 31
0.0
  0
LINE
  5
10E2
330
10DD
100
AcDbEntity
  8
AM_0N
100
AcDbLine
 10
660.1473035349995
 20
915.8394429040354
 30
0.0
 11
660.1473035349995
 21
927.0726304040355
 31
0.0
  0
LINE
  5
10E3
330
10DD
100
AcDbEntity
  8
AM_0N
100
AcDbLine
 10
660.1473035349995
 20
911.8394429040355
 30
0.0
 11
660.1473035349995
 21
915.0726304040356
 31
0.0
  0
LINE
  5
10E4
330
10DD
100
AcDbEntity
  8
AM_0N
100
AcDbLine
 10
652.1473035349995
 20
911.8394429040355
 30
0.0
 11
652.1473035349995
 21
915.0726304040356
 31
0.0
  0
ARC
  5
10E5
330
10DD
100
AcDbEntity
  8
AM_0N
100
AcDbCircle
 10
-656.1473035349995
 20
918.9485758776834
 30
0.0
 40
12.4091329736479
210
0.0
220
0.0
230
-1.0
100
AcDbArc
 50
252.3875260144767
 51
287.6124739855232
  0
LINE
  5
10E6
330
10DD
100
AcDbEntity
  8
AM_0N
100
AcDbLine
 10
650.3323035349994
 20
911.2394429040355
 30
0.0
 11
661.9623035349995
 21
911.2394429040355
 31
0.0
  0
LINE
  5
10E7
330
10DD
100
AcDbEntity
  8
AM_0N
100
AcDbLine
 10
660.1473035349995
 20
911.8394429040355
 30
0.0
 11
652.1473035349995
 21
911.8394429040355
 31
0.0
  0
LINE
  5
10E8
330
10DD
100
AcDbEntity
  8
AM_0N
100
AcDbLine
 10
662.6473035349995
 20
906.5394429040356
 30
0.0
 11
649.6473035349995
 21
906.5394429040356
 31
0.0
  0
LINE
  5
10E9
330
10DD
100
AcDbEntity
  8
AM_0N
100
AcDbLine
 10
648.6398035349996
 20
907.1211233002442
 30
0.0
 11
648.6398035349996
 21
911.2394429040355
 31
0.0
  0
LINE
  5
10EA
330
10DD
100
AcDbEntity
  8
AM_0N
100
AcDbLine
 10
652.392580284732
 20
907.1211233002442
 30
0.0
 11
652.392580284732
 21
911.2394429040355
 31
0.0
  0
ARC
  5
10EB
330
10DD
100
AcDbEntity
  8
AM_0N
100
AcDbCircle
 10
-650.5161919098658
 20
909.8567159648274
 30
0.0
 40
3.317273060791837
210
0.0
220
0.0
230
-1.0
100
AcDbArc
 50
235.5531276177371
 51
295.5531276177362
  0
LINE
  5
10EC
330
10DD
100
AcDbEntity
  8
AM_0N
100
AcDbLine
 10
648.6398035349996
 20
907.1211233002442
 30
0.0
 11
649.6473035349995
 21
906.5394429040356
 31
0.0
  0
LINE
  5
10ED
330
10DD
100
AcDbEntity
  8
AM_0N
100
AcDbLine
 10
652.1473035349995
 20
911.8394429040355
 30
0.0
 11
650.3323035349994
 21
911.8394429040355
 31
0.0
  0
LINE
  5
10EE
330
10DD
100
AcDbEntity
  8
AM_0N
100
AcDbLine
 10
650.3323035349994
 20
911.2394429040355
 30
0.0
 11
650.3323035349994
 21
911.8394429040355
 31
0.0
  0
LINE
  5
10EF
330
10DD
100
AcDbEntity
  8
AM_0N
100
AcDbLine
 10
648.6398035349996
 20
911.2394429040355
 30
0.0
 11
650.3323035349994
 21
911.2394429040355
 31
0.0
  0
LINE
  5
10F0
330
10DD
100
AcDbEntity
  8
AM_0N
100
AcDbLine
 10
661.9623035349995
 20
911.2394429040355
 30
0.0
 11
663.6548035349995
 21
911.2394429040355
 31
0.0
  0
LINE
  5
10F1
330
10DD
100
AcDbEntity
  8
AM_0N
100
AcDbLine
 10
663.6548035349995
 20
907.1211233002442
 30
0.0
 11
662.6473035349995
 21
906.5394429040356
 31
0.0
  0
LINE
  5
10F2
330
10DD
100
AcDbEntity
  8
AM_0N
100
AcDbLine
 10
659.902026785267
 20
907.1211233002442
 30
0.0
 11
659.902026785267
 21
911.2394429040355
 31
0.0
  0
ARC
  5
10F3
330
10DD
100
AcDbEntity
  8
AM_0N
100
AcDbCircle
 10
-661.7784151601332
 20
909.8567159648274
 30
0.0
 40
3.317273060791837
210
0.0
220
0.0
230
-1.0
100
AcDbArc
 50
244.4468723822637
 51
304.4468723822629
  0
LINE
  5
10F4
330
10DD
100
AcDbEntity
  8
AM_0N
100
AcDbLine
 10
661.9623035349995
 20
911.2394429040355
 30
0.0
 11
661.9623035349995
 21
911.8394429040355
 31
0.0
  0
LINE
  5
10F5
330
10DD
100
AcDbEntity
  8
AM_0N
100
AcDbLine
 10
661.9623035349995
 20
911.8394429040355
 30
0.0
 11
660.1473035349995
 21
911.8394429040355
 31
0.0
  0
LINE
  5
10F6
330
10DD
100
AcDbEntity
  8
AM_0N
100
AcDbLine
 10
663.6548035349995
 20
907.1211233002442
 30
0.0
 11
663.6548035349995
 21
911.2394429040355
 31
0.0
  0
LINE
  5
10F7
330
10DD
100
AcDbEntity
  8
AM_0N
100
AcDbLine
 10
652.1473035349995
 20
915.8394429040354
 30
0.0
 11
660.1473035349995
 21
915.8394429040354
 31
0.0
  0
LINE
  5
10F8
330
10DD
100
AcDbEntity
  8
AM_4N
100
AcDbLine
 10
652.8238860349995
 20
915.8394429040354
 30
0.0
 11
652.1473035349995
 21
915.0726304040356
 31
0.0
  0
LINE
  5
10F9
330
10DD
100
AcDbEntity
  8
AM_0N
100
AcDbLine
 10
652.1473035349995
 20
915.8394429040354
 30
0.0
 11
652.1473035349995
 21
915.0726304040356
 31
0.0
  0
LINE
  5
10FA
330
10DD
100
AcDbEntity
  8
AM_4N
100
AcDbLine
 10
659.4707210349995
 20
915.8394429040354
 30
0.0
 11
660.1473035349995
 21
915.0726304040356
 31
0.0
  0
LINE
  5
10FB
330
10DD
100
AcDbEntity
  8
AM_0N
100
AcDbLine
 10
660.1473035349995
 20
915.8394429040354
 30
0.0
 11
660.1473035349995
 21
915.0726304040356
 31
0.0
  0
LINE
  5
10FC
330
10DD
100
AcDbEntity
  8
AM_0N
100
AcDbLine
 10
652.1473035349995
 20
927.0726304040355
 30
0.0
 11
660.1473035349995
 21
927.0726304040355
 31
0.0
  0
LINE
  5
10FD
330
10DD
100
AcDbEntity
  8
AM_0N
100
AcDbLine
 10
652.9141160349995
 20
927.8394429040355
 30
0.0
 11
652.1473035349995
 21
927.0726304040355
 31
0.0
  0
LINE
  5
10FE
330
10DD
100
AcDbEntity
  8
AM_0N
100
AcDbLine
 10
652.9141160349995
 20
927.8394429040355
 30
0.0
 11
659.3804910349994
 21
927.8394429040355
 31
0.0
  0
LINE
  5
10FF
330
10DD
100
AcDbEntity
  8
AM_0N
100
AcDbLine
 10
660.1473035349995
 20
927.0726304040355
 30
0.0
 11
659.3804910349994
 21
927.8394429040355
 31
0.0
  0
ENDBLK
  5
1101
330
10DD
100
AcDbEntity
  8
0
100
AcDbBlockEnd
  0
ENDSEC
  0
SECTION
  2
ENTITIES
  0
LINE
  5
56A
330
1F
100
AcDbEntity
  8
0N
370
    50
100
AcDbLine
 10
201.2944897928082
 20
630.5967322869373
 30
0.0
 11
201.2944897928091
 21
174.596732286816
 31
0.0
  0
ARC
  5
56B
330
1F
100
AcDbEntity
  8
0N
370
    50
100
AcDbCircle
 10
208.2944897928082
 20
630.5967322869373
 30
0.0
 40
7.0
100
AcDbArc
 50
90.0
 51
180.0
  0
ARC
  5
56C
330
1F
100
AcDbEntity
  8
0N
370
    50
100
AcDbCircle
 10
208.2944897928091
 20
174.596732286816
 30
0.0
 40
7.0
100
AcDbArc
 50
180.0
 51
270.0
  0
LINE
  5
56D
330
1F
100
AcDbEntity
  8
0N
370
    50
100
AcDbLine
 10
671.2944897928082
 20
630.5967322868151
 30
0.0
 11
671.2944897927846
 21
174.5967322869377
 31
0.0
  0
LINE
  5
56E
330
1F
100
AcDbEntity
  8
0N
370
    50
100
AcDbLine
 10
208.2944897928109
 20
167.596732286816
 30
0.0
 11
664.2944897927864
 21
167.5967322869381
 31
0.0
  0
ARC
  5
56F
330
1F
100
AcDbEntity
  8
0N
370
    50
100
AcDbCircle
 10
664.2944897927845
 20
174.5967322869381
 30
0.0
 40
7.0
100
AcDbArc
 50
270.0
 51
359.9999999999968
  0
LINE
  5
570
330
1F
100
AcDbEntity
  8
0N
370
    50
100
AcDbLine
 10
208.2944897928101
 20
637.5967322869374
 30
0.0
 11
664.29448979281
 21
637.5967322868155
 31
0.0
  0
ARC
  5
571
330
1F
100
AcDbEntity
  8
0N
370
    50
100
AcDbCircle
 10
664.2944897928082
 20
630.5967322868155
 30
0.0
 40
7.0
100
AcDbArc
 50
359.9999999999968
 51
90.0
  0
CIRCLE
  5
572
330
1F
100
AcDbEntity
  8
0N
370
    50
100
AcDbCircle
 10
216.4416760503991
 20
622.449546029239
 30
0.0
 40
4.5
  0
CIRCLE
  5
573
330
1F
100
AcDbEntity
  8
0N
370
    50
100
AcDbCircle
 10
656.2046987418507
 20
622.5069412358577
 30
0.0
 40
4.5
  0
CIRCLE
  5
574
330
1F
100
AcDbEntity
  8
0N
370
    50
100
AcDbCircle
 10
656.2046987418543
 20
182.6865233378937
 30
0.0
 40
4.5
  0
CIRCLE
  5
575
330
1F
100
AcDbEntity
  8
0N
370
    50
100
AcDbCircle
 10
216.3842808437821
 20
182.6865233378604
 30
0.0
 40
4.5
  0
LINE
  5
577
330
1F
100
AcDbEntity
  8
7
100
AcDbLine
 10
436.2944897928164
 20
402.5967322868594
 30
0.0
 11
686.2944897927991
 21
402.5967322868594
 31
0.0
1001
GENIUS_GENOREF_13
1005
5C1
  0
LINE
  5
578
330
1F
100
AcDbEntity
  8
7
100
AcDbLine
 10
436.2944897928164
 20
402.5967322868594
 30
0.0
 11
436.2944897928164
 21
652.5967322868418
 31
0.0
1001
GENIUS_GENOREF_13
1005
5C1
  0
LINE
  5
579
330
1F
100
AcDbEntity
  8
7
100
AcDbLine
 10
436.2944897928164
 20
402.5967322868594
 30
0.0
 11
186.2944897928337
 21
402.5967322868594
 31
0.0
1001
GENIUS_GENOREF_13
1005
5C1
  0
LINE
  5
57A
330
1F
100
AcDbEntity
  8
7
100
AcDbLine
 10
436.2944897928164
 20
402.5967322868594
 30
0.0
 11
436.2944897928164
 21
152.596732286877
 31
0.0
1001
GENIUS_GENOREF_13
1005
5C1
  0
LINE
  5
57B
330
1F
100
AcDbEntity
  8
7
100
AcDbLine
 10
201.2944897928082
 20
167.5967322868891
 30
0.0
 11
671.2944897928245
 21
637.59673228683
 31
0.0
  0
LINE
  5
57C
330
1F
100
AcDbEntity
  8
7
100
AcDbLine
 10
201.2944897928082
 20
637.5967322868298
 30
0.0
 11
671.2944897928245
 21
167.5967322868889
 31
0.0
  0
LINE
  5
587
330
1F
100
AcDbEntity
  8
0N
370
    50
100
AcDbLine
 10
492.8294457139318
 20
466.1673118477059
 30
0.0
 11
627.215178311536
 21
600.5530444452885
 31
0.0
  0
LINE
  5
588
330
1F
100
AcDbEntity
  8
0N
370
    50
100
AcDbLine
 10
499.8650693536529
 20
459.1316882079816
 30
0.0
 11
634.2508019512679
 21
593.5174208055534
 31
0.0
  0
ARC
  5
589
330
1F
100
AcDbEntity
  8
0N
370
    50
100
AcDbCircle
 10
630.7329901314051
 20
597.0352326254179
 30
0.0
 40
4.974937185527712
100
AcDbArc
 50
314.9999999999971
 51
135.0000000000017
  0
ARC
  5
58A
330
1F
100
AcDbEntity
  8
0N
370
    50
100
AcDbCircle
 10
496.3472575338009
 20
462.6495000278352
 30
0.0
 40
4.974937185511338
100
AcDbArc
 50
134.9999999999994
 51
314.9999999999995
  0
LINE
  5
58B
330
1F
100
AcDbEntity
  8
0N
370
    50
100
AcDbLine
 10
372.723910231728
 20
346.0617763654735
 30
0.0
 11
238.3381776341776
 21
211.6760437678375
 31
0.0
  0
LINE
  5
58C
330
1F
100
AcDbEntity
  8
0N
370
    50
100
AcDbLine
 10
379.7595338714546
 20
339.0261527257543
 30
0.0
 11
245.3738012739141
 21
204.6404201281074
 31
0.0
  0
ARC
  5
58D
330
1F
100
AcDbEntity
  8
0N
370
    50
100
AcDbCircle
 10
376.2417220515999
 20
342.5439645456052
 30
0.0
 40
4.974937185511339
100
AcDbArc
 50
315.000000000004
 51
135.000000000004
  0
ARC
  5
58E
330
1F
100
AcDbEntity
  8
0N
370
    50
100
AcDbCircle
 10
241.8559894542887
 20
208.1582319482403
 30
0.0
 40
4.974937185527712
100
AcDbArc
 50
135.000000000004
 51
315.000000000004
  0
LINE
  5
58F
330
1F
100
AcDbEntity
  8
0N
370
    50
100
AcDbLine
 10
372.7239102317899
 20
459.1316882080593
 30
0.0
 11
238.3381776343849
 21
593.5174208058412
 31
0.0
  0
LINE
  5
590
330
1F
100
AcDbEntity
  8
0N
370
    50
100
AcDbLine
 10
379.7595338715237
 20
466.1673118477709
 30
0.0
 11
245.3738012741287
 21
600.5530444455636
 31
0.0
  0
ARC
  5
591
330
1F
100
AcDbEntity
  8
0N
370
    50
100
AcDbCircle
 10
376.2417220516654
 20
462.6495000279239
 30
0.0
 40
4.974937185511339
100
AcDbArc
 50
224.9999999999269
 51
44.99999999992688
  0
ARC
  5
592
330
1F
100
AcDbEntity
  8
0N
370
    50
100
AcDbCircle
 10
241.8559894544996
 20
597.0352326254345
 30
0.0
 40
4.974937185527712
100
AcDbArc
 50
44.99999999992688
 51
224.9999999999269
  0
LINE
  5
593
330
1F
100
AcDbEntity
  8
0N
370
    50
100
AcDbLine
 10
499.8650693539048
 20
346.0617763654735
 30
0.0
 11
634.2508019514553
 21
211.6760437678375
 31
0.0
  0
LINE
  5
594
330
1F
100
AcDbEntity
  8
0N
370
    50
100
AcDbLine
 10
492.8294457141783
 20
339.0261527257543
 30
0.0
 11
627.2151783117188
 21
204.6404201281074
 31
0.0
  0
ARC
  5
595
330
1F
100
AcDbEntity
  8
0N
370
    50
100
AcDbCircle
 10
496.3472575340329
 20
342.5439645456052
 30
0.0
 40
4.974937185511339
100
AcDbArc
 50
44.99999999999366
 51
224.9999999999936
  0
ARC
  5
596
330
1F
100
AcDbEntity
  8
0N
370
    50
100
AcDbCircle
 10
630.7329901313441
 20
208.1582319482403
 30
0.0
 40
4.974937185527712
100
AcDbArc
 50
224.9999999999936
 51
44.99999999999366
  0
LINE
  5
59F
330
1F
100
AcDbEntity
  8
7A
100
AcDbLine
 10
216.4416760503991
 20
622.449546029239
 30
0.0
 11
235.9416760503991
 21
622.449546029239
 31
0.0
1001
GENIUS_GENOREF_13
1005
5C0
  0
LINE
  5
5A0
330
1F
100
AcDbEntity
  8
7A
100
AcDbLine
 10
216.4416760503991
 20
622.449546029239
 30
0.0
 11
216.4416760503991
 21
641.949546029239
 31
0.0
1001
GENIUS_GENOREF_13
1005
5C0
  0
LINE
  5
5A1
330
1F
100
AcDbEntity
  8
7A
100
AcDbLine
 10
216.4416760503991
 20
622.449546029239
 30
0.0
 11
196.9416760503991
 21
622.449546029239
 31
0.0
1001
GENIUS_GENOREF_13
1005
5C0
  0
LINE
  5
5A2
330
1F
100
AcDbEntity
  8
7A
100
AcDbLine
 10
216.4416760503991
 20
622.449546029239
 30
0.0
 11
216.4416760503991
 21
602.949546029239
 31
0.0
1001
GENIUS_GENOREF_13
1005
5C0
  0
LINE
  5
5A3
330
1F
100
AcDbEntity
  8
7A
100
AcDbLine
 10
656.2046987418507
 20
622.5069412358577
 30
0.0
 11
675.7046987418507
 21
622.5069412358577
 31
0.0
1001
GENIUS_GENOREF_13
1005
5BF
  0
LINE
  5
5A4
330
1F
100
AcDbEntity
  8
7A
100
AcDbLine
 10
656.2046987418507
 20
622.5069412358577
 30
0.0
 11
656.2046987418507
 21
642.0069412358576
 31
0.0
1001
GENIUS_GENOREF_13
1005
5BF
  0
LINE
  5
5A5
330
1F
100
AcDbEntity
  8
7A
100
AcDbLine
 10
656.2046987418507
 20
622.5069412358577
 30
0.0
 11
636.7046987418507
 21
622.5069412358577
 31
0.0
1001
GENIUS_GENOREF_13
1005
5BF
  0
LINE
  5
5A6
330
1F
100
AcDbEntity
  8
7A
100
AcDbLine
 10
656.2046987418507
 20
622.5069412358577
 30
0.0
 11
656.2046987418507
 21
603.0069412358576
 31
0.0
1001
GENIUS_GENOREF_13
1005
5BF
  0
LINE
  5
5A7
330
1F
100
AcDbEntity
  8
7A
100
AcDbLine
 10
656.2046987418543
 20
182.6865233378937
 30
0.0
 11
675.7046987418544
 21
182.6865233378937
 31
0.0
1001
GENIUS_GENOREF_13
1005
5BE
  0
LINE
  5
5A8
330
1F
100
AcDbEntity
  8
7A
100
AcDbLine
 10
656.2046987418543
 20
182.6865233378937
 30
0.0
 11
656.2046987418543
 21
202.1865233378937
 31
0.0
1001
GENIUS_GENOREF_13
1005
5BE
  0
LINE
  5
5A9
330
1F
100
AcDbEntity
  8
7A
100
AcDbLine
 10
656.2046987418543
 20
182.6865233378937
 30
0.0
 11
636.7046987418543
 21
182.6865233378937
 31
0.0
1001
GENIUS_GENOREF_13
1005
5BE
  0
LINE
  5
5AA
330
1F
100
AcDbEntity
  8
7A
100
AcDbLine
 10
656.2046987418543
 20
182.6865233378937
 30
0.0
 11
656.2046987418543
 21
163.1865233378937
 31
0.0
1001
GENIUS_GENOREF_13
1005
5BE
  0
LINE
  5
5AB
330
1F
100
AcDbEntity
  8
7A
100
AcDbLine
 10
216.3842808437821
 20
182.6865233378604
 30
0.0
 11
235.8842808437821
 21
182.6865233378604
 31
0.0
1001
GENIUS_GENOREF_13
1005
5BD
  0
LINE
  5
5AC
330
1F
100
AcDbEntity
  8
7A
100
AcDbLine
 10
216.3842808437821
 20
182.6865233378604
 30
0.0
 11
216.3842808437821
 21
202.1865233378604
 31
0.0
1001
GENIUS_GENOREF_13
1005
5BD
  0
LINE
  5
5AD
330
1F
100
AcDbEntity
  8
7A
100
AcDbLine
 10
216.3842808437821
 20
182.6865233378604
 30
0.0
 11
196.8842808437821
 21
182.6865233378604
 31
0.0
1001
GENIUS_GENOREF_13
1005
5BD
  0
LINE
  5
5AE
330
1F
100
AcDbEntity
  8
7A
100
AcDbLine
 10
216.3842808437821
 20
182.6865233378604
 30
0.0
 11
216.3842808437821
 21
163.1865233378603
 31
0.0
1001
GENIUS_GENOREF_13
1005
5BD
  0
DIMENSION
  5
5AF
330
1F
100
AcDbEntity
  8
5
100
AcDbDimension
  2
*D9
 10
125.7744917764703
 20
622.449546029239
 30
0.0
 11
115.2744917764702
 21
402.5680346835498
 31
0.0
 70
    32
 71
     5
 42
439.7630226913784
  3
GEN-ISO$0
100
AcDbAlignedDimension
 13
216.3842808437821
 23
182.6865233378606
 33
0.0
 14
216.4416760504009
 24
622.449546029239
 34
0.0
 50
90.0
100
AcDbRotatedDimension
1001
ACAD
1000
DSTYLE
1002
{
1070
   140
1040
3.0
1070
    78
1070
    12
1070
   271
1070
     0
1002
}
  0
DIMENSION
  5
5B0
330
1F
100
AcDbEntity
  8
5
100
AcDbDimension
  2
*D10
 10
216.4416760503991
 20
761.4975946987304
 30
0.0
 11
436.3231873961244
 21
771.9975946987305
 31
0.0
 70
    32
 71
     5
 42
439.7630226914507
  3
GEN-ISO$0
100
AcDbAlignedDimension
 13
656.2046987418498
 23
622.5069412358577
 33
0.0
 14
216.4416760503991
 24
622.4495460292413
 34
0.0
100
AcDbRotatedDimension
1001
ACAD
1000
DSTYLE
1002
{
1070
    78
1070
    12
1070
   140
1040
3.0
1070
   271
1070
     0
1002
}
  0
DIMENSION
  5
5B1
330
1F
100
AcDbEntity
  8
5
100
AcDbDimension
  2
*D11
 10
56.94482294129556
 20
167.596732286816
 30
0.0
 11
46.44482294129555
 21
402.5967322868766
 31
0.0
 70
    32
 71
     5
 42
470.0000000001213
  3
GEN-ISO$0
100
AcDbAlignedDimension
 13
208.2944897928101
 23
637.5967322869374
 33
0.0
 14
208.2944897928109
 24
167.596732286816
 34
0.0
 50
90.0
100
AcDbRotatedDimension
1001
ACAD
1000
DSTYLE
1002
{
1070
    78
1070
    12
1070
   140
1040
3.0
1070
   271
1070
     0
1002
}
  0
DIMENSION
  5
5B2
330
1F
100
AcDbEntity
  8
5
100
AcDbDimension
  2
*D12
 10
201.2944897928091
 20
124.5967322868163
 30
0.0
 11
436.2944897927969
 21
135.0967322868163
 31
0.0
 70
    32
 71
     5
 42
469.9999999999754
  3
GEN-ISO$0
100
AcDbAlignedDimension
 13
671.2944897927846
 23
174.5967322869377
 33
0.0
 14
201.2944897928091
 24
174.596732286816
 34
0.0
100
AcDbRotatedDimension
1001
ACAD
1000
DSTYLE
1002
{
1070
    78
1070
    12
1070
   140
1040
3.0
1070
   271
1070
     0
1002
}
  0
LINE
  5
5B9
330
1F
100
AcDbEntity
  8
7A
100
AcDbLine
 10
616.6085765937432
 20
611.1596461630806
 30
0.0
 11
644.857403669067
 21
582.9108190877555
 31
0.0
1001
GENIUS_GENOBJ-N-CEN_13
1002
{
1000
OWNER
1000
GEN
1002
}
1001
GENIUS_GENODEF_13
1002
{
1000
HIER
1070
     0
1002
}
1002
{
1000
MANEDIT
1070
     0
1002
}
1002
{
1000
NOSEL
1070
     0
1002
}
1002
{
1000
BEHIND
1070
     0
1002
}
1002
{
1000
OTHER
1070
     0
1002
}
1002
{
1000
REACTOR
1002
}
1001
GENIUS_GENCEN_19
1002
{
1040
15.0
1002
}
  0
LINE
  5
5BA
330
1F
100
AcDbEntity
  8
7A
100
AcDbLine
 10
227.731575916624
 20
222.2826454858995
 30
0.0
 11
255.9804029919533
 21
194.0338184105802
 31
0.0
1001
GENIUS_GENOBJ-N-CEN_13
1002
{
1000
OWNER
1000
GEN
1002
}
1001
GENIUS_GENODEF_13
1002
{
1000
HIER
1070
     0
1002
}
1002
{
1000
MANEDIT
1070
     0
1002
}
1002
{
1000
NOSEL
1070
     0
1002
}
1002
{
1000
BEHIND
1070
     0
1002
}
1002
{
1000
OTHER
1070
     0
1002
}
1002
{
1000
REACTOR
1002
}
1001
GENIUS_GENCEN_19
1002
{
1040
15.0
1002
}
  0
LINE
  5
5BB
330
1F
100
AcDbEntity
  8
7A
100
AcDbLine
 10
227.731575916624
 20
582.9108190878193
 30
0.0
 11
255.9804029919533
 21
611.1596461631386
 31
0.0
1001
GENIUS_GENOBJ-N-CEN_13
1002
{
1000
OWNER
1000
GEN
1002
}
1001
GENIUS_GENODEF_13
1002
{
1000
HIER
1070
     0
1002
}
1002
{
1000
MANEDIT
1070
     0
1002
}
1002
{
1000
NOSEL
1070
     0
1002
}
1002
{
1000
BEHIND
1070
     0
1002
}
1002
{
1000
OTHER
1070
     0
1002
}
1002
{
1000
REACTOR
1002
}
1001
GENIUS_GENCEN_19
1002
{
1040
15.0
1002
}
  0
LINE
  5
5BC
330
1F
100
AcDbEntity
  8
7A
100
AcDbLine
 10
616.6085765937432
 20
194.0338184106375
 30
0.0
 11
644.857403669067
 21
222.2826454859622
 31
0.0
1001
GENIUS_GENOBJ-N-CEN_13
1002
{
1000
OWNER
1000
GEN
1002
}
1001
GENIUS_GENODEF_13
1002
{
1000
HIER
1070
     0
1002
}
1002
{
1000
MANEDIT
1070
     0
1002
}
1002
{
1000
NOSEL
1070
     0
1002
}
1002
{
1000
BEHIND
1070
     0
1002
}
1002
{
1000
OTHER
1070
     0
1002
}
1002
{
1000
REACTOR
1002
}
1001
GENIUS_GENCEN_19
1002
{
1040
15.0
1002
}
  0
POINT
  5
5BD
330
1F
100
AcDbEntity
  8
0
 60
     1
100
AcDbPoint
 10
5605.3899855903
 20
660.9397835016642
 30
0.0
1001
GENIUS_GENOLIS_13
1002
{
1000
ENT
1005
5AE
1005
5AD
1005
5AC
1005
5AB
1002
}
1001
GENIUS_GENODEF_13
1002
{
1000
HIER
1070
    10
1002
}
1002
{
1000
MANEDIT
1070
     0
1002
}
1002
{
1000
NOSEL
1070
     0
1002
}
1002
{
1000
BEHIND
1070
     0
1002
}
1002
{
1000
OTHER
1070
     0
1002
}
1002
{
1000
REACTOR
1002
}
1001
GENIUS_GENOBJ-N-CRS_13
1002
{
1000
OWNER
1000
GEN
1002
}
1001
GENIUS_GENOENT_13
1002
{
1000
MYREF
1005
5BD
1002
}
1002
{
1000
GRP
1005
0
1002
}
  0
POINT
  5
5BE
330
1F
100
AcDbEntity
  8
0
 60
     1
100
AcDbPoint
 10
5605.3899855903
 20
660.9397835016642
 30
0.0
1001
GENIUS_GENOLIS_13
1002
{
1000
ENT
1005
5AA
1005
5A9
1005
5A8
1005
5A7
1002
}
1001
GENIUS_GENODEF_13
1002
{
1000
HIER
1070
    10
1002
}
1002
{
1000
MANEDIT
1070
     0
1002
}
1002
{
1000
NOSEL
1070
     0
1002
}
1002
{
1000
BEHIND
1070
     0
1002
}
1002
{
1000
OTHER
1070
     0
1002
}
1002
{
1000
REACTOR
1002
}
1001
GENIUS_GENOENT_13
1002
{
1000
MYREF
1005
5BE
1002
}
1002
{
1000
GRP
1005
0
1002
}
1001
GENIUS_GENOBJ-N-CRS_13
1002
{
1000
OWNER
1000
GEN
1002
}
  0
POINT
  5
5BF
330
1F
100
AcDbEntity
  8
0
 60
     1
100
AcDbPoint
 10
5605.3899855903
 20
660.9397835016642
 30
0.0
1001
GENIUS_GENOLIS_13
1002
{
1000
ENT
1005
5A6
1005
5A5
1005
5A4
1005
5A3
1002
}
1001
GENIUS_GENOENT_13
1002
{
1000
MYREF
1005
5BF
1002
}
1002
{
1000
GRP
1005
0
1002
}
1001
GENIUS_GENOBJ-N-CRS_13
1002
{
1000
OWNER
1000
GEN
1002
}
1001
GENIUS_GENODEF_13
1002
{
1000
HIER
1070
    10
1002
}
1002
{
1000
MANEDIT
1070
     0
1002
}
1002
{
1000
NOSEL
1070
     0
1002
}
1002
{
1000
BEHIND
1070
     0
1002
}
1002
{
1000
OTHER
1070
     0
1002
}
1002
{
1000
REACTOR
1002
}
  0
POINT
  5
5C0
330
1F
100
AcDbEntity
  8
0
 60
     1
100
AcDbPoint
 10
5605.3899855903
 20
660.9397835016642
 30
0.0
1001
GENIUS_GENOBJ-N-CRS_13
1002
{
1000
OWNER
1000
GEN
1002
}
1001
GENIUS_GENOLIS_13
1002
{
1000
ENT
1005
5A2
1005
5A1
1005
5A0
1005
59F
1002
}
1001
GENIUS_GENOENT_13
1002
{
1000
MYREF
1005
5C0
1002
}
1002
{
1000
GRP
1005
0
1002
}
1001
GENIUS_GENODEF_13
1002
{
1000
HIER
1070
    10
1002
}
1002
{
1000
MANEDIT
1070
     0
1002
}
1002
{
1000
NOSEL
1070
     0
1002
}
1002
{
1000
BEHIND
1070
     0
1002
}
1002
{
1000
OTHER
1070
     0
1002
}
1002
{
1000
REACTOR
1002
}
  0
POINT
  5
5C1
330
1F
100
AcDbEntity
  8
0
 60
     1
100
AcDbPoint
 10
5605.3899855903
 20
660.9397835016642
 30
0.0
1001
GENIUS_GENODEF_13
1002
{
1000
HIER
1070
    10
1002
}
1002
{
1000
MANEDIT
1070
     0
1002
}
1002
{
1000
NOSEL
1070
     0
1002
}
1002
{
1000
BEHIND
1070
     0
1002
}
1002
{
1000
OTHER
1070
     0
1002
}
1002
{
1000
REACTOR
1002
}
1001
GENIUS_GENOLIS_13
1002
{
1000
ENT
1005
57A
1005
579
1005
578
1005
577
1002
}
1001
GENIUS_GENOENT_13
1002
{
1000
MYREF
1005
5C1
1002
}
1002
{
1000
GRP
1005
0
1002
}
1001
GENIUS_GENOBJ-N-CRS_13
1002
{
1000
OWNER
1000
GEN
1002
}
  0
CIRCLE
  5
6C0
102
{ACAD_REACTORS
330
6D1
102
}
330
1F
100
AcDbEntity
  8
0
100
AcDbCircle
 10
436.2944897928163
 20
402.5967322868594
 30
0.0
 40
38.0
  0
DIMENSION
  5
6C7
102
{ACAD_XDICTIONARY
360
6D0
102
}
102
{ACAD_REACTORS
330
6D1
102
}
330
1F
100
AcDbEntity
  8
5
100
AcDbDimension
  2
*D15
 10
470.3619751165987
 20
419.4314120792967
 30
0.0
 11
359.2334093746771
 21
364.5164747929794
 31
0.0
 70
   163
 71
     5
 42
76.00000000000022
  3
GEN-ISO$3
100
AcDbDiametricDimension
 15
402.2270044690342
 25
385.7620524944226
 35
0.0
 40
0.0
1001
ACAD
1000
DSTYLE
1002
{
1070
    78
1070
    12
1070
   140
1040
3.0
1070
   271
1070
     0
1002
}
  0
LINE
  5
7A9
330
1F
100
AcDbEntity
  8
AM_7
  6
AM_DIN_G_W050x2
100
AcDbLine
 10
381.8808542150863
 20
468.2886321913275
 30
0.0
 11
370.6025898882461
 21
457.0103678645195
 31
0.0
1001
GENIUS_GENODEF_13
1002
{
1000
HIER
1070
     0
1002
}
1002
{
1000
MANEDIT
1070
     0
1002
}
1002
{
1000
NOSEL
1070
     0
1002
}
1002
{
1000
BEHIND
1070
     0
1002
}
1002
{
1000
OTHER
1070
     0
1002
}
1002
{
1000
REACTOR
1002
}
1001
GENIUS_GENOBJ-N-CEN_13
1002
{
1000
OWNER
1000
GEN
1002
}
1001
GENIUS_GENCEN_19
1002
{
1040
3.0
1002
}
  0
LINE
  5
7B6
330
1F
100
AcDbEntity
  8
AM_7
  6
AM_DIN_G_W050x2
100
AcDbLine
 10
490.7081253703718
 20
468.2886321912651
 30
0.0
 11
501.9863896972126
 21
457.0103678644233
 31
0.0
1001
GENIUS_GENOBJ-N-CEN_13
1002
{
1000
OWNER
1000
GEN
1002
}
1001
GENIUS_GENODEF_13
1002
{
1000
HIER
1070
     0
1002
}
1002
{
1000
MANEDIT
1070
     0
1002
}
1002
{
1000
NOSEL
1070
     0
1002
}
1002
{
1000
BEHIND
1070
     0
1002
}
1002
{
1000
OTHER
1070
     0
1002
}
1002
{
1000
REACTOR
1002
}
1001
GENIUS_GENCEN_19
1002
{
1040
3.0
1002
}
  0
LINE
  5
7C3
330
1F
100
AcDbEntity
  8
AM_7
  6
AM_DIN_G_W050x2
100
AcDbLine
 10
501.9863896974655
 20
348.1830967090321
 30
0.0
 11
490.7081253706175
 21
336.9048323821957
 31
0.0
1001
GENIUS_GENODEF_13
1002
{
1000
HIER
1070
     0
1002
}
1002
{
1000
MANEDIT
1070
     0
1002
}
1002
{
1000
NOSEL
1070
     0
1002
}
1002
{
1000
BEHIND
1070
     0
1002
}
1002
{
1000
OTHER
1070
     0
1002
}
1002
{
1000
REACTOR
1002
}
1001
GENIUS_GENOBJ-N-CEN_13
1002
{
1000
OWNER
1000
GEN
1002
}
1001
GENIUS_GENCEN_19
1002
{
1040
3.0
1002
}
  0
LINE
  5
7D0
330
1F
100
AcDbEntity
  8
AM_7
  6
AM_DIN_G_W050x2
100
AcDbLine
 10
370.6025898881877
 20
348.1830967090167
 30
0.0
 11
381.8808542150122
 21
336.9048323821938
 31
0.0
1001
GENIUS_GENOBJ-N-CEN_13
1002
{
1000
OWNER
1000
GEN
1002
}
1001
GENIUS_GENODEF_13
1002
{
1000
HIER
1070
     0
1002
}
1002
{
1000
MANEDIT
1070
     0
1002
}
1002
{
1000
NOSEL
1070
     0
1002
}
1002
{
1000
BEHIND
1070
     0
1002
}
1002
{
1000
OTHER
1070
     0
1002
}
1002
{
1000
REACTOR
1002
}
1001
GENIUS_GENCEN_19
1002
{
1040
3.0
1002
}
  0
LINE
  5
AC3
330
1F
100
AcDbEntity
  8
0
100
AcDbLine
 10
211.5416760504164
 20
960.839442904033
 30
0.0
 11
221.3416760504164
 21
960.839442904033
 31
0.0
  0
LINE
  5
AC4
330
1F
100
AcDbEntity
  8
0
100
AcDbLine
 10
221.3416760504164
 20
960.839442904033
 30
0.0
 11
221.3416760504164
 21
930.839442904033
 31
0.0
  0
LINE
  5
AC5
330
1F
100
AcDbEntity
  8
0
100
AcDbLine
 10
221.3416760504164
 20
930.839442904033
 30
0.0
 11
211.5416760504165
 21
930.8394429040381
 31
0.0
  0
LINE
  5
AC6
330
1F
100
AcDbEntity
  8
0
100
AcDbLine
 10
211.5416760504165
 20
930.8394429040381
 30
0.0
 11
211.5416760504164
 21
960.839442904033
 31
0.0
  0
LINE
  5
B09
330
1F
100
AcDbEntity
  8
0
  6
ACDINTGL
 62
     6
100
AcDbLine
 10
214.4416760504164
 20
951.339442904033
 30
0.0
 11
214.4416760504164
 21
944.839442904033
 31
0.0
  0
LINE
  5
B0A
330
1F
100
AcDbEntity
  8
0
  6
ACDINTGL
 62
     6
100
AcDbLine
 10
214.4416760504164
 20
944.8394429040332
 30
0.0
 11
218.4416760504164
 21
944.8394429040332
 31
0.0
  0
LINE
  5
B0B
330
1F
100
AcDbEntity
  8
0
  6
ACDINTGL
 62
     6
100
AcDbLine
 10
218.4416760504164
 20
944.839442904033
 30
0.0
 11
218.4416760504164
 21
951.339442904033
 31
0.0
  0
LINE
  5
B0C
330
1F
100
AcDbEntity
  8
0
  6
ACDINTGL
 62
     6
100
AcDbLine
 10
213.9416760504164
 20
960.8394429040334
 30
0.0
 11
213.9416760504164
 21
946.6131802726328
 31
0.0
  0
LINE
  5
B0F
330
1F
100
AcDbEntity
  8
0
  6
ACDINTGL
 62
     6
100
AcDbLine
 10
218.9416760504
 20
946.6131802725175
 30
0.0
 11
218.9416760504164
 21
960.839442904033
 31
0.0
  0
LINE
  5
B10
330
1F
100
AcDbEntity
  8
0
  6
ACDINTGL
 62
     6
100
AcDbLine
 10
214.4416760504164
 20
951.339442904033
 30
0.0
 11
218.4416760504164
 21
951.339442904033
 31
0.0
  0
LINE
  5
B11
330
1F
100
AcDbEntity
  8
AM_7
100
AcDbLine
 10
216.441676050418
 20
963.839442904033
 30
0.0
 11
216.4416760503991
 21
927.8394429040355
 31
0.0
1001
GENIUS_GENODEF_13
1002
{
1000
HIER
1070
     0
1002
}
1002
{
1000
MANEDIT
1070
     0
1002
}
1002
{
1000
NOSEL
1070
     0
1002
}
1002
{
1000
BEHIND
1070
     0
1002
}
1002
{
1000
OTHER
1070
     0
1002
}
1002
{
1000
REACTOR
1002
}
1001
GENIUS_GENOBJ-N-CEN_13
1002
{
1000
OWNER
1000
GEN
1002
}
1001
GENIUS_GENCEN_19
1002
{
1040
3.0
1002
}
  0
LINE
  5
B5C
330
1F
100
AcDbEntity
  8
0
100
AcDbLine
 10
216.116676050417
 20
960.839442904033
 30
0.0
 11
216.1166760504085
 21
945.7523034805062
 31
0.0
  0
LINE
  5
B5D
330
1F
100
AcDbEntity
  8
0
100
AcDbLine
 10
216.7666760504079
 20
945.7523034805067
 30
0.0
 11
216.7666760504165
 21
960.839442904033
 31
0.0
  0
ELLIPSE
  5
B66
330
1F
100
AcDbEntity
  8
0
100
AcDbEllipse
 10
216.4416760504083
 20
945.7523034805065
 30
0.0
 11
-0.0000000000006821
 21
-0.9128605764886968
 31
0.0
210
0.0
220
0.0
230
1.0
 40
0.3560236999717144
 41
4.712388980384689
 42
7.853981633974482
  0
LINE
  5
B69
330
1F
100
AcDbEntity
  8
0
100
AcDbLine
 10
216.1166760504117
 20
951.339442904033
 30
0.0
 11
216.7666760504111
 21
951.339442904033
 31
0.0
  0
ARC
  5
B6F
330
1F
100
AcDbEntity
  8
0
  6
ACDINTGL
 62
     6
100
AcDbCircle
 10
222.010703343893
 20
948.2552460202077
 30
0.0
 40
3.480705165328247
100
AcDbArc
 50
208.1487572769999
 51
258.918198557433
  0
ARC
  5
B71
330
1F
100
AcDbEntity
  8
0
  6
ACDINTGL
 62
     6
100
AcDbCircle
 10
210.8726487569647
 20
948.2552460204002
 30
0.0
 40
3.480705165328247
100
AcDbArc
 50
281.0818014405857
 51
331.8512427210179
  0
LWPOLYLINE
  5
DC8
330
1F
100
AcDbEntity
  8
0
100
AcDbPolyline
 90
        2
 70
     0
 43
0.0
 10
236.8810522687609
 20
911.8394429040355
 10
222.2566760503991
 20
911.8394429040355
1001
GENIUS_GENREC_14
1002
{
1000
PYDIR
1011
201.2944897928087
1021
911.8394429040353
1031
0.0
1002
}
1002
{
1000
PXDIR
1011
671.2944897927964
1021
913.3394429040354
1031
0.0
1002
}
1002
{
1000
PORI
1011
201.2944897928087
1021
913.3394429040354
1031
0.0
1002
}
1002
{
1000
PINS
1011
201.2944897928087
1021
913.3394429040354
1031
0.0
1002
}
1002
{
1000
PINS2
1011
671.2944897927964
1021
911.8394429040353
1031
0.0
1002
}
1002
{
1000
C
1070
     1
1002
}
1001
GENIUS_GENODEF_13
1002
{
1000
HIER
1070
     0
1002
}
1002
{
1000
MANEDIT
1070
     0
1002
}
1002
{
1000
NOSEL
1070
     0
1002
}
1002
{
1000
BEHIND
1070
     0
1002
}
1002
{
1000
OTHER
1070
     0
1002
}
1002
{
1000
REACTOR
1002
}
1001
GENIUS_GENOBJ-N-REC_13
1002
{
1000
OWNER
1000
GEN
1002
}
1001
GENIUS_GENOREF_13
1005
E4F
1005
EBD
1005
EC7
  0
LINE
  5
DCE
330
1F
100
AcDbEntity
  8
AM_INV
100
AcDbLine
 10
211.9416760503991
 20
911.8394429040355
 30
0.0
 11
211.9416760503991
 21
913.3394429040354
 31
0.0
1001
GENIUS_GENBH_13
1002
{
1000
OA
1000
0
1070
     6
1000
ByLayer
1005
10
1005
15
1071
       -1
1002
}
1001
GENIUS_GENOREF_13
1005
E4F
1005
EBD
1005
EC7
  0
LINE
  5
DCF
330
1F
100
AcDbEntity
  8
AM_INV
100
AcDbLine
 10
220.9416760503991
 20
913.3394429040354
 30
0.0
 11
220.9416760503991
 21
911.8394429040355
 31
0.0
1001
GENIUS_GENBH_13
1002
{
1000
OA
1000
0
1070
     6
1000
ByLayer
1005
10
1005
15
1071
       -1
1002
}
1001
GENIUS_GENOREF_13
1005
E4F
1005
EBD
1005
EC7
  0
LINE
  5
DD0
330
1F
100
AcDbEntity
  8
0
 62
     6
100
AcDbLine
 10
651.7046987418507
 20
913.3394429040354
 30
0.0
 11
651.7046987418507
 21
911.8394429040353
 31
0.0
  0
LINE
  5
DD1
330
1F
100
AcDbEntity
  8
0
 62
     6
100
AcDbLine
 10
660.7046987418507
 20
913.3394429040354
 30
0.0
 11
660.7046987418507
 21
911.8394429040353
 31
0.0
  0
LINE
  5
DD8
330
1F
100
AcDbEntity
  8
0
100
AcDbLine
 10
628.4705235517733
 20
907.8394429040354
 30
0.0
 11
498.6097241134495
 21
907.8394429040354
 31
0.0
  0
LINE
  5
DDB
330
1F
100
AcDbEntity
  8
0
100
AcDbLine
 10
244.1184560339213
 20
907.8394429040354
 30
0.0
 11
373.9792554719431
 21
907.8394429040354
 31
0.0
  0
SPLINE
  5
DE0
330
1F
100
AcDbEntity
  8
0
100
AcDbSpline
210
0.0
220
0.0
230
1.0
 70
     8
 71
     3
 72
    10
 73
     6
 74
     4
 42
0.0000000001
 43
0.0000000001
 44
0.0000000001
 40
0.0
 40
0.0
 40
0.0
 40
0.0
 40
3.445310566743195
 40
6.091869433206539
 40
8.394001057816481
 40
8.394001057816481
 40
8.394001057816481
 40
8.394001057816481
 10
635.7079273169327
 20
911.8394429040353
 30
0.0
 10
634.8607372534942
 20
911.056569230816
 30
0.0
 10
633.3627674328936
 20
909.6723212486503
 30
0.0
 10
630.8231481224727
 20
908.407895047288
 30
0.0
 10
629.2174804262669
 20
908.0199261147916
 30
0.0
 10
628.4705235517731
 20
907.8394429040354
 30
0.0
 11
635.7079273169327
 21
911.8394429040353
 31
0.0
 11
633.0559631450914
 21
909.6400677808283
 31
0.0
 11
630.687928068437
 21
908.4582540436471
 31
0.0
 11
628.4705235517731
 21
907.8394429040354
 31
0.0
  0
SPLINE
  5
DE1
330
1F
100
AcDbEntity
  8
0
100
AcDbSpline
210
0.0
220
0.0
230
1.0
 70
     8
 71
     3
 72
    10
 73
     6
 74
     4
 42
0.0000000001
 43
0.0000000001
 44
0.0000000001
 40
0.0
 40
0.0
 40
0.0
 40
0.0
 40
3.445310566743195
 40
6.091869433206539
 40
8.394001057816481
 40
8.394001057816481
 40
8.394001057816481
 40
8.394001057816481
 10
381.2166592371113
 20
911.8394429040376
 30
0.0
 10
380.3694691736727
 20
911.0565692308181
 30
0.0
 10
378.8714993530721
 20
909.6723212486525
 30
0.0
 10
376.3318800426512
 20
908.4078950472902
 30
0.0
 10
374.7262123464455
 20
908.0199261147937
 30
0.0
 10
373.9792554719516
 20
907.8394429040375
 30
0.0
 11
381.2166592371113
 21
911.8394429040376
 31
0.0
 11
378.56469506527
 21
909.6400677808304
 31
0.0
 11
376.1966599886155
 21
908.4582540436494
 31
0.0
 11
373.9792554719516
 21
907.8394429040375
 31
0.0
  0
SPLINE
  5
DE2
330
1F
100
AcDbEntity
  8
0
100
AcDbSpline
210
0.0
220
0.0
230
1.0
 70
     8
 71
     3
 72
    10
 73
     6
 74
     4
 42
0.0000000001
 43
0.0000000001
 44
0.0000000001
 40
0.0
 40
0.0
 40
0.0
 40
0.0
 40
3.445310566743195
 40
6.091869433206539
 40
8.394001057816481
 40
8.394001057816481
 40
8.394001057816481
 40
8.394001057816481
 10
236.8810522687609
 20
911.8394429040355
 30
0.0
 10
237.7282423321994
 20
911.056569230816
 30
0.0
 10
239.2262121528
 20
909.6723212486507
 30
0.0
 10
241.765831463221
 20
908.4078950472882
 30
0.0
 10
243.3714991594267
 20
908.0199261147916
 30
0.0
 10
244.1184560339206
 20
907.8394429040356
 30
0.0
 11
236.8810522687609
 21
911.8394429040355
 31
0.0
 11
239.5330164406022
 21
909.6400677808285
 31
0.0
 11
241.9010515172567
 21
908.4582540436473
 31
0.0
 11
244.1184560339206
 21
907.8394429040356
 31
0.0
  0
SPLINE
  5
DE3
330
1F
100
AcDbEntity
  8
0
100
AcDbSpline
210
0.0
220
0.0
230
1.0
 70
     8
 71
     3
 72
    10
 73
     6
 74
     4
 42
0.0000000001
 43
0.0000000001
 44
0.0000000001
 40
0.0
 40
0.0
 40
0.0
 40
0.0
 40
3.445310566743195
 40
6.091869433206539
 40
8.394001057816481
 40
8.394001057816481
 40
8.394001057816481
 40
8.394001057816481
 10
491.3723203482896
 20
911.8394429040353
 30
0.0
 10
492.2195104117282
 20
911.056569230816
 30
0.0
 10
493.7174802323288
 20
909.6723212486505
 30
0.0
 10
496.2570995427499
 20
908.407895047288
 30
0.0
 10
497.8627672389555
 20
908.0199261147914
 30
0.0
 10
498.6097241134493
 20
907.8394429040354
 30
0.0
 11
491.3723203482896
 21
911.8394429040353
 31
0.0
 11
494.0242845201309
 21
909.6400677808283
 31
0.0
 11
496.3923195967853
 21
908.4582540436471
 31
0.0
 11
498.6097241134493
 21
907.8394429040354
 31
0.0
  0
LINE
  5
DE5
330
1F
100
AcDbEntity
  8
0
  6
AM_ISO02W050
 62
     6
100
AcDbLine
 10
244.2972962143659
 20
909.3394429040355
 30
0.0
 11
373.8004152914967
 21
909.3394429040355
 31
0.0
  0
LINE
  5
DE8
330
1F
100
AcDbEntity
  8
0
  6
AM_ISO02W050
 62
     6
100
AcDbLine
 10
628.2916833713279
 20
909.3394429040355
 30
0.0
 11
498.788564293894
 21
909.3394429040355
 31
0.0
  0
LWPOLYLINE
  5
DEC
330
1F
100
AcDbEntity
  8
0
100
AcDbPolyline
 90
        2
 70
     0
 43
0.0
 10
491.3723203482895
 20
911.8394429040355
 10
381.2166592371091
 20
911.8394429040355
1001
GENIUS_GENREC_14
1002
{
1000
PYDIR
1011
201.2944897928087
1021
911.8394429040353
1031
0.0
1002
}
1002
{
1000
PXDIR
1011
671.2944897927964
1021
913.3394429040354
1031
0.0
1002
}
1002
{
1000
PORI
1011
201.2944897928087
1021
913.3394429040354
1031
0.0
1002
}
1002
{
1000
PINS
1011
201.2944897928087
1021
913.3394429040354
1031
0.0
1002
}
1002
{
1000
PINS2
1011
671.2944897927964
1021
911.8394429040353
1031
0.0
1002
}
1002
{
1000
C
1070
     1
1002
}
1001
GENIUS_GENODEF_13
1002
{
1000
HIER
1070
     0
1002
}
1002
{
1000
MANEDIT
1070
     0
1002
}
1002
{
1000
NOSEL
1070
     0
1002
}
1002
{
1000
BEHIND
1070
     0
1002
}
1002
{
1000
OTHER
1070
     0
1002
}
1002
{
1000
REACTOR
1002
}
1001
GENIUS_GENOBJ-N-REC_13
1002
{
1000
OWNER
1000
GEN
1002
}
  0
SPLINE
  5
DEE
330
1F
100
AcDbEntity
  8
0
  6
AM_ISO02W050
 62
     6
100
AcDbSpline
210
0.0
220
0.0
230
1.0
 70
     8
 71
     3
 72
    20
 73
    16
 74
     0
 42
0.0000000001
 43
0.0000000001
 40
0.0
 40
0.0
 40
0.0
 40
0.0
 40
0.9712618007012329
 40
0.9712618007012329
 40
2.913785402103698
 40
2.913785402103698
 40
4.030791994378552
 40
4.030791994378552
 40
5.147798586653406
 40
5.147798586653406
 40
6.240644161342026
 40
6.240644161342026
 40
7.333489736030646
 40
7.333489736030646
 40
8.214834674727796
 40
8.214834674727796
 40
8.214834674727796
 40
8.214834674727796
 10
492.011867563318
 20
913.3394429040354
 30
0.0
 10
492.6291685541218
 20
912.7203970535928
 30
0.0
 10
492.8633629239073
 20
912.5040375371177
 30
0.0
 10
493.5588591698243
 20
911.8775662157771
 30
0.0
 10
494.0131841098893
 20
911.4906382009534
 30
0.0
 10
494.7374325889287
 20
910.9619084076497
 30
0.0
 10
495.0026627783542
 20
910.7868712664973
 30
0.0
 10
495.5577000831214
 20
910.4615391810423
 30
0.0
 10
495.844737803669
 20
910.3125045188425
 30
0.0
 10
496.425870932062
 20
910.0472486690659
 30
0.0
 10
496.7171835017127
 20
909.9313654258216
 30
0.0
 10
497.318418817707
 20
909.7259653717426
 30
0.0
 10
497.6344906200007
 20
909.6338183223565
 30
0.0
 10
498.2305868416949
 20
909.4756308159938
 30
0.0
 10
498.5057001660582
 20
909.408000222028
 30
0.0
 10
498.788564293894
 20
909.3394429040355
 30
0.0
  0
SPLINE
  5
DF0
330
1F
100
AcDbEntity
  8
0
  6
AM_ISO02W050
 62
     6
100
AcDbSpline
210
0.0
220
0.0
230
1.0
 70
     8
 71
     3
 72
    20
 73
    16
 74
     0
 42
0.0000000001
 43
0.0000000001
 40
0.0
 40
0.0
 40
0.0
 40
0.0
 40
0.9712618007012329
 40
0.9712618007012329
 40
2.913785402103698
 40
2.913785402103698
 40
4.030791994378552
 40
4.030791994378552
 40
5.147798586653406
 40
5.147798586653406
 40
6.240644161342026
 40
6.240644161342026
 40
7.333489736030646
 40
7.333489736030646
 40
8.214834674727796
 40
8.214834674727796
 40
8.214834674727796
 40
8.214834674727796
 10
237.5205994837899
 20
913.3394429040354
 30
0.0
 10
238.1379004745938
 20
912.7203970535928
 30
0.0
 10
238.3720948443793
 20
912.5040375371177
 30
0.0
 10
239.0675910902962
 20
911.8775662157771
 30
0.0
 10
239.5219160303613
 20
911.4906382009534
 30
0.0
 10
240.2461645094006
 20
910.9619084076497
 30
0.0
 10
240.5113946988262
 20
910.7868712664973
 30
0.0
 10
241.0664320035933
 20
910.4615391810423
 30
0.0
 10
241.3534697241409
 20
910.3125045188425
 30
0.0
 10
241.9346028525339
 20
910.0472486690659
 30
0.0
 10
242.2259154221847
 20
909.9313654258216
 30
0.0
 10
242.8271507381789
 20
909.7259653717426
 30
0.0
 10
243.1432225404726
 20
909.6338183223565
 30
0.0
 10
243.7393187621668
 20
909.4756308159938
 30
0.0
 10
244.0144320865301
 20
909.408000222028
 30
0.0
 10
244.2972962143659
 20
909.3394429040355
 30
0.0
  0
SPLINE
  5
DF2
330
1F
100
AcDbEntity
  8
0
  6
AM_ISO02W050
 62
     6
100
AcDbSpline
210
0.0
220
0.0
230
1.0
 70
     8
 71
     3
 72
    20
 73
    16
 74
     0
 42
0.0000000001
 43
0.0000000001
 40
0.0
 40
0.0
 40
0.0
 40
0.0
 40
0.9712618007012329
 40
0.9712618007012329
 40
2.913785402103698
 40
2.913785402103698
 40
4.030791994378552
 40
4.030791994378552
 40
5.147798586653406
 40
5.147798586653406
 40
6.240644161342026
 40
6.240644161342026
 40
7.333489736030646
 40
7.333489736030646
 40
8.214834674727796
 40
8.214834674727796
 40
8.214834674727796
 40
8.214834674727796
 10
635.0683801019039
 20
913.3394429040354
 30
0.0
 10
634.4510791111
 20
912.7203970535928
 30
0.0
 10
634.2168847413145
 20
912.5040375371177
 30
0.0
 10
633.5213884953975
 20
911.8775662157771
 30
0.0
 10
633.0670635553325
 20
911.4906382009534
 30
0.0
 10
632.3428150762931
 20
910.9619084076497
 30
0.0
 10
632.0775848868676
 20
910.7868712664973
 30
0.0
 10
631.5225475821005
 20
910.4615391810423
 30
0.0
 10
631.2355098615528
 20
910.3125045188425
 30
0.0
 10
630.65437673316
 20
910.0472486690659
 30
0.0
 10
630.363064163509
 20
909.9313654258216
 30
0.0
 10
629.7618288475148
 20
909.7259653717426
 30
0.0
 10
629.4457570452212
 20
909.6338183223565
 30
0.0
 10
628.849660823527
 20
909.4756308159938
 30
0.0
 10
628.5745474991637
 20
909.408000222028
 30
0.0
 10
628.2916833713279
 20
909.3394429040355
 30
0.0
  0
SPLINE
  5
DF3
330
1F
100
AcDbEntity
  8
0
  6
AM_ISO02W050
 62
     6
100
AcDbSpline
210
0.0
220
0.0
230
1.0
 70
     8
 71
     3
 72
    20
 73
    16
 74
     0
 42
0.0000000001
 43
0.0000000001
 40
0.0
 40
0.0
 40
0.0
 40
0.0
 40
0.9712618007012329
 40
0.9712618007012329
 40
2.913785402103698
 40
2.913785402103698
 40
4.030791994378552
 40
4.030791994378552
 40
5.147798586653406
 40
5.147798586653406
 40
6.240644161342026
 40
6.240644161342026
 40
7.333489736030646
 40
7.333489736030646
 40
8.214834674727796
 40
8.214834674727796
 40
8.214834674727796
 40
8.214834674727796
 10
380.5771120220727
 20
913.3394429040354
 30
0.0
 10
379.9598110312688
 20
912.7203970535928
 30
0.0
 10
379.7256166614833
 20
912.5040375371177
 30
0.0
 10
379.0301204155664
 20
911.8775662157771
 30
0.0
 10
378.5757954755013
 20
911.4906382009534
 30
0.0
 10
377.851546996462
 20
910.9619084076497
 30
0.0
 10
377.5863168070364
 20
910.7868712664973
 30
0.0
 10
377.0312795022693
 20
910.4615391810423
 30
0.0
 10
376.7442417817217
 20
910.3125045188425
 30
0.0
 10
376.1631086533287
 20
910.0472486690659
 30
0.0
 10
375.8717960836779
 20
909.9313654258216
 30
0.0
 10
375.2705607676837
 20
909.7259653717426
 30
0.0
 10
374.95448896539
 20
909.6338183223565
 30
0.0
 10
374.3583927436958
 20
909.4756308159938
 30
0.0
 10
374.0832794193325
 20
909.408000222028
 30
0.0
 10
373.8004152914967
 20
909.3394429040355
 30
0.0
  0
LWPOLYLINE
  5
E46
330
1F
100
AcDbEntity
  8
AM_INV
100
AcDbPolyline
 90
        2
 70
     0
 43
0.0
 10
222.2566760503991
 20
911.8394429040355
 10
210.6266760503991
 20
911.8394429040355
1001
GENIUS_GENREC_14
1002
{
1000
PYDIR
1011
201.2944897928087
1021
911.8394429040353
1031
0.0
1002
}
1002
{
1000
PXDIR
1011
671.2944897927964
1021
913.3394429040354
1031
0.0
1002
}
1002
{
1000
PORI
1011
201.2944897928087
1021
913.3394429040354
1031
0.0
1002
}
1002
{
1000
PINS
1011
201.2944897928087
1021
913.3394429040354
1031
0.0
1002
}
1002
{
1000
PINS2
1011
671.2944897927964
1021
911.8394429040353
1031
0.0
1002
}
1002
{
1000
C
1070
     1
1002
}
1001
GENIUS_GENODEF_13
1002
{
1000
HIER
1070
     0
1002
}
1002
{
1000
MANEDIT
1070
     0
1002
}
1002
{
1000
NOSEL
1070
     0
1002
}
1002
{
1000
BEHIND
1070
     0
1002
}
1002
{
1000
OTHER
1070
     0
1002
}
1002
{
1000
REACTOR
1002
}
1001
GENIUS_GENOBJ-N-REC_13
1002
{
1000
OWNER
1000
GEN
1002
}
1001
GENIUS_GENBH_13
1002
{
1000
OA
1000
0
1070
   256
1000
ByLayer
1005
10
1005
15
1071
       -1
1002
}
1001
GENIUS_GENOREF_13
1005
E4F
1005
EBD
1005
EC7
  0
LWPOLYLINE
  5
E47
330
1F
100
AcDbEntity
  8
0
100
AcDbPolyline
 90
        4
 70
     0
 43
0.0
 10
210.6266760503991
 20
911.8394429040355
 10
201.2944897928087
 20
911.8394429040355
 10
201.2944897928087
 20
913.3394429040354
 10
208.9341760503991
 20
913.3394429040354
1001
GENIUS_GENREC_14
1002
{
1000
PYDIR
1011
201.2944897928087
1021
911.8394429040353
1031
0.0
1002
}
1002
{
1000
PXDIR
1011
671.2944897927964
1021
913.3394429040354
1031
0.0
1002
}
1002
{
1000
PORI
1011
201.2944897928087
1021
913.3394429040354
1031
0.0
1002
}
1002
{
1000
PINS
1011
201.2944897928087
1021
913.3394429040354
1031
0.0
1002
}
1002
{
1000
PINS2
1011
671.2944897927964
1021
911.8394429040353
1031
0.0
1002
}
1002
{
1000
C
1070
     1
1002
}
1001
GENIUS_GENODEF_13
1002
{
1000
HIER
1070
     0
1002
}
1002
{
1000
MANEDIT
1070
     0
1002
}
1002
{
1000
NOSEL
1070
     0
1002
}
1002
{
1000
BEHIND
1070
     0
1002
}
1002
{
1000
OTHER
1070
     0
1002
}
1002
{
1000
REACTOR
1002
}
1001
GENIUS_GENOBJ-N-REC_13
1002
{
1000
OWNER
1000
GEN
1002
}
1001
GENIUS_GENOREF_13
1005
E4F
1005
EBD
1005
EC7
  0
LWPOLYLINE
  5
E48
330
1F
100
AcDbEntity
  8
AM_INV
100
AcDbPolyline
 90
        2
 70
     0
 43
0.0
 10
209.9416760503991
 20
913.3394429040354
 10
222.9416760503991
 20
913.3394429040354
1001
GENIUS_GENREC_14
1002
{
1000
PYDIR
1011
201.2944897928087
1021
911.8394429040353
1031
0.0
1002
}
1002
{
1000
PXDIR
1011
671.2944897927964
1021
913.3394429040354
1031
0.0
1002
}
1002
{
1000
PORI
1011
201.2944897928087
1021
913.3394429040354
1031
0.0
1002
}
1002
{
1000
PINS
1011
201.2944897928087
1021
913.3394429040354
1031
0.0
1002
}
1002
{
1000
PINS2
1011
671.2944897927964
1021
911.8394429040353
1031
0.0
1002
}
1002
{
1000
C
1070
     1
1002
}
1001
GENIUS_GENODEF_13
1002
{
1000
HIER
1070
     0
1002
}
1002
{
1000
MANEDIT
1070
     0
1002
}
1002
{
1000
NOSEL
1070
     0
1002
}
1002
{
1000
BEHIND
1070
     0
1002
}
1002
{
1000
OTHER
1070
     0
1002
}
1002
{
1000
REACTOR
1002
}
1001
GENIUS_GENOBJ-N-REC_13
1002
{
1000
OWNER
1000
GEN
1002
}
1001
GENIUS_GENBH_13
1002
{
1000
OA
1000
0
1070
   256
1000
ByLayer
1005
10
1005
15
1071
       -1
1002
}
1001
GENIUS_GENOREF_13
1005
E4F
1005
EBD
1005
EC7
  0
LWPOLYLINE
  5
E49
330
1F
100
AcDbEntity
  8
0
100
AcDbPolyline
 90
        2
 70
     0
 43
0.0
 10
201.2944897928087
 20
913.3394429040354
 10
212.4416760503992
 20
913.3394429040354
1001
GENIUS_GENREC_14
1002
{
1000
PYDIR
1011
201.2944897928087
1021
911.8394429040353
1031
0.0
1002
}
1002
{
1000
PXDIR
1011
671.2944897927964
1021
913.3394429040354
1031
0.0
1002
}
1002
{
1000
PORI
1011
201.2944897928087
1021
913.3394429040354
1031
0.0
1002
}
1002
{
1000
PINS
1011
201.2944897928087
1021
913.3394429040354
1031
0.0
1002
}
1002
{
1000
PINS2
1011
671.2944897927964
1021
911.8394429040353
1031
0.0
1002
}
1002
{
1000
C
1070
     1
1002
}
1001
GENIUS_GENODEF_13
1002
{
1000
HIER
1070
     0
1002
}
1002
{
1000
MANEDIT
1070
     0
1002
}
1002
{
1000
NOSEL
1070
     0
1002
}
1002
{
1000
BEHIND
1070
     0
1002
}
1002
{
1000
OTHER
1070
     0
1002
}
1002
{
1000
REACTOR
1002
}
1001
GENIUS_GENOBJ-N-REC_13
1002
{
1000
OWNER
1000
GEN
1002
}
1001
GENIUS_GENOREF_13
1005
E4F
1005
EBD
1005
EC7
  0
POINT
  5
E4F
330
1F
100
AcDbEntity
  8
0
 60
     1
100
AcDbPoint
 10
0.0
 20
0.0
 30
0.0
1001
GENIUS_GENOENT_13
1002
{
1000
MYREF
1005
E4F
1002
}
1002
{
1000
GRP
1005
0
1002
}
1001
GENIUS_GENOLIS_13
1002
{
1000
ENT
1005
EBB
1005
EBA
1005
EB9
1005
EB8
1005
EB7
1005
E49
1005
E48
1005
E47
1005
E46
1005
DC8
1005
DCE
1005
DCF
1002
}
1001
GENIUS_GENODEF_13
1002
{
1000
HIER
1070
     1
1002
}
1002
{
1000
MANEDIT
1070
     0
1002
}
1002
{
1000
NOSEL
1070
     1
1002
}
1002
{
1000
BEHIND
1070
     1
1002
}
1002
{
1000
OTHER
1070
     1
1002
}
1002
{
1000
REACTOR
1002
}
1001
GENIUS_GENOBJ-NBEHI-BHB_13
1002
{
1000
OWNER
1000
genbehi
1002
}
1001
GENIUS_GENBH_13
1002
{
1000
FGO
1005
E4D
1002
}
  0
LINE
  5
E9F
330
1F
100
AcDbEntity
  8
AM_7
  6
AM_DIN_G_W050x2
100
AcDbLine
 10
436.2944897926992
 20
908.8394429040356
 30
0.0
 11
436.2944897926992
 21
916.3394429040353
 31
0.0
1001
GENIUS_GENODEF_13
1002
{
1000
HIER
1070
     0
1002
}
1002
{
1000
MANEDIT
1070
     0
1002
}
1002
{
1000
NOSEL
1070
     0
1002
}
1002
{
1000
BEHIND
1070
     0
1002
}
1002
{
1000
OTHER
1070
     0
1002
}
1002
{
1000
REACTOR
1002
}
1001
GENIUS_GENOBJ-N-CEN_13
1002
{
1000
OWNER
1000
GEN
1002
}
1001
GENIUS_GENCEN_19
1002
{
1040
3.0
1002
}
  0
LWPOLYLINE
  5
EB7
330
1F
100
AcDbEntity
  8
AM_INV
100
AcDbPolyline
 90
        2
 70
     0
 43
0.0
 10
208.9341760503991
 20
913.3394429040354
 10
223.9491760503991
 20
913.3394429040354
1001
GENIUS_GENREC_14
1002
{
1000
PYDIR
1011
201.2944897928087
1021
911.8394429040353
1031
0.0
1002
}
1002
{
1000
PXDIR
1011
671.2944897927964
1021
913.3394429040354
1031
0.0
1002
}
1002
{
1000
PORI
1011
201.2944897928087
1021
913.3394429040354
1031
0.0
1002
}
1002
{
1000
PINS
1011
201.2944897928087
1021
913.3394429040354
1031
0.0
1002
}
1002
{
1000
PINS2
1011
671.2944897927964
1021
911.8394429040353
1031
0.0
1002
}
1002
{
1000
C
1070
     1
1002
}
1001
GENIUS_GENODEF_13
1002
{
1000
HIER
1070
     0
1002
}
1002
{
1000
MANEDIT
1070
     0
1002
}
1002
{
1000
NOSEL
1070
     0
1002
}
1002
{
1000
BEHIND
1070
     0
1002
}
1002
{
1000
OTHER
1070
     0
1002
}
1002
{
1000
REACTOR
1002
}
1001
GENIUS_GENOBJ-N-REC_13
1002
{
1000
OWNER
1000
GEN
1002
}
1001
GENIUS_GENBH_13
1002
{
1000
OA
1000
0
1070
   256
1000
ByLayer
1005
10
1005
15
1071
       -1
1002
}
1001
GENIUS_GENOREF_13
1005
E4F
1005
EBD
1005
EC7
  0
LWPOLYLINE
  5
EB8
330
1F
100
AcDbEntity
  8
0
100
AcDbPolyline
 90
        4
 70
     0
 43
0.0
 10
220.4416760503991
 20
913.3394429040354
 10
671.2944897927964
 20
913.3394429040354
 10
671.2944897927964
 20
911.8394429040353
 10
635.7079273169329
 20
911.8394429040353
1001
GENIUS_GENREC_14
1002
{
1000
PYDIR
1011
201.2944897928087
1021
911.8394429040353
1031
0.0
1002
}
1002
{
1000
PXDIR
1011
671.2944897927964
1021
913.3394429040354
1031
0.0
1002
}
1002
{
1000
PORI
1011
201.2944897928087
1021
913.3394429040354
1031
0.0
1002
}
1002
{
1000
PINS
1011
201.2944897928087
1021
913.3394429040354
1031
0.0
1002
}
1002
{
1000
PINS2
1011
671.2944897927964
1021
911.8394429040353
1031
0.0
1002
}
1002
{
1000
C
1070
     1
1002
}
1001
GENIUS_GENODEF_13
1002
{
1000
HIER
1070
     0
1002
}
1002
{
1000
MANEDIT
1070
     0
1002
}
1002
{
1000
NOSEL
1070
     0
1002
}
1002
{
1000
BEHIND
1070
     0
1002
}
1002
{
1000
OTHER
1070
     0
1002
}
1002
{
1000
REACTOR
1002
}
1001
GENIUS_GENOBJ-N-REC_13
1002
{
1000
OWNER
1000
GEN
1002
}
1001
GENIUS_GENOREF_13
1005
E4F
1005
EBD
1005
EC7
  0
LWPOLYLINE
  5
EB9
330
1F
100
AcDbEntity
  8
AM_INV
100
AcDbPolyline
 90
        2
 70
     0
 43
0.0
 10
208.9341760503991
 20
913.3394429040354
 10
212.4416760503992
 20
913.3394429040354
1001
GENIUS_GENREC_14
1002
{
1000
PYDIR
1011
201.2944897928087
1021
911.8394429040353
1031
0.0
1002
}
1002
{
1000
PXDIR
1011
671.2944897927964
1021
913.3394429040354
1031
0.0
1002
}
1002
{
1000
PORI
1011
201.2944897928087
1021
913.3394429040354
1031
0.0
1002
}
1002
{
1000
PINS
1011
201.2944897928087
1021
913.3394429040354
1031
0.0
1002
}
1002
{
1000
PINS2
1011
671.2944897927964
1021
911.8394429040353
1031
0.0
1002
}
1002
{
1000
C
1070
     1
1002
}
1001
GENIUS_GENODEF_13
1002
{
1000
HIER
1070
     0
1002
}
1002
{
1000
MANEDIT
1070
     0
1002
}
1002
{
1000
NOSEL
1070
     0
1002
}
1002
{
1000
BEHIND
1070
     0
1002
}
1002
{
1000
OTHER
1070
     0
1002
}
1002
{
1000
REACTOR
1002
}
1001
GENIUS_GENOBJ-N-REC_13
1002
{
1000
OWNER
1000
GEN
1002
}
1001
GENIUS_GENBH_13
1002
{
1000
OA
1000
0
1070
   256
1000
ByLayer
1005
10
1005
15
1071
       -1
1002
}
1001
GENIUS_GENOREF_13
1005
E4F
1005
EBD
1005
EC7
  0
LWPOLYLINE
  5
EBA
330
1F
100
AcDbEntity
  8
AM_INV
100
AcDbPolyline
 90
        2
 70
     0
 43
0.0
 10
222.2566760503991
 20
911.8394429040355
 10
210.6266760503991
 20
911.8394429040355
1001
GENIUS_GENREC_14
1002
{
1000
PYDIR
1011
201.2944897928087
1021
911.8394429040353
1031
0.0
1002
}
1002
{
1000
PXDIR
1011
671.2944897927964
1021
913.3394429040354
1031
0.0
1002
}
1002
{
1000
PORI
1011
201.2944897928087
1021
913.3394429040354
1031
0.0
1002
}
1002
{
1000
PINS
1011
201.2944897928087
1021
913.3394429040354
1031
0.0
1002
}
1002
{
1000
PINS2
1011
671.2944897927964
1021
911.8394429040353
1031
0.0
1002
}
1002
{
1000
C
1070
     1
1002
}
1001
GENIUS_GENODEF_13
1002
{
1000
HIER
1070
     0
1002
}
1002
{
1000
MANEDIT
1070
     0
1002
}
1002
{
1000
NOSEL
1070
     0
1002
}
1002
{
1000
BEHIND
1070
     0
1002
}
1002
{
1000
OTHER
1070
     0
1002
}
1002
{
1000
REACTOR
1002
}
1001
GENIUS_GENOBJ-N-REC_13
1002
{
1000
OWNER
1000
GEN
1002
}
1001
GENIUS_GENBH_13
1002
{
1000
OA
1000
0
1070
   256
1000
ByLayer
1005
10
1005
15
1071
       -1
1002
}
1001
GENIUS_GENOREF_13
1005
E4F
1005
EBD
1005
EC7
  0
LWPOLYLINE
  5
EBB
330
1F
100
AcDbEntity
  8
0
100
AcDbPolyline
 90
        2
 70
     0
 43
0.0
 10
210.6266760503991
 20
911.8394429040355
 10
201.2944897928087
 20
911.8394429040355
1001
GENIUS_GENREC_14
1002
{
1000
PYDIR
1011
201.2944897928087
1021
911.8394429040353
1031
0.0
1002
}
1002
{
1000
PXDIR
1011
671.2944897927964
1021
913.3394429040354
1031
0.0
1002
}
1002
{
1000
PORI
1011
201.2944897928087
1021
913.3394429040354
1031
0.0
1002
}
1002
{
1000
PINS
1011
201.2944897928087
1021
913.3394429040354
1031
0.0
1002
}
1002
{
1000
PINS2
1011
671.2944897927964
1021
911.8394429040353
1031
0.0
1002
}
1002
{
1000
C
1070
     1
1002
}
1001
GENIUS_GENODEF_13
1002
{
1000
HIER
1070
     0
1002
}
1002
{
1000
MANEDIT
1070
     0
1002
}
1002
{
1000
NOSEL
1070
     0
1002
}
1002
{
1000
BEHIND
1070
     0
1002
}
1002
{
1000
OTHER
1070
     0
1002
}
1002
{
1000
REACTOR
1002
}
1001
GENIUS_GENOBJ-N-REC_13
1002
{
1000
OWNER
1000
GEN
1002
}
1001
GENIUS_GENOREF_13
1005
E4F
1005
EBD
1005
EC7
  0
POINT
  5
EBD
330
1F
100
AcDbEntity
  8
0
 60
     1
100
AcDbPoint
 10
0.0
 20
0.0
 30
0.0
1001
GENIUS_GENOLIS_13
1002
{
1000
ENT
1005
EBB
1005
EBA
1005
EB9
1005
EB8
1005
EB7
1005
DC8
1005
DCE
1005
DCF
1005
E46
1005
E47
1005
E48
1005
E49
1002
}
1001
GENIUS_GENOBJ-NBEHI-BHB_13
1002
{
1000
OWNER
1000
genbehi
1002
}
1001
GENIUS_GENODEF_13
1002
{
1000
HIER
1070
     1
1002
}
1002
{
1000
MANEDIT
1070
     0
1002
}
1002
{
1000
NOSEL
1070
     1
1002
}
1002
{
1000
BEHIND
1070
     0
1002
}
1002
{
1000
OTHER
1070
     1
1002
}
1002
{
1000
REACTOR
1002
}
1001
GENIUS_GENOENT_13
1002
{
1000
MYREF
1005
EBD
1002
}
1002
{
1000
GRP
1005
0
1002
}
1001
GENIUS_GENBH_13
1002
{
1000
FGO
1005
EBC
1002
}
  0
INSERT
  5
EC5
330
1F
100
AcDbEntity
  8
AM_0N
100
AcDbBlockReference
  2
*U49
 10
0.0
 20
0.0
 30
0.0
1001
GENIUS_GENOREF_13
1005
EC6
  0
POINT
  5
EC6
330
1F
100
AcDbEntity
  8
0
 60
     1
100
AcDbPoint
 10
0.0
 20
0.0
 30
0.0
1001
GENIUS_GENODEF_13
1002
{
1000
HIER
1070
     1
1002
}
1002
{
1000
MANEDIT
1070
     0
1002
}
1002
{
1000
NOSEL
1070
     1
1002
}
1002
{
1000
BEHIND
1070
     0
1002
}
1002
{
1000
OTHER
1070
     0
1002
}
1002
{
1000
REACTOR
1002
}
1001
GENIUS_GENOBJ-NBEHI-BHF_13
1002
{
1000
OWNER
1000
genbehi
1002
}
1001
GENIUS_GENOENT_13
1002
{
1000
MYREF
1005
EC6
1002
}
1002
{
1000
GRP
1005
0
1002
}
1001
GENIUS_GENOLIS_13
1002
{
1000
ENT
1005
EC5
1002
}
1001
GENIUS_GENBH_13
1002
{
1000
BGZLEVEL
1070
    -1
1002
}
1002
{
1000
FGZLEVEL
1070
    -1
1002
}
1002
{
1000
OIUMAP
1000
OIU
1002
}
1002
{
1000
FLAGS
1070
    32
1002
}
1002
{
1000
BGO
1005
EC7
1002
}
  0
POINT
  5
EC7
330
1F
100
AcDbEntity
  8
0
 60
     1
100
AcDbPoint
 10
0.0
 20
0.0
 30
0.0
1001
GENIUS_GENOBJ-NBEHI-BHB_13
1002
{
1000
OWNER
1000
genbehi
1002
}
1001
GENIUS_GENODEF_13
1002
{
1000
HIER
1070
     1
1002
}
1002
{
1000
MANEDIT
1070
     0
1002
}
1002
{
1000
NOSEL
1070
     1
1002
}
1002
{
1000
BEHIND
1070
     0
1002
}
1002
{
1000
OTHER
1070
     1
1002
}
1002
{
1000
REACTOR
1002
}
1001
GENIUS_GENOLIS_13
1002
{
1000
ENT
1005
DC8
1005
DCE
1005
DCF
1005
E46
1005
E47
1005
E48
1005
E49
1005
EB7
1005
EB8
1005
EB9
1005
EBA
1005
EBB
1002
}
1001
GENIUS_GENOENT_13
1002
{
1000
MYREF
1005
EC7
1002
}
1002
{
1000
GRP
1005
0
1002
}
1001
GENIUS_GENBH_13
1002
{
1000
FGO
1005
EC6
1002
}
  0
LINE
  5
ECC
330
1F
100
AcDbEntity
  8
0
100
AcDbLine
 10
661.0473035349822
 20
960.839442904033
 30
0.0
 11
651.2473035349822
 21
960.839442904033
 31
0.0
  0
LINE
  5
ECD
330
1F
100
AcDbEntity
  8
0
100
AcDbLine
 10
651.2473035349822
 20
960.839442904033
 30
0.0
 11
651.2473035349822
 21
930.839442904033
 31
0.0
  0
LINE
  5
ECE
330
1F
100
AcDbEntity
  8
0
100
AcDbLine
 10
651.2473035349822
 20
930.839442904033
 30
0.0
 11
661.0473035349821
 21
930.8394429040381
 31
0.0
  0
LINE
  5
ECF
330
1F
100
AcDbEntity
  8
0
100
AcDbLine
 10
661.0473035349821
 20
930.8394429040381
 30
0.0
 11
661.0473035349822
 21
960.839442904033
 31
0.0
  0
LINE
  5
ED0
330
1F
100
AcDbEntity
  8
0
  6
ACDINTGL
 62
     6
100
AcDbLine
 10
658.1473035349822
 20
951.339442904033
 30
0.0
 11
658.1473035349822
 21
944.839442904033
 31
0.0
  0
LINE
  5
ED1
330
1F
100
AcDbEntity
  8
0
  6
ACDINTGL
 62
     6
100
AcDbLine
 10
658.6473035349822
 20
960.8394429040334
 30
0.0
 11
658.6473035349822
 21
946.6131802726328
 31
0.0
  0
LINE
  5
ED2
330
1F
100
AcDbEntity
  8
0
  6
ACDINTGL
 62
     6
100
AcDbLine
 10
658.1473035349822
 20
944.8394429040332
 30
0.0
 11
654.1473035349822
 21
944.8394429040332
 31
0.0
  0
LINE
  5
ED3
330
1F
100
AcDbEntity
  8
0
  6
ACDINTGL
 62
     6
100
AcDbLine
 10
654.1473035349822
 20
944.839442904033
 30
0.0
 11
654.1473035349822
 21
951.339442904033
 31
0.0
  0
LINE
  5
ED4
330
1F
100
AcDbEntity
  8
0
  6
ACDINTGL
 62
     6
100
AcDbLine
 10
653.6473035349986
 20
946.6131802725175
 30
0.0
 11
653.6473035349822
 21
960.839442904033
 31
0.0
  0
LINE
  5
ED5
330
1F
100
AcDbEntity
  8
0
  6
ACDINTGL
 62
     6
100
AcDbLine
 10
658.1473035349822
 20
951.339442904033
 30
0.0
 11
654.1473035349822
 21
951.339442904033
 31
0.0
  0
LINE
  5
ED6
330
1F
100
AcDbEntity
  8
AM_7
100
AcDbLine
 10
656.1473035349806
 20
963.839442904033
 30
0.0
 11
656.1473035349995
 21
927.8394429040355
 31
0.0
1001
GENIUS_GENODEF_13
1002
{
1000
HIER
1070
     0
1002
}
1002
{
1000
MANEDIT
1070
     0
1002
}
1002
{
1000
NOSEL
1070
     0
1002
}
1002
{
1000
BEHIND
1070
     0
1002
}
1002
{
1000
OTHER
1070
     0
1002
}
1002
{
1000
REACTOR
1002
}
1001
GENIUS_GENOBJ-N-CEN_13
1002
{
1000
OWNER
1000
GEN
1002
}
1001
GENIUS_GENCEN_19
1002
{
1040
3.0
1002
}
  0
LINE
  5
ED7
330
1F
100
AcDbEntity
  8
0
100
AcDbLine
 10
656.4723035349816
 20
960.839442904033
 30
0.0
 11
656.4723035349901
 21
945.7523034805062
 31
0.0
  0
LINE
  5
ED8
330
1F
100
AcDbEntity
  8
0
100
AcDbLine
 10
655.8223035349907
 20
945.7523034805067
 30
0.0
 11
655.8223035349822
 21
960.839442904033
 31
0.0
  0
ELLIPSE
  5
ED9
330
1F
100
AcDbEntity
  8
0
100
AcDbEllipse
 10
656.1473035349903
 20
945.7523034805065
 30
0.0
 11
0.0000000000006821
 21
-0.9128605764886968
 31
0.0
210
0.0
220
0.0
230
-1.0
 40
0.3560236999717144
 41
4.712388980384689
 42
7.853981633974482
  0
LINE
  5
EDA
330
1F
100
AcDbEntity
  8
0
100
AcDbLine
 10
656.4723035349869
 20
951.339442904033
 30
0.0
 11
655.8223035349875
 21
951.339442904033
 31
0.0
  0
ARC
  5
EDB
330
1F
100
AcDbEntity
  8
0
  6
ACDINTGL
 62
     6
100
AcDbCircle
 10
650.5782762415056
 20
948.2552460202077
 30
0.0
 40
3.480705165328247
100
AcDbArc
 50
281.081801442567
 51
331.851242723001
  0
ARC
  5
EDC
330
1F
100
AcDbEntity
  8
0
  6
ACDINTGL
 62
     6
100
AcDbCircle
 10
661.7163308284339
 20
948.2552460204002
 30
0.0
 40
3.480705165328247
100
AcDbArc
 50
208.1487572789826
 51
258.9181985594175
  0
INSERT
  5
EDD
330
1F
100
AcDbEntity
  8
AM_0N
100
AcDbBlockReference
  2
*U50
 10
0.0
 20
0.0
 30
0.0
1001
GENIUS_GENOREF_13
1005
EDE
  0
POINT
  5
EDE
330
1F
100
AcDbEntity
  8
0
 60
     1
100
AcDbPoint
 10
872.5889795853985
 20
0.0
 30
0.0
 50
180.0
1001
GENIUS_GENODEF_13
1002
{
1000
HIER
1070
     1
1002
}
1002
{
1000
MANEDIT
1070
     0
1002
}
1002
{
1000
NOSEL
1070
     1
1002
}
1002
{
1000
BEHIND
1070
     0
1002
}
1002
{
1000
OTHER
1070
     0
1002
}
1002
{
1000
REACTOR
1002
}
1001
GENIUS_GENOBJ-NBEHI-BHF_13
1002
{
1000
OWNER
1000
genbehi
1002
}
1001
GENIUS_GENOENT_13
1002
{
1000
MYREF
1005
EDE
1002
}
1002
{
1000
GRP
1005
0
1002
}
1001
GENIUS_GENOLIS_13
1002
{
1000
ENT
1005
EDD
1002
}
1001
GENIUS_GENBH_13
1002
{
1000
BGZLEVEL
1070
    -1
1002
}
1002
{
1000
FGZLEVEL
1070
    -1
1002
}
1002
{
1000
OIUMAP
1000
OIU
1002
}
1002
{
1000
FLAGS
1070
    32
1002
}
1002
{
1000
BGO
1005
EC7
1002
}
  0
ENDSEC
  0
SECTION
  2
OBJECTS
  0
DICTIONARY
  5
C
330
0
100
AcDbDictionary
281
     1
  3
ACAD_2007HEADERVARS_RT
350
1104
  3
ACAD_COLOR
350
76
  3
ACAD_GROUP
350
D
  3
ACAD_LAYOUT
350
1A
  3
ACAD_MATERIAL
350
75
  3
ACAD_MLEADERSTYLE
350
A60
  3
ACAD_MLINESTYLE
350
17
  3
ACAD_PLOTSETTINGS
350
19
  3
ACAD_PLOTSTYLENAME
350
E
  3
ACAD_SCALELIST
350
A4E
  3
ACAD_TABLESTYLE
350
77
  3
ACAD_VISUALSTYLE
350
A3D
  3
ACDB_RECOMPOSE_DATA
350
A97
  3
AcDbVariableDictionary
350
5E
  3
AcmDictionary
350
D8
  3
AMG
350
7C
  3
AMGSNAPSETTINGS
350
1C1
  0
DICTIONARY
  5
1F8
330
2
100
AcDbDictionary
280
     1
281
     1
  3
ACAD_LAYERSTATES
360
1F9
  0
DICTIONARY
  5
EDF
330
10
100
AcDbDictionary
280
     1
281
     1
  3
ADSK_XREC_LAYER_RECONCILED
360
EE0
  0
DICTIONARY
  5
EF3
330
1E8
100
AcDbDictionary
280
     1
281
     1
  3
ADSK_XREC_LAYER_RECONCILED
360
EF4
  0
DICTIONARY
  5
EF7
330
4FD
100
AcDbDictionary
280
     1
281
     1
  3
ADSK_XREC_LAYER_RECONCILED
360
EF8
  0
DICTIONARY
  5
EF9
330
4FE
100
AcDbDictionary
280
     1
281
     1
  3
ADSK_XREC_LAYER_RECONCILED
360
EFA
  0
DICTIONARY
  5
EFD
330
501
100
AcDbDictionary
280
     1
281
     1
  3
ADSK_XREC_LAYER_RECONCILED
360
EFE
  0
DICTIONARY
  5
F03
330
7A8
100
AcDbDictionary
280
     1
281
     1
  3
ADSK_XREC_LAYER_RECONCILED
360
F04
  0
DICTIONARY
  5
F07
330
E43
100
AcDbDictionary
280
     1
281
     1
  3
ADSK_XREC_LAYER_RECONCILED
360
F08
  0
DICTIONARY
  5
F09
330
E45
100
AcDbDictionary
280
     1
281
     1
  3
ADSK_XREC_LAYER_RECONCILED
360
F0A
  0
DICTIONARY
  5
F0B
330
E4A
100
AcDbDictionary
280
     1
281
     1
  3
ADSK_XREC_LAYER_RECONCILED
360
F0C
  0
DICTIONARY
  5
F0D
330
E4B
100
AcDbDictionary
280
     1
281
     1
  3
ADSK_XREC_LAYER_RECONCILED
360
F0E
  0
DICTIONARY
  5
F0F
330
E4C
100
AcDbDictionary
280
     1
281
     1
  3
ADSK_XREC_LAYER_RECONCILED
360
F10
  0
DICTIONARY
  5
B0D
330
1F
100
AcDbDictionary
280
     1
281
     1
  3
ACAD_SORTENTS
360
B0E
  0
DICTIONARY
  5
1119
330
E99
100
AcDbDictionary
280
     1
281
     1
  3
ACAD_MTEXT_2008_RT
360
111A
  0
DICTIONARY
  5
6D0
330
6C7
100
AcDbDictionary
280
     1
281
     1
  3
ACAD_DIMASSOC
360
6D1
  0
DICTIONARY
  5
1104
102
{ACAD_REACTORS
330
C
102
}
330
C
100
AcDbDictionary
281
     1
  3
DIMARCSYM
350
1105
  0
DICTIONARY
  5
76
102
{ACAD_REACTORS
330
C
102
}
330
C
100
AcDbDictionary
281
     1
  0
DICTIONARY
  5
D
102
{ACAD_REACTORS
330
C
102
}
330
C
100
AcDbDictionary
281
     1
  0
DICTIONARY
  5
1A
102
{ACAD_REACTORS
330
C
102
}
330
C
100
AcDbDictionary
281
     1
  3
Layout1
350
51
  3
Layout2
350
56
  3
Model
350
22
  0
DICTIONARY
  5
75
102
{ACAD_REACTORS
330
C
102
}
330
C
100
AcDbDictionary
281
     1
  3
ByBlock
350
A2D
  3
ByLayer
350
A25
  3
Global
350
A35
  0
DICTIONARY
  5
A60
102
{ACAD_REACTORS
330
C
102
}
330
C
100
AcDbDictionary
281
     1
  3
Standard
350
A61
  0
DICTIONARY
  5
17
102
{ACAD_REACTORS
330
C
102
}
330
C
100
AcDbDictionary
281
     1
  3
Standard
350
18
  0
DICTIONARY
  5
19
102
{ACAD_REACTORS
330
C
102
}
330
C
100
AcDbDictionary
281
     1
  0
ACDBDICTIONARYWDFLT
  5
E
102
{ACAD_REACTORS
330
C
102
}
330
C
100
AcDbDictionary
281
     1
  3
Normal
350
F
100
AcDbDictionaryWithDefault
340
F
  0
DICTIONARY
  5
A4E
102
{ACAD_REACTORS
330
C
102
}
330
C
100
AcDbDictionary
281
     1
  3
A0
350
A4F
  3
A1
350
A50
  3
A2
350
A51
  3
A3
350
A52
  3
A4
350
A53
  3
A5
350
A54
  3
A6
350
A55
  3
A7
350
A56
  3
A8
350
A57
  3
A9
350
A58
  3
B0
350
A59
  3
B1
350
A5A
  3
B2
350
A5B
  3
B3
350
A5C
  3
B4
350
A5D
  3
B5
350
A5E
  3
B6
350
A5F
  0
DICTIONARY
  5
77
102
{ACAD_REACTORS
330
C
102
}
330
C
100
AcDbDictionary
281
     1
  3
Standard
350
78
  0
DICTIONARY
  5
A3D
102
{ACAD_REACTORS
330
C
102
}
330
C
100
AcDbDictionary
281
     1
  3
2dWireframe
350
A43
  3
3D Hidden
350
A45
  3
3dWireframe
350
A44
  3
Basic
350
A42
  3
Brighten
350
A49
  3
ColorChange
350
A4D
  3
Conceptual
350
A46
  3
Dim
350
A48
  3
Facepattern
350
A4C
  3
Flat
350
A3E
  3
FlatWithEdges
350
A3F
  3
Gouraud
350
A40
  3
GouraudWithEdges
350
A41
  3
Linepattern
350
A4B
  3
Realistic
350
A47
  3
Thicken
350
A4A
  0
XRECORD
  5
A97
102
{ACAD_REACTORS
330
C
102
}
330
C
100
AcDbXrecord
280
     1
 90
        1
330
78
  0
DICTIONARY
  5
5E
102
{ACAD_REACTORS
330
C
102
}
330
C
100
AcDbDictionary
281
     1
  3
CANNOSCALE
350
A9A
  3
CMLEADERSTYLE
350
A98
  3
CTABLESTYLE
350
145
  3
DIMASSOC
350
5F
  3
HIDETEXT
350
63
  3
LAYEREVAL
350
A9C
  3
LAYERNOTIFY
350
A9D
  3
LIGHTINGUNITS
350
A9B
  3
MSLTSCALE
350
A99
  0
DICTIONARY
  5
D8
102
{ACAD_REACTORS
330
C
102
}
330
C
100
AcDbDictionary
281
     1
  3
AcmStdDictionary
350
E3
  3
AMDTSECTSYM_ARROWCOLOR
350
105
  0
DICTIONARY
  5
7C
102
{ACAD_REACTORS
330
C
102
}
330
C
100
AcDbDictionary
281
     1
  0
DICTIONARY
  5
1C1
102
{ACAD_REACTORS
330
C
102
}
330
C
100
AcDbDictionary
281
     1
  0
DICTIONARY
  5
1F9
102
{ACAD_REACTORS
330
1F8
102
}
330
1F8
100
AcDbDictionary
281
     1
  0
XRECORD
  5
EE0
102
{ACAD_REACTORS
330
EDF
102
}
330
EDF
100
AcDbXrecord
280
     1
290
     1
  0
XRECORD
  5
EF4
102
{ACAD_REACTORS
330
EF3
102
}
330
EF3
100
AcDbXrecord
280
     1
290
     1
  0
XRECORD
  5
EF8
102
{ACAD_REACTORS
330
EF7
102
}
330
EF7
100
AcDbXrecord
280
     1
290
     1
  0
XRECORD
  5
EFA
102
{ACAD_REACTORS
330
EF9
102
}
330
EF9
100
AcDbXrecord
280
     1
290
     1
  0
XRECORD
  5
EFE
102
{ACAD_REACTORS
330
EFD
102
}
330
EFD
100
AcDbXrecord
280
     1
290
     1
  0
XRECORD
  5
F04
102
{ACAD_REACTORS
330
F03
102
}
330
F03
100
AcDbXrecord
280
     1
290
     1
  0
XRECORD
  5
F08
102
{ACAD_REACTORS
330
F07
102
}
330
F07
100
AcDbXrecord
280
     1
290
     1
  0
XRECORD
  5
F0A
102
{ACAD_REACTORS
330
F09
102
}
330
F09
100
AcDbXrecord
280
     1
290
     1
  0
XRECORD
  5
F0C
102
{ACAD_REACTORS
330
F0B
102
}
330
F0B
100
AcDbXrecord
280
     1
290
     1
  0
XRECORD
  5
F0E
102
{ACAD_REACTORS
330
F0D
102
}
330
F0D
100
AcDbXrecord
280
     1
290
     1
  0
XRECORD
  5
F10
102
{ACAD_REACTORS
330
F0F
102
}
330
F0F
100
AcDbXrecord
280
     1
290
     1
  0
SORTENTSTABLE
  5
B0E
102
{ACAD_REACTORS
330
B0D
102
}
330
B0D
100
AcDbSortentsTable
330
1F
331
B71
  5
B71
331
5A4
  5
5A4
331
AC6
  5
AC6
331
593
  5
593
331
571
  5
571
331
B6F
  5
B6F
331
B11
  5
B11
331
5A2
  5
5A2
331
AC4
  5
AC4
331
591
  5
591
331
56F
  5
56F
331
DD8
  5
DE1
331
B0F
  5
B0F
331
5A0
  5
5A0
331
6C7
  5
6C7
331
5B1
  5
5B1
331
58F
  5
58F
331
56D
  5
56D
331
7C3
  5
7C3
331
5AF
  5
5AF
331
58D
  5
58D
331
57C
  5
57C
331
56B
  5
56B
331
B69
  5
B69
331
B0B
  5
B0C
331
DE5
  5
DE4
331
5AD
  5
5AD
331
58B
  5
58B
331
57A
  5
57A
331
B09
  5
B09
331
DE3
  5
DED
331
5AB
  5
5AB
331
589
  5
589
331
5BC
  5
5BC
331
578
  5
578
331
DE1
  5
DE8
331
DD0
  5
DDB
331
B5C
  5
B5C
331
5BA
  5
5BA
331
5A9
  5
5A9
331
587
  5
587
331
5A7
  5
5A7
331
DCE
  5
DD1
331
596
  5
596
331
574
  5
574
331
5A5
  5
5A5
331
DEE
  5
DEF
331
594
  5
594
331
572
  5
572
331
DDB
  5
DE3
331
7D0
  5
7D0
331
5A3
  5
5A3
331
DEC
  5
DCF
331
AC5
  5
AC5
331
592
  5
592
331
570
  5
570
331
B10
  5
B10
331
5A1
  5
5A1
331
DC8
  5
DC8
331
AC3
  5
AC3
331
5B2
  5
5B2
331
590
  5
590
331
56E
  5
56E
331
DE8
  5
DE2
331
5B0
  5
5B0
331
59F
  5
59F
331
58E
  5
58E
331
56C
  5
56C
331
B0C
  5
B0A
331
7A9
  5
7A9
331
5AE
  5
5AE
331
58C
  5
58C
331
57B
  5
57B
331
56A
  5
56A
331
B0A
  5
B0B
331
5AC
  5
5AC
331
58A
  5
58A
331
579
  5
579
331
B66
  5
B66
331
DE2
  5
DEB
331
B5D
  5
B5D
331
5AA
  5
5AA
331
588
  5
588
331
DD1
  5
DE0
331
6C0
  5
6C0
331
7B6
  5
7B6
331
5BB
  5
5BB
331
577
  5
577
331
DE0
  5
DE5
331
5A8
  5
5A8
331
DCF
  5
DD8
331
5B9
  5
5B9
331
575
  5
575
331
5A6
  5
5A6
331
595
  5
595
331
573
  5
573
  0
XRECORD
  5
111A
102
{ACAD_REACTORS
330
1119
102
}
330
1119
100
AcDbXrecord
280
     1
 40
2426.0
  1
\U+220576
  0
DIMASSOC
  5
6D1
102
{ACAD_REACTORS
330
6D0
102
}
330
6D0
100
AcDbDimAssoc
330
6C7
 90
        2
 70
     0
 71
     0
  1
AcDbOsnapPointRef
 72
     3
331
6C0
 73
     2
 91
        0
 40
0.0
 10
0.0
 20
0.0
 30
0.0
 75
     0
  0
XRECORD
  5
1105
102
{ACAD_REACTORS
330
1104
102
}
330
1104
100
AcDbXrecord
280
     1
 70
     1
  0
LAYOUT
  5
51
102
{ACAD_REACTORS
330
1A
102
}
330
1A
100
AcDbPlotSettings
  1

  2
None
  4

  6

 40
0.0
 41
0.0
 42
0.0
 43
0.0
 44
0.0
 45
0.0
 46
0.0
 47
0.0
 48
0.0
 49
0.0
140
0.0
141
0.0
142
1.0
143
1.0
 70
   688
 72
     0
 73
     0
 74
     5
  7
monochrome.ctb
 75
    16
147
1.0
 76
     0
 77
     2
 78
   300
148
0.0
149
0.0
100
AcDbLayout
  1
Layout1
 70
     1
 71
     1
 10
0.0
 20
0.0
 11
12.0
 21
9.0
 12
0.0
 22
0.0
 32
0.0
 14
0.0
 24
0.0
 34
0.0
 15
0.0
 25
0.0
 35
0.0
146
0.0
 13
0.0
 23
0.0
 33
0.0
 16
1.0
 26
0.0
 36
0.0
 17
0.0
 27
1.0
 37
0.0
 76
     0
330
50
  0
LAYOUT
  5
56
102
{ACAD_REACTORS
330
1A
102
}
330
1A
100
AcDbPlotSettings
  1

  2
None
  4

  6

 40
0.0
 41
0.0
 42
0.0
 43
0.0
 44
0.0
 45
0.0
 46
0.0
 47
0.0
 48
0.0
 49
0.0
140
0.0
141
0.0
142
1.0
143
1.0
 70
   688
 72
     0
 73
     0
 74
     5
  7
monochrome.ctb
 75
    16
147
1.0
 76
     0
 77
     2
 78
   300
148
0.0
149
0.0
100
AcDbLayout
  1
Layout2
 70
     1
 71
     2
 10
0.0
 20
0.0
 11
12.0
 21
9.0
 12
0.0
 22
0.0
 32
0.0
 14
0.0
 24
0.0
 34
0.0
 15
0.0
 25
0.0
 35
0.0
146
0.0
 13
0.0
 23
0.0
 33
0.0
 16
1.0
 26
0.0
 36
0.0
 17
0.0
 27
1.0
 37
0.0
 76
     0
330
55
  0
LAYOUT
  5
22
102
{ACAD_REACTORS
330
1A
102
}
330
1A
100
AcDbPlotSettings
  1

  2
none_device
  4
ANSI_A_(8.50_x_11.00_Inches)
  6

 40
6.349999904632568
 41
19.04999923706055
 42
6.350006103515625
 43
19.04998779296875
 44
215.8999938964844
 45
279.3999938964844
 46
0.0
 47
0.0
 48
0.0
 49
0.0
140
0.0
141
0.0
142
1.0
143
78.436453180766
 70
 11952
 72
     0
 73
     1
 74
     0
  7
monochrome.ctb
 75
     0
147
0.0127491741332998
 76
     0
 77
     2
 78
   300
148
0.0
149
0.0
100
AcDbLayout
  1
Model
 70
     1
 71
     0
 10
0.0
 20
0.0
 11
12.0
 21
9.0
 12
0.0
 22
0.0
 32
0.0
 14
0.0
 24
0.0
 34
0.0
 15
0.0
 25
0.0
 35
0.0
146
0.0
 13
0.0
 23
0.0
 33
0.0
 16
1.0
 26
0.0
 36
0.0
 17
0.0
 27
1.0
 37
0.0
 76
     0
330
1F
331
A23
  0
MATERIAL
  5
A2D
102
{ACAD_XDICTIONARY
360
A2E
102
}
102
{ACAD_REACTORS
330
75
102
}
330
75
100
AcDbMaterial
  1
ByBlock
 72
     0
 43
0.0008202099737533
 43
0.0
 43
0.0
 43
0.0
 43
0.0
 43
0.0008202099737533
 43
0.0
 43
0.0
 43
0.0
 43
0.0
 43
1.0
 43
0.0
 43
0.0
 43
0.0
 43
0.0
 43
1.0
 77
     0
 47
0.0008202099737533
 47
0.0
 47
0.0
 47
0.0
 47
0.0
 47
0.0008202099737533
 47
0.0
 47
0.0
 47
0.0
 47
0.0
 47
1.0
 47
0.0
 47
0.0
 47
0.0
 47
0.0
 47
1.0
171
     0
 49
0.0008202099737533
 49
0.0
 49
0.0
 49
0.0
 49
0.0
 49
0.0008202099737533
 49
0.0
 49
0.0
 49
0.0
 49
0.0
 49
1.0
 49
0.0
 49
0.0
 49
0.0
 49
0.0
 49
1.0
175
     0
142
0.0008202099737533
142
0.0
142
0.0
142
0.0
142
0.0
142
0.0008202099737533
142
0.0
142
0.0
142
0.0
142
0.0
142
1.0
142
0.0
142
0.0
142
0.0
142
0.0
142
1.0
179
     0
144
0.0008202099737533
144
0.0
144
0.0
144
0.0
144
0.0
144
0.0008202099737533
144
0.0
144
0.0
144
0.0
144
0.0
144
1.0
144
0.0
144
0.0
144
0.0
144
0.0
144
1.0
147
0.0008202099737533
147
0.0
147
0.0
147
0.0
147
0.0
147
0.0008202099737533
147
0.0
147
0.0
147
0.0
147
0.0
147
1.0
147
0.0
147
0.0
147
0.0
147
0.0
147
1.0
  0
MATERIAL
  5
A25
102
{ACAD_XDICTIONARY
360
A26
102
}
102
{ACAD_REACTORS
330
75
102
}
330
75
100
AcDbMaterial
  1
ByLayer
 72
     0
 43
0.0008202099737533
 43
0.0
 43
0.0
 43
0.0
 43
0.0
 43
0.0008202099737533
 43
0.0
 43
0.0
 43
0.0
 43
0.0
 43
1.0
 43
0.0
 43
0.0
 43
0.0
 43
0.0
 43
1.0
 77
     0
 47
0.0008202099737533
 47
0.0
 47
0.0
 47
0.0
 47
0.0
 47
0.0008202099737533
 47
0.0
 47
0.0
 47
0.0
 47
0.0
 47
1.0
 47
0.0
 47
0.0
 47
0.0
 47
0.0
 47
1.0
171
     0
 49
0.0008202099737533
 49
0.0
 49
0.0
 49
0.0
 49
0.0
 49
0.0008202099737533
 49
0.0
 49
0.0
 49
0.0
 49
0.0
 49
1.0
 49
0.0
 49
0.0
 49
0.0
 49
0.0
 49
1.0
175
     0
142
0.0008202099737533
142
0.0
142
0.0
142
0.0
142
0.0
142
0.0008202099737533
142
0.0
142
0.0
142
0.0
142
0.0
142
1.0
142
0.0
142
0.0
142
0.0
142
0.0
142
1.0
179
     0
144
0.0008202099737533
144
0.0
144
0.0
144
0.0
144
0.0
144
0.0008202099737533
144
0.0
144
0.0
144
0.0
144
0.0
144
1.0
144
0.0
144
0.0
144
0.0
144
0.0
144
1.0
147
0.0008202099737533
147
0.0
147
0.0
147
0.0
147
0.0
147
0.0008202099737533
147
0.0
147
0.0
147
0.0
147
0.0
147
1.0
147
0.0
147
0.0
147
0.0
147
0.0
147
1.0
  0
MATERIAL
  5
A35
102
{ACAD_XDICTIONARY
360
A36
102
}
102
{ACAD_REACTORS
330
75
102
}
330
75
100
AcDbMaterial
  1
Global
 72
     0
 43
0.0008202099737533
 43
0.0
 43
0.0
 43
0.0
 43
0.0
 43
0.0008202099737533
 43
0.0
 43
0.0
 43
0.0
 43
0.0
 43
1.0
 43
0.0
 43
0.0
 43
0.0
 43
0.0
 43
1.0
 77
     0
 47
0.0008202099737533
 47
0.0
 47
0.0
 47
0.0
 47
0.0
 47
0.0008202099737533
 47
0.0
 47
0.0
 47
0.0
 47
0.0
 47
1.0
 47
0.0
 47
0.0
 47
0.0
 47
0.0
 47
1.0
171
     0
 49
0.0008202099737533
 49
0.0
 49
0.0
 49
0.0
 49
0.0
 49
0.0008202099737533
 49
0.0
 49
0.0
 49
0.0
 49
0.0
 49
1.0
 49
0.0
 49
0.0
 49
0.0
 49
0.0
 49
1.0
175
     0
142
0.0008202099737533
142
0.0
142
0.0
142
0.0
142
0.0
142
0.0008202099737533
142
0.0
142
0.0
142
0.0
142
0.0
142
1.0
142
0.0
142
0.0
142
0.0
142
0.0
142
1.0
179
     0
144
0.0008202099737533
144
0.0
144
0.0
144
0.0
144
0.0
144
0.0008202099737533
144
0.0
144
0.0
144
0.0
144
0.0
144
1.0
144
0.0
144
0.0
144
0.0
144
0.0
144
1.0
147
0.0008202099737533
147
0.0
147
0.0
147
0.0
147
0.0
147
0.0008202099737533
147
0.0
147
0.0
147
0.0
147
0.0
147
1.0
147
0.0
147
0.0
147
0.0
147
0.0
147
1.0
  0
MLEADERSTYLE
  5
A61
102
{ACAD_REACTORS
330
A60
102
}
330
A60
100
AcDbMLeaderStyle
170
     2
171
     1
172
     0
 90
        2
 40
0.0
 41
0.0
173
     1
 91
-1056964608
340
14
 92
       -2
290
     1
 42
2.0
291
     1
 43
0.36
  3
Standard
 44
4.0
300

342
11
174
     1
178
     6
175
     1
176
     0
 93
-1056964608
 45
4.0
292
     0
297
     0
 46
4.0
 94
-1056964608
 47
1.0
 49
1.0
140
1.0
293
     1
141
0.0
294
     1
177
     0
142
1.0
295
     0
296
     0
143
0.125
1001
ACAD_MLEADERVER
1070
     2
  0
MLINESTYLE
  5
18
102
{ACAD_REACTORS
330
17
102
}
330
17
100
AcDbMlineStyle
  2
STANDARD
 70
     0
  3

 62
   256
 51
90.0
 52
90.0
 71
     2
 49
0.5
 62
   256
  6
BYLAYER
 49
-0.5
 62
   256
  6
BYLAYER
  0
ACDBPLACEHOLDER
  5
F
102
{ACAD_REACTORS
330
E
102
}
330
E
  0
SCALE
  5
A4F
102
{ACAD_REACTORS
330
A4E
102
}
330
A4E
100
AcDbScale
 70
     0
300
1:1
140
1.0
141
1.0
290
     1
  0
SCALE
  5
A50
102
{ACAD_REACTORS
330
A4E
102
}
330
A4E
100
AcDbScale
 70
     0
300
1:2
140
1.0
141
2.0
290
     0
  0
SCALE
  5
A51
102
{ACAD_REACTORS
330
A4E
102
}
330
A4E
100
AcDbScale
 70
     0
300
1:4
140
1.0
141
4.0
290
     0
  0
SCALE
  5
A52
102
{ACAD_REACTORS
330
A4E
102
}
330
A4E
100
AcDbScale
 70
     0
300
1:5
140
1.0
141
5.0
290
     0
  0
SCALE
  5
A53
102
{ACAD_REACTORS
330
A4E
102
}
330
A4E
100
AcDbScale
 70
     0
300
1:8
140
1.0
141
8.0
290
     0
  0
SCALE
  5
A54
102
{ACAD_REACTORS
330
A4E
102
}
330
A4E
100
AcDbScale
 70
     0
300
1:10
140
1.0
141
10.0
290
     0
  0
SCALE
  5
A55
102
{ACAD_REACTORS
330
A4E
102
}
330
A4E
100
AcDbScale
 70
     0
300
1:16
140
1.0
141
16.0
290
     0
  0
SCALE
  5
A56
102
{ACAD_REACTORS
330
A4E
102
}
330
A4E
100
AcDbScale
 70
     0
300
1:20
140
1.0
141
20.0
290
     0
  0
SCALE
  5
A57
102
{ACAD_REACTORS
330
A4E
102
}
330
A4E
100
AcDbScale
 70
     0
300
1:30
140
1.0
141
30.0
290
     0
  0
SCALE
  5
A58
102
{ACAD_REACTORS
330
A4E
102
}
330
A4E
100
AcDbScale
 70
     0
300
1:40
140
1.0
141
40.0
290
     0
  0
SCALE
  5
A59
102
{ACAD_REACTORS
330
A4E
102
}
330
A4E
100
AcDbScale
 70
     0
300
1:50
140
1.0
141
50.0
290
     0
  0
SCALE
  5
A5A
102
{ACAD_REACTORS
330
A4E
102
}
330
A4E
100
AcDbScale
 70
     0
300
1:100
140
1.0
141
100.0
290
     0
  0
SCALE
  5
A5B
102
{ACAD_REACTORS
330
A4E
102
}
330
A4E
100
AcDbScale
 70
     0
300
2:1
140
2.0
141
1.0
290
     0
  0
SCALE
  5
A5C
102
{ACAD_REACTORS
330
A4E
102
}
330
A4E
100
AcDbScale
 70
     0
300
4:1
140
4.0
141
1.0
290
     0
  0
SCALE
  5
A5D
102
{ACAD_REACTORS
330
A4E
102
}
330
A4E
100
AcDbScale
 70
     0
300
8:1
140
8.0
141
1.0
290
     0
  0
SCALE
  5
A5E
102
{ACAD_REACTORS
330
A4E
102
}
330
A4E
100
AcDbScale
 70
     0
300
10:1
140
10.0
141
1.0
290
     0
  0
SCALE
  5
A5F
102
{ACAD_REACTORS
330
A4E
102
}
330
A4E
100
AcDbScale
 70
     0
300
100:1
140
100.0
141
1.0
290
     0
  0
TABLESTYLE
  5
78
102
{ACAD_XDICTIONARY
360
A95
102
}
102
{ACAD_REACTORS
330
77
102
}
330
77
100
AcDbTableStyle
  3
Standard
 70
     0
 71
     0
 40
1.5
 41
1.5
280
     0
281
     0
  7
Standard
140
4.5
170
     2
 62
     0
 63
     7
283
     0
274
    -2
284
     1
 64
     0
275
    -2
285
     1
 65
     0
276
    -2
286
     1
 66
     0
277
    -2
287
     1
 67
     0
278
    -2
288
     1
 68
     0
279
    -2
289
     1
 69
     0
  7
Standard
140
6.0
170
     5
 62
     0
 63
     7
283
     0
274
    -2
284
     1
 64
     0
275
    -2
285
     1
 65
     0
276
    -2
286
     1
 66
     0
277
    -2
287
     1
 67
     0
278
    -2
288
     1
 68
     0
279
    -2
289
     1
 69
     0
  7
Standard
140
4.5
170
     5
 62
     0
 63
     7
283
     0
274
    -2
284
     1
 64
     0
275
    -2
285
     1
 65
     0
276
    -2
286
     1
 66
     0
277
    -2
287
     1
 67
     0
278
    -2
288
     1
 68
     0
279
    -2
289
     1
 69
     0
  0
VISUALSTYLE
  5
A43
102
{ACAD_REACTORS
330
A3D
102
}
330
A3D
100
AcDbVisualStyle
  2
2dWireframe
 70
     4
 71
     0
 72
     2
 73
     0
 90
        0
 40
-0.6
 41
-30.0
 62
     5
 63
     7
421
 16777215
 74
     1
 91
        4
 64
     7
 65
   257
 75
     1
175
     1
 42
1.0
 92
        0
 66
   257
 43
1.0
 76
     1
 77
     6
 78
     2
 67
     7
 79
     5
170
     0
171
     0
290
     0
174
     0
 93
        1
 44
0.0
173
     0
291
     0
 45
0.0
1001
ACAD
1000
AcDbSavedByObjectVersion
1070
     0
  0
VISUALSTYLE
  5
A45
102
{ACAD_REACTORS
330
A3D
102
}
330
A3D
100
AcDbVisualStyle
  2
3D Hidden
 70
     6
 71
     1
 72
     2
 73
     2
 90
        0
 40
-0.6
 41
-30.0
 62
     5
 63
     7
421
 16777215
 74
     2
 91
        2
 64
     7
 65
   257
 75
     2
175
     1
 42
40.0
 92
        0
 66
   257
 43
1.0
 76
     1
 77
     6
 78
     2
 67
     7
 79
     3
170
     0
171
     0
290
     0
174
     0
 93
        1
 44
0.0
173
     0
291
     0
 45
0.0
1001
ACAD
1000
AcDbSavedByObjectVersion
1070
     0
  0
VISUALSTYLE
  5
A44
102
{ACAD_REACTORS
330
A3D
102
}
330
A3D
100
AcDbVisualStyle
  2
3dWireframe
 70
     5
 71
     0
 72
     2
 73
     0
 90
        0
 40
-0.6
 41
-30.0
 62
     5
 63
     7
421
 16777215
 74
     1
 91
        4
 64
     7
 65
   257
 75
     1
175
     1
 42
1.0
 92
        0
 66
   257
 43
1.0
 76
     1
 77
     6
 78
     2
 67
     7
 79
     5
170
     0
171
     0
290
     0
174
     0
 93
        1
 44
0.0
173
     0
291
     0
 45
0.0
1001
ACAD
1000
AcDbSavedByObjectVersion
1070
     0
  0
VISUALSTYLE
  5
A42
102
{ACAD_REACTORS
330
A3D
102
}
330
A3D
100
AcDbVisualStyle
  2
Basic
 70
     7
 71
     1
 72
     0
 73
     1
 90
        0
 40
-0.6
 41
-30.0
 62
     5
 63
     7
421
 16777215
 74
     0
 91
        4
 64
     7
 65
   257
 75
     1
175
     1
 42
1.0
 92
        8
 66
     7
 43
1.0
 76
     1
 77
     6
 78
     2
 67
     7
 79
     5
170
     0
171
     0
290
     0
174
     0
 93
        1
 44
0.0
173
     0
291
     1
 45
0.0
1001
ACAD
1000
AcDbSavedByObjectVersion
1070
     0
  0
VISUALSTYLE
  5
A49
102
{ACAD_REACTORS
330
A3D
102
}
330
A3D
100
AcDbVisualStyle
  2
Brighten
 70
    12
 71
     2
 72
     2
 73
     0
 90
        0
 40
-0.6
 41
-30.0
 62
     5
 63
     7
421
 16777215
 74
     1
 91
        4
 64
     7
 65
   257
 75
     1
175
     1
 42
1.0
 92
        8
 66
     7
 43
1.0
 76
     1
 77
     6
 78
     2
 67
     7
 79
     5
170
     0
171
     0
290
     0
174
     0
 93
        1
 44
50.0
173
     0
291
     1
 45
0.0
1001
ACAD
1000
AcDbSavedByObjectVersion
1070
     0
  0
VISUALSTYLE
  5
A4D
102
{ACAD_REACTORS
330
A3D
102
}
330
A3D
100
AcDbVisualStyle
  2
ColorChange
 70
    16
 71
     2
 72
     2
 73
     3
 90
        0
 40
-0.6
 41
-30.0
 62
     5
 63
     8
421
  8421504
 74
     1
 91
        4
 64
     7
 65
   257
 75
     1
175
     1
 42
1.0
 92
        8
 66
     8
424
  8421504
 43
1.0
 76
     1
 77
     6
 78
     2
 67
     7
 79
     5
170
     0
171
     0
290
     0
174
     0
 93
        1
 44
0.0
173
     0
291
     1
 45
0.0
1001
ACAD
1000
AcDbSavedByObjectVersion
1070
     0
  0
VISUALSTYLE
  5
A46
102
{ACAD_REACTORS
330
A3D
102
}
330
A3D
100
AcDbVisualStyle
  2
Conceptual
 70
     9
 71
     3
 72
     2
 73
     0
 90
        0
 40
-0.6
 41
-30.0
 62
     5
 63
     7
421
 16777215
 74
     2
 91
        2
 64
     7
 65
   257
 75
     1
175
     1
 42
40.0
 92
        8
 66
     7
 43
1.0
 76
     1
 77
     6
 78
     2
 67
     7
 79
     3
170
     0
171
     0
290
     0
174
     0
 93
        1
 44
0.0
173
     0
291
     0
 45
0.0
1001
ACAD
1000
AcDbSavedByObjectVersion
1070
     0
  0
VISUALSTYLE
  5
A48
102
{ACAD_REACTORS
330
A3D
102
}
330
A3D
100
AcDbVisualStyle
  2
Dim
 70
    11
 71
     2
 72
     2
 73
     0
 90
        0
 40
-0.6
 41
-30.0
 62
     5
 63
     7
421
 16777215
 74
     1
 91
        4
 64
     7
 65
   257
 75
     1
175
     1
 42
1.0
 92
        8
 66
     7
 43
1.0
 76
     1
 77
     6
 78
     2
 67
     7
 79
     5
170
     0
171
     0
290
     0
174
     0
 93
        1
 44
-50.0
173
     0
291
     1
 45
0.0
1001
ACAD
1000
AcDbSavedByObjectVersion
1070
     0
  0
VISUALSTYLE
  5
A4C
102
{ACAD_REACTORS
330
A3D
102
}
330
A3D
100
AcDbVisualStyle
  2
Facepattern
 70
    15
 71
     2
 72
     2
 73
     0
 90
        0
 40
-0.6
 41
-30.0
 62
     5
 63
     7
421
 16777215
 74
     1
 91
        4
 64
     7
 65
   257
 75
     1
175
     1
 42
1.0
 92
        8
 66
     7
 43
1.0
 76
     1
 77
     6
 78
     2
 67
     7
 79
     5
170
     0
171
     0
290
     0
174
     0
 93
        1
 44
0.0
173
     0
291
     1
 45
0.0
1001
ACAD
1000
AcDbSavedByObjectVersion
1070
     0
  0
VISUALSTYLE
  5
A3E
102
{ACAD_REACTORS
330
A3D
102
}
330
A3D
100
AcDbVisualStyle
  2
Flat
 70
     0
 71
     2
 72
     1
 73
     1
 90
        2
 40
-0.6
 41
30.0
 62
     5
 63
     7
421
 16777215
 74
     0
 91
        4
 64
     7
 65
   257
 75
     1
175
     1
 42
1.0
 92
        8
 66
     7
 43
1.0
 76
     1
 77
     6
 78
     2
 67
     7
 79
     5
170
     0
171
     0
290
     0
174
     0
 93
       13
 44
0.0
173
     0
291
     1
 45
0.0
1001
ACAD
1000
AcDbSavedByObjectVersion
1070
     0
  0
VISUALSTYLE
  5
A3F
102
{ACAD_REACTORS
330
A3D
102
}
330
A3D
100
AcDbVisualStyle
  2
FlatWithEdges
 70
     1
 71
     2
 72
     1
 73
     1
 90
        2
 40
-0.6
 41
30.0
 62
     5
 63
     7
421
 16777215
 74
     1
 91
        4
 64
     7
 65
   257
 75
     1
175
     1
 42
1.0
 92
        0
 66
   257
 43
1.0
 76
     1
 77
     6
 78
     2
 67
     7
 79
     5
170
     0
171
     0
290
     0
174
     0
 93
       13
 44
0.0
173
     0
291
     1
 45
0.0
1001
ACAD
1000
AcDbSavedByObjectVersion
1070
     0
  0
VISUALSTYLE
  5
A40
102
{ACAD_REACTORS
330
A3D
102
}
330
A3D
100
AcDbVisualStyle
  2
Gouraud
 70
     2
 71
     2
 72
     2
 73
     1
 90
        2
 40
-0.6
 41
30.0
 62
     5
 63
     7
421
 16777215
 74
     0
 91
        4
 64
     7
 65
   257
 75
     1
175
     1
 42
1.0
 92
        0
 66
     7
 43
1.0
 76
     1
 77
     6
 78
     2
 67
     7
 79
     5
170
     0
171
     0
290
     0
174
     0
 93
       13
 44
0.0
173
     0
291
     1
 45
0.0
1001
ACAD
1000
AcDbSavedByObjectVersion
1070
     0
  0
VISUALSTYLE
  5
A41
102
{ACAD_REACTORS
330
A3D
102
}
330
A3D
100
AcDbVisualStyle
  2
GouraudWithEdges
 70
     3
 71
     2
 72
     2
 73
     1
 90
        2
 40
-0.6
 41
30.0
 62
     5
 63
     7
421
 16777215
 74
     1
 91
        4
 64
     7
 65
   257
 75
     1
175
     1
 42
1.0
 92
        0
 66
   257
 43
1.0
 76
     1
 77
     6
 78
     2
 67
     7
 79
     5
170
     0
171
     0
290
     0
174
     0
 93
       13
 44
0.0
173
     0
291
     1
 45
0.0
1001
ACAD
1000
AcDbSavedByObjectVersion
1070
     0
  0
VISUALSTYLE
  5
A4B
102
{ACAD_REACTORS
330
A3D
102
}
330
A3D
100
AcDbVisualStyle
  2
Linepattern
 70
    14
 71
     2
 72
     2
 73
     0
 90
        0
 40
-0.6
 41
-30.0
 62
     5
 63
     7
421
 16777215
 74
     1
 91
        4
 64
     7
 65
   257
 75
     7
175
     7
 42
1.0
 92
        8
 66
     7
 43
1.0
 76
     1
 77
     6
 78
     2
 67
     7
 79
     5
170
     0
171
     0
290
     0
174
     0
 93
        1
 44
0.0
173
     0
291
     1
 45
0.0
1001
ACAD
1000
AcDbSavedByObjectVersion
1070
     0
  0
VISUALSTYLE
  5
A47
102
{ACAD_REACTORS
330
A3D
102
}
330
A3D
100
AcDbVisualStyle
  2
Realistic
 70
     8
 71
     2
 72
     2
 73
     0
 90
        0
 40
-0.6
 41
-30.0
 62
     5
 63
     7
421
 16777215
 74
     1
 91
        0
 64
     7
 65
   257
 75
     1
175
     1
 42
1.0
 92
        8
 66
     8
424
  7895160
 43
1.0
 76
     1
 77
     6
 78
     2
 67
     7
 79
     5
170
     0
171
     0
290
     0
174
     0
 93
       13
 44
0.0
173
     0
291
     0
 45
0.0
1001
ACAD
1000
AcDbSavedByObjectVersion
1070
     0
  0
VISUALSTYLE
  5
A4A
102
{ACAD_REACTORS
330
A3D
102
}
330
A3D
100
AcDbVisualStyle
  2
Thicken
 70
    13
 71
     2
 72
     2
 73
     0
 90
        0
 40
-0.6
 41
-30.0
 62
     5
 63
     7
421
 16777215
 74
     1
 91
        4
 64
     7
 65
   257
 75
     1
175
     1
 42
1.0
 92
       12
 66
     7
 43
1.0
 76
     1
 77
     6
 78
     2
 67
     7
 79
     5
170
     0
171
     0
290
     0
174
     0
 93
        1
 44
0.0
173
     0
291
     1
 45
0.0
1001
ACAD
1000
AcDbSavedByObjectVersion
1070
     0
  0
DICTIONARYVAR
  5
A9A
102
{ACAD_REACTORS
330
5E
102
}
330
5E
100
DictionaryVariables
280
     0
  1
1:1
  0
DICTIONARYVAR
  5
A98
102
{ACAD_REACTORS
330
5E
102
}
330
5E
100
DictionaryVariables
280
     0
  1
STANDARD
  0
DICTIONARYVAR
  5
145
102
{ACAD_REACTORS
330
5E
102
}
330
5E
100
DictionaryVariables
280
     0
  1
STANDARD
  0
DICTIONARYVAR
  5
5F
102
{ACAD_REACTORS
330
5E
102
}
330
5E
100
DictionaryVariables
280
     0
  1
2
  0
DICTIONARYVAR
  5
63
102
{ACAD_REACTORS
330
5E
102
}
330
5E
100
DictionaryVariables
280
     0
  1
1
  0
DICTIONARYVAR
  5
A9C
102
{ACAD_REACTORS
330
5E
102
}
330
5E
100
DictionaryVariables
280
     0
  1
1
  0
DICTIONARYVAR
  5
A9D
102
{ACAD_REACTORS
330
5E
102
}
330
5E
100
DictionaryVariables
280
     0
  1
15
  0
DICTIONARYVAR
  5
A9B
102
{ACAD_REACTORS
330
5E
102
}
330
5E
100
DictionaryVariables
280
     0
  1
0
  0
DICTIONARYVAR
  5
A99
102
{ACAD_REACTORS
330
5E
102
}
330
5E
100
DictionaryVariables
280
     0
  1
0
  0
DICTIONARY
  5
E3
102
{ACAD_REACTORS
330
D8
102
}
330
D8
100
AcDbDictionary
281
     1
  0
XRECORD
  5
105
102
{ACAD_REACTORS
330
D8
102
}
330
D8
100
AcDbXrecord
280
     1
 90
-1023410169
  0
DICTIONARY
  5
A2E
330
A2D
100
AcDbDictionary
280
     1
281
     1
  3
ACAD_XREC_ROUNDTRIP
360
110F
  3
BUMPTILE
360
A30
  3
DIFFUSETILE
360
A2F
  3
OPACITYTILE
360
A33
  3
REFLECTIONTILE
360
A32
  3
REFRACTIONTILE
360
A34
  3
SPECULARTILE
360
A31
  0
DICTIONARY
  5
A26
330
A25
100
AcDbDictionary
280
     1
281
     1
  3
ACAD_XREC_ROUNDTRIP
360
110E
  3
BUMPTILE
360
A28
  3
DIFFUSETILE
360
A27
  3
OPACITYTILE
360
A2B
  3
REFLECTIONTILE
360
A2A
  3
REFRACTIONTILE
360
A2C
  3
SPECULARTILE
360
A29
  0
DICTIONARY
  5
A36
330
A35
100
AcDbDictionary
280
     1
281
     1
  3
ACAD_XREC_ROUNDTRIP
360
1110
  3
BUMPTILE
360
A38
  3
DIFFUSETILE
360
A37
  3
OPACITYTILE
360
A3B
  3
REFLECTIONTILE
360
A3A
  3
REFRACTIONTILE
360
A3C
  3
SPECULARTILE
360
A39
  0
DICTIONARY
  5
A95
330
78
100
AcDbDictionary
280
     1
281
     1
  3
ACAD_ROUNDTRIP_2008_TABLESTYLE_CELLSTYLEMAP
360
1103
  3
ACAD_XREC_ROUNDTRIP
360
1106
  0
XRECORD
  5
110F
102
{ACAD_REACTORS
330
A2E
102
}
330
A2E
100
AcDbXrecord
280
     1
102
MATERIAL
148
0.0
149
0.0
149
0.0
 93
        0
 94
      127
282
     0
 72
     0
 77
     0
171
     0
175
     0
179
     0
273
     0
  0
XRECORD
  5
A30
102
{ACAD_REACTORS
330
A2E
102
}
330
A2E
100
AcDbXrecord
280
     1
270
     1
271
     1
  0
XRECORD
  5
A2F
102
{ACAD_REACTORS
330
A2E
102
}
330
A2E
100
AcDbXrecord
280
     1
270
     1
271
     1
  0
XRECORD
  5
A33
102
{ACAD_REACTORS
330
A2E
102
}
330
A2E
100
AcDbXrecord
280
     1
270
     1
271
     1
  0
XRECORD
  5
A32
102
{ACAD_REACTORS
330
A2E
102
}
330
A2E
100
AcDbXrecord
280
     1
270
     1
271
     1
  0
XRECORD
  5
A34
102
{ACAD_REACTORS
330
A2E
102
}
330
A2E
100
AcDbXrecord
280
     1
270
     1
271
     1
  0
XRECORD
  5
A31
102
{ACAD_REACTORS
330
A2E
102
}
330
A2E
100
AcDbXrecord
280
     1
270
     1
271
     1
  0
XRECORD
  5
110E
102
{ACAD_REACTORS
330
A26
102
}
330
A26
100
AcDbXrecord
280
     1
102
MATERIAL
148
0.0
149
0.0
149
0.0
 93
        0
 94
      127
282
     0
 72
     0
 77
     0
171
     0
175
     0
179
     0
273
     0
  0
XRECORD
  5
A28
102
{ACAD_REACTORS
330
A26
102
}
330
A26
100
AcDbXrecord
280
     1
270
     1
271
     1
  0
XRECORD
  5
A27
102
{ACAD_REACTORS
330
A26
102
}
330
A26
100
AcDbXrecord
280
     1
270
     1
271
     1
  0
XRECORD
  5
A2B
102
{ACAD_REACTORS
330
A26
102
}
330
A26
100
AcDbXrecord
280
     1
270
     1
271
     1
  0
XRECORD
  5
A2A
102
{ACAD_REACTORS
330
A26
102
}
330
A26
100
AcDbXrecord
280
     1
270
     1
271
     1
  0
XRECORD
  5
A2C
102
{ACAD_REACTORS
330
A26
102
}
330
A26
100
AcDbXrecord
280
     1
270
     1
271
     1
  0
XRECORD
  5
A29
102
{ACAD_REACTORS
330
A26
102
}
330
A26
100
AcDbXrecord
280
     1
270
     1
271
     1
  0
XRECORD
  5
1110
102
{ACAD_REACTORS
330
A36
102
}
330
A36
100
AcDbXrecord
280
     1
102
MATERIAL
148
0.0
149
0.0
149
0.0
 93
        0
 94
      127
282
     0
 72
     0
 77
     0
171
     0
175
     0
179
     0
273
     0
  0
XRECORD
  5
A38
102
{ACAD_REACTORS
330
A36
102
}
330
A36
100
AcDbXrecord
280
     1
270
     1
271
     1
  0
XRECORD
  5
A37
102
{ACAD_REACTORS
330
A36
102
}
330
A36
100
AcDbXrecord
280
     1
270
     1
271
     1
  0
XRECORD
  5
A3B
102
{ACAD_REACTORS
330
A36
102
}
330
A36
100
AcDbXrecord
280
     1
270
     1
271
     1
  0
XRECORD
  5
A3A
102
{ACAD_REACTORS
330
A36
102
}
330
A36
100
AcDbXrecord
280
     1
270
     1
271
     1
  0
XRECORD
  5
A3C
102
{ACAD_REACTORS
330
A36
102
}
330
A36
100
AcDbXrecord
280
     1
270
     1
271
     1
  0
XRECORD
  5
A39
102
{ACAD_REACTORS
330
A36
102
}
330
A36
100
AcDbXrecord
280
     1
270
     1
271
     1
  0
CELLSTYLEMAP
  5
1103
102
{ACAD_REACTORS
330
A95
102
}
330
A95
100
AcDbCellStyleMap
 90
        3
300
CELLSTYLE
  1
TABLEFORMAT_BEGIN
 90
        5
170
     1
 91
        0
 92
    32768
 62
   257
 93
        1
300
CONTENTFORMAT
  1
CONTENTFORMAT_BEGIN
 90
        0
 91
        0
 92
        4
 93
        0
300

 40
0.0
140
1.0
 94
        5
 62
     0
340
11
144
6.0
309
CONTENTFORMAT_END
171
     1
301
MARGIN
  1
CELLMARGIN_BEGIN
 40
1.5
 40
1.5
 40
1.5
 40
1.5
 40
0.18
 40
0.18
309
CELLMARGIN_END
 94
        6
 95
        1
302
GRIDFORMAT
  1
GRIDFORMAT_BEGIN
 90
        0
 91
        1
 62
     0
 92
       -2
340
0
 93
        0
 40
0.045
309
GRIDFORMAT_END
 95
        2
302
GRIDFORMAT
  1
GRIDFORMAT_BEGIN
 90
        0
 91
        1
 62
     0
 92
       -2
340
0
 93
        0
 40
0.045
309
GRIDFORMAT_END
 95
        4
302
GRIDFORMAT
  1
GRIDFORMAT_BEGIN
 90
        0
 91
        1
 62
     0
 92
       -2
340
0
 93
        0
 40
0.045
309
GRIDFORMAT_END
 95
        8
302
GRIDFORMAT
  1
GRIDFORMAT_BEGIN
 90
        0
 91
        1
 62
     0
 92
       -2
340
0
 93
        0
 40
0.045
309
GRIDFORMAT_END
 95
       16
302
GRIDFORMAT
  1
GRIDFORMAT_BEGIN
 90
        0
 91
        1
 62
     0
 92
       -2
340
0
 93
        0
 40
0.045
309
GRIDFORMAT_END
 95
       32
302
GRIDFORMAT
  1
GRIDFORMAT_BEGIN
 90
        0
 91
        1
 62
     0
 92
       -2
340
0
 93
        0
 40
0.045
309
GRIDFORMAT_END
309
TABLEFORMAT_END
  1
CELLSTYLE_BEGIN
 90
        1
 91
        1
300
_TITLE
309
CELLSTYLE_END
300
CELLSTYLE
  1
TABLEFORMAT_BEGIN
 90
        5
170
     1
 91
        0
 92
        0
 62
   257
 93
        1
300
CONTENTFORMAT
  1
CONTENTFORMAT_BEGIN
 90
        0
 91
        0
 92
        4
 93
        0
300

 40
0.0
140
1.0
 94
        5
 62
     0
340
11
144
4.5
309
CONTENTFORMAT_END
171
     1
301
MARGIN
  1
CELLMARGIN_BEGIN
 40
1.5
 40
1.5
 40
1.5
 40
1.5
 40
0.18
 40
0.18
309
CELLMARGIN_END
 94
        6
 95
        1
302
GRIDFORMAT
  1
GRIDFORMAT_BEGIN
 90
        0
 91
        1
 62
     0
 92
       -2
340
0
 93
        0
 40
0.045
309
GRIDFORMAT_END
 95
        2
302
GRIDFORMAT
  1
GRIDFORMAT_BEGIN
 90
        0
 91
        1
 62
     0
 92
       -2
340
0
 93
        0
 40
0.045
309
GRIDFORMAT_END
 95
        4
302
GRIDFORMAT
  1
GRIDFORMAT_BEGIN
 90
        0
 91
        1
 62
     0
 92
       -2
340
0
 93
        0
 40
0.045
309
GRIDFORMAT_END
 95
        8
302
GRIDFORMAT
  1
GRIDFORMAT_BEGIN
 90
        0
 91
        1
 62
     0
 92
       -2
340
0
 93
        0
 40
0.045
309
GRIDFORMAT_END
 95
       16
302
GRIDFORMAT
  1
GRIDFORMAT_BEGIN
 90
        0
 91
        1
 62
     0
 92
       -2
340
0
 93
        0
 40
0.045
309
GRIDFORMAT_END
 95
       32
302
GRIDFORMAT
  1
GRIDFORMAT_BEGIN
 90
        0
 91
        1
 62
     0
 92
       -2
340
0
 93
        0
 40
0.045
309
GRIDFORMAT_END
309
TABLEFORMAT_END
  1
CELLSTYLE_BEGIN
 90
        2
 91
        1
300
_HEADER
309
CELLSTYLE_END
300
CELLSTYLE
  1
TABLEFORMAT_BEGIN
 90
        5
170
     1
 91
        0
 92
        0
 62
   257
 93
        1
300
CONTENTFORMAT
  1
CONTENTFORMAT_BEGIN
 90
        0
 91
        0
 92
        4
 93
        0
300

 40
0.0
140
1.0
 94
        2
 62
     0
340
11
144
4.5
309
CONTENTFORMAT_END
171
     1
301
MARGIN
  1
CELLMARGIN_BEGIN
 40
1.5
 40
1.5
 40
1.5
 40
1.5
 40
0.18
 40
0.18
309
CELLMARGIN_END
 94
        6
 95
        1
302
GRIDFORMAT
  1
GRIDFORMAT_BEGIN
 90
        0
 91
        1
 62
     0
 92
       -2
340
0
 93
        0
 40
0.045
309
GRIDFORMAT_END
 95
        2
302
GRIDFORMAT
  1
GRIDFORMAT_BEGIN
 90
        0
 91
        1
 62
     0
 92
       -2
340
0
 93
        0
 40
0.045
309
GRIDFORMAT_END
 95
        4
302
GRIDFORMAT
  1
GRIDFORMAT_BEGIN
 90
        0
 91
        1
 62
     0
 92
       -2
340
0
 93
        0
 40
0.045
309
GRIDFORMAT_END
 95
        8
302
GRIDFORMAT
  1
GRIDFORMAT_BEGIN
 90
        0
 91
        1
 62
     0
 92
       -2
340
0
 93
        0
 40
0.045
309
GRIDFORMAT_END
 95
       16
302
GRIDFORMAT
  1
GRIDFORMAT_BEGIN
 90
        0
 91
        1
 62
     0
 92
       -2
340
0
 93
        0
 40
0.045
309
GRIDFORMAT_END
 95
       32
302
GRIDFORMAT
  1
GRIDFORMAT_BEGIN
 90
        0
 91
        1
 62
     0
 92
       -2
340
0
 93
        0
 40
0.045
309
GRIDFORMAT_END
309
TABLEFORMAT_END
  1
CELLSTYLE_BEGIN
 90
        3
 91
        2
300
_DATA
309
CELLSTYLE_END
  0
XRECORD
  5
1106
102
{ACAD_REACTORS
330
A95
102
}
330
A95
100
AcDbXrecord
280
     1
102
ACAD_ROUNDTRIP_PRE2007_TABLESTYLE
 90
        4
 91
        0
  1

 92
        4
 93
        0
  2

 94
        4
 95
        0
  3

  0
ENDSEC
  0
EOF
