  0
SECTION
  2
HEADER
  9
$ACADVER
  1
AC1015
  9
$ACADMAINTVER
 70
    20
  9
$DWGCODEPAGE
  3
ANSI_1252
  9
$INSBASE
 10
0.0
 20
0.0
 30
0.0
  9
$EXTMIN
 10
97.65741861239167
 20
333.7972850375011
 30
-0.0000000349181948
  9
$EXTMAX
 10
746.8779611641839
 20
542.9474268931025
 30
0.0000000814935746
  9
$LIMMIN
 10
0.0
 20
0.0
  9
$LIMMAX
 10
420.0
 20
297.0
  9
$ORTHOMODE
 70
     0
  9
$REGENMODE
 70
     1
  9
$FILLMODE
 70
     1
  9
$QTEXTMODE
 70
     0
  9
$MIRRTEXT
 70
     1
  9
$LTSCALE
 40
1.0
  9
$ATTMODE
 70
     1
  9
$TEXTSIZE
 40
2.5
  9
$TRACEWID
 40
1.0
  9
$TEXTSTYLE
  7
STANDARD
  9
$CLAYER
  8
0
  9
$CELTYPE
  6
ByLayer
  9
$CECOLOR
 62
   256
  9
$CELTSCALE
 40
1.0
  9
$DISPSILH
 70
     0
  9
$DIMSCALE
 40
1.0
  9
$DIMASZ
 40
2.5
  9
$DIMEXO
 40
1.0
  9
$DIMDLI
 40
10.0
  9
$DIMRND
 40
0.0
  9
$DIMDLE
 40
0.0
  9
$DIMEXE
 40
1.0
  9
$DIMTP
 40
0.1
  9
$DIMTM
 40
0.1
  9
$DIMTXT
 40
3.5
  9
$DIMCEN
 40
0.0
  9
$DIMTSZ
 40
0.0
  9
$DIMTOL
 70
     0
  9
$DIMLIM
 70
     0
  9
$DIMTIH
 70
     0
  9
$DIMTOH
 70
     0
  9
$DIMSE1
 70
     0
  9
$DIMSE2
 70
     0
  9
$DIMTAD
 70
     1
  9
$DIMZIN
 70
     8
  9
$DIMBLK
  1

  9
$DIMASO
 70
     1
  9
$DIMSHO
 70
     1
  9
$DIMPOST
  1

  9
$DIMAPOST
  1
"
  9
$DIMALT
 70
     0
  9
$DIMALTD
 70
     2
  9
$DIMALTF
 40
0.0393701
  9
$DIMLFAC
 40
1.0
  9
$DIMTOFL
 70
     1
  9
$DIMTVP
 40
0.0
  9
$DIMTIX
 70
     0
  9
$DIMSOXD
 70
     0
  9
$DIMSAH
 70
     0
  9
$DIMBLK1
  1

  9
$DIMBLK2
  1

  9
$DIMSTYLE
  2
AM_DIN
  9
$DIMCLRD
 70
   256
  9
$DIMCLRE
 70
   256
  9
$DIMCLRT
 70
     2
  9
$DIMTFAC
 40
0.71
  9
$DIMGAP
 40
1.5
  9
$DIMJUST
 70
     0
  9
$DIMSD1
 70
     0
  9
$DIMSD2
 70
     0
  9
$DIMTOLJ
 70
     0
  9
$DIMTZIN
 70
     8
  9
$DIMALTZ
 70
     0
  9
$DIMALTTZ
 70
     0
  9
$DIMUPT
 70
     0
  9
$DIMDEC
 70
     2
  9
$DIMTDEC
 70
     3
  9
$DIMALTU
 70
     2
  9
$DIMALTTD
 70
     4
  9
$DIMTXSTY
  7
STANDARD
  9
$DIMAUNIT
 70
     0
  9
$DIMADEC
 70
     0
  9
$DIMALTRND
 40
0.0
  9
$DIMAZIN
 70
     2
  9
$DIMDSEP
 70
    46
  9
$DIMATFIT
 70
     3
  9
$DIMFRAC
 70
     0
  9
$DIMLDRBLK
  1

  9
$DIMLUNIT
 70
     2
  9
$DIMLWD
 70
    -1
  9
$DIMLWE
 70
    -1
  9
$DIMTMOVE
 70
     0
  9
$LUNITS
 70
     2
  9
$LUPREC
 70
     2
  9
$SKETCHINC
 40
1.0
  9
$FILLETRAD
 40
2.5
  9
$AUNITS
 70
     0
  9
$AUPREC
 70
     0
  9
$MENU
  1
.
  9
$ELEVATION
 40
0.0
  9
$PELEVATION
 40
0.0
  9
$THICKNESS
 40
0.0
  9
$LIMCHECK
 70
     0
  9
$CHAMFERA
 40
2.5
  9
$CHAMFERB
 40
2.5
  9
$CHAMFERC
 40
20.0
  9
$CHAMFERD
 40
0.0
  9
$SKPOLY
 70
     0
  9
$TDCREATE
 40
2452702.515835023
  9
$TDUCREATE
 40
2452702.474168357
  9
$TDUPDATE
 40
2454041.892118982
  9
$TDUUPDATE
 40
2454041.850452314
  9
$TDINDWG
 40
0.0044585185
  9
$TDUSRTIMER
 40
0.0044585185
  9
$USRTIMER
 70
     1
  9
$ANGBASE
 50
0.0
  9
$ANGDIR
 70
     0
  9
$PDMODE
 70
     0
  9
$PDSIZE
 40
0.0
  9
$PLINEWID
 40
0.0
  9
$SPLFRAME
 70
     0
  9
$SPLINETYPE
 70
     6
  9
$SPLINESEGS
 70
     8
  9
$HANDSEED
  5
956
  9
$SURFTAB1
 70
     6
  9
$SURFTAB2
 70
     6
  9
$SURFTYPE
 70
     6
  9
$SURFU
 70
     6
  9
$SURFV
 70
     6
  9
$UCSBASE
  2

  9
$UCSNAME
  2

  9
$UCSORG
 10
0.0
 20
0.0
 30
0.0
  9
$UCSXDIR
 10
1.0
 20
0.0
 30
0.0
  9
$UCSYDIR
 10
0.0
 20
1.0
 30
0.0
  9
$UCSORTHOREF
  2

  9
$UCSORTHOVIEW
 70
     0
  9
$UCSORGTOP
 10
0.0
 20
0.0
 30
0.0
  9
$UCSORGBOTTOM
 10
0.0
 20
0.0
 30
0.0
  9
$UCSORGLEFT
 10
0.0
 20
0.0
 30
0.0
  9
$UCSORGRIGHT
 10
0.0
 20
0.0
 30
0.0
  9
$UCSORGFRONT
 10
0.0
 20
0.0
 30
0.0
  9
$UCSORGBACK
 10
0.0
 20
0.0
 30
0.0
  9
$PUCSBASE
  2

  9
$PUCSNAME
  2

  9
$PUCSORG
 10
0.0
 20
0.0
 30
0.0
  9
$PUCSXDIR
 10
1.0
 20
0.0
 30
0.0
  9
$PUCSYDIR
 10
0.0
 20
1.0
 30
0.0
  9
$PUCSORTHOREF
  2

  9
$PUCSORTHOVIEW
 70
     0
  9
$PUCSORGTOP
 10
0.0
 20
0.0
 30
0.0
  9
$PUCSORGBOTTOM
 10
0.0
 20
0.0
 30
0.0
  9
$PUCSORGLEFT
 10
0.0
 20
0.0
 30
0.0
  9
$PUCSORGRIGHT
 10
0.0
 20
0.0
 30
0.0
  9
$PUCSORGFRONT
 10
0.0
 20
0.0
 30
0.0
  9
$PUCSORGBACK
 10
0.0
 20
0.0
 30
0.0
  9
$USERI1
 70
     0
  9
$USERI2
 70
     0
  9
$USERI3
 70
     0
  9
$USERI4
 70
     0
  9
$USERI5
 70
     0
  9
$USERR1
 40
0.0
  9
$USERR2
 40
0.0
  9
$USERR3
 40
0.0
  9
$USERR4
 40
0.0
  9
$USERR5
 40
0.0
  9
$WORLDVIEW
 70
     1
  9
$SHADEDGE
 70
     3
  9
$SHADEDIF
 70
    70
  9
$TILEMODE
 70
     1
  9
$MAXACTVP
 70
    64
  9
$PINSBASE
 10
0.0
 20
0.0
 30
0.0
  9
$PLIMCHECK
 70
     0
  9
$PEXTMIN
 10
1.000000000000000E+20
 20
1.000000000000000E+20
 30
1.000000000000000E+20
  9
$PEXTMAX
 10
-1.000000000000000E+20
 20
-1.000000000000000E+20
 30
-1.000000000000000E+20
  9
$PLIMMIN
 10
0.0
 20
0.0
  9
$PLIMMAX
 10
420.0
 20
297.0
  9
$UNITMODE
 70
     0
  9
$VISRETAIN
 70
     1
  9
$PLINEGEN
 70
     0
  9
$PSLTSCALE
 70
     1
  9
$TREEDEPTH
 70
  3020
  9
$CMLSTYLE
  2
Standard
  9
$CMLJUST
 70
     0
  9
$CMLSCALE
 40
20.0
  9
$PROXYGRAPHICS
 70
     1
  9
$MEASUREMENT
 70
     1
  9
$CELWEIGHT
370
    -1
  9
$ENDCAPS
280
     0
  9
$JOINSTYLE
280
     0
  9
$LWDISPLAY
290
     0
  9
$INSUNITS
 70
     4
  9
$HYPERLINKBASE
  1

  9
$STYLESHEET
  1
monochrome.ctb
  9
$XEDIT
290
     1
  9
$CEPSNTYPE
380
     0
  9
$PSTYLEMODE
290
     1
  9
$FINGERPRINTGUID
  2
{D5091DE6-A8E7-4749-B1FA-F4240FAEB0F0}
  9
$VERSIONGUID
  2
{185FC363-D36E-451A-AB98-7C8C5F82C461}
  9
$EXTNAMES
290
     1
  9
$PSVPSCALE
 40
0.0
  9
$OLESTARTUP
290
     0
  0
ENDSEC
  0
SECTION
  2
CLASSES
  0
CLASS
  1
ACDBDICTIONARYWDFLT
  2
AcDbDictionaryWithDefault
  3
ObjectDBX Classes
 90
        0
280
     0
281
     0
  0
CLASS
  1
ACDBPLACEHOLDER
  2
AcDbPlaceHolder
  3
ObjectDBX Classes
 90
        0
280
     0
281
     0
  0
CLASS
  1
LAYOUT
  2
AcDbLayout
  3
ObjectDBX Classes
 90
        0
280
     0
281
     0
  0
CLASS
  1
AMGSETTINGSOBJ
  2
AmgSettingsObj
  3
"AcadM|Product Description: AutoCAD Mechanical 2000|Company: Autodesk"
 90
        0
280
     0
281
     0
  0
CLASS
  1
ACME_DOCUMENT
  2
AcMeDbDoc
  3
AcMeServices
 90
        0
280
     0
281
     0
  0
CLASS
  1
ACMESCOPE
  2
AcMeScope
  3
AcMeServices
 90
        0
280
     0
281
     0
  0
CLASS
  1
ACMECOMMANDHISTORY
  2
AcMeCommandHistory
  3
AcMeServices
 90
        0
280
     0
281
     0
  0
CLASS
  1
DICTIONARYVAR
  2
AcDbDictionaryVar
  3
ObjectDBX Classes
 90
        0
280
     0
281
     0
  0
CLASS
  1
ACIMSYSVARMAN
  2
AcImSysVarManager
  3
AcMeServices
 90
        0
280
     0
281
     0
  0
CLASS
  1
ACIMREALSYSVAR
  2
AcImRealSysVar
  3
AcMeServices
 90
        0
280
     0
281
     0
  0
CLASS
  1
ACIMINTSYSVAR
  2
AcImIntSysVar
  3
AcMeServices
 90
        0
280
     0
281
     0
  0
CLASS
  1
ACMEDRAWINGMAN
  2
AcMeDrawingMan
  3
AcMeServices
 90
        0
280
     0
281
     0
  0
CLASS
  1
ACMEVIEW
  2
AcMeView
  3
AcMeServices
 90
        0
280
     0
281
     0
  0
CLASS
  1
ACDBENTITYCACHE
  2
AcMeEntityCache
  3
AcMeServices
 90
        0
280
     0
281
     0
  0
CLASS
  1
GSMANAGER
  2
AcMeGSManager
  3
AcMeServices
 90
        0
280
     0
281
     0
  0
CLASS
  1
AMDTINTERNALREACTOR
  2
AmdtInternalReactor
  3
AcMeServices
 90
        0
280
     0
281
     0
  0
CLASS
  1
ACMESTATEMGR
  2
AcMeStateMgr
  3
AcMeServices
 90
        0
280
     0
281
     0
  0
CLASS
  1
ACGREFMASTER
  2
AcGrefMaster
  3
AcAttribServices
 90
        0
280
     0
281
     0
  0
CLASS
  1
ACME_DATABASE
  2
AcMeDbDatabase
  3
AcMeServices
 90
        0
280
     0
281
     0
  0
CLASS
  1
ACRFINSADJUSTERMGR
  2
AcRfInsAdjusterMgr
  3
AcMeServices
 90
        0
280
     0
281
     0
  0
CLASS
  1
ACGREFACADMASTER
  2
AcGrefacadMaster
  3
AcGrefServices
 90
        0
280
     0
281
     0
  0
CLASS
  1
AMIMASTER
  2
AmiMaster
  3
AmiServices
 90
        0
280
     0
281
     0
  0
CLASS
  1
ACMDATADICTIONARY
  2
AcmDataDictionary
  3
"AcmSymBB|Product Description: AutoCAD Mechanical 2004 DX|Company: Autodesk"
 90
        0
280
     0
281
     0
  0
CLASS
  1
ACMDATAENTRYBLOCK
  2
AcmDataEntryBlock
  3
"AcmSymBB|Product Description: AutoCAD Mechanical 2004 DX|Company: Autodesk"
 90
        0
280
     0
281
     0
  0
CLASS
  1
ACIMSTRSYSVAR
  2
AcImStrSysVar
  3
AcMeServices
 90
        0
280
     0
281
     0
  0
CLASS
  1
ACMSTANDARDDIN
  2
AcmStandardDIN
  3
"Amdt_StdImp|Product Description: AutoCAD Mechanical 2004 DX|Company: Autodesk"
 90
        0
280
     0
281
     0
  0
CLASS
  1
AMGOBJPROPCFG
  2
AmgObjPropCfg
  3
"AmgLay|Product Description: AutoCAD Mechanical 2000|Company: Autodesk"
 90
        1
280
     0
281
     0
  0
CLASS
  1
AMDTEDGESTANDARDDIN
  2
AmdtEdgeStdDIN
  3
"Amdt_StdImp|Product Description: AutoCAD Mechanical 2004 DX|Company: Autodesk"
 90
        0
280
     0
281
     0
  0
CLASS
  1
ACMSURFSTANDARDDIN
  2
AcmSurfTextStdDIN
  3
"Amdt_StdImp|Product Description: AutoCAD Mechanical 2004 DX|Company: Autodesk"
 90
        0
280
     0
281
     0
  0
CLASS
  1
ACMFCFSTANDARDDIN
  2
AcmFCFStdDIN
  3
"Amdt_StdImp|Product Description: AutoCAD Mechanical 2004 DX|Company: Autodesk"
 90
        0
280
     0
281
     0
  0
CLASS
  1
ACMWELDSTANDARDDIN
  2
AcmWeldingStdDIN
  3
"Amdt_StdImp|Product Description: AutoCAD Mechanical 2004 DX|Company: Autodesk"
 90
        0
280
     0
281
     0
  0
CLASS
  1
ACMIDSTANDARDDIN
  2
AcmIdStdDIN
  3
"Amdt_StdImp|Product Description: AutoCAD Mechanical 2004 DX|Company: Autodesk"
 90
        0
280
     0
281
     0
  0
CLASS
  1
ACMDATUMSTANDARDDIN
  2
AcmDatumStdDIN
  3
"Amdt_StdImp|Product Description: AutoCAD Mechanical 2004 DX|Company: Autodesk"
 90
        0
280
     0
281
     0
  0
CLASS
  1
ACMBOMSTANDARDDIN
  2
AcmBOMStdDIN
  3
"Amdt_StdImp|Product Description: AutoCAD Mechanical 2004 DX|Company: Autodesk"
 90
        0
280
     0
281
     0
  0
CLASS
  1
ACMDETAILSTANDARDDIN
  2
AmdtDetailSymStdDIN
  3
"Amdt_StdImp|Product Description: AutoCAD Mechanical 2004 DX|Company: Autodesk"
 90
        0
280
     0
281
     0
  0
CLASS
  1
ACMSECTIONSTANDARDDIN
  2
AmdtSectionSymStdDIN
  3
"Amdt_StdImp|Product Description: AutoCAD Mechanical 2004 DX|Company: Autodesk"
 90
        0
280
     0
281
     0
  0
CLASS
  1
ACMCENTERLINESTANDARDDIN
  2
AmdtCenterLineStdDIN
  3
"Amdt_StdImp|Product Description: AutoCAD Mechanical 2004 DX|Company: Autodesk"
 90
        0
280
     0
281
     0
  0
CLASS
  1
ACAMGLAYSTD
  2
AcAmgLayStd
  3
"AcAmgLayStd|Product Description: AutoCAD Mechanical 2000|Company: Autodesk"
 90
        0
280
     0
281
     0
  0
CLASS
  1
ACAMGDIMSTD
  2
AcAmgDimStd
  3
"AcAmgDimStd|Product Description: AutoCAD Mechanical 2000|Company: Autodesk"
 90
        0
280
     0
281
     0
  0
CLASS
  1
ACAMGTITLESTD
  2
AcAmgTitleStd
  3
"TITLEAPP"
 90
        0
280
     0
281
     0
  0
CLASS
  1
LAYER_INDEX
  2
AcDbLayerIndex
  3
ObjectDBX Classes
 90
        0
280
     0
281
     0
  0
CLASS
  1
IDBUFFER
  2
AcDbIdBuffer
  3
ObjectDBX Classes
 90
        0
280
     0
281
     0
  0
CLASS
  1
ACAMGFILTERDAT
  2
AcAmgFilterDat
  3
"AcadM|Product Description: AutoCAD Mechanical 2000|Company: Autodesk"
 90
        0
280
     0
281
     0
  0
CLASS
  1
TABLESTYLE
  2
AcDbTableStyle
  3
ObjectDBX Classes
 90
     2047
280
     0
281
     0
  0
CLASS
  1
AM_DRAWING_MGR
  2
AcDmDwgMgr
  3
AcMechDwgViewMgmt
 90
        0
280
     0
281
     0
  0
CLASS
  1
AM_DWG_DOCUMENT
  2
AcDmDwgDocument
  3
AcMechDwgViewMgmt
 90
        0
280
     0
281
     0
  0
CLASS
  1
AM_DWG_SHEET
  2
AcDmSheet
  3
AcMechDwgViewMgmt
 90
        0
280
     0
281
     0
  0
CLASS
  1
AM_VIEWDIMPARMAP
  2
AcDmViewDimParMap
  3
AcMechDwgViewMgmt
 90
        0
280
     0
281
     0
  0
CLASS
  1
AM_DWGMGR_NAME
  2
AcDmDwgMgrName
  3
AcMechDwgViewMgmt
 90
        0
280
     0
281
     0
  0
CLASS
  1
AMDTMENUSTATEMGR
  2
AmdtMenuStateMgr
  3
McadcomServices
 90
        0
280
     0
281
     0
  0
CLASS
  1
AMDTMCOMMENUSTATE
  2
AmdtMcomMenuState
  3
McadcomServices
 90
        0
280
     0
281
     0
  0
CLASS
  1
MAPIAMMOUDLE
  2
MApiAmModule
  3
MApiAmServices
 90
        0
280
     0
281
     0
  0
CLASS
  1
AMDTADMENUSTATE
  2
AmdtAdMenuState
  3
DesignerServices
 90
        0
280
     0
281
     0
  0
CLASS
  1
ADAPPL
  2
AcAdAppl
  3
DesignerServices
 90
        0
280
     0
281
     0
  0
CLASS
  1
DEPMGR
  2
AcAdDepMgr
  3
DesignerServices
 90
        0
280
     0
281
     0
  0
CLASS
  1
PARAMMGR
  2
AcAdParamMgr
  3
DesignerServices
 90
        0
280
     0
281
     0
  0
CLASS
  1
PARAMSCOPE
  2
AcAdParamScope
  3
DesignerServices
 90
        0
280
     0
281
     0
  0
CLASS
  1
NAMEDAPPL
  2
AcAdNamedAppl
  3
DesignerServices
 90
        0
280
     0
281
     0
  0
CLASS
  1
AMDTDMMENUSTATE
  2
AmdtDmMenuState
  3
AcMechDwgViewMgmt
 90
        0
280
     0
281
     0
  0
CLASS
  1
AMDTAMMENUSTATE
  2
AmdtAmMenuState
  3
DesignerAssemblies
 90
        0
280
     0
281
     0
  0
CLASS
  1
ACAMPROJECT
  2
AcAmProject
  3
DesignerAssemblies
 90
        0
280
     0
281
     0
  0
CLASS
  1
ACAMGRCOMPDEF
  2
AcAmGrCompDef
  3
DesignerAssemblies
 90
        0
280
     0
281
     0
  0
CLASS
  1
ACCMCONTEXT
  2
AcCmContext
  3
DesignerAssemblies
 90
        0
280
     0
281
     0
  0
CLASS
  1
ACAMCOMPDEF
  2
AcAmCompDef
  3
DesignerAssemblies
 90
        0
280
     0
281
     0
  0
CLASS
  1
ACAMCOMPDEFMGR
  2
AcAmCompDefMgr
  3
DesignerAssemblies
 90
        0
280
     0
281
     0
  0
CLASS
  1
AMCONTEXTMGR
  2
AcAmContextMgr
  3
DesignerAssemblies
 90
        0
280
     0
281
     0
  0
CLASS
  1
ACAMCONTEXTMODELER
  2
AcAmContextModeler
  3
DesignerAssemblies
 90
        0
280
     0
281
     0
  0
CLASS
  1
ACMTHREADLINESTANDARDDIN
  2
AmdtThreadLineStdDIN
  3
"Amdt_StdImp|Product Description: AutoCAD Mechanical 2004 DX|Company: Autodesk"
 90
        0
280
     0
281
     0
  0
CLASS
  1
ACMNOTESTANDARDDIN
  2
AmdtNoteStdDIN
  3
"Amdt_StdImp|Product Description: AutoCAD Mechanical 2004 DX|Company: Autodesk"
 90
        0
280
     0
281
     0
  0
CLASS
  1
AMDTNOTETEMPLATEDB
  2
AmdtNoteTemplateDB
  3
AMDT_STDIMP_MODULE_NAME
 90
        0
280
     0
281
     0
  0
CLASS
  1
CATALOGSTATE
  2
AcAmCatalogState
  3
DesignerAssemblies
 90
        0
280
     0
281
     0
  0
CLASS
  1
ACAMGRCOMPDEFSET
  2
AcAmGrCompDefSet
  3
DesignerAssemblies
 90
        0
280
     0
281
     0
  0
CLASS
  1
AMDTBROWSERDBTAB
  2
AmdtBrowserDbTab
  3
McadcomServices
 90
        0
280
     0
281
     0
  0
CLASS
  1
CBROWSERAPPOBJECT
  2
CBrowserAppObject
  3
McadcomServices
 90
        0
280
     0
281
     0
  0
CLASS
  1
DM_PLACEHOLDER
  2
AcDmSelsetPlaceholder
  3
AcMechDwgViewMgmt
 90
        0
280
     0
281
     0
  0
CLASS
  1
SORTENTSTABLE
  2
AcDbSortentsTable
  3
ObjectDBX Classes
 90
        0
280
     0
281
     0
  0
ENDSEC
  0
SECTION
  2
TABLES
  0
TABLE
  2
VPORT
  5
8
330
0
100
AcDbSymbolTable
 70
    55
  0
VPORT
  5
94D
330
8
100
AcDbSymbolTableRecord
100
AcDbViewportTableRecord
  2
*Active
 70
     0
 10
0.0
 20
0.0
 11
1.0
 21
1.0
 12
422.2676898882877
 22
438.3723559653017
 13
0.0
 23
0.0
 14
2.5
 24
2.5
 15
10.0
 25
10.0
 16
0.0
 26
0.0
 36
1.0
 17
0.0
 27
0.0
 37
0.0
 40
436.50458398075
 41
1.494545454545454
 42
50.0
 43
0.0
 44
0.0
 50
0.0
 51
0.0
 71
     0
 72
   100
 73
     1
 74
     3
 75
     0
 76
     0
 77
     0
 78
     0
281
     0
 65
     1
110
0.0
120
0.0
130
0.0
111
1.0
121
0.0
131
0.0
112
0.0
122
1.0
132
0.0
 79
     0
146
0.0
  0
ENDTAB
  0
TABLE
  2
LTYPE
  5
5
330
0
100
AcDbSymbolTable
 70
    21
  0
LTYPE
  5
14
330
5
100
AcDbSymbolTableRecord
100
AcDbLinetypeTableRecord
  2
ByBlock
 70
     0
  3

 72
    65
 73
     0
 40
0.0
  0
LTYPE
  5
15
330
5
100
AcDbSymbolTableRecord
100
AcDbLinetypeTableRecord
  2
ByLayer
 70
     0
  3

 72
    65
 73
     0
 40
0.0
  0
LTYPE
  5
16
330
5
100
AcDbSymbolTableRecord
100
AcDbLinetypeTableRecord
  2
Continuous
 70
     0
  3
Solid line
 72
    65
 73
     0
 40
0.0
  0
LTYPE
  5
52
330
5
100
AcDbSymbolTableRecord
100
AcDbLinetypeTableRecord
  2
Amconstr
 70
     0
  3
_______________________
 72
    65
 73
     2
 40
9999.0
 49
9999.0
 74
     0
 49
0.0
 74
     0
  0
LTYPE
  5
57
330
5
100
AcDbSymbolTableRecord
100
AcDbLinetypeTableRecord
  2
Amzigzag
 70
     0
  3
/\/-/\/-/\/-/\/-/\/-/\/
 72
    65
 73
     2
 40
11.0001
 49
0.0001
 74
     4
 75
   135
340
56
 46
0.04
 50
0.0
 44
0.0
 45
0.0
 49
-11.0
 74
     0
  0
LTYPE
  5
58
330
5
100
AcDbSymbolTableRecord
100
AcDbLinetypeTableRecord
  2
AM_DIN_F_W050
 70
     0
  3
__ __ __ __ __ __ __ __ __ __ __ __ __ __ __
 72
    65
 73
     2
 40
6.25
 49
4.75
 74
     0
 49
-1.5
 74
     0
  0
LTYPE
  5
59
330
5
100
AcDbSymbolTableRecord
100
AcDbLinetypeTableRecord
  2
AM_DIN_G_W050
 70
     0
  3
____ . ____ . ____ . ____ . ____ . ____ . ____
 72
    65
 73
     4
 40
13.75
 49
9.75
 74
     0
 49
-1.5
 74
     0
 49
1.0
 74
     0
 49
-1.5
 74
     0
  0
LTYPE
  5
5A
330
5
100
AcDbSymbolTableRecord
100
AcDbLinetypeTableRecord
  2
AM_DIN_K_W050
 70
     0
  3
_____ . . _____ . . _____ . . ____ .. ____
 72
    65
 73
     6
 40
16.25
 49
9.75
 74
     0
 49
-1.5
 74
     0
 49
1.0
 74
     0
 49
-1.5
 74
     0
 49
1.0
 74
     0
 49
-1.5
 74
     0
  0
LTYPE
  5
5B
330
5
100
AcDbSymbolTableRecord
100
AcDbLinetypeTableRecord
  2
AM_DIN_G_W050x2
 70
     0
  3
__ . __ . __ . __ . __ . __
 72
    65
 73
     4
 40
6.875
 49
4.75
 74
     0
 49
-0.875
 74
     0
 49
0.375
 74
     0
 49
-0.875
 74
     0
  0
LTYPE
  5
5C
330
5
100
AcDbSymbolTableRecord
100
AcDbLinetypeTableRecord
  2
AM_DIN_F_W050x2
 70
     0
  3
 _ _ _ _ _ _ _ _ _ _ _ _
 72
    65
 73
     2
 40
3.125
 49
2.25
 74
     0
 49
-0.875
 74
     0
  0
LTYPE
  5
69
330
5
100
AcDbSymbolTableRecord
100
AcDbLinetypeTableRecord
  2
ACDINWELD
 70
     0
  3
_ _ _ _ _
 72
    65
 73
     2
 40
2.0
 49
2.0
 74
     0
 49
-1.0
 74
     0
  0
LTYPE
  5
6A
330
5
100
AcDbSymbolTableRecord
100
AcDbLinetypeTableRecord
  2
ACDINTGB
 70
     0
  3
__ . . __ . .
 72
    65
 73
     6
 40
9.0
 49
4.0
 74
     0
 49
-1.0
 74
     0
 49
1.0
 74
     0
 49
-1.0
 74
     0
 49
1.0
 74
     0
 49
-1.0
 74
     0
  0
LTYPE
  5
6B
330
5
100
AcDbSymbolTableRecord
100
AcDbLinetypeTableRecord
  2
ACDINTGL
 70
     0
  3
_ _ _ _ _
 72
    65
 73
     2
 40
3.0
 49
2.0
 74
     0
 49
-1.0
 74
     0
  0
LTYPE
  5
6D
330
5
100
AcDbSymbolTableRecord
100
AcDbLinetypeTableRecord
  2
CENTER
 70
     0
  3
__ . __
 72
    65
 73
     4
 40
7.0
 49
4.0
 74
     0
 49
-1.0
 74
     0
 49
1.0
 74
     0
 49
-1.0
 74
     0
  0
LTYPE
  5
21B
330
5
100
AcDbSymbolTableRecord
100
AcDbLinetypeTableRecord
  2
STRICHPUNKT
 70
     0
  3
Strichpunkt __ . __ . __ . __ . __ . __ . __ . 
 72
    65
 73
     4
 40
25.4
 49
12.7
 74
     0
 49
-6.349999999999999
 74
     0
 49
0.0
 74
     0
 49
-6.349999999999999
 74
     0
  0
LTYPE
  5
21C
330
5
100
AcDbSymbolTableRecord
100
AcDbLinetypeTableRecord
  2
STRICHLINIE
 70
     0
  3
Strichlinie __ __ __ __ __ __ __ __ __ __ __ __
 72
    65
 73
     2
 40
19.05
 49
12.7
 74
     0
 49
-6.349999999999999
 74
     0
  0
LTYPE
  5
8A8
330
5
100
AcDbSymbolTableRecord
100
AcDbLinetypeTableRecord
  2
HIDDEN
 70
     0
  3
Verdeckt
 72
    65
 73
     2
 40
9.525
 49
6.349999999999999
 74
     0
 49
-3.174999999999999
 74
     0
  0
LTYPE
  5
8A9
330
5
100
AcDbSymbolTableRecord
100
AcDbLinetypeTableRecord
  2
PHANTOM2
 70
     0
  3
Phantom (.5x) ___ _ _ ___ _ _ ___ _ _ ___ _ _
 72
    65
 73
     6
 40
31.75
 49
15.875
 74
     0
 49
-3.174999999999999
 74
     0
 49
3.174999999999999
 74
     0
 49
-3.174999999999999
 74
     0
 49
3.174999999999999
 74
     0
 49
-3.174999999999999
 74
     0
  0
ENDTAB
  0
TABLE
  2
LAYER
  5
2
102
{ACAD_XDICTIONARY
360
8FF
102
}
330
0
100
AcDbSymbolTable
 70
     7
  0
LAYER
  5
10
330
2
100
AcDbSymbolTableRecord
100
AcDbLayerTableRecord
  2
0
 70
     0
 62
     7
  6
Continuous
370
    -3
390
F
  0
LAYER
  5
21D
330
2
100
AcDbSymbolTableRecord
100
AcDbLayerTableRecord
  2
P-0000
 70
     0
 62
     7
  6
Continuous
370
    -3
390
F
  0
LAYER
  5
21F
330
2
100
AcDbSymbolTableRecord
100
AcDbLayerTableRecord
  2
Defpoints
 70
     0
 62
     7
  6
Continuous
290
     0
370
    -3
390
F
  0
LAYER
  5
910
330
2
100
AcDbSymbolTableRecord
100
AcDbLayerTableRecord
  2
AM_8
 70
     0
 62
     1
  6
Continuous
370
    25
390
F
1001
AcAecLayerStandard
1000

1000

  0
ENDTAB
  0
TABLE
  2
STYLE
  5
3
330
0
100
AcDbSymbolTable
 70
     7
  0
STYLE
  5
11
330
3
100
AcDbSymbolTableRecord
100
AcDbTextStyleTableRecord
  2
STANDARD
 70
     0
 40
0.0
 41
1.0
 50
0.0
 71
     0
 42
2.5
  3
ISOCP.SHX
  4

  0
STYLE
  5
56
330
3
100
AcDbSymbolTableRecord
100
AcDbTextStyleTableRecord
  2

 70
     1
 40
0.0
 41
1.0
 50
0.0
 71
     0
 42
2.5
  3
ltypeshp.shx
  4

  0
STYLE
  5
5D
330
3
100
AcDbSymbolTableRecord
100
AcDbTextStyleTableRecord
  2
ACDINTS
 70
     0
 40
1.0
 41
1.0
 50
0.0
 71
     0
 42
2.5
  3
isocp.shx
  4

  0
STYLE
  5
68
330
3
100
AcDbSymbolTableRecord
100
AcDbTextStyleTableRecord
  2
ACDINGDT
 70
     0
 40
0.0
 41
1.0
 50
0.0
 71
     0
 42
2.5
  3
amgdt.shx
  4

  0
ENDTAB
  0
TABLE
  2
VIEW
  5
6
330
0
100
AcDbSymbolTable
 70
     0
  0
ENDTAB
  0
TABLE
  2
UCS
  5
7
330
0
100
AcDbSymbolTable
 70
     0
  0
ENDTAB
  0
TABLE
  2
APPID
  5
9
330
0
100
AcDbSymbolTable
 70
    16
  0
APPID
  5
12
330
9
100
AcDbSymbolTableRecord
100
AcDbRegAppTableRecord
  2
ACAD
 70
     0
  0
APPID
  5
30
330
9
100
AcDbSymbolTableRecord
100
AcDbRegAppTableRecord
  2
MCAD_NO_VIS
 70
     0
  0
APPID
  5
31
330
9
100
AcDbSymbolTableRecord
100
AcDbRegAppTableRecord
  2
ACAD_TEMP_GRAPHIC
 70
     0
  0
APPID
  5
44
330
9
100
AcDbSymbolTableRecord
100
AcDbRegAppTableRecord
  2
ACATTRIBSERVICES
 70
     0
  0
APPID
  5
226
330
9
100
AcDbSymbolTableRecord
100
AcDbRegAppTableRecord
  2
ACME_LAYERS
 70
     0
  0
APPID
  5
8AB
330
9
100
AcDbSymbolTableRecord
100
AcDbRegAppTableRecord
  2
AD_DRAW
 70
     0
  0
APPID
  5
8C9
330
9
100
AcDbSymbolTableRecord
100
AcDbRegAppTableRecord
  2
DESIGNERASSEMBLIES
 70
     0
  0
APPID
  5
8D3
330
9
100
AcDbSymbolTableRecord
100
AcDbRegAppTableRecord
  2
ACAD_DSTYLE_DIMARC_LENGTH_SYMBOL
 70
     0
  0
APPID
  5
8D4
330
9
100
AcDbSymbolTableRecord
100
AcDbRegAppTableRecord
  2
ACAD_DSTYLE_DIMJOGGED_JOGANGLE_SYMBOL
 70
     0
  0
APPID
  5
8E4
330
9
100
AcDbSymbolTableRecord
100
AcDbRegAppTableRecord
  2
ACADM_DIM_EDIT
 70
     0
  0
APPID
  5
8E5
330
9
100
AcDbSymbolTableRecord
100
AcDbRegAppTableRecord
  2
AMDT_DM_ADJ
 70
     0
  0
APPID
  5
8EF
330
9
100
AcDbSymbolTableRecord
100
AcDbRegAppTableRecord
  2
GENIUS_GENDIMSH_14
 70
     0
  0
APPID
  5
8FE
330
9
100
AcDbSymbolTableRecord
100
AcDbRegAppTableRecord
  2
AcAecLayerStandard
 70
     0
  0
APPID
  5
911
330
9
100
AcDbSymbolTableRecord
100
AcDbRegAppTableRecord
  2
GENIUS_GENODEF_13
 70
     0
  0
APPID
  5
912
330
9
100
AcDbSymbolTableRecord
100
AcDbRegAppTableRecord
  2
GENIUS_GENOBJ-N-HTC_13
 70
     0
  0
APPID
  5
913
330
9
100
AcDbSymbolTableRecord
100
AcDbRegAppTableRecord
  2
GENIUS_GENHATCH_13
 70
     0
  0
ENDTAB
  0
TABLE
  2
DIMSTYLE
  5
A
330
0
100
AcDbSymbolTable
 70
    14
100
AcDbDimStyleTable
 71
     1
340
70
  0
DIMSTYLE
105
70
330
A
100
AcDbSymbolTableRecord
100
AcDbDimStyleTableRecord
  2
AM_DIN
 70
     0
  4
"
 41
2.5
 42
1.0
 43
10.0
 44
1.0
 47
0.1
 48
0.1
 73
     0
 74
     0
 77
     1
 78
     8
 79
     2
140
3.5
141
0.0
143
0.0393701
146
0.71
147
1.5
172
     1
176
   256
177
   256
178
     2
271
     2
272
     3
274
     4
283
     0
284
     8
340
11
371
    -1
372
    -1
1001
ACAD_DSTYLE_DIMARC_LENGTH_SYMBOL
1070
   379
1070
     0
1001
ACAD_DSTYLE_DIMJOGGED_JOGANGLE_SYMBOL
1070
   384
1040
1.570796326794896
  0
DIMSTYLE
105
71
330
A
100
AcDbSymbolTableRecord
100
AcDbDimStyleTableRecord
  2
AM_DIN$3
 70
     0
  4
"
 41
2.5
 42
1.0
 43
10.0
 44
1.0
 47
0.1
 48
0.1
 73
     0
 77
     1
 78
     8
 79
     2
140
3.5
141
0.0
143
0.0393701
146
0.71
147
1.5
176
   256
177
   256
178
     2
271
     2
272
     3
274
     4
283
     0
284
     8
288
     1
289
     0
340
11
371
    -1
372
    -1
1001
ACAD_DSTYLE_DIMARC_LENGTH_SYMBOL
1070
   379
1070
     0
1001
ACAD_DSTYLE_DIMJOGGED_JOGANGLE_SYMBOL
1070
   384
1040
1.570796326794896
  0
DIMSTYLE
105
72
330
A
100
AcDbSymbolTableRecord
100
AcDbDimStyleTableRecord
  2
AM_DIN$4
 70
     0
  4
"
 41
2.5
 42
1.0
 43
10.0
 44
1.0
 47
0.1
 48
0.1
 73
     0
 77
     1
 78
     8
 79
     2
140
3.5
141
0.0
143
0.0393701
146
0.71
147
1.5
176
   256
177
   256
178
     2
271
     2
272
     3
274
     4
283
     0
284
     8
288
     1
289
     0
340
11
371
    -1
372
    -1
1001
ACAD_DSTYLE_DIMARC_LENGTH_SYMBOL
1070
   379
1070
     0
1001
ACAD_DSTYLE_DIMJOGGED_JOGANGLE_SYMBOL
1070
   384
1040
1.570796326794896
  0
DIMSTYLE
105
73
330
A
100
AcDbSymbolTableRecord
100
AcDbDimStyleTableRecord
  2
AM_DIN$6
 70
     0
  4
"
 41
2.5
 42
1.0
 43
10.0
 44
1.0
 47
0.1
 48
0.1
 73
     0
 74
     0
 78
     8
 79
     2
140
3.5
141
0.0
143
0.0393701
146
0.71
147
1.5
172
     1
176
   256
177
   256
178
     2
271
     2
272
     3
274
     4
283
     0
284
     8
340
11
371
    -1
372
    -1
1001
ACAD_DSTYLE_DIMARC_LENGTH_SYMBOL
1070
   379
1070
     0
1001
ACAD_DSTYLE_DIMJOGGED_JOGANGLE_SYMBOL
1070
   384
1040
1.570796326794896
  0
DIMSTYLE
105
74
330
A
100
AcDbSymbolTableRecord
100
AcDbDimStyleTableRecord
  2
AM_DIN$7
 70
     0
  4
"
 41
2.5
 42
1.0
 43
10.0
 44
1.0
 47
0.1
 48
0.1
 73
     0
 74
     0
 77
     1
 78
     8
 79
     2
140
5.0
141
0.0
143
0.0393701
146
0.71
147
1.5
172
     1
176
   256
177
   256
178
     2
271
     2
272
     3
274
     4
283
     0
284
     8
340
11
371
    -1
372
    -1
1001
ACAD_DSTYLE_DIMARC_LENGTH_SYMBOL
1070
   379
1070
     0
1001
ACAD_DSTYLE_DIMJOGGED_JOGANGLE_SYMBOL
1070
   384
1040
1.570796326794896
  0
DIMSTYLE
105
75
330
A
100
AcDbSymbolTableRecord
100
AcDbDimStyleTableRecord
  2
AM_DIN$SF
 70
     0
  4
"
 41
2.5
 42
1.0
 43
10.0
 44
1.0
 47
0.1
 48
0.1
 73
     0
 74
     0
 75
     1
 76
     1
 77
     1
 78
     8
 79
     2
140
3.5
141
0.0
143
0.0393701
146
0.71
147
1.5
172
     1
176
   256
177
   256
178
     2
271
     2
272
     3
274
     4
283
     0
284
     8
340
11
371
    -1
372
    -1
1001
ACAD_DSTYLE_DIMARC_LENGTH_SYMBOL
1070
   379
1070
     0
1001
ACAD_DSTYLE_DIMJOGGED_JOGANGLE_SYMBOL
1070
   384
1040
1.570796326794896
  0
DIMSTYLE
105
7A
330
A
100
AcDbSymbolTableRecord
100
AcDbDimStyleTableRecord
  2
AM_DIN$SH
 70
     0
  4
"
 41
2.5
 42
1.0
 43
10.0
 44
1.0
 47
0.1
 48
0.1
 73
     0
 74
     0
 75
     1
 76
     1
 77
     1
 78
     8
 79
     2
140
3.5
141
0.0
143
0.0393701
144
2.0
146
0.71
147
1.5
172
     1
173
     1
176
   256
177
   256
178
     2
271
     2
272
     3
274
     4
283
     0
284
     8
340
11
343
76
371
    -1
372
    -1
1001
ACAD_DSTYLE_DIMARC_LENGTH_SYMBOL
1070
   379
1070
     0
1001
ACAD_DSTYLE_DIMJOGGED_JOGANGLE_SYMBOL
1070
   384
1040
1.570796326794896
  0
DIMSTYLE
105
220
102
{ACAD_REACTORS
330
41D
330
428
330
42B
330
42C
330
42D
330
436
330
439
330
43C
330
43D
330
43E
102
}
330
A
100
AcDbSymbolTableRecord
100
AcDbDimStyleTableRecord
  2
661N88101_001_0098296284
 70
     0
 41
3.149999999999999
 42
0.0
 43
3.75
 44
2.0
 73
     0
 74
     0
 77
     1
 78
     8
 79
     2
140
3.5
141
0.0
143
0.03937007874016
145
2.0
147
2.0
171
     3
172
     1
173
     1
176
     3
177
     3
178
     2
179
     2
271
     2
272
     2
274
     3
283
     0
284
     8
340
11
  0
DIMSTYLE
105
221
102
{ACAD_REACTORS
330
43B
102
}
330
A
100
AcDbSymbolTableRecord
100
AcDbDimStyleTableRecord
  2
6613388101_001_0098296284
 70
     0
 41
3.149999999999999
 42
0.0
 43
3.75
 44
2.0
 73
     0
 74
     0
 77
     1
 78
     8
 79
     2
140
3.5
141
0.0
143
0.03937007874016
145
2.0
146
0.6
147
2.0
171
     3
172
     1
173
     1
176
     3
177
     3
178
     2
179
     2
271
     2
272
     1
274
     3
283
     0
284
     8
288
     1
340
11
  0
DIMSTYLE
105
223
102
{ACAD_REACTORS
330
429
102
}
330
A
100
AcDbSymbolTableRecord
100
AcDbDimStyleTableRecord
  2
6613588101_001_0098296284
 70
     0
 41
3.149999999999999
 42
0.0
 43
3.75
 44
2.0
 73
     0
 74
     0
 77
     1
 78
     8
 79
     2
140
3.5
141
0.0
143
0.03937007874016
145
2.0
146
0.6
147
2.0
171
     3
172
     1
173
     1
176
     3
177
     3
178
     2
179
     2
271
     2
272
     0
274
     3
283
     0
284
     8
288
     1
340
11
  0
DIMSTYLE
105
224
102
{ACAD_REACTORS
330
41C
330
41F
102
}
330
A
100
AcDbSymbolTableRecord
100
AcDbDimStyleTableRecord
  2
6613488101_001_0098296284
 70
     0
 41
3.149999999999999
 42
0.0
 43
3.75
 44
2.0
 73
     0
 74
     0
 77
     1
 78
     8
 79
     2
140
3.5
141
0.0
143
0.03937007874016
145
2.0
146
0.6
147
2.0
171
     3
172
     1
173
     1
176
     3
177
     3
178
     2
179
     2
271
     2
272
     2
274
     3
283
     0
284
     8
288
     1
340
11
  0
ENDTAB
  0
TABLE
  2
BLOCK_RECORD
  5
1
330
0
100
AcDbSymbolTable
 70
    67
  0
BLOCK_RECORD
  5
1F
102
{ACAD_XDICTIONARY
360
81
102
}
330
1
100
AcDbSymbolTableRecord
100
AcDbBlockTableRecord
  2
*Model_Space
340
22
  0
BLOCK_RECORD
  5
1B
330
1
100
AcDbSymbolTableRecord
100
AcDbBlockTableRecord
  2
*Paper_Space
340
1E
  0
BLOCK_RECORD
  5
23
330
1
100
AcDbSymbolTableRecord
100
AcDbBlockTableRecord
  2
*Paper_Space0
340
26
  0
BLOCK_RECORD
  5
76
330
1
100
AcDbSymbolTableRecord
100
AcDbBlockTableRecord
  2
GENAXEH
340
0
  0
BLOCK_RECORD
  5
621
330
1
100
AcDbSymbolTableRecord
100
AcDbBlockTableRecord
  2
*D38
340
0
  0
BLOCK_RECORD
  5
62A
330
1
100
AcDbSymbolTableRecord
100
AcDbBlockTableRecord
  2
*D39
340
0
  0
BLOCK_RECORD
  5
636
330
1
100
AcDbSymbolTableRecord
100
AcDbBlockTableRecord
  2
*D40
340
0
  0
BLOCK_RECORD
  5
657
330
1
100
AcDbSymbolTableRecord
100
AcDbBlockTableRecord
  2
*D44
340
0
  0
BLOCK_RECORD
  5
664
330
1
100
AcDbSymbolTableRecord
100
AcDbBlockTableRecord
  2
*D45
340
0
  0
BLOCK_RECORD
  5
67D
330
1
100
AcDbSymbolTableRecord
100
AcDbBlockTableRecord
  2
*D47
340
0
  0
BLOCK_RECORD
  5
689
330
1
100
AcDbSymbolTableRecord
100
AcDbBlockTableRecord
  2
*D48
340
0
  0
BLOCK_RECORD
  5
695
330
1
100
AcDbSymbolTableRecord
100
AcDbBlockTableRecord
  2
*D49
340
0
  0
BLOCK_RECORD
  5
707
330
1
100
AcDbSymbolTableRecord
100
AcDbBlockTableRecord
  2
*D58
340
0
  0
BLOCK_RECORD
  5
727
330
1
100
AcDbSymbolTableRecord
100
AcDbBlockTableRecord
  2
*D61
340
0
  0
BLOCK_RECORD
  5
733
330
1
100
AcDbSymbolTableRecord
100
AcDbBlockTableRecord
  2
*D62
340
0
  0
BLOCK_RECORD
  5
73F
330
1
100
AcDbSymbolTableRecord
100
AcDbBlockTableRecord
  2
*D63
340
0
  0
BLOCK_RECORD
  5
74B
330
1
100
AcDbSymbolTableRecord
100
AcDbBlockTableRecord
  2
*D64
340
0
  0
BLOCK_RECORD
  5
757
330
1
100
AcDbSymbolTableRecord
100
AcDbBlockTableRecord
  2
*D65
340
0
  0
ENDTAB
  0
ENDSEC
  0
SECTION
  2
BLOCKS
  0
BLOCK
  5
20
330
1F
100
AcDbEntity
  8
0
100
AcDbBlockBegin
  2
*Model_Space
 70
     0
 10
0.0
 20
0.0
 30
0.0
  3
*Model_Space
  1

  0
ENDBLK
  5
21
330
1F
100
AcDbEntity
  8
0
100
AcDbBlockEnd
  0
BLOCK
  5
1C
330
1B
100
AcDbEntity
 67
     1
  8
0
100
AcDbBlockBegin
  2
*Paper_Space
 70
     0
 10
0.0
 20
0.0
 30
0.0
  3
*Paper_Space
  1

  0
ENDBLK
  5
1D
330
1B
100
AcDbEntity
 67
     1
  8
0
100
AcDbBlockEnd
  0
BLOCK
  5
24
330
23
100
AcDbEntity
 67
     1
  8
0
100
AcDbBlockBegin
  2
*Paper_Space0
 70
     0
 10
0.0
 20
0.0
 30
0.0
  3
*Paper_Space0
  1

  0
ENDBLK
  5
25
330
23
100
AcDbEntity
 67
     1
  8
0
100
AcDbBlockEnd
  0
BLOCK
  5
78
330
76
100
AcDbEntity
  8
0
100
AcDbBlockBegin
  2
GENAXEH
 70
     0
 10
0.0
 20
0.0
 30
0.0
  3
GENAXEH
  1

  0
LINE
  5
77
330
76
100
AcDbEntity
  8
0
100
AcDbLine
 10
-1.0
 20
0.0
 30
0.0
 11
1.0
 21
0.0
 31
0.0
  0
ENDBLK
  5
79
330
76
100
AcDbEntity
  8
0
100
AcDbBlockEnd
  0
BLOCK
  5
628
330
621
100
AcDbEntity
  8
0
100
AcDbBlockBegin
  2
*D38
 70
     1
 10
0.0
 20
0.0
 30
0.0
  3
*D38
  1

  0
LINE
  5
783
330
621
100
AcDbEntity
  8
P-0000
  6
Continuous
 62
     3
370
    -2
100
AcDbLine
 10
180.0667471713897
 20
372.5213517540379
 30
0.0
 11
187.3767782471946
 21
384.1081306710089
 31
0.0
  0
MTEXT
  5
784
330
621
100
AcDbEntity
  8
P-0000
  6
Continuous
 62
     2
100
AcDbMText
 10
195.0877718483278
 20
400.0787300947126
 30
0.0
 40
3.5
 41
0.0
 71
     5
 72
     1
  1
\U+220520{}{\H0.60x;\C3;\S+0.05^ ;}
 11
0.533578910642696
 21
0.8457502859102998
 31
0.0
 73
     1
 44
1.0
1001
ACAD
1000
MTEXTBEGIN
1070
    73
1070
     1
1070
    44
1040
1.0
1070
    74
1070
     0
1000
MTEXTEND
  0
SOLID
  5
785
330
621
100
AcDbEntity
  8
P-0000
  6
Continuous
 62
     3
100
AcDbTrace
 10
179.6227282712868
 20
372.8014806821253
 30
0.0
 11
180.5107660714926
 21
372.2412228259504
 31
0.0
 12
178.3859736028652
 22
369.8572383534205
 32
0.0
 13
178.3859736028652
 23
369.8572383534205
 33
0.0
  0
SOLID
  5
786
330
621
100
AcDbEntity
  8
P-0000
  6
Continuous
 62
     3
100
AcDbTrace
 10
186.9327593470917
 20
384.3882595990963
 30
0.0
 11
187.8207971472975
 21
383.8280017429215
 31
0.0
 12
189.0575518157191
 22
386.7722440716264
 32
0.0
 13
189.0575518157191
 23
386.7722440716264
 33
0.0
  0
POINT
  5
787
330
621
100
AcDbEntity
  8
Defpoints
  6
Continuous
 62
     0
100
AcDbPoint
 10
189.0575518157191
 20
386.7722440716264
 30
0.0
  0
POINT
  5
788
330
621
100
AcDbEntity
  8
Defpoints
  6
Continuous
 62
     0
100
AcDbPoint
 10
178.3859736028652
 20
369.8572383534205
 30
0.0
  0
ENDBLK
  5
629
330
621
100
AcDbEntity
  8
0
100
AcDbBlockEnd
  0
BLOCK
  5
634
330
62A
100
AcDbEntity
  8
0
100
AcDbBlockBegin
  2
*D39
 70
     1
 10
0.0
 20
0.0
 30
0.0
  3
*D39
  1

  0
LINE
  5
789
330
62A
100
AcDbEntity
  8
P-0000
  6
Continuous
 62
     3
370
    -2
100
AcDbLine
 10
186.2217627092863
 20
503.3147412125233
 30
0.0
 11
116.4576151332932
 21
503.3147412125233
 31
0.0
  0
LINE
  5
78A
330
62A
100
AcDbEntity
  8
P-0000
  6
Continuous
 62
     3
370
    -2
100
AcDbLine
 10
228.2217627092987
 20
384.4961339653009
 30
0.0
 11
116.4576151332932
 21
384.496133965301
 31
0.0
  0
LINE
  5
78B
330
62A
100
AcDbEntity
  8
P-0000
  6
Continuous
 62
     3
370
    -2
100
AcDbLine
 10
118.4576151332932
 20
500.1647412125234
 30
0.0
 11
118.4576151332932
 21
387.646133965301
 31
0.0
  0
MTEXT
  5
78C
330
62A
100
AcDbEntity
  8
P-0000
  6
Continuous
 62
     2
100
AcDbMText
 10
114.7076151332931
 20
448.4747171357945
 30
0.0
 40
3.5
 41
0.0
 71
     5
 72
     1
  1
119
 11
0.0000000000000001
 21
1.0
 31
0.0
 73
     1
 44
1.0
1001
ACAD
1000
MTEXTBEGIN
1070
    73
1070
     1
1070
    44
1040
1.0
1070
    74
1070
     0
1000
MTEXTEND
  0
SOLID
  5
78D
330
62A
100
AcDbEntity
  8
P-0000
  6
Continuous
 62
     3
100
AcDbTrace
 10
117.9326151332932
 20
500.1647412125234
 30
0.0
 11
118.9826151332932
 21
500.1647412125234
 31
0.0
 12
118.4576151332932
 22
503.3147412125233
 32
0.0
 13
118.4576151332932
 23
503.3147412125233
 33
0.0
  0
SOLID
  5
78E
330
62A
100
AcDbEntity
  8
P-0000
  6
Continuous
 62
     3
100
AcDbTrace
 10
117.9326151332932
 20
387.646133965301
 30
0.0
 11
118.9826151332932
 21
387.646133965301
 31
0.0
 12
118.4576151332932
 22
384.496133965301
 32
0.0
 13
118.4576151332932
 23
384.496133965301
 33
0.0
  0
POINT
  5
78F
330
62A
100
AcDbEntity
  8
Defpoints
  6
Continuous
 62
     0
100
AcDbPoint
 10
186.2217627092863
 20
503.3147412125233
 30
0.0
  0
POINT
  5
790
330
62A
100
AcDbEntity
  8
Defpoints
  6
Continuous
 62
     0
100
AcDbPoint
 10
228.2217627092987
 20
384.4961339653009
 30
0.0
  0
POINT
  5
791
330
62A
100
AcDbEntity
  8
Defpoints
  6
Continuous
 62
     0
100
AcDbPoint
 10
118.4576151332932
 20
384.496133965301
 30
0.0
  0
ENDBLK
  5
635
330
62A
100
AcDbEntity
  8
0
100
AcDbBlockEnd
  0
BLOCK
  5
63D
330
636
100
AcDbEntity
  8
0
100
AcDbBlockBegin
  2
*D40
 70
     1
 10
0.0
 20
0.0
 30
0.0
  3
*D40
  1

  0
LINE
  5
792
330
636
100
AcDbEntity
  8
P-0000
  6
Continuous
 62
     3
370
    -2
100
AcDbLine
 10
420.5072538435671
 20
487.1250344729823
 30
0.0
 11
407.0154640625349
 21
489.5044479520645
 31
0.0
  0
MTEXT
  5
793
330
636
100
AcDbEntity
  8
P-0000
  6
Continuous
 62
     2
100
AcDbMText
 10
389.2399033543787
 20
494.6702124561344
 30
0.0
 40
3.5
 41
0.0
 71
     5
 72
     1
  1
\U+220520{}{\H0.60x;\C3;\S+0.05^ ;}
 11
0.9848021737979616
 21
-0.173679815991408
 31
0.0
 73
     1
 44
1.0
1001
ACAD
1000
MTEXTBEGIN
1070
    73
1070
     1
1070
    44
1040
1.0
1070
    74
1070
     0
1000
MTEXTEND
  0
SOLID
  5
794
330
636
100
AcDbEntity
  8
P-0000
  6
Continuous
 62
     3
100
AcDbTrace
 10
420.5984357469626
 20
487.6420556142262
 30
0.0
 11
420.4160719401715
 21
486.6080133317384
 31
0.0
 12
423.6093806910306
 22
486.5779430526093
 32
0.0
 13
423.6093806910306
 23
486.5779430526093
 33
0.0
  0
SOLID
  5
795
330
636
100
AcDbEntity
  8
P-0000
  6
Continuous
 62
     3
100
AcDbTrace
 10
407.1066459659304
 20
490.0214690933084
 30
0.0
 11
406.9242821591394
 21
488.9874268108206
 31
0.0
 12
403.9133372150713
 22
490.0515393724374
 32
0.0
 13
403.9133372150713
 23
490.0515393724374
 33
0.0
  0
POINT
  5
796
330
636
100
AcDbEntity
  8
Defpoints
  6
Continuous
 62
     0
100
AcDbPoint
 10
403.9133372150713
 20
490.0515393724374
 30
0.0
  0
POINT
  5
797
330
636
100
AcDbEntity
  8
Defpoints
  6
Continuous
 62
     0
100
AcDbPoint
 10
423.6093806910306
 20
486.5779430526093
 30
0.0
  0
ENDBLK
  5
63E
330
636
100
AcDbEntity
  8
0
100
AcDbBlockEnd
  0
BLOCK
  5
662
330
657
100
AcDbEntity
  8
0
100
AcDbBlockBegin
  2
*D44
 70
     1
 10
0.0
 20
0.0
 30
0.0
  3
*D44
  1

  0
LINE
  5
7A7
330
657
100
AcDbEntity
  8
P-0000
  6
Continuous
 62
     3
370
    -2
100
AcDbLine
 10
216.7217627092981
 20
483.3147412125233
 30
0.0
 11
131.4172737444581
 21
483.3147412125233
 31
0.0
  0
LINE
  5
7A8
330
657
100
AcDbEntity
  8
P-0000
  6
Continuous
 62
     3
370
    -2
100
AcDbLine
 10
186.2217627092863
 20
503.3147412125233
 30
0.0
 11
131.4172737444581
 21
503.3147412125233
 31
0.0
  0
LINE
  5
7A9
330
657
100
AcDbEntity
  8
P-0000
  6
Continuous
 62
     3
370
    -2
100
AcDbLine
 10
133.4172737444581
 20
486.4647412125233
 30
0.0
 11
133.4172737444581
 21
489.3439242833895
 31
0.0
  0
LINE
  5
7AA
330
657
100
AcDbEntity
  8
P-0000
  6
Continuous
 62
     3
370
    -2
100
AcDbLine
 10
133.4172737444581
 20
500.1647412125233
 30
0.0
 11
133.4172737444581
 21
497.2855581416571
 31
0.0
  0
MTEXT
  5
7AB
330
657
100
AcDbEntity
  8
P-0000
  6
Continuous
 62
     2
100
AcDbMText
 10
129.6672737444581
 20
493.3147412125233
 30
0.0
 40
3.5
 41
0.0
 71
     5
 72
     1
  1
20
 11
0.0000000000000001
 21
1.0
 31
0.0
 73
     1
 44
1.0
1001
ACAD
1000
MTEXTBEGIN
1070
    73
1070
     1
1070
    44
1040
1.0
1070
    74
1070
     0
1000
MTEXTEND
  0
SOLID
  5
7AC
330
657
100
AcDbEntity
  8
P-0000
  6
Continuous
 62
     3
100
AcDbTrace
 10
132.8922737444581
 20
486.4647412125233
 30
0.0
 11
133.9422737444581
 21
486.4647412125233
 31
0.0
 12
133.4172737444581
 22
483.3147412125233
 32
0.0
 13
133.4172737444581
 23
483.3147412125233
 33
0.0
  0
SOLID
  5
7AD
330
657
100
AcDbEntity
  8
P-0000
  6
Continuous
 62
     3
100
AcDbTrace
 10
132.8922737444581
 20
500.1647412125233
 30
0.0
 11
133.9422737444581
 21
500.1647412125233
 31
0.0
 12
133.4172737444581
 22
503.3147412125233
 32
0.0
 13
133.4172737444581
 23
503.3147412125233
 33
0.0
  0
POINT
  5
7AE
330
657
100
AcDbEntity
  8
Defpoints
  6
Continuous
 62
     0
100
AcDbPoint
 10
216.7217627092981
 20
483.3147412125233
 30
0.0
  0
POINT
  5
7AF
330
657
100
AcDbEntity
  8
Defpoints
  6
Continuous
 62
     0
100
AcDbPoint
 10
186.2217627092863
 20
503.3147412125233
 30
0.0
  0
POINT
  5
7B0
330
657
100
AcDbEntity
  8
Defpoints
  6
Continuous
 62
     0
100
AcDbPoint
 10
133.4172737444581
 20
503.3147412125233
 30
0.0
  0
ENDBLK
  5
663
330
657
100
AcDbEntity
  8
0
100
AcDbBlockEnd
  0
BLOCK
  5
66E
330
664
100
AcDbEntity
  8
0
100
AcDbBlockBegin
  2
*D45
 70
     1
 10
0.0
 20
0.0
 30
0.0
  3
*D45
  1

  0
LINE
  5
7B1
330
664
100
AcDbEntity
  8
P-0000
  6
Continuous
 62
     3
370
    -2
100
AcDbLine
 10
216.7217627092981
 20
503.3147412125233
 30
0.0
 11
216.7217627092981
 21
538.7137322924685
 31
0.0
  0
LINE
  5
7B2
330
664
100
AcDbEntity
  8
P-0000
  6
Continuous
 62
     3
370
    -2
100
AcDbLine
 10
310.7217627092841
 20
503.3147412125233
 30
0.0
 11
310.7217627092841
 21
538.7137322924685
 31
0.0
  0
LINE
  5
7B3
330
664
100
AcDbEntity
  8
P-0000
  6
Continuous
 62
     3
370
    -2
100
AcDbLine
 10
219.8717627092982
 20
536.7137322924685
 30
0.0
 11
307.5717627092842
 21
536.7137322924685
 31
0.0
  0
MTEXT
  5
7B4
330
664
100
AcDbEntity
  8
P-0000
  6
Continuous
 62
     2
100
AcDbMText
 10
264.5066452254497
 20
541.3387322924685
 30
0.0
 40
3.5
 41
0.0
 71
     5
 72
     1
  1
%%c94{}{\H0.60x;\C3;\S+2^ ;}
 73
     1
 44
1.0
1001
ACAD
1000
MTEXTBEGIN
1070
    73
1070
     1
1070
    44
1040
1.0
1070
    74
1070
     0
1000
MTEXTEND
  0
SOLID
  5
7B5
330
664
100
AcDbEntity
  8
P-0000
  6
Continuous
 62
     3
100
AcDbTrace
 10
219.8717627092982
 20
537.2387322924685
 30
0.0
 11
219.8717627092982
 21
536.1887322924685
 31
0.0
 12
216.7217627092981
 22
536.7137322924685
 32
0.0
 13
216.7217627092981
 23
536.7137322924685
 33
0.0
  0
SOLID
  5
7B6
330
664
100
AcDbEntity
  8
P-0000
  6
Continuous
 62
     3
100
AcDbTrace
 10
307.5717627092842
 20
537.2387322924685
 30
0.0
 11
307.5717627092842
 21
536.1887322924685
 31
0.0
 12
310.7217627092841
 22
536.7137322924685
 32
0.0
 13
310.7217627092841
 23
536.7137322924685
 33
0.0
  0
POINT
  5
7B7
330
664
100
AcDbEntity
  8
Defpoints
  6
Continuous
 62
     0
100
AcDbPoint
 10
216.7217627092981
 20
503.3147412125233
 30
0.0
  0
POINT
  5
7B8
330
664
100
AcDbEntity
  8
Defpoints
  6
Continuous
 62
     0
100
AcDbPoint
 10
310.7217627092841
 20
503.3147412125233
 30
0.0
  0
POINT
  5
7B9
330
664
100
AcDbEntity
  8
Defpoints
  6
Continuous
 62
     0
100
AcDbPoint
 10
310.7217627092841
 20
536.7137322924685
 30
0.0
  0
ENDBLK
  5
66F
330
664
100
AcDbEntity
  8
0
100
AcDbBlockEnd
  0
BLOCK
  5
687
330
67D
100
AcDbEntity
  8
0
100
AcDbBlockBegin
  2
*D47
 70
     1
 10
0.0
 20
0.0
 30
0.0
  3
*D47
  1

  0
LINE
  5
7C4
330
67D
100
AcDbEntity
  8
P-0000
  6
Continuous
 62
     3
370
    -2
100
AcDbLine
 10
168.7217627092921
 20
363.3147412125234
 30
0.0
 11
168.7217627092921
 21
342.2613315800296
 31
0.0
  0
LINE
  5
7C5
330
67D
100
AcDbEntity
  8
P-0000
  6
Continuous
 62
     3
370
    -2
100
AcDbLine
 10
183.7217627092921
 20
365.3147412125234
 30
0.0
 11
183.7217627092921
 21
342.2613315800296
 31
0.0
  0
LINE
  5
7C6
330
67D
100
AcDbEntity
  8
P-0000
  6
Continuous
 62
     3
370
    -2
100
AcDbLine
 10
171.8717627092921
 20
344.2613315800296
 30
0.0
 11
180.5717627092921
 21
344.2613315800296
 31
0.0
  0
MTEXT
  5
7C7
330
67D
100
AcDbEntity
  8
P-0000
  6
Continuous
 62
     2
100
AcDbMText
 10
176.2217627092921
 20
348.0113315800296
 30
0.0
 40
3.5
 41
0.0
 71
     5
 72
     1
  1
15
 73
     1
 44
1.0
1001
ACAD
1000
MTEXTBEGIN
1070
    73
1070
     1
1070
    44
1040
1.0
1070
    74
1070
     0
1000
MTEXTEND
  0
SOLID
  5
7C8
330
67D
100
AcDbEntity
  8
P-0000
  6
Continuous
 62
     3
100
AcDbTrace
 10
171.8717627092921
 20
344.7863315800296
 30
0.0
 11
171.8717627092921
 21
343.7363315800296
 31
0.0
 12
168.7217627092921
 22
344.2613315800296
 32
0.0
 13
168.7217627092921
 23
344.2613315800296
 33
0.0
  0
SOLID
  5
7C9
330
67D
100
AcDbEntity
  8
P-0000
  6
Continuous
 62
     3
100
AcDbTrace
 10
180.5717627092921
 20
344.7863315800296
 30
0.0
 11
180.5717627092921
 21
343.7363315800296
 31
0.0
 12
183.7217627092921
 22
344.2613315800296
 32
0.0
 13
183.7217627092921
 23
344.2613315800296
 33
0.0
  0
POINT
  5
7CA
330
67D
100
AcDbEntity
  8
Defpoints
  6
Continuous
 62
     0
100
AcDbPoint
 10
168.7217627092921
 20
363.3147412125234
 30
0.0
  0
POINT
  5
7CB
330
67D
100
AcDbEntity
  8
Defpoints
  6
Continuous
 62
     0
100
AcDbPoint
 10
183.7217627092921
 20
365.3147412125234
 30
0.0
  0
POINT
  5
7CC
330
67D
100
AcDbEntity
  8
Defpoints
  6
Continuous
 62
     0
100
AcDbPoint
 10
183.7217627092921
 20
344.2613315800296
 30
0.0
  0
ENDBLK
  5
688
330
67D
100
AcDbEntity
  8
0
100
AcDbBlockEnd
  0
BLOCK
  5
693
330
689
100
AcDbEntity
  8
0
100
AcDbBlockBegin
  2
*D48
 70
     1
 10
0.0
 20
0.0
 30
0.0
  3
*D48
  1

  0
LINE
  5
7CD
330
689
100
AcDbEntity
  8
P-0000
  6
Continuous
 62
     3
370
    -2
100
AcDbLine
 10
413.7613589530509
 20
501.3147412125233
 30
0.0
 11
413.7613589530509
 21
522.8465032381746
 31
0.0
  0
LINE
  5
7CE
330
689
100
AcDbEntity
  8
P-0000
  6
Continuous
 62
     3
370
    -2
100
AcDbLine
 10
428.7613589530509
 20
503.3147412125233
 30
0.0
 11
428.7613589530509
 21
522.8465032381746
 31
0.0
  0
LINE
  5
7CF
330
689
100
AcDbEntity
  8
P-0000
  6
Continuous
 62
     3
370
    -2
100
AcDbLine
 10
416.9113589530509
 20
520.8465032381747
 30
0.0
 11
425.6113589530509
 21
520.8465032381747
 31
0.0
  0
MTEXT
  5
7D0
330
689
100
AcDbEntity
  8
P-0000
  6
Continuous
 62
     2
100
AcDbMText
 10
421.2613589530509
 20
524.5965032381746
 30
0.0
 40
3.5
 41
0.0
 71
     5
 72
     1
  1
15
 73
     1
 44
1.0
1001
ACAD
1000
MTEXTBEGIN
1070
    73
1070
     1
1070
    44
1040
1.0
1070
    74
1070
     0
1000
MTEXTEND
  0
SOLID
  5
7D1
330
689
100
AcDbEntity
  8
P-0000
  6
Continuous
 62
     3
100
AcDbTrace
 10
416.9113589530509
 20
521.3715032381746
 30
0.0
 11
416.9113589530509
 21
520.3215032381747
 31
0.0
 12
413.7613589530509
 22
520.8465032381747
 32
0.0
 13
413.7613589530509
 23
520.8465032381747
 33
0.0
  0
SOLID
  5
7D2
330
689
100
AcDbEntity
  8
P-0000
  6
Continuous
 62
     3
100
AcDbTrace
 10
425.6113589530509
 20
521.3715032381746
 30
0.0
 11
425.6113589530509
 21
520.3215032381747
 31
0.0
 12
428.7613589530509
 22
520.8465032381747
 32
0.0
 13
428.7613589530509
 23
520.8465032381747
 33
0.0
  0
POINT
  5
7D3
330
689
100
AcDbEntity
  8
Defpoints
  6
Continuous
 62
     0
100
AcDbPoint
 10
413.7613589530509
 20
501.3147412125233
 30
0.0
  0
POINT
  5
7D4
330
689
100
AcDbEntity
  8
Defpoints
  6
Continuous
 62
     0
100
AcDbPoint
 10
428.7613589530509
 20
503.3147412125233
 30
0.0
  0
POINT
  5
7D5
330
689
100
AcDbEntity
  8
Defpoints
  6
Continuous
 62
     0
100
AcDbPoint
 10
428.7613589530509
 20
520.8465032381747
 30
0.0
  0
ENDBLK
  5
694
330
689
100
AcDbEntity
  8
0
100
AcDbBlockEnd
  0
BLOCK
  5
69F
330
695
100
AcDbEntity
  8
0
100
AcDbBlockBegin
  2
*D49
 70
     1
 10
0.0
 20
0.0
 30
0.0
  3
*D49
  1

  0
LINE
  5
7D6
330
695
100
AcDbEntity
  8
P-0000
  6
Continuous
 62
     3
370
    -2
100
AcDbLine
 10
426.7613589530509
 20
488.3147412125233
 30
0.0
 11
451.8975147963209
 21
488.3147412125233
 31
0.0
  0
LINE
  5
7D7
330
695
100
AcDbEntity
  8
P-0000
  6
Continuous
 62
     3
370
    -2
100
AcDbLine
 10
428.7613589530509
 20
503.3147412125233
 30
0.0
 11
451.8975147963209
 21
503.3147412125233
 31
0.0
  0
LINE
  5
7D8
330
695
100
AcDbEntity
  8
P-0000
  6
Continuous
 62
     3
370
    -2
100
AcDbLine
 10
449.8975147963209
 20
491.4647412125233
 30
0.0
 11
449.8975147963209
 21
500.1647412125233
 31
0.0
  0
MTEXT
  5
7D9
330
695
100
AcDbEntity
  8
P-0000
  6
Continuous
 62
     2
100
AcDbMText
 10
446.1475147963209
 20
497.1615507180875
 30
0.0
 40
3.5
 41
0.0
 71
     5
 72
     1
  1
15
 11
0.0000000000000001
 21
1.0
 31
0.0
 73
     1
 44
1.0
1001
ACAD
1000
MTEXTBEGIN
1070
    73
1070
     1
1070
    44
1040
1.0
1070
    74
1070
     0
1000
MTEXTEND
  0
SOLID
  5
7DA
330
695
100
AcDbEntity
  8
P-0000
  6
Continuous
 62
     3
100
AcDbTrace
 10
449.372514796321
 20
491.4647412125233
 30
0.0
 11
450.4225147963209
 21
491.4647412125233
 31
0.0
 12
449.8975147963209
 22
488.3147412125233
 32
0.0
 13
449.8975147963209
 23
488.3147412125233
 33
0.0
  0
SOLID
  5
7DB
330
695
100
AcDbEntity
  8
P-0000
  6
Continuous
 62
     3
100
AcDbTrace
 10
449.372514796321
 20
500.1647412125233
 30
0.0
 11
450.4225147963209
 21
500.1647412125233
 31
0.0
 12
449.8975147963209
 22
503.3147412125233
 32
0.0
 13
449.8975147963209
 23
503.3147412125233
 33
0.0
  0
POINT
  5
7DC
330
695
100
AcDbEntity
  8
Defpoints
  6
Continuous
 62
     0
100
AcDbPoint
 10
426.7613589530509
 20
488.3147412125233
 30
0.0
  0
POINT
  5
7DD
330
695
100
AcDbEntity
  8
Defpoints
  6
Continuous
 62
     0
100
AcDbPoint
 10
428.7613589530509
 20
503.3147412125233
 30
0.0
  0
POINT
  5
7DE
330
695
100
AcDbEntity
  8
Defpoints
  6
Continuous
 62
     0
100
AcDbPoint
 10
449.8975147963209
 20
503.3147412125233
 30
0.0
  0
ENDBLK
  5
6A0
330
695
100
AcDbEntity
  8
0
100
AcDbBlockEnd
  0
BLOCK
  5
711
330
707
100
AcDbEntity
  8
0
100
AcDbBlockBegin
  2
*D58
 70
     1
 10
0.0
 20
0.0
 30
0.0
  3
*D58
  1

  0
LINE
  5
82D
330
707
100
AcDbEntity
  8
P-0000
  6
Continuous
 62
     3
370
    -2
100
AcDbLine
 10
428.7613589530509
 20
381.3742065166517
 30
0.0
 11
455.1494393897457
 21
380.4527144423921
 31
0.0
  0
LINE
  5
82E
330
707
100
AcDbEntity
  8
P-0000
  6
Continuous
 62
     3
370
    -2
100
AcDbLine
 10
428.7613589530509
 20
454.4552759083948
 30
0.0
 11
457.698378238855
 21
453.4447729281368
 31
0.0
  0
LINE
  5
82F
330
707
100
AcDbEntity
  8
P-0000
  6
Continuous
 62
     3
370
    -2
100
AcDbLine
 10
453.2605911503205
 20
383.6705945409072
 30
0.0
 11
455.5896631702039
 21
450.3664908164317
 31
0.0
  0
MTEXT
  5
830
330
707
100
AcDbEntity
  8
P-0000
  6
Continuous
 62
     2
100
AcDbMText
 10
450.932698497957
 20
429.4742761976658
 30
0.0
 40
3.5
 41
0.0
 71
     5
 72
     1
  1
%%c73.5
 11
0.034899496702506
 21
0.9993908270190955
 31
0.0
 73
     1
 44
1.0
1001
ACAD
1000
MTEXTBEGIN
1070
    73
1070
     1
1070
    44
1040
1.0
1070
    74
1070
     0
1000
MTEXTEND
  0
SOLID
  5
831
330
707
100
AcDbEntity
  8
P-0000
  6
Continuous
 62
     3
100
AcDbTrace
 10
452.7359109661355
 20
383.688916776676
 30
0.0
 11
453.7852713345055
 21
383.6522723051384
 31
0.0
 12
453.1506577357076
 22
380.5225134357971
 32
0.0
 13
453.1506577357076
 23
380.5225134357971
 33
0.0
  0
SOLID
  5
832
330
707
100
AcDbEntity
  8
P-0000
  6
Continuous
 62
     3
100
AcDbTrace
 10
455.0649829860189
 20
450.3848130522006
 30
0.0
 11
456.1143433543889
 21
450.3481685806629
 31
0.0
 12
455.6995965848168
 22
453.5145719215419
 32
0.0
 13
455.6995965848168
 23
453.5145719215419
 33
0.0
  0
POINT
  5
833
330
707
100
AcDbEntity
  8
Defpoints
  6
Continuous
 62
     0
100
AcDbPoint
 10
428.7613589530509
 20
381.3742065166517
 30
0.0
  0
POINT
  5
834
330
707
100
AcDbEntity
  8
Defpoints
  6
Continuous
 62
     0
100
AcDbPoint
 10
428.7613589530509
 20
454.4552759083948
 30
0.0
  0
POINT
  5
835
330
707
100
AcDbEntity
  8
Defpoints
  6
Continuous
 62
     0
100
AcDbPoint
 10
455.6995965848168
 20
453.5145719215419
 30
0.0
  0
ENDBLK
  5
712
330
707
100
AcDbEntity
  8
0
100
AcDbBlockEnd
  0
BLOCK
  5
731
330
727
100
AcDbEntity
  8
0
100
AcDbBlockBegin
  2
*D61
 70
     1
 10
0.0
 20
0.0
 30
0.0
  3
*D61
  1

  0
LINE
  5
844
330
727
100
AcDbEntity
  8
P-0000
  6
Continuous
 62
     3
370
    -2
100
AcDbLine
 10
428.7613589530509
 20
363.3147412125234
 30
0.0
 11
504.2338854374335
 21
363.3147412125234
 31
0.0
  0
LINE
  5
845
330
727
100
AcDbEntity
  8
P-0000
  6
Continuous
 62
     3
370
    -2
100
AcDbLine
 10
428.7613589530509
 20
417.9147412125232
 30
0.0
 11
504.2338854374336
 21
417.9147412125232
 31
0.0
  0
LINE
  5
846
330
727
100
AcDbEntity
  8
P-0000
  6
Continuous
 62
     3
370
    -2
100
AcDbLine
 10
502.2338854374336
 20
366.4647412125233
 30
0.0
 11
502.2338854374336
 21
414.7647412125232
 31
0.0
  0
MTEXT
  5
847
330
727
100
AcDbEntity
  8
P-0000
  6
Continuous
 62
     2
100
AcDbMText
 10
497.8516979374336
 20
390.6147412125233
 30
0.0
 40
3.5
 41
0.0
 71
     5
 72
     1
  1
52.7
 11
0.0000000000000001
 21
1.0
 31
0.0
 73
     1
 44
1.0
1001
ACAD
1000
MTEXTBEGIN
1070
    73
1070
     1
1070
    44
1040
1.0
1070
    74
1070
     0
1000
MTEXTEND
  0
SOLID
  5
848
330
727
100
AcDbEntity
  8
P-0000
  6
Continuous
 62
     3
100
AcDbTrace
 10
501.7088854374335
 20
366.4647412125233
 30
0.0
 11
502.7588854374335
 21
366.4647412125233
 31
0.0
 12
502.2338854374336
 22
363.3147412125234
 32
0.0
 13
502.2338854374336
 23
363.3147412125234
 33
0.0
  0
SOLID
  5
849
330
727
100
AcDbEntity
  8
P-0000
  6
Continuous
 62
     3
100
AcDbTrace
 10
501.7088854374336
 20
414.7647412125232
 30
0.0
 11
502.7588854374336
 21
414.7647412125232
 31
0.0
 12
502.2338854374336
 22
417.9147412125232
 32
0.0
 13
502.2338854374336
 23
417.9147412125232
 33
0.0
  0
POINT
  5
84A
330
727
100
AcDbEntity
  8
Defpoints
  6
Continuous
 62
     0
100
AcDbPoint
 10
428.7613589530509
 20
363.3147412125234
 30
0.0
  0
POINT
  5
84B
330
727
100
AcDbEntity
  8
Defpoints
  6
Continuous
 62
     0
100
AcDbPoint
 10
428.7613589530509
 20
417.9147412125232
 30
0.0
  0
POINT
  5
84C
330
727
100
AcDbEntity
  8
Defpoints
  6
Continuous
 62
     0
100
AcDbPoint
 10
502.2338854374336
 20
417.9147412125232
 30
0.0
  0
ENDBLK
  5
732
330
727
100
AcDbEntity
  8
0
100
AcDbBlockEnd
  0
BLOCK
  5
73D
330
733
100
AcDbEntity
  8
0
100
AcDbBlockBegin
  2
*D62
 70
     1
 10
0.0
 20
0.0
 30
0.0
  3
*D62
  1

  0
LINE
  5
84D
330
733
100
AcDbEntity
  8
P-0000
  6
Continuous
 62
     3
370
    -2
100
AcDbLine
 10
221.2217627092919
 20
480.3338804520585
 30
0.0
 11
221.2217627092919
 21
523.7451005875605
 31
0.0
  0
LINE
  5
84E
330
733
100
AcDbEntity
  8
P-0000
  6
Continuous
 62
     3
370
    -2
100
AcDbLine
 10
306.2217627092922
 20
480.3338804520585
 30
0.0
 11
306.2217627092922
 21
523.7451005875605
 31
0.0
  0
LINE
  5
84F
330
733
100
AcDbEntity
  8
P-0000
  6
Continuous
 62
     3
370
    -2
100
AcDbLine
 10
224.3717627092919
 20
521.7451005875606
 30
0.0
 11
303.0717627092922
 21
521.7451005875606
 31
0.0
  0
MTEXT
  5
850
330
733
100
AcDbEntity
  8
P-0000
  6
Continuous
 62
     2
100
AcDbMText
 10
263.7217627092921
 20
525.4951005875605
 30
0.0
 40
3.5
 41
0.0
 71
     5
 72
     1
  1
%%c85{\H0.60x;\C3;±0.3}
 73
     1
 44
1.0
1001
ACAD
1000
MTEXTBEGIN
1070
    73
1070
     1
1070
    44
1040
1.0
1070
    74
1070
     0
1000
MTEXTEND
  0
SOLID
  5
851
330
733
100
AcDbEntity
  8
P-0000
  6
Continuous
 62
     3
100
AcDbTrace
 10
224.3717627092919
 20
522.2701005875605
 30
0.0
 11
224.3717627092919
 21
521.2201005875606
 31
0.0
 12
221.2217627092919
 22
521.7451005875606
 32
0.0
 13
221.2217627092919
 23
521.7451005875606
 33
0.0
  0
SOLID
  5
852
330
733
100
AcDbEntity
  8
P-0000
  6
Continuous
 62
     3
100
AcDbTrace
 10
303.0717627092922
 20
522.2701005875605
 30
0.0
 11
303.0717627092922
 21
521.2201005875606
 31
0.0
 12
306.2217627092922
 22
521.7451005875606
 32
0.0
 13
306.2217627092922
 23
521.7451005875606
 33
0.0
  0
POINT
  5
853
330
733
100
AcDbEntity
  8
Defpoints
  6
Continuous
 62
     0
100
AcDbPoint
 10
221.2217627092919
 20
480.3338804520585
 30
0.0
  0
POINT
  5
854
330
733
100
AcDbEntity
  8
Defpoints
  6
Continuous
 62
     0
100
AcDbPoint
 10
306.2217627092922
 20
480.3338804520585
 30
0.0
  0
POINT
  5
855
330
733
100
AcDbEntity
  8
Defpoints
  6
Continuous
 62
     0
100
AcDbPoint
 10
306.2217627092922
 20
521.7451005875606
 30
0.0
  0
ENDBLK
  5
73E
330
733
100
AcDbEntity
  8
0
100
AcDbBlockEnd
  0
BLOCK
  5
749
330
73F
100
AcDbEntity
  8
0
100
AcDbBlockBegin
  2
*D63
 70
     1
 10
0.0
 20
0.0
 30
0.0
  3
*D63
  1

  0
LINE
  5
856
330
73F
100
AcDbEntity
  8
P-0000
  6
Continuous
 62
     3
370
    -2
100
AcDbLine
 10
168.7217627092921
 20
503.3147412125233
 30
0.0
 11
101.1701387510212
 21
503.3147412125233
 31
0.0
  0
LINE
  5
857
330
73F
100
AcDbEntity
  8
P-0000
  6
Continuous
 62
     3
370
    -2
100
AcDbLine
 10
168.7217627092921
 20
363.3147412125234
 30
0.0
 11
101.1701387510211
 21
363.3147412125234
 31
0.0
  0
LINE
  5
858
330
73F
100
AcDbEntity
  8
P-0000
  6
Continuous
 62
     3
370
    -2
100
AcDbLine
 10
103.1701387510212
 20
500.1647412125234
 30
0.0
 11
103.1701387510211
 21
366.4647412125234
 31
0.0
  0
MTEXT
  5
859
330
73F
100
AcDbEntity
  8
P-0000
  6
Continuous
 62
     2
100
AcDbMText
 10
99.42013875102118
 20
433.3147412125233
 30
0.0
 40
3.5
 41
0.0
 71
     5
 72
     1
  1
140
 11
0.0000000000000001
 21
1.0
 31
0.0
 73
     1
 44
1.0
1001
ACAD
1000
MTEXTBEGIN
1070
    73
1070
     1
1070
    44
1040
1.0
1070
    74
1070
     0
1000
MTEXTEND
  0
SOLID
  5
85A
330
73F
100
AcDbEntity
  8
P-0000
  6
Continuous
 62
     3
100
AcDbTrace
 10
102.6451387510212
 20
500.1647412125234
 30
0.0
 11
103.6951387510212
 21
500.1647412125234
 31
0.0
 12
103.1701387510212
 22
503.3147412125233
 32
0.0
 13
103.1701387510212
 23
503.3147412125233
 33
0.0
  0
SOLID
  5
85B
330
73F
100
AcDbEntity
  8
P-0000
  6
Continuous
 62
     3
100
AcDbTrace
 10
102.6451387510211
 20
366.4647412125234
 30
0.0
 11
103.6951387510212
 21
366.4647412125234
 31
0.0
 12
103.1701387510211
 22
363.3147412125234
 32
0.0
 13
103.1701387510211
 23
363.3147412125234
 33
0.0
  0
POINT
  5
85C
330
73F
100
AcDbEntity
  8
Defpoints
  6
Continuous
 62
     0
100
AcDbPoint
 10
168.7217627092921
 20
503.3147412125233
 30
0.0
  0
POINT
  5
85D
330
73F
100
AcDbEntity
  8
Defpoints
  6
Continuous
 62
     0
100
AcDbPoint
 10
168.7217627092921
 20
363.3147412125234
 30
0.0
  0
POINT
  5
85E
330
73F
100
AcDbEntity
  8
Defpoints
  6
Continuous
 62
     0
100
AcDbPoint
 10
103.1701387510211
 20
363.3147412125234
 30
0.0
  0
ENDBLK
  5
74A
330
73F
100
AcDbEntity
  8
0
100
AcDbBlockEnd
  0
BLOCK
  5
755
330
74B
100
AcDbEntity
  8
0
100
AcDbBlockBegin
  2
*D64
 70
     1
 10
0.0
 20
0.0
 30
0.0
  3
*D64
  1

  0
LINE
  5
85F
330
74B
100
AcDbEntity
  8
P-0000
  6
Continuous
 62
     3
370
    -2
100
AcDbLine
 10
428.7613589530509
 20
417.9147412125232
 30
0.0
 11
425.8247760638199
 21
333.8220098103789
 31
0.0
  0
LINE
  5
860
330
74B
100
AcDbEntity
  8
P-0000
  6
Continuous
 62
     3
370
    -2
100
AcDbLine
 10
366.4867647590012
 20
383.548883265694
 30
0.0
 11
364.824651294327
 21
335.952181106426
 31
0.0
  0
LINE
  5
861
330
74B
100
AcDbEntity
  8
P-0000
  6
Continuous
 62
     3
370
    -2
100
AcDbLine
 10
422.7464939521149
 20
335.9307248790301
 30
0.0
 11
368.0425313928422
 21
337.8410293458511
 31
0.0
  0
MTEXT
  5
862
330
74B
100
AcDbEntity
  8
P-0000
  6
Continuous
 62
     2
100
AcDbMText
 10
395.5253857851173
 20
340.6335927137642
 30
0.0
 40
3.5
 41
0.0
 71
     5
 72
     1
  1
61
 11
0.9993908270190935
 21
-0.0348994967025636
 31
0.0
 73
     1
 44
1.0
1001
ACAD
1000
MTEXTBEGIN
1070
    73
1070
     1
1070
    44
1040
1.0
1070
    74
1070
     0
1000
MTEXTEND
  0
SOLID
  5
863
330
74B
100
AcDbEntity
  8
P-0000
  6
Continuous
 62
     3
100
AcDbTrace
 10
422.7648161878837
 20
336.4554050632151
 30
0.0
 11
422.728171716346
 21
335.4060446948452
 31
0.0
 12
425.894575057225
 22
335.8207914644171
 32
0.0
 13
425.894575057225
 23
335.8207914644171
 33
0.0
  0
SOLID
  5
864
330
74B
100
AcDbEntity
  8
P-0000
  6
Continuous
 62
     3
100
AcDbTrace
 10
368.0608536286111
 20
338.3657095300362
 30
0.0
 11
368.0242091570734
 21
337.3163491616661
 31
0.0
 12
364.8944502877321
 22
337.9509627604642
 32
0.0
 13
364.8944502877321
 23
337.9509627604642
 33
0.0
  0
POINT
  5
865
330
74B
100
AcDbEntity
  8
Defpoints
  6
Continuous
 62
     0
100
AcDbPoint
 10
428.7613589530509
 20
417.9147412125232
 30
0.0
  0
POINT
  5
866
330
74B
100
AcDbEntity
  8
Defpoints
  6
Continuous
 62
     0
100
AcDbPoint
 10
366.4867647590012
 20
383.548883265694
 30
0.0
  0
POINT
  5
867
330
74B
100
AcDbEntity
  8
Defpoints
  6
Continuous
 62
     0
100
AcDbPoint
 10
364.8944502877321
 20
337.9509627604642
 30
0.0
  0
ENDBLK
  5
756
330
74B
100
AcDbEntity
  8
0
100
AcDbBlockEnd
  0
BLOCK
  5
761
330
757
100
AcDbEntity
  8
0
100
AcDbBlockBegin
  2
*D65
 70
     1
 10
0.0
 20
0.0
 30
0.0
  3
*D65
  1

  0
LINE
  5
868
330
757
100
AcDbEntity
  8
P-0000
  6
Continuous
 62
     3
370
    -2
100
AcDbLine
 10
366.4867647590012
 20
383.548883265694
 30
0.0
 11
364.8301355667027
 21
336.1092301192491
 31
0.0
  0
LINE
  5
869
330
757
100
AcDbEntity
  8
P-0000
  6
Continuous
 62
     3
370
    -2
100
AcDbLine
 10
306.2217627092921
 20
384.4961339653009
 30
0.0
 11
304.6054963407581
 21
338.2123208633857
 31
0.0
  0
LINE
  5
86A
330
757
100
AcDbEntity
  8
P-0000
  6
Continuous
 62
     3
370
    -2
100
AcDbLine
 10
361.7518534549977
 20
338.2179451879003
 30
0.0
 11
307.8233764392733
 21
340.1011691028109
 31
0.0
  0
MTEXT
  5
86B
330
757
100
AcDbEntity
  8
P-0000
  6
Continuous
 62
     2
100
AcDbMText
 10
340.0705635756428
 20
342.7273583051851
 30
0.0
 40
3.5
 41
0.0
 71
     5
 72
     1
  1
60
 11
0.9993908270190935
 21
-0.0348994967025636
 31
0.0
 73
     1
 44
1.0
1001
ACAD
1000
MTEXTBEGIN
1070
    73
1070
     1
1070
    44
1040
1.0
1070
    74
1070
     0
1000
MTEXTEND
  0
SOLID
  5
86C
330
757
100
AcDbEntity
  8
P-0000
  6
Continuous
 62
     3
100
AcDbTrace
 10
361.7701756907666
 20
338.7426253720854
 30
0.0
 11
361.7335312192289
 21
337.6932650037153
 31
0.0
 12
364.8999345601079
 22
338.1080117732873
 32
0.0
 13
364.8999345601079
 23
338.1080117732873
 33
0.0
  0
SOLID
  5
86D
330
757
100
AcDbEntity
  8
P-0000
  6
Continuous
 62
     3
100
AcDbTrace
 10
307.8416986750422
 20
340.6258492869959
 30
0.0
 11
307.8050542035045
 21
339.5764889186259
 31
0.0
 12
304.6752953341632
 22
340.211102517424
 32
0.0
 13
304.6752953341632
 23
340.211102517424
 33
0.0
  0
POINT
  5
86E
330
757
100
AcDbEntity
  8
Defpoints
  6
Continuous
 62
     0
100
AcDbPoint
 10
366.4867647590012
 20
383.548883265694
 30
0.0
  0
POINT
  5
86F
330
757
100
AcDbEntity
  8
Defpoints
  6
Continuous
 62
     0
100
AcDbPoint
 10
306.2217627092921
 20
384.4961339653009
 30
0.0
  0
POINT
  5
870
330
757
100
AcDbEntity
  8
Defpoints
  6
Continuous
 62
     0
100
AcDbPoint
 10
304.6752953341632
 20
340.211102517424
 30
0.0
  0
ENDBLK
  5
762
330
757
100
AcDbEntity
  8
0
100
AcDbBlockEnd
  0
ENDSEC
  0
SECTION
  2
ENTITIES
  0
DIMENSION
  5
41C
330
1F
100
AcDbEntity
  8
P-0000
  6
Continuous
100
AcDbDimension
  2
*D38
 10
178.3859736028652
 20
369.8572383534205
 30
0.0
 11
195.0877718483278
 21
400.0787300947126
 31
0.0
 70
   163
  1
<>{}{\H0.60x;\C3;\S+0.05^ ;}
 71
     5
 42
19.99999999999983
  3
6613488101_001_0098296284
100
AcDbDiametricDimension
 15
189.0575518157191
 25
386.7722440716264
 35
0.0
 40
0.0
1001
ACAD
1000
DSTYLE
1002
{
1070
   279
1070
     2
1002
}
1001
ACME_LAYERS
1000
1
  0
DIMENSION
  5
41D
330
1F
100
AcDbEntity
  8
P-0000
  6
Continuous
100
AcDbDimension
  2
*D39
 10
118.4576151332932
 20
384.496133965301
 30
0.0
 11
114.7076151332931
 21
448.4747171357945
 31
0.0
 70
   160
  1
119
 71
     5
 42
118.8186072472224
  3
661N88101_001_0098296284
100
AcDbAlignedDimension
 13
186.2217627092863
 23
503.3147412125233
 33
0.0
 14
228.2217627092987
 24
384.4961339653009
 34
0.0
 50
90.0
100
AcDbRotatedDimension
1001
ACAD
1000
DSTYLE
1002
{
1070
   279
1070
     2
1070
   288
1070
     1
1002
}
1001
ACME_LAYERS
1000
1
  0
CIRCLE
  5
41E
330
1F
100
AcDbEntity
  8
P-0000
  6
Continuous
 62
     7
100
AcDbCircle
 10
183.7217627092921
 20
378.3147412125233
 30
0.0
 40
10.0
1001
ACME_LAYERS
1000
1
  0
DIMENSION
  5
41F
330
1F
100
AcDbEntity
  8
P-0000
  6
Continuous
100
AcDbDimension
  2
*D40
 10
423.6093806910306
 20
486.5779430526093
 30
0.0
 11
389.2399033543787
 21
494.6702124561344
 31
0.0
 70
   163
  1
<>{}{\H0.60x;\C3;\S+0.05^ ;}
 71
     5
 42
20.00000000000006
  3
6613488101_001_0098296284
100
AcDbDiametricDimension
 15
403.9133372150713
 25
490.0515393724374
 35
0.0
 40
0.0
1001
ACAD
1000
DSTYLE
1002
{
1070
   279
1070
     2
1002
}
1001
ACME_LAYERS
1000
1
  0
LINE
  5
420
330
1F
100
AcDbEntity
  8
P-0000
  6
STRICHPUNKT
 62
     3
100
AcDbLine
 10
426.7613589530509
 20
488.3147412125233
 30
0.0
 11
400.7613589530509
 21
488.3147412125233
 31
0.0
1001
ACME_LAYERS
1000
1
  0
CIRCLE
  5
421
330
1F
100
AcDbEntity
  8
P-0000
  6
Continuous
 62
     7
100
AcDbCircle
 10
413.7613589530509
 20
488.3147412125233
 30
0.0
 40
10.0
1001
ACME_LAYERS
1000
1
  0
ARC
  5
423
330
1F
100
AcDbEntity
  8
P-0000
  6
Continuous
 62
     7
100
AcDbCircle
 10
229.2217627092918
 20
392.4961339653009
 30
0.0
 40
8.0
100
AcDbArc
 50
180.0
 51
270.0
1001
ACME_LAYERS
1000
1
  0
ARC
  5
425
330
1F
100
AcDbEntity
  8
P-0000
  6
STRICHLINIE
 62
     2
100
AcDbCircle
 10
603.2233201785177
 20
437.1356424300805
 30
0.0
 40
3.000000000000019
100
AcDbArc
 50
161.6441823782282
 51
255.0000000000024
1001
ACME_LAYERS
1000
1
  0
ARC
  5
427
330
1F
100
AcDbEntity
  8
P-0000
  6
STRICHLINIE
 62
     2
100
AcDbCircle
 10
703.0277956390523
 20
423.9961339653009
 30
0.0
 40
3.0
100
AcDbArc
 50
270.0
 51
3.355817621771303
1001
ACME_LAYERS
1000
1
  0
DIMENSION
  5
428
330
1F
100
AcDbEntity
  8
P-0000
  6
Continuous
100
AcDbDimension
  2
*D44
 10
133.4172737444581
 20
503.3147412125233
 30
0.0
 11
129.6672737444581
 21
493.3147412125233
 31
0.0
 70
   160
  1
<>
 71
     5
 42
20.0
  3
661N88101_001_0098296284
100
AcDbAlignedDimension
 13
216.7217627092981
 23
483.3147412125233
 33
0.0
 14
186.2217627092863
 24
503.3147412125233
 34
0.0
 50
90.0
100
AcDbRotatedDimension
1001
ACAD
1000
DSTYLE
1002
{
1070
   279
1070
     2
1070
   288
1070
     1
1002
}
1001
ACME_LAYERS
1000
1
  0
DIMENSION
  5
429
330
1F
100
AcDbEntity
  8
P-0000
  6
Continuous
100
AcDbDimension
  2
*D45
 10
310.7217627092841
 20
536.7137322924685
 30
0.0
 11
264.5066452254497
 21
541.3387322924685
 31
0.0
 70
   160
  1
%%c<>{}{\H0.60x;\C3;\S+2^ ;}
 71
     5
 42
93.99999999998597
  3
6613588101_001_0098296284
100
AcDbAlignedDimension
 13
216.7217627092981
 23
503.3147412125233
 33
0.0
 14
310.7217627092841
 24
503.3147412125233
 34
0.0
100
AcDbRotatedDimension
1001
ACAD
1000
DSTYLE
1002
{
1070
   279
1070
     2
1002
}
1001
ACME_LAYERS
1000
1
  0
DIMENSION
  5
42B
330
1F
100
AcDbEntity
  8
P-0000
  6
Continuous
100
AcDbDimension
  2
*D47
 10
183.7217627092921
 20
344.2613315800296
 30
0.0
 11
176.2217627092921
 21
348.0113315800296
 31
0.0
 70
   160
  1
<>
 71
     5
 42
15.0
  3
661N88101_001_0098296284
100
AcDbAlignedDimension
 13
168.7217627092921
 23
363.3147412125234
 33
0.0
 14
183.7217627092921
 24
365.3147412125234
 34
0.0
100
AcDbRotatedDimension
1001
ACAD
1000
DSTYLE
1002
{
1070
   279
1070
     2
1070
   288
1070
     1
1002
}
1001
ACME_LAYERS
1000
1
  0
DIMENSION
  5
42C
330
1F
100
AcDbEntity
  8
P-0000
  6
Continuous
100
AcDbDimension
  2
*D48
 10
428.7613589530509
 20
520.8465032381747
 30
0.0
 11
421.2613589530509
 21
524.5965032381746
 31
0.0
 70
   160
  1
<>
 71
     5
 42
15.0
  3
661N88101_001_0098296284
100
AcDbAlignedDimension
 13
413.7613589530509
 23
501.3147412125233
 33
0.0
 14
428.7613589530509
 24
503.3147412125233
 34
0.0
100
AcDbRotatedDimension
1001
ACAD
1000
DSTYLE
1002
{
1070
   279
1070
     2
1070
   288
1070
     1
1002
}
1001
ACME_LAYERS
1000
1
  0
DIMENSION
  5
42D
330
1F
100
AcDbEntity
  8
P-0000
  6
Continuous
100
AcDbDimension
  2
*D49
 10
449.8975147963209
 20
503.3147412125233
 30
0.0
 11
446.1475147963209
 21
497.1615507180875
 31
0.0
 70
   160
  1
<>
 71
     5
 42
15.0
  3
661N88101_001_0098296284
100
AcDbAlignedDimension
 13
426.7613589530509
 23
488.3147412125233
 33
0.0
 14
428.7613589530509
 24
503.3147412125233
 34
0.0
 50
90.0
100
AcDbRotatedDimension
1001
ACAD
1000
DSTYLE
1002
{
1070
   279
1070
     2
1070
   288
1070
     1
1002
}
1001
ACME_LAYERS
1000
1
  0
DIMENSION
  5
436
330
1F
100
AcDbEntity
  8
P-0000
  6
Continuous
100
AcDbDimension
  2
*D58
 10
455.6995965848168
 20
453.5145719215419
 30
0.0
 11
450.932698497957
 21
429.4742761976658
 31
0.0
 70
   160
  1
%%c73.5
 71
     5
 42
73.03655037885414
  3
661N88101_001_0098296284
100
AcDbAlignedDimension
 13
428.7613589530509
 23
381.3742065166517
 33
0.0
 14
428.7613589530509
 24
454.4552759083948
 34
0.0
 50
267.9999999999997
100
AcDbRotatedDimension
1001
ACAD
1000
DSTYLE
1002
{
1070
   279
1070
     2
1070
   288
1070
     1
1002
}
1001
ACME_LAYERS
1000
1
  0
DIMENSION
  5
439
330
1F
100
AcDbEntity
  8
P-0000
  6
Continuous
100
AcDbDimension
  2
*D61
 10
502.2338854374336
 20
417.9147412125232
 30
0.0
 11
497.8516979374336
 21
390.6147412125233
 31
0.0
 70
   160
  1
52.7
 71
     5
 42
54.59999999999991
  3
661N88101_001_0098296284
100
AcDbAlignedDimension
 13
428.7613589530509
 23
363.3147412125234
 33
0.0
 14
428.7613589530509
 24
417.9147412125232
 34
0.0
 50
90.0
100
AcDbRotatedDimension
1001
ACAD
1000
DSTYLE
1002
{
1070
   279
1070
     2
1070
   288
1070
     1
1002
}
1001
ACME_LAYERS
1000
1
  0
LINE
  5
43A
330
1F
100
AcDbEntity
  8
P-0000
  6
Continuous
 62
     3
100
AcDbLine
 10
499.8838854374336
 20
385.8022412125233
 30
0.0
 11
499.8838854374336
 21
395.4272412125233
 31
0.0
  0
DIMENSION
  5
43B
330
1F
100
AcDbEntity
  8
P-0000
  6
Continuous
100
AcDbDimension
  2
*D62
 10
306.2217627092922
 20
521.7451005875606
 30
0.0
 11
263.7217627092921
 21
525.4951005875605
 31
0.0
 70
   160
  1
%%c<>{\H0.60x;\C3;±0.3}
 71
     5
 42
85.00000000000019
  3
6613388101_001_0098296284
100
AcDbAlignedDimension
 13
221.2217627092919
 23
480.3338804520585
 33
0.0
 14
306.2217627092922
 24
480.3338804520585
 34
0.0
100
AcDbRotatedDimension
1001
ACAD
1000
DSTYLE
1002
{
1070
   279
1070
     2
1002
}
1001
ACME_LAYERS
1000
1
  0
DIMENSION
  5
43C
330
1F
100
AcDbEntity
  8
P-0000
  6
Continuous
100
AcDbDimension
  2
*D63
 10
103.1701387510211
 20
363.3147412125234
 30
0.0
 11
99.42013875102118
 21
433.3147412125233
 31
0.0
 70
   160
  1
<>
 71
     5
 42
140.0
  3
661N88101_001_0098296284
100
AcDbAlignedDimension
 13
168.7217627092921
 23
503.3147412125233
 33
0.0
 14
168.7217627092921
 24
363.3147412125234
 34
0.0
 50
90.0
100
AcDbRotatedDimension
1001
ACAD
1000
DSTYLE
1002
{
1070
   279
1070
     2
1070
   288
1070
     1
1002
}
1001
ACME_LAYERS
1000
1
  0
DIMENSION
  5
43D
330
1F
100
AcDbEntity
  8
P-0000
  6
Continuous
100
AcDbDimension
  2
*D64
 10
364.8944502877321
 20
337.9509627604642
 30
0.0
 11
395.5253857851173
 21
340.6335927137642
 31
0.0
 70
   160
  1
61
 71
     5
 42
61.03730704777371
  3
661N88101_001_0098296284
100
AcDbAlignedDimension
 13
428.7613589530509
 23
417.9147412125232
 33
0.0
 14
366.4867647590011
 24
383.548883265694
 34
0.0
 50
357.9999999999964
100
AcDbRotatedDimension
1001
ACAD
1000
DSTYLE
1002
{
1070
   279
1070
     2
1070
   288
1070
     1
1002
}
1001
ACME_LAYERS
1000
1
  0
DIMENSION
  5
43E
330
1F
100
AcDbEntity
  8
P-0000
  6
Continuous
100
AcDbDimension
  2
*D65
 10
304.6752953341632
 20
340.211102517424
 30
0.0
 11
340.0705635756428
 21
342.7273583051851
 31
0.0
 70
   160
  1
60
 71
     5
 42
60.26134881143355
  3
661N88101_001_0098296284
100
AcDbAlignedDimension
 13
366.4867647590011
 23
383.548883265694
 33
0.0
 14
306.2217627092922
 24
384.4961339653009
 34
0.0
 50
357.9999999999964
100
AcDbRotatedDimension
1001
ACAD
1000
DSTYLE
1002
{
1070
   279
1070
     2
1070
   288
1070
     1
1002
}
1001
ACME_LAYERS
1000
1
  0
ARC
  5
444
330
1F
100
AcDbEntity
  8
P-0000
  6
Continuous
 62
     7
100
AcDbCircle
 10
617.3656758627938
 20
392.4961339653009
 30
0.0
 40
8.0
100
AcDbArc
 50
180.0
 51
270.0
1001
ACME_LAYERS
1000
1
  0
ARC
  5
445
330
1F
100
AcDbEntity
  8
P-0000
  6
Continuous
 62
     7
100
AcDbCircle
 10
617.3656758627938
 20
392.4961339653009
 30
0.0
 40
8.0
100
AcDbArc
 50
180.0
 51
270.0
1001
ACME_LAYERS
1000
1
  0
ARC
  5
446
330
1F
100
AcDbEntity
  8
P-0000
  6
Continuous
 62
     7
100
AcDbCircle
 10
686.3656758627944
 20
392.4961339653009
 30
0.0
 40
8.0
100
AcDbArc
 50
270.0
 51
0.0
1001
ACME_LAYERS
1000
1
  0
ARC
  5
447
330
1F
100
AcDbEntity
  8
P-0000
  6
Continuous
 62
     7
100
AcDbCircle
 10
686.3656758627944
 20
392.4961339653009
 30
0.0
 40
8.0
100
AcDbArc
 50
270.0
 51
0.0
1001
ACME_LAYERS
1000
1
  0
ARC
  5
448
330
1F
100
AcDbEntity
  8
P-0000
  6
Continuous
 62
     7
100
AcDbCircle
 10
686.3656758627944
 20
392.4961339653009
 30
0.0
 40
8.0
100
AcDbArc
 50
270.0
 51
0.0
1001
ACME_LAYERS
1000
1
  0
ARC
  5
449
330
1F
100
AcDbEntity
  8
P-0000
  6
Continuous
 62
     7
100
AcDbCircle
 10
328.0647194916813
 20
422.193918206563
 30
0.0
 40
42.57141572531412
100
AcDbArc
 50
120.8698560637475
 51
239.1301439362525
1001
ACME_LAYERS
1000
1
  0
ARC
  5
44E
330
1F
100
AcDbEntity
  8
P-0000
  6
Continuous
 62
     7
100
AcDbCircle
 10
651.8656758627941
 20
420.9961339653009
 30
0.0
 40
36.50000000000006
100
AcDbArc
 50
17.24151841153247
 51
90.0
1001
ACME_LAYERS
1000
1
  0
ARC
  5
451
330
1F
100
AcDbEntity
  8
P-0000
  6
Continuous
 62
     7
100
AcDbCircle
 10
651.8656758627941
 20
420.9961339653009
 30
0.0
 40
54.25000000000182
100
AcDbArc
 50
38.42612634260874
 51
90.0
1001
ACME_LAYERS
1000
1
  0
ARC
  5
452
330
1F
100
AcDbEntity
  8
P-0000
  6
Continuous
 62
     7
100
AcDbCircle
 10
651.8656758627941
 20
420.9961339653009
 30
0.0
 40
36.5
100
AcDbArc
 50
270.0
 51
0.0
1001
ACME_LAYERS
1000
1
  0
ARC
  5
453
330
1F
100
AcDbEntity
  8
P-0000
  6
Continuous
 62
     7
100
AcDbCircle
 10
651.8656758627941
 20
420.9961339653009
 30
0.0
 40
36.5
100
AcDbArc
 50
90.0
 51
135.0000000000046
1001
ACME_LAYERS
1000
1
  0
ARC
  5
454
330
1F
100
AcDbEntity
  8
P-0000
  6
Continuous
 62
     7
100
AcDbCircle
 10
651.8656758627941
 20
420.9961339653009
 30
0.0
 40
54.25000000000341
100
AcDbArc
 50
90.0
 51
135.0000000000046
1001
ACME_LAYERS
1000
1
  0
ARC
  5
455
330
1F
100
AcDbEntity
  8
P-0000
  6
Continuous
 62
     7
100
AcDbCircle
 10
651.8656758627941
 20
420.9961339653009
 30
0.0
 40
36.50000000000343
100
AcDbArc
 50
135.0000000000046
 51
165.0000000000055
1001
ACME_LAYERS
1000
1
  0
ARC
  5
456
330
1F
100
AcDbEntity
  8
P-0000
  6
Continuous
 62
     7
100
AcDbCircle
 10
651.8656758627941
 20
420.9961339653009
 30
0.0
 40
36.50000000000347
100
AcDbArc
 50
165.0000000000055
 51
270.0
1001
ACME_LAYERS
1000
1
  0
ARC
  5
457
330
1F
100
AcDbEntity
  8
P-0000
  6
STRICHLINIE
 62
     2
100
AcDbCircle
 10
651.8656758627941
 20
420.9961339653009
 30
0.0
 40
54.25000000000338
100
AcDbArc
 50
141.5738736573912
 51
161.6441823782282
1001
ACME_LAYERS
1000
1
  0
ARC
  5
458
330
1F
100
AcDbEntity
  8
P-0000
  6
STRICHLINIE
 62
     2
100
AcDbCircle
 10
651.8656758627941
 20
420.9961339653009
 30
0.0
 40
54.2500000000018
100
AcDbArc
 50
3.355817621771303
 51
38.42612634260874
1001
ACME_LAYERS
1000
1
  0
ARC
  5
459
330
1F
100
AcDbEntity
  8
P-0000
  6
Continuous
 62
     7
100
AcDbCircle
 10
651.8656758627941
 20
420.9961339653009
 30
0.0
 40
54.25000000000338
100
AcDbArc
 50
135.0000000000046
 51
141.5738736573912
1001
ACME_LAYERS
1000
1
  0
ARC
  5
45A
330
1F
100
AcDbEntity
  8
P-0000
  6
Continuous
 62
     7
100
AcDbCircle
 10
692.8656758627941
 20
428.3147412125219
 30
0.0
 40
3.500000000000015
100
AcDbArc
 50
64.62306647484489
 51
90.0
1001
ACME_LAYERS
1000
1
  0
ARC
  5
45B
330
1F
100
AcDbEntity
  8
P-0000
  6
Continuous
 62
     7
100
AcDbCircle
 10
651.8656758627941
 20
420.9961339653009
 30
0.0
 40
36.50000000000182
100
AcDbArc
 50
0.0
 51
6.005237669857677
1001
ACME_LAYERS
1000
1
  0
ARC
  5
45C
330
1F
100
AcDbEntity
  8
P-0000
  6
Continuous
 62
     7
100
AcDbCircle
 10
692.8656758627941
 20
428.3147412125219
 30
0.0
 40
3.5
100
AcDbArc
 50
270.0
 51
295.3769335251551
1001
ACME_LAYERS
1000
1
  0
ARC
  5
45D
330
1F
100
AcDbEntity
  8
P-0000
  6
Continuous
 62
     7
100
AcDbCircle
 10
692.8656758627941
 20
428.3147412125219
 30
0.0
 40
3.500000000000015
100
AcDbArc
 50
295.3769335251551
 51
64.62306647484489
1001
ACME_LAYERS
1000
1
  0
LINE
  5
460
330
1F
100
AcDbEntity
  8
P-0000
  6
Continuous
 62
     7
100
AcDbLine
 10
306.2217627092922
 20
385.6533835106915
 30
0.0
 11
306.2217627092922
 21
384.4961339653009
 31
0.0
1001
ACME_LAYERS
1000
1
  0
LINE
  5
461
330
1F
100
AcDbEntity
  8
P-0000
  6
Continuous
 62
     7
100
AcDbLine
 10
306.2217627092922
 20
458.7344529024347
 30
0.0
 11
306.2217627092922
 21
457.3338804520585
 31
0.0
1001
ACME_LAYERS
1000
1
  0
LINE
  5
462
330
1F
100
AcDbEntity
  8
P-0000
  6
STRICHPUNKT
 62
     3
100
AcDbLine
 10
428.7613589530509
 20
417.9147412125232
 30
0.0
 11
286.4571797645037
 21
422.8841126516796
 31
0.0
1001
ACME_LAYERS
1000
1
  0
LINE
  5
463
330
1F
100
AcDbEntity
  8
P-0000
  6
Continuous
 62
     7
100
AcDbLine
 10
428.7613589530509
 20
432.9147412125232
 30
0.0
 11
428.7613589530509
 21
447.9147412125233
 31
0.0
1001
ACME_LAYERS
1000
1
  0
LINE
  5
464
330
1F
100
AcDbEntity
  8
P-0000
  6
STRICHPUNKT
 62
     3
100
AcDbLine
 10
428.7613589530509
 20
417.9147412125232
 30
0.0
 11
369.7613589530509
 21
417.9147412125232
 31
0.0
1001
ACME_LAYERS
1000
1
  0
LINE
  5
467
330
1F
100
AcDbEntity
  8
P-0000
  6
STRICHPUNKT
 62
     3
100
AcDbLine
 10
651.8656758627941
 20
363.3147412125234
 30
0.0
 11
651.8656758627941
 21
384.4961339653009
 31
0.0
1001
ACME_LAYERS
1000
1
  0
LINE
  5
468
330
1F
100
AcDbEntity
  8
P-0000
  6
Continuous
 62
     7
100
AcDbLine
 10
651.8656758627941
 20
363.3147412125234
 30
0.0
 11
746.8656758627941
 21
363.3147412125234
 31
0.0
1001
ACME_LAYERS
1000
1
  0
LINE
  5
469
330
1F
100
AcDbEntity
  8
P-0000
  6
STRICHPUNKT
 62
     3
100
AcDbLine
 10
651.8656758627941
 20
363.3147412125234
 30
0.0
 11
651.8656758627941
 21
384.4961339653009
 31
0.0
1001
ACME_LAYERS
1000
1
  0
LINE
  5
46A
330
1F
100
AcDbEntity
  8
P-0000
  6
Continuous
 62
     7
100
AcDbLine
 10
556.8656758627942
 20
363.3147412125234
 30
0.0
 11
556.8656758627942
 21
480.3338804520585
 31
0.0
1001
ACME_LAYERS
1000
1
  0
LINE
  5
46B
330
1F
100
AcDbEntity
  8
P-0000
  6
STRICHPUNKT
 62
     3
100
AcDbLine
 10
651.8656758627941
 20
356.6035316767759
 30
0.0
 11
651.8656758627941
 21
363.3147412125234
 31
0.0
1001
ACME_LAYERS
1000
1
  0
LINE
  5
46C
330
1F
100
AcDbEntity
  8
P-0000
  6
STRICHPUNKT
 62
     3
100
AcDbLine
 10
431.7595314341082
 20
417.8100427224157
 30
0.0
 11
428.7613589530509
 21
417.9147412125232
 31
0.0
1001
ACME_LAYERS
1000
1
  0
LINE
  5
46D
330
1F
100
AcDbEntity
  8
P-0000
  6
Continuous
 62
     7
100
AcDbLine
 10
306.2217627092922
 20
384.4961339653009
 30
0.0
 11
306.2217627092922
 21
378.0554636192402
 31
0.0
1001
ACME_LAYERS
1000
1
  0
LINE
  5
46E
330
1F
100
AcDbEntity
  8
P-0000
  6
Continuous
 62
     7
100
AcDbLine
 10
428.7613589530509
 20
457.3338804520585
 30
0.0
 11
428.7613589530509
 21
480.3338804520585
 31
0.0
1001
ACME_LAYERS
1000
1
  0
LINE
  5
46F
330
1F
100
AcDbEntity
  8
P-0000
  6
Continuous
 62
     7
100
AcDbLine
 10
369.0809794705401
 20
457.8374728155904
 30
0.0
 11
368.2568630042126
 21
434.2378649512133
 31
0.0
1001
ACME_LAYERS
1000
1
  0
LINE
  5
470
330
1F
100
AcDbEntity
  8
P-0000
  6
Continuous
 62
     7
100
AcDbLine
 10
306.2217627092922
 20
457.3338804520585
 30
0.0
 11
306.2217627092922
 21
436.4041783890095
 31
0.0
1001
ACME_LAYERS
1000
1
  0
LINE
  5
471
330
1F
100
AcDbEntity
  8
P-0000
  6
STRICHPUNKT
 62
     3
100
AcDbLine
 10
263.7217627092921
 20
457.3338804520585
 30
0.0
 11
263.7217627092921
 21
480.3338804520585
 31
0.0
1001
ACME_LAYERS
1000
1
  0
LINE
  5
472
330
1F
100
AcDbEntity
  8
P-0000
  6
Continuous
 62
     7
100
AcDbLine
 10
221.2217627092921
 20
457.3338804520585
 30
0.0
 11
221.2217627092918
 21
392.4961339653009
 31
0.0
1001
ACME_LAYERS
1000
1
  0
LINE
  5
473
330
1F
100
AcDbEntity
  8
P-0000
  6
Continuous
 62
     7
100
AcDbLine
 10
168.7217627092921
 20
457.3338804520585
 30
0.0
 11
168.7217627092921
 21
480.3338804520585
 31
0.0
1001
ACME_LAYERS
1000
1
  0
LINE
  5
474
330
1F
100
AcDbEntity
  8
P-0000
  6
Continuous
 62
     7
100
AcDbLine
 10
323.2217627092921
 20
503.3147412125233
 30
0.0
 11
236.2217627093063
 21
503.3147412125233
 31
0.0
1001
ACME_LAYERS
1000
1
  0
LINE
  5
475
330
1F
100
AcDbEntity
  8
P-0000
  6
Continuous
 62
     7
100
AcDbLine
 10
236.2217627093063
 20
503.3147412125233
 30
0.0
 11
186.2217627092863
 21
503.3147412125233
 31
0.0
1001
ACME_LAYERS
1000
1
  0
LINE
  5
476
330
1F
100
AcDbEntity
  8
P-0000
  6
Continuous
 62
     7
100
AcDbLine
 10
236.2217627093063
 20
363.3147412125234
 30
0.0
 11
168.7217627092921
 21
363.3147412125234
 31
0.0
1001
ACME_LAYERS
1000
1
  0
LINE
  5
477
330
1F
100
AcDbEntity
  8
P-0000
  6
Continuous
 62
     7
100
AcDbLine
 10
323.2217627092921
 20
363.3147412125234
 30
0.0
 11
236.2217627093063
 21
363.3147412125234
 31
0.0
1001
ACME_LAYERS
1000
1
  0
LINE
  5
478
330
1F
100
AcDbEntity
  8
P-0000
  6
Continuous
 62
     7
100
AcDbLine
 10
369.641912997373
 20
473.900507364855
 30
0.0
 11
369.0809794705401
 21
457.8374728155904
 31
0.0
1001
ACME_LAYERS
1000
1
  0
LINE
  5
479
330
1F
100
AcDbEntity
  8
P-0000
  6
Continuous
 62
     7
100
AcDbLine
 10
428.7613589530509
 20
447.9147412125233
 30
0.0
 11
428.7613589530509
 21
457.3338804520585
 31
0.0
1001
ACME_LAYERS
1000
1
  0
LINE
  5
47A
330
1F
100
AcDbEntity
  8
P-0000
  6
STRICHPUNKT
 62
     3
100
AcDbLine
 10
651.8656758627941
 20
503.3147412125233
 30
0.0
 11
651.8656758627941
 21
509.3147412125233
 31
0.0
1001
ACME_LAYERS
1000
1
  0
LINE
  5
47C
330
1F
100
AcDbEntity
  8
P-0000
  6
STRICHPUNKT
 62
     3
100
AcDbLine
 10
651.8656758627941
 20
356.6035316767768
 30
0.0
 11
651.8656758627941
 21
363.3147412125234
 31
0.0
1001
ACME_LAYERS
1000
1
  0
LINE
  5
480
330
1F
100
AcDbEntity
  8
P-0000
  6
STRICHPUNKT
 62
     3
100
AcDbLine
 10
263.7217627092921
 20
357.3147412125234
 30
0.0
 11
263.7217627092921
 21
457.3338804520585
 31
0.0
1001
ACME_LAYERS
1000
1
  0
LINE
  5
481
330
1F
100
AcDbEntity
  8
P-0000
  6
Continuous
 62
     7
100
AcDbLine
 10
197.2174913929722
 20
509.5342732866542
 30
0.0
 11
197.2217627092848
 21
509.5181095340628
 31
0.0
1001
ACME_LAYERS
1000
1
  0
LINE
  5
482
330
1F
100
AcDbEntity
  8
P-0000
  6
Continuous
 62
     7
100
AcDbLine
 10
204.2217627092919
 20
483.4164253732956
 30
0.0
 11
204.2217627092921
 21
483.3147412125233
 31
0.0
1001
ACME_LAYERS
1000
1
  0
LINE
  5
483
330
1F
100
AcDbEntity
  8
P-0000
  6
Continuous
 62
     7
100
AcDbLine
 10
343.7217627092912
 20
503.3147412125233
 30
0.0
 11
428.7613589530509
 21
503.3147412125233
 31
0.0
1001
ACME_LAYERS
1000
1
  0
LINE
  5
484
330
1F
100
AcDbEntity
  8
P-0000
  6
Continuous
 62
     7
100
AcDbLine
 10
417.0025799553906
 20
454.8659015192766
 30
0.0
 11
428.7613589530509
 21
454.4552759083948
 31
0.0
1001
ACME_LAYERS
1000
1
  0
LINE
  5
485
330
1F
100
AcDbEntity
  8
P-0000
  6
Continuous
 62
     7
100
AcDbLine
 10
221.2217627092918
 20
481.3147412125251
 30
0.0
 11
221.2217627092919
 21
480.3338804520585
 31
0.0
1001
ACME_LAYERS
1000
1
  0
LINE
  5
486
330
1F
100
AcDbEntity
  8
P-0000
  6
Continuous
 62
     7
100
AcDbLine
 10
306.2217627092922
 20
483.3147412125233
 30
0.0
 11
306.2217627092922
 21
480.3338804520585
 31
0.0
1001
ACME_LAYERS
1000
1
  0
LINE
  5
487
330
1F
100
AcDbEntity
  8
P-0000
  6
Continuous
 62
     7
100
AcDbLine
 10
228.2217627092987
 20
384.4961339653009
 30
0.0
 11
306.2217627092922
 21
384.4961339653009
 31
0.0
1001
ACME_LAYERS
1000
1
  0
LINE
  5
488
330
1F
100
AcDbEntity
  8
P-0000
  6
Continuous
 62
     7
100
AcDbLine
 10
428.7613589530509
 20
363.3147412125234
 30
0.0
 11
323.2217627092921
 21
363.3147412125234
 31
0.0
1001
ACME_LAYERS
1000
1
  0
LINE
  5
489
330
1F
100
AcDbEntity
  8
P-0000
  6
Continuous
 62
     7
100
AcDbLine
 10
168.7217627092921
 20
363.3147412125234
 30
0.0
 11
168.7217627092921
 21
457.3338804520585
 31
0.0
1001
ACME_LAYERS
1000
1
  0
LINE
  5
48A
330
1F
100
AcDbEntity
  8
P-0000
  6
Continuous
 62
     7
100
AcDbLine
 10
216.7217627092981
 20
503.3147412125233
 30
0.0
 11
216.7217627092981
 21
483.3147412125233
 31
0.0
1001
ACME_LAYERS
1000
1
  0
LINE
  5
48B
330
1F
100
AcDbEntity
  8
P-0000
  6
Continuous
 62
     7
100
AcDbLine
 10
183.7217627092911
 20
503.3147412125233
 30
0.0
 11
186.2217627092863
 21
503.3147412125233
 31
0.0
1001
ACME_LAYERS
1000
1
  0
LINE
  5
48C
330
1F
100
AcDbEntity
  8
P-0000
  6
Continuous
 62
     7
100
AcDbLine
 10
216.7217627092981
 20
483.3147412125233
 30
0.0
 11
310.7217627092841
 21
483.3147412125233
 31
0.0
1001
ACME_LAYERS
1000
1
  0
LINE
  5
48D
330
1F
100
AcDbEntity
  8
P-0000
  6
Continuous
 62
     7
100
AcDbLine
 10
221.2217627092921
 20
483.3147412125233
 30
0.0
 11
221.2217627092918
 21
481.3147412125251
 31
0.0
1001
ACME_LAYERS
1000
1
  0
LINE
  5
48E
330
1F
100
AcDbEntity
  8
P-0000
  6
Continuous
 62
     7
100
AcDbLine
 10
310.7217627092841
 20
483.3147412125233
 30
0.0
 11
310.7217627092841
 21
503.3147412125233
 31
0.0
1001
ACME_LAYERS
1000
1
  0
LINE
  5
48F
330
1F
100
AcDbEntity
  8
P-0000
  6
Continuous
 62
     7
100
AcDbLine
 10
343.7217627092912
 20
503.3147412125233
 30
0.0
 11
323.2217627092921
 21
503.3147412125233
 31
0.0
1001
ACME_LAYERS
1000
1
  0
LINE
  5
490
330
1F
100
AcDbEntity
  8
P-0000
  6
Continuous
 62
     7
100
AcDbLine
 10
428.7613589530509
 20
363.3147412125234
 30
0.0
 11
428.7613589530509
 21
383.3146506777619
 31
0.0
1001
ACME_LAYERS
1000
1
  0
LINE
  5
491
330
1F
100
AcDbEntity
  8
P-0000
  6
Continuous
 62
     7
100
AcDbLine
 10
428.7613589530509
 20
503.3147412125233
 30
0.0
 11
428.7652727512572
 21
503.3147412125233
 31
0.0
1001
ACME_LAYERS
1000
1
  0
LINE
  5
492
330
1F
100
AcDbEntity
  8
P-0000
  6
Continuous
 62
     7
100
AcDbLine
 10
306.2217627092922
 20
476.1151878141971
 30
0.0
 11
369.641912997373
 21
473.900507364855
 31
0.0
1001
ACME_LAYERS
1000
1
  0
LINE
  5
493
330
1F
100
AcDbEntity
  8
P-0000
  6
Continuous
 62
     7
100
AcDbLine
 10
369.03570360811
 20
456.540941751439
 30
0.0
 11
417.0025799553906
 21
454.8659015192766
 31
0.0
1001
ACME_LAYERS
1000
1
  0
LINE
  5
494
330
1F
100
AcDbEntity
  8
P-0000
  6
Continuous
 62
     7
100
AcDbLine
 10
366.4660591862096
 20
382.955953238869
 30
0.0
 11
366.2217627092922
 21
375.9602174497354
 31
0.0
1001
ACME_LAYERS
1000
1
  0
LINE
  5
495
330
1F
100
AcDbEntity
  8
P-0000
  6
Continuous
 62
     7
100
AcDbLine
 10
366.4867647590011
 20
383.548883265694
 30
0.0
 11
428.7613589530509
 21
381.3742065166517
 31
0.0
1001
ACME_LAYERS
1000
1
  0
LINE
  5
496
330
1F
100
AcDbEntity
  8
P-0000
  6
Continuous
 62
     7
100
AcDbLine
 10
366.2217627092922
 20
375.9602174497354
 30
0.0
 11
306.2217627092922
 21
378.0554636192402
 31
0.0
1001
ACME_LAYERS
1000
1
  0
LINE
  5
498
330
1F
100
AcDbEntity
  8
P-0000
  6
STRICHPUNKT
 62
     3
100
AcDbLine
 10
413.7613589530509
 20
501.3147412125233
 30
0.0
 11
413.7613589530509
 21
475.3147412125233
 31
0.0
1001
ACME_LAYERS
1000
1
  0
LINE
  5
499
330
1F
100
AcDbEntity
  8
P-0000
  6
STRICHPUNKT
 62
     3
100
AcDbLine
 10
196.7217627092921
 20
378.3147412125233
 30
0.0
 11
170.7217627092921
 21
378.3147412125233
 31
0.0
1001
ACME_LAYERS
1000
1
  0
LINE
  5
49A
330
1F
100
AcDbEntity
  8
P-0000
  6
STRICHPUNKT
 62
     3
100
AcDbLine
 10
183.7217627092921
 20
391.3147412125234
 30
0.0
 11
183.7217627092921
 21
365.3147412125234
 31
0.0
1001
ACME_LAYERS
1000
1
  0
LINE
  5
4A9
330
1F
100
AcDbEntity
  8
P-0000
  6
STRICHPUNKT
 62
     3
100
AcDbLine
 10
651.8656758627941
 20
498.3147412125233
 30
0.0
 11
651.8656758627941
 21
503.3147412125233
 31
0.0
1001
ACME_LAYERS
1000
1
  0
LINE
  5
4AA
330
1F
100
AcDbEntity
  8
P-0000
  6
Continuous
 62
     7
100
AcDbLine
 10
651.8656758627941
 20
498.3147412125233
 30
0.0
 11
651.8656758627941
 21
503.3147412125233
 31
0.0
1001
ACME_LAYERS
1000
1
  0
LINE
  5
4AC
330
1F
100
AcDbEntity
  8
P-0000
  6
Continuous
 62
     7
100
AcDbLine
 10
571.8656758627932
 20
503.3147412125233
 30
0.0
 11
604.8656758628001
 21
503.3147412125233
 31
0.0
1001
ACME_LAYERS
1000
1
  0
LINE
  5
4AF
330
1F
100
AcDbEntity
  8
P-0000
  6
Continuous
 62
     7
100
AcDbLine
 10
651.8656758627941
 20
503.3147412125219
 30
0.0
 11
698.8656758627882
 21
503.3147412125233
 31
0.0
1001
ACME_LAYERS
1000
1
  0
LINE
  5
4B1
330
1F
100
AcDbEntity
  8
P-0000
  6
Continuous
 62
     7
100
AcDbLine
 10
651.8656758627941
 20
503.3147412125219
 30
0.0
 11
651.8656758627941
 21
498.3147412125219
 31
0.0
1001
ACME_LAYERS
1000
1
  0
LINE
  5
4B2
330
1F
100
AcDbEntity
  8
P-0000
  6
STRICHPUNKT
 62
     3
100
AcDbLine
 10
651.8656758627941
 20
503.3147412125219
 30
0.0
 11
651.8656758627941
 21
498.3147412125219
 31
0.0
1001
ACME_LAYERS
1000
1
  0
LINE
  5
4B7
330
1F
100
AcDbEntity
  8
P-0000
  6
Continuous
 62
     7
100
AcDbLine
 10
746.8656758627941
 20
503.3147412125219
 30
0.0
 11
746.8656758627941
 21
480.3338804520585
 31
0.0
1001
ACME_LAYERS
1000
1
  0
LINE
  5
4B8
330
1F
100
AcDbEntity
  8
P-0000
  6
Continuous
 62
     7
100
AcDbLine
 10
731.865675862796
 20
503.3147412125219
 30
0.0
 11
746.8656758627941
 21
503.3147412125219
 31
0.0
1001
ACME_LAYERS
1000
1
  0
LINE
  5
4BA
330
1F
100
AcDbEntity
  8
P-0000
  6
STRICHPUNKT
 62
     3
100
AcDbLine
 10
651.8656758627941
 20
509.314741212522
 30
0.0
 11
651.8656758627941
 21
503.3147412125219
 31
0.0
1001
ACME_LAYERS
1000
1
  0
LINE
  5
4CE
330
1F
100
AcDbEntity
  8
P-0000
  6
Continuous
 62
     7
100
AcDbLine
 10
168.7217627092921
 20
503.3147412125233
 30
0.0
 11
183.7217627092911
 21
503.3147412125233
 31
0.0
1001
ACME_LAYERS
1000
1
  0
LINE
  5
4CF
330
1F
100
AcDbEntity
  8
P-0000
  6
Continuous
 62
     7
100
AcDbLine
 10
366.4867647590011
 20
383.548883265694
 30
0.0
 11
366.4660591862096
 21
382.955953238869
 31
0.0
1001
ACME_LAYERS
1000
1
  0
LINE
  5
4D0
330
1F
100
AcDbEntity
  8
P-0000
  6
Continuous
 62
     7
100
AcDbLine
 10
369.641912997373
 20
473.900507364855
 30
0.0
 11
370.6882601035348
 21
473.8639681187525
 31
0.0
1001
ACME_LAYERS
1000
1
  0
LINE
  5
4D1
330
1F
100
AcDbEntity
  8
P-0000
  6
Continuous
 62
     7
100
AcDbLine
 10
168.7217627092921
 20
480.3338804520585
 30
0.0
 11
168.7217627092921
 21
503.3147412125233
 31
0.0
1001
ACME_LAYERS
1000
1
  0
LINE
  5
4D2
330
1F
100
AcDbEntity
  8
P-0000
  6
Continuous
 62
     7
100
AcDbLine
 10
221.2217627092919
 20
480.3338804520585
 30
0.0
 11
221.2217627092921
 21
457.3338804520585
 31
0.0
1001
ACME_LAYERS
1000
1
  0
LINE
  5
4D3
330
1F
100
AcDbEntity
  8
P-0000
  6
STRICHPUNKT
 62
     3
100
AcDbLine
 10
263.7217627092921
 20
480.3338804520585
 30
0.0
 11
263.7217627092921
 21
509.3147412125233
 31
0.0
1001
ACME_LAYERS
1000
1
  0
LINE
  5
4D4
330
1F
100
AcDbEntity
  8
P-0000
  6
Continuous
 62
     7
100
AcDbLine
 10
306.2217627092922
 20
480.3338804520585
 30
0.0
 11
306.2217627092922
 21
476.1151878141971
 31
0.0
1001
ACME_LAYERS
1000
1
  0
LINE
  5
4D5
330
1F
100
AcDbEntity
  8
P-0000
  6
Continuous
 62
     7
100
AcDbLine
 10
428.7613589530509
 20
480.3338804520585
 30
0.0
 11
428.7613589530509
 21
503.3147412125233
 31
0.0
1001
ACME_LAYERS
1000
1
  0
LINE
  5
4D6
330
1F
100
AcDbEntity
  8
P-0000
  6
Continuous
 62
     7
100
AcDbLine
 10
746.8656758627941
 20
480.3338804520585
 30
0.0
 11
746.8656758627941
 21
363.3147412125234
 31
0.0
1001
ACME_LAYERS
1000
1
  0
LINE
  5
4D7
330
1F
100
AcDbEntity
  8
P-0000
  6
Continuous
 62
     7
100
AcDbLine
 10
556.8656758627942
 20
480.3338804520585
 30
0.0
 11
556.8656758627942
 21
503.3147412125233
 31
0.0
1001
ACME_LAYERS
1000
1
  0
LINE
  5
4D8
330
1F
100
AcDbEntity
  8
P-0000
  6
Continuous
 62
     7
100
AcDbLine
 10
616.3656758628007
 20
384.4961339653009
 30
0.0
 11
651.8656758627941
 21
384.4961339653009
 31
0.0
1001
ACME_LAYERS
1000
1
  0
LINE
  5
4D9
330
1F
100
AcDbEntity
  8
P-0000
  6
Continuous
 62
     7
100
AcDbLine
 10
609.3656758627941
 20
457.3338804520585
 30
0.0
 11
609.365675862794
 21
420.9961339653009
 31
0.0
1001
ACME_LAYERS
1000
1
  0
LINE
  5
4DA
330
1F
100
AcDbEntity
  8
P-0000
  6
Continuous
 62
     7
100
AcDbLine
 10
609.3656758627938
 20
481.3147412125251
 30
0.0
 11
609.365675862794
 21
480.3338804520585
 31
0.0
1001
ACME_LAYERS
1000
1
  0
LINE
  5
4DB
330
1F
100
AcDbEntity
  8
P-0000
  6
Continuous
 62
     7
100
AcDbLine
 10
609.3656758627941
 20
483.3147412125233
 30
0.0
 11
609.3656758627938
 21
481.3147412125251
 31
0.0
1001
ACME_LAYERS
1000
1
  0
LINE
  5
4DC
330
1F
100
AcDbEntity
  8
P-0000
  6
Continuous
 62
     7
100
AcDbLine
 10
609.365675862794
 20
480.3338804520585
 30
0.0
 11
609.3656758627941
 21
457.3338804520585
 31
0.0
1001
ACME_LAYERS
1000
1
  0
LINE
  5
4DD
330
1F
100
AcDbEntity
  8
P-0000
  6
Continuous
 62
     7
100
AcDbLine
 10
604.8656758628001
 20
503.3147412125233
 30
0.0
 11
604.8656758628001
 21
483.3147412125233
 31
0.0
1001
ACME_LAYERS
1000
1
  0
LINE
  5
4DE
330
1F
100
AcDbEntity
  8
P-0000
  6
Continuous
 62
     7
100
AcDbLine
 10
604.8656758628001
 20
483.3147412125233
 30
0.0
 11
609.3656758627941
 21
483.3147412125233
 31
0.0
1001
ACME_LAYERS
1000
1
  0
LINE
  5
4E0
330
1F
100
AcDbEntity
  8
P-0000
  6
STRICHPUNKT
 62
     3
100
AcDbLine
 10
651.8656758627941
 20
384.4961339653009
 30
0.0
 11
651.8656758627941
 21
457.4961339653009
 31
0.0
1001
ACME_LAYERS
1000
1
  0
LINE
  5
4E1
330
1F
100
AcDbEntity
  8
P-0000
  6
Continuous
 62
     7
100
AcDbLine
 10
651.8656758627941
 20
384.4961339653009
 30
0.0
 11
687.3656758627876
 21
384.4961339653009
 31
0.0
1001
ACME_LAYERS
1000
1
  0
LINE
  5
4E2
330
1F
100
AcDbEntity
  8
P-0000
  6
Continuous
 62
     7
100
AcDbLine
 10
694.3656758627944
 20
392.4961339653009
 30
0.0
 11
694.3656758627944
 21
420.9961339653009
 31
0.0
1001
ACME_LAYERS
1000
1
  0
LINE
  5
4E3
330
1F
100
AcDbEntity
  8
P-0000
  6
Continuous
 62
     7
100
AcDbLine
 10
694.3656758627942
 20
457.3338804520585
 30
0.0
 11
694.3656758627944
 21
480.3338804520585
 31
0.0
1001
ACME_LAYERS
1000
1
  0
LINE
  5
4E4
330
1F
100
AcDbEntity
  8
P-0000
  6
Continuous
 62
     7
100
AcDbLine
 10
698.8656758627882
 20
483.3147412125233
 30
0.0
 11
698.8656758627882
 21
503.3147412125233
 31
0.0
1001
ACME_LAYERS
1000
1
  0
LINE
  5
4E5
330
1F
100
AcDbEntity
  8
P-0000
  6
Continuous
 62
     7
100
AcDbLine
 10
651.8656758627941
 20
483.3147412125233
 30
0.0
 11
694.3656758627942
 21
483.3147412125233
 31
0.0
1001
ACME_LAYERS
1000
1
  0
LINE
  5
4E6
330
1F
100
AcDbEntity
  8
P-0000
  6
Continuous
 62
     7
100
AcDbLine
 10
694.3656758627944
 20
480.3338804520585
 30
0.0
 11
694.3656758627944
 21
481.3147412125251
 31
0.0
1001
ACME_LAYERS
1000
1
  0
LINE
  5
4E7
330
1F
100
AcDbEntity
  8
P-0000
  6
Continuous
 62
     7
100
AcDbLine
 10
694.3656758627944
 20
481.3147412125251
 30
0.0
 11
694.3656758627942
 21
483.3147412125233
 31
0.0
1001
ACME_LAYERS
1000
1
  0
LINE
  5
4E8
330
1F
100
AcDbEntity
  8
P-0000
  6
Continuous
 62
     7
100
AcDbLine
 10
556.8656758627942
 20
363.3147412125234
 30
0.0
 11
651.8656758627941
 21
363.3147412125234
 31
0.0
1001
ACME_LAYERS
1000
1
  0
LINE
  5
4E9
330
1F
100
AcDbEntity
  8
P-0000
  6
Continuous
 62
     7
100
AcDbLine
 10
556.8656758627942
 20
503.3147412125233
 30
0.0
 11
571.8656758627932
 21
503.3147412125233
 31
0.0
1001
ACME_LAYERS
1000
1
  0
LINE
  5
4F6
330
1F
100
AcDbEntity
  8
P-0000
  6
Continuous
 62
     7
100
AcDbLine
 10
609.365675862794
 20
420.9961339653009
 30
0.0
 11
609.3656758627938
 21
392.4961339653009
 31
0.0
1001
ACME_LAYERS
1000
1
  0
LINE
  5
4F7
330
1F
100
AcDbEntity
  8
P-0000
  6
Continuous
 62
     7
100
AcDbLine
 10
694.3656758627944
 20
420.9961339653009
 30
0.0
 11
694.3656758627942
 21
457.3338804520585
 31
0.0
1001
ACME_LAYERS
1000
1
  0
LINE
  5
4F8
330
1F
100
AcDbEntity
  8
P-0000
  6
STRICHPUNKT
 62
     3
100
AcDbLine
 10
656.3003544674071
 20
420.9961339653009
 30
0.0
 11
609.365675862794
 21
420.9961339653009
 31
0.0
1001
ACME_LAYERS
1000
1
  0
LINE
  5
4F9
330
1F
100
AcDbEntity
  8
P-0000
  6
STRICHPUNKT
 62
     3
100
AcDbLine
 10
651.8656758627941
 20
384.4961339653009
 30
0.0
 11
651.8656758627941
 21
457.4961339653009
 31
0.0
1001
ACME_LAYERS
1000
1
  0
LINE
  5
4FA
330
1F
100
AcDbEntity
  8
P-0000
  6
STRICHPUNKT
 62
     3
100
AcDbLine
 10
651.8656758627941
 20
457.4961339653009
 30
0.0
 11
651.8656758627941
 21
478.3147412125219
 31
0.0
1001
ACME_LAYERS
1000
1
  0
LINE
  5
4FB
330
1F
100
AcDbEntity
  8
P-0000
  6
STRICHPUNKT
 62
     3
100
AcDbLine
 10
651.8656758627941
 20
457.4961339653009
 30
0.0
 11
651.8656758627941
 21
483.3147412125233
 31
0.0
1001
ACME_LAYERS
1000
1
  0
LINE
  5
4FC
330
1F
100
AcDbEntity
  8
P-0000
  6
STRICHPUNKT
 62
     3
100
AcDbLine
 10
694.3656758627944
 20
420.9961339653009
 30
0.0
 11
688.365675862796
 21
420.9961339653009
 31
0.0
1001
ACME_LAYERS
1000
1
  0
LINE
  5
4FD
330
1F
100
AcDbEntity
  8
P-0000
  6
Continuous
 62
     7
100
AcDbLine
 10
688.365675862796
 20
420.9961339653009
 30
0.0
 11
694.3656758627944
 21
420.9961339653009
 31
0.0
1001
ACME_LAYERS
1000
1
  0
LINE
  5
4FE
330
1F
100
AcDbEntity
  8
P-0000
  6
STRICHPUNKT
 62
     3
100
AcDbLine
 10
688.365675862796
 20
420.9961339653009
 30
0.0
 11
645.6320514264311
 21
420.9961339653009
 31
0.0
1001
ACME_LAYERS
1000
1
  0
LINE
  5
4FF
330
1F
100
AcDbEntity
  8
P-0000
  6
Continuous
 62
     7
100
AcDbLine
 10
616.6093832032398
 20
430.443029111544
 30
0.0
 11
610.0893838757887
 21
432.190057665986
 31
0.0
1001
ACME_LAYERS
1000
1
  0
LINE
  5
500
330
1F
100
AcDbEntity
  8
P-0000
  6
Continuous
 62
     7
100
AcDbLine
 10
610.0893838757887
 20
432.190057665986
 30
0.0
 11
609.365675862794
 21
432.3839746436239
 31
0.0
1001
ACME_LAYERS
1000
1
  0
LINE
  5
501
330
1F
100
AcDbEntity
  8
P-0000
  6
STRICHLINIE
 62
     2
100
AcDbLine
 10
694.3656758627944
 20
420.9961339653009
 30
0.0
 11
703.0277956390523
 21
420.9961339653009
 31
0.0
1001
ACME_LAYERS
1000
1
  0
LINE
  5
502
330
1F
100
AcDbEntity
  8
P-0000
  6
STRICHLINIE
 62
     2
100
AcDbLine
 10
609.365675862794
 20
432.3839746436239
 30
0.0
 11
602.4468630432102
 21
434.2378649512133
 31
0.0
1001
ACME_LAYERS
1000
1
  0
LINE
  5
503
330
1F
100
AcDbEntity
  8
P-0000
  6
STRICHPUNKT
 62
     3
100
AcDbLine
 10
699.3656758627942
 20
428.3147412125219
 30
0.0
 11
686.3656758627942
 21
428.3147412125219
 31
0.0
1001
ACME_LAYERS
1000
1
  0
LINE
  5
504
330
1F
100
AcDbEntity
  8
P-0000
  6
STRICHPUNKT
 62
     3
100
AcDbLine
 10
692.8656758627941
 20
434.814741212522
 30
0.0
 11
692.8656758627941
 21
431.8147412125219
 31
0.0
1001
ACME_LAYERS
1000
1
  0
LINE
  5
505
330
1F
100
AcDbEntity
  8
P-0000
  6
Continuous
 62
     7
100
AcDbLine
 10
692.8656758627941
 20
431.8147412125219
 30
0.0
 11
686.7255057136466
 21
431.8147412125219
 31
0.0
1001
ACME_LAYERS
1000
1
  0
LINE
  5
506
330
1F
100
AcDbEntity
  8
P-0000
  6
STRICHPUNKT
 62
     3
100
AcDbLine
 10
692.8656758627941
 20
431.8147412125219
 30
0.0
 11
692.8656758627941
 21
424.8147412125219
 31
0.0
1001
ACME_LAYERS
1000
1
  0
LINE
  5
507
330
1F
100
AcDbEntity
  8
P-0000
  6
Continuous
 62
     7
100
AcDbLine
 10
692.8656758627941
 20
424.8147412125219
 30
0.0
 11
688.1653761190149
 21
424.8147412125219
 31
0.0
1001
ACME_LAYERS
1000
1
  0
LINE
  5
508
330
1F
100
AcDbEntity
  8
P-0000
  6
STRICHPUNKT
 62
     3
100
AcDbLine
 10
692.8656758627941
 20
424.8147412125219
 30
0.0
 11
692.8656758627941
 21
421.814741212522
 31
0.0
1001
ACME_LAYERS
1000
1
  0
LINE
  5
509
330
1F
100
AcDbEntity
  8
P-0000
  6
Continuous
 62
     7
100
AcDbLine
 10
651.8656758627941
 20
384.4961339653009
 30
0.0
 11
651.8656758627941
 21
363.3147412125234
 31
0.0
1001
ACME_LAYERS
1000
1
  0
LINE
  5
50A
330
1F
100
AcDbEntity
  8
P-0000
  6
Continuous
 62
     7
100
AcDbLine
 10
651.8656758627941
 20
503.3147412125233
 30
0.0
 11
651.8656758627941
 21
457.4961339653009
 31
0.0
1001
ACME_LAYERS
1000
1
  0
LINE
  5
50B
330
1F
100
AcDbEntity
  8
P-0000
  6
Continuous
 62
     7
100
AcDbLine
 10
651.8656758627941
 20
478.3147412125219
 30
0.0
 11
651.8656758627941
 21
457.4961339653009
 31
0.0
1001
ACME_LAYERS
1000
1
  0
LINE
  5
50D
330
1F
100
AcDbEntity
  8
P-0000
  6
Continuous
 62
     7
100
AcDbLine
 10
651.8656758627941
 20
384.4961339653009
 30
0.0
 11
651.8656758627941
 21
363.3147412125234
 31
0.0
1001
ACME_LAYERS
1000
1
  0
LINE
  5
50E
330
1F
100
AcDbEntity
  8
P-0000
  6
Continuous
 62
     7
100
AcDbLine
 10
609.3656758627941
 20
483.3147412125233
 30
0.0
 11
651.8656758627941
 21
483.3147412125233
 31
0.0
1001
ACME_LAYERS
1000
1
  0
LINE
  5
50F
330
1F
100
AcDbEntity
  8
P-0000
  6
Continuous
 62
     7
100
AcDbLine
 10
694.3656758627942
 20
483.3147412125233
 30
0.0
 11
698.8656758627882
 21
483.3147412125233
 31
0.0
1001
ACME_LAYERS
1000
1
  0
LINE
  5
510
330
1F
100
AcDbEntity
  8
P-0000
  6
Continuous
 62
     7
100
AcDbLine
 10
698.8656758627882
 20
503.3147412125233
 30
0.0
 11
731.865675862796
 21
503.3147412125219
 31
0.0
1001
ACME_LAYERS
1000
1
  0
LINE
  5
511
330
1F
100
AcDbEntity
  8
P-0000
  6
Continuous
 62
     7
100
AcDbLine
 10
604.8656758628001
 20
503.3147412125233
 30
0.0
 11
651.8656758627941
 21
503.3147412125233
 31
0.0
1001
ACME_LAYERS
1000
1
  0
LINE
  5
512
330
1F
100
AcDbEntity
  8
P-0000
  6
Continuous
 62
     7
100
AcDbLine
 10
368.2568630042126
 20
434.2378649512133
 30
0.0
 11
368.1853519980416
 21
432.190057665986
 31
0.0
1001
ACME_LAYERS
1000
1
  0
LINE
  5
513
330
1F
100
AcDbEntity
  8
P-0000
  6
Continuous
 62
     7
100
AcDbLine
 10
368.1853519980416
 20
432.190057665986
 30
0.0
 11
368.1243444165965
 21
430.443029111544
 31
0.0
1001
ACME_LAYERS
1000
1
  0
LINE
  5
514
330
1F
100
AcDbEntity
  8
P-0000
  6
Continuous
 62
     7
100
AcDbLine
 10
428.7613589530509
 20
383.3146506777619
 30
0.0
 11
428.7613589530509
 21
417.9147412125232
 31
0.0
1001
ACME_LAYERS
1000
1
  0
LINE
  5
515
330
1F
100
AcDbEntity
  8
P-0000
  6
Continuous
 62
     7
100
AcDbLine
 10
368.1243444165965
 20
430.443029111544
 30
0.0
 11
366.4867647590011
 21
383.548883265694
 31
0.0
1001
ACME_LAYERS
1000
1
  0
LINE
  5
517
330
1F
100
AcDbEntity
  8
P-0000
  6
Continuous
 62
     7
100
AcDbLine
 10
306.2217627092922
 20
436.4041783890095
 30
0.0
 11
306.2217627092922
 21
434.3538738844196
 31
0.0
1001
ACME_LAYERS
1000
1
  0
LINE
  5
519
330
1F
100
AcDbEntity
  8
P-0000
  6
Continuous
 62
     7
100
AcDbLine
 10
306.2217627092922
 20
434.3538738844196
 30
0.0
 11
306.2217627092922
 21
432.6047148982886
 31
0.0
1001
ACME_LAYERS
1000
1
  0
LINE
  5
51C
330
1F
100
AcDbEntity
  8
P-0000
  6
Continuous
 62
     7
100
AcDbLine
 10
306.2217627092922
 20
432.6047148982886
 30
0.0
 11
306.2217627092922
 21
385.6533835106915
 31
0.0
1001
ACME_LAYERS
1000
1
  0
LINE
  5
51D
330
1F
100
AcDbEntity
  8
P-0000
  6
Continuous
 62
     7
100
AcDbLine
 10
428.7613589530509
 20
417.9147412125232
 30
0.0
 11
428.7613589530509
 21
432.9147412125232
 31
0.0
1001
ACME_LAYERS
1000
1
  0
LINE
  5
535
330
1F
100
AcDbEntity
  8
P-0000
  6
Continuous
 62
     7
100
AcDbLine
 10
306.2217627092922
 20
476.1151878141971
 30
0.0
 11
306.2217627092922
 21
458.7344529024347
 31
0.0
1001
ACME_LAYERS
1000
1
  0
HATCH
  5
90E
330
1F
100
AcDbEntity
  8
AM_8
100
AcDbHatch
 10
0.0
 20
0.0
 30
0.0
210
0.0
220
0.0
230
1.0
  2
_U
 70
     0
 71
     0
 91
        3
 92
        1
 93
        9
 72
     1
 10
168.7217627092921
 20
363.3147412125234
 11
168.7217627092921
 21
503.3147412125233
 72
     1
 10
168.7217627092921
 20
503.3147412125233
 11
216.7217627092981
 21
503.3147412125233
 72
     1
 10
216.7217627092981
 20
503.3147412125233
 11
216.7217627092981
 21
483.3147412125233
 72
     1
 10
216.7217627092981
 20
483.3147412125233
 11
221.2217627092921
 21
483.3147412125233
 72
     1
 10
221.2217627092921
 20
483.3147412125233
 11
221.2217627092918
 21
392.4961339653009
 72
     2
 10
229.2217627092918
 20
392.4961339653009
 40
8.0
 50
180.0
 51
270.0
 73
     1
 72
     1
 10
229.2217627092918
 20
384.4961339653009
 11
263.7217627092921
 21
384.4961339653009
 72
     1
 10
263.7217627092921
 20
384.4961339653009
 11
263.7217627092921
 21
363.3147412125234
 72
     1
 10
263.7217627092921
 20
363.3147412125234
 11
168.7217627092921
 21
363.3147412125234
 97
        0
 92
       16
 93
        2
 72
     2
 10
183.7217627092921
 20
378.3147412125233
 40
10.0
 50
180.0
 51
370.4914770123315
 73
     0
 72
     2
 10
183.7217627092921
 20
378.3147412125233
 40
9.999999999999996
 50
10.49147701233152
 51
180.0
 73
     0
 97
        0
 92
       16
 93
        4
 72
     1
 10
188.8009851611885
 20
395.0341020252225
 11
196.9337868324693
 21
407.925015068342
 72
     1
 10
196.9337868324693
 20
407.925015068342
 11
201.3745585354671
 21
405.1233581642027
 72
     1
 10
201.3745585354671
 20
405.1233581642027
 11
193.2417568641863
 21
392.2324451210831
 72
     1
 10
193.2417568641863
 20
392.2324451210831
 11
188.8009851611885
 21
395.0341020252225
 97
        0
 75
     0
 76
     0
 52
45.0
 41
2.299999999999999
 77
     1
 78
     2
 53
45.0
 43
0.0
 44
0.0
 45
-1.626345596729059
 46
1.626345596729059
 79
     0
 53
135.0
 43
0.0
 44
0.0
 45
-1.626345596729059
 46
-1.626345596729058
 79
     0
 98
        1
 10
0.0
 20
0.0
1001
GENIUS_GENODEF_13
1002
{
1000
HIER
1070
     0
1002
}
1002
{
1000
MANEDIT
1070
     0
1002
}
1002
{
1000
NOSEL
1070
     0
1002
}
1002
{
1000
BEHIND
1070
     0
1002
}
1002
{
1000
OTHER
1070
     0
1002
}
1002
{
1000
REACTOR
1002
}
1001
GENIUS_GENOBJ-N-HTC_13
1002
{
1000
OWNER
1000
GEN
1002
}
1001
GENIUS_GENHATCH_13
1002
{
1000
DATA
1040
45.0
1042
2.299999999999999
1000
_U
1070
     1
1011
192.1743284037241
1021
430.2738028073745
1031
0.0
1002
}
1002
{
1000
UCS
1010
0.0
1020
0.0
1030
0.0
1010
1.0
1020
0.0
1030
0.0
1010
0.0
1020
1.0
1030
0.0
1002
}
  0
HATCH
  5
91C
330
1F
100
AcDbEntity
  8
AM_8
100
AcDbHatch
 10
0.0
 20
0.0
 30
0.0
210
0.0
220
0.0
230
1.0
  2
_U
 70
     0
 71
     0
 91
        1
 92
        1
 93
        8
 72
     1
 10
263.7217627092921
 20
363.3147412125234
 11
428.7613589530509
 21
363.3147412125234
 72
     1
 10
428.7613589530509
 20
363.3147412125234
 11
428.7613589530509
 21
381.3742065166517
 72
     1
 10
428.7613589530509
 20
381.3742065166517
 11
366.4867647590011
 21
383.548883265694
 72
     1
 10
366.4867647590011
 20
383.548883265694
 11
366.2217627092922
 21
375.9602174497354
 72
     1
 10
366.2217627092922
 20
375.9602174497354
 11
306.2217627092922
 21
378.0554636192402
 72
     1
 10
306.2217627092922
 20
378.0554636192402
 11
306.2217627092922
 21
384.4961339653009
 72
     1
 10
306.2217627092922
 20
384.4961339653009
 11
263.7217627092921
 21
384.4961339653009
 72
     1
 10
263.7217627092921
 20
384.4961339653009
 11
263.7217627092921
 21
363.3147412125234
 97
        0
 75
     0
 76
     0
 52
45.0
 41
2.299999999999999
 77
     1
 78
     2
 53
45.0
 43
0.0
 44
0.0
 45
-1.626345596729059
 46
1.626345596729059
 79
     0
 53
135.0
 43
0.0
 44
0.0
 45
-1.626345596729059
 46
-1.626345596729058
 79
     0
 98
        1
 10
0.0
 20
0.0
1001
GENIUS_GENODEF_13
1002
{
1000
HIER
1070
     0
1002
}
1002
{
1000
MANEDIT
1070
     0
1002
}
1002
{
1000
NOSEL
1070
     0
1002
}
1002
{
1000
BEHIND
1070
     0
1002
}
1002
{
1000
OTHER
1070
     0
1002
}
1002
{
1000
REACTOR
1002
}
1001
GENIUS_GENOBJ-N-HTC_13
1002
{
1000
OWNER
1000
GEN
1002
}
1001
GENIUS_GENHATCH_13
1002
{
1000
DATA
1040
45.0
1042
2.299999999999999
1000
_U
1070
     1
1011
280.5718624367889
1021
378.4249554620935
1031
0.0
1002
}
1002
{
1000
UCS
1010
0.0
1020
0.0
1030
0.0
1010
1.0
1020
0.0
1030
0.0
1010
0.0
1020
1.0
1030
0.0
1002
}
  0
HATCH
  5
930
330
1F
100
AcDbEntity
  8
AM_8
100
AcDbHatch
 10
0.0
 20
0.0
 30
0.0
210
0.0
220
0.0
230
1.0
  2
_U
 70
     0
 71
     0
 91
        3
 92
        1
 93
        8
 72
     1
 10
369.03570360811
 20
456.540941751439
 11
369.641912997373
 21
473.900507364855
 72
     1
 10
369.641912997373
 20
473.900507364855
 11
306.2217627092922
 21
476.1151878141971
 72
     1
 10
306.2217627092922
 20
476.1151878141971
 11
306.2217627092922
 21
483.3147412125233
 72
     1
 10
306.2217627092922
 20
483.3147412125233
 11
310.7217627092841
 21
483.3147412125233
 72
     1
 10
310.7217627092841
 20
483.3147412125233
 11
310.7217627092841
 21
503.3147412125233
 72
     1
 10
310.7217627092841
 20
503.3147412125233
 11
428.7613589530509
 21
503.3147412125233
 72
     1
 10
428.7613589530509
 20
503.3147412125233
 11
428.7613589530509
 21
454.4552759083948
 72
     1
 10
428.7613589530509
 20
454.4552759083948
 11
369.03570360811
 21
456.540941751439
 97
        0
 92
       16
 93
        2
 72
     2
 10
413.7613589530513
 20
488.3147412125241
 40
10.00000000000052
 50
168.5408440973796
 51
424.7073253227928
 73
     0
 72
     2
 10
413.7613589530509
 20
488.3147412125234
 40
10.00000000000004
 50
64.70732532278943
 51
168.540844097383
 73
     0
 97
        0
 92
       16
 93
        4
 72
     1
 10
381.2787641010546
 20
493.4083800590782
 11
382.1907027963
 21
498.5792699769522
 72
     1
 10
382.1907027963
 20
498.5792699769522
 11
397.2010426077029
 21
495.9320448531906
 72
     1
 10
397.2010426077029
 20
495.9320448531906
 11
396.2891039124575
 21
490.7611549353166
 72
     1
 10
396.2891039124575
 20
490.7611549353166
 11
381.2787641010546
 21
493.4083800590782
 97
        0
 75
     0
 76
     0
 52
45.0
 41
2.299999999999999
 77
     1
 78
     2
 53
45.0
 43
0.0
 44
0.0
 45
-1.626345596729059
 46
1.626345596729059
 79
     0
 53
135.0
 43
0.0
 44
0.0
 45
-1.626345596729059
 46
-1.626345596729058
 79
     0
 98
        1
 10
0.0
 20
0.0
1001
GENIUS_GENOBJ-N-HTC_13
1002
{
1000
OWNER
1000
GEN
1002
}
1001
GENIUS_GENODEF_13
1002
{
1000
HIER
1070
     0
1002
}
1002
{
1000
MANEDIT
1070
     0
1002
}
1002
{
1000
NOSEL
1070
     0
1002
}
1002
{
1000
BEHIND
1070
     0
1002
}
1002
{
1000
OTHER
1070
     0
1002
}
1002
{
1000
REACTOR
1002
}
1001
GENIUS_GENHATCH_13
1002
{
1000
DATA
1040
45.0
1042
2.299999999999999
1000
_U
1070
     1
1011
352.8971173492234
1021
491.6161025451192
1031
0.0
1002
}
1002
{
1000
UCS
1010
0.0
1020
0.0
1030
0.0
1010
1.0
1020
0.0
1030
0.0
1010
0.0
1020
1.0
1030
0.0
1002
}
  0
HATCH
  5
93E
330
1F
100
AcDbEntity
  8
AM_8
100
AcDbHatch
 10
0.0
 20
0.0
 30
0.0
210
0.0
220
0.0
230
1.0
  2
_U
 70
     0
 71
     0
 91
        1
 92
        1
 93
       13
 72
     2
 10
617.3656758627938
 20
392.4961339653009
 40
8.0
 50
90.0
 51
180.0
 73
     0
 72
     1
 10
609.3656758627938
 20
392.4961339653009
 11
609.3656758627941
 21
432.3839746436239
 72
     1
 10
609.3656758627941
 20
432.3839746436239
 11
602.4468630432102
 21
434.2378649512133
 72
     2
 10
603.2233201785177
 20
437.1356424300805
 40
2.999999999999952
 50
104.9999999999992
 51
198.3558176217717
 73
     0
 72
     2
 10
651.865675862794
 20
420.9961339653005
 40
54.25000000000341
 50
198.3558176217745
 51
218.4261263426083
 73
     0
 72
     1
 10
609.3656758627941
 20
454.7127841547898
 11
609.3656758627941
 21
483.3147412125233
 72
     1
 10
609.3656758627941
 20
483.3147412125233
 11
604.8656758628001
 21
483.3147412125233
 72
     1
 10
604.8656758628001
 20
483.3147412125233
 11
604.8656758628001
 21
503.3147412125233
 72
     1
 10
604.8656758628001
 20
503.3147412125233
 11
556.8656758627942
 21
503.3147412125233
 72
     1
 10
556.8656758627942
 20
503.3147412125233
 11
556.8656758627942
 21
363.3147412125234
 72
     1
 10
556.8656758627942
 20
363.3147412125234
 11
651.8656758627941
 21
363.3147412125234
 72
     1
 10
651.8656758627941
 20
363.3147412125234
 11
651.8656758627941
 21
384.4961339653009
 72
     1
 10
651.8656758627941
 20
384.4961339653009
 11
617.3656758627938
 21
384.4961339653009
 97
        0
 75
     0
 76
     0
 52
45.0
 41
2.299999999999999
 77
     1
 78
     2
 53
45.0
 43
0.0
 44
0.0
 45
-1.626345596729059
 46
1.626345596729059
 79
     0
 53
135.0
 43
0.0
 44
0.0
 45
-1.626345596729059
 46
-1.626345596729058
 79
     0
 98
        1
 10
0.0
 20
0.0
1001
GENIUS_GENOBJ-N-HTC_13
1002
{
1000
OWNER
1000
GEN
1002
}
1001
GENIUS_GENODEF_13
1002
{
1000
HIER
1070
     0
1002
}
1002
{
1000
MANEDIT
1070
     0
1002
}
1002
{
1000
NOSEL
1070
     0
1002
}
1002
{
1000
BEHIND
1070
     0
1002
}
1002
{
1000
OTHER
1070
     0
1002
}
1002
{
1000
REACTOR
1002
}
1001
GENIUS_GENHATCH_13
1002
{
1000
DATA
1040
45.0
1042
2.299999999999999
1000
_U
1070
     1
1011
586.3795262322234
1021
408.8519336216164
1031
0.0
1002
}
1002
{
1000
UCS
1010
0.0
1020
0.0
1030
0.0
1010
1.0
1020
0.0
1030
0.0
1010
0.0
1020
1.0
1030
0.0
1002
}
  0
HATCH
  5
947
330
1F
100
AcDbEntity
  8
AM_8
100
AcDbHatch
 10
0.0
 20
0.0
 30
0.0
210
0.0
220
0.0
230
1.0
  2
_U
 70
     0
 71
     0
 91
        1
 92
        1
 93
       13
 72
     1
 10
686.3656758627944
 20
384.4961339653009
 11
651.8656758627941
 21
384.4961339653009
 72
     1
 10
651.8656758627941
 20
384.4961339653009
 11
651.8656758627941
 21
363.3147412125234
 72
     1
 10
651.8656758627941
 20
363.3147412125234
 11
746.8656758627941
 21
363.3147412125234
 72
     1
 10
746.8656758627941
 20
363.3147412125234
 11
746.8656758627941
 21
503.3147412125219
 72
     1
 10
746.8656758627941
 20
503.3147412125219
 11
698.8656758627882
 21
503.3147412125233
 72
     1
 10
698.8656758627882
 20
503.3147412125233
 11
698.8656758627882
 21
483.3147412125233
 72
     1
 10
698.8656758627882
 20
483.3147412125233
 11
694.3656758627942
 21
483.3147412125233
 72
     1
 10
694.3656758627942
 20
483.3147412125233
 11
694.3656758627942
 21
454.7127841547872
 72
     2
 10
651.8656758627941
 20
420.9961339653009
 40
54.25000000000175
 50
321.5738736573943
 51
356.6441823782287
 73
     0
 72
     2
 10
703.0277956390523
 20
423.9961339653009
 40
2.999999999999967
 50
356.6441823782798
 51
450.0
 73
     0
 72
     1
 10
703.0277956390523
 20
420.9961339653009
 11
694.3656758627944
 21
420.9961339653009
 72
     1
 10
694.3656758627944
 20
420.9961339653009
 11
694.3656758627944
 21
392.4961339653009
 72
     2
 10
686.3656758627944
 20
392.4961339653009
 40
8.0
 50
360.0
 51
450.0
 73
     0
 97
        0
 75
     0
 76
     0
 52
45.0
 41
2.299999999999999
 77
     1
 78
     2
 53
45.0
 43
0.0
 44
0.0
 45
-1.626345596729059
 46
1.626345596729059
 79
     0
 53
135.0
 43
0.0
 44
0.0
 45
-1.626345596729059
 46
-1.626345596729058
 79
     0
 98
        1
 10
0.0
 20
0.0
1001
GENIUS_GENOBJ-N-HTC_13
1002
{
1000
OWNER
1000
GEN
1002
}
1001
GENIUS_GENODEF_13
1002
{
1000
HIER
1070
     0
1002
}
1002
{
1000
MANEDIT
1070
     0
1002
}
1002
{
1000
NOSEL
1070
     0
1002
}
1002
{
1000
BEHIND
1070
     0
1002
}
1002
{
1000
OTHER
1070
     0
1002
}
1002
{
1000
REACTOR
1002
}
1001
GENIUS_GENHATCH_13
1002
{
1000
DATA
1040
45.0
1042
2.299999999999999
1000
_U
1070
     1
1011
736.7430996568384
1021
386.3395393621972
1031
0.0
1002
}
1002
{
1000
UCS
1010
0.0
1020
0.0
1030
0.0
1010
1.0
1020
0.0
1030
0.0
1010
0.0
1020
1.0
1030
0.0
1002
}
  0
ENDSEC
  0
SECTION
  2
OBJECTS
  0
DICTIONARY
  5
C
330
0
100
AcDbDictionary
281
     1
  3
ACAD_COLOR
350
878
  3
ACAD_GROUP
350
D
  3
ACAD_LAYOUT
350
1A
  3
ACAD_MATERIAL
350
877
  3
ACAD_MLINESTYLE
350
17
  3
ACAD_PLOTSETTINGS
350
19
  3
ACAD_PLOTSTYLENAME
350
E
  3
ACAD_TABLESTYLE
350
879
  3
ACDBHEADERROUNDTRIPXREC
350
94F
  3
AcDbVariableDictionary
350
34
  3
AcmDictionary
350
47
  3
AMG
350
2B
  3
AMGSNAPSETTINGS
350
40D
  3
DWGPROPS
350
94E
  0
DICTIONARY
  5
8FF
330
2
100
AcDbDictionary
280
     1
281
     1
  3
AMLAYER_GROUPCOLORS
360
900
  0
DICTIONARY
  5
81
330
1F
100
AcDbDictionary
280
     1
281
     1
  3
ACAD_SORTENTS
360
90F
  0
DICTIONARY
  5
878
102
{ACAD_REACTORS
330
C
102
}
330
C
100
AcDbDictionary
281
     1
  0
DICTIONARY
  5
D
102
{ACAD_REACTORS
330
C
102
}
330
C
100
AcDbDictionary
281
     1
  0
DICTIONARY
  5
1A
102
{ACAD_REACTORS
330
C
102
}
330
C
100
AcDbDictionary
281
     1
  3
Layout1
350
1E
  3
Layout2
350
26
  3
Model
350
22
  0
DICTIONARY
  5
877
102
{ACAD_REACTORS
330
C
102
}
330
C
100
AcDbDictionary
281
     1
  0
DICTIONARY
  5
17
102
{ACAD_REACTORS
330
C
102
}
330
C
100
AcDbDictionary
281
     1
  3
Standard
350
18
  0
DICTIONARY
  5
19
102
{ACAD_REACTORS
330
C
102
}
330
C
100
AcDbDictionary
281
     1
  0
ACDBDICTIONARYWDFLT
  5
E
102
{ACAD_REACTORS
330
C
102
}
330
C
100
AcDbDictionary
281
     1
  3
Normal
350
F
100
AcDbDictionaryWithDefault
340
F
  0
DICTIONARY
  5
879
102
{ACAD_REACTORS
330
C
102
}
330
C
100
AcDbDictionary
281
     1
  3
Standard
350
87A
  0
DICTIONARY
  5
94F
102
{ACAD_REACTORS
330
C
102
}
330
C
100
AcDbDictionary
281
     1
  0
DICTIONARY
  5
34
102
{ACAD_REACTORS
330
C
102
}
330
C
100
AcDbDictionary
281
     1
  3
CTABLESTYLE
350
94A
  3
DIMASSOC
350
94B
  3
INDEXCTL
350
35
  3
PROJECTNAME
350
94C
  0
DICTIONARY
  5
47
102
{ACAD_REACTORS
330
C
102
}
330
C
100
AcDbDictionary
281
     1
  3
AcmStdDictionary
350
4C
  3
AMDTSECTSYM_ARROWCOLOR
350
8D2
  0
DICTIONARY
  5
2B
102
{ACAD_REACTORS
330
C
102
}
330
C
100
AcDbDictionary
281
     1
  0
DICTIONARY
  5
40D
102
{ACAD_REACTORS
330
C
102
}
330
C
100
AcDbDictionary
281
     1
  0
XRECORD
  5
94E
102
{ACAD_REACTORS
330
C
102
}
330
C
100
AcDbXrecord
280
     1
  1
DWGPROPS COOKIE
  2

  3

  4

  6

  7

  8

  9

300
AmdtFileType=84
301
=
302
=
303
=
304
=
305
=
306
=
307
=
308
=
309
=
 40
0.0044578240740741
 41
2452702.515835023
 42
2454041.892118982
  1

 90
        1
  0
DICTIONARY
  5
900
102
{ACAD_REACTORS
330
8FF
102
}
330
8FF
100
AcDbDictionary
280
     1
281
     1
  0
SORTENTSTABLE
  5
90F
102
{ACAD_REACTORS
330
81
102
}
330
81
100
AcDbSortentsTable
330
1F
331
4B2
  5
4B2
331
490
  5
490
331
46E
  5
46E
331
90E
  5
90A
331
930
  5
92D
331
510
  5
510
331
4FF
  5
4FF
331
4DD
  5
4DD
331
45D
  5
45D
331
41D
  5
41D
331
48E
  5
48E
331
46C
  5
46C
331
50E
  5
50E
331
4DB
  5
4DB
331
45B
  5
45B
331
43D
  5
43D
331
4FD
  5
4FD
331
42C
  5
42C
331
48C
  5
48C
331
46A
  5
46A
331
448
  5
448
331
51D
  5
51D
331
4FB
  5
4FB
331
4D9
  5
4D9
331
459
  5
459
331
43B
  5
43B
331
4AC
  5
4AC
331
48A
  5
48A
331
468
  5
468
331
50A
  5
50A
331
4D7
  5
4D7
331
479
  5
479
331
457
  5
457
331
439
  5
439
331
4F9
  5
4F9
331
428
  5
428
331
4E8
  5
4E8
331
4AA
  5
4AA
331
488
  5
488
331
508
  5
508
331
519
  5
519
331
4F7
  5
4F7
331
4D5
  5
4D5
331
499
  5
499
331
477
  5
477
331
455
  5
455
331
4E6
  5
4E6
331
506
  5
506
331
4E4
  5
4E4
331
4D3
  5
4D3
331
475
  5
475
331
453
  5
453
331
517
  5
517
331
486
  5
486
331
464
  5
464
331
446
  5
446
331
93E
  5
93D
331
504
  5
504
331
4E2
  5
4E2
331
4D1
  5
4D1
331
4B7
  5
4B7
331
495
  5
495
331
473
  5
473
331
451
  5
451
331
515
  5
515
331
484
  5
484
331
462
  5
462
331
444
  5
444
331
502
  5
502
331
4E0
  5
4E0
331
4CF
  5
4CF
331
493
  5
493
331
471
  5
471
331
535
  5
535
331
513
  5
513
331
482
  5
482
331
460
  5
460
331
420
  5
420
331
500
  5
500
331
491
  5
491
331
46F
  5
46F
331
511
  5
511
331
4DE
  5
4DE
331
480
  5
480
331
41E
  5
41E
331
4B1
  5
4B1
331
48F
  5
48F
331
46D
  5
46D
331
50F
  5
50F
331
4DC
  5
4DC
331
45C
  5
45C
331
43E
  5
43E
331
4FE
  5
4FE
331
42D
  5
42D
331
41C
  5
41C
331
4AF
  5
4AF
331
48D
  5
48D
331
46B
  5
46B
331
449
  5
449
331
947
  5
946
331
50D
  5
50D
331
4DA
  5
4DA
331
47C
  5
47C
331
45A
  5
45A
331
43C
  5
43C
331
91C
  5
91B
331
4FC
  5
4FC
331
42B
  5
42B
331
48B
  5
48B
331
469
  5
469
331
50B
  5
50B
331
4D8
  5
4D8
331
47A
  5
47A
331
458
  5
458
331
43A
  5
43A
331
51C
  5
51C
331
4FA
  5
4FA
331
429
  5
429
331
4E9
  5
4E9
331
489
  5
489
331
509
  5
509
331
4D6
  5
4D6
331
49A
  5
49A
331
478
  5
478
331
456
  5
456
331
4F8
  5
4F8
331
467
  5
467
331
427
  5
427
331
4E7
  5
4E7
331
4E5
  5
4E5
331
4A9
  5
4A9
331
507
  5
507
331
4D4
  5
4D4
331
4BA
  5
4BA
331
498
  5
498
331
476
  5
476
331
454
  5
454
331
436
  5
436
331
4F6
  5
4F6
331
487
  5
487
331
447
  5
447
331
425
  5
425
331
505
  5
505
331
4E3
  5
4E3
331
4D2
  5
4D2
331
4B8
  5
4B8
331
496
  5
496
331
474
  5
474
331
452
  5
452
331
485
  5
485
331
463
  5
463
331
445
  5
445
331
423
  5
423
331
503
  5
503
331
4E1
  5
4E1
331
4D0
  5
4D0
331
494
  5
494
331
472
  5
472
331
514
  5
514
331
483
  5
483
331
461
  5
461
331
421
  5
421
331
501
  5
501
331
4CE
  5
4CE
331
492
  5
492
331
470
  5
470
331
44E
  5
44E
331
512
  5
512
331
481
  5
481
331
41F
  5
41F
  0
LAYOUT
  5
1E
102
{ACAD_XDICTIONARY
360
950
102
}
102
{ACAD_REACTORS
330
1A
102
}
330
1A
100
AcDbPlotSettings
  1

  2
C:\Programme\Acadm 2000i\plotters\PH36.pc3
  4

  6

 40
0.0
 41
0.0
 42
0.0
 43
0.0
 44
0.0
 45
0.0
 46
0.0
 47
0.0
 48
0.0
 49
0.0
140
0.0
141
0.0
142
1.0
143
1.0
 70
   688
 72
     0
 73
     0
 74
     5
  7
monochrome.ctb
 75
    16
147
1.0
148
0.0
149
0.0
100
AcDbLayout
  1
Layout1
 70
     1
 71
     1
 10
0.0
 20
0.0
 11
420.0
 21
297.0
 12
0.0
 22
0.0
 32
0.0
 14
1.000000000000000E+20
 24
1.000000000000000E+20
 34
1.000000000000000E+20
 15
-1.000000000000000E+20
 25
-1.000000000000000E+20
 35
-1.000000000000000E+20
146
0.0
 13
0.0
 23
0.0
 33
0.0
 16
1.0
 26
0.0
 36
0.0
 17
0.0
 27
1.0
 37
0.0
 76
     0
330
1B
  0
LAYOUT
  5
26
102
{ACAD_XDICTIONARY
360
954
102
}
102
{ACAD_REACTORS
330
1A
102
}
330
1A
100
AcDbPlotSettings
  1

  2
C:\Programme\Acadm 2000i\plotters\PH36.pc3
  4

  6

 40
0.0
 41
0.0
 42
0.0
 43
0.0
 44
0.0
 45
0.0
 46
0.0
 47
0.0
 48
0.0
 49
0.0
140
0.0
141
0.0
142
1.0
143
1.0
 70
   688
 72
     0
 73
     0
 74
     5
  7
monochrome.ctb
 75
    16
147
1.0
148
0.0
149
0.0
100
AcDbLayout
  1
Layout2
 70
     1
 71
     2
 10
0.0
 20
0.0
 11
12.0
 21
9.0
 12
0.0
 22
0.0
 32
0.0
 14
0.0
 24
0.0
 34
0.0
 15
0.0
 25
0.0
 35
0.0
146
0.0
 13
0.0
 23
0.0
 33
0.0
 16
1.0
 26
0.0
 36
0.0
 17
0.0
 27
1.0
 37
0.0
 76
     0
330
23
  0
LAYOUT
  5
22
102
{ACAD_XDICTIONARY
360
952
102
}
102
{ACAD_REACTORS
330
1A
102
}
330
1A
100
AcDbPlotSettings
  1

  2
C:\Programme\Acadm 2000i\plotters\PH36.pc3
  4

  6

 40
0.0
 41
0.0
 42
0.0
 43
0.0
 44
0.0
 45
0.0
 46
0.0
 47
0.0
 48
0.0
 49
0.0
140
0.0
141
0.0
142
1.0
143
1.0
 70
 11952
 72
     0
 73
     1
 74
     0
  7
monochrome.ctb
 75
     0
147
1.0
148
-3122.257189411312
149
75.17032678559863
100
AcDbLayout
  1
Model
 70
     1
 71
     0
 10
0.0
 20
0.0
 11
12.0
 21
9.0
 12
0.0
 22
0.0
 32
0.0
 14
0.0
 24
0.0
 34
0.0
 15
0.0
 25
0.0
 35
0.0
146
0.0
 13
0.0
 23
0.0
 33
0.0
 16
1.0
 26
0.0
 36
0.0
 17
0.0
 27
1.0
 37
0.0
 76
     0
330
1F
  0
MLINESTYLE
  5
18
102
{ACAD_REACTORS
330
17
102
}
330
17
100
AcDbMlineStyle
  2
STANDARD
 70
     0
  3

 62
   256
 51
90.0
 52
90.0
 71
     2
 49
0.5
 62
   256
  6
BYLAYER
 49
-0.5
 62
   256
  6
BYLAYER
  0
ACDBPLACEHOLDER
  5
F
102
{ACAD_REACTORS
330
E
102
}
330
E
  0
TABLESTYLE
  5
87A
102
{ACAD_REACTORS
330
879
102
}
330
879
100
AcDbTableStyle
  3
Standard
 70
     0
 71
     0
 40
1.5
 41
1.5
280
     0
281
     0
  7
STANDARD
140
4.5
170
     2
 62
     0
 63
     7
283
     0
274
    -2
284
     1
 64
     0
275
    -2
285
     1
 65
     0
276
    -2
286
     1
 66
     0
277
    -2
287
     1
 67
     0
278
    -2
288
     1
 68
     0
279
    -2
289
     1
 69
     0
  7
STANDARD
140
6.0
170
     5
 62
     0
 63
     7
283
     0
274
    -2
284
     1
 64
     0
275
    -2
285
     1
 65
     0
276
    -2
286
     1
 66
     0
277
    -2
287
     1
 67
     0
278
    -2
288
     1
 68
     0
279
    -2
289
     1
 69
     0
  7
STANDARD
140
4.5
170
     5
 62
     0
 63
     7
283
     0
274
    -2
284
     1
 64
     0
275
    -2
285
     1
 65
     0
276
    -2
286
     1
 66
     0
277
    -2
287
     1
 67
     0
278
    -2
288
     1
 68
     0
279
    -2
289
     1
 69
     0
  0
DICTIONARYVAR
  5
94A
102
{ACAD_REACTORS
330
34
102
}
330
34
100
DictionaryVariables
280
     0
  1
STANDARD
  0
DICTIONARYVAR
  5
94B
102
{ACAD_REACTORS
330
34
102
}
330
34
100
DictionaryVariables
280
     0
  1
1
  0
DICTIONARYVAR
  5
35
102
{ACAD_REACTORS
330
34
102
}
330
34
100
DictionaryVariables
280
     0
  1
0
  0
DICTIONARYVAR
  5
94C
102
{ACAD_REACTORS
330
34
102
}
330
34
100
DictionaryVariables
280
     0
  1

  0
DICTIONARY
  5
4C
102
{ACAD_REACTORS
330
47
102
}
330
47
100
AcDbDictionary
281
     1
  0
XRECORD
  5
8D2
102
{ACAD_REACTORS
330
47
102
}
330
47
100
AcDbXrecord
280
     1
 90
-1023410169
  0
DICTIONARY
  5
950
330
1E
100
AcDbDictionary
280
     1
281
     1
  3
ACAD_XREC_ROUNDTRIP
360
951
  0
DICTIONARY
  5
954
330
26
100
AcDbDictionary
280
     1
281
     1
  3
ACAD_XREC_ROUNDTRIP
360
955
  0
DICTIONARY
  5
952
330
22
100
AcDbDictionary
280
     1
281
     1
  3
ACAD_XREC_ROUNDTRIP
360
953
  0
XRECORD
  5
951
102
{ACAD_REACTORS
330
950
102
}
330
950
100
AcDbXrecord
280
     1
102
SHADEPLOT
 70
     0
102
SHADEPLOTRESLEVEL
 70
     2
102
SHADEPLOTCUSTOMDPI
 70
   300
  0
XRECORD
  5
955
102
{ACAD_REACTORS
330
954
102
}
330
954
100
AcDbXrecord
280
     1
102
SHADEPLOT
 70
     0
102
SHADEPLOTRESLEVEL
 70
     2
102
SHADEPLOTCUSTOMDPI
 70
   300
  0
XRECORD
  5
953
102
{ACAD_REACTORS
330
952
102
}
330
952
100
AcDbXrecord
280
     1
102
SHADEPLOT
 70
     0
102
SHADEPLOTRESLEVEL
 70
     2
102
SHADEPLOTCUSTOMDPI
 70
   300
  0
ENDSEC
  0
EOF
