  0
SECTION
  2
HEADER
  9
$ACADVER
  1
AC1015
  9
$ACADMAINTVER
 70
    20
  9
$DWGCODEPAGE
  3
ANSI_1252
  9
$INSBASE
 10
0.0
 20
0.0
 30
0.0
  9
$EXTMIN
 10
825.1420793666889
 20
309.8990785184863
 30
-0.0000000349181948
  9
$EXTMAX
 10
1147.550351020726
 20
1378.901428519176
 30
0.0000000814935746
  9
$LIMMIN
 10
0.0
 20
0.0
  9
$LIMMAX
 10
420.0
 20
297.0
  9
$ORTHOMODE
 70
     0
  9
$REGENMODE
 70
     1
  9
$FILLMODE
 70
     1
  9
$QTEXTMODE
 70
     0
  9
$MIRRTEXT
 70
     1
  9
$LTSCALE
 40
1.0
  9
$ATTMODE
 70
     1
  9
$TEXTSIZE
 40
2.5
  9
$TRACEWID
 40
1.0
  9
$TEXTSTYLE
  7
STANDARD
  9
$CLAYER
  8
0
  9
$CELTYPE
  6
ByLayer
  9
$CECOLOR
 62
   256
  9
$CELTSCALE
 40
1.0
  9
$DISPSILH
 70
     0
  9
$DIMSCALE
 40
1.0
  9
$DIMASZ
 40
2.5
  9
$DIMEXO
 40
1.0
  9
$DIMDLI
 40
10.0
  9
$DIMRND
 40
0.0
  9
$DIMDLE
 40
0.0
  9
$DIMEXE
 40
1.0
  9
$DIMTP
 40
0.1
  9
$DIMTM
 40
0.1
  9
$DIMTXT
 40
3.5
  9
$DIMCEN
 40
0.0
  9
$DIMTSZ
 40
0.0
  9
$DIMTOL
 70
     0
  9
$DIMLIM
 70
     0
  9
$DIMTIH
 70
     0
  9
$DIMTOH
 70
     0
  9
$DIMSE1
 70
     0
  9
$DIMSE2
 70
     0
  9
$DIMTAD
 70
     1
  9
$DIMZIN
 70
     8
  9
$DIMBLK
  1

  9
$DIMASO
 70
     1
  9
$DIMSHO
 70
     1
  9
$DIMPOST
  1

  9
$DIMAPOST
  1
"
  9
$DIMALT
 70
     0
  9
$DIMALTD
 70
     2
  9
$DIMALTF
 40
0.0393701
  9
$DIMLFAC
 40
1.0
  9
$DIMTOFL
 70
     1
  9
$DIMTVP
 40
0.0
  9
$DIMTIX
 70
     0
  9
$DIMSOXD
 70
     0
  9
$DIMSAH
 70
     0
  9
$DIMBLK1
  1

  9
$DIMBLK2
  1

  9
$DIMSTYLE
  2
AM_DIN
  9
$DIMCLRD
 70
   256
  9
$DIMCLRE
 70
   256
  9
$DIMCLRT
 70
     2
  9
$DIMTFAC
 40
0.71
  9
$DIMGAP
 40
1.5
  9
$DIMJUST
 70
     0
  9
$DIMSD1
 70
     0
  9
$DIMSD2
 70
     0
  9
$DIMTOLJ
 70
     0
  9
$DIMTZIN
 70
     8
  9
$DIMALTZ
 70
     0
  9
$DIMALTTZ
 70
     0
  9
$DIMUPT
 70
     0
  9
$DIMDEC
 70
     2
  9
$DIMTDEC
 70
     3
  9
$DIMALTU
 70
     2
  9
$DIMALTTD
 70
     4
  9
$DIMTXSTY
  7
STANDARD
  9
$DIMAUNIT
 70
     0
  9
$DIMADEC
 70
     0
  9
$DIMALTRND
 40
0.0
  9
$DIMAZIN
 70
     2
  9
$DIMDSEP
 70
    46
  9
$DIMATFIT
 70
     3
  9
$DIMFRAC
 70
     0
  9
$DIMLDRBLK
  1

  9
$DIMLUNIT
 70
     2
  9
$DIMLWD
 70
    -1
  9
$DIMLWE
 70
    -1
  9
$DIMTMOVE
 70
     0
  9
$LUNITS
 70
     2
  9
$LUPREC
 70
     2
  9
$SKETCHINC
 40
1.0
  9
$FILLETRAD
 40
2.5
  9
$AUNITS
 70
     0
  9
$AUPREC
 70
     0
  9
$MENU
  1
.
  9
$ELEVATION
 40
0.0
  9
$PELEVATION
 40
0.0
  9
$THICKNESS
 40
0.0
  9
$LIMCHECK
 70
     0
  9
$CHAMFERA
 40
2.5
  9
$CHAMFERB
 40
2.5
  9
$CHAMFERC
 40
20.0
  9
$CHAMFERD
 40
0.0
  9
$SKPOLY
 70
     0
  9
$TDCREATE
 40
2452702.515835023
  9
$TDUCREATE
 40
2452702.474168357
  9
$TDUPDATE
 40
2454041.895334282
  9
$TDUUPDATE
 40
2454041.853667616
  9
$TDINDWG
 40
0.0035168634
  9
$TDUSRTIMER
 40
0.0035168634
  9
$USRTIMER
 70
     1
  9
$ANGBASE
 50
0.0
  9
$ANGDIR
 70
     0
  9
$PDMODE
 70
     0
  9
$PDSIZE
 40
0.0
  9
$PLINEWID
 40
0.0
  9
$SPLFRAME
 70
     0
  9
$SPLINETYPE
 70
     6
  9
$SPLINESEGS
 70
     8
  9
$HANDSEED
  5
A01
  9
$SURFTAB1
 70
     6
  9
$SURFTAB2
 70
     6
  9
$SURFTYPE
 70
     6
  9
$SURFU
 70
     6
  9
$SURFV
 70
     6
  9
$UCSBASE
  2

  9
$UCSNAME
  2

  9
$UCSORG
 10
0.0
 20
0.0
 30
0.0
  9
$UCSXDIR
 10
1.0
 20
0.0
 30
0.0
  9
$UCSYDIR
 10
0.0
 20
1.0
 30
0.0
  9
$UCSORTHOREF
  2

  9
$UCSORTHOVIEW
 70
     0
  9
$UCSORGTOP
 10
0.0
 20
0.0
 30
0.0
  9
$UCSORGBOTTOM
 10
0.0
 20
0.0
 30
0.0
  9
$UCSORGLEFT
 10
0.0
 20
0.0
 30
0.0
  9
$UCSORGRIGHT
 10
0.0
 20
0.0
 30
0.0
  9
$UCSORGFRONT
 10
0.0
 20
0.0
 30
0.0
  9
$UCSORGBACK
 10
0.0
 20
0.0
 30
0.0
  9
$PUCSBASE
  2

  9
$PUCSNAME
  2

  9
$PUCSORG
 10
0.0
 20
0.0
 30
0.0
  9
$PUCSXDIR
 10
1.0
 20
0.0
 30
0.0
  9
$PUCSYDIR
 10
0.0
 20
1.0
 30
0.0
  9
$PUCSORTHOREF
  2

  9
$PUCSORTHOVIEW
 70
     0
  9
$PUCSORGTOP
 10
0.0
 20
0.0
 30
0.0
  9
$PUCSORGBOTTOM
 10
0.0
 20
0.0
 30
0.0
  9
$PUCSORGLEFT
 10
0.0
 20
0.0
 30
0.0
  9
$PUCSORGRIGHT
 10
0.0
 20
0.0
 30
0.0
  9
$PUCSORGFRONT
 10
0.0
 20
0.0
 30
0.0
  9
$PUCSORGBACK
 10
0.0
 20
0.0
 30
0.0
  9
$USERI1
 70
     0
  9
$USERI2
 70
     0
  9
$USERI3
 70
     0
  9
$USERI4
 70
     0
  9
$USERI5
 70
     0
  9
$USERR1
 40
0.0
  9
$USERR2
 40
0.0
  9
$USERR3
 40
0.0
  9
$USERR4
 40
0.0
  9
$USERR5
 40
0.0
  9
$WORLDVIEW
 70
     1
  9
$SHADEDGE
 70
     3
  9
$SHADEDIF
 70
    70
  9
$TILEMODE
 70
     1
  9
$MAXACTVP
 70
    64
  9
$PINSBASE
 10
0.0
 20
0.0
 30
0.0
  9
$PLIMCHECK
 70
     0
  9
$PEXTMIN
 10
1.000000000000000E+20
 20
1.000000000000000E+20
 30
1.000000000000000E+20
  9
$PEXTMAX
 10
-1.000000000000000E+20
 20
-1.000000000000000E+20
 30
-1.000000000000000E+20
  9
$PLIMMIN
 10
0.0
 20
0.0
  9
$PLIMMAX
 10
420.0
 20
297.0
  9
$UNITMODE
 70
     0
  9
$VISRETAIN
 70
     1
  9
$PLINEGEN
 70
     0
  9
$PSLTSCALE
 70
     1
  9
$TREEDEPTH
 70
  3020
  9
$CMLSTYLE
  2
Standard
  9
$CMLJUST
 70
     0
  9
$CMLSCALE
 40
20.0
  9
$PROXYGRAPHICS
 70
     1
  9
$MEASUREMENT
 70
     1
  9
$CELWEIGHT
370
    -1
  9
$ENDCAPS
280
     0
  9
$JOINSTYLE
280
     0
  9
$LWDISPLAY
290
     0
  9
$INSUNITS
 70
     4
  9
$HYPERLINKBASE
  1

  9
$STYLESHEET
  1
monochrome.ctb
  9
$XEDIT
290
     1
  9
$CEPSNTYPE
380
     0
  9
$PSTYLEMODE
290
     1
  9
$FINGERPRINTGUID
  2
{D5091DE6-A8E7-4749-B1FA-F4240FAEB0F0}
  9
$VERSIONGUID
  2
{DCE8651F-67B4-4895-B982-D79248C42120}
  9
$EXTNAMES
290
     1
  9
$PSVPSCALE
 40
0.0
  9
$OLESTARTUP
290
     0
  0
ENDSEC
  0
SECTION
  2
CLASSES
  0
CLASS
  1
ACDBDICTIONARYWDFLT
  2
AcDbDictionaryWithDefault
  3
ObjectDBX Classes
 90
        0
280
     0
281
     0
  0
CLASS
  1
ACDBPLACEHOLDER
  2
AcDbPlaceHolder
  3
ObjectDBX Classes
 90
        0
280
     0
281
     0
  0
CLASS
  1
LAYOUT
  2
AcDbLayout
  3
ObjectDBX Classes
 90
        0
280
     0
281
     0
  0
CLASS
  1
AMGSETTINGSOBJ
  2
AmgSettingsObj
  3
"AcadM|Product Description: AutoCAD Mechanical 2000|Company: Autodesk"
 90
        0
280
     0
281
     0
  0
CLASS
  1
ACME_DOCUMENT
  2
AcMeDbDoc
  3
AcMeServices
 90
        0
280
     0
281
     0
  0
CLASS
  1
ACMESCOPE
  2
AcMeScope
  3
AcMeServices
 90
        0
280
     0
281
     0
  0
CLASS
  1
ACMECOMMANDHISTORY
  2
AcMeCommandHistory
  3
AcMeServices
 90
        0
280
     0
281
     0
  0
CLASS
  1
DICTIONARYVAR
  2
AcDbDictionaryVar
  3
ObjectDBX Classes
 90
        0
280
     0
281
     0
  0
CLASS
  1
ACIMSYSVARMAN
  2
AcImSysVarManager
  3
AcMeServices
 90
        0
280
     0
281
     0
  0
CLASS
  1
ACIMREALSYSVAR
  2
AcImRealSysVar
  3
AcMeServices
 90
        0
280
     0
281
     0
  0
CLASS
  1
ACIMINTSYSVAR
  2
AcImIntSysVar
  3
AcMeServices
 90
        0
280
     0
281
     0
  0
CLASS
  1
ACMEDRAWINGMAN
  2
AcMeDrawingMan
  3
AcMeServices
 90
        0
280
     0
281
     0
  0
CLASS
  1
ACMEVIEW
  2
AcMeView
  3
AcMeServices
 90
        0
280
     0
281
     0
  0
CLASS
  1
ACDBENTITYCACHE
  2
AcMeEntityCache
  3
AcMeServices
 90
        0
280
     0
281
     0
  0
CLASS
  1
GSMANAGER
  2
AcMeGSManager
  3
AcMeServices
 90
        0
280
     0
281
     0
  0
CLASS
  1
AMDTINTERNALREACTOR
  2
AmdtInternalReactor
  3
AcMeServices
 90
        0
280
     0
281
     0
  0
CLASS
  1
ACMESTATEMGR
  2
AcMeStateMgr
  3
AcMeServices
 90
        0
280
     0
281
     0
  0
CLASS
  1
ACGREFMASTER
  2
AcGrefMaster
  3
AcAttribServices
 90
        0
280
     0
281
     0
  0
CLASS
  1
ACME_DATABASE
  2
AcMeDbDatabase
  3
AcMeServices
 90
        0
280
     0
281
     0
  0
CLASS
  1
ACRFINSADJUSTERMGR
  2
AcRfInsAdjusterMgr
  3
AcMeServices
 90
        0
280
     0
281
     0
  0
CLASS
  1
ACGREFACADMASTER
  2
AcGrefacadMaster
  3
AcGrefServices
 90
        0
280
     0
281
     0
  0
CLASS
  1
AMIMASTER
  2
AmiMaster
  3
AmiServices
 90
        0
280
     0
281
     0
  0
CLASS
  1
ACMDATADICTIONARY
  2
AcmDataDictionary
  3
"AcmSymBB|Product Description: AutoCAD Mechanical 2004 DX|Company: Autodesk"
 90
        0
280
     0
281
     0
  0
CLASS
  1
ACMDATAENTRYBLOCK
  2
AcmDataEntryBlock
  3
"AcmSymBB|Product Description: AutoCAD Mechanical 2004 DX|Company: Autodesk"
 90
        0
280
     0
281
     0
  0
CLASS
  1
ACIMSTRSYSVAR
  2
AcImStrSysVar
  3
AcMeServices
 90
        0
280
     0
281
     0
  0
CLASS
  1
ACMSTANDARDDIN
  2
AcmStandardDIN
  3
"Amdt_StdImp|Product Description: AutoCAD Mechanical 2004 DX|Company: Autodesk"
 90
        0
280
     0
281
     0
  0
CLASS
  1
AMGOBJPROPCFG
  2
AmgObjPropCfg
  3
"AmgLay|Product Description: AutoCAD Mechanical 2000|Company: Autodesk"
 90
        1
280
     0
281
     0
  0
CLASS
  1
AMDTEDGESTANDARDDIN
  2
AmdtEdgeStdDIN
  3
"Amdt_StdImp|Product Description: AutoCAD Mechanical 2004 DX|Company: Autodesk"
 90
        0
280
     0
281
     0
  0
CLASS
  1
ACMSURFSTANDARDDIN
  2
AcmSurfTextStdDIN
  3
"Amdt_StdImp|Product Description: AutoCAD Mechanical 2004 DX|Company: Autodesk"
 90
        0
280
     0
281
     0
  0
CLASS
  1
ACMFCFSTANDARDDIN
  2
AcmFCFStdDIN
  3
"Amdt_StdImp|Product Description: AutoCAD Mechanical 2004 DX|Company: Autodesk"
 90
        0
280
     0
281
     0
  0
CLASS
  1
ACMWELDSTANDARDDIN
  2
AcmWeldingStdDIN
  3
"Amdt_StdImp|Product Description: AutoCAD Mechanical 2004 DX|Company: Autodesk"
 90
        0
280
     0
281
     0
  0
CLASS
  1
ACMIDSTANDARDDIN
  2
AcmIdStdDIN
  3
"Amdt_StdImp|Product Description: AutoCAD Mechanical 2004 DX|Company: Autodesk"
 90
        0
280
     0
281
     0
  0
CLASS
  1
ACMDATUMSTANDARDDIN
  2
AcmDatumStdDIN
  3
"Amdt_StdImp|Product Description: AutoCAD Mechanical 2004 DX|Company: Autodesk"
 90
        0
280
     0
281
     0
  0
CLASS
  1
ACMBOMSTANDARDDIN
  2
AcmBOMStdDIN
  3
"Amdt_StdImp|Product Description: AutoCAD Mechanical 2004 DX|Company: Autodesk"
 90
        0
280
     0
281
     0
  0
CLASS
  1
ACMDETAILSTANDARDDIN
  2
AmdtDetailSymStdDIN
  3
"Amdt_StdImp|Product Description: AutoCAD Mechanical 2004 DX|Company: Autodesk"
 90
        0
280
     0
281
     0
  0
CLASS
  1
ACMSECTIONSTANDARDDIN
  2
AmdtSectionSymStdDIN
  3
"Amdt_StdImp|Product Description: AutoCAD Mechanical 2004 DX|Company: Autodesk"
 90
        0
280
     0
281
     0
  0
CLASS
  1
ACMCENTERLINESTANDARDDIN
  2
AmdtCenterLineStdDIN
  3
"Amdt_StdImp|Product Description: AutoCAD Mechanical 2004 DX|Company: Autodesk"
 90
        0
280
     0
281
     0
  0
CLASS
  1
ACAMGLAYSTD
  2
AcAmgLayStd
  3
"AcAmgLayStd|Product Description: AutoCAD Mechanical 2000|Company: Autodesk"
 90
        0
280
     0
281
     0
  0
CLASS
  1
ACAMGDIMSTD
  2
AcAmgDimStd
  3
"AcAmgDimStd|Product Description: AutoCAD Mechanical 2000|Company: Autodesk"
 90
        0
280
     0
281
     0
  0
CLASS
  1
ACAMGTITLESTD
  2
AcAmgTitleStd
  3
"TITLEAPP"
 90
        0
280
     0
281
     0
  0
CLASS
  1
LAYER_INDEX
  2
AcDbLayerIndex
  3
ObjectDBX Classes
 90
        0
280
     0
281
     0
  0
CLASS
  1
IDBUFFER
  2
AcDbIdBuffer
  3
ObjectDBX Classes
 90
        0
280
     0
281
     0
  0
CLASS
  1
ACAMGFILTERDAT
  2
AcAmgFilterDat
  3
"AcadM|Product Description: AutoCAD Mechanical 2000|Company: Autodesk"
 90
        0
280
     0
281
     0
  0
CLASS
  1
TABLESTYLE
  2
AcDbTableStyle
  3
ObjectDBX Classes
 90
     2047
280
     0
281
     0
  0
CLASS
  1
AM_DRAWING_MGR
  2
AcDmDwgMgr
  3
AcMechDwgViewMgmt
 90
        0
280
     0
281
     0
  0
CLASS
  1
AM_DWG_DOCUMENT
  2
AcDmDwgDocument
  3
AcMechDwgViewMgmt
 90
        0
280
     0
281
     0
  0
CLASS
  1
AM_DWG_SHEET
  2
AcDmSheet
  3
AcMechDwgViewMgmt
 90
        0
280
     0
281
     0
  0
CLASS
  1
AM_VIEWDIMPARMAP
  2
AcDmViewDimParMap
  3
AcMechDwgViewMgmt
 90
        0
280
     0
281
     0
  0
CLASS
  1
AM_DWGMGR_NAME
  2
AcDmDwgMgrName
  3
AcMechDwgViewMgmt
 90
        0
280
     0
281
     0
  0
CLASS
  1
AMDTMENUSTATEMGR
  2
AmdtMenuStateMgr
  3
McadcomServices
 90
        0
280
     0
281
     0
  0
CLASS
  1
AMDTMCOMMENUSTATE
  2
AmdtMcomMenuState
  3
McadcomServices
 90
        0
280
     0
281
     0
  0
CLASS
  1
MAPIAMMOUDLE
  2
MApiAmModule
  3
MApiAmServices
 90
        0
280
     0
281
     0
  0
CLASS
  1
AMDTADMENUSTATE
  2
AmdtAdMenuState
  3
DesignerServices
 90
        0
280
     0
281
     0
  0
CLASS
  1
ADAPPL
  2
AcAdAppl
  3
DesignerServices
 90
        0
280
     0
281
     0
  0
CLASS
  1
DEPMGR
  2
AcAdDepMgr
  3
DesignerServices
 90
        0
280
     0
281
     0
  0
CLASS
  1
PARAMMGR
  2
AcAdParamMgr
  3
DesignerServices
 90
        0
280
     0
281
     0
  0
CLASS
  1
PARAMSCOPE
  2
AcAdParamScope
  3
DesignerServices
 90
        0
280
     0
281
     0
  0
CLASS
  1
NAMEDAPPL
  2
AcAdNamedAppl
  3
DesignerServices
 90
        0
280
     0
281
     0
  0
CLASS
  1
AMDTDMMENUSTATE
  2
AmdtDmMenuState
  3
AcMechDwgViewMgmt
 90
        0
280
     0
281
     0
  0
CLASS
  1
AMDTAMMENUSTATE
  2
AmdtAmMenuState
  3
DesignerAssemblies
 90
        0
280
     0
281
     0
  0
CLASS
  1
ACAMPROJECT
  2
AcAmProject
  3
DesignerAssemblies
 90
        0
280
     0
281
     0
  0
CLASS
  1
ACAMGRCOMPDEF
  2
AcAmGrCompDef
  3
DesignerAssemblies
 90
        0
280
     0
281
     0
  0
CLASS
  1
ACCMCONTEXT
  2
AcCmContext
  3
DesignerAssemblies
 90
        0
280
     0
281
     0
  0
CLASS
  1
ACAMCOMPDEF
  2
AcAmCompDef
  3
DesignerAssemblies
 90
        0
280
     0
281
     0
  0
CLASS
  1
ACAMCOMPDEFMGR
  2
AcAmCompDefMgr
  3
DesignerAssemblies
 90
        0
280
     0
281
     0
  0
CLASS
  1
AMCONTEXTMGR
  2
AcAmContextMgr
  3
DesignerAssemblies
 90
        0
280
     0
281
     0
  0
CLASS
  1
ACAMCONTEXTMODELER
  2
AcAmContextModeler
  3
DesignerAssemblies
 90
        0
280
     0
281
     0
  0
CLASS
  1
ACMTHREADLINESTANDARDDIN
  2
AmdtThreadLineStdDIN
  3
"Amdt_StdImp|Product Description: AutoCAD Mechanical 2004 DX|Company: Autodesk"
 90
        0
280
     0
281
     0
  0
CLASS
  1
ACMNOTESTANDARDDIN
  2
AmdtNoteStdDIN
  3
"Amdt_StdImp|Product Description: AutoCAD Mechanical 2004 DX|Company: Autodesk"
 90
        0
280
     0
281
     0
  0
CLASS
  1
AMDTNOTETEMPLATEDB
  2
AmdtNoteTemplateDB
  3
AMDT_STDIMP_MODULE_NAME
 90
        0
280
     0
281
     0
  0
CLASS
  1
CATALOGSTATE
  2
AcAmCatalogState
  3
DesignerAssemblies
 90
        0
280
     0
281
     0
  0
CLASS
  1
ACAMGRCOMPDEFSET
  2
AcAmGrCompDefSet
  3
DesignerAssemblies
 90
        0
280
     0
281
     0
  0
CLASS
  1
AMDTBROWSERDBTAB
  2
AmdtBrowserDbTab
  3
McadcomServices
 90
        0
280
     0
281
     0
  0
CLASS
  1
CBROWSERAPPOBJECT
  2
CBrowserAppObject
  3
McadcomServices
 90
        0
280
     0
281
     0
  0
CLASS
  1
DM_PLACEHOLDER
  2
AcDmSelsetPlaceholder
  3
AcMechDwgViewMgmt
 90
        0
280
     0
281
     0
  0
ENDSEC
  0
SECTION
  2
TABLES
  0
TABLE
  2
VPORT
  5
8
330
0
100
AcDbSymbolTable
 70
     9
  0
VPORT
  5
9F8
330
8
100
AcDbSymbolTableRecord
100
AcDbViewportTableRecord
  2
*Active
 70
     0
 10
0.0
 20
0.0
 11
1.0
 21
1.0
 12
986.3462151937074
 22
844.4002535188314
 13
0.0
 23
0.0
 14
2.5
 24
2.5
 15
10.0
 25
10.0
 16
0.0
 26
0.0
 36
1.0
 17
0.0
 27
0.0
 37
0.0
 40
1076.767500242826
 41
1.494545454545454
 42
50.0
 43
0.0
 44
0.0
 50
0.0
 51
0.0
 71
     0
 72
   100
 73
     1
 74
     3
 75
     0
 76
     0
 77
     0
 78
     0
281
     0
 65
     1
110
0.0
120
0.0
130
0.0
111
1.0
121
0.0
131
0.0
112
0.0
122
1.0
132
0.0
 79
     0
146
0.0
  0
ENDTAB
  0
TABLE
  2
LTYPE
  5
5
330
0
100
AcDbSymbolTable
 70
    21
  0
LTYPE
  5
14
330
5
100
AcDbSymbolTableRecord
100
AcDbLinetypeTableRecord
  2
ByBlock
 70
     0
  3

 72
    65
 73
     0
 40
0.0
  0
LTYPE
  5
15
330
5
100
AcDbSymbolTableRecord
100
AcDbLinetypeTableRecord
  2
ByLayer
 70
     0
  3

 72
    65
 73
     0
 40
0.0
  0
LTYPE
  5
16
330
5
100
AcDbSymbolTableRecord
100
AcDbLinetypeTableRecord
  2
Continuous
 70
     0
  3
Solid line
 72
    65
 73
     0
 40
0.0
  0
LTYPE
  5
52
330
5
100
AcDbSymbolTableRecord
100
AcDbLinetypeTableRecord
  2
Amconstr
 70
     0
  3
_______________________
 72
    65
 73
     2
 40
9999.0
 49
9999.0
 74
     0
 49
0.0
 74
     0
  0
LTYPE
  5
57
330
5
100
AcDbSymbolTableRecord
100
AcDbLinetypeTableRecord
  2
Amzigzag
 70
     0
  3
/\/-/\/-/\/-/\/-/\/-/\/
 72
    65
 73
     2
 40
11.0001
 49
0.0001
 74
     4
 75
   135
340
56
 46
0.04
 50
0.0
 44
0.0
 45
0.0
 49
-11.0
 74
     0
  0
LTYPE
  5
58
330
5
100
AcDbSymbolTableRecord
100
AcDbLinetypeTableRecord
  2
AM_DIN_F_W050
 70
     0
  3
__ __ __ __ __ __ __ __ __ __ __ __ __ __ __
 72
    65
 73
     2
 40
6.25
 49
4.75
 74
     0
 49
-1.5
 74
     0
  0
LTYPE
  5
59
330
5
100
AcDbSymbolTableRecord
100
AcDbLinetypeTableRecord
  2
AM_DIN_G_W050
 70
     0
  3
____ . ____ . ____ . ____ . ____ . ____ . ____
 72
    65
 73
     4
 40
13.75
 49
9.75
 74
     0
 49
-1.5
 74
     0
 49
1.0
 74
     0
 49
-1.5
 74
     0
  0
LTYPE
  5
5A
330
5
100
AcDbSymbolTableRecord
100
AcDbLinetypeTableRecord
  2
AM_DIN_K_W050
 70
     0
  3
_____ . . _____ . . _____ . . ____ .. ____
 72
    65
 73
     6
 40
16.25
 49
9.75
 74
     0
 49
-1.5
 74
     0
 49
1.0
 74
     0
 49
-1.5
 74
     0
 49
1.0
 74
     0
 49
-1.5
 74
     0
  0
LTYPE
  5
5B
330
5
100
AcDbSymbolTableRecord
100
AcDbLinetypeTableRecord
  2
AM_DIN_G_W050x2
 70
     0
  3
__ . __ . __ . __ . __ . __
 72
    65
 73
     4
 40
6.875
 49
4.75
 74
     0
 49
-0.875
 74
     0
 49
0.375
 74
     0
 49
-0.875
 74
     0
  0
LTYPE
  5
5C
330
5
100
AcDbSymbolTableRecord
100
AcDbLinetypeTableRecord
  2
AM_DIN_F_W050x2
 70
     0
  3
 _ _ _ _ _ _ _ _ _ _ _ _
 72
    65
 73
     2
 40
3.125
 49
2.25
 74
     0
 49
-0.875
 74
     0
  0
LTYPE
  5
69
330
5
100
AcDbSymbolTableRecord
100
AcDbLinetypeTableRecord
  2
ACDINWELD
 70
     0
  3
_ _ _ _ _
 72
    65
 73
     2
 40
2.0
 49
2.0
 74
     0
 49
-1.0
 74
     0
  0
LTYPE
  5
6A
330
5
100
AcDbSymbolTableRecord
100
AcDbLinetypeTableRecord
  2
ACDINTGB
 70
     0
  3
__ . . __ . .
 72
    65
 73
     6
 40
9.0
 49
4.0
 74
     0
 49
-1.0
 74
     0
 49
1.0
 74
     0
 49
-1.0
 74
     0
 49
1.0
 74
     0
 49
-1.0
 74
     0
  0
LTYPE
  5
6B
330
5
100
AcDbSymbolTableRecord
100
AcDbLinetypeTableRecord
  2
ACDINTGL
 70
     0
  3
_ _ _ _ _
 72
    65
 73
     2
 40
3.0
 49
2.0
 74
     0
 49
-1.0
 74
     0
  0
LTYPE
  5
6D
330
5
100
AcDbSymbolTableRecord
100
AcDbLinetypeTableRecord
  2
CENTER
 70
     0
  3
__ . __
 72
    65
 73
     4
 40
7.0
 49
4.0
 74
     0
 49
-1.0
 74
     0
 49
1.0
 74
     0
 49
-1.0
 74
     0
  0
LTYPE
  5
250
330
5
100
AcDbSymbolTableRecord
100
AcDbLinetypeTableRecord
  2
STRICHPUNKT
 70
     0
  3
Strichpunkt __ . __ . __ . __ . __ . __ . __ . 
 72
    65
 73
     4
 40
25.4
 49
12.7
 74
     0
 49
-6.349999999999999
 74
     0
 49
0.0
 74
     0
 49
-6.349999999999999
 74
     0
  0
LTYPE
  5
251
330
5
100
AcDbSymbolTableRecord
100
AcDbLinetypeTableRecord
  2
STRICHLINIE
 70
     0
  3
Strichlinie __ __ __ __ __ __ __ __ __ __ __ __
 72
    65
 73
     2
 40
19.05
 49
12.7
 74
     0
 49
-6.349999999999999
 74
     0
  0
LTYPE
  5
8AA
330
5
100
AcDbSymbolTableRecord
100
AcDbLinetypeTableRecord
  2
HIDDEN
 70
     0
  3
Verdeckt
 72
    65
 73
     2
 40
9.525
 49
6.349999999999999
 74
     0
 49
-3.174999999999999
 74
     0
  0
LTYPE
  5
8AB
330
5
100
AcDbSymbolTableRecord
100
AcDbLinetypeTableRecord
  2
PHANTOM2
 70
     0
  3
Phantom (.5x) ___ _ _ ___ _ _ ___ _ _ ___ _ _
 72
    65
 73
     6
 40
31.75
 49
15.875
 74
     0
 49
-3.174999999999999
 74
     0
 49
3.174999999999999
 74
     0
 49
-3.174999999999999
 74
     0
 49
3.174999999999999
 74
     0
 49
-3.174999999999999
 74
     0
  0
ENDTAB
  0
TABLE
  2
LAYER
  5
2
330
0
100
AcDbSymbolTable
 70
     5
  0
LAYER
  5
10
330
2
100
AcDbSymbolTableRecord
100
AcDbLayerTableRecord
  2
0
 70
     0
 62
     7
  6
Continuous
370
    -3
390
F
  0
LAYER
  5
252
330
2
100
AcDbSymbolTableRecord
100
AcDbLayerTableRecord
  2
P-0000
 70
     0
 62
     7
  6
Continuous
370
    -3
390
F
  0
LAYER
  5
253
330
2
100
AcDbSymbolTableRecord
100
AcDbLayerTableRecord
  2
P-7DCC
 70
     0
 62
     7
  6
Continuous
370
    -3
390
F
  0
LAYER
  5
255
330
2
100
AcDbSymbolTableRecord
100
AcDbLayerTableRecord
  2
Defpoints
 70
     0
 62
     7
  6
Continuous
290
     0
370
    -3
390
F
  0
ENDTAB
  0
TABLE
  2
STYLE
  5
3
330
0
100
AcDbSymbolTable
 70
     7
  0
STYLE
  5
11
330
3
100
AcDbSymbolTableRecord
100
AcDbTextStyleTableRecord
  2
STANDARD
 70
     0
 40
0.0
 41
1.0
 50
0.0
 71
     0
 42
2.5
  3
ISOCP.SHX
  4

  0
STYLE
  5
56
330
3
100
AcDbSymbolTableRecord
100
AcDbTextStyleTableRecord
  2

 70
     1
 40
0.0
 41
1.0
 50
0.0
 71
     0
 42
2.5
  3
ltypeshp.shx
  4

  0
STYLE
  5
5D
330
3
100
AcDbSymbolTableRecord
100
AcDbTextStyleTableRecord
  2
ACDINTS
 70
     0
 40
1.0
 41
1.0
 50
0.0
 71
     0
 42
2.5
  3
isocp.shx
  4

  0
STYLE
  5
68
330
3
100
AcDbSymbolTableRecord
100
AcDbTextStyleTableRecord
  2
ACDINGDT
 70
     0
 40
0.0
 41
1.0
 50
0.0
 71
     0
 42
2.5
  3
amgdt.shx
  4

  0
ENDTAB
  0
TABLE
  2
VIEW
  5
6
330
0
100
AcDbSymbolTable
 70
     0
  0
ENDTAB
  0
TABLE
  2
UCS
  5
7
330
0
100
AcDbSymbolTable
 70
     0
  0
ENDTAB
  0
TABLE
  2
APPID
  5
9
330
0
100
AcDbSymbolTable
 70
    12
  0
APPID
  5
12
330
9
100
AcDbSymbolTableRecord
100
AcDbRegAppTableRecord
  2
ACAD
 70
     0
  0
APPID
  5
30
330
9
100
AcDbSymbolTableRecord
100
AcDbRegAppTableRecord
  2
MCAD_NO_VIS
 70
     0
  0
APPID
  5
31
330
9
100
AcDbSymbolTableRecord
100
AcDbRegAppTableRecord
  2
ACAD_TEMP_GRAPHIC
 70
     0
  0
APPID
  5
44
330
9
100
AcDbSymbolTableRecord
100
AcDbRegAppTableRecord
  2
ACATTRIBSERVICES
 70
     0
  0
APPID
  5
25C
330
9
100
AcDbSymbolTableRecord
100
AcDbRegAppTableRecord
  2
ACME_LAYERS
 70
     0
  0
APPID
  5
8AD
330
9
100
AcDbSymbolTableRecord
100
AcDbRegAppTableRecord
  2
AD_DRAW
 70
     0
  0
APPID
  5
8CB
330
9
100
AcDbSymbolTableRecord
100
AcDbRegAppTableRecord
  2
DESIGNERASSEMBLIES
 70
     0
  0
APPID
  5
8D5
330
9
100
AcDbSymbolTableRecord
100
AcDbRegAppTableRecord
  2
ACAD_DSTYLE_DIMARC_LENGTH_SYMBOL
 70
     0
  0
APPID
  5
8D6
330
9
100
AcDbSymbolTableRecord
100
AcDbRegAppTableRecord
  2
ACAD_DSTYLE_DIMJOGGED_JOGANGLE_SYMBOL
 70
     0
  0
APPID
  5
8E6
330
9
100
AcDbSymbolTableRecord
100
AcDbRegAppTableRecord
  2
ACADM_DIM_EDIT
 70
     0
  0
APPID
  5
8E7
330
9
100
AcDbSymbolTableRecord
100
AcDbRegAppTableRecord
  2
AMDT_DM_ADJ
 70
     0
  0
APPID
  5
8EF
330
9
100
AcDbSymbolTableRecord
100
AcDbRegAppTableRecord
  2
GENIUS_GENDIMSH_14
 70
     0
  0
ENDTAB
  0
TABLE
  2
DIMSTYLE
  5
A
330
0
100
AcDbSymbolTable
 70
    14
100
AcDbDimStyleTable
 71
     1
340
70
  0
DIMSTYLE
105
70
330
A
100
AcDbSymbolTableRecord
100
AcDbDimStyleTableRecord
  2
AM_DIN
 70
     0
  4
"
 41
2.5
 42
1.0
 43
10.0
 44
1.0
 47
0.1
 48
0.1
 73
     0
 74
     0
 77
     1
 78
     8
 79
     2
140
3.5
141
0.0
143
0.0393701
146
0.71
147
1.5
172
     1
176
   256
177
   256
178
     2
271
     2
272
     3
274
     4
283
     0
284
     8
340
11
371
    -1
372
    -1
1001
ACAD_DSTYLE_DIMARC_LENGTH_SYMBOL
1070
   379
1070
     0
1001
ACAD_DSTYLE_DIMJOGGED_JOGANGLE_SYMBOL
1070
   384
1040
1.570796326794896
  0
DIMSTYLE
105
71
330
A
100
AcDbSymbolTableRecord
100
AcDbDimStyleTableRecord
  2
AM_DIN$3
 70
     0
  4
"
 41
2.5
 42
1.0
 43
10.0
 44
1.0
 47
0.1
 48
0.1
 73
     0
 77
     1
 78
     8
 79
     2
140
3.5
141
0.0
143
0.0393701
146
0.71
147
1.5
176
   256
177
   256
178
     2
271
     2
272
     3
274
     4
283
     0
284
     8
288
     1
289
     0
340
11
371
    -1
372
    -1
1001
ACAD_DSTYLE_DIMARC_LENGTH_SYMBOL
1070
   379
1070
     0
1001
ACAD_DSTYLE_DIMJOGGED_JOGANGLE_SYMBOL
1070
   384
1040
1.570796326794896
  0
DIMSTYLE
105
72
330
A
100
AcDbSymbolTableRecord
100
AcDbDimStyleTableRecord
  2
AM_DIN$4
 70
     0
  4
"
 41
2.5
 42
1.0
 43
10.0
 44
1.0
 47
0.1
 48
0.1
 73
     0
 77
     1
 78
     8
 79
     2
140
3.5
141
0.0
143
0.0393701
146
0.71
147
1.5
176
   256
177
   256
178
     2
271
     2
272
     3
274
     4
283
     0
284
     8
288
     1
289
     0
340
11
371
    -1
372
    -1
1001
ACAD_DSTYLE_DIMARC_LENGTH_SYMBOL
1070
   379
1070
     0
1001
ACAD_DSTYLE_DIMJOGGED_JOGANGLE_SYMBOL
1070
   384
1040
1.570796326794896
  0
DIMSTYLE
105
73
330
A
100
AcDbSymbolTableRecord
100
AcDbDimStyleTableRecord
  2
AM_DIN$6
 70
     0
  4
"
 41
2.5
 42
1.0
 43
10.0
 44
1.0
 47
0.1
 48
0.1
 73
     0
 74
     0
 78
     8
 79
     2
140
3.5
141
0.0
143
0.0393701
146
0.71
147
1.5
172
     1
176
   256
177
   256
178
     2
271
     2
272
     3
274
     4
283
     0
284
     8
340
11
371
    -1
372
    -1
1001
ACAD_DSTYLE_DIMARC_LENGTH_SYMBOL
1070
   379
1070
     0
1001
ACAD_DSTYLE_DIMJOGGED_JOGANGLE_SYMBOL
1070
   384
1040
1.570796326794896
  0
DIMSTYLE
105
74
330
A
100
AcDbSymbolTableRecord
100
AcDbDimStyleTableRecord
  2
AM_DIN$7
 70
     0
  4
"
 41
2.5
 42
1.0
 43
10.0
 44
1.0
 47
0.1
 48
0.1
 73
     0
 74
     0
 77
     1
 78
     8
 79
     2
140
5.0
141
0.0
143
0.0393701
146
0.71
147
1.5
172
     1
176
   256
177
   256
178
     2
271
     2
272
     3
274
     4
283
     0
284
     8
340
11
371
    -1
372
    -1
1001
ACAD_DSTYLE_DIMARC_LENGTH_SYMBOL
1070
   379
1070
     0
1001
ACAD_DSTYLE_DIMJOGGED_JOGANGLE_SYMBOL
1070
   384
1040
1.570796326794896
  0
DIMSTYLE
105
75
330
A
100
AcDbSymbolTableRecord
100
AcDbDimStyleTableRecord
  2
AM_DIN$SF
 70
     0
  4
"
 41
2.5
 42
1.0
 43
10.0
 44
1.0
 47
0.1
 48
0.1
 73
     0
 74
     0
 75
     1
 76
     1
 77
     1
 78
     8
 79
     2
140
3.5
141
0.0
143
0.0393701
146
0.71
147
1.5
172
     1
176
   256
177
   256
178
     2
271
     2
272
     3
274
     4
283
     0
284
     8
340
11
371
    -1
372
    -1
1001
ACAD_DSTYLE_DIMARC_LENGTH_SYMBOL
1070
   379
1070
     0
1001
ACAD_DSTYLE_DIMJOGGED_JOGANGLE_SYMBOL
1070
   384
1040
1.570796326794896
  0
DIMSTYLE
105
7A
330
A
100
AcDbSymbolTableRecord
100
AcDbDimStyleTableRecord
  2
AM_DIN$SH
 70
     0
  4
"
 41
2.5
 42
1.0
 43
10.0
 44
1.0
 47
0.1
 48
0.1
 73
     0
 74
     0
 75
     1
 76
     1
 77
     1
 78
     8
 79
     2
140
3.5
141
0.0
143
0.0393701
144
2.0
146
0.71
147
1.5
172
     1
173
     1
176
   256
177
   256
178
     2
271
     2
272
     3
274
     4
283
     0
284
     8
340
11
343
76
371
    -1
372
    -1
1001
ACAD_DSTYLE_DIMARC_LENGTH_SYMBOL
1070
   379
1070
     0
1001
ACAD_DSTYLE_DIMJOGGED_JOGANGLE_SYMBOL
1070
   384
1040
1.570796326794896
  0
DIMSTYLE
105
257
102
{ACAD_REACTORS
330
3FC
330
405
330
41C
330
41D
330
424
330
425
330
432
330
434
330
436
330
440
330
451
330
474
330
48C
330
48F
330
4A8
330
4AA
330
50A
330
50B
330
510
330
518
330
583
102
}
330
A
100
AcDbSymbolTableRecord
100
AcDbDimStyleTableRecord
  2
661N88102_001_0071688668
 70
     0
 40
2.0
 41
3.149999999999999
 42
0.0
 43
3.75
 44
2.0
 73
     0
 74
     0
 77
     1
 78
     8
 79
     2
140
3.5
141
0.0
143
0.03937007874016
145
2.0
147
2.0
171
     3
172
     1
173
     1
176
     3
177
     3
178
     2
179
     2
271
     2
272
     2
274
     3
279
     2
283
     0
284
     8
340
11
  0
DIMSTYLE
105
258
102
{ACAD_REACTORS
330
402
330
433
330
4A9
102
}
330
A
100
AcDbSymbolTableRecord
100
AcDbDimStyleTableRecord
  2
6613588102_001_0071688668
 70
     0
 40
2.0
 41
3.149999999999999
 42
0.0
 43
3.75
 44
2.0
 73
     0
 74
     0
 77
     1
 78
     8
 79
     2
140
3.5
141
0.0
143
0.03937007874016
145
2.0
146
0.6
147
2.0
171
     3
172
     1
173
     1
176
     3
177
     3
178
     2
179
     2
271
     2
272
     1
274
     3
279
     2
283
     0
284
     8
340
11
  0
DIMSTYLE
105
259
102
{ACAD_REACTORS
330
40A
330
490
102
}
330
A
100
AcDbSymbolTableRecord
100
AcDbDimStyleTableRecord
  2
6613488102_001_0071688668
 70
     0
 40
2.0
 41
3.149999999999999
 42
0.0
 43
3.75
 44
2.0
 73
     0
 74
     0
 77
     1
 78
     8
 79
     2
140
3.5
141
0.0
143
0.03937007874016
145
2.0
146
0.6
147
2.0
171
     3
172
     1
173
     1
176
     3
177
     3
178
     2
179
     2
271
     2
272
     1
274
     3
279
     2
283
     0
284
     8
340
11
  0
DIMSTYLE
105
25A
102
{ACAD_REACTORS
330
48B
102
}
330
A
100
AcDbSymbolTableRecord
100
AcDbDimStyleTableRecord
  2
6613688102_001_0071688668
 70
     0
 40
2.0
 41
3.149999999999999
 42
0.0
 43
3.75
 44
2.0
 73
     0
 74
     0
 77
     1
 78
     8
 79
     2
140
3.5
141
0.0
143
0.03937007874016
145
2.0
146
0.6
147
2.0
171
     3
172
     1
173
     1
176
     3
177
     3
178
     2
179
     2
271
     2
272
     1
274
     3
279
     2
283
     0
284
     8
340
11
  0
ENDTAB
  0
TABLE
  2
BLOCK_RECORD
  5
1
330
0
100
AcDbSymbolTable
 70
    73
  0
BLOCK_RECORD
  5
1F
102
{ACAD_XDICTIONARY
360
81
102
}
330
1
100
AcDbSymbolTableRecord
100
AcDbBlockTableRecord
  2
*Model_Space
340
22
  0
BLOCK_RECORD
  5
1B
330
1
100
AcDbSymbolTableRecord
100
AcDbBlockTableRecord
  2
*Paper_Space
340
1E
  0
BLOCK_RECORD
  5
23
330
1
100
AcDbSymbolTableRecord
100
AcDbBlockTableRecord
  2
*Paper_Space0
340
26
  0
BLOCK_RECORD
  5
76
330
1
100
AcDbSymbolTableRecord
100
AcDbBlockTableRecord
  2
GENAXEH
340
0
  0
BLOCK_RECORD
  5
590
330
1
100
AcDbSymbolTableRecord
100
AcDbBlockTableRecord
  2
*D38
340
0
  0
BLOCK_RECORD
  5
59D
330
1
100
AcDbSymbolTableRecord
100
AcDbBlockTableRecord
  2
*D39
340
0
  0
BLOCK_RECORD
  5
5A9
330
1
100
AcDbSymbolTableRecord
100
AcDbBlockTableRecord
  2
*D40
340
0
  0
BLOCK_RECORD
  5
5B3
330
1
100
AcDbSymbolTableRecord
100
AcDbBlockTableRecord
  2
*D41
340
0
  0
BLOCK_RECORD
  5
5DD
330
1
100
AcDbSymbolTableRecord
100
AcDbBlockTableRecord
  2
*D45
340
0
  0
BLOCK_RECORD
  5
5E9
330
1
100
AcDbSymbolTableRecord
100
AcDbBlockTableRecord
  2
*D46
340
0
  0
BLOCK_RECORD
  5
5F5
330
1
100
AcDbSymbolTableRecord
100
AcDbBlockTableRecord
  2
*D47
340
0
  0
BLOCK_RECORD
  5
603
330
1
100
AcDbSymbolTableRecord
100
AcDbBlockTableRecord
  2
*D48
340
0
  0
BLOCK_RECORD
  5
60F
330
1
100
AcDbSymbolTableRecord
100
AcDbBlockTableRecord
  2
*D49
340
0
  0
BLOCK_RECORD
  5
61D
330
1
100
AcDbSymbolTableRecord
100
AcDbBlockTableRecord
  2
*D50
340
0
  0
BLOCK_RECORD
  5
629
330
1
100
AcDbSymbolTableRecord
100
AcDbBlockTableRecord
  2
*D51
340
0
  0
BLOCK_RECORD
  5
636
330
1
100
AcDbSymbolTableRecord
100
AcDbBlockTableRecord
  2
*D52
340
0
  0
BLOCK_RECORD
  5
644
330
1
100
AcDbSymbolTableRecord
100
AcDbBlockTableRecord
  2
*D53
340
0
  0
BLOCK_RECORD
  5
650
330
1
100
AcDbSymbolTableRecord
100
AcDbBlockTableRecord
  2
*D54
340
0
  0
BLOCK_RECORD
  5
669
330
1
100
AcDbSymbolTableRecord
100
AcDbBlockTableRecord
  2
*D56
340
0
  0
BLOCK_RECORD
  5
691
330
1
100
AcDbSymbolTableRecord
100
AcDbBlockTableRecord
  2
*D59
340
0
  0
BLOCK_RECORD
  5
69D
330
1
100
AcDbSymbolTableRecord
100
AcDbBlockTableRecord
  2
*D60
340
0
  0
BLOCK_RECORD
  5
6AA
330
1
100
AcDbSymbolTableRecord
100
AcDbBlockTableRecord
  2
*D61
340
0
  0
BLOCK_RECORD
  5
6B4
330
1
100
AcDbSymbolTableRecord
100
AcDbBlockTableRecord
  2
*D62
340
0
  0
BLOCK_RECORD
  5
6C0
330
1
100
AcDbSymbolTableRecord
100
AcDbBlockTableRecord
  2
*D63
340
0
  0
BLOCK_RECORD
  5
6CD
330
1
100
AcDbSymbolTableRecord
100
AcDbBlockTableRecord
  2
*D64
340
0
  0
BLOCK_RECORD
  5
6D9
330
1
100
AcDbSymbolTableRecord
100
AcDbBlockTableRecord
  2
*D65
340
0
  0
BLOCK_RECORD
  5
6E5
330
1
100
AcDbSymbolTableRecord
100
AcDbBlockTableRecord
  2
*D66
340
0
  0
BLOCK_RECORD
  5
6F1
330
1
100
AcDbSymbolTableRecord
100
AcDbBlockTableRecord
  2
*D67
340
0
  0
BLOCK_RECORD
  5
6FD
330
1
100
AcDbSymbolTableRecord
100
AcDbBlockTableRecord
  2
*D68
340
0
  0
BLOCK_RECORD
  5
70B
330
1
100
AcDbSymbolTableRecord
100
AcDbBlockTableRecord
  2
*D69
340
0
  0
BLOCK_RECORD
  5
719
330
1
100
AcDbSymbolTableRecord
100
AcDbBlockTableRecord
  2
*D70
340
0
  0
ENDTAB
  0
ENDSEC
  0
SECTION
  2
BLOCKS
  0
BLOCK
  5
20
330
1F
100
AcDbEntity
  8
0
100
AcDbBlockBegin
  2
*Model_Space
 70
     0
 10
0.0
 20
0.0
 30
0.0
  3
*Model_Space
  1

  0
ENDBLK
  5
21
330
1F
100
AcDbEntity
  8
0
100
AcDbBlockEnd
  0
BLOCK
  5
1C
330
1B
100
AcDbEntity
 67
     1
  8
0
100
AcDbBlockBegin
  2
*Paper_Space
 70
     0
 10
0.0
 20
0.0
 30
0.0
  3
*Paper_Space
  1

  0
ENDBLK
  5
1D
330
1B
100
AcDbEntity
 67
     1
  8
0
100
AcDbBlockEnd
  0
BLOCK
  5
24
330
23
100
AcDbEntity
 67
     1
  8
0
100
AcDbBlockBegin
  2
*Paper_Space0
 70
     0
 10
0.0
 20
0.0
 30
0.0
  3
*Paper_Space0
  1

  0
ENDBLK
  5
25
330
23
100
AcDbEntity
 67
     1
  8
0
100
AcDbBlockEnd
  0
BLOCK
  5
78
330
76
100
AcDbEntity
  8
0
100
AcDbBlockBegin
  2
GENAXEH
 70
     0
 10
0.0
 20
0.0
 30
0.0
  3
GENAXEH
  1

  0
LINE
  5
77
330
76
100
AcDbEntity
  8
0
100
AcDbLine
 10
-1.0
 20
0.0
 30
0.0
 11
1.0
 21
0.0
 31
0.0
  0
ENDBLK
  5
79
330
76
100
AcDbEntity
  8
0
100
AcDbBlockEnd
  0
BLOCK
  5
59B
330
590
100
AcDbEntity
  8
0
100
AcDbBlockBegin
  2
*D38
 70
     1
 10
0.0
 20
0.0
 30
0.0
  3
*D38
  1

  0
LINE
  5
8F2
330
590
100
AcDbEntity
  8
P-0000
  6
Continuous
 62
     3
370
    -2
100
AcDbLine
 10
1113.082273293611
 20
929.1443434768831
 30
0.0
 11
1113.082273293611
 21
885.37457160684
 31
0.0
  0
LINE
  5
8F3
330
590
100
AcDbEntity
  8
P-0000
  6
Continuous
 62
     3
370
    -2
100
AcDbLine
 10
908.0822732936356
 20
929.1443434768831
 30
0.0
 11
908.0822732936356
 21
885.37457160684
 31
0.0
  0
LINE
  5
8F4
330
590
100
AcDbEntity
  8
P-0000
  6
Continuous
 62
     3
370
    -2
100
AcDbLine
 10
1106.782273293611
 20
889.37457160684
 30
0.0
 11
1017.420755945185
 21
889.37457160684
 31
0.0
  0
LINE
  5
8F5
330
590
100
AcDbEntity
  8
P-0000
  6
Continuous
 62
     3
370
    -2
100
AcDbLine
 10
914.3822732936357
 20
889.37457160684
 30
0.0
 11
996.3530505460116
 21
889.37457160684
 31
0.0
  0
MTEXT
  5
8F6
330
590
100
AcDbEntity
  8
P-0000
  6
Continuous
 62
     2
100
AcDbMText
 10
1006.886903245598
 20
896.8745716068401
 30
0.0
 40
7.0
 41
0.0
 71
     5
 72
     1
  1
205
 73
     1
 44
1.0
1001
ACAD
1000
MTEXTBEGIN
1070
    73
1070
     1
1070
    44
1040
1.0
1070
    74
1070
     0
1000
MTEXTEND
  0
SOLID
  5
8F7
330
590
100
AcDbEntity
  8
P-0000
  6
Continuous
 62
     3
100
AcDbTrace
 10
1106.782273293611
 20
890.42457160684
 30
0.0
 11
1106.782273293611
 21
888.3245716068401
 31
0.0
 12
1113.082273293611
 22
889.37457160684
 32
0.0
 13
1113.082273293611
 23
889.37457160684
 33
0.0
  0
SOLID
  5
8F8
330
590
100
AcDbEntity
  8
P-0000
  6
Continuous
 62
     3
100
AcDbTrace
 10
914.3822732936357
 20
890.42457160684
 30
0.0
 11
914.3822732936357
 21
888.3245716068401
 31
0.0
 12
908.0822732936356
 22
889.37457160684
 32
0.0
 13
908.0822732936356
 23
889.37457160684
 33
0.0
  0
POINT
  5
8F9
330
590
100
AcDbEntity
  8
Defpoints
  6
Continuous
 62
     0
100
AcDbPoint
 10
1113.082273293611
 20
929.1443434768831
 30
0.0
  0
POINT
  5
8FA
330
590
100
AcDbEntity
  8
Defpoints
  6
Continuous
 62
     0
100
AcDbPoint
 10
908.0822732936356
 20
929.1443434768831
 30
0.0
  0
POINT
  5
8FB
330
590
100
AcDbEntity
  8
Defpoints
  6
Continuous
 62
     0
100
AcDbPoint
 10
908.0822732936356
 20
889.37457160684
 30
0.0
  0
ENDBLK
  5
59C
330
590
100
AcDbEntity
  8
0
100
AcDbBlockEnd
  0
BLOCK
  5
5A7
330
59D
100
AcDbEntity
  8
0
100
AcDbBlockBegin
  2
*D39
 70
     1
 10
0.0
 20
0.0
 30
0.0
  3
*D39
  1

  0
LINE
  5
8FC
330
59D
100
AcDbEntity
  8
P-0000
  6
Continuous
 62
     3
370
    -2
100
AcDbLine
 10
920.5822732936233
 20
941.6443434768707
 30
0.0
 11
920.5822732936233
 21
904.1067521602689
 31
0.0
  0
LINE
  5
8FD
330
59D
100
AcDbEntity
  8
P-0000
  6
Continuous
 62
     3
370
    -2
100
AcDbLine
 10
1100.582273293623
 20
941.6443434768707
 30
0.0
 11
1100.582273293623
 21
904.1067521602689
 31
0.0
  0
LINE
  5
8FE
330
59D
100
AcDbEntity
  8
P-0000
  6
Continuous
 62
     3
370
    -2
100
AcDbLine
 10
926.8822732936232
 20
908.106752160269
 30
0.0
 11
1094.282273293623
 21
908.106752160269
 31
0.0
  0
MTEXT
  5
8FF
330
59D
100
AcDbEntity
  8
P-0000
  6
Continuous
 62
     2
100
AcDbMText
 10
1009.470652287451
 20
917.881752160269
 30
0.0
 40
7.0
 41
0.0
 71
     5
 72
     1
  1
180{}{\H0.60x;\C3;\S+0.5^ ;}
 73
     1
 44
1.0
1001
ACAD
1000
MTEXTBEGIN
1070
    73
1070
     1
1070
    44
1040
1.0
1070
    74
1070
     0
1000
MTEXTEND
  0
SOLID
  5
900
330
59D
100
AcDbEntity
  8
P-0000
  6
Continuous
 62
     3
100
AcDbTrace
 10
926.8822732936232
 20
909.1567521602689
 30
0.0
 11
926.8822732936232
 21
907.056752160269
 31
0.0
 12
920.5822732936233
 22
908.106752160269
 32
0.0
 13
920.5822732936233
 23
908.106752160269
 33
0.0
  0
SOLID
  5
901
330
59D
100
AcDbEntity
  8
P-0000
  6
Continuous
 62
     3
100
AcDbTrace
 10
1094.282273293623
 20
909.1567521602689
 30
0.0
 11
1094.282273293623
 21
907.056752160269
 31
0.0
 12
1100.582273293623
 22
908.106752160269
 32
0.0
 13
1100.582273293623
 23
908.106752160269
 33
0.0
  0
POINT
  5
902
330
59D
100
AcDbEntity
  8
Defpoints
  6
Continuous
 62
     0
100
AcDbPoint
 10
920.5822732936233
 20
941.6443434768707
 30
0.0
  0
POINT
  5
903
330
59D
100
AcDbEntity
  8
Defpoints
  6
Continuous
 62
     0
100
AcDbPoint
 10
1100.582273293623
 20
941.6443434768707
 30
0.0
  0
POINT
  5
904
330
59D
100
AcDbEntity
  8
Defpoints
  6
Continuous
 62
     0
100
AcDbPoint
 10
1100.582273293623
 20
908.106752160269
 30
0.0
  0
ENDBLK
  5
5A8
330
59D
100
AcDbEntity
  8
0
100
AcDbBlockEnd
  0
BLOCK
  5
5B1
330
5A9
100
AcDbEntity
  8
0
100
AcDbBlockBegin
  2
*D40
 70
     1
 10
0.0
 20
0.0
 30
0.0
  3
*D40
  1

  0
LINE
  5
905
330
5A9
100
AcDbEntity
  8
P-0000
  6
Continuous
 62
     3
370
    -2
100
AcDbLine
 10
948.0176952915947
 20
1066.675530028912
 30
0.0
 11
973.8729711596386
 21
1052.198632378318
 31
0.0
  0
LINE
  5
906
330
5A9
100
AcDbEntity
  8
P-0000
  6
Continuous
 62
     3
370
    -2
100
AcDbLine
 10
1073.146851295652
 20
996.6131569248293
 30
0.0
 11
996.4256119301102
 21
1039.570947651572
 31
0.0
  0
MTEXT
  5
907
330
5A9
100
AcDbEntity
  8
P-0000
  6
Continuous
 62
     2
100
AcDbMText
 10
985.6520632185684
 20
1046.782724132858
 30
0.0
 40
7.0
 41
0.0
 71
     5
 72
     1
  1
%%c156
 11
0.8725356052671386
 21
-0.4885505271116878
 31
0.0
 73
     1
 44
1.0
1001
ACAD
1000
MTEXTBEGIN
1070
    73
1070
     1
1070
    44
1040
1.0
1070
    74
1070
     0
1000
MTEXTEND
  0
SOLID
  5
908
330
5A9
100
AcDbEntity
  8
P-0000
  6
Continuous
 62
     3
100
AcDbTrace
 10
948.5306733450618
 20
1067.591692414442
 30
0.0
 11
947.5047172381275
 21
1065.759367643381
 31
0.0
 12
942.5207209784117
 22
1069.753398349715
 32
0.0
 13
942.5207209784117
 23
1069.753398349715
 33
0.0
  0
SOLID
  5
909
330
5A9
100
AcDbEntity
  8
P-0000
  6
Continuous
 62
     3
100
AcDbTrace
 10
1073.659829349119
 20
997.5293193103597
 30
0.0
 11
1072.633873242184
 21
995.6969945392989
 31
0.0
 12
1078.643825608835
 22
993.5352886040258
 32
0.0
 13
1078.643825608835
 23
993.5352886040258
 33
0.0
  0
POINT
  5
90A
330
5A9
100
AcDbEntity
  8
Defpoints
  6
Continuous
 62
     0
100
AcDbPoint
 10
1078.643825608835
 20
993.5352886040258
 30
0.0
  0
POINT
  5
90B
330
5A9
100
AcDbEntity
  8
Defpoints
  6
Continuous
 62
     0
100
AcDbPoint
 10
942.5207209784117
 20
1069.753398349715
 30
0.0
  0
ENDBLK
  5
5B2
330
5A9
100
AcDbEntity
  8
0
100
AcDbBlockEnd
  0
BLOCK
  5
5BD
330
5B3
100
AcDbEntity
  8
0
100
AcDbBlockBegin
  2
*D41
 70
     1
 10
0.0
 20
0.0
 30
0.0
  3
*D41
  1

  0
LINE
  5
90C
330
5B3
100
AcDbEntity
  8
P-0000
  6
Continuous
 62
     3
370
    -2
100
AcDbLine
 10
944.082273293624
 20
1221.275547526096
 30
0.0
 11
944.082273293624
 21
1183.797585940787
 31
0.0
  0
LINE
  5
90D
330
5B3
100
AcDbEntity
  8
P-0000
  6
Continuous
 62
     3
370
    -2
100
AcDbLine
 10
1077.082273293623
 20
1221.275547526096
 30
0.0
 11
1077.082273293623
 21
1183.797585940787
 31
0.0
  0
LINE
  5
90E
330
5B3
100
AcDbEntity
  8
P-0000
  6
Continuous
 62
     3
370
    -2
100
AcDbLine
 10
950.3822732936239
 20
1187.797585940788
 30
0.0
 11
1070.782273293623
 21
1187.797585940788
 31
0.0
  0
MTEXT
  5
90F
330
5B3
100
AcDbEntity
  8
P-0000
  6
Continuous
 62
     2
100
AcDbMText
 10
1010.582273293623
 20
1197.572585940788
 30
0.0
 40
7.0
 41
0.0
 71
     5
 72
     1
  1
%%c133{}{\H0.60x;\C3;\S+0.3^ ;}
 73
     1
 44
1.0
1001
ACAD
1000
MTEXTBEGIN
1070
    73
1070
     1
1070
    44
1040
1.0
1070
    74
1070
     0
1000
MTEXTEND
  0
SOLID
  5
910
330
5B3
100
AcDbEntity
  8
P-0000
  6
Continuous
 62
     3
100
AcDbTrace
 10
950.3822732936239
 20
1188.847585940787
 30
0.0
 11
950.3822732936239
 21
1186.747585940787
 31
0.0
 12
944.082273293624
 22
1187.797585940788
 32
0.0
 13
944.082273293624
 23
1187.797585940788
 33
0.0
  0
SOLID
  5
911
330
5B3
100
AcDbEntity
  8
P-0000
  6
Continuous
 62
     3
100
AcDbTrace
 10
1070.782273293623
 20
1188.847585940787
 30
0.0
 11
1070.782273293623
 21
1186.747585940787
 31
0.0
 12
1077.082273293623
 22
1187.797585940788
 32
0.0
 13
1077.082273293623
 23
1187.797585940788
 33
0.0
  0
POINT
  5
912
330
5B3
100
AcDbEntity
  8
Defpoints
  6
Continuous
 62
     0
100
AcDbPoint
 10
944.082273293624
 20
1221.275547526096
 30
0.0
  0
POINT
  5
913
330
5B3
100
AcDbEntity
  8
Defpoints
  6
Continuous
 62
     0
100
AcDbPoint
 10
1077.082273293623
 20
1221.275547526096
 30
0.0
  0
POINT
  5
914
330
5B3
100
AcDbEntity
  8
Defpoints
  6
Continuous
 62
     0
100
AcDbPoint
 10
1077.082273293623
 20
1187.797585940788
 30
0.0
  0
ENDBLK
  5
5BE
330
5B3
100
AcDbEntity
  8
0
100
AcDbBlockEnd
  0
BLOCK
  5
5E7
330
5DD
100
AcDbEntity
  8
0
100
AcDbBlockBegin
  2
*D45
 70
     1
 10
0.0
 20
0.0
 30
0.0
  3
*D45
  1

  0
LINE
  5
915
330
5DD
100
AcDbEntity
  8
P-0000
  6
Continuous
 62
     3
370
    -2
100
AcDbLine
 10
917.7246616365195
 20
1366.275547526096
 30
0.0
 11
825.1919683996383
 21
1366.275547526096
 31
0.0
  0
LINE
  5
916
330
5DD
100
AcDbEntity
  8
P-0000
  6
Continuous
 62
     3
370
    -2
100
AcDbLine
 10
920.5822732936233
 20
1216.275547526096
 30
0.0
 11
825.1919683996383
 21
1216.275547526096
 31
0.0
  0
LINE
  5
917
330
5DD
100
AcDbEntity
  8
P-0000
  6
Continuous
 62
     3
370
    -2
100
AcDbLine
 10
829.1919683996384
 20
1359.975547526096
 30
0.0
 11
829.1919683996383
 21
1222.575547526096
 31
0.0
  0
MTEXT
  5
918
330
5DD
100
AcDbEntity
  8
P-0000
  6
Continuous
 62
     2
100
AcDbMText
 10
836.6919683996382
 20
1291.275547526096
 30
0.0
 40
7.0
 41
0.0
 71
     5
 72
     1
  1
150
 11
0.0000000000000001
 21
1.0
 31
0.0
 73
     1
 44
1.0
1001
ACAD
1000
MTEXTBEGIN
1070
    73
1070
     1
1070
    44
1040
1.0
1070
    74
1070
     0
1000
MTEXTEND
  0
SOLID
  5
919
330
5DD
100
AcDbEntity
  8
P-0000
  6
Continuous
 62
     3
100
AcDbTrace
 10
828.1419683996384
 20
1359.975547526096
 30
0.0
 11
830.2419683996383
 21
1359.975547526096
 31
0.0
 12
829.1919683996384
 22
1366.275547526096
 32
0.0
 13
829.1919683996384
 23
1366.275547526096
 33
0.0
  0
SOLID
  5
91A
330
5DD
100
AcDbEntity
  8
P-0000
  6
Continuous
 62
     3
100
AcDbTrace
 10
828.1419683996384
 20
1222.575547526096
 30
0.0
 11
830.2419683996383
 21
1222.575547526096
 31
0.0
 12
829.1919683996383
 22
1216.275547526096
 32
0.0
 13
829.1919683996383
 23
1216.275547526096
 33
0.0
  0
POINT
  5
91B
330
5DD
100
AcDbEntity
  8
Defpoints
  6
Continuous
 62
     0
100
AcDbPoint
 10
917.7246616365195
 20
1366.275547526096
 30
0.0
  0
POINT
  5
91C
330
5DD
100
AcDbEntity
  8
Defpoints
  6
Continuous
 62
     0
100
AcDbPoint
 10
920.5822732936233
 20
1216.275547526096
 30
0.0
  0
POINT
  5
91D
330
5DD
100
AcDbEntity
  8
Defpoints
  6
Continuous
 62
     0
100
AcDbPoint
 10
829.1919683996383
 20
1216.275547526096
 30
0.0
  0
ENDBLK
  5
5E8
330
5DD
100
AcDbEntity
  8
0
100
AcDbBlockEnd
  0
BLOCK
  5
5F3
330
5E9
100
AcDbEntity
  8
0
100
AcDbBlockBegin
  2
*D46
 70
     1
 10
0.0
 20
0.0
 30
0.0
  3
*D46
  1

  0
LINE
  5
91E
330
5E9
100
AcDbEntity
  8
P-0000
  6
Continuous
 62
     3
370
    -2
100
AcDbLine
 10
926.5822732936229
 20
1366.275547526093
 30
0.0
 11
847.1538352553833
 21
1366.275547526093
 31
0.0
  0
LINE
  5
91F
330
5E9
100
AcDbEntity
  8
P-0000
  6
Continuous
 62
     3
370
    -2
100
AcDbLine
 10
938.0822732936232
 20
1228.275547526096
 30
0.0
 11
847.1538352553833
 21
1228.275547526096
 31
0.0
  0
LINE
  5
920
330
5E9
100
AcDbEntity
  8
P-0000
  6
Continuous
 62
     3
370
    -2
100
AcDbLine
 10
851.1538352553834
 20
1359.975547526093
 30
0.0
 11
851.1538352553833
 21
1234.575547526096
 31
0.0
  0
MTEXT
  5
921
330
5E9
100
AcDbEntity
  8
P-0000
  6
Continuous
 62
     2
100
AcDbMText
 10
858.6538352553834
 20
1301.597447228905
 30
0.0
 40
7.0
 41
0.0
 71
     5
 72
     1
  1
138
 11
0.0000000000000001
 21
1.0
 31
0.0
 73
     1
 44
1.0
1001
ACAD
1000
MTEXTBEGIN
1070
    73
1070
     1
1070
    44
1040
1.0
1070
    74
1070
     0
1000
MTEXTEND
  0
SOLID
  5
922
330
5E9
100
AcDbEntity
  8
P-0000
  6
Continuous
 62
     3
100
AcDbTrace
 10
850.1038352553834
 20
1359.975547526093
 30
0.0
 11
852.2038352553833
 21
1359.975547526093
 31
0.0
 12
851.1538352553834
 22
1366.275547526093
 32
0.0
 13
851.1538352553834
 23
1366.275547526093
 33
0.0
  0
SOLID
  5
923
330
5E9
100
AcDbEntity
  8
P-0000
  6
Continuous
 62
     3
100
AcDbTrace
 10
850.1038352553834
 20
1234.575547526096
 30
0.0
 11
852.2038352553833
 21
1234.575547526096
 31
0.0
 12
851.1538352553833
 22
1228.275547526096
 32
0.0
 13
851.1538352553833
 23
1228.275547526096
 33
0.0
  0
POINT
  5
924
330
5E9
100
AcDbEntity
  8
Defpoints
  6
Continuous
 62
     0
100
AcDbPoint
 10
926.5822732936229
 20
1366.275547526093
 30
0.0
  0
POINT
  5
925
330
5E9
100
AcDbEntity
  8
Defpoints
  6
Continuous
 62
     0
100
AcDbPoint
 10
938.0822732936232
 20
1228.275547526096
 30
0.0
  0
POINT
  5
926
330
5E9
100
AcDbEntity
  8
Defpoints
  6
Continuous
 62
     0
100
AcDbPoint
 10
851.1538352553833
 20
1228.275547526096
 30
0.0
  0
ENDBLK
  5
5F4
330
5E9
100
AcDbEntity
  8
0
100
AcDbBlockEnd
  0
BLOCK
  5
601
330
5F5
100
AcDbEntity
  8
0
100
AcDbBlockBegin
  2
*D47
 70
     1
 10
0.0
 20
0.0
 30
0.0
  3
*D47
  1

  0
LINE
  5
927
330
5F5
100
AcDbEntity
  8
P-0000
  6
Continuous
 62
     3
370
    -2
100
AcDbLine
 10
926.5822732936229
 20
1366.275547526093
 30
0.0
 11
876.8669492366854
 21
1366.275547526093
 31
0.0
  0
LINE
  5
928
330
5F5
100
AcDbEntity
  8
P-0000
  6
Continuous
 62
     3
370
    -2
100
AcDbLine
 10
930.582273293621
 20
1344.275547526097
 30
0.0
 11
876.8669492366854
 21
1344.275547526097
 31
0.0
  0
LINE
  5
929
330
5F5
100
AcDbEntity
  8
P-0000
  6
Continuous
 62
     3
370
    -2
100
AcDbLine
 10
880.8669492366854
 20
1372.575547526093
 30
0.0
 11
880.8669492366854
 21
1378.875547526092
 31
0.0
  0
LINE
  5
92A
330
5F5
100
AcDbEntity
  8
P-0000
  6
Continuous
 62
     3
370
    -2
100
AcDbLine
 10
880.8669492366854
 20
1337.975547526097
 30
0.0
 11
880.8669492366854
 21
1331.675547526097
 31
0.0
  0
MTEXT
  5
92B
330
5F5
100
AcDbEntity
  8
P-0000
  6
Continuous
 62
     2
100
AcDbMText
 10
888.3669492366854
 20
1353.918365326415
 30
0.0
 40
7.0
 41
0.0
 71
     5
 72
     1
  1
22
 11
0.0000000000000001
 21
1.0
 31
0.0
 73
     1
 44
1.0
1001
ACAD
1000
MTEXTBEGIN
1070
    73
1070
     1
1070
    44
1040
1.0
1070
    74
1070
     0
1000
MTEXTEND
  0
LINE
  5
92C
330
5F5
100
AcDbEntity
  8
P-0000
  6
Continuous
 62
     3
370
    -2
100
AcDbLine
 10
880.8669492366854
 20
1366.275547526093
 30
0.0
 11
880.8669492366854
 21
1344.275547526097
 31
0.0
  0
SOLID
  5
92D
330
5F5
100
AcDbEntity
  8
P-0000
  6
Continuous
 62
     3
100
AcDbTrace
 10
879.8169492366854
 20
1372.575547526093
 30
0.0
 11
881.9169492366853
 21
1372.575547526093
 31
0.0
 12
880.8669492366854
 22
1366.275547526093
 32
0.0
 13
880.8669492366854
 23
1366.275547526093
 33
0.0
  0
SOLID
  5
92E
330
5F5
100
AcDbEntity
  8
P-0000
  6
Continuous
 62
     3
100
AcDbTrace
 10
879.8169492366854
 20
1337.975547526097
 30
0.0
 11
881.9169492366853
 21
1337.975547526097
 31
0.0
 12
880.8669492366854
 22
1344.275547526097
 32
0.0
 13
880.8669492366854
 23
1344.275547526097
 33
0.0
  0
POINT
  5
92F
330
5F5
100
AcDbEntity
  8
Defpoints
  6
Continuous
 62
     0
100
AcDbPoint
 10
926.5822732936229
 20
1366.275547526093
 30
0.0
  0
POINT
  5
930
330
5F5
100
AcDbEntity
  8
Defpoints
  6
Continuous
 62
     0
100
AcDbPoint
 10
930.582273293621
 20
1344.275547526097
 30
0.0
  0
POINT
  5
931
330
5F5
100
AcDbEntity
  8
Defpoints
  6
Continuous
 62
     0
100
AcDbPoint
 10
880.8669492366854
 20
1344.275547526097
 30
0.0
  0
ENDBLK
  5
602
330
5F5
100
AcDbEntity
  8
0
100
AcDbBlockEnd
  0
BLOCK
  5
60D
330
603
100
AcDbEntity
  8
0
100
AcDbBlockBegin
  2
*D48
 70
     1
 10
0.0
 20
0.0
 30
0.0
  3
*D48
  1

  0
LINE
  5
932
330
603
100
AcDbEntity
  8
P-0000
  6
Continuous
 62
     3
370
    -2
100
AcDbLine
 10
926.5822732936229
 20
1366.275547526093
 30
0.0
 11
860.7185177251082
 21
1366.275547526093
 31
0.0
  0
LINE
  5
933
330
603
100
AcDbEntity
  8
P-0000
  6
Continuous
 62
     3
370
    -2
100
AcDbLine
 10
930.582273293621
 20
1319.275547526093
 30
0.0
 11
860.7185177251082
 21
1319.275547526093
 31
0.0
  0
LINE
  5
934
330
603
100
AcDbEntity
  8
P-0000
  6
Continuous
 62
     3
370
    -2
100
AcDbLine
 10
864.7185177251083
 20
1359.975547526093
 30
0.0
 11
864.7185177251083
 21
1325.575547526093
 31
0.0
  0
MTEXT
  5
935
330
603
100
AcDbEntity
  8
P-0000
  6
Continuous
 62
     2
100
AcDbMText
 10
872.2185177251082
 20
1342.775547526093
 30
0.0
 40
7.0
 41
0.0
 71
     5
 72
     1
  1
47
 11
0.0000000000000001
 21
1.0
 31
0.0
 73
     1
 44
1.0
1001
ACAD
1000
MTEXTBEGIN
1070
    73
1070
     1
1070
    44
1040
1.0
1070
    74
1070
     0
1000
MTEXTEND
  0
SOLID
  5
936
330
603
100
AcDbEntity
  8
P-0000
  6
Continuous
 62
     3
100
AcDbTrace
 10
863.6685177251083
 20
1359.975547526093
 30
0.0
 11
865.7685177251082
 21
1359.975547526093
 31
0.0
 12
864.7185177251083
 22
1366.275547526093
 32
0.0
 13
864.7185177251083
 23
1366.275547526093
 33
0.0
  0
SOLID
  5
937
330
603
100
AcDbEntity
  8
P-0000
  6
Continuous
 62
     3
100
AcDbTrace
 10
863.6685177251083
 20
1325.575547526093
 30
0.0
 11
865.7685177251082
 21
1325.575547526093
 31
0.0
 12
864.7185177251083
 22
1319.275547526093
 32
0.0
 13
864.7185177251083
 23
1319.275547526093
 33
0.0
  0
POINT
  5
938
330
603
100
AcDbEntity
  8
Defpoints
  6
Continuous
 62
     0
100
AcDbPoint
 10
926.5822732936229
 20
1366.275547526093
 30
0.0
  0
POINT
  5
939
330
603
100
AcDbEntity
  8
Defpoints
  6
Continuous
 62
     0
100
AcDbPoint
 10
930.582273293621
 20
1319.275547526093
 30
0.0
  0
POINT
  5
93A
330
603
100
AcDbEntity
  8
Defpoints
  6
Continuous
 62
     0
100
AcDbPoint
 10
864.7185177251083
 20
1319.275547526093
 30
0.0
  0
ENDBLK
  5
60E
330
603
100
AcDbEntity
  8
0
100
AcDbBlockEnd
  0
BLOCK
  5
61B
330
60F
100
AcDbEntity
  8
0
100
AcDbBlockBegin
  2
*D49
 70
     1
 10
0.0
 20
0.0
 30
0.0
  3
*D49
  1

  0
LINE
  5
93B
330
60F
100
AcDbEntity
  8
P-0000
  6
Continuous
 62
     3
370
    -2
100
AcDbLine
 10
915.0822732936358
 20
1081.64434347687
 30
0.0
 11
915.0822732936358
 21
1164.089857326603
 31
0.0
  0
LINE
  5
93C
330
60F
100
AcDbEntity
  8
P-0000
  6
Continuous
 62
     3
370
    -2
100
AcDbLine
 10
908.0822732936358
 20
1081.64434347687
 30
0.0
 11
908.0822732936358
 21
1164.089857326603
 31
0.0
  0
LINE
  5
93D
330
60F
100
AcDbEntity
  8
P-0000
  6
Continuous
 62
     3
370
    -2
100
AcDbLine
 10
921.3822732936357
 20
1160.089857326603
 30
0.0
 11
927.6822732936357
 21
1160.089857326603
 31
0.0
  0
LINE
  5
93E
330
60F
100
AcDbEntity
  8
P-0000
  6
Continuous
 62
     3
370
    -2
100
AcDbLine
 10
901.7822732936359
 20
1160.089857326603
 30
0.0
 11
895.4822732936358
 21
1160.089857326603
 31
0.0
  0
MTEXT
  5
93F
330
60F
100
AcDbEntity
  8
P-0000
  6
Continuous
 62
     2
100
AcDbMText
 10
915.0822732936358
 20
1167.589857326603
 30
0.0
 40
7.0
 41
0.0
 71
     5
 72
     1
  1
7
 73
     1
 44
1.0
1001
ACAD
1000
MTEXTBEGIN
1070
    73
1070
     1
1070
    44
1040
1.0
1070
    74
1070
     0
1000
MTEXTEND
  0
LINE
  5
940
330
60F
100
AcDbEntity
  8
P-0000
  6
Continuous
 62
     3
370
    -2
100
AcDbLine
 10
915.0822732936358
 20
1160.089857326603
 30
0.0
 11
908.0822732936358
 21
1160.089857326603
 31
0.0
  0
SOLID
  5
941
330
60F
100
AcDbEntity
  8
P-0000
  6
Continuous
 62
     3
100
AcDbTrace
 10
921.3822732936357
 20
1161.139857326603
 30
0.0
 11
921.3822732936357
 21
1159.039857326603
 31
0.0
 12
915.0822732936358
 22
1160.089857326603
 32
0.0
 13
915.0822732936358
 23
1160.089857326603
 33
0.0
  0
SOLID
  5
942
330
60F
100
AcDbEntity
  8
P-0000
  6
Continuous
 62
     3
100
AcDbTrace
 10
901.7822732936359
 20
1161.139857326603
 30
0.0
 11
901.7822732936359
 21
1159.039857326603
 31
0.0
 12
908.0822732936358
 22
1160.089857326603
 32
0.0
 13
908.0822732936358
 23
1160.089857326603
 33
0.0
  0
POINT
  5
943
330
60F
100
AcDbEntity
  8
Defpoints
  6
Continuous
 62
     0
100
AcDbPoint
 10
915.0822732936358
 20
1081.64434347687
 30
0.0
  0
POINT
  5
944
330
60F
100
AcDbEntity
  8
Defpoints
  6
Continuous
 62
     0
100
AcDbPoint
 10
908.0822732936358
 20
1081.64434347687
 30
0.0
  0
POINT
  5
945
330
60F
100
AcDbEntity
  8
Defpoints
  6
Continuous
 62
     0
100
AcDbPoint
 10
908.0822732936358
 20
1160.089857326603
 30
0.0
  0
ENDBLK
  5
61C
330
60F
100
AcDbEntity
  8
0
100
AcDbBlockEnd
  0
BLOCK
  5
627
330
61D
100
AcDbEntity
  8
0
100
AcDbBlockBegin
  2
*D50
 70
     1
 10
0.0
 20
0.0
 30
0.0
  3
*D50
  1

  0
LINE
  5
946
330
61D
100
AcDbEntity
  8
P-0000
  6
Continuous
 62
     3
370
    -2
100
AcDbLine
 10
920.5822732936233
 20
1121.644343476871
 30
0.0
 11
865.8384584522643
 21
1121.644343476871
 31
0.0
  0
LINE
  5
947
330
61D
100
AcDbEntity
  8
P-0000
  6
Continuous
 62
     3
370
    -2
100
AcDbLine
 10
920.5822732936233
 20
941.6443434768707
 30
0.0
 11
865.8384584522643
 21
941.6443434768707
 31
0.0
  0
LINE
  5
948
330
61D
100
AcDbEntity
  8
P-0000
  6
Continuous
 62
     3
370
    -2
100
AcDbLine
 10
869.8384584522644
 20
1115.344343476871
 30
0.0
 11
869.8384584522644
 21
947.9443434768706
 31
0.0
  0
MTEXT
  5
949
330
61D
100
AcDbEntity
  8
P-0000
  6
Continuous
 62
     2
100
AcDbMText
 10
879.6134584522643
 20
1029.311975312535
 30
0.0
 40
7.0
 41
0.0
 71
     5
 72
     1
  1
180{}{\H0.60x;\C3;\S+0.5^ ;}
 11
0.0000000000000001
 21
1.0
 31
0.0
 73
     1
 44
1.0
1001
ACAD
1000
MTEXTBEGIN
1070
    73
1070
     1
1070
    44
1040
1.0
1070
    74
1070
     0
1000
MTEXTEND
  0
SOLID
  5
94A
330
61D
100
AcDbEntity
  8
P-0000
  6
Continuous
 62
     3
100
AcDbTrace
 10
868.7884584522644
 20
1115.344343476871
 30
0.0
 11
870.8884584522643
 21
1115.344343476871
 31
0.0
 12
869.8384584522644
 22
1121.644343476871
 32
0.0
 13
869.8384584522644
 23
1121.644343476871
 33
0.0
  0
SOLID
  5
94B
330
61D
100
AcDbEntity
  8
P-0000
  6
Continuous
 62
     3
100
AcDbTrace
 10
868.7884584522644
 20
947.9443434768706
 30
0.0
 11
870.8884584522643
 21
947.9443434768706
 31
0.0
 12
869.8384584522644
 22
941.6443434768707
 32
0.0
 13
869.8384584522644
 23
941.6443434768707
 33
0.0
  0
POINT
  5
94C
330
61D
100
AcDbEntity
  8
Defpoints
  6
Continuous
 62
     0
100
AcDbPoint
 10
920.5822732936233
 20
1121.644343476871
 30
0.0
  0
POINT
  5
94D
330
61D
100
AcDbEntity
  8
Defpoints
  6
Continuous
 62
     0
100
AcDbPoint
 10
920.5822732936233
 20
941.6443434768707
 30
0.0
  0
POINT
  5
94E
330
61D
100
AcDbEntity
  8
Defpoints
  6
Continuous
 62
     0
100
AcDbPoint
 10
869.8384584522644
 20
941.6443434768707
 30
0.0
  0
ENDBLK
  5
628
330
61D
100
AcDbEntity
  8
0
100
AcDbBlockEnd
  0
BLOCK
  5
634
330
629
100
AcDbEntity
  8
0
100
AcDbBlockBegin
  2
*D51
 70
     1
 10
0.0
 20
0.0
 30
0.0
  3
*D51
  1

  0
LINE
  5
94F
330
629
100
AcDbEntity
  8
P-0000
  6
Continuous
 62
     3
370
    -2
100
AcDbLine
 10
908.0822732936356
 20
929.1443434768831
 30
0.0
 11
847.6763641855622
 21
929.1443434768831
 31
0.0
  0
LINE
  5
950
330
629
100
AcDbEntity
  8
P-0000
  6
Continuous
 62
     3
370
    -2
100
AcDbLine
 10
908.0822732936358
 20
1134.144343476858
 30
0.0
 11
847.6763641855622
 21
1134.144343476858
 31
0.0
  0
LINE
  5
951
330
629
100
AcDbEntity
  8
P-0000
  6
Continuous
 62
     3
370
    -2
100
AcDbLine
 10
851.6763641855623
 20
935.444343476883
 30
0.0
 11
851.6763641855623
 21
1019.297039591996
 31
0.0
  0
LINE
  5
952
330
629
100
AcDbEntity
  8
P-0000
  6
Continuous
 62
     3
370
    -2
100
AcDbLine
 10
851.6763641855623
 20
1127.844343476858
 30
0.0
 11
851.6763641855623
 21
1040.364744991169
 31
0.0
  0
MTEXT
  5
953
330
629
100
AcDbEntity
  8
P-0000
  6
Continuous
 62
     2
100
AcDbMText
 10
859.1763641855623
 20
1029.830892291583
 30
0.0
 40
7.0
 41
0.0
 71
     5
 72
     1
  1
205
 11
0.0000000000000001
 21
1.0
 31
0.0
 73
     1
 44
1.0
1001
ACAD
1000
MTEXTBEGIN
1070
    73
1070
     1
1070
    44
1040
1.0
1070
    74
1070
     0
1000
MTEXTEND
  0
SOLID
  5
954
330
629
100
AcDbEntity
  8
P-0000
  6
Continuous
 62
     3
100
AcDbTrace
 10
850.6263641855623
 20
935.444343476883
 30
0.0
 11
852.7263641855622
 21
935.444343476883
 31
0.0
 12
851.6763641855623
 22
929.1443434768831
 32
0.0
 13
851.6763641855623
 23
929.1443434768831
 33
0.0
  0
SOLID
  5
955
330
629
100
AcDbEntity
  8
P-0000
  6
Continuous
 62
     3
100
AcDbTrace
 10
850.6263641855623
 20
1127.844343476858
 30
0.0
 11
852.7263641855622
 21
1127.844343476858
 31
0.0
 12
851.6763641855623
 22
1134.144343476858
 32
0.0
 13
851.6763641855623
 23
1134.144343476858
 33
0.0
  0
POINT
  5
956
330
629
100
AcDbEntity
  8
Defpoints
  6
Continuous
 62
     0
100
AcDbPoint
 10
908.0822732936356
 20
929.1443434768831
 30
0.0
  0
POINT
  5
957
330
629
100
AcDbEntity
  8
Defpoints
  6
Continuous
 62
     0
100
AcDbPoint
 10
908.0822732936358
 20
1134.144343476858
 30
0.0
  0
POINT
  5
958
330
629
100
AcDbEntity
  8
Defpoints
  6
Continuous
 62
     0
100
AcDbPoint
 10
851.6763641855623
 20
1134.144343476858
 30
0.0
  0
ENDBLK
  5
635
330
629
100
AcDbEntity
  8
0
100
AcDbBlockEnd
  0
BLOCK
  5
642
330
636
100
AcDbEntity
  8
0
100
AcDbBlockBegin
  2
*D52
 70
     1
 10
0.0
 20
0.0
 30
0.0
  3
*D52
  1

  0
LINE
  5
959
330
636
100
AcDbEntity
  8
P-0000
  6
Continuous
 62
     3
370
    -2
100
AcDbLine
 10
920.5822732936233
 20
1216.275547526096
 30
0.0
 11
873.6372629343692
 21
1216.275547526096
 31
0.0
  0
LINE
  5
95A
330
636
100
AcDbEntity
  8
P-0000
  6
Continuous
 62
     3
370
    -2
100
AcDbLine
 10
920.5822732936233
 20
1221.275547526096
 30
0.0
 11
873.6372629343692
 21
1221.275547526096
 31
0.0
  0
LINE
  5
95B
330
636
100
AcDbEntity
  8
P-0000
  6
Continuous
 62
     3
370
    -2
100
AcDbLine
 10
877.6372629343693
 20
1209.975547526096
 30
0.0
 11
877.6372629343693
 21
1203.675547526096
 31
0.0
  0
LINE
  5
95C
330
636
100
AcDbEntity
  8
P-0000
  6
Continuous
 62
     3
370
    -2
100
AcDbLine
 10
877.6372629343693
 20
1227.575547526096
 30
0.0
 11
877.6372629343693
 21
1233.875547526096
 31
0.0
  0
MTEXT
  5
95D
330
636
100
AcDbEntity
  8
P-0000
  6
Continuous
 62
     2
100
AcDbMText
 10
885.1372629343693
 20
1206.644669940831
 30
0.0
 40
7.0
 41
0.0
 71
     5
 72
     1
  1
5
 11
0.0000000000000001
 21
1.0
 31
0.0
 73
     1
 44
1.0
1001
ACAD
1000
MTEXTBEGIN
1070
    73
1070
     1
1070
    44
1040
1.0
1070
    74
1070
     0
1000
MTEXTEND
  0
LINE
  5
95E
330
636
100
AcDbEntity
  8
P-0000
  6
Continuous
 62
     3
370
    -2
100
AcDbLine
 10
877.6372629343693
 20
1216.275547526096
 30
0.0
 11
877.6372629343693
 21
1221.275547526096
 31
0.0
  0
SOLID
  5
95F
330
636
100
AcDbEntity
  8
P-0000
  6
Continuous
 62
     3
100
AcDbTrace
 10
876.5872629343693
 20
1209.975547526096
 30
0.0
 11
878.6872629343692
 21
1209.975547526096
 31
0.0
 12
877.6372629343693
 22
1216.275547526096
 32
0.0
 13
877.6372629343693
 23
1216.275547526096
 33
0.0
  0
SOLID
  5
960
330
636
100
AcDbEntity
  8
P-0000
  6
Continuous
 62
     3
100
AcDbTrace
 10
876.5872629343693
 20
1227.575547526096
 30
0.0
 11
878.6872629343692
 21
1227.575547526096
 31
0.0
 12
877.6372629343693
 22
1221.275547526096
 32
0.0
 13
877.6372629343693
 23
1221.275547526096
 33
0.0
  0
POINT
  5
961
330
636
100
AcDbEntity
  8
Defpoints
  6
Continuous
 62
     0
100
AcDbPoint
 10
920.5822732936233
 20
1216.275547526096
 30
0.0
  0
POINT
  5
962
330
636
100
AcDbEntity
  8
Defpoints
  6
Continuous
 62
     0
100
AcDbPoint
 10
920.5822732936233
 20
1221.275547526096
 30
0.0
  0
POINT
  5
963
330
636
100
AcDbEntity
  8
Defpoints
  6
Continuous
 62
     0
100
AcDbPoint
 10
877.6372629343693
 20
1221.275547526096
 30
0.0
  0
ENDBLK
  5
643
330
636
100
AcDbEntity
  8
0
100
AcDbBlockEnd
  0
BLOCK
  5
64E
330
644
100
AcDbEntity
  8
0
100
AcDbBlockBegin
  2
*D53
 70
     1
 10
0.0
 20
0.0
 30
0.0
  3
*D53
  1

  0
LINE
  5
964
330
644
100
AcDbEntity
  8
P-0000
  6
Continuous
 62
     3
370
    -2
100
AcDbLine
 10
908.0822732936358
 20
1081.64434347687
 30
0.0
 11
881.4059678237233
 21
1081.64434347687
 31
0.0
  0
LINE
  5
965
330
644
100
AcDbEntity
  8
P-0000
  6
Continuous
 62
     3
370
    -2
100
AcDbLine
 10
908.0822732936356
 20
981.6443434768707
 30
0.0
 11
881.4059678237233
 21
981.6443434768707
 31
0.0
  0
LINE
  5
966
330
644
100
AcDbEntity
  8
P-0000
  6
Continuous
 62
     3
370
    -2
100
AcDbLine
 10
885.4059678237232
 20
1075.344343476871
 30
0.0
 11
885.4059678237232
 21
987.9443434768706
 31
0.0
  0
MTEXT
  5
967
330
644
100
AcDbEntity
  8
P-0000
  6
Continuous
 62
     2
100
AcDbMText
 10
892.9059678237234
 20
1030.609267760156
 30
0.0
 40
7.0
 41
0.0
 71
     5
 72
     1
  1
100
 11
0.0000000000000001
 21
1.0
 31
0.0
 73
     1
 44
1.0
1001
ACAD
1000
MTEXTBEGIN
1070
    73
1070
     1
1070
    44
1040
1.0
1070
    74
1070
     0
1000
MTEXTEND
  0
SOLID
  5
968
330
644
100
AcDbEntity
  8
P-0000
  6
Continuous
 62
     3
100
AcDbTrace
 10
884.3559678237234
 20
1075.344343476871
 30
0.0
 11
886.4559678237233
 21
1075.344343476871
 31
0.0
 12
885.4059678237232
 22
1081.64434347687
 32
0.0
 13
885.4059678237232
 23
1081.64434347687
 33
0.0
  0
SOLID
  5
969
330
644
100
AcDbEntity
  8
P-0000
  6
Continuous
 62
     3
100
AcDbTrace
 10
884.3559678237234
 20
987.9443434768706
 30
0.0
 11
886.4559678237233
 21
987.9443434768706
 31
0.0
 12
885.4059678237232
 22
981.6443434768707
 32
0.0
 13
885.4059678237232
 23
981.6443434768707
 33
0.0
  0
POINT
  5
96A
330
644
100
AcDbEntity
  8
Defpoints
  6
Continuous
 62
     0
100
AcDbPoint
 10
908.0822732936358
 20
1081.64434347687
 30
0.0
  0
POINT
  5
96B
330
644
100
AcDbEntity
  8
Defpoints
  6
Continuous
 62
     0
100
AcDbPoint
 10
908.0822732936356
 20
981.6443434768707
 30
0.0
  0
POINT
  5
96C
330
644
100
AcDbEntity
  8
Defpoints
  6
Continuous
 62
     0
100
AcDbPoint
 10
885.4059678237232
 20
981.6443434768707
 30
0.0
  0
ENDBLK
  5
64F
330
644
100
AcDbEntity
  8
0
100
AcDbBlockEnd
  0
BLOCK
  5
65A
330
650
100
AcDbEntity
  8
0
100
AcDbBlockBegin
  2
*D54
 70
     1
 10
0.0
 20
0.0
 30
0.0
  3
*D54
  1

  0
LINE
  5
96D
330
650
100
AcDbEntity
  8
P-0000
  6
Continuous
 62
     3
370
    -2
100
AcDbLine
 10
1113.08227329361
 20
1216.275547526096
 30
0.0
 11
1140.545531903176
 21
1216.275547526096
 31
0.0
  0
LINE
  5
96E
330
650
100
AcDbEntity
  8
P-0000
  6
Continuous
 62
     3
370
    -2
100
AcDbLine
 10
1106.082273293611
 20
1326.275547526119
 30
0.0
 11
1140.545531903176
 21
1326.275547526119
 31
0.0
  0
LINE
  5
96F
330
650
100
AcDbEntity
  8
P-0000
  6
Continuous
 62
     3
370
    -2
100
AcDbLine
 10
1136.545531903176
 20
1222.575547526096
 30
0.0
 11
1136.545531903176
 21
1319.975547526119
 31
0.0
  0
MTEXT
  5
970
330
650
100
AcDbEntity
  8
P-0000
  6
Continuous
 62
     2
100
AcDbMText
 10
1144.045531903175
 20
1272.768659282665
 30
0.0
 40
7.0
 41
0.0
 71
     5
 72
     1
  1
110
 11
0.0000000000000001
 21
1.0
 31
0.0
 73
     1
 44
1.0
1001
ACAD
1000
MTEXTBEGIN
1070
    73
1070
     1
1070
    44
1040
1.0
1070
    74
1070
     0
1000
MTEXTEND
  0
SOLID
  5
971
330
650
100
AcDbEntity
  8
P-0000
  6
Continuous
 62
     3
100
AcDbTrace
 10
1135.495531903176
 20
1222.575547526096
 30
0.0
 11
1137.595531903175
 21
1222.575547526096
 31
0.0
 12
1136.545531903176
 22
1216.275547526096
 32
0.0
 13
1136.545531903176
 23
1216.275547526096
 33
0.0
  0
SOLID
  5
972
330
650
100
AcDbEntity
  8
P-0000
  6
Continuous
 62
     3
100
AcDbTrace
 10
1135.495531903176
 20
1319.975547526119
 30
0.0
 11
1137.595531903175
 21
1319.975547526119
 31
0.0
 12
1136.545531903176
 22
1326.275547526119
 32
0.0
 13
1136.545531903176
 23
1326.275547526119
 33
0.0
  0
POINT
  5
973
330
650
100
AcDbEntity
  8
Defpoints
  6
Continuous
 62
     0
100
AcDbPoint
 10
1113.08227329361
 20
1216.275547526096
 30
0.0
  0
POINT
  5
974
330
650
100
AcDbEntity
  8
Defpoints
  6
Continuous
 62
     0
100
AcDbPoint
 10
1106.082273293611
 20
1326.275547526119
 30
0.0
  0
POINT
  5
975
330
650
100
AcDbEntity
  8
Defpoints
  6
Continuous
 62
     0
100
AcDbPoint
 10
1136.545531903176
 20
1326.275547526119
 30
0.0
  0
ENDBLK
  5
65B
330
650
100
AcDbEntity
  8
0
100
AcDbBlockEnd
  0
BLOCK
  5
675
330
669
100
AcDbEntity
  8
0
100
AcDbBlockBegin
  2
*D56
 70
     1
 10
0.0
 20
0.0
 30
0.0
  3
*D56
  1

  0
LINE
  5
976
330
669
100
AcDbEntity
  8
P-0000
  6
Continuous
 62
     3
370
    -2
100
AcDbLine
 10
1068.087297583711
 20
978.8229732915542
 30
0.0
 11
1082.689762187585
 21
966.5700506281631
 31
0.0
  0
LINE
  5
977
330
669
100
AcDbEntity
  8
P-0000
  6
Continuous
 62
     3
370
    -2
100
AcDbLine
 10
1072.586810851517
 20
984.1852843933873
 30
0.0
 11
1087.189275455391
 21
971.9323617299957
 31
0.0
  0
LINE
  5
978
330
669
100
AcDbEntity
  8
P-0000
  6
Continuous
 62
     3
370
    -2
100
AcDbLine
 10
1075.576022474084
 20
964.31512107526
 30
0.0
 11
1071.526460533058
 21
959.4890410836104
 31
0.0
  0
LINE
  5
979
330
669
100
AcDbEntity
  8
P-0000
  6
Continuous
 62
     3
370
    -2
100
AcDbLine
 10
1088.174659623941
 20
979.3295921603913
 30
0.0
 11
1092.224221564966
 21
984.1556721520406
 31
0.0
  0
MTEXT
  5
97A
330
669
100
AcDbEntity
  8
P-0000
  6
Continuous
 62
     2
100
AcDbMText
 10
1092.803084241291
 20
973.1776051247168
 30
0.0
 40
7.0
 41
0.0
 71
     5
 72
     1
  1
%%c7
 11
0.6427876096865742
 21
0.7660444431189488
 31
0.0
 73
     1
 44
1.0
1001
ACAD
1000
MTEXTBEGIN
1070
    73
1070
     1
1070
    44
1040
1.0
1070
    74
1070
     0
1000
MTEXTEND
  0
LINE
  5
97B
330
669
100
AcDbEntity
  8
P-0000
  6
Continuous
 62
     3
370
    -2
100
AcDbLine
 10
1079.625584415109
 20
969.1412010669093
 30
0.0
 11
1084.125097682915
 21
974.503512168742
 31
0.0
  0
SOLID
  5
97C
330
669
100
AcDbEntity
  8
P-0000
  6
Continuous
 62
     3
100
AcDbTrace
 10
1074.771675808809
 20
964.9900480654308
 30
0.0
 11
1076.380369139359
 21
963.6401940850891
 31
0.0
 12
1079.625584415109
 22
969.1412010669093
 32
0.0
 13
1079.625584415109
 23
969.1412010669093
 33
0.0
  0
SOLID
  5
97D
330
669
100
AcDbEntity
  8
P-0000
  6
Continuous
 62
     3
100
AcDbTrace
 10
1087.370312958666
 20
980.0045191505622
 30
0.0
 11
1088.979006289216
 21
978.6546651702204
 31
0.0
 12
1084.125097682915
 22
974.503512168742
 32
0.0
 13
1084.125097682915
 23
974.503512168742
 33
0.0
  0
POINT
  5
97E
330
669
100
AcDbEntity
  8
Defpoints
  6
Continuous
 62
     0
100
AcDbPoint
 10
1068.087297583711
 20
978.8229732915542
 30
0.0
  0
POINT
  5
97F
330
669
100
AcDbEntity
  8
Defpoints
  6
Continuous
 62
     0
100
AcDbPoint
 10
1072.586810851517
 20
984.1852843933873
 30
0.0
  0
POINT
  5
980
330
669
100
AcDbEntity
  8
Defpoints
  6
Continuous
 62
     0
100
AcDbPoint
 10
1084.125097682915
 20
974.503512168742
 30
0.0
  0
ENDBLK
  5
676
330
669
100
AcDbEntity
  8
0
100
AcDbBlockEnd
  0
BLOCK
  5
69B
330
691
100
AcDbEntity
  8
0
100
AcDbBlockBegin
  2
*D59
 70
     1
 10
0.0
 20
0.0
 30
0.0
  3
*D59
  1

  0
LINE
  5
981
330
691
100
AcDbEntity
  8
P-0000
  6
Continuous
 62
     3
370
    -2
100
AcDbLine
 10
920.5822732936209
 20
376.2337740212715
 30
0.0
 11
920.5822732936209
 21
330.6221608925989
 31
0.0
  0
LINE
  5
982
330
691
100
AcDbEntity
  8
P-0000
  6
Continuous
 62
     3
370
    -2
100
AcDbLine
 10
1100.582273293621
 20
376.2337740212715
 30
0.0
 11
1100.582273293621
 21
330.6221608925989
 31
0.0
  0
LINE
  5
983
330
691
100
AcDbEntity
  8
P-0000
  6
Continuous
 62
     3
370
    -2
100
AcDbLine
 10
926.8822732936207
 20
334.6221608925989
 30
0.0
 11
1094.282273293621
 21
334.6221608925989
 31
0.0
  0
MTEXT
  5
984
330
691
100
AcDbEntity
  8
P-0000
  6
Continuous
 62
     2
100
AcDbMText
 10
1008.047345346441
 20
344.3971608925985
 30
0.0
 40
7.0
 41
0.0
 71
     5
 72
     1
  1
180{}{\H0.60x;\C3;\S^ -0.5;}
 73
     1
 44
1.0
1001
ACAD
1000
MTEXTBEGIN
1070
    73
1070
     1
1070
    44
1040
1.0
1070
    74
1070
     0
1000
MTEXTEND
  0
SOLID
  5
985
330
691
100
AcDbEntity
  8
P-0000
  6
Continuous
 62
     3
100
AcDbTrace
 10
926.8822732936207
 20
335.6721608925989
 30
0.0
 11
926.8822732936207
 21
333.5721608925989
 31
0.0
 12
920.5822732936209
 22
334.6221608925989
 32
0.0
 13
920.5822732936209
 23
334.6221608925989
 33
0.0
  0
SOLID
  5
986
330
691
100
AcDbEntity
  8
P-0000
  6
Continuous
 62
     3
100
AcDbTrace
 10
1094.282273293621
 20
335.6721608925989
 30
0.0
 11
1094.282273293621
 21
333.5721608925989
 31
0.0
 12
1100.582273293621
 22
334.6221608925989
 32
0.0
 13
1100.582273293621
 23
334.6221608925989
 33
0.0
  0
POINT
  5
987
330
691
100
AcDbEntity
  8
Defpoints
  6
Continuous
 62
     0
100
AcDbPoint
 10
920.5822732936209
 20
376.2337740212715
 30
0.0
  0
POINT
  5
988
330
691
100
AcDbEntity
  8
Defpoints
  6
Continuous
 62
     0
100
AcDbPoint
 10
1100.582273293621
 20
376.2337740212715
 30
0.0
  0
POINT
  5
989
330
691
100
AcDbEntity
  8
Defpoints
  6
Continuous
 62
     0
100
AcDbPoint
 10
1100.582273293621
 20
334.6221608925989
 30
0.0
  0
ENDBLK
  5
69C
330
691
100
AcDbEntity
  8
0
100
AcDbBlockEnd
  0
BLOCK
  5
6A8
330
69D
100
AcDbEntity
  8
0
100
AcDbBlockBegin
  2
*D60
 70
     1
 10
0.0
 20
0.0
 30
0.0
  3
*D60
  1

  0
LINE
  5
98A
330
69D
100
AcDbEntity
  8
P-0000
  6
Continuous
 62
     3
370
    -2
100
AcDbLine
 10
908.0822732936335
 20
363.7337740212843
 30
0.0
 11
908.0822732936335
 21
309.9115484576214
 31
0.0
  0
LINE
  5
98B
330
69D
100
AcDbEntity
  8
P-0000
  6
Continuous
 62
     3
370
    -2
100
AcDbLine
 10
1113.082273293608
 20
363.7337740212843
 30
0.0
 11
1113.082273293608
 21
309.9115484576214
 31
0.0
  0
LINE
  5
98C
330
69D
100
AcDbEntity
  8
P-0000
  6
Continuous
 62
     3
370
    -2
100
AcDbLine
 10
914.3822732936335
 20
313.9115484576214
 30
0.0
 11
997.8768367246615
 21
313.9115484576214
 31
0.0
  0
LINE
  5
98D
330
69D
100
AcDbEntity
  8
P-0000
  6
Continuous
 62
     3
370
    -2
100
AcDbLine
 10
1106.782273293608
 20
313.9115484576214
 30
0.0
 11
1018.944542123835
 21
313.9115484576214
 31
0.0
  0
MTEXT
  5
98E
330
69D
100
AcDbEntity
  8
P-0000
  6
Continuous
 62
     2
100
AcDbMText
 10
1008.410689424248
 20
321.4115484576214
 30
0.0
 40
7.0
 41
0.0
 71
     5
 72
     1
  1
205
 73
     1
 44
1.0
1001
ACAD
1000
MTEXTBEGIN
1070
    73
1070
     1
1070
    44
1040
1.0
1070
    74
1070
     0
1000
MTEXTEND
  0
SOLID
  5
98F
330
69D
100
AcDbEntity
  8
P-0000
  6
Continuous
 62
     3
100
AcDbTrace
 10
914.3822732936335
 20
314.9615484576214
 30
0.0
 11
914.3822732936335
 21
312.8615484576214
 31
0.0
 12
908.0822732936335
 22
313.9115484576214
 32
0.0
 13
908.0822732936335
 23
313.9115484576214
 33
0.0
  0
SOLID
  5
990
330
69D
100
AcDbEntity
  8
P-0000
  6
Continuous
 62
     3
100
AcDbTrace
 10
1106.782273293608
 20
314.9615484576214
 30
0.0
 11
1106.782273293608
 21
312.8615484576214
 31
0.0
 12
1113.082273293608
 22
313.9115484576214
 32
0.0
 13
1113.082273293608
 23
313.9115484576214
 33
0.0
  0
POINT
  5
991
330
69D
100
AcDbEntity
  8
Defpoints
  6
Continuous
 62
     0
100
AcDbPoint
 10
908.0822732936335
 20
363.7337740212843
 30
0.0
  0
POINT
  5
992
330
69D
100
AcDbEntity
  8
Defpoints
  6
Continuous
 62
     0
100
AcDbPoint
 10
1113.082273293608
 20
363.7337740212843
 30
0.0
  0
POINT
  5
993
330
69D
100
AcDbEntity
  8
Defpoints
  6
Continuous
 62
     0
100
AcDbPoint
 10
1113.082273293608
 20
313.9115484576214
 30
0.0
  0
ENDBLK
  5
6A9
330
69D
100
AcDbEntity
  8
0
100
AcDbBlockEnd
  0
BLOCK
  5
6B2
330
6AA
100
AcDbEntity
  8
0
100
AcDbBlockBegin
  2
*D61
 70
     1
 10
0.0
 20
0.0
 30
0.0
  3
*D61
  1

  0
LINE
  5
994
330
6AA
100
AcDbEntity
  8
P-0000
  6
Continuous
 62
     3
370
    -2
100
AcDbLine
 10
948.1117163417172
 20
501.4323530541623
 30
0.0
 11
973.4826013448053
 21
487.1373132067806
 31
0.0
  0
LINE
  5
995
330
6AA
100
AcDbEntity
  8
P-0000
  6
Continuous
 62
     3
370
    -2
100
AcDbLine
 10
1073.052830245524
 20
431.0351949883799
 30
0.0
 11
996.0013503663668
 21
474.449288546339
 31
0.0
  0
MTEXT
  5
996
330
6AA
100
AcDbEntity
  8
P-0000
  6
Continuous
 62
     2
100
AcDbMText
 10
986.7055158932101
 20
484.2781983672544
 30
0.0
 40
7.0
 41
0.0
 71
     5
 72
     1
  1
%%c156
 11
0.8712243726735875
 21
-0.4908850094059848
 31
0.0
 73
     1
 44
1.0
1001
ACAD
1000
MTEXTBEGIN
1070
    73
1070
     1
1070
    44
1040
1.0
1070
    74
1070
     0
1000
MTEXTEND
  0
SOLID
  5
997
330
6AA
100
AcDbEntity
  8
P-0000
  6
Continuous
 62
     3
100
AcDbTrace
 10
948.6271456015936
 20
502.3471386454695
 30
0.0
 11
947.596287081841
 21
500.517567462855
 31
0.0
 12
942.6230027938737
 22
504.5249286134199
 32
0.0
 13
942.6230027938737
 23
504.5249286134199
 33
0.0
  0
SOLID
  5
998
330
6AA
100
AcDbEntity
  8
P-0000
  6
Continuous
 62
     3
100
AcDbTrace
 10
1073.568259505401
 20
431.9499805796872
 30
0.0
 11
1072.537400985648
 21
430.1204093970727
 31
0.0
 12
1078.541543793368
 22
427.9426194291223
 32
0.0
 13
1078.541543793368
 23
427.9426194291223
 33
0.0
  0
POINT
  5
999
330
6AA
100
AcDbEntity
  8
Defpoints
  6
Continuous
 62
     0
100
AcDbPoint
 10
1078.541543793368
 20
427.9426194291223
 30
0.0
  0
POINT
  5
99A
330
6AA
100
AcDbEntity
  8
Defpoints
  6
Continuous
 62
     0
100
AcDbPoint
 10
942.6230027938737
 20
504.5249286134199
 30
0.0
  0
ENDBLK
  5
6B3
330
6AA
100
AcDbEntity
  8
0
100
AcDbBlockEnd
  0
BLOCK
  5
6BE
330
6B4
100
AcDbEntity
  8
0
100
AcDbBlockBegin
  2
*D62
 70
     1
 10
0.0
 20
0.0
 30
0.0
  3
*D62
  1

  0
LINE
  5
99B
330
6B4
100
AcDbEntity
  8
P-0000
  6
Continuous
 62
     3
370
    -2
100
AcDbLine
 10
944.0822732936226
 20
660.7551959749943
 30
0.0
 11
944.0822732936226
 21
624.2961134923715
 31
0.0
  0
LINE
  5
99C
330
6B4
100
AcDbEntity
  8
P-0000
  6
Continuous
 62
     3
370
    -2
100
AcDbLine
 10
1077.082273293622
 20
660.7551959749943
 30
0.0
 11
1077.082273293622
 21
624.2961134923715
 31
0.0
  0
LINE
  5
99D
330
6B4
100
AcDbEntity
  8
P-0000
  6
Continuous
 62
     3
370
    -2
100
AcDbLine
 10
950.3822732936226
 20
628.2961134923715
 30
0.0
 11
1070.782273293622
 21
628.2961134923715
 31
0.0
  0
MTEXT
  5
99E
330
6B4
100
AcDbEntity
  8
P-0000
  6
Continuous
 62
     2
100
AcDbMText
 10
1010.582273293622
 20
638.0711134923712
 30
0.0
 40
7.0
 41
0.0
 71
     5
 72
     1
  1
%%c133{}{\H0.60x;\C3;\S+0.3^ ;}
 73
     1
 44
1.0
1001
ACAD
1000
MTEXTBEGIN
1070
    73
1070
     1
1070
    44
1040
1.0
1070
    74
1070
     0
1000
MTEXTEND
  0
SOLID
  5
99F
330
6B4
100
AcDbEntity
  8
P-0000
  6
Continuous
 62
     3
100
AcDbTrace
 10
950.3822732936226
 20
629.3461134923715
 30
0.0
 11
950.3822732936226
 21
627.2461134923716
 31
0.0
 12
944.0822732936226
 22
628.2961134923715
 32
0.0
 13
944.0822732936226
 23
628.2961134923715
 33
0.0
  0
SOLID
  5
9A0
330
6B4
100
AcDbEntity
  8
P-0000
  6
Continuous
 62
     3
100
AcDbTrace
 10
1070.782273293622
 20
629.3461134923715
 30
0.0
 11
1070.782273293622
 21
627.2461134923716
 31
0.0
 12
1077.082273293622
 22
628.2961134923715
 32
0.0
 13
1077.082273293622
 23
628.2961134923715
 33
0.0
  0
POINT
  5
9A1
330
6B4
100
AcDbEntity
  8
Defpoints
  6
Continuous
 62
     0
100
AcDbPoint
 10
944.0822732936226
 20
660.7551959749943
 30
0.0
  0
POINT
  5
9A2
330
6B4
100
AcDbEntity
  8
Defpoints
  6
Continuous
 62
     0
100
AcDbPoint
 10
1077.082273293622
 20
660.7551959749943
 30
0.0
  0
POINT
  5
9A3
330
6B4
100
AcDbEntity
  8
Defpoints
  6
Continuous
 62
     0
100
AcDbPoint
 10
1077.082273293622
 20
628.2961134923715
 30
0.0
  0
ENDBLK
  5
6BF
330
6B4
100
AcDbEntity
  8
0
100
AcDbBlockEnd
  0
BLOCK
  5
6CB
330
6C0
100
AcDbEntity
  8
0
100
AcDbBlockBegin
  2
*D63
 70
     1
 10
0.0
 20
0.0
 30
0.0
  3
*D63
  1

  0
LINE
  5
9A4
330
6C0
100
AcDbEntity
  8
P-0000
  6
Continuous
 62
     3
370
    -2
100
AcDbLine
 10
908.0822732936335
 20
363.7337740212843
 30
0.0
 11
846.4051607563064
 21
363.7337740212843
 31
0.0
  0
LINE
  5
9A5
330
6C0
100
AcDbEntity
  8
P-0000
  6
Continuous
 62
     3
370
    -2
100
AcDbLine
 10
908.0822732936335
 20
568.7337740212605
 30
0.0
 11
846.4051607563064
 21
568.7337740212605
 31
0.0
  0
LINE
  5
9A6
330
6C0
100
AcDbEntity
  8
P-0000
  6
Continuous
 62
     3
370
    -2
100
AcDbLine
 10
850.4051607563065
 20
370.0337740212843
 30
0.0
 11
850.4051607563065
 21
452.1416787179322
 31
0.0
  0
LINE
  5
9A7
330
6C0
100
AcDbEntity
  8
P-0000
  6
Continuous
 62
     3
370
    -2
100
AcDbLine
 10
850.4051607563065
 20
562.4337740212605
 30
0.0
 11
850.4051607563065
 21
473.209384117105
 31
0.0
  0
MTEXT
  5
9A8
330
6C0
100
AcDbEntity
  8
P-0000
  6
Continuous
 62
     2
100
AcDbMText
 10
857.9051607563064
 20
462.6755314175187
 30
0.0
 40
7.0
 41
0.0
 71
     5
 72
     1
  1
205
 11
0.0000000000000001
 21
1.0
 31
0.0
 73
     1
 44
1.0
1001
ACAD
1000
MTEXTBEGIN
1070
    73
1070
     1
1070
    44
1040
1.0
1070
    74
1070
     0
1000
MTEXTEND
  0
SOLID
  5
9A9
330
6C0
100
AcDbEntity
  8
P-0000
  6
Continuous
 62
     3
100
AcDbTrace
 10
849.3551607563064
 20
370.0337740212843
 30
0.0
 11
851.4551607563063
 21
370.0337740212843
 31
0.0
 12
850.4051607563065
 22
363.7337740212843
 32
0.0
 13
850.4051607563065
 23
363.7337740212843
 33
0.0
  0
SOLID
  5
9AA
330
6C0
100
AcDbEntity
  8
P-0000
  6
Continuous
 62
     3
100
AcDbTrace
 10
849.3551607563064
 20
562.4337740212605
 30
0.0
 11
851.4551607563063
 21
562.4337740212605
 31
0.0
 12
850.4051607563065
 22
568.7337740212605
 32
0.0
 13
850.4051607563065
 23
568.7337740212605
 33
0.0
  0
POINT
  5
9AB
330
6C0
100
AcDbEntity
  8
Defpoints
  6
Continuous
 62
     0
100
AcDbPoint
 10
908.0822732936335
 20
363.7337740212843
 30
0.0
  0
POINT
  5
9AC
330
6C0
100
AcDbEntity
  8
Defpoints
  6
Continuous
 62
     0
100
AcDbPoint
 10
908.0822732936335
 20
568.7337740212605
 30
0.0
  0
POINT
  5
9AD
330
6C0
100
AcDbEntity
  8
Defpoints
  6
Continuous
 62
     0
100
AcDbPoint
 10
850.4051607563065
 20
568.7337740212605
 30
0.0
  0
ENDBLK
  5
6CC
330
6C0
100
AcDbEntity
  8
0
100
AcDbBlockEnd
  0
BLOCK
  5
6D7
330
6CD
100
AcDbEntity
  8
0
100
AcDbBlockBegin
  2
*D64
 70
     1
 10
0.0
 20
0.0
 30
0.0
  3
*D64
  1

  0
LINE
  5
9AE
330
6CD
100
AcDbEntity
  8
P-0000
  6
Continuous
 62
     3
370
    -2
100
AcDbLine
 10
920.5822732936209
 20
556.2337740212714
 30
0.0
 11
865.8914608495047
 21
556.2337740212714
 31
0.0
  0
LINE
  5
9AF
330
6CD
100
AcDbEntity
  8
P-0000
  6
Continuous
 62
     3
370
    -2
100
AcDbLine
 10
920.5822732936209
 20
376.2337740212715
 30
0.0
 11
865.8914608495047
 21
376.2337740212716
 31
0.0
  0
LINE
  5
9B0
330
6CD
100
AcDbEntity
  8
P-0000
  6
Continuous
 62
     3
370
    -2
100
AcDbLine
 10
869.8914608495046
 20
549.9337740212714
 30
0.0
 11
869.8914608495046
 21
382.5337740212716
 31
0.0
  0
MTEXT
  5
9B1
330
6CD
100
AcDbEntity
  8
P-0000
  6
Continuous
 62
     2
100
AcDbMText
 10
879.6664608495044
 20
462.6755314175187
 30
0.0
 40
7.0
 41
0.0
 71
     5
 72
     1
  1
180{}{\H0.60x;\C3;\S+0.5^ ;}
 11
0.0000000000000001
 21
1.0
 31
0.0
 73
     1
 44
1.0
1001
ACAD
1000
MTEXTBEGIN
1070
    73
1070
     1
1070
    44
1040
1.0
1070
    74
1070
     0
1000
MTEXTEND
  0
SOLID
  5
9B2
330
6CD
100
AcDbEntity
  8
P-0000
  6
Continuous
 62
     3
100
AcDbTrace
 10
868.8414608495047
 20
549.9337740212714
 30
0.0
 11
870.9414608495047
 21
549.9337740212714
 31
0.0
 12
869.8914608495046
 22
556.2337740212714
 32
0.0
 13
869.8914608495046
 23
556.2337740212714
 33
0.0
  0
SOLID
  5
9B3
330
6CD
100
AcDbEntity
  8
P-0000
  6
Continuous
 62
     3
100
AcDbTrace
 10
868.8414608495047
 20
382.5337740212716
 30
0.0
 11
870.9414608495047
 21
382.5337740212716
 31
0.0
 12
869.8914608495046
 22
376.2337740212716
 32
0.0
 13
869.8914608495046
 23
376.2337740212716
 33
0.0
  0
POINT
  5
9B4
330
6CD
100
AcDbEntity
  8
Defpoints
  6
Continuous
 62
     0
100
AcDbPoint
 10
920.5822732936209
 20
556.2337740212714
 30
0.0
  0
POINT
  5
9B5
330
6CD
100
AcDbEntity
  8
Defpoints
  6
Continuous
 62
     0
100
AcDbPoint
 10
920.5822732936209
 20
376.2337740212715
 30
0.0
  0
POINT
  5
9B6
330
6CD
100
AcDbEntity
  8
Defpoints
  6
Continuous
 62
     0
100
AcDbPoint
 10
869.8914608495046
 20
376.2337740212716
 30
0.0
  0
ENDBLK
  5
6D8
330
6CD
100
AcDbEntity
  8
0
100
AcDbBlockEnd
  0
BLOCK
  5
6E3
330
6D9
100
AcDbEntity
  8
0
100
AcDbBlockBegin
  2
*D65
 70
     1
 10
0.0
 20
0.0
 30
0.0
  3
*D65
  1

  0
LINE
  5
9B7
330
6D9
100
AcDbEntity
  8
P-0000
  6
Continuous
 62
     3
370
    -2
100
AcDbLine
 10
915.0822732936335
 20
516.2337740212714
 30
0.0
 11
884.7688140647875
 21
516.2337740212714
 31
0.0
  0
LINE
  5
9B8
330
6D9
100
AcDbEntity
  8
P-0000
  6
Continuous
 62
     3
370
    -2
100
AcDbLine
 10
915.0822732936335
 20
416.2337740212715
 30
0.0
 11
884.7688140647875
 21
416.2337740212715
 31
0.0
  0
LINE
  5
9B9
330
6D9
100
AcDbEntity
  8
P-0000
  6
Continuous
 62
     3
370
    -2
100
AcDbLine
 10
888.7688140647876
 20
509.9337740212714
 30
0.0
 11
888.7688140647876
 21
422.5337740212715
 31
0.0
  0
MTEXT
  5
9BA
330
6D9
100
AcDbEntity
  8
P-0000
  6
Continuous
 62
     2
100
AcDbMText
 10
896.2688140647875
 20
465.111318929168
 30
0.0
 40
7.0
 41
0.0
 71
     5
 72
     1
  1
100
 11
0.0000000000000001
 21
1.0
 31
0.0
 73
     1
 44
1.0
1001
ACAD
1000
MTEXTBEGIN
1070
    73
1070
     1
1070
    44
1040
1.0
1070
    74
1070
     0
1000
MTEXTEND
  0
SOLID
  5
9BB
330
6D9
100
AcDbEntity
  8
P-0000
  6
Continuous
 62
     3
100
AcDbTrace
 10
887.7188140647875
 20
509.9337740212714
 30
0.0
 11
889.8188140647874
 21
509.9337740212714
 31
0.0
 12
888.7688140647876
 22
516.2337740212714
 32
0.0
 13
888.7688140647876
 23
516.2337740212714
 33
0.0
  0
SOLID
  5
9BC
330
6D9
100
AcDbEntity
  8
P-0000
  6
Continuous
 62
     3
100
AcDbTrace
 10
887.7188140647875
 20
422.5337740212715
 30
0.0
 11
889.8188140647874
 21
422.5337740212715
 31
0.0
 12
888.7688140647876
 22
416.2337740212715
 32
0.0
 13
888.7688140647876
 23
416.2337740212715
 33
0.0
  0
POINT
  5
9BD
330
6D9
100
AcDbEntity
  8
Defpoints
  6
Continuous
 62
     0
100
AcDbPoint
 10
915.0822732936335
 20
516.2337740212714
 30
0.0
  0
POINT
  5
9BE
330
6D9
100
AcDbEntity
  8
Defpoints
  6
Continuous
 62
     0
100
AcDbPoint
 10
915.0822732936335
 20
416.2337740212715
 30
0.0
  0
POINT
  5
9BF
330
6D9
100
AcDbEntity
  8
Defpoints
  6
Continuous
 62
     0
100
AcDbPoint
 10
888.7688140647876
 20
416.2337740212715
 30
0.0
  0
ENDBLK
  5
6E4
330
6D9
100
AcDbEntity
  8
0
100
AcDbBlockEnd
  0
BLOCK
  5
6EF
330
6E5
100
AcDbEntity
  8
0
100
AcDbBlockBegin
  2
*D66
 70
     1
 10
0.0
 20
0.0
 30
0.0
  3
*D66
  1

  0
LINE
  5
9C0
330
6E5
100
AcDbEntity
  8
P-0000
  6
Continuous
 62
     3
370
    -2
100
AcDbLine
 10
920.5822732936226
 20
765.7551959749943
 30
0.0
 11
861.7579350156352
 21
765.7551959749943
 31
0.0
  0
LINE
  5
9C1
330
6E5
100
AcDbEntity
  8
P-0000
  6
Continuous
 62
     3
370
    -2
100
AcDbLine
 10
908.0822732936352
 20
660.7551959749943
 30
0.0
 11
861.7579350156352
 21
660.7551959749943
 31
0.0
  0
LINE
  5
9C2
330
6E5
100
AcDbEntity
  8
P-0000
  6
Continuous
 62
     3
370
    -2
100
AcDbLine
 10
865.7579350156352
 20
759.4551959749943
 30
0.0
 11
865.7579350156352
 21
667.0551959749943
 31
0.0
  0
MTEXT
  5
9C3
330
6E5
100
AcDbEntity
  8
P-0000
  6
Continuous
 62
     2
100
AcDbMText
 10
873.2579350156353
 20
717.5108137725654
 30
0.0
 40
7.0
 41
0.0
 71
     5
 72
     1
  1
105
 11
0.0000000000000001
 21
1.0
 31
0.0
 73
     1
 44
1.0
1001
ACAD
1000
MTEXTBEGIN
1070
    73
1070
     1
1070
    44
1040
1.0
1070
    74
1070
     0
1000
MTEXTEND
  0
SOLID
  5
9C4
330
6E5
100
AcDbEntity
  8
P-0000
  6
Continuous
 62
     3
100
AcDbTrace
 10
864.7079350156353
 20
759.4551959749943
 30
0.0
 11
866.8079350156352
 21
759.4551959749943
 31
0.0
 12
865.7579350156352
 22
765.7551959749943
 32
0.0
 13
865.7579350156352
 23
765.7551959749943
 33
0.0
  0
SOLID
  5
9C5
330
6E5
100
AcDbEntity
  8
P-0000
  6
Continuous
 62
     3
100
AcDbTrace
 10
864.7079350156353
 20
667.0551959749943
 30
0.0
 11
866.8079350156352
 21
667.0551959749943
 31
0.0
 12
865.7579350156352
 22
660.7551959749943
 32
0.0
 13
865.7579350156352
 23
660.7551959749943
 33
0.0
  0
POINT
  5
9C6
330
6E5
100
AcDbEntity
  8
Defpoints
  6
Continuous
 62
     0
100
AcDbPoint
 10
920.5822732936226
 20
765.7551959749943
 30
0.0
  0
POINT
  5
9C7
330
6E5
100
AcDbEntity
  8
Defpoints
  6
Continuous
 62
     0
100
AcDbPoint
 10
908.0822732936352
 20
660.7551959749943
 30
0.0
  0
POINT
  5
9C8
330
6E5
100
AcDbEntity
  8
Defpoints
  6
Continuous
 62
     0
100
AcDbPoint
 10
865.7579350156352
 20
660.7551959749943
 30
0.0
  0
ENDBLK
  5
6F0
330
6E5
100
AcDbEntity
  8
0
100
AcDbBlockEnd
  0
BLOCK
  5
6FB
330
6F1
100
AcDbEntity
  8
0
100
AcDbBlockBegin
  2
*D67
 70
     1
 10
0.0
 20
0.0
 30
0.0
  3
*D67
  1

  0
LINE
  5
9C9
330
6F1
100
AcDbEntity
  8
P-0000
  6
Continuous
 62
     3
370
    -2
100
AcDbLine
 10
908.0822732936352
 20
660.7551959749943
 30
0.0
 11
886.3862405345459
 21
660.7551959749943
 31
0.0
  0
LINE
  5
9CA
330
6F1
100
AcDbEntity
  8
P-0000
  6
Continuous
 62
     3
370
    -2
100
AcDbLine
 10
908.0822732936354
 20
750.7551959749942
 30
0.0
 11
886.3862405345459
 21
750.7551959749942
 31
0.0
  0
LINE
  5
9CB
330
6F1
100
AcDbEntity
  8
P-0000
  6
Continuous
 62
     3
370
    -2
100
AcDbLine
 10
890.3862405345458
 20
667.0551959749943
 30
0.0
 11
890.3862405345458
 21
744.4551959749944
 31
0.0
  0
MTEXT
  5
9CC
330
6F1
100
AcDbEntity
  8
P-0000
  6
Continuous
 62
     2
100
AcDbMText
 10
897.8862405345459
 20
705.7551959749943
 30
0.0
 40
7.0
 41
0.0
 71
     5
 72
     1
  1
90
 11
0.0000000000000001
 21
1.0
 31
0.0
 73
     1
 44
1.0
1001
ACAD
1000
MTEXTBEGIN
1070
    73
1070
     1
1070
    44
1040
1.0
1070
    74
1070
     0
1000
MTEXTEND
  0
SOLID
  5
9CD
330
6F1
100
AcDbEntity
  8
P-0000
  6
Continuous
 62
     3
100
AcDbTrace
 10
889.336240534546
 20
667.0551959749943
 30
0.0
 11
891.4362405345459
 21
667.0551959749943
 31
0.0
 12
890.3862405345458
 22
660.7551959749943
 32
0.0
 13
890.3862405345458
 23
660.7551959749943
 33
0.0
  0
SOLID
  5
9CE
330
6F1
100
AcDbEntity
  8
P-0000
  6
Continuous
 62
     3
100
AcDbTrace
 10
889.336240534546
 20
744.4551959749944
 30
0.0
 11
891.4362405345459
 21
744.4551959749944
 31
0.0
 12
890.3862405345458
 22
750.7551959749942
 32
0.0
 13
890.3862405345458
 23
750.7551959749942
 33
0.0
  0
POINT
  5
9CF
330
6F1
100
AcDbEntity
  8
Defpoints
  6
Continuous
 62
     0
100
AcDbPoint
 10
908.0822732936352
 20
660.7551959749943
 30
0.0
  0
POINT
  5
9D0
330
6F1
100
AcDbEntity
  8
Defpoints
  6
Continuous
 62
     0
100
AcDbPoint
 10
908.0822732936354
 20
750.7551959749942
 30
0.0
  0
POINT
  5
9D1
330
6F1
100
AcDbEntity
  8
Defpoints
  6
Continuous
 62
     0
100
AcDbPoint
 10
890.3862405345458
 20
750.7551959749942
 30
0.0
  0
ENDBLK
  5
6FC
330
6F1
100
AcDbEntity
  8
0
100
AcDbBlockEnd
  0
BLOCK
  5
709
330
6FD
100
AcDbEntity
  8
0
100
AcDbBlockBegin
  2
*D68
 70
     1
 10
0.0
 20
0.0
 30
0.0
  3
*D68
  1

  0
LINE
  5
9D2
330
6FD
100
AcDbEntity
  8
P-0000
  6
Continuous
 62
     3
370
    -2
100
AcDbLine
 10
920.5822732936226
 20
765.7551959749943
 30
0.0
 11
877.0587596261952
 21
765.7551959749943
 31
0.0
  0
LINE
  5
9D3
330
6FD
100
AcDbEntity
  8
P-0000
  6
Continuous
 62
     3
370
    -2
100
AcDbLine
 10
908.0822732936354
 20
760.7551959749943
 30
0.0
 11
877.0587596261952
 21
760.7551959749943
 31
0.0
  0
LINE
  5
9D4
330
6FD
100
AcDbEntity
  8
P-0000
  6
Continuous
 62
     3
370
    -2
100
AcDbLine
 10
881.0587596261953
 20
772.0551959749943
 30
0.0
 11
881.0587596261953
 21
778.3551959749943
 31
0.0
  0
LINE
  5
9D5
330
6FD
100
AcDbEntity
  8
P-0000
  6
Continuous
 62
     3
370
    -2
100
AcDbLine
 10
881.0587596261953
 20
754.4551959749943
 30
0.0
 11
881.0587596261953
 21
748.1551959749943
 31
0.0
  0
MTEXT
  5
9D6
330
6FD
100
AcDbEntity
  8
P-0000
  6
Continuous
 62
     2
100
AcDbMText
 10
888.5587596261952
 20
750.662600428779
 30
0.0
 40
7.0
 41
0.0
 71
     5
 72
     1
  1
5
 11
0.0000000000000001
 21
1.0
 31
0.0
 73
     1
 44
1.0
1001
ACAD
1000
MTEXTBEGIN
1070
    73
1070
     1
1070
    44
1040
1.0
1070
    74
1070
     0
1000
MTEXTEND
  0
LINE
  5
9D7
330
6FD
100
AcDbEntity
  8
P-0000
  6
Continuous
 62
     3
370
    -2
100
AcDbLine
 10
881.0587596261953
 20
765.7551959749943
 30
0.0
 11
881.0587596261953
 21
760.7551959749943
 31
0.0
  0
SOLID
  5
9D8
330
6FD
100
AcDbEntity
  8
P-0000
  6
Continuous
 62
     3
100
AcDbTrace
 10
880.0087596261954
 20
772.0551959749943
 30
0.0
 11
882.1087596261953
 21
772.0551959749943
 31
0.0
 12
881.0587596261953
 22
765.7551959749943
 32
0.0
 13
881.0587596261953
 23
765.7551959749943
 33
0.0
  0
SOLID
  5
9D9
330
6FD
100
AcDbEntity
  8
P-0000
  6
Continuous
 62
     3
100
AcDbTrace
 10
880.0087596261953
 20
754.4551959749943
 30
0.0
 11
882.1087596261952
 21
754.4551959749943
 31
0.0
 12
881.0587596261953
 22
760.7551959749943
 32
0.0
 13
881.0587596261953
 23
760.7551959749943
 33
0.0
  0
POINT
  5
9DA
330
6FD
100
AcDbEntity
  8
Defpoints
  6
Continuous
 62
     0
100
AcDbPoint
 10
920.5822732936226
 20
765.7551959749943
 30
0.0
  0
POINT
  5
9DB
330
6FD
100
AcDbEntity
  8
Defpoints
  6
Continuous
 62
     0
100
AcDbPoint
 10
908.0822732936354
 20
760.7551959749943
 30
0.0
  0
POINT
  5
9DC
330
6FD
100
AcDbEntity
  8
Defpoints
  6
Continuous
 62
     0
100
AcDbPoint
 10
881.0587596261953
 20
760.7551959749943
 30
0.0
  0
ENDBLK
  5
70A
330
6FD
100
AcDbEntity
  8
0
100
AcDbBlockEnd
  0
BLOCK
  5
717
330
70B
100
AcDbEntity
  8
0
100
AcDbBlockBegin
  2
*D69
 70
     1
 10
0.0
 20
0.0
 30
0.0
  3
*D69
  1

  0
LINE
  5
9DD
330
70B
100
AcDbEntity
  8
P-0000
  6
Continuous
 62
     3
370
    -2
100
AcDbLine
 10
915.0822732936335
 20
516.2337740212714
 30
0.0
 11
915.0822732936335
 21
596.8170039245086
 31
0.0
  0
LINE
  5
9DE
330
70B
100
AcDbEntity
  8
P-0000
  6
Continuous
 62
     3
370
    -2
100
AcDbLine
 10
908.0822732936335
 20
516.2337740212714
 30
0.0
 11
908.0822732936335
 21
596.8170039245086
 31
0.0
  0
LINE
  5
9DF
330
70B
100
AcDbEntity
  8
P-0000
  6
Continuous
 62
     3
370
    -2
100
AcDbLine
 10
921.3822732936334
 20
592.8170039245086
 30
0.0
 11
927.6822732936336
 21
592.8170039245086
 31
0.0
  0
LINE
  5
9E0
330
70B
100
AcDbEntity
  8
P-0000
  6
Continuous
 62
     3
370
    -2
100
AcDbLine
 10
901.7822732936336
 20
592.8170039245086
 30
0.0
 11
895.4822732936335
 21
592.8170039245086
 31
0.0
  0
MTEXT
  5
9E1
330
70B
100
AcDbEntity
  8
P-0000
  6
Continuous
 62
     2
100
AcDbMText
 10
915.0822732936335
 20
600.3170039245086
 30
0.0
 40
7.0
 41
0.0
 71
     5
 72
     1
  1
7
 73
     1
 44
1.0
1001
ACAD
1000
MTEXTBEGIN
1070
    73
1070
     1
1070
    44
1040
1.0
1070
    74
1070
     0
1000
MTEXTEND
  0
LINE
  5
9E2
330
70B
100
AcDbEntity
  8
P-0000
  6
Continuous
 62
     3
370
    -2
100
AcDbLine
 10
915.0822732936335
 20
592.8170039245086
 30
0.0
 11
908.0822732936335
 21
592.8170039245086
 31
0.0
  0
SOLID
  5
9E3
330
70B
100
AcDbEntity
  8
P-0000
  6
Continuous
 62
     3
100
AcDbTrace
 10
921.3822732936334
 20
593.8670039245086
 30
0.0
 11
921.3822732936334
 21
591.7670039245087
 31
0.0
 12
915.0822732936335
 22
592.8170039245086
 32
0.0
 13
915.0822732936335
 23
592.8170039245086
 33
0.0
  0
SOLID
  5
9E4
330
70B
100
AcDbEntity
  8
P-0000
  6
Continuous
 62
     3
100
AcDbTrace
 10
901.7822732936336
 20
593.8670039245086
 30
0.0
 11
901.7822732936336
 21
591.7670039245087
 31
0.0
 12
908.0822732936335
 22
592.8170039245086
 32
0.0
 13
908.0822732936335
 23
592.8170039245086
 33
0.0
  0
POINT
  5
9E5
330
70B
100
AcDbEntity
  8
Defpoints
  6
Continuous
 62
     0
100
AcDbPoint
 10
915.0822732936335
 20
516.2337740212714
 30
0.0
  0
POINT
  5
9E6
330
70B
100
AcDbEntity
  8
Defpoints
  6
Continuous
 62
     0
100
AcDbPoint
 10
908.0822732936335
 20
516.2337740212714
 30
0.0
  0
POINT
  5
9E7
330
70B
100
AcDbEntity
  8
Defpoints
  6
Continuous
 62
     0
100
AcDbPoint
 10
908.0822732936335
 20
592.8170039245086
 30
0.0
  0
ENDBLK
  5
718
330
70B
100
AcDbEntity
  8
0
100
AcDbBlockEnd
  0
BLOCK
  5
725
330
719
100
AcDbEntity
  8
0
100
AcDbBlockBegin
  2
*D70
 70
     1
 10
0.0
 20
0.0
 30
0.0
  3
*D70
  1

  0
LINE
  5
9E8
330
719
100
AcDbEntity
  8
P-0000
  6
Continuous
 62
     3
370
    -2
100
AcDbLine
 10
1068.087297583709
 20
413.4124038359561
 30
0.0
 11
1087.295586546475
 21
397.2947356517508
 31
0.0
  0
LINE
  5
9E9
330
719
100
AcDbEntity
  8
P-0000
  6
Continuous
 62
     3
370
    -2
100
AcDbLine
 10
1072.586810851515
 20
418.7747149377889
 30
0.0
 11
1091.795099814281
 21
402.6570467535834
 31
0.0
  0
LINE
  5
9EA
330
719
100
AcDbEntity
  8
P-0000
  6
Continuous
 62
     3
370
    -2
100
AcDbLine
 10
1080.181846832974
 20
395.0398060988478
 30
0.0
 11
1076.132284891949
 21
390.2137261071983
 31
0.0
  0
LINE
  5
9EB
330
719
100
AcDbEntity
  8
P-0000
  6
Continuous
 62
     3
370
    -2
100
AcDbLine
 10
1092.780483982831
 20
410.054277183979
 30
0.0
 11
1096.830045923856
 21
414.8803571756284
 31
0.0
  0
MTEXT
  5
9EC
330
719
100
AcDbEntity
  8
P-0000
  6
Continuous
 62
     2
100
AcDbMText
 10
1096.134390192004
 20
402.3833782565326
 30
0.0
 40
7.0
 41
0.0
 71
     5
 72
     1
  1
%%c7
 11
0.6427876096865742
 21
0.7660444431189488
 31
0.0
 73
     1
 44
1.0
1001
ACAD
1000
MTEXTBEGIN
1070
    73
1070
     1
1070
    44
1040
1.0
1070
    74
1070
     0
1000
MTEXTEND
  0
LINE
  5
9ED
330
719
100
AcDbEntity
  8
P-0000
  6
Continuous
 62
     3
370
    -2
100
AcDbLine
 10
1084.231408773999
 20
399.8658860904971
 30
0.0
 11
1088.730922041806
 21
405.2281971923297
 31
0.0
  0
SOLID
  5
9EE
330
719
100
AcDbEntity
  8
P-0000
  6
Continuous
 62
     3
100
AcDbTrace
 10
1079.377500167699
 20
395.7147330890186
 30
0.0
 11
1080.986193498249
 21
394.3648791086769
 31
0.0
 12
1084.231408773999
 22
399.8658860904971
 32
0.0
 13
1084.231408773999
 23
399.8658860904971
 33
0.0
  0
SOLID
  5
9EF
330
719
100
AcDbEntity
  8
P-0000
  6
Continuous
 62
     3
100
AcDbTrace
 10
1091.976137317556
 20
410.7292041741499
 30
0.0
 11
1093.584830648106
 21
409.3793501938082
 31
0.0
 12
1088.730922041806
 22
405.2281971923297
 32
0.0
 13
1088.730922041806
 23
405.2281971923297
 33
0.0
  0
POINT
  5
9F0
330
719
100
AcDbEntity
  8
Defpoints
  6
Continuous
 62
     0
100
AcDbPoint
 10
1068.087297583709
 20
413.4124038359561
 30
0.0
  0
POINT
  5
9F1
330
719
100
AcDbEntity
  8
Defpoints
  6
Continuous
 62
     0
100
AcDbPoint
 10
1072.586810851515
 20
418.7747149377889
 30
0.0
  0
POINT
  5
9F2
330
719
100
AcDbEntity
  8
Defpoints
  6
Continuous
 62
     0
100
AcDbPoint
 10
1088.730922041806
 20
405.2281971923297
 30
0.0
  0
ENDBLK
  5
726
330
719
100
AcDbEntity
  8
0
100
AcDbBlockEnd
  0
ENDSEC
  0
SECTION
  2
ENTITIES
  0
DIMENSION
  5
3FC
330
1F
100
AcDbEntity
  8
P-0000
  6
Continuous
100
AcDbDimension
  2
*D38
 10
908.0822732936356
 20
889.37457160684
 30
0.0
 11
1006.886903245598
 21
896.8745716068401
 31
0.0
 70
   160
  1
<>
 71
     5
 42
204.9999999999751
  3
661N88102_001_0071688668
100
AcDbAlignedDimension
 13
1113.082273293611
 23
929.1443434768831
 33
0.0
 14
908.0822732936356
 24
929.1443434768831
 34
0.0
100
AcDbRotatedDimension
1001
ACAD
1000
DSTYLE
1002
{
1070
   288
1070
     1
1002
}
1001
ACME_LAYERS
1000
1
  0
LINE
  5
401
330
1F
100
AcDbEntity
  8
P-0000
  6
STRICHLINIE
 62
     2
100
AcDbLine
 10
1010.582273293623
 20
936.144343476883
 30
0.0
 11
960.5822732936232
 21
936.144343476883
 31
0.0
1001
ACME_LAYERS
1000
1
  0
DIMENSION
  5
402
330
1F
100
AcDbEntity
  8
P-0000
  6
Continuous
100
AcDbDimension
  2
*D39
 10
1100.582273293623
 20
908.106752160269
 30
0.0
 11
1009.470652287451
 21
917.881752160269
 31
0.0
 70
   160
  1
<>{}{\H0.60x;\C3;\S+0.5^ ;}
 71
     5
 42
180.0
  3
6613588102_001_0071688668
100
AcDbAlignedDimension
 13
920.5822732936233
 23
941.6443434768707
 33
0.0
 14
1100.582273293623
 24
941.6443434768707
 34
0.0
100
AcDbRotatedDimension
1001
ACAD
1000
DSTYLE
1002
{
1070
   288
1070
     1
1002
}
1001
ACME_LAYERS
1000
1
  0
LINE
  5
403
330
1F
100
AcDbEntity
  8
P-0000
  6
Continuous
 62
     7
100
AcDbLine
 10
1010.582273293623
 20
929.1443434768831
 30
0.0
 11
908.0822732936356
 21
929.1443434768831
 31
0.0
1001
ACME_LAYERS
1000
1
  0
LINE
  5
404
330
1F
100
AcDbEntity
  8
P-0000
  6
STRICHLINIE
 62
     2
100
AcDbLine
 10
920.5822732936233
 20
941.6443434768707
 30
0.0
 11
1100.582273293623
 21
941.6443434768707
 31
0.0
1001
ACME_LAYERS
1000
1
  0
DIMENSION
  5
405
330
1F
100
AcDbEntity
  8
P-0000
  6
Continuous
100
AcDbDimension
  2
*D40
 10
942.5207209784117
 20
1069.753398349715
 30
0.0
 11
985.6520632185684
 21
1046.782724132858
 31
0.0
 70
   163
  1
%%c156
 71
     5
 42
156.0086531812617
  3
661N88102_001_0071688668
100
AcDbDiametricDimension
 15
1078.643825608835
 25
993.5352886040258
 35
0.0
 40
0.0
1001
ACAD
1000
DSTYLE
1002
{
1070
   288
1070
     1
1002
}
1001
ACME_LAYERS
1000
1
  0
LINE
  5
406
330
1F
100
AcDbEntity
  8
P-0000
  6
STRICHLINIE
 62
     2
100
AcDbLine
 10
1010.582273293623
 20
1127.144343476858
 30
0.0
 11
960.5822732936232
 21
1127.144343476858
 31
0.0
1001
ACME_LAYERS
1000
1
  0
ARC
  5
407
330
1F
100
AcDbEntity
  8
P-0000
  6
Continuous
 62
     7
100
AcDbCircle
 10
1010.582273293623
 20
1031.64434347687
 30
0.0
 40
66.49999999999947
100
AcDbArc
 50
44.99999999999539
 51
315.0000000000046
1001
ACME_LAYERS
1000
1
  0
LINE
  5
408
330
1F
100
AcDbEntity
  8
P-0000
  6
Continuous
 62
     7
100
AcDbLine
 10
1077.082273293623
 20
1221.275547526096
 30
0.0
 11
944.082273293624
 21
1221.275547526096
 31
0.0
1001
ACME_LAYERS
1000
1
  0
LINE
  5
409
330
1F
100
AcDbEntity
  8
P-0000
  6
Continuous
 62
     7
100
AcDbLine
 10
1057.604874242528
 20
1228.275547526096
 30
0.0
 11
944.082273293624
 21
1228.275547526096
 31
0.0
1001
ACME_LAYERS
1000
1
  0
DIMENSION
  5
40A
330
1F
100
AcDbEntity
  8
P-0000
  6
Continuous
100
AcDbDimension
  2
*D41
 10
1077.082273293623
 20
1187.797585940788
 30
0.0
 11
1010.582273293623
 21
1197.572585940788
 31
0.0
 70
   160
  1
%%c<>{}{\H0.60x;\C3;\S+0.3^ ;}
 71
     5
 42
132.9999999999988
  3
6613488102_001_0071688668
100
AcDbAlignedDimension
 13
944.082273293624
 23
1221.275547526096
 33
0.0
 14
1077.082273293623
 24
1221.275547526096
 34
0.0
100
AcDbRotatedDimension
1001
ACAD
1000
DSTYLE
1002
{
1070
   288
1070
     1
1002
}
1001
ACME_LAYERS
1000
1
  0
ARC
  5
40E
330
1F
100
AcDbEntity
  8
P-0000
  6
Continuous
 62
     7
100
AcDbCircle
 10
1010.582273293623
 20
1031.64434347687
 30
0.0
 40
80.00000000000239
100
AcDbArc
 50
44.99999999999539
 51
270.0
1001
ACME_LAYERS
1000
1
  0
LINE
  5
40F
330
1F
100
AcDbEntity
  8
P-0000
  6
Continuous
 62
     7
100
AcDbLine
 10
908.0822732936358
 20
1134.144343476858
 30
0.0
 11
1010.582273293623
 21
1134.144343476858
 31
0.0
1001
ACME_LAYERS
1000
1
  0
LINE
  5
410
330
1F
100
AcDbEntity
  8
P-0000
  6
STRICHPUNKT
 62
     3
100
AcDbLine
 10
1113.082273293611
 20
1031.64434347687
 30
0.0
 11
915.0822732936358
 21
1031.64434347687
 31
0.0
1001
ACME_LAYERS
1000
1
  0
LINE
  5
411
330
1F
100
AcDbEntity
  8
P-0000
  6
Continuous
 62
     7
100
AcDbLine
 10
1100.582273293623
 20
1216.275547526096
 30
0.0
 11
920.5822732936233
 21
1216.275547526096
 31
0.0
1001
ACME_LAYERS
1000
1
  0
LINE
  5
412
330
1F
100
AcDbEntity
  8
P-0000
  6
STRICHLINIE
 62
     2
100
AcDbLine
 10
1100.582273293623
 20
1121.644343476871
 30
0.0
 11
920.5822732936233
 21
1121.644343476871
 31
0.0
1001
ACME_LAYERS
1000
1
  0
LINE
  5
413
330
1F
100
AcDbEntity
  8
P-0000
  6
Continuous
 62
     7
100
AcDbLine
 10
1094.582273293621
 20
1366.275547526093
 30
0.0
 11
926.5822732936229
 21
1366.275547526093
 31
0.0
1001
ACME_LAYERS
1000
1
  0
LINE
  5
414
330
1F
100
AcDbEntity
  8
P-0000
  6
Continuous
 62
     7
100
AcDbLine
 10
935.082273293616
 20
1344.275547526097
 30
0.0
 11
1069.979242913292
 21
1344.275547526097
 31
0.0
1001
ACME_LAYERS
1000
1
  0
LINE
  5
415
330
1F
100
AcDbEntity
  8
P-0000
  6
Continuous
 62
     7
100
AcDbLine
 10
938.0822732936232
 20
1319.275547526093
 30
0.0
 11
1057.604874242528
 21
1319.275547526093
 31
0.0
1001
ACME_LAYERS
1000
1
  0
ARC
  5
416
330
1F
100
AcDbEntity
  8
P-0000
  6
Continuous
 62
     7
100
AcDbCircle
 10
1010.582273293623
 20
1031.64434347687
 30
0.0
 40
83.99999999999778
100
AcDbArc
 50
44.99999999999539
 51
315.0000000000046
1001
ACME_LAYERS
1000
1
  0
LINE
  5
419
330
1F
100
AcDbEntity
  8
P-0000
  6
Continuous
 62
     7
100
AcDbLine
 10
938.0822732936232
 20
1319.275547526093
 30
0.0
 11
938.0822732936232
 21
1228.275547526096
 31
0.0
1001
ACME_LAYERS
1000
1
  0
LINE
  5
41A
330
1F
100
AcDbEntity
  8
P-0000
  6
Continuous
 62
     7
100
AcDbLine
 10
915.0822732936358
 20
1326.27554752612
 30
0.0
 11
915.0822732936358
 21
1216.275547526096
 31
0.0
1001
ACME_LAYERS
1000
1
  0
LINE
  5
41B
330
1F
100
AcDbEntity
  8
P-0000
  6
Continuous
 62
     7
100
AcDbLine
 10
908.0822732936359
 20
1326.27554752612
 30
0.0
 11
908.0822732936358
 21
1216.275547526096
 31
0.0
1001
ACME_LAYERS
1000
1
  0
DIMENSION
  5
41C
330
1F
100
AcDbEntity
  8
P-0000
  6
Continuous
100
AcDbDimension
  2
*D45
 10
829.1919683996383
 20
1216.275547526096
 30
0.0
 11
836.6919683996382
 21
1291.275547526096
 31
0.0
 70
   160
  1
<>
 71
     5
 42
149.9999999999993
  3
661N88102_001_0071688668
100
AcDbAlignedDimension
 13
917.7246616365195
 23
1366.275547526096
 33
0.0
 14
920.5822732936233
 24
1216.275547526096
 34
0.0
 50
270.0
100
AcDbRotatedDimension
1001
ACAD
1000
DSTYLE
1002
{
1070
   288
1070
     1
1002
}
1001
ACME_LAYERS
1000
1
  0
DIMENSION
  5
41D
330
1F
100
AcDbEntity
  8
P-0000
  6
Continuous
100
AcDbDimension
  2
*D46
 10
851.1538352553833
 20
1228.275547526096
 30
0.0
 11
858.6538352553834
 21
1301.597447228905
 31
0.0
 70
   160
  1
<>
 71
     5
 42
137.999999999997
  3
661N88102_001_0071688668
100
AcDbAlignedDimension
 13
926.5822732936229
 23
1366.275547526093
 33
0.0
 14
938.0822732936232
 24
1228.275547526096
 34
0.0
 50
270.0
100
AcDbRotatedDimension
1001
ACAD
1000
DSTYLE
1002
{
1070
   288
1070
     1
1002
}
1001
ACME_LAYERS
1000
1
  0
HATCH
  5
41E
330
1F
100
AcDbEntity
  8
P-0000
  6
Continuous
 62
     3
100
AcDbHatch
 10
0.0
 20
0.0
 30
0.0
210
0.0
220
0.0
230
1.0
  2
_U
 70
     0
 71
     0
 91
        1
 92
        1
 93
       14
 72
     1
 10
920.5822732936233
 20
1221.275547526096
 11
920.5822732936233
 21
1216.275547526096
 72
     1
 10
920.5822732936233
 20
1216.275547526096
 11
915.0822732936356
 21
1216.275547526096
 72
     1
 10
915.0822732936358
 20
1216.275547526096
 11
915.0822732936358
 21
1326.275547526119
 72
     1
 10
915.0822732936358
 20
1326.27554752612
 11
908.0822732936359
 21
1326.27554752612
 72
     1
 10
908.0822732936359
 20
1326.27554752612
 11
908.0822732936359
 21
1366.275547526093
 72
     1
 10
908.0822732936359
 20
1366.275547526093
 11
926.5822732936229
 21
1366.275547526093
 72
     1
 10
926.5822732936229
 20
1366.275547526093
 11
926.5822732936209
 21
1344.275547526096
 72
     1
 10
926.5822732936211
 20
1344.275547526096
 11
930.582273293621
 21
1344.275547526097
 72
     1
 10
930.582273293621
 20
1344.275547526097
 11
930.582273293621
 21
1319.275547526093
 72
     1
 10
930.582273293621
 20
1319.275547526093
 11
938.0822732936234
 21
1319.275547526093
 72
     1
 10
938.0822732936232
 20
1319.275547526093
 11
938.0822732936232
 21
1228.275547526096
 72
     1
 10
938.0822732936232
 20
1228.275547526096
 11
944.0822732936238
 21
1228.275547526096
 72
     1
 10
944.082273293624
 20
1228.275547526096
 11
944.082273293624
 21
1221.275547526096
 72
     1
 10
944.082273293624
 20
1221.275547526096
 11
920.5822732936233
 21
1221.275547526096
 97
        0
 75
     0
 76
     0
 52
-45.00000000000001
 41
5.0
 77
     0
 78
     1
 53
315.0
 43
1162.342714794889
 44
1160.220308131922
 45
3.535533905932738
 46
3.535533905932736
 79
     0
 98
        1
 10
1162.342714794889
 20
1160.220308131922
1001
ACME_LAYERS
1000
1
  0
HATCH
  5
41F
330
1F
100
AcDbEntity
  8
P-0000
  6
Continuous
 62
     3
100
AcDbHatch
 10
0.0
 20
0.0
 30
0.0
210
0.0
220
0.0
230
1.0
  2
_U
 70
     0
 71
     0
 91
        1
 92
        1
 93
       14
 72
     1
 10
920.5822732936233
 20
1221.275547526096
 11
920.5822732936233
 21
1216.275547526096
 72
     1
 10
920.5822732936233
 20
1216.275547526096
 11
915.0822732936356
 21
1216.275547526096
 72
     1
 10
915.0822732936358
 20
1216.275547526096
 11
915.0822732936358
 21
1326.275547526119
 72
     1
 10
915.0822732936358
 20
1326.27554752612
 11
908.0822732936359
 21
1326.27554752612
 72
     1
 10
908.0822732936359
 20
1326.27554752612
 11
908.0822732936359
 21
1366.275547526093
 72
     1
 10
908.0822732936359
 20
1366.275547526093
 11
926.5822732936229
 21
1366.275547526093
 72
     1
 10
926.5822732936229
 20
1366.275547526093
 11
926.5822732936209
 21
1344.275547526096
 72
     1
 10
926.5822732936211
 20
1344.275547526096
 11
930.582273293621
 21
1344.275547526097
 72
     1
 10
930.582273293621
 20
1344.275547526097
 11
930.582273293621
 21
1319.275547526093
 72
     1
 10
930.582273293621
 20
1319.275547526093
 11
938.0822732936234
 21
1319.275547526093
 72
     1
 10
938.0822732936232
 20
1319.275547526093
 11
938.0822732936232
 21
1228.275547526096
 72
     1
 10
938.0822732936232
 20
1228.275547526096
 11
944.0822732936238
 21
1228.275547526096
 72
     1
 10
944.082273293624
 20
1228.275547526096
 11
944.082273293624
 21
1221.275547526096
 72
     1
 10
944.082273293624
 20
1221.275547526096
 11
920.5822732936233
 21
1221.275547526096
 97
        0
 75
     0
 76
     0
 52
44.99999999999999
 41
5.0
 77
     0
 78
     1
 53
44.99999999999999
 43
1162.342714794889
 44
1160.220308131922
 45
-3.535533905932736
 46
3.535533905932738
 79
     0
 98
        1
 10
1162.342714794889
 20
1160.220308131922
1001
ACME_LAYERS
1000
1
  0
LINE
  5
423
330
1F
100
AcDbEntity
  8
P-0000
  6
Continuous
 62
     7
100
AcDbLine
 10
926.5822732936211
 20
1344.275547526096
 30
0.0
 11
926.5822732936229
 21
1366.275547526093
 31
0.0
1001
ACME_LAYERS
1000
1
  0
DIMENSION
  5
424
330
1F
100
AcDbEntity
  8
P-0000
  6
Continuous
100
AcDbDimension
  2
*D47
 10
880.8669492366854
 20
1344.275547526097
 30
0.0
 11
888.3669492366854
 21
1353.918365326415
 31
0.0
 70
   160
  1
<>
 71
     5
 42
21.99999999999591
  3
661N88102_001_0071688668
100
AcDbAlignedDimension
 13
926.5822732936229
 23
1366.275547526093
 33
0.0
 14
930.582273293621
 24
1344.275547526097
 34
0.0
 50
270.0
100
AcDbRotatedDimension
1001
ACAD
1000
DSTYLE
1002
{
1070
   288
1070
     1
1002
}
1001
ACME_LAYERS
1000
1
  0
DIMENSION
  5
425
330
1F
100
AcDbEntity
  8
P-0000
  6
Continuous
100
AcDbDimension
  2
*D48
 10
864.7185177251083
 20
1319.275547526093
 30
0.0
 11
872.2185177251082
 21
1342.775547526093
 31
0.0
 70
   160
  1
<>
 71
     5
 42
46.99999999999954
  3
661N88102_001_0071688668
100
AcDbAlignedDimension
 13
926.5822732936229
 23
1366.275547526093
 33
0.0
 14
930.582273293621
 24
1319.275547526093
 34
0.0
 50
270.0
100
AcDbRotatedDimension
1001
ACAD
1000
DSTYLE
1002
{
1070
   288
1070
     1
1002
}
1001
ACME_LAYERS
1000
1
  0
LINE
  5
426
330
1F
100
AcDbEntity
  8
P-0000
  6
Continuous
 62
     7
100
AcDbLine
 10
908.0822732936359
 20
1366.275547526093
 30
0.0
 11
908.0822732936359
 21
1326.27554752612
 31
0.0
1001
ACME_LAYERS
1000
1
  0
LINE
  5
427
330
1F
100
AcDbEntity
  8
P-0000
  6
Continuous
 62
     7
100
AcDbLine
 10
908.8434763537113
 20
1366.275547526096
 30
0.0
 11
917.7246616365195
 21
1366.275547526096
 31
0.0
1001
ACME_LAYERS
1000
1
  0
LINE
  5
428
330
1F
100
AcDbEntity
  8
P-0000
  6
Continuous
 62
     7
100
AcDbLine
 10
913.0822732936209
 20
1366.275547526093
 30
0.0
 11
926.5822732936229
 21
1366.275547526093
 31
0.0
1001
ACME_LAYERS
1000
1
  0
LINE
  5
429
330
1F
100
AcDbEntity
  8
P-0000
  6
Continuous
 62
     7
100
AcDbLine
 10
908.0822732936359
 20
1366.275547526093
 30
0.0
 11
908.8434763537113
 21
1366.275547526096
 31
0.0
1001
ACME_LAYERS
1000
1
  0
LINE
  5
42A
330
1F
100
AcDbEntity
  8
P-0000
  6
Continuous
 62
     7
100
AcDbLine
 10
930.582273293621
 20
1319.275547526093
 30
0.0
 11
938.0822732936232
 21
1319.275547526093
 31
0.0
1001
ACME_LAYERS
1000
1
  0
LINE
  5
42B
330
1F
100
AcDbEntity
  8
P-0000
  6
Continuous
 62
     7
100
AcDbLine
 10
930.582273293621
 20
1344.275547526097
 30
0.0
 11
935.082273293616
 21
1344.275547526097
 31
0.0
1001
ACME_LAYERS
1000
1
  0
LINE
  5
42C
330
1F
100
AcDbEntity
  8
P-0000
  6
Continuous
 62
     7
100
AcDbLine
 10
930.582273293621
 20
1344.275547526097
 30
0.0
 11
930.582273293621
 21
1319.275547526093
 31
0.0
1001
ACME_LAYERS
1000
1
  0
LINE
  5
42D
330
1F
100
AcDbEntity
  8
P-0000
  6
Continuous
 62
     7
100
AcDbLine
 10
926.5822732936211
 20
1344.275547526096
 30
0.0
 11
930.582273293621
 21
1344.275547526097
 31
0.0
1001
ACME_LAYERS
1000
1
  0
LINE
  5
42E
330
1F
100
AcDbEntity
  8
P-0000
  6
Continuous
 62
     7
100
AcDbLine
 10
915.0822732936358
 20
1326.27554752612
 30
0.0
 11
908.0822732936359
 21
1326.27554752612
 31
0.0
1001
ACME_LAYERS
1000
1
  0
LINE
  5
42F
330
1F
100
AcDbEntity
  8
P-0000
  6
Continuous
 62
     7
100
AcDbLine
 10
938.0822732936232
 20
1319.275547526093
 30
0.0
 11
939.0822732936232
 21
1319.275547526093
 31
0.0
1001
ACME_LAYERS
1000
1
  0
LINE
  5
431
330
1F
100
AcDbEntity
  8
P-0000
  6
Continuous
 62
     7
100
AcDbLine
 10
908.0822732936358
 20
1081.64434347687
 30
0.0
 11
908.0822732936358
 21
1134.144343476858
 31
0.0
1001
ACME_LAYERS
1000
1
  0
DIMENSION
  5
432
330
1F
100
AcDbEntity
  8
P-0000
  6
Continuous
100
AcDbDimension
  2
*D49
 10
908.0822732936358
 20
1160.089857326603
 30
0.0
 11
915.0822732936358
 21
1167.589857326603
 31
0.0
 70
   160
  1
<>
 71
     5
 42
7.0
  3
661N88102_001_0071688668
100
AcDbAlignedDimension
 13
915.0822732936358
 23
1081.64434347687
 33
0.0
 14
908.0822732936358
 24
1081.64434347687
 34
0.0
100
AcDbRotatedDimension
1001
ACAD
1000
DSTYLE
1002
{
1070
   288
1070
     1
1002
}
1001
ACME_LAYERS
1000
1
  0
DIMENSION
  5
433
330
1F
100
AcDbEntity
  8
P-0000
  6
Continuous
100
AcDbDimension
  2
*D50
 10
869.8384584522644
 20
941.6443434768707
 30
0.0
 11
879.6134584522643
 21
1029.311975312535
 31
0.0
 70
   160
  1
<>{}{\H0.60x;\C3;\S+0.5^ ;}
 71
     5
 42
180.0000000000001
  3
6613588102_001_0071688668
100
AcDbAlignedDimension
 13
920.5822732936233
 23
1121.644343476871
 33
0.0
 14
920.5822732936233
 24
941.6443434768707
 34
0.0
 50
270.0
100
AcDbRotatedDimension
1001
ACAD
1000
DSTYLE
1002
{
1070
   288
1070
     1
1002
}
1001
ACME_LAYERS
1000
1
  0
DIMENSION
  5
434
330
1F
100
AcDbEntity
  8
P-0000
  6
Continuous
100
AcDbDimension
  2
*D51
 10
851.6763641855623
 20
1134.144343476858
 30
0.0
 11
859.1763641855623
 21
1029.830892291583
 31
0.0
 70
   160
  1
<>
 71
     5
 42
204.9999999999751
  3
661N88102_001_0071688668
100
AcDbAlignedDimension
 13
908.0822732936356
 23
929.1443434768831
 33
0.0
 14
908.0822732936358
 24
1134.144343476858
 34
0.0
 50
270.0
100
AcDbRotatedDimension
1001
ACAD
1000
DSTYLE
1002
{
1070
   288
1070
     1
1002
}
1001
ACME_LAYERS
1000
1
  0
LINE
  5
435
330
1F
100
AcDbEntity
  8
P-0000
  6
STRICHLINIE
 62
     2
100
AcDbLine
 10
920.5822732936233
 20
1121.644343476871
 30
0.0
 11
920.5822732936233
 21
941.6443434768707
 31
0.0
1001
ACME_LAYERS
1000
1
  0
DIMENSION
  5
436
330
1F
100
AcDbEntity
  8
P-0000
  6
Continuous
100
AcDbDimension
  2
*D52
 10
877.6372629343693
 20
1221.275547526096
 30
0.0
 11
885.1372629343693
 21
1206.644669940831
 31
0.0
 70
   160
  1
<>
 71
     5
 42
5.0
  3
661N88102_001_0071688668
100
AcDbAlignedDimension
 13
920.5822732936233
 23
1216.275547526096
 33
0.0
 14
920.5822732936233
 24
1221.275547526096
 34
0.0
 50
270.0
100
AcDbRotatedDimension
1001
ACAD
1000
DSTYLE
1002
{
1070
   288
1070
     1
1002
}
1001
ACME_LAYERS
1000
1
  0
LINE
  5
437
330
1F
100
AcDbEntity
  8
P-0000
  6
Continuous
 62
     7
100
AcDbLine
 10
944.082273293624
 20
1228.275547526096
 30
0.0
 11
944.082273293624
 21
1221.275547526096
 31
0.0
1001
ACME_LAYERS
1000
1
  0
LINE
  5
438
330
1F
100
AcDbEntity
  8
P-0000
  6
Continuous
 62
     7
100
AcDbLine
 10
944.082273293624
 20
1228.275547526096
 30
0.0
 11
938.0822732936232
 21
1228.275547526096
 31
0.0
1001
ACME_LAYERS
1000
1
  0
LINE
  5
439
330
1F
100
AcDbEntity
  8
P-0000
  6
Continuous
 62
     7
100
AcDbLine
 10
944.082273293624
 20
1221.275547526096
 30
0.0
 11
920.5822732936233
 21
1221.275547526096
 31
0.0
1001
ACME_LAYERS
1000
1
  0
LINE
  5
43A
330
1F
100
AcDbEntity
  8
P-0000
  6
Continuous
 62
     7
100
AcDbLine
 10
920.5822732936233
 20
1216.275547526096
 30
0.0
 11
915.0822732936358
 21
1216.275547526096
 31
0.0
1001
ACME_LAYERS
1000
1
  0
LINE
  5
43B
330
1F
100
AcDbEntity
  8
P-0000
  6
Continuous
 62
     7
100
AcDbLine
 10
915.0822732936358
 20
1216.275547526096
 30
0.0
 11
908.0822732936358
 21
1216.275547526096
 31
0.0
1001
ACME_LAYERS
1000
1
  0
LINE
  5
43C
330
1F
100
AcDbEntity
  8
P-0000
  6
Continuous
 62
     7
100
AcDbLine
 10
920.5822732936233
 20
1221.275547526096
 30
0.0
 11
920.5822732936233
 21
1216.275547526096
 31
0.0
1001
ACME_LAYERS
1000
1
  0
LINE
  5
43D
330
1F
100
AcDbEntity
  8
P-0000
  6
STRICHLINIE
 62
     2
100
AcDbLine
 10
960.5822732936232
 20
1127.144343476858
 30
0.0
 11
960.5822732936232
 21
1134.144343476858
 31
0.0
1001
ACME_LAYERS
1000
1
  0
LINE
  5
43E
330
1F
100
AcDbEntity
  8
P-0000
  6
STRICHLINIE
 62
     2
100
AcDbLine
 10
915.0822732936358
 20
1031.64434347687
 30
0.0
 11
915.0822732936356
 21
981.6443434768707
 31
0.0
1001
ACME_LAYERS
1000
1
  0
LINE
  5
43F
330
1F
100
AcDbEntity
  8
P-0000
  6
Continuous
 62
     7
100
AcDbLine
 10
908.0822732936356
 20
981.6443434768707
 30
0.0
 11
908.0822732936358
 21
1031.64434347687
 31
0.0
1001
ACME_LAYERS
1000
1
  0
DIMENSION
  5
440
330
1F
100
AcDbEntity
  8
P-0000
  6
Continuous
100
AcDbDimension
  2
*D53
 10
885.4059678237232
 20
981.6443434768707
 30
0.0
 11
892.9059678237234
 21
1030.609267760156
 31
0.0
 70
   160
  1
<>
 71
     5
 42
100.0
  3
661N88102_001_0071688668
100
AcDbAlignedDimension
 13
908.0822732936358
 23
1081.64434347687
 33
0.0
 14
908.0822732936356
 24
981.6443434768707
 34
0.0
 50
270.0
100
AcDbRotatedDimension
1001
ACAD
1000
DSTYLE
1002
{
1070
   288
1070
     1
1002
}
1001
ACME_LAYERS
1000
1
  0
TEXT
  5
441
330
1F
100
AcDbEntity
  8
P-0000
  6
Continuous
 62
     2
100
AcDbText
 10
911.2077087948893
 20
1066.124877131922
 30
0.0
 40
7.0
  1
594 006 125 E
 50
270.0
 41
0.9
100
AcDbText
1001
ACME_LAYERS
1000
1
  0
LINE
  5
442
330
1F
100
AcDbEntity
  8
P-0000
  6
Continuous
 62
     7
100
AcDbLine
 10
908.0822732936358
 20
1031.64434347687
 30
0.0
 11
908.0822732936358
 21
1081.64434347687
 31
0.0
1001
ACME_LAYERS
1000
1
  0
LINE
  5
443
330
1F
100
AcDbEntity
  8
P-0000
  6
STRICHLINIE
 62
     2
100
AcDbLine
 10
915.0822732936358
 20
1031.64434347687
 30
0.0
 11
915.0822732936358
 21
1081.64434347687
 31
0.0
1001
ACME_LAYERS
1000
1
  0
LINE
  5
444
330
1F
100
AcDbEntity
  8
P-0000
  6
STRICHLINIE
 62
     2
100
AcDbLine
 10
915.0822732936358
 20
1081.64434347687
 30
0.0
 11
908.0822732936358
 21
1081.64434347687
 31
0.0
1001
ACME_LAYERS
1000
1
  0
LINE
  5
445
330
1F
100
AcDbEntity
  8
P-0000
  6
STRICHPUNKT
 62
     3
100
AcDbLine
 10
915.0822732936358
 20
1031.64434347687
 30
0.0
 11
908.0822732936358
 21
1031.64434347687
 31
0.0
1001
ACME_LAYERS
1000
1
  0
LINE
  5
446
330
1F
100
AcDbEntity
  8
P-0000
  6
Continuous
 62
     7
100
AcDbLine
 10
908.0822732936356
 20
929.1443434768831
 30
0.0
 11
908.0822732936356
 21
981.6443434768707
 31
0.0
1001
ACME_LAYERS
1000
1
  0
LINE
  5
447
330
1F
100
AcDbEntity
  8
P-0000
  6
STRICHLINIE
 62
     2
100
AcDbLine
 10
915.0822732936356
 20
981.6443434768707
 30
0.0
 11
908.0822732936356
 21
981.6443434768707
 31
0.0
1001
ACME_LAYERS
1000
1
  0
LINE
  5
448
330
1F
100
AcDbEntity
  8
P-0000
  6
STRICHLINIE
 62
     2
100
AcDbLine
 10
960.5822732936232
 20
936.144343476883
 30
0.0
 11
960.5822732936232
 21
929.1443434768831
 31
0.0
1001
ACME_LAYERS
1000
1
  0
LINE
  5
44B
330
1F
100
AcDbEntity
  8
P-0000
  6
Continuous
 62
     7
100
AcDbLine
 10
1057.604874242528
 20
1319.275547526093
 30
0.0
 11
1057.604874242528
 21
1228.275547526096
 31
0.0
1001
ACME_LAYERS
1000
1
  0
LINE
  5
44C
330
1F
100
AcDbEntity
  8
P-0000
  6
Continuous
 62
     7
100
AcDbLine
 10
1106.082273293611
 20
1216.275547526096
 30
0.0
 11
1106.082273293611
 21
1326.275547526119
 31
0.0
1001
ACME_LAYERS
1000
1
  0
HATCH
  5
44D
330
1F
100
AcDbEntity
  8
P-0000
  6
Continuous
 62
     3
100
AcDbHatch
 10
0.0
 20
0.0
 30
0.0
210
0.0
220
0.0
230
1.0
  2
_U
 70
     0
 71
     0
 91
        1
 92
        1
 93
       11
 72
     1
 10
1094.582273293621
 20
1228.275547526096
 11
1077.082273293623
 21
1228.275547526096
 72
     1
 10
1077.082273293623
 20
1228.275547526096
 11
1077.082273293623
 21
1221.275547526096
 72
     1
 10
1077.082273293623
 20
1221.275547526096
 11
1100.582273293623
 21
1221.275547526096
 72
     1
 10
1100.582273293623
 20
1221.275547526096
 11
1100.582273293623
 21
1216.275547526096
 72
     1
 10
1100.582273293623
 20
1216.275547526096
 11
1106.082273293611
 21
1216.275547526096
 72
     1
 10
1106.082273293611
 20
1216.275547526096
 11
1106.082273293611
 21
1326.275547526119
 72
     1
 10
1106.082273293611
 20
1326.275547526119
 11
1113.082273293611
 21
1326.275547526119
 72
     1
 10
1113.082273293611
 20
1326.275547526119
 11
1113.082273293616
 21
1331.393034094348
 72
     1
 10
1113.082273293616
 20
1331.393034094348
 11
1113.082273293618
 21
1366.275547526096
 72
     1
 10
1113.082273293618
 20
1366.275547526096
 11
1094.582273293621
 21
1366.275547526093
 72
     1
 10
1094.582273293621
 20
1366.275547526093
 11
1094.582273293621
 21
1228.275547526096
 97
        0
 75
     0
 76
     0
 52
-45.00000000000001
 41
5.0
 77
     0
 78
     1
 53
315.0
 43
1162.342714794889
 44
1160.220308131922
 45
3.535533905932738
 46
3.535533905932736
 79
     0
 98
        1
 10
1162.342714794889
 20
1160.220308131922
1001
ACME_LAYERS
1000
1
  0
HATCH
  5
44E
330
1F
100
AcDbEntity
  8
P-0000
  6
Continuous
 62
     3
100
AcDbHatch
 10
0.0
 20
0.0
 30
0.0
210
0.0
220
0.0
230
1.0
  2
_U
 70
     0
 71
     0
 91
        1
 92
        1
 93
       11
 72
     1
 10
1094.582273293621
 20
1228.275547526096
 11
1077.082273293623
 21
1228.275547526096
 72
     1
 10
1077.082273293623
 20
1228.275547526096
 11
1077.082273293623
 21
1221.275547526096
 72
     1
 10
1077.082273293623
 20
1221.275547526096
 11
1100.582273293623
 21
1221.275547526096
 72
     1
 10
1100.582273293623
 20
1221.275547526096
 11
1100.582273293623
 21
1216.275547526096
 72
     1
 10
1100.582273293623
 20
1216.275547526096
 11
1106.082273293611
 21
1216.275547526096
 72
     1
 10
1106.082273293611
 20
1216.275547526096
 11
1106.082273293611
 21
1326.275547526119
 72
     1
 10
1106.082273293611
 20
1326.275547526119
 11
1113.082273293611
 21
1326.275547526119
 72
     1
 10
1113.082273293611
 20
1326.275547526119
 11
1113.082273293616
 21
1331.393034094348
 72
     1
 10
1113.082273293616
 20
1331.393034094348
 11
1113.082273293618
 21
1366.275547526096
 72
     1
 10
1113.082273293618
 20
1366.275547526096
 11
1094.582273293621
 21
1366.275547526093
 72
     1
 10
1094.582273293621
 20
1366.275547526093
 11
1094.582273293621
 21
1228.275547526096
 97
        0
 75
     0
 76
     0
 52
44.99999999999999
 41
5.0
 77
     0
 78
     1
 53
44.99999999999999
 43
1162.342714794889
 44
1160.220308131922
 45
-3.535533905932736
 46
3.535533905932738
 79
     0
 98
        1
 10
1162.342714794889
 20
1160.220308131922
1001
ACME_LAYERS
1000
1
  0
LINE
  5
44F
330
1F
100
AcDbEntity
  8
P-0000
  6
Continuous
 62
     7
100
AcDbLine
 10
1113.082273293618
 20
1366.275547526096
 30
0.0
 11
1113.08227329361
 21
1216.275547526096
 31
0.0
1001
ACME_LAYERS
1000
1
  0
LINE
  5
450
330
1F
100
AcDbEntity
  8
P-0000
  6
Continuous
 62
     7
100
AcDbLine
 10
1094.582273293621
 20
1228.275547526096
 30
0.0
 11
1094.582273293621
 21
1366.275547526093
 31
0.0
1001
ACME_LAYERS
1000
1
  0
DIMENSION
  5
451
330
1F
100
AcDbEntity
  8
P-0000
  6
Continuous
100
AcDbDimension
  2
*D54
 10
1136.545531903176
 20
1326.275547526119
 30
0.0
 11
1144.045531903175
 21
1272.768659282665
 31
0.0
 70
   160
  1
<>
 71
     5
 42
110.0000000000229
  3
661N88102_001_0071688668
100
AcDbAlignedDimension
 13
1113.08227329361
 23
1216.275547526096
 33
0.0
 14
1106.082273293611
 24
1326.275547526119
 34
0.0
 50
270.0
100
AcDbRotatedDimension
1001
ACAD
1000
DSTYLE
1002
{
1070
   288
1070
     1
1002
}
1001
ACME_LAYERS
1000
1
  0
LINE
  5
452
330
1F
100
AcDbEntity
  8
P-0000
  6
STRICHPUNKT
 62
     3
100
AcDbLine
 10
1010.582273293623
 20
1372.275547526093
 30
0.0
 11
1010.582273293623
 21
1210.275547526096
 31
0.0
1001
ACME_LAYERS
1000
1
  0
LINE
  5
456
330
1F
100
AcDbEntity
  8
P-0000
  6
Continuous
 62
     7
100
AcDbLine
 10
1094.582273293621
 20
1366.275547526093
 30
0.0
 11
1108.082273293621
 21
1366.275547526096
 31
0.0
1001
ACME_LAYERS
1000
1
  0
LINE
  5
457
330
1F
100
AcDbEntity
  8
P-0000
  6
STRICHPUNKT
 62
     3
100
AcDbLine
 10
1010.582273293623
 20
1344.41742475715
 30
0.0
 11
1010.582273293623
 21
1343.961611398316
 31
0.0
1001
ACME_LAYERS
1000
1
  0
LINE
  5
458
330
1F
100
AcDbEntity
  8
P-0000
  6
Continuous
 62
     7
100
AcDbLine
 10
1057.604874242528
 20
1319.275547526093
 30
0.0
 11
1067.150815788549
 21
1319.275547526093
 31
0.0
1001
ACME_LAYERS
1000
1
  0
LINE
  5
459
330
1F
100
AcDbEntity
  8
P-0000
  6
Continuous
 62
     3
100
AcDbLine
 10
1069.979242913292
 20
1364.009968930533
 30
0.0
 11
1069.979242913292
 21
1347.009968930533
 31
0.0
1001
ACME_LAYERS
1000
1
  0
LINE
  5
45A
330
1F
100
AcDbEntity
  8
P-0000
  6
Continuous
 62
     3
100
AcDbLine
 10
1067.150815788549
 20
1340.419083608471
 30
0.0
 11
1067.150815788549
 21
1323.419083608471
 31
0.0
1001
ACME_LAYERS
1000
1
  0
LINE
  5
45B
330
1F
100
AcDbEntity
  8
P-0000
  6
Continuous
 62
     7
100
AcDbLine
 10
1103.439884950727
 20
1366.275547526096
 30
0.0
 11
1113.082273293618
 21
1366.275547526096
 31
0.0
1001
ACME_LAYERS
1000
1
  0
LINE
  5
45C
330
1F
100
AcDbEntity
  8
P-0000
  6
Continuous
 62
     7
100
AcDbLine
 10
1113.082273293611
 20
1326.275547526119
 30
0.0
 11
1106.082273293611
 21
1326.275547526119
 31
0.0
1001
ACME_LAYERS
1000
1
  0
ARC
  5
45D
330
1F
100
AcDbEntity
  8
P-0000
  6
Continuous
 62
     7
100
AcDbCircle
 10
1010.582273293623
 20
1031.64434347687
 30
0.0
 40
83.99999999999772
100
AcDbArc
 50
315.0000000000046
 51
44.99999999999539
1001
ACME_LAYERS
1000
1
  0
LINE
  5
45E
330
1F
100
AcDbEntity
  8
P-0000
  6
STRICHPUNKT
 62
     3
100
AcDbLine
 10
1010.582273293623
 20
958.5908056171682
 30
0.0
 11
1010.582273293623
 21
1141.090805617158
 31
0.0
1001
ACME_LAYERS
1000
1
  0
LINE
  5
45F
330
1F
100
AcDbEntity
  8
P-0000
  6
Continuous
 62
     7
100
AcDbLine
 10
1057.604874242528
 20
1078.666944425775
 30
0.0
 11
1069.979242913292
 21
1091.041313096539
 31
0.0
1001
ACME_LAYERS
1000
1
  0
LINE
  5
460
330
1F
100
AcDbEntity
  8
P-0000
  6
Continuous
 62
     7
100
AcDbLine
 10
1113.082273293611
 20
1134.144343476858
 30
0.0
 11
1113.082273293611
 21
1031.64434347687
 31
0.0
1001
ACME_LAYERS
1000
1
  0
LINE
  5
462
330
1F
100
AcDbEntity
  8
P-0000
  6
STRICHLINIE
 62
     2
100
AcDbLine
 10
1100.582273293623
 20
941.6443434768707
 30
0.0
 11
1100.582273293623
 21
1121.644343476871
 31
0.0
1001
ACME_LAYERS
1000
1
  0
LINE
  5
463
330
1F
100
AcDbEntity
  8
P-0000
  6
Continuous
 62
     7
100
AcDbLine
 10
1010.582273293623
 20
1134.144343476858
 30
0.0
 11
1113.082273293611
 21
1134.144343476858
 31
0.0
1001
ACME_LAYERS
1000
1
  0
LINE
  5
464
330
1F
100
AcDbEntity
  8
P-0000
  6
Continuous
 62
     7
100
AcDbLine
 10
1100.582273293623
 20
1221.275547526096
 30
0.0
 11
1092.082273293621
 21
1221.275547526096
 31
0.0
1001
ACME_LAYERS
1000
1
  0
LINE
  5
465
330
1F
100
AcDbEntity
  8
P-0000
  6
STRICHLINIE
 62
     2
100
AcDbLine
 10
1092.082273293621
 20
1228.275547526096
 30
0.0
 11
1092.082273293621
 21
1221.275547526096
 31
0.0
1001
ACME_LAYERS
1000
1
  0
LINE
  5
466
330
1F
100
AcDbEntity
  8
P-0000
  6
STRICHLINIE
 62
     2
100
AcDbLine
 10
1085.082273293621
 20
1228.275547526096
 30
0.0
 11
1085.082273293621
 21
1221.275547526096
 31
0.0
1001
ACME_LAYERS
1000
1
  0
LINE
  5
467
330
1F
100
AcDbEntity
  8
P-0000
  6
STRICHPUNKT
 62
     3
100
AcDbLine
 10
1088.582273293621
 20
1234.275547526096
 30
0.0
 11
1088.582273293621
 21
1215.275547526096
 31
0.0
1001
ACME_LAYERS
1000
1
  0
LINE
  5
468
330
1F
100
AcDbEntity
  8
P-0000
  6
Continuous
 62
     7
100
AcDbLine
 10
1077.082273293623
 20
1221.275547526096
 30
0.0
 11
1077.082273293623
 21
1228.275547526096
 31
0.0
1001
ACME_LAYERS
1000
1
  0
LINE
  5
469
330
1F
100
AcDbEntity
  8
P-0000
  6
Continuous
 62
     7
100
AcDbLine
 10
1077.082273293623
 20
1228.275547526096
 30
0.0
 11
1057.604874242528
 21
1228.275547526096
 31
0.0
1001
ACME_LAYERS
1000
1
  0
LINE
  5
46A
330
1F
100
AcDbEntity
  8
P-0000
  6
Continuous
 62
     7
100
AcDbLine
 10
1077.082273293623
 20
1228.275547526096
 30
0.0
 11
1085.082273293621
 21
1228.275547526096
 31
0.0
1001
ACME_LAYERS
1000
1
  0
LINE
  5
46B
330
1F
100
AcDbEntity
  8
P-0000
  6
Continuous
 62
     7
100
AcDbLine
 10
1092.082273293621
 20
1228.275547526096
 30
0.0
 11
1094.582273293621
 21
1228.275547526096
 31
0.0
1001
ACME_LAYERS
1000
1
  0
LINE
  5
46C
330
1F
100
AcDbEntity
  8
P-0000
  6
Continuous
 62
     7
100
AcDbLine
 10
1085.082273293621
 20
1228.275547526096
 30
0.0
 11
1092.082273293621
 21
1228.275547526096
 31
0.0
1001
ACME_LAYERS
1000
1
  0
LINE
  5
46D
330
1F
100
AcDbEntity
  8
P-0000
  6
Continuous
 62
     7
100
AcDbLine
 10
1085.082273293621
 20
1221.275547526096
 30
0.0
 11
1077.082273293623
 21
1221.275547526096
 31
0.0
1001
ACME_LAYERS
1000
1
  0
LINE
  5
46E
330
1F
100
AcDbEntity
  8
P-0000
  6
Continuous
 62
     7
100
AcDbLine
 10
1092.082273293621
 20
1221.275547526096
 30
0.0
 11
1085.082273293621
 21
1221.275547526096
 31
0.0
1001
ACME_LAYERS
1000
1
  0
LINE
  5
46F
330
1F
100
AcDbEntity
  8
P-0000
  6
STRICHLINIE
 62
     2
100
AcDbLine
 10
1010.582273293623
 20
1127.144343476858
 30
0.0
 11
1060.582273293623
 21
1127.144343476858
 31
0.0
1001
ACME_LAYERS
1000
1
  0
LINE
  5
470
330
1F
100
AcDbEntity
  8
P-0000
  6
STRICHLINIE
 62
     2
100
AcDbLine
 10
1060.582273293623
 20
1127.144343476858
 30
0.0
 11
1060.582273293623
 21
1134.144343476858
 31
0.0
1001
ACME_LAYERS
1000
1
  0
LINE
  5
471
330
1F
100
AcDbEntity
  8
P-0000
  6
Continuous
 62
     7
100
AcDbLine
 10
1113.08227329361
 20
1216.275547526096
 30
0.0
 11
1100.582273293623
 21
1216.275547526096
 31
0.0
1001
ACME_LAYERS
1000
1
  0
LINE
  5
472
330
1F
100
AcDbEntity
  8
P-0000
  6
Continuous
 62
     7
100
AcDbLine
 10
1100.582273293623
 20
1221.275547526096
 30
0.0
 11
1100.582273293623
 21
1216.275547526096
 31
0.0
1001
ACME_LAYERS
1000
1
  0
LINE
  5
473
330
1F
100
AcDbEntity
  8
P-0000
  6
Continuous
 62
     7
100
AcDbLine
 10
1113.082273293611
 20
929.1443434768831
 30
0.0
 11
1010.582273293623
 21
929.1443434768831
 31
0.0
1001
ACME_LAYERS
1000
1
  0
DIMENSION
  5
474
330
1F
100
AcDbEntity
  8
P-0000
  6
Continuous
100
AcDbDimension
  2
*D56
 10
1084.125097682915
 20
974.503512168742
 30
0.0
 11
1092.803084241291
 21
973.1776051247168
 31
0.0
 70
   160
  1
%%c<>
 71
     5
 42
7.000000000000227
  3
661N88102_001_0071688668
100
AcDbAlignedDimension
 13
1068.087297583711
 23
978.8229732915544
 33
0.0
 14
1072.586810851517
 24
984.1852843933873
 34
0.0
 50
229.9999999999974
100
AcDbRotatedDimension
1001
ACAD
1000
DSTYLE
1002
{
1070
   288
1070
     1
1002
}
1001
ACME_LAYERS
1000
1
  0
LINE
  5
475
330
1F
100
AcDbEntity
  8
P-7DCC
  6
STRICHPUNKT
 62
     3
100
AcDbLine
 10
1081.082273293622
 20
1031.64434347687
 30
0.0
 11
1098.082273293623
 21
1031.64434347687
 31
0.0
1001
ACME_LAYERS
1000
1
  0
ARC
  5
478
330
1F
100
AcDbEntity
  8
P-0000
  6
STRICHPUNKT
 62
     3
100
AcDbCircle
 10
1010.582273293623
 20
1031.64434347687
 30
0.0
 40
78.0043265906309
100
AcDbArc
 50
308.4009883859011
 51
326.7376057203613
1001
ACME_LAYERS
1000
1
  0
LINE
  5
479
330
1F
100
AcDbEntity
  8
P-0000
  6
STRICHPUNKT
 62
     3
100
AcDbLine
 10
1081.786754935931
 20
971.8966891926406
 30
0.0
 11
1059.006672309599
 21
991.0114481225837
 31
0.0
1001
ACME_LAYERS
1000
1
  0
ARC
  5
47A
330
1F
100
AcDbEntity
  8
P-0000
  6
Continuous
 62
     7
100
AcDbCircle
 10
1010.582273293623
 20
1031.64434347687
 30
0.0
 40
66.49999999999927
100
AcDbArc
 50
315.0000000000046
 51
44.99999999999539
1001
ACME_LAYERS
1000
1
  0
ARC
  5
47B
330
1F
100
AcDbEntity
  8
P-0000
  6
STRICHPUNKT
 62
     3
100
AcDbCircle
 10
1010.582273293623
 20
1031.64434347687
 30
0.0
 40
78.00432659063087
100
AcDbArc
 50
326.7376057203613
 51
334.7716815287455
1001
ACME_LAYERS
1000
1
  0
LINE
  5
47C
330
1F
100
AcDbEntity
  8
P-0000
  6
STRICHLINIE
 62
     2
100
AcDbLine
 10
1010.582273293623
 20
936.144343476883
 30
0.0
 11
1060.582273293623
 21
936.144343476883
 31
0.0
1001
ACME_LAYERS
1000
1
  0
ARC
  5
47D
330
1F
100
AcDbEntity
  8
P-0000
  6
Continuous
 62
     7
100
AcDbCircle
 10
1010.582273293623
 20
1031.64434347687
 30
0.0
 40
80.00000000000241
100
AcDbArc
 50
270.0
 51
315.0000000000046
1001
ACME_LAYERS
1000
1
  0
LINE
  5
47E
330
1F
100
AcDbEntity
  8
P-0000
  6
STRICHPUNKT
 62
     3
100
AcDbLine
 10
1010.582273293623
 20
929.1443434768831
 30
0.0
 11
1010.582273293623
 21
951.6443434768682
 31
0.0
1001
ACME_LAYERS
1000
1
  0
LINE
  5
47F
330
1F
100
AcDbEntity
  8
P-0000
  6
Continuous
 62
     7
100
AcDbLine
 10
1057.604874242528
 20
984.6217425279657
 30
0.0
 11
1067.150815788548
 21
975.0758009819451
 31
0.0
1001
ACME_LAYERS
1000
1
  0
CIRCLE
  5
480
330
1F
100
AcDbEntity
  8
P-0000
  6
Continuous
 62
     7
100
AcDbCircle
 10
1070.337054217614
 20
981.5041288424708
 30
0.0
 40
3.5
1001
ACME_LAYERS
1000
1
  0
LINE
  5
481
330
1F
100
AcDbEntity
  8
P-0000
  6
Continuous
 62
     7
100
AcDbLine
 10
1067.150815788548
 20
975.0758009819451
 30
0.0
 11
1069.979242913292
 21
972.2473738572022
 31
0.0
1001
ACME_LAYERS
1000
1
  0
LINE
  5
482
330
1F
100
AcDbEntity
  8
P-0000
  6
STRICHLINIE
 62
     2
100
AcDbLine
 10
1060.582273293623
 20
936.144343476883
 30
0.0
 11
1060.582273293623
 21
929.1443434768829
 31
0.0
1001
ACME_LAYERS
1000
1
  0
LINE
  5
483
330
1F
100
AcDbEntity
  8
P-0000
  6
STRICHLINIE
 62
     2
100
AcDbLine
 10
1106.082273293611
 20
1031.64434347687
 30
0.0
 11
1106.082273293611
 21
981.6443434768705
 31
0.0
1001
ACME_LAYERS
1000
1
  0
LINE
  5
484
330
1F
100
AcDbEntity
  8
P-0000
  6
Continuous
 62
     7
100
AcDbLine
 10
1113.082273293611
 20
1031.64434347687
 30
0.0
 11
1113.082273293611
 21
929.1443434768831
 31
0.0
1001
ACME_LAYERS
1000
1
  0
LINE
  5
485
330
1F
100
AcDbEntity
  8
P-0000
  6
STRICHLINIE
 62
     2
100
AcDbLine
 10
1106.082273293611
 20
1031.64434347687
 30
0.0
 11
1106.082273293611
 21
1081.64434347687
 31
0.0
1001
ACME_LAYERS
1000
1
  0
LINE
  5
486
330
1F
100
AcDbEntity
  8
P-0000
  6
STRICHLINIE
 62
     2
100
AcDbLine
 10
1106.082273293611
 20
1081.64434347687
 30
0.0
 11
1113.082273293611
 21
1081.64434347687
 31
0.0
1001
ACME_LAYERS
1000
1
  0
LINE
  5
487
330
1F
100
AcDbEntity
  8
P-0000
  6
STRICHLINIE
 62
     2
100
AcDbLine
 10
1106.082273293611
 20
981.6443434768705
 30
0.0
 11
1113.082273293611
 21
981.6443434768705
 31
0.0
1001
ACME_LAYERS
1000
1
  0
LINE
  5
489
330
1F
100
AcDbEntity
  8
P-0000
  6
STRICHLINIE
 62
     2
100
AcDbLine
 10
960.5822732936207
 20
370.7337740212843
 30
0.0
 11
1060.58227329362
 21
370.7337740212843
 31
0.0
1001
ACME_LAYERS
1000
1
  0
LINE
  5
48A
330
1F
100
AcDbEntity
  8
P-0000
  6
STRICHLINIE
 62
     2
100
AcDbLine
 10
960.5822732936207
 20
370.7337740212843
 30
0.0
 11
1060.58227329362
 21
370.7337740212843
 31
0.0
1001
ACME_LAYERS
1000
1
  0
DIMENSION
  5
48B
330
1F
100
AcDbEntity
  8
P-0000
  6
Continuous
100
AcDbDimension
  2
*D59
 10
1100.582273293621
 20
334.6221608925989
 30
0.0
 11
1008.047345346441
 21
344.3971608925985
 31
0.0
 70
   160
  1
<>{}{\H0.60x;\C3;\S^ -0.5;}
 71
     5
 42
180.0
  3
6613688102_001_0071688668
100
AcDbAlignedDimension
 13
920.5822732936209
 23
376.2337740212715
 33
0.0
 14
1100.582273293621
 24
376.2337740212715
 34
0.0
100
AcDbRotatedDimension
1001
ACAD
1000
DSTYLE
1002
{
1070
   288
1070
     1
1002
}
1001
ACME_LAYERS
1000
1
  0
DIMENSION
  5
48C
330
1F
100
AcDbEntity
  8
P-0000
  6
Continuous
100
AcDbDimension
  2
*D60
 10
1113.082273293608
 20
313.9115484576214
 30
0.0
 11
1008.410689424248
 21
321.4115484576214
 31
0.0
 70
   160
  1
<>
 71
     5
 42
204.9999999999745
  3
661N88102_001_0071688668
100
AcDbAlignedDimension
 13
908.0822732936335
 23
363.7337740212843
 33
0.0
 14
1113.082273293608
 24
363.7337740212843
 34
0.0
100
AcDbRotatedDimension
1001
ACAD
1000
DSTYLE
1002
{
1070
   288
1070
     1
1002
}
1001
ACME_LAYERS
1000
1
  0
LINE
  5
48D
330
1F
100
AcDbEntity
  8
P-0000
  6
Continuous
 62
     7
100
AcDbLine
 10
1010.58227329362
 20
363.7337740212843
 30
0.0
 11
908.0822732936335
 21
363.7337740212843
 31
0.0
1001
ACME_LAYERS
1000
1
  0
LINE
  5
48E
330
1F
100
AcDbEntity
  8
P-0000
  6
Continuous
 62
     7
100
AcDbLine
 10
920.5822732936209
 20
376.2337740212715
 30
0.0
 11
1100.582273293621
 21
376.2337740212715
 31
0.0
1001
ACME_LAYERS
1000
1
  0
DIMENSION
  5
48F
330
1F
100
AcDbEntity
  8
P-0000
  6
Continuous
100
AcDbDimension
  2
*D61
 10
942.6230027938737
 20
504.5249286134199
 30
0.0
 11
986.7055158932101
 21
484.2781983672544
 31
0.0
 70
   163
  1
%%c156
 71
     5
 42
156.0086531812596
  3
661N88102_001_0071688668
100
AcDbDiametricDimension
 15
1078.541543793368
 25
427.9426194291223
 35
0.0
 40
0.0
1001
ACAD
1000
DSTYLE
1002
{
1070
   288
1070
     1
1002
}
1001
ACME_LAYERS
1000
1
  0
DIMENSION
  5
490
330
1F
100
AcDbEntity
  8
P-0000
  6
Continuous
100
AcDbDimension
  2
*D62
 10
1077.082273293622
 20
628.2961134923715
 30
0.0
 11
1010.582273293622
 21
638.0711134923712
 31
0.0
 70
   160
  1
%%c<>{}{\H0.60x;\C3;\S+0.3^ ;}
 71
     5
 42
133.0
  3
6613488102_001_0071688668
100
AcDbAlignedDimension
 13
944.0822732936226
 23
660.7551959749943
 33
0.0
 14
1077.082273293622
 24
660.7551959749943
 34
0.0
100
AcDbRotatedDimension
1001
ACAD
1000
DSTYLE
1002
{
1070
   288
1070
     1
1002
}
1001
ACME_LAYERS
1000
1
  0
LINE
  5
491
330
1F
100
AcDbEntity
  8
P-0000
  6
Continuous
 62
     7
100
AcDbLine
 10
1077.082273293622
 20
660.7551959749943
 30
0.0
 11
944.0822732936226
 21
660.7551959749943
 31
0.0
1001
ACME_LAYERS
1000
1
  0
LINE
  5
492
330
1F
100
AcDbEntity
  8
P-0000
  6
STRICHLINIE
 62
     2
100
AcDbLine
 10
1060.58227329362
 20
561.7337740212605
 30
0.0
 11
960.5822732936207
 21
561.7337740212605
 31
0.0
1001
ACME_LAYERS
1000
1
  0
LINE
  5
493
330
1F
100
AcDbEntity
  8
P-0000
  6
STRICHLINIE
 62
     2
100
AcDbLine
 10
1060.58227329362
 20
561.7337740212605
 30
0.0
 11
960.5822732936207
 21
561.7337740212605
 31
0.0
1001
ACME_LAYERS
1000
1
  0
LINE
  5
494
330
1F
100
AcDbEntity
  8
P-0000
  6
Continuous
 62
     7
100
AcDbLine
 10
1010.582273293622
 20
765.7551959749943
 30
0.0
 11
944.0822732936227
 21
765.7551959749943
 31
0.0
1001
ACME_LAYERS
1000
1
  0
LINE
  5
495
330
1F
100
AcDbEntity
  8
P-0000
  6
Continuous
 62
     7
100
AcDbLine
 10
908.0822732936335
 20
568.7337740212605
 30
0.0
 11
1010.58227329362
 21
568.7337740212605
 31
0.0
1001
ACME_LAYERS
1000
1
  0
LINE
  5
496
330
1F
100
AcDbEntity
  8
P-0000
  6
STRICHPUNKT
 62
     3
100
AcDbLine
 10
1113.082273293608
 20
466.2337740212714
 30
0.0
 11
908.0822732936335
 21
466.2337740212714
 31
0.0
1001
ACME_LAYERS
1000
1
  0
LINE
  5
497
330
1F
100
AcDbEntity
  8
P-0000
  6
Continuous
 62
     7
100
AcDbLine
 10
1100.582273293621
 20
556.2337740212714
 30
0.0
 11
920.5822732936209
 21
556.2337740212714
 31
0.0
1001
ACME_LAYERS
1000
1
  0
CIRCLE
  5
498
330
1F
100
AcDbEntity
  8
P-0000
  6
Continuous
 62
     7
100
AcDbCircle
 10
1010.58227329362
 20
466.2337740212714
 30
0.0
 40
66.49999999999967
1001
ACME_LAYERS
1000
1
  0
LINE
  5
49B
330
1F
100
AcDbEntity
  8
P-0000
  6
Continuous
 62
     7
100
AcDbLine
 10
908.0822732936335
 20
466.2337740212714
 30
0.0
 11
908.0822732936335
 21
516.2337740212714
 31
0.0
1001
ACME_LAYERS
1000
1
  0
DIMENSION
  5
4A8
330
1F
100
AcDbEntity
  8
P-0000
  6
Continuous
100
AcDbDimension
  2
*D63
 10
850.4051607563065
 20
568.7337740212605
 30
0.0
 11
857.9051607563064
 21
462.6755314175187
 31
0.0
 70
   160
  1
<>
 71
     5
 42
204.9999999999762
  3
661N88102_001_0071688668
100
AcDbAlignedDimension
 13
908.0822732936335
 23
363.7337740212843
 33
0.0
 14
908.0822732936335
 24
568.7337740212605
 34
0.0
 50
270.0
100
AcDbRotatedDimension
1001
ACAD
1000
DSTYLE
1002
{
1070
   288
1070
     1
1002
}
1001
ACME_LAYERS
1000
1
  0
DIMENSION
  5
4A9
330
1F
100
AcDbEntity
  8
P-0000
  6
Continuous
100
AcDbDimension
  2
*D64
 10
869.8914608495046
 20
376.2337740212716
 30
0.0
 11
879.6664608495044
 21
462.6755314175187
 31
0.0
 70
   160
  1
<>{}{\H0.60x;\C3;\S+0.5^ ;}
 71
     5
 42
179.9999999999999
  3
6613588102_001_0071688668
100
AcDbAlignedDimension
 13
920.5822732936209
 23
556.2337740212714
 33
0.0
 14
920.5822732936209
 24
376.2337740212715
 34
0.0
 50
270.0
100
AcDbRotatedDimension
1001
ACAD
1000
DSTYLE
1002
{
1070
   288
1070
     1
1002
}
1001
ACME_LAYERS
1000
1
  0
DIMENSION
  5
4AA
330
1F
100
AcDbEntity
  8
P-0000
  6
Continuous
100
AcDbDimension
  2
*D65
 10
888.7688140647876
 20
416.2337740212715
 30
0.0
 11
896.2688140647875
 21
465.111318929168
 31
0.0
 70
   160
  1
<>
 71
     5
 42
99.99999999999989
  3
661N88102_001_0071688668
100
AcDbAlignedDimension
 13
915.0822732936335
 23
516.2337740212714
 33
0.0
 14
915.0822732936335
 24
416.2337740212715
 34
0.0
 50
270.0
100
AcDbRotatedDimension
1001
ACAD
1000
DSTYLE
1002
{
1070
   288
1070
     1
1002
}
1001
ACME_LAYERS
1000
1
  0
LINE
  5
4AB
330
1F
100
AcDbEntity
  8
P-0000
  6
Continuous
 62
     7
100
AcDbLine
 10
920.5822732936209
 20
556.2337740212714
 30
0.0
 11
920.5822732936209
 21
376.2337740212715
 31
0.0
1001
ACME_LAYERS
1000
1
  0
LINE
  5
4AC
330
1F
100
AcDbEntity
  8
P-0000
  6
STRICHLINIE
 62
     2
100
AcDbLine
 10
915.0822732936335
 20
516.2337740212714
 30
0.0
 11
915.0822732936335
 21
416.2337740212715
 31
0.0
1001
ACME_LAYERS
1000
1
  0
LINE
  5
509
330
1F
100
AcDbEntity
  8
P-0000
  6
Continuous
 62
     7
100
AcDbLine
 10
944.0822732936227
 20
765.7551959749943
 30
0.0
 11
944.0822732936226
 21
660.7551959749943
 31
0.0
1001
ACME_LAYERS
1000
1
  0
DIMENSION
  5
50A
330
1F
100
AcDbEntity
  8
P-0000
  6
Continuous
100
AcDbDimension
  2
*D66
 10
865.7579350156352
 20
660.7551959749943
 30
0.0
 11
873.2579350156353
 21
717.5108137725654
 31
0.0
 70
   160
  1
<>
 71
     5
 42
105.0
  3
661N88102_001_0071688668
100
AcDbAlignedDimension
 13
920.5822732936226
 23
765.7551959749943
 33
0.0
 14
908.0822732936352
 24
660.7551959749943
 34
0.0
 50
270.0
100
AcDbRotatedDimension
1001
ACAD
1000
DSTYLE
1002
{
1070
   288
1070
     1
1002
}
1001
ACME_LAYERS
1000
1
  0
DIMENSION
  5
50B
330
1F
100
AcDbEntity
  8
P-0000
  6
Continuous
100
AcDbDimension
  2
*D67
 10
890.3862405345458
 20
750.7551959749942
 30
0.0
 11
897.8862405345459
 21
705.7551959749943
 31
0.0
 70
   160
  1
<>
 71
     5
 42
90.0
  3
661N88102_001_0071688668
100
AcDbAlignedDimension
 13
908.0822732936352
 23
660.7551959749943
 33
0.0
 14
908.0822732936354
 24
750.7551959749942
 34
0.0
 50
270.0
100
AcDbRotatedDimension
1001
ACAD
1000
DSTYLE
1002
{
1070
   288
1070
     1
1002
}
1001
ACME_LAYERS
1000
1
  0
LINE
  5
50C
330
1F
100
AcDbEntity
  8
P-0000
  6
Continuous
 62
     7
100
AcDbLine
 10
915.0822732936337
 20
750.7551959749942
 30
0.0
 11
915.0822732936335
 21
660.7551959749943
 31
0.0
1001
ACME_LAYERS
1000
1
  0
LINE
  5
50D
330
1F
100
AcDbEntity
  8
P-0000
  6
Continuous
 62
     7
100
AcDbLine
 10
908.0822732936354
 20
750.7551959749942
 30
0.0
 11
908.0822732936352
 21
660.7551959749943
 31
0.0
1001
ACME_LAYERS
1000
1
  0
HATCH
  5
50E
330
1F
100
AcDbEntity
  8
P-0000
  6
Continuous
 62
     3
100
AcDbHatch
 10
0.0
 20
0.0
 30
0.0
210
0.0
220
0.0
230
1.0
  2
_U
 70
     0
 71
     0
 91
        1
 92
        1
 93
        8
 72
     1
 10
944.0822732936226
 20
660.7551959749943
 11
915.0822732936335
 21
660.7551959749943
 72
     1
 10
915.0822732936335
 20
660.7551959749943
 11
915.0822732936335
 21
750.7551959749942
 72
     1
 10
915.0822732936337
 20
750.7551959749942
 11
908.0822732936354
 21
750.7551959749942
 72
     1
 10
908.0822732936354
 20
750.7551959749942
 11
908.0822732936354
 21
760.7551959749943
 72
     1
 10
908.0822732936354
 20
760.7551959749943
 11
920.5822732936226
 21
760.7551959749943
 72
     1
 10
920.5822732936226
 20
760.7551959749943
 11
920.5822732936226
 21
765.7551959749943
 72
     1
 10
920.5822732936226
 20
765.7551959749943
 11
944.0822732936227
 21
765.7551959749943
 72
     1
 10
944.0822732936227
 20
765.7551959749943
 11
944.0822732936227
 21
660.7551959749943
 97
        0
 75
     0
 76
     0
 52
-45.00000000000001
 41
5.0
 77
     0
 78
     1
 53
315.0
 43
1162.342714794889
 44
1160.220308131922
 45
3.535533905932738
 46
3.535533905932736
 79
     0
 98
        1
 10
1162.342714794889
 20
1160.220308131922
1001
ACME_LAYERS
1000
1
  0
HATCH
  5
50F
330
1F
100
AcDbEntity
  8
P-0000
  6
Continuous
 62
     3
100
AcDbHatch
 10
0.0
 20
0.0
 30
0.0
210
0.0
220
0.0
230
1.0
  2
_U
 70
     0
 71
     0
 91
        1
 92
        1
 93
        8
 72
     1
 10
944.0822732936226
 20
660.7551959749943
 11
915.0822732936335
 21
660.7551959749943
 72
     1
 10
915.0822732936335
 20
660.7551959749943
 11
915.0822732936335
 21
750.7551959749942
 72
     1
 10
915.0822732936337
 20
750.7551959749942
 11
908.0822732936354
 21
750.7551959749942
 72
     1
 10
908.0822732936354
 20
750.7551959749942
 11
908.0822732936354
 21
760.7551959749943
 72
     1
 10
908.0822732936354
 20
760.7551959749943
 11
920.5822732936226
 21
760.7551959749943
 72
     1
 10
920.5822732936226
 20
760.7551959749943
 11
920.5822732936226
 21
765.7551959749943
 72
     1
 10
920.5822732936226
 20
765.7551959749943
 11
944.0822732936227
 21
765.7551959749943
 72
     1
 10
944.0822732936227
 20
765.7551959749943
 11
944.0822732936227
 21
660.7551959749943
 97
        0
 75
     0
 76
     0
 52
44.99999999999999
 41
5.0
 77
     0
 78
     1
 53
44.99999999999999
 43
1162.342714794889
 44
1160.220308131922
 45
-3.535533905932736
 46
3.535533905932738
 79
     0
 98
        1
 10
1162.342714794889
 20
1160.220308131922
1001
ACME_LAYERS
1000
1
  0
DIMENSION
  5
510
330
1F
100
AcDbEntity
  8
P-0000
  6
Continuous
100
AcDbDimension
  2
*D68
 10
881.0587596261953
 20
760.7551959749943
 30
0.0
 11
888.5587596261952
 21
750.662600428779
 31
0.0
 70
   160
  1
<>
 71
     5
 42
5.0
  3
661N88102_001_0071688668
100
AcDbAlignedDimension
 13
920.5822732936226
 23
765.7551959749943
 33
0.0
 14
908.0822732936354
 24
760.7551959749943
 34
0.0
 50
270.0
100
AcDbRotatedDimension
1001
ACAD
1000
DSTYLE
1002
{
1070
   288
1070
     1
1002
}
1001
ACME_LAYERS
1000
1
  0
LINE
  5
511
330
1F
100
AcDbEntity
  8
P-0000
  6
Continuous
 62
     7
100
AcDbLine
 10
908.0822732936354
 20
760.7551959749943
 30
0.0
 11
908.0822732936354
 21
750.7551959749942
 31
0.0
1001
ACME_LAYERS
1000
1
  0
LINE
  5
512
330
1F
100
AcDbEntity
  8
P-0000
  6
Continuous
 62
     7
100
AcDbLine
 10
944.0822732936227
 20
765.7551959749943
 30
0.0
 11
920.5822732936226
 21
765.7551959749943
 31
0.0
1001
ACME_LAYERS
1000
1
  0
LINE
  5
513
330
1F
100
AcDbEntity
  8
P-0000
  6
Continuous
 62
     7
100
AcDbLine
 10
920.5822732936226
 20
760.7551959749943
 30
0.0
 11
908.0822732936354
 21
760.7551959749943
 31
0.0
1001
ACME_LAYERS
1000
1
  0
LINE
  5
514
330
1F
100
AcDbEntity
  8
P-0000
  6
Continuous
 62
     7
100
AcDbLine
 10
920.5822732936226
 20
765.7551959749943
 30
0.0
 11
920.5822732936226
 21
760.7551959749943
 31
0.0
1001
ACME_LAYERS
1000
1
  0
LINE
  5
515
330
1F
100
AcDbEntity
  8
P-0000
  6
Continuous
 62
     7
100
AcDbLine
 10
915.0822732936337
 20
750.7551959749942
 30
0.0
 11
908.0822732936354
 21
750.7551959749942
 31
0.0
1001
ACME_LAYERS
1000
1
  0
LINE
  5
516
330
1F
100
AcDbEntity
  8
P-0000
  6
Continuous
 62
     7
100
AcDbLine
 10
944.0822732936226
 20
660.7551959749943
 30
0.0
 11
915.0822732936335
 21
660.7551959749943
 31
0.0
1001
ACME_LAYERS
1000
1
  0
LINE
  5
517
330
1F
100
AcDbEntity
  8
P-0000
  6
Continuous
 62
     7
100
AcDbLine
 10
915.0822732936335
 20
660.7551959749943
 30
0.0
 11
908.0822732936352
 21
660.7551959749943
 31
0.0
1001
ACME_LAYERS
1000
1
  0
DIMENSION
  5
518
330
1F
100
AcDbEntity
  8
P-0000
  6
Continuous
100
AcDbDimension
  2
*D69
 10
908.0822732936335
 20
592.8170039245086
 30
0.0
 11
915.0822732936335
 21
600.3170039245086
 31
0.0
 70
   160
  1
<>
 71
     5
 42
7.0
  3
661N88102_001_0071688668
100
AcDbAlignedDimension
 13
915.0822732936335
 23
516.2337740212714
 33
0.0
 14
908.0822732936335
 24
516.2337740212714
 34
0.0
100
AcDbRotatedDimension
1001
ACAD
1000
DSTYLE
1002
{
1070
   288
1070
     1
1002
}
1001
ACME_LAYERS
1000
1
  0
LINE
  5
519
330
1F
100
AcDbEntity
  8
P-0000
  6
STRICHLINIE
 62
     2
100
AcDbLine
 10
960.5822732936207
 20
561.7337740212605
 30
0.0
 11
960.5822732936207
 21
568.7337740212605
 31
0.0
1001
ACME_LAYERS
1000
1
  0
LINE
  5
51A
330
1F
100
AcDbEntity
  8
P-0000
  6
Continuous
 62
     7
100
AcDbLine
 10
908.0822732936335
 20
516.2337740212714
 30
0.0
 11
908.0822732936335
 21
568.7337740212605
 31
0.0
1001
ACME_LAYERS
1000
1
  0
LINE
  5
51B
330
1F
100
AcDbEntity
  8
P-0000
  6
STRICHLINIE
 62
     2
100
AcDbLine
 10
915.0822732936335
 20
516.2337740212714
 30
0.0
 11
908.0822732936335
 21
516.2337740212714
 31
0.0
1001
ACME_LAYERS
1000
1
  0
LINE
  5
554
330
1F
100
AcDbEntity
  8
P-0000
  6
Continuous
 62
     7
100
AcDbLine
 10
908.0822732936335
 20
416.2337740212715
 30
0.0
 11
908.0822732936335
 21
466.2337740212714
 31
0.0
1001
ACME_LAYERS
1000
1
  0
TEXT
  5
555
330
1F
100
AcDbEntity
  8
P-0000
  6
Continuous
 62
     2
100
AcDbText
 10
928.7469837948892
 20
500.922710131922
 30
0.0
 40
7.0
  1
594 006 125 R
 50
270.0
 41
0.9
100
AcDbText
1001
ACME_LAYERS
1000
1
  0
LINE
  5
556
330
1F
100
AcDbEntity
  8
P-0000
  6
Continuous
 62
     7
100
AcDbLine
 10
908.0822732936335
 20
363.7337740212843
 30
0.0
 11
908.0822732936335
 21
416.2337740212715
 31
0.0
1001
ACME_LAYERS
1000
1
  0
LINE
  5
557
330
1F
100
AcDbEntity
  8
P-0000
  6
STRICHLINIE
 62
     2
100
AcDbLine
 10
915.0822732936335
 20
416.2337740212715
 30
0.0
 11
908.0822732936335
 21
416.2337740212715
 31
0.0
1001
ACME_LAYERS
1000
1
  0
LINE
  5
558
330
1F
100
AcDbEntity
  8
P-0000
  6
STRICHLINIE
 62
     2
100
AcDbLine
 10
960.5822732936207
 20
370.7337740212843
 30
0.0
 11
960.5822732936207
 21
363.7337740212843
 31
0.0
1001
ACME_LAYERS
1000
1
  0
LINE
  5
55B
330
1F
100
AcDbEntity
  8
P-0000
  6
Continuous
 62
     7
100
AcDbLine
 10
1113.082273293608
 20
568.7337740212605
 30
0.0
 11
1113.082273293608
 21
466.2337740212714
 31
0.0
1001
ACME_LAYERS
1000
1
  0
LINE
  5
55C
330
1F
100
AcDbEntity
  8
P-0000
  6
STRICHPUNKT
 62
     3
100
AcDbLine
 10
1010.58227329362
 20
393.1802361615701
 30
0.0
 11
1010.58227329362
 21
575.680236161559
 31
0.0
1001
ACME_LAYERS
1000
1
  0
LINE
  5
55D
330
1F
100
AcDbEntity
  8
P-0000
  6
Continuous
 62
     7
100
AcDbLine
 10
1100.582273293621
 20
376.2337740212715
 30
0.0
 11
1100.582273293621
 21
556.2337740212714
 31
0.0
1001
ACME_LAYERS
1000
1
  0
LINE
  5
55E
330
1F
100
AcDbEntity
  8
P-0000
  6
STRICHLINIE
 62
     2
100
AcDbLine
 10
1106.082273293608
 20
416.2337740212715
 30
0.0
 11
1106.082273293608
 21
516.2337740212732
 31
0.0
1001
ACME_LAYERS
1000
1
  0
LINE
  5
55F
330
1F
100
AcDbEntity
  8
P-0000
  6
STRICHLINIE
 62
     2
100
AcDbLine
 10
1106.082273293608
 20
416.2337740212715
 30
0.0
 11
1106.082273293608
 21
516.2337740212732
 31
0.0
1001
ACME_LAYERS
1000
1
  0
HATCH
  5
560
330
1F
100
AcDbEntity
  8
P-0000
  6
Continuous
 62
     3
100
AcDbHatch
 10
0.0
 20
0.0
 30
0.0
210
0.0
220
0.0
230
1.0
  2
_U
 70
     0
 71
     0
 91
        1
 92
        1
 93
        5
 72
     1
 10
1077.082273293622
 20
660.7551959749943
 11
1085.082273293621
 21
660.7551959749943
 72
     1
 10
1085.082273293621
 20
660.7551959749943
 11
1085.082273293621
 21
765.7551959749943
 72
     1
 10
1085.082273293621
 20
765.7551959749943
 11
1077.082273293622
 21
765.7551959749943
 72
     1
 10
1077.082273293622
 20
765.7551959749943
 11
1077.082273293622
 21
748.0815280686109
 72
     1
 10
1077.082273293622
 20
748.0815280686109
 11
1077.082273293622
 21
660.7551959749943
 97
        0
 75
     0
 76
     0
 52
-45.00000000000001
 41
5.0
 77
     0
 78
     1
 53
315.0
 43
1162.342714794889
 44
1160.220308131922
 45
3.535533905932738
 46
3.535533905932736
 79
     0
 98
        1
 10
1162.342714794889
 20
1160.220308131922
1001
ACME_LAYERS
1000
1
  0
HATCH
  5
561
330
1F
100
AcDbEntity
  8
P-0000
  6
Continuous
 62
     3
100
AcDbHatch
 10
0.0
 20
0.0
 30
0.0
210
0.0
220
0.0
230
1.0
  2
_U
 70
     0
 71
     0
 91
        1
 92
        1
 93
        5
 72
     1
 10
1077.082273293622
 20
660.7551959749943
 11
1085.082273293621
 21
660.7551959749943
 72
     1
 10
1085.082273293621
 20
660.7551959749943
 11
1085.082273293621
 21
765.7551959749943
 72
     1
 10
1085.082273293621
 20
765.7551959749943
 11
1077.082273293622
 21
765.7551959749943
 72
     1
 10
1077.082273293622
 20
765.7551959749943
 11
1077.082273293622
 21
748.0815280686109
 72
     1
 10
1077.082273293622
 20
748.0815280686109
 11
1077.082273293622
 21
660.7551959749943
 97
        0
 75
     0
 76
     0
 52
44.99999999999999
 41
5.0
 77
     0
 78
     1
 53
44.99999999999999
 43
1162.342714794889
 44
1160.220308131922
 45
-3.535533905932736
 46
3.535533905932738
 79
     0
 98
        1
 10
1162.342714794889
 20
1160.220308131922
1001
ACME_LAYERS
1000
1
  0
HATCH
  5
562
330
1F
100
AcDbEntity
  8
P-0000
  6
Continuous
 62
     3
100
AcDbHatch
 10
0.0
 20
0.0
 30
0.0
210
0.0
220
0.0
230
1.0
  2
_U
 70
     0
 71
     0
 91
        1
 92
        1
 93
        4
 72
     1
 10
1085.082273293621
 20
660.7551959749943
 11
1092.082273293621
 21
660.7551959749943
 72
     1
 10
1092.082273293621
 20
660.7551959749943
 11
1092.082273293621
 21
765.7551959749943
 72
     1
 10
1092.082273293621
 20
765.7551959749943
 11
1085.082273293621
 21
765.7551959749943
 72
     1
 10
1085.082273293621
 20
765.7551959749943
 11
1085.082273293621
 21
660.7551959749943
 97
        0
 75
     0
 76
     0
 52
-45.00000000000001
 41
5.0
 77
     0
 78
     1
 53
315.0
 43
1162.342714794889
 44
1160.220308131922
 45
3.535533905932738
 46
3.535533905932736
 79
     0
 98
        1
 10
1162.342714794889
 20
1160.220308131922
1001
ACME_LAYERS
1000
1
  0
HATCH
  5
563
330
1F
100
AcDbEntity
  8
P-0000
  6
Continuous
 62
     3
100
AcDbHatch
 10
0.0
 20
0.0
 30
0.0
210
0.0
220
0.0
230
1.0
  2
_U
 70
     0
 71
     0
 91
        1
 92
        1
 93
        4
 72
     1
 10
1085.082273293621
 20
660.7551959749943
 11
1092.082273293621
 21
660.7551959749943
 72
     1
 10
1092.082273293621
 20
660.7551959749943
 11
1092.082273293621
 21
765.7551959749943
 72
     1
 10
1092.082273293621
 20
765.7551959749943
 11
1085.082273293621
 21
765.7551959749943
 72
     1
 10
1085.082273293621
 20
765.7551959749943
 11
1085.082273293621
 21
660.7551959749943
 97
        0
 75
     0
 76
     0
 52
44.99999999999999
 41
5.0
 77
     0
 78
     1
 53
44.99999999999999
 43
1162.342714794889
 44
1160.220308131922
 45
-3.535533905932736
 46
3.535533905932738
 79
     0
 98
        1
 10
1162.342714794889
 20
1160.220308131922
1001
ACME_LAYERS
1000
1
  0
HATCH
  5
564
330
1F
100
AcDbEntity
  8
P-0000
  6
Continuous
 62
     3
100
AcDbHatch
 10
0.0
 20
0.0
 30
0.0
210
0.0
220
0.0
230
1.0
  2
_U
 70
     0
 71
     0
 91
        1
 92
        1
 93
        9
 72
     1
 10
1094.582273293621
 20
660.7551959749943
 11
1106.08227329361
 21
660.7551959749943
 72
     1
 10
1106.08227329361
 20
660.7551959749943
 11
1106.08227329361
 21
750.7551959749942
 72
     1
 10
1106.08227329361
 20
750.7551959749942
 11
1113.082273293608
 21
750.7551959749942
 72
     1
 10
1113.082273293608
 20
750.7551959749942
 11
1113.08227329361
 21
760.7551959749943
 72
     1
 10
1113.08227329361
 20
760.7551959749943
 11
1100.582273293622
 21
760.7551959749943
 72
     1
 10
1100.582273293622
 20
760.7551959749943
 11
1100.582273293622
 21
765.7551959749943
 72
     1
 10
1100.582273293622
 20
765.7551959749943
 11
1092.082273293621
 21
765.7551959749943
 72
     1
 10
1092.082273293621
 20
765.7551959749943
 11
1092.082273293621
 21
660.7551959749943
 72
     1
 10
1092.082273293621
 20
660.7551959749943
 11
1094.582273293621
 21
660.7551959749943
 97
        0
 75
     0
 76
     0
 52
-45.00000000000001
 41
5.0
 77
     0
 78
     1
 53
315.0
 43
1162.342714794889
 44
1160.220308131922
 45
3.535533905932738
 46
3.535533905932736
 79
     0
 98
        1
 10
1162.342714794889
 20
1160.220308131922
1001
ACME_LAYERS
1000
1
  0
HATCH
  5
565
330
1F
100
AcDbEntity
  8
P-0000
  6
Continuous
 62
     3
100
AcDbHatch
 10
0.0
 20
0.0
 30
0.0
210
0.0
220
0.0
230
1.0
  2
_U
 70
     0
 71
     0
 91
        1
 92
        1
 93
        9
 72
     1
 10
1094.582273293621
 20
660.7551959749943
 11
1106.08227329361
 21
660.7551959749943
 72
     1
 10
1106.08227329361
 20
660.7551959749943
 11
1106.08227329361
 21
750.7551959749942
 72
     1
 10
1106.08227329361
 20
750.7551959749942
 11
1113.082273293608
 21
750.7551959749942
 72
     1
 10
1113.082273293608
 20
750.7551959749942
 11
1113.08227329361
 21
760.7551959749943
 72
     1
 10
1113.08227329361
 20
760.7551959749943
 11
1100.582273293622
 21
760.7551959749943
 72
     1
 10
1100.582273293622
 20
760.7551959749943
 11
1100.582273293622
 21
765.7551959749943
 72
     1
 10
1100.582273293622
 20
765.7551959749943
 11
1092.082273293621
 21
765.7551959749943
 72
     1
 10
1092.082273293621
 20
765.7551959749943
 11
1092.082273293621
 21
660.7551959749943
 72
     1
 10
1092.082273293621
 20
660.7551959749943
 11
1094.582273293621
 21
660.7551959749943
 97
        0
 75
     0
 76
     0
 52
44.99999999999999
 41
5.0
 77
     0
 78
     1
 53
44.99999999999999
 43
1162.342714794889
 44
1160.220308131922
 45
-3.535533905932736
 46
3.535533905932738
 79
     0
 98
        1
 10
1162.342714794889
 20
1160.220308131922
1001
ACME_LAYERS
1000
1
  0
LINE
  5
566
330
1F
100
AcDbEntity
  8
P-0000
  6
STRICHPUNKT
 62
     3
100
AcDbLine
 10
1010.582273293622
 20
765.7551959749943
 30
0.0
 11
1010.58227329362
 21
644.8715391878867
 31
0.0
1001
ACME_LAYERS
1000
1
  0
LINE
  5
567
330
1F
100
AcDbEntity
  8
P-0000
  6
STRICHLINIE
 62
     2
100
AcDbLine
 10
1085.082273293621
 20
765.7551959749943
 30
0.0
 11
1085.082273293621
 21
660.7551959749943
 31
0.0
1001
ACME_LAYERS
1000
1
  0
LINE
  5
568
330
1F
100
AcDbEntity
  8
P-0000
  6
STRICHLINIE
 62
     2
100
AcDbLine
 10
1092.082273293621
 20
765.7551959749943
 30
0.0
 11
1092.082273293621
 21
660.7551959749943
 31
0.0
1001
ACME_LAYERS
1000
1
  0
LINE
  5
569
330
1F
100
AcDbEntity
  8
P-0000
  6
Continuous
 62
     7
100
AcDbLine
 10
1077.082273293622
 20
748.0815280686109
 30
0.0
 11
1077.082273293622
 21
660.7551959749943
 31
0.0
1001
ACME_LAYERS
1000
1
  0
LINE
  5
56A
330
1F
100
AcDbEntity
  8
P-0000
  6
STRICHPUNKT
 62
     3
100
AcDbLine
 10
1088.582273293621
 20
772.7551959749943
 30
0.0
 11
1088.582273293621
 21
660.7551959749943
 31
0.0
1001
ACME_LAYERS
1000
1
  0
LINE
  5
56B
330
1F
100
AcDbEntity
  8
P-0000
  6
Continuous
 62
     7
100
AcDbLine
 10
1106.08227329361
 20
660.7551959749943
 30
0.0
 11
1106.08227329361
 21
750.7551959749942
 31
0.0
1001
ACME_LAYERS
1000
1
  0
LINE
  5
56C
330
1F
100
AcDbEntity
  8
P-0000
  6
Continuous
 62
     7
100
AcDbLine
 10
1106.08227329361
 20
660.7551959749943
 30
0.0
 11
1106.08227329361
 21
750.7551959749942
 31
0.0
1001
ACME_LAYERS
1000
1
  0
LINE
  5
56D
330
1F
100
AcDbEntity
  8
P-0000
  6
Continuous
 62
     7
100
AcDbLine
 10
1113.082273293608
 20
750.7551959749942
 30
0.0
 11
1113.082273293604
 21
660.7551959749943
 31
0.0
1001
ACME_LAYERS
1000
1
  0
LINE
  5
56E
330
1F
100
AcDbEntity
  8
P-0000
  6
Continuous
 62
     7
100
AcDbLine
 10
1100.582273293622
 20
765.7551959749943
 30
0.0
 11
1092.082273293621
 21
765.7551959749943
 31
0.0
1001
ACME_LAYERS
1000
1
  0
LINE
  5
56F
330
1F
100
AcDbEntity
  8
P-0000
  6
Continuous
 62
     7
100
AcDbLine
 10
1077.082273293622
 20
765.7551959749943
 30
0.0
 11
1010.582273293622
 21
765.7551959749943
 31
0.0
1001
ACME_LAYERS
1000
1
  0
LINE
  5
570
330
1F
100
AcDbEntity
  8
P-0000
  6
STRICHPUNKT
 62
     3
100
AcDbLine
 10
1010.582273293622
 20
782.7380864298919
 30
0.0
 11
1010.582273293622
 21
765.7551959749943
 31
0.0
1001
ACME_LAYERS
1000
1
  0
LINE
  5
571
330
1F
100
AcDbEntity
  8
P-0000
  6
Continuous
 62
     7
100
AcDbLine
 10
1077.082273293622
 20
748.0815280686109
 30
0.0
 11
1077.082273293622
 21
765.7551959749943
 31
0.0
1001
ACME_LAYERS
1000
1
  0
LINE
  5
572
330
1F
100
AcDbEntity
  8
P-0000
  6
Continuous
 62
     7
100
AcDbLine
 10
1085.082273293621
 20
765.7551959749943
 30
0.0
 11
1077.082273293622
 21
765.7551959749943
 31
0.0
1001
ACME_LAYERS
1000
1
  0
LINE
  5
573
330
1F
100
AcDbEntity
  8
P-0000
  6
Continuous
 62
     7
100
AcDbLine
 10
1092.082273293621
 20
765.7551959749943
 30
0.0
 11
1085.082273293621
 21
765.7551959749943
 31
0.0
1001
ACME_LAYERS
1000
1
  0
LINE
  5
574
330
1F
100
AcDbEntity
  8
P-0000
  6
Continuous
 62
     7
100
AcDbLine
 10
1113.08227329361
 20
760.7551959749943
 30
0.0
 11
1113.082273293608
 21
750.7551959749942
 31
0.0
1001
ACME_LAYERS
1000
1
  0
LINE
  5
575
330
1F
100
AcDbEntity
  8
P-0000
  6
Continuous
 62
     7
100
AcDbLine
 10
1113.08227329361
 20
760.7551959749943
 30
0.0
 11
1100.582273293622
 21
760.7551959749943
 31
0.0
1001
ACME_LAYERS
1000
1
  0
LINE
  5
576
330
1F
100
AcDbEntity
  8
P-0000
  6
Continuous
 62
     7
100
AcDbLine
 10
1100.582273293622
 20
765.7551959749943
 30
0.0
 11
1100.582273293622
 21
760.7551959749943
 31
0.0
1001
ACME_LAYERS
1000
1
  0
LINE
  5
577
330
1F
100
AcDbEntity
  8
P-0000
  6
Continuous
 62
     7
100
AcDbLine
 10
1113.082273293608
 20
750.7551959749942
 30
0.0
 11
1106.08227329361
 21
750.7551959749942
 31
0.0
1001
ACME_LAYERS
1000
1
  0
LINE
  5
578
330
1F
100
AcDbEntity
  8
P-0000
  6
Continuous
 62
     7
100
AcDbLine
 10
1094.582273293621
 20
660.7551959749943
 30
0.0
 11
1106.08227329361
 21
660.7551959749943
 31
0.0
1001
ACME_LAYERS
1000
1
  0
LINE
  5
579
330
1F
100
AcDbEntity
  8
P-0000
  6
Continuous
 62
     7
100
AcDbLine
 10
1010.58227329362
 20
568.7337740212605
 30
0.0
 11
1113.082273293608
 21
568.7337740212605
 31
0.0
1001
ACME_LAYERS
1000
1
  0
LINE
  5
57A
330
1F
100
AcDbEntity
  8
P-0000
  6
Continuous
 62
     7
100
AcDbLine
 10
1077.082273293622
 20
660.7551959749943
 30
0.0
 11
1085.082273293621
 21
660.7551959749943
 31
0.0
1001
ACME_LAYERS
1000
1
  0
LINE
  5
57B
330
1F
100
AcDbEntity
  8
P-0000
  6
Continuous
 62
     7
100
AcDbLine
 10
1092.082273293621
 20
660.7551959749943
 30
0.0
 11
1094.582273293621
 21
660.7551959749943
 31
0.0
1001
ACME_LAYERS
1000
1
  0
LINE
  5
57C
330
1F
100
AcDbEntity
  8
P-0000
  6
Continuous
 62
     7
100
AcDbLine
 10
1085.082273293621
 20
660.7551959749943
 30
0.0
 11
1092.082273293621
 21
660.7551959749943
 31
0.0
1001
ACME_LAYERS
1000
1
  0
LINE
  5
57D
330
1F
100
AcDbEntity
  8
P-0000
  6
STRICHLINIE
 62
     2
100
AcDbLine
 10
1060.58227329362
 20
561.7337740212605
 30
0.0
 11
1060.58227329362
 21
568.7337740212605
 31
0.0
1001
ACME_LAYERS
1000
1
  0
LINE
  5
57E
330
1F
100
AcDbEntity
  8
P-0000
  6
Continuous
 62
     7
100
AcDbLine
 10
1106.08227329361
 20
660.7551959749943
 30
0.0
 11
1113.082273293604
 21
660.7551959749943
 31
0.0
1001
ACME_LAYERS
1000
1
  0
LINE
  5
57F
330
1F
100
AcDbEntity
  8
P-0000
  6
STRICHLINIE
 62
     2
100
AcDbLine
 10
1106.082273293608
 20
516.2337740212732
 30
0.0
 11
1113.082273293608
 21
516.2337740212714
 31
0.0
1001
ACME_LAYERS
1000
1
  0
DIMENSION
  5
583
330
1F
100
AcDbEntity
  8
P-0000
  6
Continuous
100
AcDbDimension
  2
*D70
 10
1088.730922041806
 20
405.2281971923297
 30
0.0
 11
1096.134390192004
 21
402.3833782565326
 31
0.0
 70
   160
  1
%%c<>
 71
     5
 42
7.0
  3
661N88102_001_0071688668
100
AcDbAlignedDimension
 13
1068.087297583709
 23
413.4124038359561
 33
0.0
 14
1072.586810851515
 24
418.7747149377889
 34
0.0
 50
229.9999999999974
100
AcDbRotatedDimension
1001
ACAD
1000
DSTYLE
1002
{
1070
   288
1070
     1
1002
}
1001
ACME_LAYERS
1000
1
  0
LINE
  5
584
330
1F
100
AcDbEntity
  8
P-0000
  6
Continuous
 62
     7
100
AcDbLine
 10
1113.082273293608
 20
363.7337740212843
 30
0.0
 11
1010.58227329362
 21
363.7337740212843
 31
0.0
1001
ACME_LAYERS
1000
1
  0
LINE
  5
585
330
1F
100
AcDbEntity
  8
P-0000
  6
STRICHPUNKT
 62
     3
100
AcDbLine
 10
1081.08227329362
 20
466.2337740212714
 30
0.0
 11
1098.082273293621
 21
466.2337740212714
 31
0.0
1001
ACME_LAYERS
1000
1
  0
ARC
  5
587
330
1F
100
AcDbEntity
  8
P-0000
  6
STRICHPUNKT
 62
     3
100
AcDbCircle
 10
1010.58227329362
 20
466.2337740212714
 30
0.0
 40
78.00432659063168
100
AcDbArc
 50
308.4009883859011
 51
326.7376057203722
1001
ACME_LAYERS
1000
1
  0
LINE
  5
588
330
1F
100
AcDbEntity
  8
P-0000
  6
STRICHPUNKT
 62
     3
100
AcDbLine
 10
1081.786754935928
 20
406.4861197370428
 30
0.0
 11
1059.006672309596
 21
425.6008786669863
 31
0.0
1001
ACME_LAYERS
1000
1
  0
ARC
  5
589
330
1F
100
AcDbEntity
  8
P-0000
  6
STRICHPUNKT
 62
     3
100
AcDbCircle
 10
1010.58227329362
 20
466.2337740212714
 30
0.0
 40
78.00432659062991
100
AcDbArc
 50
326.7376057203722
 51
334.7716815287455
1001
ACME_LAYERS
1000
1
  0
LINE
  5
58A
330
1F
100
AcDbEntity
  8
P-0000
  6
STRICHPUNKT
 62
     3
100
AcDbLine
 10
1010.58227329362
 20
363.7337740212843
 30
0.0
 11
1010.58227329362
 21
386.2337740212697
 31
0.0
1001
ACME_LAYERS
1000
1
  0
CIRCLE
  5
58B
330
1F
100
AcDbEntity
  8
P-0000
  6
Continuous
 62
     7
100
AcDbCircle
 10
1070.337054217612
 20
416.0935593868726
 30
0.0
 40
3.5
1001
ACME_LAYERS
1000
1
  0
LINE
  5
58C
330
1F
100
AcDbEntity
  8
P-0000
  6
STRICHLINIE
 62
     2
100
AcDbLine
 10
1060.58227329362
 20
370.7337740212843
 30
0.0
 11
1060.58227329362
 21
363.7337740212843
 31
0.0
1001
ACME_LAYERS
1000
1
  0
LINE
  5
58D
330
1F
100
AcDbEntity
  8
P-0000
  6
Continuous
 62
     7
100
AcDbLine
 10
1113.082273293608
 20
466.2337740212714
 30
0.0
 11
1113.082273293608
 21
363.7337740212843
 31
0.0
1001
ACME_LAYERS
1000
1
  0
LINE
  5
58E
330
1F
100
AcDbEntity
  8
P-0000
  6
STRICHLINIE
 62
     2
100
AcDbLine
 10
1106.082273293608
 20
416.2337740212715
 30
0.0
 11
1113.082273293608
 21
416.2337740212715
 31
0.0
1001
ACME_LAYERS
1000
1
  0
ENDSEC
  0
SECTION
  2
OBJECTS
  0
DICTIONARY
  5
C
330
0
100
AcDbDictionary
281
     1
  3
ACAD_COLOR
350
87A
  3
ACAD_GROUP
350
D
  3
ACAD_LAYOUT
350
1A
  3
ACAD_MATERIAL
350
879
  3
ACAD_MLINESTYLE
350
17
  3
ACAD_PLOTSETTINGS
350
19
  3
ACAD_PLOTSTYLENAME
350
E
  3
ACAD_TABLESTYLE
350
87B
  3
ACDBHEADERROUNDTRIPXREC
350
9FA
  3
AcDbVariableDictionary
350
34
  3
AcmDictionary
350
47
  3
AMG
350
2B
  3
AMGSNAPSETTINGS
350
3F4
  3
DWGPROPS
350
9F9
  0
DICTIONARY
  5
81
330
1F
100
AcDbDictionary
280
     1
281
     1
  0
DICTIONARY
  5
87A
102
{ACAD_REACTORS
330
C
102
}
330
C
100
AcDbDictionary
281
     1
  0
DICTIONARY
  5
D
102
{ACAD_REACTORS
330
C
102
}
330
C
100
AcDbDictionary
281
     1
  0
DICTIONARY
  5
1A
102
{ACAD_REACTORS
330
C
102
}
330
C
100
AcDbDictionary
281
     1
  3
Layout1
350
1E
  3
Layout2
350
26
  3
Model
350
22
  0
DICTIONARY
  5
879
102
{ACAD_REACTORS
330
C
102
}
330
C
100
AcDbDictionary
281
     1
  0
DICTIONARY
  5
17
102
{ACAD_REACTORS
330
C
102
}
330
C
100
AcDbDictionary
281
     1
  3
Standard
350
18
  0
DICTIONARY
  5
19
102
{ACAD_REACTORS
330
C
102
}
330
C
100
AcDbDictionary
281
     1
  0
ACDBDICTIONARYWDFLT
  5
E
102
{ACAD_REACTORS
330
C
102
}
330
C
100
AcDbDictionary
281
     1
  3
Normal
350
F
100
AcDbDictionaryWithDefault
340
F
  0
DICTIONARY
  5
87B
102
{ACAD_REACTORS
330
C
102
}
330
C
100
AcDbDictionary
281
     1
  3
Standard
350
87C
  0
DICTIONARY
  5
9FA
102
{ACAD_REACTORS
330
C
102
}
330
C
100
AcDbDictionary
281
     1
  0
DICTIONARY
  5
34
102
{ACAD_REACTORS
330
C
102
}
330
C
100
AcDbDictionary
281
     1
  3
CTABLESTYLE
350
9F5
  3
DIMASSOC
350
9F6
  3
INDEXCTL
350
35
  3
PROJECTNAME
350
9F7
  0
DICTIONARY
  5
47
102
{ACAD_REACTORS
330
C
102
}
330
C
100
AcDbDictionary
281
     1
  3
AcmStdDictionary
350
4C
  3
AMDTSECTSYM_ARROWCOLOR
350
8D4
  0
DICTIONARY
  5
2B
102
{ACAD_REACTORS
330
C
102
}
330
C
100
AcDbDictionary
281
     1
  0
DICTIONARY
  5
3F4
102
{ACAD_REACTORS
330
C
102
}
330
C
100
AcDbDictionary
281
     1
  0
XRECORD
  5
9F9
102
{ACAD_REACTORS
330
C
102
}
330
C
100
AcDbXrecord
280
     1
  1
DWGPROPS COOKIE
  2

  3

  4

  6

  7

  8

  9

300
AmdtFileType=84
301
=
302
=
303
=
304
=
305
=
306
=
307
=
308
=
309
=
 40
0.0035160532407407
 41
2452702.515835023
 42
2454041.895334282
  1

 90
        1
  0
LAYOUT
  5
1E
102
{ACAD_XDICTIONARY
360
9FB
102
}
102
{ACAD_REACTORS
330
1A
102
}
330
1A
100
AcDbPlotSettings
  1

  2
C:\Programme\Acadm 2000i\plotters\PH36.pc3
  4

  6

 40
0.0
 41
0.0
 42
0.0
 43
0.0
 44
0.0
 45
0.0
 46
0.0
 47
0.0
 48
0.0
 49
0.0
140
0.0
141
0.0
142
1.0
143
1.0
 70
   688
 72
     0
 73
     0
 74
     5
  7
monochrome.ctb
 75
    16
147
1.0
148
0.0
149
0.0
100
AcDbLayout
  1
Layout1
 70
     1
 71
     1
 10
0.0
 20
0.0
 11
420.0
 21
297.0
 12
0.0
 22
0.0
 32
0.0
 14
1.000000000000000E+20
 24
1.000000000000000E+20
 34
1.000000000000000E+20
 15
-1.000000000000000E+20
 25
-1.000000000000000E+20
 35
-1.000000000000000E+20
146
0.0
 13
0.0
 23
0.0
 33
0.0
 16
1.0
 26
0.0
 36
0.0
 17
0.0
 27
1.0
 37
0.0
 76
     0
330
1B
  0
LAYOUT
  5
26
102
{ACAD_XDICTIONARY
360
9FF
102
}
102
{ACAD_REACTORS
330
1A
102
}
330
1A
100
AcDbPlotSettings
  1

  2
C:\Programme\Acadm 2000i\plotters\PH36.pc3
  4

  6

 40
0.0
 41
0.0
 42
0.0
 43
0.0
 44
0.0
 45
0.0
 46
0.0
 47
0.0
 48
0.0
 49
0.0
140
0.0
141
0.0
142
1.0
143
1.0
 70
   688
 72
     0
 73
     0
 74
     5
  7
monochrome.ctb
 75
    16
147
1.0
148
0.0
149
0.0
100
AcDbLayout
  1
Layout2
 70
     1
 71
     2
 10
0.0
 20
0.0
 11
12.0
 21
9.0
 12
0.0
 22
0.0
 32
0.0
 14
0.0
 24
0.0
 34
0.0
 15
0.0
 25
0.0
 35
0.0
146
0.0
 13
0.0
 23
0.0
 33
0.0
 16
1.0
 26
0.0
 36
0.0
 17
0.0
 27
1.0
 37
0.0
 76
     0
330
23
  0
LAYOUT
  5
22
102
{ACAD_XDICTIONARY
360
9FD
102
}
102
{ACAD_REACTORS
330
1A
102
}
330
1A
100
AcDbPlotSettings
  1

  2
C:\Programme\Acadm 2000i\plotters\PH36.pc3
  4

  6

 40
0.0
 41
0.0
 42
0.0
 43
0.0
 44
0.0
 45
0.0
 46
0.0
 47
0.0
 48
0.0
 49
0.0
140
0.0
141
0.0
142
1.0
143
1.0
 70
 11952
 72
     0
 73
     1
 74
     0
  7
monochrome.ctb
 75
     0
147
1.0
148
-4313.520964760486
149
106.2069450102469
100
AcDbLayout
  1
Model
 70
     1
 71
     0
 10
0.0
 20
0.0
 11
12.0
 21
9.0
 12
0.0
 22
0.0
 32
0.0
 14
0.0
 24
0.0
 34
0.0
 15
0.0
 25
0.0
 35
0.0
146
0.0
 13
0.0
 23
0.0
 33
0.0
 16
1.0
 26
0.0
 36
0.0
 17
0.0
 27
1.0
 37
0.0
 76
     0
330
1F
  0
MLINESTYLE
  5
18
102
{ACAD_REACTORS
330
17
102
}
330
17
100
AcDbMlineStyle
  2
STANDARD
 70
     0
  3

 62
   256
 51
90.0
 52
90.0
 71
     2
 49
0.5
 62
   256
  6
BYLAYER
 49
-0.5
 62
   256
  6
BYLAYER
  0
ACDBPLACEHOLDER
  5
F
102
{ACAD_REACTORS
330
E
102
}
330
E
  0
TABLESTYLE
  5
87C
102
{ACAD_REACTORS
330
87B
102
}
330
87B
100
AcDbTableStyle
  3
Standard
 70
     0
 71
     0
 40
1.5
 41
1.5
280
     0
281
     0
  7
STANDARD
140
4.5
170
     2
 62
     0
 63
     7
283
     0
274
    -2
284
     1
 64
     0
275
    -2
285
     1
 65
     0
276
    -2
286
     1
 66
     0
277
    -2
287
     1
 67
     0
278
    -2
288
     1
 68
     0
279
    -2
289
     1
 69
     0
  7
STANDARD
140
6.0
170
     5
 62
     0
 63
     7
283
     0
274
    -2
284
     1
 64
     0
275
    -2
285
     1
 65
     0
276
    -2
286
     1
 66
     0
277
    -2
287
     1
 67
     0
278
    -2
288
     1
 68
     0
279
    -2
289
     1
 69
     0
  7
STANDARD
140
4.5
170
     5
 62
     0
 63
     7
283
     0
274
    -2
284
     1
 64
     0
275
    -2
285
     1
 65
     0
276
    -2
286
     1
 66
     0
277
    -2
287
     1
 67
     0
278
    -2
288
     1
 68
     0
279
    -2
289
     1
 69
     0
  0
DICTIONARYVAR
  5
9F5
102
{ACAD_REACTORS
330
34
102
}
330
34
100
DictionaryVariables
280
     0
  1
STANDARD
  0
DICTIONARYVAR
  5
9F6
102
{ACAD_REACTORS
330
34
102
}
330
34
100
DictionaryVariables
280
     0
  1
1
  0
DICTIONARYVAR
  5
35
102
{ACAD_REACTORS
330
34
102
}
330
34
100
DictionaryVariables
280
     0
  1
0
  0
DICTIONARYVAR
  5
9F7
102
{ACAD_REACTORS
330
34
102
}
330
34
100
DictionaryVariables
280
     0
  1

  0
DICTIONARY
  5
4C
102
{ACAD_REACTORS
330
47
102
}
330
47
100
AcDbDictionary
281
     1
  0
XRECORD
  5
8D4
102
{ACAD_REACTORS
330
47
102
}
330
47
100
AcDbXrecord
280
     1
 90
-1023410169
  0
DICTIONARY
  5
9FB
330
1E
100
AcDbDictionary
280
     1
281
     1
  3
ACAD_XREC_ROUNDTRIP
360
9FC
  0
DICTIONARY
  5
9FF
330
26
100
AcDbDictionary
280
     1
281
     1
  3
ACAD_XREC_ROUNDTRIP
360
A00
  0
DICTIONARY
  5
9FD
330
22
100
AcDbDictionary
280
     1
281
     1
  3
ACAD_XREC_ROUNDTRIP
360
9FE
  0
XRECORD
  5
9FC
102
{ACAD_REACTORS
330
9FB
102
}
330
9FB
100
AcDbXrecord
280
     1
102
SHADEPLOT
 70
     0
102
SHADEPLOTRESLEVEL
 70
     2
102
SHADEPLOTCUSTOMDPI
 70
   300
  0
XRECORD
  5
A00
102
{ACAD_REACTORS
330
9FF
102
}
330
9FF
100
AcDbXrecord
280
     1
102
SHADEPLOT
 70
     0
102
SHADEPLOTRESLEVEL
 70
     2
102
SHADEPLOTCUSTOMDPI
 70
   300
  0
XRECORD
  5
9FE
102
{ACAD_REACTORS
330
9FD
102
}
330
9FD
100
AcDbXrecord
280
     1
102
SHADEPLOT
 70
     0
102
SHADEPLOTRESLEVEL
 70
     2
102
SHADEPLOTCUSTOMDPI
 70
   300
  0
ENDSEC
  0
EOF
