  0
SECTION
  2
HEADER
  9
$ACADVER
  1
AC1015
  9
$ACADMAINTVER
 70
    20
  9
$DWGCODEPAGE
  3
ANSI_1252
  9
$INSBASE
 10
0.0
 20
0.0
 30
0.0
  9
$EXTMIN
 10
-39.45565903195165
 20
-205.8349946067626
 30
-0.0000000349181948
  9
$EXTMAX
 10
821.9916904268771
 20
367.9526571917868
 30
0.0000000814935746
  9
$LIMMIN
 10
0.0
 20
0.0
  9
$LIMMAX
 10
420.0
 20
297.0
  9
$ORTHOMODE
 70
     0
  9
$REGENMODE
 70
     1
  9
$FILLMODE
 70
     1
  9
$QTEXTMODE
 70
     0
  9
$MIRRTEXT
 70
     1
  9
$LTSCALE
 40
1.0
  9
$ATTMODE
 70
     1
  9
$TEXTSIZE
 40
2.5
  9
$TRACEWID
 40
1.0
  9
$TEXTSTYLE
  7
STANDARD
  9
$CLAYER
  8
0
  9
$CELTYPE
  6
ByLayer
  9
$CECOLOR
 62
   256
  9
$CELTSCALE
 40
1.0
  9
$DISPSILH
 70
     0
  9
$DIMSCALE
 40
1.0
  9
$DIMASZ
 40
2.5
  9
$DIMEXO
 40
1.0
  9
$DIMDLI
 40
10.0
  9
$DIMRND
 40
0.0
  9
$DIMDLE
 40
0.0
  9
$DIMEXE
 40
1.0
  9
$DIMTP
 40
0.1
  9
$DIMTM
 40
0.1
  9
$DIMTXT
 40
3.5
  9
$DIMCEN
 40
0.0
  9
$DIMTSZ
 40
0.0
  9
$DIMTOL
 70
     0
  9
$DIMLIM
 70
     0
  9
$DIMTIH
 70
     0
  9
$DIMTOH
 70
     0
  9
$DIMSE1
 70
     0
  9
$DIMSE2
 70
     0
  9
$DIMTAD
 70
     1
  9
$DIMZIN
 70
     8
  9
$DIMBLK
  1

  9
$DIMASO
 70
     1
  9
$DIMSHO
 70
     1
  9
$DIMPOST
  1

  9
$DIMAPOST
  1
"
  9
$DIMALT
 70
     0
  9
$DIMALTD
 70
     2
  9
$DIMALTF
 40
0.0393701
  9
$DIMLFAC
 40
1.0
  9
$DIMTOFL
 70
     1
  9
$DIMTVP
 40
0.0
  9
$DIMTIX
 70
     0
  9
$DIMSOXD
 70
     0
  9
$DIMSAH
 70
     0
  9
$DIMBLK1
  1

  9
$DIMBLK2
  1

  9
$DIMSTYLE
  2
AM_DIN
  9
$DIMCLRD
 70
   256
  9
$DIMCLRE
 70
   256
  9
$DIMCLRT
 70
     2
  9
$DIMTFAC
 40
0.71
  9
$DIMGAP
 40
1.5
  9
$DIMJUST
 70
     0
  9
$DIMSD1
 70
     0
  9
$DIMSD2
 70
     0
  9
$DIMTOLJ
 70
     0
  9
$DIMTZIN
 70
     8
  9
$DIMALTZ
 70
     0
  9
$DIMALTTZ
 70
     0
  9
$DIMUPT
 70
     0
  9
$DIMDEC
 70
     2
  9
$DIMTDEC
 70
     3
  9
$DIMALTU
 70
     2
  9
$DIMALTTD
 70
     4
  9
$DIMTXSTY
  7
STANDARD
  9
$DIMAUNIT
 70
     0
  9
$DIMADEC
 70
     0
  9
$DIMALTRND
 40
0.0
  9
$DIMAZIN
 70
     2
  9
$DIMDSEP
 70
    46
  9
$DIMATFIT
 70
     3
  9
$DIMFRAC
 70
     0
  9
$DIMLDRBLK
  1

  9
$DIMLUNIT
 70
     2
  9
$DIMLWD
 70
    -1
  9
$DIMLWE
 70
    -1
  9
$DIMTMOVE
 70
     0
  9
$LUNITS
 70
     2
  9
$LUPREC
 70
     2
  9
$SKETCHINC
 40
1.0
  9
$FILLETRAD
 40
2.5
  9
$AUNITS
 70
     0
  9
$AUPREC
 70
     0
  9
$MENU
  1
.
  9
$ELEVATION
 40
0.0
  9
$PELEVATION
 40
0.0
  9
$THICKNESS
 40
0.0
  9
$LIMCHECK
 70
     0
  9
$CHAMFERA
 40
2.5
  9
$CHAMFERB
 40
2.5
  9
$CHAMFERC
 40
20.0
  9
$CHAMFERD
 40
0.0
  9
$SKPOLY
 70
     0
  9
$TDCREATE
 40
2452702.557501690
  9
$TDUCREATE
 40
2452702.474168357
  9
$TDUPDATE
 40
2454033.778397524
  9
$TDUUPDATE
 40
2454033.695064190
  9
$TDINDWG
 40
0.0096811458
  9
$TDUSRTIMER
 40
0.0096811458
  9
$USRTIMER
 70
     1
  9
$ANGBASE
 50
0.0
  9
$ANGDIR
 70
     0
  9
$PDMODE
 70
     0
  9
$PDSIZE
 40
0.0
  9
$PLINEWID
 40
0.0
  9
$SPLFRAME
 70
     0
  9
$SPLINETYPE
 70
     6
  9
$SPLINESEGS
 70
     8
  9
$HANDSEED
  5
B3E
  9
$SURFTAB1
 70
     6
  9
$SURFTAB2
 70
     6
  9
$SURFTYPE
 70
     6
  9
$SURFU
 70
     6
  9
$SURFV
 70
     6
  9
$UCSBASE
  2

  9
$UCSNAME
  2

  9
$UCSORG
 10
0.0
 20
0.0
 30
0.0
  9
$UCSXDIR
 10
1.0
 20
0.0
 30
0.0
  9
$UCSYDIR
 10
0.0
 20
1.0
 30
0.0
  9
$UCSORTHOREF
  2

  9
$UCSORTHOVIEW
 70
     0
  9
$UCSORGTOP
 10
0.0
 20
0.0
 30
0.0
  9
$UCSORGBOTTOM
 10
0.0
 20
0.0
 30
0.0
  9
$UCSORGLEFT
 10
0.0
 20
0.0
 30
0.0
  9
$UCSORGRIGHT
 10
0.0
 20
0.0
 30
0.0
  9
$UCSORGFRONT
 10
0.0
 20
0.0
 30
0.0
  9
$UCSORGBACK
 10
0.0
 20
0.0
 30
0.0
  9
$PUCSBASE
  2

  9
$PUCSNAME
  2

  9
$PUCSORG
 10
0.0
 20
0.0
 30
0.0
  9
$PUCSXDIR
 10
1.0
 20
0.0
 30
0.0
  9
$PUCSYDIR
 10
0.0
 20
1.0
 30
0.0
  9
$PUCSORTHOREF
  2

  9
$PUCSORTHOVIEW
 70
     0
  9
$PUCSORGTOP
 10
0.0
 20
0.0
 30
0.0
  9
$PUCSORGBOTTOM
 10
0.0
 20
0.0
 30
0.0
  9
$PUCSORGLEFT
 10
0.0
 20
0.0
 30
0.0
  9
$PUCSORGRIGHT
 10
0.0
 20
0.0
 30
0.0
  9
$PUCSORGFRONT
 10
0.0
 20
0.0
 30
0.0
  9
$PUCSORGBACK
 10
0.0
 20
0.0
 30
0.0
  9
$USERI1
 70
     0
  9
$USERI2
 70
     0
  9
$USERI3
 70
     0
  9
$USERI4
 70
     0
  9
$USERI5
 70
     0
  9
$USERR1
 40
0.0
  9
$USERR2
 40
0.0
  9
$USERR3
 40
0.0
  9
$USERR4
 40
0.0
  9
$USERR5
 40
0.0
  9
$WORLDVIEW
 70
     1
  9
$SHADEDGE
 70
     3
  9
$SHADEDIF
 70
    70
  9
$TILEMODE
 70
     1
  9
$MAXACTVP
 70
    64
  9
$PINSBASE
 10
0.0
 20
0.0
 30
0.0
  9
$PLIMCHECK
 70
     0
  9
$PEXTMIN
 10
1.000000000000000E+20
 20
1.000000000000000E+20
 30
1.000000000000000E+20
  9
$PEXTMAX
 10
-1.000000000000000E+20
 20
-1.000000000000000E+20
 30
-1.000000000000000E+20
  9
$PLIMMIN
 10
0.0
 20
0.0
  9
$PLIMMAX
 10
420.0
 20
297.0
  9
$UNITMODE
 70
     0
  9
$VISRETAIN
 70
     1
  9
$PLINEGEN
 70
     0
  9
$PSLTSCALE
 70
     1
  9
$TREEDEPTH
 70
  3020
  9
$CMLSTYLE
  2
Standard
  9
$CMLJUST
 70
     0
  9
$CMLSCALE
 40
20.0
  9
$PROXYGRAPHICS
 70
     1
  9
$MEASUREMENT
 70
     1
  9
$CELWEIGHT
370
    -1
  9
$ENDCAPS
280
     0
  9
$JOINSTYLE
280
     0
  9
$LWDISPLAY
290
     0
  9
$INSUNITS
 70
     4
  9
$HYPERLINKBASE
  1

  9
$STYLESHEET
  1

  9
$XEDIT
290
     1
  9
$CEPSNTYPE
380
     0
  9
$PSTYLEMODE
290
     1
  9
$FINGERPRINTGUID
  2
{D5091DE6-A8E7-4749-B1FA-F4240FAEB0F0}
  9
$VERSIONGUID
  2
{2BBE4938-778A-43AA-A8EB-5769F3AF2D20}
  9
$EXTNAMES
290
     1
  9
$PSVPSCALE
 40
0.0
  9
$OLESTARTUP
290
     0
  0
ENDSEC
  0
SECTION
  2
CLASSES
  0
CLASS
  1
ACDBDICTIONARYWDFLT
  2
AcDbDictionaryWithDefault
  3
ObjectDBX Classes
 90
        0
280
     0
281
     0
  0
CLASS
  1
ACDBPLACEHOLDER
  2
AcDbPlaceHolder
  3
ObjectDBX Classes
 90
        0
280
     0
281
     0
  0
CLASS
  1
LAYOUT
  2
AcDbLayout
  3
ObjectDBX Classes
 90
        0
280
     0
281
     0
  0
CLASS
  1
AMGSETTINGSOBJ
  2
AmgSettingsObj
  3
"AcadM|Product Description: AutoCAD Mechanical 2000|Company: Autodesk"
 90
        0
280
     0
281
     0
  0
CLASS
  1
ACME_DOCUMENT
  2
AcMeDbDoc
  3
AcMeServices
 90
        0
280
     0
281
     0
  0
CLASS
  1
ACMESCOPE
  2
AcMeScope
  3
AcMeServices
 90
        0
280
     0
281
     0
  0
CLASS
  1
ACMECOMMANDHISTORY
  2
AcMeCommandHistory
  3
AcMeServices
 90
        0
280
     0
281
     0
  0
CLASS
  1
DICTIONARYVAR
  2
AcDbDictionaryVar
  3
ObjectDBX Classes
 90
        0
280
     0
281
     0
  0
CLASS
  1
ACIMSYSVARMAN
  2
AcImSysVarManager
  3
AcMeServices
 90
        0
280
     0
281
     0
  0
CLASS
  1
ACIMREALSYSVAR
  2
AcImRealSysVar
  3
AcMeServices
 90
        0
280
     0
281
     0
  0
CLASS
  1
ACIMINTSYSVAR
  2
AcImIntSysVar
  3
AcMeServices
 90
        0
280
     0
281
     0
  0
CLASS
  1
ACMEDRAWINGMAN
  2
AcMeDrawingMan
  3
AcMeServices
 90
        0
280
     0
281
     0
  0
CLASS
  1
ACMEVIEW
  2
AcMeView
  3
AcMeServices
 90
        0
280
     0
281
     0
  0
CLASS
  1
ACDBENTITYCACHE
  2
AcMeEntityCache
  3
AcMeServices
 90
        0
280
     0
281
     0
  0
CLASS
  1
GSMANAGER
  2
AcMeGSManager
  3
AcMeServices
 90
        0
280
     0
281
     0
  0
CLASS
  1
AMDTINTERNALREACTOR
  2
AmdtInternalReactor
  3
AcMeServices
 90
        0
280
     0
281
     0
  0
CLASS
  1
ACMESTATEMGR
  2
AcMeStateMgr
  3
AcMeServices
 90
        0
280
     0
281
     0
  0
CLASS
  1
ACGREFMASTER
  2
AcGrefMaster
  3
AcAttribServices
 90
        0
280
     0
281
     0
  0
CLASS
  1
ACME_DATABASE
  2
AcMeDbDatabase
  3
AcMeServices
 90
        0
280
     0
281
     0
  0
CLASS
  1
ACRFINSADJUSTERMGR
  2
AcRfInsAdjusterMgr
  3
AcMeServices
 90
        0
280
     0
281
     0
  0
CLASS
  1
ACGREFACADMASTER
  2
AcGrefacadMaster
  3
AcGrefServices
 90
        0
280
     0
281
     0
  0
CLASS
  1
AMIMASTER
  2
AmiMaster
  3
AmiServices
 90
        0
280
     0
281
     0
  0
CLASS
  1
ACMDATADICTIONARY
  2
AcmDataDictionary
  3
"AcmSymBB|Product Description: AutoCAD Mechanical 2004 DX|Company: Autodesk"
 90
        0
280
     0
281
     0
  0
CLASS
  1
ACMDATAENTRYBLOCK
  2
AcmDataEntryBlock
  3
"AcmSymBB|Product Description: AutoCAD Mechanical 2004 DX|Company: Autodesk"
 90
        0
280
     0
281
     0
  0
CLASS
  1
ACIMSTRSYSVAR
  2
AcImStrSysVar
  3
AcMeServices
 90
        0
280
     0
281
     0
  0
CLASS
  1
ACMSTANDARDDIN
  2
AcmStandardDIN
  3
"Amdt_StdImp|Product Description: AutoCAD Mechanical 2004 DX|Company: Autodesk"
 90
        0
280
     0
281
     0
  0
CLASS
  1
AMGOBJPROPCFG
  2
AmgObjPropCfg
  3
"AmgLay|Product Description: AutoCAD Mechanical 2000|Company: Autodesk"
 90
        1
280
     0
281
     0
  0
CLASS
  1
AMDTEDGESTANDARDDIN
  2
AmdtEdgeStdDIN
  3
"Amdt_StdImp|Product Description: AutoCAD Mechanical 2004 DX|Company: Autodesk"
 90
        0
280
     0
281
     0
  0
CLASS
  1
ACMSURFSTANDARDDIN
  2
AcmSurfTextStdDIN
  3
"Amdt_StdImp|Product Description: AutoCAD Mechanical 2004 DX|Company: Autodesk"
 90
        0
280
     0
281
     0
  0
CLASS
  1
ACMFCFSTANDARDDIN
  2
AcmFCFStdDIN
  3
"Amdt_StdImp|Product Description: AutoCAD Mechanical 2004 DX|Company: Autodesk"
 90
        0
280
     0
281
     0
  0
CLASS
  1
ACMWELDSTANDARDDIN
  2
AcmWeldingStdDIN
  3
"Amdt_StdImp|Product Description: AutoCAD Mechanical 2004 DX|Company: Autodesk"
 90
        0
280
     0
281
     0
  0
CLASS
  1
ACMIDSTANDARDDIN
  2
AcmIdStdDIN
  3
"Amdt_StdImp|Product Description: AutoCAD Mechanical 2004 DX|Company: Autodesk"
 90
        0
280
     0
281
     0
  0
CLASS
  1
ACMDATUMSTANDARDDIN
  2
AcmDatumStdDIN
  3
"Amdt_StdImp|Product Description: AutoCAD Mechanical 2004 DX|Company: Autodesk"
 90
        0
280
     0
281
     0
  0
CLASS
  1
ACMBOMSTANDARDDIN
  2
AcmBOMStdDIN
  3
"Amdt_StdImp|Product Description: AutoCAD Mechanical 2004 DX|Company: Autodesk"
 90
        0
280
     0
281
     0
  0
CLASS
  1
ACMDETAILSTANDARDDIN
  2
AmdtDetailSymStdDIN
  3
"Amdt_StdImp|Product Description: AutoCAD Mechanical 2004 DX|Company: Autodesk"
 90
        0
280
     0
281
     0
  0
CLASS
  1
ACMSECTIONSTANDARDDIN
  2
AmdtSectionSymStdDIN
  3
"Amdt_StdImp|Product Description: AutoCAD Mechanical 2004 DX|Company: Autodesk"
 90
        0
280
     0
281
     0
  0
CLASS
  1
ACMCENTERLINESTANDARDDIN
  2
AmdtCenterLineStdDIN
  3
"Amdt_StdImp|Product Description: AutoCAD Mechanical 2004 DX|Company: Autodesk"
 90
        0
280
     0
281
     0
  0
CLASS
  1
ACAMGLAYSTD
  2
AcAmgLayStd
  3
"AcAmgLayStd|Product Description: AutoCAD Mechanical 2000|Company: Autodesk"
 90
        0
280
     0
281
     0
  0
CLASS
  1
ACAMGDIMSTD
  2
AcAmgDimStd
  3
"AcAmgDimStd|Product Description: AutoCAD Mechanical 2000|Company: Autodesk"
 90
        0
280
     0
281
     0
  0
CLASS
  1
ACAMGTITLESTD
  2
AcAmgTitleStd
  3
"TITLEAPP"
 90
        0
280
     0
281
     0
  0
CLASS
  1
LAYER_INDEX
  2
AcDbLayerIndex
  3
ObjectDBX Classes
 90
        0
280
     0
281
     0
  0
CLASS
  1
IDBUFFER
  2
AcDbIdBuffer
  3
ObjectDBX Classes
 90
        0
280
     0
281
     0
  0
CLASS
  1
ACAMGFILTERDAT
  2
AcAmgFilterDat
  3
"AcadM|Product Description: AutoCAD Mechanical 2000|Company: Autodesk"
 90
        0
280
     0
281
     0
  0
CLASS
  1
TABLESTYLE
  2
AcDbTableStyle
  3
ObjectDBX Classes
 90
     2047
280
     0
281
     0
  0
CLASS
  1
AM_DRAWING_MGR
  2
AcDmDwgMgr
  3
AcMechDwgViewMgmt
 90
        0
280
     0
281
     0
  0
CLASS
  1
AM_DWG_DOCUMENT
  2
AcDmDwgDocument
  3
AcMechDwgViewMgmt
 90
        0
280
     0
281
     0
  0
CLASS
  1
AM_DWG_SHEET
  2
AcDmSheet
  3
AcMechDwgViewMgmt
 90
        0
280
     0
281
     0
  0
CLASS
  1
AM_VIEWDIMPARMAP
  2
AcDmViewDimParMap
  3
AcMechDwgViewMgmt
 90
        0
280
     0
281
     0
  0
CLASS
  1
AM_DWGMGR_NAME
  2
AcDmDwgMgrName
  3
AcMechDwgViewMgmt
 90
        0
280
     0
281
     0
  0
CLASS
  1
AMDTMENUSTATEMGR
  2
AmdtMenuStateMgr
  3
McadcomServices
 90
        0
280
     0
281
     0
  0
CLASS
  1
AMDTMCOMMENUSTATE
  2
AmdtMcomMenuState
  3
McadcomServices
 90
        0
280
     0
281
     0
  0
CLASS
  1
MAPIAMMOUDLE
  2
MApiAmModule
  3
MApiAmServices
 90
        0
280
     0
281
     0
  0
CLASS
  1
AMDTADMENUSTATE
  2
AmdtAdMenuState
  3
DesignerServices
 90
        0
280
     0
281
     0
  0
CLASS
  1
ADAPPL
  2
AcAdAppl
  3
DesignerServices
 90
        0
280
     0
281
     0
  0
CLASS
  1
DEPMGR
  2
AcAdDepMgr
  3
DesignerServices
 90
        0
280
     0
281
     0
  0
CLASS
  1
PARAMMGR
  2
AcAdParamMgr
  3
DesignerServices
 90
        0
280
     0
281
     0
  0
CLASS
  1
PARAMSCOPE
  2
AcAdParamScope
  3
DesignerServices
 90
        0
280
     0
281
     0
  0
CLASS
  1
NAMEDAPPL
  2
AcAdNamedAppl
  3
DesignerServices
 90
        0
280
     0
281
     0
  0
CLASS
  1
AMDTDMMENUSTATE
  2
AmdtDmMenuState
  3
AcMechDwgViewMgmt
 90
        0
280
     0
281
     0
  0
CLASS
  1
AMDTAMMENUSTATE
  2
AmdtAmMenuState
  3
DesignerAssemblies
 90
        0
280
     0
281
     0
  0
CLASS
  1
ACAMPROJECT
  2
AcAmProject
  3
DesignerAssemblies
 90
        0
280
     0
281
     0
  0
CLASS
  1
ACAMGRCOMPDEF
  2
AcAmGrCompDef
  3
DesignerAssemblies
 90
        0
280
     0
281
     0
  0
CLASS
  1
ACCMCONTEXT
  2
AcCmContext
  3
DesignerAssemblies
 90
        0
280
     0
281
     0
  0
CLASS
  1
ACAMCOMPDEF
  2
AcAmCompDef
  3
DesignerAssemblies
 90
        0
280
     0
281
     0
  0
CLASS
  1
ACAMCOMPDEFMGR
  2
AcAmCompDefMgr
  3
DesignerAssemblies
 90
        0
280
     0
281
     0
  0
CLASS
  1
AMCONTEXTMGR
  2
AcAmContextMgr
  3
DesignerAssemblies
 90
        0
280
     0
281
     0
  0
CLASS
  1
ACAMCONTEXTMODELER
  2
AcAmContextModeler
  3
DesignerAssemblies
 90
        0
280
     0
281
     0
  0
CLASS
  1
ACMTHREADLINESTANDARDDIN
  2
AmdtThreadLineStdDIN
  3
"Amdt_StdImp|Product Description: AutoCAD Mechanical 2004 DX|Company: Autodesk"
 90
        0
280
     0
281
     0
  0
CLASS
  1
ACMNOTESTANDARDDIN
  2
AmdtNoteStdDIN
  3
"Amdt_StdImp|Product Description: AutoCAD Mechanical 2004 DX|Company: Autodesk"
 90
        0
280
     0
281
     0
  0
CLASS
  1
AMDTNOTETEMPLATEDB
  2
AmdtNoteTemplateDB
  3
AMDT_STDIMP_MODULE_NAME
 90
        0
280
     0
281
     0
  0
CLASS
  1
CATALOGSTATE
  2
AcAmCatalogState
  3
DesignerAssemblies
 90
        0
280
     0
281
     0
  0
CLASS
  1
ACAMGRCOMPDEFSET
  2
AcAmGrCompDefSet
  3
DesignerAssemblies
 90
        0
280
     0
281
     0
  0
CLASS
  1
AMDTBROWSERDBTAB
  2
AmdtBrowserDbTab
  3
McadcomServices
 90
        0
280
     0
281
     0
  0
CLASS
  1
CBROWSERAPPOBJECT
  2
CBrowserAppObject
  3
McadcomServices
 90
        0
280
     0
281
     0
  0
CLASS
  1
DM_PLACEHOLDER
  2
AcDmSelsetPlaceholder
  3
AcMechDwgViewMgmt
 90
        0
280
     0
281
     0
  0
CLASS
  1
SORTENTSTABLE
  2
AcDbSortentsTable
  3
ObjectDBX Classes
 90
        0
280
     0
281
     0
  0
ENDSEC
  0
SECTION
  2
TABLES
  0
TABLE
  2
VPORT
  5
8
330
0
100
AcDbSymbolTable
 70
    36
  0
VPORT
  5
B35
330
8
100
AcDbSymbolTableRecord
100
AcDbViewportTableRecord
  2
*Active
 70
     0
 10
0.0
 20
0.0
 11
1.0
 21
1.0
 12
391.2680156974627
 22
81.05883129251211
 13
0.0
 23
0.0
 14
2.5
 24
2.5
 15
10.0
 25
10.0
 16
0.0
 26
0.0
 36
1.0
 17
0.0
 27
0.0
 37
0.0
 40
579.1956542515721
 41
1.494545454545454
 42
50.0
 43
0.0
 44
0.0
 50
0.0
 51
0.0
 71
     0
 72
   100
 73
     1
 74
     3
 75
     0
 76
     0
 77
     0
 78
     0
281
     0
 65
     1
110
0.0
120
0.0
130
0.0
111
1.0
121
0.0
131
0.0
112
0.0
122
1.0
132
0.0
 79
     0
146
0.0
  0
ENDTAB
  0
TABLE
  2
LTYPE
  5
5
330
0
100
AcDbSymbolTable
 70
    43
  0
LTYPE
  5
14
330
5
100
AcDbSymbolTableRecord
100
AcDbLinetypeTableRecord
  2
ByBlock
 70
     0
  3

 72
    65
 73
     0
 40
0.0
  0
LTYPE
  5
15
330
5
100
AcDbSymbolTableRecord
100
AcDbLinetypeTableRecord
  2
ByLayer
 70
     0
  3

 72
    65
 73
     0
 40
0.0
  0
LTYPE
  5
16
330
5
100
AcDbSymbolTableRecord
100
AcDbLinetypeTableRecord
  2
Continuous
 70
     0
  3
Solid line
 72
    65
 73
     0
 40
0.0
  0
LTYPE
  5
4F
330
5
100
AcDbSymbolTableRecord
100
AcDbLinetypeTableRecord
  2
AM_ISO02W050
 70
     0
  3
__ __ __ __ __ __ __ __ __ __ __ __ __ __ __
 72
    65
 73
     2
 40
7.5
 49
6.0
 74
     0
 49
-1.5
 74
     0
  0
LTYPE
  5
50
330
5
100
AcDbSymbolTableRecord
100
AcDbLinetypeTableRecord
  2
AM_ISO08W050
 70
     0
  3
____ . ____ . ____ . ____ . ____ . ____ . ____
 72
    65
 73
     4
 40
18.0
 49
12.0
 74
     0
 49
-1.5
 74
     0
 49
3.0
 74
     0
 49
-1.5
 74
     0
  0
LTYPE
  5
51
330
5
100
AcDbSymbolTableRecord
100
AcDbLinetypeTableRecord
  2
AM_ISO09W050
 70
     0
  3
_____ . . _____ . . _____ . . ____ .. ____
 72
    65
 73
     6
 40
22.5
 49
12.0
 74
     0
 49
-1.5
 74
     0
 49
3.0
 74
     0
 49
-1.5
 74
     0
 49
3.0
 74
     0
 49
-1.5
 74
     0
  0
LTYPE
  5
52
330
5
100
AcDbSymbolTableRecord
100
AcDbLinetypeTableRecord
  2
Amconstr
 70
     0
  3
_______________________
 72
    65
 73
     2
 40
9999.0
 49
9999.0
 74
     0
 49
0.0
 74
     0
  0
LTYPE
  5
53
330
5
100
AcDbSymbolTableRecord
100
AcDbLinetypeTableRecord
  2
AM_ISO08W050x2
 70
     0
  3
__ . __ . __ . __ . __ . __
 72
    65
 73
     4
 40
9.0
 49
6.0
 74
     0
 49
-0.75
 74
     0
 49
1.5
 74
     0
 49
-0.75
 74
     0
  0
LTYPE
  5
54
330
5
100
AcDbSymbolTableRecord
100
AcDbLinetypeTableRecord
  2
AM_ISO02W050x2
 70
     0
  3
 _ _ _ _ _ _ _ _ _ _ _ _
 72
    65
 73
     2
 40
3.75
 49
3.0
 74
     0
 49
-0.75
 74
     0
  0
LTYPE
  5
57
330
5
100
AcDbSymbolTableRecord
100
AcDbLinetypeTableRecord
  2
Amzigzag
 70
     0
  3
/\/-/\/-/\/-/\/-/\/-/\/
 72
    65
 73
     2
 40
11.0001
 49
0.0001
 74
     4
 75
   135
340
56
 46
0.04
 50
0.0
 44
0.0
 45
0.0
 49
-11.0
 74
     0
  0
LTYPE
  5
58
330
5
100
AcDbSymbolTableRecord
100
AcDbLinetypeTableRecord
  2
AM_DIN_F_W050
 70
     0
  3
__ __ __ __ __ __ __ __ __ __ __ __ __ __ __
 72
    65
 73
     2
 40
6.25
 49
4.75
 74
     0
 49
-1.5
 74
     0
  0
LTYPE
  5
59
330
5
100
AcDbSymbolTableRecord
100
AcDbLinetypeTableRecord
  2
AM_DIN_G_W050
 70
     0
  3
____ . ____ . ____ . ____ . ____ . ____ . ____
 72
    65
 73
     4
 40
13.75
 49
9.75
 74
     0
 49
-1.5
 74
     0
 49
1.0
 74
     0
 49
-1.5
 74
     0
  0
LTYPE
  5
5A
330
5
100
AcDbSymbolTableRecord
100
AcDbLinetypeTableRecord
  2
AM_DIN_K_W050
 70
     0
  3
_____ . . _____ . . _____ . . ____ .. ____
 72
    65
 73
     6
 40
16.25
 49
9.75
 74
     0
 49
-1.5
 74
     0
 49
1.0
 74
     0
 49
-1.5
 74
     0
 49
1.0
 74
     0
 49
-1.5
 74
     0
  0
LTYPE
  5
5B
330
5
100
AcDbSymbolTableRecord
100
AcDbLinetypeTableRecord
  2
AM_DIN_G_W050x2
 70
     0
  3
__ . __ . __ . __ . __ . __
 72
    65
 73
     4
 40
6.875
 49
4.75
 74
     0
 49
-0.875
 74
     0
 49
0.375
 74
     0
 49
-0.875
 74
     0
  0
LTYPE
  5
5C
330
5
100
AcDbSymbolTableRecord
100
AcDbLinetypeTableRecord
  2
AM_DIN_F_W050x2
 70
     0
  3
 _ _ _ _ _ _ _ _ _ _ _ _
 72
    65
 73
     2
 40
3.125
 49
2.25
 74
     0
 49
-0.875
 74
     0
  0
LTYPE
  5
69
330
5
100
AcDbSymbolTableRecord
100
AcDbLinetypeTableRecord
  2
ACDINWELD
 70
     0
  3
_ _ _ _ _
 72
    65
 73
     2
 40
2.0
 49
2.0
 74
     0
 49
-1.0
 74
     0
  0
LTYPE
  5
6A
330
5
100
AcDbSymbolTableRecord
100
AcDbLinetypeTableRecord
  2
ACDINTGB
 70
     0
  3
__ . . __ . .
 72
    65
 73
     6
 40
9.0
 49
4.0
 74
     0
 49
-1.0
 74
     0
 49
1.0
 74
     0
 49
-1.0
 74
     0
 49
1.0
 74
     0
 49
-1.0
 74
     0
  0
LTYPE
  5
6B
330
5
100
AcDbSymbolTableRecord
100
AcDbLinetypeTableRecord
  2
ACDINTGL
 70
     0
  3
_ _ _ _ _
 72
    65
 73
     2
 40
3.0
 49
2.0
 74
     0
 49
-1.0
 74
     0
  0
LTYPE
  5
6D
330
5
100
AcDbSymbolTableRecord
100
AcDbLinetypeTableRecord
  2
CENTER
 70
     0
  3
__ . __
 72
    65
 73
     4
 40
7.0
 49
4.0
 74
     0
 49
-1.0
 74
     0
 49
1.0
 74
     0
 49
-1.0
 74
     0
  0
LTYPE
  5
257
330
5
100
AcDbSymbolTableRecord
100
AcDbLinetypeTableRecord
  2
RAND
 70
     0
  3
Rand __ __ . __ __ . __ __ . __ __ . __ __ .
 72
    65
 73
     6
 40
44.45
 49
12.7
 74
     0
 49
-6.349999999999999
 74
     0
 49
12.7
 74
     0
 49
-6.349999999999999
 74
     0
 49
0.0
 74
     0
 49
-6.349999999999999
 74
     0
  0
LTYPE
  5
258
330
5
100
AcDbSymbolTableRecord
100
AcDbLinetypeTableRecord
  2
MITTE
 70
     0
  3
Mitte ____ _ ____ _ ____ _ ____ _ ____ _ ____
 72
    65
 73
     4
 40
50.8
 49
31.75
 74
     0
 49
-6.349999999999999
 74
     0
 49
6.349999999999999
 74
     0
 49
-6.349999999999999
 74
     0
  0
LTYPE
  5
259
330
5
100
AcDbSymbolTableRecord
100
AcDbLinetypeTableRecord
  2
STRICHPUNKT
 70
     0
  3
Strichpunkt __ . __ . __ . __ . __ . __ . __ . 
 72
    65
 73
     4
 40
25.4
 49
12.7
 74
     0
 49
-6.349999999999999
 74
     0
 49
0.0
 74
     0
 49
-6.349999999999999
 74
     0
  0
LTYPE
  5
25A
330
5
100
AcDbSymbolTableRecord
100
AcDbLinetypeTableRecord
  2
STRICHLINIE
 70
     0
  3
Strichlinie __ __ __ __ __ __ __ __ __ __ __ __
 72
    65
 73
     2
 40
19.05
 49
12.7
 74
     0
 49
-6.349999999999999
 74
     0
  0
LTYPE
  5
25B
330
5
100
AcDbSymbolTableRecord
100
AcDbLinetypeTableRecord
  2
GETRENNT
 70
     0
  3
Getrennt ____ . . ____ . . ____ . . ____ . . __
 72
    65
 73
     6
 40
31.75
 49
12.7
 74
     0
 49
-6.349999999999999
 74
     0
 49
0.0
 74
     0
 49
-6.349999999999999
 74
     0
 49
0.0
 74
     0
 49
-6.349999999999999
 74
     0
  0
LTYPE
  5
25C
330
5
100
AcDbSymbolTableRecord
100
AcDbLinetypeTableRecord
  2
PUNKT
 70
     0
  3
Punkt . . . . . . . . . . . . . . . . . . . . .
 72
    65
 73
     2
 40
6.349999999999999
 49
0.0
 74
     0
 49
-6.349999999999999
 74
     0
  0
LTYPE
  5
25D
330
5
100
AcDbSymbolTableRecord
100
AcDbLinetypeTableRecord
  2
VERDECKT
 70
     0
  3
Verdeckt __ __ __ __ __ __ __ __ __ __ __ __ __
 72
    65
 73
     2
 40
9.524999999999998
 49
6.349999999999999
 74
     0
 49
-3.174999999999999
 74
     0
  0
LTYPE
  5
25E
330
5
100
AcDbSymbolTableRecord
100
AcDbLinetypeTableRecord
  2
PHANTOM
 70
     0
  3
Phantom ______  __  __  ______  __  __  ______
 72
    65
 73
     6
 40
63.5
 49
31.75
 74
     0
 49
-6.349999999999999
 74
     0
 49
6.349999999999999
 74
     0
 49
-6.349999999999999
 74
     0
 49
6.349999999999999
 74
     0
 49
-6.349999999999999
 74
     0
  0
LTYPE
  5
25F
330
5
100
AcDbSymbolTableRecord
100
AcDbLinetypeTableRecord
  2
RAND2
 70
     0
  3
Rand (.5x) __.__.__.__.__.__.__.__.__.__.__.
 72
    65
 73
     6
 40
22.225
 49
6.349999999999999
 74
     0
 49
-3.174999999999999
 74
     0
 49
6.349999999999999
 74
     0
 49
-3.174999999999999
 74
     0
 49
0.0
 74
     0
 49
-3.174999999999999
 74
     0
  0
LTYPE
  5
260
330
5
100
AcDbSymbolTableRecord
100
AcDbLinetypeTableRecord
  2
MITTE2
 70
     0
  3
Mitte (.5x) ___ _ ___ _ ___ _ ___ _ ___ _ ___
 72
    65
 73
     4
 40
28.575
 49
19.05
 74
     0
 49
-3.174999999999999
 74
     0
 49
3.174999999999999
 74
     0
 49
-3.174999999999999
 74
     0
  0
LTYPE
  5
261
330
5
100
AcDbSymbolTableRecord
100
AcDbLinetypeTableRecord
  2
STRICHPUNKT2
 70
     0
  3
Strichpunkt (.5x) _._._._._._._._._._._._._._._
 72
    65
 73
     4
 40
12.7
 49
6.349999999999999
 74
     0
 49
-3.174999999999999
 74
     0
 49
0.0
 74
     0
 49
-3.174999999999999
 74
     0
  0
LTYPE
  5
262
330
5
100
AcDbSymbolTableRecord
100
AcDbLinetypeTableRecord
  2
STRICHLINIE2
 70
     0
  3
Strichlinie (.5x) _ _ _ _ _ _ _ _ _ _ _ _ _ _ _
 72
    65
 73
     2
 40
9.524999999999998
 49
6.349999999999999
 74
     0
 49
-3.174999999999999
 74
     0
  0
LTYPE
  5
263
330
5
100
AcDbSymbolTableRecord
100
AcDbLinetypeTableRecord
  2
GETRENNT2
 70
     0
  3
Getrennt (.5x) __..__..__..__..__..__..__..__..
 72
    65
 73
     6
 40
15.875
 49
6.349999999999999
 74
     0
 49
-3.174999999999999
 74
     0
 49
0.0
 74
     0
 49
-3.174999999999999
 74
     0
 49
0.0
 74
     0
 49
-3.174999999999999
 74
     0
  0
LTYPE
  5
264
330
5
100
AcDbSymbolTableRecord
100
AcDbLinetypeTableRecord
  2
PUNKT2
 70
     0
  3
Punkt (.5x) ...................................
 72
    65
 73
     2
 40
3.174999999999999
 49
0.0
 74
     0
 49
-3.174999999999999
 74
     0
  0
LTYPE
  5
265
330
5
100
AcDbSymbolTableRecord
100
AcDbLinetypeTableRecord
  2
VERDECKT2
 70
     0
  3
Verdeckt (.5x) _ _ _ _ _ _ _ _ _ _ _ _ _ _ _ _ 
 72
    65
 73
     2
 40
4.762499999999999
 49
3.174999999999999
 74
     0
 49
-1.587499999999999
 74
     0
  0
LTYPE
  5
266
330
5
100
AcDbSymbolTableRecord
100
AcDbLinetypeTableRecord
  2
PHANTOM2
 70
     0
  3
Phantom (.5x) ___ _ _ ___ _ _ ___ _ _ ___ _ _
 72
    65
 73
     6
 40
31.75
 49
15.875
 74
     0
 49
-3.174999999999999
 74
     0
 49
3.174999999999999
 74
     0
 49
-3.174999999999999
 74
     0
 49
3.174999999999999
 74
     0
 49
-3.174999999999999
 74
     0
  0
LTYPE
  5
267
330
5
100
AcDbSymbolTableRecord
100
AcDbLinetypeTableRecord
  2
RANDX2
 70
     0
  3
Rand (2x) ____  ____  .  ____  ____  .  ___
 72
    65
 73
     6
 40
88.9
 49
25.4
 74
     0
 49
-12.7
 74
     0
 49
25.4
 74
     0
 49
-12.7
 74
     0
 49
0.0
 74
     0
 49
-12.7
 74
     0
  0
LTYPE
  5
268
330
5
100
AcDbSymbolTableRecord
100
AcDbLinetypeTableRecord
  2
MITTEX2
 70
     0
  3
Mitte (2x) ________  __  ________  __  _____
 72
    65
 73
     4
 40
101.6
 49
63.5
 74
     0
 49
-12.7
 74
     0
 49
12.7
 74
     0
 49
-12.7
 74
     0
  0
LTYPE
  5
269
330
5
100
AcDbSymbolTableRecord
100
AcDbLinetypeTableRecord
  2
STRICHPUNKTX2
 70
     0
  3
Strichpunkt (2x) ____  .  ____  .  ____  .  ___
 72
    65
 73
     4
 40
50.8
 49
25.4
 74
     0
 49
-12.7
 74
     0
 49
0.0
 74
     0
 49
-12.7
 74
     0
  0
LTYPE
  5
26A
330
5
100
AcDbSymbolTableRecord
100
AcDbLinetypeTableRecord
  2
STRICHLINIEX2
 70
     0
  3
Strichlinie (2x) ____  ____  ____  ____  ____  
 72
    65
 73
     2
 40
38.1
 49
25.4
 74
     0
 49
-12.7
 74
     0
  0
LTYPE
  5
26B
330
5
100
AcDbSymbolTableRecord
100
AcDbLinetypeTableRecord
  2
GETRENNTX2
 70
     0
  3
Getrennt (2x) ________  .  .  ________  .  .  _
 72
    65
 73
     6
 40
63.49999999999999
 49
25.4
 74
     0
 49
-12.7
 74
     0
 49
0.0
 74
     0
 49
-12.7
 74
     0
 49
0.0
 74
     0
 49
-12.7
 74
     0
  0
LTYPE
  5
26C
330
5
100
AcDbSymbolTableRecord
100
AcDbLinetypeTableRecord
  2
PUNKTX2
 70
     0
  3
Punkt (2x) .  .  .  .  .  .  .  .  .  .  .  .  
 72
    65
 73
     2
 40
12.7
 49
0.0
 74
     0
 49
-12.7
 74
     0
  0
LTYPE
  5
26D
330
5
100
AcDbSymbolTableRecord
100
AcDbLinetypeTableRecord
  2
VERDECKTX2
 70
     0
  3
Verdeckt (2x) ____ ____ ____ ____ ____ ____ ___
 72
    65
 73
     2
 40
19.05
 49
12.7
 74
     0
 49
-6.349999999999999
 74
     0
  0
LTYPE
  5
26E
330
5
100
AcDbSymbolTableRecord
100
AcDbLinetypeTableRecord
  2
PHANTOMX2
 70
     0
  3
Phantom (2x) ____________    ____    ____   _
 72
    65
 73
     6
 40
127.0
 49
63.5
 74
     0
 49
-12.7
 74
     0
 49
12.7
 74
     0
 49
-12.7
 74
     0
 49
12.7
 74
     0
 49
-12.7
 74
     0
  0
LTYPE
  5
824
330
5
100
AcDbSymbolTableRecord
100
AcDbLinetypeTableRecord
  2
HIDDEN
 70
     0
  3
Verdeckt
 72
    65
 73
     2
 40
9.525
 49
6.349999999999999
 74
     0
 49
-3.174999999999999
 74
     0
  0
ENDTAB
  0
TABLE
  2
LAYER
  5
2
102
{ACAD_XDICTIONARY
360
A42
102
}
330
0
100
AcDbSymbolTable
 70
     8
  0
LAYER
  5
10
330
2
100
AcDbSymbolTableRecord
100
AcDbLayerTableRecord
  2
0
 70
     0
 62
     7
  6
Continuous
370
    -3
390
F
  0
LAYER
  5
26F
330
2
100
AcDbSymbolTableRecord
100
AcDbLayerTableRecord
  2
P-0000
 70
     0
 62
     7
  6
Continuous
370
    -3
390
F
  0
LAYER
  5
270
330
2
100
AcDbSymbolTableRecord
100
AcDbLayerTableRecord
  2
P-7089
 70
     0
 62
     7
  6
Continuous
370
    -3
390
F
  0
LAYER
  5
271
330
2
100
AcDbSymbolTableRecord
100
AcDbLayerTableRecord
  2
P-1659
 70
     0
 62
     7
  6
Continuous
370
    -3
390
F
  0
LAYER
  5
272
330
2
100
AcDbSymbolTableRecord
100
AcDbLayerTableRecord
  2
Defpoints
 70
     0
 62
     7
  6
Continuous
290
     0
370
    -3
390
F
  0
LAYER
  5
A40
330
2
100
AcDbSymbolTableRecord
100
AcDbLayerTableRecord
  2
AM_0
 70
     0
 62
     7
  6
Continuous
370
    50
390
F
1001
AcAecLayerStandard
1000

1000

  0
LAYER
  5
A45
330
2
100
AcDbSymbolTableRecord
100
AcDbLayerTableRecord
  2
AM_4
 70
     0
 62
     3
  6
Continuous
370
    25
390
F
1001
AcAecLayerStandard
1000

1000

  0
LAYER
  5
A48
330
2
100
AcDbSymbolTableRecord
100
AcDbLayerTableRecord
  2
AM_8
 70
     0
 62
     1
  6
Continuous
370
    25
390
F
1001
AcAecLayerStandard
1000

1000

  0
ENDTAB
  0
TABLE
  2
STYLE
  5
3
330
0
100
AcDbSymbolTable
 70
    12
  0
STYLE
  5
11
330
3
100
AcDbSymbolTableRecord
100
AcDbTextStyleTableRecord
  2
STANDARD
 70
     0
 40
0.0
 41
1.0
 50
0.0
 71
     0
 42
2.5
  3
ISOCP.SHX
  4

  0
STYLE
  5
56
330
3
100
AcDbSymbolTableRecord
100
AcDbTextStyleTableRecord
  2

 70
     1
 40
0.0
 41
1.0
 50
0.0
 71
     0
 42
2.5
  3
ltypeshp.shx
  4

  0
STYLE
  5
5D
330
3
100
AcDbSymbolTableRecord
100
AcDbTextStyleTableRecord
  2
ACDINTS
 70
     0
 40
1.0
 41
1.0
 50
0.0
 71
     0
 42
2.5
  3
isocp.shx
  4

  0
STYLE
  5
68
330
3
100
AcDbSymbolTableRecord
100
AcDbTextStyleTableRecord
  2
ACDINGDT
 70
     0
 40
0.0
 41
1.0
 50
0.0
 71
     0
 42
2.5
  3
amgdt.shx
  4

  0
STYLE
  5
7D
330
3
100
AcDbSymbolTableRecord
100
AcDbTextStyleTableRecord
  2
USER1
 70
     0
 40
0.0
 41
1.0
 50
0.0
 71
     0
 42
2.5
  3
TXT.SHX
  4

  0
STYLE
  5
7E
330
3
100
AcDbSymbolTableRecord
100
AcDbTextStyleTableRecord
  2
USER2
 70
     0
 40
0.0
 41
1.0
 50
0.0
 71
     0
 42
2.5
  3
SIMPLEX.SHX
  4

  0
STYLE
  5
7F
330
3
100
AcDbSymbolTableRecord
100
AcDbTextStyleTableRecord
  2
USER3
 70
     0
 40
0.0
 41
1.0
 50
0.0
 71
     0
 42
2.5
  3
ITALIC.SHX
  4

  0
STYLE
  5
273
330
3
100
AcDbSymbolTableRecord
100
AcDbTextStyleTableRecord
  2
STANDARD_M
 70
     0
 40
0.0
 41
0.9
 50
0.0
 71
     0
 42
2.5
  3
txt.shx
  4

  0
STYLE
  5
274
330
3
100
AcDbSymbolTableRecord
100
AcDbTextStyleTableRecord
  2
SIMPLEX
 70
     0
 40
0.0
 41
1.0
 50
0.0
 71
     0
 42
2.5
  3
txt.shx
  4

  0
STYLE
  5
275
330
3
100
AcDbSymbolTableRecord
100
AcDbTextStyleTableRecord
  2
SIMPLEX_M
 70
     0
 40
0.0
 41
1.05
 50
0.0
 71
     0
 42
2.5
  3
txt.shx
  4

  0
STYLE
  5
276
330
3
100
AcDbSymbolTableRecord
100
AcDbTextStyleTableRecord
  2
COMPLEX
 70
     0
 40
0.0
 41
1.0
 50
0.0
 71
     0
 42
2.5
  3
txt.shx
  4

  0
STYLE
  5
277
330
3
100
AcDbSymbolTableRecord
100
AcDbTextStyleTableRecord
  2
COMPLEX_M
 70
     0
 40
0.0
 41
1.0
 50
0.0
 71
     0
 42
2.5
  3
txt.shx
  4

  0
ENDTAB
  0
TABLE
  2
VIEW
  5
6
330
0
100
AcDbSymbolTable
 70
     0
  0
ENDTAB
  0
TABLE
  2
UCS
  5
7
330
0
100
AcDbSymbolTable
 70
     0
  0
ENDTAB
  0
TABLE
  2
APPID
  5
9
330
0
100
AcDbSymbolTable
 70
    17
  0
APPID
  5
12
330
9
100
AcDbSymbolTableRecord
100
AcDbRegAppTableRecord
  2
ACAD
 70
     0
  0
APPID
  5
30
330
9
100
AcDbSymbolTableRecord
100
AcDbRegAppTableRecord
  2
MCAD_NO_VIS
 70
     0
  0
APPID
  5
31
330
9
100
AcDbSymbolTableRecord
100
AcDbRegAppTableRecord
  2
ACAD_TEMP_GRAPHIC
 70
     0
  0
APPID
  5
44
330
9
100
AcDbSymbolTableRecord
100
AcDbRegAppTableRecord
  2
ACATTRIBSERVICES
 70
     0
  0
APPID
  5
27F
330
9
100
AcDbSymbolTableRecord
100
AcDbRegAppTableRecord
  2
ACME_LAYERS
 70
     0
  0
APPID
  5
7EB
330
9
100
AcDbSymbolTableRecord
100
AcDbRegAppTableRecord
  2
DCO15
 70
     0
  0
APPID
  5
826
330
9
100
AcDbSymbolTableRecord
100
AcDbRegAppTableRecord
  2
AD_DRAW
 70
     0
  0
APPID
  5
844
330
9
100
AcDbSymbolTableRecord
100
AcDbRegAppTableRecord
  2
DESIGNERASSEMBLIES
 70
     0
  0
APPID
  5
84E
330
9
100
AcDbSymbolTableRecord
100
AcDbRegAppTableRecord
  2
ACAD_DSTYLE_DIMARC_LENGTH_SYMBOL
 70
     0
  0
APPID
  5
84F
330
9
100
AcDbSymbolTableRecord
100
AcDbRegAppTableRecord
  2
ACAD_DSTYLE_DIMJOGGED_JOGANGLE_SYMBOL
 70
     0
  0
APPID
  5
85F
330
9
100
AcDbSymbolTableRecord
100
AcDbRegAppTableRecord
  2
ACADM_DIM_EDIT
 70
     0
  0
APPID
  5
860
330
9
100
AcDbSymbolTableRecord
100
AcDbRegAppTableRecord
  2
AMDT_DM_ADJ
 70
     0
  0
APPID
  5
867
330
9
100
AcDbSymbolTableRecord
100
AcDbRegAppTableRecord
  2
GENIUS_GENDIMSH_14
 70
     0
  0
APPID
  5
A41
330
9
100
AcDbSymbolTableRecord
100
AcDbRegAppTableRecord
  2
AcAecLayerStandard
 70
     0
  0
APPID
  5
A49
330
9
100
AcDbSymbolTableRecord
100
AcDbRegAppTableRecord
  2
GENIUS_GENOBJ-N-HTC_13
 70
     0
  0
APPID
  5
A4A
330
9
100
AcDbSymbolTableRecord
100
AcDbRegAppTableRecord
  2
GENIUS_GENODEF_13
 70
     0
  0
APPID
  5
A4B
330
9
100
AcDbSymbolTableRecord
100
AcDbRegAppTableRecord
  2
GENIUS_GENHATCH_13
 70
     0
  0
ENDTAB
  0
TABLE
  2
DIMSTYLE
  5
A
330
0
100
AcDbSymbolTable
 70
    16
100
AcDbDimStyleTable
 71
     2
340
279
340
70
  0
DIMSTYLE
105
27
330
A
100
AcDbSymbolTableRecord
100
AcDbDimStyleTableRecord
  2
ISO-25
 70
     0
 41
2.5
 42
0.625
 43
3.75
 44
1.25
 73
     0
 74
     0
 77
     1
 78
     8
140
2.5
141
2.5
143
0.03937007874016
147
0.625
171
     3
172
     1
271
     2
272
     2
274
     3
278
    44
283
     0
284
     8
340
11
  0
DIMSTYLE
105
70
330
A
100
AcDbSymbolTableRecord
100
AcDbDimStyleTableRecord
  2
AM_DIN
 70
     0
  4
"
 41
2.5
 42
1.0
 43
10.0
 44
1.0
 47
0.1
 48
0.1
 73
     0
 74
     0
 77
     1
 78
     8
 79
     2
140
3.5
141
0.0
143
0.0393701
146
0.71
147
1.5
172
     1
176
   256
177
   256
178
     2
271
     2
272
     3
274
     4
283
     0
284
     8
340
11
371
    -1
372
    -1
1001
ACAD_DSTYLE_DIMARC_LENGTH_SYMBOL
1070
   379
1070
     0
1001
ACAD_DSTYLE_DIMJOGGED_JOGANGLE_SYMBOL
1070
   384
1040
1.570796326794896
  0
DIMSTYLE
105
71
330
A
100
AcDbSymbolTableRecord
100
AcDbDimStyleTableRecord
  2
AM_DIN$3
 70
     0
  4
"
 41
2.5
 42
1.0
 43
10.0
 44
1.0
 47
0.1
 48
0.1
 73
     0
 77
     1
 78
     8
 79
     2
140
3.5
141
0.0
143
0.0393701
146
0.71
147
1.5
176
   256
177
   256
178
     2
271
     2
272
     3
274
     4
283
     0
284
     8
288
     1
289
     0
340
11
371
    -1
372
    -1
1001
ACAD_DSTYLE_DIMARC_LENGTH_SYMBOL
1070
   379
1070
     0
1001
ACAD_DSTYLE_DIMJOGGED_JOGANGLE_SYMBOL
1070
   384
1040
1.570796326794896
  0
DIMSTYLE
105
72
330
A
100
AcDbSymbolTableRecord
100
AcDbDimStyleTableRecord
  2
AM_DIN$4
 70
     0
  4
"
 41
2.5
 42
1.0
 43
10.0
 44
1.0
 47
0.1
 48
0.1
 73
     0
 77
     1
 78
     8
 79
     2
140
3.5
141
0.0
143
0.0393701
146
0.71
147
1.5
176
   256
177
   256
178
     2
271
     2
272
     3
274
     4
283
     0
284
     8
288
     1
289
     0
340
11
371
    -1
372
    -1
1001
ACAD_DSTYLE_DIMARC_LENGTH_SYMBOL
1070
   379
1070
     0
1001
ACAD_DSTYLE_DIMJOGGED_JOGANGLE_SYMBOL
1070
   384
1040
1.570796326794896
  0
DIMSTYLE
105
73
330
A
100
AcDbSymbolTableRecord
100
AcDbDimStyleTableRecord
  2
AM_DIN$6
 70
     0
  4
"
 41
2.5
 42
1.0
 43
10.0
 44
1.0
 47
0.1
 48
0.1
 73
     0
 74
     0
 78
     8
 79
     2
140
3.5
141
0.0
143
0.0393701
146
0.71
147
1.5
172
     1
176
   256
177
   256
178
     2
271
     2
272
     3
274
     4
283
     0
284
     8
340
11
371
    -1
372
    -1
1001
ACAD_DSTYLE_DIMARC_LENGTH_SYMBOL
1070
   379
1070
     0
1001
ACAD_DSTYLE_DIMJOGGED_JOGANGLE_SYMBOL
1070
   384
1040
1.570796326794896
  0
DIMSTYLE
105
74
330
A
100
AcDbSymbolTableRecord
100
AcDbDimStyleTableRecord
  2
AM_DIN$7
 70
     0
  4
"
 41
2.5
 42
1.0
 43
10.0
 44
1.0
 47
0.1
 48
0.1
 73
     0
 74
     0
 77
     1
 78
     8
 79
     2
140
5.0
141
0.0
143
0.0393701
146
0.71
147
1.5
172
     1
176
   256
177
   256
178
     2
271
     2
272
     3
274
     4
283
     0
284
     8
340
11
371
    -1
372
    -1
1001
ACAD_DSTYLE_DIMARC_LENGTH_SYMBOL
1070
   379
1070
     0
1001
ACAD_DSTYLE_DIMJOGGED_JOGANGLE_SYMBOL
1070
   384
1040
1.570796326794896
  0
DIMSTYLE
105
75
330
A
100
AcDbSymbolTableRecord
100
AcDbDimStyleTableRecord
  2
AM_DIN$SF
 70
     0
  4
"
 41
2.5
 42
1.0
 43
10.0
 44
1.0
 47
0.1
 48
0.1
 73
     0
 74
     0
 75
     1
 76
     1
 77
     1
 78
     8
 79
     2
140
3.5
141
0.0
143
0.0393701
146
0.71
147
1.5
172
     1
176
   256
177
   256
178
     2
271
     2
272
     3
274
     4
283
     0
284
     8
340
11
371
    -1
372
    -1
1001
ACAD_DSTYLE_DIMARC_LENGTH_SYMBOL
1070
   379
1070
     0
1001
ACAD_DSTYLE_DIMJOGGED_JOGANGLE_SYMBOL
1070
   384
1040
1.570796326794896
  0
DIMSTYLE
105
7A
330
A
100
AcDbSymbolTableRecord
100
AcDbDimStyleTableRecord
  2
AM_DIN$SH
 70
     0
  4
"
 41
2.5
 42
1.0
 43
10.0
 44
1.0
 47
0.1
 48
0.1
 73
     0
 74
     0
 75
     1
 76
     1
 77
     1
 78
     8
 79
     2
140
3.5
141
0.0
143
0.0393701
144
2.0
146
0.71
147
1.5
172
     1
173
     1
176
   256
177
   256
178
     2
271
     2
272
     3
274
     4
283
     0
284
     8
340
11
343
76
371
    -1
372
    -1
1001
ACAD_DSTYLE_DIMARC_LENGTH_SYMBOL
1070
   379
1070
     0
1001
ACAD_DSTYLE_DIMJOGGED_JOGANGLE_SYMBOL
1070
   384
1040
1.570796326794896
  0
DIMSTYLE
105
278
330
A
100
AcDbSymbolTableRecord
100
AcDbDimStyleTableRecord
  2
ACADTOP2_00_1_00
 70
     0
 40
2.0
 41
2.5
 42
0.625
 43
3.75
 44
1.25
 73
     0
 74
     0
 77
     1
 78
     8
140
2.5
141
2.5
143
0.03937007874016
147
0.625
171
     3
172
     1
271
     2
272
     2
274
     3
278
    44
283
     0
284
     8
340
11
  0
DIMSTYLE
105
279
102
{ACAD_REACTORS
330
40E
330
40F
330
417
330
40D
330
416
330
414
330
413
330
412
330
418
330
407
330
401
330
405
330
406
330
404
330
3FD
330
408
330
40B
102
}
330
A
100
AcDbSymbolTableRecord
100
AcDbDimStyleTableRecord
  2
661N88102_001_0082239964
 70
     0
 40
2.0
 41
3.149999999999999
 42
0.0
 43
3.75
 44
2.0
 73
     0
 74
     0
 77
     1
 78
     8
 79
     2
140
3.5
141
0.0
143
0.03937007874016
145
2.0
147
2.0
171
     3
172
     1
173
     1
176
     3
177
     3
178
     2
179
     2
271
     2
272
     2
274
     3
283
     0
284
     8
340
11
  0
DIMSTYLE
105
27A
330
A
100
AcDbSymbolTableRecord
100
AcDbDimStyleTableRecord
  2
661N78102_001_0082239964
 70
     0
 40
2.0
 41
3.149999999999999
 42
0.0
 43
3.75
 44
2.0
 73
     0
 74
     0
 77
     1
 78
     8
 79
     2
140
3.5
141
0.0
143
0.03937007874016
144
2.0
145
2.0
147
2.0
171
     3
172
     1
173
     1
176
     3
177
     3
178
     2
179
     2
271
     2
272
     2
274
     3
283
     0
284
     8
340
11
343
BC
  0
DIMSTYLE
105
27B
330
A
100
AcDbSymbolTableRecord
100
AcDbDimStyleTableRecord
  2
6613588102_001_0082239964
 70
     0
 40
2.0
 41
3.149999999999999
 42
0.0
 43
3.75
 44
2.0
 73
     0
 74
     0
 77
     1
 78
     8
 79
     2
140
3.5
141
0.0
143
0.03937007874016
145
2.0
146
0.6
147
2.0
171
     3
172
     1
173
     1
176
     3
177
     3
178
     2
179
     2
271
     2
272
     1
274
     3
279
     2
283
     0
284
     8
340
11
  0
DIMSTYLE
105
27C
330
A
100
AcDbSymbolTableRecord
100
AcDbDimStyleTableRecord
  2
6613488102_001_0082239964
 70
     0
 40
2.0
 41
3.149999999999999
 42
0.0
 43
3.75
 44
2.0
 73
     0
 74
     0
 77
     1
 78
     8
 79
     2
140
3.5
141
0.0
143
0.03937007874016
145
2.0
146
0.6
147
2.0
171
     3
172
     1
173
     1
176
     3
177
     3
178
     2
179
     2
271
     2
272
     1
274
     3
283
     0
284
     8
340
11
  0
DIMSTYLE
105
27D
330
A
100
AcDbSymbolTableRecord
100
AcDbDimStyleTableRecord
  2
6613688102_001_0082239964
 70
     0
 40
2.0
 41
3.149999999999999
 42
0.0
 43
3.75
 44
2.0
 73
     0
 74
     0
 77
     1
 78
     8
 79
     2
140
3.5
141
0.0
143
0.03937007874016
145
2.0
146
0.6
147
2.0
171
     3
172
     1
173
     1
176
     3
177
     3
178
     2
179
     2
271
     2
272
     1
274
     3
283
     0
284
     8
340
11
  0
DIMSTYLE
105
27E
330
A
100
AcDbSymbolTableRecord
100
AcDbDimStyleTableRecord
  2
441N88102_001_0082239964
 70
     0
 40
2.0
 41
3.149999999999999
 42
0.0
 43
3.75
 44
2.0
 73
     0
 74
     0
 77
     1
 78
     8
 79
     2
140
3.5
141
0.0
143
0.03937007874016
145
2.0
147
2.0
171
     3
172
     1
173
     1
176
     3
177
     3
178
     2
179
     2
271
     2
272
     2
274
     3
283
     0
284
     8
340
11
  0
ENDTAB
  0
TABLE
  2
BLOCK_RECORD
  5
1
330
0
100
AcDbSymbolTable
 70
    40
  0
BLOCK_RECORD
  5
1F
102
{ACAD_XDICTIONARY
360
81
102
}
330
1
100
AcDbSymbolTableRecord
100
AcDbBlockTableRecord
  2
*Model_Space
340
22
  0
BLOCK_RECORD
  5
1B
330
1
100
AcDbSymbolTableRecord
100
AcDbBlockTableRecord
  2
*Paper_Space
340
1E
  0
BLOCK_RECORD
  5
23
330
1
100
AcDbSymbolTableRecord
100
AcDbBlockTableRecord
  2
*Paper_Space0
340
26
  0
BLOCK_RECORD
  5
76
330
1
100
AcDbSymbolTableRecord
100
AcDbBlockTableRecord
  2
GENAXEH
340
0
  0
BLOCK_RECORD
  5
B0
330
1
100
AcDbSymbolTableRecord
100
AcDbBlockTableRecord
  2
*D2
340
0
  0
BLOCK_RECORD
  5
BC
330
1
100
AcDbSymbolTableRecord
100
AcDbBlockTableRecord
  2
_None
340
0
  0
BLOCK_RECORD
  5
BF
330
1
100
AcDbSymbolTableRecord
100
AcDbBlockTableRecord
  2
_ClosedBlank
340
0
102
{BLKREFS
331
6B8
331
6BF
331
6C6
102
}
  0
BLOCK_RECORD
  5
C5
330
1
100
AcDbSymbolTableRecord
100
AcDbBlockTableRecord
  2
*D5
340
0
  0
BLOCK_RECORD
  5
CF
330
1
100
AcDbSymbolTableRecord
100
AcDbBlockTableRecord
  2
*D6
340
0
  0
BLOCK_RECORD
  5
D9
330
1
100
AcDbSymbolTableRecord
100
AcDbBlockTableRecord
  2
*D7
340
0
  0
BLOCK_RECORD
  5
E3
330
1
100
AcDbSymbolTableRecord
100
AcDbBlockTableRecord
  2
*D8
340
0
  0
BLOCK_RECORD
  5
EF
330
1
100
AcDbSymbolTableRecord
100
AcDbBlockTableRecord
  2
*D9
340
0
  0
BLOCK_RECORD
  5
FD
330
1
100
AcDbSymbolTableRecord
100
AcDbBlockTableRecord
  2
*D10
340
0
  0
BLOCK_RECORD
  5
109
330
1
100
AcDbSymbolTableRecord
100
AcDbBlockTableRecord
  2
*D11
340
0
  0
BLOCK_RECORD
  5
115
330
1
100
AcDbSymbolTableRecord
100
AcDbBlockTableRecord
  2
*D12
340
0
  0
BLOCK_RECORD
  5
121
330
1
100
AcDbSymbolTableRecord
100
AcDbBlockTableRecord
  2
*D13
340
0
  0
BLOCK_RECORD
  5
12D
330
1
100
AcDbSymbolTableRecord
100
AcDbBlockTableRecord
  2
*D14
340
0
  0
BLOCK_RECORD
  5
139
330
1
100
AcDbSymbolTableRecord
100
AcDbBlockTableRecord
  2
*D15
340
0
  0
BLOCK_RECORD
  5
145
330
1
100
AcDbSymbolTableRecord
100
AcDbBlockTableRecord
  2
*D16
340
0
  0
BLOCK_RECORD
  5
151
330
1
100
AcDbSymbolTableRecord
100
AcDbBlockTableRecord
  2
*D17
340
0
  0
BLOCK_RECORD
  5
15D
330
1
100
AcDbSymbolTableRecord
100
AcDbBlockTableRecord
  2
*D18
340
0
  0
BLOCK_RECORD
  5
169
330
1
100
AcDbSymbolTableRecord
100
AcDbBlockTableRecord
  2
*D19
340
0
  0
BLOCK_RECORD
  5
177
330
1
100
AcDbSymbolTableRecord
100
AcDbBlockTableRecord
  2
*D20
340
0
  0
BLOCK_RECORD
  5
183
330
1
100
AcDbSymbolTableRecord
100
AcDbBlockTableRecord
  2
*D21
340
0
  0
BLOCK_RECORD
  5
18F
330
1
100
AcDbSymbolTableRecord
100
AcDbBlockTableRecord
  2
*D22
340
0
  0
BLOCK_RECORD
  5
19B
330
1
100
AcDbSymbolTableRecord
100
AcDbBlockTableRecord
  2
*D23
340
0
  0
BLOCK_RECORD
  5
1A9
330
1
100
AcDbSymbolTableRecord
100
AcDbBlockTableRecord
  2
*D24
340
0
  0
BLOCK_RECORD
  5
1B7
330
1
100
AcDbSymbolTableRecord
100
AcDbBlockTableRecord
  2
*D25
340
0
  0
BLOCK_RECORD
  5
1C3
330
1
100
AcDbSymbolTableRecord
100
AcDbBlockTableRecord
  2
*D26
340
0
  0
BLOCK_RECORD
  5
1CF
330
1
100
AcDbSymbolTableRecord
100
AcDbBlockTableRecord
  2
*D27
340
0
  0
BLOCK_RECORD
  5
1DB
330
1
100
AcDbSymbolTableRecord
100
AcDbBlockTableRecord
  2
*D28
340
0
  0
BLOCK_RECORD
  5
1E7
330
1
100
AcDbSymbolTableRecord
100
AcDbBlockTableRecord
  2
*D29
340
0
  0
BLOCK_RECORD
  5
1F3
330
1
100
AcDbSymbolTableRecord
100
AcDbBlockTableRecord
  2
*D30
340
0
  0
BLOCK_RECORD
  5
1FD
330
1
100
AcDbSymbolTableRecord
100
AcDbBlockTableRecord
  2
*D31
340
0
  0
BLOCK_RECORD
  5
207
330
1
100
AcDbSymbolTableRecord
100
AcDbBlockTableRecord
  2
*D32
340
0
  0
BLOCK_RECORD
  5
215
330
1
100
AcDbSymbolTableRecord
100
AcDbBlockTableRecord
  2
*D33
340
0
  0
BLOCK_RECORD
  5
223
330
1
100
AcDbSymbolTableRecord
100
AcDbBlockTableRecord
  2
*D34
340
0
  0
BLOCK_RECORD
  5
230
330
1
100
AcDbSymbolTableRecord
100
AcDbBlockTableRecord
  2
*D35
340
0
  0
BLOCK_RECORD
  5
23D
330
1
100
AcDbSymbolTableRecord
100
AcDbBlockTableRecord
  2
*D36
340
0
  0
BLOCK_RECORD
  5
24A
330
1
100
AcDbSymbolTableRecord
100
AcDbBlockTableRecord
  2
*D37
340
0
  0
ENDTAB
  0
ENDSEC
  0
SECTION
  2
BLOCKS
  0
BLOCK
  5
20
330
1F
100
AcDbEntity
  8
0
100
AcDbBlockBegin
  2
*Model_Space
 70
     0
 10
0.0
 20
0.0
 30
0.0
  3
*Model_Space
  1

  0
ENDBLK
  5
21
330
1F
100
AcDbEntity
  8
0
100
AcDbBlockEnd
  0
BLOCK
  5
1C
330
1B
100
AcDbEntity
 67
     1
  8
0
100
AcDbBlockBegin
  2
*Paper_Space
 70
     0
 10
0.0
 20
0.0
 30
0.0
  3
*Paper_Space
  1

  0
ENDBLK
  5
1D
330
1B
100
AcDbEntity
 67
     1
  8
0
100
AcDbBlockEnd
  0
BLOCK
  5
24
330
23
100
AcDbEntity
 67
     1
  8
0
100
AcDbBlockBegin
  2
*Paper_Space0
 70
     0
 10
0.0
 20
0.0
 30
0.0
  3
*Paper_Space0
  1

  0
ENDBLK
  5
25
330
23
100
AcDbEntity
 67
     1
  8
0
100
AcDbBlockEnd
  0
BLOCK
  5
78
330
76
100
AcDbEntity
  8
0
100
AcDbBlockBegin
  2
GENAXEH
 70
     0
 10
0.0
 20
0.0
 30
0.0
  3
GENAXEH
  1

  0
LINE
  5
77
330
76
100
AcDbEntity
  8
0
100
AcDbLine
 10
-1.0
 20
0.0
 30
0.0
 11
1.0
 21
0.0
 31
0.0
  0
ENDBLK
  5
79
330
76
100
AcDbEntity
  8
0
100
AcDbBlockEnd
  0
BLOCK
  5
BA
330
B0
100
AcDbEntity
  8
0
100
AcDbBlockBegin
  2
*D2
 70
     1
 10
0.0
 20
0.0
 30
0.0
  3
*D2
  1

  0
LINE
  5
B16
330
B0
100
AcDbEntity
  8
P-0000
  6
Continuous
 62
     3
370
    -2
100
AcDbLine
 10
98.57259147868559
 20
-111.6980174227248
 30
0.0
 11
21.35616766362697
 21
-111.6980174227248
 31
0.0
  0
LINE
  5
B17
330
B0
100
AcDbEntity
  8
P-0000
  6
Continuous
 62
     3
370
    -2
100
AcDbLine
 10
98.57259147868571
 20
93.30198257725035
 30
0.0
 11
21.35616766362701
 21
93.30198257725037
 31
0.0
  0
LINE
  5
B18
330
B0
100
AcDbEntity
  8
P-0000
  6
Continuous
 62
     3
370
    -2
100
AcDbLine
 10
25.35616766362698
 20
-97.6980174227248
 30
0.0
 11
25.35616766362702
 21
79.30198257725037
 31
0.0
  0
MTEXT
  5
B19
330
B0
100
AcDbEntity
  8
P-0000
  6
Continuous
 62
     2
100
AcDbMText
 10
9.825108870340955
 20
0.257423442885286
 30
0.0
 40
20.0
 41
0.0
 71
     5
 72
     1
  1
205
 11
0.0000000000000001
 21
1.0
 31
0.0
 73
     1
 44
1.0
1001
ACAD
1000
MTEXTBEGIN
1070
    73
1070
     1
1070
    44
1040
1.0
1070
    74
1070
     0
1000
MTEXTEND
  0
SOLID
  5
B1A
330
B0
100
AcDbEntity
  8
P-0000
  6
Continuous
 62
     3
100
AcDbTrace
 10
23.02283433029364
 20
-97.6980174227248
 30
0.0
 11
27.68950099696031
 21
-97.6980174227248
 31
0.0
 12
25.35616766362697
 22
-111.6980174227248
 32
0.0
 13
25.35616766362697
 23
-111.6980174227248
 33
0.0
  0
SOLID
  5
B1B
330
B0
100
AcDbEntity
  8
P-0000
  6
Continuous
 62
     3
100
AcDbTrace
 10
23.02283433029368
 20
79.30198257725037
 30
0.0
 11
27.68950099696035
 21
79.30198257725037
 31
0.0
 12
25.35616766362702
 22
93.30198257725037
 32
0.0
 13
25.35616766362702
 23
93.30198257725037
 33
0.0
  0
POINT
  5
B1C
330
B0
100
AcDbEntity
  8
Defpoints
  6
Continuous
 62
     0
100
AcDbPoint
 10
98.57259147868559
 20
-111.6980174227248
 30
0.0
  0
POINT
  5
B1D
330
B0
100
AcDbEntity
  8
Defpoints
  6
Continuous
 62
     0
100
AcDbPoint
 10
98.57259147868571
 20
93.30198257725035
 30
0.0
  0
POINT
  5
B1E
330
B0
100
AcDbEntity
  8
Defpoints
  6
Continuous
 62
     0
100
AcDbPoint
 10
25.35616766362702
 20
93.30198257725037
 30
0.0
  0
ENDBLK
  5
BB
330
B0
100
AcDbEntity
  8
0
100
AcDbBlockEnd
  0
BLOCK
  5
BD
330
BC
100
AcDbEntity
  8
0
100
AcDbBlockBegin
  2
_None
 70
     0
 10
0.0
 20
0.0
 30
0.0
  3
_None
  1

  0
ENDBLK
  5
BE
330
BC
100
AcDbEntity
  8
0
100
AcDbBlockEnd
  0
BLOCK
  5
C3
330
BF
100
AcDbEntity
  8
0
100
AcDbBlockBegin
  2
_ClosedBlank
 70
     0
 10
0.0
 20
0.0
 30
0.0
  3
_ClosedBlank
  1

  0
LINE
  5
C0
330
BF
100
AcDbEntity
  8
0
  6
ByBlock
 62
     0
370
    -2
100
AcDbLine
 10
-1.0
 20
0.1666666666666666
 30
0.0
 11
0.0
 21
0.0
 31
0.0
  0
LINE
  5
C1
330
BF
100
AcDbEntity
  8
0
  6
ByBlock
 62
     0
370
    -2
100
AcDbLine
 10
0.0
 20
0.0
 30
0.0
 11
-1.0
 21
-0.1666666666666666
 31
0.0
  0
LINE
  5
C2
330
BF
100
AcDbEntity
  8
0
  6
ByBlock
 62
     0
370
    -2
100
AcDbLine
 10
-1.0
 20
0.1666666666666666
 30
0.0
 11
-1.0
 21
-0.1666666666666666
 31
0.0
  0
ENDBLK
  5
C4
330
BF
100
AcDbEntity
  8
0
100
AcDbBlockEnd
  0
BLOCK
  5
CD
330
C5
100
AcDbEntity
  8
0
100
AcDbBlockBegin
  2
*D5
 70
     1
 10
0.0
 20
0.0
 30
0.0
  3
*D5
  1

  0
LINE
  5
6B5
330
C5
100
AcDbEntity
  8
P-0000
  6
Continuous
 62
     3
370
    -2
100
AcDbLine
 10
-115.85735418084
 20
-66.69801742273605
 30
0.0
 11
-194.8994196283403
 21
-66.69801742273604
 31
0.0
  0
LINE
  5
6B6
330
C5
100
AcDbEntity
  8
P-0000
  6
Continuous
 62
     3
370
    -2
100
AcDbLine
 10
-190.8994196283402
 20
-60.39801742273605
 30
0.0
 11
-190.8994196283403
 21
-66.69801742273604
 31
0.0
  0
MTEXT
  5
6B7
330
C5
100
AcDbEntity
  8
P-0000
  6
Continuous
 62
     2
100
AcDbMText
 10
-198.3994196283402
 20
-2.441761874502958
 30
0.0
 40
7.0
 41
0.0
 71
     5
 72
     1
  1
%%c115
 11
0.0000000000000001
 21
1.0
 31
0.0
 73
     1
 44
1.0
1001
ACAD
1000
MTEXTBEGIN
1070
    73
1070
     1
1070
    44
1040
1.0
1070
    74
1070
     0
1000
MTEXTEND
  0
INSERT
  5
6B8
330
C5
100
AcDbEntity
  8
P-0000
  6
Continuous
 62
     3
370
    -2
100
AcDbBlockReference
  2
_ClosedBlank
 10
-190.8994196283403
 20
-66.69801742273604
 30
0.0
 41
6.299999999999999
 42
6.299999999999999
 43
6.299999999999999
 50
270.0
  0
POINT
  5
6B9
330
C5
100
AcDbEntity
  8
Defpoints
  6
Continuous
 62
     0
100
AcDbPoint
 10
-176.0741169208442
 20
-9.198017422736356
 30
0.0
  0
POINT
  5
6BA
330
C5
100
AcDbEntity
  8
Defpoints
  6
Continuous
 62
     0
100
AcDbPoint
 10
-115.85735418084
 20
-66.69801742273605
 30
0.0
  0
POINT
  5
6BB
330
C5
100
AcDbEntity
  8
Defpoints
  6
Continuous
 62
     0
100
AcDbPoint
 10
-190.8994196283403
 20
-66.69801742273604
 30
0.0
  0
ENDBLK
  5
CE
330
C5
100
AcDbEntity
  8
0
100
AcDbBlockEnd
  0
BLOCK
  5
D7
330
CF
100
AcDbEntity
  8
0
100
AcDbBlockBegin
  2
*D6
 70
     1
 10
0.0
 20
0.0
 30
0.0
  3
*D6
  1

  0
LINE
  5
6BC
330
CF
100
AcDbEntity
  8
P-0000
  6
Continuous
 62
     3
370
    -2
100
AcDbLine
 10
-140.8573541808437
 20
-75.19801742273705
 30
0.0
 11
-219.1257814177474
 21
-75.19801742273704
 31
0.0
  0
LINE
  5
6BD
330
CF
100
AcDbEntity
  8
P-0000
  6
Continuous
 62
     3
370
    -2
100
AcDbLine
 10
-215.1257814177474
 20
-68.89801742273704
 30
0.0
 11
-215.1257814177474
 21
-75.19801742273704
 31
0.0
  0
MTEXT
  5
6BE
330
CF
100
AcDbEntity
  8
P-0000
  6
Continuous
 62
     2
100
AcDbMText
 10
-222.6257814177472
 20
-2.792868567103056
 30
0.0
 40
7.0
 41
0.0
 71
     5
 72
     1
  1
%%c132
 11
0.0000000000000001
 21
1.0
 31
0.0
 73
     1
 44
1.0
1001
ACAD
1000
MTEXTBEGIN
1070
    73
1070
     1
1070
    44
1040
1.0
1070
    74
1070
     0
1000
MTEXTEND
  0
INSERT
  5
6BF
330
CF
100
AcDbEntity
  8
P-0000
  6
Continuous
 62
     3
370
    -2
100
AcDbBlockReference
  2
_ClosedBlank
 10
-215.1257814177474
 20
-75.19801742273704
 30
0.0
 41
6.299999999999999
 42
6.299999999999999
 43
6.299999999999999
 50
270.0
  0
POINT
  5
6C0
330
CF
100
AcDbEntity
  8
Defpoints
  6
Continuous
 62
     0
100
AcDbPoint
 10
-176.0741169208442
 20
-9.198017422736356
 30
0.0
  0
POINT
  5
6C1
330
CF
100
AcDbEntity
  8
Defpoints
  6
Continuous
 62
     0
100
AcDbPoint
 10
-140.8573541808437
 20
-75.19801742273705
 30
0.0
  0
POINT
  5
6C2
330
CF
100
AcDbEntity
  8
Defpoints
  6
Continuous
 62
     0
100
AcDbPoint
 10
-215.1257814177474
 20
-75.19801742273704
 30
0.0
  0
ENDBLK
  5
D8
330
CF
100
AcDbEntity
  8
0
100
AcDbBlockEnd
  0
BLOCK
  5
E1
330
D9
100
AcDbEntity
  8
0
100
AcDbBlockBegin
  2
*D7
 70
     1
 10
0.0
 20
0.0
 30
0.0
  3
*D7
  1

  0
LINE
  5
6C3
330
D9
100
AcDbEntity
  8
P-0000
  6
Continuous
 62
     3
370
    -2
100
AcDbLine
 10
-162.8573541808396
 20
-79.19801742273515
 30
0.0
 11
-242.2988231293544
 21
-79.19801742273513
 31
0.0
  0
LINE
  5
6C4
330
D9
100
AcDbEntity
  8
P-0000
  6
Continuous
 62
     3
370
    -2
100
AcDbLine
 10
-238.2988231293543
 20
-72.89801742273514
 30
0.0
 11
-238.2988231293543
 21
-79.19801742273513
 31
0.0
  0
MTEXT
  5
6C5
330
D9
100
AcDbEntity
  8
P-0000
  6
Continuous
 62
     2
100
AcDbMText
 10
-245.7988231293543
 20
-2.792868567103056
 30
0.0
 40
7.0
 41
0.0
 71
     5
 72
     1
  1
%%c140
 11
0.0000000000000001
 21
1.0
 31
0.0
 73
     1
 44
1.0
1001
ACAD
1000
MTEXTBEGIN
1070
    73
1070
     1
1070
    44
1040
1.0
1070
    74
1070
     0
1000
MTEXTEND
  0
INSERT
  5
6C6
330
D9
100
AcDbEntity
  8
P-0000
  6
Continuous
 62
     3
370
    -2
100
AcDbBlockReference
  2
_ClosedBlank
 10
-238.2988231293543
 20
-79.19801742273513
 30
0.0
 41
6.299999999999999
 42
6.299999999999999
 43
6.299999999999999
 50
270.0
  0
POINT
  5
6C7
330
D9
100
AcDbEntity
  8
Defpoints
  6
Continuous
 62
     0
100
AcDbPoint
 10
-176.0741169208442
 20
-9.198017422736356
 30
0.0
  0
POINT
  5
6C8
330
D9
100
AcDbEntity
  8
Defpoints
  6
Continuous
 62
     0
100
AcDbPoint
 10
-162.8573541808396
 20
-79.19801742273515
 30
0.0
  0
POINT
  5
6C9
330
D9
100
AcDbEntity
  8
Defpoints
  6
Continuous
 62
     0
100
AcDbPoint
 10
-238.2988231293543
 20
-79.19801742273513
 30
0.0
  0
ENDBLK
  5
E2
330
D9
100
AcDbEntity
  8
0
100
AcDbBlockEnd
  0
BLOCK
  5
ED
330
E3
100
AcDbEntity
  8
0
100
AcDbBlockBegin
  2
*D8
 70
     1
 10
0.0
 20
0.0
 30
0.0
  3
*D8
  1

  0
LINE
  5
AB9
330
E3
100
AcDbEntity
  8
P-0000
  6
Continuous
 62
     3
370
    -2
100
AcDbLine
 10
252.5725914786745
 20
209.7319282367791
 30
0.0
 11
252.5725914786745
 21
147.3935132655747
 31
0.0
  0
LINE
  5
ABA
330
E3
100
AcDbEntity
  8
P-0000
  6
Continuous
 62
     3
370
    -2
100
AcDbLine
 10
149.5725914786745
 20
216.7319282367784
 30
0.0
 11
149.5725914786745
 21
147.3935132655747
 31
0.0
  0
LINE
  5
ABB
330
E3
100
AcDbEntity
  8
P-0000
  6
Continuous
 62
     3
370
    -2
100
AcDbLine
 10
238.5725914786746
 20
151.3935132655747
 30
0.0
 11
163.5725914786745
 21
151.3935132655747
 31
0.0
  0
MTEXT
  5
ABC
330
E3
100
AcDbEntity
  8
P-0000
  6
Continuous
 62
     2
100
AcDbMText
 10
203.7208276250485
 20
166.7870031231787
 30
0.0
 40
20.0
 41
0.0
 71
     5
 72
     1
  1
%%c103{}{\H0.60x;\C3;\S+0.3^ ;}
 73
     1
 44
1.0
1001
ACAD
1000
MTEXTBEGIN
1070
    73
1070
     1
1070
    44
1040
1.0
1070
    74
1070
     0
1000
MTEXTEND
  0
SOLID
  5
ABD
330
E3
100
AcDbEntity
  8
P-0000
  6
Continuous
 62
     3
100
AcDbTrace
 10
238.5725914786746
 20
153.726846598908
 30
0.0
 11
238.5725914786746
 21
149.0601799322413
 31
0.0
 12
252.5725914786745
 22
151.3935132655747
 32
0.0
 13
252.5725914786745
 23
151.3935132655747
 33
0.0
  0
SOLID
  5
ABE
330
E3
100
AcDbEntity
  8
P-0000
  6
Continuous
 62
     3
100
AcDbTrace
 10
163.5725914786745
 20
153.726846598908
 30
0.0
 11
163.5725914786745
 21
149.0601799322413
 31
0.0
 12
149.5725914786745
 22
151.3935132655747
 32
0.0
 13
149.5725914786745
 23
151.3935132655747
 33
0.0
  0
POINT
  5
ABF
330
E3
100
AcDbEntity
  8
Defpoints
  6
Continuous
 62
     0
100
AcDbPoint
 10
252.5725914786745
 20
209.7319282367791
 30
0.0
  0
POINT
  5
AC0
330
E3
100
AcDbEntity
  8
Defpoints
  6
Continuous
 62
     0
100
AcDbPoint
 10
149.5725914786745
 20
216.7319282367784
 30
0.0
  0
POINT
  5
AC1
330
E3
100
AcDbEntity
  8
Defpoints
  6
Continuous
 62
     0
100
AcDbPoint
 10
149.5725914786745
 20
151.3935132655747
 30
0.0
  0
ENDBLK
  5
EE
330
E3
100
AcDbEntity
  8
0
100
AcDbBlockEnd
  0
BLOCK
  5
FB
330
EF
100
AcDbEntity
  8
0
100
AcDbBlockBegin
  2
*D9
 70
     1
 10
0.0
 20
0.0
 30
0.0
  3
*D9
  1

  0
LINE
  5
6D3
330
EF
100
AcDbEntity
  8
P-0000
  6
Continuous
 62
     3
370
    -2
100
AcDbLine
 10
-17.85735418084328
 20
-84.19801742273824
 30
0.0
 11
-17.85735418084329
 21
-143.5160090824135
 31
0.0
  0
LINE
  5
6D4
330
EF
100
AcDbEntity
  8
P-0000
  6
Continuous
 62
     3
370
    -2
100
AcDbLine
 10
-12.85735418084326
 20
-84.19801742273824
 30
0.0
 11
-12.85735418084326
 21
-143.5160090824135
 31
0.0
  0
LINE
  5
6D5
330
EF
100
AcDbEntity
  8
P-0000
  6
Continuous
 62
     3
370
    -2
100
AcDbLine
 10
-24.1573541808433
 20
-139.5160090824135
 30
0.0
 11
-30.45735418084329
 21
-139.5160090824135
 31
0.0
  0
LINE
  5
6D6
330
EF
100
AcDbEntity
  8
P-0000
  6
Continuous
 62
     3
370
    -2
100
AcDbLine
 10
-6.557354180843263
 20
-139.5160090824135
 30
0.0
 11
-0.2573541808432633
 21
-139.5160090824135
 31
0.0
  0
MTEXT
  5
6D7
330
EF
100
AcDbEntity
  8
P-0000
  6
Continuous
 62
     2
100
AcDbMText
 10
-6.545913240789275
 20
-132.0160090824135
 30
0.0
 40
7.0
 41
0.0
 71
     5
 72
     1
  1
5
 73
     1
 44
1.0
1001
ACAD
1000
MTEXTBEGIN
1070
    73
1070
     1
1070
    44
1040
1.0
1070
    74
1070
     0
1000
MTEXTEND
  0
LINE
  5
6D8
330
EF
100
AcDbEntity
  8
P-0000
  6
Continuous
 62
     3
370
    -2
100
AcDbLine
 10
-17.85735418084329
 20
-139.5160090824135
 30
0.0
 11
-12.85735418084326
 21
-139.5160090824135
 31
0.0
  0
SOLID
  5
6D9
330
EF
100
AcDbEntity
  8
P-0000
  6
Continuous
 62
     3
100
AcDbTrace
 10
-24.1573541808433
 20
-138.4660090824135
 30
0.0
 11
-24.1573541808433
 21
-140.5660090824136
 31
0.0
 12
-17.85735418084329
 22
-139.5160090824135
 32
0.0
 13
-17.85735418084329
 23
-139.5160090824135
 33
0.0
  0
SOLID
  5
6DA
330
EF
100
AcDbEntity
  8
P-0000
  6
Continuous
 62
     3
100
AcDbTrace
 10
-6.557354180843263
 20
-138.4660090824135
 30
0.0
 11
-6.557354180843263
 21
-140.5660090824136
 31
0.0
 12
-12.85735418084326
 22
-139.5160090824135
 32
0.0
 13
-12.85735418084326
 23
-139.5160090824135
 33
0.0
  0
POINT
  5
6DB
330
EF
100
AcDbEntity
  8
Defpoints
  6
Continuous
 62
     0
100
AcDbPoint
 10
-17.85735418084328
 20
-84.19801742273824
 30
0.0
  0
POINT
  5
6DC
330
EF
100
AcDbEntity
  8
Defpoints
  6
Continuous
 62
     0
100
AcDbPoint
 10
-12.85735418084326
 20
-84.19801742273824
 30
0.0
  0
POINT
  5
6DD
330
EF
100
AcDbEntity
  8
Defpoints
  6
Continuous
 62
     0
100
AcDbPoint
 10
-12.85735418084326
 20
-139.5160090824135
 30
0.0
  0
ENDBLK
  5
FC
330
EF
100
AcDbEntity
  8
0
100
AcDbBlockEnd
  0
BLOCK
  5
107
330
FD
100
AcDbEntity
  8
0
100
AcDbBlockBegin
  2
*D10
 70
     1
 10
0.0
 20
0.0
 30
0.0
  3
*D10
  1

  0
LINE
  5
A89
330
FD
100
AcDbEntity
  8
P-0000
  6
Continuous
 62
     3
370
    -2
100
AcDbLine
 10
117.0725914786727
 20
354.7319282367755
 30
0.0
 11
47.62449681226008
 21
354.7319282367755
 31
0.0
  0
LINE
  5
A8A
330
FD
100
AcDbEntity
  8
P-0000
  6
Continuous
 62
     3
370
    -2
100
AcDbLine
 10
131.0725914786735
 20
332.7319282367791
 30
0.0
 11
47.62449681226008
 21
332.7319282367792
 31
0.0
  0
LINE
  5
A8B
330
FD
100
AcDbEntity
  8
P-0000
  6
Continuous
 62
     3
370
    -2
100
AcDbLine
 10
51.62449681226009
 20
368.7319282367755
 30
0.0
 11
51.62449681226009
 21
382.7319282367755
 31
0.0
  0
LINE
  5
A8C
330
FD
100
AcDbEntity
  8
P-0000
  6
Continuous
 62
     3
370
    -2
100
AcDbLine
 10
51.62449681226007
 20
318.7319282367792
 30
0.0
 11
51.62449681226007
 21
304.7319282367792
 31
0.0
  0
MTEXT
  5
A8D
330
FD
100
AcDbEntity
  8
P-0000
  6
Continuous
 62
     2
100
AcDbMText
 10
59.12449681226005
 20
343.7319282367772
 30
0.0
 40
20.0
 41
0.0
 71
     5
 72
     1
  1
23
 11
0.0000000000000001
 21
1.0
 31
0.0
 73
     1
 44
1.0
1001
ACAD
1000
MTEXTBEGIN
1070
    73
1070
     1
1070
    44
1040
1.0
1070
    74
1070
     0
1000
MTEXTEND
  0
LINE
  5
A8E
330
FD
100
AcDbEntity
  8
P-0000
  6
Continuous
 62
     3
370
    -2
100
AcDbLine
 10
51.62449681226008
 20
354.7319282367755
 30
0.0
 11
51.62449681226007
 21
332.7319282367792
 31
0.0
  0
SOLID
  5
A8F
330
FD
100
AcDbEntity
  8
P-0000
  6
Continuous
 62
     3
100
AcDbTrace
 10
49.29116347892676
 20
368.7319282367755
 30
0.0
 11
53.95783014559342
 21
368.7319282367755
 31
0.0
 12
51.62449681226008
 22
354.7319282367755
 32
0.0
 13
51.62449681226008
 23
354.7319282367755
 33
0.0
  0
SOLID
  5
A90
330
FD
100
AcDbEntity
  8
P-0000
  6
Continuous
 62
     3
100
AcDbTrace
 10
49.29116347892674
 20
318.7319282367792
 30
0.0
 11
53.95783014559341
 21
318.7319282367792
 31
0.0
 12
51.62449681226007
 22
332.7319282367792
 32
0.0
 13
51.62449681226007
 23
332.7319282367792
 33
0.0
  0
POINT
  5
A91
330
FD
100
AcDbEntity
  8
Defpoints
  6
Continuous
 62
     0
100
AcDbPoint
 10
117.0725914786727
 20
354.7319282367755
 30
0.0
  0
POINT
  5
A92
330
FD
100
AcDbEntity
  8
Defpoints
  6
Continuous
 62
     0
100
AcDbPoint
 10
131.0725914786735
 20
332.7319282367791
 30
0.0
  0
POINT
  5
A93
330
FD
100
AcDbEntity
  8
Defpoints
  6
Continuous
 62
     0
100
AcDbPoint
 10
51.62449681226007
 20
332.7319282367792
 30
0.0
  0
ENDBLK
  5
108
330
FD
100
AcDbEntity
  8
0
100
AcDbBlockEnd
  0
BLOCK
  5
113
330
109
100
AcDbEntity
  8
0
100
AcDbBlockBegin
  2
*D11
 70
     1
 10
0.0
 20
0.0
 30
0.0
  3
*D11
  1

  0
LINE
  5
B04
330
109
100
AcDbEntity
  8
P-0000
  6
Continuous
 62
     3
370
    -2
100
AcDbLine
 10
140.0725914786741
 20
354.7319282367959
 30
0.0
 11
72.32364142732151
 21
354.731928236796
 31
0.0
  0
LINE
  5
B05
330
109
100
AcDbEntity
  8
P-0000
  6
Continuous
 62
     3
370
    -2
100
AcDbLine
 10
135.0725914786735
 20
307.7319282367757
 30
0.0
 11
72.32364142732149
 21
307.7319282367758
 31
0.0
  0
LINE
  5
B06
330
109
100
AcDbEntity
  8
P-0000
  6
Continuous
 62
     3
370
    -2
100
AcDbLine
 10
76.32364142732149
 20
340.731928236796
 30
0.0
 11
76.32364142732149
 21
321.7319282367758
 31
0.0
  0
MTEXT
  5
B07
330
109
100
AcDbEntity
  8
P-0000
  6
Continuous
 62
     2
100
AcDbMText
 10
59.12449681226007
 20
328.7098719722421
 30
0.0
 40
20.0
 41
0.0
 71
     5
 72
     1
  1
47
 11
0.0000000000000001
 21
1.0
 31
0.0
 73
     1
 44
1.0
1001
ACAD
1000
MTEXTBEGIN
1070
    73
1070
     1
1070
    44
1040
1.0
1070
    74
1070
     0
1000
MTEXTEND
  0
SOLID
  5
B08
330
109
100
AcDbEntity
  8
P-0000
  6
Continuous
 62
     3
100
AcDbTrace
 10
73.99030809398816
 20
340.731928236796
 30
0.0
 11
78.65697476065482
 21
340.731928236796
 31
0.0
 12
76.3236414273215
 22
354.731928236796
 32
0.0
 13
76.3236414273215
 23
354.731928236796
 33
0.0
  0
SOLID
  5
B09
330
109
100
AcDbEntity
  8
P-0000
  6
Continuous
 62
     3
100
AcDbTrace
 10
73.99030809398816
 20
321.7319282367758
 30
0.0
 11
78.65697476065482
 21
321.7319282367758
 31
0.0
 12
76.32364142732149
 22
307.7319282367758
 32
0.0
 13
76.32364142732149
 23
307.7319282367758
 33
0.0
  0
POINT
  5
B0A
330
109
100
AcDbEntity
  8
Defpoints
  6
Continuous
 62
     0
100
AcDbPoint
 10
140.0725914786741
 20
354.7319282367959
 30
0.0
  0
POINT
  5
B0B
330
109
100
AcDbEntity
  8
Defpoints
  6
Continuous
 62
     0
100
AcDbPoint
 10
135.0725914786735
 20
307.7319282367757
 30
0.0
  0
POINT
  5
B0C
330
109
100
AcDbEntity
  8
Defpoints
  6
Continuous
 62
     0
100
AcDbPoint
 10
76.32364142732149
 20
307.7319282367758
 30
0.0
  0
ENDBLK
  5
114
330
109
100
AcDbEntity
  8
0
100
AcDbBlockEnd
  0
BLOCK
  5
11F
330
115
100
AcDbEntity
  8
0
100
AcDbBlockBegin
  2
*D12
 70
     1
 10
0.0
 20
0.0
 30
0.0
  3
*D12
  1

  0
LINE
  5
AF1
330
115
100
AcDbEntity
  8
P-0000
  6
Continuous
 62
     3
370
    -2
100
AcDbLine
 10
117.0725914786727
 20
354.7319282367755
 30
0.0
 11
21.22476789720124
 21
354.7319282367755
 31
0.0
  0
LINE
  5
AF2
330
115
100
AcDbEntity
  8
P-0000
  6
Continuous
 62
     3
370
    -2
100
AcDbLine
 10
149.5725914786745
 20
216.7319282367784
 30
0.0
 11
21.22476789720121
 21
216.7319282367784
 31
0.0
  0
LINE
  5
AF3
330
115
100
AcDbEntity
  8
P-0000
  6
Continuous
 62
     3
370
    -2
100
AcDbLine
 10
25.22476789720125
 20
340.7319282367755
 30
0.0
 11
25.22476789720124
 21
311.3343381262225
 31
0.0
  0
LINE
  5
AF4
330
115
100
AcDbEntity
  8
P-0000
  6
Continuous
 62
     3
370
    -2
100
AcDbLine
 10
25.22476789720122
 20
230.7319282367784
 30
0.0
 11
25.22476789720123
 21
271.3343381262225
 31
0.0
  0
MTEXT
  5
AF5
330
115
100
AcDbEntity
  8
P-0000
  6
Continuous
 62
     2
100
AcDbMText
 10
11.92506266465034
 20
291.3343381262225
 30
0.0
 40
20.0
 41
0.0
 71
     5
 72
     1
  1
138
 11
0.0000000000000001
 21
1.0
 31
0.0
 73
     1
 44
1.0
1001
ACAD
1000
MTEXTBEGIN
1070
    73
1070
     1
1070
    44
1040
1.0
1070
    74
1070
     0
1000
MTEXTEND
  0
SOLID
  5
AF6
330
115
100
AcDbEntity
  8
P-0000
  6
Continuous
 62
     3
100
AcDbTrace
 10
22.89143456386791
 20
340.7319282367755
 30
0.0
 11
27.55810123053457
 21
340.7319282367755
 31
0.0
 12
25.22476789720125
 22
354.7319282367755
 32
0.0
 13
25.22476789720125
 23
354.7319282367755
 33
0.0
  0
SOLID
  5
AF7
330
115
100
AcDbEntity
  8
P-0000
  6
Continuous
 62
     3
100
AcDbTrace
 10
22.89143456386788
 20
230.7319282367784
 30
0.0
 11
27.55810123053455
 21
230.7319282367784
 31
0.0
 12
25.22476789720122
 22
216.7319282367784
 32
0.0
 13
25.22476789720122
 23
216.7319282367784
 33
0.0
  0
POINT
  5
AF8
330
115
100
AcDbEntity
  8
Defpoints
  6
Continuous
 62
     0
100
AcDbPoint
 10
117.0725914786727
 20
354.7319282367755
 30
0.0
  0
POINT
  5
AF9
330
115
100
AcDbEntity
  8
Defpoints
  6
Continuous
 62
     0
100
AcDbPoint
 10
149.5725914786745
 20
216.7319282367784
 30
0.0
  0
POINT
  5
AFA
330
115
100
AcDbEntity
  8
Defpoints
  6
Continuous
 62
     0
100
AcDbPoint
 10
25.22476789720122
 20
216.7319282367784
 30
0.0
  0
ENDBLK
  5
120
330
115
100
AcDbEntity
  8
0
100
AcDbBlockEnd
  0
BLOCK
  5
12B
330
121
100
AcDbEntity
  8
0
100
AcDbBlockBegin
  2
*D13
 70
     1
 10
0.0
 20
0.0
 30
0.0
  3
*D13
  1

  0
LINE
  5
AFB
330
121
100
AcDbEntity
  8
P-0000
  6
Continuous
 62
     3
370
    -2
100
AcDbLine
 10
117.0725914786727
 20
354.7319282367755
 30
0.0
 11
-17.08720965497597
 21
354.7319282367755
 31
0.0
  0
LINE
  5
AFC
330
121
100
AcDbEntity
  8
P-0000
  6
Continuous
 62
     3
370
    -2
100
AcDbLine
 10
126.0725914786723
 20
204.7319282367791
 30
0.0
 11
-17.08720965497599
 21
204.7319282367792
 31
0.0
  0
LINE
  5
AFD
330
121
100
AcDbEntity
  8
P-0000
  6
Continuous
 62
     3
370
    -2
100
AcDbLine
 10
-13.08720965497596
 20
340.7319282367755
 30
0.0
 11
-13.08720965497599
 21
218.7319282367792
 31
0.0
  0
MTEXT
  5
AFE
330
121
100
AcDbEntity
  8
P-0000
  6
Continuous
 62
     2
100
AcDbMText
 10
-29.37402436061666
 20
285.0370007828788
 30
0.0
 40
20.0
 41
0.0
 71
     5
 72
     1
  1
150
 11
0.0000000000000001
 21
1.0
 31
0.0
 73
     1
 44
1.0
1001
ACAD
1000
MTEXTBEGIN
1070
    73
1070
     1
1070
    44
1040
1.0
1070
    74
1070
     0
1000
MTEXTEND
  0
SOLID
  5
AFF
330
121
100
AcDbEntity
  8
P-0000
  6
Continuous
 62
     3
100
AcDbTrace
 10
-15.42054298830929
 20
340.7319282367755
 30
0.0
 11
-10.75387632164263
 21
340.7319282367755
 31
0.0
 12
-13.08720965497596
 22
354.7319282367755
 32
0.0
 13
-13.08720965497596
 23
354.7319282367755
 33
0.0
  0
SOLID
  5
B00
330
121
100
AcDbEntity
  8
P-0000
  6
Continuous
 62
     3
100
AcDbTrace
 10
-15.42054298830932
 20
218.7319282367792
 30
0.0
 11
-10.75387632164266
 21
218.7319282367792
 31
0.0
 12
-13.08720965497599
 22
204.7319282367792
 32
0.0
 13
-13.08720965497599
 23
204.7319282367792
 33
0.0
  0
POINT
  5
B01
330
121
100
AcDbEntity
  8
Defpoints
  6
Continuous
 62
     0
100
AcDbPoint
 10
117.0725914786727
 20
354.7319282367755
 30
0.0
  0
POINT
  5
B02
330
121
100
AcDbEntity
  8
Defpoints
  6
Continuous
 62
     0
100
AcDbPoint
 10
126.0725914786723
 20
204.7319282367791
 30
0.0
  0
POINT
  5
B03
330
121
100
AcDbEntity
  8
Defpoints
  6
Continuous
 62
     0
100
AcDbPoint
 10
-13.08720965497599
 20
204.7319282367792
 30
0.0
  0
ENDBLK
  5
12C
330
121
100
AcDbEntity
  8
0
100
AcDbBlockEnd
  0
BLOCK
  5
137
330
12D
100
AcDbEntity
  8
0
100
AcDbBlockBegin
  2
*D14
 70
     1
 10
0.0
 20
0.0
 30
0.0
  3
*D14
  1

  0
LINE
  5
B0D
330
12D
100
AcDbEntity
  8
P-0000
  6
Continuous
 62
     3
370
    -2
100
AcDbLine
 10
303.5725914786596
 20
315.7319282367784
 30
0.0
 11
340.4504749125739
 21
315.7319282367784
 31
0.0
  0
LINE
  5
B0E
330
12D
100
AcDbEntity
  8
P-0000
  6
Continuous
 62
     3
370
    -2
100
AcDbLine
 10
303.57259147866
 20
204.7319282367791
 30
0.0
 11
340.4504749125739
 21
204.731928236779
 31
0.0
  0
LINE
  5
B0F
330
12D
100
AcDbEntity
  8
P-0000
  6
Continuous
 62
     3
370
    -2
100
AcDbLine
 10
336.4504749125739
 20
301.7319282367783
 30
0.0
 11
336.4504749125739
 21
218.731928236779
 31
0.0
  0
MTEXT
  5
B10
330
12D
100
AcDbEntity
  8
P-0000
  6
Continuous
 62
     2
100
AcDbMText
 10
321.3182305150358
 20
265.4452860297119
 30
0.0
 40
20.0
 41
0.0
 71
     5
 72
     1
  1
110
 11
0.0000000000000001
 21
1.0
 31
0.0
 73
     1
 44
1.0
1001
ACAD
1000
MTEXTBEGIN
1070
    73
1070
     1
1070
    44
1040
1.0
1070
    74
1070
     0
1000
MTEXTEND
  0
SOLID
  5
B11
330
12D
100
AcDbEntity
  8
P-0000
  6
Continuous
 62
     3
100
AcDbTrace
 10
334.1171415792406
 20
301.7319282367783
 30
0.0
 11
338.7838082459073
 21
301.7319282367783
 31
0.0
 12
336.4504749125739
 22
315.7319282367784
 32
0.0
 13
336.4504749125739
 23
315.7319282367784
 33
0.0
  0
SOLID
  5
B12
330
12D
100
AcDbEntity
  8
P-0000
  6
Continuous
 62
     3
100
AcDbTrace
 10
334.1171415792406
 20
218.731928236779
 30
0.0
 11
338.7838082459073
 21
218.731928236779
 31
0.0
 12
336.4504749125739
 22
204.731928236779
 32
0.0
 13
336.4504749125739
 23
204.731928236779
 33
0.0
  0
POINT
  5
B13
330
12D
100
AcDbEntity
  8
Defpoints
  6
Continuous
 62
     0
100
AcDbPoint
 10
303.5725914786596
 20
315.7319282367784
 30
0.0
  0
POINT
  5
B14
330
12D
100
AcDbEntity
  8
Defpoints
  6
Continuous
 62
     0
100
AcDbPoint
 10
303.57259147866
 20
204.7319282367791
 30
0.0
  0
POINT
  5
B15
330
12D
100
AcDbEntity
  8
Defpoints
  6
Continuous
 62
     0
100
AcDbPoint
 10
336.4504749125739
 20
204.731928236779
 30
0.0
  0
ENDBLK
  5
138
330
12D
100
AcDbEntity
  8
0
100
AcDbBlockEnd
  0
BLOCK
  5
143
330
139
100
AcDbEntity
  8
0
100
AcDbBlockBegin
  2
*D15
 70
     1
 10
0.0
 20
0.0
 30
0.0
  3
*D15
  1

  0
LINE
  5
B1F
330
139
100
AcDbEntity
  8
P-0000
  6
Continuous
 62
     3
370
    -2
100
AcDbLine
 10
98.5725914786856
 20
40.80198257726268
 30
0.0
 11
67.48412519287398
 21
40.80198257726269
 31
0.0
  0
LINE
  5
B20
330
139
100
AcDbEntity
  8
P-0000
  6
Continuous
 62
     3
370
    -2
100
AcDbLine
 10
106.5725914786856
 20
-59.19801742273731
 30
0.0
 11
67.48412519287396
 21
-59.1980174227373
 31
0.0
  0
LINE
  5
B21
330
139
100
AcDbEntity
  8
P-0000
  6
Continuous
 62
     3
370
    -2
100
AcDbLine
 10
71.48412519287397
 20
26.8019825772627
 30
0.0
 11
71.48412519287396
 21
-45.1980174227373
 31
0.0
  0
MTEXT
  5
B22
330
139
100
AcDbEntity
  8
P-0000
  6
Continuous
 62
     2
100
AcDbMText
 10
56.72407161472893
 20
-8.838731210562853
 30
0.0
 40
20.0
 41
0.0
 71
     5
 72
     1
  1
100
 11
0.0000000000000001
 21
1.0
 31
0.0
 73
     1
 44
1.0
1001
ACAD
1000
MTEXTBEGIN
1070
    73
1070
     1
1070
    44
1040
1.0
1070
    74
1070
     0
1000
MTEXTEND
  0
SOLID
  5
B23
330
139
100
AcDbEntity
  8
P-0000
  6
Continuous
 62
     3
100
AcDbTrace
 10
69.15079185954065
 20
26.8019825772627
 30
0.0
 11
73.8174585262073
 21
26.80198257726269
 31
0.0
 12
71.48412519287399
 22
40.80198257726269
 32
0.0
 13
71.48412519287399
 23
40.80198257726269
 33
0.0
  0
SOLID
  5
B24
330
139
100
AcDbEntity
  8
P-0000
  6
Continuous
 62
     3
100
AcDbTrace
 10
69.15079185954063
 20
-45.1980174227373
 30
0.0
 11
73.81745852620729
 21
-45.1980174227373
 31
0.0
 12
71.48412519287396
 22
-59.1980174227373
 32
0.0
 13
71.48412519287396
 23
-59.1980174227373
 33
0.0
  0
POINT
  5
B25
330
139
100
AcDbEntity
  8
Defpoints
  6
Continuous
 62
     0
100
AcDbPoint
 10
98.5725914786856
 20
40.80198257726268
 30
0.0
  0
POINT
  5
B26
330
139
100
AcDbEntity
  8
Defpoints
  6
Continuous
 62
     0
100
AcDbPoint
 10
106.5725914786856
 20
-59.19801742273731
 30
0.0
  0
POINT
  5
B27
330
139
100
AcDbEntity
  8
Defpoints
  6
Continuous
 62
     0
100
AcDbPoint
 10
71.48412519287396
 20
-59.1980174227373
 30
0.0
  0
ENDBLK
  5
144
330
139
100
AcDbEntity
  8
0
100
AcDbBlockEnd
  0
BLOCK
  5
14F
330
145
100
AcDbEntity
  8
0
100
AcDbBlockBegin
  2
*D16
 70
     1
 10
0.0
 20
0.0
 30
0.0
  3
*D16
  1

  0
LINE
  5
716
330
145
100
AcDbEntity
  8
P-0000
  6
Continuous
 62
     3
370
    -2
100
AcDbLine
 10
111.0725914786732
 20
-99.19801742273737
 30
0.0
 11
111.0725914786732
 21
-168.0263095264265
 31
0.0
  0
LINE
  5
717
330
145
100
AcDbEntity
  8
P-0000
  6
Continuous
 62
     3
370
    -2
100
AcDbLine
 10
291.0725914786732
 20
-99.19801742273737
 30
0.0
 11
291.0725914786732
 21
-168.0263095264265
 31
0.0
  0
LINE
  5
718
330
145
100
AcDbEntity
  8
P-0000
  6
Continuous
 62
     3
370
    -2
100
AcDbLine
 10
117.3725914786732
 20
-164.0263095264265
 30
0.0
 11
284.7725914786732
 21
-164.0263095264265
 31
0.0
  0
MTEXT
  5
719
330
145
100
AcDbEntity
  8
P-0000
  6
Continuous
 62
     2
100
AcDbMText
 10
201.0725914786732
 20
-154.2513095264265
 30
0.0
 40
7.0
 41
0.0
 71
     5
 72
     1
  1
180{}{\H0.60x;\C3;\S+0.5^ ;}
 73
     1
 44
1.0
1001
ACAD
1000
MTEXTBEGIN
1070
    73
1070
     1
1070
    44
1040
1.0
1070
    74
1070
     0
1000
MTEXTEND
  0
SOLID
  5
71A
330
145
100
AcDbEntity
  8
P-0000
  6
Continuous
 62
     3
100
AcDbTrace
 10
117.3725914786732
 20
-162.9763095264265
 30
0.0
 11
117.3725914786732
 21
-165.0763095264265
 31
0.0
 12
111.0725914786732
 22
-164.0263095264265
 32
0.0
 13
111.0725914786732
 23
-164.0263095264265
 33
0.0
  0
SOLID
  5
71B
330
145
100
AcDbEntity
  8
P-0000
  6
Continuous
 62
     3
100
AcDbTrace
 10
284.7725914786732
 20
-162.9763095264265
 30
0.0
 11
284.7725914786732
 21
-165.0763095264265
 31
0.0
 12
291.0725914786732
 22
-164.0263095264265
 32
0.0
 13
291.0725914786732
 23
-164.0263095264265
 33
0.0
  0
POINT
  5
71C
330
145
100
AcDbEntity
  8
Defpoints
  6
Continuous
 62
     0
100
AcDbPoint
 10
111.0725914786732
 20
-99.19801742273737
 30
0.0
  0
POINT
  5
71D
330
145
100
AcDbEntity
  8
Defpoints
  6
Continuous
 62
     0
100
AcDbPoint
 10
291.0725914786732
 20
-99.19801742273737
 30
0.0
  0
POINT
  5
71E
330
145
100
AcDbEntity
  8
Defpoints
  6
Continuous
 62
     0
100
AcDbPoint
 10
291.0725914786732
 20
-164.0263095264265
 30
0.0
  0
ENDBLK
  5
150
330
145
100
AcDbEntity
  8
0
100
AcDbBlockEnd
  0
BLOCK
  5
15B
330
151
100
AcDbEntity
  8
0
100
AcDbBlockBegin
  2
*D17
 70
     1
 10
0.0
 20
0.0
 30
0.0
  3
*D17
  1

  0
LINE
  5
71F
330
151
100
AcDbEntity
  8
P-0000
  6
Continuous
 62
     3
370
    -2
100
AcDbLine
 10
291.0725914786732
 20
-99.19801742273737
 30
0.0
 11
346.0321252065842
 21
-99.19801742273737
 31
0.0
  0
LINE
  5
720
330
151
100
AcDbEntity
  8
P-0000
  6
Continuous
 62
     3
370
    -2
100
AcDbLine
 10
291.0725914786732
 20
80.80198257726264
 30
0.0
 11
346.0321252065842
 21
80.80198257726264
 31
0.0
  0
LINE
  5
721
330
151
100
AcDbEntity
  8
P-0000
  6
Continuous
 62
     3
370
    -2
100
AcDbLine
 10
342.0321252065842
 20
-92.89801742273736
 30
0.0
 11
342.0321252065842
 21
74.50198257726265
 31
0.0
  0
MTEXT
  5
722
330
151
100
AcDbEntity
  8
P-0000
  6
Continuous
 62
     2
100
AcDbMText
 10
332.2571252065842
 20
-11.71701579777755
 30
0.0
 40
7.0
 41
0.0
 71
     5
 72
     1
  1
180{}{\H0.60x;\C3;\S+0.5^ ;}
 11
0.0000000000000001
 21
1.0
 31
0.0
 73
     1
 44
1.0
1001
ACAD
1000
MTEXTBEGIN
1070
    73
1070
     1
1070
    44
1040
1.0
1070
    74
1070
     0
1000
MTEXTEND
  0
SOLID
  5
723
330
151
100
AcDbEntity
  8
P-0000
  6
Continuous
 62
     3
100
AcDbTrace
 10
340.9821252065842
 20
-92.89801742273736
 30
0.0
 11
343.0821252065842
 21
-92.89801742273736
 31
0.0
 12
342.0321252065842
 22
-99.19801742273737
 32
0.0
 13
342.0321252065842
 23
-99.19801742273737
 33
0.0
  0
SOLID
  5
724
330
151
100
AcDbEntity
  8
P-0000
  6
Continuous
 62
     3
100
AcDbTrace
 10
340.9821252065842
 20
74.50198257726265
 30
0.0
 11
343.0821252065842
 21
74.50198257726265
 31
0.0
 12
342.0321252065842
 22
80.80198257726264
 32
0.0
 13
342.0321252065842
 23
80.80198257726264
 33
0.0
  0
POINT
  5
725
330
151
100
AcDbEntity
  8
Defpoints
  6
Continuous
 62
     0
100
AcDbPoint
 10
291.0725914786732
 20
-99.19801742273737
 30
0.0
  0
POINT
  5
726
330
151
100
AcDbEntity
  8
Defpoints
  6
Continuous
 62
     0
100
AcDbPoint
 10
291.0725914786732
 20
80.80198257726264
 30
0.0
  0
POINT
  5
727
330
151
100
AcDbEntity
  8
Defpoints
  6
Continuous
 62
     0
100
AcDbPoint
 10
342.0321252065842
 20
80.80198257726264
 30
0.0
  0
ENDBLK
  5
15C
330
151
100
AcDbEntity
  8
0
100
AcDbBlockEnd
  0
BLOCK
  5
167
330
15D
100
AcDbEntity
  8
0
100
AcDbBlockBegin
  2
*D18
 70
     1
 10
0.0
 20
0.0
 30
0.0
  3
*D18
  1

  0
LINE
  5
B28
330
15D
100
AcDbEntity
  8
P-0000
  6
Continuous
 62
     3
370
    -2
100
AcDbLine
 10
98.57259147868559
 20
-111.6980174227248
 30
0.0
 11
98.57259147868559
 21
-182.8787322537644
 31
0.0
  0
LINE
  5
B29
330
15D
100
AcDbEntity
  8
P-0000
  6
Continuous
 62
     3
370
    -2
100
AcDbLine
 10
303.5725914786607
 20
-111.6980174227248
 30
0.0
 11
303.5725914786607
 21
-182.8787322537644
 31
0.0
  0
LINE
  5
B2A
330
15D
100
AcDbEntity
  8
P-0000
  6
Continuous
 62
     3
370
    -2
100
AcDbLine
 10
112.5725914786856
 20
-178.8787322537644
 30
0.0
 11
289.5725914786607
 21
-178.8787322537644
 31
0.0
  0
MTEXT
  5
B2B
330
15D
100
AcDbEntity
  8
P-0000
  6
Continuous
 62
     2
100
AcDbMText
 10
202.3208562974328
 20
-159.9748210332523
 30
0.0
 40
20.0
 41
0.0
 71
     5
 72
     1
  1
205
 73
     1
 44
1.0
1001
ACAD
1000
MTEXTBEGIN
1070
    73
1070
     1
1070
    44
1040
1.0
1070
    74
1070
     0
1000
MTEXTEND
  0
SOLID
  5
B2C
330
15D
100
AcDbEntity
  8
P-0000
  6
Continuous
 62
     3
100
AcDbTrace
 10
112.5725914786856
 20
-176.5453989204311
 30
0.0
 11
112.5725914786856
 21
-181.2120655870978
 31
0.0
 12
98.57259147868559
 22
-178.8787322537644
 32
0.0
 13
98.57259147868559
 23
-178.8787322537644
 33
0.0
  0
SOLID
  5
B2D
330
15D
100
AcDbEntity
  8
P-0000
  6
Continuous
 62
     3
100
AcDbTrace
 10
289.5725914786607
 20
-176.5453989204311
 30
0.0
 11
289.5725914786607
 21
-181.2120655870978
 31
0.0
 12
303.5725914786607
 22
-178.8787322537644
 32
0.0
 13
303.5725914786607
 23
-178.8787322537644
 33
0.0
  0
POINT
  5
B2E
330
15D
100
AcDbEntity
  8
Defpoints
  6
Continuous
 62
     0
100
AcDbPoint
 10
98.57259147868559
 20
-111.6980174227248
 30
0.0
  0
POINT
  5
B2F
330
15D
100
AcDbEntity
  8
Defpoints
  6
Continuous
 62
     0
100
AcDbPoint
 10
303.5725914786607
 20
-111.6980174227248
 30
0.0
  0
POINT
  5
B30
330
15D
100
AcDbEntity
  8
Defpoints
  6
Continuous
 62
     0
100
AcDbPoint
 10
303.5725914786607
 20
-178.8787322537644
 30
0.0
  0
ENDBLK
  5
168
330
15D
100
AcDbEntity
  8
0
100
AcDbBlockEnd
  0
BLOCK
  5
175
330
169
100
AcDbEntity
  8
0
100
AcDbBlockBegin
  2
*D19
 70
     1
 10
0.0
 20
0.0
 30
0.0
  3
*D19
  1

  0
LINE
  5
732
330
169
100
AcDbEntity
  8
P-0000
  6
Continuous
 62
     3
370
    -2
100
AcDbLine
 10
151.0725914786732
 20
-111.6980174227249
 30
0.0
 11
46.46862006888509
 21
-111.6980174227249
 31
0.0
  0
LINE
  5
733
330
169
100
AcDbEntity
  8
P-0000
  6
Continuous
 62
     3
370
    -2
100
AcDbLine
 10
151.0725914786732
 20
-103.6980174227249
 30
0.0
 11
46.46862006888509
 21
-103.6980174227249
 31
0.0
  0
LINE
  5
734
330
169
100
AcDbEntity
  8
P-0000
  6
Continuous
 62
     3
370
    -2
100
AcDbLine
 10
50.46862006888508
 20
-117.9980174227249
 30
0.0
 11
50.46862006888508
 21
-124.2980174227249
 31
0.0
  0
LINE
  5
735
330
169
100
AcDbEntity
  8
P-0000
  6
Continuous
 62
     3
370
    -2
100
AcDbLine
 10
50.46862006888509
 20
-97.39801742272494
 30
0.0
 11
50.46862006888509
 21
-91.09801742272493
 31
0.0
  0
MTEXT
  5
736
330
169
100
AcDbEntity
  8
P-0000
  6
Continuous
 62
     2
100
AcDbMText
 10
42.96862006888514
 20
-89.17717089406256
 30
0.0
 40
7.0
 41
0.0
 71
     5
 72
     1
  1
7
 11
0.0000000000000001
 21
1.0
 31
0.0
 73
     1
 44
1.0
1001
ACAD
1000
MTEXTBEGIN
1070
    73
1070
     1
1070
    44
1040
1.0
1070
    74
1070
     0
1000
MTEXTEND
  0
LINE
  5
737
330
169
100
AcDbEntity
  8
P-0000
  6
Continuous
 62
     3
370
    -2
100
AcDbLine
 10
50.46862006888509
 20
-111.6980174227249
 30
0.0
 11
50.46862006888509
 21
-103.6980174227249
 31
0.0
  0
SOLID
  5
738
330
169
100
AcDbEntity
  8
P-0000
  6
Continuous
 62
     3
100
AcDbTrace
 10
49.41862006888508
 20
-117.9980174227249
 30
0.0
 11
51.51862006888507
 21
-117.9980174227249
 31
0.0
 12
50.46862006888509
 22
-111.6980174227249
 32
0.0
 13
50.46862006888509
 23
-111.6980174227249
 33
0.0
  0
SOLID
  5
739
330
169
100
AcDbEntity
  8
P-0000
  6
Continuous
 62
     3
100
AcDbTrace
 10
49.41862006888509
 20
-97.39801742272494
 30
0.0
 11
51.51862006888508
 21
-97.39801742272494
 31
0.0
 12
50.46862006888509
 22
-103.6980174227249
 32
0.0
 13
50.46862006888509
 23
-103.6980174227249
 33
0.0
  0
POINT
  5
73A
330
169
100
AcDbEntity
  8
Defpoints
  6
Continuous
 62
     0
100
AcDbPoint
 10
151.0725914786732
 20
-111.6980174227249
 30
0.0
  0
POINT
  5
73B
330
169
100
AcDbEntity
  8
Defpoints
  6
Continuous
 62
     0
100
AcDbPoint
 10
151.0725914786732
 20
-103.6980174227249
 30
0.0
  0
POINT
  5
73C
330
169
100
AcDbEntity
  8
Defpoints
  6
Continuous
 62
     0
100
AcDbPoint
 10
50.46862006888509
 20
-103.6980174227249
 30
0.0
  0
ENDBLK
  5
176
330
169
100
AcDbEntity
  8
0
100
AcDbBlockEnd
  0
BLOCK
  5
181
330
177
100
AcDbEntity
  8
0
100
AcDbBlockBegin
  2
*D20
 70
     1
 10
0.0
 20
0.0
 30
0.0
  3
*D20
  1

  0
LINE
  5
A0C
330
177
100
AcDbEntity
  8
P-0000
  6
Continuous
 62
     3
370
    -2
100
AcDbLine
 10
667.9786623155434
 20
181.9413318001685
 30
0.0
 11
667.9786623155434
 21
128.2299355978657
 31
0.0
  0
LINE
  5
A0D
330
177
100
AcDbEntity
  8
P-0000
  6
Continuous
 62
     3
370
    -2
100
AcDbLine
 10
770.9786623155435
 20
181.9413318001685
 30
0.0
 11
770.9786623155435
 21
128.2299355978657
 31
0.0
  0
LINE
  5
A0E
330
177
100
AcDbEntity
  8
P-0000
  6
Continuous
 62
     3
370
    -2
100
AcDbLine
 10
681.9786623155435
 20
132.2299355978657
 30
0.0
 11
756.9786623155435
 21
132.2299355978657
 31
0.0
  0
MTEXT
  5
A0F
330
177
100
AcDbEntity
  8
P-0000
  6
Continuous
 62
     2
100
AcDbMText
 10
719.4786623155435
 20
149.3545267565993
 30
0.0
 40
20.0
 41
0.0
 71
     5
 72
     1
  1
%%c103{}{\H0.60x;\C3;\S+0.3^ ;}
 73
     1
 44
1.0
1001
ACAD
1000
MTEXTBEGIN
1070
    73
1070
     1
1070
    44
1040
1.0
1070
    74
1070
     0
1000
MTEXTEND
  0
SOLID
  5
A10
330
177
100
AcDbEntity
  8
P-0000
  6
Continuous
 62
     3
100
AcDbTrace
 10
681.9786623155435
 20
134.563268931199
 30
0.0
 11
681.9786623155435
 21
129.8966022645324
 31
0.0
 12
667.9786623155434
 22
132.2299355978657
 32
0.0
 13
667.9786623155434
 23
132.2299355978657
 33
0.0
  0
SOLID
  5
A11
330
177
100
AcDbEntity
  8
P-0000
  6
Continuous
 62
     3
100
AcDbTrace
 10
756.9786623155435
 20
134.563268931199
 30
0.0
 11
756.9786623155435
 21
129.8966022645324
 31
0.0
 12
770.9786623155435
 22
132.2299355978657
 32
0.0
 13
770.9786623155435
 23
132.2299355978657
 33
0.0
  0
POINT
  5
A12
330
177
100
AcDbEntity
  8
Defpoints
  6
Continuous
 62
     0
100
AcDbPoint
 10
667.9786623155434
 20
181.9413318001685
 30
0.0
  0
POINT
  5
A13
330
177
100
AcDbEntity
  8
Defpoints
  6
Continuous
 62
     0
100
AcDbPoint
 10
770.9786623155435
 20
181.9413318001685
 30
0.0
  0
POINT
  5
A14
330
177
100
AcDbEntity
  8
Defpoints
  6
Continuous
 62
     0
100
AcDbPoint
 10
770.9786623155435
 20
132.2299355978657
 30
0.0
  0
ENDBLK
  5
182
330
177
100
AcDbEntity
  8
0
100
AcDbBlockEnd
  0
BLOCK
  5
18D
330
183
100
AcDbEntity
  8
0
100
AcDbBlockBegin
  2
*D21
 70
     1
 10
0.0
 20
0.0
 30
0.0
  3
*D21
  1

  0
LINE
  5
96A
330
183
100
AcDbEntity
  8
P-0000
  6
Continuous
 62
     3
370
    -2
100
AcDbLine
 10
624.9786623155544
 20
181.9413318001685
 30
0.0
 11
547.7242395463844
 21
181.9413318001686
 31
0.0
  0
LINE
  5
96B
330
183
100
AcDbEntity
  8
P-0000
  6
Continuous
 62
     3
370
    -2
100
AcDbLine
 10
629.4786623155435
 20
286.9413318001686
 30
0.0
 11
547.7242395463845
 21
286.9413318001686
 31
0.0
  0
LINE
  5
96C
330
183
100
AcDbEntity
  8
P-0000
  6
Continuous
 62
     3
370
    -2
100
AcDbLine
 10
551.7242395463844
 20
195.9413318001685
 30
0.0
 11
551.7242395463845
 21
272.9413318001686
 31
0.0
  0
MTEXT
  5
96D
330
183
100
AcDbEntity
  8
P-0000
  6
Continuous
 62
     2
100
AcDbMText
 10
535.3243379230153
 20
232.2155910732899
 30
0.0
 40
20.0
 41
0.0
 71
     5
 72
     1
  1
105
 11
0.0000000000000001
 21
1.0
 31
0.0
 73
     1
 44
1.0
1001
ACAD
1000
MTEXTBEGIN
1070
    73
1070
     1
1070
    44
1040
1.0
1070
    74
1070
     0
1000
MTEXTEND
  0
SOLID
  5
96E
330
183
100
AcDbEntity
  8
P-0000
  6
Continuous
 62
     3
100
AcDbTrace
 10
549.390906213051
 20
195.9413318001685
 30
0.0
 11
554.0575728797177
 21
195.9413318001685
 31
0.0
 12
551.7242395463844
 22
181.9413318001686
 32
0.0
 13
551.7242395463844
 23
181.9413318001686
 33
0.0
  0
SOLID
  5
96F
330
183
100
AcDbEntity
  8
P-0000
  6
Continuous
 62
     3
100
AcDbTrace
 10
549.3909062130511
 20
272.9413318001686
 30
0.0
 11
554.0575728797178
 21
272.9413318001686
 31
0.0
 12
551.7242395463845
 22
286.9413318001686
 32
0.0
 13
551.7242395463845
 23
286.9413318001686
 33
0.0
  0
POINT
  5
970
330
183
100
AcDbEntity
  8
Defpoints
  6
Continuous
 62
     0
100
AcDbPoint
 10
624.9786623155544
 20
181.9413318001685
 30
0.0
  0
POINT
  5
971
330
183
100
AcDbEntity
  8
Defpoints
  6
Continuous
 62
     0
100
AcDbPoint
 10
629.4786623155435
 20
286.9413318001686
 30
0.0
  0
POINT
  5
972
330
183
100
AcDbEntity
  8
Defpoints
  6
Continuous
 62
     0
100
AcDbPoint
 10
551.7242395463845
 20
286.9413318001686
 30
0.0
  0
ENDBLK
  5
18E
330
183
100
AcDbEntity
  8
0
100
AcDbBlockEnd
  0
BLOCK
  5
199
330
18F
100
AcDbEntity
  8
0
100
AcDbBlockBegin
  2
*D22
 70
     1
 10
0.0
 20
0.0
 30
0.0
  3
*D22
  1

  0
LINE
  5
97D
330
18F
100
AcDbEntity
  8
P-0000
  6
Continuous
 62
     3
370
    -2
100
AcDbLine
 10
616.9786623155544
 20
271.9413318001686
 30
0.0
 11
590.7739829062863
 21
271.9413318001686
 31
0.0
  0
LINE
  5
97E
330
18F
100
AcDbEntity
  8
P-0000
  6
Continuous
 62
     3
370
    -2
100
AcDbLine
 10
616.9786623155544
 20
181.9413318001685
 30
0.0
 11
590.7739829062861
 21
181.9413318001685
 31
0.0
  0
LINE
  5
97F
330
18F
100
AcDbEntity
  8
P-0000
  6
Continuous
 62
     3
370
    -2
100
AcDbLine
 10
594.7739829062863
 20
257.9413318001686
 30
0.0
 11
594.7739829062861
 21
195.9413318001685
 31
0.0
  0
MTEXT
  5
980
330
18F
100
AcDbEntity
  8
P-0000
  6
Continuous
 62
     2
100
AcDbMText
 10
580.424067387281
 20
230.1664243868322
 30
0.0
 40
20.0
 41
0.0
 71
     5
 72
     1
  1
90
 11
0.0000000000000001
 21
1.0
 31
0.0
 73
     1
 44
1.0
1001
ACAD
1000
MTEXTBEGIN
1070
    73
1070
     1
1070
    44
1040
1.0
1070
    74
1070
     0
1000
MTEXTEND
  0
SOLID
  5
981
330
18F
100
AcDbEntity
  8
P-0000
  6
Continuous
 62
     3
100
AcDbTrace
 10
592.4406495729528
 20
257.9413318001686
 30
0.0
 11
597.1073162396196
 21
257.9413318001686
 31
0.0
 12
594.7739829062863
 22
271.9413318001686
 32
0.0
 13
594.7739829062863
 23
271.9413318001686
 33
0.0
  0
SOLID
  5
982
330
18F
100
AcDbEntity
  8
P-0000
  6
Continuous
 62
     3
100
AcDbTrace
 10
592.4406495729527
 20
195.9413318001685
 30
0.0
 11
597.1073162396195
 21
195.9413318001685
 31
0.0
 12
594.7739829062861
 22
181.9413318001685
 32
0.0
 13
594.7739829062861
 23
181.9413318001685
 33
0.0
  0
POINT
  5
983
330
18F
100
AcDbEntity
  8
Defpoints
  6
Continuous
 62
     0
100
AcDbPoint
 10
616.9786623155544
 20
271.9413318001686
 30
0.0
  0
POINT
  5
984
330
18F
100
AcDbEntity
  8
Defpoints
  6
Continuous
 62
     0
100
AcDbPoint
 10
616.9786623155544
 20
181.9413318001685
 30
0.0
  0
POINT
  5
985
330
18F
100
AcDbEntity
  8
Defpoints
  6
Continuous
 62
     0
100
AcDbPoint
 10
594.7739829062861
 20
181.9413318001685
 30
0.0
  0
ENDBLK
  5
19A
330
18F
100
AcDbEntity
  8
0
100
AcDbBlockEnd
  0
BLOCK
  5
1A7
330
19B
100
AcDbEntity
  8
0
100
AcDbBlockBegin
  2
*D23
 70
     1
 10
0.0
 20
0.0
 30
0.0
  3
*D23
  1

  0
LINE
  5
758
330
19B
100
AcDbEntity
  8
P-0000
  6
Continuous
 62
     3
370
    -2
100
AcDbLine
 10
423.3393130926378
 20
-99.19801742273705
 30
0.0
 11
423.3393130926378
 21
-134.1195927890418
 31
0.0
  0
LINE
  5
759
330
19B
100
AcDbEntity
  8
P-0000
  6
Continuous
 62
     3
370
    -2
100
AcDbLine
 10
428.3393130926378
 20
-111.6980174227261
 30
0.0
 11
428.3393130926378
 21
-134.1195927890418
 31
0.0
  0
LINE
  5
75A
330
19B
100
AcDbEntity
  8
P-0000
  6
Continuous
 62
     3
370
    -2
100
AcDbLine
 10
417.0393130926377
 20
-130.1195927890418
 30
0.0
 11
410.7393130926378
 21
-130.1195927890418
 31
0.0
  0
LINE
  5
75B
330
19B
100
AcDbEntity
  8
P-0000
  6
Continuous
 62
     3
370
    -2
100
AcDbLine
 10
434.6393130926379
 20
-130.1195927890418
 30
0.0
 11
440.9393130926378
 21
-130.1195927890418
 31
0.0
  0
MTEXT
  5
75C
330
19B
100
AcDbEntity
  8
P-0000
  6
Continuous
 62
     2
100
AcDbMText
 10
415.55473145836
 20
-122.6195927890418
 30
0.0
 40
7.0
 41
0.0
 71
     5
 72
     1
  1
5
 73
     1
 44
1.0
1001
ACAD
1000
MTEXTBEGIN
1070
    73
1070
     1
1070
    44
1040
1.0
1070
    74
1070
     0
1000
MTEXTEND
  0
LINE
  5
75D
330
19B
100
AcDbEntity
  8
P-0000
  6
Continuous
 62
     3
370
    -2
100
AcDbLine
 10
423.3393130926378
 20
-130.1195927890418
 30
0.0
 11
428.3393130926378
 21
-130.1195927890418
 31
0.0
  0
SOLID
  5
75E
330
19B
100
AcDbEntity
  8
P-0000
  6
Continuous
 62
     3
100
AcDbTrace
 10
417.0393130926377
 20
-129.0695927890418
 30
0.0
 11
417.0393130926377
 21
-131.1695927890419
 31
0.0
 12
423.3393130926378
 22
-130.1195927890418
 32
0.0
 13
423.3393130926378
 23
-130.1195927890418
 33
0.0
  0
SOLID
  5
75F
330
19B
100
AcDbEntity
  8
P-0000
  6
Continuous
 62
     3
100
AcDbTrace
 10
434.6393130926379
 20
-129.0695927890418
 30
0.0
 11
434.6393130926379
 21
-131.1695927890419
 31
0.0
 12
428.3393130926378
 22
-130.1195927890418
 32
0.0
 13
428.3393130926378
 23
-130.1195927890418
 33
0.0
  0
POINT
  5
760
330
19B
100
AcDbEntity
  8
Defpoints
  6
Continuous
 62
     0
100
AcDbPoint
 10
423.3393130926378
 20
-99.19801742273705
 30
0.0
  0
POINT
  5
761
330
19B
100
AcDbEntity
  8
Defpoints
  6
Continuous
 62
     0
100
AcDbPoint
 10
428.3393130926378
 20
-111.6980174227261
 30
0.0
  0
POINT
  5
762
330
19B
100
AcDbEntity
  8
Defpoints
  6
Continuous
 62
     0
100
AcDbPoint
 10
428.3393130926378
 20
-130.1195927890418
 30
0.0
  0
ENDBLK
  5
1A8
330
19B
100
AcDbEntity
  8
0
100
AcDbBlockEnd
  0
BLOCK
  5
1B5
330
1A9
100
AcDbEntity
  8
0
100
AcDbBlockBegin
  2
*D24
 70
     1
 10
0.0
 20
0.0
 30
0.0
  3
*D24
  1

  0
LINE
  5
763
330
1A9
100
AcDbEntity
  8
P-0000
  6
Continuous
 62
     3
370
    -2
100
AcDbLine
 10
669.4786623155435
 20
-111.6980174227243
 30
0.0
 11
585.0778252153304
 21
-111.6980174227243
 31
0.0
  0
LINE
  5
764
330
1A9
100
AcDbEntity
  8
P-0000
  6
Continuous
 62
     3
370
    -2
100
AcDbLine
 10
669.4786623155435
 20
-103.6980174227243
 30
0.0
 11
585.0778252153304
 21
-103.6980174227243
 31
0.0
  0
LINE
  5
765
330
1A9
100
AcDbEntity
  8
P-0000
  6
Continuous
 62
     3
370
    -2
100
AcDbLine
 10
589.0778252153304
 20
-117.9980174227243
 30
0.0
 11
589.0778252153304
 21
-124.2980174227243
 31
0.0
  0
LINE
  5
766
330
1A9
100
AcDbEntity
  8
P-0000
  6
Continuous
 62
     3
370
    -2
100
AcDbLine
 10
589.0778252153304
 20
-97.39801742272433
 30
0.0
 11
589.0778252153304
 21
-91.09801742272434
 31
0.0
  0
MTEXT
  5
767
330
1A9
100
AcDbEntity
  8
P-0000
  6
Continuous
 62
     2
100
AcDbMText
 10
581.5778252153304
 20
-99.00221933258004
 30
0.0
 40
7.0
 41
0.0
 71
     5
 72
     1
  1
7
 11
0.0000000000000001
 21
1.0
 31
0.0
 73
     1
 44
1.0
1001
ACAD
1000
MTEXTBEGIN
1070
    73
1070
     1
1070
    44
1040
1.0
1070
    74
1070
     0
1000
MTEXTEND
  0
LINE
  5
768
330
1A9
100
AcDbEntity
  8
P-0000
  6
Continuous
 62
     3
370
    -2
100
AcDbLine
 10
589.0778252153304
 20
-111.6980174227243
 30
0.0
 11
589.0778252153304
 21
-103.6980174227243
 31
0.0
  0
SOLID
  5
769
330
1A9
100
AcDbEntity
  8
P-0000
  6
Continuous
 62
     3
100
AcDbTrace
 10
588.0278252153305
 20
-117.9980174227243
 30
0.0
 11
590.1278252153304
 21
-117.9980174227243
 31
0.0
 12
589.0778252153304
 22
-111.6980174227243
 32
0.0
 13
589.0778252153304
 23
-111.6980174227243
 33
0.0
  0
SOLID
  5
76A
330
1A9
100
AcDbEntity
  8
P-0000
  6
Continuous
 62
     3
100
AcDbTrace
 10
588.0278252153305
 20
-97.39801742272433
 30
0.0
 11
590.1278252153304
 21
-97.39801742272433
 31
0.0
 12
589.0778252153304
 22
-103.6980174227243
 32
0.0
 13
589.0778252153304
 23
-103.6980174227243
 33
0.0
  0
POINT
  5
76B
330
1A9
100
AcDbEntity
  8
Defpoints
  6
Continuous
 62
     0
100
AcDbPoint
 10
669.4786623155435
 20
-111.6980174227243
 30
0.0
  0
POINT
  5
76C
330
1A9
100
AcDbEntity
  8
Defpoints
  6
Continuous
 62
     0
100
AcDbPoint
 10
669.4786623155435
 20
-103.6980174227243
 30
0.0
  0
POINT
  5
76D
330
1A9
100
AcDbEntity
  8
Defpoints
  6
Continuous
 62
     0
100
AcDbPoint
 10
589.0778252153304
 20
-103.6980174227243
 30
0.0
  0
ENDBLK
  5
1B6
330
1A9
100
AcDbEntity
  8
0
100
AcDbBlockEnd
  0
BLOCK
  5
1C1
330
1B7
100
AcDbEntity
  8
0
100
AcDbBlockBegin
  2
*D25
 70
     1
 10
0.0
 20
0.0
 30
0.0
  3
*D25
  1

  0
LINE
  5
9F1
330
1B7
100
AcDbEntity
  8
P-0000
  6
Continuous
 62
     3
370
    -2
100
AcDbLine
 10
616.9786623155561
 20
-111.6980174227243
 30
0.0
 11
616.9786623155561
 21
-205.7842086245105
 31
0.0
  0
LINE
  5
9F2
330
1B7
100
AcDbEntity
  8
P-0000
  6
Continuous
 62
     3
370
    -2
100
AcDbLine
 10
821.9786623155307
 20
-111.6980174227243
 30
0.0
 11
821.9786623155307
 21
-205.7842086245105
 31
0.0
  0
LINE
  5
9F3
330
1B7
100
AcDbEntity
  8
P-0000
  6
Continuous
 62
     3
370
    -2
100
AcDbLine
 10
630.978662315556
 20
-201.7842086245105
 30
0.0
 11
807.9786623155307
 21
-201.7842086245105
 31
0.0
  0
MTEXT
  5
9F4
330
1B7
100
AcDbEntity
  8
P-0000
  6
Continuous
 62
     2
100
AcDbMText
 10
710.570937612947
 20
-181.9755994612724
 30
0.0
 40
20.0
 41
0.0
 71
     5
 72
     1
  1
205
 73
     1
 44
1.0
1001
ACAD
1000
MTEXTBEGIN
1070
    73
1070
     1
1070
    44
1040
1.0
1070
    74
1070
     0
1000
MTEXTEND
  0
SOLID
  5
9F5
330
1B7
100
AcDbEntity
  8
P-0000
  6
Continuous
 62
     3
100
AcDbTrace
 10
630.978662315556
 20
-199.4508752911771
 30
0.0
 11
630.978662315556
 21
-204.1175419578438
 31
0.0
 12
616.9786623155561
 22
-201.7842086245105
 32
0.0
 13
616.9786623155561
 23
-201.7842086245105
 33
0.0
  0
SOLID
  5
9F6
330
1B7
100
AcDbEntity
  8
P-0000
  6
Continuous
 62
     3
100
AcDbTrace
 10
807.9786623155307
 20
-199.4508752911771
 30
0.0
 11
807.9786623155307
 21
-204.1175419578438
 31
0.0
 12
821.9786623155307
 22
-201.7842086245105
 32
0.0
 13
821.9786623155307
 23
-201.7842086245105
 33
0.0
  0
POINT
  5
9F7
330
1B7
100
AcDbEntity
  8
Defpoints
  6
Continuous
 62
     0
100
AcDbPoint
 10
616.9786623155561
 20
-111.6980174227243
 30
0.0
  0
POINT
  5
9F8
330
1B7
100
AcDbEntity
  8
Defpoints
  6
Continuous
 62
     0
100
AcDbPoint
 10
821.9786623155307
 20
-111.6980174227243
 30
0.0
  0
POINT
  5
9F9
330
1B7
100
AcDbEntity
  8
Defpoints
  6
Continuous
 62
     0
100
AcDbPoint
 10
821.9786623155307
 20
-201.7842086245105
 30
0.0
  0
ENDBLK
  5
1C2
330
1B7
100
AcDbEntity
  8
0
100
AcDbBlockEnd
  0
BLOCK
  5
1CD
330
1C3
100
AcDbEntity
  8
0
100
AcDbBlockBegin
  2
*D26
 70
     1
 10
0.0
 20
0.0
 30
0.0
  3
*D26
  1

  0
LINE
  5
A03
330
1C3
100
AcDbEntity
  8
P-0000
  6
Continuous
 62
     3
370
    -2
100
AcDbLine
 10
629.4786623155435
 20
-99.19801742273705
 30
0.0
 11
629.4786623155435
 21
-164.8008770345409
 31
0.0
  0
LINE
  5
A04
330
1C3
100
AcDbEntity
  8
P-0000
  6
Continuous
 62
     3
370
    -2
100
AcDbLine
 10
809.4786623155435
 20
-99.19801742273705
 30
0.0
 11
809.4786623155435
 21
-164.8008770345409
 31
0.0
  0
LINE
  5
A05
330
1C3
100
AcDbEntity
  8
P-0000
  6
Continuous
 62
     3
370
    -2
100
AcDbLine
 10
643.4786623155434
 20
-160.8008770345409
 30
0.0
 11
795.4786623155435
 21
-160.8008770345409
 31
0.0
  0
MTEXT
  5
A06
330
1C3
100
AcDbEntity
  8
P-0000
  6
Continuous
 62
     2
100
AcDbMText
 10
716.0375704216989
 20
-144.407545682066
 30
0.0
 40
20.0
 41
0.0
 71
     5
 72
     1
  1
180{}{\H0.60x;\C3;\S^ -0.5;}
 73
     1
 44
1.0
1001
ACAD
1000
MTEXTBEGIN
1070
    73
1070
     1
1070
    44
1040
1.0
1070
    74
1070
     0
1000
MTEXTEND
  0
SOLID
  5
A07
330
1C3
100
AcDbEntity
  8
P-0000
  6
Continuous
 62
     3
100
AcDbTrace
 10
643.4786623155434
 20
-158.4675437012075
 30
0.0
 11
643.4786623155434
 21
-163.1342103678742
 31
0.0
 12
629.4786623155435
 22
-160.8008770345409
 32
0.0
 13
629.4786623155435
 23
-160.8008770345409
 33
0.0
  0
SOLID
  5
A08
330
1C3
100
AcDbEntity
  8
P-0000
  6
Continuous
 62
     3
100
AcDbTrace
 10
795.4786623155435
 20
-158.4675437012075
 30
0.0
 11
795.4786623155435
 21
-163.1342103678742
 31
0.0
 12
809.4786623155435
 22
-160.8008770345409
 32
0.0
 13
809.4786623155435
 23
-160.8008770345409
 33
0.0
  0
POINT
  5
A09
330
1C3
100
AcDbEntity
  8
Defpoints
  6
Continuous
 62
     0
100
AcDbPoint
 10
629.4786623155435
 20
-99.19801742273705
 30
0.0
  0
POINT
  5
A0A
330
1C3
100
AcDbEntity
  8
Defpoints
  6
Continuous
 62
     0
100
AcDbPoint
 10
809.4786623155435
 20
-99.19801742273705
 30
0.0
  0
POINT
  5
A0B
330
1C3
100
AcDbEntity
  8
Defpoints
  6
Continuous
 62
     0
100
AcDbPoint
 10
809.4786623155435
 20
-160.8008770345409
 30
0.0
  0
ENDBLK
  5
1CE
330
1C3
100
AcDbEntity
  8
0
100
AcDbBlockEnd
  0
BLOCK
  5
1D9
330
1CF
100
AcDbEntity
  8
0
100
AcDbBlockBegin
  2
*D27
 70
     1
 10
0.0
 20
0.0
 30
0.0
  3
*D27
  1

  0
LINE
  5
9DF
330
1CF
100
AcDbEntity
  8
P-0000
  6
Continuous
 62
     3
370
    -2
100
AcDbLine
 10
629.4786623155435
 20
80.80198257726317
 30
0.0
 11
560.6503702118555
 21
80.80198257726319
 31
0.0
  0
LINE
  5
9E0
330
1CF
100
AcDbEntity
  8
P-0000
  6
Continuous
 62
     3
370
    -2
100
AcDbLine
 10
629.4786623155435
 20
-99.19801742273705
 30
0.0
 11
560.6503702118555
 21
-99.19801742273705
 31
0.0
  0
LINE
  5
9E1
330
1CF
100
AcDbEntity
  8
P-0000
  6
Continuous
 62
     3
370
    -2
100
AcDbLine
 10
564.6503702118555
 20
66.80198257726319
 30
0.0
 11
564.6503702118555
 21
-85.19801742273704
 31
0.0
  0
MTEXT
  5
9E2
330
1CF
100
AcDbEntity
  8
P-0000
  6
Continuous
 62
     2
100
AcDbMText
 10
545.8885862835704
 20
-7.113388385329014
 30
0.0
 40
20.0
 41
0.0
 71
     5
 72
     1
  1
180{}{\H0.60x;\C3;\S^ -0.5;}
 11
0.0000000000000001
 21
1.0
 31
0.0
 73
     1
 44
1.0
1001
ACAD
1000
MTEXTBEGIN
1070
    73
1070
     1
1070
    44
1040
1.0
1070
    74
1070
     0
1000
MTEXTEND
  0
SOLID
  5
9E3
330
1CF
100
AcDbEntity
  8
P-0000
  6
Continuous
 62
     3
100
AcDbTrace
 10
562.3170368785221
 20
66.80198257726319
 30
0.0
 11
566.9837035451888
 21
66.80198257726319
 31
0.0
 12
564.6503702118555
 22
80.80198257726319
 32
0.0
 13
564.6503702118555
 23
80.80198257726319
 33
0.0
  0
SOLID
  5
9E4
330
1CF
100
AcDbEntity
  8
P-0000
  6
Continuous
 62
     3
100
AcDbTrace
 10
562.3170368785221
 20
-85.19801742273704
 30
0.0
 11
566.9837035451888
 21
-85.19801742273704
 31
0.0
 12
564.6503702118555
 22
-99.19801742273705
 32
0.0
 13
564.6503702118555
 23
-99.19801742273705
 33
0.0
  0
POINT
  5
9E5
330
1CF
100
AcDbEntity
  8
Defpoints
  6
Continuous
 62
     0
100
AcDbPoint
 10
629.4786623155435
 20
80.80198257726317
 30
0.0
  0
POINT
  5
9E6
330
1CF
100
AcDbEntity
  8
Defpoints
  6
Continuous
 62
     0
100
AcDbPoint
 10
629.4786623155435
 20
-99.19801742273705
 30
0.0
  0
POINT
  5
9E7
330
1CF
100
AcDbEntity
  8
Defpoints
  6
Continuous
 62
     0
100
AcDbPoint
 10
564.6503702118555
 20
-99.19801742273705
 30
0.0
  0
ENDBLK
  5
1DA
330
1CF
100
AcDbEntity
  8
0
100
AcDbBlockEnd
  0
BLOCK
  5
1E5
330
1DB
100
AcDbEntity
  8
0
100
AcDbBlockBegin
  2
*D28
 70
     1
 10
0.0
 20
0.0
 30
0.0
  3
*D28
  1

  0
LINE
  5
9A5
330
1DB
100
AcDbEntity
  8
P-0000
  6
Continuous
 62
     3
370
    -2
100
AcDbLine
 10
616.9786623155562
 20
40.80198257726294
 30
0.0
 11
585.8901960297446
 21
40.80198257726295
 31
0.0
  0
LINE
  5
9A6
330
1DB
100
AcDbEntity
  8
P-0000
  6
Continuous
 62
     3
370
    -2
100
AcDbLine
 10
624.9786623155562
 20
-59.19801742273705
 30
0.0
 11
585.8901960297446
 21
-59.19801742273704
 31
0.0
  0
LINE
  5
9A7
330
1DB
100
AcDbEntity
  8
P-0000
  6
Continuous
 62
     3
370
    -2
100
AcDbLine
 10
589.8901960297446
 20
26.80198257726295
 30
0.0
 11
589.8901960297446
 21
10.80985659301088
 31
0.0
  0
LINE
  5
9A8
330
1DB
100
AcDbEntity
  8
P-0000
  6
Continuous
 62
     3
370
    -2
100
AcDbLine
 10
589.8901960297446
 20
-45.19801742273704
 30
0.0
 11
589.8901960297446
 21
-29.20589143848518
 31
0.0
  0
MTEXT
  5
9A9
330
1DB
100
AcDbEntity
  8
P-0000
  6
Continuous
 62
     2
100
AcDbMText
 10
597.3901960297446
 20
-9.198017422737052
 30
0.0
 40
20.0
 41
0.0
 71
     5
 72
     1
  1
100
 11
0.0000000000000001
 21
1.0
 31
0.0
 73
     1
 44
1.0
1001
ACAD
1000
MTEXTBEGIN
1070
    73
1070
     1
1070
    44
1040
1.0
1070
    74
1070
     0
1000
MTEXTEND
  0
SOLID
  5
9AA
330
1DB
100
AcDbEntity
  8
P-0000
  6
Continuous
 62
     3
100
AcDbTrace
 10
587.5568626964112
 20
26.80198257726295
 30
0.0
 11
592.2235293630779
 21
26.80198257726295
 31
0.0
 12
589.8901960297446
 22
40.80198257726295
 32
0.0
 13
589.8901960297446
 23
40.80198257726295
 33
0.0
  0
SOLID
  5
9AB
330
1DB
100
AcDbEntity
  8
P-0000
  6
Continuous
 62
     3
100
AcDbTrace
 10
587.5568626964112
 20
-45.19801742273704
 30
0.0
 11
592.2235293630779
 21
-45.19801742273704
 31
0.0
 12
589.8901960297446
 22
-59.19801742273704
 32
0.0
 13
589.8901960297446
 23
-59.19801742273704
 33
0.0
  0
POINT
  5
9AC
330
1DB
100
AcDbEntity
  8
Defpoints
  6
Continuous
 62
     0
100
AcDbPoint
 10
616.9786623155562
 20
40.80198257726294
 30
0.0
  0
POINT
  5
9AD
330
1DB
100
AcDbEntity
  8
Defpoints
  6
Continuous
 62
     0
100
AcDbPoint
 10
624.9786623155562
 20
-59.19801742273705
 30
0.0
  0
POINT
  5
9AE
330
1DB
100
AcDbEntity
  8
Defpoints
  6
Continuous
 62
     0
100
AcDbPoint
 10
589.8901960297446
 20
-59.19801742273704
 30
0.0
  0
ENDBLK
  5
1E6
330
1DB
100
AcDbEntity
  8
0
100
AcDbBlockEnd
  0
BLOCK
  5
1F1
330
1E7
100
AcDbEntity
  8
0
100
AcDbBlockBegin
  2
*D29
 70
     1
 10
0.0
 20
0.0
 30
0.0
  3
*D29
  1

  0
LINE
  5
9D6
330
1E7
100
AcDbEntity
  8
P-0000
  6
Continuous
 62
     3
370
    -2
100
AcDbLine
 10
616.9786623155561
 20
-111.6980174227243
 30
0.0
 11
517.2887338485166
 21
-111.6980174227243
 31
0.0
  0
LINE
  5
9D7
330
1E7
100
AcDbEntity
  8
P-0000
  6
Continuous
 62
     3
370
    -2
100
AcDbLine
 10
616.9786623155562
 20
93.30198257725033
 30
0.0
 11
517.2887338485166
 21
93.30198257725035
 31
0.0
  0
LINE
  5
9D8
330
1E7
100
AcDbEntity
  8
P-0000
  6
Continuous
 62
     3
370
    -2
100
AcDbLine
 10
521.2887338485166
 20
-97.69801742272429
 30
0.0
 11
521.2887338485166
 21
79.30198257725035
 31
0.0
  0
MTEXT
  5
9D9
330
1E7
100
AcDbEntity
  8
P-0000
  6
Continuous
 62
     2
100
AcDbMText
 10
504.8888322251468
 20
-5.747277261024005
 30
0.0
 40
20.0
 41
0.0
 71
     5
 72
     1
  1
205
 11
0.0000000000000001
 21
1.0
 31
0.0
 73
     1
 44
1.0
1001
ACAD
1000
MTEXTBEGIN
1070
    73
1070
     1
1070
    44
1040
1.0
1070
    74
1070
     0
1000
MTEXTEND
  0
SOLID
  5
9DA
330
1E7
100
AcDbEntity
  8
P-0000
  6
Continuous
 62
     3
100
AcDbTrace
 10
518.9554005151832
 20
-97.69801742272429
 30
0.0
 11
523.6220671818499
 21
-97.69801742272429
 31
0.0
 12
521.2887338485166
 22
-111.6980174227243
 32
0.0
 13
521.2887338485166
 23
-111.6980174227243
 33
0.0
  0
SOLID
  5
9DB
330
1E7
100
AcDbEntity
  8
P-0000
  6
Continuous
 62
     3
100
AcDbTrace
 10
518.9554005151832
 20
79.30198257725035
 30
0.0
 11
523.6220671818499
 21
79.30198257725035
 31
0.0
 12
521.2887338485166
 22
93.30198257725035
 32
0.0
 13
521.2887338485166
 23
93.30198257725035
 33
0.0
  0
POINT
  5
9DC
330
1E7
100
AcDbEntity
  8
Defpoints
  6
Continuous
 62
     0
100
AcDbPoint
 10
616.9786623155561
 20
-111.6980174227243
 30
0.0
  0
POINT
  5
9DD
330
1E7
100
AcDbEntity
  8
Defpoints
  6
Continuous
 62
     0
100
AcDbPoint
 10
616.9786623155562
 20
93.30198257725033
 30
0.0
  0
POINT
  5
9DE
330
1E7
100
AcDbEntity
  8
Defpoints
  6
Continuous
 62
     0
100
AcDbPoint
 10
521.2887338485166
 20
93.30198257725035
 30
0.0
  0
ENDBLK
  5
1F2
330
1E7
100
AcDbEntity
  8
0
100
AcDbBlockEnd
  0
BLOCK
  5
1FB
330
1F3
100
AcDbEntity
  8
0
100
AcDbBlockBegin
  2
*D30
 70
     1
 10
0.0
 20
0.0
 30
0.0
  3
*D30
  1

  0
LINE
  5
8D9
330
1F3
100
AcDbEntity
  8
P-0000
  6
Continuous
 62
     3
370
    -2
100
AcDbLine
 10
162.6599235662938
 20
32.50758104860997
 30
0.0
 11
169.6620446463504
 21
24.90520230004921
 31
0.0
  0
LINE
  5
8DA
330
1F3
100
AcDbEntity
  8
P-0000
  6
Continuous
 62
     3
370
    -2
100
AcDbLine
 10
239.4852593910527
 20
-50.90361589408465
 30
0.0
 11
187.172831310403
 21
5.893301351272683
 31
0.0
  0
MTEXT
  5
8DB
330
1F3
100
AcDbEntity
  8
P-0000
  6
Continuous
 62
     2
100
AcDbMText
 10
181.3596318740626
 20
18.1091402145413
 30
0.0
 40
7.0
 41
0.0
 71
     5
 72
     1
  1
\U+2205126
 11
0.6774720972200968
 21
-0.7355484739214703
 31
0.0
 73
     1
 44
1.0
1001
ACAD
1000
MTEXTBEGIN
1070
    73
1070
     1
1070
    44
1040
1.0
1070
    74
1070
     0
1000
MTEXTEND
  0
SOLID
  5
8DC
330
1F3
100
AcDbEntity
  8
P-0000
  6
Continuous
 62
     3
100
AcDbTrace
 10
163.4322494639114
 20
33.21892675069108
 30
0.0
 11
161.8875976686763
 21
31.79623534652887
 31
0.0
 12
158.3918493538072
 22
37.14153643431523
 32
0.0
 13
158.3918493538072
 23
37.14153643431523
 33
0.0
  0
SOLID
  5
8DD
330
1F3
100
AcDbEntity
  8
P-0000
  6
Continuous
 62
     3
100
AcDbTrace
 10
240.2575852886703
 20
-50.19227019200356
 30
0.0
 11
238.7129334934352
 21
-51.61496159616579
 31
0.0
 12
243.7533336035393
 22
-55.53757127978993
 32
0.0
 13
243.7533336035393
 23
-55.53757127978993
 33
0.0
  0
POINT
  5
8DE
330
1F3
100
AcDbEntity
  8
Defpoints
  6
Continuous
 62
     0
100
AcDbPoint
 10
243.7533336035393
 20
-55.53757127978993
 30
0.0
  0
POINT
  5
8DF
330
1F3
100
AcDbEntity
  8
Defpoints
  6
Continuous
 62
     0
100
AcDbPoint
 10
158.3918493538072
 20
37.14153643431523
 30
0.0
  0
ENDBLK
  5
1FC
330
1F3
100
AcDbEntity
  8
0
100
AcDbBlockEnd
  0
BLOCK
  5
205
330
1FD
100
AcDbEntity
  8
0
100
AcDbBlockBegin
  2
*D31
 70
     1
 10
0.0
 20
0.0
 30
0.0
  3
*D31
  1

  0
LINE
  5
A1D
330
1FD
100
AcDbEntity
  8
P-0000
  6
Continuous
 62
     3
370
    -2
100
AcDbLine
 10
655.4963601511596
 20
-52.03801053368073
 30
0.0
 11
643.8632143030901
 21
-59.82710019021578
 31
0.0
  0
LINE
  5
A1E
330
1FD
100
AcDbEntity
  8
P-0000
  6
Continuous
 62
     3
370
    -2
100
AcDbLine
 10
783.4609644799273
 20
33.641975688206
 30
0.0
 11
795.0941103279968
 21
41.43106534474106
 31
0.0
  0
MTEXT
  5
A1F
330
1FD
100
AcDbEntity
  8
P-0000
  6
Continuous
 62
     2
100
AcDbMText
 10
735.854118749456
 20
1.766333922655121
 30
0.0
 40
20.0
 41
0.0
 71
     5
 72
     1
  1
\U+2205126
 11
0.830938989147828
 21
0.5563635468953601
 31
0.0
 73
     1
 44
1.0
1001
ACAD
1000
MTEXTBEGIN
1070
    73
1070
     1
1070
    44
1040
1.0
1070
    74
1070
     0
1000
MTEXTEND
  0
LINE
  5
A20
330
1FD
100
AcDbEntity
  8
P-0000
  6
Continuous
 62
     3
370
    -2
100
AcDbLine
 10
667.1295059992293
 20
-44.24892087714574
 30
0.0
 11
771.8278186318577
 21
25.85288603167095
 31
0.0
  0
SOLID
  5
A21
330
1FD
100
AcDbEntity
  8
P-0000
  6
Continuous
 62
     3
100
AcDbTrace
 10
654.1981785417371
 20
-50.09915289233584
 30
0.0
 11
656.7945417605821
 21
-53.97686817502568
 31
0.0
 12
667.1295059992293
 22
-44.24892087714574
 32
0.0
 13
667.1295059992293
 23
-44.24892087714574
 33
0.0
  0
SOLID
  5
A22
330
1FD
100
AcDbEntity
  8
P-0000
  6
Continuous
 62
     3
100
AcDbTrace
 10
782.1627828705048
 20
35.58083332955084
 30
0.0
 11
784.7591460893498
 21
31.70311804686105
 31
0.0
 12
771.8278186318577
 22
25.85288603167095
 32
0.0
 13
771.8278186318577
 23
25.85288603167095
 33
0.0
  0
POINT
  5
A23
330
1FD
100
AcDbEntity
  8
Defpoints
  6
Continuous
 62
     0
100
AcDbPoint
 10
771.8278186318577
 20
25.85288603167095
 30
0.0
  0
POINT
  5
A24
330
1FD
100
AcDbEntity
  8
Defpoints
  6
Continuous
 62
     0
100
AcDbPoint
 10
667.1295059992293
 20
-44.24892087714574
 30
0.0
  0
ENDBLK
  5
206
330
1FD
100
AcDbEntity
  8
0
100
AcDbBlockEnd
  0
BLOCK
  5
213
330
207
100
AcDbEntity
  8
0
100
AcDbBlockBegin
  2
*D32
 70
     1
 10
0.0
 20
0.0
 30
0.0
  3
*D32
  1

  0
LINE
  5
7AB
330
207
100
AcDbEntity
  8
P-0000
  6
Continuous
 62
     3
370
    -2
100
AcDbLine
 10
254.6866877961083
 20
24.07026591236708
 30
0.0
 11
285.8603484800234
 21
45.89829811683536
 31
0.0
  0
LINE
  5
7AC
330
207
100
AcDbEntity
  8
P-0000
  6
Continuous
 62
     3
370
    -2
100
AcDbLine
 10
250.671652741651
 20
29.80433022239004
 30
0.0
 11
281.8453134255662
 21
51.63236242685838
 31
0.0
  0
LINE
  5
7AD
330
207
100
AcDbEntity
  8
P-0000
  6
Continuous
 62
     3
370
    -2
100
AcDbLine
 10
286.1972718518789
 20
38.44333449241048
 30
0.0
 11
289.8108034008905
 21
33.2826766133898
 31
0.0
  0
LINE
  5
7AE
330
207
100
AcDbEntity
  8
P-0000
  6
Continuous
 62
     3
370
    -2
100
AcDbLine
 10
274.9551736993987
 20
54.49871456047493
 30
0.0
 11
271.3416421503871
 21
59.65937243949563
 31
0.0
  0
MTEXT
  5
7AF
330
207
100
AcDbEntity
  8
P-0000
  6
Continuous
 62
     2
100
AcDbMText
 10
278.4277318054856
 20
62.61523859012877
 30
0.0
 40
7.0
 41
0.0
 71
     5
 72
     1
  1
%%c7
 11
0.573576436351034
 21
-0.8191520442890002
 31
0.0
 73
     1
 44
1.0
1001
ACAD
1000
MTEXTBEGIN
1070
    73
1070
     1
1070
    44
1040
1.0
1070
    74
1070
     0
1000
MTEXTEND
  0
LINE
  5
7B0
330
207
100
AcDbEntity
  8
P-0000
  6
Continuous
 62
     3
370
    -2
100
AcDbLine
 10
282.5837403028674
 20
43.6039923714312
 30
0.0
 11
278.5687052484101
 21
49.33805668145422
 31
0.0
  0
SOLID
  5
7B1
330
207
100
AcDbEntity
  8
P-0000
  6
Continuous
 62
     3
100
AcDbTrace
 10
287.0573814983824
 20
39.0455897505791
 30
0.0
 11
285.3371622053754
 21
37.84107923424191
 31
0.0
 12
282.5837403028674
 22
43.6039923714312
 32
0.0
 13
282.5837403028674
 23
43.6039923714312
 33
0.0
  0
SOLID
  5
7B2
330
207
100
AcDbEntity
  8
P-0000
  6
Continuous
 62
     3
100
AcDbTrace
 10
275.8152833459021
 20
55.10096981864354
 30
0.0
 11
274.0950640528952
 21
53.89645930230634
 31
0.0
 12
278.5687052484101
 22
49.33805668145422
 32
0.0
 13
278.5687052484101
 23
49.33805668145422
 33
0.0
  0
POINT
  5
7B3
330
207
100
AcDbEntity
  8
Defpoints
  6
Continuous
 62
     0
100
AcDbPoint
 10
254.6866877961083
 20
24.07026591236708
 30
0.0
  0
POINT
  5
7B4
330
207
100
AcDbEntity
  8
Defpoints
  6
Continuous
 62
     0
100
AcDbPoint
 10
250.671652741651
 20
29.80433022239004
 30
0.0
  0
POINT
  5
7B5
330
207
100
AcDbEntity
  8
Defpoints
  6
Continuous
 62
     0
100
AcDbPoint
 10
278.5687052484101
 20
49.33805668145422
 30
0.0
  0
ENDBLK
  5
214
330
207
100
AcDbEntity
  8
0
100
AcDbBlockEnd
  0
BLOCK
  5
221
330
215
100
AcDbEntity
  8
0
100
AcDbBlockBegin
  2
*D33
 70
     1
 10
0.0
 20
0.0
 30
0.0
  3
*D33
  1

  0
LINE
  5
7B6
330
215
100
AcDbEntity
  8
P-0000
  6
Continuous
 62
     3
370
    -2
100
AcDbLine
 10
773.0927586329801
 20
24.07026591236684
 30
0.0
 11
804.2664193168944
 21
45.89829811683455
 31
0.0
  0
LINE
  5
7B7
330
215
100
AcDbEntity
  8
P-0000
  6
Continuous
 62
     3
370
    -2
100
AcDbLine
 10
769.0777235785228
 20
29.80433022238981
 30
0.0
 11
800.251384262437
 21
51.63236242685752
 31
0.0
  0
LINE
  5
7B8
330
215
100
AcDbEntity
  8
P-0000
  6
Continuous
 62
     3
370
    -2
100
AcDbLine
 10
804.60334268875
 20
38.44333449240969
 30
0.0
 11
808.2168742377614
 21
33.28267661338896
 31
0.0
  0
LINE
  5
7B9
330
215
100
AcDbEntity
  8
P-0000
  6
Continuous
 62
     3
370
    -2
100
AcDbLine
 10
793.3612445362697
 20
54.49871456047413
 30
0.0
 11
789.7477129872582
 21
59.6593724394948
 31
0.0
  0
MTEXT
  5
7BA
330
215
100
AcDbEntity
  8
P-0000
  6
Continuous
 62
     2
100
AcDbMText
 10
796.8338026423573
 20
62.61523859012817
 30
0.0
 40
7.0
 41
0.0
 71
     5
 72
     1
  1
%%c7
 11
0.573576436351034
 21
-0.8191520442890002
 31
0.0
 73
     1
 44
1.0
1001
ACAD
1000
MTEXTBEGIN
1070
    73
1070
     1
1070
    44
1040
1.0
1070
    74
1070
     0
1000
MTEXTEND
  0
LINE
  5
7BB
330
215
100
AcDbEntity
  8
P-0000
  6
Continuous
 62
     3
370
    -2
100
AcDbLine
 10
800.9898111397385
 20
43.60399237143042
 30
0.0
 11
796.9747760852812
 21
49.33805668145339
 31
0.0
  0
SOLID
  5
7BC
330
215
100
AcDbEntity
  8
P-0000
  6
Continuous
 62
     3
100
AcDbTrace
 10
805.4634523352532
 20
39.04558975057824
 30
0.0
 11
803.7432330422465
 21
37.84107923424114
 31
0.0
 12
800.9898111397385
 22
43.60399237143042
 32
0.0
 13
800.9898111397385
 23
43.60399237143042
 33
0.0
  0
SOLID
  5
7BD
330
215
100
AcDbEntity
  8
P-0000
  6
Continuous
 62
     3
100
AcDbTrace
 10
794.221354182773
 20
55.10096981864268
 30
0.0
 11
792.5011348897663
 21
53.89645930230557
 31
0.0
 12
796.9747760852812
 22
49.33805668145339
 32
0.0
 13
796.9747760852812
 23
49.33805668145339
 33
0.0
  0
POINT
  5
7BE
330
215
100
AcDbEntity
  8
Defpoints
  6
Continuous
 62
     0
100
AcDbPoint
 10
773.0927586329801
 20
24.07026591236684
 30
0.0
  0
POINT
  5
7BF
330
215
100
AcDbEntity
  8
Defpoints
  6
Continuous
 62
     0
100
AcDbPoint
 10
769.0777235785228
 20
29.80433022238981
 30
0.0
  0
POINT
  5
7C0
330
215
100
AcDbEntity
  8
Defpoints
  6
Continuous
 62
     0
100
AcDbPoint
 10
796.9747760852812
 20
49.33805668145339
 30
0.0
  0
ENDBLK
  5
222
330
215
100
AcDbEntity
  8
0
100
AcDbBlockEnd
  0
BLOCK
  5
22E
330
223
100
AcDbEntity
  8
0
100
AcDbBlockBegin
  2
*D34
 70
     1
 10
0.0
 20
0.0
 30
0.0
  3
*D34
  1

  0
LINE
  5
7C1
330
223
100
AcDbEntity
  8
P-0000
  6
Continuous
 62
     3
370
    -2
100
AcDbLine
 10
265.4367918652172
 20
35.87028087876102
 30
0.0
 11
333.6528818948185
 21
83.63570134468004
 31
0.0
  0
LINE
  5
7C2
330
223
100
AcDbEntity
  8
P-0000
  6
Continuous
 62
     3
370
    -2
100
AcDbLine
 10
201.0725914786732
 20
80.80198257726264
 30
0.0
 11
201.0725914786732
 21
152.6526320879068
 31
0.0
  0
ARC
  5
7C3
330
223
100
AcDbEntity
  8
P-0000
  6
Continuous
 62
     3
370
    -2
100
AcDbCircle
 10
201.0725914786732
 20
-9.198017422737308
 30
0.0
 40
157.8506495106442
100
AcDbArc
 50
37.28689190560384
 51
87.71310809439613
  0
SOLID
  5
7C4
330
223
100
AcDbEntity
  8
P-0000
  6
Continuous
 62
     3
100
AcDbTrace
 10
327.5083978822806
 20
87.04821504559035
 30
0.0
 11
325.8125578367399
 21
85.80961642620625
 31
0.0
 12
330.3762737176624
 22
81.34139559927586
 32
0.0
 13
330.3762737176624
 23
81.34139559927586
 33
0.0
  0
SOLID
  5
7C5
330
223
100
AcDbEntity
  8
P-0000
  6
Continuous
 62
     3
100
AcDbTrace
 10
207.3503835948861
 20
147.4771210732352
 30
0.0
 11
207.3922902960654
 21
149.5767028955027
 31
0.0
 12
201.0725914786732
 22
148.6526320879068
 32
0.0
 13
201.0725914786732
 23
148.6526320879068
 33
0.0
  0
MTEXT
  5
7C6
330
223
100
AcDbEntity
  8
P-0000
  6
Continuous
 62
     2
100
AcDbMText
 10
288.8461263786119
 20
130.9327924113641
 30
0.0
 40
7.0
 41
0.0
 71
     5
 72
     1
  1
55%%d
 11
0.8474769513724764
 21
-0.5308321927807446
 31
0.0
 73
     1
 44
1.0
1001
ACAD
1000
MTEXTBEGIN
1070
    73
1070
     1
1070
    44
1040
1.0
1070
    74
1070
     0
1000
MTEXTEND
  0
POINT
  5
7C7
330
223
100
AcDbEntity
  8
Defpoints
  6
Continuous
 62
     0
100
AcDbPoint
 10
201.0725914786732
 20
-9.198017422737322
 30
0.0
  0
POINT
  5
7C8
330
223
100
AcDbEntity
  8
Defpoints
  6
Continuous
 62
     0
100
AcDbPoint
 10
265.4367918652172
 20
35.87028087876102
 30
0.0
  0
POINT
  5
7C9
330
223
100
AcDbEntity
  8
Defpoints
  6
Continuous
 62
     0
100
AcDbPoint
 10
201.0725914786732
 20
80.80198257726264
 30
0.0
  0
POINT
  5
7CA
330
223
100
AcDbEntity
  8
Defpoints
  6
Continuous
 62
     0
100
AcDbPoint
 10
250.7236855373726
 20
140.640550408467
 30
0.0
  0
ENDBLK
  5
22F
330
223
100
AcDbEntity
  8
0
100
AcDbBlockEnd
  0
BLOCK
  5
23B
330
230
100
AcDbEntity
  8
0
100
AcDbBlockBegin
  2
*D35
 70
     1
 10
0.0
 20
0.0
 30
0.0
  3
*D35
  1

  0
LINE
  5
7CB
330
230
100
AcDbEntity
  8
P-0000
  6
Continuous
 62
     3
370
    -2
100
AcDbLine
 10
250.8690521962773
 20
19.55198257726204
 30
0.0
 11
358.2071147174163
 21
81.52364186813668
 31
0.0
  0
LINE
  5
7CC
330
230
100
AcDbEntity
  8
P-0000
  6
Continuous
 62
     3
370
    -2
100
AcDbLine
 10
201.0725914786732
 20
80.80198257726266
 30
0.0
 11
201.0725914786732
 21
172.2453011590071
 31
0.0
  0
ARC
  5
7CD
330
230
100
AcDbEntity
  8
P-0000
  6
Continuous
 62
     3
370
    -2
100
AcDbCircle
 10
201.0725914786732
 20
-9.198017422738303
 30
0.0
 40
177.4433185817453
100
AcDbArc
 50
32.03435314123489
 51
87.96564685876594
  0
SOLID
  5
7CE
330
230
100
AcDbEntity
  8
P-0000
  6
Continuous
 62
     3
100
AcDbTrace
 10
352.3965179794744
 20
85.46388265775581
 30
0.0
 11
350.596790973263
 21
84.38176311578585
 31
0.0
 12
354.7430131022787
 22
79.52364186813665
 32
0.0
 13
354.7430131022787
 23
79.52364186813665
 33
0.0
  0
SOLID
  5
7CF
330
230
100
AcDbEntity
  8
P-0000
  6
Continuous
 62
     3
100
AcDbTrace
 10
207.3529589583102
 20
167.0836280893709
 30
0.0
 11
207.3902384684821
 21
169.1832971676119
 31
0.0
 12
201.0725914786732
 22
168.245301159007
 32
0.0
 13
201.0725914786732
 23
168.245301159007
 33
0.0
  0
MTEXT
  5
7D0
330
230
100
AcDbEntity
  8
P-0000
  6
Continuous
 62
     2
100
AcDbMText
 10
297.7650256444624
 20
148.4554134410505
 30
0.0
 40
7.0
 41
0.0
 71
     5
 72
     1
  1
60%%d
 11
0.8524422139565986
 21
-0.5228214531412922
 31
0.0
 73
     1
 44
1.0
1001
ACAD
1000
MTEXTBEGIN
1070
    73
1070
     1
1070
    44
1040
1.0
1070
    74
1070
     0
1000
MTEXTEND
  0
POINT
  5
7D1
330
230
100
AcDbEntity
  8
Defpoints
  6
Continuous
 62
     0
100
AcDbPoint
 10
201.0725914786732
 20
-9.198017422738288
 30
0.0
  0
POINT
  5
7D2
330
230
100
AcDbEntity
  8
Defpoints
  6
Continuous
 62
     0
100
AcDbPoint
 10
250.8690521962773
 20
19.55198257726204
 30
0.0
  0
POINT
  5
7D3
330
230
100
AcDbEntity
  8
Defpoints
  6
Continuous
 62
     0
100
AcDbPoint
 10
201.0725914786732
 20
80.80198257726266
 30
0.0
  0
POINT
  5
7D4
330
230
100
AcDbEntity
  8
Defpoints
  6
Continuous
 62
     0
100
AcDbPoint
 10
261.7617807321833
 20
157.5441596562911
 30
0.0
  0
ENDBLK
  5
23C
330
230
100
AcDbEntity
  8
0
100
AcDbBlockEnd
  0
BLOCK
  5
248
330
23D
100
AcDbEntity
  8
0
100
AcDbBlockBegin
  2
*D36
 70
     1
 10
0.0
 20
0.0
 30
0.0
  3
*D36
  1

  0
LINE
  5
7D5
330
23D
100
AcDbEntity
  8
P-0000
  6
Continuous
 62
     3
370
    -2
100
AcDbLine
 10
250.8690521962773
 20
19.55198257726206
 30
0.0
 11
376.8144654986347
 21
92.26660085057934
 31
0.0
  0
LINE
  5
7D6
330
23D
100
AcDbEntity
  8
P-0000
  6
Continuous
 62
     3
370
    -2
100
AcDbLine
 10
151.276130761069
 20
19.55198257726195
 30
0.0
 11
25.33071745871169
 21
92.26660085057602
 31
0.0
  0
ARC
  5
7D7
330
23D
100
AcDbEntity
  8
P-0000
  6
Continuous
 62
     3
370
    -2
100
AcDbCircle
 10
201.0725914786742
 20
-9.198017422737734
 30
0.0
 40
198.9292365466288
100
AcDbArc
 50
31.81460756383116
 51
148.1853924361699
  0
SOLID
  5
7D8
330
23D
100
AcDbEntity
  8
P-0000
  6
Continuous
 62
     3
100
AcDbTrace
 10
371.0152643229124
 20
96.21133045268551
 30
0.0
 11
369.213465509288
 21
95.13266413021993
 31
0.0
 12
373.350363883497
 22
90.2666008505793
 32
0.0
 13
373.350363883497
 23
90.2666008505793
 33
0.0
  0
SOLID
  5
7D9
330
23D
100
AcDbEntity
  8
P-0000
  6
Continuous
 62
     3
100
AcDbTrace
 10
32.93171744805837
 20
95.13266413021677
 30
0.0
 11
31.12991863443387
 21
96.21133045268232
 31
0.0
 12
28.79481907384946
 22
90.26660085057605
 32
0.0
 13
28.79481907384946
 23
90.26660085057605
 33
0.0
  0
MTEXT
  5
7DA
330
23D
100
AcDbEntity
  8
P-0000
  6
Continuous
 62
     2
100
AcDbMText
 10
201.0725914786725
 20
197.231908100269
 30
0.0
 40
7.0
 41
0.0
 71
     5
 72
     1
  1
120%%d
 73
     1
 44
1.0
1001
ACAD
1000
MTEXTBEGIN
1070
    73
1070
     1
1070
    44
1040
1.0
1070
    74
1070
     0
1000
MTEXTEND
  0
POINT
  5
7DB
330
23D
100
AcDbEntity
  8
Defpoints
  6
Continuous
 62
     0
100
AcDbPoint
 10
201.0725914786742
 20
-9.198017422737734
 30
0.0
  0
POINT
  5
7DC
330
23D
100
AcDbEntity
  8
Defpoints
  6
Continuous
 62
     0
100
AcDbPoint
 10
250.8690521962773
 20
19.55198257726206
 30
0.0
  0
POINT
  5
7DD
330
23D
100
AcDbEntity
  8
Defpoints
  6
Continuous
 62
     0
100
AcDbPoint
 10
151.276130761069
 20
19.55198257726195
 30
0.0
  0
POINT
  5
7DE
330
23D
100
AcDbEntity
  8
Defpoints
  6
Continuous
 62
     0
100
AcDbPoint
 10
269.1103974740159
 20
177.7343182187046
 30
0.0
  0
ENDBLK
  5
249
330
23D
100
AcDbEntity
  8
0
100
AcDbBlockEnd
  0
BLOCK
  5
255
330
24A
100
AcDbEntity
  8
0
100
AcDbBlockBegin
  2
*D37
 70
     1
 10
0.0
 20
0.0
 30
0.0
  3
*D37
  1

  0
LINE
  5
7DF
330
24A
100
AcDbEntity
  8
P-0000
  6
Continuous
 62
     3
370
    -2
100
AcDbLine
 10
783.8428627020878
 20
35.87028087876053
 30
0.0
 11
852.0589527316904
 21
83.63570134467932
 31
0.0
  0
LINE
  5
7E0
330
24A
100
AcDbEntity
  8
P-0000
  6
Continuous
 62
     3
370
    -2
100
AcDbLine
 10
719.4786623155435
 20
80.80198257726294
 30
0.0
 11
719.4786623155435
 21
152.6526320879078
 31
0.0
  0
ARC
  5
7E1
330
24A
100
AcDbEntity
  8
P-0000
  6
Continuous
 62
     3
370
    -2
100
AcDbCircle
 10
719.4786623155435
 20
-9.198017422737109
 30
0.0
 40
157.8506495106449
100
AcDbArc
 50
37.28689190560322
 51
87.71310809439613
  0
SOLID
  5
7E2
330
24A
100
AcDbEntity
  8
P-0000
  6
Continuous
 62
     3
100
AcDbTrace
 10
845.9144687191525
 20
87.04821504558976
 30
0.0
 11
844.2186286736117
 21
85.80961642620565
 31
0.0
 12
848.7823445545341
 22
81.34139559927524
 32
0.0
 13
848.7823445545341
 23
81.34139559927524
 33
0.0
  0
SOLID
  5
7E3
330
24A
100
AcDbEntity
  8
P-0000
  6
Continuous
 62
     3
100
AcDbTrace
 10
725.7564544317562
 20
147.4771210732362
 30
0.0
 11
725.7983611329356
 21
149.5767028955038
 31
0.0
 12
719.4786623155432
 22
148.6526320879079
 32
0.0
 13
719.4786623155432
 23
148.6526320879079
 33
0.0
  0
MTEXT
  5
7E4
330
24A
100
AcDbEntity
  8
P-0000
  6
Continuous
 62
     2
100
AcDbMText
 10
807.2521972154831
 20
130.9327924113642
 30
0.0
 40
7.0
 41
0.0
 71
     5
 72
     1
  1
55%%d
 11
0.8474769513724764
 21
-0.5308321927807446
 31
0.0
 73
     1
 44
1.0
1001
ACAD
1000
MTEXTBEGIN
1070
    73
1070
     1
1070
    44
1040
1.0
1070
    74
1070
     0
1000
MTEXTEND
  0
POINT
  5
7E5
330
24A
100
AcDbEntity
  8
Defpoints
  6
Continuous
 62
     0
100
AcDbPoint
 10
719.4786623155435
 20
-9.198017422737052
 30
0.0
  0
POINT
  5
7E6
330
24A
100
AcDbEntity
  8
Defpoints
  6
Continuous
 62
     0
100
AcDbPoint
 10
783.8428627020878
 20
35.87028087876053
 30
0.0
  0
POINT
  5
7E7
330
24A
100
AcDbEntity
  8
Defpoints
  6
Continuous
 62
     0
100
AcDbPoint
 10
719.4786623155435
 20
80.80198257726294
 30
0.0
  0
POINT
  5
7E8
330
24A
100
AcDbEntity
  8
Defpoints
  6
Continuous
 62
     0
100
AcDbPoint
 10
769.1297563742437
 20
140.6405504084678
 30
0.0
  0
ENDBLK
  5
256
330
24A
100
AcDbEntity
  8
0
100
AcDbBlockEnd
  0
ENDSEC
  0
SECTION
  2
ENTITIES
  0
LINE
  5
280
330
1F
100
AcDbEntity
  8
P-7089
  6
STRICHPUNKT
 62
     3
100
AcDbLine
 10
256.5725914786745
 20
-9.198017422737336
 30
0.0
 11
273.5725914786745
 21
-9.198017422737336
 31
0.0
1001
ACME_LAYERS
1000
1
  0
LINE
  5
338
330
1F
100
AcDbEntity
  8
P-0000
  6
Continuous
 62
     7
100
AcDbLine
 10
291.0725914786732
 20
204.7319282367791
 30
0.0
 11
126.0725914786723
 21
204.7319282367791
 31
0.0
1001
ACME_LAYERS
1000
1
  0
LINE
  5
339
330
1F
100
AcDbEntity
  8
P-0000
  6
STRICHPUNKT
 62
     4
100
AcDbLine
 10
201.0725914786743
 20
367.94869097678
 30
0.0
 11
201.0725914786725
 21
184.733299423765
 31
0.0
1001
ACME_LAYERS
1000
1
  0
LINE
  5
33A
330
1F
100
AcDbEntity
  8
P-0000
  6
Continuous
 62
     7
100
AcDbLine
 10
149.5725914786729
 20
209.7319282367791
 30
0.0
 11
252.5725914786745
 21
209.7319282367791
 31
0.0
1001
ACME_LAYERS
1000
1
  0
LINE
  5
33B
330
1F
100
AcDbEntity
  8
P-0000
  6
Continuous
 62
     7
100
AcDbLine
 10
252.5725914786745
 20
216.7319282367784
 30
0.0
 11
149.5725914786745
 21
216.7319282367784
 31
0.0
1001
ACME_LAYERS
1000
1
  0
LINE
  5
33C
330
1F
100
AcDbEntity
  8
P-0000
  6
Continuous
 62
     7
100
AcDbLine
 10
262.0725914786746
 20
354.7319282367754
 30
0.0
 11
140.0725914786741
 21
354.7319282367754
 31
0.0
1001
ACME_LAYERS
1000
1
  0
LINE
  5
33D
330
1F
100
AcDbEntity
  8
P-0000
  6
Continuous
 62
     7
100
AcDbLine
 10
303.5725914786607
 20
93.30198257725031
 30
0.0
 11
303.5725914786606
 21
-9.198017422737365
 31
0.0
1001
ACME_LAYERS
1000
1
  0
LINE
  5
33E
330
1F
100
AcDbEntity
  8
P-0000
  6
STRICHLINIE
 62
     2
100
AcDbLine
 10
260.5725914786727
 20
216.7319282367784
 30
0.0
 11
260.5725914786727
 21
209.7319282367791
 31
0.0
1001
ACME_LAYERS
1000
1
  0
LINE
  5
33F
330
1F
100
AcDbEntity
  8
P-0000
  6
STRICHLINIE
 62
     2
100
AcDbLine
 10
267.5725914786728
 20
216.7319282367784
 30
0.0
 11
267.5725914786726
 21
209.7319282367791
 31
0.0
1001
ACME_LAYERS
1000
1
  0
LINE
  5
340
330
1F
100
AcDbEntity
  8
P-0000
  6
Continuous
 62
     7
100
AcDbLine
 10
143.5725914786745
 20
307.7319282367759
 30
0.0
 11
143.5725914786745
 21
216.7319282367784
 31
0.0
1001
ACME_LAYERS
1000
1
  0
LINE
  5
341
330
1F
100
AcDbEntity
  8
P-0000
  6
Continuous
 62
     7
100
AcDbLine
 10
149.5725914786745
 20
216.7319282367784
 30
0.0
 11
143.5725914786745
 21
216.7319282367784
 31
0.0
1001
ACME_LAYERS
1000
1
  0
LINE
  5
342
330
1F
100
AcDbEntity
  8
P-0000
  6
Continuous
 62
     7
100
AcDbLine
 10
252.5725914786745
 20
216.7319282367784
 30
0.0
 11
260.5725914786727
 21
216.7319282367784
 31
0.0
1001
ACME_LAYERS
1000
1
  0
LINE
  5
343
330
1F
100
AcDbEntity
  8
P-0000
  6
Continuous
 62
     7
100
AcDbLine
 10
117.0725914786727
 20
354.7319282367755
 30
0.0
 11
140.0725914786741
 21
354.7319282367959
 31
0.0
1001
ACME_LAYERS
1000
1
  0
LINE
  5
344
330
1F
100
AcDbEntity
  8
P-0000
  6
Continuous
 62
     7
100
AcDbLine
 10
103.5725914786708
 20
354.7319282367755
 30
0.0
 11
117.0725914786727
 21
354.7319282367755
 31
0.0
1001
ACME_LAYERS
1000
1
  0
LINE
  5
345
330
1F
100
AcDbEntity
  8
P-0000
  6
Continuous
 62
     7
100
AcDbLine
 10
131.0725914786735
 20
332.7319282367791
 30
0.0
 11
131.0725914786754
 21
354.7319282367755
 31
0.0
1001
ACME_LAYERS
1000
1
  0
LINE
  5
346
330
1F
100
AcDbEntity
  8
P-0000
  6
Continuous
 62
     7
100
AcDbLine
 10
98.57259147868575
 20
354.7319282367755
 30
0.0
 11
98.57259147868575
 21
315.7319282367784
 31
0.0
1001
ACME_LAYERS
1000
1
  0
LINE
  5
347
330
1F
100
AcDbEntity
  8
P-0000
  6
Continuous
 62
     7
100
AcDbLine
 10
285.0725914786709
 20
354.7319282367754
 30
0.0
 11
298.5725914786709
 21
354.7319282367791
 31
0.0
1001
ACME_LAYERS
1000
1
  0
LINE
  5
349
330
1F
100
AcDbEntity
  8
P-0000
  6
Continuous
 62
     7
100
AcDbLine
 10
262.0725914786746
 20
354.7319282367754
 30
0.0
 11
283.5103829481561
 21
354.7319282367754
 31
0.0
1001
ACME_LAYERS
1000
1
  0
LINE
  5
34A
330
1F
100
AcDbEntity
  8
P-0000
  6
Continuous
 62
     7
100
AcDbLine
 10
303.5725914786678
 20
354.7319282367791
 30
0.0
 11
303.57259147866
 21
204.7319282367791
 31
0.0
1001
ACME_LAYERS
1000
1
  0
LINE
  5
34B
330
1F
100
AcDbEntity
  8
P-0000
  6
Continuous
 62
     7
100
AcDbLine
 10
293.9302031357769
 20
354.7319282367784
 30
0.0
 11
303.5725914786678
 21
354.7319282367791
 31
0.0
1001
ACME_LAYERS
1000
1
  0
LINE
  5
34C
330
1F
100
AcDbEntity
  8
P-0000
  6
STRICHPUNKT
 62
     3
100
AcDbLine
 10
201.0725914786728
 20
332.8738054678325
 30
0.0
 11
201.0725914786728
 21
332.4179921089989
 31
0.0
1001
ACME_LAYERS
1000
1
  0
LINE
  5
34D
330
1F
100
AcDbEntity
  8
P-0000
  6
STRICHPUNKT
 62
     4
100
AcDbLine
 10
201.0725914786732
 20
-111.6980174227248
 30
0.0
 11
201.0725914786732
 21
-89.19801742273973
 31
0.0
1001
ACME_LAYERS
1000
1
  0
LINE
  5
34E
330
1F
100
AcDbEntity
  8
P-0000
  6
STRICHPUNKT
 62
     3
100
AcDbLine
 10
303.5725914786606
 20
-9.198017422737365
 30
0.0
 11
291.0725914786732
 21
-9.198017422737365
 31
0.0
1001
ACME_LAYERS
1000
1
  0
LINE
  5
34F
330
1F
100
AcDbEntity
  8
P-0000
  6
Continuous
 62
     7
100
AcDbLine
 10
98.57259147868571
 20
93.30198257725035
 30
0.0
 11
201.0725914786732
 21
93.30198257725033
 31
0.0
1001
ACME_LAYERS
1000
1
  0
LINE
  5
350
330
1F
100
AcDbEntity
  8
P-0000
  6
Continuous
 62
     7
100
AcDbLine
 10
98.57259147868559
 20
-111.6980174227248
 30
0.0
 11
98.5725914786856
 21
-59.19801742273731
 31
0.0
1001
ACME_LAYERS
1000
1
  0
LINE
  5
351
330
1F
100
AcDbEntity
  8
P-0000
  6
Continuous
 62
     7
100
AcDbLine
 10
303.5725914786607
 20
-111.6980174227248
 30
0.0
 11
201.0725914786732
 21
-111.6980174227248
 31
0.0
1001
ACME_LAYERS
1000
1
  0
LINE
  5
352
330
1F
100
AcDbEntity
  8
P-0000
  6
Continuous
 62
     7
100
AcDbLine
 10
303.5725914786606
 20
-9.198017422737365
 30
0.0
 11
303.5725914786607
 21
-111.6980174227248
 31
0.0
1001
ACME_LAYERS
1000
1
  0
LINE
  5
353
330
1F
100
AcDbEntity
  8
P-0000
  6
Continuous
 62
     7
100
AcDbLine
 10
201.0725914786732
 20
-111.6980174227248
 30
0.0
 11
98.57259147868559
 21
-111.6980174227248
 31
0.0
1001
ACME_LAYERS
1000
1
  0
LINE
  5
354
330
1F
100
AcDbEntity
  8
P-0000
  6
Continuous
 62
     7
100
AcDbLine
 10
98.5725914786856
 20
-9.198017422737308
 30
0.0
 11
98.5725914786856
 21
40.80198257726268
 31
0.0
1001
ACME_LAYERS
1000
1
  0
LINE
  5
355
330
1F
100
AcDbEntity
  8
P-0000
  6
Continuous
 62
     7
100
AcDbLine
 10
201.0725914786732
 20
93.30198257725033
 30
0.0
 11
303.5725914786607
 21
93.30198257725031
 31
0.0
1001
ACME_LAYERS
1000
1
  0
LINE
  5
356
330
1F
100
AcDbEntity
  8
P-0000
  6
Continuous
 62
     7
100
AcDbLine
 10
267.5725914786728
 20
216.7319282367784
 30
0.0
 11
271.0725914786737
 21
216.7319282367784
 31
0.0
1001
ACME_LAYERS
1000
1
  0
LINE
  5
357
330
1F
100
AcDbEntity
  8
P-0000
  6
Continuous
 62
     7
100
AcDbLine
 10
260.5725914786727
 20
216.7319282367784
 30
0.0
 11
267.5725914786728
 21
216.7319282367784
 31
0.0
1001
ACME_LAYERS
1000
1
  0
LINE
  5
358
330
1F
100
AcDbEntity
  8
P-0000
  6
Continuous
 62
     7
100
AcDbLine
 10
99.33379453876126
 20
354.7319282367784
 30
0.0
 11
108.2149798215693
 21
354.7319282367784
 31
0.0
1001
ACME_LAYERS
1000
1
  0
LINE
  5
359
330
1F
100
AcDbEntity
  8
P-0000
  6
Continuous
 62
     7
100
AcDbLine
 10
98.57259147868575
 20
354.7319282367755
 30
0.0
 11
99.33379453876126
 21
354.7319282367784
 31
0.0
1001
ACME_LAYERS
1000
1
  0
LINE
  5
35A
330
1F
100
AcDbEntity
  8
P-0000
  6
Continuous
 62
     7
100
AcDbLine
 10
131.0725914786735
 20
332.7319282367791
 30
0.0
 11
142.5890828986066
 21
332.7319282367802
 31
0.0
1001
ACME_LAYERS
1000
1
  0
LINE
  5
35B
330
1F
100
AcDbEntity
  8
P-0000
  6
Continuous
 62
     7
100
AcDbLine
 10
135.0725914786735
 20
332.7319282367795
 30
0.0
 11
135.0725914786735
 21
307.7319282367757
 31
0.0
1001
ACME_LAYERS
1000
1
  0
LINE
  5
35C
330
1F
100
AcDbEntity
  8
P-0000
  6
Continuous
 62
     7
100
AcDbLine
 10
135.0725914786735
 20
307.7319282367757
 30
0.0
 11
143.5725914786745
 21
307.7319282367759
 31
0.0
1001
ACME_LAYERS
1000
1
  0
LINE
  5
35D
330
1F
100
AcDbEntity
  8
P-0000
  6
STRICHPUNKT
 62
     3
100
AcDbLine
 10
201.0725914786732
 20
-89.19801742273973
 30
0.0
 11
201.0725914786732
 21
-79.19801742273631
 31
0.0
1001
ACME_LAYERS
1000
1
  0
LINE
  5
35E
330
1F
100
AcDbEntity
  8
P-0000
  6
Continuous
 62
     7
100
AcDbLine
 10
303.57259147866
 20
204.7319282367791
 30
0.0
 11
291.0725914786732
 21
204.7319282367791
 31
0.0
1001
ACME_LAYERS
1000
1
  0
LINE
  5
35F
330
1F
100
AcDbEntity
  8
P-0000
  6
Continuous
 62
     7
100
AcDbLine
 10
291.0725914786732
 20
209.7319282367791
 30
0.0
 11
282.5725914786708
 21
209.7319282367791
 31
0.0
1001
ACME_LAYERS
1000
1
  0
LINE
  5
360
330
1F
100
AcDbEntity
  8
P-0000
  6
Continuous
 62
     7
100
AcDbLine
 10
252.5725914786745
 20
209.7319282367791
 30
0.0
 11
252.5725914786745
 21
216.7319282367784
 31
0.0
1001
ACME_LAYERS
1000
1
  0
LINE
  5
361
330
1F
100
AcDbEntity
  8
P-0000
  6
Continuous
 62
     7
100
AcDbLine
 10
149.5725914786729
 20
209.7319282367791
 30
0.0
 11
126.0725914786723
 21
209.7319282367791
 31
0.0
1001
ACME_LAYERS
1000
1
  0
LINE
  5
362
330
1F
100
AcDbEntity
  8
P-0000
  6
Continuous
 62
     7
100
AcDbLine
 10
126.0725914786723
 20
204.7319282367791
 30
0.0
 11
106.5725914786856
 21
204.7319282367791
 31
0.0
1001
ACME_LAYERS
1000
1
  0
LINE
  5
363
330
1F
100
AcDbEntity
  8
P-0000
  6
Continuous
 62
     7
100
AcDbLine
 10
291.0725914786732
 20
209.7319282367791
 30
0.0
 11
291.0725914786732
 21
204.7319282367791
 31
0.0
1001
ACME_LAYERS
1000
1
  0
LINE
  5
364
330
1F
100
AcDbEntity
  8
P-0000
  6
Continuous
 62
     7
100
AcDbLine
 10
126.0725914786723
 20
209.7319282367791
 30
0.0
 11
126.0725914786723
 21
204.7319282367791
 31
0.0
1001
ACME_LAYERS
1000
1
  0
LINE
  5
365
330
1F
100
AcDbEntity
  8
P-0000
  6
Continuous
 62
     7
100
AcDbLine
 10
282.5725914786708
 20
209.7319282367791
 30
0.0
 11
275.5725914786709
 21
209.7319282367791
 31
0.0
1001
ACME_LAYERS
1000
1
  0
LINE
  5
366
330
1F
100
AcDbEntity
  8
P-0000
  6
Continuous
 62
     7
100
AcDbLine
 10
275.5725914786709
 20
209.7319282367791
 30
0.0
 11
267.5725914786726
 21
209.7319282367791
 31
0.0
1001
ACME_LAYERS
1000
1
  0
LINE
  5
367
330
1F
100
AcDbEntity
  8
P-0000
  6
Continuous
 62
     7
100
AcDbLine
 10
283.5103829481561
 20
354.7319282367754
 30
0.0
 11
285.0725914786709
 21
354.7319282367754
 31
0.0
1001
ACME_LAYERS
1000
1
  0
LINE
  5
368
330
1F
100
AcDbEntity
  8
P-0000
  6
Continuous
 62
     7
100
AcDbLine
 10
149.5725914786745
 20
216.7319282367784
 30
0.0
 11
149.5725914786729
 21
209.7319282367791
 31
0.0
1001
ACME_LAYERS
1000
1
  0
LINE
  5
369
330
1F
100
AcDbEntity
  8
P-0000
  6
Continuous
 62
     7
100
AcDbLine
 10
143.5725914786745
 20
307.7319282367759
 30
0.0
 11
146.0725914786763
 21
307.7319282367759
 31
0.0
1001
ACME_LAYERS
1000
1
  0
LINE
  5
36A
330
1F
100
AcDbEntity
  8
P-0000
  6
STRICHPUNKT
 62
     4
100
AcDbLine
 10
201.0725914786732
 20
-60.69801742273864
 30
0.0
 11
201.0725914786732
 21
100.2484447175503
 31
0.0
1001
ACME_LAYERS
1000
1
  0
LINE
  5
36B
330
1F
100
AcDbEntity
  8
P-0000
  6
STRICHPUNKT
 62
     3
100
AcDbLine
 10
201.0725914786732
 20
-79.19801742273631
 30
0.0
 11
201.0725914786732
 21
-60.69801742273864
 31
0.0
1001
ACME_LAYERS
1000
1
  0
LINE
  5
36C
330
1F
100
AcDbEntity
  8
P-0000
  6
Continuous
 62
     7
100
AcDbLine
 10
226.8225914786738
 20
-53.79832571763706
 30
0.0
 11
229.8225914786726
 21
-58.99447814034141
 31
0.0
1001
ACME_LAYERS
1000
1
  0
LINE
  5
36D
330
1F
100
AcDbEntity
  8
P-0000
  6
Continuous
 62
     7
100
AcDbLine
 10
226.8225914786738
 20
35.40229087216238
 30
0.0
 11
229.8225914786725
 21
40.59844329486679
 31
0.0
1001
ACME_LAYERS
1000
1
  0
LINE
  5
36E
330
1F
100
AcDbEntity
  8
P-0000
  6
STRICHPUNKT
 62
     3
100
AcDbLine
 10
246.1408897801716
 20
-73.56221780928132
 30
0.0
 11
229.8696521204067
 21
-50.32448217826083
 31
0.0
1001
ACME_LAYERS
1000
1
  0
LINE
  5
36F
330
1F
100
AcDbEntity
  8
P-0000
  6
Continuous
 62
     7
100
AcDbLine
 10
229.8225914786726
 20
-58.99447814034141
 30
0.0
 11
234.072591478673
 21
-66.35569407251001
 31
0.0
1001
ACME_LAYERS
1000
1
  0
LINE
  5
370
330
1F
100
AcDbEntity
  8
P-0000
  6
Continuous
 62
     7
100
AcDbLine
 10
229.8225914786725
 20
40.59844329486679
 30
0.0
 11
234.072591478673
 21
47.95965922703532
 31
0.0
1001
ACME_LAYERS
1000
1
  0
LINE
  5
371
330
1F
100
AcDbEntity
  8
P-0000
  6
Continuous
 62
     7
100
AcDbLine
 10
234.072591478673
 20
-66.35569407251001
 30
0.0
 11
236.0725914786727
 21
-69.81979568764711
 31
0.0
1001
ACME_LAYERS
1000
1
  0
LINE
  5
372
330
1F
100
AcDbEntity
  8
P-0000
  6
Continuous
 62
     7
100
AcDbLine
 10
234.072591478673
 20
47.95965922703532
 30
0.0
 11
236.0725914786727
 21
51.42376084217253
 31
0.0
1001
ACME_LAYERS
1000
1
  0
LINE
  5
373
330
1F
100
AcDbEntity
  8
P-0000
  6
Continuous
 62
     7
100
AcDbLine
 10
260.5725914786727
 20
209.7319282367791
 30
0.0
 11
252.5725914786745
 21
209.7319282367791
 31
0.0
1001
ACME_LAYERS
1000
1
  0
LINE
  5
374
330
1F
100
AcDbEntity
  8
P-0000
  6
Continuous
 62
     7
100
AcDbLine
 10
267.5725914786726
 20
209.7319282367791
 30
0.0
 11
260.5725914786727
 21
209.7319282367791
 31
0.0
1001
ACME_LAYERS
1000
1
  0
LINE
  5
375
330
1F
100
AcDbEntity
  8
P-0000
  6
STRICHLINIE
 62
     2
100
AcDbLine
 10
106.5725914786856
 20
40.80198257726268
 30
0.0
 11
106.5725914786856
 21
-59.19801742273731
 31
0.0
1001
ACME_LAYERS
1000
1
  0
LINE
  5
376
330
1F
100
AcDbEntity
  8
P-0000
  6
STRICHLINIE
 62
     2
100
AcDbLine
 10
106.5725914786856
 20
40.80198257726268
 30
0.0
 11
98.5725914786856
 21
40.80198257726268
 31
0.0
1001
ACME_LAYERS
1000
1
  0
LINE
  5
377
330
1F
100
AcDbEntity
  8
P-0000
  6
Continuous
 62
     7
100
AcDbLine
 10
98.5725914786856
 20
40.80198257726268
 30
0.0
 11
98.57259147868571
 21
93.30198257725035
 31
0.0
1001
ACME_LAYERS
1000
1
  0
LINE
  5
378
330
1F
100
AcDbEntity
  8
P-0000
  6
STRICHLINIE
 62
     2
100
AcDbLine
 10
98.5725914786856
 20
-59.19801742273731
 30
0.0
 11
106.5725914786856
 21
-59.19801742273731
 31
0.0
1001
ACME_LAYERS
1000
1
  0
LINE
  5
379
330
1F
100
AcDbEntity
  8
P-0000
  6
Continuous
 62
     7
100
AcDbLine
 10
98.5725914786856
 20
-59.19801742273731
 30
0.0
 11
98.5725914786856
 21
-9.198017422737308
 31
0.0
1001
ACME_LAYERS
1000
1
  0
LINE
  5
37A
330
1F
100
AcDbEntity
  8
P-0000
  6
STRICHLINIE
 62
     2
100
AcDbLine
 10
151.0725914786731
 20
-103.6980174227249
 30
0.0
 11
251.0725914786732
 21
-103.6980174227249
 31
0.0
1001
ACME_LAYERS
1000
1
  0
LINE
  5
37B
330
1F
100
AcDbEntity
  8
P-0000
  6
STRICHLINIE
 62
     2
100
AcDbLine
 10
251.0725914786732
 20
-111.6980174227249
 30
0.0
 11
251.0725914786732
 21
-103.6980174227249
 31
0.0
1001
ACME_LAYERS
1000
1
  0
LINE
  5
37C
330
1F
100
AcDbEntity
  8
P-0000
  6
STRICHLINIE
 62
     2
100
AcDbLine
 10
295.5725914786608
 20
-59.19801742273737
 30
0.0
 11
295.5725914786608
 21
40.80198257726268
 31
0.0
1001
ACME_LAYERS
1000
1
  0
LINE
  5
37D
330
1F
100
AcDbEntity
  8
P-0000
  6
STRICHLINIE
 62
     2
100
AcDbLine
 10
303.5725914786607
 20
40.80198257726263
 30
0.0
 11
295.5725914786608
 21
40.80198257726268
 31
0.0
1001
ACME_LAYERS
1000
1
  0
LINE
  5
37E
330
1F
100
AcDbEntity
  8
P-0000
  6
STRICHLINIE
 62
     2
100
AcDbLine
 10
251.0725914786732
 20
85.30198257725031
 30
0.0
 11
151.0725914786732
 21
85.30198257725034
 31
0.0
1001
ACME_LAYERS
1000
1
  0
LINE
  5
37F
330
1F
100
AcDbEntity
  8
P-0000
  6
STRICHLINIE
 62
     2
100
AcDbLine
 10
151.0725914786732
 20
93.30198257725035
 30
0.0
 11
151.0725914786732
 21
85.30198257725034
 31
0.0
1001
ACME_LAYERS
1000
1
  0
LINE
  5
380
330
1F
100
AcDbEntity
  8
P-0000
  6
STRICHLINIE
 62
     2
100
AcDbLine
 10
151.0725914786731
 20
-103.6980174227249
 30
0.0
 11
151.0725914786731
 21
-111.6980174227248
 31
0.0
1001
ACME_LAYERS
1000
1
  0
LINE
  5
381
330
1F
100
AcDbEntity
  8
P-0000
  6
STRICHLINIE
 62
     2
100
AcDbLine
 10
295.5725914786608
 20
-59.19801742273737
 30
0.0
 11
303.5725914786606
 21
-59.19801742273737
 31
0.0
1001
ACME_LAYERS
1000
1
  0
LINE
  5
382
330
1F
100
AcDbEntity
  8
P-0000
  6
STRICHLINIE
 62
     2
100
AcDbLine
 10
251.0725914786732
 20
85.30198257725031
 30
0.0
 11
251.0725914786732
 21
93.30198257725031
 31
0.0
1001
ACME_LAYERS
1000
1
  0
LINE
  5
383
330
1F
100
AcDbEntity
  8
P-0000
  6
Continuous
 62
     7
100
AcDbLine
 10
106.5725914786856
 20
315.7319282367784
 30
0.0
 11
106.5725914786856
 21
204.7319282367791
 31
0.0
1001
ACME_LAYERS
1000
1
  0
LINE
  5
384
330
1F
100
AcDbEntity
  8
P-0000
  6
Continuous
 62
     7
100
AcDbLine
 10
106.5725914786856
 20
204.7319282367791
 30
0.0
 11
98.57259147868573
 21
204.7319282367791
 31
0.0
1001
ACME_LAYERS
1000
1
  0
LINE
  5
385
330
1F
100
AcDbEntity
  8
P-0000
  6
Continuous
 62
     7
100
AcDbLine
 10
106.5725914786856
 20
315.7319282367784
 30
0.0
 11
98.57259147868575
 21
315.7319282367784
 31
0.0
1001
ACME_LAYERS
1000
1
  0
LINE
  5
386
330
1F
100
AcDbEntity
  8
P-0000
  6
Continuous
 62
     7
100
AcDbLine
 10
98.57259147868575
 20
315.7319282367784
 30
0.0
 11
98.57259147868573
 21
204.7319282367791
 31
0.0
1001
ACME_LAYERS
1000
1
  0
LINE
  5
387
330
1F
100
AcDbEntity
  8
P-0000
  6
Continuous
 62
     7
100
AcDbLine
 10
295.5725914786597
 20
204.7319282367791
 30
0.0
 11
295.5725914786597
 21
315.7319282367784
 31
0.0
1001
ACME_LAYERS
1000
1
  0
LINE
  5
388
330
1F
100
AcDbEntity
  8
P-0000
  6
Continuous
 62
     7
100
AcDbLine
 10
295.5725914786597
 20
204.7319282367791
 30
0.0
 11
295.5725914786597
 21
315.7319282367784
 31
0.0
1001
ACME_LAYERS
1000
1
  0
LINE
  5
389
330
1F
100
AcDbEntity
  8
P-0000
  6
Continuous
 62
     7
100
AcDbLine
 10
303.5725914786596
 20
315.7319282367784
 30
0.0
 11
295.5725914786597
 21
315.7319282367784
 31
0.0
1001
ACME_LAYERS
1000
1
  0
LINE
  5
38A
330
1F
100
AcDbEntity
  8
P-0000
  6
STRICHPUNKT
 62
     3
100
AcDbLine
 10
264.0725914786727
 20
222.7319282367784
 30
0.0
 11
264.0725914786727
 21
203.7319282367791
 31
0.0
1001
ACME_LAYERS
1000
1
  0
LINE
  5
38B
330
1F
100
AcDbEntity
  8
P-0000
  6
Continuous
 62
     7
100
AcDbLine
 10
142.5890828986066
 20
332.7319282367802
 30
0.0
 11
236.0725914786728
 21
332.7319282367802
 31
0.0
1001
ACME_LAYERS
1000
1
  0
LINE
  5
38C
330
1F
100
AcDbEntity
  8
P-0000
  6
Continuous
 62
     7
100
AcDbLine
 10
146.0725914786763
 20
307.7319282367759
 30
0.0
 11
229.8225914786726
 21
307.7319282367759
 31
0.0
1001
ACME_LAYERS
1000
1
  0
LINE
  5
390
330
1F
100
AcDbEntity
  8
P-0000
  6
STRICHPUNKT
 62
     4
100
AcDbLine
 10
291.0725914786732
 20
-9.198017422737365
 30
0.0
 11
98.5725914786856
 21
-9.198017422737308
 31
0.0
1001
ACME_LAYERS
1000
1
  0
LINE
  5
398
330
1F
100
AcDbEntity
  8
P-0000
  6
Continuous
 62
     7
100
AcDbLine
 10
719.4786623155435
 20
-99.19801742273705
 30
0.0
 11
629.4786623155435
 21
-99.19801742273705
 31
0.0
1001
ACME_LAYERS
1000
1
  0
LINE
  5
399
330
1F
100
AcDbEntity
  8
P-0000
  6
Continuous
 62
     7
100
AcDbLine
 10
629.4786623155435
 20
-9.198017422737052
 30
0.0
 11
629.4786623155435
 21
80.80198257726317
 31
0.0
1001
ACME_LAYERS
1000
1
  0
LINE
  5
39A
330
1F
100
AcDbEntity
  8
P-0000
  6
Continuous
 62
     7
100
AcDbLine
 10
719.4786623155435
 20
80.80198257726317
 30
0.0
 11
809.4786623155435
 21
80.80198257726317
 31
0.0
1001
ACME_LAYERS
1000
1
  0
LINE
  5
39B
330
1F
100
AcDbEntity
  8
P-0000
  6
Continuous
 62
     7
100
AcDbLine
 10
719.4786623155435
 20
-99.19801742273705
 30
0.0
 11
809.4786623155435
 21
-99.19801742273705
 31
0.0
1001
ACME_LAYERS
1000
1
  0
LINE
  5
39C
330
1F
100
AcDbEntity
  8
P-0000
  6
Continuous
 62
     7
100
AcDbLine
 10
629.4786623155435
 20
-9.198017422737052
 30
0.0
 11
629.4786623155435
 21
-99.19801742273705
 31
0.0
1001
ACME_LAYERS
1000
1
  0
LINE
  5
39D
330
1F
100
AcDbEntity
  8
P-0000
  6
Continuous
 62
     7
100
AcDbLine
 10
719.4786623155435
 20
80.80198257726317
 30
0.0
 11
629.4786623155435
 21
80.80198257726317
 31
0.0
1001
ACME_LAYERS
1000
1
  0
LINE
  5
39E
330
1F
100
AcDbEntity
  8
P-0000
  6
Continuous
 62
     7
100
AcDbLine
 10
809.4786623155435
 20
-9.198017422737052
 30
0.0
 11
809.4786623155435
 21
-99.19801742273705
 31
0.0
1001
ACME_LAYERS
1000
1
  0
LINE
  5
39F
330
1F
100
AcDbEntity
  8
P-0000
  6
STRICHPUNKT
 62
     4
100
AcDbLine
 10
809.4786623155435
 20
-9.198017422737052
 30
0.0
 11
616.9786623155562
 21
-9.198017422737052
 31
0.0
1001
ACME_LAYERS
1000
1
  0
LINE
  5
3A0
330
1F
100
AcDbEntity
  8
P-0000
  6
Continuous
 62
     7
100
AcDbLine
 10
809.4786623155435
 20
-9.198017422737052
 30
0.0
 11
809.4786623155435
 21
80.80198257726317
 31
0.0
1001
ACME_LAYERS
1000
1
  0
LINE
  5
3A1
330
1F
100
AcDbEntity
  8
P-0000
  6
Continuous
 62
     7
100
AcDbLine
 10
821.978662315529
 20
271.9413318001686
 30
0.0
 11
813.978662315529
 21
271.9413318001686
 31
0.0
1001
ACME_LAYERS
1000
1
  0
LINE
  5
3A2
330
1F
100
AcDbEntity
  8
P-0000
  6
Continuous
 62
     7
100
AcDbLine
 10
813.978662315529
 20
181.9413318001685
 30
0.0
 11
813.978662315529
 21
271.9413318001686
 31
0.0
1001
ACME_LAYERS
1000
1
  0
LINE
  5
3A3
330
1F
100
AcDbEntity
  8
P-0000
  6
Continuous
 62
     7
100
AcDbLine
 10
616.9786623155544
 20
271.9413318001686
 30
0.0
 11
616.9786623155544
 21
181.9413318001685
 31
0.0
1001
ACME_LAYERS
1000
1
  0
LINE
  5
3A4
330
1F
100
AcDbEntity
  8
P-0000
  6
Continuous
 62
     7
100
AcDbLine
 10
624.9786623155544
 20
271.9413318001686
 30
0.0
 11
616.9786623155544
 21
271.9413318001686
 31
0.0
1001
ACME_LAYERS
1000
1
  0
LINE
  5
3A5
330
1F
100
AcDbEntity
  8
P-0000
  6
Continuous
 62
     7
100
AcDbLine
 10
624.9786623155544
 20
181.9413318001685
 30
0.0
 11
616.9786623155544
 21
181.9413318001685
 31
0.0
1001
ACME_LAYERS
1000
1
  0
LINE
  5
3A6
330
1F
100
AcDbEntity
  8
P-0000
  6
Continuous
 62
     7
100
AcDbLine
 10
624.9786623155544
 20
271.9413318001686
 30
0.0
 11
624.9786623155544
 21
181.9413318001685
 31
0.0
1001
ACME_LAYERS
1000
1
  0
LINE
  5
3A7
330
1F
100
AcDbEntity
  8
P-0000
  6
STRICHLINIE
 62
     2
100
AcDbLine
 10
769.4786623155435
 20
85.30198257725032
 30
0.0
 11
769.4786623155435
 21
93.30198257725033
 31
0.0
1001
ACME_LAYERS
1000
1
  0
LINE
  5
3A8
330
1F
100
AcDbEntity
  8
P-0000
  6
STRICHLINIE
 62
     2
100
AcDbLine
 10
813.9786623155307
 20
-59.19801742273705
 30
0.0
 11
821.9786623155307
 21
-59.19801742273705
 31
0.0
1001
ACME_LAYERS
1000
1
  0
LINE
  5
3A9
330
1F
100
AcDbEntity
  8
P-0000
  6
STRICHLINIE
 62
     2
100
AcDbLine
 10
669.4786623155435
 20
-103.6980174227261
 30
0.0
 11
669.4786623155435
 21
-111.6980174227243
 31
0.0
1001
ACME_LAYERS
1000
1
  0
LINE
  5
3AA
330
1F
100
AcDbEntity
  8
P-0000
  6
STRICHLINIE
 62
     2
100
AcDbLine
 10
669.4786623155435
 20
93.30198257725033
 30
0.0
 11
669.4786623155435
 21
85.30198257725032
 31
0.0
1001
ACME_LAYERS
1000
1
  0
LINE
  5
3AB
330
1F
100
AcDbEntity
  8
P-0000
  6
STRICHLINIE
 62
     2
100
AcDbLine
 10
769.4786623155435
 20
85.30198257725032
 30
0.0
 11
669.4786623155435
 21
85.30198257725032
 31
0.0
1001
ACME_LAYERS
1000
1
  0
LINE
  5
3AC
330
1F
100
AcDbEntity
  8
P-0000
  6
STRICHLINIE
 62
     2
100
AcDbLine
 10
821.9786623155307
 20
40.80198257726294
 30
0.0
 11
813.9786623155307
 21
40.80198257726294
 31
0.0
1001
ACME_LAYERS
1000
1
  0
LINE
  5
3AD
330
1F
100
AcDbEntity
  8
P-0000
  6
STRICHLINIE
 62
     2
100
AcDbLine
 10
813.9786623155307
 20
-59.19801742273705
 30
0.0
 11
813.9786623155307
 21
40.80198257726294
 31
0.0
1001
ACME_LAYERS
1000
1
  0
LINE
  5
3AE
330
1F
100
AcDbEntity
  8
P-0000
  6
STRICHLINIE
 62
     2
100
AcDbLine
 10
769.4786623155435
 20
-111.6980174227261
 30
0.0
 11
769.4786623155435
 21
-103.6980174227261
 31
0.0
1001
ACME_LAYERS
1000
1
  0
LINE
  5
3AF
330
1F
100
AcDbEntity
  8
P-0000
  6
STRICHLINIE
 62
     2
100
AcDbLine
 10
669.4786623155435
 20
-103.6980174227261
 30
0.0
 11
769.4786623155435
 21
-103.6980174227261
 31
0.0
1001
ACME_LAYERS
1000
1
  0
LINE
  5
3B0
330
1F
100
AcDbEntity
  8
P-0000
  6
Continuous
 62
     7
100
AcDbLine
 10
616.9786623155562
 20
-59.19801742273705
 30
0.0
 11
616.9786623155562
 21
-9.198017422737052
 31
0.0
1001
ACME_LAYERS
1000
1
  0
LINE
  5
3B1
330
1F
100
AcDbEntity
  8
P-0000
  6
STRICHLINIE
 62
     2
100
AcDbLine
 10
616.9786623155562
 20
-59.19801742273705
 30
0.0
 11
624.9786623155562
 21
-59.19801742273705
 31
0.0
1001
ACME_LAYERS
1000
1
  0
LINE
  5
3B2
330
1F
100
AcDbEntity
  8
P-0000
  6
Continuous
 62
     7
100
AcDbLine
 10
616.9786623155562
 20
40.80198257726294
 30
0.0
 11
616.9786623155562
 21
93.30198257725033
 31
0.0
1001
ACME_LAYERS
1000
1
  0
LINE
  5
3B3
330
1F
100
AcDbEntity
  8
P-0000
  6
STRICHLINIE
 62
     2
100
AcDbLine
 10
624.9786623155562
 20
40.80198257726294
 30
0.0
 11
616.9786623155562
 21
40.80198257726294
 31
0.0
1001
ACME_LAYERS
1000
1
  0
LINE
  5
3B4
330
1F
100
AcDbEntity
  8
P-0000
  6
STRICHLINIE
 62
     2
100
AcDbLine
 10
624.9786623155562
 20
40.80198257726294
 30
0.0
 11
624.9786623155562
 21
-59.19801742273705
 31
0.0
1001
ACME_LAYERS
1000
1
  0
LINE
  5
3B5
330
1F
100
AcDbEntity
  8
P-0000
  6
Continuous
 62
     7
100
AcDbLine
 10
667.9786623155417
 20
286.9413318001686
 30
0.0
 11
667.9786623155434
 21
181.9413318001685
 31
0.0
1001
ACME_LAYERS
1000
1
  0
LINE
  5
3B6
330
1F
100
AcDbEntity
  8
P-0000
  6
Continuous
 62
     7
100
AcDbLine
 10
785.9786623155416
 20
181.9413318001685
 30
0.0
 11
813.978662315529
 21
181.9413318001685
 31
0.0
1001
ACME_LAYERS
1000
1
  0
LINE
  5
3B7
330
1F
100
AcDbEntity
  8
P-0000
  6
Continuous
 62
     7
100
AcDbLine
 10
778.9786623155416
 20
181.9413318001685
 30
0.0
 11
785.9786623155416
 21
181.9413318001685
 31
0.0
1001
ACME_LAYERS
1000
1
  0
LINE
  5
3B8
330
1F
100
AcDbEntity
  8
P-0000
  6
Continuous
 62
     7
100
AcDbLine
 10
770.9786623155435
 20
286.9413318001686
 30
0.0
 11
770.9786623155435
 21
181.9413318001685
 31
0.0
1001
ACME_LAYERS
1000
1
  0
LINE
  5
3BA
330
1F
100
AcDbEntity
  8
P-0000
  6
STRICHPUNKT
 62
     3
100
AcDbLine
 10
719.4786623155435
 20
-89.19801742274069
 30
0.0
 11
719.4786623155435
 21
-60.69801742273887
 31
0.0
1001
ACME_LAYERS
1000
1
  0
LINE
  5
3BB
330
1F
100
AcDbEntity
  8
P-0000
  6
STRICHPUNKT
 62
     4
100
AcDbLine
 10
719.4786623155435
 20
-60.69801742273887
 30
0.0
 11
719.4786623155435
 21
100.2484447175506
 31
0.0
1001
ACME_LAYERS
1000
1
  0
LINE
  5
3BC
330
1F
100
AcDbEntity
  8
P-0000
  6
STRICHLINIE
 62
     2
100
AcDbLine
 10
778.9786623155416
 20
286.9413318001686
 30
0.0
 11
778.9786623155416
 21
181.9413318001685
 31
0.0
1001
ACME_LAYERS
1000
1
  0
LINE
  5
3BD
330
1F
100
AcDbEntity
  8
P-0000
  6
STRICHLINIE
 62
     2
100
AcDbLine
 10
785.9786623155416
 20
286.9413318001686
 30
0.0
 11
785.9786623155416
 21
181.9413318001685
 31
0.0
1001
ACME_LAYERS
1000
1
  0
LINE
  5
3BE
330
1F
100
AcDbEntity
  8
P-0000
  6
Continuous
 62
     7
100
AcDbLine
 10
616.9786623155544
 20
281.9413318001686
 30
0.0
 11
616.9786623155544
 21
271.9413318001686
 31
0.0
1001
ACME_LAYERS
1000
1
  0
LINE
  5
3BF
330
1F
100
AcDbEntity
  8
P-0000
  6
Continuous
 62
     7
100
AcDbLine
 10
821.978662315529
 20
281.9413318001686
 30
0.0
 11
821.978662315529
 21
271.9413318001686
 31
0.0
1001
ACME_LAYERS
1000
1
  0
LINE
  5
3C0
330
1F
100
AcDbEntity
  8
P-0000
  6
Continuous
 62
     7
100
AcDbLine
 10
770.9786623155435
 20
181.9413318001685
 30
0.0
 11
778.9786623155416
 21
181.9413318001685
 31
0.0
1001
ACME_LAYERS
1000
1
  0
LINE
  5
3C1
330
1F
100
AcDbEntity
  8
P-0000
  6
Continuous
 62
     7
100
AcDbLine
 10
719.4786623155435
 20
93.30198257725033
 30
0.0
 11
821.9786623155307
 21
93.30198257725033
 31
0.0
1001
ACME_LAYERS
1000
1
  0
LINE
  5
3C2
330
1F
100
AcDbEntity
  8
P-0000
  6
Continuous
 62
     7
100
AcDbLine
 10
616.9786623155562
 20
-9.198017422737052
 30
0.0
 11
616.9786623155562
 21
40.80198257726294
 31
0.0
1001
ACME_LAYERS
1000
1
  0
LINE
  5
3C3
330
1F
100
AcDbEntity
  8
P-0000
  6
Continuous
 62
     7
100
AcDbLine
 10
719.4786623155435
 20
-111.6980174227243
 30
0.0
 11
616.9786623155561
 21
-111.6980174227243
 31
0.0
1001
ACME_LAYERS
1000
1
  0
LINE
  5
3C4
330
1F
100
AcDbEntity
  8
P-0000
  6
Continuous
 62
     7
100
AcDbLine
 10
821.9786623155307
 20
-9.198017422737052
 30
0.0
 11
821.9786623155307
 21
-111.6980174227243
 31
0.0
1001
ACME_LAYERS
1000
1
  0
LINE
  5
3C5
330
1F
100
AcDbEntity
  8
P-0000
  6
Continuous
 62
     7
100
AcDbLine
 10
821.9786623155307
 20
-111.6980174227243
 30
0.0
 11
719.4786623155435
 21
-111.6980174227243
 31
0.0
1001
ACME_LAYERS
1000
1
  0
LINE
  5
3C6
330
1F
100
AcDbEntity
  8
P-0000
  6
Continuous
 62
     7
100
AcDbLine
 10
616.9786623155561
 20
-111.6980174227243
 30
0.0
 11
616.9786623155562
 21
-59.19801742273705
 31
0.0
1001
ACME_LAYERS
1000
1
  0
LINE
  5
3C7
330
1F
100
AcDbEntity
  8
P-0000
  6
Continuous
 62
     7
100
AcDbLine
 10
616.9786623155562
 20
93.30198257725033
 30
0.0
 11
719.4786623155435
 21
93.30198257725033
 31
0.0
1001
ACME_LAYERS
1000
1
  0
LINE
  5
3C8
330
1F
100
AcDbEntity
  8
P-0000
  6
STRICHPUNKT
 62
     3
100
AcDbLine
 10
821.9786623155307
 20
-9.198017422737052
 30
0.0
 11
809.4786623155435
 21
-9.198017422737052
 31
0.0
1001
ACME_LAYERS
1000
1
  0
LINE
  5
3C9
330
1F
100
AcDbEntity
  8
P-0000
  6
STRICHPUNKT
 62
     4
100
AcDbLine
 10
719.4786623155435
 20
-111.6980174227243
 30
0.0
 11
719.4786623155435
 21
-89.19801742274069
 31
0.0
1001
ACME_LAYERS
1000
1
  0
LINE
  5
3CA
330
1F
100
AcDbEntity
  8
P-0000
  6
Continuous
 62
     7
100
AcDbLine
 10
667.9786623155434
 20
181.9413318001685
 30
0.0
 11
624.9786623155544
 21
181.9413318001685
 31
0.0
1001
ACME_LAYERS
1000
1
  0
LINE
  5
3CB
330
1F
100
AcDbEntity
  8
P-0000
  6
STRICHPUNKT
 62
     3
100
AcDbLine
 10
782.4786623155416
 20
293.9413318001686
 30
0.0
 11
782.4786623155416
 21
181.9413318001685
 31
0.0
1001
ACME_LAYERS
1000
1
  0
LINE
  5
3CC
330
1F
100
AcDbEntity
  8
P-0000
  6
Continuous
 62
     7
100
AcDbLine
 10
821.9786623155307
 20
93.30198257725033
 30
0.0
 11
821.9786623155307
 21
-9.198017422737052
 31
0.0
1001
ACME_LAYERS
1000
1
  0
LINE
  5
3CD
330
1F
100
AcDbEntity
  8
P-0000
  6
Continuous
 62
     7
100
AcDbLine
 10
770.9786623155435
 20
181.9413318001685
 30
0.0
 11
667.9786623155434
 21
181.9413318001685
 31
0.0
1001
ACME_LAYERS
1000
1
  0
LINE
  5
3CE
330
1F
100
AcDbEntity
  8
P-0000
  6
Continuous
 62
     7
100
AcDbLine
 10
809.4786623155435
 20
286.9413318001686
 30
0.0
 11
785.9786623155416
 21
286.9413318001686
 31
0.0
1001
ACME_LAYERS
1000
1
  0
LINE
  5
3CF
330
1F
100
AcDbEntity
  8
P-0000
  6
Continuous
 62
     7
100
AcDbLine
 10
629.4786623155435
 20
281.9413318001686
 30
0.0
 11
616.9786623155544
 21
281.9413318001686
 31
0.0
1001
ACME_LAYERS
1000
1
  0
LINE
  5
3D0
330
1F
100
AcDbEntity
  8
P-0000
  6
Continuous
 62
     7
100
AcDbLine
 10
809.4786623155435
 20
281.9413318001686
 30
0.0
 11
821.978662315529
 21
281.9413318001686
 31
0.0
1001
ACME_LAYERS
1000
1
  0
LINE
  5
3D1
330
1F
100
AcDbEntity
  8
P-0000
  6
Continuous
 62
     7
100
AcDbLine
 10
809.4786623155435
 20
286.9413318001686
 30
0.0
 11
809.4786623155435
 21
281.9413318001686
 31
0.0
1001
ACME_LAYERS
1000
1
  0
LINE
  5
3D2
330
1F
100
AcDbEntity
  8
P-0000
  6
Continuous
 62
     7
100
AcDbLine
 10
629.4786623155435
 20
286.9413318001686
 30
0.0
 11
629.4786623155435
 21
281.9413318001686
 31
0.0
1001
ACME_LAYERS
1000
1
  0
LINE
  5
3D3
330
1F
100
AcDbEntity
  8
P-0000
  6
Continuous
 62
     7
100
AcDbLine
 10
667.9786623155417
 20
286.9413318001686
 30
0.0
 11
629.4786623155435
 21
286.9413318001686
 31
0.0
1001
ACME_LAYERS
1000
1
  0
LINE
  5
3D4
330
1F
100
AcDbEntity
  8
P-0000
  6
Continuous
 62
     7
100
AcDbLine
 10
770.9786623155435
 20
286.9413318001686
 30
0.0
 11
719.4786623155435
 21
286.9413318001686
 31
0.0
1001
ACME_LAYERS
1000
1
  0
LINE
  5
3D5
330
1F
100
AcDbEntity
  8
P-0000
  6
Continuous
 62
     7
100
AcDbLine
 10
778.9786623155416
 20
286.9413318001686
 30
0.0
 11
770.9786623155435
 21
286.9413318001686
 31
0.0
1001
ACME_LAYERS
1000
1
  0
LINE
  5
3D6
330
1F
100
AcDbEntity
  8
P-0000
  6
Continuous
 62
     7
100
AcDbLine
 10
785.9786623155416
 20
286.9413318001686
 30
0.0
 11
778.9786623155416
 21
286.9413318001686
 31
0.0
1001
ACME_LAYERS
1000
1
  0
LINE
  5
3D7
330
1F
100
AcDbEntity
  8
P-0000
  6
Continuous
 62
     7
100
AcDbLine
 10
813.978662315529
 20
181.9413318001685
 30
0.0
 11
821.9786623155235
 21
181.9413318001685
 31
0.0
1001
ACME_LAYERS
1000
1
  0
LINE
  5
3D8
330
1F
100
AcDbEntity
  8
P-0000
  6
Continuous
 62
     7
100
AcDbLine
 10
821.978662315529
 20
271.9413318001686
 30
0.0
 11
821.9786623155235
 21
181.9413318001685
 31
0.0
1001
ACME_LAYERS
1000
1
  0
LINE
  5
3D9
330
1F
100
AcDbEntity
  8
P-0000
  6
STRICHPUNKT
 62
     4
100
AcDbLine
 10
719.4786623155435
 20
175.9413318001685
 30
0.0
 11
719.4786623155435
 21
286.9413318001686
 31
0.0
1001
ACME_LAYERS
1000
1
  0
LINE
  5
3DA
330
1F
100
AcDbEntity
  8
P-0000
  6
Continuous
 62
     7
100
AcDbLine
 10
719.4786623155435
 20
286.9413318001686
 30
0.0
 11
667.9786623155417
 21
286.9413318001686
 31
0.0
1001
ACME_LAYERS
1000
1
  0
LINE
  5
3DB
330
1F
100
AcDbEntity
  8
P-0000
  6
STRICHPUNKT
 62
     3
100
AcDbLine
 10
719.4786623155435
 20
286.9413318001686
 30
0.0
 11
719.4786623155435
 21
292.9413318001686
 31
0.0
1001
ACME_LAYERS
1000
1
  0
LINE
  5
3DC
330
1F
100
AcDbEntity
  8
P-0000
  6
STRICHPUNKT
 62
     3
100
AcDbLine
 10
774.9786623155452
 20
-9.198017422737052
 30
0.0
 11
791.9786623155453
 21
-9.198017422737052
 31
0.0
1001
ACME_LAYERS
1000
1
  0
ARC
  5
3DD
330
1F
100
AcDbEntity
  8
P-0000
  6
Continuous
 62
     7
100
AcDbCircle
 10
186.0725914786751
 20
-9.198017422737336
 30
0.0
 40
66.4999999999994
100
AcDbArc
 50
357.4143504492123
 51
2.585649550787659
1001
ACME_LAYERS
1000
1
  0
ARC
  5
3DE
330
1F
100
AcDbEntity
  8
P-0000
  6
Continuous
 62
     7
100
AcDbCircle
 10
201.0725914786732
 20
-9.198017422737336
 30
0.0
 40
51.5000000000013
100
AcDbArc
 50
270.0
 51
299.9999999999997
1001
ACME_LAYERS
1000
1
  0
ARC
  5
3DF
330
1F
100
AcDbEntity
  8
P-0000
  6
Continuous
 62
     7
100
AcDbCircle
 10
201.0725914786732
 20
-9.198017422737336
 30
0.0
 40
51.50000000000125
100
AcDbArc
 50
60.00000000000028
 51
270.0
1001
ACME_LAYERS
1000
1
  0
ARC
  5
3E0
330
1F
100
AcDbEntity
  8
P-0000
  6
Continuous
 62
     7
100
AcDbCircle
 10
201.0725914786732
 20
-9.198017422737336
 30
0.0
 40
69.99999999999902
100
AcDbArc
 50
270.0
 51
299.9999999999997
1001
ACME_LAYERS
1000
1
  0
ARC
  5
3E1
330
1F
100
AcDbEntity
  8
P-0000
  6
Continuous
 62
     7
100
AcDbCircle
 10
201.0725914786732
 20
-9.198017422737336
 30
0.0
 40
69.99999999999902
100
AcDbArc
 50
60.00000000000028
 51
270.0
1001
ACME_LAYERS
1000
1
  0
ARC
  5
3E2
330
1F
100
AcDbEntity
  8
P-0000
  6
Continuous
 62
     7
100
AcDbCircle
 10
201.0725914786732
 20
-9.198017422737336
 30
0.0
 40
51.50000000000128
100
AcDbArc
 50
299.9999999999997
 51
60.00000000000028
1001
ACME_LAYERS
1000
1
  0
ARC
  5
3E3
330
1F
100
AcDbEntity
  8
P-0000
  6
Continuous
 62
     7
100
AcDbCircle
 10
201.0725914786732
 20
-9.198017422737336
 30
0.0
 40
69.99999999999899
100
AcDbArc
 50
299.9999999999997
 51
60.00000000000028
1001
ACME_LAYERS
1000
1
  0
ARC
  5
3E4
330
1F
100
AcDbEntity
  8
P-0000
  6
STRICHPUNKT
 62
     3
100
AcDbCircle
 10
201.0725914786732
 20
-9.198017422737336
 30
0.0
 40
62.99999999999997
100
AcDbArc
 50
294.9416239784002
 51
316.7344510214026
1001
ACME_LAYERS
1000
1
  0
ARC
  5
3E5
330
1F
100
AcDbEntity
  8
P-0000
  6
Continuous
 62
     7
100
AcDbCircle
 10
201.0725914786732
 20
-9.198017422737336
 30
0.0
 40
57.49999999999872
100
AcDbArc
 50
60.00000000000028
 51
299.9999999999997
1001
ACME_LAYERS
1000
1
  0
ARC
  5
3E6
330
1F
100
AcDbEntity
  8
P-0000
  6
Continuous
 62
     7
100
AcDbCircle
 10
201.0725914786732
 20
-9.198017422737336
 30
0.0
 40
65.99999999999965
100
AcDbArc
 50
60.00000000000028
 51
299.9999999999997
1001
ACME_LAYERS
1000
1
  0
ARC
  5
3E8
330
1F
100
AcDbEntity
  8
P-0000
  6
Continuous
 62
     7
100
AcDbCircle
 10
704.4786623155452
 20
-9.198017422737052
 30
0.0
 40
66.49999999999898
100
AcDbArc
 50
357.4143504492105
 51
2.585649550789433
1001
ACME_LAYERS
1000
1
  0
CIRCLE
  5
3E9
330
1F
100
AcDbEntity
  8
P-0000
  6
Continuous
 62
     7
100
AcDbCircle
 10
237.2079069687891
 20
-60.8045962129438
 30
0.0
 40
3.5
1001
ACME_LAYERS
1000
1
  0
CIRCLE
  5
3EA
330
1F
100
AcDbEntity
  8
P-0000
  6
Continuous
 62
     7
100
AcDbCircle
 10
719.4786623155435
 20
-9.198017422737052
 30
0.0
 40
51.50000000000176
1001
ACME_LAYERS
1000
1
  0
CIRCLE
  5
3EB
330
1F
100
AcDbEntity
  8
P-0000
  6
Continuous
 62
     7
100
AcDbCircle
 10
755.6139778056587
 20
-60.80459621294505
 30
0.0
 40
3.5
1001
ACME_LAYERS
1000
1
  0
LWPOLYLINE
  5
3EC
330
1F
100
AcDbEntity
  8
P-0000
  6
Continuous
 62
     7
 60
     1
100
AcDbPolyline
 90
        2
 70
     0
 43
0.0
 10
-162.6645103107193
 20
-102.0121190378745
 10
-162.6645103107157
 20
-109.1980174227397
1001
ACME_LAYERS
1000
1
  0
LWPOLYLINE
  5
3ED
330
1F
100
AcDbEntity
  8
P-0000
  6
Continuous
 62
     3
 60
     1
100
AcDbPolyline
 90
        2
 70
     0
 43
0.0
 10
-142.9590383416146
 20
-84.69801742274455
 10
-160.6078653093668
 20
-84.69801742274285
1001
ACME_LAYERS
1000
1
  0
LWPOLYLINE
  5
3EE
330
1F
100
AcDbEntity
  8
P-0000
  6
Continuous
 62
     3
 60
     1
100
AcDbPolyline
 90
        2
 70
     0
 43
0.0
 10
-149.5607225023818
 20
-82.69801742274465
 10
-141.1565724604659
 20
-82.69801742274465
1001
ACME_LAYERS
1000
1
  0
LWPOLYLINE
  5
3EF
330
1F
100
AcDbEntity
  8
P-0000
  6
Continuous
 62
     7
 60
     1
100
AcDbPolyline
 90
        4
 70
     0
 43
0.0
 10
-151.6763595461262
 20
-197.0929354496383
 10
-151.6763595461262
 20
-194.5886641333256
 10
-155.2479363532578
 20
-197.2800403015927
 10
-203.4872496850387
 20
-233.6309702369339
1001
ACME_LAYERS
1000
1
  0
LWPOLYLINE
  5
3F0
330
1F
100
AcDbEntity
  8
P-0000
  6
Continuous
 62
     7
 60
     1
100
AcDbPolyline
 90
        2
 70
     0
 43
0.0
 10
-173.7730054792726
 20
62.03127418670954
 10
-144.9749997577846
 20
61.80198257726974
1001
ACME_LAYERS
1000
1
  0
LWPOLYLINE
  5
3F1
330
1F
100
AcDbEntity
  8
P-0000
  6
STRICHPUNKT
 62
     3
 60
     1
100
AcDbPolyline
 90
        2
 70
     0
 43
0.0
 10
-126.1920393990044
 20
-82.69801742274465
 10
-126.35562491967
 20
-84.69801742274464
1001
ACME_LAYERS
1000
1
  0
LWPOLYLINE
  5
3F2
330
1F
100
AcDbEntity
  8
P-0000
  6
Continuous
 62
     7
 60
     1
100
AcDbPolyline
 90
        3
 70
     0
 43
0.0
 10
-2.857354180843259
 20
93.30198257724902
 10
-12.85735418084326
 20
93.30198257724939
 10
-12.85735418084326
 20
80.80198257726264
1001
ACME_LAYERS
1000
1
  0
LWPOLYLINE
  5
3F3
330
1F
100
AcDbEntity
  8
P-0000
  6
Continuous
 62
     7
 60
     1
100
AcDbPolyline
 90
        3
 70
     0
 43
0.0
 10
-24.85735418084255
 20
57.30198257726216
 10
-17.85735418084328
 20
57.30198257726204
 10
-17.85735418084328
 20
80.80198257726264
1001
ACME_LAYERS
1000
1
  0
LWPOLYLINE
  5
3F4
330
1F
100
AcDbEntity
  8
P-0000
  6
Continuous
 62
     7
 60
     1
100
AcDbPolyline
 90
        2
 70
     0
 43
0.0
 10
-12.85735418084326
 20
80.80198257726264
 10
-12.85735418084326
 20
85.30198257724912
1001
ACME_LAYERS
1000
1
  0
LWPOLYLINE
  5
3F5
330
1F
100
AcDbEntity
  8
P-0000
  6
Continuous
 62
     7
 60
     1
100
AcDbPolyline
 90
        6
 70
     0
 43
0.0
 10
-123.8573541808425
 20
93.30198257724902
 10
-143.7966432095912
 20
93.30198257725619
 10
-162.8573541808433
 20
93.30198257725717
 10
-162.8573541808396
 20
60.80198257726319
 10
-24.85735418084255
 20
60.80198257726319
 10
-24.85735418084255
 20
57.30198257726216
1001
ACME_LAYERS
1000
1
  0
LWPOLYLINE
  5
3F6
330
1F
100
AcDbEntity
  8
P-0000
  6
Continuous
 62
     7
 60
     1
100
AcDbPolyline
 90
        3
 70
     0
 43
0.0
 10
-24.85735418084255
 20
-60.69801742273606
 10
-17.85735418084328
 20
-60.69801742273765
 10
-17.85735418084328
 20
-84.19801742273824
1001
ACME_LAYERS
1000
1
  0
LWPOLYLINE
  5
3F7
330
1F
100
AcDbEntity
  8
P-0000
  6
Continuous
 62
     7
 60
     1
100
AcDbPolyline
 90
        5
 70
     0
 43
0.0
 10
-12.85735418084326
 20
-103.6980174227249
 10
-123.8573541808425
 20
-103.6980174227249
 10
-123.8573541808425
 20
-111.6980174227248
 10
-162.8573541808396
 20
-111.6980174227248
 10
-162.8573541808396
 20
-79.19801742273515
1001
ACME_LAYERS
1000
1
  0
LWPOLYLINE
  5
3F8
330
1F
100
AcDbEntity
  8
P-0000
  6
Continuous
 62
     7
 60
     1
100
AcDbPolyline
 90
        6
 70
     0
 43
0.0
 10
-140.8573541808433
 20
-79.19801742273705
 10
-140.8573541808437
 20
-75.19801742273705
 10
-115.8573541808399
 20
-75.19801742273705
 10
-115.85735418084
 20
-66.69801742273605
 10
-24.85735418084255
 20
-66.69801742273605
 10
-24.85735418084255
 20
-60.69801742273606
1001
ACME_LAYERS
1000
1
  0
LWPOLYLINE
  5
3F9
330
1F
100
AcDbEntity
  8
P-0000
  6
STRICHLINIE
 62
     2
 60
     1
100
AcDbPolyline
 90
        2
 70
     0
 43
0.0
 10
-24.85735418084255
 20
50.30198257726216
 10
-17.85735418084328
 20
50.30198257726216
1001
ACME_LAYERS
1000
1
  0
LWPOLYLINE
  5
3FA
330
1F
100
AcDbEntity
  8
P-0000
  6
STRICHLINIE
 62
     2
 60
     1
100
AcDbPolyline
 90
        2
 70
     0
 43
0.0
 10
-17.85735418084328
 20
57.30198257726204
 10
-24.85735418084255
 20
57.30198257726216
1001
ACME_LAYERS
1000
1
  0
DIMENSION
  5
3FD
330
1F
100
AcDbEntity
  8
P-0000
  6
Continuous
100
AcDbDimension
  2
*D2
 10
25.35616766362702
 20
93.30198257725037
 30
0.0
 11
9.825108870340955
 21
0.257423442885286
 31
0.0
 70
   160
  1
<>
 71
     5
 42
204.9999999999752
  3
661N88102_001_0082239964
100
AcDbAlignedDimension
 13
98.57259147868559
 23
-111.6980174227248
 33
0.0
 14
98.57259147868571
 24
93.30198257725035
 34
0.0
 50
270.0
100
AcDbRotatedDimension
1001
ACME_LAYERS
1000
1
1001
ACAD
1000
DSTYLE
1002
{
1070
    41
1040
7.0
1070
   140
1040
10.0
1070
   279
1070
     2
1070
   288
1070
     1
1002
}
  0
DIMENSION
  5
401
330
1F
100
AcDbEntity
  8
P-0000
  6
Continuous
100
AcDbDimension
  2
*D8
 10
149.5725914786745
 20
151.3935132655747
 30
0.0
 11
203.7208276250485
 21
166.7870031231787
 31
0.0
 70
   160
  1
%%c<>{}{\H0.60x;\C3;\S+0.3^ ;}
 71
     5
 42
103.0
  3
661N88102_001_0082239964
100
AcDbAlignedDimension
 13
252.5725914786745
 23
209.7319282367791
 33
0.0
 14
149.5725914786745
 24
216.7319282367784
 34
0.0
100
AcDbRotatedDimension
1001
ACME_LAYERS
1000
1
1001
ACAD
1000
DSTYLE
1002
{
1070
    41
1040
7.0
1070
   140
1040
10.0
1070
   279
1070
     2
1070
   288
1070
     1
1002
}
  0
DIMENSION
  5
404
330
1F
100
AcDbEntity
  8
P-0000
  6
Continuous
100
AcDbDimension
  2
*D11
 10
76.32364142732149
 20
307.7319282367758
 30
0.0
 11
59.12449681226007
 21
328.7098719722421
 31
0.0
 70
   160
  1
<>
 71
     5
 42
47.00000000002018
  3
661N88102_001_0082239964
100
AcDbAlignedDimension
 13
140.0725914786741
 23
354.7319282367959
 33
0.0
 14
135.0725914786735
 24
307.7319282367757
 34
0.0
 50
270.0
100
AcDbRotatedDimension
1001
ACME_LAYERS
1000
1
1001
ACAD
1000
DSTYLE
1002
{
1070
    41
1040
7.0
1070
   140
1040
10.0
1070
   279
1070
     2
1070
   288
1070
     1
1002
}
  0
DIMENSION
  5
405
330
1F
100
AcDbEntity
  8
P-0000
  6
Continuous
100
AcDbDimension
  2
*D12
 10
25.22476789720122
 20
216.7319282367784
 30
0.0
 11
11.92506266465034
 21
291.3343381262225
 31
0.0
 70
   160
  1
<>
 71
     5
 42
137.9999999999971
  3
661N88102_001_0082239964
100
AcDbAlignedDimension
 13
117.0725914786727
 23
354.7319282367755
 33
0.0
 14
149.5725914786745
 24
216.7319282367784
 34
0.0
 50
270.0
100
AcDbRotatedDimension
1001
ACME_LAYERS
1000
1
1001
ACAD
1000
DSTYLE
1002
{
1070
    41
1040
7.0
1070
   140
1040
10.0
1070
   279
1070
     2
1070
   288
1070
     1
1002
}
  0
DIMENSION
  5
406
330
1F
100
AcDbEntity
  8
P-0000
  6
Continuous
100
AcDbDimension
  2
*D13
 10
-13.08720965497599
 20
204.7319282367792
 30
0.0
 11
-29.37402436061666
 21
285.0370007828788
 31
0.0
 70
   160
  1
<>
 71
     5
 42
149.9999999999963
  3
661N88102_001_0082239964
100
AcDbAlignedDimension
 13
117.0725914786727
 23
354.7319282367755
 33
0.0
 14
126.0725914786723
 24
204.7319282367791
 34
0.0
 50
270.0
100
AcDbRotatedDimension
1001
ACME_LAYERS
1000
1
1001
ACAD
1000
DSTYLE
1002
{
1070
    41
1040
7.0
1070
   140
1040
10.0
1070
   279
1070
     2
1070
   288
1070
     1
1002
}
  0
DIMENSION
  5
407
330
1F
100
AcDbEntity
  8
P-0000
  6
Continuous
100
AcDbDimension
  2
*D14
 10
336.4504749125739
 20
204.731928236779
 30
0.0
 11
321.3182305150358
 21
265.4452860297119
 31
0.0
 70
   160
  1
110
 71
     5
 42
110.9999999999992
  3
661N88102_001_0082239964
100
AcDbAlignedDimension
 13
303.5725914786596
 23
315.7319282367784
 33
0.0
 14
303.57259147866
 24
204.7319282367791
 34
0.0
 50
270.0
100
AcDbRotatedDimension
1001
ACME_LAYERS
1000
1
1001
ACAD
1000
DSTYLE
1002
{
1070
    41
1040
7.0
1070
   140
1040
10.0
1070
   279
1070
     2
1070
   288
1070
     1
1002
}
  0
DIMENSION
  5
408
330
1F
100
AcDbEntity
  8
P-0000
  6
Continuous
100
AcDbDimension
  2
*D15
 10
71.48412519287396
 20
-59.1980174227373
 30
0.0
 11
56.72407161472893
 21
-8.838731210562853
 31
0.0
 70
   160
  1
<>
 71
     5
 42
100.0
  3
661N88102_001_0082239964
100
AcDbAlignedDimension
 13
98.5725914786856
 23
40.80198257726268
 33
0.0
 14
106.5725914786856
 24
-59.19801742273731
 34
0.0
 50
270.0
100
AcDbRotatedDimension
1001
ACME_LAYERS
1000
1
1001
ACAD
1000
DSTYLE
1002
{
1070
    41
1040
7.0
1070
   140
1040
10.0
1070
   279
1070
     2
1070
   288
1070
     1
1002
}
  0
DIMENSION
  5
40B
330
1F
100
AcDbEntity
  8
P-0000
  6
Continuous
100
AcDbDimension
  2
*D18
 10
303.5725914786607
 20
-178.8787322537644
 30
0.0
 11
202.3208562974328
 21
-159.9748210332523
 31
0.0
 70
   160
  1
<>
 71
     5
 42
204.9999999999751
  3
661N88102_001_0082239964
100
AcDbAlignedDimension
 13
98.57259147868559
 23
-111.6980174227248
 33
0.0
 14
303.5725914786607
 24
-111.6980174227248
 34
0.0
100
AcDbRotatedDimension
1001
ACME_LAYERS
1000
1
1001
ACAD
1000
DSTYLE
1002
{
1070
    41
1040
7.0
1070
   140
1040
10.0
1070
   279
1070
     2
1070
   288
1070
     1
1002
}
  0
DIMENSION
  5
40D
330
1F
100
AcDbEntity
  8
P-0000
  6
Continuous
100
AcDbDimension
  2
*D20
 10
770.9786623155435
 20
132.2299355978657
 30
0.0
 11
719.4786623155435
 21
149.3545267565993
 31
0.0
 70
   160
  1
%%c<>{}{\H0.60x;\C3;\S+0.3^ ;}
 71
     5
 42
103.0
  3
661N88102_001_0082239964
100
AcDbAlignedDimension
 13
667.9786623155434
 23
181.9413318001685
 33
0.0
 14
770.9786623155435
 24
181.9413318001685
 34
0.0
100
AcDbRotatedDimension
1001
ACME_LAYERS
1000
1
1001
ACAD
1000
DSTYLE
1002
{
1070
    41
1040
7.0
1070
   140
1040
10.0
1070
   279
1070
     2
1070
   288
1070
     1
1002
}
  0
DIMENSION
  5
40E
330
1F
100
AcDbEntity
  8
P-0000
  6
Continuous
100
AcDbDimension
  2
*D21
 10
551.7242395463845
 20
286.9413318001686
 30
0.0
 11
535.3243379230153
 21
232.2155910732899
 31
0.0
 70
   160
  1
<>
 71
     5
 42
105.0
  3
661N88102_001_0082239964
100
AcDbAlignedDimension
 13
624.9786623155544
 23
181.9413318001685
 33
0.0
 14
629.4786623155435
 24
286.9413318001686
 34
0.0
 50
270.0
100
AcDbRotatedDimension
1001
ACME_LAYERS
1000
1
1001
ACAD
1000
DSTYLE
1002
{
1070
   140
1040
10.0
1070
    41
1040
7.0
1070
   279
1070
     2
1070
   288
1070
     1
1002
}
  0
DIMENSION
  5
40F
330
1F
100
AcDbEntity
  8
P-0000
  6
Continuous
100
AcDbDimension
  2
*D22
 10
594.7739829062861
 20
181.9413318001685
 30
0.0
 11
580.424067387281
 21
230.1664243868322
 31
0.0
 70
   160
  1
<>
 71
     5
 42
90.00000000000003
  3
661N88102_001_0082239964
100
AcDbAlignedDimension
 13
616.9786623155544
 23
271.9413318001686
 33
0.0
 14
616.9786623155544
 24
181.9413318001685
 34
0.0
 50
270.0
100
AcDbRotatedDimension
1001
ACME_LAYERS
1000
1
1001
ACAD
1000
DSTYLE
1002
{
1070
   140
1040
10.0
1070
    41
1040
7.0
1070
   279
1070
     2
1070
   288
1070
     1
1002
}
  0
DIMENSION
  5
412
330
1F
100
AcDbEntity
  8
P-0000
  6
Continuous
100
AcDbDimension
  2
*D25
 10
821.9786623155307
 20
-201.7842086245105
 30
0.0
 11
710.570937612947
 21
-181.9755994612724
 31
0.0
 70
   160
  1
<>
 71
     5
 42
204.9999999999747
  3
661N88102_001_0082239964
100
AcDbAlignedDimension
 13
616.9786623155561
 23
-111.6980174227243
 33
0.0
 14
821.9786623155307
 24
-111.6980174227243
 34
0.0
100
AcDbRotatedDimension
1001
ACME_LAYERS
1000
1
1001
ACAD
1000
DSTYLE
1002
{
1070
    41
1040
7.0
1070
   140
1040
10.0
1070
   279
1070
     2
1070
   288
1070
     1
1002
}
  0
DIMENSION
  5
413
330
1F
100
AcDbEntity
  8
P-0000
  6
Continuous
100
AcDbDimension
  2
*D26
 10
809.4786623155435
 20
-160.8008770345409
 30
0.0
 11
716.0375704216989
 21
-144.407545682066
 31
0.0
 70
   160
  1
<>{}{\H0.60x;\C3;\S^ -0.5;}
 71
     5
 42
180.0
  3
661N88102_001_0082239964
100
AcDbAlignedDimension
 13
629.4786623155435
 23
-99.19801742273705
 33
0.0
 14
809.4786623155435
 24
-99.19801742273705
 34
0.0
100
AcDbRotatedDimension
1001
ACME_LAYERS
1000
1
1001
ACAD
1000
DSTYLE
1002
{
1070
    41
1040
7.0
1070
   140
1040
10.0
1070
   279
1070
     2
1070
   288
1070
     1
1002
}
  0
DIMENSION
  5
414
330
1F
100
AcDbEntity
  8
P-0000
  6
Continuous
100
AcDbDimension
  2
*D27
 10
564.6503702118555
 20
-99.19801742273705
 30
0.0
 11
545.8885862835704
 21
-7.113388385329014
 31
0.0
 70
   160
  1
<>{}{\H0.60x;\C3;\S^ -0.5;}
 71
     5
 42
180.0000000000002
  3
661N88102_001_0082239964
100
AcDbAlignedDimension
 13
629.4786623155435
 23
80.80198257726317
 33
0.0
 14
629.4786623155435
 24
-99.19801742273705
 34
0.0
 50
270.0
100
AcDbRotatedDimension
1001
ACME_LAYERS
1000
1
1001
ACAD
1000
DSTYLE
1002
{
1070
    41
1040
7.0
1070
   140
1040
10.0
1070
   279
1070
     2
1070
   288
1070
     1
1002
}
  0
DIMENSION
  5
416
330
1F
100
AcDbEntity
  8
P-0000
  6
Continuous
100
AcDbDimension
  2
*D29
 10
521.2887338485166
 20
93.30198257725035
 30
0.0
 11
504.8888322251468
 21
-5.747277261024005
 31
0.0
 70
   160
  1
<>
 71
     5
 42
204.9999999999747
  3
661N88102_001_0082239964
100
AcDbAlignedDimension
 13
616.9786623155561
 23
-111.6980174227243
 33
0.0
 14
616.9786623155562
 24
93.30198257725033
 34
0.0
 50
270.0
100
AcDbRotatedDimension
1001
ACME_LAYERS
1000
1
1001
ACAD
1000
DSTYLE
1002
{
1070
    41
1040
7.0
1070
   140
1040
10.0
1070
   279
1070
     2
1070
   288
1070
     1
1002
}
  0
DIMENSION
  5
417
330
1F
100
AcDbEntity
  8
P-0000
  6
Continuous
100
AcDbDimension
  2
*D30
 10
158.3918493538072
 20
37.14153643431523
 30
0.0
 11
181.3596318740626
 21
18.1091402145413
 31
0.0
 70
   163
  1
<>
 71
     5
 42
125.9999999999998
  3
661N88102_001_0082239964
100
AcDbDiametricDimension
 15
243.7533336035393
 25
-55.53757127978993
 35
0.0
 40
0.0
1001
ACAD
1000
DSTYLE
1002
{
1070
   279
1070
     2
1070
   288
1070
     1
1002
}
1001
ACME_LAYERS
1000
1
  0
DIMENSION
  5
418
330
1F
100
AcDbEntity
  8
P-0000
  6
Continuous
100
AcDbDimension
  2
*D31
 10
667.1295059992293
 20
-44.24892087714574
 30
0.0
 11
735.854118749456
 21
1.766333922655121
 31
0.0
 70
   163
  1
<>
 71
     5
 42
126.0000000000024
  3
661N88102_001_0082239964
100
AcDbDiametricDimension
 15
771.8278186318577
 25
25.85288603167095
 35
0.0
 40
0.0
1001
ACME_LAYERS
1000
1
1001
ACAD
1000
DSTYLE
1002
{
1070
    41
1040
7.0
1070
   140
1040
10.0
1070
   279
1070
     2
1070
   288
1070
     1
1002
}
  0
HATCH
  5
41F
330
1F
100
AcDbEntity
  8
P-0000
  6
Continuous
 62
     3
100
AcDbHatch
 10
0.0
 20
0.0
 30
0.0
210
0.0
220
0.0
230
1.0
  2
_U
 70
     0
 71
     0
 91
        1
 92
        1
 93
        4
 72
     1
 10
260.5725914786727
 20
216.7319282367784
 11
260.5725914786727
 21
209.7319282367791
 72
     1
 10
260.5725914786727
 20
209.7319282367791
 11
252.5725914786745
 21
209.7319282367791
 72
     1
 10
252.5725914786745
 20
209.7319282367791
 11
252.5725914786745
 21
216.7319282367784
 72
     1
 10
252.5725914786745
 20
216.7319282367784
 11
260.5725914786727
 21
216.7319282367784
 97
        0
 75
     0
 76
     0
 52
44.99999999999999
 41
5.0
 77
     0
 78
     1
 53
44.99999999999999
 43
302.46845613405
 44
-50.45176725894291
 45
-3.535533905932736
 46
3.535533905932738
 79
     0
 98
        1
 10
302.46845613405
 20
-50.45176725894291
1001
ACME_LAYERS
1000
1
  0
HATCH
  5
420
330
1F
100
AcDbEntity
  8
P-0000
  6
Continuous
 62
     3
100
AcDbHatch
 10
0.0
 20
0.0
 30
0.0
210
0.0
220
0.0
230
1.0
  2
_U
 70
     0
 71
     0
 91
        1
 92
        1
 93
        4
 72
     1
 10
260.5725914786727
 20
216.7319282367784
 11
260.5725914786727
 21
209.7319282367791
 72
     1
 10
260.5725914786727
 20
209.7319282367791
 11
252.5725914786745
 21
209.7319282367791
 72
     1
 10
252.5725914786745
 20
209.7319282367791
 11
252.5725914786745
 21
216.7319282367784
 72
     1
 10
252.5725914786745
 20
216.7319282367784
 11
260.5725914786727
 21
216.7319282367784
 97
        0
 75
     0
 76
     0
 52
-45.00000000000001
 41
5.0
 77
     0
 78
     1
 53
315.0
 43
302.46845613405
 44
-50.45176725894291
 45
3.535533905932738
 46
3.535533905932736
 79
     0
 98
        1
 10
302.46845613405
 20
-50.45176725894291
1001
ACME_LAYERS
1000
1
  0
HATCH
  5
423
330
1F
100
AcDbEntity
  8
P-0000
  6
Continuous
 62
     3
100
AcDbHatch
 10
0.0
 20
0.0
 30
0.0
210
0.0
220
0.0
230
1.0
  2
_U
 70
     0
 71
     0
 91
        1
 92
        1
 93
       14
 72
     1
 10
149.5725914786745
 20
216.7319282367784
 11
149.5725914786729
 21
209.7319282367791
 72
     1
 10
149.5725914786729
 20
209.7319282367791
 11
126.0725914786723
 21
209.7319282367791
 72
     1
 10
126.0725914786723
 20
209.7319282367791
 11
126.0725914786723
 21
204.7319282367791
 72
     1
 10
126.0725914786723
 20
204.7319282367791
 11
106.5725914786856
 21
204.7319282367791
 72
     1
 10
106.5725914786856
 20
204.7319282367791
 11
106.5725914786856
 21
315.7319282367784
 72
     1
 10
106.5725914786856
 20
315.7319282367784
 11
98.57259147868575
 21
315.7319282367784
 72
     1
 10
98.57259147868575
 20
315.7319282367784
 11
98.57259147868576
 21
354.7319282367754
 72
     1
 10
98.57259147868575
 20
354.7319282367755
 11
131.0725914786754
 21
354.7319282367755
 72
     1
 10
131.0725914786754
 20
354.7319282367755
 11
131.0725914786735
 21
332.7319282367792
 72
     1
 10
131.0725914786735
 20
332.7319282367791
 11
135.0725914786735
 21
332.7319282367795
 72
     1
 10
135.0725914786735
 20
332.7319282367795
 11
135.0725914786735
 21
307.7319282367757
 72
     1
 10
135.0725914786735
 20
307.7319282367757
 11
143.5725914786745
 21
307.7319282367759
 72
     1
 10
143.5725914786745
 20
307.7319282367759
 11
143.5725914786745
 21
216.7319282367784
 72
     1
 10
143.5725914786745
 20
216.7319282367784
 11
149.5725914786745
 21
216.7319282367784
 97
        0
 75
     0
 76
     0
 52
44.99999999999999
 41
5.0
 77
     0
 78
     1
 53
44.99999999999999
 43
302.46845613405
 44
-50.45176725894291
 45
-3.535533905932736
 46
3.535533905932738
 79
     0
 98
        1
 10
302.46845613405
 20
-50.45176725894291
1001
ACME_LAYERS
1000
1
  0
HATCH
  5
424
330
1F
100
AcDbEntity
  8
P-0000
  6
Continuous
 62
     3
100
AcDbHatch
 10
0.0
 20
0.0
 30
0.0
210
0.0
220
0.0
230
1.0
  2
_U
 70
     0
 71
     0
 91
        1
 92
        1
 93
       14
 72
     1
 10
149.5725914786745
 20
216.7319282367784
 11
149.5725914786729
 21
209.7319282367791
 72
     1
 10
149.5725914786729
 20
209.7319282367791
 11
126.0725914786723
 21
209.7319282367791
 72
     1
 10
126.0725914786723
 20
209.7319282367791
 11
126.0725914786723
 21
204.7319282367791
 72
     1
 10
126.0725914786723
 20
204.7319282367791
 11
106.5725914786856
 21
204.7319282367791
 72
     1
 10
106.5725914786856
 20
204.7319282367791
 11
106.5725914786856
 21
315.7319282367784
 72
     1
 10
106.5725914786856
 20
315.7319282367784
 11
98.57259147868575
 21
315.7319282367784
 72
     1
 10
98.57259147868575
 20
315.7319282367784
 11
98.57259147868576
 21
354.7319282367754
 72
     1
 10
98.57259147868575
 20
354.7319282367755
 11
131.0725914786754
 21
354.7319282367755
 72
     1
 10
131.0725914786754
 20
354.7319282367755
 11
131.0725914786735
 21
332.7319282367792
 72
     1
 10
131.0725914786735
 20
332.7319282367791
 11
135.0725914786735
 21
332.7319282367795
 72
     1
 10
135.0725914786735
 20
332.7319282367795
 11
135.0725914786735
 21
307.7319282367757
 72
     1
 10
135.0725914786735
 20
307.7319282367757
 11
143.5725914786745
 21
307.7319282367759
 72
     1
 10
143.5725914786745
 20
307.7319282367759
 11
143.5725914786745
 21
216.7319282367784
 72
     1
 10
143.5725914786745
 20
216.7319282367784
 11
149.5725914786745
 21
216.7319282367784
 97
        0
 75
     0
 76
     0
 52
-45.00000000000001
 41
5.0
 77
     0
 78
     1
 53
315.0
 43
302.46845613405
 44
-50.45176725894291
 45
3.535533905932738
 46
3.535533905932736
 79
     0
 98
        1
 10
302.46845613405
 20
-50.45176725894291
1001
ACME_LAYERS
1000
1
  0
HATCH
  5
425
330
1F
100
AcDbEntity
  8
P-0000
  6
Continuous
 62
     3
100
AcDbHatch
 10
0.0
 20
0.0
 30
0.0
210
0.0
220
0.0
230
1.0
  2
_U
 70
     0
 71
     0
 91
        1
 92
        1
 93
        4
 72
     1
 10
260.5725914786727
 20
216.7319282367784
 11
267.5725914786728
 21
216.7319282367784
 72
     1
 10
267.5725914786728
 20
216.7319282367784
 11
267.5725914786726
 21
209.7319282367791
 72
     1
 10
267.5725914786726
 20
209.7319282367791
 11
260.5725914786727
 21
209.7319282367791
 72
     1
 10
260.5725914786727
 20
209.7319282367791
 11
260.5725914786727
 21
216.7319282367784
 97
        0
 75
     0
 76
     0
 52
44.99999999999999
 41
5.0
 77
     0
 78
     1
 53
44.99999999999999
 43
302.46845613405
 44
-50.45176725894291
 45
-3.535533905932736
 46
3.535533905932738
 79
     0
 98
        1
 10
302.46845613405
 20
-50.45176725894291
1001
ACME_LAYERS
1000
1
  0
HATCH
  5
426
330
1F
100
AcDbEntity
  8
P-0000
  6
Continuous
 62
     3
100
AcDbHatch
 10
0.0
 20
0.0
 30
0.0
210
0.0
220
0.0
230
1.0
  2
_U
 70
     0
 71
     0
 91
        1
 92
        1
 93
        4
 72
     1
 10
260.5725914786727
 20
216.7319282367784
 11
267.5725914786728
 21
216.7319282367784
 72
     1
 10
267.5725914786728
 20
216.7319282367784
 11
267.5725914786726
 21
209.7319282367791
 72
     1
 10
267.5725914786726
 20
209.7319282367791
 11
260.5725914786727
 21
209.7319282367791
 72
     1
 10
260.5725914786727
 20
209.7319282367791
 11
260.5725914786727
 21
216.7319282367784
 97
        0
 75
     0
 76
     0
 52
-45.00000000000001
 41
5.0
 77
     0
 78
     1
 53
315.0
 43
302.46845613405
 44
-50.45176725894291
 45
3.535533905932738
 46
3.535533905932736
 79
     0
 98
        1
 10
302.46845613405
 20
-50.45176725894291
1001
ACME_LAYERS
1000
1
  0
HATCH
  5
427
330
1F
100
AcDbEntity
  8
P-0000
  6
Continuous
 62
     3
100
AcDbHatch
 10
0.0
 20
0.0
 30
0.0
210
0.0
220
0.0
230
1.0
  2
_U
 70
     0
 71
     0
 91
        1
 92
        1
 93
        8
 72
     1
 10
813.978662315529
 20
181.9413318001685
 11
813.978662315529
 21
271.9413318001685
 72
     1
 10
813.978662315529
 20
271.9413318001686
 11
821.978662315529
 21
271.9413318001686
 72
     1
 10
821.978662315529
 20
271.9413318001686
 11
821.978662315529
 21
281.9413318001686
 72
     1
 10
821.978662315529
 20
281.9413318001686
 11
809.4786623155435
 21
281.9413318001686
 72
     1
 10
809.4786623155435
 20
281.9413318001686
 11
809.4786623155435
 21
286.9413318001686
 72
     1
 10
809.4786623155435
 20
286.9413318001686
 11
785.9786623155416
 21
286.9413318001686
 72
     1
 10
785.9786623155416
 20
286.9413318001686
 11
785.9786623155416
 21
181.9413318001685
 72
     1
 10
785.9786623155416
 20
181.9413318001685
 11
813.978662315529
 21
181.9413318001685
 97
        0
 75
     0
 76
     0
 52
44.99999999999999
 41
5.0
 77
     0
 78
     1
 53
44.99999999999999
 43
820.8745269709201
 44
467.9543035779277
 45
-3.535533905932736
 46
3.535533905932738
 79
     0
 98
        1
 10
820.8745269709201
 20
467.9543035779277
1001
ACME_LAYERS
1000
1
  0
HATCH
  5
428
330
1F
100
AcDbEntity
  8
P-0000
  6
Continuous
 62
     3
100
AcDbHatch
 10
0.0
 20
0.0
 30
0.0
210
0.0
220
0.0
230
1.0
  2
_U
 70
     0
 71
     0
 91
        1
 92
        1
 93
        8
 72
     1
 10
813.978662315529
 20
181.9413318001685
 11
813.978662315529
 21
271.9413318001685
 72
     1
 10
813.978662315529
 20
271.9413318001686
 11
821.978662315529
 21
271.9413318001686
 72
     1
 10
821.978662315529
 20
271.9413318001686
 11
821.978662315529
 21
281.9413318001686
 72
     1
 10
821.978662315529
 20
281.9413318001686
 11
809.4786623155435
 21
281.9413318001686
 72
     1
 10
809.4786623155435
 20
281.9413318001686
 11
809.4786623155435
 21
286.9413318001686
 72
     1
 10
809.4786623155435
 20
286.9413318001686
 11
785.9786623155416
 21
286.9413318001686
 72
     1
 10
785.9786623155416
 20
286.9413318001686
 11
785.9786623155416
 21
181.9413318001685
 72
     1
 10
785.9786623155416
 20
181.9413318001685
 11
813.978662315529
 21
181.9413318001685
 97
        0
 75
     0
 76
     0
 52
-45.00000000000001
 41
5.0
 77
     0
 78
     1
 53
315.0
 43
820.8745269709201
 44
467.9543035779277
 45
3.535533905932738
 46
3.535533905932736
 79
     0
 98
        1
 10
820.8745269709201
 20
467.9543035779277
1001
ACME_LAYERS
1000
1
  0
HATCH
  5
429
330
1F
100
AcDbEntity
  8
P-0000
  6
Continuous
 62
     3
100
AcDbHatch
 10
0.0
 20
0.0
 30
0.0
210
0.0
220
0.0
230
1.0
  2
_U
 70
     0
 71
     0
 91
        1
 92
        1
 93
        8
 72
     1
 10
667.9786623155417
 20
286.9413318001686
 11
667.9786623155436
 21
181.9413318001685
 72
     1
 10
667.9786623155434
 20
181.9413318001685
 11
624.9786623155544
 21
181.9413318001685
 72
     1
 10
624.9786623155544
 20
181.9413318001685
 11
624.9786623155544
 21
271.9413318001685
 72
     1
 10
624.9786623155544
 20
271.9413318001686
 11
616.9786623155544
 21
271.9413318001686
 72
     1
 10
616.9786623155544
 20
271.9413318001686
 11
616.9786623155544
 21
281.9413318001686
 72
     1
 10
616.9786623155544
 20
281.9413318001686
 11
629.4786623155435
 21
281.9413318001686
 72
     1
 10
629.4786623155435
 20
281.9413318001686
 11
629.4786623155435
 21
286.9413318001686
 72
     1
 10
629.4786623155435
 20
286.9413318001686
 11
667.9786623155417
 21
286.9413318001686
 97
        0
 75
     0
 76
     0
 52
44.99999999999999
 41
5.0
 77
     0
 78
     1
 53
44.99999999999999
 43
820.8745269709201
 44
467.9543035779277
 45
-3.535533905932736
 46
3.535533905932738
 79
     0
 98
        1
 10
820.8745269709201
 20
467.9543035779277
1001
ACME_LAYERS
1000
1
  0
HATCH
  5
42A
330
1F
100
AcDbEntity
  8
P-0000
  6
Continuous
 62
     3
100
AcDbHatch
 10
0.0
 20
0.0
 30
0.0
210
0.0
220
0.0
230
1.0
  2
_U
 70
     0
 71
     0
 91
        1
 92
        1
 93
        8
 72
     1
 10
667.9786623155417
 20
286.9413318001686
 11
667.9786623155436
 21
181.9413318001685
 72
     1
 10
667.9786623155434
 20
181.9413318001685
 11
624.9786623155544
 21
181.9413318001685
 72
     1
 10
624.9786623155544
 20
181.9413318001685
 11
624.9786623155544
 21
271.9413318001685
 72
     1
 10
624.9786623155544
 20
271.9413318001686
 11
616.9786623155544
 21
271.9413318001686
 72
     1
 10
616.9786623155544
 20
271.9413318001686
 11
616.9786623155544
 21
281.9413318001686
 72
     1
 10
616.9786623155544
 20
281.9413318001686
 11
629.4786623155435
 21
281.9413318001686
 72
     1
 10
629.4786623155435
 20
281.9413318001686
 11
629.4786623155435
 21
286.9413318001686
 72
     1
 10
629.4786623155435
 20
286.9413318001686
 11
667.9786623155417
 21
286.9413318001686
 97
        0
 75
     0
 76
     0
 52
-45.00000000000001
 41
5.0
 77
     0
 78
     1
 53
315.0
 43
820.8745269709201
 44
467.9543035779277
 45
3.535533905932738
 46
3.535533905932736
 79
     0
 98
        1
 10
820.8745269709201
 20
467.9543035779277
1001
ACME_LAYERS
1000
1
  0
HATCH
  5
42B
330
1F
100
AcDbEntity
  8
P-0000
  6
Continuous
 62
     3
100
AcDbHatch
 10
0.0
 20
0.0
 30
0.0
210
0.0
220
0.0
230
1.0
  2
_U
 70
     0
 71
     0
 91
        1
 92
        1
 93
        4
 72
     1
 10
778.9786623155416
 20
181.9413318001685
 11
785.9786623155416
 21
181.9413318001685
 72
     1
 10
785.9786623155416
 20
181.9413318001685
 11
785.9786623155416
 21
286.9413318001686
 72
     1
 10
785.9786623155416
 20
286.9413318001686
 11
778.9786623155416
 21
286.9413318001686
 72
     1
 10
778.9786623155416
 20
286.9413318001686
 11
778.9786623155416
 21
181.9413318001685
 97
        0
 75
     0
 76
     0
 52
44.99999999999999
 41
5.0
 77
     0
 78
     1
 53
44.99999999999999
 43
820.8745269709201
 44
467.9543035779277
 45
-3.535533905932736
 46
3.535533905932738
 79
     0
 98
        1
 10
820.8745269709201
 20
467.9543035779277
1001
ACME_LAYERS
1000
1
  0
HATCH
  5
42C
330
1F
100
AcDbEntity
  8
P-0000
  6
Continuous
 62
     3
100
AcDbHatch
 10
0.0
 20
0.0
 30
0.0
210
0.0
220
0.0
230
1.0
  2
_U
 70
     0
 71
     0
 91
        1
 92
        1
 93
        4
 72
     1
 10
778.9786623155416
 20
181.9413318001685
 11
785.9786623155416
 21
181.9413318001685
 72
     1
 10
785.9786623155416
 20
181.9413318001685
 11
785.9786623155416
 21
286.9413318001686
 72
     1
 10
785.9786623155416
 20
286.9413318001686
 11
778.9786623155416
 21
286.9413318001686
 72
     1
 10
778.9786623155416
 20
286.9413318001686
 11
778.9786623155416
 21
181.9413318001685
 97
        0
 75
     0
 76
     0
 52
-45.00000000000001
 41
5.0
 77
     0
 78
     1
 53
315.0
 43
820.8745269709201
 44
467.9543035779277
 45
3.535533905932738
 46
3.535533905932736
 79
     0
 98
        1
 10
820.8745269709201
 20
467.9543035779277
1001
ACME_LAYERS
1000
1
  0
HATCH
  5
42D
330
1F
100
AcDbEntity
  8
P-0000
  6
Continuous
 62
     3
100
AcDbHatch
 10
0.0
 20
0.0
 30
0.0
210
0.0
220
0.0
230
1.0
  2
_U
 70
     0
 71
     0
 91
        1
 92
        1
 93
        4
 72
     1
 10
778.9786623155416
 20
286.9413318001686
 11
778.9786623155416
 21
181.9413318001685
 72
     1
 10
778.9786623155416
 20
181.9413318001685
 11
770.9786623155435
 21
181.9413318001685
 72
     1
 10
770.9786623155435
 20
181.9413318001685
 11
770.9786623155435
 21
286.9413318001686
 72
     1
 10
770.9786623155435
 20
286.9413318001686
 11
778.9786623155416
 21
286.9413318001686
 97
        0
 75
     0
 76
     0
 52
44.99999999999999
 41
5.0
 77
     0
 78
     1
 53
44.99999999999999
 43
820.8745269709201
 44
467.9543035779277
 45
-3.535533905932736
 46
3.535533905932738
 79
     0
 98
        1
 10
820.8745269709201
 20
467.9543035779277
1001
ACME_LAYERS
1000
1
  0
HATCH
  5
42E
330
1F
100
AcDbEntity
  8
P-0000
  6
Continuous
 62
     3
100
AcDbHatch
 10
0.0
 20
0.0
 30
0.0
210
0.0
220
0.0
230
1.0
  2
_U
 70
     0
 71
     0
 91
        1
 92
        1
 93
        4
 72
     1
 10
778.9786623155416
 20
286.9413318001686
 11
778.9786623155416
 21
181.9413318001685
 72
     1
 10
778.9786623155416
 20
181.9413318001685
 11
770.9786623155435
 21
181.9413318001685
 72
     1
 10
770.9786623155435
 20
181.9413318001685
 11
770.9786623155435
 21
286.9413318001686
 72
     1
 10
770.9786623155435
 20
286.9413318001686
 11
778.9786623155416
 21
286.9413318001686
 97
        0
 75
     0
 76
     0
 52
-45.00000000000001
 41
5.0
 77
     0
 78
     1
 53
315.0
 43
820.8745269709201
 44
467.9543035779277
 45
3.535533905932738
 46
3.535533905932736
 79
     0
 98
        1
 10
820.8745269709201
 20
467.9543035779277
1001
ACME_LAYERS
1000
1
  0
LINE
  5
A2B
330
1F
100
AcDbEntity
  8
P-0000
  6
Continuous
 62
     7
100
AcDbLine
 10
258.5725914786709
 20
307.7319282367758
 30
0.0
 11
258.5725914786709
 21
216.7319282367783
 31
0.0
1001
ACME_LAYERS
1000
1
  0
LINE
  5
A2C
330
1F
100
AcDbEntity
  8
P-0000
  6
Continuous
 62
     7
100
AcDbLine
 10
252.5725914786709
 20
216.7319282367783
 30
0.0
 11
258.5725914786709
 21
216.7319282367783
 31
0.0
1001
ACME_LAYERS
1000
1
  0
LINE
  5
A2D
330
1F
100
AcDbEntity
  8
P-0000
  6
Continuous
 62
     7
100
AcDbLine
 10
271.0725914786719
 20
332.7319282367791
 30
0.0
 11
271.0725914786701
 21
354.7319282367754
 31
0.0
1001
ACME_LAYERS
1000
1
  0
LINE
  5
A2E
330
1F
100
AcDbEntity
  8
P-0000
  6
Continuous
 62
     7
100
AcDbLine
 10
271.0725914786719
 20
332.7319282367791
 30
0.0
 11
201.0725914786739
 21
332.7319282367857
 31
0.0
1001
ACME_LAYERS
1000
1
  0
LINE
  5
A2F
330
1F
100
AcDbEntity
  8
P-0000
  6
Continuous
 62
     7
100
AcDbLine
 10
267.0725914786719
 20
332.7319282367795
 30
0.0
 11
267.0725914786719
 21
307.7319282367757
 31
0.0
1001
ACME_LAYERS
1000
1
  0
LINE
  5
A30
330
1F
100
AcDbEntity
  8
P-0000
  6
Continuous
 62
     7
100
AcDbLine
 10
267.0725914786719
 20
307.7319282367757
 30
0.0
 11
258.5725914786709
 21
307.7319282367758
 31
0.0
1001
ACME_LAYERS
1000
1
  0
LINE
  5
A31
330
1F
100
AcDbEntity
  8
P-0000
  6
Continuous
 62
     7
100
AcDbLine
 10
252.5725914786725
 20
209.7319282367791
 30
0.0
 11
276.0725914786732
 21
209.7319282367791
 31
0.0
1001
ACME_LAYERS
1000
1
  0
LINE
  5
A32
330
1F
100
AcDbEntity
  8
P-0000
  6
Continuous
 62
     7
100
AcDbLine
 10
276.0725914786732
 20
209.7319282367791
 30
0.0
 11
276.0725914786731
 21
204.7319282367791
 31
0.0
1001
ACME_LAYERS
1000
1
  0
LINE
  5
A33
330
1F
100
AcDbEntity
  8
P-0000
  6
Continuous
 62
     7
100
AcDbLine
 10
252.5725914786709
 20
216.7319282367783
 30
0.0
 11
252.5725914786725
 21
209.7319282367791
 31
0.0
1001
ACME_LAYERS
1000
1
  0
LINE
  5
A34
330
1F
100
AcDbEntity
  8
P-0000
  6
Continuous
 62
     7
100
AcDbLine
 10
258.5725914786709
 20
307.7319282367758
 30
0.0
 11
201.0725914786737
 21
307.7319282367771
 31
0.0
1001
ACME_LAYERS
1000
1
  0
HATCH
  5
A46
330
1F
100
AcDbEntity
  8
P-0000
  6
Continuous
 62
     3
100
AcDbHatch
 10
0.0
 20
0.0
 30
0.0
210
0.0
220
0.0
230
1.0
  2
_U
 70
     0
 71
     0
 91
        1
 92
        1
 93
       16
 72
     1
 10
267.5725914786726
 20
209.7319282367791
 11
275.5725914786709
 21
209.7319282367791
 72
     1
 10
275.5725914786709
 20
209.7319282367791
 11
276.0725914786732
 21
209.7319282367791
 72
     1
 10
276.0725914786732
 20
209.7319282367791
 11
291.0725914786732
 21
209.7319282367791
 72
     1
 10
291.0725914786732
 20
209.7319282367791
 11
291.0725914786732
 21
204.7319282367791
 72
     1
 10
291.0725914786732
 20
204.7319282367791
 11
295.5725914786597
 21
204.7319282367791
 72
     1
 10
295.5725914786597
 20
204.7319282367791
 11
295.5725914786597
 21
315.7319282367784
 72
     1
 10
295.5725914786597
 20
315.7319282367784
 11
303.5725914786596
 21
315.7319282367784
 72
     1
 10
303.5725914786596
 20
315.7319282367784
 11
303.5725914786678
 21
354.7319282367791
 72
     1
 10
303.5725914786678
 20
354.7319282367791
 11
271.0725914786701
 21
354.7319282367754
 72
     1
 10
271.0725914786701
 20
354.7319282367754
 11
271.0725914786719
 21
332.7319282367791
 72
     1
 10
271.0725914786719
 20
332.7319282367791
 11
267.0725914786719
 21
332.7319282367795
 72
     1
 10
267.0725914786719
 20
332.7319282367795
 11
267.0725914786719
 21
307.7319282367757
 72
     1
 10
267.0725914786719
 20
307.7319282367757
 11
258.5725914786709
 21
307.7319282367758
 72
     1
 10
258.5725914786709
 20
307.7319282367758
 11
258.5725914786709
 21
216.7319282367783
 72
     1
 10
258.5725914786709
 20
216.7319282367783
 11
267.5725914786728
 21
216.7319282367784
 72
     1
 10
267.5725914786728
 20
216.7319282367784
 11
267.5725914786726
 21
209.7319282367791
 97
        0
 75
     0
 76
     0
 52
-45.00000000000001
 41
5.0
 77
     0
 78
     1
 53
315.0
 43
0.0
 44
0.0
 45
3.535533905932738
 46
3.535533905932736
 79
     0
 98
        1
 10
0.0
 20
0.0
1001
GENIUS_GENOBJ-N-HTC_13
1002
{
1000
OWNER
1000
GEN
1002
}
1001
GENIUS_GENODEF_13
1002
{
1000
HIER
1070
     0
1002
}
1002
{
1000
MANEDIT
1070
     0
1002
}
1002
{
1000
NOSEL
1070
     0
1002
}
1002
{
1000
BEHIND
1070
     0
1002
}
1002
{
1000
OTHER
1070
     0
1002
}
1002
{
1000
REACTOR
1002
}
1001
GENIUS_GENHATCH_13
1002
{
1000
DATA
1040
45.0
1042
2.299999999999999
1000
_U
1070
     1
1011
283.7694185996102
1021
256.3347132491726
1031
0.0
1002
}
1002
{
1000
UCS
1010
0.0
1020
0.0
1030
0.0
1010
1.0
1020
0.0
1030
0.0
1010
0.0
1020
1.0
1030
0.0
1002
}
1001
ACAD
1010
0.0
1020
0.0
1030
0.0
  0
HATCH
  5
A54
330
1F
100
AcDbEntity
  8
P-0000
  6
Continuous
 62
     3
100
AcDbHatch
 10
0.0
 20
0.0
 30
0.0
210
0.0
220
0.0
230
1.0
  2
_U
 70
     0
 71
     0
 91
        1
 92
        1
 93
       16
 72
     1
 10
267.5725914786726
 20
209.7319282367791
 11
275.5725914786709
 21
209.7319282367791
 72
     1
 10
275.5725914786709
 20
209.7319282367791
 11
276.0725914786732
 21
209.7319282367791
 72
     1
 10
276.0725914786732
 20
209.7319282367791
 11
291.0725914786732
 21
209.7319282367791
 72
     1
 10
291.0725914786732
 20
209.7319282367791
 11
291.0725914786732
 21
204.7319282367791
 72
     1
 10
291.0725914786732
 20
204.7319282367791
 11
295.5725914786597
 21
204.7319282367791
 72
     1
 10
295.5725914786597
 20
204.7319282367791
 11
295.5725914786597
 21
315.7319282367784
 72
     1
 10
295.5725914786597
 20
315.7319282367784
 11
303.5725914786596
 21
315.7319282367784
 72
     1
 10
303.5725914786596
 20
315.7319282367784
 11
303.5725914786678
 21
354.7319282367791
 72
     1
 10
303.5725914786678
 20
354.7319282367791
 11
271.0725914786701
 21
354.7319282367754
 72
     1
 10
271.0725914786701
 20
354.7319282367754
 11
271.0725914786719
 21
332.7319282367791
 72
     1
 10
271.0725914786719
 20
332.7319282367791
 11
267.0725914786719
 21
332.7319282367795
 72
     1
 10
267.0725914786719
 20
332.7319282367795
 11
267.0725914786719
 21
307.7319282367757
 72
     1
 10
267.0725914786719
 20
307.7319282367757
 11
258.5725914786709
 21
307.7319282367758
 72
     1
 10
258.5725914786709
 20
307.7319282367758
 11
258.5725914786709
 21
216.7319282367783
 72
     1
 10
258.5725914786709
 20
216.7319282367783
 11
267.5725914786728
 21
216.7319282367784
 72
     1
 10
267.5725914786728
 20
216.7319282367784
 11
267.5725914786726
 21
209.7319282367791
 97
        0
 75
     0
 76
     0
 52
44.99999999999999
 41
5.0
 77
     0
 78
     1
 53
44.99999999999999
 43
0.0
 44
0.0
 45
-3.535533905932736
 46
3.535533905932738
 79
     0
 98
        1
 10
0.0
 20
0.0
1001
GENIUS_GENODEF_13
1002
{
1000
HIER
1070
     0
1002
}
1002
{
1000
MANEDIT
1070
     0
1002
}
1002
{
1000
NOSEL
1070
     0
1002
}
1002
{
1000
BEHIND
1070
     0
1002
}
1002
{
1000
OTHER
1070
     0
1002
}
1002
{
1000
REACTOR
1002
}
1001
GENIUS_GENOBJ-N-HTC_13
1002
{
1000
OWNER
1000
GEN
1002
}
1001
GENIUS_GENHATCH_13
1002
{
1000
DATA
1040
45.0
1042
2.5
1000
_U
1070
     0
1011
280.269496674799
1021
245.8391510102661
1031
0.0
1002
}
1002
{
1000
UCS
1010
0.0
1020
0.0
1030
0.0
1010
1.0
1020
0.0
1030
0.0
1010
0.0
1020
1.0
1030
0.0
1002
}
1001
ACAD
1010
0.0
1020
0.0
1030
0.0
  0
ENDSEC
  0
SECTION
  2
OBJECTS
  0
DICTIONARY
  5
C
330
0
100
AcDbDictionary
281
     1
  3
ACAD_COLOR
350
7F4
  3
ACAD_GROUP
350
D
  3
ACAD_LAYOUT
350
1A
  3
ACAD_MATERIAL
350
7F3
  3
ACAD_MLINESTYLE
350
17
  3
ACAD_PLOTSETTINGS
350
19
  3
ACAD_PLOTSTYLENAME
350
E
  3
ACAD_TABLESTYLE
350
7F5
  3
ACDBHEADERROUNDTRIPXREC
350
B37
  3
AcDbVariableDictionary
350
34
  3
AcmDictionary
350
47
  3
AMG
350
2B
  3
AMGSNAPSETTINGS
350
A9
  3
ASE_INDEX_DICTIONARY
350
7EA
  3
DWGPROPS
350
B36
  0
DICTIONARY
  5
A42
330
2
100
AcDbDictionary
280
     1
281
     1
  3
AMLAYER_GROUPCOLORS
360
A43
  0
DICTIONARY
  5
81
330
1F
100
AcDbDictionary
280
     1
281
     1
  3
ACAD_SORTENTS
360
A47
  0
DICTIONARY
  5
7F4
102
{ACAD_REACTORS
330
C
102
}
330
C
100
AcDbDictionary
281
     1
  0
DICTIONARY
  5
D
102
{ACAD_REACTORS
330
C
102
}
330
C
100
AcDbDictionary
281
     1
  0
DICTIONARY
  5
1A
102
{ACAD_REACTORS
330
C
102
}
330
C
100
AcDbDictionary
281
     1
  3
Layout1
350
1E
  3
Layout2
350
26
  3
Model
350
22
  0
DICTIONARY
  5
7F3
102
{ACAD_REACTORS
330
C
102
}
330
C
100
AcDbDictionary
281
     1
  0
DICTIONARY
  5
17
102
{ACAD_REACTORS
330
C
102
}
330
C
100
AcDbDictionary
281
     1
  3
Standard
350
18
  0
DICTIONARY
  5
19
102
{ACAD_REACTORS
330
C
102
}
330
C
100
AcDbDictionary
281
     1
  0
ACDBDICTIONARYWDFLT
  5
E
102
{ACAD_REACTORS
330
C
102
}
330
C
100
AcDbDictionary
281
     1
  3
Normal
350
F
100
AcDbDictionaryWithDefault
340
F
  0
DICTIONARY
  5
7F5
102
{ACAD_REACTORS
330
C
102
}
330
C
100
AcDbDictionary
281
     1
  3
Standard
350
7F6
  0
DICTIONARY
  5
B37
102
{ACAD_REACTORS
330
C
102
}
330
C
100
AcDbDictionary
281
     1
  0
DICTIONARY
  5
34
102
{ACAD_REACTORS
330
C
102
}
330
C
100
AcDbDictionary
281
     1
  3
CTABLESTYLE
350
B32
  3
DIMASSOC
350
B33
  3
INDEXCTL
350
35
  3
PROJECTNAME
350
B34
  0
DICTIONARY
  5
47
102
{ACAD_REACTORS
330
C
102
}
330
C
100
AcDbDictionary
281
     1
  3
AcmStdDictionary
350
4C
  3
AMDTSECTSYM_ARROWCOLOR
350
84D
  0
DICTIONARY
  5
2B
102
{ACAD_REACTORS
330
C
102
}
330
C
100
AcDbDictionary
281
     1
  0
DICTIONARY
  5
A9
102
{ACAD_REACTORS
330
C
102
}
330
C
100
AcDbDictionary
281
     1
  0
DICTIONARY
  5
7EA
102
{ACAD_REACTORS
330
C
102
}
330
C
100
AcDbDictionary
281
     1
  3
ASEBlockHierarchyIndexRecord
350
7EC
1001
DCO15
1040
1539495305.646
  0
XRECORD
  5
B36
102
{ACAD_REACTORS
330
C
102
}
330
C
100
AcDbXrecord
280
     1
  1
DWGPROPS COOKIE
  2

  3

  4

  6

  7

  8

  9

300
AmdtFileType=84
301
=
302
=
303
=
304
=
305
=
306
=
307
=
308
=
309
=
 40
0.0096806828703704
 41
2452702.55750169
 42
2454033.778397524
  1

 90
        1
  0
DICTIONARY
  5
A43
102
{ACAD_REACTORS
330
A42
102
}
330
A42
100
AcDbDictionary
280
     1
281
     1
  0
SORTENTSTABLE
  5
A47
102
{ACAD_REACTORS
330
81
102
}
330
81
100
AcDbSortentsTable
330
1F
331
3E1
  5
3E1
331
42E
  5
42E
331
414
  5
414
331
3F2
  5
3F2
331
3D0
  5
3D0
331
3AE
  5
3AE
331
372
  5
372
331
350
  5
350
331
3BF
  5
3BF
331
383
  5
383
331
361
  5
361
331
33F
  5
33F
331
401
  5
401
331
42C
  5
42C
331
412
  5
412
331
3F0
  5
3F0
331
3CE
  5
3CE
331
3AC
  5
3AC
331
370
  5
370
331
34E
  5
34E
331
3DF
  5
3DF
331
3BD
  5
3BD
331
381
  5
381
331
35F
  5
35F
331
33D
  5
33D
331
42A
  5
42A
331
3EE
  5
3EE
331
3CC
  5
3CC
331
3AA
  5
3AA
331
390
  5
390
331
36E
  5
36E
331
34C
  5
34C
331
3DD
  5
3DD
331
3BB
  5
3BB
331
37F
  5
37F
331
35D
  5
35D
331
33B
  5
33B
331
A46
  5
A44
331
428
  5
428
331
40E
  5
40E
331
3EC
  5
3EC
331
3CA
  5
3CA
331
3A8
  5
3A8
331
36C
  5
36C
331
34A
  5
34A
331
3FD
  5
3FD
331
3DB
  5
3DB
331
39F
  5
39F
331
37D
  5
37D
331
35B
  5
35B
331
339
  5
339
331
426
  5
426
331
3EA
  5
3EA
331
3C8
  5
3C8
331
3A6
  5
3A6
331
38C
  5
38C
331
36A
  5
36A
331
A33
  5
A33
331
3D9
  5
3D9
331
3B7
  5
3B7
331
39D
  5
39D
331
37B
  5
37B
331
359
  5
359
331
424
  5
424
331
3E8
  5
3E8
331
3C6
  5
3C6
331
3A4
  5
3A4
331
38A
  5
38A
331
368
  5
368
331
A31
  5
A31
331
3F9
  5
3F9
331
3D7
  5
3D7
331
3B5
  5
3B5
331
39B
  5
39B
331
379
  5
379
331
357
  5
357
331
346
  5
346
331
408
  5
408
331
3E6
  5
3E6
331
3C4
  5
3C4
331
3A2
  5
3A2
331
388
  5
388
331
A2F
  5
A2F
331
3F7
  5
3F7
331
3D5
  5
3D5
331
3B3
  5
3B3
331
399
  5
399
331
377
  5
377
331
355
  5
355
331
366
  5
366
331
344
  5
344
331
420
  5
420
331
406
  5
406
331
3E4
  5
3E4
331
3C2
  5
3C2
331
3A0
  5
3A0
331
A2D
  5
A2D
331
417
  5
417
331
3F5
  5
3F5
331
3D3
  5
3D3
331
3B1
  5
3B1
331
375
  5
375
331
353
  5
353
331
386
  5
386
331
364
  5
364
331
342
  5
342
331
404
  5
404
331
3E2
  5
3E2
331
3C0
  5
3C0
331
A2B
  5
A2B
331
3F3
  5
3F3
331
3D1
  5
3D1
331
3AF
  5
3AF
331
373
  5
373
331
351
  5
351
331
384
  5
384
331
362
  5
362
331
340
  5
340
331
A54
  5
A53
331
3E0
  5
3E0
331
42D
  5
42D
331
413
  5
413
331
3F1
  5
3F1
331
3CF
  5
3CF
331
3AD
  5
3AD
331
371
  5
371
331
34F
  5
34F
331
3BE
  5
3BE
331
382
  5
382
331
360
  5
360
331
33E
  5
33E
331
42B
  5
42B
331
3EF
  5
3EF
331
3CD
  5
3CD
331
3AB
  5
3AB
331
36F
  5
36F
331
34D
  5
34D
331
3DE
  5
3DE
331
3BC
  5
3BC
331
380
  5
380
331
35E
  5
35E
331
33C
  5
33C
331
418
  5
418
331
429
  5
429
331
40F
  5
40F
331
3ED
  5
3ED
331
3CB
  5
3CB
331
3A9
  5
3A9
331
36D
  5
36D
331
34B
  5
34B
331
3DC
  5
3DC
331
3BA
  5
3BA
331
37E
  5
37E
331
35C
  5
35C
331
33A
  5
33A
331
3A7
  5
3A7
331
36B
  5
36B
331
349
  5
349
331
427
  5
427
331
40D
  5
40D
331
3EB
  5
3EB
331
3C9
  5
3C9
331
A34
  5
A34
331
3DA
  5
3DA
331
3B8
  5
3B8
331
39E
  5
39E
331
37C
  5
37C
331
35A
  5
35A
331
338
  5
338
331
280
  5
280
331
425
  5
425
331
40B
  5
40B
331
3E9
  5
3E9
331
3C7
  5
3C7
331
3A5
  5
3A5
331
38B
  5
38B
331
369
  5
369
331
A32
  5
A32
331
3FA
  5
3FA
331
3D8
  5
3D8
331
3B6
  5
3B6
331
39C
  5
39C
331
37A
  5
37A
331
358
  5
358
331
347
  5
347
331
423
  5
423
331
3C5
  5
3C5
331
3A3
  5
3A3
331
389
  5
389
331
A30
  5
A30
331
3F8
  5
3F8
331
3D6
  5
3D6
331
3B4
  5
3B4
331
39A
  5
39A
331
378
  5
378
331
356
  5
356
331
367
  5
367
331
345
  5
345
331
407
  5
407
331
3E5
  5
3E5
331
3C3
  5
3C3
331
3A1
  5
3A1
331
A2E
  5
A2E
331
3F6
  5
3F6
331
3D4
  5
3D4
331
3B2
  5
3B2
331
398
  5
398
331
376
  5
376
331
354
  5
354
331
387
  5
387
331
365
  5
365
331
343
  5
343
331
41F
  5
41F
331
405
  5
405
331
3E3
  5
3E3
331
3C1
  5
3C1
331
A2C
  5
A2C
331
416
  5
416
331
3F4
  5
3F4
331
3D2
  5
3D2
331
3B0
  5
3B0
331
374
  5
374
331
352
  5
352
331
385
  5
385
331
363
  5
363
331
341
  5
341
  0
LAYOUT
  5
1E
102
{ACAD_XDICTIONARY
360
B38
102
}
102
{ACAD_REACTORS
330
1A
102
}
330
1A
100
AcDbPlotSettings
  1

  2
C:\Programme\Acadm 2000i\plotters\PH36.pc3
  4

  6

 40
0.0
 41
0.0
 42
0.0
 43
0.0
 44
0.0
 45
0.0
 46
0.0
 47
0.0
 48
0.0
 49
0.0
140
0.0
141
0.0
142
1.0
143
1.0
 70
   688
 72
     0
 73
     0
 74
     5
  7
monochrome.ctb
 75
    16
147
1.0
148
0.0
149
0.0
100
AcDbLayout
  1
Layout1
 70
     1
 71
     1
 10
0.0
 20
0.0
 11
420.0
 21
297.0
 12
0.0
 22
0.0
 32
0.0
 14
1.000000000000000E+20
 24
1.000000000000000E+20
 34
1.000000000000000E+20
 15
-1.000000000000000E+20
 25
-1.000000000000000E+20
 35
-1.000000000000000E+20
146
0.0
 13
0.0
 23
0.0
 33
0.0
 16
1.0
 26
0.0
 36
0.0
 17
0.0
 27
1.0
 37
0.0
 76
     0
330
1B
  0
LAYOUT
  5
26
102
{ACAD_XDICTIONARY
360
B3C
102
}
102
{ACAD_REACTORS
330
1A
102
}
330
1A
100
AcDbPlotSettings
  1

  2
C:\Programme\Acadm 2000i\plotters\PH36.pc3
  4

  6

 40
0.0
 41
0.0
 42
0.0
 43
0.0
 44
0.0
 45
0.0
 46
0.0
 47
0.0
 48
0.0
 49
0.0
140
0.0
141
0.0
142
1.0
143
1.0
 70
   688
 72
     0
 73
     0
 74
     5
  7
monochrome.ctb
 75
    16
147
1.0
148
0.0
149
0.0
100
AcDbLayout
  1
Layout2
 70
     1
 71
     2
 10
0.0
 20
0.0
 11
12.0
 21
9.0
 12
0.0
 22
0.0
 32
0.0
 14
0.0
 24
0.0
 34
0.0
 15
0.0
 25
0.0
 35
0.0
146
0.0
 13
0.0
 23
0.0
 33
0.0
 16
1.0
 26
0.0
 36
0.0
 17
0.0
 27
1.0
 37
0.0
 76
     0
330
23
  0
LAYOUT
  5
22
102
{ACAD_XDICTIONARY
360
B3A
102
}
102
{ACAD_REACTORS
330
1A
102
}
330
1A
100
AcDbPlotSettings
  1

  2
C:\Programme\Acadm 2000i\plotters\PH36.pc3
  4

  6

 40
0.0
 41
0.0
 42
0.0
 43
0.0
 44
0.0
 45
0.0
 46
0.0
 47
0.0
 48
0.0
 49
0.0
140
0.0
141
0.0
142
1.0
143
1.0
 70
  1712
 72
     0
 73
     0
 74
     0
  7
monochrome.ctb
 75
     0
147
1.0
148
0.0
149
0.0
100
AcDbLayout
  1
Model
 70
     1
 71
     0
 10
0.0
 20
0.0
 11
12.0
 21
9.0
 12
0.0
 22
0.0
 32
0.0
 14
0.0
 24
0.0
 34
0.0
 15
0.0
 25
0.0
 35
0.0
146
0.0
 13
0.0
 23
0.0
 33
0.0
 16
1.0
 26
0.0
 36
0.0
 17
0.0
 27
1.0
 37
0.0
 76
     0
330
1F
  0
MLINESTYLE
  5
18
102
{ACAD_REACTORS
330
17
102
}
330
17
100
AcDbMlineStyle
  2
STANDARD
 70
     0
  3

 62
   256
 51
90.0
 52
90.0
 71
     2
 49
0.5
 62
   256
  6
BYLAYER
 49
-0.5
 62
   256
  6
BYLAYER
  0
ACDBPLACEHOLDER
  5
F
102
{ACAD_REACTORS
330
E
102
}
330
E
  0
TABLESTYLE
  5
7F6
102
{ACAD_REACTORS
330
7F5
102
}
330
7F5
100
AcDbTableStyle
  3
Standard
 70
     0
 71
     0
 40
1.5
 41
1.5
280
     0
281
     0
  7
STANDARD
140
4.5
170
     2
 62
     0
 63
     7
283
     0
274
    -2
284
     1
 64
     0
275
    -2
285
     1
 65
     0
276
    -2
286
     1
 66
     0
277
    -2
287
     1
 67
     0
278
    -2
288
     1
 68
     0
279
    -2
289
     1
 69
     0
  7
STANDARD
140
6.0
170
     5
 62
     0
 63
     7
283
     0
274
    -2
284
     1
 64
     0
275
    -2
285
     1
 65
     0
276
    -2
286
     1
 66
     0
277
    -2
287
     1
 67
     0
278
    -2
288
     1
 68
     0
279
    -2
289
     1
 69
     0
  7
STANDARD
140
4.5
170
     5
 62
     0
 63
     7
283
     0
274
    -2
284
     1
 64
     0
275
    -2
285
     1
 65
     0
276
    -2
286
     1
 66
     0
277
    -2
287
     1
 67
     0
278
    -2
288
     1
 68
     0
279
    -2
289
     1
 69
     0
  0
DICTIONARYVAR
  5
B32
102
{ACAD_REACTORS
330
34
102
}
330
34
100
DictionaryVariables
280
     0
  1
STANDARD
  0
DICTIONARYVAR
  5
B33
102
{ACAD_REACTORS
330
34
102
}
330
34
100
DictionaryVariables
280
     0
  1
1
  0
DICTIONARYVAR
  5
35
102
{ACAD_REACTORS
330
34
102
}
330
34
100
DictionaryVariables
280
     0
  1
0
  0
DICTIONARYVAR
  5
B34
102
{ACAD_REACTORS
330
34
102
}
330
34
100
DictionaryVariables
280
     0
  1

  0
DICTIONARY
  5
4C
102
{ACAD_REACTORS
330
47
102
}
330
47
100
AcDbDictionary
281
     1
  0
XRECORD
  5
84D
102
{ACAD_REACTORS
330
47
102
}
330
47
100
AcDbXrecord
280
     1
 90
-1023410169
  0
XRECORD
  5
7EC
102
{ACAD_REACTORS
330
7EA
102
}
330
7EA
100
AcDbXrecord
280
     1
330
6B8
330
6BF
  0
DICTIONARY
  5
B38
330
1E
100
AcDbDictionary
280
     1
281
     1
  3
ACAD_XREC_ROUNDTRIP
360
B39
  0
DICTIONARY
  5
B3C
330
26
100
AcDbDictionary
280
     1
281
     1
  3
ACAD_XREC_ROUNDTRIP
360
B3D
  0
DICTIONARY
  5
B3A
330
22
100
AcDbDictionary
280
     1
281
     1
  3
ACAD_XREC_ROUNDTRIP
360
B3B
  0
XRECORD
  5
B39
102
{ACAD_REACTORS
330
B38
102
}
330
B38
100
AcDbXrecord
280
     1
102
SHADEPLOT
 70
     0
102
SHADEPLOTRESLEVEL
 70
     2
102
SHADEPLOTCUSTOMDPI
 70
   300
  0
XRECORD
  5
B3D
102
{ACAD_REACTORS
330
B3C
102
}
330
B3C
100
AcDbXrecord
280
     1
102
SHADEPLOT
 70
     0
102
SHADEPLOTRESLEVEL
 70
     2
102
SHADEPLOTCUSTOMDPI
 70
   300
  0
XRECORD
  5
B3B
102
{ACAD_REACTORS
330
B3A
102
}
330
B3A
100
AcDbXrecord
280
     1
102
SHADEPLOT
 70
     0
102
SHADEPLOTRESLEVEL
 70
     2
102
SHADEPLOTCUSTOMDPI
 70
   300
  0
ENDSEC
  0
EOF
