  0
SECTION
  2
HEADER
  9
$ACADVER
  1
AC1018
  9
$ACADMAINTVER
 70
   104
  9
$DWGCODEPAGE
  3
ANSI_1252
  9
$LASTSAVEDBY
  1
kbaersch
  9
$CUSTOMPROPERTYTAG
  1
AmdtFileType
  9
$CUSTOMPROPERTY
  1
84
  9
$INSBASE
 10
0.0
 20
0.0
 30
0.0
  9
$EXTMIN
 10
1385.562077036762
 20
16.2290070499871
 30
-0.0015258207003583
  9
$EXTMAX
 10
1979.74551339627
 20
436.2660372072655
 30
0.0000000349246037
  9
$LIMMIN
 10
0.0
 20
0.0
  9
$LIMMAX
 10
420.0
 20
297.0
  9
$ORTHOMODE
 70
     0
  9
$REGENMODE
 70
     1
  9
$FILLMODE
 70
     1
  9
$QTEXTMODE
 70
     0
  9
$MIRRTEXT
 70
     1
  9
$LTSCALE
 40
1.0
  9
$ATTMODE
 70
     1
  9
$TEXTSIZE
 40
2.5
  9
$TRACEWID
 40
1.0
  9
$TEXTSTYLE
  7
STANDARD
  9
$CLAYER
  8
0
  9
$CELTYPE
  6
ByLayer
  9
$CECOLOR
 62
   256
  9
$CELTSCALE
 40
1.0
  9
$DISPSILH
 70
     0
  9
$DIMSCALE
 40
1.0
  9
$DIMASZ
 40
2.5
  9
$DIMEXO
 40
1.0
  9
$DIMDLI
 40
10.0
  9
$DIMRND
 40
0.0
  9
$DIMDLE
 40
0.0
  9
$DIMEXE
 40
1.0
  9
$DIMTP
 40
0.1
  9
$DIMTM
 40
0.1
  9
$DIMTXT
 40
3.5
  9
$DIMCEN
 40
0.0
  9
$DIMTSZ
 40
0.0
  9
$DIMTOL
 70
     0
  9
$DIMLIM
 70
     0
  9
$DIMTIH
 70
     0
  9
$DIMTOH
 70
     0
  9
$DIMSE1
 70
     0
  9
$DIMSE2
 70
     0
  9
$DIMTAD
 70
     1
  9
$DIMZIN
 70
     8
  9
$DIMBLK
  1

  9
$DIMASO
 70
     1
  9
$DIMSHO
 70
     1
  9
$DIMPOST
  1

  9
$DIMAPOST
  1
"
  9
$DIMALT
 70
     0
  9
$DIMALTD
 70
     2
  9
$DIMALTF
 40
0.0393701
  9
$DIMLFAC
 40
1.0
  9
$DIMTOFL
 70
     1
  9
$DIMTVP
 40
0.0
  9
$DIMTIX
 70
     0
  9
$DIMSOXD
 70
     0
  9
$DIMSAH
 70
     0
  9
$DIMBLK1
  1

  9
$DIMBLK2
  1

  9
$DIMSTYLE
  2
AM_DIN
  9
$DIMCLRD
 70
   256
  9
$DIMCLRE
 70
   256
  9
$DIMCLRT
 70
     2
  9
$DIMTFAC
 40
0.71
  9
$DIMGAP
 40
1.5
  9
$DIMJUST
 70
     0
  9
$DIMSD1
 70
     0
  9
$DIMSD2
 70
     0
  9
$DIMTOLJ
 70
     0
  9
$DIMTZIN
 70
     8
  9
$DIMALTZ
 70
     0
  9
$DIMALTTZ
 70
     0
  9
$DIMUPT
 70
     0
  9
$DIMDEC
 70
     2
  9
$DIMTDEC
 70
     3
  9
$DIMALTU
 70
     2
  9
$DIMALTTD
 70
     4
  9
$DIMTXSTY
  7
STANDARD
  9
$DIMAUNIT
 70
     0
  9
$DIMADEC
 70
     0
  9
$DIMALTRND
 40
0.0
  9
$DIMAZIN
 70
     2
  9
$DIMDSEP
 70
    46
  9
$DIMATFIT
 70
     3
  9
$DIMFRAC
 70
     0
  9
$DIMLDRBLK
  1

  9
$DIMLUNIT
 70
     2
  9
$DIMLWD
 70
    -1
  9
$DIMLWE
 70
    -1
  9
$DIMTMOVE
 70
     0
  9
$LUNITS
 70
     2
  9
$LUPREC
 70
     2
  9
$SKETCHINC
 40
1.0
  9
$FILLETRAD
 40
2.5
  9
$AUNITS
 70
     0
  9
$AUPREC
 70
     0
  9
$MENU
  1
.
  9
$ELEVATION
 40
0.0
  9
$PELEVATION
 40
0.0
  9
$THICKNESS
 40
0.0
  9
$LIMCHECK
 70
     0
  9
$CHAMFERA
 40
2.5
  9
$CHAMFERB
 40
2.5
  9
$CHAMFERC
 40
20.0
  9
$CHAMFERD
 40
0.0
  9
$SKPOLY
 70
     0
  9
$TDCREATE
 40
2452702.515835023
  9
$TDUCREATE
 40
2452702.474168357
  9
$TDUPDATE
 40
2456322.426908148
  9
$TDUUPDATE
 40
2456322.385241481
  9
$TDINDWG
 40
0.0204289583
  9
$TDUSRTIMER
 40
0.0204289583
  9
$USRTIMER
 70
     1
  9
$ANGBASE
 50
0.0
  9
$ANGDIR
 70
     0
  9
$PDMODE
 70
     0
  9
$PDSIZE
 40
0.0
  9
$PLINEWID
 40
0.0
  9
$SPLFRAME
 70
     0
  9
$SPLINETYPE
 70
     6
  9
$SPLINESEGS
 70
     8
  9
$HANDSEED
  5
BD6
  9
$SURFTAB1
 70
     6
  9
$SURFTAB2
 70
     6
  9
$SURFTYPE
 70
     6
  9
$SURFU
 70
     6
  9
$SURFV
 70
     6
  9
$UCSBASE
  2

  9
$UCSNAME
  2

  9
$UCSORG
 10
0.0
 20
0.0
 30
0.0
  9
$UCSXDIR
 10
1.0
 20
0.0
 30
0.0
  9
$UCSYDIR
 10
0.0
 20
1.0
 30
0.0
  9
$UCSORTHOREF
  2

  9
$UCSORTHOVIEW
 70
     0
  9
$UCSORGTOP
 10
0.0
 20
0.0
 30
0.0
  9
$UCSORGBOTTOM
 10
0.0
 20
0.0
 30
0.0
  9
$UCSORGLEFT
 10
0.0
 20
0.0
 30
0.0
  9
$UCSORGRIGHT
 10
0.0
 20
0.0
 30
0.0
  9
$UCSORGFRONT
 10
0.0
 20
0.0
 30
0.0
  9
$UCSORGBACK
 10
0.0
 20
0.0
 30
0.0
  9
$PUCSBASE
  2

  9
$PUCSNAME
  2

  9
$PUCSORG
 10
0.0
 20
0.0
 30
0.0
  9
$PUCSXDIR
 10
1.0
 20
0.0
 30
0.0
  9
$PUCSYDIR
 10
0.0
 20
1.0
 30
0.0
  9
$PUCSORTHOREF
  2

  9
$PUCSORTHOVIEW
 70
     0
  9
$PUCSORGTOP
 10
0.0
 20
0.0
 30
0.0
  9
$PUCSORGBOTTOM
 10
0.0
 20
0.0
 30
0.0
  9
$PUCSORGLEFT
 10
0.0
 20
0.0
 30
0.0
  9
$PUCSORGRIGHT
 10
0.0
 20
0.0
 30
0.0
  9
$PUCSORGFRONT
 10
0.0
 20
0.0
 30
0.0
  9
$PUCSORGBACK
 10
0.0
 20
0.0
 30
0.0
  9
$USERI1
 70
     0
  9
$USERI2
 70
     0
  9
$USERI3
 70
     0
  9
$USERI4
 70
     0
  9
$USERI5
 70
     0
  9
$USERR1
 40
0.0
  9
$USERR2
 40
0.0
  9
$USERR3
 40
0.0
  9
$USERR4
 40
0.0
  9
$USERR5
 40
0.0
  9
$WORLDVIEW
 70
     1
  9
$SHADEDGE
 70
     3
  9
$SHADEDIF
 70
    70
  9
$TILEMODE
 70
     1
  9
$MAXACTVP
 70
    64
  9
$PINSBASE
 10
0.0
 20
0.0
 30
0.0
  9
$PLIMCHECK
 70
     0
  9
$PEXTMIN
 10
1.000000000000000E+20
 20
1.000000000000000E+20
 30
1.000000000000000E+20
  9
$PEXTMAX
 10
-1.000000000000000E+20
 20
-1.000000000000000E+20
 30
-1.000000000000000E+20
  9
$PLIMMIN
 10
0.0
 20
0.0
  9
$PLIMMAX
 10
420.0
 20
297.0
  9
$UNITMODE
 70
     0
  9
$VISRETAIN
 70
     1
  9
$PLINEGEN
 70
     0
  9
$PSLTSCALE
 70
     1
  9
$TREEDEPTH
 70
  3020
  9
$CMLSTYLE
  2
Standard
  9
$CMLJUST
 70
     0
  9
$CMLSCALE
 40
20.0
  9
$PROXYGRAPHICS
 70
     1
  9
$MEASUREMENT
 70
     1
  9
$CELWEIGHT
370
    -1
  9
$ENDCAPS
280
     0
  9
$JOINSTYLE
280
     0
  9
$LWDISPLAY
290
     0
  9
$INSUNITS
 70
     4
  9
$HYPERLINKBASE
  1

  9
$STYLESHEET
  1
monochrome.ctb
  9
$XEDIT
290
     1
  9
$CEPSNTYPE
380
     0
  9
$PSTYLEMODE
290
     1
  9
$FINGERPRINTGUID
  2
{D5091DE6-A8E7-4749-B1FA-F4240FAEB0F0}
  9
$VERSIONGUID
  2
{8FDF5161-8AA1-49DD-B463-B10FCB8C4A35}
  9
$EXTNAMES
290
     1
  9
$PSVPSCALE
 40
0.0
  9
$OLESTARTUP
290
     0
  9
$SORTENTS
280
   127
  9
$INDEXCTL
280
     0
  9
$HIDETEXT
280
     0
  9
$XCLIPFRAME
290
     0
  9
$HALOGAP
280
     0
  9
$OBSCOLOR
 70
   257
  9
$OBSLTYPE
280
     0
  9
$INTERSECTIONDISPLAY
280
     0
  9
$INTERSECTIONCOLOR
 70
   257
  9
$DIMASSOC
280
     1
  9
$PROJECTNAME
  1

  0
ENDSEC
  0
SECTION
  2
CLASSES
  0
CLASS
  1
ACDBDICTIONARYWDFLT
  2
AcDbDictionaryWithDefault
  3
ObjectDBX Classes
 90
        0
 91
        1
280
     0
281
     0
  0
CLASS
  1
AMGSETTINGSOBJ
  2
AmgSettingsObj
  3
"AcadM|Product Description: AutoCAD Mechanical|Company: Autodesk, Inc."
 90
     1024
 91
        2
280
     0
281
     0
  0
CLASS
  1
ACME_DOCUMENT
  2
AcMeDbDoc
  3
AcMeServices
 90
     1024
 91
        2
280
     0
281
     0
  0
CLASS
  1
ACMESCOPE
  2
AcMeScope
  3
AcMeServices
 90
     1024
 91
        1
280
     0
281
     0
  0
CLASS
  1
ACMECOMMANDHISTORY
  2
AcMeCommandHistory
  3
AcMeServices
 90
     1024
 91
        1
280
     0
281
     0
  0
CLASS
  1
DICTIONARYVAR
  2
AcDbDictionaryVar
  3
ObjectDBX Classes
 90
        0
 91
        6
280
     0
281
     0
  0
CLASS
  1
ACIMSYSVARMAN
  2
AcImSysVarManager
  3
AcMeServices
 90
     1024
 91
        5
280
     0
281
     0
  0
CLASS
  1
ACIMREALSYSVAR
  2
AcImRealSysVar
  3
AcMeServices
 90
     1024
 91
        1
280
     0
281
     0
  0
CLASS
  1
ACIMINTSYSVAR
  2
AcImIntSysVar
  3
AcMeServices
 90
     1024
 91
       27
280
     0
281
     0
  0
CLASS
  1
ACMEDRAWINGMAN
  2
AcMeDrawingMan
  3
AcMeServices
 90
     1024
 91
        1
280
     0
281
     0
  0
CLASS
  1
ACMEVIEW
  2
AcMeView
  3
AcMeServices
 90
     1024
 91
        1
280
     0
281
     0
  0
CLASS
  1
ACDBENTITYCACHE
  2
AcMeEntityCache
  3
AcMeServices
 90
     1024
 91
        1
280
     0
281
     0
  0
CLASS
  1
GSMANAGER
  2
AcMeGSManager
  3
AcMeServices
 90
        0
 91
        0
280
     0
281
     0
  0
CLASS
  1
AMDTINTERNALREACTOR
  2
AmdtInternalReactor
  3
AcMeServices
 90
     1024
 91
        1
280
     0
281
     0
  0
CLASS
  1
ACMESTATEMGR
  2
AcMeStateMgr
  3
AcMeServices
 90
     1024
 91
        1
280
     0
281
     0
  0
CLASS
  1
ACGREFMASTER
  2
AcGrefMaster
  3
AcAttribServices
 90
     1024
 91
        1
280
     0
281
     0
  0
CLASS
  1
ACME_DATABASE
  2
AcMeDbDatabase
  3
AcMeServices
 90
     1024
 91
        1
280
     0
281
     0
  0
CLASS
  1
ACRFINSADJUSTERMGR
  2
AcRfInsAdjusterMgr
  3
AcMeServices
 90
     1024
 91
        1
280
     0
281
     0
  0
CLASS
  1
ACGREFACADMASTER
  2
AcGrefacadMaster
  3
AcGrefServices
 90
     1024
 91
        1
280
     0
281
     0
  0
CLASS
  1
AMIMASTER
  2
AmiMaster
  3
AmiServices
 90
     1024
 91
        1
280
     0
281
     0
  0
CLASS
  1
ACMDATADICTIONARY
  2
AcmDataDictionary
  3
"AcmSymBB|Product Description: AutoCAD Mechanical|Company: Autodesk, Inc."
 90
     1024
 91
        1
280
     0
281
     0
  0
CLASS
  1
ACMDATAENTRYBLOCK
  2
AcmDataEntryBlock
  3
AcmSymBB|Product Description: AutoCAD Mechanical|Company: Autodesk, Inc.
 90
     1024
 91
        0
280
     0
281
     0
  0
CLASS
  1
ACIMSTRSYSVAR
  2
AcImStrSysVar
  3
AcMeServices
 90
     1024
 91
        5
280
     0
281
     0
  0
CLASS
  1
ACMSTANDARDDIN
  2
AcmStandardDIN
  3
"Amdt_StdImp|Product Description: AutoCAD Mechanical|Company: Autodesk, Inc."
 90
     1024
 91
        1
280
     0
281
     0
  0
CLASS
  1
AMGOBJPROPCFG
  2
AmgObjPropCfg
  3
"AmgLay|Product Description: AutoCAD Mechanical|Company: Autodesk, Inc."
 90
     1025
 91
        1
280
     0
281
     0
  0
CLASS
  1
AMDTEDGESTANDARDDIN
  2
AmdtEdgeStdDIN
  3
"Amdt_StdImp|Product Description: AutoCAD Mechanical|Company: Autodesk, Inc."
 90
     1024
 91
        0
280
     0
281
     0
  0
CLASS
  1
ACMSURFSTANDARDDIN
  2
AcmSurfTextStdDIN
  3
"Amdt_StdImp|Product Description: AutoCAD Mechanical|Company: Autodesk, Inc."
 90
     1024
 91
        1
280
     0
281
     0
  0
CLASS
  1
ACMFCFSTANDARDDIN
  2
AcmFCFStdDIN
  3
"Amdt_StdImp|Product Description: AutoCAD Mechanical|Company: Autodesk, Inc."
 90
     1024
 91
        1
280
     0
281
     0
  0
CLASS
  1
ACMWELDSTANDARDDIN
  2
AcmWeldingStdDIN
  3
"Amdt_StdImp|Product Description: AutoCAD Mechanical|Company: Autodesk, Inc."
 90
     1024
 91
        1
280
     0
281
     0
  0
CLASS
  1
ACMIDSTANDARDDIN
  2
AcmIdStdDIN
  3
"Amdt_StdImp|Product Description: AutoCAD Mechanical|Company: Autodesk, Inc."
 90
     1024
 91
        1
280
     0
281
     0
  0
CLASS
  1
ACMDATUMSTANDARDDIN
  2
AcmDatumStdDIN
  3
"Amdt_StdImp|Product Description: AutoCAD Mechanical|Company: Autodesk, Inc."
 90
     1024
 91
        1
280
     0
281
     0
  0
CLASS
  1
ACMBOMSTANDARDDIN
  2
AcmBOMStdDIN
  3
"Amdt_StdImp|Product Description: AutoCAD Mechanical|Company: Autodesk, Inc."
 90
     1024
 91
        1
280
     0
281
     0
  0
CLASS
  1
ACMDETAILSTANDARDDIN
  2
AmdtDetailSymStdDIN
  3
"Amdt_StdImp|Product Description: AutoCAD Mechanical|Company: Autodesk, Inc."
 90
     1024
 91
        1
280
     0
281
     0
  0
CLASS
  1
ACMSECTIONSTANDARDDIN
  2
AmdtSectionSymStdDIN
  3
"Amdt_StdImp|Product Description: AutoCAD Mechanical|Company: Autodesk, Inc."
 90
     1024
 91
        1
280
     0
281
     0
  0
CLASS
  1
ACMCENTERLINESTANDARDDIN
  2
AmdtCenterLineStdDIN
  3
"Amdt_StdImp|Product Description: AutoCAD Mechanical|Company: Autodesk, Inc."
 90
     1024
 91
        1
280
     0
281
     0
  0
CLASS
  1
ACAMGLAYSTD
  2
AcAmgLayStd
  3
"AmgLay|Product Description: AutoCAD Mechanical|Company: Autodesk, Inc."
 90
     1024
 91
        1
280
     0
281
     0
  0
CLASS
  1
ACAMGDIMSTD
  2
AcAmgDimStd
  3
"AmgDim|Product Description: AutoCAD Mechanical|Company: Autodesk, Inc."
 90
     1024
 91
        1
280
     0
281
     0
  0
CLASS
  1
ACAMGTITLESTD
  2
AcAmgTitleStd
  3
"AmgTitle|Product Description: AutoCAD Mechanical|Company: Autodesk, Inc."
 90
     4095
 91
        1
280
     0
281
     0
  0
CLASS
  1
LAYER_INDEX
  2
AcDbLayerIndex
  3
ObjectDBX Classes
 90
        0
 91
        0
280
     0
281
     0
  0
CLASS
  1
IDBUFFER
  2
AcDbIdBuffer
  3
ObjectDBX Classes
 90
        0
 91
        0
280
     0
281
     0
  0
CLASS
  1
ACAMGFILTERDAT
  2
AcAmgFilterDat
  3
"AcadM|Product Description: AutoCAD Mechanical|Company: Autodesk, Inc."
 90
     1024
 91
        0
280
     0
281
     0
  0
CLASS
  1
TABLESTYLE
  2
AcDbTableStyle
  3
ObjectDBX Classes
 90
     4095
 91
        1
280
     0
281
     0
  0
CLASS
  1
AM_DRAWING_MGR
  2
AcDmDwgMgr
  3
AcMechDwgViewMgmt
 90
     1024
 91
        1
280
     0
281
     0
  0
CLASS
  1
AM_DWG_DOCUMENT
  2
AcDmDwgDocument
  3
AcMechDwgViewMgmt
 90
     1024
 91
        1
280
     0
281
     0
  0
CLASS
  1
AM_DWG_SHEET
  2
AcDmSheet
  3
AcMechDwgViewMgmt
 90
     1024
 91
        2
280
     0
281
     0
  0
CLASS
  1
AM_VIEWDIMPARMAP
  2
AcDmViewDimParMap
  3
AcMechDwgViewMgmt
 90
     1024
 91
        2
280
     0
281
     0
  0
CLASS
  1
AM_DWGMGR_NAME
  2
AcDmDwgMgrName
  3
AcMechDwgViewMgmt
 90
     1024
 91
        1
280
     0
281
     0
  0
CLASS
  1
AMDTMENUSTATEMGR
  2
AmdtMenuStateMgr
  3
McadcomServices
 90
     1024
 91
        1
280
     0
281
     0
  0
CLASS
  1
AMDTMCOMMENUSTATE
  2
AmdtMcomMenuState
  3
McadcomServices
 90
     1024
 91
        1
280
     0
281
     0
  0
CLASS
  1
MAPIAMMOUDLE
  2
MApiAmModule
  3
MApiAmServices
 90
     1024
 91
        1
280
     0
281
     0
  0
CLASS
  1
AMDTADMENUSTATE
  2
AmdtAdMenuState
  3
DesignerServices
 90
     1024
 91
        1
280
     0
281
     0
  0
CLASS
  1
ADAPPL
  2
AcAdAppl
  3
DesignerServices
 90
     1024
 91
        1
280
     0
281
     0
  0
CLASS
  1
DEPMGR
  2
AcAdDepMgr
  3
DesignerServices
 90
     1024
 91
        1
280
     0
281
     0
  0
CLASS
  1
PARAMMGR
  2
AcAdParamMgr
  3
DesignerServices
 90
     1024
 91
        1
280
     0
281
     0
  0
CLASS
  1
PARAMSCOPE
  2
AcAdParamScope
  3
DesignerServices
 90
     1024
 91
        1
280
     0
281
     0
  0
CLASS
  1
NAMEDAPPL
  2
AcAdNamedAppl
  3
DesignerServices
 90
     1024
 91
        1
280
     0
281
     0
  0
CLASS
  1
AMDTDMMENUSTATE
  2
AmdtDmMenuState
  3
AcMechDwgViewMgmt
 90
     1024
 91
        1
280
     0
281
     0
  0
CLASS
  1
AMDTAMMENUSTATE
  2
AmdtAmMenuState
  3
DesignerAssemblies
 90
     1024
 91
        1
280
     0
281
     0
  0
CLASS
  1
ACAMPROJECT
  2
AcAmProject
  3
DesignerAssemblies
 90
     1024
 91
        1
280
     0
281
     0
  0
CLASS
  1
ACAMGRCOMPDEF
  2
AcAmGrCompDef
  3
DesignerAssemblies
 90
     1024
 91
        1
280
     0
281
     0
  0
CLASS
  1
ACCMCONTEXT
  2
AcCmContext
  3
DesignerAssemblies
 90
     1024
 91
        1
280
     0
281
     0
  0
CLASS
  1
ACAMCOMPDEF
  2
AcAmCompDef
  3
DesignerAssemblies
 90
     1024
 91
        1
280
     0
281
     0
  0
CLASS
  1
ACAMCOMPDEFMGR
  2
AcAmCompDefMgr
  3
DesignerAssemblies
 90
     1024
 91
        1
280
     0
281
     0
  0
CLASS
  1
AMCONTEXTMGR
  2
AcAmContextMgr
  3
DesignerAssemblies
 90
     1024
 91
        1
280
     0
281
     0
  0
CLASS
  1
ACAMCONTEXTMODELER
  2
AcAmContextModeler
  3
DesignerAssemblies
 90
     1024
 91
        1
280
     0
281
     0
  0
CLASS
  1
ACMTHREADLINESTANDARDDIN
  2
AmdtThreadLineStdDIN
  3
"Amdt_StdImp|Product Description: AutoCAD Mechanical|Company: Autodesk, Inc."
 90
     1024
 91
        1
280
     0
281
     0
  0
CLASS
  1
ACMNOTESTANDARDDIN
  2
AmdtNoteStdDIN
  3
"Amdt_StdImp|Product Description: AutoCAD Mechanical|Company: Autodesk, Inc."
 90
     1024
 91
        1
280
     0
281
     0
  0
CLASS
  1
AMDTNOTETEMPLATEDB
  2
AmdtNoteTemplateDB
  3
AcmSymBB|Product Description: AutoCAD Mechanical|Company: Autodesk, Inc.
 90
     1024
 91
        6
280
     0
281
     0
  0
CLASS
  1
CATALOGSTATE
  2
AcAmCatalogState
  3
DesignerAssemblies
 90
     1024
 91
        1
280
     0
281
     0
  0
CLASS
  1
ACAMGRCOMPDEFSET
  2
AcAmGrCompDefSet
  3
DesignerAssemblies
 90
     1024
 91
        1
280
     0
281
     0
  0
CLASS
  1
AMDTBROWSERDBTAB
  2
AmdtBrowserDbTab
  3
McadcomServices
 90
     1024
 91
        1
280
     0
281
     0
  0
CLASS
  1
CBROWSERAPPOBJECT
  2
CBrowserAppObject
  3
McadcomServices
 90
     1024
 91
        2
280
     0
281
     0
  0
CLASS
  1
DM_PLACEHOLDER
  2
AcDmSelsetPlaceholder
  3
AcMechDwgViewMgmt
 90
     1024
 91
        1
280
     0
281
     0
  0
CLASS
  1
ACRFATTGENMGR
  2
AcRfAttGeneralMgr
  3
AcAttribServices
 90
     1024
 91
        0
280
     0
281
     0
  0
CLASS
  1
AMDTEDGESTANDARDDIN13715
  2
AmdtEdgeStdDIN13715
  3
"Amdt_StdImp|Product Description: AutoCAD Mechanical|Company: Autodesk, Inc."
 90
     1024
 91
        1
280
     0
281
     0
  0
CLASS
  1
ACAMGHOLECHARTSTDDIN
  2
AcAmgHoleChartStdDIN
  3
AmgDim|Product Description: AutoCAD Mechanical|Company: Autodesk, Inc.
 90
     1024
 91
        1
280
     0
281
     0
  0
CLASS
  1
MATERIAL
  2
AcDbMaterial
  3
ObjectDBX Classes
 90
     1153
 91
        3
280
     0
281
     0
  0
CLASS
  1
VISUALSTYLE
  2
AcDbVisualStyle
  3
ObjectDBX Classes
 90
     4095
 91
       19
280
     0
281
     0
  0
CLASS
  1
SCALE
  2
AcDbScale
  3
ObjectDBX Classes
 90
     1153
 91
       17
280
     0
281
     0
  0
CLASS
  1
MLEADERSTYLE
  2
AcDbMLeaderStyle
  3
ACDB_MLEADERSTYLE_CLASS
 90
     4095
 91
        1
280
     0
281
     0
  0
CLASS
  1
ACMTAPERSTANDARDDIN
  2
AcmTaperStdDIN
  3
"Amdt_StdImp|Product Description: AutoCAD Mechanical|Company: Autodesk, Inc."
 90
     1024
 91
        1
280
     0
281
     0
  0
CLASS
  1
ACMANOOTATIONVIEWSTANDARDDIN
  2
AmdtAnViewStdDIN
  3
"Amdt_StdImp|Product Description: AutoCAD Mechanical|Company: Autodesk, Inc."
 90
     1024
 91
        1
280
     0
281
     0
  0
CLASS
  1
EXACXREFPANELOBJECT
  2
ExAcXREFPanelObject
  3
EXAC_ESW
 90
     1025
 91
        1
280
     0
281
     0
  0
CLASS
  1
NPOCOLLECTION
  2
AcDbImpNonPersistentObjectsCollection
  3
ObjectDBX Classes
 90
     1153
 91
        1
280
     0
281
     0
  0
CLASS
  1
CELLSTYLEMAP
  2
AcDbCellStyleMap
  3
ObjectDBX Classes
 90
     1152
 91
        1
280
     0
281
     0
  0
ENDSEC
  0
SECTION
  2
TABLES
  0
TABLE
  2
VPORT
  5
8
330
0
100
AcDbSymbolTable
 70
     1
  0
VPORT
  5
B36
330
8
100
AcDbSymbolTableRecord
100
AcDbViewportTableRecord
  2
*Active
 70
     0
 10
0.0
 20
0.0
 11
1.0
 21
1.0
 12
1845.31170118424
 22
256.0235567698285
 13
0.0
 23
0.0
 14
2.5
 24
2.5
 15
10.0
 25
10.0
 16
0.0
 26
0.0
 36
1.0
 17
0.0
 27
0.0
 37
0.0
 40
605.2876437507347
 41
2.026345933562428
 42
50.0
 43
0.0
 44
0.0
 50
0.0
 51
0.0
 71
     0
 72
   100
 73
     1
 74
     3
 75
     0
 76
     0
 77
     0
 78
     0
281
     0
 65
     1
110
0.0
120
0.0
130
0.0
111
1.0
121
0.0
131
0.0
112
0.0
122
1.0
132
0.0
 79
     0
146
0.0
  0
ENDTAB
  0
TABLE
  2
LTYPE
  5
5
330
0
100
AcDbSymbolTable
 70
    22
  0
LTYPE
  5
14
330
5
100
AcDbSymbolTableRecord
100
AcDbLinetypeTableRecord
  2
ByBlock
 70
     0
  3

 72
    65
 73
     0
 40
0.0
  0
LTYPE
  5
15
330
5
100
AcDbSymbolTableRecord
100
AcDbLinetypeTableRecord
  2
ByLayer
 70
     0
  3

 72
    65
 73
     0
 40
0.0
  0
LTYPE
  5
16
330
5
100
AcDbSymbolTableRecord
100
AcDbLinetypeTableRecord
  2
Continuous
 70
     0
  3
Solid line
 72
    65
 73
     0
 40
0.0
  0
LTYPE
  5
4F
330
5
100
AcDbSymbolTableRecord
100
AcDbLinetypeTableRecord
  2
AM_ISO02W050
 70
     0
  3
__ __ __ __ __ __ __ __ __ __ __ __ __ __ __
 72
    65
 73
     2
 40
7.5
 49
6.0
 74
     0
 49
-1.5
 74
     0
  0
LTYPE
  5
50
330
5
100
AcDbSymbolTableRecord
100
AcDbLinetypeTableRecord
  2
AM_ISO08W050
 70
     0
  3
____ . ____ . ____ . ____ . ____ . ____ . ____
 72
    65
 73
     4
 40
18.0
 49
12.0
 74
     0
 49
-1.5
 74
     0
 49
3.0
 74
     0
 49
-1.5
 74
     0
  0
LTYPE
  5
51
330
5
100
AcDbSymbolTableRecord
100
AcDbLinetypeTableRecord
  2
AM_ISO09W050
 70
     0
  3
_____ . . _____ . . _____ . . ____ .. ____
 72
    65
 73
     6
 40
22.5
 49
12.0
 74
     0
 49
-1.5
 74
     0
 49
3.0
 74
     0
 49
-1.5
 74
     0
 49
3.0
 74
     0
 49
-1.5
 74
     0
  0
LTYPE
  5
52
330
5
100
AcDbSymbolTableRecord
100
AcDbLinetypeTableRecord
  2
Amconstr
 70
     0
  3
_______________________
 72
    65
 73
     2
 40
9999.0
 49
9999.0
 74
     0
 49
0.0
 74
     0
  0
LTYPE
  5
53
330
5
100
AcDbSymbolTableRecord
100
AcDbLinetypeTableRecord
  2
AM_ISO08W050x2
 70
     0
  3
__ . __ . __ . __ . __ . __
 72
    65
 73
     4
 40
9.0
 49
6.0
 74
     0
 49
-0.75
 74
     0
 49
1.5
 74
     0
 49
-0.75
 74
     0
  0
LTYPE
  5
54
330
5
100
AcDbSymbolTableRecord
100
AcDbLinetypeTableRecord
  2
AM_ISO02W050x2
 70
     0
  3
 _ _ _ _ _ _ _ _ _ _ _ _
 72
    65
 73
     2
 40
3.75
 49
3.0
 74
     0
 49
-0.75
 74
     0
  0
LTYPE
  5
57
330
5
100
AcDbSymbolTableRecord
100
AcDbLinetypeTableRecord
  2
Amzigzag
 70
     0
  3
/\/-/\/-/\/-/\/-/\/-/\/
 72
    65
 73
     2
 40
11.0001
 49
0.0001
 74
     4
 75
   135
340
56
 46
0.04
 50
0.0
 44
0.0
 45
0.0
 49
-11.0
 74
     0
  0
LTYPE
  5
58
330
5
100
AcDbSymbolTableRecord
100
AcDbLinetypeTableRecord
  2
AM_DIN_F_W050
 70
     0
  3
__ __ __ __ __ __ __ __ __ __ __ __ __ __ __
 72
    65
 73
     2
 40
6.25
 49
4.75
 74
     0
 49
-1.5
 74
     0
  0
LTYPE
  5
59
330
5
100
AcDbSymbolTableRecord
100
AcDbLinetypeTableRecord
  2
AM_DIN_G_W050
 70
     0
  3
____ . ____ . ____ . ____ . ____ . ____ . ____
 72
    65
 73
     4
 40
13.75
 49
9.75
 74
     0
 49
-1.5
 74
     0
 49
1.0
 74
     0
 49
-1.5
 74
     0
  0
LTYPE
  5
5A
330
5
100
AcDbSymbolTableRecord
100
AcDbLinetypeTableRecord
  2
AM_DIN_K_W050
 70
     0
  3
_____ . . _____ . . _____ . . ____ .. ____
 72
    65
 73
     6
 40
16.25
 49
9.75
 74
     0
 49
-1.5
 74
     0
 49
1.0
 74
     0
 49
-1.5
 74
     0
 49
1.0
 74
     0
 49
-1.5
 74
     0
  0
LTYPE
  5
5B
330
5
100
AcDbSymbolTableRecord
100
AcDbLinetypeTableRecord
  2
AM_DIN_G_W050x2
 70
     0
  3
__ . __ . __ . __ . __ . __
 72
    65
 73
     4
 40
6.875
 49
4.75
 74
     0
 49
-0.875
 74
     0
 49
0.375
 74
     0
 49
-0.875
 74
     0
  0
LTYPE
  5
5C
330
5
100
AcDbSymbolTableRecord
100
AcDbLinetypeTableRecord
  2
AM_DIN_F_W050x2
 70
     0
  3
 _ _ _ _ _ _ _ _ _ _ _ _
 72
    65
 73
     2
 40
3.125
 49
2.25
 74
     0
 49
-0.875
 74
     0
  0
LTYPE
  5
69
330
5
100
AcDbSymbolTableRecord
100
AcDbLinetypeTableRecord
  2
ACDINWELD
 70
     0
  3
_ _ _ _ _
 72
    65
 73
     2
 40
2.0
 49
2.0
 74
     0
 49
-1.0
 74
     0
  0
LTYPE
  5
6A
330
5
100
AcDbSymbolTableRecord
100
AcDbLinetypeTableRecord
  2
ACDINTGB
 70
     0
  3
__ . . __ . .
 72
    65
 73
     6
 40
9.0
 49
4.0
 74
     0
 49
-1.0
 74
     0
 49
1.0
 74
     0
 49
-1.0
 74
     0
 49
1.0
 74
     0
 49
-1.0
 74
     0
  0
LTYPE
  5
6B
330
5
100
AcDbSymbolTableRecord
100
AcDbLinetypeTableRecord
  2
ACDINTGL
 70
     0
  3
_ _ _ _ _
 72
    65
 73
     2
 40
3.0
 49
2.0
 74
     0
 49
-1.0
 74
     0
  0
LTYPE
  5
6D
330
5
100
AcDbSymbolTableRecord
100
AcDbLinetypeTableRecord
  2
CENTER
 70
     0
  3
__ . __
 72
    65
 73
     4
 40
7.0
 49
4.0
 74
     0
 49
-1.0
 74
     0
 49
1.0
 74
     0
 49
-1.0
 74
     0
  0
LTYPE
  5
E7
330
5
100
AcDbSymbolTableRecord
100
AcDbLinetypeTableRecord
  2
STRICHPUNKT
 70
     0
  3
Strichpunkt __ . __ . __ . __ . __ . __ . __ . 
 72
    65
 73
     4
 40
25.4
 49
12.7
 74
     0
 49
-6.349999999999999
 74
     0
 49
0.0
 74
     0
 49
-6.349999999999999
 74
     0
  0
LTYPE
  5
E8
330
5
100
AcDbSymbolTableRecord
100
AcDbLinetypeTableRecord
  2
STRICHLINIE
 70
     0
  3
Strichlinie __ __ __ __ __ __ __ __ __ __ __ __
 72
    65
 73
     2
 40
19.05
 49
12.7
 74
     0
 49
-6.349999999999999
 74
     0
  0
LTYPE
  5
4DA
330
5
100
AcDbSymbolTableRecord
100
AcDbLinetypeTableRecord
  2
HIDDEN
 70
     0
  3
Verdeckt
 72
    65
 73
     2
 40
9.525
 49
6.349999999999999
 74
     0
 49
-3.174999999999999
 74
     0
  0
LTYPE
  5
4DB
330
5
100
AcDbSymbolTableRecord
100
AcDbLinetypeTableRecord
  2
PHANTOM2
 70
     0
  3
Phantom (.5x) ___ _ _ ___ _ _ ___ _ _ ___ _ _
 72
    65
 73
     6
 40
31.75
 49
15.875
 74
     0
 49
-3.174999999999999
 74
     0
 49
3.174999999999999
 74
     0
 49
-3.174999999999999
 74
     0
 49
3.174999999999999
 74
     0
 49
-3.174999999999999
 74
     0
  0
LTYPE
  5
7DC
330
5
100
AcDbSymbolTableRecord
100
AcDbLinetypeTableRecord
  2
AUSGEZOGEN
 70
     0
  3
Ausgezogene Linie
 72
    65
 73
     0
 40
0.0
  0
ENDTAB
  0
TABLE
  2
LAYER
  5
2
102
{ACAD_XDICTIONARY
360
7F7
102
}
330
0
100
AcDbSymbolTable
 70
    13
  0
LAYER
  5
10
330
2
100
AcDbSymbolTableRecord
100
AcDbLayerTableRecord
  2
0
 70
     0
 62
     7
  6
Continuous
370
    -3
390
F
  0
LAYER
  5
E9
330
2
100
AcDbSymbolTableRecord
100
AcDbLayerTableRecord
  2
P-0000
 70
     0
 62
     7
  6
Continuous
370
    -3
390
F
  0
LAYER
  5
EA
330
2
100
AcDbSymbolTableRecord
100
AcDbLayerTableRecord
  2
P-1A8E
 70
     0
 62
     7
  6
Continuous
370
    -3
390
F
  0
LAYER
  5
EB
330
2
100
AcDbSymbolTableRecord
100
AcDbLayerTableRecord
  2
Defpoints
 70
     0
 62
     7
  6
Continuous
290
     0
370
    -3
390
F
  0
LAYER
  5
7DD
330
2
100
AcDbSymbolTableRecord
100
AcDbLayerTableRecord
  2
0N
 70
     0
 62
     7
  6
Continuous
370
    -3
390
F
  0
LAYER
  5
7DE
330
2
100
AcDbSymbolTableRecord
100
AcDbLayerTableRecord
  2
RAHM2
 70
     0
 62
     1
  6
Continuous
370
    -3
390
F
  0
LAYER
  5
7DF
330
2
100
AcDbSymbolTableRecord
100
AcDbLayerTableRecord
  2
AM_BOR
 70
     0
 62
     7
  6
Continuous
370
    50
390
F
1001
AcAecLayerStandard
1000

1000

  0
LAYER
  5
7E0
330
2
100
AcDbSymbolTableRecord
100
AcDbLayerTableRecord
  2
MITTE
 70
     0
 62
     1
  6
STRICHPUNKT
370
    -3
390
F
  0
LAYER
  5
7E1
330
2
100
AcDbSymbolTableRecord
100
AcDbLayerTableRecord
  2
TEXT50
 70
     0
 62
     7
  6
Continuous
370
    -3
390
F
  0
LAYER
  5
7E2
330
2
100
AcDbSymbolTableRecord
100
AcDbLayerTableRecord
  2
TEXT35
 70
     0
 62
   132
  6
Continuous
370
    -3
390
F
  0
LAYER
  5
7E3
330
2
100
AcDbSymbolTableRecord
100
AcDbLayerTableRecord
  2
TEXT25
 70
     0
 62
     3
  6
Continuous
370
    -3
390
F
  0
LAYER
  5
7E4
330
2
100
AcDbSymbolTableRecord
100
AcDbLayerTableRecord
  2
KOPF
 70
     0
 62
     1
  6
AUSGEZOGEN
370
    -3
390
F
  0
LAYER
  5
7E5
330
2
100
AcDbSymbolTableRecord
100
AcDbLayerTableRecord
  2
Sperrlayer
 70
     1
 62
    -7
  6
Continuous
370
    50
390
F
  0
ENDTAB
  0
TABLE
  2
STYLE
  5
3
330
0
100
AcDbSymbolTable
 70
    13
  0
STYLE
  5
11
330
3
100
AcDbSymbolTableRecord
100
AcDbTextStyleTableRecord
  2
STANDARD
 70
     0
 40
0.0
 41
1.0
 50
0.0
 71
     0
 42
2.5
  3
ISOCP.SHX
  4

  0
STYLE
  5
56
330
3
100
AcDbSymbolTableRecord
100
AcDbTextStyleTableRecord
  2

 70
     1
 40
0.0
 41
1.0
 50
0.0
 71
     0
 42
2.5
  3
ltypeshp.shx
  4

  0
STYLE
  5
5D
330
3
100
AcDbSymbolTableRecord
100
AcDbTextStyleTableRecord
  2
ACDINTS
 70
     0
 40
1.0
 41
1.0
 50
0.0
 71
     0
 42
2.5
  3
isocp.shx
  4

  0
STYLE
  5
68
330
3
100
AcDbSymbolTableRecord
100
AcDbTextStyleTableRecord
  2
ACDINGDT
 70
     0
 40
0.0
 41
1.0
 50
0.0
 71
     0
 42
2.5
  3
AMGDT
  4

  0
STYLE
  5
7D
330
3
100
AcDbSymbolTableRecord
100
AcDbTextStyleTableRecord
  2
USER1
 70
     0
 40
0.0
 41
1.0
 50
0.0
 71
     0
 42
2.5
  3
TXT.SHX
  4

  0
STYLE
  5
7E
330
3
100
AcDbSymbolTableRecord
100
AcDbTextStyleTableRecord
  2
USER2
 70
     0
 40
0.0
 41
1.0
 50
0.0
 71
     0
 42
2.5
  3
SIMPLEX.SHX
  4

  0
STYLE
  5
7F
330
3
100
AcDbSymbolTableRecord
100
AcDbTextStyleTableRecord
  2
USER3
 70
     0
 40
0.0
 41
1.0
 50
0.0
 71
     0
 42
2.5
  3
ITALIC.SHX
  4

  0
STYLE
  5
EC
330
3
100
AcDbSymbolTableRecord
100
AcDbTextStyleTableRecord
  2
STANDARD_M
 70
     0
 40
0.0
 41
0.9
 50
0.0
 71
     0
 42
2.5
  3
txt.shx
  4

  0
STYLE
  5
7E6
330
3
100
AcDbSymbolTableRecord
100
AcDbTextStyleTableRecord
  2
TEXT20
 70
     0
 40
2.0
 41
0.8
 50
0.0
 71
     0
 42
2.0
  3
isocp3.shx
  4

  0
STYLE
  5
7E7
330
3
100
AcDbSymbolTableRecord
100
AcDbTextStyleTableRecord
  2
TEXT35
 70
     0
 40
3.5
 41
0.8
 50
0.0
 71
     0
 42
3.5
  3
isocp3.shx
  4

  0
STYLE
  5
7E8
330
3
100
AcDbSymbolTableRecord
100
AcDbTextStyleTableRecord
  2
TEXT50
 70
     0
 40
5.0
 41
0.8
 50
0.0
 71
     0
 42
5.0
  3
isocp3.shx
  4

  0
STYLE
  5
7E9
330
3
100
AcDbSymbolTableRecord
100
AcDbTextStyleTableRecord
  2
KOPF
 70
     0
 40
0.0
 41
0.9
 50
10.0
 71
     0
 42
2.5
  3
dutchi.ttf
  4

1001
ACAD
1000
Dutch801 Rm BT
1071
 16777234
  0
ENDTAB
  0
TABLE
  2
VIEW
  5
6
330
0
100
AcDbSymbolTable
 70
     0
  0
ENDTAB
  0
TABLE
  2
UCS
  5
7
330
0
100
AcDbSymbolTable
 70
     0
  0
ENDTAB
  0
TABLE
  2
APPID
  5
9
330
0
100
AcDbSymbolTable
 70
    26
  0
APPID
  5
12
330
9
100
AcDbSymbolTableRecord
100
AcDbRegAppTableRecord
  2
ACAD
 70
     0
  0
APPID
  5
30
330
9
100
AcDbSymbolTableRecord
100
AcDbRegAppTableRecord
  2
MCAD_NO_VIS
 70
     0
  0
APPID
  5
31
330
9
100
AcDbSymbolTableRecord
100
AcDbRegAppTableRecord
  2
ACAD_TEMP_GRAPHIC
 70
     0
  0
APPID
  5
44
330
9
100
AcDbSymbolTableRecord
100
AcDbRegAppTableRecord
  2
ACATTRIBSERVICES
 70
     0
  0
APPID
  5
F1
330
9
100
AcDbSymbolTableRecord
100
AcDbRegAppTableRecord
  2
ACME_LAYERS
 70
     0
  0
APPID
  5
4DD
330
9
100
AcDbSymbolTableRecord
100
AcDbRegAppTableRecord
  2
AD_DRAW
 70
     0
  0
APPID
  5
4FB
330
9
100
AcDbSymbolTableRecord
100
AcDbRegAppTableRecord
  2
DESIGNERASSEMBLIES
 70
     0
  0
APPID
  5
505
330
9
100
AcDbSymbolTableRecord
100
AcDbRegAppTableRecord
  2
ACAD_DSTYLE_DIMARC_LENGTH_SYMBOL
 70
     0
  0
APPID
  5
506
330
9
100
AcDbSymbolTableRecord
100
AcDbRegAppTableRecord
  2
ACAD_DSTYLE_DIMJOGGED_JOGANGLE_SYMBOL
 70
     0
  0
APPID
  5
516
330
9
100
AcDbSymbolTableRecord
100
AcDbRegAppTableRecord
  2
ACADM_DIM_EDIT
 70
     0
  0
APPID
  5
517
330
9
100
AcDbSymbolTableRecord
100
AcDbRegAppTableRecord
  2
AMDT_DM_ADJ
 70
     0
  0
APPID
  5
7EA
330
9
100
AcDbSymbolTableRecord
100
AcDbRegAppTableRecord
  2
GENIUS_GENOENT_13
 70
     0
  0
APPID
  5
7EB
330
9
100
AcDbSymbolTableRecord
100
AcDbRegAppTableRecord
  2
GENIUS_GENREC_14
 70
     0
  0
APPID
  5
7EC
330
9
100
AcDbSymbolTableRecord
100
AcDbRegAppTableRecord
  2
GENIUS_GENODEF_13
 70
     0
  0
APPID
  5
7ED
330
9
100
AcDbSymbolTableRecord
100
AcDbRegAppTableRecord
  2
GENIUS_GENOBJ-N-REC_13
 70
     0
  0
APPID
  5
7EE
330
9
100
AcDbSymbolTableRecord
100
AcDbRegAppTableRecord
  2
GENIUS_GENOLIS_13
 70
     0
  0
APPID
  5
7EF
330
9
100
AcDbSymbolTableRecord
100
AcDbRegAppTableRecord
  2
GENIUS_GENOREF_13
 70
     0
  0
APPID
  5
7F0
330
9
100
AcDbSymbolTableRecord
100
AcDbRegAppTableRecord
  2
GENIUS_VERSION2
 70
     0
  0
APPID
  5
7F1
330
9
100
AcDbSymbolTableRecord
100
AcDbRegAppTableRecord
  2
AcAecLayerStandard
 70
     0
  0
APPID
  5
7F2
330
9
100
AcDbSymbolTableRecord
100
AcDbRegAppTableRecord
  2
GENIUS_GENTRA_14
 70
     0
  0
APPID
  5
7F3
330
9
100
AcDbSymbolTableRecord
100
AcDbRegAppTableRecord
  2
GENIUS_GENOBJ-N-TIT_13
 70
     0
  0
APPID
  5
7F4
330
9
100
AcDbSymbolTableRecord
100
AcDbRegAppTableRecord
  2
GENIUS_GENTITLE_13
 70
     0
  0
APPID
  5
7F5
330
9
100
AcDbSymbolTableRecord
100
AcDbRegAppTableRecord
  2
GENIUS_GENSCREG_15
 70
     0
  0
APPID
  5
7F6
330
9
100
AcDbSymbolTableRecord
100
AcDbRegAppTableRecord
  2
GENIUS_GENOBJ-N-SDF_13
 70
     0
  0
APPID
  5
A8C
330
9
100
AcDbSymbolTableRecord
100
AcDbRegAppTableRecord
  2
ACAD_PSEXT
 70
     0
  0
APPID
  5
BD5
330
9
100
AcDbSymbolTableRecord
100
AcDbRegAppTableRecord
  2
ACAD_MLEADERVER
 70
     0
  0
ENDTAB
  0
TABLE
  2
DIMSTYLE
  5
A
330
0
100
AcDbSymbolTable
 70
    13
100
AcDbDimStyleTable
 71
     1
340
70
  0
DIMSTYLE
105
27
330
A
100
AcDbSymbolTableRecord
100
AcDbDimStyleTableRecord
  2
ISO-25
 70
     0
 41
2.5
 42
0.625
 43
3.75
 44
1.25
 73
     0
 74
     0
 77
     1
 78
     8
140
2.5
141
2.5
143
0.03937007874016
147
0.625
171
     3
172
     1
271
     2
272
     2
274
     3
278
    44
283
     0
284
     8
340
11
  0
DIMSTYLE
105
70
330
A
100
AcDbSymbolTableRecord
100
AcDbDimStyleTableRecord
  2
AM_DIN
 70
     0
  4
"
 41
2.5
 42
1.0
 43
10.0
 44
1.0
 47
0.1
 48
0.1
 73
     0
 74
     0
 77
     1
 78
     8
 79
     2
140
3.5
141
0.0
143
0.0393701
146
0.71
147
1.5
172
     1
176
   256
177
   256
178
     2
271
     2
272
     3
274
     4
283
     0
284
     8
340
11
371
    -1
372
    -1
1001
ACAD_DSTYLE_DIMJOGGED_JOGANGLE_SYMBOL
1070
   384
1040
1.570796326794896
  0
DIMSTYLE
105
71
330
A
100
AcDbSymbolTableRecord
100
AcDbDimStyleTableRecord
  2
AM_DIN$3
 70
     0
  4
"
 41
2.5
 42
1.0
 43
10.0
 44
1.0
 47
0.1
 48
0.1
 73
     0
 77
     1
 78
     8
 79
     2
140
3.5
141
0.0
143
0.0393701
146
0.71
147
1.5
176
   256
177
   256
178
     2
271
     2
272
     3
274
     4
283
     0
284
     8
288
     1
289
     0
340
11
371
    -1
372
    -1
1001
ACAD_DSTYLE_DIMJOGGED_JOGANGLE_SYMBOL
1070
   384
1040
1.570796326794896
  0
DIMSTYLE
105
72
330
A
100
AcDbSymbolTableRecord
100
AcDbDimStyleTableRecord
  2
AM_DIN$4
 70
     0
  4
"
 41
2.5
 42
1.0
 43
10.0
 44
1.0
 47
0.1
 48
0.1
 73
     0
 77
     1
 78
     8
 79
     2
140
3.5
141
0.0
143
0.0393701
146
0.71
147
1.5
176
   256
177
   256
178
     2
271
     2
272
     3
274
     4
283
     0
284
     8
288
     1
289
     0
340
11
371
    -1
372
    -1
1001
ACAD_DSTYLE_DIMJOGGED_JOGANGLE_SYMBOL
1070
   384
1040
1.570796326794896
  0
DIMSTYLE
105
73
330
A
100
AcDbSymbolTableRecord
100
AcDbDimStyleTableRecord
  2
AM_DIN$6
 70
     0
  4
"
 41
2.5
 42
1.0
 43
10.0
 44
1.0
 47
0.1
 48
0.1
 73
     0
 74
     0
 78
     8
 79
     2
140
3.5
141
0.0
143
0.0393701
146
0.71
147
1.5
172
     1
176
   256
177
   256
178
     2
271
     2
272
     3
274
     4
283
     0
284
     8
340
11
371
    -1
372
    -1
1001
ACAD_DSTYLE_DIMJOGGED_JOGANGLE_SYMBOL
1070
   384
1040
1.570796326794896
  0
DIMSTYLE
105
74
330
A
100
AcDbSymbolTableRecord
100
AcDbDimStyleTableRecord
  2
AM_DIN$7
 70
     0
  4
"
 41
2.5
 42
1.0
 43
10.0
 44
1.0
 47
0.1
 48
0.1
 73
     0
 74
     0
 77
     1
 78
     8
 79
     2
140
5.0
141
0.0
143
0.0393701
146
0.71
147
1.5
172
     1
176
   256
177
   256
178
     2
271
     2
272
     3
274
     4
283
     0
284
     8
340
11
371
    -1
372
    -1
1001
ACAD_DSTYLE_DIMJOGGED_JOGANGLE_SYMBOL
1070
   384
1040
1.570796326794896
  0
DIMSTYLE
105
75
330
A
100
AcDbSymbolTableRecord
100
AcDbDimStyleTableRecord
  2
AM_DIN$SF
 70
     0
  4
"
 41
2.5
 42
1.0
 43
10.0
 44
1.0
 47
0.1
 48
0.1
 73
     0
 74
     0
 75
     1
 76
     1
 77
     1
 78
     8
 79
     2
140
3.5
141
0.0
143
0.0393701
146
0.71
147
1.5
172
     1
176
   256
177
   256
178
     2
271
     2
272
     3
274
     4
283
     0
284
     8
340
11
371
    -1
372
    -1
1001
ACAD_DSTYLE_DIMJOGGED_JOGANGLE_SYMBOL
1070
   384
1040
1.570796326794896
  0
DIMSTYLE
105
7A
330
A
100
AcDbSymbolTableRecord
100
AcDbDimStyleTableRecord
  2
AM_DIN$SH
 70
     0
  4
"
 41
2.5
 42
1.0
 43
10.0
 44
1.0
 47
0.1
 48
0.1
 73
     0
 74
     0
 75
     1
 76
     1
 77
     1
 78
     8
 79
     2
140
3.5
141
0.0
143
0.0393701
144
2.0
146
0.71
147
1.5
172
     1
173
     1
176
   256
177
   256
178
     2
271
     2
272
     3
274
     4
283
     0
284
     8
340
11
343
76
371
    -1
372
    -1
1001
ACAD_DSTYLE_DIMJOGGED_JOGANGLE_SYMBOL
1070
   384
1040
1.570796326794896
  0
DIMSTYLE
105
ED
102
{ACAD_REACTORS
330
964
330
9CD
102
}
330
A
100
AcDbSymbolTableRecord
100
AcDbDimStyleTableRecord
  2
443N6681_001_00111141340
 70
     0
 41
3.149999999999999
 42
0.0
 43
3.75
 44
2.0
 73
     0
 74
     0
 77
     1
 78
     8
 79
     2
140
3.5
141
0.0
143
0.03937007874016
145
2.0
147
2.0
171
     3
172
     1
173
     1
176
     3
177
     3
178
     2
179
     2
271
     2
272
     2
274
     3
283
     0
284
     8
340
11
  0
DIMSTYLE
105
EE
102
{ACAD_REACTORS
330
95B
102
}
330
A
100
AcDbSymbolTableRecord
100
AcDbDimStyleTableRecord
  2
443306681_001_00111141340
 70
     0
 41
3.149999999999999
 42
0.0
 43
3.75
 44
2.0
 73
     0
 74
     0
 77
     1
 78
     8
 79
     2
140
3.5
141
0.0
143
0.03937007874016
145
2.0
146
0.6
147
2.0
171
     3
172
     1
173
     1
176
     3
177
     3
178
     2
179
     2
271
     2
272
     0
274
     3
283
     0
284
     8
288
     1
340
11
  0
DIMSTYLE
105
EF
102
{ACAD_REACTORS
330
90A
102
}
330
A
100
AcDbSymbolTableRecord
100
AcDbDimStyleTableRecord
  2
553N6681_001_00111141340
 70
     0
 41
3.149999999999999
 42
0.0
 43
3.75
 44
2.0
 73
     0
 74
     0
 77
     1
 78
     8
 79
     2
140
3.5
141
0.0
143
0.03937007874016
145
2.0
146
0.6
147
2.0
171
     3
172
     1
173
     1
176
     3
177
     3
178
     2
179
     1
271
     1
272
     0
274
     3
283
     0
284
     8
288
     1
340
11
  0
DIMSTYLE
105
F0
102
{ACAD_REACTORS
330
912
102
}
330
A
100
AcDbSymbolTableRecord
100
AcDbDimStyleTableRecord
  2
553316681_001_00111141340
 70
     0
 41
3.149999999999999
 42
0.0
 43
3.75
 44
2.0
 73
     0
 74
     0
 77
     1
 78
     8
 79
     2
140
3.5
141
0.0
143
0.03937007874016
145
2.0
146
0.6
147
2.0
171
     3
172
     1
173
     1
176
     3
177
     3
178
     2
179
     1
271
     1
272
     0
274
     3
283
     0
284
     8
288
     1
340
11
  0
ENDTAB
  0
TABLE
  2
BLOCK_RECORD
  5
1
330
0
100
AcDbSymbolTable
 70
    11
  0
BLOCK_RECORD
  5
1F
102
{ACAD_XDICTIONARY
360
81
102
}
330
1
100
AcDbSymbolTableRecord
100
AcDbBlockTableRecord
  2
*Model_Space
340
22
  0
BLOCK_RECORD
  5
1B
330
1
100
AcDbSymbolTableRecord
100
AcDbBlockTableRecord
  2
*Paper_Space
340
1E
  0
BLOCK_RECORD
  5
23
330
1
100
AcDbSymbolTableRecord
100
AcDbBlockTableRecord
  2
*Paper_Space0
340
26
  0
BLOCK_RECORD
  5
76
330
1
100
AcDbSymbolTableRecord
100
AcDbBlockTableRecord
  2
GENAXEH
340
0
  0
BLOCK_RECORD
  5
55D
330
1
100
AcDbSymbolTableRecord
100
AcDbBlockTableRecord
  2
ACO_A2
340
0
102
{BLKREFS
331
9EC
102
}
  0
BLOCK_RECORD
  5
5A6
102
{ACAD_XDICTIONARY
360
5A7
102
}
330
1
100
AcDbSymbolTableRecord
100
AcDbBlockTableRecord
  2
ACO-SF02-GR
340
0
102
{BLKREFS
331
9ED
102
}
  0
BLOCK_RECORD
  5
A10
330
1
100
AcDbSymbolTableRecord
100
AcDbBlockTableRecord
  2
*D4
340
0
  0
BLOCK_RECORD
  5
A1E
330
1
100
AcDbSymbolTableRecord
100
AcDbBlockTableRecord
  2
*D5
340
0
  0
BLOCK_RECORD
  5
A28
330
1
100
AcDbSymbolTableRecord
100
AcDbBlockTableRecord
  2
*D6
340
0
  0
BLOCK_RECORD
  5
A35
330
1
100
AcDbSymbolTableRecord
100
AcDbBlockTableRecord
  2
*D7
340
0
  0
BLOCK_RECORD
  5
A43
330
1
100
AcDbSymbolTableRecord
100
AcDbBlockTableRecord
  2
*D8
340
0
  0
ENDTAB
  0
ENDSEC
  0
SECTION
  2
BLOCKS
  0
BLOCK
  5
20
330
1F
100
AcDbEntity
  8
0
100
AcDbBlockBegin
  2
*Model_Space
 70
     0
 10
0.0
 20
0.0
 30
0.0
  3
*Model_Space
  1

  0
ENDBLK
  5
21
330
1F
100
AcDbEntity
  8
0
100
AcDbBlockEnd
  0
BLOCK
  5
1C
330
1B
100
AcDbEntity
 67
     1
  8
0
100
AcDbBlockBegin
  2
*Paper_Space
 70
     0
 10
0.0
 20
0.0
 30
0.0
  3
*Paper_Space
  1

  0
ENDBLK
  5
1D
330
1B
100
AcDbEntity
 67
     1
  8
0
100
AcDbBlockEnd
  0
BLOCK
  5
24
330
23
100
AcDbEntity
 67
     1
  8
0
100
AcDbBlockBegin
  2
*Paper_Space0
 70
     0
 10
0.0
 20
0.0
 30
0.0
  3
*Paper_Space0
  1

  0
ENDBLK
  5
25
330
23
100
AcDbEntity
 67
     1
  8
0
100
AcDbBlockEnd
  0
BLOCK
  5
78
330
76
100
AcDbEntity
  8
0
100
AcDbBlockBegin
  2
GENAXEH
 70
     0
 10
0.0
 20
0.0
 30
0.0
  3
GENAXEH
  1

  0
LINE
  5
77
330
76
100
AcDbEntity
  8
0
100
AcDbLine
 10
-1.0
 20
0.0
 30
0.0
 11
1.0
 21
0.0
 31
0.0
  0
ENDBLK
  5
79
330
76
100
AcDbEntity
  8
0
100
AcDbBlockEnd
  0
BLOCK
  5
55E
330
55D
100
AcDbEntity
  8
0
100
AcDbBlockBegin
  2
ACO_A2
 70
     0
 10
0.0
 20
0.0
 30
0.0
  3
ACO_A2
  1

  0
LINE
  5
55F
330
55D
100
AcDbEntity
  8
AM_BOR
 62
     1
370
    25
100
AcDbLine
 10
10.00000000000002
 20
410.0
 30
0.0
 11
584.0
 21
410.0
 31
0.0
  0
LINE
  5
560
330
55D
100
AcDbEntity
  8
0
100
AcDbLine
 10
5.0
 20
5.0
 30
0.0
 11
5.000000000000024
 21
415.0
 31
0.0
  0
TEXT
  5
561
330
55D
100
AcDbEntity
  8
0
 60
     1
100
AcDbText
 10
583.9999999999998
 20
5.0
 30
0.0
 40
3.5
  1
!GENTITLE-INSERT
100
AcDbText
  0
TEXT
  5
562
330
55D
100
AcDbEntity
  8
0
 60
     1
100
AcDbText
 10
10.0
 20
10.00000000000005
 30
0.0
 40
3.5
  1
!GENTITLE-LL
100
AcDbText
  0
TEXT
  5
563
330
55D
100
AcDbEntity
  8
0
 60
     1
100
AcDbText
 10
584.0
 20
410.0
 30
0.0
 40
3.5
  1
!GENTITLE-RU
100
AcDbText
  0
TEXT
  5
564
330
55D
100
AcDbEntity
  8
0
 60
     1
100
AcDbText
 10
594.0
 20
420.0
 30
0.0
 40
3.5
  1
!GENTITLE-MAX
100
AcDbText
  0
LINE
  5
565
330
55D
100
AcDbEntity
  8
AM_BOR
 62
     1
370
    25
100
AcDbLine
 10
401.9999999999998
 20
0.0
 30
0.0
 11
401.9999999999998
 21
5.000000000000023
 31
0.0
  0
LINE
  5
566
330
55D
100
AcDbEntity
  8
AM_BOR
 62
     1
370
    25
100
AcDbLine
 10
593.9999999999998
 20
0.0
 30
0.0
 11
401.9999999999998
 21
0.0
 31
0.0
  0
LINE
  5
567
330
55D
100
AcDbEntity
  8
AM_BOR
 62
     1
370
    25
100
AcDbLine
 10
331.1199999999999
 20
10.00000000000003
 30
0.0
 11
9.999999999999886
 21
10.00000000000007
 31
0.0
  0
LINE
  5
568
330
55D
100
AcDbEntity
  8
AM_BOR
 62
     1
370
    25
100
AcDbLine
 10
444.2499999999999
 20
415.0
 30
0.0
 11
444.2499999999999
 21
410.0
 31
0.0
  0
LINE
  5
569
330
55D
100
AcDbEntity
  8
AM_BOR
 62
     1
370
    25
100
AcDbLine
 10
516.6249999999998
 20
415.0
 30
0.0
 11
516.6249999999998
 21
410.0
 31
0.0
  0
TEXT
  5
56A
330
55D
100
AcDbEntity
  8
AM_BOR
 62
     1
370
    25
100
AcDbText
 10
480.0
 20
410.5
 30
0.0
 40
4.0
  1
7
100
AcDbText
  0
TEXT
  5
56B
330
55D
100
AcDbEntity
  8
AM_BOR
 62
     1
370
    25
100
AcDbText
 10
552.5
 20
410.5
 30
0.0
 40
4.0
  1
8
100
AcDbText
  0
TEXT
  5
56C
330
55D
100
AcDbEntity
  8
AM_BOR
 62
     1
370
    25
100
AcDbText
 10
407.5
 20
410.5
 30
0.0
 40
4.0
  1
6
100
AcDbText
  0
LINE
  5
56D
330
55D
100
AcDbEntity
  8
AM_BOR
 62
     1
370
    25
100
AcDbLine
 10
371.8749999999999
 20
415.0
 30
0.0
 11
371.8749999999999
 21
410.0
 31
0.0
  0
TEXT
  5
56E
330
55D
100
AcDbEntity
  8
AM_BOR
 62
     1
370
    25
100
AcDbText
 10
335.0
 20
410.5
 30
0.0
 40
4.0
  1
5
100
AcDbText
  0
LINE
  5
56F
330
55D
100
AcDbEntity
  8
AM_BOR
 62
     1
370
    25
100
AcDbLine
 10
82.37499999999991
 20
415.0
 30
0.0
 11
82.37499999999991
 21
410.0
 31
0.0
  0
LINE
  5
570
330
55D
100
AcDbEntity
  8
AM_BOR
 62
     1
370
    25
100
AcDbLine
 10
154.7499999999999
 20
415.0
 30
0.0
 11
154.7499999999999
 21
410.0
 31
0.0
  0
LINE
  5
571
330
55D
100
AcDbEntity
  8
AM_BOR
 62
     1
370
    25
100
AcDbLine
 10
227.1249999999999
 20
415.0
 30
0.0
 11
227.1249999999999
 21
410.0
 31
0.0
  0
LINE
  5
572
330
55D
100
AcDbEntity
  8
AM_BOR
 62
     1
370
    25
100
AcDbLine
 10
299.4999999999999
 20
415.0
 30
0.0
 11
299.4999999999999
 21
410.0
 31
0.0
  0
TEXT
  5
573
330
55D
100
AcDbEntity
  8
AM_BOR
 62
     1
370
    25
100
AcDbText
 10
45.50000000000002
 20
410.5
 30
0.0
 40
4.0
  1
1
100
AcDbText
  0
TEXT
  5
574
330
55D
100
AcDbEntity
  8
AM_BOR
 62
     1
370
    25
100
AcDbText
 10
117.5
 20
410.5
 30
0.0
 40
4.0
  1
2
100
AcDbText
  0
TEXT
  5
575
330
55D
100
AcDbEntity
  8
AM_BOR
 62
     1
370
    25
100
AcDbText
 10
190.5
 20
410.5
 30
0.0
 40
4.0
  1
3
100
AcDbText
  0
TEXT
  5
576
330
55D
100
AcDbEntity
  8
AM_BOR
 62
     1
370
    25
100
AcDbText
 10
263.0
 20
410.5
 30
0.0
 40
4.0
  1
4
100
AcDbText
  0
LINE
  5
577
330
55D
100
AcDbEntity
  8
AM_BOR
 62
     1
370
    25
100
AcDbLine
 10
588.9831138758759
 20
76.71791910685186
 30
0.0
 11
584.0
 21
76.71791910685186
 31
0.0
  0
LINE
  5
578
330
55D
100
AcDbEntity
  8
AM_BOR
 62
     1
370
    25
100
AcDbLine
 10
588.9831138758759
 20
143.3779191068518
 30
0.0
 11
584.0
 21
143.3779191068518
 31
0.0
  0
LINE
  5
579
330
55D
100
AcDbEntity
  8
AM_BOR
 62
     1
370
    25
100
AcDbLine
 10
588.9831138758759
 20
210.0379191068519
 30
0.0
 11
584.0
 21
210.0379191068519
 31
0.0
  0
LINE
  5
57A
330
55D
100
AcDbEntity
  8
AM_BOR
 62
     1
370
    25
100
AcDbLine
 10
588.9831138758759
 20
276.6979191068519
 30
0.0
 11
584.0
 21
276.6979191068519
 31
0.0
  0
LINE
  5
57B
330
55D
100
AcDbEntity
  8
AM_BOR
 62
     1
370
    25
100
AcDbLine
 10
588.9831138758759
 20
343.3579191068519
 30
0.0
 11
584.0
 21
343.3579191068519
 31
0.0
  0
TEXT
  5
57C
330
55D
100
AcDbEntity
  8
AM_BOR
 62
     1
370
    25
100
AcDbText
 10
585.0
 20
43.0
 30
0.0
 40
4.0
  1
F
100
AcDbText
  0
TEXT
  5
57D
330
55D
100
AcDbEntity
  8
AM_BOR
 62
     1
370
    25
100
AcDbText
 10
585.0
 20
109.0
 30
0.0
 40
4.0
  1
E
100
AcDbText
  0
TEXT
  5
57E
330
55D
100
AcDbEntity
  8
AM_BOR
 62
     1
370
    25
100
AcDbText
 10
585.0
 20
176.0
 30
0.0
 40
4.0
  1
D
100
AcDbText
  0
TEXT
  5
57F
330
55D
100
AcDbEntity
  8
AM_BOR
 62
     1
370
    25
100
AcDbText
 10
585.0
 20
243.0
 30
0.0
 40
4.0
  1
C
100
AcDbText
  0
TEXT
  5
580
330
55D
100
AcDbEntity
  8
AM_BOR
 62
     1
370
    25
100
AcDbText
 10
585.0
 20
310.0
 30
0.0
 40
4.0
  1
B
100
AcDbText
  0
TEXT
  5
581
330
55D
100
AcDbEntity
  8
AM_BOR
 62
     1
370
    25
100
AcDbText
 10
585.0
 20
376.0
 30
0.0
 40
4.0
  1
A
100
AcDbText
  0
TEXT
  5
582
330
55D
100
AcDbEntity
  8
AM_BOR
 62
     1
370
    25
100
AcDbText
 10
263.0
 20
5.5
 30
0.0
 40
4.0
  1
4
100
AcDbText
  0
TEXT
  5
583
330
55D
100
AcDbEntity
  8
AM_BOR
 62
     1
370
    25
100
AcDbText
 10
190.5
 20
5.5
 30
0.0
 40
4.0
  1
3
100
AcDbText
  0
TEXT
  5
584
330
55D
100
AcDbEntity
  8
AM_BOR
 62
     1
370
    25
100
AcDbText
 10
117.5
 20
5.5
 30
0.0
 40
4.0
  1
2
100
AcDbText
  0
TEXT
  5
585
330
55D
100
AcDbEntity
  8
AM_BOR
 62
     1
370
    25
100
AcDbText
 10
45.49999999999999
 20
5.5
 30
0.0
 40
4.0
  1
1
100
AcDbText
  0
TEXT
  5
586
330
55D
100
AcDbEntity
  8
AM_BOR
 62
     1
370
    25
100
AcDbText
 10
6.0
 20
376.0
 30
0.0
 40
4.0
  1
A
100
AcDbText
  0
TEXT
  5
587
330
55D
100
AcDbEntity
  8
AM_BOR
 62
     1
370
    25
100
AcDbText
 10
6.0
 20
310.0
 30
0.0
 40
4.0
  1
B
100
AcDbText
  0
TEXT
  5
588
330
55D
100
AcDbEntity
  8
AM_BOR
 62
     1
370
    25
100
AcDbText
 10
6.0
 20
243.0
 30
0.0
 40
4.0
  1
C
100
AcDbText
  0
TEXT
  5
589
330
55D
100
AcDbEntity
  8
AM_BOR
 62
     1
370
    25
100
AcDbText
 10
6.0
 20
176.0
 30
0.0
 40
4.0
  1
D
100
AcDbText
  0
TEXT
  5
58A
330
55D
100
AcDbEntity
  8
AM_BOR
 62
     1
370
    25
100
AcDbText
 10
6.0
 20
109.0
 30
0.0
 40
4.0
  1
E
100
AcDbText
  0
TEXT
  5
58B
330
55D
100
AcDbEntity
  8
AM_BOR
 62
     1
370
    25
100
AcDbText
 10
6.0
 20
43.0
 30
0.0
 40
4.0
  1
F
100
AcDbText
  0
LINE
  5
58C
330
55D
100
AcDbEntity
  8
AM_BOR
 62
     1
370
    25
100
AcDbLine
 10
9.983113875875869
 20
343.3579191068519
 30
0.0
 11
5.0
 21
343.3579191068519
 31
0.0
  0
LINE
  5
58D
330
55D
100
AcDbEntity
  8
AM_BOR
 62
     1
370
    25
100
AcDbLine
 10
9.983113875875869
 20
276.6979191068519
 30
0.0
 11
5.0
 21
276.6979191068519
 31
0.0
  0
LINE
  5
58E
330
55D
100
AcDbEntity
  8
AM_BOR
 62
     1
370
    25
100
AcDbLine
 10
9.983113875875869
 20
210.0379191068519
 30
0.0
 11
5.0
 21
210.0379191068519
 31
0.0
  0
LINE
  5
58F
330
55D
100
AcDbEntity
  8
AM_BOR
 62
     1
370
    25
100
AcDbLine
 10
9.983113875875869
 20
143.3779191068518
 30
0.0
 11
5.0
 21
143.3779191068518
 31
0.0
  0
LINE
  5
590
330
55D
100
AcDbEntity
  8
AM_BOR
 62
     1
370
    25
100
AcDbLine
 10
9.983113875875869
 20
76.71791910685186
 30
0.0
 11
5.0
 21
76.71791910685186
 31
0.0
  0
LINE
  5
591
330
55D
100
AcDbEntity
  8
AM_BOR
 62
     1
370
    25
100
AcDbLine
 10
299.4999999999999
 20
10.00000000000007
 30
0.0
 11
299.4999999999999
 21
5.00000000000007
 31
0.0
  0
LINE
  5
592
330
55D
100
AcDbEntity
  8
AM_BOR
 62
     1
370
    25
100
AcDbLine
 10
227.1249999999999
 20
10.00000000000007
 30
0.0
 11
227.1249999999999
 21
5.00000000000007
 31
0.0
  0
LINE
  5
593
330
55D
100
AcDbEntity
  8
AM_BOR
 62
     1
370
    25
100
AcDbLine
 10
154.7499999999999
 20
10.00000000000007
 30
0.0
 11
154.7499999999999
 21
5.00000000000007
 31
0.0
  0
LINE
  5
594
330
55D
100
AcDbEntity
  8
AM_BOR
 62
     1
370
    25
100
AcDbLine
 10
82.37499999999988
 20
10.00000000000007
 30
0.0
 11
82.37499999999988
 21
5.00000000000007
 31
0.0
  0
LINE
  5
595
330
55D
100
AcDbEntity
  8
AM_BOR
 62
     1
370
    25
100
AcDbLine
 10
584.0
 20
410.0
 30
0.0
 11
583.9999999999998
 21
5.0
 31
0.0
  0
LINE
  5
596
330
55D
100
AcDbEntity
  8
AM_BOR
 62
     1
370
    25
100
AcDbLine
 10
10.0
 20
10.0
 30
0.0
 11
10.00000000000002
 21
410.0
 31
0.0
  0
LINE
  5
597
330
55D
100
AcDbEntity
  8
0
100
AcDbLine
 10
588.9999999999998
 20
5.0
 30
0.0
 11
4.999999999999886
 21
5.000000000000071
 31
0.0
  0
LINE
  5
598
330
55D
100
AcDbEntity
  8
0
100
AcDbLine
 10
589.0
 20
415.0
 30
0.0
 11
588.9999999999998
 21
5.0
 31
0.0
  0
LINE
  5
599
330
55D
100
AcDbEntity
  8
0
100
AcDbLine
 10
5.000000000000024
 20
415.0
 30
0.0
 11
589.0
 21
415.0
 31
0.0
  0
LINE
  5
59A
330
55D
100
AcDbEntity
  8
AM_BOR
 62
     1
370
    25
100
AcDbLine
 10
593.9999999999998
 20
0.0
 30
0.0
 11
-0.0000000000001137
 21
0.0000000000000727
 31
0.0
  0
LINE
  5
59B
330
55D
100
AcDbEntity
  8
AM_BOR
 62
     1
370
    25
100
AcDbLine
 10
0.0000000000000257
 20
420.0
 30
0.0
 11
594.0
 21
420.0
 31
0.0
  0
LINE
  5
59C
330
55D
100
AcDbEntity
  8
AM_BOR
 62
     1
370
    25
100
AcDbLine
 10
0.0
 20
0.0
 30
0.0
 11
0.0000000000000257
 21
420.0
 31
0.0
  0
LINE
  5
59D
330
55D
100
AcDbEntity
  8
AM_BOR
 62
     1
370
    25
100
AcDbLine
 10
210.0
 20
5.0
 30
0.0
 11
210.0
 21
0.0
 31
0.0
  0
LINE
  5
59E
330
55D
100
AcDbEntity
  8
AM_BOR
 62
     1
370
    25
100
AcDbLine
 10
0.0
 20
297.0
 30
0.0
 11
5.0
 21
297.0
 31
0.0
  0
LINE
  5
59F
330
55D
100
AcDbEntity
  8
AM_BOR
 62
     1
370
    25
100
AcDbLine
 10
105.0
 20
420.0
 30
0.0
 11
105.0
 21
415.0
 31
0.0
  0
LINE
  5
5A0
330
55D
100
AcDbEntity
  8
AM_BOR
 62
     1
370
    25
100
AcDbLine
 10
594.0
 20
420.0
 30
0.0
 11
593.9999999999998
 21
0.0
 31
0.0
1001
GENIUS_VERSION2
1070
     2
  0
LWPOLYLINE
  5
5A1
330
55D
100
AcDbEntity
  8
RAHM2
100
AcDbPolyline
 90
        4
 70
     1
 43
0.0
 10
401.1199999999998
 20
5.000000000000031
 10
331.1199999999999
 20
5.000000000000031
 10
331.1199999999999
 20
13.50000000000003
 10
401.1199999999998
 20
13.50000000000002
1001
GENIUS_GENREC_14
1002
{
1000
PXDIR
1011
331.1199999999999
1021
5.000000000000031
1031
0.0
1002
}
1002
{
1000
PORI
1011
401.1199999999998
1021
5.000000000000031
1031
0.0
1002
}
1002
{
1000
PINS
1011
401.1199999999998
1021
5.000000000000031
1031
0.0
1002
}
1002
{
1000
HVAL
1000
8.5
1002
}
1002
{
1000
H
1070
     2
1002
}
1002
{
1000
WVAL
1000
-70
1002
}
1002
{
1000
W
1070
     2
1002
}
1002
{
1000
C
1070
     1
1002
}
1001
GENIUS_GENODEF_13
1002
{
1000
HIER
1070
     0
1002
}
1002
{
1000
MANEDIT
1070
     0
1002
}
1002
{
1000
NOSEL
1070
     0
1002
}
1002
{
1000
BEHIND
1070
     0
1002
}
1002
{
1000
REACTOR
1002
}
1001
GENIUS_GENOBJ-N-REC_13
1002
{
1000
OWNER
1000
GEN
1002
}
  0
MTEXT
  5
5A2
102
{ACAD_XDICTIONARY
360
BAA
102
}
330
55D
100
AcDbEntity
  8
RAHM2
100
AcDbMText
 10
332.8183525451005
 20
12.32474728438519
 30
0.0
 40
3.5
 41
4.301759591192151
 71
     1
 72
     5
  1
\fArial|b0|i0|c0|p32;\U+00A9
 73
     1
 44
1.0
  0
MTEXT
  5
5A3
330
55D
100
AcDbEntity
  8
RAHM2
100
AcDbMText
 10
374.9022594589519
 20
9.282856166729633
 30
0.0
 40
2.5
 41
51.25
 71
     5
 72
     5
  1
\fArial Black|b0|i0|c0|p34;ACO\Fgeniso.shx; \fDutch801 Rm BT|b0|i1|c0|p18;passavant \P\Fgeniso.shx;\H1.8;Schutzvermerk nach DIN 34
 73
     1
 44
1.0
  0
MTEXT
  5
5A4
330
55D
100
AcDbEntity
  8
RAHM2
100
AcDbMText
 10
339.5515418910246
 20
11.24554815700972
 30
0.0
 40
2.0
 41
5.5175
 71
     1
 72
     5
  1
2001
 73
     1
 44
1.0
  0
ENDBLK
  5
5A5
330
55D
100
AcDbEntity
  8
0
100
AcDbBlockEnd
  0
BLOCK
  5
5A8
330
5A6
100
AcDbEntity
  8
0
100
AcDbBlockBegin
  2
ACO-SF02-GR
 70
     2
 10
0.0
 20
0.0
 30
0.0
  3
ACO-SF02-GR
  1

  0
LINE
  5
5A9
330
5A6
100
AcDbEntity
  8
KOPF
 62
    12
100
AcDbLine
 10
0.0
 20
5.0
 30
0.0
 11
-83.0
 21
5.0
 31
0.0
  0
LWPOLYLINE
  5
5AA
330
5A6
100
AcDbEntity
  8
KOPF
 62
    12
100
AcDbPolyline
 90
        2
 70
     0
 43
0.5
 10
-83.0
 20
10.0
 10
0.0
 20
10.0
  0
LINE
  5
5AB
330
5A6
100
AcDbEntity
  8
KOPF
100
AcDbLine
 10
-83.0
 20
10.0
 30
0.0
 11
0.0
 21
10.0
 31
0.0
  0
LINE
  5
5AC
330
5A6
100
AcDbEntity
  8
KOPF
100
AcDbLine
 10
0.0
 20
5.0
 30
0.0
 11
-83.0
 21
5.0
 31
0.0
  0
LWPOLYLINE
  5
5AD
330
5A6
100
AcDbEntity
  8
KOPF
 62
    12
100
AcDbPolyline
 90
        2
 70
     0
 43
0.5
 10
0.0
 20
68.49999999999997
 10
-182.0
 20
68.49999999999997
  0
LWPOLYLINE
  5
5AE
330
5A6
100
AcDbEntity
  8
KOPF
 62
    12
100
AcDbPolyline
 90
        2
 70
     0
 43
0.5
 10
0.0
 20
46.99999999999997
 10
-182.0
 20
46.99999999999997
  0
LWPOLYLINE
  5
5AF
330
5A6
100
AcDbEntity
  8
KOPF
 62
    12
100
AcDbPolyline
 90
        2
 70
     0
 43
0.5
 10
-0.2154115848244373
 20
27.23910754630094
 10
-182.1882840408789
 20
27.23910754630094
  0
LINE
  5
5B0
330
5A6
100
AcDbEntity
  8
KOPF
 62
    12
100
AcDbLine
 10
0.0
 20
88.49999999999996
 30
0.0
 11
-182.0
 21
88.49999999999996
 31
0.0
  0
LINE
  5
5B1
330
5A6
100
AcDbEntity
  8
KOPF
 62
    12
100
AcDbLine
 10
-182.0
 20
83.49999999999997
 30
0.0
 11
0.0
 21
83.49999999999997
 31
0.0
  0
LINE
  5
5B2
330
5A6
100
AcDbEntity
  8
KOPF
 62
    12
100
AcDbLine
 10
0.0
 20
73.49999999999997
 30
0.0
 11
-182.0
 21
73.49999999999997
 31
0.0
  0
LINE
  5
5B3
330
5A6
100
AcDbEntity
  8
KOPF
 62
    12
100
AcDbLine
 10
-162.682677
 20
78.49999999999997
 30
0.0
 11
0.0
 21
78.49999999999997
 31
0.0
  0
LINE
  5
5B4
330
5A6
100
AcDbEntity
  8
KOPF
100
AcDbLine
 10
0.0
 20
68.49999999999997
 30
0.0
 11
-182.0
 21
68.49999999999997
 31
0.0
  0
LINE
  5
5B5
330
5A6
100
AcDbEntity
  8
KOPF
100
AcDbLine
 10
0.0
 20
88.49999999999996
 30
0.0
 11
-182.0
 21
88.49999999999996
 31
0.0
  0
LINE
  5
5B6
330
5A6
100
AcDbEntity
  8
KOPF
100
AcDbLine
 10
-182.0
 20
83.49999999999997
 30
0.0
 11
0.0
 21
83.49999999999997
 31
0.0
  0
LINE
  5
5B7
330
5A6
100
AcDbEntity
  8
KOPF
100
AcDbLine
 10
0.0
 20
73.49999999999997
 30
0.0
 11
-182.0
 21
73.49999999999997
 31
0.0
  0
LINE
  5
5B8
330
5A6
100
AcDbEntity
  8
KOPF
100
AcDbLine
 10
-162.682677
 20
78.49999999999997
 30
0.0
 11
0.0
 21
78.49999999999997
 31
0.0
  0
LINE
  5
5B9
330
5A6
100
AcDbEntity
  8
KOPF
 62
    12
100
AcDbLine
 10
-182.0
 20
57.74999999999997
 30
0.0
 11
-100.0
 21
57.74999999999997
 31
0.0
  0
LINE
  5
5BA
330
5A6
100
AcDbEntity
  8
KOPF
 62
    12
100
AcDbLine
 10
-182.0
 20
41.99999999999996
 30
0.0
 11
-113.4
 21
41.99999999999996
 31
0.0
  0
LINE
  5
5BB
330
5A6
100
AcDbEntity
  8
KOPF
100
AcDbLine
 10
-182.0
 20
57.74999999999997
 30
0.0
 11
-100.0
 21
57.74999999999997
 31
0.0
  0
LINE
  5
5BC
330
5A6
100
AcDbEntity
  8
KOPF
100
AcDbLine
 10
-182.0
 20
41.99999999999996
 30
0.0
 11
-113.4
 21
41.99999999999996
 31
0.0
  0
LINE
  5
5BD
330
5A6
100
AcDbEntity
  8
KOPF
 62
    12
100
AcDbLine
 10
-142.0
 20
68.49999999999997
 30
0.0
 11
-142.0
 21
46.99999999999997
 31
0.0
  0
LINE
  5
5BE
330
5A6
100
AcDbEntity
  8
KOPF
 62
    12
100
AcDbLine
 10
-142.0
 20
68.49999999999997
 30
0.0
 11
-142.0
 21
46.99999999999997
 31
0.0
  0
ATTDEF
  5
5BF
330
5A6
100
AcDbEntity
  8
TEXT35
100
AcDbText
 10
-140.2
 20
49.4
 30
0.0
 40
3.5
  1

 41
0.8
  7
TEXT35
100
AcDbAttributeDefinition
  3
Oberfläche:
  2
F63
 70
     0
  0
LWPOLYLINE
  5
5C0
330
5A6
100
AcDbEntity
  8
KOPF
 62
    12
100
AcDbPolyline
 90
        2
 70
     0
 43
0.7
 10
-182.0
 20
103.4999999999999
 10
-182.0
 20
0.0
  0
LINE
  5
5C1
330
5A6
100
AcDbEntity
  8
KOPF
100
AcDbLine
 10
-182.0
 20
103.4999999999999
 30
0.0
 11
-182.0
 21
0.0
 31
0.0
  0
TEXT
  5
5C2
330
5A6
100
AcDbEntity
  8
KOPF
100
AcDbText
 10
-179.738589
 20
38.32439403633659
 30
0.0
 40
2.0
  1
Gezeichnet:
 41
0.8
  7
TEXT20
100
AcDbText
  0
ATTDEF
  5
5C3
330
5A6
100
AcDbEntity
  8
TEXT35
100
AcDbText
 10
-176.6
 20
3.399999999999999
 30
0.0
 40
3.5
  1

 41
0.8
  7
TEXT35
100
AcDbAttributeDefinition
  3
Z-Titel 3
  2
F13
 70
     0
  0
ATTDEF
  5
5C4
330
5A6
100
AcDbEntity
  8
TEXT50
100
AcDbText
 10
-176.6
 20
10.63250279796295
 30
0.0
 40
5.0
  1

 41
0.8
  7
TEXT50
100
AcDbAttributeDefinition
  3
Z-Titel 2
  2
F3
 70
     0
  0
ATTDEF
  5
5C5
330
5A6
100
AcDbEntity
  8
TEXT50
100
AcDbText
 10
-176.6
 20
18.56318324460701
 30
0.0
 40
5.0
  1

 41
0.8
  7
TEXT50
100
AcDbAttributeDefinition
  3
Z-Titel 1
  2
F2
 70
     0
  0
TEXT
  5
5C6
330
5A6
100
AcDbEntity
  8
KOPF
100
AcDbText
 10
-179.738589
 20
28.52395361420514
 30
0.0
 40
2.0
  1
Update:
 41
0.8
  7
TEXT20
100
AcDbText
  0
TEXT
  5
5C7
330
5A6
100
AcDbEntity
  8
KOPF
100
AcDbText
 10
-179.738589
 20
33.43577642824449
 30
0.0
 40
2.0
  1
Geprüft
 41
0.8
  7
TEXT20
100
AcDbText
  0
LINE
  5
5C8
330
5A6
100
AcDbEntity
  8
KOPF
 62
    12
100
AcDbLine
 10
-163.0
 20
46.99999999999997
 30
0.0
 11
-163.0
 21
27.0
 31
0.0
  0
LINE
  5
5C9
330
5A6
100
AcDbEntity
  8
KOPF
100
AcDbLine
 10
-163.0
 20
46.99999999999997
 30
0.0
 11
-163.0
 21
27.0
 31
0.0
  0
ATTDEF
  5
5CA
330
5A6
100
AcDbEntity
  8
TEXT25
100
AcDbText
 10
-161.5009557098303
 20
28.32091209119023
 30
0.0
 40
2.0
  1

 41
0.8
  7
TEXT20
100
AcDbAttributeDefinition
  3
Update am:
  2
F53
 70
     0
  0
ATTDEF
  5
5CB
330
5A6
100
AcDbEntity
  8
TEXT25
100
AcDbText
 10
-161.5539333606331
 20
33.12227989587696
 30
0.0
 40
2.0
  1

 41
0.8
  7
TEXT20
100
AcDbAttributeDefinition
  3
Geprüft am:
  2
F22
 70
     0
  0
ATTDEF
  5
5CC
330
5A6
100
AcDbEntity
  8
TEXT25
100
AcDbText
 10
-161.5207141482394
 20
38.33983936444393
 30
0.0
 40
2.0
  1

 41
0.8
  7
TEXT20
100
AcDbAttributeDefinition
  3
Gezeichnet am:
  2
F9
 70
     0
  0
TEXT
  5
5CD
330
5A6
100
AcDbEntity
  8
KOPF
100
AcDbText
 10
-155.964455
 20
43.13467299999999
 30
0.0
 40
2.0
  1
Datum
 41
0.8
  7
TEXT20
100
AcDbText
  0
LINE
  5
5CE
330
5A6
100
AcDbEntity
  8
KOPF
 62
    12
100
AcDbLine
 10
-138.4
 20
46.99999999999997
 30
0.0
 11
-138.4
 21
27.0
 31
0.0
  0
LINE
  5
5CF
330
5A6
100
AcDbEntity
  8
KOPF
100
AcDbLine
 10
-138.4
 20
46.99999999999997
 30
0.0
 11
-138.4
 21
27.0
 31
0.0
  0
TEXT
  5
5D0
330
5A6
100
AcDbEntity
  8
KOPF
100
AcDbText
 10
-130.065072
 20
43.14125800000002
 30
0.0
 40
2.0
  1
Name
 41
0.8
  7
TEXT20
100
AcDbText
  0
ATTDEF
  5
5D1
330
5A6
100
AcDbEntity
  8
TEXT25
100
AcDbText
 10
-136.2746977811447
 20
33.28471223400234
 30
0.0
 40
2.0
  1

 41
0.8
  7
TEXT20
100
AcDbAttributeDefinition
  3
Geprüft von:
  2
F21
 70
     0
  0
ATTDEF
  5
5D2
330
5A6
100
AcDbEntity
  8
TEXT25
100
AcDbText
 10
-136.3996291720711
 20
28.23101841142455
 30
0.0
 40
2.0
  1

 41
0.8
  7
TEXT20
100
AcDbAttributeDefinition
  3
Update von:
  2
F52
 70
     0
  0
ATTDEF
  5
5D3
330
5A6
100
AcDbEntity
  8
TEXT25
100
AcDbText
 10
-136.1922113552417
 20
38.48172579575253
 30
0.0
 40
2.0
  1

 41
0.8
  7
TEXT20
100
AcDbAttributeDefinition
  3
Gezeichnet von
  2
F8
 70
     0
  0
TEXT
  5
5D4
330
5A6
100
AcDbEntity
  8
KOPF
100
AcDbText
 10
-174.6925639999999
 20
69.53813999999997
 30
0.0
 40
2.0
  1
Index
 41
0.8
  7
TEXT20
100
AcDbText
  0
LINE
  5
5D5
330
5A6
100
AcDbEntity
  8
KOPF
100
AcDbLine
 10
-182.0
 20
78.49999999999997
 30
0.0
 11
-162.682677
 21
78.49999999999997
 31
0.0
  0
LINE
  5
5D6
330
5A6
100
AcDbEntity
  8
KOPF
100
AcDbLine
 10
-182.0
 20
78.49999999999997
 30
0.0
 11
-162.682677
 21
78.49999999999997
 31
0.0
  0
TEXT
  5
5D7
330
5A6
100
AcDbEntity
  8
KOPF
100
AcDbText
 10
-180.0
 20
65.166273
 30
0.0
 40
2.0
  1
Werkstoff:
 41
0.8
  7
TEXT20
100
AcDbText
  0
TEXT
  5
5D8
330
5A6
100
AcDbEntity
  8
KOPF
100
AcDbText
 10
-181.0
 20
54.49999999999997
 30
0.0
 40
2.0
  1
zul. Abweich.:
 41
0.8
  7
TEXT20
100
AcDbText
  0
ATTDEF
  5
5D9
330
5A6
100
AcDbEntity
  8
TEXT35
100
AcDbText
 10
-179.7
 20
59.6
 30
0.0
 40
3.5
  1

 41
0.8
  7
TEXT35
100
AcDbAttributeDefinition
  3
Werkstoff:
  2
F61
 70
     0
  0
ATTDEF
  5
5DA
330
5A6
100
AcDbEntity
  8
TEXT35
100
AcDbText
 10
-179.7
 20
49.7
 30
0.0
 40
3.5
  1

 41
0.8
  7
TEXT35
100
AcDbAttributeDefinition
  3
zul. Abweichung
  2
F62
 70
     0
  0
ATTDEF
  5
5DB
330
5A6
100
AcDbEntity
  8
TEXT25
100
AcDbText
 10
-174.360415155955
 20
74.59999999999999
 30
0.0
 40
2.0
  1

 41
0.8
  7
TEXT20
100
AcDbAttributeDefinition
  3
Index vv.:
  2
F72
 70
     0
  0
ATTDEF
  5
5DC
330
5A6
100
AcDbEntity
  8
TEXT25
100
AcDbText
 10
-174.4435409453564
 20
79.47378932523601
 30
0.0
 40
2.0
  1

 41
0.8
  7
TEXT20
100
AcDbAttributeDefinition
  3
Index v.:
  2
F68
 70
     0
  0
ATTDEF
  5
5DD
330
5A6
100
AcDbEntity
  8
TEXT25
100
AcDbText
 10
-174.3700408782365
 20
84.63034186138365
 30
0.0
 40
2.0
  1

 41
0.8
  7
TEXT20
100
AcDbAttributeDefinition
  3
Index l.:
  2
F64
 70
     0
  0
LINE
  5
5DE
330
5A6
100
AcDbEntity
  8
KOPF
100
AcDbLine
 10
-162.682677
 20
88.49999999999996
 30
0.0
 11
-162.682677
 21
68.49999999999997
 31
0.0
  0
LINE
  5
5DF
330
5A6
100
AcDbEntity
  8
KOPF
100
AcDbLine
 10
-162.682677
 20
88.49999999999996
 30
0.0
 11
-162.682677
 21
68.49999999999997
 31
0.0
  0
TEXT
  5
5E0
330
5A6
100
AcDbEntity
  8
KOPF
100
AcDbText
 10
-156.706568
 20
69.53813999999997
 30
0.0
 40
2.0
  1
Datum
 41
0.8
  7
TEXT20
100
AcDbText
  0
ATTDEF
  5
5E1
330
5A6
100
AcDbEntity
  8
TEXT25
100
AcDbText
 10
-160.9
 20
75.09999999999999
 30
0.0
 40
2.0
  1

 41
0.8
  7
TEXT20
100
AcDbAttributeDefinition
  3
Datum vv.:
  2
F73
 70
     0
  0
ATTDEF
  5
5E2
330
5A6
100
AcDbEntity
  8
TEXT25
100
AcDbText
 10
-160.9
 20
79.40000000000001
 30
0.0
 40
2.0
  1

 41
0.8
  7
TEXT20
100
AcDbAttributeDefinition
  3
Datum v.:
  2
F69
 70
     0
  0
ATTDEF
  5
5E3
330
5A6
100
AcDbEntity
  8
TEXT25
100
AcDbText
 10
-160.6
 20
84.50000000000001
 30
0.0
 40
2.0
  1

 41
0.8
  7
TEXT20
100
AcDbAttributeDefinition
  3
Datum l.:
  2
F65
 70
     0
  0
LINE
  5
5E4
330
5A6
100
AcDbEntity
  8
KOPF
 62
    12
100
AcDbLine
 10
-142.0
 20
68.49999999999997
 30
0.0
 11
-142.0
 21
88.49999999999996
 31
0.0
  0
LINE
  5
5E5
330
5A6
100
AcDbEntity
  8
KOPF
100
AcDbLine
 10
-142.0
 20
68.49999999999997
 30
0.0
 11
-142.0
 21
88.49999999999996
 31
0.0
  0
ATTDEF
  5
5E6
330
5A6
100
AcDbEntity
  8
TEXT35
100
AcDbText
 10
-139.9
 20
59.29999999999999
 30
0.0
 40
3.5
  1

 41
0.8
  7
TEXT35
100
AcDbAttributeDefinition
  3
Gewicht:
  2
F60
 70
     0
  0
TEXT
  5
5E7
330
5A6
100
AcDbEntity
  8
KOPF
100
AcDbText
 10
-140.387393
 20
54.54752599999996
 30
0.0
 40
2.0
  1
Oberfläche
 41
0.8
  7
TEXT20
100
AcDbText
  0
TEXT
  5
5E8
330
5A6
100
AcDbEntity
  8
KOPF
100
AcDbText
 10
-140.1020469999999
 20
65.166273
 30
0.0
 40
2.0
  1
Gewicht:
 41
0.8
  7
TEXT20
100
AcDbText
  0
TEXT
  5
5E9
330
5A6
100
AcDbEntity
  8
KOPF
100
AcDbText
 10
-140.1020469999999
 20
65.166273
 30
0.0
 40
2.0
  1
Gewicht:
 41
0.8
  7
TEXT20
100
AcDbText
  0
ATTDEF
  5
5EA
330
5A6
100
AcDbEntity
  8
TEXT25
100
AcDbText
 10
-140.4
 20
74.59999999999999
 30
0.0
 40
2.0
  1

 41
0.8
  7
TEXT20
100
AcDbAttributeDefinition
  3
Bennenung vv.:
  2
F74
 70
     0
  0
ATTDEF
  5
5EB
330
5A6
100
AcDbEntity
  8
TEXT25
100
AcDbText
 10
-140.5063960262479
 20
79.64480359078786
 30
0.0
 40
2.0
  1

 41
0.8
  7
TEXT20
100
AcDbAttributeDefinition
  3
Benennung v.:
  2
F70
 70
     0
  0
ATTDEF
  5
5EC
330
5A6
100
AcDbEntity
  8
TEXT25
100
AcDbText
 10
-140.390233442385
 20
84.56120109651198
 30
0.0
 40
2.0
  1

 41
0.8
  7
TEXT20
100
AcDbAttributeDefinition
  3
Bennenung l.:
  2
F66
 70
     0
  0
LINE
  5
5ED
330
5A6
100
AcDbEntity
  8
KOPF
 62
    12
100
AcDbLine
 10
-100.0
 20
68.49999999999997
 30
0.0
 11
-100.0
 21
46.99999999999997
 31
0.0
  0
LWPOLYLINE
  5
5EE
330
5A6
100
AcDbEntity
  8
KOPF
 62
    12
100
AcDbPolyline
 90
        2
 70
     0
 43
0.5
 10
-83.0
 20
46.99999999999997
 10
-83.0
 20
0.0
  0
LINE
  5
5EF
330
5A6
100
AcDbEntity
  8
KOPF
100
AcDbLine
 10
-83.0
 20
46.99999999999997
 30
0.0
 11
-83.0
 21
0.0
 31
0.0
  0
TEXT
  5
5F0
330
5A6
100
AcDbEntity
  8
KOPF
100
AcDbText
 10
-81.0
 20
1.714285999999985
 30
0.0
 40
2.0
  1
Ersetzt durch:
 41
0.8
  7
TEXT20
100
AcDbText
  0
LINE
  5
5F1
330
5A6
100
AcDbEntity
  8
KOPF
 62
    12
100
AcDbLine
 10
-113.4
 20
27.0
 30
0.0
 11
-113.4
 21
46.99999999999997
 31
0.0
  0
LWPOLYLINE
  5
5F2
330
5A6
100
AcDbEntity
  8
KOPF
100
AcDbPolyline
 90
        2
 70
     0
 43
0.5
 10
-113.4
 20
27.0
 10
-113.4
 20
46.99999999999997
  0
LINE
  5
5F3
330
5A6
100
AcDbEntity
  8
KOPF
100
AcDbLine
 10
-113.4
 20
27.0
 30
0.0
 11
-113.4
 21
46.99999999999997
 31
0.0
  0
LINE
  5
5F4
330
5A6
100
AcDbEntity
  8
KOPF
100
AcDbLine
 10
-113.4
 20
27.0
 30
0.0
 11
-113.4
 21
46.99999999999997
 31
0.0
  0
ATTDEF
  5
5F5
330
5A6
100
AcDbEntity
  8
TEXT35
100
AcDbText
 10
-104.4935632823758
 20
33.13408015176805
 30
0.0
 40
3.5
  1

 41
0.8
  7
TEXT35
100
AcDbAttributeDefinition
  3
Maßstab 2:
  2
F54
 70
     0
  0
ATTDEF
  5
5F6
330
5A6
100
AcDbEntity
  8
TEXT35
100
AcDbText
 10
-104.487948258847
 20
28.6
 30
0.0
 40
3.5
  1

 41
0.8
  7
TEXT35
100
AcDbAttributeDefinition
  3
Maßstab 3:
  2
F55
 70
     0
  0
ATTDEF
  5
5F7
330
5A6
100
AcDbEntity
  8
TEXT50
100
AcDbText
 10
-106.6
 20
37.8
 30
0.0
 40
5.0
  1

 41
0.8
  7
TEXT50
100
AcDbAttributeDefinition
  3
Maßstab 1:
  2
F25
 70
     0
  0
TEXT
  5
5F8
330
5A6
100
AcDbEntity
  8
KOPF
100
AcDbText
 10
-112.263457
 20
43.88678899999999
 30
0.0
 40
2.0
  1
Massstab:
 41
0.8
  7
TEXT20
100
AcDbText
  0
LINE
  5
5F9
330
5A6
100
AcDbEntity
  8
KOPF
 62
    12
100
AcDbLine
 10
-57.80813400000011
 20
27.0
 30
0.0
 11
-57.80813400000011
 21
46.99999999999997
 31
0.0
  0
LINE
  5
5FA
330
5A6
100
AcDbEntity
  8
KOPF
100
AcDbLine
 10
-57.80813400000011
 20
27.0
 30
0.0
 11
-57.80813400000011
 21
46.99999999999997
 31
0.0
  0
TEXT
  5
5FB
330
5A6
100
AcDbEntity
  8
KOPF
100
AcDbText
 10
-81.59296000000006
 20
23.69783599999999
 30
0.0
 40
2.0
  1
Zeichnung Nr.:
 41
0.8
  7
TEXT20
100
AcDbText
  0
TEXT
  5
5FC
330
5A6
100
AcDbEntity
  8
KOPF
100
AcDbText
 10
-81.00375700000006
 20
5.924711999999997
 30
0.0
 40
2.0
  1
Ersatz für:
 41
0.8
  7
TEXT20
100
AcDbText
  0
TEXT
  5
5FD
330
5A6
100
AcDbEntity
  8
KOPF
100
AcDbText
 10
-81.59296000000006
 20
23.69783599999999
 30
0.0
 40
2.0
  1
Zeichnung Nr.:
 41
0.8
  7
TEXT20
100
AcDbText
  0
ATTDEF
  5
5FE
330
5A6
100
AcDbEntity
  8
TEXT50
100
AcDbText
 10
-78.29193986361122
 20
14.50587824180555
 30
0.0
 40
5.0
  1

 41
0.8
  7
TEXT50
100
AcDbAttributeDefinition
  3
Standart:
  2
F1
 70
     0
  0
TEXT
  5
5FF
330
5A6
100
AcDbEntity
  8
KOPF
100
AcDbText
 10
-81.48889200000008
 20
43.86057200000001
 30
0.0
 40
2.0
  1
Masseinheit:
 41
0.8
  7
TEXT20
100
AcDbText
  0
LINE
  5
600
330
5A6
100
AcDbEntity
  8
KOPF
 62
    12
100
AcDbLine
 10
-57.80813400000011
 20
36.213444
 30
0.0
 11
-83.0
 21
36.213444
 31
0.0
  0
LINE
  5
601
330
5A6
100
AcDbEntity
  8
KOPF
100
AcDbLine
 10
-57.80813400000011
 20
36.213444
 30
0.0
 11
-83.0
 21
36.213444
 31
0.0
  0
ATTDEF
  5
602
330
5A6
100
AcDbEntity
  8
TEXT35
100
AcDbText
 10
-79.40896486611496
 20
38.08722024605356
 30
0.0
 40
3.5
  1

 41
0.8
  7
TEXT35
100
AcDbAttributeDefinition
  3
Maßeinheit:
  2
F56
 70
     0
  0
TEXT
  5
603
330
5A6
100
AcDbEntity
  8
KOPF
100
AcDbText
 10
-33.57569784693112
 20
42.62823225872138
 30
0.0
 40
1.54
  1
Diese Zeichnung darf weder kopiert
 41
0.8
  7
TEXT20
100
AcDbText
  0
TEXT
  5
604
330
5A6
100
AcDbEntity
  8
KOPF
100
AcDbText
 10
-33.57569784693112
 20
40.26106040199917
 30
0.0
 40
1.54
  1
noch dritten Personen, insbesondere
 41
0.8
  7
TEXT20
100
AcDbText
1001
GENIUS_GENTRA_14
1002
{
1070
     1
1000
/
1000
noch dritten Personen, insbesondere
1000
DEU
1070
     0
1040
0.8
1070
     0
1002
}
  0
TEXT
  5
605
330
5A6
100
AcDbEntity
  8
KOPF
100
AcDbText
 10
-33.57569784693112
 20
35.63814072439632
 30
0.0
 40
1.54
  1
mitgeteilt werden und bleibt unser
 41
0.8
  7
TEXT20
100
AcDbText
  0
TEXT
  5
606
330
5A6
100
AcDbEntity
  8
KOPF
100
AcDbText
 10
-33.57569784693112
 20
33.37532604459598
 30
0.0
 40
1.54
  1
Eigentum.
 41
0.8
  7
TEXT20
100
AcDbText
  0
TEXT
  5
607
330
5A6
100
AcDbEntity
  8
KOPF
100
AcDbText
 10
-33.57569784693112
 20
37.97994933403727
 30
0.0
 40
1.54
  1
zum Zweck anderweitiger Benutzung
 41
0.8
  7
TEXT20
100
AcDbText
  0
TEXT
  5
608
330
5A6
100
AcDbEntity
  8
KOPF
100
AcDbText
 10
-33.7904806989385
 20
30.30982488917614
 30
0.0
 40
1.54
  1
Schutzvermerk nach DIN 34 beachten
 41
0.75
  7
TEXT20
100
AcDbText
  0
LINE
  5
609
330
5A6
100
AcDbEntity
  8
KOPF
100
AcDbLine
 10
-34.94281200000012
 20
47.01203199999999
 30
0.0
 11
-34.94281200000012
 21
27.0
 31
0.0
  0
LINE
  5
60A
330
5A6
100
AcDbEntity
  8
KOPF
100
AcDbLine
 10
-34.94281200000012
 20
47.01203199999999
 30
0.0
 11
-34.94281200000012
 21
27.0
 31
0.0
  0
LINE
  5
60B
330
5A6
100
AcDbEntity
  8
MITTE
100
AcDbLine
 10
-45.85521401410289
 20
36.04852954632858
 30
0.0
 11
-35.23444858652556
 21
36.04852954632858
 31
0.0
  0
LINE
  5
60C
330
5A6
100
AcDbEntity
  8
TEXT50
100
AcDbLine
 10
-45.05865660703466
 20
32.02559619470341
 30
0.0
 11
-36.50894043783512
 21
34.06858135367652
 31
0.0
  0
LINE
  5
60D
330
5A6
100
AcDbEntity
  8
TEXT50
100
AcDbLine
 10
-36.50894043783512
 20
38.02847773898061
 30
0.0
 11
-45.05865660703466
 21
40.07146289795374
 31
0.0
  0
TEXT
  5
60E
330
5A6
100
AcDbEntity
  8
KOPF
100
AcDbText
 10
-57.12244047883302
 20
43.82431699999997
 30
0.0
 40
2.0
  1
Projektion: ISO-E
 41
0.8
  7
TEXT20
100
AcDbText
  0
LINE
  5
60F
330
5A6
100
AcDbEntity
  8
TEXT50
100
AcDbLine
 10
-45.05865660703466
 20
40.07146289795374
 30
0.0
 11
-45.05865660703466
 21
32.02559619470346
 31
0.0
  0
LINE
  5
610
330
5A6
100
AcDbEntity
  8
MITTE
100
AcDbLine
 10
-51.4945506424383
 20
40.07146289795374
 30
0.0
 11
-51.4945506424383
 21
30.76413131482123
 31
0.0
  0
CIRCLE
  5
611
330
5A6
100
AcDbEntity
  8
TEXT50
100
AcDbCircle
 10
-51.4945506424383
 20
36.04852954632858
 30
0.0
 40
4.022933351625178
  0
CIRCLE
  5
612
330
5A6
100
AcDbEntity
  8
TEXT50
100
AcDbCircle
 10
-51.4945506424383
 20
36.04852954632858
 30
0.0
 40
1.979948192651899
  0
LINE
  5
613
330
5A6
100
AcDbEntity
  8
MITTE
100
AcDbLine
 10
-56.48631039339966
 20
36.04852954632858
 30
0.0
 11
-46.50279089147699
 21
36.04852954632858
 31
0.0
  0
LINE
  5
614
330
5A6
100
AcDbEntity
  8
TEXT50
100
AcDbLine
 10
-36.50894043783512
 20
38.02847773898061
 30
0.0
 11
-36.50894043783512
 21
34.06858135367652
 31
0.0
  0
LWPOLYLINE
  5
615
330
5A6
100
AcDbEntity
  8
KOPF
 62
    12
100
AcDbPolyline
 90
        2
 70
     0
 43
0.5
 10
-12.0
 20
27.0
 10
-12.0
 20
10.0
  0
LINE
  5
616
330
5A6
100
AcDbEntity
  8
KOPF
100
AcDbLine
 10
-12.0
 20
27.0
 30
0.0
 11
-12.0
 21
10.0
 31
0.0
  0
ATTDEF
  5
617
330
5A6
100
AcDbEntity
  8
TEXT50
100
AcDbText
 10
-5.58570360403041
 20
17.00587824180555
 30
0.0
 40
5.0
  1

 41
0.8
  7
TEXT50
 72
     4
 11
-5.58570360403041
 21
17.00587824180555
 31
0.0
100
AcDbAttributeDefinition
  3
Index:
  2
F1B
 70
     0
  0
TEXT
  5
618
330
5A6
100
AcDbEntity
  8
KOPF
100
AcDbText
 10
-8.353129999999964
 20
23.330072
 30
0.0
 40
2.0
  1
Index
 41
0.8
  7
TEXT20
100
AcDbText
  0
TEXT
  5
619
330
5A6
100
AcDbEntity
  8
KOPF
100
AcDbText
 10
-94.40535829344497
 20
70.39773773357916
 30
0.0
 40
2.0
  1
Benennung
 41
0.8
  7
TEXT20
100
AcDbText
  0
LINE
  5
61A
330
5A6
100
AcDbEntity
  8
KOPF
100
AcDbLine
 10
-15.0
 20
88.49999999999996
 30
0.0
 11
-15.0
 21
68.49999999999997
 31
0.0
  0
LINE
  5
61B
330
5A6
100
AcDbEntity
  8
KOPF
100
AcDbLine
 10
-15.0
 20
88.49999999999996
 30
0.0
 11
-15.0
 21
68.49999999999997
 31
0.0
  0
TEXT
  5
61C
330
5A6
100
AcDbEntity
  8
KOPF
100
AcDbText
 10
-11.65833600000008
 20
69.53813999999997
 30
0.0
 40
2.0
  1
Name
 41
0.8
  7
TEXT20
100
AcDbText
  0
TEXT
  5
61D
330
5A6
100
AcDbEntity
  8
KOPF
100
AcDbText
 10
-11.65833600000008
 20
69.53813999999997
 30
0.0
 40
2.0
  1
Name
 41
0.8
  7
TEXT20
100
AcDbText
  0
ATTDEF
  5
61E
330
5A6
100
AcDbEntity
  8
TEXT25
100
AcDbText
 10
-13.39999999999998
 20
74.90000000000001
 30
0.0
 40
2.0
  1

 41
0.8
  7
TEXT20
100
AcDbAttributeDefinition
  3
Name vv.:
  2
F75
 70
     0
  0
ATTDEF
  5
61F
330
5A6
100
AcDbEntity
  8
TEXT25
100
AcDbText
 10
-13.39999999999998
 20
79.7
 30
0.0
 40
2.0
  1

 41
0.8
  7
TEXT20
100
AcDbAttributeDefinition
  3
Name v.:
  2
F71
 70
     0
  0
ATTDEF
  5
620
330
5A6
100
AcDbEntity
  8
TEXT25
100
AcDbText
 10
-13.31006638105163
 20
84.29999999999999
 30
0.0
 40
2.0
  1

 41
0.8
  7
TEXT20
100
AcDbAttributeDefinition
  3
Name l.:
  2
F67
 70
     0
  0
LINE
  5
621
330
5A6
100
AcDbEntity
  8
KOPF
100
AcDbLine
 10
-182.0
 20
36.99999999999997
 30
0.0
 11
-113.4
 21
36.99999999999997
 31
0.0
  0
LINE
  5
622
330
5A6
100
AcDbEntity
  8
KOPF
100
AcDbLine
 10
-182.0
 20
31.99999999999997
 30
0.0
 11
-113.4
 21
31.99999999999997
 31
0.0
  0
MTEXT
  5
623
330
5A6
100
AcDbEntity
  8
Sperrlayer
 62
     1
100
AcDbMText
 10
-166.0749851709908
 20
9.027899370527848
 30
0.0
 40
10.0
 41
771.0
 71
     1
 72
     5
  1
VORABZUG - nicht FREIGEGEBEN !
  7
TEXT20
 11
0.8660254037844387
 21
0.5
 31
0.0
 73
     1
 44
1.0
  0
SOLID
  5
624
330
5A6
100
AcDbEntity
  8
RAHM2
100
AcDbTrace
 10
-65.27552397868255
 20
61.53746598194189
 30
0.0
 11
-62.05035543935675
 21
61.53746598194189
 31
0.0
 12
-65.27552397868255
 22
61.25701654373962
 32
0.0
 13
-62.05035543935675
 23
61.25701654373962
 33
0.0
  0
TEXT
  5
625
330
5A6
100
AcDbEntity
  8
RAHM2
100
AcDbText
 10
-40.91775160745712
 20
53.63170934671963
 30
0.0
 40
2.6
  1
GmbH
  7
KOPF
 72
     1
 11
-35.478939452761
 21
53.63170934671963
 31
0.0
100
AcDbText
  0
TEXT
  5
626
330
5A6
100
AcDbEntity
  8
RAHM2
100
AcDbText
 10
-58.33566801898796
 20
50.12594670488301
 30
0.0
 40
2.6
  1
36269 Philippsthal
  7
KOPF
 72
     1
 11
-44.32206304661227
 21
50.12594670488301
 31
0.0
100
AcDbText
  0
SOLID
  5
627
330
5A6
100
AcDbEntity
  8
RAHM2
100
AcDbTrace
 10
-67.51911948430052
 20
62.09836485834642
 30
0.0
 11
-66.95822060789598
 21
62.09836485834642
 31
0.0
 12
-67.51911948430052
 22
61.9581401392452
 32
0.0
 13
-66.95822060789598
 23
61.9581401392452
 33
0.0
  0
SOLID
  5
628
330
5A6
100
AcDbEntity
  8
RAHM2
100
AcDbTrace
 10
-68.36046779890714
 20
61.9581401392452
 30
0.0
 11
-66.11687229328918
 21
61.9581401392452
 31
0.0
 12
-68.36046779890714
 22
61.81791542014416
 32
0.0
 13
-66.11687229328918
 23
61.81791542014416
 33
0.0
  0
SOLID
  5
629
330
5A6
100
AcDbEntity
  8
RAHM2
100
AcDbTrace
 10
-68.64091723710941
 20
61.81791542014416
 30
0.0
 11
-66.11687229328918
 21
61.81791542014416
 31
0.0
 12
-68.64091723710941
 22
61.67769070104293
 32
0.0
 13
-66.11687229328918
 23
61.67769070104293
 33
0.0
  0
SOLID
  5
62A
330
5A6
100
AcDbEntity
  8
RAHM2
100
AcDbTrace
 10
-68.92136667531167
 20
61.67769070104293
 30
0.0
 11
-66.2570970123904
 21
61.67769070104293
 31
0.0
 12
-68.92136667531167
 22
61.53746598194189
 32
0.0
 13
-66.2570970123904
 23
61.53746598194189
 33
0.0
  0
SOLID
  5
62B
330
5A6
100
AcDbEntity
  8
RAHM2
100
AcDbTrace
 10
-69.0615913944129
 20
61.53746598194189
 30
0.0
 11
-66.2570970123904
 21
61.53746598194189
 31
0.0
 12
-69.0615913944129
 22
61.39724126284066
 32
0.0
 13
-66.2570970123904
 23
61.39724126284066
 33
0.0
  0
SOLID
  5
62C
330
5A6
100
AcDbEntity
  8
RAHM2
100
AcDbTrace
 10
-69.20181611351394
 20
61.39724126284066
 30
0.0
 11
-66.2570970123904
 21
61.39724126284066
 31
0.0
 12
-69.20181611351394
 22
61.25701654373962
 32
0.0
 13
-66.2570970123904
 23
61.25701654373962
 33
0.0
  0
SOLID
  5
62D
330
5A6
100
AcDbEntity
  8
RAHM2
100
AcDbTrace
 10
-69.34204083261517
 20
61.25701654373962
 30
0.0
 11
-67.09844532699702
 21
61.25701654373962
 31
0.0
 12
-69.34204083261517
 22
61.1167918246384
 32
0.0
 13
-67.09844532699702
 23
61.1167918246384
 33
0.0
  0
SOLID
  5
62E
330
5A6
100
AcDbEntity
  8
RAHM2
100
AcDbTrace
 10
-69.20181611351394
 20
58.59274688081836
 30
0.0
 11
-66.39732173149145
 21
58.59274688081836
 31
0.0
 12
-69.20181611351394
 22
58.45252216171712
 32
0.0
 13
-66.39732173149145
 23
58.45252216171712
 33
0.0
  0
SOLID
  5
62F
330
5A6
100
AcDbEntity
  8
RAHM2
100
AcDbTrace
 10
-69.0615913944129
 20
58.45252216171712
 30
0.0
 11
-66.2570970123904
 21
58.45252216171712
 31
0.0
 12
-69.0615913944129
 22
58.17207272351486
 32
0.0
 13
-66.2570970123904
 23
58.17207272351486
 33
0.0
  0
SOLID
  5
630
330
5A6
100
AcDbEntity
  8
RAHM2
100
AcDbTrace
 10
-68.78114195621063
 20
58.17207272351486
 30
0.0
 11
-66.2570970123904
 21
58.17207272351486
 31
0.0
 12
-68.78114195621063
 22
58.03184800441382
 32
0.0
 13
-66.2570970123904
 23
58.03184800441382
 33
0.0
  0
SOLID
  5
631
330
5A6
100
AcDbEntity
  8
RAHM2
100
AcDbTrace
 10
-68.50069251800836
 20
58.03184800441382
 30
0.0
 11
-66.11687229328918
 21
58.03184800441382
 31
0.0
 12
-68.50069251800836
 22
57.89162328531259
 32
0.0
 13
-66.11687229328918
 23
57.89162328531259
 33
0.0
  0
SOLID
  5
632
330
5A6
100
AcDbEntity
  8
RAHM2
100
AcDbTrace
 10
-68.22024307980609
 20
57.89162328531259
 30
0.0
 11
-66.11687229328918
 21
57.89162328531259
 31
0.0
 12
-68.22024307980609
 22
57.75139856621155
 32
0.0
 13
-66.11687229328918
 23
57.75139856621155
 33
0.0
  0
SOLID
  5
633
330
5A6
100
AcDbEntity
  8
RAHM2
100
AcDbTrace
 10
-67.79956892250279
 20
57.75139856621155
 30
0.0
 11
-66.39732173149145
 21
57.75139856621155
 31
0.0
 12
-67.79956892250279
 22
57.61117384711032
 32
0.0
 13
-66.39732173149145
 23
57.61117384711032
 33
0.0
  0
SOLID
  5
634
330
5A6
100
AcDbEntity
  8
RAHM2
100
AcDbTrace
 10
-81.82204083261508
 20
64.86384610464772
 30
0.0
 11
-79.99911948430043
 21
64.86384610464772
 31
0.0
 12
-81.82204083261508
 22
60.23643037431057
 32
0.0
 13
-79.99911948430043
 23
60.23643037431057
 33
0.0
  0
SOLID
  5
635
330
5A6
100
AcDbEntity
  8
RAHM2
100
AcDbTrace
 10
-79.4382206078959
 20
64.86384610464772
 30
0.0
 11
-77.61529925958143
 21
64.86384610464772
 31
0.0
 12
-79.4382206078959
 22
60.23643037431057
 32
0.0
 13
-77.61529925958143
 23
60.23643037431057
 33
0.0
  0
SOLID
  5
636
330
5A6
100
AcDbEntity
  8
RAHM2
100
AcDbTrace
 10
-77.19462510227794
 20
64.86384610464772
 30
0.0
 11
-75.23147903486225
 21
64.86384610464772
 31
0.0
 12
-77.19462510227794
 22
60.23643037431057
 32
0.0
 13
-75.23147903486225
 23
60.23643037431057
 33
0.0
  0
SOLID
  5
637
330
5A6
100
AcDbEntity
  8
RAHM2
100
AcDbTrace
 10
-72.70743409104202
 20
62.09836485834642
 30
0.0
 11
-71.58563633823312
 21
62.09836485834642
 31
0.0
 12
-72.70743409104202
 22
61.9581401392452
 32
0.0
 13
-71.58563633823312
 23
61.9581401392452
 33
0.0
  0
SOLID
  5
638
330
5A6
100
AcDbEntity
  8
RAHM2
100
AcDbTrace
 10
-72.70743409104202
 20
61.9581401392452
 30
0.0
 11
-71.4454116191319
 21
61.9581401392452
 31
0.0
 12
-72.70743409104202
 22
61.81791542014416
 32
0.0
 13
-71.4454116191319
 23
61.81791542014416
 33
0.0
  0
SOLID
  5
639
330
5A6
100
AcDbEntity
  8
RAHM2
100
AcDbTrace
 10
-72.84765881014324
 20
61.81791542014416
 30
0.0
 11
-71.4454116191319
 21
61.81791542014416
 31
0.0
 12
-72.84765881014324
 22
61.67769070104293
 32
0.0
 13
-71.4454116191319
 23
61.67769070104293
 33
0.0
  0
SOLID
  5
63A
330
5A6
100
AcDbEntity
  8
RAHM2
100
AcDbTrace
 10
-72.84765881014324
 20
61.67769070104293
 30
0.0
 11
-71.30518690003086
 21
61.67769070104293
 31
0.0
 12
-72.84765881014324
 22
61.53746598194189
 32
0.0
 13
-71.30518690003086
 23
61.53746598194189
 33
0.0
  0
SOLID
  5
63B
330
5A6
100
AcDbEntity
  8
RAHM2
100
AcDbTrace
 10
-72.98788352924429
 20
61.53746598194189
 30
0.0
 11
-71.30518690003086
 21
61.53746598194189
 31
0.0
 12
-72.98788352924429
 22
61.25701654373962
 32
0.0
 13
-71.30518690003086
 23
61.25701654373962
 33
0.0
  0
SOLID
  5
63C
330
5A6
100
AcDbEntity
  8
RAHM2
100
AcDbTrace
 10
-72.98788352924429
 20
61.25701654373962
 30
0.0
 11
-71.16496218092963
 21
61.25701654373962
 31
0.0
 12
-72.98788352924429
 22
61.1167918246384
 32
0.0
 13
-71.16496218092963
 23
61.1167918246384
 33
0.0
  0
SOLID
  5
63D
330
5A6
100
AcDbEntity
  8
RAHM2
100
AcDbTrace
 10
-73.12810824834551
 20
61.1167918246384
 30
0.0
 11
-71.16496218092963
 21
61.1167918246384
 31
0.0
 12
-73.12810824834551
 22
60.97656710553735
 32
0.0
 13
-71.16496218092963
 23
60.97656710553735
 33
0.0
  0
SOLID
  5
63E
330
5A6
100
AcDbEntity
  8
RAHM2
100
AcDbTrace
 10
-73.12810824834551
 20
60.97656710553735
 30
0.0
 11
-72.28675993373871
 21
60.97656710553735
 31
0.0
 12
-73.12810824834551
 22
60.83634238643631
 32
0.0
 13
-72.28675993373871
 23
60.83634238643631
 33
0.0
  0
SOLID
  5
63F
330
5A6
100
AcDbEntity
  8
RAHM2
100
AcDbTrace
 10
-73.26833296744656
 20
60.83634238643631
 30
0.0
 11
-72.28675993373871
 21
60.83634238643631
 31
0.0
 12
-73.26833296744656
 22
60.69611766733508
 32
0.0
 13
-72.28675993373871
 23
60.69611766733508
 33
0.0
  0
SOLID
  5
640
330
5A6
100
AcDbEntity
  8
RAHM2
100
AcDbTrace
 10
-73.26833296744656
 20
60.69611766733508
 30
0.0
 11
-72.42698465283975
 21
60.69611766733508
 31
0.0
 12
-73.26833296744656
 22
60.41566822913281
 32
0.0
 13
-72.42698465283975
 23
60.41566822913281
 33
0.0
  0
SOLID
  5
641
330
5A6
100
AcDbEntity
  8
RAHM2
100
AcDbTrace
 10
-73.40855768654759
 20
60.41566822913281
 30
0.0
 11
-72.42698465283975
 21
60.41566822913281
 31
0.0
 12
-73.40855768654759
 22
60.27544351003178
 32
0.0
 13
-72.42698465283975
 23
60.27544351003178
 33
0.0
  0
SOLID
  5
642
330
5A6
100
AcDbEntity
  8
RAHM2
100
AcDbTrace
 10
-73.40855768654759
 20
60.27544351003178
 30
0.0
 11
-72.56720937194097
 21
60.27544351003178
 31
0.0
 12
-73.40855768654759
 22
60.13521879093055
 32
0.0
 13
-72.56720937194097
 23
60.13521879093055
 33
0.0
  0
SOLID
  5
643
330
5A6
100
AcDbEntity
  8
RAHM2
100
AcDbTrace
 10
-73.54878240564882
 20
60.13521879093055
 30
0.0
 11
-72.56720937194097
 21
60.13521879093055
 31
0.0
 12
-73.54878240564882
 22
59.85476935272828
 32
0.0
 13
-72.56720937194097
 23
59.85476935272828
 33
0.0
  0
SOLID
  5
644
330
5A6
100
AcDbEntity
  8
RAHM2
100
AcDbTrace
 10
-73.68900712474986
 20
59.85476935272828
 30
0.0
 11
-72.70743409104202
 21
59.85476935272828
 31
0.0
 12
-73.68900712474986
 22
59.43409519542497
 32
0.0
 13
-72.70743409104202
 23
59.43409519542497
 33
0.0
  0
SOLID
  5
645
330
5A6
100
AcDbEntity
  8
RAHM2
100
AcDbTrace
 10
-72.28675993373871
 20
60.97656710553735
 30
0.0
 11
-71.16496218092963
 21
60.97656710553735
 31
0.0
 12
-72.28675993373871
 22
60.83634238643631
 32
0.0
 13
-71.16496218092963
 23
60.83634238643631
 33
0.0
  0
SOLID
  5
646
330
5A6
100
AcDbEntity
  8
RAHM2
100
AcDbTrace
 10
-72.14653521463748
 20
60.83634238643631
 30
0.0
 11
-71.02473746182859
 21
60.83634238643631
 31
0.0
 12
-72.14653521463748
 22
60.55589294823405
 32
0.0
 13
-71.02473746182859
 23
60.55589294823405
 33
0.0
  0
SOLID
  5
647
330
5A6
100
AcDbEntity
  8
RAHM2
100
AcDbTrace
 10
-72.14653521463748
 20
60.55589294823405
 30
0.0
 11
-70.88451274272737
 21
60.55589294823405
 31
0.0
 12
-72.14653521463748
 22
60.27544351003178
 32
0.0
 13
-70.88451274272737
 23
60.27544351003178
 33
0.0
  0
SOLID
  5
648
330
5A6
100
AcDbEntity
  8
RAHM2
100
AcDbTrace
 10
-72.00631049553644
 20
60.27544351003178
 30
0.0
 11
-70.88451274272737
 21
60.27544351003178
 31
0.0
 12
-72.00631049553644
 22
60.13521879093055
 32
0.0
 13
-70.88451274272737
 23
60.13521879093055
 33
0.0
  0
SOLID
  5
649
330
5A6
100
AcDbEntity
  8
RAHM2
100
AcDbTrace
 10
-72.00631049553644
 20
60.13521879093055
 30
0.0
 11
-70.74428802362632
 21
60.13521879093055
 31
0.0
 12
-72.00631049553644
 22
59.85476935272828
 32
0.0
 13
-70.74428802362632
 23
59.85476935272828
 33
0.0
  0
SOLID
  5
64A
330
5A6
100
AcDbEntity
  8
RAHM2
100
AcDbTrace
 10
-72.00631049553644
 20
59.85476935272828
 30
0.0
 11
-70.60406330452528
 21
59.85476935272828
 31
0.0
 12
-72.00631049553644
 22
59.71454463362724
 32
0.0
 13
-70.60406330452528
 23
59.71454463362724
 33
0.0
  0
SOLID
  5
64B
330
5A6
100
AcDbEntity
  8
RAHM2
100
AcDbTrace
 10
-71.86608577643539
 20
59.71454463362724
 30
0.0
 11
-70.60406330452528
 21
59.71454463362724
 31
0.0
 12
-71.86608577643539
 22
59.43409519542497
 32
0.0
 13
-70.60406330452528
 23
59.43409519542497
 33
0.0
  0
SOLID
  5
64C
330
5A6
100
AcDbEntity
  8
RAHM2
100
AcDbTrace
 10
-73.82923184385109
 20
59.43409519542497
 30
0.0
 11
-70.46383858542405
 21
59.43409519542497
 31
0.0
 12
-73.82923184385109
 22
59.15364575722271
 32
0.0
 13
-70.46383858542405
 23
59.15364575722271
 33
0.0
  0
SOLID
  5
64D
330
5A6
100
AcDbEntity
  8
RAHM2
100
AcDbTrace
 10
-73.96945656295213
 20
59.15364575722271
 30
0.0
 11
-70.46383858542405
 21
59.15364575722271
 31
0.0
 12
-73.96945656295213
 22
59.01342103812166
 32
0.0
 13
-70.46383858542405
 23
59.01342103812166
 33
0.0
  0
SOLID
  5
64E
330
5A6
100
AcDbEntity
  8
RAHM2
100
AcDbTrace
 10
-73.96945656295213
 20
59.01342103812166
 30
0.0
 11
-70.32361386632302
 21
59.01342103812166
 31
0.0
 12
-73.96945656295213
 22
58.87319631902044
 32
0.0
 13
-70.32361386632302
 23
58.87319631902044
 33
0.0
  0
SOLID
  5
64F
330
5A6
100
AcDbEntity
  8
RAHM2
100
AcDbTrace
 10
-74.10968128205336
 20
58.87319631902044
 30
0.0
 11
-70.32361386632302
 21
58.87319631902044
 31
0.0
 12
-74.10968128205336
 22
58.73297159991939
 32
0.0
 13
-70.32361386632302
 23
58.73297159991939
 33
0.0
  0
SOLID
  5
650
330
5A6
100
AcDbEntity
  8
RAHM2
100
AcDbTrace
 10
-74.10968128205336
 20
58.73297159991939
 30
0.0
 11
-72.98788352924429
 21
58.73297159991939
 31
0.0
 12
-74.10968128205336
 22
58.45252216171712
 32
0.0
 13
-72.98788352924429
 23
58.45252216171712
 33
0.0
  0
SOLID
  5
651
330
5A6
100
AcDbEntity
  8
RAHM2
100
AcDbTrace
 10
-74.2499060011544
 20
58.45252216171712
 30
0.0
 11
-73.12810824834551
 21
58.45252216171712
 31
0.0
 12
-74.2499060011544
 22
58.17207272351486
 32
0.0
 13
-73.12810824834551
 23
58.17207272351486
 33
0.0
  0
SOLID
  5
652
330
5A6
100
AcDbEntity
  8
RAHM2
100
AcDbTrace
 10
-74.39013072025563
 20
58.17207272351486
 30
0.0
 11
-73.26833296744656
 21
58.17207272351486
 31
0.0
 12
-74.39013072025563
 22
57.75139856621155
 32
0.0
 13
-73.26833296744656
 23
57.75139856621155
 33
0.0
  0
SOLID
  5
653
330
5A6
100
AcDbEntity
  8
RAHM2
100
AcDbTrace
 10
-71.72586105733417
 20
58.73297159991939
 30
0.0
 11
-70.18338914722178
 21
58.73297159991939
 31
0.0
 12
-71.72586105733417
 22
58.59274688081836
 32
0.0
 13
-70.18338914722178
 23
58.59274688081836
 33
0.0
  0
SOLID
  5
654
330
5A6
100
AcDbEntity
  8
RAHM2
100
AcDbTrace
 10
-71.58563633823312
 20
58.59274688081836
 30
0.0
 11
-70.18338914722178
 21
58.59274688081836
 31
0.0
 12
-71.58563633823312
 22
58.31229744261609
 32
0.0
 13
-70.18338914722178
 23
58.31229744261609
 33
0.0
  0
SOLID
  5
655
330
5A6
100
AcDbEntity
  8
RAHM2
100
AcDbTrace
 10
-71.4454116191319
 20
58.31229744261609
 30
0.0
 11
-70.04316442812075
 21
58.31229744261609
 31
0.0
 12
-71.4454116191319
 22
58.03184800441382
 32
0.0
 13
-70.04316442812075
 23
58.03184800441382
 33
0.0
  0
SOLID
  5
656
330
5A6
100
AcDbEntity
  8
RAHM2
100
AcDbTrace
 10
-71.4454116191319
 20
58.03184800441382
 30
0.0
 11
-69.90293970901952
 21
58.03184800441382
 31
0.0
 12
-71.4454116191319
 22
57.89162328531259
 32
0.0
 13
-69.90293970901952
 23
57.89162328531259
 33
0.0
  0
SOLID
  5
657
330
5A6
100
AcDbEntity
  8
RAHM2
100
AcDbTrace
 10
-71.30518690003086
 20
57.89162328531259
 30
0.0
 11
-69.90293970901952
 21
57.89162328531259
 31
0.0
 12
-71.30518690003086
 22
57.75139856621155
 32
0.0
 13
-69.90293970901952
 23
57.75139856621155
 33
0.0
  0
SOLID
  5
658
330
5A6
100
AcDbEntity
  8
RAHM2
100
AcDbTrace
 10
-69.34204083261517
 20
61.1167918246384
 30
0.0
 11
-67.51911948430052
 21
61.1167918246384
 31
0.0
 12
-69.34204083261517
 22
60.97656710553735
 32
0.0
 13
-67.51911948430052
 23
60.97656710553735
 33
0.0
  0
SOLID
  5
659
330
5A6
100
AcDbEntity
  8
RAHM2
100
AcDbTrace
 10
-69.48226555171621
 20
60.97656710553735
 30
0.0
 11
-67.93979364160382
 21
60.97656710553735
 31
0.0
 12
-69.48226555171621
 22
60.83634238643631
 32
0.0
 13
-67.93979364160382
 23
60.83634238643631
 33
0.0
  0
SOLID
  5
65A
330
5A6
100
AcDbEntity
  8
RAHM2
100
AcDbTrace
 10
-69.62249027081725
 20
60.83634238643631
 30
0.0
 11
-68.08001836070506
 21
60.83634238643631
 31
0.0
 12
-69.62249027081725
 22
60.69611766733508
 32
0.0
 13
-68.08001836070506
 23
60.69611766733508
 33
0.0
  0
SOLID
  5
65B
330
5A6
100
AcDbEntity
  8
RAHM2
100
AcDbTrace
 10
-69.62249027081725
 20
60.69611766733508
 30
0.0
 11
-68.22024307980609
 21
60.69611766733508
 31
0.0
 12
-69.62249027081725
 22
60.55589294823405
 32
0.0
 13
-68.22024307980609
 23
60.55589294823405
 33
0.0
  0
SOLID
  5
65C
330
5A6
100
AcDbEntity
  8
RAHM2
100
AcDbTrace
 10
-69.62249027081725
 20
60.55589294823405
 30
0.0
 11
-68.36046779890714
 21
60.55589294823405
 31
0.0
 12
-69.62249027081725
 22
60.41566822913281
 32
0.0
 13
-68.36046779890714
 23
60.41566822913281
 33
0.0
  0
SOLID
  5
65D
330
5A6
100
AcDbEntity
  8
RAHM2
100
AcDbTrace
 10
-69.62249027081725
 20
60.41566822913281
 30
0.0
 11
-68.36046779890714
 21
60.41566822913281
 31
0.0
 12
-69.62249027081725
 22
60.13521879093055
 32
0.0
 13
-68.36046779890714
 23
60.13521879093055
 33
0.0
  0
SOLID
  5
65E
330
5A6
100
AcDbEntity
  8
RAHM2
100
AcDbTrace
 10
-69.76271498991848
 20
60.13521879093055
 30
0.0
 11
-68.36046779890714
 21
60.13521879093055
 31
0.0
 12
-69.76271498991848
 22
59.99499407182951
 32
0.0
 13
-68.36046779890714
 23
59.99499407182951
 33
0.0
  0
SOLID
  5
65F
330
5A6
100
AcDbEntity
  8
RAHM2
100
AcDbTrace
 10
-69.76271498991848
 20
59.99499407182951
 30
0.0
 11
-68.50069251800836
 21
59.99499407182951
 31
0.0
 12
-69.76271498991848
 22
59.85476935272828
 32
0.0
 13
-68.50069251800836
 23
59.85476935272828
 33
0.0
  0
SOLID
  5
660
330
5A6
100
AcDbEntity
  8
RAHM2
100
AcDbTrace
 10
-69.76271498991848
 20
59.85476935272828
 30
0.0
 11
-68.50069251800836
 21
59.85476935272828
 31
0.0
 12
-69.76271498991848
 22
59.71454463362724
 32
0.0
 13
-68.50069251800836
 23
59.71454463362724
 33
0.0
  0
SOLID
  5
661
330
5A6
100
AcDbEntity
  8
RAHM2
100
AcDbTrace
 10
-69.62249027081725
 20
59.71454463362724
 30
0.0
 11
-68.36046779890714
 21
59.71454463362724
 31
0.0
 12
-69.62249027081725
 22
59.29387047632393
 32
0.0
 13
-68.36046779890714
 23
59.29387047632393
 33
0.0
  0
SOLID
  5
662
330
5A6
100
AcDbEntity
  8
RAHM2
100
AcDbTrace
 10
-69.62249027081725
 20
59.29387047632393
 30
0.0
 11
-68.36046779890714
 21
59.29387047632393
 31
0.0
 12
-69.62249027081725
 22
59.15364575722271
 32
0.0
 13
-68.36046779890714
 23
59.15364575722271
 33
0.0
  0
SOLID
  5
663
330
5A6
100
AcDbEntity
  8
RAHM2
100
AcDbTrace
 10
-69.62249027081725
 20
59.15364575722271
 30
0.0
 11
-68.22024307980609
 21
59.15364575722271
 31
0.0
 12
-69.62249027081725
 22
59.01342103812166
 32
0.0
 13
-68.22024307980609
 23
59.01342103812166
 33
0.0
  0
SOLID
  5
664
330
5A6
100
AcDbEntity
  8
RAHM2
100
AcDbTrace
 10
-69.48226555171621
 20
59.01342103812166
 30
0.0
 11
-68.08001836070506
 21
59.01342103812166
 31
0.0
 12
-69.48226555171621
 22
58.87319631902044
 32
0.0
 13
-68.08001836070506
 23
58.87319631902044
 33
0.0
  0
SOLID
  5
665
330
5A6
100
AcDbEntity
  8
RAHM2
100
AcDbTrace
 10
-69.48226555171621
 20
58.87319631902044
 30
0.0
 11
-67.93979364160382
 21
58.87319631902044
 31
0.0
 12
-69.48226555171621
 22
58.73297159991939
 32
0.0
 13
-67.93979364160382
 23
58.73297159991939
 33
0.0
  0
SOLID
  5
666
330
5A6
100
AcDbEntity
  8
RAHM2
100
AcDbTrace
 10
-69.34204083261517
 20
58.73297159991939
 30
0.0
 11
-67.37889476519929
 21
58.73297159991939
 31
0.0
 12
-69.34204083261517
 22
58.59274688081836
 32
0.0
 13
-67.37889476519929
 23
58.59274688081836
 33
0.0
  0
SOLID
  5
667
330
5A6
100
AcDbEntity
  8
RAHM2
100
AcDbTrace
 10
-52.09440038317687
 20
60.55589294823405
 30
0.0
 11
-51.67372622587357
 21
60.55589294823405
 31
0.0
 12
-52.09440038317687
 22
60.41566822913281
 32
0.0
 13
-51.67372622587357
 23
60.41566822913281
 33
0.0
  0
SOLID
  5
668
330
5A6
100
AcDbEntity
  8
RAHM2
100
AcDbTrace
 10
-52.23462510227792
 20
60.41566822913281
 30
0.0
 11
-51.8139509449746
 21
60.41566822913281
 31
0.0
 12
-52.23462510227792
 22
60.13521879093055
 32
0.0
 13
-51.8139509449746
 23
60.13521879093055
 33
0.0
  0
SOLID
  5
669
330
5A6
100
AcDbEntity
  8
RAHM2
100
AcDbTrace
 10
-52.37484982137914
 20
60.13521879093055
 30
0.0
 11
-51.95417566407583
 21
60.13521879093055
 31
0.0
 12
-52.37484982137914
 22
59.99499407182951
 32
0.0
 13
-51.95417566407583
 23
59.99499407182951
 33
0.0
  0
SOLID
  5
66A
330
5A6
100
AcDbEntity
  8
RAHM2
100
AcDbTrace
 10
-52.37484982137914
 20
59.99499407182951
 30
0.0
 11
-51.8139509449746
 21
59.99499407182951
 31
0.0
 12
-52.37484982137914
 22
59.85476935272828
 32
0.0
 13
-51.8139509449746
 23
59.85476935272828
 33
0.0
  0
SOLID
  5
66B
330
5A6
100
AcDbEntity
  8
RAHM2
100
AcDbTrace
 10
-52.23462510227792
 20
59.85476935272828
 30
0.0
 11
-51.67372622587357
 21
59.85476935272828
 31
0.0
 12
-52.23462510227792
 22
59.71454463362724
 32
0.0
 13
-51.67372622587357
 23
59.71454463362724
 33
0.0
  0
SOLID
  5
66C
330
5A6
100
AcDbEntity
  8
RAHM2
100
AcDbTrace
 10
-52.23462510227792
 20
59.71454463362724
 30
0.0
 11
-51.53350150677233
 21
59.71454463362724
 31
0.0
 12
-52.23462510227792
 22
59.5743199145262
 32
0.0
 13
-51.53350150677233
 23
59.5743199145262
 33
0.0
  0
SOLID
  5
66D
330
5A6
100
AcDbEntity
  8
RAHM2
100
AcDbTrace
 10
-52.23462510227792
 20
59.5743199145262
 30
0.0
 11
-51.3932767876713
 21
59.5743199145262
 31
0.0
 12
-52.23462510227792
 22
59.43409519542497
 32
0.0
 13
-51.3932767876713
 23
59.43409519542497
 33
0.0
  0
SOLID
  5
66E
330
5A6
100
AcDbEntity
  8
RAHM2
100
AcDbTrace
 10
-52.09440038317687
 20
59.43409519542497
 30
0.0
 11
-51.3932767876713
 21
59.43409519542497
 31
0.0
 12
-52.09440038317687
 22
59.29387047632393
 32
0.0
 13
-51.3932767876713
 23
59.29387047632393
 33
0.0
  0
SOLID
  5
66F
330
5A6
100
AcDbEntity
  8
RAHM2
100
AcDbTrace
 10
-52.65529925958141
 20
57.75139856621155
 30
0.0
 11
-51.67372622587357
 21
57.75139856621155
 31
0.0
 12
-52.65529925958141
 22
57.61117384711032
 32
0.0
 13
-51.67372622587357
 23
57.61117384711032
 33
0.0
  0
SOLID
  5
670
330
5A6
100
AcDbEntity
  8
RAHM2
100
AcDbTrace
 10
-59.80675993373861
 20
59.99499407182951
 30
0.0
 11
-59.38608577643529
 21
59.99499407182951
 31
0.0
 12
-59.80675993373861
 22
59.85476935272828
 32
0.0
 13
-59.38608577643529
 23
59.85476935272828
 33
0.0
  0
SOLID
  5
671
330
5A6
100
AcDbEntity
  8
RAHM2
100
AcDbTrace
 10
-59.80675993373861
 20
59.85476935272828
 30
0.0
 11
-59.66653521463756
 21
59.85476935272828
 31
0.0
 12
-59.80675993373861
 22
59.71454463362724
 32
0.0
 13
-59.66653521463756
 23
59.71454463362724
 33
0.0
  0
SOLID
  5
672
330
5A6
100
AcDbEntity
  8
RAHM2
100
AcDbTrace
 10
-59.80675993373861
 20
58.17207272351486
 30
0.0
 11
-59.10563633823302
 21
58.17207272351486
 31
0.0
 12
-59.80675993373861
 22
58.03184800441382
 32
0.0
 13
-59.10563633823302
 23
58.03184800441382
 33
0.0
  0
SOLID
  5
673
330
5A6
100
AcDbEntity
  8
RAHM2
100
AcDbTrace
 10
-59.80675993373861
 20
58.03184800441382
 30
0.0
 11
-59.24586105733425
 21
58.03184800441382
 31
0.0
 12
-59.80675993373861
 22
57.89162328531259
 32
0.0
 13
-59.24586105733425
 23
57.89162328531259
 33
0.0
  0
SOLID
  5
674
330
5A6
100
AcDbEntity
  8
RAHM2
100
AcDbTrace
 10
-59.80675993373861
 20
57.89162328531259
 30
0.0
 11
-58.26428802362641
 21
57.89162328531259
 31
0.0
 12
-59.80675993373861
 22
57.75139856621155
 32
0.0
 13
-58.26428802362641
 23
57.75139856621155
 33
0.0
  0
SOLID
  5
675
330
5A6
100
AcDbEntity
  8
RAHM2
100
AcDbTrace
 10
-59.80675993373861
 20
57.75139856621155
 30
0.0
 11
-58.68496218092971
 21
57.75139856621155
 31
0.0
 12
-59.80675993373861
 22
57.61117384711032
 32
0.0
 13
-58.68496218092971
 23
57.61117384711032
 33
0.0
  0
SOLID
  5
676
330
5A6
100
AcDbEntity
  8
RAHM2
100
AcDbTrace
 10
-59.80675993373861
 20
57.61117384711032
 30
0.0
 11
-59.24586105733425
 21
57.61117384711032
 31
0.0
 12
-59.80675993373861
 22
57.47094912800928
 32
0.0
 13
-59.24586105733425
 23
57.47094912800928
 33
0.0
  0
SOLID
  5
677
330
5A6
100
AcDbEntity
  8
RAHM2
100
AcDbTrace
 10
-59.94698465283983
 20
57.47094912800928
 30
0.0
 11
-59.24586105733425
 21
57.47094912800928
 31
0.0
 12
-59.94698465283983
 22
57.19049968980701
 32
0.0
 13
-59.24586105733425
 23
57.19049968980701
 33
0.0
  0
SOLID
  5
678
330
5A6
100
AcDbEntity
  8
RAHM2
100
AcDbTrace
 10
-59.94698465283983
 20
57.19049968980701
 30
0.0
 11
-59.38608577643529
 21
57.19049968980701
 31
0.0
 12
-59.94698465283983
 22
56.7698255325037
 32
0.0
 13
-59.38608577643529
 23
56.7698255325037
 33
0.0
  0
SOLID
  5
679
330
5A6
100
AcDbEntity
  8
RAHM2
100
AcDbTrace
 10
-60.08720937194087
 20
56.7698255325037
 30
0.0
 11
-59.52631049553652
 21
56.7698255325037
 31
0.0
 12
-60.08720937194087
 22
56.62960081340248
 32
0.0
 13
-59.52631049553652
 23
56.62960081340248
 33
0.0
  0
SOLID
  5
67A
330
5A6
100
AcDbEntity
  8
RAHM2
100
AcDbTrace
 10
-60.08720937194087
 20
56.62960081340248
 30
0.0
 11
-59.52631049553652
 21
56.62960081340248
 31
0.0
 12
-60.08720937194087
 22
56.34915137520021
 32
0.0
 13
-59.52631049553652
 23
56.34915137520021
 33
0.0
  0
SOLID
  5
67B
330
5A6
100
AcDbEntity
  8
RAHM2
100
AcDbTrace
 10
-60.08720937194087
 20
56.34915137520021
 30
0.0
 11
-59.38608577643529
 21
56.34915137520021
 31
0.0
 12
-60.08720937194087
 22
56.20892665609916
 32
0.0
 13
-59.38608577643529
 23
56.20892665609916
 33
0.0
  0
SOLID
  5
67C
330
5A6
100
AcDbEntity
  8
RAHM2
100
AcDbTrace
 10
-60.64810824834541
 20
56.20892665609916
 30
0.0
 11
-58.96541161913198
 21
56.20892665609916
 31
0.0
 12
-60.64810824834541
 22
56.06870193699812
 32
0.0
 13
-58.96541161913198
 23
56.06870193699812
 33
0.0
  0
SOLID
  5
67D
330
5A6
100
AcDbEntity
  8
RAHM2
100
AcDbTrace
 10
-66.81799588879494
 20
61.25701654373962
 30
0.0
 11
-66.2570970123904
 21
61.25701654373962
 31
0.0
 12
-66.81799588879494
 22
61.1167918246384
 32
0.0
 13
-66.2570970123904
 23
61.1167918246384
 33
0.0
  0
SOLID
  5
67E
330
5A6
100
AcDbEntity
  8
RAHM2
100
AcDbTrace
 10
-63.87327678767121
 20
62.09836485834642
 30
0.0
 11
-63.45260263036791
 21
62.09836485834642
 31
0.0
 12
-63.87327678767121
 22
61.9581401392452
 32
0.0
 13
-63.45260263036791
 23
61.9581401392452
 33
0.0
  0
SOLID
  5
67F
330
5A6
100
AcDbEntity
  8
RAHM2
100
AcDbTrace
 10
-64.57440038317698
 20
61.9581401392452
 30
0.0
 11
-62.75147903486232
 21
61.9581401392452
 31
0.0
 12
-64.57440038317698
 22
61.81791542014416
 32
0.0
 13
-62.75147903486232
 23
61.81791542014416
 33
0.0
  0
SOLID
  5
680
330
5A6
100
AcDbEntity
  8
RAHM2
100
AcDbTrace
 10
-64.85484982137906
 20
61.81791542014416
 30
0.0
 11
-62.47102959666006
 21
61.81791542014416
 31
0.0
 12
-64.85484982137906
 22
61.67769070104293
 32
0.0
 13
-62.47102959666006
 23
61.67769070104293
 33
0.0
  0
SOLID
  5
681
330
5A6
100
AcDbEntity
  8
RAHM2
100
AcDbTrace
 10
-64.99507454048028
 20
61.67769070104293
 30
0.0
 11
-62.33080487755883
 21
61.67769070104293
 31
0.0
 12
-64.99507454048028
 22
61.53746598194189
 32
0.0
 13
-62.33080487755883
 23
61.53746598194189
 33
0.0
  0
SOLID
  5
682
330
5A6
100
AcDbEntity
  8
RAHM2
100
AcDbTrace
 10
-65.4157486977836
 20
61.25701654373962
 30
0.0
 11
-63.73305206857017
 21
61.25701654373962
 31
0.0
 12
-65.4157486977836
 22
61.1167918246384
 32
0.0
 13
-63.73305206857017
 23
61.1167918246384
 33
0.0
  0
SOLID
  5
683
330
5A6
100
AcDbEntity
  8
RAHM2
100
AcDbTrace
 10
-63.59282734946894
 20
61.25701654373962
 30
0.0
 11
-61.91013072025552
 21
61.25701654373962
 31
0.0
 12
-63.59282734946894
 22
61.1167918246384
 32
0.0
 13
-61.91013072025552
 23
61.1167918246384
 33
0.0
  0
SOLID
  5
684
330
5A6
100
AcDbEntity
  8
RAHM2
100
AcDbTrace
 10
-65.55597341688482
 20
61.1167918246384
 30
0.0
 11
-64.01350150677244
 21
61.1167918246384
 31
0.0
 12
-65.55597341688482
 22
60.97656710553735
 32
0.0
 13
-64.01350150677244
 23
60.97656710553735
 33
0.0
  0
SOLID
  5
685
330
5A6
100
AcDbEntity
  8
RAHM2
100
AcDbTrace
 10
-65.55597341688482
 20
60.97656710553735
 30
0.0
 11
-64.15372622587348
 21
60.97656710553735
 31
0.0
 12
-65.55597341688482
 22
60.83634238643631
 32
0.0
 13
-64.15372622587348
 23
60.83634238643631
 33
0.0
  0
SOLID
  5
686
330
5A6
100
AcDbEntity
  8
RAHM2
100
AcDbTrace
 10
-63.17215319216564
 20
61.1167918246384
 30
0.0
 11
-61.76990600115448
 21
61.1167918246384
 31
0.0
 12
-63.17215319216564
 22
60.97656710553735
 32
0.0
 13
-61.76990600115448
 23
60.97656710553735
 33
0.0
  0
SOLID
  5
687
330
5A6
100
AcDbEntity
  8
RAHM2
100
AcDbTrace
 10
-63.03192847306459
 20
60.97656710553735
 30
0.0
 11
-61.76990600115448
 21
60.97656710553735
 31
0.0
 12
-63.03192847306459
 22
60.83634238643631
 32
0.0
 13
-61.76990600115448
 23
60.83634238643631
 33
0.0
  0
SOLID
  5
688
330
5A6
100
AcDbEntity
  8
RAHM2
100
AcDbTrace
 10
-65.69619813598587
 20
60.83634238643631
 30
0.0
 11
-64.29395094497471
 21
60.83634238643631
 31
0.0
 12
-65.69619813598587
 22
60.13521879093055
 32
0.0
 13
-64.29395094497471
 23
60.13521879093055
 33
0.0
  0
SOLID
  5
689
330
5A6
100
AcDbEntity
  8
RAHM2
100
AcDbTrace
 10
-65.83642285508691
 20
60.13521879093055
 30
0.0
 11
-64.43417566407575
 21
60.13521879093055
 31
0.0
 12
-65.83642285508691
 22
59.99499407182951
 32
0.0
 13
-64.43417566407575
 23
59.99499407182951
 33
0.0
  0
SOLID
  5
68A
330
5A6
100
AcDbEntity
  8
RAHM2
100
AcDbTrace
 10
-63.03192847306459
 20
60.83634238643631
 30
0.0
 11
-61.62968128205325
 21
60.83634238643631
 31
0.0
 12
-63.03192847306459
 22
60.41566822913281
 32
0.0
 13
-61.62968128205325
 23
60.41566822913281
 33
0.0
  0
SOLID
  5
68B
330
5A6
100
AcDbEntity
  8
RAHM2
100
AcDbTrace
 10
-62.89170375396337
 20
60.41566822913281
 30
0.0
 11
-61.48945656295222
 21
60.41566822913281
 31
0.0
 12
-62.89170375396337
 22
59.99499407182951
 32
0.0
 13
-61.48945656295222
 23
59.99499407182951
 33
0.0
  0
SOLID
  5
68C
330
5A6
100
AcDbEntity
  8
RAHM2
100
AcDbTrace
 10
-65.83642285508691
 20
59.99499407182951
 30
0.0
 11
-64.43417566407575
 21
59.99499407182951
 31
0.0
 12
-65.83642285508691
 22
59.71454463362724
 32
0.0
 13
-64.43417566407575
 23
59.71454463362724
 33
0.0
  0
SOLID
  5
68D
330
5A6
100
AcDbEntity
  8
RAHM2
100
AcDbTrace
 10
-65.69619813598587
 20
59.71454463362724
 30
0.0
 11
-64.29395094497471
 21
59.71454463362724
 31
0.0
 12
-65.69619813598587
 22
59.01342103812166
 32
0.0
 13
-64.29395094497471
 23
59.01342103812166
 33
0.0
  0
SOLID
  5
68E
330
5A6
100
AcDbEntity
  8
RAHM2
100
AcDbTrace
 10
-62.89170375396337
 20
59.99499407182951
 30
0.0
 11
-61.48945656295222
 21
59.99499407182951
 31
0.0
 12
-62.89170375396337
 22
59.29387047632393
 32
0.0
 13
-61.48945656295222
 23
59.29387047632393
 33
0.0
  0
SOLID
  5
68F
330
5A6
100
AcDbEntity
  8
RAHM2
100
AcDbTrace
 10
-63.03192847306459
 20
59.29387047632393
 30
0.0
 11
-61.62968128205325
 21
59.29387047632393
 31
0.0
 12
-63.03192847306459
 22
59.01342103812166
 32
0.0
 13
-61.62968128205325
 23
59.01342103812166
 33
0.0
  0
SOLID
  5
690
330
5A6
100
AcDbEntity
  8
RAHM2
100
AcDbTrace
 10
-65.69619813598587
 20
59.01342103812166
 30
0.0
 11
-64.29395094497471
 21
59.01342103812166
 31
0.0
 12
-65.69619813598587
 22
58.87319631902044
 32
0.0
 13
-64.29395094497471
 23
58.87319631902044
 33
0.0
  0
SOLID
  5
691
330
5A6
100
AcDbEntity
  8
RAHM2
100
AcDbTrace
 10
-63.03192847306459
 20
59.01342103812166
 30
0.0
 11
-61.62968128205325
 21
59.01342103812166
 31
0.0
 12
-63.03192847306459
 22
58.87319631902044
 32
0.0
 13
-61.62968128205325
 23
58.87319631902044
 33
0.0
  0
SOLID
  5
692
330
5A6
100
AcDbEntity
  8
RAHM2
100
AcDbTrace
 10
-65.55597341688482
 20
58.87319631902044
 30
0.0
 11
-64.15372622587348
 21
58.87319631902044
 31
0.0
 12
-65.55597341688482
 22
58.73297159991939
 32
0.0
 13
-64.15372622587348
 23
58.73297159991939
 33
0.0
  0
SOLID
  5
693
330
5A6
100
AcDbEntity
  8
RAHM2
100
AcDbTrace
 10
-65.4157486977836
 20
58.73297159991939
 30
0.0
 11
-64.01350150677244
 21
58.73297159991939
 31
0.0
 12
-65.4157486977836
 22
58.59274688081836
 32
0.0
 13
-64.01350150677244
 23
58.59274688081836
 33
0.0
  0
SOLID
  5
694
330
5A6
100
AcDbEntity
  8
RAHM2
100
AcDbTrace
 10
-63.17215319216564
 20
58.87319631902044
 30
0.0
 11
-61.76990600115448
 21
58.87319631902044
 31
0.0
 12
-63.17215319216564
 22
58.73297159991939
 32
0.0
 13
-61.76990600115448
 23
58.73297159991939
 33
0.0
  0
SOLID
  5
695
330
5A6
100
AcDbEntity
  8
RAHM2
100
AcDbTrace
 10
-63.31237791126686
 20
58.73297159991939
 30
0.0
 11
-61.76990600115448
 21
58.73297159991939
 31
0.0
 12
-63.31237791126686
 22
58.59274688081836
 32
0.0
 13
-61.76990600115448
 23
58.59274688081836
 33
0.0
  0
SOLID
  5
696
330
5A6
100
AcDbEntity
  8
RAHM2
100
AcDbTrace
 10
-65.4157486977836
 20
58.59274688081836
 30
0.0
 11
-61.91013072025552
 21
58.59274688081836
 31
0.0
 12
-65.4157486977836
 22
58.45252216171712
 32
0.0
 13
-61.91013072025552
 23
58.45252216171712
 33
0.0
  0
SOLID
  5
697
330
5A6
100
AcDbEntity
  8
RAHM2
100
AcDbTrace
 10
-65.27552397868255
 20
58.45252216171712
 30
0.0
 11
-62.05035543935675
 21
58.45252216171712
 31
0.0
 12
-65.27552397868255
 22
58.31229744261609
 32
0.0
 13
-62.05035543935675
 23
58.31229744261609
 33
0.0
  0
SOLID
  5
698
330
5A6
100
AcDbEntity
  8
RAHM2
100
AcDbTrace
 10
-65.27552397868255
 20
58.31229744261609
 30
0.0
 11
-62.05035543935675
 21
58.31229744261609
 31
0.0
 12
-65.27552397868255
 22
58.17207272351486
 32
0.0
 13
-62.05035543935675
 23
58.17207272351486
 33
0.0
  0
SOLID
  5
699
330
5A6
100
AcDbEntity
  8
RAHM2
100
AcDbTrace
 10
-64.99507454048028
 20
58.17207272351486
 30
0.0
 11
-62.33080487755883
 21
58.17207272351486
 31
0.0
 12
-64.99507454048028
 22
58.03184800441382
 32
0.0
 13
-62.33080487755883
 23
58.03184800441382
 33
0.0
  0
SOLID
  5
69A
330
5A6
100
AcDbEntity
  8
RAHM2
100
AcDbTrace
 10
-64.85484982137906
 20
58.03184800441382
 30
0.0
 11
-62.47102959666006
 21
58.03184800441382
 31
0.0
 12
-64.85484982137906
 22
57.89162328531259
 32
0.0
 13
-62.47102959666006
 23
57.89162328531259
 33
0.0
  0
SOLID
  5
69B
330
5A6
100
AcDbEntity
  8
RAHM2
100
AcDbTrace
 10
-64.71462510227802
 20
57.89162328531259
 30
0.0
 11
-62.6112543157611
 21
57.89162328531259
 31
0.0
 12
-64.71462510227802
 22
57.75139856621155
 32
0.0
 13
-62.6112543157611
 23
57.75139856621155
 33
0.0
  0
SOLID
  5
69C
330
5A6
100
AcDbEntity
  8
RAHM2
100
AcDbTrace
 10
-64.15372622587348
 20
57.75139856621155
 30
0.0
 11
-63.17215319216564
 21
57.75139856621155
 31
0.0
 12
-64.15372622587348
 22
57.61117384711032
 32
0.0
 13
-63.17215319216564
 23
57.61117384711032
 33
0.0
  0
SOLID
  5
69D
330
5A6
100
AcDbEntity
  8
RAHM2
100
AcDbTrace
 10
-58.82518690003076
 20
61.1167918246384
 30
0.0
 11
-58.54473746182849
 21
61.1167918246384
 31
0.0
 12
-58.82518690003076
 22
60.97656710553735
 32
0.0
 13
-58.54473746182849
 23
60.97656710553735
 33
0.0
  0
SOLID
  5
69E
330
5A6
100
AcDbEntity
  8
RAHM2
100
AcDbTrace
 10
-59.10563633823302
 20
60.97656710553735
 30
0.0
 11
-58.54473746182849
 21
60.97656710553735
 31
0.0
 12
-59.10563633823302
 22
60.83634238643631
 32
0.0
 13
-58.54473746182849
 23
60.83634238643631
 33
0.0
  0
SOLID
  5
69F
330
5A6
100
AcDbEntity
  8
RAHM2
100
AcDbTrace
 10
-59.10563633823302
 20
60.83634238643631
 30
0.0
 11
-58.54473746182849
 21
60.83634238643631
 31
0.0
 12
-59.10563633823302
 22
60.69611766733508
 32
0.0
 13
-58.54473746182849
 23
60.69611766733508
 33
0.0
  0
SOLID
  5
6A0
330
5A6
100
AcDbEntity
  8
RAHM2
100
AcDbTrace
 10
-57.70338914722187
 20
60.83634238643631
 30
0.0
 11
-57.4229397090196
 21
60.83634238643631
 31
0.0
 12
-57.70338914722187
 22
60.69611766733508
 32
0.0
 13
-57.4229397090196
 23
60.69611766733508
 33
0.0
  0
SOLID
  5
6A1
330
5A6
100
AcDbEntity
  8
RAHM2
100
AcDbTrace
 10
-59.10563633823302
 20
60.69611766733508
 30
0.0
 11
-58.54473746182849
 21
60.69611766733508
 31
0.0
 12
-59.10563633823302
 22
60.55589294823405
 32
0.0
 13
-58.54473746182849
 23
60.55589294823405
 33
0.0
  0
SOLID
  5
6A2
330
5A6
100
AcDbEntity
  8
RAHM2
100
AcDbTrace
 10
-58.26428802362641
 20
60.69611766733508
 30
0.0
 11
-57.14249027081733
 21
60.69611766733508
 31
0.0
 12
-58.26428802362641
 22
60.55589294823405
 32
0.0
 13
-57.14249027081733
 23
60.55589294823405
 33
0.0
  0
SOLID
  5
6A3
330
5A6
100
AcDbEntity
  8
RAHM2
100
AcDbTrace
 10
-59.10563633823302
 20
60.55589294823405
 30
0.0
 11
-58.68496218092971
 21
60.55589294823405
 31
0.0
 12
-59.10563633823302
 22
60.41566822913281
 32
0.0
 13
-58.68496218092971
 23
60.41566822913281
 33
0.0
  0
SOLID
  5
6A4
330
5A6
100
AcDbEntity
  8
RAHM2
100
AcDbTrace
 10
-58.54473746182849
 20
60.55589294823405
 30
0.0
 11
-57.98383858542414
 21
60.55589294823405
 31
0.0
 12
-58.54473746182849
 22
60.41566822913281
 32
0.0
 13
-57.98383858542414
 23
60.41566822913281
 33
0.0
  0
SOLID
  5
6A5
330
5A6
100
AcDbEntity
  8
RAHM2
100
AcDbTrace
 10
-57.84361386632291
 20
60.55589294823405
 30
0.0
 11
-57.00226555171629
 21
60.55589294823405
 31
0.0
 12
-57.84361386632291
 22
60.41566822913281
 32
0.0
 13
-57.00226555171629
 23
60.41566822913281
 33
0.0
  0
SOLID
  5
6A6
330
5A6
100
AcDbEntity
  8
RAHM2
100
AcDbTrace
 10
-59.10563633823302
 20
60.41566822913281
 30
0.0
 11
-58.40451274272744
 21
60.41566822913281
 31
0.0
 12
-59.10563633823302
 22
60.27544351003178
 32
0.0
 13
-58.40451274272744
 23
60.27544351003178
 33
0.0
  0
SOLID
  5
6A7
330
5A6
100
AcDbEntity
  8
RAHM2
100
AcDbTrace
 10
-57.70338914722187
 20
60.41566822913281
 30
0.0
 11
-57.00226555171629
 21
60.41566822913281
 31
0.0
 12
-57.70338914722187
 22
60.27544351003178
 32
0.0
 13
-57.00226555171629
 23
60.27544351003178
 33
0.0
  0
SOLID
  5
6A8
330
5A6
100
AcDbEntity
  8
RAHM2
100
AcDbTrace
 10
-59.24586105733425
 20
60.27544351003178
 30
0.0
 11
-58.68496218092971
 21
60.27544351003178
 31
0.0
 12
-59.24586105733425
 22
60.13521879093055
 32
0.0
 13
-58.68496218092971
 23
60.13521879093055
 33
0.0
  0
SOLID
  5
6A9
330
5A6
100
AcDbEntity
  8
RAHM2
100
AcDbTrace
 10
-57.56316442812064
 20
60.27544351003178
 30
0.0
 11
-57.00226555171629
 21
60.27544351003178
 31
0.0
 12
-57.56316442812064
 22
60.13521879093055
 32
0.0
 13
-57.00226555171629
 23
60.13521879093055
 33
0.0
  0
SOLID
  5
6AA
330
5A6
100
AcDbEntity
  8
RAHM2
100
AcDbTrace
 10
-59.38608577643529
 20
60.13521879093055
 30
0.0
 11
-58.68496218092971
 21
60.13521879093055
 31
0.0
 12
-59.38608577643529
 22
59.99499407182951
 32
0.0
 13
-58.68496218092971
 23
59.99499407182951
 33
0.0
  0
SOLID
  5
6AB
330
5A6
100
AcDbEntity
  8
RAHM2
100
AcDbTrace
 10
-57.56316442812064
 20
60.13521879093055
 30
0.0
 11
-57.00226555171629
 21
60.13521879093055
 31
0.0
 12
-57.56316442812064
 22
59.99499407182951
 32
0.0
 13
-57.00226555171629
 23
59.99499407182951
 33
0.0
  0
SOLID
  5
6AC
330
5A6
100
AcDbEntity
  8
RAHM2
100
AcDbTrace
 10
-59.38608577643529
 20
59.99499407182951
 30
0.0
 11
-58.68496218092971
 21
59.99499407182951
 31
0.0
 12
-59.38608577643529
 22
59.85476935272828
 32
0.0
 13
-58.68496218092971
 23
59.85476935272828
 33
0.0
  0
SOLID
  5
6AD
330
5A6
100
AcDbEntity
  8
RAHM2
100
AcDbTrace
 10
-59.38608577643529
 20
59.85476935272828
 30
0.0
 11
-58.82518690003076
 21
59.85476935272828
 31
0.0
 12
-59.38608577643529
 22
59.71454463362724
 32
0.0
 13
-58.82518690003076
 23
59.71454463362724
 33
0.0
  0
SOLID
  5
6AE
330
5A6
100
AcDbEntity
  8
RAHM2
100
AcDbTrace
 10
-57.56316442812064
 20
59.99499407182951
 30
0.0
 11
-57.00226555171629
 21
59.99499407182951
 31
0.0
 12
-57.56316442812064
 22
59.71454463362724
 32
0.0
 13
-57.00226555171629
 23
59.71454463362724
 33
0.0
  0
SOLID
  5
6AF
330
5A6
100
AcDbEntity
  8
RAHM2
100
AcDbTrace
 10
-59.38608577643529
 20
59.71454463362724
 30
0.0
 11
-58.82518690003076
 21
59.71454463362724
 31
0.0
 12
-59.38608577643529
 22
59.43409519542497
 32
0.0
 13
-58.82518690003076
 23
59.43409519542497
 33
0.0
  0
SOLID
  5
6B0
330
5A6
100
AcDbEntity
  8
RAHM2
100
AcDbTrace
 10
-59.52631049553652
 20
59.43409519542497
 30
0.0
 11
-58.82518690003076
 21
59.43409519542497
 31
0.0
 12
-59.52631049553652
 22
59.15364575722271
 32
0.0
 13
-58.82518690003076
 23
59.15364575722271
 33
0.0
  0
SOLID
  5
6B1
330
5A6
100
AcDbEntity
  8
RAHM2
100
AcDbTrace
 10
-57.56316442812064
 20
59.71454463362724
 30
0.0
 11
-57.00226555171629
 21
59.71454463362724
 31
0.0
 12
-57.56316442812064
 22
59.43409519542497
 32
0.0
 13
-57.00226555171629
 23
59.43409519542497
 33
0.0
  0
SOLID
  5
6B2
330
5A6
100
AcDbEntity
  8
RAHM2
100
AcDbTrace
 10
-57.56316442812064
 20
59.43409519542497
 30
0.0
 11
-57.14249027081733
 21
59.43409519542497
 31
0.0
 12
-57.56316442812064
 22
59.29387047632393
 32
0.0
 13
-57.14249027081733
 23
59.29387047632393
 33
0.0
  0
SOLID
  5
6B3
330
5A6
100
AcDbEntity
  8
RAHM2
100
AcDbTrace
 10
-57.70338914722187
 20
59.29387047632393
 30
0.0
 11
-57.14249027081733
 21
59.29387047632393
 31
0.0
 12
-57.70338914722187
 22
59.15364575722271
 32
0.0
 13
-57.14249027081733
 23
59.15364575722271
 33
0.0
  0
SOLID
  5
6B4
330
5A6
100
AcDbEntity
  8
RAHM2
100
AcDbTrace
 10
-59.52631049553652
 20
59.15364575722271
 30
0.0
 11
-58.96541161913198
 21
59.15364575722271
 31
0.0
 12
-59.52631049553652
 22
59.01342103812166
 32
0.0
 13
-58.96541161913198
 23
59.01342103812166
 33
0.0
  0
SOLID
  5
6B5
330
5A6
100
AcDbEntity
  8
RAHM2
100
AcDbTrace
 10
-57.70338914722187
 20
59.15364575722271
 30
0.0
 11
-57.14249027081733
 21
59.15364575722271
 31
0.0
 12
-57.70338914722187
 22
59.01342103812166
 32
0.0
 13
-57.14249027081733
 23
59.01342103812166
 33
0.0
  0
SOLID
  5
6B6
330
5A6
100
AcDbEntity
  8
RAHM2
100
AcDbTrace
 10
-59.52631049553652
 20
59.01342103812166
 30
0.0
 11
-58.96541161913198
 21
59.01342103812166
 31
0.0
 12
-59.52631049553652
 22
58.73297159991939
 32
0.0
 13
-58.96541161913198
 23
58.73297159991939
 33
0.0
  0
SOLID
  5
6B7
330
5A6
100
AcDbEntity
  8
RAHM2
100
AcDbTrace
 10
-59.66653521463756
 20
58.73297159991939
 30
0.0
 11
-58.96541161913198
 21
58.73297159991939
 31
0.0
 12
-59.66653521463756
 22
58.59274688081836
 32
0.0
 13
-58.96541161913198
 23
58.59274688081836
 33
0.0
  0
SOLID
  5
6B8
330
5A6
100
AcDbEntity
  8
RAHM2
100
AcDbTrace
 10
-59.66653521463756
 20
58.59274688081836
 30
0.0
 11
-59.10563633823302
 21
58.59274688081836
 31
0.0
 12
-59.66653521463756
 22
58.45252216171712
 32
0.0
 13
-59.10563633823302
 23
58.45252216171712
 33
0.0
  0
SOLID
  5
6B9
330
5A6
100
AcDbEntity
  8
RAHM2
100
AcDbTrace
 10
-57.70338914722187
 20
59.01342103812166
 30
0.0
 11
-57.14249027081733
 21
59.01342103812166
 31
0.0
 12
-57.70338914722187
 22
58.87319631902044
 32
0.0
 13
-57.14249027081733
 23
58.87319631902044
 33
0.0
  0
SOLID
  5
6BA
330
5A6
100
AcDbEntity
  8
RAHM2
100
AcDbTrace
 10
-57.84361386632291
 20
58.87319631902044
 30
0.0
 11
-57.28271498991837
 21
58.87319631902044
 31
0.0
 12
-57.84361386632291
 22
58.73297159991939
 32
0.0
 13
-57.28271498991837
 23
58.73297159991939
 33
0.0
  0
SOLID
  5
6BB
330
5A6
100
AcDbEntity
  8
RAHM2
100
AcDbTrace
 10
-57.84361386632291
 20
58.73297159991939
 30
0.0
 11
-57.4229397090196
 21
58.73297159991939
 31
0.0
 12
-57.84361386632291
 22
58.59274688081836
 32
0.0
 13
-57.4229397090196
 23
58.59274688081836
 33
0.0
  0
SOLID
  5
6BC
330
5A6
100
AcDbEntity
  8
RAHM2
100
AcDbTrace
 10
-57.98383858542414
 20
58.59274688081836
 30
0.0
 11
-57.4229397090196
 21
58.59274688081836
 31
0.0
 12
-57.98383858542414
 22
58.45252216171712
 32
0.0
 13
-57.4229397090196
 23
58.45252216171712
 33
0.0
  0
SOLID
  5
6BD
330
5A6
100
AcDbEntity
  8
RAHM2
100
AcDbTrace
 10
-59.66653521463756
 20
58.45252216171712
 30
0.0
 11
-59.10563633823302
 21
58.45252216171712
 31
0.0
 12
-59.66653521463756
 22
58.17207272351486
 32
0.0
 13
-59.10563633823302
 23
58.17207272351486
 33
0.0
  0
SOLID
  5
6BE
330
5A6
100
AcDbEntity
  8
RAHM2
100
AcDbTrace
 10
-58.12406330452517
 20
58.45252216171712
 30
0.0
 11
-57.56316442812064
 21
58.45252216171712
 31
0.0
 12
-58.12406330452517
 22
58.31229744261609
 32
0.0
 13
-57.56316442812064
 23
58.31229744261609
 33
0.0
  0
SOLID
  5
6BF
330
5A6
100
AcDbEntity
  8
RAHM2
100
AcDbTrace
 10
-58.26428802362641
 20
58.31229744261609
 30
0.0
 11
-57.70338914722187
 21
58.31229744261609
 31
0.0
 12
-58.26428802362641
 22
58.17207272351486
 32
0.0
 13
-57.70338914722187
 23
58.17207272351486
 33
0.0
  0
SOLID
  5
6C0
330
5A6
100
AcDbEntity
  8
RAHM2
100
AcDbTrace
 10
-58.40451274272744
 20
58.17207272351486
 30
0.0
 11
-57.84361386632291
 21
58.17207272351486
 31
0.0
 12
-58.40451274272744
 22
58.03184800441382
 32
0.0
 13
-57.84361386632291
 23
58.03184800441382
 33
0.0
  0
SOLID
  5
6C1
330
5A6
100
AcDbEntity
  8
RAHM2
100
AcDbTrace
 10
-58.54473746182849
 20
58.03184800441382
 30
0.0
 11
-58.12406330452517
 21
58.03184800441382
 31
0.0
 12
-58.54473746182849
 22
57.89162328531259
 32
0.0
 13
-58.12406330452517
 23
57.89162328531259
 33
0.0
  0
SOLID
  5
6C2
330
5A6
100
AcDbEntity
  8
RAHM2
100
AcDbTrace
 10
-54.33799588879484
 20
60.83634238643631
 30
0.0
 11
-53.49664757418803
 21
60.83634238643631
 31
0.0
 12
-54.33799588879484
 22
60.69611766733508
 32
0.0
 13
-53.49664757418803
 23
60.69611766733508
 33
0.0
  0
SOLID
  5
6C3
330
5A6
100
AcDbEntity
  8
RAHM2
100
AcDbTrace
 10
-54.89889476519937
 20
60.69611766733508
 30
0.0
 11
-53.49664757418803
 21
60.69611766733508
 31
0.0
 12
-54.89889476519937
 22
60.55589294823405
 32
0.0
 13
-53.49664757418803
 23
60.55589294823405
 33
0.0
  0
SOLID
  5
6C4
330
5A6
100
AcDbEntity
  8
RAHM2
100
AcDbTrace
 10
-55.17934420340164
 20
60.55589294823405
 30
0.0
 11
-54.61844532699711
 21
60.55589294823405
 31
0.0
 12
-55.17934420340164
 22
60.41566822913281
 32
0.0
 13
-54.61844532699711
 23
60.41566822913281
 33
0.0
  0
SOLID
  5
6C5
330
5A6
100
AcDbEntity
  8
RAHM2
100
AcDbTrace
 10
-55.45979364160391
 20
60.41566822913281
 30
0.0
 11
-55.03911948430041
 21
60.41566822913281
 31
0.0
 12
-55.45979364160391
 22
60.27544351003178
 32
0.0
 13
-55.03911948430041
 23
60.27544351003178
 33
0.0
  0
SOLID
  5
6C6
330
5A6
100
AcDbEntity
  8
RAHM2
100
AcDbTrace
 10
-54.05754645059257
 20
60.55589294823405
 30
0.0
 11
-53.49664757418803
 21
60.55589294823405
 31
0.0
 12
-54.05754645059257
 22
60.27544351003178
 32
0.0
 13
-53.49664757418803
 23
60.27544351003178
 33
0.0
  0
SOLID
  5
6C7
330
5A6
100
AcDbEntity
  8
RAHM2
100
AcDbTrace
 10
-55.60001836070495
 20
60.27544351003178
 30
0.0
 11
-55.31956892250268
 21
60.27544351003178
 31
0.0
 12
-55.60001836070495
 22
60.13521879093055
 32
0.0
 13
-55.31956892250268
 23
60.13521879093055
 33
0.0
  0
SOLID
  5
6C8
330
5A6
100
AcDbEntity
  8
RAHM2
100
AcDbTrace
 10
-55.74024307980618
 20
60.13521879093055
 30
0.0
 11
-55.31956892250268
 21
60.13521879093055
 31
0.0
 12
-55.74024307980618
 22
59.99499407182951
 32
0.0
 13
-55.31956892250268
 23
59.99499407182951
 33
0.0
  0
SOLID
  5
6C9
330
5A6
100
AcDbEntity
  8
RAHM2
100
AcDbTrace
 10
-54.05754645059257
 20
60.27544351003178
 30
0.0
 11
-53.63687229328926
 21
60.27544351003178
 31
0.0
 12
-54.05754645059257
 22
60.13521879093055
 32
0.0
 13
-53.63687229328926
 23
60.13521879093055
 33
0.0
  0
SOLID
  5
6CA
330
5A6
100
AcDbEntity
  8
RAHM2
100
AcDbTrace
 10
-54.19777116969379
 20
60.13521879093055
 30
0.0
 11
-53.63687229328926
 21
60.13521879093055
 31
0.0
 12
-54.19777116969379
 22
59.99499407182951
 32
0.0
 13
-53.63687229328926
 23
59.99499407182951
 33
0.0
  0
SOLID
  5
6CB
330
5A6
100
AcDbEntity
  8
RAHM2
100
AcDbTrace
 10
-55.88046779890722
 20
59.99499407182951
 30
0.0
 11
-55.45979364160391
 21
59.99499407182951
 31
0.0
 12
-55.88046779890722
 22
59.85476935272828
 32
0.0
 13
-55.45979364160391
 23
59.85476935272828
 33
0.0
  0
SOLID
  5
6CC
330
5A6
100
AcDbEntity
  8
RAHM2
100
AcDbTrace
 10
-56.02069251800826
 20
59.85476935272828
 30
0.0
 11
-55.60001836070495
 21
59.85476935272828
 31
0.0
 12
-56.02069251800826
 22
59.71454463362724
 32
0.0
 13
-55.60001836070495
 23
59.71454463362724
 33
0.0
  0
SOLID
  5
6CD
330
5A6
100
AcDbEntity
  8
RAHM2
100
AcDbTrace
 10
-54.19777116969379
 20
59.99499407182951
 30
0.0
 11
-53.63687229328926
 21
59.99499407182951
 31
0.0
 12
-54.19777116969379
 22
59.71454463362724
 32
0.0
 13
-53.63687229328926
 23
59.71454463362724
 33
0.0
  0
SOLID
  5
6CE
330
5A6
100
AcDbEntity
  8
RAHM2
100
AcDbTrace
 10
-56.02069251800826
 20
59.71454463362724
 30
0.0
 11
-55.60001836070495
 21
59.71454463362724
 31
0.0
 12
-56.02069251800826
 22
59.5743199145262
 32
0.0
 13
-55.60001836070495
 23
59.5743199145262
 33
0.0
  0
SOLID
  5
6CF
330
5A6
100
AcDbEntity
  8
RAHM2
100
AcDbTrace
 10
-56.16091723710948
 20
59.5743199145262
 30
0.0
 11
-55.60001836070495
 21
59.5743199145262
 31
0.0
 12
-56.16091723710948
 22
59.43409519542497
 32
0.0
 13
-55.60001836070495
 23
59.43409519542497
 33
0.0
  0
SOLID
  5
6D0
330
5A6
100
AcDbEntity
  8
RAHM2
100
AcDbTrace
 10
-54.33799588879484
 20
59.71454463362724
 30
0.0
 11
-53.7770970123903
 21
59.71454463362724
 31
0.0
 12
-54.33799588879484
 22
59.43409519542497
 32
0.0
 13
-53.7770970123903
 23
59.43409519542497
 33
0.0
  0
SOLID
  5
6D1
330
5A6
100
AcDbEntity
  8
RAHM2
100
AcDbTrace
 10
-56.16091723710948
 20
59.43409519542497
 30
0.0
 11
-55.74024307980618
 21
59.43409519542497
 31
0.0
 12
-56.16091723710948
 22
59.29387047632393
 32
0.0
 13
-55.74024307980618
 23
59.29387047632393
 33
0.0
  0
SOLID
  5
6D2
330
5A6
100
AcDbEntity
  8
RAHM2
100
AcDbTrace
 10
-56.30114195621053
 20
59.29387047632393
 30
0.0
 11
-55.74024307980618
 21
59.29387047632393
 31
0.0
 12
-56.30114195621053
 22
59.15364575722271
 32
0.0
 13
-55.74024307980618
 23
59.15364575722271
 33
0.0
  0
SOLID
  5
6D3
330
5A6
100
AcDbEntity
  8
RAHM2
100
AcDbTrace
 10
-54.47822060789606
 20
59.43409519542497
 30
0.0
 11
-53.7770970123903
 21
59.43409519542497
 31
0.0
 12
-54.47822060789606
 22
59.15364575722271
 32
0.0
 13
-53.7770970123903
 23
59.15364575722271
 33
0.0
  0
SOLID
  5
6D4
330
5A6
100
AcDbEntity
  8
RAHM2
100
AcDbTrace
 10
-56.30114195621053
 20
59.15364575722271
 30
0.0
 11
-55.74024307980618
 21
59.15364575722271
 31
0.0
 12
-56.30114195621053
 22
59.01342103812166
 32
0.0
 13
-55.74024307980618
 23
59.01342103812166
 33
0.0
  0
SOLID
  5
6D5
330
5A6
100
AcDbEntity
  8
RAHM2
100
AcDbTrace
 10
-54.61844532699711
 20
59.15364575722271
 30
0.0
 11
-53.7770970123903
 21
59.15364575722271
 31
0.0
 12
-54.61844532699711
 22
59.01342103812166
 32
0.0
 13
-53.7770970123903
 23
59.01342103812166
 33
0.0
  0
SOLID
  5
6D6
330
5A6
100
AcDbEntity
  8
RAHM2
100
AcDbTrace
 10
-56.30114195621053
 20
59.01342103812166
 30
0.0
 11
-55.74024307980618
 21
59.01342103812166
 31
0.0
 12
-56.30114195621053
 22
58.73297159991939
 32
0.0
 13
-55.74024307980618
 23
58.73297159991939
 33
0.0
  0
SOLID
  5
6D7
330
5A6
100
AcDbEntity
  8
RAHM2
100
AcDbTrace
 10
-56.30114195621053
 20
58.73297159991939
 30
0.0
 11
-55.88046779890722
 21
58.73297159991939
 31
0.0
 12
-56.30114195621053
 22
58.59274688081836
 32
0.0
 13
-55.88046779890722
 23
58.59274688081836
 33
0.0
  0
SOLID
  5
6D8
330
5A6
100
AcDbEntity
  8
RAHM2
100
AcDbTrace
 10
-54.61844532699711
 20
59.01342103812166
 30
0.0
 11
-54.47822060789606
 21
59.01342103812166
 31
0.0
 12
-54.61844532699711
 22
58.87319631902044
 32
0.0
 13
-54.47822060789606
 23
58.87319631902044
 33
0.0
  0
SOLID
  5
6D9
330
5A6
100
AcDbEntity
  8
RAHM2
100
AcDbTrace
 10
-54.75867004609814
 20
58.87319631902044
 30
0.0
 11
-54.61844532699711
 21
58.87319631902044
 31
0.0
 12
-54.75867004609814
 22
58.73297159991939
 32
0.0
 13
-54.61844532699711
 23
58.73297159991939
 33
0.0
  0
SOLID
  5
6DA
330
5A6
100
AcDbEntity
  8
RAHM2
100
AcDbTrace
 10
-54.47822060789606
 20
59.01342103812166
 30
0.0
 11
-53.91732173149152
 21
59.01342103812166
 31
0.0
 12
-54.47822060789606
 22
58.59274688081836
 32
0.0
 13
-53.91732173149152
 23
58.59274688081836
 33
0.0
  0
SOLID
  5
6DB
330
5A6
100
AcDbEntity
  8
RAHM2
100
AcDbTrace
 10
-56.44136667531175
 20
58.59274688081836
 30
0.0
 11
-55.88046779890722
 21
58.59274688081836
 31
0.0
 12
-56.44136667531175
 22
58.31229744261609
 32
0.0
 13
-55.88046779890722
 23
58.31229744261609
 33
0.0
  0
SOLID
  5
6DC
330
5A6
100
AcDbEntity
  8
RAHM2
100
AcDbTrace
 10
-54.89889476519937
 20
58.59274688081836
 30
0.0
 11
-54.75867004609814
 21
58.59274688081836
 31
0.0
 12
-54.89889476519937
 22
58.45252216171712
 32
0.0
 13
-54.75867004609814
 23
58.45252216171712
 33
0.0
  0
SOLID
  5
6DD
330
5A6
100
AcDbEntity
  8
RAHM2
100
AcDbTrace
 10
-55.17934420340164
 20
58.45252216171712
 30
0.0
 11
-54.89889476519937
 21
58.45252216171712
 31
0.0
 12
-55.17934420340164
 22
58.31229744261609
 32
0.0
 13
-54.89889476519937
 23
58.31229744261609
 33
0.0
  0
SOLID
  5
6DE
330
5A6
100
AcDbEntity
  8
RAHM2
100
AcDbTrace
 10
-54.47822060789606
 20
58.59274688081836
 30
0.0
 11
-53.91732173149152
 21
58.59274688081836
 31
0.0
 12
-54.47822060789606
 22
58.45252216171712
 32
0.0
 13
-53.91732173149152
 23
58.45252216171712
 33
0.0
  0
SOLID
  5
6DF
330
5A6
100
AcDbEntity
  8
RAHM2
100
AcDbTrace
 10
-54.47822060789606
 20
58.45252216171712
 30
0.0
 11
-54.05754645059257
 21
58.45252216171712
 31
0.0
 12
-54.47822060789606
 22
58.31229744261609
 32
0.0
 13
-54.05754645059257
 23
58.31229744261609
 33
0.0
  0
SOLID
  5
6E0
330
5A6
100
AcDbEntity
  8
RAHM2
100
AcDbTrace
 10
-56.44136667531175
 20
58.31229744261609
 30
0.0
 11
-55.88046779890722
 21
58.31229744261609
 31
0.0
 12
-56.44136667531175
 22
58.17207272351486
 32
0.0
 13
-55.88046779890722
 23
58.17207272351486
 33
0.0
  0
SOLID
  5
6E1
330
5A6
100
AcDbEntity
  8
RAHM2
100
AcDbTrace
 10
-55.31956892250268
 20
58.31229744261609
 30
0.0
 11
-55.03911948430041
 21
58.31229744261609
 31
0.0
 12
-55.31956892250268
 22
58.17207272351486
 32
0.0
 13
-55.03911948430041
 23
58.17207272351486
 33
0.0
  0
SOLID
  5
6E2
330
5A6
100
AcDbEntity
  8
RAHM2
100
AcDbTrace
 10
-54.61844532699711
 20
58.31229744261609
 30
0.0
 11
-54.05754645059257
 21
58.31229744261609
 31
0.0
 12
-54.61844532699711
 22
58.17207272351486
 32
0.0
 13
-54.05754645059257
 23
58.17207272351486
 33
0.0
  0
SOLID
  5
6E3
330
5A6
100
AcDbEntity
  8
RAHM2
100
AcDbTrace
 10
-56.44136667531175
 20
58.17207272351486
 30
0.0
 11
-55.74024307980618
 21
58.17207272351486
 31
0.0
 12
-56.44136667531175
 22
58.03184800441382
 32
0.0
 13
-55.74024307980618
 23
58.03184800441382
 33
0.0
  0
SOLID
  5
6E4
330
5A6
100
AcDbEntity
  8
RAHM2
100
AcDbTrace
 10
-55.45979364160391
 20
58.17207272351486
 30
0.0
 11
-55.17934420340164
 21
58.17207272351486
 31
0.0
 12
-55.45979364160391
 22
58.03184800441382
 32
0.0
 13
-55.17934420340164
 23
58.03184800441382
 33
0.0
  0
SOLID
  5
6E5
330
5A6
100
AcDbEntity
  8
RAHM2
100
AcDbTrace
 10
-54.61844532699711
 20
58.17207272351486
 30
0.0
 11
-54.05754645059257
 21
58.17207272351486
 31
0.0
 12
-54.61844532699711
 22
58.03184800441382
 32
0.0
 13
-54.05754645059257
 23
58.03184800441382
 33
0.0
  0
SOLID
  5
6E6
330
5A6
100
AcDbEntity
  8
RAHM2
100
AcDbTrace
 10
-53.91732173149152
 20
58.17207272351486
 30
0.0
 11
-53.49664757418803
 21
58.17207272351486
 31
0.0
 12
-53.91732173149152
 22
58.03184800441382
 32
0.0
 13
-53.49664757418803
 23
58.03184800441382
 33
0.0
  0
SOLID
  5
6E7
330
5A6
100
AcDbEntity
  8
RAHM2
100
AcDbTrace
 10
-56.44136667531175
 20
58.03184800441382
 30
0.0
 11
-55.31956892250268
 21
58.03184800441382
 31
0.0
 12
-56.44136667531175
 22
57.89162328531259
 32
0.0
 13
-55.31956892250268
 23
57.89162328531259
 33
0.0
  0
SOLID
  5
6E8
330
5A6
100
AcDbEntity
  8
RAHM2
100
AcDbTrace
 10
-56.30114195621053
 20
57.89162328531259
 30
0.0
 11
-55.45979364160391
 21
57.89162328531259
 31
0.0
 12
-56.30114195621053
 22
57.75139856621155
 32
0.0
 13
-55.45979364160391
 23
57.75139856621155
 33
0.0
  0
SOLID
  5
6E9
330
5A6
100
AcDbEntity
  8
RAHM2
100
AcDbTrace
 10
-54.61844532699711
 20
58.03184800441382
 30
0.0
 11
-53.7770970123903
 21
58.03184800441382
 31
0.0
 12
-54.61844532699711
 22
57.89162328531259
 32
0.0
 13
-53.7770970123903
 23
57.89162328531259
 33
0.0
  0
SOLID
  5
6EA
330
5A6
100
AcDbEntity
  8
RAHM2
100
AcDbTrace
 10
-54.75867004609814
 20
57.89162328531259
 30
0.0
 11
-54.05754645059257
 21
57.89162328531259
 31
0.0
 12
-54.75867004609814
 22
57.75139856621155
 32
0.0
 13
-54.05754645059257
 23
57.75139856621155
 33
0.0
  0
SOLID
  5
6EB
330
5A6
100
AcDbEntity
  8
RAHM2
100
AcDbTrace
 10
-56.16091723710948
 20
57.75139856621155
 30
0.0
 11
-55.74024307980618
 21
57.75139856621155
 31
0.0
 12
-56.16091723710948
 22
57.61117384711032
 32
0.0
 13
-55.74024307980618
 23
57.61117384711032
 33
0.0
  0
SOLID
  5
6EC
330
5A6
100
AcDbEntity
  8
RAHM2
100
AcDbTrace
 10
-54.61844532699711
 20
57.75139856621155
 30
0.0
 11
-54.33799588879484
 21
57.75139856621155
 31
0.0
 12
-54.61844532699711
 22
57.61117384711032
 32
0.0
 13
-54.33799588879484
 23
57.61117384711032
 33
0.0
  0
SOLID
  5
6ED
330
5A6
100
AcDbEntity
  8
RAHM2
100
AcDbTrace
 10
-52.79552397868245
 20
58.45252216171712
 30
0.0
 11
-52.65529925958141
 21
58.45252216171712
 31
0.0
 12
-52.79552397868245
 22
58.31229744261609
 32
0.0
 13
-52.65529925958141
 23
58.31229744261609
 33
0.0
  0
SOLID
  5
6EE
330
5A6
100
AcDbEntity
  8
RAHM2
100
AcDbTrace
 10
-52.79552397868245
 20
58.31229744261609
 30
0.0
 11
-52.51507454048018
 21
58.31229744261609
 31
0.0
 12
-52.79552397868245
 22
57.89162328531259
 32
0.0
 13
-52.51507454048018
 23
57.89162328531259
 33
0.0
  0
SOLID
  5
6EF
330
5A6
100
AcDbEntity
  8
RAHM2
100
AcDbTrace
 10
-52.93574869778367
 20
57.89162328531259
 30
0.0
 11
-52.23462510227792
 21
57.89162328531259
 31
0.0
 12
-52.93574869778367
 22
57.75139856621155
 32
0.0
 13
-52.23462510227792
 23
57.75139856621155
 33
0.0
  0
SOLID
  5
6F0
330
5A6
100
AcDbEntity
  8
RAHM2
100
AcDbTrace
 10
-45.08316442812072
 20
60.83634238643631
 30
0.0
 11
-44.24181611351392
 21
60.83634238643631
 31
0.0
 12
-45.08316442812072
 22
60.69611766733508
 32
0.0
 13
-44.24181611351392
 23
60.69611766733508
 33
0.0
  0
SOLID
  5
6F1
330
5A6
100
AcDbEntity
  8
RAHM2
100
AcDbTrace
 10
-45.64406330452526
 20
60.69611766733508
 30
0.0
 11
-44.24181611351392
 21
60.69611766733508
 31
0.0
 12
-45.64406330452526
 22
60.55589294823405
 32
0.0
 13
-44.24181611351392
 23
60.55589294823405
 33
0.0
  0
SOLID
  5
6F2
330
5A6
100
AcDbEntity
  8
RAHM2
100
AcDbTrace
 10
-44.80271498991846
 20
60.55589294823405
 30
0.0
 11
-44.24181611351392
 21
60.55589294823405
 31
0.0
 12
-44.80271498991846
 22
60.27544351003178
 32
0.0
 13
-44.24181611351392
 23
60.27544351003178
 33
0.0
  0
SOLID
  5
6F3
330
5A6
100
AcDbEntity
  8
RAHM2
100
AcDbTrace
 10
-44.38204083261514
 20
58.31229744261609
 30
0.0
 11
-44.24181611351392
 21
58.31229744261609
 31
0.0
 12
-44.38204083261514
 22
58.17207272351486
 32
0.0
 13
-44.24181611351392
 23
58.17207272351486
 33
0.0
  0
SOLID
  5
6F4
330
5A6
100
AcDbEntity
  8
RAHM2
100
AcDbTrace
 10
-44.66249027081741
 20
58.17207272351486
 30
0.0
 11
-44.24181611351392
 21
58.17207272351486
 31
0.0
 12
-44.66249027081741
 22
58.03184800441382
 32
0.0
 13
-44.24181611351392
 23
58.03184800441382
 33
0.0
  0
SOLID
  5
6F5
330
5A6
100
AcDbEntity
  8
RAHM2
100
AcDbTrace
 10
-51.53350150677233
 20
60.83634238643631
 30
0.0
 11
-51.11282734946903
 21
60.83634238643631
 31
0.0
 12
-51.53350150677233
 22
60.69611766733508
 32
0.0
 13
-51.11282734946903
 23
60.69611766733508
 33
0.0
  0
SOLID
  5
6F6
330
5A6
100
AcDbEntity
  8
RAHM2
100
AcDbTrace
 10
-51.95417566407583
 20
60.69611766733508
 30
0.0
 11
-51.3932767876713
 21
60.69611766733508
 31
0.0
 12
-51.95417566407583
 22
60.55589294823405
 32
0.0
 13
-51.3932767876713
 23
60.55589294823405
 33
0.0
  0
SOLID
  5
6F7
330
5A6
100
AcDbEntity
  8
RAHM2
100
AcDbTrace
 10
-51.25305206857007
 20
60.69611766733508
 30
0.0
 11
-50.69215319216572
 21
60.69611766733508
 31
0.0
 12
-51.25305206857007
 22
60.55589294823405
 32
0.0
 13
-50.69215319216572
 23
60.55589294823405
 33
0.0
  0
SOLID
  5
6F8
330
5A6
100
AcDbEntity
  8
RAHM2
100
AcDbTrace
 10
-50.97260263036798
 20
60.55589294823405
 30
0.0
 11
-50.69215319216572
 21
60.55589294823405
 31
0.0
 12
-50.97260263036798
 22
60.41566822913281
 32
0.0
 13
-50.69215319216572
 23
60.41566822913281
 33
0.0
  0
SOLID
  5
6F9
330
5A6
100
AcDbEntity
  8
RAHM2
100
AcDbTrace
 10
-50.97260263036798
 20
60.41566822913281
 30
0.0
 11
-50.69215319216572
 21
60.41566822913281
 31
0.0
 12
-50.97260263036798
 22
60.27544351003178
 32
0.0
 13
-50.69215319216572
 23
60.27544351003178
 33
0.0
  0
SOLID
  5
6FA
330
5A6
100
AcDbEntity
  8
RAHM2
100
AcDbTrace
 10
-50.97260263036798
 20
60.27544351003178
 30
0.0
 11
-50.83237791126676
 21
60.27544351003178
 31
0.0
 12
-50.97260263036798
 22
60.13521879093055
 32
0.0
 13
-50.83237791126676
 23
60.13521879093055
 33
0.0
  0
SOLID
  5
6FB
330
5A6
100
AcDbEntity
  8
RAHM2
100
AcDbTrace
 10
-51.95417566407583
 20
59.29387047632393
 30
0.0
 11
-51.25305206857007
 21
59.29387047632393
 31
0.0
 12
-51.95417566407583
 22
59.15364575722271
 32
0.0
 13
-51.25305206857007
 23
59.15364575722271
 33
0.0
  0
SOLID
  5
6FC
330
5A6
100
AcDbEntity
  8
RAHM2
100
AcDbTrace
 10
-51.8139509449746
 20
59.15364575722271
 30
0.0
 11
-51.11282734946903
 21
59.15364575722271
 31
0.0
 12
-51.8139509449746
 22
59.01342103812166
 32
0.0
 13
-51.11282734946903
 23
59.01342103812166
 33
0.0
  0
SOLID
  5
6FD
330
5A6
100
AcDbEntity
  8
RAHM2
100
AcDbTrace
 10
-51.67372622587357
 20
59.01342103812166
 30
0.0
 11
-50.97260263036798
 21
59.01342103812166
 31
0.0
 12
-51.67372622587357
 22
58.87319631902044
 32
0.0
 13
-50.97260263036798
 23
58.87319631902044
 33
0.0
  0
SOLID
  5
6FE
330
5A6
100
AcDbEntity
  8
RAHM2
100
AcDbTrace
 10
-51.53350150677233
 20
58.87319631902044
 30
0.0
 11
-50.97260263036798
 21
58.87319631902044
 31
0.0
 12
-51.53350150677233
 22
58.73297159991939
 32
0.0
 13
-50.97260263036798
 23
58.73297159991939
 33
0.0
  0
SOLID
  5
6FF
330
5A6
100
AcDbEntity
  8
RAHM2
100
AcDbTrace
 10
-51.3932767876713
 20
58.73297159991939
 30
0.0
 11
-50.83237791126676
 21
58.73297159991939
 31
0.0
 12
-51.3932767876713
 22
58.45252216171712
 32
0.0
 13
-50.83237791126676
 23
58.45252216171712
 33
0.0
  0
SOLID
  5
700
330
5A6
100
AcDbEntity
  8
RAHM2
100
AcDbTrace
 10
-51.3932767876713
 20
58.45252216171712
 30
0.0
 11
-50.83237791126676
 21
58.45252216171712
 31
0.0
 12
-51.3932767876713
 22
58.31229744261609
 32
0.0
 13
-50.83237791126676
 23
58.31229744261609
 33
0.0
  0
SOLID
  5
701
330
5A6
100
AcDbEntity
  8
RAHM2
100
AcDbTrace
 10
-51.3932767876713
 20
58.31229744261609
 30
0.0
 11
-50.97260263036798
 21
58.31229744261609
 31
0.0
 12
-51.3932767876713
 22
58.03184800441382
 32
0.0
 13
-50.97260263036798
 23
58.03184800441382
 33
0.0
  0
SOLID
  5
702
330
5A6
100
AcDbEntity
  8
RAHM2
100
AcDbTrace
 10
-51.53350150677233
 20
58.03184800441382
 30
0.0
 11
-51.11282734946903
 21
58.03184800441382
 31
0.0
 12
-51.53350150677233
 22
57.89162328531259
 32
0.0
 13
-51.11282734946903
 23
57.89162328531259
 33
0.0
  0
SOLID
  5
703
330
5A6
100
AcDbEntity
  8
RAHM2
100
AcDbTrace
 10
-51.67372622587357
 20
57.89162328531259
 30
0.0
 11
-51.25305206857007
 21
57.89162328531259
 31
0.0
 12
-51.67372622587357
 22
57.75139856621155
 32
0.0
 13
-51.25305206857007
 23
57.75139856621155
 33
0.0
  0
SOLID
  5
704
330
5A6
100
AcDbEntity
  8
RAHM2
100
AcDbTrace
 10
-48.86923184385107
 20
60.83634238643631
 30
0.0
 11
-48.44855768654776
 21
60.83634238643631
 31
0.0
 12
-48.86923184385107
 22
60.69611766733508
 32
0.0
 13
-48.44855768654776
 23
60.69611766733508
 33
0.0
  0
SOLID
  5
705
330
5A6
100
AcDbEntity
  8
RAHM2
100
AcDbTrace
 10
-49.28990600115437
 20
60.69611766733508
 30
0.0
 11
-48.72900712474984
 21
60.69611766733508
 31
0.0
 12
-49.28990600115437
 22
60.55589294823405
 32
0.0
 13
-48.72900712474984
 23
60.55589294823405
 33
0.0
  0
SOLID
  5
706
330
5A6
100
AcDbEntity
  8
RAHM2
100
AcDbTrace
 10
-48.5887824056488
 20
60.69611766733508
 30
0.0
 11
-47.88765881014322
 21
60.69611766733508
 31
0.0
 12
-48.5887824056488
 22
60.55589294823405
 32
0.0
 13
-47.88765881014322
 23
60.55589294823405
 33
0.0
  0
SOLID
  5
707
330
5A6
100
AcDbEntity
  8
RAHM2
100
AcDbTrace
 10
-49.28990600115437
 20
60.55589294823405
 30
0.0
 11
-49.00945656295211
 21
60.55589294823405
 31
0.0
 12
-49.28990600115437
 22
60.41566822913281
 32
0.0
 13
-49.00945656295211
 23
60.41566822913281
 33
0.0
  0
SOLID
  5
708
330
5A6
100
AcDbEntity
  8
RAHM2
100
AcDbTrace
 10
-48.30833296744653
 20
60.55589294823405
 30
0.0
 11
-47.88765881014322
 21
60.55589294823405
 31
0.0
 12
-48.30833296744653
 22
60.41566822913281
 32
0.0
 13
-47.88765881014322
 23
60.41566822913281
 33
0.0
  0
SOLID
  5
709
330
5A6
100
AcDbEntity
  8
RAHM2
100
AcDbTrace
 10
-49.43013072025561
 20
60.41566822913281
 30
0.0
 11
-49.00945656295211
 21
60.41566822913281
 31
0.0
 12
-49.43013072025561
 22
60.13521879093055
 32
0.0
 13
-49.00945656295211
 23
60.13521879093055
 33
0.0
  0
SOLID
  5
70A
330
5A6
100
AcDbEntity
  8
RAHM2
100
AcDbTrace
 10
-48.16810824834549
 20
60.41566822913281
 30
0.0
 11
-47.88765881014322
 21
60.41566822913281
 31
0.0
 12
-48.16810824834549
 22
60.27544351003178
 32
0.0
 13
-47.88765881014322
 23
60.27544351003178
 33
0.0
  0
SOLID
  5
70B
330
5A6
100
AcDbEntity
  8
RAHM2
100
AcDbTrace
 10
-48.16810824834549
 20
60.27544351003178
 30
0.0
 11
-48.02788352924427
 21
60.27544351003178
 31
0.0
 12
-48.16810824834549
 22
60.13521879093055
 32
0.0
 13
-48.02788352924427
 23
60.13521879093055
 33
0.0
  0
SOLID
  5
70C
330
5A6
100
AcDbEntity
  8
RAHM2
100
AcDbTrace
 10
-49.57035543935664
 20
60.13521879093055
 30
0.0
 11
-49.14968128205334
 21
60.13521879093055
 31
0.0
 12
-49.57035543935664
 22
59.99499407182951
 32
0.0
 13
-49.14968128205334
 23
59.99499407182951
 33
0.0
  0
SOLID
  5
70D
330
5A6
100
AcDbEntity
  8
RAHM2
100
AcDbTrace
 10
-49.57035543935664
 20
59.99499407182951
 30
0.0
 11
-49.00945656295211
 21
59.99499407182951
 31
0.0
 12
-49.57035543935664
 22
59.85476935272828
 32
0.0
 13
-49.00945656295211
 23
59.85476935272828
 33
0.0
  0
SOLID
  5
70E
330
5A6
100
AcDbEntity
  8
RAHM2
100
AcDbTrace
 10
-49.57035543935664
 20
59.85476935272828
 30
0.0
 11
-48.86923184385107
 21
59.85476935272828
 31
0.0
 12
-49.57035543935664
 22
59.71454463362724
 32
0.0
 13
-48.86923184385107
 23
59.71454463362724
 33
0.0
  0
SOLID
  5
70F
330
5A6
100
AcDbEntity
  8
RAHM2
100
AcDbTrace
 10
-49.57035543935664
 20
59.71454463362724
 30
0.0
 11
-48.72900712474984
 21
59.71454463362724
 31
0.0
 12
-49.57035543935664
 22
59.5743199145262
 32
0.0
 13
-48.72900712474984
 23
59.5743199145262
 33
0.0
  0
SOLID
  5
710
330
5A6
100
AcDbEntity
  8
RAHM2
100
AcDbTrace
 10
-49.43013072025561
 20
59.5743199145262
 30
0.0
 11
-48.5887824056488
 21
59.5743199145262
 31
0.0
 12
-49.43013072025561
 22
59.43409519542497
 32
0.0
 13
-48.5887824056488
 23
59.43409519542497
 33
0.0
  0
SOLID
  5
711
330
5A6
100
AcDbEntity
  8
RAHM2
100
AcDbTrace
 10
-49.28990600115437
 20
59.43409519542497
 30
0.0
 11
-48.5887824056488
 21
59.43409519542497
 31
0.0
 12
-49.28990600115437
 22
59.29387047632393
 32
0.0
 13
-48.5887824056488
 23
59.29387047632393
 33
0.0
  0
SOLID
  5
712
330
5A6
100
AcDbEntity
  8
RAHM2
100
AcDbTrace
 10
-49.14968128205334
 20
59.29387047632393
 30
0.0
 11
-48.44855768654776
 21
59.29387047632393
 31
0.0
 12
-49.14968128205334
 22
59.15364575722271
 32
0.0
 13
-48.44855768654776
 23
59.15364575722271
 33
0.0
  0
SOLID
  5
713
330
5A6
100
AcDbEntity
  8
RAHM2
100
AcDbTrace
 10
-49.14968128205334
 20
59.15364575722271
 30
0.0
 11
-48.30833296744653
 21
59.15364575722271
 31
0.0
 12
-49.14968128205334
 22
59.01342103812166
 32
0.0
 13
-48.30833296744653
 23
59.01342103812166
 33
0.0
  0
SOLID
  5
714
330
5A6
100
AcDbEntity
  8
RAHM2
100
AcDbTrace
 10
-49.00945656295211
 20
59.01342103812166
 30
0.0
 11
-48.16810824834549
 21
59.01342103812166
 31
0.0
 12
-49.00945656295211
 22
58.87319631902044
 32
0.0
 13
-48.16810824834549
 23
58.87319631902044
 33
0.0
  0
SOLID
  5
715
330
5A6
100
AcDbEntity
  8
RAHM2
100
AcDbTrace
 10
-48.86923184385107
 20
58.87319631902044
 30
0.0
 11
-48.16810824834549
 21
58.87319631902044
 31
0.0
 12
-48.86923184385107
 22
58.73297159991939
 32
0.0
 13
-48.16810824834549
 23
58.73297159991939
 33
0.0
  0
SOLID
  5
716
330
5A6
100
AcDbEntity
  8
RAHM2
100
AcDbTrace
 10
-48.86923184385107
 20
58.73297159991939
 30
0.0
 11
-48.02788352924427
 21
58.73297159991939
 31
0.0
 12
-48.86923184385107
 22
58.59274688081836
 32
0.0
 13
-48.02788352924427
 23
58.59274688081836
 33
0.0
  0
SOLID
  5
717
330
5A6
100
AcDbEntity
  8
RAHM2
100
AcDbTrace
 10
-48.72900712474984
 20
58.59274688081836
 30
0.0
 11
-48.02788352924427
 21
58.59274688081836
 31
0.0
 12
-48.72900712474984
 22
58.45252216171712
 32
0.0
 13
-48.02788352924427
 23
58.45252216171712
 33
0.0
  0
SOLID
  5
718
330
5A6
100
AcDbEntity
  8
RAHM2
100
AcDbTrace
 10
-49.99102959665996
 20
58.45252216171712
 30
0.0
 11
-49.85080487755891
 21
58.45252216171712
 31
0.0
 12
-49.99102959665996
 22
58.31229744261609
 32
0.0
 13
-49.85080487755891
 23
58.31229744261609
 33
0.0
  0
SOLID
  5
719
330
5A6
100
AcDbEntity
  8
RAHM2
100
AcDbTrace
 10
-48.5887824056488
 20
58.45252216171712
 30
0.0
 11
-48.02788352924427
 21
58.45252216171712
 31
0.0
 12
-48.5887824056488
 22
58.31229744261609
 32
0.0
 13
-48.02788352924427
 23
58.31229744261609
 33
0.0
  0
SOLID
  5
71A
330
5A6
100
AcDbEntity
  8
RAHM2
100
AcDbTrace
 10
-49.99102959665996
 20
58.31229744261609
 30
0.0
 11
-49.71058015845769
 21
58.31229744261609
 31
0.0
 12
-49.99102959665996
 22
57.89162328531259
 32
0.0
 13
-49.71058015845769
 23
57.89162328531259
 33
0.0
  0
SOLID
  5
71B
330
5A6
100
AcDbEntity
  8
RAHM2
100
AcDbTrace
 10
-48.5887824056488
 20
58.31229744261609
 30
0.0
 11
-48.16810824834549
 21
58.31229744261609
 31
0.0
 12
-48.5887824056488
 22
58.17207272351486
 32
0.0
 13
-48.16810824834549
 23
58.17207272351486
 33
0.0
  0
SOLID
  5
71C
330
5A6
100
AcDbEntity
  8
RAHM2
100
AcDbTrace
 10
-48.72900712474984
 20
58.17207272351486
 30
0.0
 11
-48.16810824834549
 21
58.17207272351486
 31
0.0
 12
-48.72900712474984
 22
58.03184800441382
 32
0.0
 13
-48.16810824834549
 23
58.03184800441382
 33
0.0
  0
SOLID
  5
71D
330
5A6
100
AcDbEntity
  8
RAHM2
100
AcDbTrace
 10
-48.72900712474984
 20
58.03184800441382
 30
0.0
 11
-48.30833296744653
 21
58.03184800441382
 31
0.0
 12
-48.72900712474984
 22
57.89162328531259
 32
0.0
 13
-48.30833296744653
 23
57.89162328531259
 33
0.0
  0
SOLID
  5
71E
330
5A6
100
AcDbEntity
  8
RAHM2
100
AcDbTrace
 10
-50.13125431576118
 20
57.89162328531259
 30
0.0
 11
-49.57035543935664
 21
57.89162328531259
 31
0.0
 12
-50.13125431576118
 22
57.75139856621155
 32
0.0
 13
-49.57035543935664
 23
57.75139856621155
 33
0.0
  0
SOLID
  5
71F
330
5A6
100
AcDbEntity
  8
RAHM2
100
AcDbTrace
 10
-49.00945656295211
 20
57.89162328531259
 30
0.0
 11
-48.44855768654776
 21
57.89162328531259
 31
0.0
 12
-49.00945656295211
 22
57.75139856621155
 32
0.0
 13
-48.44855768654776
 23
57.75139856621155
 33
0.0
  0
SOLID
  5
720
330
5A6
100
AcDbEntity
  8
RAHM2
100
AcDbTrace
 10
-49.85080487755891
 20
57.75139856621155
 30
0.0
 11
-48.86923184385107
 21
57.75139856621155
 31
0.0
 12
-49.85080487755891
 22
57.61117384711032
 32
0.0
 13
-48.86923184385107
 23
57.61117384711032
 33
0.0
  0
SOLID
  5
721
330
5A6
100
AcDbEntity
  8
RAHM2
100
AcDbTrace
 10
-45.92451274272753
 20
60.55589294823405
 30
0.0
 11
-45.36361386632299
 21
60.55589294823405
 31
0.0
 12
-45.92451274272753
 22
60.41566822913281
 32
0.0
 13
-45.36361386632299
 23
60.41566822913281
 33
0.0
  0
SOLID
  5
722
330
5A6
100
AcDbEntity
  8
RAHM2
100
AcDbTrace
 10
-46.20496218092961
 20
60.41566822913281
 30
0.0
 11
-45.7842880236263
 21
60.41566822913281
 31
0.0
 12
-46.20496218092961
 22
60.27544351003178
 32
0.0
 13
-45.7842880236263
 23
60.27544351003178
 33
0.0
  0
SOLID
  5
723
330
5A6
100
AcDbEntity
  8
RAHM2
100
AcDbTrace
 10
-46.34518690003083
 20
60.27544351003178
 30
0.0
 11
-46.06473746182857
 21
60.27544351003178
 31
0.0
 12
-46.34518690003083
 22
60.13521879093055
 32
0.0
 13
-46.06473746182857
 23
60.13521879093055
 33
0.0
  0
SOLID
  5
724
330
5A6
100
AcDbEntity
  8
RAHM2
100
AcDbTrace
 10
-46.48541161913188
 20
60.13521879093055
 30
0.0
 11
-46.06473746182857
 21
60.13521879093055
 31
0.0
 12
-46.48541161913188
 22
59.99499407182951
 32
0.0
 13
-46.06473746182857
 23
59.99499407182951
 33
0.0
  0
SOLID
  5
725
330
5A6
100
AcDbEntity
  8
RAHM2
100
AcDbTrace
 10
-44.80271498991846
 20
60.27544351003178
 30
0.0
 11
-44.38204083261514
 21
60.27544351003178
 31
0.0
 12
-44.80271498991846
 22
60.13521879093055
 32
0.0
 13
-44.38204083261514
 23
60.13521879093055
 33
0.0
  0
SOLID
  5
726
330
5A6
100
AcDbEntity
  8
RAHM2
100
AcDbTrace
 10
-44.94293970901949
 20
60.13521879093055
 30
0.0
 11
-44.38204083261514
 21
60.13521879093055
 31
0.0
 12
-44.94293970901949
 22
59.99499407182951
 32
0.0
 13
-44.38204083261514
 23
59.99499407182951
 33
0.0
  0
SOLID
  5
727
330
5A6
100
AcDbEntity
  8
RAHM2
100
AcDbTrace
 10
-46.6256363382331
 20
59.99499407182951
 30
0.0
 11
-46.20496218092961
 21
59.99499407182951
 31
0.0
 12
-46.6256363382331
 22
59.85476935272828
 32
0.0
 13
-46.20496218092961
 23
59.85476935272828
 33
0.0
  0
SOLID
  5
728
330
5A6
100
AcDbEntity
  8
RAHM2
100
AcDbTrace
 10
-46.76586105733415
 20
59.85476935272828
 30
0.0
 11
-46.34518690003083
 21
59.85476935272828
 31
0.0
 12
-46.76586105733415
 22
59.71454463362724
 32
0.0
 13
-46.34518690003083
 23
59.71454463362724
 33
0.0
  0
SOLID
  5
729
330
5A6
100
AcDbEntity
  8
RAHM2
100
AcDbTrace
 10
-44.94293970901949
 20
59.99499407182951
 30
0.0
 11
-44.38204083261514
 21
59.99499407182951
 31
0.0
 12
-44.94293970901949
 22
59.71454463362724
 32
0.0
 13
-44.38204083261514
 23
59.71454463362724
 33
0.0
  0
SOLID
  5
72A
330
5A6
100
AcDbEntity
  8
RAHM2
100
AcDbTrace
 10
-46.76586105733415
 20
59.71454463362724
 30
0.0
 11
-46.34518690003083
 21
59.71454463362724
 31
0.0
 12
-46.76586105733415
 22
59.5743199145262
 32
0.0
 13
-46.34518690003083
 23
59.5743199145262
 33
0.0
  0
SOLID
  5
72B
330
5A6
100
AcDbEntity
  8
RAHM2
100
AcDbTrace
 10
-46.90608577643537
 20
59.5743199145262
 30
0.0
 11
-46.34518690003083
 21
59.5743199145262
 31
0.0
 12
-46.90608577643537
 22
59.43409519542497
 32
0.0
 13
-46.34518690003083
 23
59.43409519542497
 33
0.0
  0
SOLID
  5
72C
330
5A6
100
AcDbEntity
  8
RAHM2
100
AcDbTrace
 10
-45.08316442812072
 20
59.71454463362724
 30
0.0
 11
-44.52226555171619
 21
59.71454463362724
 31
0.0
 12
-45.08316442812072
 22
59.43409519542497
 32
0.0
 13
-44.52226555171619
 23
59.43409519542497
 33
0.0
  0
SOLID
  5
72D
330
5A6
100
AcDbEntity
  8
RAHM2
100
AcDbTrace
 10
-46.90608577643537
 20
59.43409519542497
 30
0.0
 11
-46.48541161913188
 21
59.43409519542497
 31
0.0
 12
-46.90608577643537
 22
59.29387047632393
 32
0.0
 13
-46.48541161913188
 23
59.29387047632393
 33
0.0
  0
SOLID
  5
72E
330
5A6
100
AcDbEntity
  8
RAHM2
100
AcDbTrace
 10
-47.04631049553642
 20
59.29387047632393
 30
0.0
 11
-46.48541161913188
 21
59.29387047632393
 31
0.0
 12
-47.04631049553642
 22
59.15364575722271
 32
0.0
 13
-46.48541161913188
 23
59.15364575722271
 33
0.0
  0
SOLID
  5
72F
330
5A6
100
AcDbEntity
  8
RAHM2
100
AcDbTrace
 10
-45.22338914722176
 20
59.43409519542497
 30
0.0
 11
-44.52226555171619
 21
59.43409519542497
 31
0.0
 12
-45.22338914722176
 22
59.15364575722271
 32
0.0
 13
-44.52226555171619
 23
59.15364575722271
 33
0.0
  0
SOLID
  5
730
330
5A6
100
AcDbEntity
  8
RAHM2
100
AcDbTrace
 10
-47.04631049553642
 20
59.15364575722271
 30
0.0
 11
-46.48541161913188
 21
59.15364575722271
 31
0.0
 12
-47.04631049553642
 22
59.01342103812166
 32
0.0
 13
-46.48541161913188
 23
59.01342103812166
 33
0.0
  0
SOLID
  5
731
330
5A6
100
AcDbEntity
  8
RAHM2
100
AcDbTrace
 10
-45.36361386632299
 20
59.15364575722271
 30
0.0
 11
-44.52226555171619
 21
59.15364575722271
 31
0.0
 12
-45.36361386632299
 22
59.01342103812166
 32
0.0
 13
-44.52226555171619
 23
59.01342103812166
 33
0.0
  0
SOLID
  5
732
330
5A6
100
AcDbEntity
  8
RAHM2
100
AcDbTrace
 10
-47.04631049553642
 20
59.01342103812166
 30
0.0
 11
-46.48541161913188
 21
59.01342103812166
 31
0.0
 12
-47.04631049553642
 22
58.73297159991939
 32
0.0
 13
-46.48541161913188
 23
58.73297159991939
 33
0.0
  0
SOLID
  5
733
330
5A6
100
AcDbEntity
  8
RAHM2
100
AcDbTrace
 10
-47.04631049553642
 20
58.73297159991939
 30
0.0
 11
-46.6256363382331
 21
58.73297159991939
 31
0.0
 12
-47.04631049553642
 22
58.59274688081836
 32
0.0
 13
-46.6256363382331
 23
58.59274688081836
 33
0.0
  0
SOLID
  5
734
330
5A6
100
AcDbEntity
  8
RAHM2
100
AcDbTrace
 10
-45.36361386632299
 20
59.01342103812166
 30
0.0
 11
-45.22338914722176
 21
59.01342103812166
 31
0.0
 12
-45.36361386632299
 22
58.87319631902044
 32
0.0
 13
-45.22338914722176
 23
58.87319631902044
 33
0.0
  0
SOLID
  5
735
330
5A6
100
AcDbEntity
  8
RAHM2
100
AcDbTrace
 10
-45.50383858542403
 20
58.87319631902044
 30
0.0
 11
-45.36361386632299
 21
58.87319631902044
 31
0.0
 12
-45.50383858542403
 22
58.73297159991939
 32
0.0
 13
-45.36361386632299
 23
58.73297159991939
 33
0.0
  0
SOLID
  5
736
330
5A6
100
AcDbEntity
  8
RAHM2
100
AcDbTrace
 10
-45.22338914722176
 20
59.01342103812166
 30
0.0
 11
-44.66249027081741
 21
59.01342103812166
 31
0.0
 12
-45.22338914722176
 22
58.59274688081836
 32
0.0
 13
-44.66249027081741
 23
58.59274688081836
 33
0.0
  0
SOLID
  5
737
330
5A6
100
AcDbEntity
  8
RAHM2
100
AcDbTrace
 10
-47.18653521463764
 20
58.59274688081836
 30
0.0
 11
-46.6256363382331
 21
58.59274688081836
 31
0.0
 12
-47.18653521463764
 22
58.31229744261609
 32
0.0
 13
-46.6256363382331
 23
58.31229744261609
 33
0.0
  0
SOLID
  5
738
330
5A6
100
AcDbEntity
  8
RAHM2
100
AcDbTrace
 10
-45.7842880236263
 20
58.59274688081836
 30
0.0
 11
-45.50383858542403
 21
58.59274688081836
 31
0.0
 12
-45.7842880236263
 22
58.45252216171712
 32
0.0
 13
-45.50383858542403
 23
58.45252216171712
 33
0.0
  0
SOLID
  5
739
330
5A6
100
AcDbEntity
  8
RAHM2
100
AcDbTrace
 10
-45.92451274272753
 20
58.45252216171712
 30
0.0
 11
-45.64406330452526
 21
58.45252216171712
 31
0.0
 12
-45.92451274272753
 22
58.31229744261609
 32
0.0
 13
-45.64406330452526
 23
58.31229744261609
 33
0.0
  0
SOLID
  5
73A
330
5A6
100
AcDbEntity
  8
RAHM2
100
AcDbTrace
 10
-45.22338914722176
 20
58.59274688081836
 30
0.0
 11
-44.66249027081741
 21
58.59274688081836
 31
0.0
 12
-45.22338914722176
 22
58.45252216171712
 32
0.0
 13
-44.66249027081741
 23
58.45252216171712
 33
0.0
  0
SOLID
  5
73B
330
5A6
100
AcDbEntity
  8
RAHM2
100
AcDbTrace
 10
-45.22338914722176
 20
58.45252216171712
 30
0.0
 11
-44.80271498991846
 21
58.45252216171712
 31
0.0
 12
-45.22338914722176
 22
58.31229744261609
 32
0.0
 13
-44.80271498991846
 23
58.31229744261609
 33
0.0
  0
SOLID
  5
73C
330
5A6
100
AcDbEntity
  8
RAHM2
100
AcDbTrace
 10
-47.18653521463764
 20
58.31229744261609
 30
0.0
 11
-46.6256363382331
 21
58.31229744261609
 31
0.0
 12
-47.18653521463764
 22
58.17207272351486
 32
0.0
 13
-46.6256363382331
 23
58.17207272351486
 33
0.0
  0
SOLID
  5
73D
330
5A6
100
AcDbEntity
  8
RAHM2
100
AcDbTrace
 10
-46.06473746182857
 20
58.31229744261609
 30
0.0
 11
-45.7842880236263
 21
58.31229744261609
 31
0.0
 12
-46.06473746182857
 22
58.17207272351486
 32
0.0
 13
-45.7842880236263
 23
58.17207272351486
 33
0.0
  0
SOLID
  5
73E
330
5A6
100
AcDbEntity
  8
RAHM2
100
AcDbTrace
 10
-45.36361386632299
 20
58.31229744261609
 30
0.0
 11
-44.80271498991846
 21
58.31229744261609
 31
0.0
 12
-45.36361386632299
 22
58.17207272351486
 32
0.0
 13
-44.80271498991846
 23
58.17207272351486
 33
0.0
  0
SOLID
  5
73F
330
5A6
100
AcDbEntity
  8
RAHM2
100
AcDbTrace
 10
-47.18653521463764
 20
58.17207272351486
 30
0.0
 11
-46.48541161913188
 21
58.17207272351486
 31
0.0
 12
-47.18653521463764
 22
58.03184800441382
 32
0.0
 13
-46.48541161913188
 23
58.03184800441382
 33
0.0
  0
SOLID
  5
740
330
5A6
100
AcDbEntity
  8
RAHM2
100
AcDbTrace
 10
-46.20496218092961
 20
58.17207272351486
 30
0.0
 11
-45.92451274272753
 21
58.17207272351486
 31
0.0
 12
-46.20496218092961
 22
58.03184800441382
 32
0.0
 13
-45.92451274272753
 23
58.03184800441382
 33
0.0
  0
SOLID
  5
741
330
5A6
100
AcDbEntity
  8
RAHM2
100
AcDbTrace
 10
-45.36361386632299
 20
58.17207272351486
 30
0.0
 11
-44.80271498991846
 21
58.17207272351486
 31
0.0
 12
-45.36361386632299
 22
58.03184800441382
 32
0.0
 13
-44.80271498991846
 23
58.03184800441382
 33
0.0
  0
SOLID
  5
742
330
5A6
100
AcDbEntity
  8
RAHM2
100
AcDbTrace
 10
-47.18653521463764
 20
58.03184800441382
 30
0.0
 11
-46.06473746182857
 21
58.03184800441382
 31
0.0
 12
-47.18653521463764
 22
57.89162328531259
 32
0.0
 13
-46.06473746182857
 23
57.89162328531259
 33
0.0
  0
SOLID
  5
743
330
5A6
100
AcDbEntity
  8
RAHM2
100
AcDbTrace
 10
-47.04631049553642
 20
57.89162328531259
 30
0.0
 11
-46.34518690003083
 21
57.89162328531259
 31
0.0
 12
-47.04631049553642
 22
57.75139856621155
 32
0.0
 13
-46.34518690003083
 23
57.75139856621155
 33
0.0
  0
SOLID
  5
744
330
5A6
100
AcDbEntity
  8
RAHM2
100
AcDbTrace
 10
-45.36361386632299
 20
58.03184800441382
 30
0.0
 11
-44.52226555171619
 21
58.03184800441382
 31
0.0
 12
-45.36361386632299
 22
57.89162328531259
 32
0.0
 13
-44.52226555171619
 23
57.89162328531259
 33
0.0
  0
SOLID
  5
745
330
5A6
100
AcDbEntity
  8
RAHM2
100
AcDbTrace
 10
-45.36361386632299
 20
57.89162328531259
 30
0.0
 11
-44.80271498991846
 21
57.89162328531259
 31
0.0
 12
-45.36361386632299
 22
57.75139856621155
 32
0.0
 13
-44.80271498991846
 23
57.75139856621155
 33
0.0
  0
SOLID
  5
746
330
5A6
100
AcDbEntity
  8
RAHM2
100
AcDbTrace
 10
-46.90608577643537
 20
57.75139856621155
 30
0.0
 11
-46.48541161913188
 21
57.75139856621155
 31
0.0
 12
-46.90608577643537
 22
57.61117384711032
 32
0.0
 13
-46.48541161913188
 23
57.61117384711032
 33
0.0
  0
SOLID
  5
747
330
5A6
100
AcDbEntity
  8
RAHM2
100
AcDbTrace
 10
-45.36361386632299
 20
57.75139856621155
 30
0.0
 11
-45.08316442812072
 21
57.75139856621155
 31
0.0
 12
-45.36361386632299
 22
57.61117384711032
 32
0.0
 13
-45.08316442812072
 23
57.61117384711032
 33
0.0
  0
SOLID
  5
748
330
5A6
100
AcDbEntity
  8
RAHM2
100
AcDbTrace
 10
-42.55911948430049
 20
60.83634238643631
 30
0.0
 11
-42.41889476519945
 21
60.83634238643631
 31
0.0
 12
-42.55911948430049
 22
60.69611766733508
 32
0.0
 13
-42.41889476519945
 23
60.69611766733508
 33
0.0
  0
SOLID
  5
749
330
5A6
100
AcDbEntity
  8
RAHM2
100
AcDbTrace
 10
-40.87642285508707
 20
60.83634238643631
 30
0.0
 11
-40.5959734168848
 21
60.83634238643631
 31
0.0
 12
-40.87642285508707
 22
60.69611766733508
 32
0.0
 13
-40.5959734168848
 23
60.69611766733508
 33
0.0
  0
SOLID
  5
74A
330
5A6
100
AcDbEntity
  8
RAHM2
100
AcDbTrace
 10
-42.9797936416038
 20
60.69611766733508
 30
0.0
 11
-42.41889476519945
 21
60.69611766733508
 31
0.0
 12
-42.9797936416038
 22
60.55589294823405
 32
0.0
 13
-42.41889476519945
 23
60.55589294823405
 33
0.0
  0
SOLID
  5
74B
330
5A6
100
AcDbEntity
  8
RAHM2
100
AcDbTrace
 10
-41.01664757418811
 20
60.69611766733508
 30
0.0
 11
-40.5959734168848
 21
60.69611766733508
 31
0.0
 12
-41.01664757418811
 22
60.55589294823405
 32
0.0
 13
-40.5959734168848
 23
60.55589294823405
 33
0.0
  0
SOLID
  5
74C
330
5A6
100
AcDbEntity
  8
RAHM2
100
AcDbTrace
 10
-43.40046779890729
 20
60.55589294823405
 30
0.0
 11
-42.41889476519945
 21
60.55589294823405
 31
0.0
 12
-43.40046779890729
 22
60.41566822913281
 32
0.0
 13
-42.41889476519945
 23
60.41566822913281
 33
0.0
  0
SOLID
  5
74D
330
5A6
100
AcDbEntity
  8
RAHM2
100
AcDbTrace
 10
-41.01664757418811
 20
60.55589294823405
 30
0.0
 11
-40.45574869778358
 21
60.55589294823405
 31
0.0
 12
-41.01664757418811
 22
60.41566822913281
 32
0.0
 13
-40.45574869778358
 23
60.41566822913281
 33
0.0
  0
SOLID
  5
74E
330
5A6
100
AcDbEntity
  8
RAHM2
100
AcDbTrace
 10
-43.12001836070503
 20
60.41566822913281
 30
0.0
 11
-42.41889476519945
 21
60.41566822913281
 31
0.0
 12
-43.12001836070503
 22
60.27544351003178
 32
0.0
 13
-42.41889476519945
 23
60.27544351003178
 33
0.0
  0
SOLID
  5
74F
330
5A6
100
AcDbEntity
  8
RAHM2
100
AcDbTrace
 10
-41.01664757418811
 20
60.41566822913281
 30
0.0
 11
-40.45574869778358
 21
60.41566822913281
 31
0.0
 12
-41.01664757418811
 22
60.27544351003178
 32
0.0
 13
-40.45574869778358
 23
60.27544351003178
 33
0.0
  0
SOLID
  5
750
330
5A6
100
AcDbEntity
  8
RAHM2
100
AcDbTrace
 10
-42.83956892250276
 20
60.27544351003178
 30
0.0
 11
-42.27867004609822
 21
60.27544351003178
 31
0.0
 12
-42.83956892250276
 22
59.99499407182951
 32
0.0
 13
-42.27867004609822
 23
59.99499407182951
 33
0.0
  0
SOLID
  5
751
330
5A6
100
AcDbEntity
  8
RAHM2
100
AcDbTrace
 10
-41.01664757418811
 20
60.27544351003178
 30
0.0
 11
-40.45574869778358
 21
60.27544351003178
 31
0.0
 12
-41.01664757418811
 22
60.13521879093055
 32
0.0
 13
-40.45574869778358
 23
60.13521879093055
 33
0.0
  0
SOLID
  5
752
330
5A6
100
AcDbEntity
  8
RAHM2
100
AcDbTrace
 10
-41.01664757418811
 20
60.13521879093055
 30
0.0
 11
-40.5959734168848
 21
60.13521879093055
 31
0.0
 12
-41.01664757418811
 22
59.99499407182951
 32
0.0
 13
-40.5959734168848
 23
59.99499407182951
 33
0.0
  0
SOLID
  5
753
330
5A6
100
AcDbEntity
  8
RAHM2
100
AcDbTrace
 10
-42.83956892250276
 20
59.99499407182951
 30
0.0
 11
-42.27867004609822
 21
59.99499407182951
 31
0.0
 12
-42.83956892250276
 22
59.71454463362724
 32
0.0
 13
-42.27867004609822
 23
59.71454463362724
 33
0.0
  0
SOLID
  5
754
330
5A6
100
AcDbEntity
  8
RAHM2
100
AcDbTrace
 10
-41.01664757418811
 20
59.99499407182951
 30
0.0
 11
-40.73619813598584
 21
59.99499407182951
 31
0.0
 12
-41.01664757418811
 22
59.85476935272828
 32
0.0
 13
-40.73619813598584
 23
59.85476935272828
 33
0.0
  0
SOLID
  5
755
330
5A6
100
AcDbEntity
  8
RAHM2
100
AcDbTrace
 10
-41.15687229328933
 20
59.85476935272828
 30
0.0
 11
-40.73619813598584
 21
59.85476935272828
 31
0.0
 12
-41.15687229328933
 22
59.71454463362724
 32
0.0
 13
-40.73619813598584
 23
59.71454463362724
 33
0.0
  0
SOLID
  5
756
330
5A6
100
AcDbEntity
  8
RAHM2
100
AcDbTrace
 10
-42.83956892250276
 20
59.71454463362724
 30
0.0
 11
-42.27867004609822
 21
59.71454463362724
 31
0.0
 12
-42.83956892250276
 22
59.5743199145262
 32
0.0
 13
-42.27867004609822
 23
59.5743199145262
 33
0.0
  0
SOLID
  5
757
330
5A6
100
AcDbEntity
  8
RAHM2
100
AcDbTrace
 10
-41.15687229328933
 20
59.71454463362724
 30
0.0
 11
-40.87642285508707
 21
59.71454463362724
 31
0.0
 12
-41.15687229328933
 22
59.5743199145262
 32
0.0
 13
-40.87642285508707
 23
59.5743199145262
 33
0.0
  0
SOLID
  5
758
330
5A6
100
AcDbEntity
  8
RAHM2
100
AcDbTrace
 10
-42.83956892250276
 20
59.5743199145262
 30
0.0
 11
-42.27867004609822
 21
59.5743199145262
 31
0.0
 12
-42.83956892250276
 22
59.15364575722271
 32
0.0
 13
-42.27867004609822
 23
59.15364575722271
 33
0.0
  0
SOLID
  5
759
330
5A6
100
AcDbEntity
  8
RAHM2
100
AcDbTrace
 10
-42.69934420340153
 20
59.15364575722271
 30
0.0
 11
-42.13844532699718
 21
59.15364575722271
 31
0.0
 12
-42.69934420340153
 22
58.31229744261609
 32
0.0
 13
-42.13844532699718
 23
58.31229744261609
 33
0.0
  0
SOLID
  5
75A
330
5A6
100
AcDbEntity
  8
RAHM2
100
AcDbTrace
 10
-41.29709701239038
 20
59.5743199145262
 30
0.0
 11
-41.01664757418811
 21
59.5743199145262
 31
0.0
 12
-41.29709701239038
 22
59.43409519542497
 32
0.0
 13
-41.01664757418811
 23
59.43409519542497
 33
0.0
  0
SOLID
  5
75B
330
5A6
100
AcDbEntity
  8
RAHM2
100
AcDbTrace
 10
-41.43732173149142
 20
59.43409519542497
 30
0.0
 11
-41.01664757418811
 21
59.43409519542497
 31
0.0
 12
-41.43732173149142
 22
59.29387047632393
 32
0.0
 13
-41.01664757418811
 23
59.29387047632393
 33
0.0
  0
SOLID
  5
75C
330
5A6
100
AcDbEntity
  8
RAHM2
100
AcDbTrace
 10
-41.43732173149142
 20
59.29387047632393
 30
0.0
 11
-41.15687229328933
 21
59.29387047632393
 31
0.0
 12
-41.43732173149142
 22
59.15364575722271
 32
0.0
 13
-41.15687229328933
 23
59.15364575722271
 33
0.0
  0
SOLID
  5
75D
330
5A6
100
AcDbEntity
  8
RAHM2
100
AcDbTrace
 10
-41.57754645059265
 20
59.15364575722271
 30
0.0
 11
-41.29709701239038
 21
59.15364575722271
 31
0.0
 12
-41.57754645059265
 22
59.01342103812166
 32
0.0
 13
-41.29709701239038
 23
59.01342103812166
 33
0.0
  0
SOLID
  5
75E
330
5A6
100
AcDbEntity
  8
RAHM2
100
AcDbTrace
 10
-41.71777116969368
 20
59.01342103812166
 30
0.0
 11
-41.43732173149142
 21
59.01342103812166
 31
0.0
 12
-41.71777116969368
 22
58.73297159991939
 32
0.0
 13
-41.43732173149142
 23
58.73297159991939
 33
0.0
  0
SOLID
  5
75F
330
5A6
100
AcDbEntity
  8
RAHM2
100
AcDbTrace
 10
-41.85799588879492
 20
58.73297159991939
 30
0.0
 11
-41.57754645059265
 21
58.73297159991939
 31
0.0
 12
-41.85799588879492
 22
58.59274688081836
 32
0.0
 13
-41.57754645059265
 23
58.59274688081836
 33
0.0
  0
SOLID
  5
760
330
5A6
100
AcDbEntity
  8
RAHM2
100
AcDbTrace
 10
-41.99822060789595
 20
58.59274688081836
 30
0.0
 11
-41.71777116969368
 21
58.59274688081836
 31
0.0
 12
-41.99822060789595
 22
58.45252216171712
 32
0.0
 13
-41.71777116969368
 23
58.45252216171712
 33
0.0
  0
SOLID
  5
761
330
5A6
100
AcDbEntity
  8
RAHM2
100
AcDbTrace
 10
-41.99822060789595
 20
58.45252216171712
 30
0.0
 11
-41.85799588879492
 21
58.45252216171712
 31
0.0
 12
-41.99822060789595
 22
58.31229744261609
 32
0.0
 13
-41.85799588879492
 23
58.31229744261609
 33
0.0
  0
SOLID
  5
762
330
5A6
100
AcDbEntity
  8
RAHM2
100
AcDbTrace
 10
-42.69934420340153
 20
58.31229744261609
 30
0.0
 11
-41.85799588879492
 21
58.31229744261609
 31
0.0
 12
-42.69934420340153
 22
58.17207272351486
 32
0.0
 13
-41.85799588879492
 23
58.17207272351486
 33
0.0
  0
SOLID
  5
763
330
5A6
100
AcDbEntity
  8
RAHM2
100
AcDbTrace
 10
-42.69934420340153
 20
58.17207272351486
 30
0.0
 11
-41.99822060789595
 21
58.17207272351486
 31
0.0
 12
-42.69934420340153
 22
58.03184800441382
 32
0.0
 13
-41.99822060789595
 23
58.03184800441382
 33
0.0
  0
SOLID
  5
764
330
5A6
100
AcDbEntity
  8
RAHM2
100
AcDbTrace
 10
-42.69934420340153
 20
58.03184800441382
 30
0.0
 11
-42.13844532699718
 21
58.03184800441382
 31
0.0
 12
-42.69934420340153
 22
57.75139856621155
 32
0.0
 13
-42.13844532699718
 23
57.75139856621155
 33
0.0
  0
SOLID
  5
765
330
5A6
100
AcDbEntity
  8
RAHM2
100
AcDbTrace
 10
-42.69934420340153
 20
57.75139856621155
 30
0.0
 11
-42.27867004609822
 21
57.75139856621155
 31
0.0
 12
-42.69934420340153
 22
57.61117384711032
 32
0.0
 13
-42.27867004609822
 23
57.61117384711032
 33
0.0
  0
SOLID
  5
766
330
5A6
100
AcDbEntity
  8
RAHM2
100
AcDbTrace
 10
-38.07192847306458
 20
60.83634238643631
 30
0.0
 11
-37.23058015845777
 21
60.83634238643631
 31
0.0
 12
-38.07192847306458
 22
60.69611766733508
 32
0.0
 13
-37.23058015845777
 23
60.69611766733508
 33
0.0
  0
SOLID
  5
767
330
5A6
100
AcDbEntity
  8
RAHM2
100
AcDbTrace
 10
-38.63282734946911
 20
60.69611766733508
 30
0.0
 11
-37.23058015845777
 21
60.69611766733508
 31
0.0
 12
-38.63282734946911
 22
60.55589294823405
 32
0.0
 13
-37.23058015845777
 23
60.55589294823405
 33
0.0
  0
SOLID
  5
768
330
5A6
100
AcDbEntity
  8
RAHM2
100
AcDbTrace
 10
-38.91327678767119
 20
60.55589294823405
 30
0.0
 11
-38.35237791126684
 21
60.55589294823405
 31
0.0
 12
-38.91327678767119
 22
60.41566822913281
 32
0.0
 13
-38.35237791126684
 23
60.41566822913281
 33
0.0
  0
SOLID
  5
769
330
5A6
100
AcDbEntity
  8
RAHM2
100
AcDbTrace
 10
-39.19372622587346
 20
60.41566822913281
 30
0.0
 11
-38.77305206857015
 21
60.41566822913281
 31
0.0
 12
-39.19372622587346
 22
60.27544351003178
 32
0.0
 13
-38.77305206857015
 23
60.27544351003178
 33
0.0
  0
SOLID
  5
76A
330
5A6
100
AcDbEntity
  8
RAHM2
100
AcDbTrace
 10
-37.79147903486231
 20
60.55589294823405
 30
0.0
 11
-37.23058015845777
 21
60.55589294823405
 31
0.0
 12
-37.79147903486231
 22
60.27544351003178
 32
0.0
 13
-37.23058015845777
 23
60.27544351003178
 33
0.0
  0
SOLID
  5
76B
330
5A6
100
AcDbEntity
  8
RAHM2
100
AcDbTrace
 10
-39.33395094497469
 20
60.27544351003178
 30
0.0
 11
-39.05350150677242
 21
60.27544351003178
 31
0.0
 12
-39.33395094497469
 22
60.13521879093055
 32
0.0
 13
-39.05350150677242
 23
60.13521879093055
 33
0.0
  0
SOLID
  5
76C
330
5A6
100
AcDbEntity
  8
RAHM2
100
AcDbTrace
 10
-39.47417566407573
 20
60.13521879093055
 30
0.0
 11
-39.05350150677242
 21
60.13521879093055
 31
0.0
 12
-39.47417566407573
 22
59.99499407182951
 32
0.0
 13
-39.05350150677242
 23
59.99499407182951
 33
0.0
  0
SOLID
  5
76D
330
5A6
100
AcDbEntity
  8
RAHM2
100
AcDbTrace
 10
-37.79147903486231
 20
60.27544351003178
 30
0.0
 11
-37.370804877559
 21
60.27544351003178
 31
0.0
 12
-37.79147903486231
 22
60.13521879093055
 32
0.0
 13
-37.370804877559
 23
60.13521879093055
 33
0.0
  0
SOLID
  5
76E
330
5A6
100
AcDbEntity
  8
RAHM2
100
AcDbTrace
 10
-37.93170375396335
 20
60.13521879093055
 30
0.0
 11
-37.370804877559
 21
60.13521879093055
 31
0.0
 12
-37.93170375396335
 22
59.99499407182951
 32
0.0
 13
-37.370804877559
 23
59.99499407182951
 33
0.0
  0
SOLID
  5
76F
330
5A6
100
AcDbEntity
  8
RAHM2
100
AcDbTrace
 10
-39.61440038317696
 20
59.99499407182951
 30
0.0
 11
-39.19372622587346
 21
59.99499407182951
 31
0.0
 12
-39.61440038317696
 22
59.85476935272828
 32
0.0
 13
-39.19372622587346
 23
59.85476935272828
 33
0.0
  0
SOLID
  5
770
330
5A6
100
AcDbEntity
  8
RAHM2
100
AcDbTrace
 10
-39.754625102278
 20
59.85476935272828
 30
0.0
 11
-39.33395094497469
 21
59.85476935272828
 31
0.0
 12
-39.754625102278
 22
59.71454463362724
 32
0.0
 13
-39.33395094497469
 23
59.71454463362724
 33
0.0
  0
SOLID
  5
771
330
5A6
100
AcDbEntity
  8
RAHM2
100
AcDbTrace
 10
-37.93170375396335
 20
59.99499407182951
 30
0.0
 11
-37.370804877559
 21
59.99499407182951
 31
0.0
 12
-37.93170375396335
 22
59.71454463362724
 32
0.0
 13
-37.370804877559
 23
59.71454463362724
 33
0.0
  0
SOLID
  5
772
330
5A6
100
AcDbEntity
  8
RAHM2
100
AcDbTrace
 10
-39.754625102278
 20
59.71454463362724
 30
0.0
 11
-39.33395094497469
 21
59.71454463362724
 31
0.0
 12
-39.754625102278
 22
59.5743199145262
 32
0.0
 13
-39.33395094497469
 23
59.5743199145262
 33
0.0
  0
SOLID
  5
773
330
5A6
100
AcDbEntity
  8
RAHM2
100
AcDbTrace
 10
-39.89484982137923
 20
59.5743199145262
 30
0.0
 11
-39.33395094497469
 21
59.5743199145262
 31
0.0
 12
-39.89484982137923
 22
59.43409519542497
 32
0.0
 13
-39.33395094497469
 23
59.43409519542497
 33
0.0
  0
SOLID
  5
774
330
5A6
100
AcDbEntity
  8
RAHM2
100
AcDbTrace
 10
-38.07192847306458
 20
59.71454463362724
 30
0.0
 11
-37.51102959666004
 21
59.71454463362724
 31
0.0
 12
-38.07192847306458
 22
59.43409519542497
 32
0.0
 13
-37.51102959666004
 23
59.43409519542497
 33
0.0
  0
SOLID
  5
775
330
5A6
100
AcDbEntity
  8
RAHM2
100
AcDbTrace
 10
-39.89484982137923
 20
59.43409519542497
 30
0.0
 11
-39.47417566407573
 21
59.43409519542497
 31
0.0
 12
-39.89484982137923
 22
59.29387047632393
 32
0.0
 13
-39.47417566407573
 23
59.29387047632393
 33
0.0
  0
SOLID
  5
776
330
5A6
100
AcDbEntity
  8
RAHM2
100
AcDbTrace
 10
-40.03507454048026
 20
59.29387047632393
 30
0.0
 11
-39.47417566407573
 21
59.29387047632393
 31
0.0
 12
-40.03507454048026
 22
59.15364575722271
 32
0.0
 13
-39.47417566407573
 23
59.15364575722271
 33
0.0
  0
SOLID
  5
777
330
5A6
100
AcDbEntity
  8
RAHM2
100
AcDbTrace
 10
-38.21215319216562
 20
59.43409519542497
 30
0.0
 11
-37.51102959666004
 21
59.43409519542497
 31
0.0
 12
-38.21215319216562
 22
59.15364575722271
 32
0.0
 13
-37.51102959666004
 23
59.15364575722271
 33
0.0
  0
SOLID
  5
778
330
5A6
100
AcDbEntity
  8
RAHM2
100
AcDbTrace
 10
-40.03507454048026
 20
59.15364575722271
 30
0.0
 11
-39.47417566407573
 21
59.15364575722271
 31
0.0
 12
-40.03507454048026
 22
59.01342103812166
 32
0.0
 13
-39.47417566407573
 23
59.01342103812166
 33
0.0
  0
SOLID
  5
779
330
5A6
100
AcDbEntity
  8
RAHM2
100
AcDbTrace
 10
-38.35237791126684
 20
59.15364575722271
 30
0.0
 11
-37.51102959666004
 21
59.15364575722271
 31
0.0
 12
-38.35237791126684
 22
59.01342103812166
 32
0.0
 13
-37.51102959666004
 23
59.01342103812166
 33
0.0
  0
SOLID
  5
77A
330
5A6
100
AcDbEntity
  8
RAHM2
100
AcDbTrace
 10
-40.03507454048026
 20
59.01342103812166
 30
0.0
 11
-39.47417566407573
 21
59.01342103812166
 31
0.0
 12
-40.03507454048026
 22
58.73297159991939
 32
0.0
 13
-39.47417566407573
 23
58.73297159991939
 33
0.0
  0
SOLID
  5
77B
330
5A6
100
AcDbEntity
  8
RAHM2
100
AcDbTrace
 10
-40.03507454048026
 20
58.73297159991939
 30
0.0
 11
-39.61440038317696
 21
58.73297159991939
 31
0.0
 12
-40.03507454048026
 22
58.59274688081836
 32
0.0
 13
-39.61440038317696
 23
58.59274688081836
 33
0.0
  0
SOLID
  5
77C
330
5A6
100
AcDbEntity
  8
RAHM2
100
AcDbTrace
 10
-38.35237791126684
 20
59.01342103812166
 30
0.0
 11
-38.21215319216562
 21
59.01342103812166
 31
0.0
 12
-38.35237791126684
 22
58.87319631902044
 32
0.0
 13
-38.21215319216562
 23
58.87319631902044
 33
0.0
  0
SOLID
  5
77D
330
5A6
100
AcDbEntity
  8
RAHM2
100
AcDbTrace
 10
-38.49260263036788
 20
58.87319631902044
 30
0.0
 11
-38.35237791126684
 21
58.87319631902044
 31
0.0
 12
-38.49260263036788
 22
58.73297159991939
 32
0.0
 13
-38.35237791126684
 23
58.73297159991939
 33
0.0
  0
SOLID
  5
77E
330
5A6
100
AcDbEntity
  8
RAHM2
100
AcDbTrace
 10
-38.21215319216562
 20
59.01342103812166
 30
0.0
 11
-37.65125431576108
 21
59.01342103812166
 31
0.0
 12
-38.21215319216562
 22
58.59274688081836
 32
0.0
 13
-37.65125431576108
 23
58.59274688081836
 33
0.0
  0
SOLID
  5
77F
330
5A6
100
AcDbEntity
  8
RAHM2
100
AcDbTrace
 10
-40.03507454048026
 20
58.59274688081836
 30
0.0
 11
-39.61440038317696
 21
58.59274688081836
 31
0.0
 12
-40.03507454048026
 22
58.45252216171712
 32
0.0
 13
-39.61440038317696
 23
58.45252216171712
 33
0.0
  0
SOLID
  5
780
330
5A6
100
AcDbEntity
  8
RAHM2
100
AcDbTrace
 10
-40.17529925958131
 20
58.45252216171712
 30
0.0
 11
-39.61440038317696
 21
58.45252216171712
 31
0.0
 12
-40.17529925958131
 22
58.31229744261609
 32
0.0
 13
-39.61440038317696
 23
58.31229744261609
 33
0.0
  0
SOLID
  5
781
330
5A6
100
AcDbEntity
  8
RAHM2
100
AcDbTrace
 10
-38.63282734946911
 20
58.59274688081836
 30
0.0
 11
-38.49260263036788
 21
58.59274688081836
 31
0.0
 12
-38.63282734946911
 22
58.45252216171712
 32
0.0
 13
-38.49260263036788
 23
58.45252216171712
 33
0.0
  0
SOLID
  5
782
330
5A6
100
AcDbEntity
  8
RAHM2
100
AcDbTrace
 10
-38.91327678767119
 20
58.45252216171712
 30
0.0
 11
-38.63282734946911
 21
58.45252216171712
 31
0.0
 12
-38.91327678767119
 22
58.31229744261609
 32
0.0
 13
-38.63282734946911
 23
58.31229744261609
 33
0.0
  0
SOLID
  5
783
330
5A6
100
AcDbEntity
  8
RAHM2
100
AcDbTrace
 10
-38.21215319216562
 20
58.59274688081836
 30
0.0
 11
-37.65125431576108
 21
58.59274688081836
 31
0.0
 12
-38.21215319216562
 22
58.45252216171712
 32
0.0
 13
-37.65125431576108
 23
58.45252216171712
 33
0.0
  0
SOLID
  5
784
330
5A6
100
AcDbEntity
  8
RAHM2
100
AcDbTrace
 10
-38.21215319216562
 20
58.45252216171712
 30
0.0
 11
-37.79147903486231
 21
58.45252216171712
 31
0.0
 12
-38.21215319216562
 22
58.31229744261609
 32
0.0
 13
-37.79147903486231
 23
58.31229744261609
 33
0.0
  0
SOLID
  5
785
330
5A6
100
AcDbEntity
  8
RAHM2
100
AcDbTrace
 10
-40.17529925958131
 20
58.31229744261609
 30
0.0
 11
-39.61440038317696
 21
58.31229744261609
 31
0.0
 12
-40.17529925958131
 22
58.17207272351486
 32
0.0
 13
-39.61440038317696
 23
58.17207272351486
 33
0.0
  0
SOLID
  5
786
330
5A6
100
AcDbEntity
  8
RAHM2
100
AcDbTrace
 10
-39.05350150677242
 20
58.31229744261609
 30
0.0
 11
-38.77305206857015
 21
58.31229744261609
 31
0.0
 12
-39.05350150677242
 22
58.17207272351486
 32
0.0
 13
-38.77305206857015
 23
58.17207272351486
 33
0.0
  0
SOLID
  5
787
330
5A6
100
AcDbEntity
  8
RAHM2
100
AcDbTrace
 10
-38.35237791126684
 20
58.31229744261609
 30
0.0
 11
-37.79147903486231
 21
58.31229744261609
 31
0.0
 12
-38.35237791126684
 22
58.17207272351486
 32
0.0
 13
-37.79147903486231
 23
58.17207272351486
 33
0.0
  0
SOLID
  5
788
330
5A6
100
AcDbEntity
  8
RAHM2
100
AcDbTrace
 10
-40.17529925958131
 20
58.17207272351486
 30
0.0
 11
-39.47417566407573
 21
58.17207272351486
 31
0.0
 12
-40.17529925958131
 22
58.03184800441382
 32
0.0
 13
-39.47417566407573
 23
58.03184800441382
 33
0.0
  0
SOLID
  5
789
330
5A6
100
AcDbEntity
  8
RAHM2
100
AcDbTrace
 10
-39.19372622587346
 20
58.17207272351486
 30
0.0
 11
-38.91327678767119
 21
58.17207272351486
 31
0.0
 12
-39.19372622587346
 22
58.03184800441382
 32
0.0
 13
-38.91327678767119
 23
58.03184800441382
 33
0.0
  0
SOLID
  5
78A
330
5A6
100
AcDbEntity
  8
RAHM2
100
AcDbTrace
 10
-38.35237791126684
 20
58.17207272351486
 30
0.0
 11
-37.79147903486231
 21
58.17207272351486
 31
0.0
 12
-38.35237791126684
 22
58.03184800441382
 32
0.0
 13
-37.79147903486231
 23
58.03184800441382
 33
0.0
  0
SOLID
  5
78B
330
5A6
100
AcDbEntity
  8
RAHM2
100
AcDbTrace
 10
-37.65125431576108
 20
58.17207272351486
 30
0.0
 11
-37.23058015845777
 21
58.17207272351486
 31
0.0
 12
-37.65125431576108
 22
58.03184800441382
 32
0.0
 13
-37.23058015845777
 23
58.03184800441382
 33
0.0
  0
SOLID
  5
78C
330
5A6
100
AcDbEntity
  8
RAHM2
100
AcDbTrace
 10
-40.03507454048026
 20
58.03184800441382
 30
0.0
 11
-39.05350150677242
 21
58.03184800441382
 31
0.0
 12
-40.03507454048026
 22
57.89162328531259
 32
0.0
 13
-39.05350150677242
 23
57.89162328531259
 33
0.0
  0
SOLID
  5
78D
330
5A6
100
AcDbEntity
  8
RAHM2
100
AcDbTrace
 10
-40.03507454048026
 20
57.89162328531259
 30
0.0
 11
-39.19372622587346
 21
57.89162328531259
 31
0.0
 12
-40.03507454048026
 22
57.75139856621155
 32
0.0
 13
-39.19372622587346
 23
57.75139856621155
 33
0.0
  0
SOLID
  5
78E
330
5A6
100
AcDbEntity
  8
RAHM2
100
AcDbTrace
 10
-38.35237791126684
 20
58.03184800441382
 30
0.0
 11
-37.51102959666004
 21
58.03184800441382
 31
0.0
 12
-38.35237791126684
 22
57.89162328531259
 32
0.0
 13
-37.51102959666004
 23
57.89162328531259
 33
0.0
  0
SOLID
  5
78F
330
5A6
100
AcDbEntity
  8
RAHM2
100
AcDbTrace
 10
-38.35237791126684
 20
57.89162328531259
 30
0.0
 11
-37.79147903486231
 21
57.89162328531259
 31
0.0
 12
-38.35237791126684
 22
57.75139856621155
 32
0.0
 13
-37.79147903486231
 23
57.75139856621155
 33
0.0
  0
SOLID
  5
790
330
5A6
100
AcDbEntity
  8
RAHM2
100
AcDbTrace
 10
-39.89484982137923
 20
57.75139856621155
 30
0.0
 11
-39.47417566407573
 21
57.75139856621155
 31
0.0
 12
-39.89484982137923
 22
57.61117384711032
 32
0.0
 13
-39.47417566407573
 23
57.61117384711032
 33
0.0
  0
SOLID
  5
791
330
5A6
100
AcDbEntity
  8
RAHM2
100
AcDbTrace
 10
-38.35237791126684
 20
57.75139856621155
 30
0.0
 11
-37.93170375396335
 21
57.75139856621155
 31
0.0
 12
-38.35237791126684
 22
57.61117384711032
 32
0.0
 13
-37.93170375396335
 23
57.61117384711032
 33
0.0
  0
SOLID
  5
792
330
5A6
100
AcDbEntity
  8
RAHM2
100
AcDbTrace
 10
-35.26743409104208
 20
60.83634238643631
 30
0.0
 11
-35.12720937194085
 21
60.83634238643631
 31
0.0
 12
-35.26743409104208
 22
60.69611766733508
 32
0.0
 13
-35.12720937194085
 23
60.69611766733508
 33
0.0
  0
SOLID
  5
793
330
5A6
100
AcDbEntity
  8
RAHM2
100
AcDbTrace
 10
-33.72496218092969
 20
60.83634238643631
 30
0.0
 11
-33.44451274272743
 21
60.83634238643631
 31
0.0
 12
-33.72496218092969
 22
60.69611766733508
 32
0.0
 13
-33.44451274272743
 23
60.69611766733508
 33
0.0
  0
SOLID
  5
794
330
5A6
100
AcDbEntity
  8
RAHM2
100
AcDbTrace
 10
-35.68810824834539
 20
60.69611766733508
 30
0.0
 11
-35.12720937194085
 21
60.69611766733508
 31
0.0
 12
-35.68810824834539
 22
60.55589294823405
 32
0.0
 13
-35.12720937194085
 23
60.55589294823405
 33
0.0
  0
SOLID
  5
795
330
5A6
100
AcDbEntity
  8
RAHM2
100
AcDbTrace
 10
-34.14563633823301
 20
60.69611766733508
 30
0.0
 11
-33.30428802362638
 21
60.69611766733508
 31
0.0
 12
-34.14563633823301
 22
60.55589294823405
 32
0.0
 13
-33.30428802362638
 23
60.55589294823405
 33
0.0
  0
SOLID
  5
796
330
5A6
100
AcDbEntity
  8
RAHM2
100
AcDbTrace
 10
-36.10878240564888
 20
60.55589294823405
 30
0.0
 11
-35.12720937194085
 21
60.55589294823405
 31
0.0
 12
-36.10878240564888
 22
60.41566822913281
 32
0.0
 13
-35.12720937194085
 23
60.41566822913281
 33
0.0
  0
SOLID
  5
797
330
5A6
100
AcDbEntity
  8
RAHM2
100
AcDbTrace
 10
-34.28586105733423
 20
60.55589294823405
 30
0.0
 11
-33.30428802362638
 21
60.55589294823405
 31
0.0
 12
-34.28586105733423
 22
60.41566822913281
 32
0.0
 13
-33.30428802362638
 23
60.41566822913281
 33
0.0
  0
SOLID
  5
798
330
5A6
100
AcDbEntity
  8
RAHM2
100
AcDbTrace
 10
-36.38923184385097
 20
60.41566822913281
 30
0.0
 11
-36.10878240564888
 21
60.41566822913281
 31
0.0
 12
-36.38923184385097
 22
60.27544351003178
 32
0.0
 13
-36.10878240564888
 23
60.27544351003178
 33
0.0
  0
SOLID
  5
799
330
5A6
100
AcDbEntity
  8
RAHM2
100
AcDbTrace
 10
-35.82833296744662
 20
60.41566822913281
 30
0.0
 11
-35.12720937194085
 21
60.41566822913281
 31
0.0
 12
-35.82833296744662
 22
60.27544351003178
 32
0.0
 13
-35.12720937194085
 23
60.27544351003178
 33
0.0
  0
SOLID
  5
79A
330
5A6
100
AcDbEntity
  8
RAHM2
100
AcDbTrace
 10
-34.5663104955365
 20
60.41566822913281
 30
0.0
 11
-34.14563633823301
 21
60.41566822913281
 31
0.0
 12
-34.5663104955365
 22
60.27544351003178
 32
0.0
 13
-34.14563633823301
 23
60.27544351003178
 33
0.0
  0
SOLID
  5
79B
330
5A6
100
AcDbEntity
  8
RAHM2
100
AcDbTrace
 10
-33.86518690003074
 20
60.41566822913281
 30
0.0
 11
-33.30428802362638
 21
60.41566822913281
 31
0.0
 12
-33.86518690003074
 22
60.27544351003178
 32
0.0
 13
-33.30428802362638
 23
60.27544351003178
 33
0.0
  0
SOLID
  5
79C
330
5A6
100
AcDbEntity
  8
RAHM2
100
AcDbTrace
 10
-35.82833296744662
 20
60.27544351003178
 30
0.0
 11
-35.12720937194085
 21
60.27544351003178
 31
0.0
 12
-35.82833296744662
 22
60.13521879093055
 32
0.0
 13
-35.12720937194085
 23
60.13521879093055
 33
0.0
  0
SOLID
  5
79D
330
5A6
100
AcDbEntity
  8
RAHM2
100
AcDbTrace
 10
-34.70653521463754
 20
60.27544351003178
 30
0.0
 11
-34.42608577643528
 21
60.27544351003178
 31
0.0
 12
-34.70653521463754
 22
60.13521879093055
 32
0.0
 13
-34.42608577643528
 23
60.13521879093055
 33
0.0
  0
SOLID
  5
79E
330
5A6
100
AcDbEntity
  8
RAHM2
100
AcDbTrace
 10
-33.86518690003074
 20
60.27544351003178
 30
0.0
 11
-33.30428802362638
 21
60.27544351003178
 31
0.0
 12
-33.86518690003074
 22
60.13521879093055
 32
0.0
 13
-33.30428802362638
 23
60.13521879093055
 33
0.0
  0
SOLID
  5
79F
330
5A6
100
AcDbEntity
  8
RAHM2
100
AcDbTrace
 10
-35.82833296744662
 20
60.13521879093055
 30
0.0
 11
-35.26743409104208
 21
60.13521879093055
 31
0.0
 12
-35.82833296744662
 22
59.85476935272828
 32
0.0
 13
-35.26743409104208
 23
59.85476935272828
 33
0.0
  0
SOLID
  5
7A0
330
5A6
100
AcDbEntity
  8
RAHM2
100
AcDbTrace
 10
-34.84675993373877
 20
60.13521879093055
 30
0.0
 11
-34.5663104955365
 21
60.13521879093055
 31
0.0
 12
-34.84675993373877
 22
59.99499407182951
 32
0.0
 13
-34.5663104955365
 23
59.99499407182951
 33
0.0
  0
SOLID
  5
7A1
330
5A6
100
AcDbEntity
  8
RAHM2
100
AcDbTrace
 10
-34.98698465283981
 20
59.99499407182951
 30
0.0
 11
-34.70653521463754
 21
59.99499407182951
 31
0.0
 12
-34.98698465283981
 22
59.85476935272828
 32
0.0
 13
-34.70653521463754
 23
59.85476935272828
 33
0.0
  0
SOLID
  5
7A2
330
5A6
100
AcDbEntity
  8
RAHM2
100
AcDbTrace
 10
-33.86518690003074
 20
60.13521879093055
 30
0.0
 11
-33.30428802362638
 21
60.13521879093055
 31
0.0
 12
-33.86518690003074
 22
59.85476935272828
 32
0.0
 13
-33.30428802362638
 23
59.85476935272828
 33
0.0
  0
SOLID
  5
7A3
330
5A6
100
AcDbEntity
  8
RAHM2
100
AcDbTrace
 10
-35.82833296744662
 20
59.85476935272828
 30
0.0
 11
-35.26743409104208
 21
59.85476935272828
 31
0.0
 12
-35.82833296744662
 22
59.71454463362724
 32
0.0
 13
-35.26743409104208
 23
59.71454463362724
 33
0.0
  0
SOLID
  5
7A4
330
5A6
100
AcDbEntity
  8
RAHM2
100
AcDbTrace
 10
-34.98698465283981
 20
59.85476935272828
 30
0.0
 11
-34.84675993373877
 21
59.85476935272828
 31
0.0
 12
-34.98698465283981
 22
59.71454463362724
 32
0.0
 13
-34.84675993373877
 23
59.71454463362724
 33
0.0
  0
SOLID
  5
7A5
330
5A6
100
AcDbEntity
  8
RAHM2
100
AcDbTrace
 10
-33.86518690003074
 20
59.85476935272828
 30
0.0
 11
-33.30428802362638
 21
59.85476935272828
 31
0.0
 12
-33.86518690003074
 22
59.71454463362724
 32
0.0
 13
-33.30428802362638
 23
59.71454463362724
 33
0.0
  0
SOLID
  5
7A6
330
5A6
100
AcDbEntity
  8
RAHM2
100
AcDbTrace
 10
-35.82833296744662
 20
59.71454463362724
 30
0.0
 11
-35.26743409104208
 21
59.71454463362724
 31
0.0
 12
-35.82833296744662
 22
59.5743199145262
 32
0.0
 13
-35.26743409104208
 23
59.5743199145262
 33
0.0
  0
SOLID
  5
7A7
330
5A6
100
AcDbEntity
  8
RAHM2
100
AcDbTrace
 10
-35.96855768654766
 20
59.5743199145262
 30
0.0
 11
-35.40765881014312
 21
59.5743199145262
 31
0.0
 12
-35.96855768654766
 22
59.43409519542497
 32
0.0
 13
-35.40765881014312
 23
59.43409519542497
 33
0.0
  0
SOLID
  5
7A8
330
5A6
100
AcDbEntity
  8
RAHM2
100
AcDbTrace
 10
-35.12720937194085
 20
59.71454463362724
 30
0.0
 11
-34.98698465283981
 21
59.71454463362724
 31
0.0
 12
-35.12720937194085
 22
59.5743199145262
 32
0.0
 13
-34.98698465283981
 23
59.5743199145262
 33
0.0
  0
SOLID
  5
7A9
330
5A6
100
AcDbEntity
  8
RAHM2
100
AcDbTrace
 10
-35.26743409104208
 20
59.5743199145262
 30
0.0
 11
-35.12720937194085
 21
59.5743199145262
 31
0.0
 12
-35.26743409104208
 22
59.43409519542497
 32
0.0
 13
-35.12720937194085
 23
59.43409519542497
 33
0.0
  0
SOLID
  5
7AA
330
5A6
100
AcDbEntity
  8
RAHM2
100
AcDbTrace
 10
-33.86518690003074
 20
59.71454463362724
 30
0.0
 11
-33.44451274272743
 21
59.71454463362724
 31
0.0
 12
-33.86518690003074
 22
59.43409519542497
 32
0.0
 13
-33.44451274272743
 23
59.43409519542497
 33
0.0
  0
SOLID
  5
7AB
330
5A6
100
AcDbEntity
  8
RAHM2
100
AcDbTrace
 10
-35.96855768654766
 20
59.43409519542497
 30
0.0
 11
-35.12720937194085
 21
59.43409519542497
 31
0.0
 12
-35.96855768654766
 22
59.29387047632393
 32
0.0
 13
-35.12720937194085
 23
59.29387047632393
 33
0.0
  0
SOLID
  5
7AC
330
5A6
100
AcDbEntity
  8
RAHM2
100
AcDbTrace
 10
-35.96855768654766
 20
59.29387047632393
 30
0.0
 11
-35.26743409104208
 21
59.29387047632393
 31
0.0
 12
-35.96855768654766
 22
59.01342103812166
 32
0.0
 13
-35.26743409104208
 23
59.01342103812166
 33
0.0
  0
SOLID
  5
7AD
330
5A6
100
AcDbEntity
  8
RAHM2
100
AcDbTrace
 10
-34.00541161913196
 20
59.43409519542497
 30
0.0
 11
-33.44451274272743
 21
59.43409519542497
 31
0.0
 12
-34.00541161913196
 22
59.15364575722271
 32
0.0
 13
-33.44451274272743
 23
59.15364575722271
 33
0.0
  0
SOLID
  5
7AE
330
5A6
100
AcDbEntity
  8
RAHM2
100
AcDbTrace
 10
-34.00541161913196
 20
59.15364575722271
 30
0.0
 11
-33.58473746182865
 21
59.15364575722271
 31
0.0
 12
-34.00541161913196
 22
59.01342103812166
 32
0.0
 13
-33.58473746182865
 23
59.01342103812166
 33
0.0
  0
SOLID
  5
7AF
330
5A6
100
AcDbEntity
  8
RAHM2
100
AcDbTrace
 10
-36.10878240564888
 20
59.01342103812166
 30
0.0
 11
-35.40765881014312
 21
59.01342103812166
 31
0.0
 12
-36.10878240564888
 22
58.73297159991939
 32
0.0
 13
-35.40765881014312
 23
58.73297159991939
 33
0.0
  0
SOLID
  5
7B0
330
5A6
100
AcDbEntity
  8
RAHM2
100
AcDbTrace
 10
-36.10878240564888
 20
58.73297159991939
 30
0.0
 11
-35.54788352924435
 21
58.73297159991939
 31
0.0
 12
-36.10878240564888
 22
58.45252216171712
 32
0.0
 13
-35.54788352924435
 23
58.45252216171712
 33
0.0
  0
SOLID
  5
7B1
330
5A6
100
AcDbEntity
  8
RAHM2
100
AcDbTrace
 10
-34.00541161913196
 20
59.01342103812166
 30
0.0
 11
-33.58473746182865
 21
59.01342103812166
 31
0.0
 12
-34.00541161913196
 22
58.87319631902044
 32
0.0
 13
-33.58473746182865
 23
58.87319631902044
 33
0.0
  0
SOLID
  5
7B2
330
5A6
100
AcDbEntity
  8
RAHM2
100
AcDbTrace
 10
-34.14563633823301
 20
58.87319631902044
 30
0.0
 11
-33.58473746182865
 21
58.87319631902044
 31
0.0
 12
-34.14563633823301
 22
58.59274688081836
 32
0.0
 13
-33.58473746182865
 23
58.59274688081836
 33
0.0
  0
SOLID
  5
7B3
330
5A6
100
AcDbEntity
  8
RAHM2
100
AcDbTrace
 10
-34.14563633823301
 20
58.59274688081836
 30
0.0
 11
-33.72496218092969
 21
58.59274688081836
 31
0.0
 12
-34.14563633823301
 22
58.45252216171712
 32
0.0
 13
-33.72496218092969
 23
58.45252216171712
 33
0.0
  0
SOLID
  5
7B4
330
5A6
100
AcDbEntity
  8
RAHM2
100
AcDbTrace
 10
-36.10878240564888
 20
58.45252216171712
 30
0.0
 11
-35.54788352924435
 21
58.45252216171712
 31
0.0
 12
-36.10878240564888
 22
58.31229744261609
 32
0.0
 13
-35.54788352924435
 23
58.31229744261609
 33
0.0
  0
SOLID
  5
7B5
330
5A6
100
AcDbEntity
  8
RAHM2
100
AcDbTrace
 10
-34.28586105733423
 20
58.45252216171712
 30
0.0
 11
-33.72496218092969
 21
58.45252216171712
 31
0.0
 12
-34.28586105733423
 22
58.31229744261609
 32
0.0
 13
-33.72496218092969
 23
58.31229744261609
 33
0.0
  0
SOLID
  5
7B6
330
5A6
100
AcDbEntity
  8
RAHM2
100
AcDbTrace
 10
-36.24900712474993
 20
58.31229744261609
 30
0.0
 11
-35.68810824834539
 21
58.31229744261609
 31
0.0
 12
-36.24900712474993
 22
58.17207272351486
 32
0.0
 13
-35.68810824834539
 23
58.17207272351486
 33
0.0
  0
SOLID
  5
7B7
330
5A6
100
AcDbEntity
  8
RAHM2
100
AcDbTrace
 10
-34.28586105733423
 20
58.31229744261609
 30
0.0
 11
-33.72496218092969
 21
58.31229744261609
 31
0.0
 12
-34.28586105733423
 22
58.17207272351486
 32
0.0
 13
-33.72496218092969
 23
58.17207272351486
 33
0.0
  0
SOLID
  5
7B8
330
5A6
100
AcDbEntity
  8
RAHM2
100
AcDbTrace
 10
-33.30428802362638
 20
58.31229744261609
 30
0.0
 11
-33.16406330452516
 21
58.31229744261609
 31
0.0
 12
-33.30428802362638
 22
58.17207272351486
 32
0.0
 13
-33.16406330452516
 23
58.17207272351486
 33
0.0
  0
SOLID
  5
7B9
330
5A6
100
AcDbEntity
  8
RAHM2
100
AcDbTrace
 10
-36.24900712474993
 20
58.17207272351486
 30
0.0
 11
-35.68810824834539
 21
58.17207272351486
 31
0.0
 12
-36.24900712474993
 22
58.03184800441382
 32
0.0
 13
-35.68810824834539
 23
58.03184800441382
 33
0.0
  0
SOLID
  5
7BA
330
5A6
100
AcDbEntity
  8
RAHM2
100
AcDbTrace
 10
-34.28586105733423
 20
58.17207272351486
 30
0.0
 11
-33.72496218092969
 21
58.17207272351486
 31
0.0
 12
-34.28586105733423
 22
58.03184800441382
 32
0.0
 13
-33.72496218092969
 23
58.03184800441382
 33
0.0
  0
SOLID
  5
7BB
330
5A6
100
AcDbEntity
  8
RAHM2
100
AcDbTrace
 10
-33.58473746182865
 20
58.17207272351486
 30
0.0
 11
-33.16406330452516
 21
58.17207272351486
 31
0.0
 12
-33.58473746182865
 22
58.03184800441382
 32
0.0
 13
-33.16406330452516
 23
58.03184800441382
 33
0.0
  0
SOLID
  5
7BC
330
5A6
100
AcDbEntity
  8
RAHM2
100
AcDbTrace
 10
-36.24900712474993
 20
58.03184800441382
 30
0.0
 11
-35.68810824834539
 21
58.03184800441382
 31
0.0
 12
-36.24900712474993
 22
57.75139856621155
 32
0.0
 13
-35.68810824834539
 23
57.75139856621155
 33
0.0
  0
SOLID
  5
7BD
330
5A6
100
AcDbEntity
  8
RAHM2
100
AcDbTrace
 10
-34.28586105733423
 20
58.03184800441382
 30
0.0
 11
-33.44451274272743
 21
58.03184800441382
 31
0.0
 12
-34.28586105733423
 22
57.89162328531259
 32
0.0
 13
-33.44451274272743
 23
57.89162328531259
 33
0.0
  0
SOLID
  5
7BE
330
5A6
100
AcDbEntity
  8
RAHM2
100
AcDbTrace
 10
-34.42608577643528
 20
57.89162328531259
 30
0.0
 11
-33.72496218092969
 21
57.89162328531259
 31
0.0
 12
-34.42608577643528
 22
57.75139856621155
 32
0.0
 13
-33.72496218092969
 23
57.75139856621155
 33
0.0
  0
SOLID
  5
7BF
330
5A6
100
AcDbEntity
  8
RAHM2
100
AcDbTrace
 10
-36.38923184385097
 20
57.75139856621155
 30
0.0
 11
-35.82833296744662
 21
57.75139856621155
 31
0.0
 12
-36.38923184385097
 22
57.61117384711032
 32
0.0
 13
-35.82833296744662
 23
57.61117384711032
 33
0.0
  0
SOLID
  5
7C0
330
5A6
100
AcDbEntity
  8
RAHM2
100
AcDbTrace
 10
-34.28586105733423
 20
57.75139856621155
 30
0.0
 11
-34.00541161913196
 21
57.75139856621155
 31
0.0
 12
-34.28586105733423
 22
57.61117384711032
 32
0.0
 13
-34.00541161913196
 23
57.61117384711032
 33
0.0
  0
SOLID
  5
7C1
330
5A6
100
AcDbEntity
  8
RAHM2
100
AcDbTrace
 10
-30.92046779890719
 20
61.81791542014416
 30
0.0
 11
-30.78024307980615
 21
61.81791542014416
 31
0.0
 12
-30.92046779890719
 22
61.67769070104293
 32
0.0
 13
-30.78024307980615
 23
61.67769070104293
 33
0.0
  0
SOLID
  5
7C2
330
5A6
100
AcDbEntity
  8
RAHM2
100
AcDbTrace
 10
-31.06069251800842
 20
61.67769070104293
 30
0.0
 11
-30.78024307980615
 21
61.67769070104293
 31
0.0
 12
-31.06069251800842
 22
61.53746598194189
 32
0.0
 13
-30.78024307980615
 23
61.53746598194189
 33
0.0
  0
SOLID
  5
7C3
330
5A6
100
AcDbEntity
  8
RAHM2
100
AcDbTrace
 10
-31.20091723710946
 20
61.53746598194189
 30
0.0
 11
-30.78024307980615
 21
61.53746598194189
 31
0.0
 12
-31.20091723710946
 22
61.39724126284066
 32
0.0
 13
-30.78024307980615
 23
61.39724126284066
 33
0.0
  0
SOLID
  5
7C4
330
5A6
100
AcDbEntity
  8
RAHM2
100
AcDbTrace
 10
-31.3411419562105
 20
61.39724126284066
 30
0.0
 11
-30.78024307980615
 21
61.39724126284066
 31
0.0
 12
-31.3411419562105
 22
61.1167918246384
 32
0.0
 13
-30.78024307980615
 23
61.1167918246384
 33
0.0
  0
SOLID
  5
7C5
330
5A6
100
AcDbEntity
  8
RAHM2
100
AcDbTrace
 10
-31.3411419562105
 20
61.1167918246384
 30
0.0
 11
-30.92046779890719
 21
61.1167918246384
 31
0.0
 12
-31.3411419562105
 22
60.97656710553735
 32
0.0
 13
-30.92046779890719
 23
60.97656710553735
 33
0.0
  0
SOLID
  5
7C6
330
5A6
100
AcDbEntity
  8
RAHM2
100
AcDbTrace
 10
-31.48136667531173
 20
60.97656710553735
 30
0.0
 11
-30.92046779890719
 21
60.97656710553735
 31
0.0
 12
-31.48136667531173
 22
60.83634238643631
 32
0.0
 13
-30.92046779890719
 23
60.83634238643631
 33
0.0
  0
SOLID
  5
7C7
330
5A6
100
AcDbEntity
  8
RAHM2
100
AcDbTrace
 10
-32.04226555171627
 20
60.83634238643631
 30
0.0
 11
-30.07911948430039
 21
60.83634238643631
 31
0.0
 12
-32.04226555171627
 22
60.69611766733508
 32
0.0
 13
-30.07911948430039
 23
60.69611766733508
 33
0.0
  0
SOLID
  5
7C8
330
5A6
100
AcDbEntity
  8
RAHM2
100
AcDbTrace
 10
-32.04226555171627
 20
60.69611766733508
 30
0.0
 11
-30.07911948430039
 21
60.69611766733508
 31
0.0
 12
-32.04226555171627
 22
60.55589294823405
 32
0.0
 13
-30.07911948430039
 23
60.55589294823405
 33
0.0
  0
SOLID
  5
7C9
330
5A6
100
AcDbEntity
  8
RAHM2
100
AcDbTrace
 10
-31.62159139441277
 20
60.55589294823405
 30
0.0
 11
-31.06069251800842
 21
60.55589294823405
 31
0.0
 12
-31.62159139441277
 22
59.99499407182951
 32
0.0
 13
-31.06069251800842
 23
59.99499407182951
 33
0.0
  0
SOLID
  5
7CA
330
5A6
100
AcDbEntity
  8
RAHM2
100
AcDbTrace
 10
-31.761816113514
 20
59.99499407182951
 30
0.0
 11
-31.20091723710946
 21
59.99499407182951
 31
0.0
 12
-31.761816113514
 22
59.43409519542497
 32
0.0
 13
-31.20091723710946
 23
59.43409519542497
 33
0.0
  0
SOLID
  5
7CB
330
5A6
100
AcDbEntity
  8
RAHM2
100
AcDbTrace
 10
-31.761816113514
 20
59.43409519542497
 30
0.0
 11
-31.3411419562105
 21
59.43409519542497
 31
0.0
 12
-31.761816113514
 22
59.15364575722271
 32
0.0
 13
-31.3411419562105
 23
59.15364575722271
 33
0.0
  0
SOLID
  5
7CC
330
5A6
100
AcDbEntity
  8
RAHM2
100
AcDbTrace
 10
-31.90204083261504
 20
59.15364575722271
 30
0.0
 11
-31.3411419562105
 21
59.15364575722271
 31
0.0
 12
-31.90204083261504
 22
58.73297159991939
 32
0.0
 13
-31.3411419562105
 23
58.73297159991939
 33
0.0
  0
SOLID
  5
7CD
330
5A6
100
AcDbEntity
  8
RAHM2
100
AcDbTrace
 10
-31.90204083261504
 20
58.73297159991939
 30
0.0
 11
-31.48136667531173
 21
58.73297159991939
 31
0.0
 12
-31.90204083261504
 22
58.59274688081836
 32
0.0
 13
-31.48136667531173
 23
58.59274688081836
 33
0.0
  0
SOLID
  5
7CE
330
5A6
100
AcDbEntity
  8
RAHM2
100
AcDbTrace
 10
-31.90204083261504
 20
58.59274688081836
 30
0.0
 11
-31.48136667531173
 21
58.59274688081836
 31
0.0
 12
-31.90204083261504
 22
58.45252216171712
 32
0.0
 13
-31.48136667531173
 23
58.45252216171712
 33
0.0
  0
SOLID
  5
7CF
330
5A6
100
AcDbEntity
  8
RAHM2
100
AcDbTrace
 10
-32.04226555171627
 20
58.45252216171712
 30
0.0
 11
-31.48136667531173
 21
58.45252216171712
 31
0.0
 12
-32.04226555171627
 22
58.31229744261609
 32
0.0
 13
-31.48136667531173
 23
58.31229744261609
 33
0.0
  0
SOLID
  5
7D0
330
5A6
100
AcDbEntity
  8
RAHM2
100
AcDbTrace
 10
-32.04226555171627
 20
58.31229744261609
 30
0.0
 11
-31.3411419562105
 21
58.31229744261609
 31
0.0
 12
-32.04226555171627
 22
58.17207272351486
 32
0.0
 13
-31.3411419562105
 23
58.17207272351486
 33
0.0
  0
SOLID
  5
7D1
330
5A6
100
AcDbEntity
  8
RAHM2
100
AcDbTrace
 10
-32.04226555171627
 20
58.17207272351486
 30
0.0
 11
-31.3411419562105
 21
58.17207272351486
 31
0.0
 12
-32.04226555171627
 22
58.03184800441382
 32
0.0
 13
-31.3411419562105
 23
58.03184800441382
 33
0.0
  0
SOLID
  5
7D2
330
5A6
100
AcDbEntity
  8
RAHM2
100
AcDbTrace
 10
-30.64001836070493
 20
58.17207272351486
 30
0.0
 11
-30.49979364160388
 21
58.17207272351486
 31
0.0
 12
-30.64001836070493
 22
58.03184800441382
 32
0.0
 13
-30.49979364160388
 23
58.03184800441382
 33
0.0
  0
SOLID
  5
7D3
330
5A6
100
AcDbEntity
  8
RAHM2
100
AcDbTrace
 10
-32.04226555171627
 20
58.03184800441382
 30
0.0
 11
-30.49979364160388
 21
58.03184800441382
 31
0.0
 12
-32.04226555171627
 22
57.89162328531259
 32
0.0
 13
-30.49979364160388
 23
57.89162328531259
 33
0.0
  0
SOLID
  5
7D4
330
5A6
100
AcDbEntity
  8
RAHM2
100
AcDbTrace
 10
-32.04226555171627
 20
57.89162328531259
 30
0.0
 11
-30.64001836070493
 21
57.89162328531259
 31
0.0
 12
-32.04226555171627
 22
57.75139856621155
 32
0.0
 13
-30.64001836070493
 23
57.75139856621155
 33
0.0
  0
SOLID
  5
7D5
330
5A6
100
AcDbEntity
  8
RAHM2
100
AcDbTrace
 10
-31.90204083261504
 20
57.75139856621155
 30
0.0
 11
-31.20091723710946
 21
57.75139856621155
 31
0.0
 12
-31.90204083261504
 22
57.61117384711032
 32
0.0
 13
-31.20091723710946
 23
57.61117384711032
 33
0.0
  0
ATTDEF
  5
7D6
330
5A6
100
AcDbEntity
  8
AM_BOR
 62
     2
370
    35
100
AcDbText
 10
-100.7395275842899
 20
38.58583043117892
 30
0.0
 40
3.0
  1
-
 72
     1
 11
-99.68952758428997
 21
38.58583043117892
 31
0.0
100
AcDbAttributeDefinition
  3
Maßstab
  2
GEN-TITLE-SCA{5.42}
 70
     0
1001
GENIUS_GENTRA_14
1002
{
1070
     3
1000
GENTRAPR,%s,(GENMSG gendwg 83)
1000
Maßstab
1000
DEU
1070
     0
1070
     0
1002
}
  0
TEXT
  5
7D7
330
5A6
100
AcDbEntity
  8
0N
100
AcDbText
 10
-180.0433753026868
 20
97.16012098886922
 30
0.0
 40
3.5
  1
Zeichnungen größer darstellenden Maßstabes bzw. Einzelteilzeichnungen
 41
0.9
100
AcDbText
  0
TEXT
  5
7D8
330
5A6
100
AcDbEntity
  8
0N
100
AcDbText
 10
-180.0433753026868
 20
91.14471067045299
 30
0.0
 40
3.5
  1
haben vorrangige Gültigkeit
 41
0.9
100
AcDbText
  0
LINE
  5
7D9
330
5A6
100
AcDbEntity
  8
KOPF
 62
    12
100
AcDbLine
 10
0.0
 20
103.4999999999999
 30
0.0
 11
-182.0
 21
103.4999999999999
 31
0.0
  0
LINE
  5
7DA
330
5A6
100
AcDbEntity
  8
KOPF
100
AcDbLine
 10
0.0
 20
103.4999999999999
 30
0.0
 11
-182.0
 21
103.4999999999999
 31
0.0
  0
ENDBLK
  5
7DB
330
5A6
100
AcDbEntity
  8
0
100
AcDbBlockEnd
  0
BLOCK
  5
A1C
330
A10
100
AcDbEntity
  8
0
100
AcDbBlockBegin
  2
*D4
 70
     1
 10
0.0
 20
0.0
 30
0.0
  3
*D4
  1

  0
LINE
  5
A4F
330
A10
100
AcDbEntity
  8
P-0000
  6
Continuous
 62
     3
370
    -2
100
AcDbLine
 10
1725.585619128947
 20
326.4854057616385
 30
0.0
 11
1790.127358007984
 21
326.4854057616385
 31
0.0
  0
LINE
  5
A50
330
A10
100
AcDbEntity
  8
P-0000
  6
Continuous
 62
     3
370
    -2
100
AcDbLine
 10
1757.28848983404
 20
320.9854057616393
 30
0.0
 11
1790.127358007984
 21
320.9854057616393
 31
0.0
  0
LINE
  5
A51
330
A10
100
AcDbEntity
  8
P-0000
  6
Continuous
 62
     3
370
    -2
100
AcDbLine
 10
1788.127358007984
 20
329.6354057616385
 30
0.0
 11
1788.127358007984
 21
332.7854057616385
 31
0.0
  0
LINE
  5
A52
330
A10
100
AcDbEntity
  8
P-0000
  6
Continuous
 62
     3
370
    -2
100
AcDbLine
 10
1788.127358007984
 20
317.8354057616393
 30
0.0
 11
1788.127358007984
 21
314.6854057616393
 31
0.0
  0
MTEXT
  5
A53
330
A10
100
AcDbEntity
  8
P-0000
  6
Continuous
 62
     2
100
AcDbMText
 10
1784.202358007984
 20
309.7910952067888
 30
0.0
 40
3.5
 41
0.0
 71
     5
 72
     1
  1
5.5
 11
0.0000000000000001
 21
1.0
 31
0.0
 73
     1
 44
1.0
  0
LINE
  5
A54
330
A10
100
AcDbEntity
  8
P-0000
  6
Continuous
 62
     3
370
    -2
100
AcDbLine
 10
1788.127358007984
 20
326.4854057616385
 30
0.0
 11
1788.127358007984
 21
320.9854057616393
 31
0.0
  0
SOLID
  5
A55
330
A10
100
AcDbEntity
  8
P-0000
  6
Continuous
 62
     3
100
AcDbTrace
 10
1787.602358007984
 20
329.6354057616385
 30
0.0
 11
1788.652358007984
 21
329.6354057616385
 31
0.0
 12
1788.127358007984
 22
326.4854057616385
 32
0.0
 13
1788.127358007984
 23
326.4854057616385
 33
0.0
  0
SOLID
  5
A56
330
A10
100
AcDbEntity
  8
P-0000
  6
Continuous
 62
     3
100
AcDbTrace
 10
1787.602358007984
 20
317.8354057616393
 30
0.0
 11
1788.652358007984
 21
317.8354057616393
 31
0.0
 12
1788.127358007984
 22
320.9854057616393
 32
0.0
 13
1788.127358007984
 23
320.9854057616393
 33
0.0
  0
POINT
  5
A57
330
A10
100
AcDbEntity
  8
Defpoints
  6
Continuous
 62
     0
100
AcDbPoint
 10
1725.585619128947
 20
326.4854057616385
 30
0.0
  0
POINT
  5
A58
330
A10
100
AcDbEntity
  8
Defpoints
  6
Continuous
 62
     0
100
AcDbPoint
 10
1757.28848983404
 20
320.9854057616393
 30
0.0
  0
POINT
  5
A59
330
A10
100
AcDbEntity
  8
Defpoints
  6
Continuous
 62
     0
100
AcDbPoint
 10
1788.127358007984
 20
320.9854057616393
 30
0.0
  0
ENDBLK
  5
A1D
330
A10
100
AcDbEntity
  8
0
100
AcDbBlockEnd
  0
BLOCK
  5
A26
330
A1E
100
AcDbEntity
  8
0
100
AcDbBlockBegin
  2
*D5
 70
     1
 10
0.0
 20
0.0
 30
0.0
  3
*D5
  1

  0
LINE
  5
A5A
330
A1E
100
AcDbEntity
  8
P-0000
  6
Continuous
 62
     3
370
    -2
100
AcDbLine
 10
1703.695329524248
 20
38.20369978583722
 30
0.0
 11
1668.255541502964
 21
50.96941584063791
 31
0.0
  0
LINE
  5
A5B
330
A1E
100
AcDbEntity
  8
P-0000
  6
Continuous
 62
     3
370
    -2
100
AcDbLine
 10
1490.881650143832
 20
114.8610150586103
 30
0.0
 11
1652.620088099594
 21
56.60144045702759
 31
0.0
  0
MTEXT
  5
A5C
330
A1E
100
AcDbEntity
  8
P-0000
  6
Continuous
 62
     2
100
AcDbMText
 10
1661.115601187628
 20
55.66707785440485
 30
0.0
 40
3.5
 41
0.0
 71
     5
 72
     1
  1
232.5{\H0.60x;\C3;±1}
 11
0.9408248527860408
 21
-0.3388931931746706
 31
0.0
 73
     1
 44
1.0
  0
SOLID
  5
A5D
330
A1E
100
AcDbEntity
  8
P-0000
  6
Continuous
 62
     3
100
AcDbTrace
 10
1703.873248450665
 20
38.69763283354985
 30
0.0
 11
1703.517410597832
 21
37.70976673812459
 31
0.0
 12
1706.658927810525
 22
37.13618622733702
 32
0.0
 13
1706.658927810525
 23
37.13618622733702
 33
0.0
  0
SOLID
  5
A5E
330
A1E
100
AcDbEntity
  8
P-0000
  6
Continuous
 62
     3
100
AcDbTrace
 10
1491.059569070249
 20
115.3549481063228
 30
0.0
 11
1490.703731217415
 21
114.3670820108975
 31
0.0
 12
1487.918051857556
 22
115.9285286171104
 32
0.0
 13
1487.918051857556
 23
115.9285286171104
 33
0.0
  0
POINT
  5
A5F
330
A1E
100
AcDbEntity
  8
Defpoints
  6
Continuous
 62
     0
100
AcDbPoint
 10
1487.918051857556
 20
115.9285286171104
 30
0.0
  0
POINT
  5
A60
330
A1E
100
AcDbEntity
  8
Defpoints
  6
Continuous
 62
     0
100
AcDbPoint
 10
1706.658927810525
 20
37.13618622733702
 30
0.0
  0
ENDBLK
  5
A27
330
A1E
100
AcDbEntity
  8
0
100
AcDbBlockEnd
  0
BLOCK
  5
A33
330
A28
100
AcDbEntity
  8
0
100
AcDbBlockBegin
  2
*D6
 70
     1
 10
0.0
 20
0.0
 30
0.0
  3
*D6
  1

  0
LINE
  5
A61
330
A28
100
AcDbEntity
  8
P-0000
  6
Continuous
 62
     3
370
    -2
100
AcDbLine
 10
1435.78848983404
 20
354.9854057616393
 30
0.0
 11
1435.78848983404
 21
403.6337125410137
 31
0.0
  0
LINE
  5
A62
330
A28
100
AcDbEntity
  8
P-0000
  6
Continuous
 62
     3
370
    -2
100
AcDbLine
 10
1758.78848983404
 20
354.9854057616393
 30
0.0
 11
1758.78848983404
 21
403.6337125410137
 31
0.0
  0
LINE
  5
A63
330
A28
100
AcDbEntity
  8
P-0000
  6
Continuous
 62
     3
370
    -2
100
AcDbLine
 10
1438.93848983404
 20
401.6337125410137
 30
0.0
 11
1587.48926763577
 21
401.6337125410137
 31
0.0
  0
LINE
  5
A64
330
A28
100
AcDbEntity
  8
P-0000
  6
Continuous
 62
     3
370
    -2
100
AcDbLine
 10
1755.63848983404
 20
401.6337125410137
 30
0.0
 11
1603.66926763577
 21
401.6337125410137
 31
0.0
  0
MTEXT
  5
A65
330
A28
100
AcDbEntity
  8
P-0000
  6
Continuous
 62
     2
100
AcDbMText
 10
1595.57926763577
 20
405.3837125410137
 30
0.0
 40
3.5
 41
0.0
 71
     5
 72
     1
  1
%%c323{\H0.60x;\C3;±1}
 73
     1
 44
1.0
  0
SOLID
  5
A66
330
A28
100
AcDbEntity
  8
P-0000
  6
Continuous
 62
     3
100
AcDbTrace
 10
1438.93848983404
 20
402.1587125410136
 30
0.0
 11
1438.93848983404
 21
401.1087125410137
 31
0.0
 12
1435.78848983404
 22
401.6337125410137
 32
0.0
 13
1435.78848983404
 23
401.6337125410137
 33
0.0
  0
SOLID
  5
A67
330
A28
100
AcDbEntity
  8
P-0000
  6
Continuous
 62
     3
100
AcDbTrace
 10
1755.63848983404
 20
402.1587125410136
 30
0.0
 11
1755.63848983404
 21
401.1087125410137
 31
0.0
 12
1758.78848983404
 22
401.6337125410137
 32
0.0
 13
1758.78848983404
 23
401.6337125410137
 33
0.0
  0
POINT
  5
A68
330
A28
100
AcDbEntity
  8
Defpoints
  6
Continuous
 62
     0
100
AcDbPoint
 10
1435.78848983404
 20
354.9854057616393
 30
0.0
  0
POINT
  5
A69
330
A28
100
AcDbEntity
  8
Defpoints
  6
Continuous
 62
     0
100
AcDbPoint
 10
1758.78848983404
 20
354.9854057616393
 30
0.0
  0
POINT
  5
A6A
330
A28
100
AcDbEntity
  8
Defpoints
  6
Continuous
 62
     0
100
AcDbPoint
 10
1758.78848983404
 20
401.6337125410137
 30
0.0
  0
ENDBLK
  5
A34
330
A28
100
AcDbEntity
  8
0
100
AcDbBlockEnd
  0
BLOCK
  5
A41
330
A35
100
AcDbEntity
  8
0
100
AcDbBlockBegin
  2
*D7
 70
     1
 10
0.0
 20
0.0
 30
0.0
  3
*D7
  1

  0
LINE
  5
A6B
330
A35
100
AcDbEntity
  8
P-0000
  6
Continuous
 62
     3
370
    -2
100
AcDbLine
 10
1435.78848983404
 20
354.9854057616393
 30
0.0
 11
1435.78848983404
 21
393.0611070451397
 31
0.0
  0
LINE
  5
A6C
330
A35
100
AcDbEntity
  8
P-0000
  6
Continuous
 62
     3
370
    -2
100
AcDbLine
 10
1437.288489834041
 20
354.9854057616393
 30
0.0
 11
1437.288489834041
 21
393.0611070451397
 31
0.0
  0
LINE
  5
A6D
330
A35
100
AcDbEntity
  8
P-0000
  6
Continuous
 62
     3
370
    -2
100
AcDbLine
 10
1432.63848983404
 20
391.0611070451397
 30
0.0
 11
1429.48848983404
 21
391.0611070451397
 31
0.0
  0
LINE
  5
A6E
330
A35
100
AcDbEntity
  8
P-0000
  6
Continuous
 62
     3
370
    -2
100
AcDbLine
 10
1440.438489834041
 20
391.0611070451397
 30
0.0
 11
1443.588489834041
 21
391.0611070451397
 31
0.0
  0
MTEXT
  5
A6F
330
A35
100
AcDbEntity
  8
P-0000
  6
Continuous
 62
     2
100
AcDbMText
 10
1424.89543229379
 20
394.9861070451397
 30
0.0
 40
3.5
 41
0.0
 71
     5
 72
     1
  1
1.5
 73
     1
 44
1.0
  0
LINE
  5
A70
330
A35
100
AcDbEntity
  8
P-0000
  6
Continuous
 62
     3
370
    -2
100
AcDbLine
 10
1435.78848983404
 20
391.0611070451397
 30
0.0
 11
1437.288489834041
 21
391.0611070451397
 31
0.0
  0
SOLID
  5
A71
330
A35
100
AcDbEntity
  8
P-0000
  6
Continuous
 62
     3
100
AcDbTrace
 10
1432.63848983404
 20
391.5861070451397
 30
0.0
 11
1432.63848983404
 21
390.5361070451397
 31
0.0
 12
1435.78848983404
 22
391.0611070451397
 32
0.0
 13
1435.78848983404
 23
391.0611070451397
 33
0.0
  0
SOLID
  5
A72
330
A35
100
AcDbEntity
  8
P-0000
  6
Continuous
 62
     3
100
AcDbTrace
 10
1440.438489834041
 20
391.5861070451397
 30
0.0
 11
1440.438489834041
 21
390.5361070451397
 31
0.0
 12
1437.288489834041
 22
391.0611070451397
 32
0.0
 13
1437.288489834041
 23
391.0611070451397
 33
0.0
  0
POINT
  5
A73
330
A35
100
AcDbEntity
  8
Defpoints
  6
Continuous
 62
     0
100
AcDbPoint
 10
1435.78848983404
 20
354.9854057616393
 30
0.0
  0
POINT
  5
A74
330
A35
100
AcDbEntity
  8
Defpoints
  6
Continuous
 62
     0
100
AcDbPoint
 10
1437.288489834041
 20
354.9854057616393
 30
0.0
  0
POINT
  5
A75
330
A35
100
AcDbEntity
  8
Defpoints
  6
Continuous
 62
     0
100
AcDbPoint
 10
1437.288489834041
 20
391.0611070451397
 30
0.0
  0
ENDBLK
  5
A42
330
A35
100
AcDbEntity
  8
0
100
AcDbBlockEnd
  0
BLOCK
  5
A4D
330
A43
100
AcDbEntity
  8
0
100
AcDbBlockBegin
  2
*D8
 70
     1
 10
0.0
 20
0.0
 30
0.0
  3
*D8
  1

  0
LINE
  5
A76
330
A43
100
AcDbEntity
  8
P-0000
  6
Continuous
 62
     3
370
    -2
100
AcDbLine
 10
1758.78848983404
 20
354.9854057616393
 30
0.0
 11
1804.267663959062
 21
354.9854057616393
 31
0.0
  0
LINE
  5
A77
330
A43
100
AcDbEntity
  8
P-0000
  6
Continuous
 62
     3
370
    -2
100
AcDbLine
 10
1758.78848983404
 20
320.9854057616393
 30
0.0
 11
1804.267663959062
 21
320.9854057616393
 31
0.0
  0
LINE
  5
A78
330
A43
100
AcDbEntity
  8
P-0000
  6
Continuous
 62
     3
370
    -2
100
AcDbLine
 10
1802.267663959062
 20
351.8354057616393
 30
0.0
 11
1802.267663959062
 21
324.1354057616393
 31
0.0
  0
MTEXT
  5
A79
330
A43
100
AcDbEntity
  8
P-0000
  6
Continuous
 62
     2
100
AcDbMText
 10
1798.517663959062
 20
337.9854057616393
 30
0.0
 40
3.5
 41
0.0
 71
     5
 72
     1
  1
34
 11
0.0000000000000001
 21
1.0
 31
0.0
 73
     1
 44
1.0
  0
SOLID
  5
A7A
330
A43
100
AcDbEntity
  8
P-0000
  6
Continuous
 62
     3
100
AcDbTrace
 10
1801.742663959062
 20
351.8354057616393
 30
0.0
 11
1802.792663959062
 21
351.8354057616393
 31
0.0
 12
1802.267663959062
 22
354.9854057616393
 32
0.0
 13
1802.267663959062
 23
354.9854057616393
 33
0.0
  0
SOLID
  5
A7B
330
A43
100
AcDbEntity
  8
P-0000
  6
Continuous
 62
     3
100
AcDbTrace
 10
1801.742663959062
 20
324.1354057616393
 30
0.0
 11
1802.792663959062
 21
324.1354057616393
 31
0.0
 12
1802.267663959062
 22
320.9854057616393
 32
0.0
 13
1802.267663959062
 23
320.9854057616393
 33
0.0
  0
POINT
  5
A7C
330
A43
100
AcDbEntity
  8
Defpoints
  6
Continuous
 62
     0
100
AcDbPoint
 10
1758.78848983404
 20
354.9854057616393
 30
0.0
  0
POINT
  5
A7D
330
A43
100
AcDbEntity
  8
Defpoints
  6
Continuous
 62
     0
100
AcDbPoint
 10
1758.78848983404
 20
320.9854057616393
 30
0.0
  0
POINT
  5
A7E
330
A43
100
AcDbEntity
  8
Defpoints
  6
Continuous
 62
     0
100
AcDbPoint
 10
1802.267663959062
 20
320.9854057616393
 30
0.0
  0
ENDBLK
  5
A4E
330
A43
100
AcDbEntity
  8
0
100
AcDbBlockEnd
  0
ENDSEC
  0
SECTION
  2
ENTITIES
  0
DIMENSION
  5
90A
330
1F
100
AcDbEntity
  8
P-0000
  6
Continuous
100
AcDbDimension
  2
*D4
 10
1788.127358007984
 20
320.9854057616393
 30
0.0
 11
1784.202358007984
 21
309.7910952067888
 31
0.0
 70
   160
  1
5.5
 71
     5
 42
5.499999999999204
  3
553N6681_001_00111141340
100
AcDbAlignedDimension
 13
1725.585619128947
 23
326.4854057616385
 33
0.0
 14
1757.28848983404
 24
320.9854057616393
 34
0.0
 50
90.0
100
AcDbRotatedDimension
1001
ACAD
1000
DSTYLE
1002
{
1070
   279
1070
     2
1002
}
1001
ACME_LAYERS
1000
1
  0
LEADER
  5
90B
330
1F
100
AcDbEntity
  8
P-0000
  6
Continuous
100
AcDbLeader
  3
ISO-25
 76
     2
 10
1612.78848983404
 20
347.2354057616385
 30
0.0
 10
1633.181617661836
 20
295.5628618937442
 30
0.0
1001
ACAD
1000
DSTYLE
1002
{
1070
    41
1040
3.5
1070
   176
1070
     3
1002
}
1001
ACME_LAYERS
1000
1
  0
LEADER
  5
90C
330
1F
100
AcDbEntity
  8
P-0000
  6
Continuous
100
AcDbLeader
  3
ISO-25
 76
     2
 10
1581.78848983404
 20
347.2354057616385
 30
0.0
 10
1633.181617661836
 20
295.5628618937442
 30
0.0
1001
ACAD
1000
DSTYLE
1002
{
1070
    41
1040
3.5
1070
   176
1070
     3
1002
}
1001
ACME_LAYERS
1000
1
  0
LEADER
  5
90D
330
1F
100
AcDbEntity
  8
P-0000
  6
Continuous
100
AcDbLeader
  3
ISO-25
 76
     2
 10
1758.288489834041
 20
318.9854057616385
 30
0.0
 10
1776.378470712235
 20
298.7372290055397
 30
0.0
1001
ACAD
1000
DSTYLE
1002
{
1070
    41
1040
3.5
1070
   176
1070
     3
1002
}
1001
ACME_LAYERS
1000
1
  0
LEADER
  5
90E
330
1F
100
AcDbEntity
  8
P-0000
  6
Continuous
100
AcDbLeader
  3
ISO-25
 76
     2
 10
1467.30087940034
 20
326.8601783867826
 30
0.0
 10
1445.829289150288
 20
303.7087523924597
 30
0.0
1001
ACAD
1000
DSTYLE
1002
{
1070
    41
1040
3.5
1070
   176
1070
     3
1002
}
1001
ACME_LAYERS
1000
1
  0
LINE
  5
90F
330
1F
100
AcDbEntity
  8
P-0000
  6
STRICHPUNKT
 62
     3
100
AcDbLine
 10
1481.018969370579
 20
342.3212486871759
 30
0.0
 11
1481.018969370579
 21
310.8018052707774
 31
0.0
1001
ACME_LAYERS
1000
1
  0
LINE
  5
910
330
1F
100
AcDbEntity
  8
P-0000
  6
STRICHPUNKT
 62
     3
100
AcDbLine
 10
1597.28848983404
 20
318.9854057616385
 30
0.0
 11
1597.28848983404
 21
301.0746180220777
 31
0.0
1001
ACME_LAYERS
1000
1
  0
LINE
  5
911
330
1F
100
AcDbEntity
  8
P-0000
  6
STRICHPUNKT
 62
     3
100
AcDbLine
 10
1713.558010297503
 20
310.8018052707774
 30
0.0
 11
1713.558010297503
 21
342.3212486871759
 31
0.0
1001
ACME_LAYERS
1000
1
  0
DIMENSION
  5
912
330
1F
100
AcDbEntity
  8
P-0000
  6
Continuous
100
AcDbDimension
  2
*D5
 10
1706.658927810525
 20
37.13618622733702
 30
0.0
 11
1661.115601187628
 21
55.66707785440485
 31
0.0
 70
   163
  1
232.5{\H0.60x;\C3;±1}
 71
     5
 42
232.4990409269235
  3
553316681_001_00111141340
100
AcDbDiametricDimension
 15
1487.918051857556
 25
115.9285286171104
 35
0.0
 40
0.0
1001
ACAD
1000
DSTYLE
1002
{
1070
   279
1070
     2
1002
}
1001
ACME_LAYERS
1000
1
  0
TEXT
  5
913
330
1F
100
AcDbEntity
  8
P-0000
  6
Continuous
 62
     2
100
AcDbText
 10
1635.197441899428
 20
294.3029714222237
 30
0.0
 40
3.5
  1
geheftet min. 6mm
 41
0.9
100
AcDbText
1001
ACME_LAYERS
1000
1
  0
ARC
  5
914
330
1F
100
AcDbEntity
  8
P-0000
  6
Continuous
 62
     7
100
AcDbCircle
 10
1597.28848983404
 20
76.53235742222372
 30
0.0
 40
159.9999999999999
100
AcDbArc
 50
4.660419384115408
 51
83.96965689702398
1001
ACME_LAYERS
1000
1
  0
ARC
  5
915
330
1F
100
AcDbEntity
  8
P-0000
  6
STRICHPUNKT
 62
     3
100
AcDbCircle
 10
1597.28848983404
 20
76.53235742222372
 30
0.0
 40
116.249520463462
100
AcDbArc
 50
348.7167053923544
 51
90.0
1001
ACME_LAYERS
1000
1
  0
ARC
  5
916
330
1F
100
AcDbEntity
  8
P-0000
  6
Continuous
 62
     7
100
AcDbCircle
 10
1597.28848983404
 20
76.53235742222372
 30
0.0
 40
162.0
100
AcDbArc
 50
0.0
 51
180.0
1001
ACME_LAYERS
1000
1
  0
LINE
  5
917
330
1F
100
AcDbEntity
  8
P-0000
  6
STRICHPUNKT
 62
     3
100
AcDbLine
 10
1709.058010297502
 20
76.5323574222237
 30
0.0
 11
1429.136742044181
 21
76.5323574222237
 31
0.0
1001
ACME_LAYERS
1000
1
  0
ARC
  5
918
330
1F
100
AcDbEntity
  8
P-0000
  6
Continuous
 62
     7
100
AcDbCircle
 10
1597.28848983404
 20
76.53235742222372
 30
0.0
 40
159.9999999999999
100
AcDbArc
 50
94.66041938411217
 51
180.0
1001
ACME_LAYERS
1000
1
  0
ARC
  5
91A
330
1F
100
AcDbEntity
  8
P-0000
  6
STRICHPUNKT
 62
     3
100
AcDbCircle
 10
1597.28848983404
 20
76.53235742222372
 30
0.0
 40
116.2495204634619
100
AcDbArc
 50
90.0
 51
189.80432928299
1001
ACME_LAYERS
1000
1
  0
LINE
  5
91B
330
1F
100
AcDbEntity
  8
P-0000
  6
STRICHPUNKT
 62
     3
100
AcDbLine
 10
1597.28848983404
 20
192.7818778856856
 30
0.0
 11
1597.28848983404
 21
64.42873415727889
 31
0.0
1001
ACME_LAYERS
1000
1
  0
LINE
  5
91C
330
1F
100
AcDbEntity
  8
P-0000
  6
Continuous
 62
     7
100
AcDbLine
 10
1439.817489335517
 20
89.5323574222237
 30
0.0
 11
1487.817489335517
 21
89.5323574222237
 31
0.0
1001
ACME_LAYERS
1000
1
  0
ARC
  5
91D
330
1F
100
AcDbEntity
  8
P-0000
  6
Continuous
 62
     7
100
AcDbCircle
 10
1597.28848983404
 20
76.53235742222372
 30
0.0
 40
159.9999999999998
100
AcDbArc
 50
175.3395806158846
 51
180.0
1001
ACME_LAYERS
1000
1
  0
LINE
  5
91E
330
1F
100
AcDbEntity
  8
P-0000
  6
Continuous
 62
     7
100
AcDbLine
 10
1437.817489335517
 20
76.5323574222237
 30
0.0
 11
1437.817489335517
 21
89.5323574222237
 31
0.0
1001
ACME_LAYERS
1000
1
  0
LINE
  5
91F
330
1F
100
AcDbEntity
  8
P-0000
  6
Continuous
 62
     7
100
AcDbLine
 10
1439.817489335517
 20
76.5323574222237
 30
0.0
 11
1439.817489335517
 21
89.5323574222237
 31
0.0
1001
ACME_LAYERS
1000
1
  0
HATCH
  5
920
330
1F
100
AcDbEntity
  8
P-0000
  6
Continuous
 62
     3
100
AcDbHatch
 10
0.0
 20
0.0
 30
0.0
210
0.0
220
0.0
230
1.0
  2
_SOLID
 70
     1
 71
     0
 91
        1
 92
        1
 93
        3
 72
     2
 10
1597.28848983404
 20
76.53235742222372
 40
160.0
 50
173.9696568970211
 51
175.3395806158852
 73
     1
 72
     1
 10
1437.817489335517
 20
89.5323574222237
 11
1439.817489335517
 21
89.5323574222237
 72
     1
 10
1439.817489335517
 20
89.5323574222237
 11
1438.173865996104
 21
93.34117894283981
 97
        0
 75
     0
 76
     1
 98
        1
 10
1988.224577899428
 20
168.5323574222237
450
        0
451
        0
460
0.0
461
0.0
452
        0
462
0.0
453
        0
470

1001
ACME_LAYERS
1000
1
  0
ARC
  5
921
330
1F
100
AcDbEntity
  8
P-0000
  6
Continuous
 62
     7
100
AcDbCircle
 10
1597.28848983404
 20
76.53235742222372
 30
0.0
 40
160.0
100
AcDbArc
 50
173.9696568970208
 51
175.3395806158846
1001
ACME_LAYERS
1000
1
  0
ARC
  5
922
330
1F
100
AcDbEntity
  8
P-0000
  6
Continuous
 62
     7
100
AcDbCircle
 10
1597.28848983404
 20
76.53235742222372
 30
0.0
 40
159.9999999999999
100
AcDbArc
 50
174.5847222306879
 51
175.3395806158846
1001
ACME_LAYERS
1000
1
  0
ARC
  5
923
330
1F
100
AcDbEntity
  8
P-0000
  6
Continuous
 62
     7
100
AcDbCircle
 10
1597.28848983404
 20
76.53235742222372
 30
0.0
 40
159.9999999999999
100
AcDbArc
 50
174.5847222306879
 51
175.3395806158846
1001
ACME_LAYERS
1000
1
  0
LINE
  5
924
330
1F
100
AcDbEntity
  8
P-0000
  6
Continuous
 62
     7
100
AcDbLine
 10
1439.817489335517
 20
89.5323574222237
 30
0.0
 11
1438.173865996104
 21
93.34117894283981
 31
0.0
1001
ACME_LAYERS
1000
1
  0
LINE
  5
925
330
1F
100
AcDbEntity
  8
P-0000
  6
Continuous
 62
     7
100
AcDbLine
 10
1439.817489335517
 20
89.5323574222237
 30
0.0
 11
1437.817489335517
 21
89.5323574222237
 31
0.0
1001
ACME_LAYERS
1000
1
  0
LINE
  5
926
330
1F
100
AcDbEntity
  8
P-0000
  6
Continuous
 62
     7
100
AcDbLine
 10
1439.817489335517
 20
89.5323574222237
 30
0.0
 11
1437.817489335517
 21
89.5323574222237
 31
0.0
1001
ACME_LAYERS
1000
1
  0
LINE
  5
927
330
1F
100
AcDbEntity
  8
P-0000
  6
Continuous
 62
     7
100
AcDbLine
 10
1439.817489335517
 20
89.5323574222237
 30
0.0
 11
1437.817489335517
 21
89.5323574222237
 31
0.0
1001
ACME_LAYERS
1000
1
  0
LINE
  5
928
330
1F
100
AcDbEntity
  8
P-0000
  6
Continuous
 62
     7
100
AcDbLine
 10
1437.817489335517
 20
89.5323574222237
 30
0.0
 11
1439.817489335517
 21
89.5323574222237
 31
0.0
1001
ACME_LAYERS
1000
1
  0
LINE
  5
929
330
1F
100
AcDbEntity
  8
P-0000
  6
Continuous
 62
     7
100
AcDbLine
 10
1491.817489335517
 20
85.53235742222369
 30
0.0
 11
1491.817489335517
 21
76.5323574222237
 31
0.0
1001
ACME_LAYERS
1000
1
  0
ARC
  5
92A
330
1F
100
AcDbEntity
  8
P-0000
  6
Continuous
 62
     7
100
AcDbCircle
 10
1481.018969370579
 20
76.5323574222237
 30
0.0
 40
4.5
100
AcDbArc
 50
0.0
 51
180.0
1001
ACME_LAYERS
1000
1
  0
LINE
  5
92B
330
1F
100
AcDbEntity
  8
P-0000
  6
Continuous
 62
     7
100
AcDbLine
 10
1487.817489335517
 20
89.5323574222237
 30
0.0
 11
1491.817489335517
 21
85.53235742222369
 31
0.0
1001
ACME_LAYERS
1000
1
  0
TEXT
  5
92C
330
1F
100
AcDbEntity
  8
P-0000
  6
Continuous
 62
     2
100
AcDbText
 10
1426.494014899428
 20
296.8339884222237
 30
0.0
 40
3.5
  1
W070 000 054
 41
0.9
100
AcDbText
1001
ACME_LAYERS
1000
1
  0
LINE
  5
92D
330
1F
100
AcDbEntity
  8
P-0000
  6
STRICHPUNKT
 62
     3
100
AcDbLine
 10
1597.28848983404
 20
250.4287341572789
 30
0.0
 11
1597.28848983404
 21
192.7818778856856
 31
0.0
1001
ACME_LAYERS
1000
1
  0
LINE
  5
92E
330
1F
100
AcDbEntity
  8
P-0000
  6
Continuous
 62
     7
100
AcDbLine
 10
1584.28848983404
 20
234.003357920747
 30
0.0
 11
1584.28848983404
 21
186.0033579207469
 31
0.0
1001
ACME_LAYERS
1000
1
  0
LINE
  5
92F
330
1F
100
AcDbEntity
  8
P-0000
  6
Continuous
 62
     7
100
AcDbLine
 10
1610.28848983404
 20
186.0033579207469
 30
0.0
 11
1610.28848983404
 21
234.003357920747
 31
0.0
1001
ACME_LAYERS
1000
1
  0
LINE
  5
930
330
1F
100
AcDbEntity
  8
P-0000
  6
Continuous
 62
     7
100
AcDbLine
 10
1606.288489834041
 20
182.0033579207469
 30
0.0
 11
1610.28848983404
 21
186.0033579207469
 31
0.0
1001
ACME_LAYERS
1000
1
  0
LINE
  5
931
330
1F
100
AcDbEntity
  8
P-0000
  6
Continuous
 62
     7
100
AcDbLine
 10
1588.28848983404
 20
182.0033579207469
 30
0.0
 11
1606.288489834041
 21
182.0033579207469
 31
0.0
1001
ACME_LAYERS
1000
1
  0
LINE
  5
932
330
1F
100
AcDbEntity
  8
P-0000
  6
Continuous
 62
     7
100
AcDbLine
 10
1584.28848983404
 20
186.0033579207469
 30
0.0
 11
1588.28848983404
 21
182.0033579207469
 31
0.0
1001
ACME_LAYERS
1000
1
  0
CIRCLE
  5
933
330
1F
100
AcDbEntity
  8
P-0000
  6
Continuous
 62
     7
100
AcDbCircle
 10
1597.28848983404
 20
192.7818778856856
 30
0.0
 40
4.5
1001
ACME_LAYERS
1000
1
  0
LINE
  5
934
330
1F
100
AcDbEntity
  8
P-0000
  6
STRICHPUNKT
 62
     3
100
AcDbLine
 10
1597.28848983404
 20
192.7818778856856
 30
0.0
 11
1597.28848983404
 21
185.3018778856857
 31
0.0
1001
ACME_LAYERS
1000
1
  0
LINE
  5
935
330
1F
100
AcDbEntity
  8
P-0000
  6
STRICHPUNKT
 62
     3
100
AcDbLine
 10
1597.28848983404
 20
200.3018778856857
 30
0.0
 11
1597.28848983404
 21
192.7818778856856
 31
0.0
1001
ACME_LAYERS
1000
1
  0
ARC
  5
936
330
1F
100
AcDbEntity
  8
P-0000
  6
Continuous
 62
     7
100
AcDbCircle
 10
1597.28848983404
 20
76.53235742222372
 30
0.0
 40
159.9999999999999
100
AcDbArc
 50
85.33958061588782
 51
94.66041938411217
1001
ACME_LAYERS
1000
1
  0
LINE
  5
937
330
1F
100
AcDbEntity
  8
P-0000
  6
Continuous
 62
     7
100
AcDbLine
 10
1610.28848983404
 20
234.003357920747
 30
0.0
 11
1584.28848983404
 21
234.003357920747
 31
0.0
1001
ACME_LAYERS
1000
1
  0
LINE
  5
938
330
1F
100
AcDbEntity
  8
P-0000
  6
Continuous
 62
     7
100
AcDbLine
 10
1610.28848983404
 20
236.003357920747
 30
0.0
 11
1584.28848983404
 21
236.003357920747
 31
0.0
1001
ACME_LAYERS
1000
1
  0
HATCH
  5
939
330
1F
100
AcDbEntity
  8
P-0000
  6
Continuous
 62
     3
100
AcDbHatch
 10
0.0
 20
0.0
 30
0.0
210
0.0
220
0.0
230
1.0
  2
_SOLID
 70
     1
 71
     0
 91
        1
 92
        1
 93
        3
 72
     2
 10
1597.28848983404
 20
76.53235742222372
 40
159.9999999999999
 50
94.66041938411478
 51
96.03034310297896
 73
     1
 72
     1
 10
1580.479668313424
 20
235.6469812601604
 11
1584.28848983404
 21
234.003357920747
 72
     1
 10
1584.28848983404
 20
234.003357920747
 11
1584.28848983404
 21
236.003357920747
 97
        0
 75
     0
 76
     1
 98
        1
 10
1988.224577899428
 20
168.5323574222237
450
        0
451
        0
460
0.0
461
0.0
452
        0
462
0.0
453
        0
470

1001
ACME_LAYERS
1000
1
  0
ARC
  5
93A
330
1F
100
AcDbEntity
  8
P-0000
  6
Continuous
 62
     7
100
AcDbCircle
 10
1597.28848983404
 20
76.53235742222372
 30
0.0
 40
159.9999999999999
100
AcDbArc
 50
94.66041938411217
 51
96.03034310297603
1001
ACME_LAYERS
1000
1
  0
ARC
  5
93B
330
1F
100
AcDbEntity
  8
P-0000
  6
Continuous
 62
     7
100
AcDbCircle
 10
1597.28848983404
 20
76.53235742222372
 30
0.0
 40
159.9999999999999
100
AcDbArc
 50
94.66041938411217
 51
95.41527776931195
1001
ACME_LAYERS
1000
1
  0
LINE
  5
93C
330
1F
100
AcDbEntity
  8
P-0000
  6
Continuous
 62
     7
100
AcDbLine
 10
1584.28848983404
 20
236.003357920747
 30
0.0
 11
1584.28848983404
 21
234.003357920747
 31
0.0
1001
ACME_LAYERS
1000
1
  0
LINE
  5
93D
330
1F
100
AcDbEntity
  8
P-0000
  6
Continuous
 62
     7
100
AcDbLine
 10
1584.28848983404
 20
236.003357920747
 30
0.0
 11
1584.28848983404
 21
234.003357920747
 31
0.0
1001
ACME_LAYERS
1000
1
  0
LINE
  5
93E
330
1F
100
AcDbEntity
  8
P-0000
  6
Continuous
 62
     7
100
AcDbLine
 10
1584.28848983404
 20
236.003357920747
 30
0.0
 11
1584.28848983404
 21
234.003357920747
 31
0.0
1001
ACME_LAYERS
1000
1
  0
LINE
  5
93F
330
1F
100
AcDbEntity
  8
P-0000
  6
Continuous
 62
     7
100
AcDbLine
 10
1580.479668313424
 20
235.6469812601604
 30
0.0
 11
1584.28848983404
 21
234.003357920747
 31
0.0
1001
ACME_LAYERS
1000
1
  0
HATCH
  5
940
330
1F
100
AcDbEntity
  8
P-0000
  6
Continuous
 62
     3
100
AcDbHatch
 10
0.0
 20
0.0
 30
0.0
210
0.0
220
0.0
230
1.0
  2
_SOLID
 70
     1
 71
     0
 91
        1
 92
        1
 93
        3
 72
     2
 10
1597.28848983404
 20
76.53235742222372
 40
159.9999999999999
 50
83.96965689702108
 51
85.33958061588521
 73
     1
 72
     1
 10
1610.28848983404
 20
236.003357920747
 11
1610.28848983404
 21
234.003357920747
 72
     1
 10
1610.28848983404
 20
234.003357920747
 11
1614.097311354656
 21
235.6469812601604
 97
        0
 75
     0
 76
     1
 98
        1
 10
1988.224577899428
 20
168.5323574222237
450
        0
451
        0
460
0.0
461
0.0
452
        0
462
0.0
453
        0
470

1001
ACME_LAYERS
1000
1
  0
ARC
  5
941
330
1F
100
AcDbEntity
  8
P-0000
  6
Continuous
 62
     7
100
AcDbCircle
 10
1597.28848983404
 20
76.53235742222372
 30
0.0
 40
159.9999999999999
100
AcDbArc
 50
83.96965689702398
 51
85.33958061588782
1001
ACME_LAYERS
1000
1
  0
LINE
  5
942
330
1F
100
AcDbEntity
  8
P-0000
  6
Continuous
 62
     7
100
AcDbLine
 10
1610.28848983404
 20
234.003357920747
 30
0.0
 11
1610.28848983404
 21
236.003357920747
 31
0.0
1001
ACME_LAYERS
1000
1
  0
LINE
  5
943
330
1F
100
AcDbEntity
  8
P-0000
  6
Continuous
 62
     7
100
AcDbLine
 10
1610.28848983404
 20
234.003357920747
 30
0.0
 11
1614.097311354656
 21
235.6469812601604
 31
0.0
1001
ACME_LAYERS
1000
1
  0
LINE
  5
944
330
1F
100
AcDbEntity
  8
P-0000
  6
Continuous
 62
     7
100
AcDbLine
 10
1706.759490332563
 20
89.5323574222237
 30
0.0
 11
1754.759490332564
 21
89.5323574222237
 31
0.0
1001
ACME_LAYERS
1000
1
  0
LINE
  5
945
330
1F
100
AcDbEntity
  8
P-0000
  6
STRICHPUNKT
 62
     3
100
AcDbLine
 10
1754.759490332564
 20
76.5323574222237
 30
0.0
 11
1718.058010297502
 21
76.5323574222237
 31
0.0
1001
ACME_LAYERS
1000
1
  0
LINE
  5
946
330
1F
100
AcDbEntity
  8
P-0000
  6
Continuous
 62
     7
100
AcDbLine
 10
1702.759490332564
 20
76.5323574222237
 30
0.0
 11
1702.759490332564
 21
85.53235742222369
 31
0.0
1001
ACME_LAYERS
1000
1
  0
ARC
  5
947
330
1F
100
AcDbEntity
  8
P-0000
  6
Continuous
 62
     7
100
AcDbCircle
 10
1713.558010297503
 20
76.5323574222237
 30
0.0
 40
4.5
100
AcDbArc
 50
0.0
 51
180.0
1001
ACME_LAYERS
1000
1
  0
LINE
  5
948
330
1F
100
AcDbEntity
  8
P-0000
  6
STRICHPUNKT
 62
     3
100
AcDbLine
 10
1718.058010297502
 20
76.5323574222237
 30
0.0
 11
1709.058010297502
 21
76.5323574222237
 31
0.0
1001
ACME_LAYERS
1000
1
  0
LINE
  5
949
330
1F
100
AcDbEntity
  8
P-0000
  6
Continuous
 62
     7
100
AcDbLine
 10
1702.759490332564
 20
85.53235742222369
 30
0.0
 11
1706.759490332563
 21
89.5323574222237
 31
0.0
1001
ACME_LAYERS
1000
1
  0
ARC
  5
94A
330
1F
100
AcDbEntity
  8
P-0000
  6
Continuous
 62
     7
100
AcDbCircle
 10
1597.28848983404
 20
76.53235742222372
 30
0.0
 40
160.0
100
AcDbArc
 50
0.0
 51
4.660419384115408
1001
ACME_LAYERS
1000
1
  0
LINE
  5
94B
330
1F
100
AcDbEntity
  8
P-0000
  6
Continuous
 62
     7
100
AcDbLine
 10
1754.759490332564
 20
89.5323574222237
 30
0.0
 11
1754.759490332564
 21
76.5323574222237
 31
0.0
1001
ACME_LAYERS
1000
1
  0
LINE
  5
94C
330
1F
100
AcDbEntity
  8
P-0000
  6
Continuous
 62
     7
100
AcDbLine
 10
1756.759490332564
 20
89.5323574222237
 30
0.0
 11
1756.759490332564
 21
76.5323574222237
 31
0.0
1001
ACME_LAYERS
1000
1
  0
LINE
  5
94D
330
1F
100
AcDbEntity
  8
P-0000
  6
STRICHPUNKT
 62
     3
100
AcDbLine
 10
1775.561920912556
 20
76.5323574222237
 30
0.0
 11
1756.759490332564
 21
76.5323574222237
 31
0.0
1001
ACME_LAYERS
1000
1
  0
LINE
  5
94E
330
1F
100
AcDbEntity
  8
P-0000
  6
STRICHPUNKT
 62
     3
100
AcDbLine
 10
1756.759490332564
 20
76.5323574222237
 30
0.0
 11
1754.759490332564
 21
76.5323574222237
 31
0.0
1001
ACME_LAYERS
1000
1
  0
HATCH
  5
94F
330
1F
100
AcDbEntity
  8
P-0000
  6
Continuous
 62
     3
100
AcDbHatch
 10
0.0
 20
0.0
 30
0.0
210
0.0
220
0.0
230
1.0
  2
_SOLID
 70
     1
 71
     0
 91
        1
 92
        1
 93
        3
 72
     2
 10
1597.28848983404
 20
76.53235742222372
 40
159.9999999999999
 50
4.660419384114786
 51
6.03034310297897
 73
     1
 72
     1
 10
1756.403113671977
 20
93.34117894283991
 11
1754.759490332564
 21
89.5323574222237
 72
     1
 10
1754.759490332564
 20
89.5323574222237
 11
1756.759490332564
 21
89.5323574222237
 97
        0
 75
     0
 76
     1
 98
        1
 10
1988.224577899428
 20
168.5323574222237
450
        0
451
        0
460
0.0
461
0.0
452
        0
462
0.0
453
        0
470

1001
ACME_LAYERS
1000
1
  0
LINE
  5
950
330
1F
100
AcDbEntity
  8
P-0000
  6
Continuous
 62
     7
100
AcDbLine
 10
1756.759490332564
 20
89.5323574222237
 30
0.0
 11
1754.759490332564
 21
89.5323574222237
 31
0.0
1001
ACME_LAYERS
1000
1
  0
LINE
  5
951
330
1F
100
AcDbEntity
  8
P-0000
  6
Continuous
 62
     7
100
AcDbLine
 10
1756.759490332564
 20
89.5323574222237
 30
0.0
 11
1754.759490332564
 21
89.5323574222237
 31
0.0
1001
ACME_LAYERS
1000
1
  0
LINE
  5
952
330
1F
100
AcDbEntity
  8
P-0000
  6
Continuous
 62
     7
100
AcDbLine
 10
1756.403113671977
 20
93.34117894283991
 30
0.0
 11
1754.759490332564
 21
89.5323574222237
 31
0.0
1001
ACME_LAYERS
1000
1
  0
LINE
  5
953
330
1F
100
AcDbEntity
  8
P-0000
  6
Continuous
 62
     7
100
AcDbLine
 10
1756.759490332564
 20
89.5323574222237
 30
0.0
 11
1754.759490332564
 21
89.5323574222237
 31
0.0
1001
ACME_LAYERS
1000
1
  0
LINE
  5
954
330
1F
100
AcDbEntity
  8
P-0000
  6
Continuous
 62
     7
100
AcDbLine
 10
1756.759490332564
 20
89.5323574222237
 30
0.0
 11
1754.759490332564
 21
89.5323574222237
 31
0.0
1001
ACME_LAYERS
1000
1
  0
LINE
  5
955
330
1F
100
AcDbEntity
  8
P-0000
  6
Continuous
 62
     7
100
AcDbLine
 10
1756.759490332564
 20
89.5323574222237
 30
0.0
 11
1754.759490332564
 21
89.5323574222237
 31
0.0
1001
ACME_LAYERS
1000
1
  0
LINE
  5
956
330
1F
100
AcDbEntity
  8
P-0000
  6
Continuous
 62
     7
100
AcDbLine
 10
1754.759490332564
 20
89.5323574222237
 30
0.0
 11
1756.759490332564
 21
89.5323574222237
 31
0.0
1001
ACME_LAYERS
1000
1
  0
ARC
  5
957
330
1F
100
AcDbEntity
  8
P-0000
  6
Continuous
 62
     7
100
AcDbCircle
 10
1597.28848983404
 20
76.53235742222372
 30
0.0
 40
159.9999999999999
100
AcDbArc
 50
4.660419384115408
 51
5.415277769312047
1001
ACME_LAYERS
1000
1
  0
ARC
  5
958
330
1F
100
AcDbEntity
  8
P-0000
  6
Continuous
 62
     7
100
AcDbCircle
 10
1597.28848983404
 20
76.53235742222372
 30
0.0
 40
159.9999999999999
100
AcDbArc
 50
4.660419384115408
 51
6.030343102979156
1001
ACME_LAYERS
1000
1
  0
ARC
  5
959
330
1F
100
AcDbEntity
  8
P-0000
  6
Continuous
 62
     7
100
AcDbCircle
 10
1597.28848983404
 20
76.53235742222372
 30
0.0
 40
159.9999999999999
100
AcDbArc
 50
4.660419384115408
 51
5.415277769312047
1001
ACME_LAYERS
1000
1
  0
TEXT
  5
95A
330
1F
100
AcDbEntity
  8
P-0000
  6
Continuous
 62
     2
100
AcDbText
 10
1765.615918899428
 20
292.9420084222237
 30
0.0
 40
3.5
  1
W736 000 120
 41
0.9
100
AcDbText
1001
ACME_LAYERS
1000
1
  0
DIMENSION
  5
95B
330
1F
100
AcDbEntity
  8
P-0000
  6
Continuous
100
AcDbDimension
  2
*D6
 10
1758.78848983404
 20
401.6337125410137
 30
0.0
 11
1595.57926763577
 21
405.3837125410137
 31
0.0
 70
   160
  1
%%c<>{\H0.60x;\C3;±1}
 71
     5
 42
323.0
  3
443306681_001_00111141340
100
AcDbAlignedDimension
 13
1435.78848983404
 23
354.9854057616393
 33
0.0
 14
1758.78848983404
 24
354.9854057616393
 34
0.0
100
AcDbRotatedDimension
1001
ACAD
1000
DSTYLE
1002
{
1070
   279
1070
     2
1002
}
1001
ACME_LAYERS
1000
1
  0
LINE
  5
95C
330
1F
100
AcDbEntity
  8
P-0000
  6
Continuous
 62
     7
100
AcDbLine
 10
1597.28848983404
 20
318.9854057616385
 30
0.0
 11
1758.038489834041
 21
318.9854057616385
 31
0.0
1001
ACME_LAYERS
1000
1
  0
LINE
  5
95D
330
1F
100
AcDbEntity
  8
P-0000
  6
Continuous
 62
     7
100
AcDbLine
 10
1757.28848983404
 20
354.9854057616393
 30
0.0
 11
1437.288489834041
 21
354.9854057616393
 31
0.0
1001
ACME_LAYERS
1000
1
  0
LINE
  5
95E
330
1F
100
AcDbEntity
  8
P-0000
  6
Continuous
 62
     7
100
AcDbLine
 10
1729.24575243099
 20
329.9854057616393
 30
0.0
 11
1610.28848983404
 21
329.9854057616393
 31
0.0
1001
ACME_LAYERS
1000
1
  0
LINE
  5
95F
330
1F
100
AcDbEntity
  8
P-0000
  6
Continuous
 62
     7
100
AcDbLine
 10
1436.788489834041
 20
318.9854057616385
 30
0.0
 11
1597.28848983404
 21
318.9854057616385
 31
0.0
1001
ACME_LAYERS
1000
1
  0
LINE
  5
960
330
1F
100
AcDbEntity
  8
P-0000
  6
Continuous
 62
     7
100
AcDbLine
 10
1584.28848983404
 20
329.9854057616393
 30
0.0
 11
1465.331227237084
 21
329.9854057616393
 31
0.0
1001
ACME_LAYERS
1000
1
  0
HATCH
  5
961
330
1F
100
AcDbEntity
  8
P-0000
  6
Continuous
 62
     3
100
AcDbHatch
 10
0.0
 20
0.0
 30
0.0
210
0.0
220
0.0
230
1.0
  2
_U
 70
     0
 71
     0
 91
        1
 92
        1
 93
       20
 72
     1
 10
1439.817489335517
 20
353.4854057616352
 11
1437.817489335517
 21
353.4854057616352
 72
     1
 10
1437.817489335517
 20
353.4854057616352
 11
1437.817489335517
 21
343.4753981949313
 72
     2
 10
1442.317489335517
 20
343.4753981949313
 40
4.5
 50
180.0
 51
244.9998721107689
 73
     1
 72
     1
 10
1440.415698054376
 20
339.3970173982277
 11
1447.157264634644
 21
336.2533549540672
 72
     1
 10
1447.157264634644
 20
336.2533549540671
 11
1449.876374606844
 21
334.9854057616393
 72
     1
 10
1449.876374606844
 20
334.9854057616393
 11
1454.165363453461
 21
332.9854057616393
 72
     1
 10
1454.165363453461
 20
332.9854057616393
 11
1460.598846723387
 21
329.9854057616393
 72
     1
 10
1460.598846723387
 20
329.9854057616393
 11
1467.30087940034
 21
326.8601783867826
 72
     2
 10
1468.991360539134
 20
330.4854057616352
 40
4.000000000000093
 50
244.9998721107662
 51
270.0
 73
     1
 72
     1
 10
1468.991360539134
 20
326.4854057616352
 11
1476.518969370578
 21
326.4854057616352
 72
     1
 10
1476.518969370579
 20
326.4854057616352
 11
1476.518969370579
 21
328.4854057616352
 72
     1
 10
1476.518969370579
 20
328.4854057616352
 11
1468.991360539134
 21
328.4854057616352
 72
     2
 10
1468.991360539134
 20
330.4854057616352
 40
1.999999999999984
 50
90.0
 51
115.0001278892329
 73
     0
 72
     1
 10
1468.146119969737
 20
328.6727920742089
 11
1465.331227237084
 21
329.9854057616393
 72
     1
 10
1465.331227237084
 20
329.9854057616393
 11
1458.897743967157
 21
332.9854057616393
 72
     1
 10
1458.897743967157
 20
332.9854057616393
 11
1454.60875512054
 21
334.9854057616393
 72
     1
 10
1454.60875512054
 20
334.9854057616393
 11
1451.88964514834
 21
336.2533549540671
 72
     1
 10
1451.88964514834
 20
336.2533549540671
 11
1441.260943681166
 21
341.2096287273397
 72
     2
 10
1442.317489335517
 20
343.4753981949313
 40
2.5
 50
114.9999999999987
 51
180.0
 73
     0
 72
     1
 10
1439.817489335517
 20
343.4753981949313
 11
1439.817489335517
 21
353.4854057616352
 97
        0
 75
     0
 76
     0
 52
45.0
 41
2.0
 77
     0
 78
     1
 53
45.0
 43
1988.224577899428
 44
168.5323574222237
 45
-1.414213562373094
 46
1.414213562373095
 79
     0
 98
        1
 10
1988.224577899428
 20
168.5323574222237
1001
ACME_LAYERS
1000
1
  0
LINE
  5
962
330
1F
100
AcDbEntity
  8
P-0000
  6
Continuous
 62
     7
100
AcDbLine
 10
1476.518969370579
 20
326.4854057616352
 30
0.0
 11
1468.991360539134
 21
326.4854057616352
 31
0.0
1001
ACME_LAYERS
1000
1
  0
LINE
  5
963
330
1F
100
AcDbEntity
  8
P-0000
  6
Continuous
 62
     7
100
AcDbLine
 10
1468.991360539134
 20
328.4854057616352
 30
0.0
 11
1476.518969370579
 21
328.4854057616352
 31
0.0
1001
ACME_LAYERS
1000
1
  0
DIMENSION
  5
964
330
1F
100
AcDbEntity
  8
P-0000
  6
Continuous
100
AcDbDimension
  2
*D7
 10
1437.288489834041
 20
391.0611070451397
 30
0.0
 11
1424.89543229379
 21
394.9861070451397
 31
0.0
 70
   160
  1
1.5
 71
     5
 42
1.500000000000227
  3
443N6681_001_00111141340
100
AcDbAlignedDimension
 13
1435.78848983404
 23
354.9854057616393
 33
0.0
 14
1437.288489834041
 24
354.9854057616393
 34
0.0
100
AcDbRotatedDimension
1001
ACAD
1000
DSTYLE
1002
{
1070
   279
1070
     2
1070
   288
1070
     1
1002
}
1001
ACME_LAYERS
1000
1
  0
LINE
  5
965
330
1F
100
AcDbEntity
  8
P-0000
  6
Continuous
 62
     7
100
AcDbLine
 10
1451.88964514834
 20
336.2533549540671
 30
0.0
 11
1441.260943681166
 21
341.2096287273397
 31
0.0
1001
ACME_LAYERS
1000
1
  0
LINE
  5
966
330
1F
100
AcDbEntity
  8
P-0000
  6
Continuous
 62
     7
100
AcDbLine
 10
1447.157264634644
 20
336.2533549540671
 30
0.0
 11
1440.415698054376
 21
339.3970173982277
 31
0.0
1001
ACME_LAYERS
1000
1
  0
LINE
  5
967
330
1F
100
AcDbEntity
  8
P-0000
  6
Continuous
 62
     7
100
AcDbLine
 10
1460.598846723387
 20
329.9854057616393
 30
0.0
 11
1437.288489834041
 21
329.9854057616393
 31
0.0
1001
ACME_LAYERS
1000
1
  0
HATCH
  5
968
330
1F
100
AcDbEntity
  8
P-0000
  6
Continuous
 62
     3
100
AcDbHatch
 10
0.0
 20
0.0
 30
0.0
210
0.0
220
0.0
230
1.0
  2
_U
 70
     0
 71
     0
 91
        1
 92
        1
 93
       10
 72
     1
 10
1437.288489834041
 20
350.4854057616352
 11
1437.288489834041
 21
354.9854057616393
 72
     1
 10
1437.288489834041
 20
354.9854057616393
 11
1435.788489834041
 21
354.9854057616393
 72
     1
 10
1435.78848983404
 20
354.9854057616393
 11
1435.78848983404
 21
329.9854057616393
 72
     1
 10
1435.78848983404
 20
329.9854057616393
 11
1435.788489834041
 21
320.9854057616393
 72
     1
 10
1435.788489834041
 20
320.9854057616393
 11
1437.288489834041
 21
320.9854057616393
 72
     1
 10
1437.288489834041
 20
320.9854057616393
 11
1437.288489834041
 21
325.3174565692077
 72
     1
 10
1437.288489834041
 20
325.3174565692077
 11
1437.288489834041
 21
329.9854057616393
 72
     1
 10
1437.288489834041
 20
329.9854057616393
 11
1437.288489834041
 21
336.8174565692077
 72
     1
 10
1437.288489834041
 20
336.8174565692077
 11
1437.288489834041
 21
347.2174565692074
 72
     1
 10
1437.288489834041
 20
347.2174565692074
 11
1437.288489834041
 21
350.4854057616352
 97
        0
 75
     0
 76
     0
 52
135.0
 41
2.0
 77
     0
 78
     1
 53
135.0
 43
1988.224577899428
 44
168.5323574222237
 45
-1.414213562373095
 46
-1.414213562373094
 79
     0
 98
        1
 10
1988.224577899428
 20
168.5323574222237
1001
ACME_LAYERS
1000
1
  0
ARC
  5
969
330
1F
100
AcDbEntity
  8
P-0000
  6
Continuous
 62
     7
100
AcDbCircle
 10
1442.317489335517
 20
343.4753981949313
 30
0.0
 40
4.5
100
AcDbArc
 50
180.0
 51
244.9998721107708
1001
ACME_LAYERS
1000
1
  0
LINE
  5
96A
330
1F
100
AcDbEntity
  8
P-0000
  6
Continuous
 62
     7
100
AcDbLine
 10
1435.78848983404
 20
329.9854057616393
 30
0.0
 11
1435.78848983404
 21
354.9854057616393
 31
0.0
1001
ACME_LAYERS
1000
1
  0
LINE
  5
96B
330
1F
100
AcDbEntity
  8
P-0000
  6
Continuous
 62
     7
100
AcDbLine
 10
1437.288489834041
 20
336.8174565692077
 30
0.0
 11
1437.288489834041
 21
347.2174565692074
 31
0.0
1001
ACME_LAYERS
1000
1
  0
LINE
  5
96C
330
1F
100
AcDbEntity
  8
P-0000
  6
Continuous
 62
     7
100
AcDbLine
 10
1437.288489834041
 20
337.2074490025035
 30
0.0
 11
1437.288489834041
 21
347.2174565692074
 31
0.0
1001
ACME_LAYERS
1000
1
  0
HATCH
  5
96D
330
1F
100
AcDbEntity
  8
P-0000
  6
Continuous
 62
     3
100
AcDbHatch
 10
0.0
 20
0.0
 30
0.0
210
0.0
220
0.0
230
1.0
  2
_U
 70
     0
 71
     0
 91
        1
 92
        1
 93
       10
 72
     2
 10
1428.942533486521
 20
322.8198623317727
 40
11.00000000000016
 50
353.0563913490047
 51
400.6482238754982
 73
     1
 72
     1
 10
1437.288489834041
 20
329.9854057616393
 11
1437.288489834041
 21
325.3174565692077
 72
     1
 10
1437.288489834041
 20
325.3174565692077
 11
1437.288489834041
 21
320.9854057616393
 72
     1
 10
1437.288489834041
 20
320.9854057616393
 11
1435.788489834041
 21
320.9854057616393
 72
     1
 10
1435.788489834041
 20
320.9854057616393
 11
1435.788489834041
 21
329.9854057616393
 72
     2
 10
1444.13444618156
 20
322.8198623317727
 40
11.00000000000043
 50
139.3517761245018
 51
186.9436086509954
 73
     1
 72
     2
 10
1435.20045563312
 20
321.731830677645
 40
1.999999999999909
 50
186.9436086509939
 51
219.6500642805869
 73
     1
 72
     2
 10
1436.788489834041
 20
323.0479057616394
 40
4.062500000000818
 50
219.6500642805884
 51
266.4718766587273
 73
     1
 72
     2
 10
1436.28848983404
 20
323.0479057616394
 40
4.062500000001008
 50
273.5281233413015
 51
320.3499357194159
 73
     1
 72
     2
 10
1437.876524034961
 20
321.7318306776451
 40
2.000000000000041
 50
320.3499357194158
 51
353.0563913490041
 73
     1
 97
        0
 75
     0
 76
     0
 52
45.0
 41
1.0
 77
     0
 78
     1
 53
45.0
 43
1988.224577899428
 44
168.5323574222237
 45
-0.7071067811865475
 46
0.7071067811865476
 79
     0
 98
        1
 10
1988.224577899428
 20
168.5323574222237
1001
ACME_LAYERS
1000
1
  0
HATCH
  5
96E
330
1F
100
AcDbEntity
  8
P-0000
  6
Continuous
 62
     3
100
AcDbHatch
 10
0.0
 20
0.0
 30
0.0
210
0.0
220
0.0
230
1.0
  2
_U
 70
     0
 71
     0
 91
        1
 92
        1
 93
       10
 72
     2
 10
1428.942533486521
 20
322.8198623317727
 40
11.00000000000016
 50
353.0563913490047
 51
400.6482238754982
 73
     1
 72
     1
 10
1437.288489834041
 20
329.9854057616393
 11
1437.288489834041
 21
325.3174565692077
 72
     1
 10
1437.288489834041
 20
325.3174565692077
 11
1437.288489834041
 21
320.9854057616393
 72
     1
 10
1437.288489834041
 20
320.9854057616393
 11
1435.788489834041
 21
320.9854057616393
 72
     1
 10
1435.788489834041
 20
320.9854057616393
 11
1435.788489834041
 21
329.9854057616393
 72
     2
 10
1444.13444618156
 20
322.8198623317727
 40
11.00000000000043
 50
139.3517761245018
 51
186.9436086509954
 73
     1
 72
     2
 10
1435.20045563312
 20
321.731830677645
 40
1.999999999999909
 50
186.9436086509939
 51
219.6500642805869
 73
     1
 72
     2
 10
1436.788489834041
 20
323.0479057616394
 40
4.062500000000818
 50
219.6500642805884
 51
266.4718766587273
 73
     1
 72
     2
 10
1436.28848983404
 20
323.0479057616394
 40
4.062500000001008
 50
273.5281233413015
 51
320.3499357194159
 73
     1
 72
     2
 10
1437.876524034961
 20
321.7318306776451
 40
2.000000000000041
 50
320.3499357194158
 51
353.0563913490041
 73
     1
 97
        0
 75
     0
 76
     0
 52
135.0
 41
1.0
 77
     0
 78
     1
 53
135.0
 43
1988.224577899428
 44
168.5323574222237
 45
-0.7071067811865476
 46
-0.7071067811865475
 79
     0
 98
        1
 10
1988.224577899428
 20
168.5323574222237
1001
ACME_LAYERS
1000
1
  0
ARC
  5
96F
330
1F
100
AcDbEntity
  8
P-0000
  6
Continuous
 62
     7
100
AcDbCircle
 10
1428.942533486521
 20
322.8198623317727
 30
0.0
 40
11.00000000000016
100
AcDbArc
 50
353.0563913490049
 51
40.64822387550064
1001
ACME_LAYERS
1000
1
  0
ARC
  5
970
330
1F
100
AcDbEntity
  8
P-0000
  6
Continuous
 62
     7
100
AcDbCircle
 10
1444.13444618156
 20
322.8198623317727
 30
0.0
 40
11.00000000000043
100
AcDbArc
 50
139.3517761244993
 51
186.9436086509951
1001
ACME_LAYERS
1000
1
  0
LINE
  5
971
330
1F
100
AcDbEntity
  8
P-0000
  6
Continuous
 62
     7
100
AcDbLine
 10
1435.788489834041
 20
320.9854057616393
 30
0.0
 11
1435.78848983404
 21
329.9854057616393
 31
0.0
1001
ACME_LAYERS
1000
1
  0
LINE
  5
972
330
1F
100
AcDbEntity
  8
P-0000
  6
Continuous
 62
     7
100
AcDbLine
 10
1437.288489834041
 20
325.3174565692077
 30
0.0
 11
1437.288489834041
 21
329.9854057616393
 31
0.0
1001
ACME_LAYERS
1000
1
  0
ARC
  5
973
330
1F
100
AcDbEntity
  8
P-0000
  6
Continuous
 62
     7
100
AcDbCircle
 10
1436.788489834041
 20
323.0479057616394
 30
0.0
 40
4.062500000000818
100
AcDbArc
 50
219.6500642805881
 51
266.4718766587243
1001
ACME_LAYERS
1000
1
  0
ARC
  5
974
330
1F
100
AcDbEntity
  8
P-0000
  6
Continuous
 62
     7
100
AcDbCircle
 10
1435.20045563312
 20
321.731830677645
 30
0.0
 40
1.999999999999909
100
AcDbArc
 50
186.9436086509935
 51
219.6500642805876
1001
ACME_LAYERS
1000
1
  0
LINE
  5
975
330
1F
100
AcDbEntity
  8
P-0000
  6
Continuous
 62
     7
100
AcDbLine
 10
1437.288489834041
 20
320.9854057616393
 30
0.0
 11
1437.288489834041
 21
325.3174565692077
 31
0.0
1001
ACME_LAYERS
1000
1
  0
ARC
  5
976
330
1F
100
AcDbEntity
  8
P-0000
  6
Continuous
 62
     7
100
AcDbCircle
 10
1437.876524034961
 20
321.7318306776451
 30
0.0
 40
2.000000000000041
100
AcDbArc
 50
320.3499357194131
 51
353.0563913490049
1001
ACME_LAYERS
1000
1
  0
ARC
  5
977
330
1F
100
AcDbEntity
  8
P-0000
  6
Continuous
 62
     7
100
AcDbCircle
 10
1436.28848983404
 20
323.0479057616394
 30
0.0
 40
4.062500000001008
100
AcDbArc
 50
273.5281233413017
 51
320.3499357194131
1001
ACME_LAYERS
1000
1
  0
ARC
  5
978
330
1F
100
AcDbEntity
  8
P-0000
  6
Continuous
 62
     7
100
AcDbCircle
 10
1436.788489834041
 20
323.0479057616394
 30
0.0
 40
4.062500000000881
100
AcDbArc
 50
266.4718766587243
 51
270.0
1001
ACME_LAYERS
1000
1
  0
LINE
  5
979
330
1F
100
AcDbEntity
  8
P-0000
  6
Continuous
 62
     7
100
AcDbLine
 10
1435.788489834041
 20
320.9854057616393
 30
0.0
 11
1437.288489834041
 21
320.9854057616393
 31
0.0
1001
ACME_LAYERS
1000
1
  0
LINE
  5
97A
330
1F
100
AcDbEntity
  8
P-0000
  6
Continuous
 62
     7
100
AcDbLine
 10
1437.288489834041
 20
329.9854057616393
 30
0.0
 11
1437.288489834041
 21
336.8174565692077
 31
0.0
1001
ACME_LAYERS
1000
1
  0
LINE
  5
97B
330
1F
100
AcDbEntity
  8
P-0000
  6
Continuous
 62
     7
100
AcDbLine
 10
1439.817489335517
 20
343.4753981949313
 30
0.0
 11
1439.817489335517
 21
353.4854057616352
 31
0.0
1001
ACME_LAYERS
1000
1
  0
LINE
  5
97C
330
1F
100
AcDbEntity
  8
P-0000
  6
Continuous
 62
     7
100
AcDbLine
 10
1437.817489335517
 20
343.4753981949313
 30
0.0
 11
1437.817489335517
 21
353.4854057616352
 31
0.0
1001
ACME_LAYERS
1000
1
  0
LINE
  5
97D
330
1F
100
AcDbEntity
  8
P-0000
  6
Continuous
 62
     7
100
AcDbLine
 10
1437.288489834041
 20
350.4854057616352
 30
0.0
 11
1437.288489834041
 21
354.9854057616393
 31
0.0
1001
ACME_LAYERS
1000
1
  0
ARC
  5
97E
330
1F
100
AcDbEntity
  8
P-0000
  6
Continuous
 62
     7
100
AcDbCircle
 10
1442.317489335517
 20
343.4753981949313
 30
0.0
 40
2.5
100
AcDbArc
 50
180.0
 51
245.0000000000003
1001
ACME_LAYERS
1000
1
  0
LINE
  5
97F
330
1F
100
AcDbEntity
  8
P-0000
  6
Continuous
 62
     7
100
AcDbLine
 10
1437.288489834041
 20
347.2174565692074
 30
0.0
 11
1437.288489834041
 21
350.4854057616352
 31
0.0
1001
ACME_LAYERS
1000
1
  0
LINE
  5
980
330
1F
100
AcDbEntity
  8
P-0000
  6
Continuous
 62
     7
100
AcDbLine
 10
1439.817489335517
 20
353.4854057616352
 30
0.0
 11
1437.817489335517
 21
353.4854057616352
 31
0.0
1001
ACME_LAYERS
1000
1
  0
LINE
  5
981
330
1F
100
AcDbEntity
  8
P-0000
  6
Continuous
 62
     7
100
AcDbLine
 10
1437.288489834041
 20
354.9854057616393
 30
0.0
 11
1435.78848983404
 21
354.9854057616393
 31
0.0
1001
ACME_LAYERS
1000
1
  0
LINE
  5
982
330
1F
100
AcDbEntity
  8
P-0000
  6
Continuous
 62
     7
100
AcDbLine
 10
1460.598846723387
 20
329.9854057616393
 30
0.0
 11
1454.165363453461
 21
332.9854057616393
 31
0.0
1001
ACME_LAYERS
1000
1
  0
LINE
  5
983
330
1F
100
AcDbEntity
  8
P-0000
  6
Continuous
 62
     7
100
AcDbLine
 10
1465.331227237084
 20
329.9854057616393
 30
0.0
 11
1458.897743967157
 21
332.9854057616393
 31
0.0
1001
ACME_LAYERS
1000
1
  0
LINE
  5
984
330
1F
100
AcDbEntity
  8
P-0000
  6
Continuous
 62
     7
100
AcDbLine
 10
1454.165363453461
 20
332.9854057616393
 30
0.0
 11
1449.876374606844
 21
334.9854057616393
 31
0.0
1001
ACME_LAYERS
1000
1
  0
LINE
  5
985
330
1F
100
AcDbEntity
  8
P-0000
  6
Continuous
 62
     7
100
AcDbLine
 10
1449.876374606844
 20
334.9854057616393
 30
0.0
 11
1447.157264634644
 21
336.2533549540671
 31
0.0
1001
ACME_LAYERS
1000
1
  0
LINE
  5
986
330
1F
100
AcDbEntity
  8
P-0000
  6
Continuous
 62
     7
100
AcDbLine
 10
1458.897743967157
 20
332.9854057616393
 30
0.0
 11
1454.60875512054
 21
334.9854057616393
 31
0.0
1001
ACME_LAYERS
1000
1
  0
LINE
  5
987
330
1F
100
AcDbEntity
  8
P-0000
  6
Continuous
 62
     7
100
AcDbLine
 10
1454.60875512054
 20
334.9854057616393
 30
0.0
 11
1451.88964514834
 21
336.2533549540671
 31
0.0
1001
ACME_LAYERS
1000
1
  0
ARC
  5
988
330
1F
100
AcDbEntity
  8
P-0000
  6
Continuous
 62
     7
100
AcDbCircle
 10
1468.991360539134
 20
330.4854057616352
 30
0.0
 40
1.999999999999984
100
AcDbArc
 50
244.9998721107637
 51
270.0
1001
ACME_LAYERS
1000
1
  0
LINE
  5
989
330
1F
100
AcDbEntity
  8
P-0000
  6
Continuous
 62
     7
100
AcDbLine
 10
1467.30087940034
 20
326.8601783867826
 30
0.0
 11
1460.598846723387
 21
329.9854057616393
 31
0.0
1001
ACME_LAYERS
1000
1
  0
ARC
  5
98A
330
1F
100
AcDbEntity
  8
P-0000
  6
Continuous
 62
     7
100
AcDbCircle
 10
1468.991360539134
 20
330.4854057616352
 30
0.0
 40
4.000000000000093
100
AcDbArc
 50
244.9998721107637
 51
270.0
1001
ACME_LAYERS
1000
1
  0
LINE
  5
98B
330
1F
100
AcDbEntity
  8
P-0000
  6
Continuous
 62
     7
100
AcDbLine
 10
1468.146119969737
 20
328.6727920742089
 30
0.0
 11
1465.331227237084
 21
329.9854057616393
 31
0.0
1001
ACME_LAYERS
1000
1
  0
LINE
  5
98C
330
1F
100
AcDbEntity
  8
P-0000
  6
Continuous
 62
     7
100
AcDbLine
 10
1485.518969370579
 20
326.4854057616352
 30
0.0
 11
1476.518969370579
 21
326.4854057616352
 31
0.0
1001
ACME_LAYERS
1000
1
  0
LINE
  5
98D
330
1F
100
AcDbEntity
  8
P-0000
  6
Continuous
 62
     7
100
AcDbLine
 10
1476.518969370579
 20
328.4854057616352
 30
0.0
 11
1485.518969370579
 21
328.4854057616352
 31
0.0
1001
ACME_LAYERS
1000
1
  0
LINE
  5
98E
330
1F
100
AcDbEntity
  8
P-0000
  6
Continuous
 62
     7
100
AcDbLine
 10
1476.518969370579
 20
326.4854057616352
 30
0.0
 11
1476.518969370579
 21
328.4854057616352
 31
0.0
1001
ACME_LAYERS
1000
1
  0
HATCH
  5
98F
330
1F
100
AcDbEntity
  8
P-0000
  6
Continuous
 62
     3
100
AcDbHatch
 10
0.0
 20
0.0
 30
0.0
210
0.0
220
0.0
230
1.0
  2
_U
 70
     0
 71
     0
 91
        1
 92
        1
 93
        4
 72
     1
 10
1485.518969370579
 20
328.4854057616352
 11
1491.817489335518
 21
328.4854057616352
 72
     1
 10
1491.817489335517
 20
328.4854057616352
 11
1491.817489335517
 21
326.4854057616352
 72
     1
 10
1491.817489335517
 20
326.4854057616352
 11
1485.518969370579
 21
326.4854057616352
 72
     1
 10
1485.518969370579
 20
326.4854057616352
 11
1485.518969370579
 21
328.4854057616352
 97
        0
 75
     0
 76
     0
 52
45.0
 41
2.0
 77
     0
 78
     1
 53
45.0
 43
1988.224577899428
 44
168.5323574222237
 45
-1.414213562373094
 46
1.414213562373095
 79
     0
 98
        1
 10
1988.224577899428
 20
168.5323574222237
1001
ACME_LAYERS
1000
1
  0
LINE
  5
990
330
1F
100
AcDbEntity
  8
P-0000
  6
Continuous
 62
     7
100
AcDbLine
 10
1485.518969370579
 20
328.4854057616352
 30
0.0
 11
1491.817489335517
 21
328.4854057616352
 31
0.0
1001
ACME_LAYERS
1000
1
  0
LINE
  5
991
330
1F
100
AcDbEntity
  8
P-0000
  6
Continuous
 62
     7
100
AcDbLine
 10
1491.817489335517
 20
326.4854057616352
 30
0.0
 11
1485.518969370579
 21
326.4854057616352
 31
0.0
1001
ACME_LAYERS
1000
1
  0
LINE
  5
992
330
1F
100
AcDbEntity
  8
P-0000
  6
Continuous
 62
     7
100
AcDbLine
 10
1485.518969370579
 20
326.4854057616352
 30
0.0
 11
1485.518969370579
 21
328.4854057616352
 31
0.0
1001
ACME_LAYERS
1000
1
  0
LINE
  5
993
330
1F
100
AcDbEntity
  8
P-0000
  6
Continuous
 62
     7
100
AcDbLine
 10
1491.817489335517
 20
326.4854057616352
 30
0.0
 11
1491.817489335517
 21
328.4854057616352
 31
0.0
1001
ACME_LAYERS
1000
1
  0
LINE
  5
994
330
1F
100
AcDbEntity
  8
P-0000
  6
Continuous
 62
     3
100
AcDbLine
 10
1586.081473503956
 20
341.8003066146548
 30
0.0
 11
1608.081473503956
 21
341.8003066146548
 31
0.0
1001
ACME_LAYERS
1000
1
  0
LINE
  5
995
330
1F
100
AcDbEntity
  8
P-0000
  6
Continuous
 62
     7
100
AcDbLine
 10
1606.288489834041
 20
328.4854057616385
 30
0.0
 11
1610.28848983404
 21
328.4854057616385
 31
0.0
1001
ACME_LAYERS
1000
1
  0
LINE
  5
996
330
1F
100
AcDbEntity
  8
P-0000
  6
Continuous
 62
     7
100
AcDbLine
 10
1606.288489834041
 20
326.4854057616385
 30
0.0
 11
1610.28848983404
 21
326.4854057616385
 31
0.0
1001
ACME_LAYERS
1000
1
  0
LINE
  5
997
330
1F
100
AcDbEntity
  8
P-0000
  6
Continuous
 62
     7
100
AcDbLine
 10
1584.28848983404
 20
353.4854057616385
 30
0.0
 11
1610.28848983404
 21
353.4854057616385
 31
0.0
1001
ACME_LAYERS
1000
1
  0
LINE
  5
998
330
1F
100
AcDbEntity
  8
P-0000
  6
STRICHPUNKT
 62
     3
100
AcDbLine
 10
1597.28848983404
 20
393.0746180220777
 30
0.0
 11
1597.28848983404
 21
329.9854057616393
 31
0.0
1001
ACME_LAYERS
1000
1
  0
LINE
  5
999
330
1F
100
AcDbEntity
  8
P-0000
  6
Continuous
 62
     7
100
AcDbLine
 10
1584.28848983404
 20
336.2533549540704
 30
0.0
 11
1584.28848983404
 21
344.7354057616385
 31
0.0
1001
ACME_LAYERS
1000
1
  0
LINE
  5
99A
330
1F
100
AcDbEntity
  8
P-0000
  6
Continuous
 62
     7
100
AcDbLine
 10
1588.28848983404
 20
328.4854057616385
 30
0.0
 11
1592.78848983404
 21
328.4854057616385
 31
0.0
1001
ACME_LAYERS
1000
1
  0
LINE
  5
99B
330
1F
100
AcDbEntity
  8
P-0000
  6
Continuous
 62
     7
100
AcDbLine
 10
1588.28848983404
 20
326.4854057616385
 30
0.0
 11
1592.78848983404
 21
326.4854057616385
 31
0.0
1001
ACME_LAYERS
1000
1
  0
LINE
  5
99C
330
1F
100
AcDbEntity
  8
P-0000
  6
Continuous
 62
     7
100
AcDbLine
 10
1584.28848983404
 20
328.4854057616385
 30
0.0
 11
1584.28848983404
 21
336.2533549540704
 31
0.0
1001
ACME_LAYERS
1000
1
  0
LINE
  5
99D
330
1F
100
AcDbEntity
  8
P-0000
  6
Continuous
 62
     7
100
AcDbLine
 10
1584.28848983404
 20
328.4854057616385
 30
0.0
 11
1588.28848983404
 21
328.4854057616385
 31
0.0
1001
ACME_LAYERS
1000
1
  0
LINE
  5
99E
330
1F
100
AcDbEntity
  8
P-0000
  6
Continuous
 62
     7
100
AcDbLine
 10
1584.28848983404
 20
326.4854057616385
 30
0.0
 11
1588.28848983404
 21
326.4854057616385
 31
0.0
1001
ACME_LAYERS
1000
1
  0
LINE
  5
99F
330
1F
100
AcDbEntity
  8
P-0000
  6
Continuous
 62
     7
100
AcDbLine
 10
1584.28848983404
 20
326.4854057616385
 30
0.0
 11
1584.28848983404
 21
328.4854057616385
 31
0.0
1001
ACME_LAYERS
1000
1
  0
LINE
  5
9A0
330
1F
100
AcDbEntity
  8
P-0000
  6
Continuous
 62
     7
100
AcDbLine
 10
1588.28848983404
 20
328.4854057616385
 30
0.0
 11
1588.28848983404
 21
326.4854057616385
 31
0.0
1001
ACME_LAYERS
1000
1
  0
LINE
  5
9A1
330
1F
100
AcDbEntity
  8
P-0000
  6
STRICHPUNKT
 62
     3
100
AcDbLine
 10
1597.28848983404
 20
329.9854057616393
 30
0.0
 11
1597.28848983404
 21
318.9854057616385
 31
0.0
1001
ACME_LAYERS
1000
1
  0
LINE
  5
9A2
330
1F
100
AcDbEntity
  8
P-0000
  6
Continuous
 62
     7
100
AcDbLine
 10
1592.78848983404
 20
328.4854057616385
 30
0.0
 11
1601.78848983404
 21
328.4854057616385
 31
0.0
1001
ACME_LAYERS
1000
1
  0
LINE
  5
9A3
330
1F
100
AcDbEntity
  8
P-0000
  6
Continuous
 62
     7
100
AcDbLine
 10
1592.78848983404
 20
326.4854057616385
 30
0.0
 11
1601.78848983404
 21
326.4854057616385
 31
0.0
1001
ACME_LAYERS
1000
1
  0
LINE
  5
9A4
330
1F
100
AcDbEntity
  8
P-0000
  6
STRICHLINIE
 62
     2
100
AcDbLine
 10
1592.78848983404
 20
328.4854057616385
 30
0.0
 11
1592.78848983404
 21
326.4854057616385
 31
0.0
1001
ACME_LAYERS
1000
1
  0
LINE
  5
9A5
330
1F
100
AcDbEntity
  8
P-0000
  6
Continuous
 62
     7
100
AcDbLine
 10
1601.78848983404
 20
328.4854057616385
 30
0.0
 11
1606.288489834041
 21
328.4854057616385
 31
0.0
1001
ACME_LAYERS
1000
1
  0
LINE
  5
9A6
330
1F
100
AcDbEntity
  8
P-0000
  6
Continuous
 62
     7
100
AcDbLine
 10
1601.78848983404
 20
326.4854057616385
 30
0.0
 11
1606.288489834041
 21
326.4854057616385
 31
0.0
1001
ACME_LAYERS
1000
1
  0
LINE
  5
9A7
330
1F
100
AcDbEntity
  8
P-0000
  6
STRICHLINIE
 62
     2
100
AcDbLine
 10
1601.78848983404
 20
328.4854057616385
 30
0.0
 11
1601.78848983404
 21
326.4854057616385
 31
0.0
1001
ACME_LAYERS
1000
1
  0
LINE
  5
9A8
330
1F
100
AcDbEntity
  8
P-0000
  6
Continuous
 62
     7
100
AcDbLine
 10
1606.288489834041
 20
328.4854057616385
 30
0.0
 11
1606.288489834041
 21
326.4854057616385
 31
0.0
1001
ACME_LAYERS
1000
1
  0
ARC
  5
9A9
330
1F
100
AcDbEntity
  8
P-0000
  6
Continuous
 62
     3
100
AcDbCircle
 10
1581.78848983404
 20
349.7354057616385
 30
0.0
 40
2.5
100
AcDbArc
 50
0.0
 51
180.0
1001
ACME_LAYERS
1000
1
  0
LINE
  5
9AA
330
1F
100
AcDbEntity
  8
P-0000
  6
Continuous
 62
     7
100
AcDbLine
 10
1584.28848983404
 20
349.7354057616385
 30
0.0
 11
1584.28848983404
 21
353.4854057616385
 31
0.0
1001
ACME_LAYERS
1000
1
  0
ARC
  5
9AB
330
1F
100
AcDbEntity
  8
P-0000
  6
Continuous
 62
     3
100
AcDbCircle
 10
1581.78848983404
 20
344.7354057616385
 30
0.0
 40
2.5
100
AcDbArc
 50
0.0
 51
180.0
1001
ACME_LAYERS
1000
1
  0
ARC
  5
9AC
330
1F
100
AcDbEntity
  8
P-0000
  6
Continuous
 62
     3
100
AcDbCircle
 10
1581.78848983404
 20
347.2354057616385
 30
0.0
 40
2.5
100
AcDbArc
 50
0.0
 51
180.0
1001
ACME_LAYERS
1000
1
  0
LINE
  5
9AD
330
1F
100
AcDbEntity
  8
P-0000
  6
Continuous
 62
     7
100
AcDbLine
 10
1584.28848983404
 20
344.7354057616385
 30
0.0
 11
1584.28848983404
 21
347.2354057616385
 31
0.0
1001
ACME_LAYERS
1000
1
  0
LINE
  5
9AE
330
1F
100
AcDbEntity
  8
P-0000
  6
Continuous
 62
     7
100
AcDbLine
 10
1584.28848983404
 20
347.2354057616385
 30
0.0
 11
1584.28848983404
 21
349.7354057616385
 31
0.0
1001
ACME_LAYERS
1000
1
  0
LINE
  5
9AF
330
1F
100
AcDbEntity
  8
P-0000
  6
Continuous
 62
     7
100
AcDbLine
 10
1610.28848983404
 20
336.2533549540704
 30
0.0
 11
1610.28848983404
 21
344.7354057616385
 31
0.0
1001
ACME_LAYERS
1000
1
  0
LINE
  5
9B0
330
1F
100
AcDbEntity
  8
P-0000
  6
Continuous
 62
     7
100
AcDbLine
 10
1610.28848983404
 20
328.4854057616385
 30
0.0
 11
1610.28848983404
 21
336.2533549540704
 31
0.0
1001
ACME_LAYERS
1000
1
  0
LINE
  5
9B1
330
1F
100
AcDbEntity
  8
P-0000
  6
Continuous
 62
     7
100
AcDbLine
 10
1610.28848983404
 20
326.4854057616385
 30
0.0
 11
1610.28848983404
 21
328.4854057616385
 31
0.0
1001
ACME_LAYERS
1000
1
  0
ARC
  5
9B2
330
1F
100
AcDbEntity
  8
P-0000
  6
Continuous
 62
     3
100
AcDbCircle
 10
1612.78848983404
 20
349.7354057616385
 30
0.0
 40
2.5
100
AcDbArc
 50
0.0
 51
180.0
1001
ACME_LAYERS
1000
1
  0
LINE
  5
9B3
330
1F
100
AcDbEntity
  8
P-0000
  6
Continuous
 62
     7
100
AcDbLine
 10
1610.28848983404
 20
349.7354057616385
 30
0.0
 11
1610.28848983404
 21
353.4854057616385
 31
0.0
1001
ACME_LAYERS
1000
1
  0
ARC
  5
9B4
330
1F
100
AcDbEntity
  8
P-0000
  6
Continuous
 62
     3
100
AcDbCircle
 10
1612.78848983404
 20
344.7354057616385
 30
0.0
 40
2.5
100
AcDbArc
 50
0.0
 51
180.0
1001
ACME_LAYERS
1000
1
  0
LINE
  5
9B5
330
1F
100
AcDbEntity
  8
P-0000
  6
Continuous
 62
     7
100
AcDbLine
 10
1610.28848983404
 20
344.7354057616385
 30
0.0
 11
1610.28848983404
 21
347.2354057616385
 31
0.0
1001
ACME_LAYERS
1000
1
  0
ARC
  5
9B6
330
1F
100
AcDbEntity
  8
P-0000
  6
Continuous
 62
     3
100
AcDbCircle
 10
1612.78848983404
 20
347.2354057616385
 30
0.0
 40
2.5
100
AcDbArc
 50
0.0
 51
180.0
1001
ACME_LAYERS
1000
1
  0
LINE
  5
9B7
330
1F
100
AcDbEntity
  8
P-0000
  6
Continuous
 62
     7
100
AcDbLine
 10
1610.28848983404
 20
347.2354057616385
 30
0.0
 11
1610.28848983404
 21
349.7354057616385
 31
0.0
1001
ACME_LAYERS
1000
1
  0
HATCH
  5
9B8
330
1F
100
AcDbEntity
  8
P-0000
  6
Continuous
 62
     3
100
AcDbHatch
 10
0.0
 20
0.0
 30
0.0
210
0.0
220
0.0
230
1.0
  2
_U
 70
     0
 71
     0
 91
        2
 92
        1
 93
       25
 72
     1
 10
1756.759490332564
 20
353.4854057616385
 11
1754.759490332564
 21
353.4854057616385
 72
     1
 10
1754.759490332564
 20
353.4854057616385
 11
1754.759490332564
 21
343.7960295181237
 72
     1
 10
1754.759490332564
 20
343.7960295181237
 11
1754.753060746537
 21
343.2962150747614
 72
     1
 10
1754.753060746537
 20
343.2962150747614
 11
1754.702730593979
 21
342.9457029759641
 72
     1
 10
1754.702730593979
 20
342.9457029759641
 11
1754.609366765633
 21
342.6221217161171
 72
     1
 10
1754.609366765633
 20
342.6221217161172
 11
1754.452385528038
 21
342.2748938585558
 72
     1
 10
1754.452385528038
 20
342.2748938585558
 11
1754.259446852898
 21
341.9753402237978
 72
     1
 10
1754.259446852898
 20
341.9753402237979
 11
1754.007939958928
 21
341.6885227364688
 72
     1
 10
1754.007939958928
 20
341.6885227364688
 11
1753.736755116362
 21
341.4585469960235
 72
     1
 10
1753.736755116362
 20
341.4585469960235
 11
1753.316035986915
 21
341.209628727343
 72
     1
 10
1753.316035986915
 20
341.209628727343
 11
1742.687334519741
 21
336.2533549540704
 72
     1
 10
1742.687334519741
 20
336.2533549540704
 11
1735.679235700916
 21
332.9854057616393
 72
     1
 10
1735.679235700916
 20
332.9854057616393
 11
1729.24575243099
 21
329.9854057616393
 72
     1
 10
1729.24575243099
 20
329.9854057616393
 11
1726.430859698344
 21
328.6727920742122
 72
     2
 10
1725.585619128947
 20
330.4854057616385
 40
2.0
 50
64.9998721107671
 51
90.0
 73
     0
 72
     1
 10
1725.585619128947
 20
328.4854057616385
 11
1718.058010297502
 21
328.4854057616385
 72
     1
 10
1718.058010297502
 20
328.4854057616385
 11
1718.058010297502
 21
326.4854057616385
 72
     1
 10
1718.058010297502
 20
326.4854057616385
 11
1725.585619128947
 21
326.4854057616385
 72
     2
 10
1725.585619128947
 20
330.4854057616385
 40
4.0
 50
270.0
 51
295.0001278892338
 73
     1
 72
     1
 10
1727.276100267741
 20
326.8601783867858
 11
1733.978132944687
 21
329.9854057616393
 72
     1
 10
1733.978132944686
 20
329.9854057616393
 11
1740.411616214612
 21
332.9854057616393
 72
     1
 10
1740.411616214612
 20
332.9854057616393
 11
1747.419715033437
 21
336.2533549540704
 72
     1
 10
1747.419715033437
 20
336.2533549540704
 11
1754.161281613704
 21
339.397017398231
 72
     2
 10
1752.259490332563
 20
343.4753981949346
 40
4.499999999993815
 50
295.000127889233
 51
360.0
 73
     1
 72
     1
 10
1756.759490332564
 20
343.4753981949346
 11
1756.759490332564
 21
353.4854057616385
 97
        0
 92
       48
 93
        2
 72
     1
 10
1726.029010796025
 20
328.4854057616385
 11
1726.430859698344
 21
328.6727920742122
 72
     1
 10
1726.029010796025
 20
328.4854057616385
 11
1726.430859698344
 21
328.6727920742122
 97
        0
 75
     0
 76
     0
 52
45.0
 41
2.0
 77
     0
 78
     1
 53
45.0
 43
1988.224577899428
 44
168.5323574222237
 45
-1.414213562373094
 46
1.414213562373095
 79
     0
 98
        1
 10
1988.224577899428
 20
168.5323574222237
1001
ACME_LAYERS
1000
1
  0
LINE
  5
9B9
330
1F
100
AcDbEntity
  8
P-0000
  6
Continuous
 62
     7
100
AcDbLine
 10
1742.687334519741
 20
336.2533549540704
 30
0.0
 11
1735.679235700916
 21
332.9854057616393
 31
0.0
1001
ACME_LAYERS
1000
1
  0
LINE
  5
9BA
330
1F
100
AcDbEntity
  8
P-0000
  6
Continuous
 62
     7
100
AcDbLine
 10
1757.28848983404
 20
329.9854057616393
 30
0.0
 11
1733.978132944686
 21
329.9854057616393
 31
0.0
1001
ACME_LAYERS
1000
1
  0
LINE
  5
9BB
330
1F
100
AcDbEntity
  8
P-0000
  6
Continuous
 62
     7
100
AcDbLine
 10
1740.411616214612
 20
332.9854057616393
 30
0.0
 11
1733.978132944686
 21
329.9854057616393
 31
0.0
1001
ACME_LAYERS
1000
1
  0
HATCH
  5
9BC
330
1F
100
AcDbEntity
  8
P-0000
  6
Continuous
 62
     3
100
AcDbHatch
 10
0.0
 20
0.0
 30
0.0
210
0.0
220
0.0
230
1.0
  2
_U
 70
     0
 71
     0
 91
        1
 92
        1
 93
        4
 72
     1
 10
1702.759490332564
 20
328.4854057616385
 11
1709.058010297502
 21
328.4854057616385
 72
     1
 10
1709.058010297502
 20
328.4854057616385
 11
1709.058010297502
 21
326.4854057616385
 72
     1
 10
1709.058010297502
 20
326.4854057616385
 11
1702.759490332564
 21
326.4854057616385
 72
     1
 10
1702.759490332564
 20
326.4854057616385
 11
1702.759490332564
 21
328.4854057616385
 97
        0
 75
     0
 76
     0
 52
45.0
 41
2.0
 77
     0
 78
     1
 53
45.0
 43
1988.224577899428
 44
168.5323574222237
 45
-1.414213562373094
 46
1.414213562373095
 79
     0
 98
        1
 10
1988.224577899428
 20
168.5323574222237
1001
ACME_LAYERS
1000
1
  0
LINE
  5
9BD
330
1F
100
AcDbEntity
  8
P-0000
  6
Continuous
 62
     7
100
AcDbLine
 10
1709.058010297502
 20
326.4854057616385
 30
0.0
 11
1702.759490332564
 21
326.4854057616385
 31
0.0
1001
ACME_LAYERS
1000
1
  0
LINE
  5
9BE
330
1F
100
AcDbEntity
  8
P-0000
  6
Continuous
 62
     7
100
AcDbLine
 10
1702.759490332564
 20
328.4854057616385
 30
0.0
 11
1709.058010297502
 21
328.4854057616385
 31
0.0
1001
ACME_LAYERS
1000
1
  0
LINE
  5
9BF
330
1F
100
AcDbEntity
  8
P-0000
  6
Continuous
 62
     7
100
AcDbLine
 10
1702.759490332564
 20
328.4854057616385
 30
0.0
 11
1702.759490332564
 21
326.4854057616385
 31
0.0
1001
ACME_LAYERS
1000
1
  0
LINE
  5
9C0
330
1F
100
AcDbEntity
  8
P-0000
  6
Continuous
 62
     7
100
AcDbLine
 10
1718.058010297502
 20
328.4854057616385
 30
0.0
 11
1725.585619128947
 21
328.4854057616385
 31
0.0
1001
ACME_LAYERS
1000
1
  0
LINE
  5
9C1
330
1F
100
AcDbEntity
  8
P-0000
  6
Continuous
 62
     7
100
AcDbLine
 10
1725.585619128947
 20
326.4854057616385
 30
0.0
 11
1718.058010297502
 21
326.4854057616385
 31
0.0
1001
ACME_LAYERS
1000
1
  0
LINE
  5
9C2
330
1F
100
AcDbEntity
  8
P-0000
  6
Continuous
 62
     7
100
AcDbLine
 10
1709.058010297502
 20
328.4854057616385
 30
0.0
 11
1718.058010297502
 21
328.4854057616385
 31
0.0
1001
ACME_LAYERS
1000
1
  0
LINE
  5
9C3
330
1F
100
AcDbEntity
  8
P-0000
  6
Continuous
 62
     7
100
AcDbLine
 10
1718.058010297502
 20
326.4854057616385
 30
0.0
 11
1709.058010297502
 21
326.4854057616385
 31
0.0
1001
ACME_LAYERS
1000
1
  0
LINE
  5
9C4
330
1F
100
AcDbEntity
  8
P-0000
  6
Continuous
 62
     7
100
AcDbLine
 10
1709.058010297502
 20
328.4854057616385
 30
0.0
 11
1709.058010297502
 21
326.4854057616385
 31
0.0
1001
ACME_LAYERS
1000
1
  0
LINE
  5
9C5
330
1F
100
AcDbEntity
  8
P-0000
  6
Continuous
 62
     7
100
AcDbLine
 10
1718.058010297502
 20
328.4854057616385
 30
0.0
 11
1718.058010297502
 21
326.4854057616385
 31
0.0
1001
ACME_LAYERS
1000
1
  0
ARC
  5
9C6
330
1F
100
AcDbEntity
  8
P-0000
  6
Continuous
 62
     7
100
AcDbCircle
 10
1725.585619128947
 20
330.4854057616385
 30
0.0
 40
2.0
100
AcDbArc
 50
270.0
 51
295.0001278892362
1001
ACME_LAYERS
1000
1
  0
LINE
  5
9C7
330
1F
100
AcDbEntity
  8
P-0000
  6
Continuous
 62
     7
100
AcDbLine
 10
1733.978132944686
 20
329.9854057616393
 30
0.0
 11
1727.276100267741
 21
326.8601783867858
 31
0.0
1001
ACME_LAYERS
1000
1
  0
LINE
  5
9C8
330
1F
100
AcDbEntity
  8
P-0000
  6
Continuous
 62
     3
100
AcDbLine
 10
1726.029010796025
 20
328.4854057616385
 30
0.0
 11
1726.430859698344
 21
328.6727920742122
 31
0.0
1001
ACME_LAYERS
1000
1
  0
ARC
  5
9C9
330
1F
100
AcDbEntity
  8
P-0000
  6
Continuous
 62
     7
100
AcDbCircle
 10
1725.585619128947
 20
330.4854057616385
 30
0.0
 40
4.0
100
AcDbArc
 50
270.0
 51
295.0001278892362
1001
ACME_LAYERS
1000
1
  0
LINE
  5
9CA
330
1F
100
AcDbEntity
  8
P-0000
  6
Continuous
 62
     3
100
AcDbLine
 10
1725.657782287099
 20
328.4854057616385
 30
0.0
 11
1726.029010796025
 21
328.4854057616385
 31
0.0
1001
ACME_LAYERS
1000
1
  0
LINE
  5
9CB
330
1F
100
AcDbEntity
  8
P-0000
  6
Continuous
 62
     7
100
AcDbLine
 10
1735.679235700916
 20
332.9854057616393
 30
0.0
 11
1729.24575243099
 21
329.9854057616393
 31
0.0
1001
ACME_LAYERS
1000
1
  0
LINE
  5
9CC
330
1F
100
AcDbEntity
  8
P-0000
  6
Continuous
 62
     7
100
AcDbLine
 10
1729.24575243099
 20
329.9854057616393
 30
0.0
 11
1726.430859698344
 21
328.6727920742122
 31
0.0
1001
ACME_LAYERS
1000
1
  0
DIMENSION
  5
9CD
330
1F
100
AcDbEntity
  8
P-0000
  6
Continuous
100
AcDbDimension
  2
*D8
 10
1802.267663959062
 20
320.9854057616393
 30
0.0
 11
1798.517663959062
 21
337.9854057616393
 31
0.0
 70
   160
  1
<>
 71
     5
 42
34.0
  3
443N6681_001_00111141340
100
AcDbAlignedDimension
 13
1758.78848983404
 23
354.9854057616393
 33
0.0
 14
1758.78848983404
 24
320.9854057616393
 34
0.0
 50
90.0
100
AcDbRotatedDimension
1001
ACAD
1000
DSTYLE
1002
{
1070
   279
1070
     2
1070
   288
1070
     1
1002
}
1001
ACME_LAYERS
1000
1
  0
HATCH
  5
9CE
330
1F
100
AcDbEntity
  8
P-0000
  6
Continuous
 62
     3
100
AcDbHatch
 10
0.0
 20
0.0
 30
0.0
210
0.0
220
0.0
230
1.0
  2
_U
 70
     0
 71
     0
 91
        1
 92
        1
 93
        4
 72
     1
 10
1758.78848983404
 20
320.9854057616393
 11
1757.28848983404
 21
320.9854057616393
 72
     1
 10
1757.28848983404
 20
320.9854057616393
 11
1757.28848983404
 21
354.9854057616393
 72
     1
 10
1757.28848983404
 20
354.9854057616393
 11
1758.78848983404
 21
354.9854057616393
 72
     1
 10
1758.78848983404
 20
354.9854057616393
 11
1758.78848983404
 21
320.9854057616393
 97
        0
 75
     0
 76
     0
 52
135.0
 41
2.0
 77
     0
 78
     1
 53
135.0
 43
1988.224577899428
 44
168.5323574222237
 45
-1.414213562373095
 46
-1.414213562373094
 79
     0
 98
        1
 10
1988.224577899428
 20
168.5323574222237
1001
ACME_LAYERS
1000
1
  0
ARC
  5
9CF
330
1F
100
AcDbEntity
  8
P-0000
  6
Continuous
 62
     7
100
AcDbCircle
 10
1752.259490332563
 20
343.4753981949346
 30
0.0
 40
4.499999999993815
100
AcDbArc
 50
295.0001278892362
 51
0.0
1001
ACME_LAYERS
1000
1
  0
LINE
  5
9D0
330
1F
100
AcDbEntity
  8
P-0000
  6
Continuous
 62
     7
100
AcDbLine
 10
1757.28848983404
 20
347.2174565692074
 30
0.0
 11
1757.28848983404
 21
337.2074490025035
 31
0.0
1001
ACME_LAYERS
1000
1
  0
LINE
  5
9D1
330
1F
100
AcDbEntity
  8
P-0000
  6
Continuous
 62
     7
100
AcDbLine
 10
1757.28848983404
 20
347.2174565692074
 30
0.0
 11
1757.28848983404
 21
336.8174565692077
 31
0.0
1001
ACME_LAYERS
1000
1
  0
LINE
  5
9D2
330
1F
100
AcDbEntity
  8
P-0000
  6
Continuous
 62
     7
100
AcDbLine
 10
1753.316035986915
 20
341.209628727343
 30
0.0
 11
1742.687334519741
 21
336.2533549540704
 31
0.0
1001
ACME_LAYERS
1000
1
  0
LINE
  5
9D3
330
1F
100
AcDbEntity
  8
P-0000
  6
Continuous
 62
     7
100
AcDbLine
 10
1758.78848983404
 20
354.9854057616393
 30
0.0
 11
1758.78848983404
 21
329.9854057616393
 31
0.0
1001
ACME_LAYERS
1000
1
  0
HATCH
  5
9D4
330
1F
100
AcDbEntity
  8
P-0000
  6
Continuous
 62
     3
100
AcDbHatch
 10
0.0
 20
0.0
 30
0.0
210
0.0
220
0.0
230
1.0
  2
_U
 70
     0
 71
     0
 91
        1
 92
        1
 93
        9
 72
     1
 10
1757.28848983404
 20
329.9854057616393
 11
1757.28848983404
 21
320.9854057616393
 72
     1
 10
1757.28848983404
 20
320.9854057616393
 11
1758.78848983404
 21
320.9854057616393
 72
     1
 10
1758.78848983404
 20
320.9854057616393
 11
1758.78848983404
 21
329.9854057616393
 72
     2
 10
1750.442533486521
 20
322.8198623317727
 40
10.99999999999996
 50
319.3517761245014
 51
366.9436086509954
 73
     0
 72
     2
 10
1759.37652403496
 20
321.731830677645
 40
2.000000000000037
 50
6.943608650993533
 51
39.65006428058535
 73
     0
 72
     2
 10
1757.788489834041
 20
323.0479057616394
 40
4.062500000000969
 50
39.65006428058719
 51
86.47187665870728
 73
     0
 72
     2
 10
1758.288489834041
 20
323.0479057616394
 40
4.062500000000876
 50
93.52812334128152
 51
140.3499357194143
 73
     0
 72
     2
 10
1756.70045563312
 20
321.7318306776451
 40
2.000000000000003
 50
140.3499357194153
 51
173.0563913490039
 73
     0
 72
     2
 10
1765.63444618156
 20
322.8198623317727
 40
11.00000000000032
 50
173.0563913490045
 51
220.6482238754986
 73
     0
 97
        0
 75
     0
 76
     0
 52
45.0
 41
1.0
 77
     0
 78
     1
 53
45.0
 43
1988.224577899428
 44
168.5323574222237
 45
-0.7071067811865475
 46
0.7071067811865476
 79
     0
 98
        1
 10
1988.224577899428
 20
168.5323574222237
1001
ACME_LAYERS
1000
1
  0
HATCH
  5
9D5
330
1F
100
AcDbEntity
  8
P-0000
  6
Continuous
 62
     3
100
AcDbHatch
 10
0.0
 20
0.0
 30
0.0
210
0.0
220
0.0
230
1.0
  2
_U
 70
     0
 71
     0
 91
        1
 92
        1
 93
        9
 72
     1
 10
1757.28848983404
 20
329.9854057616393
 11
1757.28848983404
 21
320.9854057616393
 72
     1
 10
1757.28848983404
 20
320.9854057616393
 11
1758.78848983404
 21
320.9854057616393
 72
     1
 10
1758.78848983404
 20
320.9854057616393
 11
1758.78848983404
 21
329.9854057616393
 72
     2
 10
1750.442533486521
 20
322.8198623317727
 40
10.99999999999996
 50
319.3517761245014
 51
366.9436086509954
 73
     0
 72
     2
 10
1759.37652403496
 20
321.731830677645
 40
2.000000000000037
 50
6.943608650993533
 51
39.65006428058535
 73
     0
 72
     2
 10
1757.788489834041
 20
323.0479057616394
 40
4.062500000000969
 50
39.65006428058719
 51
86.47187665870728
 73
     0
 72
     2
 10
1758.288489834041
 20
323.0479057616394
 40
4.062500000000876
 50
93.52812334128152
 51
140.3499357194143
 73
     0
 72
     2
 10
1756.70045563312
 20
321.7318306776451
 40
2.000000000000003
 50
140.3499357194153
 51
173.0563913490039
 73
     0
 72
     2
 10
1765.63444618156
 20
322.8198623317727
 40
11.00000000000032
 50
173.0563913490045
 51
220.6482238754986
 73
     0
 97
        0
 75
     0
 76
     0
 52
135.0
 41
1.0
 77
     0
 78
     1
 53
135.0
 43
1988.224577899428
 44
168.5323574222237
 45
-0.7071067811865476
 46
-0.7071067811865475
 79
     0
 98
        1
 10
1988.224577899428
 20
168.5323574222237
1001
ACME_LAYERS
1000
1
  0
ARC
  5
9D6
330
1F
100
AcDbEntity
  8
P-0000
  6
Continuous
 62
     7
100
AcDbCircle
 10
1758.288489834041
 20
323.0479057616394
 30
0.0
 40
4.062500000000876
100
AcDbArc
 50
219.6500642805876
 51
266.4718766587177
1001
ACME_LAYERS
1000
1
  0
ARC
  5
9D7
330
1F
100
AcDbEntity
  8
P-0000
  6
Continuous
 62
     7
100
AcDbCircle
 10
1765.63444618156
 20
322.8198623317727
 30
0.0
 40
11.00000000000032
100
AcDbArc
 50
139.3517761244993
 51
186.9436086509951
1001
ACME_LAYERS
1000
1
  0
ARC
  5
9D8
330
1F
100
AcDbEntity
  8
P-0000
  6
Continuous
 62
     7
100
AcDbCircle
 10
1756.70045563312
 20
321.7318306776451
 30
0.0
 40
2.000000000000003
100
AcDbArc
 50
186.9436086509951
 51
219.6500642805869
1001
ACME_LAYERS
1000
1
  0
LINE
  5
9D9
330
1F
100
AcDbEntity
  8
P-0000
  6
Continuous
 62
     7
100
AcDbLine
 10
1747.419715033437
 20
336.2533549540704
 30
0.0
 11
1740.411616214612
 21
332.9854057616393
 31
0.0
1001
ACME_LAYERS
1000
1
  0
LINE
  5
9DA
330
1F
100
AcDbEntity
  8
P-0000
  6
Continuous
 62
     7
100
AcDbLine
 10
1754.161281613704
 20
339.397017398231
 30
0.0
 11
1747.419715033437
 21
336.2533549540704
 31
0.0
1001
ACME_LAYERS
1000
1
  0
ARC
  5
9DB
330
1F
100
AcDbEntity
  8
P-0000
  6
Continuous
 62
     7
100
AcDbCircle
 10
1752.259490332563
 20
340.4753981949346
 30
0.0
 40
2.500000000000018
100
AcDbArc
 50
294.9999999999997
 51
295.0001278894591
1001
ACME_LAYERS
1000
1
  0
ARC
  5
9DC
330
1F
100
AcDbEntity
  8
P-0000
  6
Continuous
 62
     7
100
AcDbCircle
 10
1750.442533486521
 20
322.8198623317727
 30
0.0
 40
10.99999999999996
100
AcDbArc
 50
353.0563913490049
 51
40.64822387550064
1001
ACME_LAYERS
1000
1
  0
LINE
  5
9DD
330
1F
100
AcDbEntity
  8
P-0000
  6
Continuous
 62
     7
100
AcDbLine
 10
1758.78848983404
 20
329.9854057616393
 30
0.0
 11
1758.78848983404
 21
320.9854057616393
 31
0.0
1001
ACME_LAYERS
1000
1
  0
LINE
  5
9DE
330
1F
100
AcDbEntity
  8
P-0000
  6
Continuous
 62
     7
100
AcDbLine
 10
1757.28848983404
 20
329.9854057616393
 30
0.0
 11
1757.28848983404
 21
325.3174565692077
 31
0.0
1001
ACME_LAYERS
1000
1
  0
LINE
  5
9DF
330
1F
100
AcDbEntity
  8
P-0000
  6
Continuous
 62
     7
100
AcDbLine
 10
1757.28848983404
 20
325.3174565692077
 30
0.0
 11
1757.28848983404
 21
320.9854057616393
 31
0.0
1001
ACME_LAYERS
1000
1
  0
ARC
  5
9E0
330
1F
100
AcDbEntity
  8
P-0000
  6
Continuous
 62
     7
100
AcDbCircle
 10
1757.788489834041
 20
323.0479057616394
 30
0.0
 40
4.062500000000969
100
AcDbArc
 50
273.5281233412953
 51
320.3499357194124
1001
ACME_LAYERS
1000
1
  0
LINE
  5
9E1
330
1F
100
AcDbEntity
  8
P-0000
  6
Continuous
 62
     7
100
AcDbLine
 10
1757.28848983404
 20
320.9854057616393
 30
0.0
 11
1758.78848983404
 21
320.9854057616393
 31
0.0
1001
ACME_LAYERS
1000
1
  0
ARC
  5
9E2
330
1F
100
AcDbEntity
  8
P-0000
  6
Continuous
 62
     7
100
AcDbCircle
 10
1759.37652403496
 20
321.731830677645
 30
0.0
 40
2.000000000000037
100
AcDbArc
 50
320.3499357194124
 51
353.0563913490064
1001
ACME_LAYERS
1000
1
  0
LINE
  5
9E3
330
1F
100
AcDbEntity
  8
P-0000
  6
Continuous
 62
     7
100
AcDbLine
 10
1757.28848983404
 20
336.8174565692077
 30
0.0
 11
1757.28848983404
 21
329.9854057616393
 31
0.0
1001
ACME_LAYERS
1000
1
  0
LINE
  5
9E4
330
1F
100
AcDbEntity
  8
P-0000
  6
Continuous
 62
     7
100
AcDbLine
 10
1756.759490332564
 20
353.4854057616385
 30
0.0
 11
1754.759490332564
 21
353.4854057616385
 31
0.0
1001
ACME_LAYERS
1000
1
  0
LINE
  5
9E5
330
1F
100
AcDbEntity
  8
P-0000
  6
Continuous
 62
     7
100
AcDbLine
 10
1754.759490332564
 20
353.4854057616385
 30
0.0
 11
1754.759490332564
 21
343.4753981949346
 31
0.0
1001
ACME_LAYERS
1000
1
  0
ARC
  5
9E6
330
1F
100
AcDbEntity
  8
P-0000
  6
Continuous
 62
     7
100
AcDbCircle
 10
1752.259490332563
 20
343.4753981949346
 30
0.0
 40
2.500000000000062
100
AcDbArc
 50
295.0001278894591
 51
0.0
1001
ACME_LAYERS
1000
1
  0
LINE
  5
9E7
330
1F
100
AcDbEntity
  8
P-0000
  6
Continuous
 62
     3
100
AcDbLine
 10
1754.759490332564
 20
341.8827264654202
 30
0.0
 11
1754.759490332564
 21
343.4353697322898
 31
0.0
1001
ACME_LAYERS
1000
1
  0
LINE
  5
9E8
330
1F
100
AcDbEntity
  8
P-0000
  6
Continuous
 62
     3
100
AcDbLine
 10
1753.316041044319
 20
341.2096310856558
 30
0.0
 11
1754.759490332564
 21
341.8827264654202
 31
0.0
1001
ACME_LAYERS
1000
1
  0
LINE
  5
9E9
330
1F
100
AcDbEntity
  8
P-0000
  6
Continuous
 62
     7
100
AcDbLine
 10
1756.759490332564
 20
353.4854057616385
 30
0.0
 11
1756.759490332564
 21
343.4753981949346
 31
0.0
1001
ACME_LAYERS
1000
1
  0
LINE
  5
9EA
330
1F
100
AcDbEntity
  8
P-0000
  6
Continuous
 62
     7
100
AcDbLine
 10
1757.28848983404
 20
354.9854057616393
 30
0.0
 11
1757.28848983404
 21
347.2174565692074
 31
0.0
1001
ACME_LAYERS
1000
1
  0
LINE
  5
9EB
330
1F
100
AcDbEntity
  8
P-0000
  6
Continuous
 62
     7
100
AcDbLine
 10
1758.78848983404
 20
354.9854057616393
 30
0.0
 11
1757.28848983404
 21
354.9854057616393
 31
0.0
1001
ACME_LAYERS
1000
1
  0
INSERT
  5
9EC
330
1F
100
AcDbEntity
  8
0
370
     0
100
AcDbBlockReference
  2
ACO_A2
 10
1385.685093592379
 20
16.25272281496916
 30
0.0
1001
GENIUS_GENOREF_13
1005
A0F
1001
GENIUS_GENOBJ-N-SDF_13
1002
{
1000
OWNER
1000
GEN
1002
}
1001
GENIUS_GENODEF_13
1002
{
1000
HIER
1070
     0
1002
}
1002
{
1000
MANEDIT
1070
     0
1002
}
1002
{
1000
NOSEL
1070
     0
1002
}
1002
{
1000
BEHIND
1070
     0
1002
}
1002
{
1000
OTHER
1070
     0
1002
}
1002
{
1000
REACTOR
1002
}
1001
GENIUS_GENSCREG_15
1040
1.0
1040
1.0
1011
1385.685093592379
1021
16.25272281496916
1031
0.0
1011
1979.685093592379
1021
436.2527228149692
1031
0.0
1070
     3
  0
INSERT
  5
9ED
330
1F
100
AcDbEntity
  8
0
370
     0
100
AcDbBlockReference
 66
     1
  2
ACO-SF02-GR
 10
1969.685093592379
 20
21.25272281496916
 30
0.0
1001
GENIUS_GENOREF_13
1005
A0F
  0
ATTRIB
  5
9EE
330
9ED
100
AcDbEntity
  8
TEXT35
100
AcDbText
 10
1829.485093592379
 20
70.65272281496916
 30
0.0
 40
3.5
  1
 
 41
0.8
  7
TEXT35
100
AcDbAttribute
  2
F63
 70
     0
  0
ATTRIB
  5
9EF
330
9ED
100
AcDbEntity
  8
TEXT35
100
AcDbText
 10
1793.085093592379
 20
24.65272281496917
 30
0.0
 40
3.5
  1
Art.-Nr.: 0174.46.76
 41
0.8
  7
TEXT35
100
AcDbAttribute
  2
F13
 70
     0
  0
ATTRIB
  5
9F0
330
9ED
100
AcDbEntity
  8
TEXT50
100
AcDbText
 10
1793.085093592379
 20
31.88522561293212
 30
0.0
 40
5.0
  1
Höhe 35 mm
 41
0.8
  7
TEXT50
100
AcDbAttribute
  2
F3
 70
     0
  0
ATTRIB
  5
9F1
330
9ED
100
AcDbEntity
  8
TEXT50
100
AcDbText
 10
1793.085093592379
 20
39.81590605957617
 30
0.0
 40
5.0
  1
Anstauring aus Edelstahl
 41
0.8
  7
TEXT50
100
AcDbAttribute
  2
F2
 70
     0
  0
ATTRIB
  5
9F2
330
9ED
100
AcDbEntity
  8
TEXT25
100
AcDbText
 10
1808.184137882548
 20
49.57363490615938
 30
0.0
 40
2.0
  1

 41
0.8
  7
TEXT20
100
AcDbAttribute
  2
F53
 70
     0
  0
ATTRIB
  5
9F3
330
9ED
100
AcDbEntity
  8
TEXT25
100
AcDbText
 10
1808.131160231745
 20
54.37500271084612
 30
0.0
 40
2.0
  1
07.08.2007
 41
0.8
  7
TEXT20
100
AcDbAttribute
  2
F22
 70
     0
  0
ATTRIB
  5
9F4
330
9ED
100
AcDbEntity
  8
TEXT25
100
AcDbText
 10
1808.164379444139
 20
59.59256217941309
 30
0.0
 40
2.0
  1
21.09.2005
 41
0.8
  7
TEXT20
100
AcDbAttribute
  2
F9
 70
     0
  0
ATTRIB
  5
9F5
330
9ED
100
AcDbEntity
  8
TEXT25
100
AcDbText
 10
1833.410395811234
 20
54.5374350489715
 30
0.0
 40
2.0
  1
smahmoodi
 41
0.8
  7
TEXT20
100
AcDbAttribute
  2
F21
 70
     0
  0
ATTRIB
  5
9F6
330
9ED
100
AcDbEntity
  8
TEXT25
100
AcDbText
 10
1833.285464420308
 20
49.4837412263937
 30
0.0
 40
2.0
  1

 41
0.8
  7
TEXT20
100
AcDbAttribute
  2
F52
 70
     0
  0
ATTRIB
  5
9F7
330
9ED
100
AcDbEntity
  8
TEXT25
100
AcDbText
 10
1833.492882237137
 20
59.73444861072168
 30
0.0
 40
2.0
  1
smahmoodi
 41
0.8
  7
TEXT20
100
AcDbAttribute
  2
F8
 70
     0
  0
ATTRIB
  5
9F8
330
9ED
100
AcDbEntity
  8
TEXT35
100
AcDbText
 10
1789.985093592379
 20
80.85272281496916
 30
0.0
 40
3.5
  1

 41
0.8
  7
TEXT35
100
AcDbAttribute
  2
F61
 70
     0
  0
ATTRIB
  5
9F9
330
9ED
100
AcDbEntity
  8
TEXT35
100
AcDbText
 10
1789.985093592379
 20
70.95272281496916
 30
0.0
 40
3.5
  1
 
 41
0.8
  7
TEXT35
100
AcDbAttribute
  2
F62
 70
     0
  0
ATTRIB
  5
9FA
330
9ED
100
AcDbEntity
  8
TEXT25
100
AcDbText
 10
1795.324678436423
 20
95.85272281496916
 30
0.0
 40
2.0
  1
 
 41
0.8
  7
TEXT20
100
AcDbAttribute
  2
F72
 70
     0
  0
ATTRIB
  5
9FB
330
9ED
100
AcDbEntity
  8
TEXT25
100
AcDbText
 10
1795.241552647022
 20
100.7265121402052
 30
0.0
 40
2.0
  1
 
 41
0.8
  7
TEXT20
100
AcDbAttribute
  2
F68
 70
     0
  0
ATTRIB
  5
9FC
330
9ED
100
AcDbEntity
  8
TEXT25
100
AcDbText
 10
1795.315052714142
 20
105.8830646763528
 30
0.0
 40
2.0
  1
 
 41
0.8
  7
TEXT20
100
AcDbAttribute
  2
F64
 70
     0
  0
ATTRIB
  5
9FD
330
9ED
100
AcDbEntity
  8
TEXT25
100
AcDbText
 10
1808.785093592378
 20
96.35272281496916
 30
0.0
 40
2.0
  1
 
 41
0.8
  7
TEXT20
100
AcDbAttribute
  2
F73
 70
     0
  0
ATTRIB
  5
9FE
330
9ED
100
AcDbEntity
  8
TEXT25
100
AcDbText
 10
1808.785093592378
 20
100.6527228149691
 30
0.0
 40
2.0
  1
 
 41
0.8
  7
TEXT20
100
AcDbAttribute
  2
F69
 70
     0
  0
ATTRIB
  5
9FF
330
9ED
100
AcDbEntity
  8
TEXT25
100
AcDbText
 10
1809.085093592379
 20
105.7527228149691
 30
0.0
 40
2.0
  1
 
 41
0.8
  7
TEXT20
100
AcDbAttribute
  2
F65
 70
     0
  0
ATTRIB
  5
A00
330
9ED
100
AcDbEntity
  8
TEXT35
100
AcDbText
 10
1829.785093592379
 20
80.55272281496916
 30
0.0
 40
3.5
  1
0.7700
 41
0.8
  7
TEXT35
100
AcDbAttribute
  2
F60
 70
     0
  0
ATTRIB
  5
A01
330
9ED
100
AcDbEntity
  8
TEXT25
100
AcDbText
 10
1829.285093592378
 20
95.85272281496916
 30
0.0
 40
2.0
  1
 
 41
0.8
  7
TEXT20
100
AcDbAttribute
  2
F74
 70
     0
  0
ATTRIB
  5
A02
330
9ED
100
AcDbEntity
  8
TEXT25
100
AcDbText
 10
1829.178697566131
 20
100.897526405757
 30
0.0
 40
2.0
  1
 
 41
0.8
  7
TEXT20
100
AcDbAttribute
  2
F70
 70
     0
  0
ATTRIB
  5
A03
330
9ED
100
AcDbEntity
  8
TEXT25
100
AcDbText
 10
1829.294860149994
 20
105.8139239114811
 30
0.0
 40
2.0
  1
 
 41
0.8
  7
TEXT20
100
AcDbAttribute
  2
F66
 70
     0
  0
ATTRIB
  5
A04
330
9ED
100
AcDbEntity
  8
TEXT35
100
AcDbText
 10
1865.191530310003
 20
54.3868029667372
 30
0.0
 40
3.5
  1

 41
0.8
  7
TEXT35
100
AcDbAttribute
  2
F54
 70
     0
  0
ATTRIB
  5
A05
330
9ED
100
AcDbEntity
  8
TEXT35
100
AcDbText
 10
1865.197145333532
 20
49.85272281496916
 30
0.0
 40
3.5
  1

 41
0.8
  7
TEXT35
100
AcDbAttribute
  2
F55
 70
     0
  0
ATTRIB
  5
A06
330
9ED
100
AcDbEntity
  8
TEXT50
100
AcDbText
 10
1863.085093592379
 20
59.05272281496916
 30
0.0
 40
5.0
  1

 41
0.8
  7
TEXT50
100
AcDbAttribute
  2
F25
 70
     0
  0
ATTRIB
  5
A07
330
9ED
100
AcDbEntity
  8
TEXT50
100
AcDbText
 10
1891.393153728767
 20
35.75860105677471
 30
0.0
 40
5.0
  1
593050035
 41
0.8
  7
TEXT50
100
AcDbAttribute
  2
F1
 70
     0
  0
ATTRIB
  5
A08
330
9ED
100
AcDbEntity
  8
TEXT35
100
AcDbText
 10
1890.276128726264
 20
59.33994306102272
 30
0.0
 40
3.5
  1
 
 41
0.8
  7
TEXT35
100
AcDbAttribute
  2
F56
 70
     0
  0
ATTRIB
  5
A09
330
9ED
100
AcDbEntity
  8
TEXT50
100
AcDbText
 10
1959.899389988348
 20
35.75860105677472
 30
0.0
 40
5.0
  1
000
 41
0.8
  7
TEXT50
 72
     4
 11
1964.099389988348
 21
38.25860105677472
 31
0.0
100
AcDbAttribute
  2
F1B
 70
     0
  0
ATTRIB
  5
A0A
330
9ED
100
AcDbEntity
  8
TEXT25
100
AcDbText
 10
1956.285093592379
 20
96.15272281496917
 30
0.0
 40
2.0
  1
 
 41
0.8
  7
TEXT20
100
AcDbAttribute
  2
F75
 70
     0
  0
ATTRIB
  5
A0B
330
9ED
100
AcDbEntity
  8
TEXT25
100
AcDbText
 10
1956.285093592379
 20
100.9527228149691
 30
0.0
 40
2.0
  1
 
 41
0.8
  7
TEXT20
100
AcDbAttribute
  2
F71
 70
     0
  0
ATTRIB
  5
A0C
330
9ED
100
AcDbEntity
  8
TEXT25
100
AcDbText
 10
1956.375027211327
 20
105.5527228149691
 30
0.0
 40
2.0
  1
 
 41
0.8
  7
TEXT20
100
AcDbAttribute
  2
F67
 70
     0
  0
ATTRIB
  5
A0D
330
9ED
100
AcDbEntity
  8
AM_BOR
 62
     2
370
    35
100
AcDbText
 10
1868.045566008088
 20
59.83855324614808
 30
0.0
 40
3.0
  1
1:1
 72
     1
 11
1869.995566008089
 21
59.83855324614808
 31
0.0
100
AcDbAttribute
  2
GEN-TITLE-SCA{5.42}
 70
     0
  0
SEQEND
  5
A0E
330
9ED
100
AcDbEntity
  8
0
370
     0
  0
POINT
  5
A0F
330
1F
100
AcDbEntity
  8
0
 60
     1
100
AcDbPoint
 10
1385.685093592379
 20
16.25272281496916
 30
0.0
1001
GENIUS_GENODEF_13
1002
{
1000
HIER
1070
     1
1002
}
1002
{
1000
MANEDIT
1070
     0
1002
}
1002
{
1000
NOSEL
1070
     0
1002
}
1002
{
1000
BEHIND
1070
     0
1002
}
1002
{
1000
OTHER
1070
     0
1002
}
1002
{
1000
REACTOR
1002
}
1001
GENIUS_GENOENT_13
1002
{
1000
MYREF
1005
A0F
1002
}
1002
{
1000
GRP
1005
0
1002
}
1001
GENIUS_GENOBJ-N-TIT_13
1002
{
1000
OWNER
1000
GEN
1002
}
1001
GENIUS_GENOLIS_13
1002
{
1000
ENT
1005
9ED
1005
9EC
1005
0
1002
}
1001
GENIUS_GENTITLE_13
1002
{
1000
BORDER
1000
D:\Programme\Acadm 2000i\acadm\Gen\Dwg\Format\ACO_A2
1002
}
1002
{
1000
TITLE
1000
L:\calink41\templates\ac\ACO-SF02-GR
1002
}
1002
{
1000
SCALE
1000
1:1
1002
}
1002
{
1000
TITLESTD
1000
DIN
1002
}
1002
{
1000
HRA
1005
9EC
1002
}
1002
{
1000
HTIT
1005
9ED
1002
}
1002
{
1000
GENIUSID
1005
A0F
1002
}
1002
{
1000
INVTXTID
1005
0
1002
}
1002
{
1000
UNCHG
1002
{
1000
GEN-TITLE-SIZ
1000
GEN-TITLE-SCA
1002
}
1002
}
  0
ENDSEC
  0
SECTION
  2
OBJECTS
  0
DICTIONARY
  5
C
330
0
100
AcDbDictionary
281
     1
  3
ACAD_2007HEADERVARS_RT
350
BA7
  3
ACAD_COLOR
350
4AA
  3
ACAD_GROUP
350
D
  3
ACAD_LAYOUT
350
1A
  3
ACAD_MATERIAL
350
4A9
  3
ACAD_MLEADERSTYLE
350
B76
  3
ACAD_MLINESTYLE
350
17
  3
ACAD_PLOTSETTINGS
350
19
  3
ACAD_PLOTSTYLENAME
350
E
  3
ACAD_SCALELIST
350
B64
  3
ACAD_TABLESTYLE
350
4AB
  3
ACAD_VISUALSTYLE
350
B50
  3
ACDB_RECOMPOSE_DATA
350
BA6
  3
AcDbVariableDictionary
350
34
  3
AcmDictionary
350
47
  3
AMG
350
2B
  3
AMGSNAPSETTINGS
350
291
  0
DICTIONARY
  5
7F7
330
2
100
AcDbDictionary
280
     1
281
     1
  3
ACAD_LAYERSTATES
360
7F8
  0
DICTIONARY
  5
81
330
1F
100
AcDbDictionary
280
     1
281
     1
  0
DICTIONARY
  5
5A7
330
5A6
100
AcDbDictionary
280
     1
281
     1
  0
DICTIONARY
  5
BAA
330
5A2
100
AcDbDictionary
280
     1
281
     1
  3
ACAD_MTEXT_2008_RT
360
BAB
  0
DICTIONARY
  5
BA7
102
{ACAD_REACTORS
330
C
102
}
330
C
100
AcDbDictionary
281
     1
  3
DIMJOGANG
350
BA8
  0
DICTIONARY
  5
4AA
102
{ACAD_REACTORS
330
C
102
}
330
C
100
AcDbDictionary
281
     1
  0
DICTIONARY
  5
D
102
{ACAD_REACTORS
330
C
102
}
330
C
100
AcDbDictionary
281
     1
  0
DICTIONARY
  5
1A
102
{ACAD_REACTORS
330
C
102
}
330
C
100
AcDbDictionary
281
     1
  3
Layout1
350
1E
  3
Layout2
350
26
  3
Model
350
22
  0
DICTIONARY
  5
4A9
102
{ACAD_REACTORS
330
C
102
}
330
C
100
AcDbDictionary
281
     1
  3
ByBlock
350
B40
  3
ByLayer
350
B38
  3
Global
350
B48
  0
DICTIONARY
  5
B76
102
{ACAD_REACTORS
330
C
102
}
330
C
100
AcDbDictionary
281
     1
  3
Standard
350
B77
  0
DICTIONARY
  5
17
102
{ACAD_REACTORS
330
C
102
}
330
C
100
AcDbDictionary
281
     1
  3
Standard
350
18
  0
DICTIONARY
  5
19
102
{ACAD_REACTORS
330
C
102
}
330
C
100
AcDbDictionary
281
     1
  0
ACDBDICTIONARYWDFLT
  5
E
102
{ACAD_REACTORS
330
C
102
}
330
C
100
AcDbDictionary
281
     1
  3
Normal
350
F
100
AcDbDictionaryWithDefault
340
F
  0
DICTIONARY
  5
B64
102
{ACAD_REACTORS
330
C
102
}
330
C
100
AcDbDictionary
281
     1
  3
A0
350
B65
  3
A1
350
B66
  3
A2
350
B67
  3
A3
350
B68
  3
A4
350
B69
  3
A5
350
B6A
  3
A6
350
B6B
  3
A7
350
B6C
  3
A8
350
B6D
  3
A9
350
B6E
  3
B0
350
B6F
  3
B1
350
B70
  3
B2
350
B71
  3
B3
350
B72
  3
B4
350
B73
  3
B5
350
B74
  3
B6
350
B75
  0
DICTIONARY
  5
4AB
102
{ACAD_REACTORS
330
C
102
}
330
C
100
AcDbDictionary
281
     1
  3
Standard
350
4AC
  0
DICTIONARY
  5
B50
102
{ACAD_REACTORS
330
C
102
}
330
C
100
AcDbDictionary
281
     1
  3
2dWireframe
350
B56
  3
3D Hidden
350
B58
  3
3dWireframe
350
B57
  3
Basic
350
B55
  3
Brighten
350
B5C
  3
ColorChange
350
B60
  3
Conceptual
350
B59
  3
Dim
350
B5B
  3
EdgeColorOff
350
B63
  3
Facepattern
350
B5F
  3
Flat
350
B51
  3
FlatWithEdges
350
B52
  3
Gouraud
350
B53
  3
GouraudWithEdges
350
B54
  3
JitterOff
350
B61
  3
Linepattern
350
B5E
  3
OverhangOff
350
B62
  3
Realistic
350
B5A
  3
Thicken
350
B5D
  0
XRECORD
  5
BA6
102
{ACAD_REACTORS
330
C
102
}
330
C
100
AcDbXrecord
280
     1
 90
        1
330
4AC
330
90A
330
912
330
95B
330
964
330
9CD
  0
DICTIONARY
  5
34
102
{ACAD_REACTORS
330
C
102
}
330
C
100
AcDbDictionary
281
     1
  3
CANNOSCALE
350
BA3
  3
CMLEADERSTYLE
350
BA2
  3
CTABLESTYLE
350
AA2
  3
DIMASSOC
350
AA3
  3
INDEXCTL
350
35
  3
PROJECTNAME
350
AA4
  0
DICTIONARY
  5
47
102
{ACAD_REACTORS
330
C
102
}
330
C
100
AcDbDictionary
281
     1
  3
AcmStdDictionary
350
4C
  3
AMDTSECTSYM_ARROWCOLOR
350
504
  0
DICTIONARY
  5
2B
102
{ACAD_REACTORS
330
C
102
}
330
C
100
AcDbDictionary
281
     1
  0
DICTIONARY
  5
291
102
{ACAD_REACTORS
330
C
102
}
330
C
100
AcDbDictionary
281
     1
  0
DICTIONARY
  5
7F8
102
{ACAD_REACTORS
330
7F7
102
}
330
7F7
100
AcDbDictionary
281
     1
  0
XRECORD
  5
BAB
102
{ACAD_REACTORS
330
BAA
102
}
330
BAA
100
AcDbXrecord
280
     1
 40
30543.0
  1
\fArial|b0|i0|c0|p32;©
  0
XRECORD
  5
BA8
102
{ACAD_REACTORS
330
BA7
102
}
330
BA7
100
AcDbXrecord
280
     1
 40
1.570796326794896
  0
LAYOUT
  5
1E
102
{ACAD_REACTORS
330
1A
102
}
330
1A
100
AcDbPlotSettings
  1

  2
C:\Programme\Acadm 2000i\plotters\PH36.pc3
  4

  6

 40
0.0
 41
0.0
 42
0.0
 43
0.0
 44
0.0
 45
0.0
 46
0.0
 47
0.0
 48
0.0
 49
0.0
140
0.0
141
0.0
142
1.0
143
1.0
 70
   688
 72
     0
 73
     0
 74
     5
  7
monochrome.ctb
 75
    16
147
1.0
 76
     0
 77
     2
 78
   300
148
0.0
149
0.0
100
AcDbLayout
  1
Layout1
 70
     1
 71
     1
 10
0.0
 20
0.0
 11
420.0
 21
297.0
 12
0.0
 22
0.0
 32
0.0
 14
1.000000000000000E+20
 24
1.000000000000000E+20
 34
1.000000000000000E+20
 15
-1.000000000000000E+20
 25
-1.000000000000000E+20
 35
-1.000000000000000E+20
146
0.0
 13
0.0
 23
0.0
 33
0.0
 16
1.0
 26
0.0
 36
0.0
 17
0.0
 27
1.0
 37
0.0
 76
     0
330
1B
  0
LAYOUT
  5
26
102
{ACAD_REACTORS
330
1A
102
}
330
1A
100
AcDbPlotSettings
  1

  2
C:\Programme\Acadm 2000i\plotters\PH36.pc3
  4

  6

 40
0.0
 41
0.0
 42
0.0
 43
0.0
 44
0.0
 45
0.0
 46
0.0
 47
0.0
 48
0.0
 49
0.0
140
0.0
141
0.0
142
1.0
143
1.0
 70
   688
 72
     0
 73
     0
 74
     5
  7
monochrome.ctb
 75
    16
147
1.0
 76
     0
 77
     2
 78
   300
148
0.0
149
0.0
100
AcDbLayout
  1
Layout2
 70
     1
 71
     2
 10
0.0
 20
0.0
 11
12.0
 21
9.0
 12
0.0
 22
0.0
 32
0.0
 14
0.0
 24
0.0
 34
0.0
 15
0.0
 25
0.0
 35
0.0
146
0.0
 13
0.0
 23
0.0
 33
0.0
 16
1.0
 26
0.0
 36
0.0
 17
0.0
 27
1.0
 37
0.0
 76
     0
330
23
  0
LAYOUT
  5
22
102
{ACAD_REACTORS
330
1A
102
}
330
1A
100
AcDbPlotSettings
  1

  2
none_device
  4
ISO_A4_(210.00_x_297.00_MM)
  6

 40
7.5
 41
20.0
 42
7.5
 43
20.0
 44
210.0
 45
297.0
 46
0.0
 47
0.0
 48
0.0
 49
0.0
140
0.0
141
0.0
142
1.0
143
3.149903573338091
 70
 11952
 72
     1
 73
     1
 74
     0
  7
monochrome.ctb
 75
     0
147
0.3174700357383498
 76
     0
 77
     2
 78
   300
148
-1277.922484418434
149
-14.76862387503982
100
AcDbLayout
  1
Model
 70
     1
 71
     0
 10
0.0
 20
0.0
 11
12.0
 21
9.0
 12
0.0
 22
0.0
 32
0.0
 14
0.0
 24
0.0
 34
0.0
 15
0.0
 25
0.0
 35
0.0
146
0.0
 13
0.0
 23
0.0
 33
0.0
 16
1.0
 26
0.0
 36
0.0
 17
0.0
 27
1.0
 37
0.0
 76
     0
330
1F
331
B36
1001
ACAD_PSEXT
1000
Kein
1000
Kein
1000
Nicht anwendbar
1000
Das Layout wird erst geplottet, wenn ein neuer Plotter-Konfigurationsname ausgewählt wird.
1070
     0
  0
MATERIAL
  5
B40
102
{ACAD_XDICTIONARY
360
B41
102
}
102
{ACAD_REACTORS
330
4A9
102
}
330
4A9
100
AcDbMaterial
  1
ByBlock
 72
     0
 43
0.0008202099737533
 43
0.0
 43
0.0
 43
0.0
 43
0.0
 43
0.0008202099737533
 43
0.0
 43
0.0
 43
0.0
 43
0.0
 43
1.0
 43
0.0
 43
0.0
 43
0.0
 43
0.0
 43
1.0
 77
     0
 47
0.0008202099737533
 47
0.0
 47
0.0
 47
0.0
 47
0.0
 47
0.0008202099737533
 47
0.0
 47
0.0
 47
0.0
 47
0.0
 47
1.0
 47
0.0
 47
0.0
 47
0.0
 47
0.0
 47
1.0
171
     0
 49
0.0008202099737533
 49
0.0
 49
0.0
 49
0.0
 49
0.0
 49
0.0008202099737533
 49
0.0
 49
0.0
 49
0.0
 49
0.0
 49
1.0
 49
0.0
 49
0.0
 49
0.0
 49
0.0
 49
1.0
175
     0
142
0.0008202099737533
142
0.0
142
0.0
142
0.0
142
0.0
142
0.0008202099737533
142
0.0
142
0.0
142
0.0
142
0.0
142
1.0
142
0.0
142
0.0
142
0.0
142
0.0
142
1.0
179
     0
144
0.0008202099737533
144
0.0
144
0.0
144
0.0
144
0.0
144
0.0008202099737533
144
0.0
144
0.0
144
0.0
144
0.0
144
1.0
144
0.0
144
0.0
144
0.0
144
0.0
144
1.0
147
0.0008202099737533
147
0.0
147
0.0
147
0.0
147
0.0
147
0.0008202099737533
147
0.0
147
0.0
147
0.0
147
0.0
147
1.0
147
0.0
147
0.0
147
0.0
147
0.0
147
1.0
  0
MATERIAL
  5
B38
102
{ACAD_XDICTIONARY
360
B39
102
}
102
{ACAD_REACTORS
330
4A9
102
}
330
4A9
100
AcDbMaterial
  1
ByLayer
 72
     0
 43
0.0008202099737533
 43
0.0
 43
0.0
 43
0.0
 43
0.0
 43
0.0008202099737533
 43
0.0
 43
0.0
 43
0.0
 43
0.0
 43
1.0
 43
0.0
 43
0.0
 43
0.0
 43
0.0
 43
1.0
 77
     0
 47
0.0008202099737533
 47
0.0
 47
0.0
 47
0.0
 47
0.0
 47
0.0008202099737533
 47
0.0
 47
0.0
 47
0.0
 47
0.0
 47
1.0
 47
0.0
 47
0.0
 47
0.0
 47
0.0
 47
1.0
171
     0
 49
0.0008202099737533
 49
0.0
 49
0.0
 49
0.0
 49
0.0
 49
0.0008202099737533
 49
0.0
 49
0.0
 49
0.0
 49
0.0
 49
1.0
 49
0.0
 49
0.0
 49
0.0
 49
0.0
 49
1.0
175
     0
142
0.0008202099737533
142
0.0
142
0.0
142
0.0
142
0.0
142
0.0008202099737533
142
0.0
142
0.0
142
0.0
142
0.0
142
1.0
142
0.0
142
0.0
142
0.0
142
0.0
142
1.0
179
     0
144
0.0008202099737533
144
0.0
144
0.0
144
0.0
144
0.0
144
0.0008202099737533
144
0.0
144
0.0
144
0.0
144
0.0
144
1.0
144
0.0
144
0.0
144
0.0
144
0.0
144
1.0
147
0.0008202099737533
147
0.0
147
0.0
147
0.0
147
0.0
147
0.0008202099737533
147
0.0
147
0.0
147
0.0
147
0.0
147
1.0
147
0.0
147
0.0
147
0.0
147
0.0
147
1.0
  0
MATERIAL
  5
B48
102
{ACAD_XDICTIONARY
360
B49
102
}
102
{ACAD_REACTORS
330
4A9
102
}
330
4A9
100
AcDbMaterial
  1
Global
 72
     0
 43
0.0008202099737533
 43
0.0
 43
0.0
 43
0.0
 43
0.0
 43
0.0008202099737533
 43
0.0
 43
0.0
 43
0.0
 43
0.0
 43
1.0
 43
0.0
 43
0.0
 43
0.0
 43
0.0
 43
1.0
 77
     0
 47
0.0008202099737533
 47
0.0
 47
0.0
 47
0.0
 47
0.0
 47
0.0008202099737533
 47
0.0
 47
0.0
 47
0.0
 47
0.0
 47
1.0
 47
0.0
 47
0.0
 47
0.0
 47
0.0
 47
1.0
171
     0
 49
0.0008202099737533
 49
0.0
 49
0.0
 49
0.0
 49
0.0
 49
0.0008202099737533
 49
0.0
 49
0.0
 49
0.0
 49
0.0
 49
1.0
 49
0.0
 49
0.0
 49
0.0
 49
0.0
 49
1.0
175
     0
142
0.0008202099737533
142
0.0
142
0.0
142
0.0
142
0.0
142
0.0008202099737533
142
0.0
142
0.0
142
0.0
142
0.0
142
1.0
142
0.0
142
0.0
142
0.0
142
0.0
142
1.0
179
     0
144
0.0008202099737533
144
0.0
144
0.0
144
0.0
144
0.0
144
0.0008202099737533
144
0.0
144
0.0
144
0.0
144
0.0
144
1.0
144
0.0
144
0.0
144
0.0
144
0.0
144
1.0
147
0.0008202099737533
147
0.0
147
0.0
147
0.0
147
0.0
147
0.0008202099737533
147
0.0
147
0.0
147
0.0
147
0.0
147
1.0
147
0.0
147
0.0
147
0.0
147
0.0
147
1.0
  0
MLEADERSTYLE
  5
B77
102
{ACAD_REACTORS
330
B76
102
}
330
B76
100
AcDbMLeaderStyle
170
     2
171
     1
172
     0
 90
        2
 40
0.0
 41
0.0
173
     1
 91
-1056964608
340
14
 92
       -2
290
     1
 42
2.0
291
     1
 43
0.36
  3
Standard
 44
4.0
300

342
11
174
     1
178
     6
175
     1
176
     0
 93
-1056964608
 45
4.0
292
     0
297
     0
 46
4.0
 94
-1056964608
 47
1.0
 49
1.0
140
1.0
293
     1
141
0.0
294
     1
177
     0
142
1.0
295
     0
296
     0
143
0.125
1001
ACAD_MLEADERVER
1070
     2
  0
MLINESTYLE
  5
18
102
{ACAD_REACTORS
330
17
102
}
330
17
100
AcDbMlineStyle
  2
STANDARD
 70
     0
  3

 62
   256
 51
90.0
 52
90.0
 71
     2
 49
0.5
 62
   256
  6
BYLAYER
 49
-0.5
 62
   256
  6
BYLAYER
  0
ACDBPLACEHOLDER
  5
F
102
{ACAD_REACTORS
330
E
102
}
330
E
  0
SCALE
  5
B65
102
{ACAD_REACTORS
330
B64
102
}
330
B64
100
AcDbScale
 70
     0
300
1:1
140
1.0
141
1.0
290
     1
  0
SCALE
  5
B66
102
{ACAD_REACTORS
330
B64
102
}
330
B64
100
AcDbScale
 70
     0
300
1:2
140
1.0
141
2.0
290
     0
  0
SCALE
  5
B67
102
{ACAD_REACTORS
330
B64
102
}
330
B64
100
AcDbScale
 70
     0
300
1:4
140
1.0
141
4.0
290
     0
  0
SCALE
  5
B68
102
{ACAD_REACTORS
330
B64
102
}
330
B64
100
AcDbScale
 70
     0
300
1:5
140
1.0
141
5.0
290
     0
  0
SCALE
  5
B69
102
{ACAD_REACTORS
330
B64
102
}
330
B64
100
AcDbScale
 70
     0
300
1:8
140
1.0
141
8.0
290
     0
  0
SCALE
  5
B6A
102
{ACAD_REACTORS
330
B64
102
}
330
B64
100
AcDbScale
 70
     0
300
1:10
140
1.0
141
10.0
290
     0
  0
SCALE
  5
B6B
102
{ACAD_REACTORS
330
B64
102
}
330
B64
100
AcDbScale
 70
     0
300
1:16
140
1.0
141
16.0
290
     0
  0
SCALE
  5
B6C
102
{ACAD_REACTORS
330
B64
102
}
330
B64
100
AcDbScale
 70
     0
300
1:20
140
1.0
141
20.0
290
     0
  0
SCALE
  5
B6D
102
{ACAD_REACTORS
330
B64
102
}
330
B64
100
AcDbScale
 70
     0
300
1:30
140
1.0
141
30.0
290
     0
  0
SCALE
  5
B6E
102
{ACAD_REACTORS
330
B64
102
}
330
B64
100
AcDbScale
 70
     0
300
1:40
140
1.0
141
40.0
290
     0
  0
SCALE
  5
B6F
102
{ACAD_REACTORS
330
B64
102
}
330
B64
100
AcDbScale
 70
     0
300
1:50
140
1.0
141
50.0
290
     0
  0
SCALE
  5
B70
102
{ACAD_REACTORS
330
B64
102
}
330
B64
100
AcDbScale
 70
     0
300
1:100
140
1.0
141
100.0
290
     0
  0
SCALE
  5
B71
102
{ACAD_REACTORS
330
B64
102
}
330
B64
100
AcDbScale
 70
     0
300
2:1
140
2.0
141
1.0
290
     0
  0
SCALE
  5
B72
102
{ACAD_REACTORS
330
B64
102
}
330
B64
100
AcDbScale
 70
     0
300
4:1
140
4.0
141
1.0
290
     0
  0
SCALE
  5
B73
102
{ACAD_REACTORS
330
B64
102
}
330
B64
100
AcDbScale
 70
     0
300
8:1
140
8.0
141
1.0
290
     0
  0
SCALE
  5
B74
102
{ACAD_REACTORS
330
B64
102
}
330
B64
100
AcDbScale
 70
     0
300
10:1
140
10.0
141
1.0
290
     0
  0
SCALE
  5
B75
102
{ACAD_REACTORS
330
B64
102
}
330
B64
100
AcDbScale
 70
     0
300
100:1
140
100.0
141
1.0
290
     0
  0
TABLESTYLE
  5
4AC
102
{ACAD_XDICTIONARY
360
BA4
102
}
102
{ACAD_REACTORS
330
4AB
102
}
330
4AB
100
AcDbTableStyle
  3
Standard
 70
     0
 71
     0
 40
1.5
 41
1.5
280
     0
281
     0
  7
STANDARD
140
4.5
170
     2
 62
     0
 63
     7
283
     0
274
    -2
284
     1
 64
     0
275
    -2
285
     1
 65
     0
276
    -2
286
     1
 66
     0
277
    -2
287
     1
 67
     0
278
    -2
288
     1
 68
     0
279
    -2
289
     1
 69
     0
  7
STANDARD
140
6.0
170
     5
 62
     0
 63
     7
283
     0
274
    -2
284
     1
 64
     0
275
    -2
285
     1
 65
     0
276
    -2
286
     1
 66
     0
277
    -2
287
     1
 67
     0
278
    -2
288
     1
 68
     0
279
    -2
289
     1
 69
     0
  7
STANDARD
140
4.5
170
     5
 62
     0
 63
     7
283
     0
274
    -2
284
     1
 64
     0
275
    -2
285
     1
 65
     0
276
    -2
286
     1
 66
     0
277
    -2
287
     1
 67
     0
278
    -2
288
     1
 68
     0
279
    -2
289
     1
 69
     0
  0
VISUALSTYLE
  5
B56
102
{ACAD_XDICTIONARY
360
BB9
102
}
102
{ACAD_REACTORS
330
B50
102
}
330
B50
100
AcDbVisualStyle
  2
2dWireframe
 70
     4
 71
     0
 72
     2
 73
     0
 90
        0
 40
-0.6
 41
-30.0
 62
     5
 63
     7
421
 16777215
 74
     1
 91
        4
 64
     7
 65
   257
 75
     1
175
     1
 42
1.0
 92
        0
 66
   257
 43
1.0
 76
     1
 77
     6
 78
     2
 67
     7
 79
     5
170
     0
171
     0
290
     0
174
     0
 93
        1
 44
0.0
173
     0
291
     0
 45
0.0
1001
ACAD
1000
AcDbSavedByObjectVersion
1070
     0
  0
VISUALSTYLE
  5
B58
102
{ACAD_XDICTIONARY
360
BBD
102
}
102
{ACAD_REACTORS
330
B50
102
}
330
B50
100
AcDbVisualStyle
  2
3D Hidden
 70
     6
 71
     1
 72
     2
 73
     2
 90
        0
 40
-0.6
 41
-30.0
 62
     5
 63
     7
421
 16777215
 74
     2
 91
        2
 64
     7
 65
   257
 75
     2
175
     1
 42
179.0
 92
        0
 66
   257
 43
1.0
 76
     1
 77
     6
 78
     2
 67
     7
 79
     3
170
     0
171
     0
290
     0
174
     0
 93
        1
 44
0.0
173
     0
291
     0
 45
0.0
1001
ACAD
1000
AcDbSavedByObjectVersion
1070
     0
  0
VISUALSTYLE
  5
B57
102
{ACAD_XDICTIONARY
360
BBB
102
}
102
{ACAD_REACTORS
330
B50
102
}
330
B50
100
AcDbVisualStyle
  2
3dWireframe
 70
     5
 71
     0
 72
     2
 73
     0
 90
        0
 40
-0.6
 41
-30.0
 62
     5
 63
     7
421
 16777215
 74
     1
 91
        4
 64
     7
 65
   257
 75
     1
175
     1
 42
1.0
 92
        0
 66
   257
 43
1.0
 76
     1
 77
     6
 78
     2
 67
     7
 79
     5
170
     0
171
     0
290
     0
174
     0
 93
        1
 44
0.0
173
     0
291
     0
 45
0.0
1001
ACAD
1000
AcDbSavedByObjectVersion
1070
     0
  0
VISUALSTYLE
  5
B55
102
{ACAD_XDICTIONARY
360
BB7
102
}
102
{ACAD_REACTORS
330
B50
102
}
330
B50
100
AcDbVisualStyle
  2
Basic
 70
     7
 71
     1
 72
     0
 73
     1
 90
        0
 40
-0.6
 41
-30.0
 62
     5
 63
     7
421
 16777215
 74
     0
 91
        4
 64
     7
 65
   257
 75
     1
175
     1
 42
1.0
 92
        8
 66
     7
 43
1.0
 76
     1
 77
     6
 78
     2
 67
     7
 79
     5
170
     0
171
     0
290
     0
174
     0
 93
        1
 44
0.0
173
     0
291
     1
 45
0.0
1001
ACAD
1000
AcDbSavedByObjectVersion
1070
     0
  0
VISUALSTYLE
  5
B5C
102
{ACAD_XDICTIONARY
360
BC5
102
}
102
{ACAD_REACTORS
330
B50
102
}
330
B50
100
AcDbVisualStyle
  2
Brighten
 70
    12
 71
     2
 72
     2
 73
     0
 90
        0
 40
-0.6
 41
-30.0
 62
     5
 63
     7
421
 16777215
 74
     1
 91
        4
 64
     7
 65
   257
 75
     1
175
     1
 42
1.0
 92
        8
 66
     7
 43
1.0
 76
     1
 77
     6
 78
     2
 67
     7
 79
     5
170
     0
171
     0
290
     0
174
     0
 93
        1
 44
50.0
173
     0
291
     1
 45
0.0
1001
ACAD
1000
AcDbSavedByObjectVersion
1070
     0
  0
VISUALSTYLE
  5
B60
102
{ACAD_XDICTIONARY
360
BCD
102
}
102
{ACAD_REACTORS
330
B50
102
}
330
B50
100
AcDbVisualStyle
  2
ColorChange
 70
    16
 71
     2
 72
     2
 73
     3
 90
        0
 40
-0.6
 41
-30.0
 62
     5
 63
     8
421
  8421504
 74
     1
 91
        4
 64
     7
 65
   257
 75
     1
175
     1
 42
1.0
 92
        8
 66
     8
424
  8421504
 43
1.0
 76
     1
 77
     6
 78
     2
 67
     7
 79
     5
170
     0
171
     0
290
     0
174
     0
 93
        1
 44
0.0
173
     0
291
     1
 45
0.0
1001
ACAD
1000
AcDbSavedByObjectVersion
1070
     0
  0
VISUALSTYLE
  5
B59
102
{ACAD_XDICTIONARY
360
BBF
102
}
102
{ACAD_REACTORS
330
B50
102
}
330
B50
100
AcDbVisualStyle
  2
Conceptual
 70
     9
 71
     3
 72
     2
 73
     0
 90
        0
 40
-0.6
 41
-30.0
 62
     5
 63
     7
421
 16777215
 74
     2
 91
        2
 64
     7
 65
   257
 75
     1
175
     1
 42
179.0
 92
        8
 66
     7
 43
1.0
 76
     1
 77
     6
 78
     2
 67
     7
 79
     3
170
     0
171
     0
290
     0
174
     0
 93
        1
 44
0.0
173
     0
291
     0
 45
0.0
1001
ACAD
1000
AcDbSavedByObjectVersion
1070
     0
  0
VISUALSTYLE
  5
B5B
102
{ACAD_XDICTIONARY
360
BC3
102
}
102
{ACAD_REACTORS
330
B50
102
}
330
B50
100
AcDbVisualStyle
  2
Dim
 70
    11
 71
     2
 72
     2
 73
     0
 90
        0
 40
-0.6
 41
-30.0
 62
     5
 63
     7
421
 16777215
 74
     1
 91
        4
 64
     7
 65
   257
 75
     1
175
     1
 42
1.0
 92
        8
 66
     7
 43
1.0
 76
     1
 77
     6
 78
     2
 67
     7
 79
     5
170
     0
171
     0
290
     0
174
     0
 93
        1
 44
-50.0
173
     0
291
     1
 45
0.0
1001
ACAD
1000
AcDbSavedByObjectVersion
1070
     0
  0
VISUALSTYLE
  5
B63
102
{ACAD_XDICTIONARY
360
BD3
102
}
102
{ACAD_REACTORS
330
B50
102
}
330
B50
100
AcDbVisualStyle
  2
EdgeColorOff
 70
    22
 71
     2
 72
     2
 73
     0
 90
        0
 40
-0.6
 41
-30.0
 62
     5
 63
     7
421
 16777215
 74
     1
 91
        4
 64
     7
 65
   257
 75
     1
175
     1
 42
1.0
 92
        8
 66
     7
 43
1.0
 76
     1
 77
     6
 78
     2
 67
     7
 79
     5
170
     0
171
     0
290
     0
174
     0
 93
        1
 44
0.0
173
     0
291
     1
 45
0.0
1001
ACAD
1000
AcDbSavedByObjectVersion
1070
     0
  0
VISUALSTYLE
  5
B5F
102
{ACAD_XDICTIONARY
360
BCB
102
}
102
{ACAD_REACTORS
330
B50
102
}
330
B50
100
AcDbVisualStyle
  2
Facepattern
 70
    15
 71
     2
 72
     2
 73
     0
 90
        0
 40
-0.6
 41
-30.0
 62
     5
 63
     7
421
 16777215
 74
     1
 91
        4
 64
     7
 65
   257
 75
     1
175
     1
 42
1.0
 92
        8
 66
     7
 43
1.0
 76
     1
 77
     6
 78
     2
 67
     7
 79
     5
170
     0
171
     0
290
     0
174
     0
 93
        1
 44
0.0
173
     0
291
     1
 45
0.0
1001
ACAD
1000
AcDbSavedByObjectVersion
1070
     0
  0
VISUALSTYLE
  5
B51
102
{ACAD_XDICTIONARY
360
BAF
102
}
102
{ACAD_REACTORS
330
B50
102
}
330
B50
100
AcDbVisualStyle
  2
Flat
 70
     0
 71
     2
 72
     1
 73
     1
 90
        2
 40
-0.6
 41
30.0
 62
     5
 63
     7
421
 16777215
 74
     0
 91
        4
 64
     7
 65
   257
 75
     1
175
     1
 42
1.0
 92
        8
 66
     7
 43
1.0
 76
     1
 77
     6
 78
     2
 67
     7
 79
     5
170
     0
171
     0
290
     0
174
     0
 93
       13
 44
0.0
173
     0
291
     1
 45
0.0
1001
ACAD
1000
AcDbSavedByObjectVersion
1070
     0
  0
VISUALSTYLE
  5
B52
102
{ACAD_XDICTIONARY
360
BB1
102
}
102
{ACAD_REACTORS
330
B50
102
}
330
B50
100
AcDbVisualStyle
  2
FlatWithEdges
 70
     1
 71
     2
 72
     1
 73
     1
 90
        2
 40
-0.6
 41
30.0
 62
     5
 63
     7
421
 16777215
 74
     1
 91
        4
 64
     7
 65
   257
 75
     1
175
     1
 42
1.0
 92
        0
 66
   257
 43
1.0
 76
     1
 77
     6
 78
     2
 67
     7
 79
     5
170
     0
171
     0
290
     0
174
     0
 93
       13
 44
0.0
173
     0
291
     1
 45
0.0
1001
ACAD
1000
AcDbSavedByObjectVersion
1070
     0
  0
VISUALSTYLE
  5
B53
102
{ACAD_XDICTIONARY
360
BB3
102
}
102
{ACAD_REACTORS
330
B50
102
}
330
B50
100
AcDbVisualStyle
  2
Gouraud
 70
     2
 71
     2
 72
     2
 73
     1
 90
        2
 40
-0.6
 41
30.0
 62
     5
 63
     7
421
 16777215
 74
     0
 91
        4
 64
     7
 65
   257
 75
     1
175
     1
 42
1.0
 92
        0
 66
     7
 43
1.0
 76
     1
 77
     6
 78
     2
 67
     7
 79
     5
170
     0
171
     0
290
     0
174
     0
 93
       13
 44
0.0
173
     0
291
     1
 45
0.0
1001
ACAD
1000
AcDbSavedByObjectVersion
1070
     0
  0
VISUALSTYLE
  5
B54
102
{ACAD_XDICTIONARY
360
BB5
102
}
102
{ACAD_REACTORS
330
B50
102
}
330
B50
100
AcDbVisualStyle
  2
GouraudWithEdges
 70
     3
 71
     2
 72
     2
 73
     1
 90
        2
 40
-0.6
 41
30.0
 62
     5
 63
     7
421
 16777215
 74
     1
 91
        4
 64
     7
 65
   257
 75
     1
175
     1
 42
1.0
 92
        0
 66
   257
 43
1.0
 76
     1
 77
     6
 78
     2
 67
     7
 79
     5
170
     0
171
     0
290
     0
174
     0
 93
       13
 44
0.0
173
     0
291
     1
 45
0.0
1001
ACAD
1000
AcDbSavedByObjectVersion
1070
     0
  0
VISUALSTYLE
  5
B61
102
{ACAD_XDICTIONARY
360
BCF
102
}
102
{ACAD_REACTORS
330
B50
102
}
330
B50
100
AcDbVisualStyle
  2
JitterOff
 70
    20
 71
     2
 72
     2
 73
     0
 90
        0
 40
-0.6
 41
-30.0
 62
     5
 63
     7
421
 16777215
 74
     1
 91
        4
 64
     7
 65
   257
 75
     1
175
     1
 42
1.0
 92
       10
 66
     7
 43
1.0
 76
     1
 77
     6
 78
     2
 67
     7
 79
     5
170
     0
171
     0
290
     0
174
     0
 93
        1
 44
0.0
173
     0
291
     1
 45
0.0
1001
ACAD
1000
AcDbSavedByObjectVersion
1070
     0
  0
VISUALSTYLE
  5
B5E
102
{ACAD_XDICTIONARY
360
BC9
102
}
102
{ACAD_REACTORS
330
B50
102
}
330
B50
100
AcDbVisualStyle
  2
Linepattern
 70
    14
 71
     2
 72
     2
 73
     0
 90
        0
 40
-0.6
 41
-30.0
 62
     5
 63
     7
421
 16777215
 74
     1
 91
        4
 64
     7
 65
   257
 75
     7
175
     7
 42
1.0
 92
        8
 66
     7
 43
1.0
 76
     1
 77
     6
 78
     2
 67
     7
 79
     5
170
     0
171
     0
290
     0
174
     0
 93
        1
 44
0.0
173
     0
291
     1
 45
0.0
1001
ACAD
1000
AcDbSavedByObjectVersion
1070
     0
  0
VISUALSTYLE
  5
B62
102
{ACAD_XDICTIONARY
360
BD1
102
}
102
{ACAD_REACTORS
330
B50
102
}
330
B50
100
AcDbVisualStyle
  2
OverhangOff
 70
    21
 71
     2
 72
     2
 73
     0
 90
        0
 40
-0.6
 41
-30.0
 62
     5
 63
     7
421
 16777215
 74
     1
 91
        4
 64
     7
 65
   257
 75
     1
175
     1
 42
1.0
 92
        9
 66
     7
 43
1.0
 76
     1
 77
     6
 78
     2
 67
     7
 79
     5
170
     0
171
     0
290
     0
174
     0
 93
        1
 44
0.0
173
     0
291
     1
 45
0.0
1001
ACAD
1000
AcDbSavedByObjectVersion
1070
     0
  0
VISUALSTYLE
  5
B5A
102
{ACAD_XDICTIONARY
360
BC1
102
}
102
{ACAD_REACTORS
330
B50
102
}
330
B50
100
AcDbVisualStyle
  2
Realistic
 70
     8
 71
     2
 72
     2
 73
     0
 90
        0
 40
-0.6
 41
-30.0
 62
     5
 63
     7
421
 16777215
 74
     1
 91
        0
 64
     7
 65
   257
 75
     1
175
     1
 42
1.0
 92
        8
 66
     8
424
  7895160
 43
1.0
 76
     1
 77
     6
 78
     2
 67
     7
 79
     5
170
     0
171
     0
290
     0
174
     0
 93
       13
 44
0.0
173
     0
291
     0
 45
0.0
1001
ACAD
1000
AcDbSavedByObjectVersion
1070
     0
  0
VISUALSTYLE
  5
B5D
102
{ACAD_XDICTIONARY
360
BC7
102
}
102
{ACAD_REACTORS
330
B50
102
}
330
B50
100
AcDbVisualStyle
  2
Thicken
 70
    13
 71
     2
 72
     2
 73
     0
 90
        0
 40
-0.6
 41
-30.0
 62
     5
 63
     7
421
 16777215
 74
     1
 91
        4
 64
     7
 65
   257
 75
     1
175
     1
 42
1.0
 92
       12
 66
     7
 43
1.0
 76
     1
 77
     6
 78
     2
 67
     7
 79
     5
170
     0
171
     0
290
     0
174
     0
 93
        1
 44
0.0
173
     0
291
     1
 45
0.0
1001
ACAD
1000
AcDbSavedByObjectVersion
1070
     0
  0
DICTIONARYVAR
  5
BA3
102
{ACAD_REACTORS
330
34
102
}
330
34
100
DictionaryVariables
280
     0
  1
1:1
  0
DICTIONARYVAR
  5
BA2
102
{ACAD_REACTORS
330
34
102
}
330
34
100
DictionaryVariables
280
     0
  1
STANDARD
  0
DICTIONARYVAR
  5
AA2
102
{ACAD_REACTORS
330
34
102
}
330
34
100
DictionaryVariables
280
     0
  1
STANDARD
  0
DICTIONARYVAR
  5
AA3
102
{ACAD_REACTORS
330
34
102
}
330
34
100
DictionaryVariables
280
     0
  1
1
  0
DICTIONARYVAR
  5
35
102
{ACAD_REACTORS
330
34
102
}
330
34
100
DictionaryVariables
280
     0
  1
0
  0
DICTIONARYVAR
  5
AA4
102
{ACAD_REACTORS
330
34
102
}
330
34
100
DictionaryVariables
280
     0
  1

  0
DICTIONARY
  5
4C
102
{ACAD_REACTORS
330
47
102
}
330
47
100
AcDbDictionary
281
     1
  0
XRECORD
  5
504
102
{ACAD_REACTORS
330
47
102
}
330
47
100
AcDbXrecord
280
     1
 90
-1023410169
  0
DICTIONARY
  5
B41
330
B40
100
AcDbDictionary
280
     1
281
     1
  3
ACAD_XREC_ROUNDTRIP
360
BAD
  3
BUMPTILE
360
B43
  3
DIFFUSETILE
360
B42
  3
OPACITYTILE
360
B46
  3
REFLECTIONTILE
360
B45
  3
REFRACTIONTILE
360
B47
  3
SPECULARTILE
360
B44
  0
DICTIONARY
  5
B39
330
B38
100
AcDbDictionary
280
     1
281
     1
  3
ACAD_XREC_ROUNDTRIP
360
BAC
  3
BUMPTILE
360
B3B
  3
DIFFUSETILE
360
B3A
  3
OPACITYTILE
360
B3E
  3
REFLECTIONTILE
360
B3D
  3
REFRACTIONTILE
360
B3F
  3
SPECULARTILE
360
B3C
  0
DICTIONARY
  5
B49
330
B48
100
AcDbDictionary
280
     1
281
     1
  3
ACAD_XREC_ROUNDTRIP
360
BAE
  3
BUMPTILE
360
B4B
  3
DIFFUSETILE
360
B4A
  3
OPACITYTILE
360
B4E
  3
REFLECTIONTILE
360
B4D
  3
REFRACTIONTILE
360
B4F
  3
SPECULARTILE
360
B4C
  0
DICTIONARY
  5
BA4
330
4AC
100
AcDbDictionary
280
     1
281
     1
  3
ACAD_ROUNDTRIP_2008_TABLESTYLE_CELLSTYLEMAP
360
BA5
  3
ACAD_XREC_ROUNDTRIP
360
BA9
  0
DICTIONARY
  5
BB9
330
B56
100
AcDbDictionary
280
     1
281
     1
  3
ACAD_XREC_ROUNDTRIP
360
BBA
  0
DICTIONARY
  5
BBD
330
B58
100
AcDbDictionary
280
     1
281
     1
  3
ACAD_XREC_ROUNDTRIP
360
BBE
  0
DICTIONARY
  5
BBB
330
B57
100
AcDbDictionary
280
     1
281
     1
  3
ACAD_XREC_ROUNDTRIP
360
BBC
  0
DICTIONARY
  5
BB7
330
B55
100
AcDbDictionary
280
     1
281
     1
  3
ACAD_XREC_ROUNDTRIP
360
BB8
  0
DICTIONARY
  5
BC5
330
B5C
100
AcDbDictionary
280
     1
281
     1
  3
ACAD_XREC_ROUNDTRIP
360
BC6
  0
DICTIONARY
  5
BCD
330
B60
100
AcDbDictionary
280
     1
281
     1
  3
ACAD_XREC_ROUNDTRIP
360
BCE
  0
DICTIONARY
  5
BBF
330
B59
100
AcDbDictionary
280
     1
281
     1
  3
ACAD_XREC_ROUNDTRIP
360
BC0
  0
DICTIONARY
  5
BC3
330
B5B
100
AcDbDictionary
280
     1
281
     1
  3
ACAD_XREC_ROUNDTRIP
360
BC4
  0
DICTIONARY
  5
BD3
330
B63
100
AcDbDictionary
280
     1
281
     1
  3
ACAD_XREC_ROUNDTRIP
360
BD4
  0
DICTIONARY
  5
BCB
330
B5F
100
AcDbDictionary
280
     1
281
     1
  3
ACAD_XREC_ROUNDTRIP
360
BCC
  0
DICTIONARY
  5
BAF
330
B51
100
AcDbDictionary
280
     1
281
     1
  3
ACAD_XREC_ROUNDTRIP
360
BB0
  0
DICTIONARY
  5
BB1
330
B52
100
AcDbDictionary
280
     1
281
     1
  3
ACAD_XREC_ROUNDTRIP
360
BB2
  0
DICTIONARY
  5
BB3
330
B53
100
AcDbDictionary
280
     1
281
     1
  3
ACAD_XREC_ROUNDTRIP
360
BB4
  0
DICTIONARY
  5
BB5
330
B54
100
AcDbDictionary
280
     1
281
     1
  3
ACAD_XREC_ROUNDTRIP
360
BB6
  0
DICTIONARY
  5
BCF
330
B61
100
AcDbDictionary
280
     1
281
     1
  3
ACAD_XREC_ROUNDTRIP
360
BD0
  0
DICTIONARY
  5
BC9
330
B5E
100
AcDbDictionary
280
     1
281
     1
  3
ACAD_XREC_ROUNDTRIP
360
BCA
  0
DICTIONARY
  5
BD1
330
B62
100
AcDbDictionary
280
     1
281
     1
  3
ACAD_XREC_ROUNDTRIP
360
BD2
  0
DICTIONARY
  5
BC1
330
B5A
100
AcDbDictionary
280
     1
281
     1
  3
ACAD_XREC_ROUNDTRIP
360
BC2
  0
DICTIONARY
  5
BC7
330
B5D
100
AcDbDictionary
280
     1
281
     1
  3
ACAD_XREC_ROUNDTRIP
360
BC8
  0
XRECORD
  5
BAD
102
{ACAD_REACTORS
330
B41
102
}
330
B41
100
AcDbXrecord
280
     1
102
MATERIAL
148
0.0
149
0.0
149
0.0
 93
        0
 94
      127
282
     0
 72
     0
 77
     0
171
     0
175
     0
179
     0
273
     0
  0
XRECORD
  5
B43
102
{ACAD_REACTORS
330
B41
102
}
330
B41
100
AcDbXrecord
280
     1
270
     1
271
     1
  0
XRECORD
  5
B42
102
{ACAD_REACTORS
330
B41
102
}
330
B41
100
AcDbXrecord
280
     1
270
     1
271
     1
  0
XRECORD
  5
B46
102
{ACAD_REACTORS
330
B41
102
}
330
B41
100
AcDbXrecord
280
     1
270
     1
271
     1
  0
XRECORD
  5
B45
102
{ACAD_REACTORS
330
B41
102
}
330
B41
100
AcDbXrecord
280
     1
270
     1
271
     1
  0
XRECORD
  5
B47
102
{ACAD_REACTORS
330
B41
102
}
330
B41
100
AcDbXrecord
280
     1
270
     1
271
     1
  0
XRECORD
  5
B44
102
{ACAD_REACTORS
330
B41
102
}
330
B41
100
AcDbXrecord
280
     1
270
     1
271
     1
  0
XRECORD
  5
BAC
102
{ACAD_REACTORS
330
B39
102
}
330
B39
100
AcDbXrecord
280
     1
102
MATERIAL
148
0.0
149
0.0
149
0.0
 93
        0
 94
      127
282
     0
 72
     0
 77
     0
171
     0
175
     0
179
     0
273
     0
  0
XRECORD
  5
B3B
102
{ACAD_REACTORS
330
B39
102
}
330
B39
100
AcDbXrecord
280
     1
270
     1
271
     1
  0
XRECORD
  5
B3A
102
{ACAD_REACTORS
330
B39
102
}
330
B39
100
AcDbXrecord
280
     1
270
     1
271
     1
  0
XRECORD
  5
B3E
102
{ACAD_REACTORS
330
B39
102
}
330
B39
100
AcDbXrecord
280
     1
270
     1
271
     1
  0
XRECORD
  5
B3D
102
{ACAD_REACTORS
330
B39
102
}
330
B39
100
AcDbXrecord
280
     1
270
     1
271
     1
  0
XRECORD
  5
B3F
102
{ACAD_REACTORS
330
B39
102
}
330
B39
100
AcDbXrecord
280
     1
270
     1
271
     1
  0
XRECORD
  5
B3C
102
{ACAD_REACTORS
330
B39
102
}
330
B39
100
AcDbXrecord
280
     1
270
     1
271
     1
  0
XRECORD
  5
BAE
102
{ACAD_REACTORS
330
B49
102
}
330
B49
100
AcDbXrecord
280
     1
102
MATERIAL
148
0.0
149
0.0
149
0.0
 93
        0
 94
      127
282
     0
 72
     0
 77
     0
171
     0
175
     0
179
     0
273
     0
  0
XRECORD
  5
B4B
102
{ACAD_REACTORS
330
B49
102
}
330
B49
100
AcDbXrecord
280
     1
270
     1
271
     1
  0
XRECORD
  5
B4A
102
{ACAD_REACTORS
330
B49
102
}
330
B49
100
AcDbXrecord
280
     1
270
     1
271
     1
  0
XRECORD
  5
B4E
102
{ACAD_REACTORS
330
B49
102
}
330
B49
100
AcDbXrecord
280
     1
270
     1
271
     1
  0
XRECORD
  5
B4D
102
{ACAD_REACTORS
330
B49
102
}
330
B49
100
AcDbXrecord
280
     1
270
     1
271
     1
  0
XRECORD
  5
B4F
102
{ACAD_REACTORS
330
B49
102
}
330
B49
100
AcDbXrecord
280
     1
270
     1
271
     1
  0
XRECORD
  5
B4C
102
{ACAD_REACTORS
330
B49
102
}
330
B49
100
AcDbXrecord
280
     1
270
     1
271
     1
  0
CELLSTYLEMAP
  5
BA5
102
{ACAD_REACTORS
330
BA4
102
}
330
BA4
100
AcDbCellStyleMap
 90
        3
300
CELLSTYLE
  1
TABLEFORMAT_BEGIN
 90
        5
170
     1
 91
        0
 92
    32768
 62
   257
 93
        1
300
CONTENTFORMAT
  1
CONTENTFORMAT_BEGIN
 90
        0
 91
        0
 92
        4
 93
        0
300

 40
0.0
140
1.0
 94
        5
 62
     0
340
11
144
6.0
309
CONTENTFORMAT_END
171
     1
301
MARGIN
  1
CELLMARGIN_BEGIN
 40
1.5
 40
1.5
 40
1.5
 40
1.5
 40
0.18
 40
0.18
309
CELLMARGIN_END
 94
        6
 95
        1
302
GRIDFORMAT
  1
GRIDFORMAT_BEGIN
 90
        0
 91
        1
 62
     0
 92
       -2
340
0
 93
        0
 40
0.045
309
GRIDFORMAT_END
 95
        2
302
GRIDFORMAT
  1
GRIDFORMAT_BEGIN
 90
        0
 91
        1
 62
     0
 92
       -2
340
0
 93
        0
 40
0.045
309
GRIDFORMAT_END
 95
        4
302
GRIDFORMAT
  1
GRIDFORMAT_BEGIN
 90
        0
 91
        1
 62
     0
 92
       -2
340
0
 93
        0
 40
0.045
309
GRIDFORMAT_END
 95
        8
302
GRIDFORMAT
  1
GRIDFORMAT_BEGIN
 90
        0
 91
        1
 62
     0
 92
       -2
340
0
 93
        0
 40
0.045
309
GRIDFORMAT_END
 95
       16
302
GRIDFORMAT
  1
GRIDFORMAT_BEGIN
 90
        0
 91
        1
 62
     0
 92
       -2
340
0
 93
        0
 40
0.045
309
GRIDFORMAT_END
 95
       32
302
GRIDFORMAT
  1
GRIDFORMAT_BEGIN
 90
        0
 91
        1
 62
     0
 92
       -2
340
0
 93
        0
 40
0.045
309
GRIDFORMAT_END
309
TABLEFORMAT_END
  1
CELLSTYLE_BEGIN
 90
        1
 91
        1
300
_TITLE
309
CELLSTYLE_END
300
CELLSTYLE
  1
TABLEFORMAT_BEGIN
 90
        5
170
     1
 91
        0
 92
        0
 62
   257
 93
        1
300
CONTENTFORMAT
  1
CONTENTFORMAT_BEGIN
 90
        0
 91
        0
 92
        4
 93
        0
300

 40
0.0
140
1.0
 94
        5
 62
     0
340
11
144
4.5
309
CONTENTFORMAT_END
171
     1
301
MARGIN
  1
CELLMARGIN_BEGIN
 40
1.5
 40
1.5
 40
1.5
 40
1.5
 40
0.18
 40
0.18
309
CELLMARGIN_END
 94
        6
 95
        1
302
GRIDFORMAT
  1
GRIDFORMAT_BEGIN
 90
        0
 91
        1
 62
     0
 92
       -2
340
0
 93
        0
 40
0.045
309
GRIDFORMAT_END
 95
        2
302
GRIDFORMAT
  1
GRIDFORMAT_BEGIN
 90
        0
 91
        1
 62
     0
 92
       -2
340
0
 93
        0
 40
0.045
309
GRIDFORMAT_END
 95
        4
302
GRIDFORMAT
  1
GRIDFORMAT_BEGIN
 90
        0
 91
        1
 62
     0
 92
       -2
340
0
 93
        0
 40
0.045
309
GRIDFORMAT_END
 95
        8
302
GRIDFORMAT
  1
GRIDFORMAT_BEGIN
 90
        0
 91
        1
 62
     0
 92
       -2
340
0
 93
        0
 40
0.045
309
GRIDFORMAT_END
 95
       16
302
GRIDFORMAT
  1
GRIDFORMAT_BEGIN
 90
        0
 91
        1
 62
     0
 92
       -2
340
0
 93
        0
 40
0.045
309
GRIDFORMAT_END
 95
       32
302
GRIDFORMAT
  1
GRIDFORMAT_BEGIN
 90
        0
 91
        1
 62
     0
 92
       -2
340
0
 93
        0
 40
0.045
309
GRIDFORMAT_END
309
TABLEFORMAT_END
  1
CELLSTYLE_BEGIN
 90
        2
 91
        1
300
_HEADER
309
CELLSTYLE_END
300
CELLSTYLE
  1
TABLEFORMAT_BEGIN
 90
        5
170
     1
 91
        0
 92
        0
 62
   257
 93
        1
300
CONTENTFORMAT
  1
CONTENTFORMAT_BEGIN
 90
        0
 91
        0
 92
        4
 93
        0
300

 40
0.0
140
1.0
 94
        2
 62
     0
340
11
144
4.5
309
CONTENTFORMAT_END
171
     1
301
MARGIN
  1
CELLMARGIN_BEGIN
 40
1.5
 40
1.5
 40
1.5
 40
1.5
 40
0.18
 40
0.18
309
CELLMARGIN_END
 94
        6
 95
        1
302
GRIDFORMAT
  1
GRIDFORMAT_BEGIN
 90
        0
 91
        1
 62
     0
 92
       -2
340
0
 93
        0
 40
0.045
309
GRIDFORMAT_END
 95
        2
302
GRIDFORMAT
  1
GRIDFORMAT_BEGIN
 90
        0
 91
        1
 62
     0
 92
       -2
340
0
 93
        0
 40
0.045
309
GRIDFORMAT_END
 95
        4
302
GRIDFORMAT
  1
GRIDFORMAT_BEGIN
 90
        0
 91
        1
 62
     0
 92
       -2
340
0
 93
        0
 40
0.045
309
GRIDFORMAT_END
 95
        8
302
GRIDFORMAT
  1
GRIDFORMAT_BEGIN
 90
        0
 91
        1
 62
     0
 92
       -2
340
0
 93
        0
 40
0.045
309
GRIDFORMAT_END
 95
       16
302
GRIDFORMAT
  1
GRIDFORMAT_BEGIN
 90
        0
 91
        1
 62
     0
 92
       -2
340
0
 93
        0
 40
0.045
309
GRIDFORMAT_END
 95
       32
302
GRIDFORMAT
  1
GRIDFORMAT_BEGIN
 90
        0
 91
        1
 62
     0
 92
       -2
340
0
 93
        0
 40
0.045
309
GRIDFORMAT_END
309
TABLEFORMAT_END
  1
CELLSTYLE_BEGIN
 90
        3
 91
        2
300
_DATA
309
CELLSTYLE_END
  0
XRECORD
  5
BA9
102
{ACAD_REACTORS
330
BA4
102
}
330
BA4
100
AcDbXrecord
280
     1
102
ACAD_ROUNDTRIP_PRE2007_TABLESTYLE
 90
        4
 91
        0
  1

 92
        4
 93
        0
  2

 94
        4
 95
        0
  3

  0
XRECORD
  5
BBA
102
{ACAD_REACTORS
330
BB9
102
}
330
BB9
100
AcDbXrecord
280
     1
102
RTVSPropertyOp0
 70
     1
102
RTVSPropertyOp1
 70
     1
102
RTVSPropertyOp2
 70
     1
102
RTVSPropertyOp3
 70
     1
102
RTVSPropertyOp4
 70
     1
102
RTVSPropertyOp5
 70
     1
102
RTVSPropertyOp6
 70
     1
102
RTVSPropertyOp7
 70
     1
102
RTVSPropertyOp8
 70
     1
102
RTVSPropertyOp9
 70
     1
102
RTVSPropertyOp10
 70
     1
102
RTVSPropertyOp11
 70
     1
102
RTVSPropertyOp12
 70
     1
102
RTVSPropertyOp13
 70
     1
102
RTVSPropertyOp14
 70
     1
102
RTVSPropertyOp15
 70
     1
102
RTVSPropertyOp16
 70
     1
102
RTVSPropertyOp17
 70
     1
102
RTVSPropertyOp18
 70
     1
102
RTVSPropertyOp19
 70
     1
102
RTVSPropertyOp20
 70
     1
102
RTVSPropertyOp21
 70
     1
102
RTVSPropertyOp22
 70
     1
102
RTVSPropertyOp23
 70
     1
102
RTVSPropertyOp24
 70
     1
102
RTVSPropertyOp25
 70
     1
102
RTVSPropertyOp26
 70
     1
102
RTVSPropertyOp27
 70
     1
  0
XRECORD
  5
BBE
102
{ACAD_REACTORS
330
BBD
102
}
330
BBD
100
AcDbXrecord
280
     1
102
RTVSPropertyOp0
 70
     1
102
RTVSPropertyOp1
 70
     1
102
RTVSPropertyOp2
 70
     1
102
RTVSPropertyOp3
 70
     1
102
RTVSPropertyOp4
 70
     1
102
RTVSPropertyOp5
 70
     1
102
RTVSPropertyOp6
 70
     1
102
RTVSPropertyOp7
 70
     1
102
RTVSPropertyOp8
 70
     1
102
RTVSPropertyOp9
 70
     1
102
RTVSPropertyOp10
 70
     1
102
RTVSPropertyOp11
 70
     1
102
RTVSPropertyOp12
 70
     1
102
RTVSPropertyOp13
 70
     1
102
RTVSPropertyOp14
 70
     1
102
RTVSPropertyOp15
 70
     1
102
RTVSPropertyOp16
 70
     1
102
RTVSPropertyOp17
 70
     1
102
RTVSPropertyOp18
 70
     1
102
RTVSPropertyOp19
 70
     1
102
RTVSPropertyOp20
 70
     1
102
RTVSPropertyOp21
 70
     1
102
RTVSPropertyOp22
 70
     1
102
RTVSPropertyOp23
 70
     1
102
RTVSPropertyOp24
 70
     1
102
RTVSPropertyOp25
 70
     1
102
RTVSPropertyOp26
 70
     1
102
RTVSPropertyOp27
 70
     1
  0
XRECORD
  5
BBC
102
{ACAD_REACTORS
330
BBB
102
}
330
BBB
100
AcDbXrecord
280
     1
102
RTVSPropertyOp0
 70
     1
102
RTVSPropertyOp1
 70
     1
102
RTVSPropertyOp2
 70
     1
102
RTVSPropertyOp3
 70
     1
102
RTVSPropertyOp4
 70
     1
102
RTVSPropertyOp5
 70
     1
102
RTVSPropertyOp6
 70
     1
102
RTVSPropertyOp7
 70
     1
102
RTVSPropertyOp8
 70
     1
102
RTVSPropertyOp9
 70
     1
102
RTVSPropertyOp10
 70
     1
102
RTVSPropertyOp11
 70
     1
102
RTVSPropertyOp12
 70
     1
102
RTVSPropertyOp13
 70
     1
102
RTVSPropertyOp14
 70
     1
102
RTVSPropertyOp15
 70
     1
102
RTVSPropertyOp16
 70
     1
102
RTVSPropertyOp17
 70
     1
102
RTVSPropertyOp18
 70
     1
102
RTVSPropertyOp19
 70
     1
102
RTVSPropertyOp20
 70
     1
102
RTVSPropertyOp21
 70
     1
102
RTVSPropertyOp22
 70
     1
102
RTVSPropertyOp23
 70
     1
102
RTVSPropertyOp24
 70
     1
102
RTVSPropertyOp25
 70
     1
102
RTVSPropertyOp26
 70
     1
102
RTVSPropertyOp27
 70
     1
  0
XRECORD
  5
BB8
102
{ACAD_REACTORS
330
BB7
102
}
330
BB7
100
AcDbXrecord
280
     1
102
RTVSPropertyOp0
 70
     1
102
RTVSPropertyOp1
 70
     1
102
RTVSPropertyOp2
 70
     1
102
RTVSPropertyOp3
 70
     1
102
RTVSPropertyOp4
 70
     1
102
RTVSPropertyOp5
 70
     1
102
RTVSPropertyOp6
 70
     1
102
RTVSPropertyOp7
 70
     1
102
RTVSPropertyOp8
 70
     1
102
RTVSPropertyOp9
 70
     1
102
RTVSPropertyOp10
 70
     1
102
RTVSPropertyOp11
 70
     1
102
RTVSPropertyOp12
 70
     1
102
RTVSPropertyOp13
 70
     1
102
RTVSPropertyOp14
 70
     1
102
RTVSPropertyOp15
 70
     1
102
RTVSPropertyOp16
 70
     1
102
RTVSPropertyOp17
 70
     1
102
RTVSPropertyOp18
 70
     1
102
RTVSPropertyOp19
 70
     1
102
RTVSPropertyOp20
 70
     1
102
RTVSPropertyOp21
 70
     1
102
RTVSPropertyOp22
 70
     1
102
RTVSPropertyOp23
 70
     1
102
RTVSPropertyOp24
 70
     1
102
RTVSPropertyOp25
 70
     1
102
RTVSPropertyOp26
 70
     1
102
RTVSPropertyOp27
 70
     1
  0
XRECORD
  5
BC6
102
{ACAD_REACTORS
330
BC5
102
}
330
BC5
100
AcDbXrecord
280
     1
102
RTVSPropertyOp0
 70
     1
102
RTVSPropertyOp1
 70
     1
102
RTVSPropertyOp2
 70
     1
102
RTVSPropertyOp3
 70
     1
102
RTVSPropertyOp4
 70
     1
102
RTVSPropertyOp5
 70
     1
102
RTVSPropertyOp6
 70
     1
102
RTVSPropertyOp7
 70
     1
102
RTVSPropertyOp8
 70
     1
102
RTVSPropertyOp9
 70
     1
102
RTVSPropertyOp10
 70
     1
102
RTVSPropertyOp11
 70
     1
102
RTVSPropertyOp12
 70
     1
102
RTVSPropertyOp13
 70
     1
102
RTVSPropertyOp14
 70
     1
102
RTVSPropertyOp15
 70
     1
102
RTVSPropertyOp16
 70
     1
102
RTVSPropertyOp17
 70
     1
102
RTVSPropertyOp18
 70
     1
102
RTVSPropertyOp19
 70
     1
102
RTVSPropertyOp20
 70
     1
102
RTVSPropertyOp21
 70
     1
102
RTVSPropertyOp22
 70
     1
102
RTVSPropertyOp23
 70
     1
102
RTVSPropertyOp24
 70
     1
102
RTVSPropertyOp25
 70
     1
102
RTVSPropertyOp26
 70
     1
102
RTVSPropertyOp27
 70
     1
  0
XRECORD
  5
BCE
102
{ACAD_REACTORS
330
BCD
102
}
330
BCD
100
AcDbXrecord
280
     1
102
RTVSPropertyOp0
 70
     1
102
RTVSPropertyOp1
 70
     1
102
RTVSPropertyOp2
 70
     1
102
RTVSPropertyOp3
 70
     1
102
RTVSPropertyOp4
 70
     1
102
RTVSPropertyOp5
 70
     1
102
RTVSPropertyOp6
 70
     1
102
RTVSPropertyOp7
 70
     1
102
RTVSPropertyOp8
 70
     1
102
RTVSPropertyOp9
 70
     1
102
RTVSPropertyOp10
 70
     1
102
RTVSPropertyOp11
 70
     1
102
RTVSPropertyOp12
 70
     1
102
RTVSPropertyOp13
 70
     1
102
RTVSPropertyOp14
 70
     1
102
RTVSPropertyOp15
 70
     1
102
RTVSPropertyOp16
 70
     1
102
RTVSPropertyOp17
 70
     1
102
RTVSPropertyOp18
 70
     1
102
RTVSPropertyOp19
 70
     1
102
RTVSPropertyOp20
 70
     1
102
RTVSPropertyOp21
 70
     1
102
RTVSPropertyOp22
 70
     1
102
RTVSPropertyOp23
 70
     1
102
RTVSPropertyOp24
 70
     1
102
RTVSPropertyOp25
 70
     1
102
RTVSPropertyOp26
 70
     1
102
RTVSPropertyOp27
 70
     1
  0
XRECORD
  5
BC0
102
{ACAD_REACTORS
330
BBF
102
}
330
BBF
100
AcDbXrecord
280
     1
102
RTVSPropertyOp0
 70
     1
102
RTVSPropertyOp1
 70
     1
102
RTVSPropertyOp2
 70
     1
102
RTVSPropertyOp3
 70
     1
102
RTVSPropertyOp4
 70
     1
102
RTVSPropertyOp5
 70
     1
102
RTVSPropertyOp6
 70
     1
102
RTVSPropertyOp7
 70
     1
102
RTVSPropertyOp8
 70
     1
102
RTVSPropertyOp9
 70
     1
102
RTVSPropertyOp10
 70
     1
102
RTVSPropertyOp11
 70
     1
102
RTVSPropertyOp12
 70
     1
102
RTVSPropertyOp13
 70
     1
102
RTVSPropertyOp14
 70
     1
102
RTVSPropertyOp15
 70
     1
102
RTVSPropertyOp16
 70
     1
102
RTVSPropertyOp17
 70
     1
102
RTVSPropertyOp18
 70
     1
102
RTVSPropertyOp19
 70
     1
102
RTVSPropertyOp20
 70
     1
102
RTVSPropertyOp21
 70
     1
102
RTVSPropertyOp22
 70
     1
102
RTVSPropertyOp23
 70
     1
102
RTVSPropertyOp24
 70
     1
102
RTVSPropertyOp25
 70
     1
102
RTVSPropertyOp26
 70
     1
102
RTVSPropertyOp27
 70
     1
  0
XRECORD
  5
BC4
102
{ACAD_REACTORS
330
BC3
102
}
330
BC3
100
AcDbXrecord
280
     1
102
RTVSPropertyOp0
 70
     1
102
RTVSPropertyOp1
 70
     1
102
RTVSPropertyOp2
 70
     1
102
RTVSPropertyOp3
 70
     1
102
RTVSPropertyOp4
 70
     1
102
RTVSPropertyOp5
 70
     1
102
RTVSPropertyOp6
 70
     1
102
RTVSPropertyOp7
 70
     1
102
RTVSPropertyOp8
 70
     1
102
RTVSPropertyOp9
 70
     1
102
RTVSPropertyOp10
 70
     1
102
RTVSPropertyOp11
 70
     1
102
RTVSPropertyOp12
 70
     1
102
RTVSPropertyOp13
 70
     1
102
RTVSPropertyOp14
 70
     1
102
RTVSPropertyOp15
 70
     1
102
RTVSPropertyOp16
 70
     1
102
RTVSPropertyOp17
 70
     1
102
RTVSPropertyOp18
 70
     1
102
RTVSPropertyOp19
 70
     1
102
RTVSPropertyOp20
 70
     1
102
RTVSPropertyOp21
 70
     1
102
RTVSPropertyOp22
 70
     1
102
RTVSPropertyOp23
 70
     1
102
RTVSPropertyOp24
 70
     1
102
RTVSPropertyOp25
 70
     1
102
RTVSPropertyOp26
 70
     1
102
RTVSPropertyOp27
 70
     1
  0
XRECORD
  5
BD4
102
{ACAD_REACTORS
330
BD3
102
}
330
BD3
100
AcDbXrecord
280
     1
102
RTVSPropertyOp0
 70
     0
102
RTVSPropertyOp1
 70
     0
102
RTVSPropertyOp2
 70
     0
102
RTVSPropertyOp3
 70
     0
102
RTVSPropertyOp4
 70
     0
102
RTVSPropertyOp5
 70
     0
102
RTVSPropertyOp6
 70
     0
102
RTVSPropertyOp7
 70
     0
102
RTVSPropertyOp8
 70
     0
102
RTVSPropertyOp9
 70
     0
102
RTVSPropertyOp10
 70
     0
102
RTVSPropertyOp11
 70
     0
102
RTVSPropertyOp12
 70
     0
102
RTVSPropertyOp13
 70
     0
102
RTVSPropertyOp14
 70
     2
102
RTVSPropertyOp15
 70
     0
102
RTVSPropertyOp16
 70
     0
102
RTVSPropertyOp17
 70
     0
102
RTVSPropertyOp18
 70
     0
102
RTVSPropertyOp19
 70
     0
102
RTVSPropertyOp20
 70
     0
102
RTVSPropertyOp21
 70
     0
102
RTVSPropertyOp22
 70
     0
102
RTVSPropertyOp23
 70
     0
102
RTVSPropertyOp24
 70
     0
102
RTVSPropertyOp25
 70
     0
102
RTVSPropertyOp26
 70
     0
102
RTVSPropertyOp27
 70
     0
  0
XRECORD
  5
BCC
102
{ACAD_REACTORS
330
BCB
102
}
330
BCB
100
AcDbXrecord
280
     1
102
RTVSPropertyOp0
 70
     1
102
RTVSPropertyOp1
 70
     1
102
RTVSPropertyOp2
 70
     1
102
RTVSPropertyOp3
 70
     1
102
RTVSPropertyOp4
 70
     1
102
RTVSPropertyOp5
 70
     1
102
RTVSPropertyOp6
 70
     1
102
RTVSPropertyOp7
 70
     1
102
RTVSPropertyOp8
 70
     1
102
RTVSPropertyOp9
 70
     1
102
RTVSPropertyOp10
 70
     1
102
RTVSPropertyOp11
 70
     1
102
RTVSPropertyOp12
 70
     1
102
RTVSPropertyOp13
 70
     1
102
RTVSPropertyOp14
 70
     1
102
RTVSPropertyOp15
 70
     1
102
RTVSPropertyOp16
 70
     1
102
RTVSPropertyOp17
 70
     1
102
RTVSPropertyOp18
 70
     1
102
RTVSPropertyOp19
 70
     1
102
RTVSPropertyOp20
 70
     1
102
RTVSPropertyOp21
 70
     1
102
RTVSPropertyOp22
 70
     1
102
RTVSPropertyOp23
 70
     1
102
RTVSPropertyOp24
 70
     1
102
RTVSPropertyOp25
 70
     1
102
RTVSPropertyOp26
 70
     1
102
RTVSPropertyOp27
 70
     1
  0
XRECORD
  5
BB0
102
{ACAD_REACTORS
330
BAF
102
}
330
BAF
100
AcDbXrecord
280
     1
102
RTVSPropertyOp0
 70
     1
102
RTVSPropertyOp1
 70
     1
102
RTVSPropertyOp2
 70
     1
102
RTVSPropertyOp3
 70
     1
102
RTVSPropertyOp4
 70
     1
102
RTVSPropertyOp5
 70
     1
102
RTVSPropertyOp6
 70
     1
102
RTVSPropertyOp7
 70
     1
102
RTVSPropertyOp8
 70
     1
102
RTVSPropertyOp9
 70
     1
102
RTVSPropertyOp10
 70
     1
102
RTVSPropertyOp11
 70
     1
102
RTVSPropertyOp12
 70
     1
102
RTVSPropertyOp13
 70
     1
102
RTVSPropertyOp14
 70
     1
102
RTVSPropertyOp15
 70
     1
102
RTVSPropertyOp16
 70
     1
102
RTVSPropertyOp17
 70
     1
102
RTVSPropertyOp18
 70
     1
102
RTVSPropertyOp19
 70
     1
102
RTVSPropertyOp20
 70
     1
102
RTVSPropertyOp21
 70
     1
102
RTVSPropertyOp22
 70
     1
102
RTVSPropertyOp23
 70
     1
102
RTVSPropertyOp24
 70
     1
102
RTVSPropertyOp25
 70
     1
102
RTVSPropertyOp26
 70
     1
102
RTVSPropertyOp27
 70
     1
  0
XRECORD
  5
BB2
102
{ACAD_REACTORS
330
BB1
102
}
330
BB1
100
AcDbXrecord
280
     1
102
RTVSPropertyOp0
 70
     1
102
RTVSPropertyOp1
 70
     1
102
RTVSPropertyOp2
 70
     1
102
RTVSPropertyOp3
 70
     1
102
RTVSPropertyOp4
 70
     1
102
RTVSPropertyOp5
 70
     1
102
RTVSPropertyOp6
 70
     1
102
RTVSPropertyOp7
 70
     1
102
RTVSPropertyOp8
 70
     1
102
RTVSPropertyOp9
 70
     1
102
RTVSPropertyOp10
 70
     1
102
RTVSPropertyOp11
 70
     1
102
RTVSPropertyOp12
 70
     1
102
RTVSPropertyOp13
 70
     1
102
RTVSPropertyOp14
 70
     1
102
RTVSPropertyOp15
 70
     1
102
RTVSPropertyOp16
 70
     1
102
RTVSPropertyOp17
 70
     1
102
RTVSPropertyOp18
 70
     1
102
RTVSPropertyOp19
 70
     1
102
RTVSPropertyOp20
 70
     1
102
RTVSPropertyOp21
 70
     1
102
RTVSPropertyOp22
 70
     1
102
RTVSPropertyOp23
 70
     1
102
RTVSPropertyOp24
 70
     1
102
RTVSPropertyOp25
 70
     1
102
RTVSPropertyOp26
 70
     1
102
RTVSPropertyOp27
 70
     1
  0
XRECORD
  5
BB4
102
{ACAD_REACTORS
330
BB3
102
}
330
BB3
100
AcDbXrecord
280
     1
102
RTVSPropertyOp0
 70
     1
102
RTVSPropertyOp1
 70
     1
102
RTVSPropertyOp2
 70
     1
102
RTVSPropertyOp3
 70
     1
102
RTVSPropertyOp4
 70
     1
102
RTVSPropertyOp5
 70
     1
102
RTVSPropertyOp6
 70
     1
102
RTVSPropertyOp7
 70
     1
102
RTVSPropertyOp8
 70
     1
102
RTVSPropertyOp9
 70
     1
102
RTVSPropertyOp10
 70
     1
102
RTVSPropertyOp11
 70
     1
102
RTVSPropertyOp12
 70
     1
102
RTVSPropertyOp13
 70
     1
102
RTVSPropertyOp14
 70
     1
102
RTVSPropertyOp15
 70
     1
102
RTVSPropertyOp16
 70
     1
102
RTVSPropertyOp17
 70
     1
102
RTVSPropertyOp18
 70
     1
102
RTVSPropertyOp19
 70
     1
102
RTVSPropertyOp20
 70
     1
102
RTVSPropertyOp21
 70
     1
102
RTVSPropertyOp22
 70
     1
102
RTVSPropertyOp23
 70
     1
102
RTVSPropertyOp24
 70
     1
102
RTVSPropertyOp25
 70
     1
102
RTVSPropertyOp26
 70
     1
102
RTVSPropertyOp27
 70
     1
  0
XRECORD
  5
BB6
102
{ACAD_REACTORS
330
BB5
102
}
330
BB5
100
AcDbXrecord
280
     1
102
RTVSPropertyOp0
 70
     1
102
RTVSPropertyOp1
 70
     1
102
RTVSPropertyOp2
 70
     1
102
RTVSPropertyOp3
 70
     1
102
RTVSPropertyOp4
 70
     1
102
RTVSPropertyOp5
 70
     1
102
RTVSPropertyOp6
 70
     1
102
RTVSPropertyOp7
 70
     1
102
RTVSPropertyOp8
 70
     1
102
RTVSPropertyOp9
 70
     1
102
RTVSPropertyOp10
 70
     1
102
RTVSPropertyOp11
 70
     1
102
RTVSPropertyOp12
 70
     1
102
RTVSPropertyOp13
 70
     1
102
RTVSPropertyOp14
 70
     1
102
RTVSPropertyOp15
 70
     1
102
RTVSPropertyOp16
 70
     1
102
RTVSPropertyOp17
 70
     1
102
RTVSPropertyOp18
 70
     1
102
RTVSPropertyOp19
 70
     1
102
RTVSPropertyOp20
 70
     1
102
RTVSPropertyOp21
 70
     1
102
RTVSPropertyOp22
 70
     1
102
RTVSPropertyOp23
 70
     1
102
RTVSPropertyOp24
 70
     1
102
RTVSPropertyOp25
 70
     1
102
RTVSPropertyOp26
 70
     1
102
RTVSPropertyOp27
 70
     1
  0
XRECORD
  5
BD0
102
{ACAD_REACTORS
330
BCF
102
}
330
BCF
100
AcDbXrecord
280
     1
102
RTVSPropertyOp0
 70
     0
102
RTVSPropertyOp1
 70
     0
102
RTVSPropertyOp2
 70
     0
102
RTVSPropertyOp3
 70
     0
102
RTVSPropertyOp4
 70
     0
102
RTVSPropertyOp5
 70
     0
102
RTVSPropertyOp6
 70
     0
102
RTVSPropertyOp7
 70
     0
102
RTVSPropertyOp8
 70
     0
102
RTVSPropertyOp9
 70
     0
102
RTVSPropertyOp10
 70
     0
102
RTVSPropertyOp11
 70
     0
102
RTVSPropertyOp12
 70
     0
102
RTVSPropertyOp13
 70
     0
102
RTVSPropertyOp14
 70
     2
102
RTVSPropertyOp15
 70
     0
102
RTVSPropertyOp16
 70
     0
102
RTVSPropertyOp17
 70
     0
102
RTVSPropertyOp18
 70
     0
102
RTVSPropertyOp19
 70
     0
102
RTVSPropertyOp20
 70
     0
102
RTVSPropertyOp21
 70
     0
102
RTVSPropertyOp22
 70
     0
102
RTVSPropertyOp23
 70
     0
102
RTVSPropertyOp24
 70
     0
102
RTVSPropertyOp25
 70
     0
102
RTVSPropertyOp26
 70
     0
102
RTVSPropertyOp27
 70
     0
  0
XRECORD
  5
BCA
102
{ACAD_REACTORS
330
BC9
102
}
330
BC9
100
AcDbXrecord
280
     1
102
RTVSPropertyOp0
 70
     1
102
RTVSPropertyOp1
 70
     1
102
RTVSPropertyOp2
 70
     1
102
RTVSPropertyOp3
 70
     1
102
RTVSPropertyOp4
 70
     1
102
RTVSPropertyOp5
 70
     1
102
RTVSPropertyOp6
 70
     1
102
RTVSPropertyOp7
 70
     1
102
RTVSPropertyOp8
 70
     1
102
RTVSPropertyOp9
 70
     1
102
RTVSPropertyOp10
 70
     1
102
RTVSPropertyOp11
 70
     1
102
RTVSPropertyOp12
 70
     1
102
RTVSPropertyOp13
 70
     1
102
RTVSPropertyOp14
 70
     1
102
RTVSPropertyOp15
 70
     1
102
RTVSPropertyOp16
 70
     1
102
RTVSPropertyOp17
 70
     1
102
RTVSPropertyOp18
 70
     1
102
RTVSPropertyOp19
 70
     1
102
RTVSPropertyOp20
 70
     1
102
RTVSPropertyOp21
 70
     1
102
RTVSPropertyOp22
 70
     1
102
RTVSPropertyOp23
 70
     1
102
RTVSPropertyOp24
 70
     1
102
RTVSPropertyOp25
 70
     1
102
RTVSPropertyOp26
 70
     1
102
RTVSPropertyOp27
 70
     1
  0
XRECORD
  5
BD2
102
{ACAD_REACTORS
330
BD1
102
}
330
BD1
100
AcDbXrecord
280
     1
102
RTVSPropertyOp0
 70
     0
102
RTVSPropertyOp1
 70
     0
102
RTVSPropertyOp2
 70
     0
102
RTVSPropertyOp3
 70
     0
102
RTVSPropertyOp4
 70
     0
102
RTVSPropertyOp5
 70
     0
102
RTVSPropertyOp6
 70
     0
102
RTVSPropertyOp7
 70
     0
102
RTVSPropertyOp8
 70
     0
102
RTVSPropertyOp9
 70
     0
102
RTVSPropertyOp10
 70
     0
102
RTVSPropertyOp11
 70
     0
102
RTVSPropertyOp12
 70
     0
102
RTVSPropertyOp13
 70
     0
102
RTVSPropertyOp14
 70
     2
102
RTVSPropertyOp15
 70
     0
102
RTVSPropertyOp16
 70
     0
102
RTVSPropertyOp17
 70
     0
102
RTVSPropertyOp18
 70
     0
102
RTVSPropertyOp19
 70
     0
102
RTVSPropertyOp20
 70
     0
102
RTVSPropertyOp21
 70
     0
102
RTVSPropertyOp22
 70
     0
102
RTVSPropertyOp23
 70
     0
102
RTVSPropertyOp24
 70
     0
102
RTVSPropertyOp25
 70
     0
102
RTVSPropertyOp26
 70
     0
102
RTVSPropertyOp27
 70
     0
  0
XRECORD
  5
BC2
102
{ACAD_REACTORS
330
BC1
102
}
330
BC1
100
AcDbXrecord
280
     1
102
RTVSPropertyOp0
 70
     1
102
RTVSPropertyOp1
 70
     1
102
RTVSPropertyOp2
 70
     1
102
RTVSPropertyOp3
 70
     1
102
RTVSPropertyOp4
 70
     1
102
RTVSPropertyOp5
 70
     1
102
RTVSPropertyOp6
 70
     1
102
RTVSPropertyOp7
 70
     1
102
RTVSPropertyOp8
 70
     1
102
RTVSPropertyOp9
 70
     1
102
RTVSPropertyOp10
 70
     1
102
RTVSPropertyOp11
 70
     1
102
RTVSPropertyOp12
 70
     1
102
RTVSPropertyOp13
 70
     1
102
RTVSPropertyOp14
 70
     1
102
RTVSPropertyOp15
 70
     1
102
RTVSPropertyOp16
 70
     1
102
RTVSPropertyOp17
 70
     1
102
RTVSPropertyOp18
 70
     1
102
RTVSPropertyOp19
 70
     1
102
RTVSPropertyOp20
 70
     1
102
RTVSPropertyOp21
 70
     1
102
RTVSPropertyOp22
 70
     1
102
RTVSPropertyOp23
 70
     1
102
RTVSPropertyOp24
 70
     1
102
RTVSPropertyOp25
 70
     1
102
RTVSPropertyOp26
 70
     1
102
RTVSPropertyOp27
 70
     1
  0
XRECORD
  5
BC8
102
{ACAD_REACTORS
330
BC7
102
}
330
BC7
100
AcDbXrecord
280
     1
102
RTVSPropertyOp0
 70
     1
102
RTVSPropertyOp1
 70
     1
102
RTVSPropertyOp2
 70
     1
102
RTVSPropertyOp3
 70
     1
102
RTVSPropertyOp4
 70
     1
102
RTVSPropertyOp5
 70
     1
102
RTVSPropertyOp6
 70
     1
102
RTVSPropertyOp7
 70
     1
102
RTVSPropertyOp8
 70
     1
102
RTVSPropertyOp9
 70
     1
102
RTVSPropertyOp10
 70
     1
102
RTVSPropertyOp11
 70
     1
102
RTVSPropertyOp12
 70
     1
102
RTVSPropertyOp13
 70
     1
102
RTVSPropertyOp14
 70
     1
102
RTVSPropertyOp15
 70
     1
102
RTVSPropertyOp16
 70
     1
102
RTVSPropertyOp17
 70
     1
102
RTVSPropertyOp18
 70
     1
102
RTVSPropertyOp19
 70
     1
102
RTVSPropertyOp20
 70
     1
102
RTVSPropertyOp21
 70
     1
102
RTVSPropertyOp22
 70
     1
102
RTVSPropertyOp23
 70
     1
102
RTVSPropertyOp24
 70
     1
102
RTVSPropertyOp25
 70
     1
102
RTVSPropertyOp26
 70
     1
102
RTVSPropertyOp27
 70
     1
  0
ENDSEC
  0
EOF
