  0
SECTION
  2
HEADER
  9
$ACADVER
  1
AC1015
  9
$ACADMAINTVER
 70
    20
  9
$DWGCODEPAGE
  3
ANSI_1252
  9
$INSBASE
 10
0.0
 20
0.0
 30
0.0
  9
$EXTMIN
 10
440.8883352506996
 20
372.0124282458864
 30
-0.000000000000013
  9
$EXTMAX
 10
782.5760106358639
 20
857.9996994214289
 30
0.0000000000000023
  9
$LIMMIN
 10
-498.2105018670574
 20
-393.7691994433651
  9
$LIMMAX
 10
95.78949813294249
 20
26.23080055663494
  9
$ORTHOMODE
 70
     0
  9
$REGENMODE
 70
     1
  9
$FILLMODE
 70
     1
  9
$QTEXTMODE
 70
     0
  9
$MIRRTEXT
 70
     1
  9
$LTSCALE
 40
1.0
  9
$ATTMODE
 70
     1
  9
$TEXTSIZE
 40
2.5
  9
$TRACEWID
 40
1.0
  9
$TEXTSTYLE
  7
Standard
  9
$CLAYER
  8
P-0000
  9
$CELTYPE
  6
ByLayer
  9
$CECOLOR
 62
   256
  9
$CELTSCALE
 40
1.0
  9
$DISPSILH
 70
     0
  9
$DIMSCALE
 40
1.0
  9
$DIMASZ
 40
2.5
  9
$DIMEXO
 40
0.625
  9
$DIMDLI
 40
3.75
  9
$DIMRND
 40
0.0
  9
$DIMDLE
 40
0.0
  9
$DIMEXE
 40
1.25
  9
$DIMTP
 40
0.0
  9
$DIMTM
 40
0.0
  9
$DIMTXT
 40
2.5
  9
$DIMCEN
 40
2.5
  9
$DIMTSZ
 40
0.0
  9
$DIMTOL
 70
     0
  9
$DIMLIM
 70
     0
  9
$DIMTIH
 70
     0
  9
$DIMTOH
 70
     0
  9
$DIMSE1
 70
     0
  9
$DIMSE2
 70
     0
  9
$DIMTAD
 70
     1
  9
$DIMZIN
 70
     8
  9
$DIMBLK
  1

  9
$DIMASO
 70
     1
  9
$DIMSHO
 70
     1
  9
$DIMPOST
  1

  9
$DIMAPOST
  1

  9
$DIMALT
 70
     0
  9
$DIMALTD
 70
     3
  9
$DIMALTF
 40
0.03937007874016
  9
$DIMLFAC
 40
1.0
  9
$DIMTOFL
 70
     1
  9
$DIMTVP
 40
0.0
  9
$DIMTIX
 70
     0
  9
$DIMSOXD
 70
     0
  9
$DIMSAH
 70
     0
  9
$DIMBLK1
  1

  9
$DIMBLK2
  1

  9
$DIMSTYLE
  2
ISO-25
  9
$DIMCLRD
 70
     0
  9
$DIMCLRE
 70
     0
  9
$DIMCLRT
 70
     0
  9
$DIMTFAC
 40
1.0
  9
$DIMGAP
 40
0.625
  9
$DIMJUST
 70
     0
  9
$DIMSD1
 70
     0
  9
$DIMSD2
 70
     0
  9
$DIMTOLJ
 70
     0
  9
$DIMTZIN
 70
     8
  9
$DIMALTZ
 70
     0
  9
$DIMALTTZ
 70
     0
  9
$DIMUPT
 70
     0
  9
$DIMDEC
 70
     2
  9
$DIMTDEC
 70
     2
  9
$DIMALTU
 70
     2
  9
$DIMALTTD
 70
     3
  9
$DIMTXSTY
  7
Standard
  9
$DIMAUNIT
 70
     0
  9
$DIMADEC
 70
     0
  9
$DIMALTRND
 40
0.0
  9
$DIMAZIN
 70
     0
  9
$DIMDSEP
 70
    44
  9
$DIMATFIT
 70
     3
  9
$DIMFRAC
 70
     0
  9
$DIMLDRBLK
  1

  9
$DIMLUNIT
 70
     2
  9
$DIMLWD
 70
    -2
  9
$DIMLWE
 70
    -2
  9
$DIMTMOVE
 70
     0
  9
$LUNITS
 70
     2
  9
$LUPREC
 70
     4
  9
$SKETCHINC
 40
1.0
  9
$FILLETRAD
 40
10.0
  9
$AUNITS
 70
     0
  9
$AUPREC
 70
     0
  9
$MENU
  1
.
  9
$ELEVATION
 40
0.0
  9
$PELEVATION
 40
0.0
  9
$THICKNESS
 40
0.0
  9
$LIMCHECK
 70
     0
  9
$CHAMFERA
 40
10.0
  9
$CHAMFERB
 40
10.0
  9
$CHAMFERC
 40
20.0
  9
$CHAMFERD
 40
0.0
  9
$SKPOLY
 70
     0
  9
$TDCREATE
 40
2453638.623351354
  9
$TDUCREATE
 40
2453638.540018021
  9
$TDUPDATE
 40
2454032.754737685
  9
$TDUUPDATE
 40
2454032.671404352
  9
$TDINDWG
 40
0.0155053009
  9
$TDUSRTIMER
 40
0.0155051852
  9
$USRTIMER
 70
     1
  9
$ANGBASE
 50
0.0
  9
$ANGDIR
 70
     0
  9
$PDMODE
 70
     0
  9
$PDSIZE
 40
0.0
  9
$PLINEWID
 40
0.0
  9
$SPLFRAME
 70
     0
  9
$SPLINETYPE
 70
     6
  9
$SPLINESEGS
 70
     8
  9
$HANDSEED
  5
CAB
  9
$SURFTAB1
 70
     6
  9
$SURFTAB2
 70
     6
  9
$SURFTYPE
 70
     6
  9
$SURFU
 70
     6
  9
$SURFV
 70
     6
  9
$UCSBASE
  2

  9
$UCSNAME
  2

  9
$UCSORG
 10
0.0
 20
0.0
 30
0.0
  9
$UCSXDIR
 10
1.0
 20
0.0
 30
0.0
  9
$UCSYDIR
 10
0.0
 20
1.0
 30
0.0
  9
$UCSORTHOREF
  2

  9
$UCSORTHOVIEW
 70
     0
  9
$UCSORGTOP
 10
0.0
 20
0.0
 30
0.0
  9
$UCSORGBOTTOM
 10
0.0
 20
0.0
 30
0.0
  9
$UCSORGLEFT
 10
0.0
 20
0.0
 30
0.0
  9
$UCSORGRIGHT
 10
0.0
 20
0.0
 30
0.0
  9
$UCSORGFRONT
 10
0.0
 20
0.0
 30
0.0
  9
$UCSORGBACK
 10
0.0
 20
0.0
 30
0.0
  9
$PUCSBASE
  2

  9
$PUCSNAME
  2

  9
$PUCSORG
 10
0.0
 20
0.0
 30
0.0
  9
$PUCSXDIR
 10
1.0
 20
0.0
 30
0.0
  9
$PUCSYDIR
 10
0.0
 20
1.0
 30
0.0
  9
$PUCSORTHOREF
  2

  9
$PUCSORTHOVIEW
 70
     0
  9
$PUCSORGTOP
 10
0.0
 20
0.0
 30
0.0
  9
$PUCSORGBOTTOM
 10
0.0
 20
0.0
 30
0.0
  9
$PUCSORGLEFT
 10
0.0
 20
0.0
 30
0.0
  9
$PUCSORGRIGHT
 10
0.0
 20
0.0
 30
0.0
  9
$PUCSORGFRONT
 10
0.0
 20
0.0
 30
0.0
  9
$PUCSORGBACK
 10
0.0
 20
0.0
 30
0.0
  9
$USERI1
 70
     0
  9
$USERI2
 70
     0
  9
$USERI3
 70
     0
  9
$USERI4
 70
     0
  9
$USERI5
 70
     0
  9
$USERR1
 40
0.0
  9
$USERR2
 40
0.0
  9
$USERR3
 40
0.0
  9
$USERR4
 40
0.0
  9
$USERR5
 40
0.0
  9
$WORLDVIEW
 70
     1
  9
$SHADEDGE
 70
     3
  9
$SHADEDIF
 70
    70
  9
$TILEMODE
 70
     1
  9
$MAXACTVP
 70
    64
  9
$PINSBASE
 10
0.0
 20
0.0
 30
0.0
  9
$PLIMCHECK
 70
     0
  9
$PEXTMIN
 10
1.000000000000000E+20
 20
1.000000000000000E+20
 30
1.000000000000000E+20
  9
$PEXTMAX
 10
-1.000000000000000E+20
 20
-1.000000000000000E+20
 30
-1.000000000000000E+20
  9
$PLIMMIN
 10
0.0
 20
0.0
  9
$PLIMMAX
 10
420.0
 20
297.0
  9
$UNITMODE
 70
     0
  9
$VISRETAIN
 70
     1
  9
$PLINEGEN
 70
     0
  9
$PSLTSCALE
 70
     1
  9
$TREEDEPTH
 70
  3020
  9
$CMLSTYLE
  2
Standard
  9
$CMLJUST
 70
     0
  9
$CMLSCALE
 40
20.0
  9
$PROXYGRAPHICS
 70
     1
  9
$MEASUREMENT
 70
     1
  9
$CELWEIGHT
370
    -1
  9
$ENDCAPS
280
     0
  9
$JOINSTYLE
280
     0
  9
$LWDISPLAY
290
     0
  9
$INSUNITS
 70
     4
  9
$HYPERLINKBASE
  1

  9
$STYLESHEET
  1
monochrome.ctb
  9
$XEDIT
290
     1
  9
$CEPSNTYPE
380
     0
  9
$PSTYLEMODE
290
     1
  9
$FINGERPRINTGUID
  2
{EE6BC359-A93E-4734-B670-469A62402789}
  9
$VERSIONGUID
  2
{B6549E0E-81EC-4B68-8C54-9446A2A487D9}
  9
$EXTNAMES
290
     1
  9
$PSVPSCALE
 40
0.0
  9
$OLESTARTUP
290
     0
  0
ENDSEC
  0
SECTION
  2
CLASSES
  0
CLASS
  1
ACDBDICTIONARYWDFLT
  2
AcDbDictionaryWithDefault
  3
ObjectDBX Classes
 90
        0
280
     0
281
     0
  0
CLASS
  1
ACDBPLACEHOLDER
  2
AcDbPlaceHolder
  3
ObjectDBX Classes
 90
        0
280
     0
281
     0
  0
CLASS
  1
LAYOUT
  2
AcDbLayout
  3
ObjectDBX Classes
 90
        0
280
     0
281
     0
  0
CLASS
  1
TABLESTYLE
  2
AcDbTableStyle
  3
ObjectDBX Classes
 90
     2047
280
     0
281
     0
  0
CLASS
  1
ACME_DOCUMENT
  2
AcMeDbDoc
  3
AcMeServices
 90
        0
280
     0
281
     0
  0
CLASS
  1
AMGSETTINGSOBJ
  2
AmgSettingsObj
  3
"AcadM|Product Description: AutoCAD Mechanical 2000|Company: Autodesk"
 90
        0
280
     0
281
     0
  0
CLASS
  1
ACMESCOPE
  2
AcMeScope
  3
AcMeServices
 90
        0
280
     0
281
     0
  0
CLASS
  1
ACMECOMMANDHISTORY
  2
AcMeCommandHistory
  3
AcMeServices
 90
        0
280
     0
281
     0
  0
CLASS
  1
ACIMSYSVARMAN
  2
AcImSysVarManager
  3
AcMeServices
 90
        0
280
     0
281
     0
  0
CLASS
  1
ACIMINTSYSVAR
  2
AcImIntSysVar
  3
AcMeServices
 90
        0
280
     0
281
     0
  0
CLASS
  1
ACMEDRAWINGMAN
  2
AcMeDrawingMan
  3
AcMeServices
 90
        0
280
     0
281
     0
  0
CLASS
  1
ACMEVIEW
  2
AcMeView
  3
AcMeServices
 90
        0
280
     0
281
     0
  0
CLASS
  1
ACDBENTITYCACHE
  2
AcMeEntityCache
  3
AcMeServices
 90
        0
280
     0
281
     0
  0
CLASS
  1
GSMANAGER
  2
AcMeGSManager
  3
AcMeServices
 90
        0
280
     0
281
     0
  0
CLASS
  1
AMDTINTERNALREACTOR
  2
AmdtInternalReactor
  3
AcMeServices
 90
        0
280
     0
281
     0
  0
CLASS
  1
ACMESTATEMGR
  2
AcMeStateMgr
  3
AcMeServices
 90
        0
280
     0
281
     0
  0
CLASS
  1
ACGREFMASTER
  2
AcGrefMaster
  3
AcAttribServices
 90
        0
280
     0
281
     0
  0
CLASS
  1
AM_DRAWING_MGR
  2
AcDmDwgMgr
  3
AcMechDwgViewMgmt
 90
        0
280
     0
281
     0
  0
CLASS
  1
AM_DWG_DOCUMENT
  2
AcDmDwgDocument
  3
AcMechDwgViewMgmt
 90
        0
280
     0
281
     0
  0
CLASS
  1
AM_DWG_SHEET
  2
AcDmSheet
  3
AcMechDwgViewMgmt
 90
        0
280
     0
281
     0
  0
CLASS
  1
AM_VIEWDIMPARMAP
  2
AcDmViewDimParMap
  3
AcMechDwgViewMgmt
 90
        0
280
     0
281
     0
  0
CLASS
  1
ACIMREALSYSVAR
  2
AcImRealSysVar
  3
AcMeServices
 90
        0
280
     0
281
     0
  0
CLASS
  1
AM_DWGMGR_NAME
  2
AcDmDwgMgrName
  3
AcMechDwgViewMgmt
 90
        0
280
     0
281
     0
  0
CLASS
  1
ACME_DATABASE
  2
AcMeDbDatabase
  3
AcMeServices
 90
        0
280
     0
281
     0
  0
CLASS
  1
ACRFINSADJUSTERMGR
  2
AcRfInsAdjusterMgr
  3
AcMeServices
 90
        0
280
     0
281
     0
  0
CLASS
  1
ACGREFACADMASTER
  2
AcGrefacadMaster
  3
AcGrefServices
 90
        0
280
     0
281
     0
  0
CLASS
  1
AMDTMENUSTATEMGR
  2
AmdtMenuStateMgr
  3
McadcomServices
 90
        0
280
     0
281
     0
  0
CLASS
  1
AMDTMCOMMENUSTATE
  2
AmdtMcomMenuState
  3
McadcomServices
 90
        0
280
     0
281
     0
  0
CLASS
  1
AMIMASTER
  2
AmiMaster
  3
AmiServices
 90
        0
280
     0
281
     0
  0
CLASS
  1
MAPIAMMOUDLE
  2
MApiAmModule
  3
MApiAmServices
 90
        0
280
     0
281
     0
  0
CLASS
  1
AMDTADMENUSTATE
  2
AmdtAdMenuState
  3
DesignerServices
 90
        0
280
     0
281
     0
  0
CLASS
  1
ADAPPL
  2
AcAdAppl
  3
DesignerServices
 90
        0
280
     0
281
     0
  0
CLASS
  1
DEPMGR
  2
AcAdDepMgr
  3
DesignerServices
 90
        0
280
     0
281
     0
  0
CLASS
  1
PARAMMGR
  2
AcAdParamMgr
  3
DesignerServices
 90
        0
280
     0
281
     0
  0
CLASS
  1
PARAMSCOPE
  2
AcAdParamScope
  3
DesignerServices
 90
        0
280
     0
281
     0
  0
CLASS
  1
NAMEDAPPL
  2
AcAdNamedAppl
  3
DesignerServices
 90
        0
280
     0
281
     0
  0
CLASS
  1
AMDTDMMENUSTATE
  2
AmdtDmMenuState
  3
AcMechDwgViewMgmt
 90
        0
280
     0
281
     0
  0
CLASS
  1
AMDTAMMENUSTATE
  2
AmdtAmMenuState
  3
DesignerAssemblies
 90
        0
280
     0
281
     0
  0
CLASS
  1
ACIMSTRSYSVAR
  2
AcImStrSysVar
  3
AcMeServices
 90
        0
280
     0
281
     0
  0
CLASS
  1
ACAMPROJECT
  2
AcAmProject
  3
DesignerAssemblies
 90
        0
280
     0
281
     0
  0
CLASS
  1
ACAMGRCOMPDEF
  2
AcAmGrCompDef
  3
DesignerAssemblies
 90
        0
280
     0
281
     0
  0
CLASS
  1
ACCMCONTEXT
  2
AcCmContext
  3
DesignerAssemblies
 90
        0
280
     0
281
     0
  0
CLASS
  1
ACAMCOMPDEF
  2
AcAmCompDef
  3
DesignerAssemblies
 90
        0
280
     0
281
     0
  0
CLASS
  1
ACAMCOMPDEFMGR
  2
AcAmCompDefMgr
  3
DesignerAssemblies
 90
        0
280
     0
281
     0
  0
CLASS
  1
AMCONTEXTMGR
  2
AcAmContextMgr
  3
DesignerAssemblies
 90
        0
280
     0
281
     0
  0
CLASS
  1
ACAMCONTEXTMODELER
  2
AcAmContextModeler
  3
DesignerAssemblies
 90
        0
280
     0
281
     0
  0
CLASS
  1
ACMDATADICTIONARY
  2
AcmDataDictionary
  3
"AcmSymBB|Product Description: AutoCAD Mechanical 2004 DX|Company: Autodesk"
 90
        0
280
     0
281
     0
  0
CLASS
  1
CATALOGSTATE
  2
AcAmCatalogState
  3
DesignerAssemblies
 90
        0
280
     0
281
     0
  0
CLASS
  1
ACAMGRCOMPDEFSET
  2
AcAmGrCompDefSet
  3
DesignerAssemblies
 90
        0
280
     0
281
     0
  0
CLASS
  1
AMDTBROWSERDBTAB
  2
AmdtBrowserDbTab
  3
McadcomServices
 90
        0
280
     0
281
     0
  0
CLASS
  1
CBROWSERAPPOBJECT
  2
CBrowserAppObject
  3
McadcomServices
 90
        0
280
     0
281
     0
  0
CLASS
  1
DM_PLACEHOLDER
  2
AcDmSelsetPlaceholder
  3
AcMechDwgViewMgmt
 90
        0
280
     0
281
     0
  0
CLASS
  1
ACMSTANDARDDIN
  2
AcmStandardDIN
  3
"Amdt_StdImp|Product Description: AutoCAD Mechanical 2004 DX|Company: Autodesk"
 90
        0
280
     0
281
     0
  0
CLASS
  1
AMGOBJPROPCFG
  2
AmgObjPropCfg
  3
"AmgLay|Product Description: AutoCAD Mechanical 2000|Company: Autodesk"
 90
        1
280
     0
281
     0
  0
CLASS
  1
AMDTEDGESTANDARDDIN13715
  2
AmdtEdgeStdDIN13715
  3
"Amdt_StdImp|Product Description: AutoCAD Mechanical 2004 DX|Company: Autodesk"
 90
        0
280
     0
281
     0
  0
CLASS
  1
ACMSURFSTANDARDDIN
  2
AcmSurfTextStdDIN
  3
"Amdt_StdImp|Product Description: AutoCAD Mechanical 2004 DX|Company: Autodesk"
 90
        0
280
     0
281
     0
  0
CLASS
  1
ACMFCFSTANDARDDIN
  2
AcmFCFStdDIN
  3
"Amdt_StdImp|Product Description: AutoCAD Mechanical 2004 DX|Company: Autodesk"
 90
        0
280
     0
281
     0
  0
CLASS
  1
ACMWELDSTANDARDDIN
  2
AcmWeldingStdDIN
  3
"Amdt_StdImp|Product Description: AutoCAD Mechanical 2004 DX|Company: Autodesk"
 90
        0
280
     0
281
     0
  0
CLASS
  1
ACMIDSTANDARDDIN
  2
AcmIdStdDIN
  3
"Amdt_StdImp|Product Description: AutoCAD Mechanical 2004 DX|Company: Autodesk"
 90
        0
280
     0
281
     0
  0
CLASS
  1
ACMDATUMSTANDARDDIN
  2
AcmDatumStdDIN
  3
"Amdt_StdImp|Product Description: AutoCAD Mechanical 2004 DX|Company: Autodesk"
 90
        0
280
     0
281
     0
  0
CLASS
  1
ACMBOMSTANDARDDIN
  2
AcmBOMStdDIN
  3
"Amdt_StdImp|Product Description: AutoCAD Mechanical 2004 DX|Company: Autodesk"
 90
        0
280
     0
281
     0
  0
CLASS
  1
ACMDETAILSTANDARDDIN
  2
AmdtDetailSymStdDIN
  3
"Amdt_StdImp|Product Description: AutoCAD Mechanical 2004 DX|Company: Autodesk"
 90
        0
280
     0
281
     0
  0
CLASS
  1
ACMSECTIONSTANDARDDIN
  2
AmdtSectionSymStdDIN
  3
"Amdt_StdImp|Product Description: AutoCAD Mechanical 2004 DX|Company: Autodesk"
 90
        0
280
     0
281
     0
  0
CLASS
  1
ACMCENTERLINESTANDARDDIN
  2
AmdtCenterLineStdDIN
  3
"Amdt_StdImp|Product Description: AutoCAD Mechanical 2004 DX|Company: Autodesk"
 90
        0
280
     0
281
     0
  0
CLASS
  1
ACMTHREADLINESTANDARDDIN
  2
AmdtThreadLineStdDIN
  3
"Amdt_StdImp|Product Description: AutoCAD Mechanical 2004 DX|Company: Autodesk"
 90
        0
280
     0
281
     0
  0
CLASS
  1
ACMNOTESTANDARDDIN
  2
AmdtNoteStdDIN
  3
"Amdt_StdImp|Product Description: AutoCAD Mechanical 2004 DX|Company: Autodesk"
 90
        0
280
     0
281
     0
  0
CLASS
  1
AMDTNOTETEMPLATEDB
  2
AmdtNoteTemplateDB
  3
AMDT_STDIMP_MODULE_NAME
 90
        0
280
     0
281
     0
  0
CLASS
  1
ACAMGLAYSTD
  2
AcAmgLayStd
  3
"AcAmgLayStd|Product Description: AutoCAD Mechanical 2000|Company: Autodesk"
 90
        0
280
     0
281
     0
  0
CLASS
  1
ACAMGDIMSTD
  2
AcAmgDimStd
  3
"AcAmgDimStd|Product Description: AutoCAD Mechanical 2000|Company: Autodesk"
 90
        0
280
     0
281
     0
  0
CLASS
  1
ACAMGHOLECHARTSTDDIN
  2
AcAmgHoleChartStdDIN
  3
ACMSYMBB_MODULE_NAME
 90
        0
280
     0
281
     0
  0
CLASS
  1
ACAMGTITLESTD
  2
AcAmgTitleStd
  3
"TITLEAPP"
 90
        0
280
     0
281
     0
  0
CLASS
  1
DICTIONARYVAR
  2
AcDbDictionaryVar
  3
ObjectDBX Classes
 90
        0
280
     0
281
     0
  0
CLASS
  1
ACAMGFILTERDAT
  2
AcAmgFilterDat
  3
"AcadM|Product Description: AutoCAD Mechanical 2000|Company: Autodesk"
 90
        0
280
     0
281
     0
  0
CLASS
  1
ACMSTANDARDANSI
  2
AcmStandardANSI
  3
"Amdt_StdImp|Product Description: AutoCAD Mechanical 2004 DX|Company: Autodesk"
 90
        0
280
     0
281
     0
  0
CLASS
  1
ACMSURFSTANDARDANSI
  2
AcmSurfTextStdANSI
  3
"Amdt_StdImp|Product Description: AutoCAD Mechanical 2004 DX|Company: Autodesk"
 90
        0
280
     0
281
     0
  0
CLASS
  1
ACMFCFSTANDARDANSI
  2
AcmFCFStdANSI
  3
"Amdt_StdImp|Product Description: AutoCAD Mechanical 2004 DX|Company: Autodesk"
 90
        0
280
     0
281
     0
  0
CLASS
  1
ACMWELDSTANDARDANSI
  2
AcmWeldingStdANSI
  3
"Amdt_StdImp|Product Description: AutoCAD Mechanical 2004 DX|Company: Autodesk"
 90
        0
280
     0
281
     0
  0
CLASS
  1
ACMIDSTANDARDANSI
  2
AcmIdStdANSI
  3
"Amdt_StdImp|Product Description: AutoCAD Mechanical 2004 DX|Company: Autodesk"
 90
        0
280
     0
281
     0
  0
CLASS
  1
ACMDATUMSTANDARDANSI
  2
AcmDatumStdANSI
  3
"Amdt_StdImp|Product Description: AutoCAD Mechanical 2004 DX|Company: Autodesk"
 90
        0
280
     0
281
     0
  0
CLASS
  1
ACMBOMSTANDARDANSI
  2
AcmBOMStdANSI
  3
"Amdt_StdImp|Product Description: AutoCAD Mechanical 2004 DX|Company: Autodesk"
 90
        0
280
     0
281
     0
  0
CLASS
  1
ACMDETAILSTANDARDANSI
  2
AmdtDetailSymStdANSI
  3
"Amdt_StdImp|Product Description: AutoCAD Mechanical 2004 DX|Company: Autodesk"
 90
        0
280
     0
281
     0
  0
CLASS
  1
ACMSECTIONSTANDARDANSI
  2
AmdtSectionSymStdANSI
  3
"Amdt_StdImp|Product Description: AutoCAD Mechanical 2004 DX|Company: Autodesk"
 90
        0
280
     0
281
     0
  0
CLASS
  1
ACMCENTERLINESTANDARDANSI
  2
AmdtCenterLineStdANSI
  3
"Amdt_StdImp|Product Description: AutoCAD Mechanical 2004 DX|Company: Autodesk"
 90
        0
280
     0
281
     0
  0
CLASS
  1
ACMTHREADLINESTANDARDANSI
  2
AmdtThreadLineStdANSI
  3
"Amdt_StdImp|Product Description: AutoCAD Mechanical 2004 DX|Company: Autodesk"
 90
        0
280
     0
281
     0
  0
CLASS
  1
ACMNOTESTANDARDANSI
  2
AmdtNoteStdANSI
  3
"Amdt_StdImp|Product Description: AutoCAD Mechanical 2004 DX|Company: Autodesk"
 90
        0
280
     0
281
     0
  0
ENDSEC
  0
SECTION
  2
TABLES
  0
TABLE
  2
VPORT
  5
8
330
0
100
AcDbSymbolTable
 70
    34
  0
VPORT
  5
CA1
330
8
100
AcDbSymbolTableRecord
100
AcDbViewportTableRecord
  2
*Active
 70
     0
 10
0.0
 20
0.0
 11
1.0
 21
1.0
 12
611.7321729432817
 22
615.0060638336576
 13
0.0
 23
0.0
 14
10.0
 24
10.0
 15
10.0
 25
10.0
 16
0.0
 26
0.0
 36
1.0
 17
0.0
 27
0.0
 37
0.0
 40
489.5174450581735
 41
1.494545454545454
 42
50.0
 43
0.0
 44
0.0
 50
0.0
 51
0.0
 71
     0
 72
   100
 73
     1
 74
     3
 75
     0
 76
     0
 77
     0
 78
     0
281
     0
 65
     1
110
0.0
120
0.0
130
0.0
111
1.0
121
0.0
131
0.0
112
0.0
122
1.0
132
0.0
 79
     0
146
0.0
  0
ENDTAB
  0
TABLE
  2
LTYPE
  5
5
330
0
100
AcDbSymbolTable
 70
    55
  0
LTYPE
  5
14
330
5
100
AcDbSymbolTableRecord
100
AcDbLinetypeTableRecord
  2
ByBlock
 70
     0
  3

 72
    65
 73
     0
 40
0.0
  0
LTYPE
  5
15
330
5
100
AcDbSymbolTableRecord
100
AcDbLinetypeTableRecord
  2
ByLayer
 70
     0
  3

 72
    65
 73
     0
 40
0.0
  0
LTYPE
  5
16
330
5
100
AcDbSymbolTableRecord
100
AcDbLinetypeTableRecord
  2
Continuous
 70
     0
  3
Solid line
 72
    65
 73
     0
 40
0.0
  0
LTYPE
  5
3A
330
5
100
AcDbSymbolTableRecord
100
AcDbLinetypeTableRecord
  2
STRICHPUNKT
 70
     0
  3
Strichpunkt __ . __ . __ . __ . __ . __ . __ . 
 72
    65
 73
     4
 40
25.4
 49
12.7
 74
     0
 49
-6.349999999999999
 74
     0
 49
0.0
 74
     0
 49
-6.349999999999999
 74
     0
  0
LTYPE
  5
3B
330
5
100
AcDbSymbolTableRecord
100
AcDbLinetypeTableRecord
  2
STRICHLINIE
 70
     0
  3
Strichlinie __ __ __ __ __ __ __ __ __ __ __ __
 72
    65
 73
     2
 40
19.05
 49
12.7
 74
     0
 49
-6.349999999999999
 74
     0
  0
LTYPE
  5
47
330
5
100
AcDbSymbolTableRecord
100
AcDbLinetypeTableRecord
  2
PHANTOM2
 70
     0
  3
Phantom (.5x) ___ _ _ ___ _ _ ___ _ _ ___ _ _
 72
    65
 73
     6
 40
31.75
 49
15.875
 74
     0
 49
-3.174999999999999
 74
     0
 49
3.174999999999999
 74
     0
 49
-3.174999999999999
 74
     0
 49
3.174999999999999
 74
     0
 49
-3.174999999999999
 74
     0
  0
LTYPE
  5
698
330
5
100
AcDbSymbolTableRecord
100
AcDbLinetypeTableRecord
  2
HIDDEN
 70
     0
  3
Verdeckt
 72
    65
 73
     2
 40
9.525
 49
6.349999999999999
 74
     0
 49
-3.174999999999999
 74
     0
  0
LTYPE
  5
699
330
5
100
AcDbSymbolTableRecord
100
AcDbLinetypeTableRecord
  2
CENTER
 70
     0
  3
Mitte ____ _ ____ _ ____ _ ____ _ ____ _ ____
 72
    65
 73
     4
 40
50.8
 49
31.75
 74
     0
 49
-6.349999999999999
 74
     0
 49
6.349999999999999
 74
     0
 49
-6.349999999999999
 74
     0
  0
LTYPE
  5
6D0
330
5
100
AcDbSymbolTableRecord
100
AcDbLinetypeTableRecord
  2
Amconstr
 70
     0
  3
_______________________
 72
    65
 73
     2
 40
9999.0
 49
9999.0
 74
     0
 49
0.0
 74
     0
  0
LTYPE
  5
6D5
330
5
100
AcDbSymbolTableRecord
100
AcDbLinetypeTableRecord
  2
Amzigzag
 70
     0
  3
/\/-/\/-/\/-/\/-/\/-/\/
 72
    65
 73
     2
 40
11.0001
 49
0.0001
 74
     4
 75
   135
340
6D4
 46
0.04
 50
0.0
 44
0.0
 45
0.0
 49
-11.0
 74
     0
  0
LTYPE
  5
6D6
330
5
100
AcDbSymbolTableRecord
100
AcDbLinetypeTableRecord
  2
AM_DIN_F_W050
 70
     0
  3
__ __ __ __ __ __ __ __ __ __ __ __ __ __ __
 72
    65
 73
     2
 40
6.25
 49
4.75
 74
     0
 49
-1.5
 74
     0
  0
LTYPE
  5
6D7
330
5
100
AcDbSymbolTableRecord
100
AcDbLinetypeTableRecord
  2
AM_DIN_G_W050
 70
     0
  3
____ . ____ . ____ . ____ . ____ . ____ . ____
 72
    65
 73
     4
 40
13.75
 49
9.75
 74
     0
 49
-1.5
 74
     0
 49
1.0
 74
     0
 49
-1.5
 74
     0
  0
LTYPE
  5
6D8
330
5
100
AcDbSymbolTableRecord
100
AcDbLinetypeTableRecord
  2
AM_DIN_K_W050
 70
     0
  3
_____ . . _____ . . _____ . . ____ .. ____
 72
    65
 73
     6
 40
16.25
 49
9.75
 74
     0
 49
-1.5
 74
     0
 49
1.0
 74
     0
 49
-1.5
 74
     0
 49
1.0
 74
     0
 49
-1.5
 74
     0
  0
LTYPE
  5
6D9
330
5
100
AcDbSymbolTableRecord
100
AcDbLinetypeTableRecord
  2
AM_DIN_G_W050x2
 70
     0
  3
__ . __ . __ . __ . __ . __
 72
    65
 73
     4
 40
6.875
 49
4.75
 74
     0
 49
-0.875
 74
     0
 49
0.375
 74
     0
 49
-0.875
 74
     0
  0
LTYPE
  5
6DA
330
5
100
AcDbSymbolTableRecord
100
AcDbLinetypeTableRecord
  2
AM_DIN_F_W050x2
 70
     0
  3
 _ _ _ _ _ _ _ _ _ _ _ _
 72
    65
 73
     2
 40
3.125
 49
2.25
 74
     0
 49
-0.875
 74
     0
  0
LTYPE
  5
6E9
330
5
100
AcDbSymbolTableRecord
100
AcDbLinetypeTableRecord
  2
ACDINWELD
 70
     0
  3
_ _ _ _ _
 72
    65
 73
     2
 40
2.0
 49
2.0
 74
     0
 49
-1.0
 74
     0
  0
LTYPE
  5
6EA
330
5
100
AcDbSymbolTableRecord
100
AcDbLinetypeTableRecord
  2
ACDINTGB
 70
     0
  3
__ . . __ . .
 72
    65
 73
     6
 40
9.0
 49
4.0
 74
     0
 49
-1.0
 74
     0
 49
1.0
 74
     0
 49
-1.0
 74
     0
 49
1.0
 74
     0
 49
-1.0
 74
     0
  0
LTYPE
  5
6EB
330
5
100
AcDbSymbolTableRecord
100
AcDbLinetypeTableRecord
  2
ACDINTGL
 70
     0
  3
_ _ _ _ _
 72
    65
 73
     2
 40
3.0
 49
2.0
 74
     0
 49
-1.0
 74
     0
  0
LTYPE
  5
89B
330
5
100
AcDbSymbolTableRecord
100
AcDbLinetypeTableRecord
  2
ACANSTGB
 70
     0
  3
__ . . __ . .
 72
    65
 73
     6
 40
0.35433070866
 49
0.15748031496
 74
     0
 49
-0.03937007874
 74
     0
 49
0.03937007874
 74
     0
 49
-0.03937007874
 74
     0
 49
0.03937007874
 74
     0
 49
-0.03937007874
 74
     0
  0
LTYPE
  5
89C
330
5
100
AcDbSymbolTableRecord
100
AcDbLinetypeTableRecord
  2
ACANSTGL
 70
     0
  3
_ _ _ _ _
 72
    65
 73
     2
 40
0.11811023622
 49
0.07874015748
 74
     0
 49
-0.03937007874
 74
     0
  0
ENDTAB
  0
TABLE
  2
LAYER
  5
2
102
{ACAD_XDICTIONARY
360
8BB
102
}
330
0
100
AcDbSymbolTable
 70
    16
  0
LAYER
  5
10
330
2
100
AcDbSymbolTableRecord
100
AcDbLayerTableRecord
  2
0
 70
     0
 62
     7
  6
Continuous
370
    -3
390
F
  0
LAYER
  5
2D
330
2
100
AcDbSymbolTableRecord
100
AcDbLayerTableRecord
  2
P-0000
 70
     0
 62
     7
  6
Continuous
370
    -3
390
F
  0
LAYER
  5
50
330
2
100
AcDbSymbolTableRecord
100
AcDbLayerTableRecord
  2
P-1DEE
 70
     0
 62
     7
  6
Continuous
370
    -3
390
F
  0
LAYER
  5
8C
330
2
100
AcDbSymbolTableRecord
100
AcDbLayerTableRecord
  2
Defpoints
 70
     0
 62
     7
  6
Continuous
290
     0
370
    -3
390
F
  0
LAYER
  5
C94
330
2
100
AcDbSymbolTableRecord
100
AcDbLayerTableRecord
  2
AM_7
 70
     0
 62
     4
  6
AM_DIN_G_W050
370
    25
390
F
1001
AcAecLayerStandard
1000

1000

  0
ENDTAB
  0
TABLE
  2
STYLE
  5
3
330
0
100
AcDbSymbolTable
 70
    17
  0
STYLE
  5
11
330
3
100
AcDbSymbolTableRecord
100
AcDbTextStyleTableRecord
  2
Standard
 70
     0
 40
0.0
 41
1.0
 50
0.0
 71
     0
 42
2.5
  3
txt
  4

  0
STYLE
  5
6D4
330
3
100
AcDbSymbolTableRecord
100
AcDbTextStyleTableRecord
  2

 70
     1
 40
0.0
 41
1.0
 50
0.0
 71
     0
 42
2.5
  3
ltypeshp.shx
  4

  0
STYLE
  5
6DB
330
3
100
AcDbSymbolTableRecord
100
AcDbTextStyleTableRecord
  2
ACDINTS
 70
     0
 40
1.0
 41
1.0
 50
0.0
 71
     0
 42
2.5
  3
isocp.shx
  4

  0
STYLE
  5
6E8
330
3
100
AcDbSymbolTableRecord
100
AcDbTextStyleTableRecord
  2
ACDINGDT
 70
     0
 40
0.0
 41
1.0
 50
0.0
 71
     0
 42
2.5
  3
amgdt.shx
  4

  0
STYLE
  5
8B0
330
3
100
AcDbSymbolTableRecord
100
AcDbTextStyleTableRecord
  2
ACANSTS
 70
     0
 40
1.0
 41
1.0
 50
0.0
 71
     0
 42
2.0
  3
romans.shx
  4

  0
STYLE
  5
8B1
330
3
100
AcDbSymbolTableRecord
100
AcDbTextStyleTableRecord
  2
ACANSGDT
 70
     0
 40
0.0
 41
1.0
 50
0.0
 71
     0
 42
2.0
  3
amgdtans.shx
  4

  0
ENDTAB
  0
TABLE
  2
VIEW
  5
6
330
0
100
AcDbSymbolTable
 70
     0
  0
ENDTAB
  0
TABLE
  2
UCS
  5
7
330
0
100
AcDbSymbolTable
 70
     0
  0
ENDTAB
  0
TABLE
  2
APPID
  5
9
330
0
100
AcDbSymbolTable
 70
    31
  0
APPID
  5
12
330
9
100
AcDbSymbolTableRecord
100
AcDbRegAppTableRecord
  2
ACAD
 70
     0
  0
APPID
  5
53
330
9
100
AcDbSymbolTableRecord
100
AcDbRegAppTableRecord
  2
ACME_LAYERS
 70
     0
  0
APPID
  5
669
330
9
100
AcDbSymbolTableRecord
100
AcDbRegAppTableRecord
  2
MCAD_NO_VIS
 70
     0
  0
APPID
  5
66A
330
9
100
AcDbSymbolTableRecord
100
AcDbRegAppTableRecord
  2
ACAD_TEMP_GRAPHIC
 70
     0
  0
APPID
  5
69B
330
9
100
AcDbSymbolTableRecord
100
AcDbRegAppTableRecord
  2
AD_DRAW
 70
     0
  0
APPID
  5
69E
330
9
100
AcDbSymbolTableRecord
100
AcDbRegAppTableRecord
  2
ACATTRIBSERVICES
 70
     0
  0
APPID
  5
6BC
330
9
100
AcDbSymbolTableRecord
100
AcDbRegAppTableRecord
  2
DESIGNERASSEMBLIES
 70
     0
  0
APPID
  5
6C2
330
9
100
AcDbSymbolTableRecord
100
AcDbRegAppTableRecord
  2
ACADM_DIM_EDIT
 70
     0
  0
APPID
  5
6C3
330
9
100
AcDbSymbolTableRecord
100
AcDbRegAppTableRecord
  2
AMDT_DM_ADJ
 70
     0
  0
APPID
  5
772
330
9
100
AcDbSymbolTableRecord
100
AcDbRegAppTableRecord
  2
GENIUS_GENBLLY_14
 70
     0
  0
APPID
  5
773
330
9
100
AcDbSymbolTableRecord
100
AcDbRegAppTableRecord
  2
GENIUS_GENCFG_13
 70
     0
  0
APPID
  5
774
330
9
100
AcDbSymbolTableRecord
100
AcDbRegAppTableRecord
  2
GENIUS_GENCFG0_13
 70
     0
  0
APPID
  5
775
330
9
100
AcDbSymbolTableRecord
100
AcDbRegAppTableRecord
  2
GENIUS_GENCFG1_13
 70
     0
  0
APPID
  5
776
330
9
100
AcDbSymbolTableRecord
100
AcDbRegAppTableRecord
  2
GENIUS_GENCFG2_13
 70
     0
  0
APPID
  5
777
330
9
100
AcDbSymbolTableRecord
100
AcDbRegAppTableRecord
  2
GENIUS_GENCFG3_13
 70
     0
  0
APPID
  5
778
330
9
100
AcDbSymbolTableRecord
100
AcDbRegAppTableRecord
  2
GENIUS_GENCFG4_13
 70
     0
  0
APPID
  5
779
330
9
100
AcDbSymbolTableRecord
100
AcDbRegAppTableRecord
  2
GENIUS_VERSION2
 70
     0
  0
APPID
  5
77A
330
9
100
AcDbSymbolTableRecord
100
AcDbRegAppTableRecord
  2
GENIUS_GENOENT_13
 70
     0
  0
APPID
  5
77B
330
9
100
AcDbSymbolTableRecord
100
AcDbRegAppTableRecord
  2
GENIUS_GENCFG5_13
 70
     0
  0
APPID
  5
77C
330
9
100
AcDbSymbolTableRecord
100
AcDbRegAppTableRecord
  2
GENIUS_GEVCFG0_13
 70
     0
  0
APPID
  5
77D
330
9
100
AcDbSymbolTableRecord
100
AcDbRegAppTableRecord
  2
GENIUS_GENREC_14
 70
     0
  0
APPID
  5
77E
330
9
100
AcDbSymbolTableRecord
100
AcDbRegAppTableRecord
  2
GENIUS_GENODEF_13
 70
     0
  0
APPID
  5
77F
330
9
100
AcDbSymbolTableRecord
100
AcDbRegAppTableRecord
  2
GENIUS_GENOBJ-N-REC_13
 70
     0
  0
APPID
  5
B53
330
9
100
AcDbSymbolTableRecord
100
AcDbRegAppTableRecord
  2
ACAD_PSEXT
 70
     0
  0
APPID
  5
B7A
330
9
100
AcDbSymbolTableRecord
100
AcDbRegAppTableRecord
  2
ACAD_DSTYLE_DIMARC_LENGTH_SYMBOL
 70
     0
  0
APPID
  5
B7B
330
9
100
AcDbSymbolTableRecord
100
AcDbRegAppTableRecord
  2
ACAD_DSTYLE_DIMJOGGED_JOGANGLE_SYMBOL
 70
     0
  0
APPID
  5
C06
330
9
100
AcDbSymbolTableRecord
100
AcDbRegAppTableRecord
  2
GENIUS_GENDIMSH_14
 70
     0
  0
APPID
  5
C95
330
9
100
AcDbSymbolTableRecord
100
AcDbRegAppTableRecord
  2
AcAecLayerStandard
 70
     0
  0
APPID
  5
C9B
330
9
100
AcDbSymbolTableRecord
100
AcDbRegAppTableRecord
  2
GENIUS_GENOBJ-N-CRS_13
 70
     0
  0
APPID
  5
C9C
330
9
100
AcDbSymbolTableRecord
100
AcDbRegAppTableRecord
  2
GENIUS_GENOLIS_13
 70
     0
  0
APPID
  5
C9D
330
9
100
AcDbSymbolTableRecord
100
AcDbRegAppTableRecord
  2
GENIUS_GENOREF_13
 70
     0
  0
ENDTAB
  0
TABLE
  2
DIMSTYLE
  5
A
330
0
100
AcDbSymbolTable
 70
    18
100
AcDbDimStyleTable
 71
     2
340
8A
340
27
  0
DIMSTYLE
105
27
330
A
100
AcDbSymbolTableRecord
100
AcDbDimStyleTableRecord
  2
ISO-25
 70
     0
 41
2.5
 42
0.625
 43
3.75
 44
1.25
 73
     0
 74
     0
 77
     1
 78
     8
140
2.5
141
2.5
143
0.03937007874016
147
0.625
171
     3
172
     1
271
     2
272
     2
274
     3
278
    44
283
     0
284
     8
340
11
  0
DIMSTYLE
105
8A
102
{ACAD_REACTORS
330
8B
330
5D0
330
624
330
5FA
102
}
330
A
100
AcDbSymbolTableRecord
100
AcDbDimStyleTableRecord
  2
332N4461_001_00116122076
 70
     0
 41
3.149999999999999
 42
0.0
 43
3.75
 44
2.0
 73
     0
 74
     0
 77
     1
 78
     8
 79
     2
140
3.5
141
0.0
143
0.03937007874016
145
2.0
147
2.0
171
     3
172
     1
173
     1
176
     3
177
     3
178
     2
179
     2
271
     2
272
     2
274
     3
283
     0
284
     8
340
11
  0
DIMSTYLE
105
6F5
330
A
100
AcDbSymbolTableRecord
100
AcDbDimStyleTableRecord
  2
AM_DIN
 70
     0
  4
"
 41
2.5
 42
1.0
 43
10.0
 44
1.0
 47
0.1
 48
0.1
 73
     0
 74
     0
 77
     1
 78
     8
 79
     2
140
3.5
141
0.0
143
0.0393701
146
0.71
147
1.5
172
     1
176
   256
177
   256
178
     2
271
     2
272
     3
274
     4
283
     0
284
     8
340
11
371
    -1
372
    -1
1001
ACAD_DSTYLE_DIMARC_LENGTH_SYMBOL
1070
   379
1070
     0
1001
ACAD_DSTYLE_DIMJOGGED_JOGANGLE_SYMBOL
1070
   384
1040
1.570796326794896
  0
DIMSTYLE
105
6F6
330
A
100
AcDbSymbolTableRecord
100
AcDbDimStyleTableRecord
  2
AM_DIN$3
 70
     0
  4
"
 41
2.5
 42
1.0
 43
10.0
 44
1.0
 47
0.1
 48
0.1
 73
     0
 77
     1
 78
     8
 79
     2
140
3.5
141
0.0
143
0.0393701
146
0.71
147
1.5
176
   256
177
   256
178
     2
271
     2
272
     3
274
     4
283
     0
284
     8
288
     1
289
     0
340
11
371
    -1
372
    -1
1001
ACAD_DSTYLE_DIMARC_LENGTH_SYMBOL
1070
   379
1070
     0
1001
ACAD_DSTYLE_DIMJOGGED_JOGANGLE_SYMBOL
1070
   384
1040
1.570796326794896
  0
DIMSTYLE
105
6F7
330
A
100
AcDbSymbolTableRecord
100
AcDbDimStyleTableRecord
  2
AM_DIN$4
 70
     0
  4
"
 41
2.5
 42
1.0
 43
10.0
 44
1.0
 47
0.1
 48
0.1
 73
     0
 77
     1
 78
     8
 79
     2
140
3.5
141
0.0
143
0.0393701
146
0.71
147
1.5
176
   256
177
   256
178
     2
271
     2
272
     3
274
     4
283
     0
284
     8
288
     1
289
     0
340
11
371
    -1
372
    -1
1001
ACAD_DSTYLE_DIMARC_LENGTH_SYMBOL
1070
   379
1070
     0
1001
ACAD_DSTYLE_DIMJOGGED_JOGANGLE_SYMBOL
1070
   384
1040
1.570796326794896
  0
DIMSTYLE
105
6F8
330
A
100
AcDbSymbolTableRecord
100
AcDbDimStyleTableRecord
  2
AM_DIN$6
 70
     0
  4
"
 41
2.5
 42
1.0
 43
10.0
 44
1.0
 47
0.1
 48
0.1
 73
     0
 74
     0
 78
     8
 79
     2
140
3.5
141
0.0
143
0.0393701
146
0.71
147
1.5
172
     1
176
   256
177
   256
178
     2
271
     2
272
     3
274
     4
283
     0
284
     8
340
11
371
    -1
372
    -1
1001
ACAD_DSTYLE_DIMARC_LENGTH_SYMBOL
1070
   379
1070
     0
1001
ACAD_DSTYLE_DIMJOGGED_JOGANGLE_SYMBOL
1070
   384
1040
1.570796326794896
  0
DIMSTYLE
105
6F9
330
A
100
AcDbSymbolTableRecord
100
AcDbDimStyleTableRecord
  2
AM_DIN$7
 70
     0
  4
"
 41
2.5
 42
1.0
 43
10.0
 44
1.0
 47
0.1
 48
0.1
 73
     0
 74
     0
 77
     1
 78
     8
 79
     2
140
5.0
141
0.0
143
0.0393701
146
0.71
147
1.5
172
     1
176
   256
177
   256
178
     2
271
     2
272
     3
274
     4
283
     0
284
     8
340
11
371
    -1
372
    -1
1001
ACAD_DSTYLE_DIMARC_LENGTH_SYMBOL
1070
   379
1070
     0
1001
ACAD_DSTYLE_DIMJOGGED_JOGANGLE_SYMBOL
1070
   384
1040
1.570796326794896
  0
DIMSTYLE
105
6FA
330
A
100
AcDbSymbolTableRecord
100
AcDbDimStyleTableRecord
  2
AM_DIN$SF
 70
     0
  4
"
 41
2.5
 42
1.0
 43
10.0
 44
1.0
 47
0.1
 48
0.1
 73
     0
 74
     0
 75
     1
 76
     1
 77
     1
 78
     8
 79
     2
140
3.5
141
0.0
143
0.0393701
146
0.71
147
1.5
172
     1
176
   256
177
   256
178
     2
271
     2
272
     3
274
     4
283
     0
284
     8
340
11
371
    -1
372
    -1
1001
ACAD_DSTYLE_DIMARC_LENGTH_SYMBOL
1070
   379
1070
     0
1001
ACAD_DSTYLE_DIMJOGGED_JOGANGLE_SYMBOL
1070
   384
1040
1.570796326794896
  0
DIMSTYLE
105
6FF
330
A
100
AcDbSymbolTableRecord
100
AcDbDimStyleTableRecord
  2
AM_DIN$SH
 70
     0
  4
"
 41
2.5
 42
1.0
 43
10.0
 44
1.0
 47
0.1
 48
0.1
 73
     0
 74
     0
 75
     1
 76
     1
 77
     1
 78
     8
 79
     2
140
3.5
141
0.0
143
0.0393701
144
2.0
146
0.71
147
1.5
172
     1
173
     1
176
   256
177
   256
178
     2
271
     2
272
     3
274
     4
283
     0
284
     8
340
11
343
6FB
371
    -1
372
    -1
1001
ACAD_DSTYLE_DIMARC_LENGTH_SYMBOL
1070
   379
1070
     0
1001
ACAD_DSTYLE_DIMJOGGED_JOGANGLE_SYMBOL
1070
   384
1040
1.570796326794896
  0
DIMSTYLE
105
771
330
A
100
AcDbSymbolTableRecord
100
AcDbDimStyleTableRecord
  2
STANDARD
 70
     0
340
11
  0
DIMSTYLE
105
8B4
330
A
100
AcDbSymbolTableRecord
100
AcDbDimStyleTableRecord
  2
AM_ANSI
 70
     0
  4
mm
 41
0.1
 42
0.05
 43
0.5
 44
0.1
 47
0.1
 48
0.1
 78
     7
 79
     2
140
0.12
141
0.0
146
0.71
147
0.06
176
   256
177
   256
178
     2
274
     4
284
     7
340
11
371
    -1
372
    -1
1001
ACAD_DSTYLE_DIMARC_LENGTH_SYMBOL
1070
   379
1070
     1
1001
ACAD_DSTYLE_DIMJOGGED_JOGANGLE_SYMBOL
1070
   384
1040
0.7853981633974483
  0
DIMSTYLE
105
8B5
330
A
100
AcDbSymbolTableRecord
100
AcDbDimStyleTableRecord
  2
AM_ANSI$3
 70
     0
  4
mm
 41
0.1
 42
0.05
 43
0.5
 44
0.1
 47
0.1
 48
0.1
 78
     7
 79
     2
140
0.12
141
0.0
146
0.71
147
0.06
176
   256
177
   256
178
     2
274
     4
284
     7
288
     1
289
     0
340
11
371
    -1
372
    -1
1001
ACAD_DSTYLE_DIMARC_LENGTH_SYMBOL
1070
   379
1070
     1
1001
ACAD_DSTYLE_DIMJOGGED_JOGANGLE_SYMBOL
1070
   384
1040
0.7853981633974483
  0
DIMSTYLE
105
8B6
330
A
100
AcDbSymbolTableRecord
100
AcDbDimStyleTableRecord
  2
AM_ANSI$4
 70
     0
  4
mm
 41
0.1
 42
0.05
 43
0.5
 44
0.1
 47
0.1
 48
0.1
 78
     7
 79
     2
140
0.12
141
0.0
146
0.71
147
0.06
176
   256
177
   256
178
     2
274
     4
284
     7
288
     1
289
     0
340
11
371
    -1
372
    -1
1001
ACAD_DSTYLE_DIMARC_LENGTH_SYMBOL
1070
   379
1070
     1
1001
ACAD_DSTYLE_DIMJOGGED_JOGANGLE_SYMBOL
1070
   384
1040
0.7853981633974483
  0
DIMSTYLE
105
8B7
330
A
100
AcDbSymbolTableRecord
100
AcDbDimStyleTableRecord
  2
AM_ANSI$7
 70
     0
  4
mm
 41
0.1
 42
0.05
 43
0.5
 44
0.1
 47
0.1
 48
0.1
 78
     7
 79
     2
140
0.24
141
0.0
146
0.71
147
0.06
176
   256
177
   256
178
     2
274
     4
284
     7
340
11
371
    -1
372
    -1
1001
ACAD_DSTYLE_DIMARC_LENGTH_SYMBOL
1070
   379
1070
     1
1001
ACAD_DSTYLE_DIMJOGGED_JOGANGLE_SYMBOL
1070
   384
1040
0.7853981633974483
  0
DIMSTYLE
105
8B8
330
A
100
AcDbSymbolTableRecord
100
AcDbDimStyleTableRecord
  2
AM_ANSI$SF
 70
     0
  4
mm
 41
0.1
 42
0.05
 43
0.5
 44
0.1
 47
0.1
 48
0.1
 75
     1
 76
     1
 78
     7
 79
     2
140
0.12
141
0.0
146
0.71
147
0.06
176
   256
177
   256
178
     2
274
     4
284
     7
340
11
371
    -1
372
    -1
1001
ACAD_DSTYLE_DIMARC_LENGTH_SYMBOL
1070
   379
1070
     1
1001
ACAD_DSTYLE_DIMJOGGED_JOGANGLE_SYMBOL
1070
   384
1040
0.7853981633974483
  0
DIMSTYLE
105
8B9
330
A
100
AcDbSymbolTableRecord
100
AcDbDimStyleTableRecord
  2
AM_ANSI$SH
 70
     0
  4
mm
 41
0.1
 42
0.05
 43
0.5
 44
0.1
 47
0.1
 48
0.1
 75
     1
 76
     1
 78
     7
 79
     2
140
0.12
141
0.0
146
0.71
147
0.06
173
     1
176
   256
177
   256
178
     2
274
     4
284
     7
340
11
343
6FB
371
    -1
372
    -1
1001
ACAD_DSTYLE_DIMARC_LENGTH_SYMBOL
1070
   379
1070
     1
1001
ACAD_DSTYLE_DIMJOGGED_JOGANGLE_SYMBOL
1070
   384
1040
0.7853981633974483
  0
ENDTAB
  0
TABLE
  2
BLOCK_RECORD
  5
1
330
0
100
AcDbSymbolTable
 70
    13
  0
BLOCK_RECORD
  5
1F
330
1
100
AcDbSymbolTableRecord
100
AcDbBlockTableRecord
  2
*Model_Space
340
22
  0
BLOCK_RECORD
  5
1B
330
1
100
AcDbSymbolTableRecord
100
AcDbBlockTableRecord
  2
*Paper_Space
340
1E
  0
BLOCK_RECORD
  5
23
330
1
100
AcDbSymbolTableRecord
100
AcDbBlockTableRecord
  2
*Paper_Space0
340
26
  0
BLOCK_RECORD
  5
8D
330
1
100
AcDbSymbolTableRecord
100
AcDbBlockTableRecord
  2
*D1
340
0
  0
BLOCK_RECORD
  5
5D1
330
1
100
AcDbSymbolTableRecord
100
AcDbBlockTableRecord
  2
*D3
340
0
  0
BLOCK_RECORD
  5
5FB
330
1
100
AcDbSymbolTableRecord
100
AcDbBlockTableRecord
  2
*D4
340
0
  0
BLOCK_RECORD
  5
625
330
1
100
AcDbSymbolTableRecord
100
AcDbBlockTableRecord
  2
*D5
340
0
  0
BLOCK_RECORD
  5
6FB
330
1
100
AcDbSymbolTableRecord
100
AcDbBlockTableRecord
  2
GENAXEH
340
0
  0
ENDTAB
  0
ENDSEC
  0
SECTION
  2
BLOCKS
  0
BLOCK
  5
20
330
1F
100
AcDbEntity
  8
0
100
AcDbBlockBegin
  2
*Model_Space
 70
     0
 10
0.0
 20
0.0
 30
0.0
  3
*Model_Space
  1

  0
ENDBLK
  5
21
330
1F
100
AcDbEntity
  8
0
100
AcDbBlockEnd
  0
BLOCK
  5
1C
330
1B
100
AcDbEntity
 67
     1
  8
0
100
AcDbBlockBegin
  2
*Paper_Space
 70
     0
 10
0.0
 20
0.0
 30
0.0
  3
*Paper_Space
  1

  0
ENDBLK
  5
1D
330
1B
100
AcDbEntity
 67
     1
  8
0
100
AcDbBlockEnd
  0
BLOCK
  5
24
330
23
100
AcDbEntity
 67
     1
  8
0
100
AcDbBlockBegin
  2
*Paper_Space0
 70
     0
 10
0.0
 20
0.0
 30
0.0
  3
*Paper_Space0
  1

  0
ENDBLK
  5
25
330
23
100
AcDbEntity
 67
     1
  8
0
100
AcDbBlockEnd
  0
BLOCK
  5
98
330
8D
100
AcDbEntity
  8
0
100
AcDbBlockBegin
  2
*D1
 70
     1
 10
0.0
 20
0.0
 30
0.0
  3
*D1
  1

  0
LINE
  5
C45
330
8D
100
AcDbEntity
  8
P-1DEE
  6
Continuous
 62
     3
370
    -2
100
AcDbLine
 10
752.9577719180878
 20
467.835755736265
 30
0.0
 11
752.9577719180878
 21
537.2030902727467
 31
0.0
  0
LINE
  5
C46
330
8D
100
AcDbEntity
  8
P-1DEE
  6
Continuous
 62
     3
370
    -2
100
AcDbLine
 10
473.9577719180879
 20
467.8357557362651
 30
0.0
 11
473.9577719180879
 21
537.2030902727467
 31
0.0
  0
LINE
  5
C47
330
8D
100
AcDbEntity
  8
P-1DEE
  6
Continuous
 62
     3
370
    -2
100
AcDbLine
 10
745.9577719180877
 20
535.2030902727467
 30
0.0
 11
480.9577719180878
 21
535.2030902727467
 31
0.0
  0
MTEXT
  5
C48
330
8D
100
AcDbEntity
  8
P-1DEE
  6
Continuous
 62
     2
100
AcDbMText
 10
614.6169384901118
 20
543.567965115619
 30
0.0
 40
10.0
 41
0.0
 71
     5
 72
     1
  1
%%c280
 73
     1
 44
1.0
1001
ACAD
1000
MTEXTBEGIN
1070
    73
1070
     1
1070
    44
1040
1.0
1070
    74
1070
     0
1000
MTEXTEND
  0
SOLID
  5
C49
330
8D
100
AcDbEntity
  8
P-1DEE
  6
Continuous
 62
     3
100
AcDbTrace
 10
745.9577719180877
 20
536.3697569394133
 30
0.0
 11
745.9577719180877
 21
534.0364236060801
 31
0.0
 12
752.9577719180878
 22
535.2030902727467
 32
0.0
 13
752.9577719180878
 23
535.2030902727467
 33
0.0
  0
SOLID
  5
C4A
330
8D
100
AcDbEntity
  8
P-1DEE
  6
Continuous
 62
     3
100
AcDbTrace
 10
480.9577719180878
 20
536.3697569394133
 30
0.0
 11
480.9577719180878
 21
534.0364236060801
 31
0.0
 12
473.9577719180879
 22
535.2030902727467
 32
0.0
 13
473.9577719180879
 23
535.2030902727467
 33
0.0
  0
POINT
  5
C4B
330
8D
100
AcDbEntity
  8
Defpoints
  6
Continuous
 62
     0
100
AcDbPoint
 10
752.9577719180878
 20
467.835755736265
 30
0.0
  0
POINT
  5
C4C
330
8D
100
AcDbEntity
  8
Defpoints
  6
Continuous
 62
     0
100
AcDbPoint
 10
473.9577719180879
 20
467.8357557362651
 30
0.0
  0
POINT
  5
C4D
330
8D
100
AcDbEntity
  8
Defpoints
  6
Continuous
 62
     0
100
AcDbPoint
 10
473.9577719180879
 20
535.2030902727467
 30
0.0
  0
ENDBLK
  5
99
330
8D
100
AcDbEntity
  8
0
100
AcDbBlockEnd
  0
BLOCK
  5
5DC
330
5D1
100
AcDbEntity
  8
0
100
AcDbBlockBegin
  2
*D3
 70
     1
 10
0.0
 20
0.0
 30
0.0
  3
*D3
  1

  0
LINE
  5
C58
330
5D1
100
AcDbEntity
  8
P-1DEE
  6
Continuous
 62
     3
370
    -2
100
AcDbLine
 10
749.2077719180879
 20
471.7728338819251
 30
0.0
 11
749.2077719180879
 21
515.3257238087137
 31
0.0
  0
LINE
  5
C59
330
5D1
100
AcDbEntity
  8
P-1DEE
  6
Continuous
 62
     3
370
    -2
100
AcDbLine
 10
477.7077719180878
 20
471.7728338819251
 30
0.0
 11
477.7077719180878
 21
515.3257238087137
 31
0.0
  0
LINE
  5
C5A
330
5D1
100
AcDbEntity
  8
P-1DEE
  6
Continuous
 62
     3
370
    -2
100
AcDbLine
 10
742.2077719180879
 20
513.3257238087137
 30
0.0
 11
484.7077719180878
 21
513.3257238087137
 31
0.0
  0
MTEXT
  5
C5B
330
5D1
100
AcDbEntity
  8
P-1DEE
  6
Continuous
 62
     2
100
AcDbMText
 10
613.3295191556308
 20
521.0471470386694
 30
0.0
 40
10.0
 41
0.0
 71
     5
 72
     1
  1
%%c271.5
 73
     1
 44
1.0
1001
ACAD
1000
MTEXTBEGIN
1070
    73
1070
     1
1070
    44
1040
1.0
1070
    74
1070
     0
1000
MTEXTEND
  0
SOLID
  5
C5C
330
5D1
100
AcDbEntity
  8
P-1DEE
  6
Continuous
 62
     3
100
AcDbTrace
 10
742.2077719180879
 20
514.4923904753803
 30
0.0
 11
742.2077719180879
 21
512.1590571420471
 31
0.0
 12
749.2077719180879
 22
513.3257238087137
 32
0.0
 13
749.2077719180879
 23
513.3257238087137
 33
0.0
  0
SOLID
  5
C5D
330
5D1
100
AcDbEntity
  8
P-1DEE
  6
Continuous
 62
     3
100
AcDbTrace
 10
484.7077719180878
 20
514.4923904753803
 30
0.0
 11
484.7077719180878
 21
512.1590571420471
 31
0.0
 12
477.7077719180878
 22
513.3257238087137
 32
0.0
 13
477.7077719180878
 23
513.3257238087137
 33
0.0
  0
POINT
  5
C5E
330
5D1
100
AcDbEntity
  8
Defpoints
  6
Continuous
 62
     0
100
AcDbPoint
 10
749.2077719180879
 20
471.7728338819251
 30
0.0
  0
POINT
  5
C5F
330
5D1
100
AcDbEntity
  8
Defpoints
  6
Continuous
 62
     0
100
AcDbPoint
 10
477.7077719180878
 20
471.7728338819251
 30
0.0
  0
POINT
  5
C60
330
5D1
100
AcDbEntity
  8
Defpoints
  6
Continuous
 62
     0
100
AcDbPoint
 10
477.7077719180878
 20
513.3257238087137
 30
0.0
  0
ENDBLK
  5
5DD
330
5D1
100
AcDbEntity
  8
0
100
AcDbBlockEnd
  0
BLOCK
  5
606
330
5FB
100
AcDbEntity
  8
0
100
AcDbBlockBegin
  2
*D4
 70
     1
 10
0.0
 20
0.0
 30
0.0
  3
*D4
  1

  0
LINE
  5
C6C
330
5FB
100
AcDbEntity
  8
P-1DEE
  6
Continuous
 62
     3
370
    -2
100
AcDbLine
 10
477.7077719180878
 20
471.7728338819251
 30
0.0
 11
453.2777173077689
 21
471.7728338819251
 31
0.0
  0
LINE
  5
C6D
330
5FB
100
AcDbEntity
  8
P-1DEE
  6
Continuous
 62
     3
370
    -2
100
AcDbLine
 10
477.7077719180878
 20
396.7728338819252
 30
0.0
 11
453.2777173077689
 21
396.7728338819252
 31
0.0
  0
LINE
  5
C6E
330
5FB
100
AcDbEntity
  8
P-1DEE
  6
Continuous
 62
     3
370
    -2
100
AcDbLine
 10
455.2777173077689
 20
464.7728338819251
 30
0.0
 11
455.2777173077689
 21
403.7728338819252
 31
0.0
  0
MTEXT
  5
C6F
330
5FB
100
AcDbEntity
  8
P-1DEE
  6
Continuous
 62
     2
100
AcDbMText
 10
445.9649622384331
 20
433.5376792450599
 30
0.0
 40
10.0
 41
0.0
 71
     5
 72
     1
  1
75
 11
0.0000000000000001
 21
1.0
 31
0.0
 73
     1
 44
1.0
1001
ACAD
1000
MTEXTBEGIN
1070
    73
1070
     1
1070
    44
1040
1.0
1070
    74
1070
     0
1000
MTEXTEND
  0
SOLID
  5
C70
330
5FB
100
AcDbEntity
  8
P-1DEE
  6
Continuous
 62
     3
100
AcDbTrace
 10
454.1110506411023
 20
464.7728338819251
 30
0.0
 11
456.4443839744356
 21
464.7728338819251
 31
0.0
 12
455.2777173077689
 22
471.7728338819251
 32
0.0
 13
455.2777173077689
 23
471.7728338819251
 33
0.0
  0
SOLID
  5
C71
330
5FB
100
AcDbEntity
  8
P-1DEE
  6
Continuous
 62
     3
100
AcDbTrace
 10
454.1110506411023
 20
403.7728338819252
 30
0.0
 11
456.4443839744356
 21
403.7728338819252
 31
0.0
 12
455.2777173077689
 22
396.7728338819252
 32
0.0
 13
455.2777173077689
 23
396.7728338819252
 33
0.0
  0
POINT
  5
C72
330
5FB
100
AcDbEntity
  8
Defpoints
  6
Continuous
 62
     0
100
AcDbPoint
 10
477.7077719180878
 20
471.7728338819251
 30
0.0
  0
POINT
  5
C73
330
5FB
100
AcDbEntity
  8
Defpoints
  6
Continuous
 62
     0
100
AcDbPoint
 10
477.7077719180878
 20
396.7728338819252
 30
0.0
  0
POINT
  5
C74
330
5FB
100
AcDbEntity
  8
Defpoints
  6
Continuous
 62
     0
100
AcDbPoint
 10
455.2777173077689
 20
396.7728338819252
 30
0.0
  0
ENDBLK
  5
607
330
5FB
100
AcDbEntity
  8
0
100
AcDbBlockEnd
  0
BLOCK
  5
631
330
625
100
AcDbEntity
  8
0
100
AcDbBlockBegin
  2
*D5
 70
     1
 10
0.0
 20
0.0
 30
0.0
  3
*D5
  1

  0
LINE
  5
C61
330
625
100
AcDbEntity
  8
P-1DEE
  6
Continuous
 62
     3
370
    -2
100
AcDbLine
 10
749.2077719180879
 20
396.7728338819251
 30
0.0
 11
769.7395404703918
 21
396.7728338819251
 31
0.0
  0
LINE
  5
C62
330
625
100
AcDbEntity
  8
P-1DEE
  6
Continuous
 62
     3
370
    -2
100
AcDbLine
 10
743.2965275160086
 20
392.2728338819251
 30
0.0
 11
769.7395404703918
 21
392.2728338819251
 31
0.0
  0
LINE
  5
C63
330
625
100
AcDbEntity
  8
P-1DEE
  6
Continuous
 62
     3
370
    -2
100
AcDbLine
 10
767.7395404703918
 20
403.772833881925
 30
0.0
 11
767.7395404703918
 21
410.772833881925
 31
0.0
  0
LINE
  5
C64
330
625
100
AcDbEntity
  8
P-1DEE
  6
Continuous
 62
     3
370
    -2
100
AcDbLine
 10
767.7395404703918
 20
385.2728338819251
 30
0.0
 11
767.7395404703918
 21
378.272833881925
 31
0.0
  0
MTEXT
  5
C65
330
625
100
AcDbEntity
  8
P-1DEE
  6
Continuous
 62
     2
100
AcDbMText
 10
777.4755262888033
 20
395.5740147081986
 30
0.0
 40
10.0
 41
0.0
 71
     5
 72
     1
  1
4.5
 11
0.0000000000000001
 21
1.0
 31
0.0
 73
     1
 44
1.0
1001
ACAD
1000
MTEXTBEGIN
1070
    73
1070
     1
1070
    44
1040
1.0
1070
    74
1070
     0
1000
MTEXTEND
  0
LINE
  5
C66
330
625
100
AcDbEntity
  8
P-1DEE
  6
Continuous
 62
     3
370
    -2
100
AcDbLine
 10
767.7395404703918
 20
396.7728338819251
 30
0.0
 11
767.7395404703918
 21
392.2728338819251
 31
0.0
  0
SOLID
  5
C67
330
625
100
AcDbEntity
  8
P-1DEE
  6
Continuous
 62
     3
100
AcDbTrace
 10
766.5728738037252
 20
403.772833881925
 30
0.0
 11
768.9062071370584
 21
403.772833881925
 31
0.0
 12
767.7395404703918
 22
396.7728338819251
 32
0.0
 13
767.7395404703918
 23
396.7728338819251
 33
0.0
  0
SOLID
  5
C68
330
625
100
AcDbEntity
  8
P-1DEE
  6
Continuous
 62
     3
100
AcDbTrace
 10
766.5728738037252
 20
385.2728338819251
 30
0.0
 11
768.9062071370584
 21
385.2728338819251
 31
0.0
 12
767.7395404703918
 22
392.2728338819251
 32
0.0
 13
767.7395404703918
 23
392.2728338819251
 33
0.0
  0
POINT
  5
C69
330
625
100
AcDbEntity
  8
Defpoints
  6
Continuous
 62
     0
100
AcDbPoint
 10
749.2077719180879
 20
396.7728338819251
 30
0.0
  0
POINT
  5
C6A
330
625
100
AcDbEntity
  8
Defpoints
  6
Continuous
 62
     0
100
AcDbPoint
 10
743.2965275160086
 20
392.2728338819251
 30
0.0
  0
POINT
  5
C6B
330
625
100
AcDbEntity
  8
Defpoints
  6
Continuous
 62
     0
100
AcDbPoint
 10
767.7395404703918
 20
392.2728338819251
 30
0.0
  0
ENDBLK
  5
632
330
625
100
AcDbEntity
  8
0
100
AcDbBlockEnd
  0
BLOCK
  5
6FD
330
6FB
100
AcDbEntity
  8
0
100
AcDbBlockBegin
  2
GENAXEH
 70
     0
 10
0.0
 20
0.0
 30
0.0
  3
GENAXEH
  1

  0
LINE
  5
6FC
330
6FB
100
AcDbEntity
  8
0
100
AcDbLine
 10
-1.0
 20
0.0
 30
0.0
 11
1.0
 21
0.0
 31
0.0
  0
ENDBLK
  5
6FE
330
6FB
100
AcDbEntity
  8
0
100
AcDbBlockEnd
  0
ENDSEC
  0
SECTION
  2
ENTITIES
  0
LINE
  5
52
330
1F
100
AcDbEntity
  8
P-1DEE
  6
Continuous
 62
     7
100
AcDbLine
 10
475.4577719180878
 20
467.8357557362651
 30
0.0
 11
477.7077719180878
 21
467.8357557362651
 31
0.0
1001
ACME_LAYERS
1000
1
  0
LINE
  5
54
330
1F
100
AcDbEntity
  8
P-1DEE
  6
Continuous
 62
     7
100
AcDbLine
 10
751.4577719180878
 20
467.835755736265
 30
0.0
 11
749.2077719180879
 21
467.835755736265
 31
0.0
1001
ACME_LAYERS
1000
1
  0
LINE
  5
55
330
1F
100
AcDbEntity
  8
P-1DEE
  6
Continuous
 62
     7
100
AcDbLine
 10
744.6986911182401
 20
474.3761529028232
 30
0.0
 11
733.0583100573538
 21
481.0967300385345
 31
0.0
1001
ACME_LAYERS
1000
1
  0
LINE
  5
56
330
1F
100
AcDbEntity
  8
P-1DEE
  6
Continuous
 62
     7
100
AcDbLine
 10
744.6986911182401
 20
474.3761529028232
 30
0.0
 11
749.9577719180877
 21
471.3398211800339
 31
0.0
1001
ACME_LAYERS
1000
1
  0
LINE
  5
57
330
1F
100
AcDbEntity
  8
P-1DEE
  6
Continuous
 62
     7
100
AcDbLine
 10
752.9577719180878
 20
467.835755736265
 30
0.0
 11
751.4577719180878
 21
467.835755736265
 31
0.0
1001
ACME_LAYERS
1000
1
  0
LINE
  5
58
330
1F
100
AcDbEntity
  8
P-1DEE
  6
Continuous
 62
     7
100
AcDbLine
 10
473.9577719180879
 20
468.7417449686799
 30
0.0
 11
473.9577719180879
 21
467.8357557362651
 31
0.0
1001
ACME_LAYERS
1000
1
  0
LINE
  5
59
330
1F
100
AcDbEntity
  8
P-1DEE
  6
Continuous
 62
     7
100
AcDbLine
 10
476.9577719180879
 20
473.0718719876022
 30
0.0
 11
476.2077719180878
 21
472.6388592857092
 31
0.0
1001
ACME_LAYERS
1000
1
  0
LINE
  5
5A
330
1F
100
AcDbEntity
  8
P-1DEE
  6
Continuous
 62
     7
100
AcDbLine
 10
484.2100318370493
 20
477.2589662040481
 30
0.0
 11
476.9577719180879
 21
473.0718719876022
 31
0.0
1001
ACME_LAYERS
1000
1
  0
LINE
  5
5B
330
1F
100
AcDbEntity
  8
P-1DEE
  6
Continuous
 62
     7
100
AcDbLine
 10
484.2100318370493
 20
477.2589662040481
 30
0.0
 11
507.5475178802434
 21
490.7328700532944
 31
0.0
1001
ACME_LAYERS
1000
1
  0
LINE
  5
5C
330
1F
100
AcDbEntity
  8
P-1DEE
  6
Continuous
 62
     7
100
AcDbLine
 10
527.7825518886483
 20
491.3357557362651
 30
0.0
 11
509.7975178802434
 21
491.3357557362651
 31
0.0
1001
ACME_LAYERS
1000
1
  0
LINE
  5
5D
330
1F
100
AcDbEntity
  8
P-1DEE
  6
Continuous
 62
     7
100
AcDbLine
 10
532.314918115181
 20
494.8174213913643
 30
0.0
 11
529.5454541189563
 21
492.0631374111945
 31
0.0
1001
ACME_LAYERS
1000
1
  0
LINE
  5
5E
330
1F
100
AcDbEntity
  8
P-1DEE
  6
Continuous
 62
     7
100
AcDbLine
 10
546.4577719180878
 20
495.835755736265
 30
0.0
 11
534.782981237612
 21
495.835755736265
 31
0.0
1001
ACME_LAYERS
1000
1
  0
LINE
  5
5F
330
1F
100
AcDbEntity
  8
P-1DEE
  6
Continuous
 62
     7
100
AcDbLine
 10
688.69259947539
 20
495.835755736265
 30
0.0
 11
546.4577719180878
 21
495.835755736265
 31
0.0
1001
ACME_LAYERS
1000
1
  0
LINE
  5
60
330
1F
100
AcDbEntity
  8
P-1DEE
  6
Continuous
 62
     7
100
AcDbLine
 10
692.1325625985653
 20
495.835755736265
 30
0.0
 11
688.69259947539
 21
495.835755736265
 31
0.0
1001
ACME_LAYERS
1000
1
  0
LINE
  5
61
330
1F
100
AcDbEntity
  8
P-1DEE
  6
Continuous
 62
     7
100
AcDbLine
 10
697.370089717221
 20
492.0631374111945
 30
0.0
 11
694.6006257209945
 21
494.8174213913643
 31
0.0
1001
ACME_LAYERS
1000
1
  0
LINE
  5
62
330
1F
100
AcDbEntity
  8
P-1DEE
  6
Continuous
 62
     7
100
AcDbLine
 10
717.1180259559322
 20
491.335755736265
 30
0.0
 11
699.1329919475273
 21
491.3357557362651
 31
0.0
1001
ACME_LAYERS
1000
1
  0
LINE
  5
63
330
1F
100
AcDbEntity
  8
P-1DEE
  6
Continuous
 62
     7
100
AcDbLine
 10
735.03789893701
 20
481.6858646695017
 30
0.0
 11
719.3680259559322
 21
490.7328700532943
 31
0.0
1001
ACME_LAYERS
1000
1
  0
LINE
  5
64
330
1F
100
AcDbEntity
  8
P-1DEE
  6
Continuous
 62
     7
100
AcDbLine
 10
749.9577719180877
 20
473.0718719876021
 30
0.0
 11
735.03789893701
 21
481.6858646695017
 31
0.0
1001
ACME_LAYERS
1000
1
  0
LINE
  5
65
330
1F
100
AcDbEntity
  8
P-1DEE
  6
Continuous
 62
     7
100
AcDbLine
 10
750.7077719180878
 20
472.6388592857091
 30
0.0
 11
749.9577719180877
 21
473.0718719876021
 31
0.0
1001
ACME_LAYERS
1000
1
  0
LINE
  5
66
330
1F
100
AcDbEntity
  8
P-1DEE
  6
Continuous
 62
     7
100
AcDbLine
 10
752.9577719180878
 20
467.835755736265
 30
0.0
 11
752.9577719180878
 21
468.7417449686798
 31
0.0
1001
ACME_LAYERS
1000
1
  0
LINE
  5
67
330
1F
100
AcDbEntity
  8
P-1DEE
  6
Continuous
 62
     7
100
AcDbLine
 10
688.69259947539
 20
494.335755736265
 30
0.0
 11
546.4577719180878
 21
494.335755736265
 31
0.0
1001
ACME_LAYERS
1000
1
  0
LINE
  5
68
330
1F
100
AcDbEntity
  8
P-1DEE
  6
Continuous
 62
     7
100
AcDbLine
 10
696.3123483790358
 20
490.9995664161506
 30
0.0
 11
693.5428843828112
 21
493.7538503963224
 31
0.0
1001
ACME_LAYERS
1000
1
  0
LINE
  5
69
330
1F
100
AcDbEntity
  8
P-1DEE
  6
Continuous
 62
     7
100
AcDbLine
 10
717.1180259559322
 20
489.835755736265
 30
0.0
 11
699.1329919475273
 21
489.835755736265
 31
0.0
1001
ACME_LAYERS
1000
1
  0
LINE
  5
6A
330
1F
100
AcDbEntity
  8
P-1DEE
  6
Continuous
 62
     7
100
AcDbLine
 10
475.4577719180878
 20
468.7417449686799
 30
0.0
 11
475.4577719180878
 21
467.8357557362651
 31
0.0
1001
ACME_LAYERS
1000
1
  0
LINE
  5
6B
330
1F
100
AcDbEntity
  8
P-1DEE
  6
Continuous
 62
     7
100
AcDbLine
 10
475.4577719180878
 20
467.8357557362651
 30
0.0
 11
473.9577719180879
 21
467.8357557362651
 31
0.0
1001
ACME_LAYERS
1000
1
  0
LINE
  5
6C
330
1F
100
AcDbEntity
  8
P-1DEE
  6
Continuous
 62
     7
100
AcDbLine
 10
527.7825518886483
 20
489.835755736265
 30
0.0
 11
509.7975178802434
 21
489.835755736265
 31
0.0
1001
ACME_LAYERS
1000
1
  0
LINE
  5
6D
330
1F
100
AcDbEntity
  8
P-1DEE
  6
Continuous
 62
     7
100
AcDbLine
 10
613.4577719180878
 20
489.835755736265
 30
0.0
 11
527.7825518886483
 21
489.835755736265
 31
0.0
1001
ACME_LAYERS
1000
1
  0
LINE
  5
6E
330
1F
100
AcDbEntity
  8
P-1DEE
  6
Continuous
 62
     7
100
AcDbLine
 10
751.4577719180878
 20
467.835755736265
 30
0.0
 11
751.4577719180878
 21
468.7417449686798
 31
0.0
1001
ACME_LAYERS
1000
1
  0
LINE
  5
6F
330
1F
100
AcDbEntity
  8
P-1DEE
  6
Continuous
 62
     7
100
AcDbLine
 10
699.1329919475273
 20
489.835755736265
 30
0.0
 11
613.4577719180878
 21
489.835755736265
 31
0.0
1001
ACME_LAYERS
1000
1
  0
LINE
  5
70
330
1F
100
AcDbEntity
  8
P-1DEE
  6
Continuous
 62
     7
100
AcDbLine
 10
692.1325625985653
 20
494.335755736265
 30
0.0
 11
688.69259947539
 21
494.335755736265
 31
0.0
1001
ACME_LAYERS
1000
1
  0
LINE
  5
71
330
1F
100
AcDbEntity
  8
P-1DEE
  6
Continuous
 62
     7
100
AcDbLine
 10
546.4577719180878
 20
494.335755736265
 30
0.0
 11
534.782981237612
 21
494.335755736265
 31
0.0
1001
ACME_LAYERS
1000
1
  0
LINE
  5
72
330
1F
100
AcDbEntity
  8
P-1DEE
  6
Continuous
 62
     7
100
AcDbLine
 10
533.3726594533662
 20
493.7538503963224
 30
0.0
 11
530.6031954571397
 21
490.9995664161506
 31
0.0
1001
ACME_LAYERS
1000
1
  0
LINE
  5
73
330
1F
100
AcDbEntity
  8
P-1DEE
  6
Continuous
 62
     7
100
AcDbLine
 10
477.7077719180878
 20
471.7728338819251
 30
0.0
 11
476.9577719180879
 21
471.339821180034
 31
0.0
1001
ACME_LAYERS
1000
1
  0
LINE
  5
74
330
1F
100
AcDbEntity
  8
P-1DEE
  6
Continuous
 62
     7
100
AcDbLine
 10
484.9600318370494
 20
475.9599280983711
 30
0.0
 11
477.7077719180878
 21
471.7728338819251
 31
0.0
1001
ACME_LAYERS
1000
1
  0
LINE
  5
75
330
1F
100
AcDbEntity
  8
P-1DEE
  6
Continuous
 62
     7
100
AcDbLine
 10
484.9600318370494
 20
475.9599280983711
 30
0.0
 11
508.2975178802434
 21
489.4338319476191
 31
0.0
1001
ACME_LAYERS
1000
1
  0
LINE
  5
76
330
1F
100
AcDbEntity
  8
P-1DEE
  6
Continuous
 62
     7
100
AcDbLine
 10
733.0583100573538
 20
481.0967300385345
 30
0.0
 11
718.6180259559322
 21
489.4338319476191
 31
0.0
1001
ACME_LAYERS
1000
1
  0
LWPOLYLINE
  5
77
330
1F
100
AcDbEntity
  8
P-1DEE
  6
Continuous
 62
     7
 60
     1
100
AcDbPolyline
 90
        5
 70
     0
 43
0.0
 10
-62.93766009463418
 20
-272.3235295812153
 10
-61.12153574935275
 20
-275.4691492008512
 10
-59.14239049841837
 20
-278.8971293310258
 10
-56.28566572677466
 20
-283.8451217787531
 10
-54.38103576760825
 20
-287.1440376569042
1001
ACME_LAYERS
1000
1
  0
ARC
  5
78
330
1F
100
AcDbEntity
  8
P-1DEE
  6
Continuous
 62
     7
100
AcDbCircle
 10
478.4577719180878
 20
468.7417449686799
 30
0.0
 40
4.499999999999385
100
AcDbArc
 50
120.0000000000033
 51
180.0
1001
ACME_LAYERS
1000
1
  0
ARC
  5
79
330
1F
100
AcDbEntity
  8
P-1DEE
  6
Continuous
 62
     7
100
AcDbCircle
 10
509.7975178802434
 20
486.8357557362651
 30
0.0
 40
4.499999999999992
100
AcDbArc
 50
90.0
 51
120.0000000000033
1001
ACME_LAYERS
1000
1
  0
ARC
  5
7A
330
1F
100
AcDbEntity
  8
P-1DEE
  6
Continuous
 62
     7
100
AcDbCircle
 10
527.7825518886483
 20
493.8357557362651
 30
0.0
 40
2.499999999999971
100
AcDbArc
 50
270.0
 51
314.8425437462169
1001
ACME_LAYERS
1000
1
  0
ARC
  5
7B
330
1F
100
AcDbEntity
  8
P-1DEE
  6
Continuous
 62
     7
100
AcDbCircle
 10
534.782981237612
 20
492.3357557362651
 30
0.0
 40
3.499999999999971
100
AcDbArc
 50
90.0
 51
134.8425437462076
1001
ACME_LAYERS
1000
1
  0
ARC
  5
7C
330
1F
100
AcDbEntity
  8
P-1DEE
  6
Continuous
 62
     7
100
AcDbCircle
 10
692.1325625985653
 20
492.3357557362651
 30
0.0
 40
3.499999999999155
100
AcDbArc
 50
45.15745625381191
 51
90.0
1001
ACME_LAYERS
1000
1
  0
ARC
  5
7D
330
1F
100
AcDbEntity
  8
P-1DEE
  6
Continuous
 62
     7
100
AcDbCircle
 10
699.1329919475273
 20
493.8357557362651
 30
0.0
 40
2.499999999999009
100
AcDbArc
 50
225.1574562538119
 51
270.0
1001
ACME_LAYERS
1000
1
  0
ARC
  5
7E
330
1F
100
AcDbEntity
  8
P-1DEE
  6
Continuous
 62
     7
100
AcDbCircle
 10
717.1180259559322
 20
486.835755736265
 30
0.0
 40
4.499999999999378
100
AcDbArc
 50
59.99999999999664
 51
90.0
1001
ACME_LAYERS
1000
1
  0
ARC
  5
7F
330
1F
100
AcDbEntity
  8
P-1DEE
  6
Continuous
 62
     7
100
AcDbCircle
 10
748.4577719180878
 20
468.7417449686798
 30
0.0
 40
4.5
100
AcDbArc
 50
0.0
 51
59.99999999999664
1001
ACME_LAYERS
1000
1
  0
ARC
  5
80
330
1F
100
AcDbEntity
  8
P-1DEE
  6
Continuous
 62
     7
100
AcDbCircle
 10
478.4577719180878
 20
468.7417449686799
 30
0.0
 40
3.000000000000639
100
AcDbArc
 50
119.9999999999916
 51
180.0
1001
ACME_LAYERS
1000
1
  0
ARC
  5
81
330
1F
100
AcDbEntity
  8
P-1DEE
  6
Continuous
 62
     7
100
AcDbCircle
 10
509.7975178802434
 20
486.8357557362651
 30
0.0
 40
2.999999999999992
100
AcDbArc
 50
90.0
 51
119.9999999999916
1001
ACME_LAYERS
1000
1
  0
ARC
  5
82
330
1F
100
AcDbEntity
  8
P-1DEE
  6
Continuous
 62
     7
100
AcDbCircle
 10
534.782981237612
 20
492.3357557362651
 30
0.0
 40
1.999999999999971
100
AcDbArc
 50
90.0
 51
134.8425437461869
1001
ACME_LAYERS
1000
1
  0
ARC
  5
83
330
1F
100
AcDbEntity
  8
P-1DEE
  6
Continuous
 62
     7
100
AcDbCircle
 10
527.7825518886483
 20
493.8357557362651
 30
0.0
 40
3.999999999999971
100
AcDbArc
 50
270.0
 51
314.8425437461881
1001
ACME_LAYERS
1000
1
  0
ARC
  5
84
330
1F
100
AcDbEntity
  8
P-1DEE
  6
Continuous
 62
     7
100
AcDbCircle
 10
748.4577719180878
 20
468.7417449686798
 30
0.0
 40
3.0
100
AcDbArc
 50
0.0
 51
60.00000000000835
1001
ACME_LAYERS
1000
1
  0
ARC
  5
85
330
1F
100
AcDbEntity
  8
P-1DEE
  6
Continuous
 62
     7
100
AcDbCircle
 10
717.1180259559322
 20
486.835755736265
 30
0.0
 40
3.000000000000633
100
AcDbArc
 50
60.00000000000835
 51
90.0
1001
ACME_LAYERS
1000
1
  0
ARC
  5
86
330
1F
100
AcDbEntity
  8
P-1DEE
  6
Continuous
 62
     7
100
AcDbCircle
 10
692.1325625985653
 20
492.3357557362651
 30
0.0
 40
2.000000000000272
100
AcDbArc
 50
45.15745625381191
 51
90.0
1001
ACME_LAYERS
1000
1
  0
ARC
  5
87
330
1F
100
AcDbEntity
  8
P-1DEE
  6
Continuous
 62
     7
100
AcDbCircle
 10
699.1329919475273
 20
493.8357557362651
 30
0.0
 40
4.000000000000484
100
AcDbArc
 50
225.1574562538119
 51
270.0
1001
ACME_LAYERS
1000
1
  0
DIMENSION
  5
8B
330
1F
100
AcDbEntity
  8
P-1DEE
  6
Continuous
100
AcDbDimension
  2
*D1
 10
473.9577719180879
 20
535.2030902727467
 30
0.0
 11
614.6169384901118
 21
543.567965115619
 31
0.0
 70
   160
  1
%%c280
 71
     5
 42
279.0
  3
332N4461_001_00116122076
100
AcDbAlignedDimension
 13
752.9577719180878
 23
467.835755736265
 33
0.0
 14
473.9577719180879
 24
467.8357557362651
 34
0.0
100
AcDbRotatedDimension
1001
ACME_LAYERS
1000
1
1001
ACAD
1000
DSTYLE
1002
{
1070
   140
1040
10.0
1070
    41
1040
7.0
1070
   279
1070
     2
1070
   288
1070
     1
1002
}
  0
HATCH
  5
E6
330
1F
100
AcDbEntity
  8
P-1DEE
  6
Continuous
 62
     3
100
AcDbHatch
 10
0.0
 20
0.0
 30
0.0
210
0.0
220
0.0
230
1.0
  2
_U
 70
     0
 71
     0
 91
        1
 92
        1
 93
       48
 72
     2
 10
527.7825518886483
 20
493.8357557362651
 40
3.999999999999971
 50
-90.00000000000001
 51
-45.15745625381305
 73
     1
 72
     1
 10
530.6031954571397
 20
490.9995664161506
 11
533.3726594533662
 21
493.7538503963224
 72
     2
 10
534.782981237612
 20
492.3357557362651
 40
1.999999999999971
 50
225.1574562538149
 51
270.0
 73
     0
 72
     1
 10
534.782981237612
 20
494.335755736265
 11
546.4577719180878
 21
494.335755736265
 72
     1
 10
546.4577719180878
 20
494.335755736265
 11
688.69259947539
 21
494.335755736265
 72
     1
 10
688.69259947539
 20
494.335755736265
 11
692.1325625985653
 21
494.335755736265
 72
     2
 10
692.1325625985653
 20
492.3357557362651
 40
2.000000000000272
 50
270.0
 51
314.8425437461864
 73
     0
 72
     1
 10
693.5428843828112
 20
493.7538503963224
 11
696.3123483790358
 21
490.9995664161506
 72
     2
 10
699.1329919475273
 20
493.8357557362651
 40
4.000000000000484
 50
225.1574562538127
 51
270.0
 73
     1
 72
     1
 10
699.1329919475273
 20
489.835755736265
 11
717.1180259559322
 21
489.835755736265
 72
     2
 10
717.1180259559322
 20
486.835755736265
 40
3.000000000000633
 50
270.0
 51
299.9999999999931
 73
     0
 72
     1
 10
718.6180259559322
 20
489.4338319476191
 11
733.0583100573538
 21
481.0967300385345
 72
     1
 10
733.0583100573538
 20
481.0967300385345
 11
744.6986911182401
 21
474.3761529028232
 72
     1
 10
744.6986911182401
 20
474.3761529028232
 11
749.9577719180877
 21
471.3398211800339
 72
     2
 10
748.4577719180878
 20
468.7417449686798
 40
3.0
 50
299.9999999999929
 51
360.0
 73
     0
 72
     1
 10
751.4577719180878
 20
468.7417449686798
 11
751.4577719180878
 21
467.835755736265
 72
     1
 10
751.4577719180878
 20
467.835755736265
 11
752.9577719180878
 21
467.835755736265
 72
     1
 10
752.9577719180878
 20
467.835755736265
 11
752.9577719180878
 21
468.7417449686798
 72
     2
 10
748.4577719180878
 20
468.7417449686798
 40
4.5
 50
-0.0000000000000127
 51
59.99999999999547
 73
     1
 72
     1
 10
750.7077719180878
 20
472.6388592857091
 11
749.9577719180877
 21
473.0718719876021
 72
     1
 10
749.9577719180877
 20
473.0718719876021
 11
735.03789893701
 21
481.6858646695017
 72
     1
 10
735.03789893701
 20
481.6858646695017
 11
719.3680259559322
 21
490.7328700532943
 72
     2
 10
717.1180259559322
 20
486.835755736265
 40
4.499999999999378
 50
59.99999999999541
 51
89.99999999999998
 73
     1
 72
     1
 10
717.1180259559322
 20
491.335755736265
 11
699.1329919475273
 21
491.335755736265
 72
     2
 10
699.1329919475273
 20
493.8357557362651
 40
2.499999999999009
 50
450.0
 51
494.8425437461874
 73
     0
 72
     1
 10
697.370089717221
 20
492.0631374111945
 11
694.6006257209945
 21
494.8174213913643
 72
     2
 10
692.1325625985653
 20
492.3357557362651
 40
3.499999999999155
 50
45.15745625381309
 51
89.99999999999998
 73
     1
 72
     1
 10
692.1325625985653
 20
495.835755736265
 11
688.69259947539
 21
495.835755736265
 72
     1
 10
688.69259947539
 20
495.835755736265
 11
546.4577719180878
 21
495.835755736265
 72
     1
 10
546.4577719180878
 20
495.835755736265
 11
534.782981237612
 21
495.835755736265
 72
     2
 10
534.782981237612
 20
492.3357557362651
 40
3.499999999999971
 50
89.99999999999998
 51
134.842543746208
 73
     1
 72
     1
 10
532.314918115181
 20
494.8174213913643
 11
529.5454541189563
 21
492.0631374111945
 72
     2
 10
527.7825518886483
 20
493.8357557362651
 40
2.499999999999971
 50
405.157456253783
 51
450.0
 73
     0
 72
     1
 10
527.7825518886483
 20
491.3357557362651
 11
509.7975178802434
 21
491.3357557362651
 72
     2
 10
509.7975178802434
 20
486.8357557362651
 40
4.499999999999992
 50
89.99999999999998
 51
120.0000000000045
 73
     1
 72
     1
 10
507.5475178802434
 20
490.7328700532944
 11
484.2100318370492
 21
477.2589662040481
 72
     1
 10
484.2100318370493
 20
477.2589662040481
 11
476.9577719180879
 21
473.0718719876021
 72
     1
 10
476.9577719180879
 20
473.0718719876022
 11
476.2077719180878
 21
472.6388592857092
 72
     2
 10
478.4577719180878
 20
468.7417449686799
 40
4.499999999999385
 50
120.0000000000045
 51
180.0
 73
     1
 72
     1
 10
473.9577719180879
 20
468.7417449686799
 11
473.9577719180879
 21
467.8357557362651
 72
     1
 10
473.9577719180879
 20
467.8357557362651
 11
475.4577719180878
 21
467.8357557362651
 72
     1
 10
475.4577719180878
 20
467.8357557362651
 11
475.4577719180878
 21
468.7417449686799
 72
     2
 10
478.4577719180878
 20
468.7417449686799
 40
3.000000000000639
 50
180.0
 51
240.000000000007
 73
     0
 72
     1
 10
476.9577719180879
 20
471.339821180034
 11
477.7077719180878
 21
471.7728338819251
 72
     1
 10
477.7077719180878
 20
471.7728338819251
 11
484.9600318370494
 21
475.9599280983711
 72
     1
 10
484.9600318370494
 20
475.9599280983711
 11
508.2975178802434
 21
489.4338319476191
 72
     2
 10
509.7975178802434
 20
486.8357557362651
 40
2.999999999999992
 50
240.000000000007
 51
270.0
 73
     0
 72
     1
 10
509.7975178802434
 20
489.835755736265
 11
527.7825518886483
 21
489.835755736265
 97
        0
 75
     0
 76
     0
 52
-45.00000000000001
 41
2.0
 77
     0
 78
     1
 53
315.0
 43
772.1018095749919
 44
423.3662627133909
 45
1.414213562373095
 46
1.414213562373094
 79
     0
 98
        1
 10
772.1018095749919
 20
423.3662627133909
1001
ACME_LAYERS
1000
1
  0
LINE
  5
1C6
330
1F
100
AcDbEntity
  8
P-0000
  6
Continuous
 62
     7
100
AcDbLine
 10
613.4577719180878
 20
453.7728338819252
 30
0.0
 11
613.4577719180878
 21
471.7728338819251
 31
0.0
1001
ACME_LAYERS
1000
1
  0
LINE
  5
1CB
330
1F
100
AcDbEntity
  8
P-0000
  6
Continuous
 62
     7
100
AcDbLine
 10
545.2041655775345
 20
435.7728338819251
 30
0.0
 11
544.4415554508245
 21
435.7728338819251
 31
0.0
1001
ACME_LAYERS
1000
1
  0
LINE
  5
1CC
330
1F
100
AcDbEntity
  8
P-0000
  6
Continuous
 62
     7
100
AcDbLine
 10
545.2041655775345
 20
435.7728338819251
 30
0.0
 11
545.2041655775345
 21
450.7728338819251
 31
0.0
1001
ACME_LAYERS
1000
1
  0
LINE
  5
1CD
330
1F
100
AcDbEntity
  8
P-0000
  6
Continuous
 62
     7
100
AcDbLine
 10
545.2041655775345
 20
450.7728338819251
 30
0.0
 11
544.4415554508245
 21
450.7728338819251
 31
0.0
1001
ACME_LAYERS
1000
1
  0
LINE
  5
1CE
330
1F
100
AcDbEntity
  8
P-0000
  6
Continuous
 62
     7
100
AcDbLine
 10
557.8289560280953
 20
435.772833881925
 30
0.0
 11
545.2041655775345
 21
435.7728338819251
 31
0.0
1001
ACME_LAYERS
1000
1
  0
LINE
  5
1CF
330
1F
100
AcDbEntity
  8
P-0000
  6
STRICHLINIE
 62
     2
100
AcDbLine
 10
747.2965275160087
 20
396.7728338819251
 30
0.0
 11
747.2965275160087
 21
435.772833881925
 31
0.0
1001
ACME_LAYERS
1000
1
  0
LINE
  5
1D0
330
1F
100
AcDbEntity
  8
P-0000
  6
STRICHLINIE
 62
     2
100
AcDbLine
 10
745.2965275160087
 20
396.7728338819251
 30
0.0
 11
745.2965275160087
 21
435.772833881925
 31
0.0
1001
ACME_LAYERS
1000
1
  0
LINE
  5
1D1
330
1F
100
AcDbEntity
  8
P-0000
  6
Continuous
 62
     7
100
AcDbLine
 10
745.2965275160087
 20
396.2728338819251
 30
0.0
 11
745.2965275160087
 21
396.7728338819251
 31
0.0
1001
ACME_LAYERS
1000
1
  0
LINE
  5
1D2
330
1F
100
AcDbEntity
  8
P-0000
  6
Continuous
 62
     7
100
AcDbLine
 10
747.2965275160087
 20
396.2728338819251
 30
0.0
 11
747.2965275160087
 21
396.7728338819251
 31
0.0
1001
ACME_LAYERS
1000
1
  0
LINE
  5
1D3
330
1F
100
AcDbEntity
  8
P-0000
  6
STRICHPUNKT
 62
     3
100
AcDbLine
 10
729.7077719180878
 20
389.24572239717
 30
0.0
 11
729.7077719180878
 21
396.24572239717
 31
0.0
1001
ACME_LAYERS
1000
1
  0
LINE
  5
1D4
330
1F
100
AcDbEntity
  8
P-0000
  6
Continuous
 62
     7
100
AcDbLine
 10
724.7077719180878
 20
394.2728338819251
 30
0.0
 11
719.2965275160087
 21
394.2728338819251
 31
0.0
1001
ACME_LAYERS
1000
1
  0
LINE
  5
1D5
330
1F
100
AcDbEntity
  8
P-0000
  6
Continuous
 62
     7
100
AcDbLine
 10
724.7077719180878
 20
392.2728338819251
 30
0.0
 11
719.2965275160087
 21
392.2728338819251
 31
0.0
1001
ACME_LAYERS
1000
1
  0
LINE
  5
1D6
330
1F
100
AcDbEntity
  8
P-0000
  6
STRICHLINIE
 62
     2
100
AcDbLine
 10
724.7077719180878
 20
394.2728338819251
 30
0.0
 11
724.7077719180878
 21
392.2728338819251
 31
0.0
1001
ACME_LAYERS
1000
1
  0
LINE
  5
1D7
330
1F
100
AcDbEntity
  8
P-0000
  6
Continuous
 62
     7
100
AcDbLine
 10
734.7077719180878
 20
394.2728338819251
 30
0.0
 11
724.7077719180878
 21
394.2728338819251
 31
0.0
1001
ACME_LAYERS
1000
1
  0
LINE
  5
1D8
330
1F
100
AcDbEntity
  8
P-0000
  6
Continuous
 62
     7
100
AcDbLine
 10
734.7077719180878
 20
392.2728338819251
 30
0.0
 11
724.7077719180878
 21
392.2728338819251
 31
0.0
1001
ACME_LAYERS
1000
1
  0
LINE
  5
1D9
330
1F
100
AcDbEntity
  8
P-0000
  6
STRICHLINIE
 62
     2
100
AcDbLine
 10
734.7077719180878
 20
394.2728338819251
 30
0.0
 11
734.7077719180878
 21
392.2728338819251
 31
0.0
1001
ACME_LAYERS
1000
1
  0
LINE
  5
1DA
330
1F
100
AcDbEntity
  8
P-0000
  6
Continuous
 62
     7
100
AcDbLine
 10
719.2965275160087
 20
394.2728338819251
 30
0.0
 11
717.2965275160087
 21
394.2728338819251
 31
0.0
1001
ACME_LAYERS
1000
1
  0
LINE
  5
1DB
330
1F
100
AcDbEntity
  8
P-0000
  6
Continuous
 62
     7
100
AcDbLine
 10
719.2965275160087
 20
392.2728338819251
 30
0.0
 11
717.2965275160087
 21
392.2728338819251
 31
0.0
1001
ACME_LAYERS
1000
1
  0
LINE
  5
1DC
330
1F
100
AcDbEntity
  8
P-0000
  6
Continuous
 62
     7
100
AcDbLine
 10
719.2965275160087
 20
394.2728338819251
 30
0.0
 11
719.2965275160087
 21
392.2728338819251
 31
0.0
1001
ACME_LAYERS
1000
1
  0
LINE
  5
1DD
330
1F
100
AcDbEntity
  8
P-0000
  6
Continuous
 62
     7
100
AcDbLine
 10
717.2965275160087
 20
394.2728338819251
 30
0.0
 11
717.2965275160087
 21
392.2728338819251
 31
0.0
1001
ACME_LAYERS
1000
1
  0
LINE
  5
1DE
330
1F
100
AcDbEntity
  8
P-0000
  6
Continuous
 62
     7
100
AcDbLine
 10
743.2965275160086
 20
394.2728338819251
 30
0.0
 11
734.7077719180878
 21
394.2728338819251
 31
0.0
1001
ACME_LAYERS
1000
1
  0
LINE
  5
1DF
330
1F
100
AcDbEntity
  8
P-0000
  6
Continuous
 62
     7
100
AcDbLine
 10
743.2965275160086
 20
392.2728338819251
 30
0.0
 11
734.7077719180878
 21
392.2728338819251
 31
0.0
1001
ACME_LAYERS
1000
1
  0
LINE
  5
1E0
330
1F
100
AcDbEntity
  8
P-0000
  6
Continuous
 62
     7
100
AcDbLine
 10
604.9577719180878
 20
392.2728338819251
 30
0.0
 11
602.9577719180878
 21
392.2728338819251
 31
0.0
1001
ACME_LAYERS
1000
1
  0
LINE
  5
1E1
330
1F
100
AcDbEntity
  8
P-0000
  6
STRICHLINIE
 62
     2
100
AcDbLine
 10
604.9577719180878
 20
394.2728338819251
 30
0.0
 11
602.9577719180878
 21
394.2728338819251
 31
0.0
1001
ACME_LAYERS
1000
1
  0
LINE
  5
1E2
330
1F
100
AcDbEntity
  8
P-0000
  6
STRICHLINIE
 62
     2
100
AcDbLine
 10
604.9577719180878
 20
392.2728338819251
 30
0.0
 11
604.9577719180878
 21
394.2728338819251
 31
0.0
1001
ACME_LAYERS
1000
1
  0
LINE
  5
1E3
330
1F
100
AcDbEntity
  8
P-0000
  6
Continuous
 62
     7
100
AcDbLine
 10
621.9577719180878
 20
392.2728338819251
 30
0.0
 11
618.4577719180879
 21
392.2728338819251
 31
0.0
1001
ACME_LAYERS
1000
1
  0
LINE
  5
1E4
330
1F
100
AcDbEntity
  8
P-0000
  6
STRICHLINIE
 62
     2
100
AcDbLine
 10
621.9577719180878
 20
394.2728338819251
 30
0.0
 11
618.4577719180879
 21
394.2728338819251
 31
0.0
1001
ACME_LAYERS
1000
1
  0
LINE
  5
1E5
330
1F
100
AcDbEntity
  8
P-0000
  6
STRICHLINIE
 62
     2
100
AcDbLine
 10
621.9577719180878
 20
394.2728338819251
 30
0.0
 11
621.9577719180878
 21
392.2728338819251
 31
0.0
1001
ACME_LAYERS
1000
1
  0
LINE
  5
1EE
330
1F
100
AcDbEntity
  8
P-0000
  6
Continuous
 62
     7
100
AcDbLine
 10
608.4577719180879
 20
392.2728338819251
 30
0.0
 11
604.9577719180878
 21
392.2728338819251
 31
0.0
1001
ACME_LAYERS
1000
1
  0
LINE
  5
1EF
330
1F
100
AcDbEntity
  8
P-0000
  6
STRICHLINIE
 62
     2
100
AcDbLine
 10
608.4577719180879
 20
394.2728338819251
 30
0.0
 11
604.9577719180878
 21
394.2728338819251
 31
0.0
1001
ACME_LAYERS
1000
1
  0
LINE
  5
1F0
330
1F
100
AcDbEntity
  8
P-0000
  6
STRICHLINIE
 62
     2
100
AcDbLine
 10
608.4577719180879
 20
394.2728338819251
 30
0.0
 11
608.4577719180879
 21
392.2728338819251
 31
0.0
1001
ACME_LAYERS
1000
1
  0
LINE
  5
1F1
330
1F
100
AcDbEntity
  8
P-0000
  6
Continuous
 62
     7
100
AcDbLine
 10
618.4577719180879
 20
392.2728338819251
 30
0.0
 11
608.4577719180879
 21
392.2728338819251
 31
0.0
1001
ACME_LAYERS
1000
1
  0
LINE
  5
1F2
330
1F
100
AcDbEntity
  8
P-0000
  6
STRICHLINIE
 62
     2
100
AcDbLine
 10
618.4577719180879
 20
394.2728338819251
 30
0.0
 11
608.4577719180879
 21
394.2728338819251
 31
0.0
1001
ACME_LAYERS
1000
1
  0
LINE
  5
1F3
330
1F
100
AcDbEntity
  8
P-0000
  6
STRICHLINIE
 62
     2
100
AcDbLine
 10
618.4577719180879
 20
394.2728338819251
 30
0.0
 11
618.4577719180879
 21
392.2728338819251
 31
0.0
1001
ACME_LAYERS
1000
1
  0
LINE
  5
1F4
330
1F
100
AcDbEntity
  8
P-0000
  6
Continuous
 62
     7
100
AcDbLine
 10
623.957771918087
 20
392.2728338819251
 30
0.0
 11
621.9577719180878
 21
392.2728338819251
 31
0.0
1001
ACME_LAYERS
1000
1
  0
LINE
  5
1F5
330
1F
100
AcDbEntity
  8
P-0000
  6
Continuous
 62
     7
100
AcDbLine
 10
602.9577719180878
 20
394.2728338819251
 30
0.0
 11
602.9577719180878
 21
396.7728338819251
 31
0.0
1001
ACME_LAYERS
1000
1
  0
LINE
  5
1F6
330
1F
100
AcDbEntity
  8
P-0000
  6
Continuous
 62
     7
100
AcDbLine
 10
623.957771918087
 20
394.2728338819251
 30
0.0
 11
623.957771918087
 21
392.2728338819251
 31
0.0
1001
ACME_LAYERS
1000
1
  0
LINE
  5
1F7
330
1F
100
AcDbEntity
  8
P-0000
  6
STRICHLINIE
 62
     2
100
AcDbLine
 10
623.957771918087
 20
394.2728338819251
 30
0.0
 11
621.9577719180878
 21
394.2728338819251
 31
0.0
1001
ACME_LAYERS
1000
1
  0
LINE
  5
1F8
330
1F
100
AcDbEntity
  8
P-0000
  6
Continuous
 62
     7
100
AcDbLine
 10
602.9577719180878
 20
435.772833881925
 30
0.0
 11
610.47468282031
 21
435.772833881925
 31
0.0
1001
ACME_LAYERS
1000
1
  0
LINE
  5
1F9
330
1F
100
AcDbEntity
  8
P-0000
  6
STRICHLINIE
 62
     2
100
AcDbLine
 10
602.9577719180878
 20
432.772833881925
 30
0.0
 11
602.9577719180878
 21
435.772833881925
 31
0.0
1001
ACME_LAYERS
1000
1
  0
LINE
  5
1FA
330
1F
100
AcDbEntity
  8
P-0000
  6
STRICHLINIE
 62
     2
100
AcDbLine
 10
602.9577719180878
 20
414.772833881925
 30
0.0
 11
602.9577719180878
 21
417.772833881925
 31
0.0
1001
ACME_LAYERS
1000
1
  0
LINE
  5
1FB
330
1F
100
AcDbEntity
  8
P-0000
  6
STRICHLINIE
 62
     2
100
AcDbLine
 10
602.9577719180878
 20
396.7728338819251
 30
0.0
 11
602.9577719180878
 21
399.7728338819251
 31
0.0
1001
ACME_LAYERS
1000
1
  0
LINE
  5
1FC
330
1F
100
AcDbEntity
  8
P-0000
  6
STRICHLINIE
 62
     2
100
AcDbLine
 10
623.957771918087
 20
399.7728338819251
 30
0.0
 11
623.957771918087
 21
396.7728338819251
 31
0.0
1001
ACME_LAYERS
1000
1
  0
LINE
  5
1FD
330
1F
100
AcDbEntity
  8
P-0000
  6
STRICHLINIE
 62
     2
100
AcDbLine
 10
623.957771918087
 20
417.772833881925
 30
0.0
 11
623.957771918087
 21
414.772833881925
 31
0.0
1001
ACME_LAYERS
1000
1
  0
LINE
  5
1FE
330
1F
100
AcDbEntity
  8
P-0000
  6
STRICHLINIE
 62
     2
100
AcDbLine
 10
623.957771918087
 20
435.772833881925
 30
0.0
 11
623.957771918087
 21
432.772833881925
 31
0.0
1001
ACME_LAYERS
1000
1
  0
LINE
  5
1FF
330
1F
100
AcDbEntity
  8
P-0000
  6
Continuous
 62
     7
100
AcDbLine
 10
602.9577719180878
 20
417.772833881925
 30
0.0
 11
602.9577719180878
 21
432.772833881925
 31
0.0
1001
ACME_LAYERS
1000
1
  0
LINE
  5
200
330
1F
100
AcDbEntity
  8
P-0000
  6
Continuous
 62
     7
100
AcDbLine
 10
602.9577719180878
 20
399.7728338819251
 30
0.0
 11
602.9577719180878
 21
414.772833881925
 31
0.0
1001
ACME_LAYERS
1000
1
  0
LINE
  5
201
330
1F
100
AcDbEntity
  8
P-0000
  6
Continuous
 62
     7
100
AcDbLine
 10
602.9577719180878
 20
392.2728338819251
 30
0.0
 11
602.9577719180878
 21
394.2728338819251
 31
0.0
1001
ACME_LAYERS
1000
1
  0
LINE
  5
202
330
1F
100
AcDbEntity
  8
P-0000
  6
Continuous
 62
     7
100
AcDbLine
 10
623.957771918087
 20
396.7728338819251
 30
0.0
 11
623.957771918087
 21
394.2728338819251
 31
0.0
1001
ACME_LAYERS
1000
1
  0
LINE
  5
203
330
1F
100
AcDbEntity
  8
P-0000
  6
Continuous
 62
     7
100
AcDbLine
 10
623.957771918087
 20
414.772833881925
 30
0.0
 11
623.957771918087
 21
399.7728338819251
 31
0.0
1001
ACME_LAYERS
1000
1
  0
LINE
  5
204
330
1F
100
AcDbEntity
  8
P-0000
  6
Continuous
 62
     7
100
AcDbLine
 10
623.957771918087
 20
432.772833881925
 30
0.0
 11
623.957771918087
 21
417.772833881925
 31
0.0
1001
ACME_LAYERS
1000
1
  0
LINE
  5
205
330
1F
100
AcDbEntity
  8
P-0000
  6
STRICHLINIE
 62
     2
100
AcDbLine
 10
616.4408610158655
 20
435.772833881925
 30
0.0
 11
610.47468282031
 21
435.772833881925
 31
0.0
1001
ACME_LAYERS
1000
1
  0
LINE
  5
21F
330
1F
100
AcDbEntity
  8
AM_7
100
AcDbLine
 10
613.4577719180878
 20
496.4783878011841
 30
0.0
 11
613.4577719180878
 21
471.7728338819251
 31
0.0
1001
ACME_LAYERS
1000
1
  0
LINE
  5
24B
330
1F
100
AcDbEntity
  8
P-0000
  6
Continuous
 62
     7
100
AcDbLine
 10
749.2077719180879
 20
471.7728338819251
 30
0.0
 11
613.4577719180878
 21
471.7728338819251
 31
0.0
1001
ACME_LAYERS
1000
1
  0
LINE
  5
24C
330
1F
100
AcDbEntity
  8
P-0000
  6
Continuous
 62
     7
100
AcDbLine
 10
749.2077719180879
 20
471.7728338819251
 30
0.0
 11
749.2077719180879
 21
453.772833881925
 31
0.0
1001
ACME_LAYERS
1000
1
  0
LINE
  5
24D
330
1F
100
AcDbEntity
  8
P-0000
  6
Continuous
 62
     7
100
AcDbLine
 10
749.2077719180879
 20
453.772833881925
 30
0.0
 11
749.2077719180879
 21
396.7728338819251
 31
0.0
1001
ACME_LAYERS
1000
1
  0
LINE
  5
24E
330
1F
100
AcDbEntity
  8
P-0000
  6
Continuous
 62
     7
100
AcDbLine
 10
616.4408610158655
 20
435.772833881925
 30
0.0
 11
623.957771918087
 21
435.772833881925
 31
0.0
1001
ACME_LAYERS
1000
1
  0
LINE
  5
2BC
330
1F
100
AcDbEntity
  8
P-0000
  6
Continuous
 62
     7
100
AcDbLine
 10
477.7077719180878
 20
450.7728338819251
 30
0.0
 11
477.7077719180878
 21
453.7728338819252
 31
0.0
1001
ACME_LAYERS
1000
1
  0
LINE
  5
2BD
330
1F
100
AcDbEntity
  8
P-0000
  6
Continuous
 62
     7
100
AcDbLine
 10
613.4577719180878
 20
471.7728338819251
 30
0.0
 11
477.7077719180878
 21
471.7728338819251
 31
0.0
1001
ACME_LAYERS
1000
1
  0
LINE
  5
2BE
330
1F
100
AcDbEntity
  8
AM_7
100
AcDbLine
 10
613.4577719180878
 20
396.7728338819251
 30
0.0
 11
613.4577719180878
 21
372.0672799626661
 31
0.0
1001
ACME_LAYERS
1000
1
  0
LINE
  5
2BF
330
1F
100
AcDbEntity
  8
P-0000
  6
Continuous
 62
     7
100
AcDbLine
 10
738.3990714009541
 20
463.772833881925
 30
0.0
 11
737.0902202150449
 21
463.772833881925
 31
0.0
1001
ACME_LAYERS
1000
1
  0
LINE
  5
2C0
330
1F
100
AcDbEntity
  8
P-0000
  6
Continuous
 62
     7
100
AcDbLine
 10
738.3990714009541
 20
453.7728338819252
 30
0.0
 11
737.0902202150449
 21
453.7728338819252
 31
0.0
1001
ACME_LAYERS
1000
1
  0
LINE
  5
2C1
330
1F
100
AcDbEntity
  8
P-0000
  6
Continuous
 62
     7
100
AcDbLine
 10
738.3990714009541
 20
463.772833881925
 30
0.0
 11
738.3990714009541
 21
453.7728338819252
 31
0.0
1001
ACME_LAYERS
1000
1
  0
LINE
  5
2C2
330
1F
100
AcDbEntity
  8
P-0000
  6
Continuous
 62
     7
100
AcDbLine
 10
737.0902202150449
 20
453.7728338819252
 30
0.0
 11
737.0902202150449
 21
463.772833881925
 31
0.0
1001
ACME_LAYERS
1000
1
  0
LINE
  5
2C3
330
1F
100
AcDbEntity
  8
P-0000
  6
Continuous
 62
     7
100
AcDbLine
 10
737.0902202150449
 20
463.772833881925
 30
0.0
 11
721.8990714009541
 21
463.772833881925
 31
0.0
1001
ACME_LAYERS
1000
1
  0
LINE
  5
2C4
330
1F
100
AcDbEntity
  8
P-0000
  6
Continuous
 62
     7
100
AcDbLine
 10
737.0902202150449
 20
453.7728338819252
 30
0.0
 11
721.8990714009541
 21
453.7728338819252
 31
0.0
1001
ACME_LAYERS
1000
1
  0
LINE
  5
2C5
330
1F
100
AcDbEntity
  8
P-0000
  6
Continuous
 62
     7
100
AcDbLine
 10
721.8990714009541
 20
453.7728338819252
 30
0.0
 11
721.8990714009541
 21
463.772833881925
 31
0.0
1001
ACME_LAYERS
1000
1
  0
LINE
  5
2C6
330
1F
100
AcDbEntity
  8
P-0000
  6
Continuous
 62
     7
100
AcDbLine
 10
613.4577719180878
 20
471.7728338819251
 30
0.0
 11
477.7077719180878
 21
471.7728338819251
 31
0.0
1001
ACME_LAYERS
1000
1
  0
LINE
  5
2C7
330
1F
100
AcDbEntity
  8
P-0000
  6
Continuous
 62
     7
100
AcDbLine
 10
505.0164724352216
 20
463.7728338819251
 30
0.0
 11
505.0164724352216
 21
453.7728338819253
 31
0.0
1001
ACME_LAYERS
1000
1
  0
LINE
  5
2C8
330
1F
100
AcDbEntity
  8
P-0000
  6
Continuous
 62
     7
100
AcDbLine
 10
505.0164724352216
 20
453.7728338819253
 30
0.0
 11
489.8253236211308
 21
453.7728338819253
 31
0.0
1001
ACME_LAYERS
1000
1
  0
LINE
  5
2C9
330
1F
100
AcDbEntity
  8
P-0000
  6
Continuous
 62
     7
100
AcDbLine
 10
505.0164724352216
 20
463.7728338819251
 30
0.0
 11
489.8253236211308
 21
463.7728338819251
 31
0.0
1001
ACME_LAYERS
1000
1
  0
LINE
  5
2CA
330
1F
100
AcDbEntity
  8
P-0000
  6
Continuous
 62
     7
100
AcDbLine
 10
489.8253236211308
 20
463.7728338819251
 30
0.0
 11
489.8253236211308
 21
453.7728338819253
 31
0.0
1001
ACME_LAYERS
1000
1
  0
LINE
  5
2CB
330
1F
100
AcDbEntity
  8
P-0000
  6
Continuous
 62
     7
100
AcDbLine
 10
488.5164724352216
 20
453.7728338819253
 30
0.0
 11
488.5164724352216
 21
463.7728338819251
 31
0.0
1001
ACME_LAYERS
1000
1
  0
LINE
  5
2CC
330
1F
100
AcDbEntity
  8
P-0000
  6
Continuous
 62
     7
100
AcDbLine
 10
489.8253236211308
 20
453.7728338819253
 30
0.0
 11
488.5164724352216
 21
453.7728338819253
 31
0.0
1001
ACME_LAYERS
1000
1
  0
LINE
  5
2CD
330
1F
100
AcDbEntity
  8
P-0000
  6
Continuous
 62
     7
100
AcDbLine
 10
489.8253236211308
 20
463.7728338819251
 30
0.0
 11
488.5164724352216
 21
463.7728338819251
 31
0.0
1001
ACME_LAYERS
1000
1
  0
LINE
  5
2CE
330
1F
100
AcDbEntity
  8
P-0000
  6
STRICHLINIE
 62
     2
100
AcDbLine
 10
638.9577719180878
 20
463.772833881925
 30
0.0
 11
638.9577719180878
 21
453.7728338819252
 31
0.0
1001
ACME_LAYERS
1000
1
  0
LINE
  5
2CF
330
1F
100
AcDbEntity
  8
P-0000
  6
STRICHLINIE
 62
     2
100
AcDbLine
 10
638.9577719180878
 20
453.7728338819252
 30
0.0
 11
587.9577719180878
 21
453.7728338819252
 31
0.0
1001
ACME_LAYERS
1000
1
  0
LINE
  5
2D0
330
1F
100
AcDbEntity
  8
P-0000
  6
STRICHLINIE
 62
     2
100
AcDbLine
 10
587.9577719180878
 20
453.7728338819252
 30
0.0
 11
587.9577719180878
 21
463.772833881925
 31
0.0
1001
ACME_LAYERS
1000
1
  0
LINE
  5
2D1
330
1F
100
AcDbEntity
  8
P-0000
  6
STRICHLINIE
 62
     2
100
AcDbLine
 10
587.9577719180878
 20
463.772833881925
 30
0.0
 11
638.9577719180878
 21
463.772833881925
 31
0.0
1001
ACME_LAYERS
1000
1
  0
LINE
  5
2D2
330
1F
100
AcDbEntity
  8
P-0000
  6
Continuous
 62
     7
100
AcDbLine
 10
478.4430658123492
 20
399.7728338819252
 30
0.0
 11
479.2077719180878
 21
399.7728338819252
 31
0.0
1001
ACME_LAYERS
1000
1
  0
LINE
  5
2D3
330
1F
100
AcDbEntity
  8
P-0000
  6
Continuous
 62
     7
100
AcDbLine
 10
479.9349410179373
 20
414.7728338819251
 30
0.0
 11
479.2077719180878
 21
414.7728338819251
 31
0.0
1001
ACME_LAYERS
1000
1
  0
LINE
  5
2D4
330
1F
100
AcDbEntity
  8
P-0000
  6
Continuous
 62
     7
100
AcDbLine
 10
479.2077719180878
 20
414.7728338819251
 30
0.0
 11
479.2077719180878
 21
399.7728338819252
 31
0.0
1001
ACME_LAYERS
1000
1
  0
LINE
  5
2D5
330
1F
100
AcDbEntity
  8
P-0000
  6
Continuous
 62
     7
100
AcDbLine
 10
480.8401863109503
 20
414.7728338819251
 30
0.0
 11
479.9349410179373
 21
414.7728338819251
 31
0.0
1001
ACME_LAYERS
1000
1
  0
LINE
  5
2D6
330
1F
100
AcDbEntity
  8
P-0000
  6
Continuous
 62
     7
100
AcDbLine
 10
479.2077719180878
 20
399.7728338819252
 30
0.0
 11
479.9349410179373
 21
399.7728338819252
 31
0.0
1001
ACME_LAYERS
1000
1
  0
LINE
  5
2D7
330
1F
100
AcDbEntity
  8
P-0000
  6
Continuous
 62
     7
100
AcDbLine
 10
479.9349410179373
 20
414.7728338819251
 30
0.0
 11
479.9349410179373
 21
399.7728338819252
 31
0.0
1001
ACME_LAYERS
1000
1
  0
LINE
  5
2D8
330
1F
100
AcDbEntity
  8
P-0000
  6
Continuous
 62
     7
100
AcDbLine
 10
480.8401863109503
 20
399.7728338819252
 30
0.0
 11
480.8401863109503
 21
414.7728338819251
 31
0.0
1001
ACME_LAYERS
1000
1
  0
LINE
  5
2D9
330
1F
100
AcDbEntity
  8
P-0000
  6
Continuous
 62
     7
100
AcDbLine
 10
479.2077719180878
 20
414.7728338819251
 30
0.0
 11
478.4430658123492
 21
414.7728338819251
 31
0.0
1001
ACME_LAYERS
1000
1
  0
LINE
  5
2DA
330
1F
100
AcDbEntity
  8
P-0000
  6
Continuous
 62
     7
100
AcDbLine
 10
478.4430658123492
 20
414.7728338819251
 30
0.0
 11
478.4430658123492
 21
399.7728338819252
 31
0.0
1001
ACME_LAYERS
1000
1
  0
LINE
  5
2DB
330
1F
100
AcDbEntity
  8
P-0000
  6
Continuous
 62
     7
100
AcDbLine
 10
479.9349410179373
 20
399.7728338819252
 30
0.0
 11
480.8401863109503
 21
399.7728338819252
 31
0.0
1001
ACME_LAYERS
1000
1
  0
LINE
  5
2DC
330
1F
100
AcDbEntity
  8
P-0000
  6
Continuous
 62
     7
100
AcDbLine
 10
485.8716579838397
 20
414.7728338819251
 30
0.0
 11
482.9750903039241
 21
414.7728338819251
 31
0.0
1001
ACME_LAYERS
1000
1
  0
LINE
  5
2DD
330
1F
100
AcDbEntity
  8
P-0000
  6
Continuous
 62
     7
100
AcDbLine
 10
485.8716579838397
 20
399.7728338819252
 30
0.0
 11
482.9750903039241
 21
399.7728338819252
 31
0.0
1001
ACME_LAYERS
1000
1
  0
LINE
  5
2DE
330
1F
100
AcDbEntity
  8
P-0000
  6
Continuous
 62
     7
100
AcDbLine
 10
482.9750903039241
 20
399.7728338819252
 30
0.0
 11
482.9750903039241
 21
414.7728338819251
 31
0.0
1001
ACME_LAYERS
1000
1
  0
LINE
  5
2DF
330
1F
100
AcDbEntity
  8
P-0000
  6
Continuous
 62
     7
100
AcDbLine
 10
482.9750903039241
 20
414.7728338819251
 30
0.0
 11
481.5171832467828
 21
414.7728338819251
 31
0.0
1001
ACME_LAYERS
1000
1
  0
LINE
  5
2E0
330
1F
100
AcDbEntity
  8
P-0000
  6
Continuous
 62
     7
100
AcDbLine
 10
481.5171832467828
 20
414.7728338819251
 30
0.0
 11
481.5171832467828
 21
399.7728338819252
 31
0.0
1001
ACME_LAYERS
1000
1
  0
LINE
  5
2E1
330
1F
100
AcDbEntity
  8
P-0000
  6
Continuous
 62
     7
100
AcDbLine
 10
482.9750903039241
 20
399.7728338819252
 30
0.0
 11
481.5171832467828
 21
399.7728338819252
 31
0.0
1001
ACME_LAYERS
1000
1
  0
LINE
  5
2E2
330
1F
100
AcDbEntity
  8
P-0000
  6
Continuous
 62
     7
100
AcDbLine
 10
485.8716579838397
 20
414.7728338819251
 30
0.0
 11
485.8716579838397
 21
399.7728338819252
 31
0.0
1001
ACME_LAYERS
1000
1
  0
LINE
  5
2E3
330
1F
100
AcDbEntity
  8
P-0000
  6
Continuous
 62
     7
100
AcDbLine
 10
493.1679709074434
 20
414.7728338819251
 30
0.0
 11
493.1679709074434
 21
399.7728338819252
 31
0.0
1001
ACME_LAYERS
1000
1
  0
LINE
  5
2E4
330
1F
100
AcDbEntity
  8
P-0000
  6
Continuous
 62
     7
100
AcDbLine
 10
493.1679709074434
 20
414.7728338819251
 30
0.0
 11
488.3314991789124
 21
414.7728338819251
 31
0.0
1001
ACME_LAYERS
1000
1
  0
LINE
  5
2E5
330
1F
100
AcDbEntity
  8
P-0000
  6
Continuous
 62
     7
100
AcDbLine
 10
486.9334402656256
 20
399.7728338819252
 30
0.0
 11
488.3314991789124
 21
399.7728338819252
 31
0.0
1001
ACME_LAYERS
1000
1
  0
LINE
  5
2E6
330
1F
100
AcDbEntity
  8
P-0000
  6
Continuous
 62
     7
100
AcDbLine
 10
488.3314991789124
 20
399.7728338819252
 30
0.0
 11
488.3314991789124
 21
414.7728338819251
 31
0.0
1001
ACME_LAYERS
1000
1
  0
LINE
  5
2E7
330
1F
100
AcDbEntity
  8
P-0000
  6
Continuous
 62
     7
100
AcDbLine
 10
488.3314991789124
 20
414.7728338819251
 30
0.0
 11
486.9334402656256
 21
414.7728338819251
 31
0.0
1001
ACME_LAYERS
1000
1
  0
LINE
  5
2E8
330
1F
100
AcDbEntity
  8
P-0000
  6
Continuous
 62
     7
100
AcDbLine
 10
486.9334402656256
 20
414.7728338819251
 30
0.0
 11
486.9334402656256
 21
399.7728338819252
 31
0.0
1001
ACME_LAYERS
1000
1
  0
LINE
  5
2E9
330
1F
100
AcDbEntity
  8
P-0000
  6
Continuous
 62
     7
100
AcDbLine
 10
488.3314991789124
 20
399.7728338819252
 30
0.0
 11
493.1679709074434
 21
399.7728338819252
 31
0.0
1001
ACME_LAYERS
1000
1
  0
LINE
  5
2EA
330
1F
100
AcDbEntity
  8
P-0000
  6
Continuous
 62
     7
100
AcDbLine
 10
502.5996047916773
 20
414.7728338819251
 30
0.0
 11
495.9090835040274
 21
414.7728338819251
 31
0.0
1001
ACME_LAYERS
1000
1
  0
LINE
  5
2EB
330
1F
100
AcDbEntity
  8
P-0000
  6
Continuous
 62
     7
100
AcDbLine
 10
494.5956903373898
 20
399.7728338819252
 30
0.0
 11
495.9090835040274
 21
399.7728338819252
 31
0.0
1001
ACME_LAYERS
1000
1
  0
LINE
  5
2EC
330
1F
100
AcDbEntity
  8
P-0000
  6
Continuous
 62
     7
100
AcDbLine
 10
495.9090835040274
 20
399.7728338819252
 30
0.0
 11
495.9090835040274
 21
414.7728338819251
 31
0.0
1001
ACME_LAYERS
1000
1
  0
LINE
  5
2ED
330
1F
100
AcDbEntity
  8
P-0000
  6
Continuous
 62
     7
100
AcDbLine
 10
495.9090835040274
 20
414.7728338819251
 30
0.0
 11
494.5956903373898
 21
414.7728338819251
 31
0.0
1001
ACME_LAYERS
1000
1
  0
LINE
  5
2EE
330
1F
100
AcDbEntity
  8
P-0000
  6
Continuous
 62
     7
100
AcDbLine
 10
494.5956903373898
 20
414.7728338819251
 30
0.0
 11
494.5956903373898
 21
399.7728338819252
 31
0.0
1001
ACME_LAYERS
1000
1
  0
LINE
  5
2EF
330
1F
100
AcDbEntity
  8
P-0000
  6
Continuous
 62
     7
100
AcDbLine
 10
495.9090835040274
 20
399.7728338819252
 30
0.0
 11
502.5996047916773
 21
399.7728338819252
 31
0.0
1001
ACME_LAYERS
1000
1
  0
LINE
  5
2F0
330
1F
100
AcDbEntity
  8
P-0000
  6
Continuous
 62
     7
100
AcDbLine
 10
502.5996047916773
 20
414.7728338819251
 30
0.0
 11
502.5996047916773
 21
399.7728338819252
 31
0.0
1001
ACME_LAYERS
1000
1
  0
LINE
  5
2F1
330
1F
100
AcDbEntity
  8
P-0000
  6
Continuous
 62
     7
100
AcDbLine
 10
513.9991342575253
 20
414.7728338819251
 30
0.0
 11
505.5733300079493
 21
414.7728338819251
 31
0.0
1001
ACME_LAYERS
1000
1
  0
LINE
  5
2F2
330
1F
100
AcDbEntity
  8
P-0000
  6
Continuous
 62
     7
100
AcDbLine
 10
504.367917249177
 20
399.7728338819252
 30
0.0
 11
505.5733300079493
 21
399.7728338819252
 31
0.0
1001
ACME_LAYERS
1000
1
  0
LINE
  5
2F3
330
1F
100
AcDbEntity
  8
P-0000
  6
Continuous
 62
     7
100
AcDbLine
 10
505.5733300079493
 20
399.7728338819252
 30
0.0
 11
505.5733300079493
 21
414.7728338819251
 31
0.0
1001
ACME_LAYERS
1000
1
  0
LINE
  5
2F4
330
1F
100
AcDbEntity
  8
P-0000
  6
Continuous
 62
     7
100
AcDbLine
 10
505.5733300079493
 20
414.7728338819251
 30
0.0
 11
504.367917249177
 21
414.7728338819251
 31
0.0
1001
ACME_LAYERS
1000
1
  0
LINE
  5
2F5
330
1F
100
AcDbEntity
  8
P-0000
  6
Continuous
 62
     7
100
AcDbLine
 10
504.367917249177
 20
414.7728338819251
 30
0.0
 11
504.367917249177
 21
399.7728338819252
 31
0.0
1001
ACME_LAYERS
1000
1
  0
LINE
  5
2F6
330
1F
100
AcDbEntity
  8
P-0000
  6
Continuous
 62
     7
100
AcDbLine
 10
505.5733300079493
 20
399.7728338819252
 30
0.0
 11
513.9991342575253
 21
399.7728338819252
 31
0.0
1001
ACME_LAYERS
1000
1
  0
LINE
  5
2F7
330
1F
100
AcDbEntity
  8
P-0000
  6
Continuous
 62
     7
100
AcDbLine
 10
513.9991342575253
 20
414.7728338819251
 30
0.0
 11
513.9991342575253
 21
399.7728338819252
 31
0.0
1001
ACME_LAYERS
1000
1
  0
LINE
  5
2F8
330
1F
100
AcDbEntity
  8
P-0000
  6
Continuous
 62
     7
100
AcDbLine
 10
527.1642008838641
 20
414.7728338819251
 30
0.0
 11
517.1526840953998
 21
414.7728338819251
 31
0.0
1001
ACME_LAYERS
1000
1
  0
LINE
  5
2F9
330
1F
100
AcDbEntity
  8
P-0000
  6
Continuous
 62
     7
100
AcDbLine
 10
516.0766495945877
 20
399.7728338819252
 30
0.0
 11
517.1526840953998
 21
399.7728338819252
 31
0.0
1001
ACME_LAYERS
1000
1
  0
LINE
  5
2FA
330
1F
100
AcDbEntity
  8
P-0000
  6
Continuous
 62
     7
100
AcDbLine
 10
517.1526840953998
 20
399.7728338819252
 30
0.0
 11
517.1526840953998
 21
414.7728338819251
 31
0.0
1001
ACME_LAYERS
1000
1
  0
LINE
  5
2FB
330
1F
100
AcDbEntity
  8
P-0000
  6
Continuous
 62
     7
100
AcDbLine
 10
517.1526840953998
 20
414.7728338819251
 30
0.0
 11
516.0766495945877
 21
414.7728338819251
 31
0.0
1001
ACME_LAYERS
1000
1
  0
LINE
  5
2FC
330
1F
100
AcDbEntity
  8
P-0000
  6
Continuous
 62
     7
100
AcDbLine
 10
516.0766495945877
 20
414.7728338819251
 30
0.0
 11
516.0766495945877
 21
399.7728338819252
 31
0.0
1001
ACME_LAYERS
1000
1
  0
LINE
  5
2FD
330
1F
100
AcDbEntity
  8
P-0000
  6
Continuous
 62
     7
100
AcDbLine
 10
517.1526840953998
 20
399.7728338819252
 30
0.0
 11
527.1642008838641
 21
399.7728338819252
 31
0.0
1001
ACME_LAYERS
1000
1
  0
LINE
  5
2FE
330
1F
100
AcDbEntity
  8
P-0000
  6
Continuous
 62
     7
100
AcDbLine
 10
527.1642008838641
 20
414.7728338819251
 30
0.0
 11
527.1642008838641
 21
399.7728338819252
 31
0.0
1001
ACME_LAYERS
1000
1
  0
LINE
  5
2FF
330
1F
100
AcDbEntity
  8
P-0000
  6
Continuous
 62
     7
100
AcDbLine
 10
529.51404014643
 20
399.7728338819252
 30
0.0
 11
530.4415951936306
 21
399.7728338819252
 31
0.0
1001
ACME_LAYERS
1000
1
  0
LINE
  5
300
330
1F
100
AcDbEntity
  8
P-0000
  6
Continuous
 62
     7
100
AcDbLine
 10
530.4415951936306
 20
399.7728338819252
 30
0.0
 11
530.4415951936306
 21
414.7728338819251
 31
0.0
1001
ACME_LAYERS
1000
1
  0
LINE
  5
301
330
1F
100
AcDbEntity
  8
P-0000
  6
Continuous
 62
     7
100
AcDbLine
 10
530.4415951936306
 20
414.7728338819251
 30
0.0
 11
529.51404014643
 21
414.7728338819251
 31
0.0
1001
ACME_LAYERS
1000
1
  0
LINE
  5
302
330
1F
100
AcDbEntity
  8
P-0000
  6
Continuous
 62
     7
100
AcDbLine
 10
529.51404014643
 20
414.7728338819251
 30
0.0
 11
529.51404014643
 21
399.7728338819252
 31
0.0
1001
ACME_LAYERS
1000
1
  0
LINE
  5
303
330
1F
100
AcDbEntity
  8
P-0000
  6
Continuous
 62
     7
100
AcDbLine
 10
530.4415951936306
 20
399.7728338819252
 30
0.0
 11
541.8611053671854
 21
399.7728338819252
 31
0.0
1001
ACME_LAYERS
1000
1
  0
LINE
  5
304
330
1F
100
AcDbEntity
  8
P-0000
  6
Continuous
 62
     7
100
AcDbLine
 10
557.8289560280953
 20
414.772833881925
 30
0.0
 11
557.8289560280953
 21
399.7728338819251
 31
0.0
1001
ACME_LAYERS
1000
1
  0
LINE
  5
305
330
1F
100
AcDbEntity
  8
P-0000
  6
Continuous
 62
     7
100
AcDbLine
 10
557.8289560280953
 20
414.772833881925
 30
0.0
 11
545.2041655775345
 21
414.7728338819251
 31
0.0
1001
ACME_LAYERS
1000
1
  0
LINE
  5
306
330
1F
100
AcDbEntity
  8
P-0000
  6
Continuous
 62
     7
100
AcDbLine
 10
557.8289560280953
 20
399.7728338819251
 30
0.0
 11
545.2041655775345
 21
399.7728338819252
 31
0.0
1001
ACME_LAYERS
1000
1
  0
LINE
  5
307
330
1F
100
AcDbEntity
  8
P-0000
  6
Continuous
 62
     7
100
AcDbLine
 10
545.2041655775345
 20
399.7728338819252
 30
0.0
 11
545.2041655775345
 21
414.7728338819251
 31
0.0
1001
ACME_LAYERS
1000
1
  0
LINE
  5
308
330
1F
100
AcDbEntity
  8
P-0000
  6
Continuous
 62
     7
100
AcDbLine
 10
545.2041655775345
 20
414.7728338819251
 30
0.0
 11
544.4415554508245
 21
414.7728338819251
 31
0.0
1001
ACME_LAYERS
1000
1
  0
LINE
  5
309
330
1F
100
AcDbEntity
  8
P-0000
  6
Continuous
 62
     7
100
AcDbLine
 10
544.4415554508245
 20
414.7728338819251
 30
0.0
 11
544.4415554508245
 21
399.7728338819252
 31
0.0
1001
ACME_LAYERS
1000
1
  0
LINE
  5
30A
330
1F
100
AcDbEntity
  8
P-0000
  6
Continuous
 62
     7
100
AcDbLine
 10
545.2041655775345
 20
399.7728338819252
 30
0.0
 11
544.4415554508245
 21
399.7728338819252
 31
0.0
1001
ACME_LAYERS
1000
1
  0
LINE
  5
30B
330
1F
100
AcDbEntity
  8
P-0000
  6
Continuous
 62
     7
100
AcDbLine
 10
574.7843000224961
 20
414.772833881925
 30
0.0
 11
561.1783379013626
 21
414.772833881925
 31
0.0
1001
ACME_LAYERS
1000
1
  0
LINE
  5
30C
330
1F
100
AcDbEntity
  8
P-0000
  6
Continuous
 62
     7
100
AcDbLine
 10
560.594210146986
 20
399.7728338819251
 30
0.0
 11
561.1783379013626
 21
399.7728338819251
 31
0.0
1001
ACME_LAYERS
1000
1
  0
LINE
  5
30D
330
1F
100
AcDbEntity
  8
P-0000
  6
Continuous
 62
     7
100
AcDbLine
 10
561.1783379013626
 20
399.7728338819251
 30
0.0
 11
561.1783379013626
 21
414.772833881925
 31
0.0
1001
ACME_LAYERS
1000
1
  0
LINE
  5
30E
330
1F
100
AcDbEntity
  8
P-0000
  6
Continuous
 62
     7
100
AcDbLine
 10
561.1783379013626
 20
414.772833881925
 30
0.0
 11
560.594210146986
 21
414.772833881925
 31
0.0
1001
ACME_LAYERS
1000
1
  0
LINE
  5
30F
330
1F
100
AcDbEntity
  8
P-0000
  6
Continuous
 62
     7
100
AcDbLine
 10
560.594210146986
 20
414.772833881925
 30
0.0
 11
560.594210146986
 21
399.7728338819251
 31
0.0
1001
ACME_LAYERS
1000
1
  0
LINE
  5
310
330
1F
100
AcDbEntity
  8
P-0000
  6
Continuous
 62
     7
100
AcDbLine
 10
561.1783379013626
 20
399.7728338819251
 30
0.0
 11
574.7843000224961
 21
399.7728338819251
 31
0.0
1001
ACME_LAYERS
1000
1
  0
LINE
  5
311
330
1F
100
AcDbEntity
  8
P-0000
  6
Continuous
 62
     7
100
AcDbLine
 10
574.7843000224961
 20
414.772833881925
 30
0.0
 11
574.7843000224961
 21
399.7728338819251
 31
0.0
1001
ACME_LAYERS
1000
1
  0
LINE
  5
312
330
1F
100
AcDbEntity
  8
P-0000
  6
Continuous
 62
     7
100
AcDbLine
 10
592.4261550466368
 20
414.772833881925
 30
0.0
 11
592.4261550466368
 21
399.7728338819251
 31
0.0
1001
ACME_LAYERS
1000
1
  0
LINE
  5
313
330
1F
100
AcDbEntity
  8
P-0000
  6
Continuous
 62
     7
100
AcDbLine
 10
592.4261550466368
 20
414.772833881925
 30
0.0
 11
578.0805471021984
 21
414.772833881925
 31
0.0
1001
ACME_LAYERS
1000
1
  0
LINE
  5
314
330
1F
100
AcDbEntity
  8
P-0000
  6
Continuous
 62
     7
100
AcDbLine
 10
577.6852708472724
 20
399.7728338819251
 30
0.0
 11
578.0805471021984
 21
399.7728338819251
 31
0.0
1001
ACME_LAYERS
1000
1
  0
LINE
  5
315
330
1F
100
AcDbEntity
  8
P-0000
  6
Continuous
 62
     7
100
AcDbLine
 10
578.0805471021984
 20
399.7728338819251
 30
0.0
 11
578.0805471021984
 21
414.772833881925
 31
0.0
1001
ACME_LAYERS
1000
1
  0
LINE
  5
316
330
1F
100
AcDbEntity
  8
P-0000
  6
Continuous
 62
     7
100
AcDbLine
 10
578.0805471021984
 20
414.772833881925
 30
0.0
 11
577.6852708472724
 21
414.772833881925
 31
0.0
1001
ACME_LAYERS
1000
1
  0
LINE
  5
317
330
1F
100
AcDbEntity
  8
P-0000
  6
Continuous
 62
     7
100
AcDbLine
 10
577.6852708472724
 20
414.772833881925
 30
0.0
 11
577.6852708472724
 21
399.7728338819251
 31
0.0
1001
ACME_LAYERS
1000
1
  0
LINE
  5
318
330
1F
100
AcDbEntity
  8
P-0000
  6
Continuous
 62
     7
100
AcDbLine
 10
578.0805471021984
 20
399.7728338819251
 30
0.0
 11
592.4261550466368
 21
399.7728338819251
 31
0.0
1001
ACME_LAYERS
1000
1
  0
LINE
  5
319
330
1F
100
AcDbEntity
  8
P-0000
  6
Continuous
 62
     7
100
AcDbLine
 10
610.47468282031
 20
414.772833881925
 30
0.0
 11
595.6107540970585
 21
414.772833881925
 31
0.0
1001
ACME_LAYERS
1000
1
  0
LINE
  5
31A
330
1F
100
AcDbEntity
  8
P-0000
  6
Continuous
 62
     7
100
AcDbLine
 10
595.4113460767119
 20
399.7728338819251
 30
0.0
 11
595.6107540970585
 21
399.7728338819251
 31
0.0
1001
ACME_LAYERS
1000
1
  0
LINE
  5
31B
330
1F
100
AcDbEntity
  8
P-0000
  6
Continuous
 62
     7
100
AcDbLine
 10
595.6107540970585
 20
399.7728338819251
 30
0.0
 11
595.6107540970585
 21
414.772833881925
 31
0.0
1001
ACME_LAYERS
1000
1
  0
LINE
  5
31C
330
1F
100
AcDbEntity
  8
P-0000
  6
Continuous
 62
     7
100
AcDbLine
 10
595.6107540970585
 20
414.772833881925
 30
0.0
 11
595.4113460767119
 21
414.772833881925
 31
0.0
1001
ACME_LAYERS
1000
1
  0
LINE
  5
31D
330
1F
100
AcDbEntity
  8
P-0000
  6
Continuous
 62
     7
100
AcDbLine
 10
595.4113460767119
 20
414.772833881925
 30
0.0
 11
595.4113460767119
 21
399.7728338819251
 31
0.0
1001
ACME_LAYERS
1000
1
  0
LINE
  5
31E
330
1F
100
AcDbEntity
  8
P-0000
  6
Continuous
 62
     7
100
AcDbLine
 10
595.6107540970585
 20
399.7728338819251
 30
0.0
 11
610.47468282031
 21
399.7728338819251
 31
0.0
1001
ACME_LAYERS
1000
1
  0
LINE
  5
31F
330
1F
100
AcDbEntity
  8
P-0000
  6
Continuous
 62
     7
100
AcDbLine
 10
610.47468282031
 20
399.7728338819251
 30
0.0
 11
610.47468282031
 21
414.772833881925
 31
0.0
1001
ACME_LAYERS
1000
1
  0
LINE
  5
320
330
1F
100
AcDbEntity
  8
P-0000
  6
Continuous
 62
     7
100
AcDbLine
 10
477.7077719180878
 20
396.7728338819252
 30
0.0
 11
477.7077719180878
 21
411.7728338819252
 31
0.0
1001
ACME_LAYERS
1000
1
  0
LINE
  5
321
330
1F
100
AcDbEntity
  8
P-0000
  6
Continuous
 62
     7
100
AcDbLine
 10
749.2077719180879
 20
411.772833881925
 30
0.0
 11
749.2077719180879
 21
396.7728338819251
 31
0.0
1001
ACME_LAYERS
1000
1
  0
LINE
  5
322
330
1F
100
AcDbEntity
  8
P-0000
  6
Continuous
 62
     7
100
AcDbLine
 10
616.4408610158655
 20
414.772833881925
 30
0.0
 11
616.4408610158655
 21
399.7728338819251
 31
0.0
1001
ACME_LAYERS
1000
1
  0
LINE
  5
323
330
1F
100
AcDbEntity
  8
P-0000
  6
Continuous
 62
     7
100
AcDbLine
 10
616.4408610158655
 20
399.7728338819251
 30
0.0
 11
631.304789739117
 21
399.7728338819251
 31
0.0
1001
ACME_LAYERS
1000
1
  0
LINE
  5
324
330
1F
100
AcDbEntity
  8
P-0000
  6
Continuous
 62
     7
100
AcDbLine
 10
631.5041977594638
 20
399.7728338819251
 30
0.0
 11
631.5041977594638
 21
414.772833881925
 31
0.0
1001
ACME_LAYERS
1000
1
  0
LINE
  5
325
330
1F
100
AcDbEntity
  8
P-0000
  6
Continuous
 62
     7
100
AcDbLine
 10
631.5041977594638
 20
414.772833881925
 30
0.0
 11
631.304789739117
 21
414.772833881925
 31
0.0
1001
ACME_LAYERS
1000
1
  0
LINE
  5
326
330
1F
100
AcDbEntity
  8
P-0000
  6
Continuous
 62
     7
100
AcDbLine
 10
631.304789739117
 20
414.772833881925
 30
0.0
 11
631.304789739117
 21
399.7728338819251
 31
0.0
1001
ACME_LAYERS
1000
1
  0
LINE
  5
327
330
1F
100
AcDbEntity
  8
P-0000
  6
Continuous
 62
     7
100
AcDbLine
 10
631.304789739117
 20
399.7728338819251
 30
0.0
 11
631.5041977594638
 21
399.7728338819251
 31
0.0
1001
ACME_LAYERS
1000
1
  0
LINE
  5
328
330
1F
100
AcDbEntity
  8
P-0000
  6
Continuous
 62
     7
100
AcDbLine
 10
631.304789739117
 20
414.772833881925
 30
0.0
 11
616.4408610158655
 21
414.772833881925
 31
0.0
1001
ACME_LAYERS
1000
1
  0
LINE
  5
329
330
1F
100
AcDbEntity
  8
P-0000
  6
Continuous
 62
     7
100
AcDbLine
 10
634.4893887895388
 20
399.7728338819251
 30
0.0
 11
648.834996733977
 21
399.7728338819251
 31
0.0
1001
ACME_LAYERS
1000
1
  0
LINE
  5
32A
330
1F
100
AcDbEntity
  8
P-0000
  6
Continuous
 62
     7
100
AcDbLine
 10
649.2302729889033
 20
399.7728338819251
 30
0.0
 11
649.2302729889033
 21
414.772833881925
 31
0.0
1001
ACME_LAYERS
1000
1
  0
LINE
  5
32B
330
1F
100
AcDbEntity
  8
P-0000
  6
Continuous
 62
     7
100
AcDbLine
 10
649.2302729889033
 20
414.772833881925
 30
0.0
 11
648.834996733977
 21
414.772833881925
 31
0.0
1001
ACME_LAYERS
1000
1
  0
LINE
  5
32C
330
1F
100
AcDbEntity
  8
P-0000
  6
Continuous
 62
     7
100
AcDbLine
 10
648.834996733977
 20
414.772833881925
 30
0.0
 11
648.834996733977
 21
399.7728338819251
 31
0.0
1001
ACME_LAYERS
1000
1
  0
LINE
  5
32D
330
1F
100
AcDbEntity
  8
P-0000
  6
Continuous
 62
     7
100
AcDbLine
 10
648.834996733977
 20
399.7728338819251
 30
0.0
 11
649.2302729889033
 21
399.7728338819251
 31
0.0
1001
ACME_LAYERS
1000
1
  0
LINE
  5
32E
330
1F
100
AcDbEntity
  8
P-0000
  6
Continuous
 62
     7
100
AcDbLine
 10
648.834996733977
 20
414.772833881925
 30
0.0
 11
634.4893887895388
 21
414.772833881925
 31
0.0
1001
ACME_LAYERS
1000
1
  0
LINE
  5
32F
330
1F
100
AcDbEntity
  8
P-0000
  6
Continuous
 62
     7
100
AcDbLine
 10
634.4893887895388
 20
399.7728338819251
 30
0.0
 11
634.4893887895388
 21
414.772833881925
 31
0.0
1001
ACME_LAYERS
1000
1
  0
LINE
  5
330
330
1F
100
AcDbEntity
  8
P-0000
  6
Continuous
 62
     7
100
AcDbLine
 10
652.1312438136793
 20
399.7728338819251
 30
0.0
 11
652.1312438136793
 21
414.772833881925
 31
0.0
1001
ACME_LAYERS
1000
1
  0
LINE
  5
331
330
1F
100
AcDbEntity
  8
P-0000
  6
Continuous
 62
     7
100
AcDbLine
 10
652.1312438136793
 20
399.7728338819251
 30
0.0
 11
665.737205934813
 21
399.7728338819251
 31
0.0
1001
ACME_LAYERS
1000
1
  0
LINE
  5
332
330
1F
100
AcDbEntity
  8
P-0000
  6
Continuous
 62
     7
100
AcDbLine
 10
666.3213336891898
 20
399.7728338819251
 30
0.0
 11
666.3213336891898
 21
414.772833881925
 31
0.0
1001
ACME_LAYERS
1000
1
  0
LINE
  5
333
330
1F
100
AcDbEntity
  8
P-0000
  6
Continuous
 62
     7
100
AcDbLine
 10
666.3213336891898
 20
414.772833881925
 30
0.0
 11
665.737205934813
 21
414.772833881925
 31
0.0
1001
ACME_LAYERS
1000
1
  0
LINE
  5
334
330
1F
100
AcDbEntity
  8
P-0000
  6
Continuous
 62
     7
100
AcDbLine
 10
665.737205934813
 20
414.772833881925
 30
0.0
 11
665.737205934813
 21
399.7728338819251
 31
0.0
1001
ACME_LAYERS
1000
1
  0
LINE
  5
335
330
1F
100
AcDbEntity
  8
P-0000
  6
Continuous
 62
     7
100
AcDbLine
 10
665.737205934813
 20
399.7728338819251
 30
0.0
 11
666.3213336891898
 21
399.7728338819251
 31
0.0
1001
ACME_LAYERS
1000
1
  0
LINE
  5
336
330
1F
100
AcDbEntity
  8
P-0000
  6
Continuous
 62
     7
100
AcDbLine
 10
665.737205934813
 20
414.772833881925
 30
0.0
 11
652.1312438136793
 21
414.772833881925
 31
0.0
1001
ACME_LAYERS
1000
1
  0
LINE
  5
337
330
1F
100
AcDbEntity
  8
P-0000
  6
Continuous
 62
     7
100
AcDbLine
 10
682.473988385351
 20
399.7728338819251
 30
0.0
 11
681.711378258641
 21
399.7728338819251
 31
0.0
1001
ACME_LAYERS
1000
1
  0
LINE
  5
338
330
1F
100
AcDbEntity
  8
P-0000
  6
Continuous
 62
     7
100
AcDbLine
 10
682.473988385351
 20
399.7728338819251
 30
0.0
 11
682.473988385351
 21
414.772833881925
 31
0.0
1001
ACME_LAYERS
1000
1
  0
LINE
  5
339
330
1F
100
AcDbEntity
  8
P-0000
  6
Continuous
 62
     7
100
AcDbLine
 10
682.473988385351
 20
414.772833881925
 30
0.0
 11
681.711378258641
 21
414.772833881925
 31
0.0
1001
ACME_LAYERS
1000
1
  0
LINE
  5
33A
330
1F
100
AcDbEntity
  8
P-0000
  6
Continuous
 62
     7
100
AcDbLine
 10
681.711378258641
 20
414.772833881925
 30
0.0
 11
681.711378258641
 21
399.7728338819251
 31
0.0
1001
ACME_LAYERS
1000
1
  0
LINE
  5
33B
330
1F
100
AcDbEntity
  8
P-0000
  6
Continuous
 62
     7
100
AcDbLine
 10
681.711378258641
 20
399.7728338819251
 30
0.0
 11
669.0865878080802
 21
399.7728338819251
 31
0.0
1001
ACME_LAYERS
1000
1
  0
LINE
  5
33C
330
1F
100
AcDbEntity
  8
P-0000
  6
Continuous
 62
     7
100
AcDbLine
 10
681.711378258641
 20
414.772833881925
 30
0.0
 11
669.0865878080802
 21
414.772833881925
 31
0.0
1001
ACME_LAYERS
1000
1
  0
LINE
  5
33D
330
1F
100
AcDbEntity
  8
P-0000
  6
Continuous
 62
     7
100
AcDbLine
 10
669.0865878080802
 20
399.7728338819251
 30
0.0
 11
669.0865878080802
 21
414.772833881925
 31
0.0
1001
ACME_LAYERS
1000
1
  0
LINE
  5
33E
330
1F
100
AcDbEntity
  8
P-0000
  6
Continuous
 62
     7
100
AcDbLine
 10
685.0544384689901
 20
399.7728338819251
 30
0.0
 11
685.0544384689901
 21
414.772833881925
 31
0.0
1001
ACME_LAYERS
1000
1
  0
LINE
  5
33F
330
1F
100
AcDbEntity
  8
P-0000
  6
Continuous
 62
     7
100
AcDbLine
 10
685.0544384689901
 20
399.7728338819251
 30
0.0
 11
696.4739486425449
 21
399.7728338819251
 31
0.0
1001
ACME_LAYERS
1000
1
  0
LINE
  5
340
330
1F
100
AcDbEntity
  8
P-0000
  6
Continuous
 62
     7
100
AcDbLine
 10
697.4015036897456
 20
399.7728338819251
 30
0.0
 11
697.4015036897456
 21
414.772833881925
 31
0.0
1001
ACME_LAYERS
1000
1
  0
LINE
  5
341
330
1F
100
AcDbEntity
  8
P-0000
  6
Continuous
 62
     7
100
AcDbLine
 10
697.4015036897456
 20
414.772833881925
 30
0.0
 11
696.4739486425449
 21
414.772833881925
 31
0.0
1001
ACME_LAYERS
1000
1
  0
LINE
  5
342
330
1F
100
AcDbEntity
  8
P-0000
  6
Continuous
 62
     7
100
AcDbLine
 10
696.4739486425449
 20
414.772833881925
 30
0.0
 11
696.4739486425449
 21
399.7728338819251
 31
0.0
1001
ACME_LAYERS
1000
1
  0
LINE
  5
343
330
1F
100
AcDbEntity
  8
P-0000
  6
Continuous
 62
     7
100
AcDbLine
 10
696.4739486425449
 20
399.7728338819251
 30
0.0
 11
697.4015036897456
 21
399.7728338819251
 31
0.0
1001
ACME_LAYERS
1000
1
  0
LINE
  5
344
330
1F
100
AcDbEntity
  8
P-0000
  6
Continuous
 62
     7
100
AcDbLine
 10
696.4739486425449
 20
414.772833881925
 30
0.0
 11
685.0544384689901
 21
414.772833881925
 31
0.0
1001
ACME_LAYERS
1000
1
  0
LINE
  5
345
330
1F
100
AcDbEntity
  8
P-0000
  6
Continuous
 62
     7
100
AcDbLine
 10
699.7513429523116
 20
399.7728338819251
 30
0.0
 11
699.7513429523116
 21
414.772833881925
 31
0.0
1001
ACME_LAYERS
1000
1
  0
LINE
  5
346
330
1F
100
AcDbEntity
  8
P-0000
  6
Continuous
 62
     7
100
AcDbLine
 10
699.7513429523116
 20
399.7728338819251
 30
0.0
 11
709.7628597407757
 21
399.7728338819251
 31
0.0
1001
ACME_LAYERS
1000
1
  0
LINE
  5
347
330
1F
100
AcDbEntity
  8
P-0000
  6
Continuous
 62
     7
100
AcDbLine
 10
710.8388942415878
 20
399.7728338819251
 30
0.0
 11
710.8388942415878
 21
414.772833881925
 31
0.0
1001
ACME_LAYERS
1000
1
  0
LINE
  5
348
330
1F
100
AcDbEntity
  8
P-0000
  6
Continuous
 62
     7
100
AcDbLine
 10
710.8388942415878
 20
414.772833881925
 30
0.0
 11
709.7628597407757
 21
414.772833881925
 31
0.0
1001
ACME_LAYERS
1000
1
  0
LINE
  5
349
330
1F
100
AcDbEntity
  8
P-0000
  6
Continuous
 62
     7
100
AcDbLine
 10
709.7628597407757
 20
414.772833881925
 30
0.0
 11
709.7628597407757
 21
399.7728338819251
 31
0.0
1001
ACME_LAYERS
1000
1
  0
LINE
  5
34A
330
1F
100
AcDbEntity
  8
P-0000
  6
Continuous
 62
     7
100
AcDbLine
 10
709.7628597407757
 20
399.7728338819251
 30
0.0
 11
710.8388942415878
 21
399.7728338819251
 31
0.0
1001
ACME_LAYERS
1000
1
  0
LINE
  5
34B
330
1F
100
AcDbEntity
  8
P-0000
  6
Continuous
 62
     7
100
AcDbLine
 10
709.7628597407757
 20
414.772833881925
 30
0.0
 11
699.7513429523116
 21
414.772833881925
 31
0.0
1001
ACME_LAYERS
1000
1
  0
LINE
  5
34C
330
1F
100
AcDbEntity
  8
P-0000
  6
Continuous
 62
     7
100
AcDbLine
 10
712.9164095786502
 20
399.7728338819251
 30
0.0
 11
712.9164095786502
 21
414.772833881925
 31
0.0
1001
ACME_LAYERS
1000
1
  0
LINE
  5
34D
330
1F
100
AcDbEntity
  8
P-0000
  6
Continuous
 62
     7
100
AcDbLine
 10
712.9164095786502
 20
399.7728338819251
 30
0.0
 11
721.3422138282262
 21
399.7728338819251
 31
0.0
1001
ACME_LAYERS
1000
1
  0
LINE
  5
34E
330
1F
100
AcDbEntity
  8
P-0000
  6
Continuous
 62
     7
100
AcDbLine
 10
722.5476265869986
 20
399.7728338819251
 30
0.0
 11
722.5476265869986
 21
414.772833881925
 31
0.0
1001
ACME_LAYERS
1000
1
  0
LINE
  5
34F
330
1F
100
AcDbEntity
  8
P-0000
  6
Continuous
 62
     7
100
AcDbLine
 10
722.5476265869986
 20
414.772833881925
 30
0.0
 11
721.3422138282262
 21
414.772833881925
 31
0.0
1001
ACME_LAYERS
1000
1
  0
LINE
  5
350
330
1F
100
AcDbEntity
  8
P-0000
  6
Continuous
 62
     7
100
AcDbLine
 10
721.3422138282262
 20
414.772833881925
 30
0.0
 11
721.3422138282262
 21
399.7728338819251
 31
0.0
1001
ACME_LAYERS
1000
1
  0
LINE
  5
351
330
1F
100
AcDbEntity
  8
P-0000
  6
Continuous
 62
     7
100
AcDbLine
 10
721.3422138282262
 20
399.7728338819251
 30
0.0
 11
722.5476265869986
 21
399.7728338819251
 31
0.0
1001
ACME_LAYERS
1000
1
  0
LINE
  5
352
330
1F
100
AcDbEntity
  8
P-0000
  6
Continuous
 62
     7
100
AcDbLine
 10
721.3422138282262
 20
414.772833881925
 30
0.0
 11
712.9164095786502
 21
414.772833881925
 31
0.0
1001
ACME_LAYERS
1000
1
  0
LINE
  5
353
330
1F
100
AcDbEntity
  8
P-0000
  6
Continuous
 62
     7
100
AcDbLine
 10
724.3159390444982
 20
399.7728338819251
 30
0.0
 11
724.3159390444982
 21
414.772833881925
 31
0.0
1001
ACME_LAYERS
1000
1
  0
LINE
  5
354
330
1F
100
AcDbEntity
  8
P-0000
  6
Continuous
 62
     7
100
AcDbLine
 10
724.3159390444982
 20
399.7728338819251
 30
0.0
 11
731.0064603321482
 21
399.7728338819251
 31
0.0
1001
ACME_LAYERS
1000
1
  0
LINE
  5
355
330
1F
100
AcDbEntity
  8
P-0000
  6
Continuous
 62
     7
100
AcDbLine
 10
732.3198534987857
 20
399.7728338819251
 30
0.0
 11
732.3198534987857
 21
414.772833881925
 31
0.0
1001
ACME_LAYERS
1000
1
  0
LINE
  5
356
330
1F
100
AcDbEntity
  8
P-0000
  6
Continuous
 62
     7
100
AcDbLine
 10
732.3198534987857
 20
414.772833881925
 30
0.0
 11
731.0064603321482
 21
414.772833881925
 31
0.0
1001
ACME_LAYERS
1000
1
  0
LINE
  5
357
330
1F
100
AcDbEntity
  8
P-0000
  6
Continuous
 62
     7
100
AcDbLine
 10
731.0064603321482
 20
414.772833881925
 30
0.0
 11
731.0064603321482
 21
399.7728338819251
 31
0.0
1001
ACME_LAYERS
1000
1
  0
LINE
  5
358
330
1F
100
AcDbEntity
  8
P-0000
  6
Continuous
 62
     7
100
AcDbLine
 10
731.0064603321482
 20
399.7728338819251
 30
0.0
 11
732.3198534987857
 21
399.7728338819251
 31
0.0
1001
ACME_LAYERS
1000
1
  0
LINE
  5
359
330
1F
100
AcDbEntity
  8
P-0000
  6
Continuous
 62
     7
100
AcDbLine
 10
731.0064603321482
 20
414.772833881925
 30
0.0
 11
724.3159390444982
 21
414.772833881925
 31
0.0
1001
ACME_LAYERS
1000
1
  0
LINE
  5
35A
330
1F
100
AcDbEntity
  8
P-0000
  6
Continuous
 62
     7
100
AcDbLine
 10
733.7475729287322
 20
399.7728338819251
 30
0.0
 11
738.5840446572632
 21
399.7728338819251
 31
0.0
1001
ACME_LAYERS
1000
1
  0
LINE
  5
35B
330
1F
100
AcDbEntity
  8
P-0000
  6
Continuous
 62
     7
100
AcDbLine
 10
739.98210357055
 20
399.7728338819251
 30
0.0
 11
739.98210357055
 21
414.772833881925
 31
0.0
1001
ACME_LAYERS
1000
1
  0
LINE
  5
35C
330
1F
100
AcDbEntity
  8
P-0000
  6
Continuous
 62
     7
100
AcDbLine
 10
739.98210357055
 20
414.772833881925
 30
0.0
 11
738.5840446572632
 21
414.772833881925
 31
0.0
1001
ACME_LAYERS
1000
1
  0
LINE
  5
35D
330
1F
100
AcDbEntity
  8
P-0000
  6
Continuous
 62
     7
100
AcDbLine
 10
738.5840446572632
 20
414.772833881925
 30
0.0
 11
738.5840446572632
 21
399.7728338819251
 31
0.0
1001
ACME_LAYERS
1000
1
  0
LINE
  5
35E
330
1F
100
AcDbEntity
  8
P-0000
  6
Continuous
 62
     7
100
AcDbLine
 10
738.5840446572632
 20
399.7728338819251
 30
0.0
 11
739.98210357055
 21
399.7728338819251
 31
0.0
1001
ACME_LAYERS
1000
1
  0
LINE
  5
35F
330
1F
100
AcDbEntity
  8
P-0000
  6
Continuous
 62
     7
100
AcDbLine
 10
738.5840446572632
 20
414.772833881925
 30
0.0
 11
733.7475729287322
 21
414.772833881925
 31
0.0
1001
ACME_LAYERS
1000
1
  0
LINE
  5
360
330
1F
100
AcDbEntity
  8
P-0000
  6
Continuous
 62
     7
100
AcDbLine
 10
733.7475729287322
 20
399.7728338819251
 30
0.0
 11
733.7475729287322
 21
414.772833881925
 31
0.0
1001
ACME_LAYERS
1000
1
  0
LINE
  5
361
330
1F
100
AcDbEntity
  8
P-0000
  6
Continuous
 62
     7
100
AcDbLine
 10
741.043885852336
 20
399.7728338819251
 30
0.0
 11
741.043885852336
 21
414.772833881925
 31
0.0
1001
ACME_LAYERS
1000
1
  0
LINE
  5
362
330
1F
100
AcDbEntity
  8
P-0000
  6
Continuous
 62
     7
100
AcDbLine
 10
745.3983605893928
 20
399.7728338819251
 30
0.0
 11
743.9404535322514
 21
399.7728338819251
 31
0.0
1001
ACME_LAYERS
1000
1
  0
LINE
  5
363
330
1F
100
AcDbEntity
  8
P-0000
  6
Continuous
 62
     7
100
AcDbLine
 10
745.3983605893928
 20
399.7728338819251
 30
0.0
 11
745.3983605893928
 21
414.772833881925
 31
0.0
1001
ACME_LAYERS
1000
1
  0
LINE
  5
364
330
1F
100
AcDbEntity
  8
P-0000
  6
Continuous
 62
     7
100
AcDbLine
 10
745.3983605893928
 20
414.772833881925
 30
0.0
 11
743.9404535322514
 21
414.772833881925
 31
0.0
1001
ACME_LAYERS
1000
1
  0
LINE
  5
365
330
1F
100
AcDbEntity
  8
P-0000
  6
Continuous
 62
     7
100
AcDbLine
 10
743.9404535322514
 20
414.772833881925
 30
0.0
 11
743.9404535322514
 21
399.7728338819251
 31
0.0
1001
ACME_LAYERS
1000
1
  0
LINE
  5
366
330
1F
100
AcDbEntity
  8
P-0000
  6
Continuous
 62
     7
100
AcDbLine
 10
743.9404535322514
 20
399.7728338819251
 30
0.0
 11
741.043885852336
 21
399.7728338819251
 31
0.0
1001
ACME_LAYERS
1000
1
  0
LINE
  5
367
330
1F
100
AcDbEntity
  8
P-0000
  6
Continuous
 62
     7
100
AcDbLine
 10
743.9404535322514
 20
414.772833881925
 30
0.0
 11
741.043885852336
 21
414.772833881925
 31
0.0
1001
ACME_LAYERS
1000
1
  0
LINE
  5
368
330
1F
100
AcDbEntity
  8
P-0000
  6
Continuous
 62
     7
100
AcDbLine
 10
746.0753575252253
 20
399.7728338819251
 30
0.0
 11
746.9806028182382
 21
399.7728338819251
 31
0.0
1001
ACME_LAYERS
1000
1
  0
LINE
  5
369
330
1F
100
AcDbEntity
  8
P-0000
  6
Continuous
 62
     7
100
AcDbLine
 10
748.4724780238265
 20
399.7728338819251
 30
0.0
 11
748.4724780238265
 21
414.772833881925
 31
0.0
1001
ACME_LAYERS
1000
1
  0
LINE
  5
36A
330
1F
100
AcDbEntity
  8
P-0000
  6
Continuous
 62
     7
100
AcDbLine
 10
748.4724780238265
 20
414.772833881925
 30
0.0
 11
747.7077719180877
 21
414.772833881925
 31
0.0
1001
ACME_LAYERS
1000
1
  0
LINE
  5
36B
330
1F
100
AcDbEntity
  8
P-0000
  6
Continuous
 62
     7
100
AcDbLine
 10
746.0753575252253
 20
414.772833881925
 30
0.0
 11
746.0753575252253
 21
399.7728338819251
 31
0.0
1001
ACME_LAYERS
1000
1
  0
LINE
  5
36C
330
1F
100
AcDbEntity
  8
P-0000
  6
Continuous
 62
     7
100
AcDbLine
 10
746.9806028182382
 20
399.7728338819251
 30
0.0
 11
746.9806028182382
 21
414.772833881925
 31
0.0
1001
ACME_LAYERS
1000
1
  0
LINE
  5
36D
330
1F
100
AcDbEntity
  8
P-0000
  6
Continuous
 62
     7
100
AcDbLine
 10
746.9806028182382
 20
399.7728338819251
 30
0.0
 11
747.7077719180877
 21
399.7728338819251
 31
0.0
1001
ACME_LAYERS
1000
1
  0
LINE
  5
36E
330
1F
100
AcDbEntity
  8
P-0000
  6
Continuous
 62
     7
100
AcDbLine
 10
746.9806028182382
 20
414.772833881925
 30
0.0
 11
746.0753575252253
 21
414.772833881925
 31
0.0
1001
ACME_LAYERS
1000
1
  0
LINE
  5
36F
330
1F
100
AcDbEntity
  8
P-0000
  6
Continuous
 62
     7
100
AcDbLine
 10
747.7077719180877
 20
399.7728338819251
 30
0.0
 11
747.7077719180877
 21
414.772833881925
 31
0.0
1001
ACME_LAYERS
1000
1
  0
LINE
  5
370
330
1F
100
AcDbEntity
  8
P-0000
  6
Continuous
 62
     7
100
AcDbLine
 10
747.7077719180877
 20
414.772833881925
 30
0.0
 11
746.9806028182382
 21
414.772833881925
 31
0.0
1001
ACME_LAYERS
1000
1
  0
LINE
  5
371
330
1F
100
AcDbEntity
  8
P-0000
  6
Continuous
 62
     7
100
AcDbLine
 10
747.7077719180877
 20
399.7728338819251
 30
0.0
 11
748.4724780238265
 21
399.7728338819251
 31
0.0
1001
ACME_LAYERS
1000
1
  0
LINE
  5
372
330
1F
100
AcDbEntity
  8
P-0000
  6
Continuous
 62
     7
100
AcDbLine
 10
478.4430658123492
 20
417.7728338819251
 30
0.0
 11
479.2077719180878
 21
417.7728338819251
 31
0.0
1001
ACME_LAYERS
1000
1
  0
LINE
  5
373
330
1F
100
AcDbEntity
  8
P-0000
  6
Continuous
 62
     7
100
AcDbLine
 10
479.9349410179373
 20
432.7728338819252
 30
0.0
 11
479.2077719180878
 21
432.7728338819252
 31
0.0
1001
ACME_LAYERS
1000
1
  0
LINE
  5
374
330
1F
100
AcDbEntity
  8
P-0000
  6
Continuous
 62
     7
100
AcDbLine
 10
479.2077719180878
 20
432.7728338819252
 30
0.0
 11
479.2077719180878
 21
417.7728338819251
 31
0.0
1001
ACME_LAYERS
1000
1
  0
LINE
  5
375
330
1F
100
AcDbEntity
  8
P-0000
  6
Continuous
 62
     7
100
AcDbLine
 10
480.8401863109503
 20
432.7728338819252
 30
0.0
 11
479.9349410179373
 21
432.7728338819252
 31
0.0
1001
ACME_LAYERS
1000
1
  0
LINE
  5
376
330
1F
100
AcDbEntity
  8
P-0000
  6
Continuous
 62
     7
100
AcDbLine
 10
479.2077719180878
 20
417.7728338819251
 30
0.0
 11
479.9349410179373
 21
417.7728338819251
 31
0.0
1001
ACME_LAYERS
1000
1
  0
LINE
  5
377
330
1F
100
AcDbEntity
  8
P-0000
  6
Continuous
 62
     7
100
AcDbLine
 10
479.9349410179373
 20
432.7728338819252
 30
0.0
 11
479.9349410179373
 21
417.7728338819251
 31
0.0
1001
ACME_LAYERS
1000
1
  0
LINE
  5
378
330
1F
100
AcDbEntity
  8
P-0000
  6
Continuous
 62
     7
100
AcDbLine
 10
480.8401863109503
 20
417.7728338819251
 30
0.0
 11
480.8401863109503
 21
432.7728338819252
 31
0.0
1001
ACME_LAYERS
1000
1
  0
LINE
  5
379
330
1F
100
AcDbEntity
  8
P-0000
  6
Continuous
 62
     7
100
AcDbLine
 10
479.2077719180878
 20
432.7728338819252
 30
0.0
 11
478.4430658123492
 21
432.7728338819252
 31
0.0
1001
ACME_LAYERS
1000
1
  0
LINE
  5
37A
330
1F
100
AcDbEntity
  8
P-0000
  6
Continuous
 62
     7
100
AcDbLine
 10
478.4430658123492
 20
432.7728338819252
 30
0.0
 11
478.4430658123492
 21
417.7728338819251
 31
0.0
1001
ACME_LAYERS
1000
1
  0
LINE
  5
37B
330
1F
100
AcDbEntity
  8
P-0000
  6
Continuous
 62
     7
100
AcDbLine
 10
479.9349410179373
 20
417.7728338819251
 30
0.0
 11
480.8401863109503
 21
417.7728338819251
 31
0.0
1001
ACME_LAYERS
1000
1
  0
LINE
  5
37C
330
1F
100
AcDbEntity
  8
P-0000
  6
Continuous
 62
     7
100
AcDbLine
 10
485.8716579838397
 20
432.7728338819252
 30
0.0
 11
482.9750903039241
 21
432.7728338819252
 31
0.0
1001
ACME_LAYERS
1000
1
  0
LINE
  5
37D
330
1F
100
AcDbEntity
  8
P-0000
  6
Continuous
 62
     7
100
AcDbLine
 10
485.8716579838397
 20
417.7728338819251
 30
0.0
 11
482.9750903039241
 21
417.7728338819251
 31
0.0
1001
ACME_LAYERS
1000
1
  0
LINE
  5
37E
330
1F
100
AcDbEntity
  8
P-0000
  6
Continuous
 62
     7
100
AcDbLine
 10
482.9750903039241
 20
417.7728338819251
 30
0.0
 11
482.9750903039241
 21
432.7728338819252
 31
0.0
1001
ACME_LAYERS
1000
1
  0
LINE
  5
37F
330
1F
100
AcDbEntity
  8
P-0000
  6
Continuous
 62
     7
100
AcDbLine
 10
482.9750903039241
 20
432.7728338819252
 30
0.0
 11
481.5171832467828
 21
432.7728338819252
 31
0.0
1001
ACME_LAYERS
1000
1
  0
LINE
  5
380
330
1F
100
AcDbEntity
  8
P-0000
  6
Continuous
 62
     7
100
AcDbLine
 10
481.5171832467828
 20
432.7728338819252
 30
0.0
 11
481.5171832467828
 21
417.7728338819251
 31
0.0
1001
ACME_LAYERS
1000
1
  0
LINE
  5
381
330
1F
100
AcDbEntity
  8
P-0000
  6
Continuous
 62
     7
100
AcDbLine
 10
482.9750903039241
 20
417.7728338819251
 30
0.0
 11
481.5171832467828
 21
417.7728338819251
 31
0.0
1001
ACME_LAYERS
1000
1
  0
LINE
  5
382
330
1F
100
AcDbEntity
  8
P-0000
  6
Continuous
 62
     7
100
AcDbLine
 10
485.8716579838397
 20
432.7728338819252
 30
0.0
 11
485.8716579838397
 21
417.7728338819251
 31
0.0
1001
ACME_LAYERS
1000
1
  0
LINE
  5
383
330
1F
100
AcDbEntity
  8
P-0000
  6
Continuous
 62
     7
100
AcDbLine
 10
493.1679709074434
 20
432.7728338819252
 30
0.0
 11
493.1679709074434
 21
417.7728338819251
 31
0.0
1001
ACME_LAYERS
1000
1
  0
LINE
  5
384
330
1F
100
AcDbEntity
  8
P-0000
  6
Continuous
 62
     7
100
AcDbLine
 10
493.1679709074434
 20
432.7728338819252
 30
0.0
 11
488.3314991789124
 21
432.7728338819252
 31
0.0
1001
ACME_LAYERS
1000
1
  0
LINE
  5
385
330
1F
100
AcDbEntity
  8
P-0000
  6
Continuous
 62
     7
100
AcDbLine
 10
486.9334402656256
 20
417.7728338819251
 30
0.0
 11
488.3314991789124
 21
417.7728338819251
 31
0.0
1001
ACME_LAYERS
1000
1
  0
LINE
  5
386
330
1F
100
AcDbEntity
  8
P-0000
  6
Continuous
 62
     7
100
AcDbLine
 10
488.3314991789124
 20
417.7728338819251
 30
0.0
 11
488.3314991789124
 21
432.7728338819252
 31
0.0
1001
ACME_LAYERS
1000
1
  0
LINE
  5
387
330
1F
100
AcDbEntity
  8
P-0000
  6
Continuous
 62
     7
100
AcDbLine
 10
488.3314991789124
 20
432.7728338819252
 30
0.0
 11
486.9334402656256
 21
432.7728338819252
 31
0.0
1001
ACME_LAYERS
1000
1
  0
LINE
  5
388
330
1F
100
AcDbEntity
  8
P-0000
  6
Continuous
 62
     7
100
AcDbLine
 10
486.9334402656256
 20
432.7728338819252
 30
0.0
 11
486.9334402656256
 21
417.7728338819251
 31
0.0
1001
ACME_LAYERS
1000
1
  0
LINE
  5
389
330
1F
100
AcDbEntity
  8
P-0000
  6
Continuous
 62
     7
100
AcDbLine
 10
488.3314991789124
 20
417.7728338819251
 30
0.0
 11
493.1679709074434
 21
417.7728338819251
 31
0.0
1001
ACME_LAYERS
1000
1
  0
LINE
  5
38A
330
1F
100
AcDbEntity
  8
P-0000
  6
Continuous
 62
     7
100
AcDbLine
 10
502.5996047916773
 20
432.7728338819252
 30
0.0
 11
495.9090835040274
 21
432.7728338819252
 31
0.0
1001
ACME_LAYERS
1000
1
  0
LINE
  5
38B
330
1F
100
AcDbEntity
  8
P-0000
  6
Continuous
 62
     7
100
AcDbLine
 10
494.5956903373898
 20
417.7728338819251
 30
0.0
 11
495.9090835040274
 21
417.7728338819251
 31
0.0
1001
ACME_LAYERS
1000
1
  0
LINE
  5
38C
330
1F
100
AcDbEntity
  8
P-0000
  6
Continuous
 62
     7
100
AcDbLine
 10
495.9090835040274
 20
417.7728338819251
 30
0.0
 11
495.9090835040274
 21
432.7728338819252
 31
0.0
1001
ACME_LAYERS
1000
1
  0
LINE
  5
38D
330
1F
100
AcDbEntity
  8
P-0000
  6
Continuous
 62
     7
100
AcDbLine
 10
495.9090835040274
 20
432.7728338819252
 30
0.0
 11
494.5956903373898
 21
432.7728338819252
 31
0.0
1001
ACME_LAYERS
1000
1
  0
LINE
  5
38E
330
1F
100
AcDbEntity
  8
P-0000
  6
Continuous
 62
     7
100
AcDbLine
 10
494.5956903373898
 20
432.7728338819252
 30
0.0
 11
494.5956903373898
 21
417.7728338819251
 31
0.0
1001
ACME_LAYERS
1000
1
  0
LINE
  5
38F
330
1F
100
AcDbEntity
  8
P-0000
  6
Continuous
 62
     7
100
AcDbLine
 10
495.9090835040274
 20
417.7728338819251
 30
0.0
 11
502.5996047916773
 21
417.7728338819251
 31
0.0
1001
ACME_LAYERS
1000
1
  0
LINE
  5
390
330
1F
100
AcDbEntity
  8
P-0000
  6
Continuous
 62
     7
100
AcDbLine
 10
502.5996047916773
 20
432.7728338819252
 30
0.0
 11
502.5996047916773
 21
417.7728338819251
 31
0.0
1001
ACME_LAYERS
1000
1
  0
LINE
  5
391
330
1F
100
AcDbEntity
  8
P-0000
  6
Continuous
 62
     7
100
AcDbLine
 10
513.9991342575253
 20
432.7728338819252
 30
0.0
 11
505.5733300079493
 21
432.7728338819252
 31
0.0
1001
ACME_LAYERS
1000
1
  0
LINE
  5
392
330
1F
100
AcDbEntity
  8
P-0000
  6
Continuous
 62
     7
100
AcDbLine
 10
504.367917249177
 20
417.7728338819251
 30
0.0
 11
505.5733300079493
 21
417.7728338819251
 31
0.0
1001
ACME_LAYERS
1000
1
  0
LINE
  5
393
330
1F
100
AcDbEntity
  8
P-0000
  6
Continuous
 62
     7
100
AcDbLine
 10
505.5733300079493
 20
417.7728338819251
 30
0.0
 11
505.5733300079493
 21
432.7728338819252
 31
0.0
1001
ACME_LAYERS
1000
1
  0
LINE
  5
394
330
1F
100
AcDbEntity
  8
P-0000
  6
Continuous
 62
     7
100
AcDbLine
 10
505.5733300079493
 20
432.7728338819252
 30
0.0
 11
504.367917249177
 21
432.7728338819252
 31
0.0
1001
ACME_LAYERS
1000
1
  0
LINE
  5
395
330
1F
100
AcDbEntity
  8
P-0000
  6
Continuous
 62
     7
100
AcDbLine
 10
504.367917249177
 20
432.7728338819252
 30
0.0
 11
504.367917249177
 21
417.7728338819251
 31
0.0
1001
ACME_LAYERS
1000
1
  0
LINE
  5
396
330
1F
100
AcDbEntity
  8
P-0000
  6
Continuous
 62
     7
100
AcDbLine
 10
505.5733300079493
 20
417.7728338819251
 30
0.0
 11
513.9991342575253
 21
417.7728338819251
 31
0.0
1001
ACME_LAYERS
1000
1
  0
LINE
  5
397
330
1F
100
AcDbEntity
  8
P-0000
  6
Continuous
 62
     7
100
AcDbLine
 10
513.9991342575253
 20
432.7728338819252
 30
0.0
 11
513.9991342575253
 21
417.7728338819251
 31
0.0
1001
ACME_LAYERS
1000
1
  0
LINE
  5
398
330
1F
100
AcDbEntity
  8
P-0000
  6
Continuous
 62
     7
100
AcDbLine
 10
527.1642008838641
 20
432.7728338819252
 30
0.0
 11
517.1526840953998
 21
432.7728338819252
 31
0.0
1001
ACME_LAYERS
1000
1
  0
LINE
  5
399
330
1F
100
AcDbEntity
  8
P-0000
  6
Continuous
 62
     7
100
AcDbLine
 10
516.0766495945877
 20
417.7728338819251
 30
0.0
 11
517.1526840953998
 21
417.7728338819251
 31
0.0
1001
ACME_LAYERS
1000
1
  0
LINE
  5
39A
330
1F
100
AcDbEntity
  8
P-0000
  6
Continuous
 62
     7
100
AcDbLine
 10
517.1526840953998
 20
417.7728338819251
 30
0.0
 11
517.1526840953998
 21
432.7728338819252
 31
0.0
1001
ACME_LAYERS
1000
1
  0
LINE
  5
39B
330
1F
100
AcDbEntity
  8
P-0000
  6
Continuous
 62
     7
100
AcDbLine
 10
517.1526840953998
 20
432.7728338819252
 30
0.0
 11
516.0766495945877
 21
432.7728338819252
 31
0.0
1001
ACME_LAYERS
1000
1
  0
LINE
  5
39C
330
1F
100
AcDbEntity
  8
P-0000
  6
Continuous
 62
     7
100
AcDbLine
 10
516.0766495945877
 20
432.7728338819252
 30
0.0
 11
516.0766495945877
 21
417.7728338819251
 31
0.0
1001
ACME_LAYERS
1000
1
  0
LINE
  5
39D
330
1F
100
AcDbEntity
  8
P-0000
  6
Continuous
 62
     7
100
AcDbLine
 10
517.1526840953998
 20
417.7728338819251
 30
0.0
 11
527.1642008838641
 21
417.7728338819251
 31
0.0
1001
ACME_LAYERS
1000
1
  0
LINE
  5
39E
330
1F
100
AcDbEntity
  8
P-0000
  6
Continuous
 62
     7
100
AcDbLine
 10
527.1642008838641
 20
432.7728338819252
 30
0.0
 11
527.1642008838641
 21
417.7728338819251
 31
0.0
1001
ACME_LAYERS
1000
1
  0
LINE
  5
39F
330
1F
100
AcDbEntity
  8
P-0000
  6
Continuous
 62
     7
100
AcDbLine
 10
541.8611053671854
 20
432.7728338819252
 30
0.0
 11
530.4415951936306
 21
432.7728338819252
 31
0.0
1001
ACME_LAYERS
1000
1
  0
LINE
  5
3A0
330
1F
100
AcDbEntity
  8
P-0000
  6
Continuous
 62
     7
100
AcDbLine
 10
529.51404014643
 20
417.7728338819251
 30
0.0
 11
530.4415951936306
 21
417.7728338819251
 31
0.0
1001
ACME_LAYERS
1000
1
  0
LINE
  5
3A1
330
1F
100
AcDbEntity
  8
P-0000
  6
Continuous
 62
     7
100
AcDbLine
 10
530.4415951936306
 20
417.7728338819251
 30
0.0
 11
530.4415951936306
 21
432.7728338819252
 31
0.0
1001
ACME_LAYERS
1000
1
  0
LINE
  5
3A2
330
1F
100
AcDbEntity
  8
P-0000
  6
Continuous
 62
     7
100
AcDbLine
 10
530.4415951936306
 20
432.7728338819252
 30
0.0
 11
529.51404014643
 21
432.7728338819252
 31
0.0
1001
ACME_LAYERS
1000
1
  0
LINE
  5
3A3
330
1F
100
AcDbEntity
  8
P-0000
  6
Continuous
 62
     7
100
AcDbLine
 10
529.51404014643
 20
432.7728338819252
 30
0.0
 11
529.51404014643
 21
417.7728338819251
 31
0.0
1001
ACME_LAYERS
1000
1
  0
LINE
  5
3A4
330
1F
100
AcDbEntity
  8
P-0000
  6
Continuous
 62
     7
100
AcDbLine
 10
530.4415951936306
 20
417.7728338819251
 30
0.0
 11
541.8611053671854
 21
417.7728338819251
 31
0.0
1001
ACME_LAYERS
1000
1
  0
LINE
  5
3A5
330
1F
100
AcDbEntity
  8
P-0000
  6
Continuous
 62
     7
100
AcDbLine
 10
541.8611053671854
 20
432.7728338819252
 30
0.0
 11
541.8611053671854
 21
417.7728338819251
 31
0.0
1001
ACME_LAYERS
1000
1
  0
LINE
  5
3A6
330
1F
100
AcDbEntity
  8
P-0000
  6
Continuous
 62
     7
100
AcDbLine
 10
557.8289560280953
 20
432.772833881925
 30
0.0
 11
557.8289560280953
 21
417.772833881925
 31
0.0
1001
ACME_LAYERS
1000
1
  0
LINE
  5
3A7
330
1F
100
AcDbEntity
  8
P-0000
  6
Continuous
 62
     7
100
AcDbLine
 10
557.8289560280953
 20
432.772833881925
 30
0.0
 11
545.2041655775345
 21
432.7728338819252
 31
0.0
1001
ACME_LAYERS
1000
1
  0
LINE
  5
3A8
330
1F
100
AcDbEntity
  8
P-0000
  6
Continuous
 62
     7
100
AcDbLine
 10
557.8289560280953
 20
417.772833881925
 30
0.0
 11
545.2041655775345
 21
417.7728338819251
 31
0.0
1001
ACME_LAYERS
1000
1
  0
LINE
  5
3A9
330
1F
100
AcDbEntity
  8
P-0000
  6
Continuous
 62
     7
100
AcDbLine
 10
545.2041655775345
 20
417.7728338819251
 30
0.0
 11
545.2041655775345
 21
432.7728338819252
 31
0.0
1001
ACME_LAYERS
1000
1
  0
LINE
  5
3AA
330
1F
100
AcDbEntity
  8
P-0000
  6
Continuous
 62
     7
100
AcDbLine
 10
545.2041655775345
 20
432.7728338819252
 30
0.0
 11
544.4415554508245
 21
432.7728338819252
 31
0.0
1001
ACME_LAYERS
1000
1
  0
LINE
  5
3AB
330
1F
100
AcDbEntity
  8
P-0000
  6
Continuous
 62
     7
100
AcDbLine
 10
544.4415554508245
 20
432.7728338819252
 30
0.0
 11
544.4415554508245
 21
417.7728338819251
 31
0.0
1001
ACME_LAYERS
1000
1
  0
LINE
  5
3AC
330
1F
100
AcDbEntity
  8
P-0000
  6
Continuous
 62
     7
100
AcDbLine
 10
545.2041655775345
 20
417.7728338819251
 30
0.0
 11
544.4415554508245
 21
417.7728338819251
 31
0.0
1001
ACME_LAYERS
1000
1
  0
LINE
  5
3AD
330
1F
100
AcDbEntity
  8
P-0000
  6
Continuous
 62
     7
100
AcDbLine
 10
574.7843000224961
 20
432.772833881925
 30
0.0
 11
561.1783379013626
 21
432.772833881925
 31
0.0
1001
ACME_LAYERS
1000
1
  0
LINE
  5
3AE
330
1F
100
AcDbEntity
  8
P-0000
  6
Continuous
 62
     7
100
AcDbLine
 10
560.594210146986
 20
417.772833881925
 30
0.0
 11
561.1783379013626
 21
417.772833881925
 31
0.0
1001
ACME_LAYERS
1000
1
  0
LINE
  5
3AF
330
1F
100
AcDbEntity
  8
P-0000
  6
Continuous
 62
     7
100
AcDbLine
 10
561.1783379013626
 20
417.772833881925
 30
0.0
 11
561.1783379013626
 21
432.772833881925
 31
0.0
1001
ACME_LAYERS
1000
1
  0
LINE
  5
3B0
330
1F
100
AcDbEntity
  8
P-0000
  6
Continuous
 62
     7
100
AcDbLine
 10
561.1783379013626
 20
432.772833881925
 30
0.0
 11
560.594210146986
 21
432.772833881925
 31
0.0
1001
ACME_LAYERS
1000
1
  0
LINE
  5
3B1
330
1F
100
AcDbEntity
  8
P-0000
  6
Continuous
 62
     7
100
AcDbLine
 10
560.594210146986
 20
432.772833881925
 30
0.0
 11
560.594210146986
 21
417.772833881925
 31
0.0
1001
ACME_LAYERS
1000
1
  0
LINE
  5
3B2
330
1F
100
AcDbEntity
  8
P-0000
  6
Continuous
 62
     7
100
AcDbLine
 10
561.1783379013626
 20
417.772833881925
 30
0.0
 11
574.7843000224961
 21
417.772833881925
 31
0.0
1001
ACME_LAYERS
1000
1
  0
LINE
  5
3B3
330
1F
100
AcDbEntity
  8
P-0000
  6
Continuous
 62
     7
100
AcDbLine
 10
574.7843000224961
 20
432.772833881925
 30
0.0
 11
574.7843000224961
 21
417.772833881925
 31
0.0
1001
ACME_LAYERS
1000
1
  0
LINE
  5
3B4
330
1F
100
AcDbEntity
  8
P-0000
  6
Continuous
 62
     7
100
AcDbLine
 10
592.4261550466368
 20
432.772833881925
 30
0.0
 11
592.4261550466368
 21
417.772833881925
 31
0.0
1001
ACME_LAYERS
1000
1
  0
LINE
  5
3B5
330
1F
100
AcDbEntity
  8
P-0000
  6
Continuous
 62
     7
100
AcDbLine
 10
592.4261550466368
 20
432.772833881925
 30
0.0
 11
578.0805471021984
 21
432.772833881925
 31
0.0
1001
ACME_LAYERS
1000
1
  0
LINE
  5
3B6
330
1F
100
AcDbEntity
  8
P-0000
  6
Continuous
 62
     7
100
AcDbLine
 10
577.6852708472724
 20
417.772833881925
 30
0.0
 11
578.0805471021984
 21
417.772833881925
 31
0.0
1001
ACME_LAYERS
1000
1
  0
LINE
  5
3B7
330
1F
100
AcDbEntity
  8
P-0000
  6
Continuous
 62
     7
100
AcDbLine
 10
578.0805471021984
 20
417.772833881925
 30
0.0
 11
578.0805471021984
 21
432.772833881925
 31
0.0
1001
ACME_LAYERS
1000
1
  0
LINE
  5
3B8
330
1F
100
AcDbEntity
  8
P-0000
  6
Continuous
 62
     7
100
AcDbLine
 10
578.0805471021984
 20
432.772833881925
 30
0.0
 11
577.6852708472724
 21
432.772833881925
 31
0.0
1001
ACME_LAYERS
1000
1
  0
LINE
  5
3B9
330
1F
100
AcDbEntity
  8
P-0000
  6
Continuous
 62
     7
100
AcDbLine
 10
577.6852708472724
 20
432.772833881925
 30
0.0
 11
577.6852708472724
 21
417.772833881925
 31
0.0
1001
ACME_LAYERS
1000
1
  0
LINE
  5
3BA
330
1F
100
AcDbEntity
  8
P-0000
  6
Continuous
 62
     7
100
AcDbLine
 10
578.0805471021984
 20
417.772833881925
 30
0.0
 11
592.4261550466368
 21
417.772833881925
 31
0.0
1001
ACME_LAYERS
1000
1
  0
LINE
  5
3BB
330
1F
100
AcDbEntity
  8
P-0000
  6
Continuous
 62
     7
100
AcDbLine
 10
610.47468282031
 20
432.772833881925
 30
0.0
 11
595.6107540970585
 21
432.772833881925
 31
0.0
1001
ACME_LAYERS
1000
1
  0
LINE
  5
3BC
330
1F
100
AcDbEntity
  8
P-0000
  6
Continuous
 62
     7
100
AcDbLine
 10
595.4113460767119
 20
417.772833881925
 30
0.0
 11
595.6107540970585
 21
417.772833881925
 31
0.0
1001
ACME_LAYERS
1000
1
  0
LINE
  5
3BD
330
1F
100
AcDbEntity
  8
P-0000
  6
Continuous
 62
     7
100
AcDbLine
 10
595.6107540970585
 20
417.772833881925
 30
0.0
 11
595.6107540970585
 21
432.772833881925
 31
0.0
1001
ACME_LAYERS
1000
1
  0
LINE
  5
3BE
330
1F
100
AcDbEntity
  8
P-0000
  6
Continuous
 62
     7
100
AcDbLine
 10
595.6107540970585
 20
432.772833881925
 30
0.0
 11
595.4113460767119
 21
432.772833881925
 31
0.0
1001
ACME_LAYERS
1000
1
  0
LINE
  5
3BF
330
1F
100
AcDbEntity
  8
P-0000
  6
Continuous
 62
     7
100
AcDbLine
 10
595.4113460767119
 20
432.772833881925
 30
0.0
 11
595.4113460767119
 21
417.772833881925
 31
0.0
1001
ACME_LAYERS
1000
1
  0
LINE
  5
3C0
330
1F
100
AcDbEntity
  8
P-0000
  6
Continuous
 62
     7
100
AcDbLine
 10
595.6107540970585
 20
417.772833881925
 30
0.0
 11
610.47468282031
 21
417.772833881925
 31
0.0
1001
ACME_LAYERS
1000
1
  0
LINE
  5
3C1
330
1F
100
AcDbEntity
  8
P-0000
  6
Continuous
 62
     7
100
AcDbLine
 10
610.47468282031
 20
417.772833881925
 30
0.0
 11
610.47468282031
 21
432.772833881925
 31
0.0
1001
ACME_LAYERS
1000
1
  0
LINE
  5
3C2
330
1F
100
AcDbEntity
  8
P-0000
  6
Continuous
 62
     7
100
AcDbLine
 10
477.7077719180878
 20
414.7728338819251
 30
0.0
 11
477.7077719180878
 21
429.7728338819251
 31
0.0
1001
ACME_LAYERS
1000
1
  0
LINE
  5
3C3
330
1F
100
AcDbEntity
  8
P-0000
  6
Continuous
 62
     7
100
AcDbLine
 10
749.2077719180879
 20
429.7728338819251
 30
0.0
 11
749.2077719180879
 21
414.772833881925
 31
0.0
1001
ACME_LAYERS
1000
1
  0
LINE
  5
3C4
330
1F
100
AcDbEntity
  8
P-0000
  6
Continuous
 62
     7
100
AcDbLine
 10
616.4408610158655
 20
432.772833881925
 30
0.0
 11
616.4408610158655
 21
417.772833881925
 31
0.0
1001
ACME_LAYERS
1000
1
  0
LINE
  5
3C5
330
1F
100
AcDbEntity
  8
P-0000
  6
Continuous
 62
     7
100
AcDbLine
 10
616.4408610158655
 20
417.772833881925
 30
0.0
 11
631.304789739117
 21
417.772833881925
 31
0.0
1001
ACME_LAYERS
1000
1
  0
LINE
  5
3C6
330
1F
100
AcDbEntity
  8
P-0000
  6
Continuous
 62
     7
100
AcDbLine
 10
631.5041977594638
 20
417.772833881925
 30
0.0
 11
631.5041977594638
 21
432.772833881925
 31
0.0
1001
ACME_LAYERS
1000
1
  0
LINE
  5
3C7
330
1F
100
AcDbEntity
  8
P-0000
  6
Continuous
 62
     7
100
AcDbLine
 10
631.5041977594638
 20
432.772833881925
 30
0.0
 11
631.304789739117
 21
432.772833881925
 31
0.0
1001
ACME_LAYERS
1000
1
  0
LINE
  5
3C8
330
1F
100
AcDbEntity
  8
P-0000
  6
Continuous
 62
     7
100
AcDbLine
 10
631.304789739117
 20
432.772833881925
 30
0.0
 11
631.304789739117
 21
417.772833881925
 31
0.0
1001
ACME_LAYERS
1000
1
  0
LINE
  5
3C9
330
1F
100
AcDbEntity
  8
P-0000
  6
Continuous
 62
     7
100
AcDbLine
 10
631.304789739117
 20
417.772833881925
 30
0.0
 11
631.5041977594638
 21
417.772833881925
 31
0.0
1001
ACME_LAYERS
1000
1
  0
LINE
  5
3CA
330
1F
100
AcDbEntity
  8
P-0000
  6
Continuous
 62
     7
100
AcDbLine
 10
631.304789739117
 20
432.772833881925
 30
0.0
 11
616.4408610158655
 21
432.772833881925
 31
0.0
1001
ACME_LAYERS
1000
1
  0
LINE
  5
3CB
330
1F
100
AcDbEntity
  8
P-0000
  6
Continuous
 62
     7
100
AcDbLine
 10
634.4893887895388
 20
417.772833881925
 30
0.0
 11
648.834996733977
 21
417.772833881925
 31
0.0
1001
ACME_LAYERS
1000
1
  0
LINE
  5
3CC
330
1F
100
AcDbEntity
  8
P-0000
  6
Continuous
 62
     7
100
AcDbLine
 10
649.2302729889033
 20
417.772833881925
 30
0.0
 11
649.2302729889033
 21
432.772833881925
 31
0.0
1001
ACME_LAYERS
1000
1
  0
LINE
  5
3CD
330
1F
100
AcDbEntity
  8
P-0000
  6
Continuous
 62
     7
100
AcDbLine
 10
649.2302729889033
 20
432.772833881925
 30
0.0
 11
648.834996733977
 21
432.772833881925
 31
0.0
1001
ACME_LAYERS
1000
1
  0
LINE
  5
3CE
330
1F
100
AcDbEntity
  8
P-0000
  6
Continuous
 62
     7
100
AcDbLine
 10
648.834996733977
 20
432.772833881925
 30
0.0
 11
648.834996733977
 21
417.772833881925
 31
0.0
1001
ACME_LAYERS
1000
1
  0
LINE
  5
3CF
330
1F
100
AcDbEntity
  8
P-0000
  6
Continuous
 62
     7
100
AcDbLine
 10
648.834996733977
 20
417.772833881925
 30
0.0
 11
649.2302729889033
 21
417.772833881925
 31
0.0
1001
ACME_LAYERS
1000
1
  0
LINE
  5
3D0
330
1F
100
AcDbEntity
  8
P-0000
  6
Continuous
 62
     7
100
AcDbLine
 10
648.834996733977
 20
432.772833881925
 30
0.0
 11
634.4893887895388
 21
432.772833881925
 31
0.0
1001
ACME_LAYERS
1000
1
  0
LINE
  5
3D1
330
1F
100
AcDbEntity
  8
P-0000
  6
Continuous
 62
     7
100
AcDbLine
 10
634.4893887895388
 20
417.772833881925
 30
0.0
 11
634.4893887895388
 21
432.772833881925
 31
0.0
1001
ACME_LAYERS
1000
1
  0
LINE
  5
3D2
330
1F
100
AcDbEntity
  8
P-0000
  6
Continuous
 62
     7
100
AcDbLine
 10
652.1312438136793
 20
417.772833881925
 30
0.0
 11
652.1312438136793
 21
432.772833881925
 31
0.0
1001
ACME_LAYERS
1000
1
  0
LINE
  5
3D3
330
1F
100
AcDbEntity
  8
P-0000
  6
Continuous
 62
     7
100
AcDbLine
 10
652.1312438136793
 20
417.772833881925
 30
0.0
 11
665.737205934813
 21
417.772833881925
 31
0.0
1001
ACME_LAYERS
1000
1
  0
LINE
  5
3D4
330
1F
100
AcDbEntity
  8
P-0000
  6
Continuous
 62
     7
100
AcDbLine
 10
666.3213336891898
 20
417.772833881925
 30
0.0
 11
666.3213336891898
 21
432.772833881925
 31
0.0
1001
ACME_LAYERS
1000
1
  0
LINE
  5
3D5
330
1F
100
AcDbEntity
  8
P-0000
  6
Continuous
 62
     7
100
AcDbLine
 10
666.3213336891898
 20
432.772833881925
 30
0.0
 11
665.737205934813
 21
432.772833881925
 31
0.0
1001
ACME_LAYERS
1000
1
  0
LINE
  5
3D6
330
1F
100
AcDbEntity
  8
P-0000
  6
Continuous
 62
     7
100
AcDbLine
 10
665.737205934813
 20
432.772833881925
 30
0.0
 11
665.737205934813
 21
417.772833881925
 31
0.0
1001
ACME_LAYERS
1000
1
  0
LINE
  5
3D7
330
1F
100
AcDbEntity
  8
P-0000
  6
Continuous
 62
     7
100
AcDbLine
 10
665.737205934813
 20
417.772833881925
 30
0.0
 11
666.3213336891898
 21
417.772833881925
 31
0.0
1001
ACME_LAYERS
1000
1
  0
LINE
  5
3D8
330
1F
100
AcDbEntity
  8
P-0000
  6
Continuous
 62
     7
100
AcDbLine
 10
665.737205934813
 20
432.772833881925
 30
0.0
 11
652.1312438136793
 21
432.772833881925
 31
0.0
1001
ACME_LAYERS
1000
1
  0
LINE
  5
3D9
330
1F
100
AcDbEntity
  8
P-0000
  6
Continuous
 62
     7
100
AcDbLine
 10
682.473988385351
 20
417.772833881925
 30
0.0
 11
681.711378258641
 21
417.772833881925
 31
0.0
1001
ACME_LAYERS
1000
1
  0
LINE
  5
3DA
330
1F
100
AcDbEntity
  8
P-0000
  6
Continuous
 62
     7
100
AcDbLine
 10
682.473988385351
 20
417.772833881925
 30
0.0
 11
682.473988385351
 21
432.772833881925
 31
0.0
1001
ACME_LAYERS
1000
1
  0
LINE
  5
3DB
330
1F
100
AcDbEntity
  8
P-0000
  6
Continuous
 62
     7
100
AcDbLine
 10
682.473988385351
 20
432.772833881925
 30
0.0
 11
681.711378258641
 21
432.772833881925
 31
0.0
1001
ACME_LAYERS
1000
1
  0
LINE
  5
3DC
330
1F
100
AcDbEntity
  8
P-0000
  6
Continuous
 62
     7
100
AcDbLine
 10
681.711378258641
 20
432.772833881925
 30
0.0
 11
681.711378258641
 21
417.772833881925
 31
0.0
1001
ACME_LAYERS
1000
1
  0
LINE
  5
3DD
330
1F
100
AcDbEntity
  8
P-0000
  6
Continuous
 62
     7
100
AcDbLine
 10
681.711378258641
 20
417.772833881925
 30
0.0
 11
669.0865878080802
 21
417.772833881925
 31
0.0
1001
ACME_LAYERS
1000
1
  0
LINE
  5
3DE
330
1F
100
AcDbEntity
  8
P-0000
  6
Continuous
 62
     7
100
AcDbLine
 10
681.711378258641
 20
432.772833881925
 30
0.0
 11
669.0865878080802
 21
432.772833881925
 31
0.0
1001
ACME_LAYERS
1000
1
  0
LINE
  5
3DF
330
1F
100
AcDbEntity
  8
P-0000
  6
Continuous
 62
     7
100
AcDbLine
 10
669.0865878080802
 20
417.772833881925
 30
0.0
 11
669.0865878080802
 21
432.772833881925
 31
0.0
1001
ACME_LAYERS
1000
1
  0
LINE
  5
3E0
330
1F
100
AcDbEntity
  8
P-0000
  6
Continuous
 62
     7
100
AcDbLine
 10
685.0544384689901
 20
417.772833881925
 30
0.0
 11
685.0544384689901
 21
432.772833881925
 31
0.0
1001
ACME_LAYERS
1000
1
  0
LINE
  5
3E1
330
1F
100
AcDbEntity
  8
P-0000
  6
Continuous
 62
     7
100
AcDbLine
 10
685.0544384689901
 20
417.772833881925
 30
0.0
 11
696.4739486425449
 21
417.772833881925
 31
0.0
1001
ACME_LAYERS
1000
1
  0
LINE
  5
3E2
330
1F
100
AcDbEntity
  8
P-0000
  6
Continuous
 62
     7
100
AcDbLine
 10
697.4015036897456
 20
417.772833881925
 30
0.0
 11
697.4015036897456
 21
432.772833881925
 31
0.0
1001
ACME_LAYERS
1000
1
  0
LINE
  5
3E3
330
1F
100
AcDbEntity
  8
P-0000
  6
Continuous
 62
     7
100
AcDbLine
 10
697.4015036897456
 20
432.772833881925
 30
0.0
 11
696.4739486425449
 21
432.772833881925
 31
0.0
1001
ACME_LAYERS
1000
1
  0
LINE
  5
3E4
330
1F
100
AcDbEntity
  8
P-0000
  6
Continuous
 62
     7
100
AcDbLine
 10
696.4739486425449
 20
432.772833881925
 30
0.0
 11
696.4739486425449
 21
417.772833881925
 31
0.0
1001
ACME_LAYERS
1000
1
  0
LINE
  5
3E5
330
1F
100
AcDbEntity
  8
P-0000
  6
Continuous
 62
     7
100
AcDbLine
 10
696.4739486425449
 20
417.772833881925
 30
0.0
 11
697.4015036897456
 21
417.772833881925
 31
0.0
1001
ACME_LAYERS
1000
1
  0
LINE
  5
3E6
330
1F
100
AcDbEntity
  8
P-0000
  6
Continuous
 62
     7
100
AcDbLine
 10
696.4739486425449
 20
432.772833881925
 30
0.0
 11
685.0544384689901
 21
432.772833881925
 31
0.0
1001
ACME_LAYERS
1000
1
  0
LINE
  5
3E7
330
1F
100
AcDbEntity
  8
P-0000
  6
Continuous
 62
     7
100
AcDbLine
 10
699.7513429523116
 20
417.772833881925
 30
0.0
 11
699.7513429523116
 21
432.772833881925
 31
0.0
1001
ACME_LAYERS
1000
1
  0
LINE
  5
3E8
330
1F
100
AcDbEntity
  8
P-0000
  6
Continuous
 62
     7
100
AcDbLine
 10
699.7513429523116
 20
417.772833881925
 30
0.0
 11
709.7628597407757
 21
417.772833881925
 31
0.0
1001
ACME_LAYERS
1000
1
  0
LINE
  5
3E9
330
1F
100
AcDbEntity
  8
P-0000
  6
Continuous
 62
     7
100
AcDbLine
 10
710.8388942415878
 20
417.772833881925
 30
0.0
 11
710.8388942415878
 21
432.772833881925
 31
0.0
1001
ACME_LAYERS
1000
1
  0
LINE
  5
3EA
330
1F
100
AcDbEntity
  8
P-0000
  6
Continuous
 62
     7
100
AcDbLine
 10
710.8388942415878
 20
432.772833881925
 30
0.0
 11
709.7628597407757
 21
432.772833881925
 31
0.0
1001
ACME_LAYERS
1000
1
  0
LINE
  5
3EB
330
1F
100
AcDbEntity
  8
P-0000
  6
Continuous
 62
     7
100
AcDbLine
 10
709.7628597407757
 20
432.772833881925
 30
0.0
 11
709.7628597407757
 21
417.772833881925
 31
0.0
1001
ACME_LAYERS
1000
1
  0
LINE
  5
3EC
330
1F
100
AcDbEntity
  8
P-0000
  6
Continuous
 62
     7
100
AcDbLine
 10
709.7628597407757
 20
417.772833881925
 30
0.0
 11
710.8388942415878
 21
417.772833881925
 31
0.0
1001
ACME_LAYERS
1000
1
  0
LINE
  5
3ED
330
1F
100
AcDbEntity
  8
P-0000
  6
Continuous
 62
     7
100
AcDbLine
 10
709.7628597407757
 20
432.772833881925
 30
0.0
 11
699.7513429523116
 21
432.772833881925
 31
0.0
1001
ACME_LAYERS
1000
1
  0
LINE
  5
3EE
330
1F
100
AcDbEntity
  8
P-0000
  6
Continuous
 62
     7
100
AcDbLine
 10
712.9164095786502
 20
417.772833881925
 30
0.0
 11
712.9164095786502
 21
432.772833881925
 31
0.0
1001
ACME_LAYERS
1000
1
  0
LINE
  5
3EF
330
1F
100
AcDbEntity
  8
P-0000
  6
Continuous
 62
     7
100
AcDbLine
 10
712.9164095786502
 20
417.772833881925
 30
0.0
 11
721.3422138282262
 21
417.772833881925
 31
0.0
1001
ACME_LAYERS
1000
1
  0
LINE
  5
3F0
330
1F
100
AcDbEntity
  8
P-0000
  6
Continuous
 62
     7
100
AcDbLine
 10
722.5476265869986
 20
417.772833881925
 30
0.0
 11
722.5476265869986
 21
432.772833881925
 31
0.0
1001
ACME_LAYERS
1000
1
  0
LINE
  5
3F1
330
1F
100
AcDbEntity
  8
P-0000
  6
Continuous
 62
     7
100
AcDbLine
 10
722.5476265869986
 20
432.772833881925
 30
0.0
 11
721.3422138282262
 21
432.772833881925
 31
0.0
1001
ACME_LAYERS
1000
1
  0
LINE
  5
3F2
330
1F
100
AcDbEntity
  8
P-0000
  6
Continuous
 62
     7
100
AcDbLine
 10
721.3422138282262
 20
432.772833881925
 30
0.0
 11
721.3422138282262
 21
417.772833881925
 31
0.0
1001
ACME_LAYERS
1000
1
  0
LINE
  5
3F3
330
1F
100
AcDbEntity
  8
P-0000
  6
Continuous
 62
     7
100
AcDbLine
 10
721.3422138282262
 20
417.772833881925
 30
0.0
 11
722.5476265869986
 21
417.772833881925
 31
0.0
1001
ACME_LAYERS
1000
1
  0
LINE
  5
3F4
330
1F
100
AcDbEntity
  8
P-0000
  6
Continuous
 62
     7
100
AcDbLine
 10
721.3422138282262
 20
432.772833881925
 30
0.0
 11
712.9164095786502
 21
432.772833881925
 31
0.0
1001
ACME_LAYERS
1000
1
  0
LINE
  5
3F5
330
1F
100
AcDbEntity
  8
P-0000
  6
Continuous
 62
     7
100
AcDbLine
 10
724.3159390444982
 20
417.772833881925
 30
0.0
 11
724.3159390444982
 21
432.772833881925
 31
0.0
1001
ACME_LAYERS
1000
1
  0
LINE
  5
3F6
330
1F
100
AcDbEntity
  8
P-0000
  6
Continuous
 62
     7
100
AcDbLine
 10
724.3159390444982
 20
417.772833881925
 30
0.0
 11
731.0064603321482
 21
417.772833881925
 31
0.0
1001
ACME_LAYERS
1000
1
  0
LINE
  5
3F7
330
1F
100
AcDbEntity
  8
P-0000
  6
Continuous
 62
     7
100
AcDbLine
 10
732.3198534987857
 20
417.772833881925
 30
0.0
 11
732.3198534987857
 21
432.772833881925
 31
0.0
1001
ACME_LAYERS
1000
1
  0
LINE
  5
3F8
330
1F
100
AcDbEntity
  8
P-0000
  6
Continuous
 62
     7
100
AcDbLine
 10
732.3198534987857
 20
432.772833881925
 30
0.0
 11
731.0064603321482
 21
432.772833881925
 31
0.0
1001
ACME_LAYERS
1000
1
  0
LINE
  5
3F9
330
1F
100
AcDbEntity
  8
P-0000
  6
Continuous
 62
     7
100
AcDbLine
 10
731.0064603321482
 20
432.772833881925
 30
0.0
 11
731.0064603321482
 21
417.772833881925
 31
0.0
1001
ACME_LAYERS
1000
1
  0
LINE
  5
3FA
330
1F
100
AcDbEntity
  8
P-0000
  6
Continuous
 62
     7
100
AcDbLine
 10
731.0064603321482
 20
417.772833881925
 30
0.0
 11
732.3198534987857
 21
417.772833881925
 31
0.0
1001
ACME_LAYERS
1000
1
  0
LINE
  5
3FB
330
1F
100
AcDbEntity
  8
P-0000
  6
Continuous
 62
     7
100
AcDbLine
 10
731.0064603321482
 20
432.772833881925
 30
0.0
 11
724.3159390444982
 21
432.772833881925
 31
0.0
1001
ACME_LAYERS
1000
1
  0
LINE
  5
3FC
330
1F
100
AcDbEntity
  8
P-0000
  6
Continuous
 62
     7
100
AcDbLine
 10
733.7475729287322
 20
417.772833881925
 30
0.0
 11
738.5840446572632
 21
417.772833881925
 31
0.0
1001
ACME_LAYERS
1000
1
  0
LINE
  5
3FD
330
1F
100
AcDbEntity
  8
P-0000
  6
Continuous
 62
     7
100
AcDbLine
 10
739.98210357055
 20
417.772833881925
 30
0.0
 11
739.98210357055
 21
432.772833881925
 31
0.0
1001
ACME_LAYERS
1000
1
  0
LINE
  5
3FE
330
1F
100
AcDbEntity
  8
P-0000
  6
Continuous
 62
     7
100
AcDbLine
 10
739.98210357055
 20
432.772833881925
 30
0.0
 11
738.5840446572632
 21
432.772833881925
 31
0.0
1001
ACME_LAYERS
1000
1
  0
LINE
  5
3FF
330
1F
100
AcDbEntity
  8
P-0000
  6
Continuous
 62
     7
100
AcDbLine
 10
738.5840446572632
 20
432.772833881925
 30
0.0
 11
738.5840446572632
 21
417.772833881925
 31
0.0
1001
ACME_LAYERS
1000
1
  0
LINE
  5
400
330
1F
100
AcDbEntity
  8
P-0000
  6
Continuous
 62
     7
100
AcDbLine
 10
738.5840446572632
 20
417.772833881925
 30
0.0
 11
739.98210357055
 21
417.772833881925
 31
0.0
1001
ACME_LAYERS
1000
1
  0
LINE
  5
401
330
1F
100
AcDbEntity
  8
P-0000
  6
Continuous
 62
     7
100
AcDbLine
 10
738.5840446572632
 20
432.772833881925
 30
0.0
 11
733.7475729287322
 21
432.772833881925
 31
0.0
1001
ACME_LAYERS
1000
1
  0
LINE
  5
402
330
1F
100
AcDbEntity
  8
P-0000
  6
Continuous
 62
     7
100
AcDbLine
 10
733.7475729287322
 20
417.772833881925
 30
0.0
 11
733.7475729287322
 21
432.772833881925
 31
0.0
1001
ACME_LAYERS
1000
1
  0
LINE
  5
403
330
1F
100
AcDbEntity
  8
P-0000
  6
Continuous
 62
     7
100
AcDbLine
 10
741.043885852336
 20
417.772833881925
 30
0.0
 11
741.043885852336
 21
432.772833881925
 31
0.0
1001
ACME_LAYERS
1000
1
  0
LINE
  5
404
330
1F
100
AcDbEntity
  8
P-0000
  6
Continuous
 62
     7
100
AcDbLine
 10
745.3983605893928
 20
417.772833881925
 30
0.0
 11
743.9404535322514
 21
417.772833881925
 31
0.0
1001
ACME_LAYERS
1000
1
  0
LINE
  5
405
330
1F
100
AcDbEntity
  8
P-0000
  6
Continuous
 62
     7
100
AcDbLine
 10
745.3983605893928
 20
417.772833881925
 30
0.0
 11
745.3983605893928
 21
432.772833881925
 31
0.0
1001
ACME_LAYERS
1000
1
  0
LINE
  5
406
330
1F
100
AcDbEntity
  8
P-0000
  6
Continuous
 62
     7
100
AcDbLine
 10
745.3983605893928
 20
432.772833881925
 30
0.0
 11
743.9404535322514
 21
432.772833881925
 31
0.0
1001
ACME_LAYERS
1000
1
  0
LINE
  5
407
330
1F
100
AcDbEntity
  8
P-0000
  6
Continuous
 62
     7
100
AcDbLine
 10
743.9404535322514
 20
432.772833881925
 30
0.0
 11
743.9404535322514
 21
417.772833881925
 31
0.0
1001
ACME_LAYERS
1000
1
  0
LINE
  5
408
330
1F
100
AcDbEntity
  8
P-0000
  6
Continuous
 62
     7
100
AcDbLine
 10
743.9404535322514
 20
417.772833881925
 30
0.0
 11
741.043885852336
 21
417.772833881925
 31
0.0
1001
ACME_LAYERS
1000
1
  0
LINE
  5
409
330
1F
100
AcDbEntity
  8
P-0000
  6
Continuous
 62
     7
100
AcDbLine
 10
743.9404535322514
 20
432.772833881925
 30
0.0
 11
741.043885852336
 21
432.772833881925
 31
0.0
1001
ACME_LAYERS
1000
1
  0
LINE
  5
40A
330
1F
100
AcDbEntity
  8
P-0000
  6
Continuous
 62
     7
100
AcDbLine
 10
746.0753575252253
 20
417.772833881925
 30
0.0
 11
746.9806028182382
 21
417.772833881925
 31
0.0
1001
ACME_LAYERS
1000
1
  0
LINE
  5
40B
330
1F
100
AcDbEntity
  8
P-0000
  6
Continuous
 62
     7
100
AcDbLine
 10
748.4724780238265
 20
417.772833881925
 30
0.0
 11
748.4724780238265
 21
432.772833881925
 31
0.0
1001
ACME_LAYERS
1000
1
  0
LINE
  5
40C
330
1F
100
AcDbEntity
  8
P-0000
  6
Continuous
 62
     7
100
AcDbLine
 10
748.4724780238265
 20
432.772833881925
 30
0.0
 11
747.7077719180877
 21
432.772833881925
 31
0.0
1001
ACME_LAYERS
1000
1
  0
LINE
  5
40D
330
1F
100
AcDbEntity
  8
P-0000
  6
Continuous
 62
     7
100
AcDbLine
 10
746.0753575252253
 20
432.772833881925
 30
0.0
 11
746.0753575252253
 21
417.772833881925
 31
0.0
1001
ACME_LAYERS
1000
1
  0
LINE
  5
40E
330
1F
100
AcDbEntity
  8
P-0000
  6
Continuous
 62
     7
100
AcDbLine
 10
746.9806028182382
 20
417.772833881925
 30
0.0
 11
746.9806028182382
 21
432.772833881925
 31
0.0
1001
ACME_LAYERS
1000
1
  0
LINE
  5
40F
330
1F
100
AcDbEntity
  8
P-0000
  6
Continuous
 62
     7
100
AcDbLine
 10
746.9806028182382
 20
417.772833881925
 30
0.0
 11
747.7077719180877
 21
417.772833881925
 31
0.0
1001
ACME_LAYERS
1000
1
  0
LINE
  5
410
330
1F
100
AcDbEntity
  8
P-0000
  6
Continuous
 62
     7
100
AcDbLine
 10
746.9806028182382
 20
432.772833881925
 30
0.0
 11
746.0753575252253
 21
432.772833881925
 31
0.0
1001
ACME_LAYERS
1000
1
  0
LINE
  5
411
330
1F
100
AcDbEntity
  8
P-0000
  6
Continuous
 62
     7
100
AcDbLine
 10
747.7077719180877
 20
417.772833881925
 30
0.0
 11
747.7077719180877
 21
432.772833881925
 31
0.0
1001
ACME_LAYERS
1000
1
  0
LINE
  5
412
330
1F
100
AcDbEntity
  8
P-0000
  6
Continuous
 62
     7
100
AcDbLine
 10
747.7077719180877
 20
432.772833881925
 30
0.0
 11
746.9806028182382
 21
432.772833881925
 31
0.0
1001
ACME_LAYERS
1000
1
  0
LINE
  5
413
330
1F
100
AcDbEntity
  8
P-0000
  6
Continuous
 62
     7
100
AcDbLine
 10
747.7077719180877
 20
417.772833881925
 30
0.0
 11
748.4724780238265
 21
417.772833881925
 31
0.0
1001
ACME_LAYERS
1000
1
  0
LINE
  5
414
330
1F
100
AcDbEntity
  8
P-0000
  6
Continuous
 62
     7
100
AcDbLine
 10
478.4430658123492
 20
435.7728338819251
 30
0.0
 11
479.2077719180878
 21
435.7728338819251
 31
0.0
1001
ACME_LAYERS
1000
1
  0
LINE
  5
415
330
1F
100
AcDbEntity
  8
P-0000
  6
Continuous
 62
     7
100
AcDbLine
 10
479.9349410179374
 20
450.7728338819251
 30
0.0
 11
479.2077719180879
 21
450.7728338819251
 31
0.0
1001
ACME_LAYERS
1000
1
  0
LINE
  5
416
330
1F
100
AcDbEntity
  8
P-0000
  6
Continuous
 62
     7
100
AcDbLine
 10
479.2077719180879
 20
450.7728338819251
 30
0.0
 11
479.2077719180878
 21
435.7728338819251
 31
0.0
1001
ACME_LAYERS
1000
1
  0
LINE
  5
417
330
1F
100
AcDbEntity
  8
P-0000
  6
Continuous
 62
     7
100
AcDbLine
 10
480.8401863109503
 20
450.7728338819251
 30
0.0
 11
479.9349410179374
 21
450.7728338819251
 31
0.0
1001
ACME_LAYERS
1000
1
  0
LINE
  5
418
330
1F
100
AcDbEntity
  8
P-0000
  6
Continuous
 62
     7
100
AcDbLine
 10
479.2077719180878
 20
435.7728338819251
 30
0.0
 11
479.9349410179373
 21
435.7728338819251
 31
0.0
1001
ACME_LAYERS
1000
1
  0
LINE
  5
419
330
1F
100
AcDbEntity
  8
P-0000
  6
Continuous
 62
     7
100
AcDbLine
 10
479.9349410179374
 20
450.7728338819251
 30
0.0
 11
479.9349410179373
 21
435.7728338819251
 31
0.0
1001
ACME_LAYERS
1000
1
  0
LINE
  5
41A
330
1F
100
AcDbEntity
  8
P-0000
  6
Continuous
 62
     7
100
AcDbLine
 10
480.8401863109503
 20
435.7728338819251
 30
0.0
 11
480.8401863109503
 21
450.7728338819251
 31
0.0
1001
ACME_LAYERS
1000
1
  0
LINE
  5
41B
330
1F
100
AcDbEntity
  8
P-0000
  6
Continuous
 62
     7
100
AcDbLine
 10
479.2077719180879
 20
450.7728338819251
 30
0.0
 11
478.4430658123492
 21
450.7728338819251
 31
0.0
1001
ACME_LAYERS
1000
1
  0
LINE
  5
41C
330
1F
100
AcDbEntity
  8
P-0000
  6
Continuous
 62
     7
100
AcDbLine
 10
478.4430658123492
 20
450.7728338819251
 30
0.0
 11
478.4430658123492
 21
435.7728338819251
 31
0.0
1001
ACME_LAYERS
1000
1
  0
LINE
  5
41D
330
1F
100
AcDbEntity
  8
P-0000
  6
Continuous
 62
     7
100
AcDbLine
 10
479.9349410179373
 20
435.7728338819251
 30
0.0
 11
480.8401863109503
 21
435.7728338819251
 31
0.0
1001
ACME_LAYERS
1000
1
  0
LINE
  5
41E
330
1F
100
AcDbEntity
  8
P-0000
  6
Continuous
 62
     7
100
AcDbLine
 10
485.8716579838397
 20
450.7728338819251
 30
0.0
 11
482.9750903039242
 21
450.7728338819251
 31
0.0
1001
ACME_LAYERS
1000
1
  0
LINE
  5
41F
330
1F
100
AcDbEntity
  8
P-0000
  6
Continuous
 62
     7
100
AcDbLine
 10
485.8716579838397
 20
435.7728338819251
 30
0.0
 11
482.9750903039241
 21
435.7728338819251
 31
0.0
1001
ACME_LAYERS
1000
1
  0
LINE
  5
420
330
1F
100
AcDbEntity
  8
P-0000
  6
Continuous
 62
     7
100
AcDbLine
 10
482.9750903039241
 20
435.7728338819251
 30
0.0
 11
482.9750903039242
 21
450.7728338819251
 31
0.0
1001
ACME_LAYERS
1000
1
  0
LINE
  5
421
330
1F
100
AcDbEntity
  8
P-0000
  6
Continuous
 62
     7
100
AcDbLine
 10
482.9750903039241
 20
435.7728338819251
 30
0.0
 11
481.5171832467828
 21
435.7728338819251
 31
0.0
1001
ACME_LAYERS
1000
1
  0
LINE
  5
422
330
1F
100
AcDbEntity
  8
P-0000
  6
Continuous
 62
     7
100
AcDbLine
 10
485.8716579838397
 20
450.7728338819251
 30
0.0
 11
485.8716579838397
 21
435.7728338819251
 31
0.0
1001
ACME_LAYERS
1000
1
  0
LINE
  5
423
330
1F
100
AcDbEntity
  8
P-0000
  6
Continuous
 62
     7
100
AcDbLine
 10
493.1679709074434
 20
450.7728338819251
 30
0.0
 11
493.1679709074434
 21
435.7728338819251
 31
0.0
1001
ACME_LAYERS
1000
1
  0
LINE
  5
424
330
1F
100
AcDbEntity
  8
P-0000
  6
Continuous
 62
     7
100
AcDbLine
 10
493.1679709074434
 20
450.7728338819251
 30
0.0
 11
488.3314991789124
 21
450.7728338819251
 31
0.0
1001
ACME_LAYERS
1000
1
  0
LINE
  5
425
330
1F
100
AcDbEntity
  8
P-0000
  6
Continuous
 62
     7
100
AcDbLine
 10
486.9334402656256
 20
435.7728338819251
 30
0.0
 11
488.3314991789124
 21
435.7728338819251
 31
0.0
1001
ACME_LAYERS
1000
1
  0
LINE
  5
426
330
1F
100
AcDbEntity
  8
P-0000
  6
Continuous
 62
     7
100
AcDbLine
 10
488.3314991789124
 20
435.7728338819251
 30
0.0
 11
488.3314991789124
 21
450.7728338819251
 31
0.0
1001
ACME_LAYERS
1000
1
  0
LINE
  5
427
330
1F
100
AcDbEntity
  8
P-0000
  6
Continuous
 62
     7
100
AcDbLine
 10
488.3314991789124
 20
450.7728338819251
 30
0.0
 11
486.9334402656256
 21
450.7728338819251
 31
0.0
1001
ACME_LAYERS
1000
1
  0
LINE
  5
428
330
1F
100
AcDbEntity
  8
P-0000
  6
Continuous
 62
     7
100
AcDbLine
 10
486.9334402656256
 20
450.7728338819251
 30
0.0
 11
486.9334402656256
 21
435.7728338819251
 31
0.0
1001
ACME_LAYERS
1000
1
  0
LINE
  5
429
330
1F
100
AcDbEntity
  8
P-0000
  6
Continuous
 62
     7
100
AcDbLine
 10
488.3314991789124
 20
435.7728338819251
 30
0.0
 11
493.1679709074434
 21
435.7728338819251
 31
0.0
1001
ACME_LAYERS
1000
1
  0
LINE
  5
42A
330
1F
100
AcDbEntity
  8
P-0000
  6
Continuous
 62
     7
100
AcDbLine
 10
502.5996047916773
 20
450.7728338819251
 30
0.0
 11
495.9090835040274
 21
450.7728338819251
 31
0.0
1001
ACME_LAYERS
1000
1
  0
LINE
  5
42B
330
1F
100
AcDbEntity
  8
P-0000
  6
Continuous
 62
     7
100
AcDbLine
 10
494.5956903373898
 20
435.7728338819251
 30
0.0
 11
495.9090835040274
 21
435.7728338819251
 31
0.0
1001
ACME_LAYERS
1000
1
  0
LINE
  5
42C
330
1F
100
AcDbEntity
  8
P-0000
  6
Continuous
 62
     7
100
AcDbLine
 10
495.9090835040274
 20
435.7728338819251
 30
0.0
 11
495.9090835040274
 21
450.7728338819251
 31
0.0
1001
ACME_LAYERS
1000
1
  0
LINE
  5
42D
330
1F
100
AcDbEntity
  8
P-0000
  6
Continuous
 62
     7
100
AcDbLine
 10
495.9090835040274
 20
450.7728338819251
 30
0.0
 11
494.5956903373898
 21
450.7728338819251
 31
0.0
1001
ACME_LAYERS
1000
1
  0
LINE
  5
42E
330
1F
100
AcDbEntity
  8
P-0000
  6
Continuous
 62
     7
100
AcDbLine
 10
494.5956903373898
 20
450.7728338819251
 30
0.0
 11
494.5956903373898
 21
435.7728338819251
 31
0.0
1001
ACME_LAYERS
1000
1
  0
LINE
  5
42F
330
1F
100
AcDbEntity
  8
P-0000
  6
Continuous
 62
     7
100
AcDbLine
 10
495.9090835040274
 20
435.7728338819251
 30
0.0
 11
502.5996047916773
 21
435.7728338819251
 31
0.0
1001
ACME_LAYERS
1000
1
  0
LINE
  5
430
330
1F
100
AcDbEntity
  8
P-0000
  6
Continuous
 62
     7
100
AcDbLine
 10
502.5996047916773
 20
450.7728338819251
 30
0.0
 11
502.5996047916773
 21
435.7728338819251
 31
0.0
1001
ACME_LAYERS
1000
1
  0
LINE
  5
431
330
1F
100
AcDbEntity
  8
P-0000
  6
Continuous
 62
     7
100
AcDbLine
 10
504.367917249177
 20
435.7728338819251
 30
0.0
 11
505.5733300079493
 21
435.7728338819251
 31
0.0
1001
ACME_LAYERS
1000
1
  0
LINE
  5
432
330
1F
100
AcDbEntity
  8
P-0000
  6
Continuous
 62
     7
100
AcDbLine
 10
505.5733300079493
 20
435.7728338819251
 30
0.0
 11
505.5733300079493
 21
450.7728338819251
 31
0.0
1001
ACME_LAYERS
1000
1
  0
LINE
  5
433
330
1F
100
AcDbEntity
  8
P-0000
  6
Continuous
 62
     7
100
AcDbLine
 10
505.5733300079493
 20
450.7728338819251
 30
0.0
 11
504.367917249177
 21
450.7728338819251
 31
0.0
1001
ACME_LAYERS
1000
1
  0
LINE
  5
434
330
1F
100
AcDbEntity
  8
P-0000
  6
Continuous
 62
     7
100
AcDbLine
 10
504.367917249177
 20
450.7728338819251
 30
0.0
 11
504.367917249177
 21
435.7728338819251
 31
0.0
1001
ACME_LAYERS
1000
1
  0
LINE
  5
435
330
1F
100
AcDbEntity
  8
P-0000
  6
Continuous
 62
     7
100
AcDbLine
 10
505.5733300079493
 20
435.7728338819251
 30
0.0
 11
513.9991342575253
 21
435.7728338819251
 31
0.0
1001
ACME_LAYERS
1000
1
  0
LINE
  5
436
330
1F
100
AcDbEntity
  8
P-0000
  6
Continuous
 62
     7
100
AcDbLine
 10
527.1642008838641
 20
450.7728338819251
 30
0.0
 11
517.1526840953998
 21
450.7728338819251
 31
0.0
1001
ACME_LAYERS
1000
1
  0
LINE
  5
437
330
1F
100
AcDbEntity
  8
P-0000
  6
Continuous
 62
     7
100
AcDbLine
 10
516.0766495945877
 20
435.7728338819251
 30
0.0
 11
517.1526840953998
 21
435.7728338819251
 31
0.0
1001
ACME_LAYERS
1000
1
  0
LINE
  5
438
330
1F
100
AcDbEntity
  8
P-0000
  6
Continuous
 62
     7
100
AcDbLine
 10
517.1526840953998
 20
435.7728338819251
 30
0.0
 11
517.1526840953998
 21
450.7728338819251
 31
0.0
1001
ACME_LAYERS
1000
1
  0
LINE
  5
439
330
1F
100
AcDbEntity
  8
P-0000
  6
Continuous
 62
     7
100
AcDbLine
 10
517.1526840953998
 20
450.7728338819251
 30
0.0
 11
516.0766495945877
 21
450.7728338819251
 31
0.0
1001
ACME_LAYERS
1000
1
  0
LINE
  5
43A
330
1F
100
AcDbEntity
  8
P-0000
  6
Continuous
 62
     7
100
AcDbLine
 10
516.0766495945877
 20
450.7728338819251
 30
0.0
 11
516.0766495945877
 21
435.7728338819251
 31
0.0
1001
ACME_LAYERS
1000
1
  0
LINE
  5
43B
330
1F
100
AcDbEntity
  8
P-0000
  6
Continuous
 62
     7
100
AcDbLine
 10
517.1526840953998
 20
435.7728338819251
 30
0.0
 11
527.1642008838641
 21
435.7728338819251
 31
0.0
1001
ACME_LAYERS
1000
1
  0
LINE
  5
43C
330
1F
100
AcDbEntity
  8
P-0000
  6
Continuous
 62
     7
100
AcDbLine
 10
527.1642008838641
 20
450.7728338819251
 30
0.0
 11
527.1642008838641
 21
435.7728338819251
 31
0.0
1001
ACME_LAYERS
1000
1
  0
LINE
  5
43D
330
1F
100
AcDbEntity
  8
P-0000
  6
Continuous
 62
     7
100
AcDbLine
 10
541.8611053671854
 20
450.7728338819251
 30
0.0
 11
530.4415951936306
 21
450.7728338819251
 31
0.0
1001
ACME_LAYERS
1000
1
  0
LINE
  5
43E
330
1F
100
AcDbEntity
  8
P-0000
  6
Continuous
 62
     7
100
AcDbLine
 10
529.51404014643
 20
435.7728338819251
 30
0.0
 11
530.4415951936306
 21
435.7728338819251
 31
0.0
1001
ACME_LAYERS
1000
1
  0
LINE
  5
43F
330
1F
100
AcDbEntity
  8
P-0000
  6
Continuous
 62
     7
100
AcDbLine
 10
530.4415951936306
 20
435.7728338819251
 30
0.0
 11
530.4415951936306
 21
450.7728338819251
 31
0.0
1001
ACME_LAYERS
1000
1
  0
LINE
  5
440
330
1F
100
AcDbEntity
  8
P-0000
  6
Continuous
 62
     7
100
AcDbLine
 10
530.4415951936306
 20
450.7728338819251
 30
0.0
 11
529.51404014643
 21
450.7728338819251
 31
0.0
1001
ACME_LAYERS
1000
1
  0
LINE
  5
441
330
1F
100
AcDbEntity
  8
P-0000
  6
Continuous
 62
     7
100
AcDbLine
 10
529.51404014643
 20
450.7728338819251
 30
0.0
 11
529.51404014643
 21
435.7728338819251
 31
0.0
1001
ACME_LAYERS
1000
1
  0
LINE
  5
442
330
1F
100
AcDbEntity
  8
P-0000
  6
Continuous
 62
     7
100
AcDbLine
 10
530.4415951936306
 20
435.7728338819251
 30
0.0
 11
541.8611053671854
 21
435.7728338819251
 31
0.0
1001
ACME_LAYERS
1000
1
  0
LINE
  5
443
330
1F
100
AcDbEntity
  8
P-0000
  6
Continuous
 62
     7
100
AcDbLine
 10
541.8611053671854
 20
450.7728338819251
 30
0.0
 11
541.8611053671854
 21
435.7728338819251
 31
0.0
1001
ACME_LAYERS
1000
1
  0
LINE
  5
444
330
1F
100
AcDbEntity
  8
P-0000
  6
Continuous
 62
     7
100
AcDbLine
 10
557.8289560280953
 20
450.7728338819251
 30
0.0
 11
557.8289560280953
 21
435.772833881925
 31
0.0
1001
ACME_LAYERS
1000
1
  0
LINE
  5
445
330
1F
100
AcDbEntity
  8
P-0000
  6
Continuous
 62
     7
100
AcDbLine
 10
557.8289560280953
 20
450.7728338819251
 30
0.0
 11
545.2041655775345
 21
450.7728338819251
 31
0.0
1001
ACME_LAYERS
1000
1
  0
LINE
  5
446
330
1F
100
AcDbEntity
  8
P-0000
  6
Continuous
 62
     7
100
AcDbLine
 10
544.4415554508245
 20
450.7728338819251
 30
0.0
 11
544.4415554508245
 21
435.7728338819251
 31
0.0
1001
ACME_LAYERS
1000
1
  0
LINE
  5
447
330
1F
100
AcDbEntity
  8
P-0000
  6
Continuous
 62
     7
100
AcDbLine
 10
574.7843000224961
 20
450.7728338819251
 30
0.0
 11
561.1783379013626
 21
450.7728338819251
 31
0.0
1001
ACME_LAYERS
1000
1
  0
LINE
  5
448
330
1F
100
AcDbEntity
  8
P-0000
  6
Continuous
 62
     7
100
AcDbLine
 10
560.594210146986
 20
435.772833881925
 30
0.0
 11
561.1783379013626
 21
435.772833881925
 31
0.0
1001
ACME_LAYERS
1000
1
  0
LINE
  5
449
330
1F
100
AcDbEntity
  8
P-0000
  6
Continuous
 62
     7
100
AcDbLine
 10
561.1783379013626
 20
435.772833881925
 30
0.0
 11
561.1783379013626
 21
450.7728338819251
 31
0.0
1001
ACME_LAYERS
1000
1
  0
LINE
  5
44A
330
1F
100
AcDbEntity
  8
P-0000
  6
Continuous
 62
     7
100
AcDbLine
 10
561.1783379013626
 20
450.7728338819251
 30
0.0
 11
560.594210146986
 21
450.7728338819251
 31
0.0
1001
ACME_LAYERS
1000
1
  0
LINE
  5
44B
330
1F
100
AcDbEntity
  8
P-0000
  6
Continuous
 62
     7
100
AcDbLine
 10
560.594210146986
 20
450.7728338819251
 30
0.0
 11
560.594210146986
 21
435.772833881925
 31
0.0
1001
ACME_LAYERS
1000
1
  0
LINE
  5
44C
330
1F
100
AcDbEntity
  8
P-0000
  6
Continuous
 62
     7
100
AcDbLine
 10
561.1783379013626
 20
435.772833881925
 30
0.0
 11
574.7843000224961
 21
435.772833881925
 31
0.0
1001
ACME_LAYERS
1000
1
  0
LINE
  5
44D
330
1F
100
AcDbEntity
  8
P-0000
  6
Continuous
 62
     7
100
AcDbLine
 10
574.7843000224961
 20
450.7728338819251
 30
0.0
 11
574.7843000224961
 21
435.772833881925
 31
0.0
1001
ACME_LAYERS
1000
1
  0
LINE
  5
44E
330
1F
100
AcDbEntity
  8
P-0000
  6
Continuous
 62
     7
100
AcDbLine
 10
592.4261550466368
 20
450.7728338819251
 30
0.0
 11
592.4261550466368
 21
435.772833881925
 31
0.0
1001
ACME_LAYERS
1000
1
  0
LINE
  5
44F
330
1F
100
AcDbEntity
  8
P-0000
  6
Continuous
 62
     7
100
AcDbLine
 10
592.4261550466368
 20
450.7728338819251
 30
0.0
 11
578.0805471021984
 21
450.7728338819251
 31
0.0
1001
ACME_LAYERS
1000
1
  0
LINE
  5
450
330
1F
100
AcDbEntity
  8
P-0000
  6
Continuous
 62
     7
100
AcDbLine
 10
577.6852708472724
 20
435.772833881925
 30
0.0
 11
578.0805471021984
 21
435.772833881925
 31
0.0
1001
ACME_LAYERS
1000
1
  0
LINE
  5
451
330
1F
100
AcDbEntity
  8
P-0000
  6
Continuous
 62
     7
100
AcDbLine
 10
578.0805471021984
 20
435.772833881925
 30
0.0
 11
578.0805471021984
 21
450.7728338819251
 31
0.0
1001
ACME_LAYERS
1000
1
  0
LINE
  5
452
330
1F
100
AcDbEntity
  8
P-0000
  6
Continuous
 62
     7
100
AcDbLine
 10
578.0805471021984
 20
450.7728338819251
 30
0.0
 11
577.6852708472724
 21
450.7728338819251
 31
0.0
1001
ACME_LAYERS
1000
1
  0
LINE
  5
453
330
1F
100
AcDbEntity
  8
P-0000
  6
Continuous
 62
     7
100
AcDbLine
 10
577.6852708472724
 20
450.7728338819251
 30
0.0
 11
577.6852708472724
 21
435.772833881925
 31
0.0
1001
ACME_LAYERS
1000
1
  0
LINE
  5
454
330
1F
100
AcDbEntity
  8
P-0000
  6
Continuous
 62
     7
100
AcDbLine
 10
578.0805471021984
 20
435.772833881925
 30
0.0
 11
592.4261550466368
 21
435.772833881925
 31
0.0
1001
ACME_LAYERS
1000
1
  0
LINE
  5
455
330
1F
100
AcDbEntity
  8
P-0000
  6
Continuous
 62
     7
100
AcDbLine
 10
610.47468282031
 20
450.7728338819251
 30
0.0
 11
595.6107540970585
 21
450.7728338819251
 31
0.0
1001
ACME_LAYERS
1000
1
  0
LINE
  5
456
330
1F
100
AcDbEntity
  8
P-0000
  6
Continuous
 62
     7
100
AcDbLine
 10
595.4113460767119
 20
435.772833881925
 30
0.0
 11
595.6107540970585
 21
435.772833881925
 31
0.0
1001
ACME_LAYERS
1000
1
  0
LINE
  5
457
330
1F
100
AcDbEntity
  8
P-0000
  6
Continuous
 62
     7
100
AcDbLine
 10
595.6107540970585
 20
435.772833881925
 30
0.0
 11
595.6107540970585
 21
450.7728338819251
 31
0.0
1001
ACME_LAYERS
1000
1
  0
LINE
  5
458
330
1F
100
AcDbEntity
  8
P-0000
  6
Continuous
 62
     7
100
AcDbLine
 10
595.6107540970585
 20
450.7728338819251
 30
0.0
 11
595.4113460767119
 21
450.7728338819251
 31
0.0
1001
ACME_LAYERS
1000
1
  0
LINE
  5
459
330
1F
100
AcDbEntity
  8
P-0000
  6
Continuous
 62
     7
100
AcDbLine
 10
595.4113460767119
 20
450.7728338819251
 30
0.0
 11
595.4113460767119
 21
435.772833881925
 31
0.0
1001
ACME_LAYERS
1000
1
  0
LINE
  5
45A
330
1F
100
AcDbEntity
  8
P-0000
  6
Continuous
 62
     7
100
AcDbLine
 10
595.6107540970585
 20
435.772833881925
 30
0.0
 11
610.47468282031
 21
435.772833881925
 31
0.0
1001
ACME_LAYERS
1000
1
  0
LINE
  5
45B
330
1F
100
AcDbEntity
  8
P-0000
  6
Continuous
 62
     7
100
AcDbLine
 10
610.47468282031
 20
435.772833881925
 30
0.0
 11
610.47468282031
 21
450.7728338819251
 31
0.0
1001
ACME_LAYERS
1000
1
  0
LINE
  5
45C
330
1F
100
AcDbEntity
  8
P-0000
  6
Continuous
 62
     7
100
AcDbLine
 10
477.7077719180878
 20
432.7728338819252
 30
0.0
 11
477.7077719180878
 21
447.7728338819251
 31
0.0
1001
ACME_LAYERS
1000
1
  0
LINE
  5
45D
330
1F
100
AcDbEntity
  8
P-0000
  6
Continuous
 62
     7
100
AcDbLine
 10
749.2077719180879
 20
447.772833881925
 30
0.0
 11
749.2077719180879
 21
432.772833881925
 31
0.0
1001
ACME_LAYERS
1000
1
  0
LINE
  5
45E
330
1F
100
AcDbEntity
  8
P-0000
  6
Continuous
 62
     7
100
AcDbLine
 10
616.4408610158655
 20
450.7728338819251
 30
0.0
 11
616.4408610158655
 21
435.772833881925
 31
0.0
1001
ACME_LAYERS
1000
1
  0
LINE
  5
45F
330
1F
100
AcDbEntity
  8
P-0000
  6
Continuous
 62
     7
100
AcDbLine
 10
616.4408610158655
 20
435.772833881925
 30
0.0
 11
631.304789739117
 21
435.772833881925
 31
0.0
1001
ACME_LAYERS
1000
1
  0
LINE
  5
460
330
1F
100
AcDbEntity
  8
P-0000
  6
Continuous
 62
     7
100
AcDbLine
 10
631.5041977594638
 20
435.772833881925
 30
0.0
 11
631.5041977594638
 21
450.7728338819251
 31
0.0
1001
ACME_LAYERS
1000
1
  0
LINE
  5
461
330
1F
100
AcDbEntity
  8
P-0000
  6
Continuous
 62
     7
100
AcDbLine
 10
631.5041977594638
 20
450.7728338819251
 30
0.0
 11
631.304789739117
 21
450.7728338819251
 31
0.0
1001
ACME_LAYERS
1000
1
  0
LINE
  5
462
330
1F
100
AcDbEntity
  8
P-0000
  6
Continuous
 62
     7
100
AcDbLine
 10
631.304789739117
 20
450.7728338819251
 30
0.0
 11
631.304789739117
 21
435.772833881925
 31
0.0
1001
ACME_LAYERS
1000
1
  0
LINE
  5
463
330
1F
100
AcDbEntity
  8
P-0000
  6
Continuous
 62
     7
100
AcDbLine
 10
631.304789739117
 20
435.772833881925
 30
0.0
 11
631.5041977594638
 21
435.772833881925
 31
0.0
1001
ACME_LAYERS
1000
1
  0
LINE
  5
464
330
1F
100
AcDbEntity
  8
P-0000
  6
Continuous
 62
     7
100
AcDbLine
 10
631.304789739117
 20
450.7728338819251
 30
0.0
 11
616.4408610158655
 21
450.7728338819251
 31
0.0
1001
ACME_LAYERS
1000
1
  0
LINE
  5
465
330
1F
100
AcDbEntity
  8
P-0000
  6
Continuous
 62
     7
100
AcDbLine
 10
634.4893887895388
 20
435.772833881925
 30
0.0
 11
648.834996733977
 21
435.772833881925
 31
0.0
1001
ACME_LAYERS
1000
1
  0
LINE
  5
466
330
1F
100
AcDbEntity
  8
P-0000
  6
Continuous
 62
     7
100
AcDbLine
 10
649.2302729889033
 20
435.772833881925
 30
0.0
 11
649.2302729889033
 21
450.7728338819251
 31
0.0
1001
ACME_LAYERS
1000
1
  0
LINE
  5
467
330
1F
100
AcDbEntity
  8
P-0000
  6
Continuous
 62
     7
100
AcDbLine
 10
649.2302729889033
 20
450.7728338819251
 30
0.0
 11
648.834996733977
 21
450.7728338819251
 31
0.0
1001
ACME_LAYERS
1000
1
  0
LINE
  5
468
330
1F
100
AcDbEntity
  8
P-0000
  6
Continuous
 62
     7
100
AcDbLine
 10
648.834996733977
 20
450.7728338819251
 30
0.0
 11
648.834996733977
 21
435.772833881925
 31
0.0
1001
ACME_LAYERS
1000
1
  0
LINE
  5
469
330
1F
100
AcDbEntity
  8
P-0000
  6
Continuous
 62
     7
100
AcDbLine
 10
648.834996733977
 20
435.772833881925
 30
0.0
 11
649.2302729889033
 21
435.772833881925
 31
0.0
1001
ACME_LAYERS
1000
1
  0
LINE
  5
46A
330
1F
100
AcDbEntity
  8
P-0000
  6
Continuous
 62
     7
100
AcDbLine
 10
648.834996733977
 20
450.7728338819251
 30
0.0
 11
634.4893887895388
 21
450.7728338819251
 31
0.0
1001
ACME_LAYERS
1000
1
  0
LINE
  5
46B
330
1F
100
AcDbEntity
  8
P-0000
  6
Continuous
 62
     7
100
AcDbLine
 10
634.4893887895388
 20
435.772833881925
 30
0.0
 11
634.4893887895388
 21
450.7728338819251
 31
0.0
1001
ACME_LAYERS
1000
1
  0
LINE
  5
46C
330
1F
100
AcDbEntity
  8
P-0000
  6
Continuous
 62
     7
100
AcDbLine
 10
652.1312438136793
 20
435.772833881925
 30
0.0
 11
652.1312438136793
 21
450.7728338819251
 31
0.0
1001
ACME_LAYERS
1000
1
  0
LINE
  5
46D
330
1F
100
AcDbEntity
  8
P-0000
  6
Continuous
 62
     7
100
AcDbLine
 10
652.1312438136793
 20
435.772833881925
 30
0.0
 11
665.737205934813
 21
435.772833881925
 31
0.0
1001
ACME_LAYERS
1000
1
  0
LINE
  5
46E
330
1F
100
AcDbEntity
  8
P-0000
  6
Continuous
 62
     7
100
AcDbLine
 10
666.3213336891898
 20
435.772833881925
 30
0.0
 11
666.3213336891898
 21
450.7728338819251
 31
0.0
1001
ACME_LAYERS
1000
1
  0
LINE
  5
46F
330
1F
100
AcDbEntity
  8
P-0000
  6
Continuous
 62
     7
100
AcDbLine
 10
666.3213336891898
 20
450.7728338819251
 30
0.0
 11
665.737205934813
 21
450.7728338819251
 31
0.0
1001
ACME_LAYERS
1000
1
  0
LINE
  5
470
330
1F
100
AcDbEntity
  8
P-0000
  6
Continuous
 62
     7
100
AcDbLine
 10
665.737205934813
 20
450.7728338819251
 30
0.0
 11
665.737205934813
 21
435.772833881925
 31
0.0
1001
ACME_LAYERS
1000
1
  0
LINE
  5
471
330
1F
100
AcDbEntity
  8
P-0000
  6
Continuous
 62
     7
100
AcDbLine
 10
665.737205934813
 20
435.772833881925
 30
0.0
 11
666.3213336891898
 21
435.772833881925
 31
0.0
1001
ACME_LAYERS
1000
1
  0
LINE
  5
472
330
1F
100
AcDbEntity
  8
P-0000
  6
Continuous
 62
     7
100
AcDbLine
 10
665.737205934813
 20
450.7728338819251
 30
0.0
 11
652.1312438136793
 21
450.7728338819251
 31
0.0
1001
ACME_LAYERS
1000
1
  0
LINE
  5
473
330
1F
100
AcDbEntity
  8
P-0000
  6
Continuous
 62
     7
100
AcDbLine
 10
682.473988385351
 20
435.772833881925
 30
0.0
 11
681.711378258641
 21
435.772833881925
 31
0.0
1001
ACME_LAYERS
1000
1
  0
LINE
  5
474
330
1F
100
AcDbEntity
  8
P-0000
  6
Continuous
 62
     7
100
AcDbLine
 10
682.473988385351
 20
435.772833881925
 30
0.0
 11
682.473988385351
 21
450.7728338819251
 31
0.0
1001
ACME_LAYERS
1000
1
  0
LINE
  5
475
330
1F
100
AcDbEntity
  8
P-0000
  6
Continuous
 62
     7
100
AcDbLine
 10
682.473988385351
 20
450.7728338819251
 30
0.0
 11
681.711378258641
 21
450.7728338819251
 31
0.0
1001
ACME_LAYERS
1000
1
  0
LINE
  5
476
330
1F
100
AcDbEntity
  8
P-0000
  6
Continuous
 62
     7
100
AcDbLine
 10
681.711378258641
 20
450.7728338819251
 30
0.0
 11
681.711378258641
 21
435.772833881925
 31
0.0
1001
ACME_LAYERS
1000
1
  0
LINE
  5
477
330
1F
100
AcDbEntity
  8
P-0000
  6
Continuous
 62
     7
100
AcDbLine
 10
681.711378258641
 20
435.772833881925
 30
0.0
 11
669.0865878080802
 21
435.772833881925
 31
0.0
1001
ACME_LAYERS
1000
1
  0
LINE
  5
478
330
1F
100
AcDbEntity
  8
P-0000
  6
Continuous
 62
     7
100
AcDbLine
 10
681.711378258641
 20
450.7728338819251
 30
0.0
 11
669.0865878080802
 21
450.7728338819251
 31
0.0
1001
ACME_LAYERS
1000
1
  0
LINE
  5
479
330
1F
100
AcDbEntity
  8
P-0000
  6
Continuous
 62
     7
100
AcDbLine
 10
669.0865878080802
 20
435.772833881925
 30
0.0
 11
669.0865878080802
 21
450.7728338819251
 31
0.0
1001
ACME_LAYERS
1000
1
  0
LINE
  5
47A
330
1F
100
AcDbEntity
  8
P-0000
  6
Continuous
 62
     7
100
AcDbLine
 10
685.0544384689901
 20
435.772833881925
 30
0.0
 11
685.0544384689901
 21
450.7728338819251
 31
0.0
1001
ACME_LAYERS
1000
1
  0
LINE
  5
47B
330
1F
100
AcDbEntity
  8
P-0000
  6
Continuous
 62
     7
100
AcDbLine
 10
685.0544384689901
 20
435.772833881925
 30
0.0
 11
696.4739486425449
 21
435.772833881925
 31
0.0
1001
ACME_LAYERS
1000
1
  0
LINE
  5
47C
330
1F
100
AcDbEntity
  8
P-0000
  6
Continuous
 62
     7
100
AcDbLine
 10
697.4015036897456
 20
435.772833881925
 30
0.0
 11
697.4015036897456
 21
450.7728338819251
 31
0.0
1001
ACME_LAYERS
1000
1
  0
LINE
  5
47D
330
1F
100
AcDbEntity
  8
P-0000
  6
Continuous
 62
     7
100
AcDbLine
 10
697.4015036897456
 20
450.7728338819251
 30
0.0
 11
696.4739486425449
 21
450.7728338819251
 31
0.0
1001
ACME_LAYERS
1000
1
  0
LINE
  5
47E
330
1F
100
AcDbEntity
  8
P-0000
  6
Continuous
 62
     7
100
AcDbLine
 10
696.4739486425449
 20
450.7728338819251
 30
0.0
 11
696.4739486425449
 21
435.772833881925
 31
0.0
1001
ACME_LAYERS
1000
1
  0
LINE
  5
47F
330
1F
100
AcDbEntity
  8
P-0000
  6
Continuous
 62
     7
100
AcDbLine
 10
696.4739486425449
 20
435.772833881925
 30
0.0
 11
697.4015036897456
 21
435.772833881925
 31
0.0
1001
ACME_LAYERS
1000
1
  0
LINE
  5
480
330
1F
100
AcDbEntity
  8
P-0000
  6
Continuous
 62
     7
100
AcDbLine
 10
696.4739486425449
 20
450.7728338819251
 30
0.0
 11
685.0544384689901
 21
450.7728338819251
 31
0.0
1001
ACME_LAYERS
1000
1
  0
LINE
  5
481
330
1F
100
AcDbEntity
  8
P-0000
  6
Continuous
 62
     7
100
AcDbLine
 10
699.7513429523116
 20
435.772833881925
 30
0.0
 11
699.7513429523116
 21
450.7728338819251
 31
0.0
1001
ACME_LAYERS
1000
1
  0
LINE
  5
482
330
1F
100
AcDbEntity
  8
P-0000
  6
Continuous
 62
     7
100
AcDbLine
 10
699.7513429523116
 20
435.772833881925
 30
0.0
 11
709.7628597407757
 21
435.772833881925
 31
0.0
1001
ACME_LAYERS
1000
1
  0
LINE
  5
483
330
1F
100
AcDbEntity
  8
P-0000
  6
Continuous
 62
     7
100
AcDbLine
 10
710.8388942415878
 20
435.772833881925
 30
0.0
 11
710.8388942415878
 21
450.7728338819251
 31
0.0
1001
ACME_LAYERS
1000
1
  0
LINE
  5
484
330
1F
100
AcDbEntity
  8
P-0000
  6
Continuous
 62
     7
100
AcDbLine
 10
710.8388942415878
 20
450.7728338819251
 30
0.0
 11
709.7628597407757
 21
450.7728338819251
 31
0.0
1001
ACME_LAYERS
1000
1
  0
LINE
  5
485
330
1F
100
AcDbEntity
  8
P-0000
  6
Continuous
 62
     7
100
AcDbLine
 10
709.7628597407757
 20
450.7728338819251
 30
0.0
 11
709.7628597407757
 21
435.772833881925
 31
0.0
1001
ACME_LAYERS
1000
1
  0
LINE
  5
486
330
1F
100
AcDbEntity
  8
P-0000
  6
Continuous
 62
     7
100
AcDbLine
 10
709.7628597407757
 20
435.772833881925
 30
0.0
 11
710.8388942415878
 21
435.772833881925
 31
0.0
1001
ACME_LAYERS
1000
1
  0
LINE
  5
487
330
1F
100
AcDbEntity
  8
P-0000
  6
Continuous
 62
     7
100
AcDbLine
 10
709.7628597407757
 20
450.7728338819251
 30
0.0
 11
699.7513429523116
 21
450.7728338819251
 31
0.0
1001
ACME_LAYERS
1000
1
  0
LINE
  5
488
330
1F
100
AcDbEntity
  8
P-0000
  6
Continuous
 62
     7
100
AcDbLine
 10
712.9164095786502
 20
435.772833881925
 30
0.0
 11
712.9164095786502
 21
450.7728338819251
 31
0.0
1001
ACME_LAYERS
1000
1
  0
LINE
  5
489
330
1F
100
AcDbEntity
  8
P-0000
  6
Continuous
 62
     7
100
AcDbLine
 10
712.9164095786502
 20
435.772833881925
 30
0.0
 11
721.3422138282262
 21
435.772833881925
 31
0.0
1001
ACME_LAYERS
1000
1
  0
LINE
  5
48A
330
1F
100
AcDbEntity
  8
P-0000
  6
Continuous
 62
     7
100
AcDbLine
 10
722.5476265869986
 20
435.772833881925
 30
0.0
 11
722.5476265869986
 21
450.7728338819251
 31
0.0
1001
ACME_LAYERS
1000
1
  0
LINE
  5
48B
330
1F
100
AcDbEntity
  8
P-0000
  6
Continuous
 62
     7
100
AcDbLine
 10
722.5476265869986
 20
450.7728338819251
 30
0.0
 11
721.3422138282262
 21
450.7728338819251
 31
0.0
1001
ACME_LAYERS
1000
1
  0
LINE
  5
48C
330
1F
100
AcDbEntity
  8
P-0000
  6
Continuous
 62
     7
100
AcDbLine
 10
721.3422138282262
 20
450.7728338819251
 30
0.0
 11
721.3422138282262
 21
435.772833881925
 31
0.0
1001
ACME_LAYERS
1000
1
  0
LINE
  5
48D
330
1F
100
AcDbEntity
  8
P-0000
  6
Continuous
 62
     7
100
AcDbLine
 10
721.3422138282262
 20
435.772833881925
 30
0.0
 11
722.5476265869986
 21
435.772833881925
 31
0.0
1001
ACME_LAYERS
1000
1
  0
LINE
  5
48E
330
1F
100
AcDbEntity
  8
P-0000
  6
Continuous
 62
     7
100
AcDbLine
 10
721.3422138282262
 20
450.7728338819251
 30
0.0
 11
712.9164095786502
 21
450.7728338819251
 31
0.0
1001
ACME_LAYERS
1000
1
  0
LINE
  5
48F
330
1F
100
AcDbEntity
  8
P-0000
  6
Continuous
 62
     7
100
AcDbLine
 10
724.3159390444982
 20
435.772833881925
 30
0.0
 11
724.3159390444982
 21
450.7728338819251
 31
0.0
1001
ACME_LAYERS
1000
1
  0
LINE
  5
490
330
1F
100
AcDbEntity
  8
P-0000
  6
Continuous
 62
     7
100
AcDbLine
 10
724.3159390444982
 20
435.772833881925
 30
0.0
 11
731.0064603321482
 21
435.772833881925
 31
0.0
1001
ACME_LAYERS
1000
1
  0
LINE
  5
491
330
1F
100
AcDbEntity
  8
P-0000
  6
Continuous
 62
     7
100
AcDbLine
 10
732.3198534987857
 20
435.772833881925
 30
0.0
 11
732.3198534987857
 21
450.7728338819251
 31
0.0
1001
ACME_LAYERS
1000
1
  0
LINE
  5
492
330
1F
100
AcDbEntity
  8
P-0000
  6
Continuous
 62
     7
100
AcDbLine
 10
732.3198534987857
 20
450.7728338819251
 30
0.0
 11
731.0064603321482
 21
450.7728338819251
 31
0.0
1001
ACME_LAYERS
1000
1
  0
LINE
  5
493
330
1F
100
AcDbEntity
  8
P-0000
  6
Continuous
 62
     7
100
AcDbLine
 10
731.0064603321482
 20
450.7728338819251
 30
0.0
 11
731.0064603321482
 21
435.772833881925
 31
0.0
1001
ACME_LAYERS
1000
1
  0
LINE
  5
494
330
1F
100
AcDbEntity
  8
P-0000
  6
Continuous
 62
     7
100
AcDbLine
 10
731.0064603321482
 20
435.772833881925
 30
0.0
 11
732.3198534987857
 21
435.772833881925
 31
0.0
1001
ACME_LAYERS
1000
1
  0
LINE
  5
495
330
1F
100
AcDbEntity
  8
P-0000
  6
Continuous
 62
     7
100
AcDbLine
 10
731.0064603321482
 20
450.7728338819251
 30
0.0
 11
724.3159390444982
 21
450.7728338819251
 31
0.0
1001
ACME_LAYERS
1000
1
  0
LINE
  5
496
330
1F
100
AcDbEntity
  8
P-0000
  6
Continuous
 62
     7
100
AcDbLine
 10
733.7475729287322
 20
435.772833881925
 30
0.0
 11
738.5840446572632
 21
435.772833881925
 31
0.0
1001
ACME_LAYERS
1000
1
  0
LINE
  5
497
330
1F
100
AcDbEntity
  8
P-0000
  6
Continuous
 62
     7
100
AcDbLine
 10
739.98210357055
 20
435.772833881925
 30
0.0
 11
739.98210357055
 21
450.7728338819251
 31
0.0
1001
ACME_LAYERS
1000
1
  0
LINE
  5
498
330
1F
100
AcDbEntity
  8
P-0000
  6
Continuous
 62
     7
100
AcDbLine
 10
739.98210357055
 20
450.7728338819251
 30
0.0
 11
738.5840446572632
 21
450.7728338819251
 31
0.0
1001
ACME_LAYERS
1000
1
  0
LINE
  5
499
330
1F
100
AcDbEntity
  8
P-0000
  6
Continuous
 62
     7
100
AcDbLine
 10
738.5840446572632
 20
450.7728338819251
 30
0.0
 11
738.5840446572632
 21
435.772833881925
 31
0.0
1001
ACME_LAYERS
1000
1
  0
LINE
  5
49A
330
1F
100
AcDbEntity
  8
P-0000
  6
Continuous
 62
     7
100
AcDbLine
 10
738.5840446572632
 20
435.772833881925
 30
0.0
 11
739.98210357055
 21
435.772833881925
 31
0.0
1001
ACME_LAYERS
1000
1
  0
LINE
  5
49B
330
1F
100
AcDbEntity
  8
P-0000
  6
Continuous
 62
     7
100
AcDbLine
 10
738.5840446572632
 20
450.7728338819251
 30
0.0
 11
733.7475729287322
 21
450.7728338819251
 31
0.0
1001
ACME_LAYERS
1000
1
  0
LINE
  5
49C
330
1F
100
AcDbEntity
  8
P-0000
  6
Continuous
 62
     7
100
AcDbLine
 10
733.7475729287322
 20
435.772833881925
 30
0.0
 11
733.7475729287322
 21
450.7728338819251
 31
0.0
1001
ACME_LAYERS
1000
1
  0
LINE
  5
49D
330
1F
100
AcDbEntity
  8
P-0000
  6
Continuous
 62
     7
100
AcDbLine
 10
741.043885852336
 20
435.772833881925
 30
0.0
 11
741.043885852336
 21
450.7728338819251
 31
0.0
1001
ACME_LAYERS
1000
1
  0
LINE
  5
49E
330
1F
100
AcDbEntity
  8
P-0000
  6
Continuous
 62
     7
100
AcDbLine
 10
745.3983605893928
 20
435.772833881925
 30
0.0
 11
745.2965275160087
 21
435.772833881925
 31
0.0
1001
ACME_LAYERS
1000
1
  0
LINE
  5
49F
330
1F
100
AcDbEntity
  8
P-0000
  6
Continuous
 62
     7
100
AcDbLine
 10
745.3983605893928
 20
435.772833881925
 30
0.0
 11
745.3983605893928
 21
450.7728338819251
 31
0.0
1001
ACME_LAYERS
1000
1
  0
LINE
  5
4A0
330
1F
100
AcDbEntity
  8
P-0000
  6
Continuous
 62
     7
100
AcDbLine
 10
745.3983605893928
 20
450.7728338819251
 30
0.0
 11
743.9404535322514
 21
450.7728338819251
 31
0.0
1001
ACME_LAYERS
1000
1
  0
LINE
  5
4A1
330
1F
100
AcDbEntity
  8
P-0000
  6
Continuous
 62
     7
100
AcDbLine
 10
743.9404535322514
 20
450.7728338819251
 30
0.0
 11
743.9404535322514
 21
435.772833881925
 31
0.0
1001
ACME_LAYERS
1000
1
  0
LINE
  5
4A2
330
1F
100
AcDbEntity
  8
P-0000
  6
Continuous
 62
     7
100
AcDbLine
 10
743.9404535322514
 20
435.772833881925
 30
0.0
 11
741.043885852336
 21
435.772833881925
 31
0.0
1001
ACME_LAYERS
1000
1
  0
LINE
  5
4A3
330
1F
100
AcDbEntity
  8
P-0000
  6
Continuous
 62
     7
100
AcDbLine
 10
743.9404535322514
 20
450.7728338819251
 30
0.0
 11
741.043885852336
 21
450.7728338819251
 31
0.0
1001
ACME_LAYERS
1000
1
  0
LINE
  5
4A4
330
1F
100
AcDbEntity
  8
P-0000
  6
Continuous
 62
     7
100
AcDbLine
 10
746.0753575252253
 20
435.772833881925
 30
0.0
 11
746.9806028182382
 21
435.772833881925
 31
0.0
1001
ACME_LAYERS
1000
1
  0
LINE
  5
4A5
330
1F
100
AcDbEntity
  8
P-0000
  6
Continuous
 62
     7
100
AcDbLine
 10
748.4724780238265
 20
435.772833881925
 30
0.0
 11
748.4724780238265
 21
450.7728338819251
 31
0.0
1001
ACME_LAYERS
1000
1
  0
LINE
  5
4A6
330
1F
100
AcDbEntity
  8
P-0000
  6
Continuous
 62
     7
100
AcDbLine
 10
748.4724780238265
 20
450.7728338819251
 30
0.0
 11
747.7077719180877
 21
450.7728338819251
 31
0.0
1001
ACME_LAYERS
1000
1
  0
LINE
  5
4A7
330
1F
100
AcDbEntity
  8
P-0000
  6
Continuous
 62
     7
100
AcDbLine
 10
746.0753575252253
 20
450.7728338819251
 30
0.0
 11
746.0753575252253
 21
435.772833881925
 31
0.0
1001
ACME_LAYERS
1000
1
  0
LINE
  5
4A8
330
1F
100
AcDbEntity
  8
P-0000
  6
Continuous
 62
     7
100
AcDbLine
 10
746.9806028182382
 20
435.772833881925
 30
0.0
 11
746.9806028182382
 21
450.7728338819251
 31
0.0
1001
ACME_LAYERS
1000
1
  0
LINE
  5
4A9
330
1F
100
AcDbEntity
  8
P-0000
  6
Continuous
 62
     7
100
AcDbLine
 10
746.9806028182382
 20
435.772833881925
 30
0.0
 11
747.7077719180877
 21
435.772833881925
 31
0.0
1001
ACME_LAYERS
1000
1
  0
LINE
  5
4AA
330
1F
100
AcDbEntity
  8
P-0000
  6
Continuous
 62
     7
100
AcDbLine
 10
746.9806028182382
 20
450.7728338819251
 30
0.0
 11
746.0753575252253
 21
450.7728338819251
 31
0.0
1001
ACME_LAYERS
1000
1
  0
LINE
  5
4AB
330
1F
100
AcDbEntity
  8
P-0000
  6
Continuous
 62
     7
100
AcDbLine
 10
747.7077719180877
 20
435.772833881925
 30
0.0
 11
747.7077719180877
 21
450.7728338819251
 31
0.0
1001
ACME_LAYERS
1000
1
  0
LINE
  5
4AC
330
1F
100
AcDbEntity
  8
P-0000
  6
Continuous
 62
     7
100
AcDbLine
 10
747.7077719180877
 20
450.7728338819251
 30
0.0
 11
746.9806028182382
 21
450.7728338819251
 31
0.0
1001
ACME_LAYERS
1000
1
  0
LINE
  5
4AD
330
1F
100
AcDbEntity
  8
P-0000
  6
Continuous
 62
     7
100
AcDbLine
 10
747.7077719180877
 20
435.772833881925
 30
0.0
 11
748.4724780238265
 21
435.772833881925
 31
0.0
1001
ACME_LAYERS
1000
1
  0
LINE
  5
4AE
330
1F
100
AcDbEntity
  8
P-0000
  6
Continuous
 62
     7
100
AcDbLine
 10
541.8611053671854
 20
414.7728338819251
 30
0.0
 11
541.8611053671854
 21
399.7728338819252
 31
0.0
1001
ACME_LAYERS
1000
1
  0
LINE
  5
4AF
330
1F
100
AcDbEntity
  8
P-0000
  6
Continuous
 62
     7
100
AcDbLine
 10
541.8611053671854
 20
414.7728338819251
 30
0.0
 11
530.4415951936306
 21
414.7728338819251
 31
0.0
1001
ACME_LAYERS
1000
1
  0
LINE
  5
4B0
330
1F
100
AcDbEntity
  8
P-0000
  6
Continuous
 62
     7
100
AcDbLine
 10
513.9991342575253
 20
450.7728338819251
 30
0.0
 11
513.9991342575253
 21
435.7728338819251
 31
0.0
1001
ACME_LAYERS
1000
1
  0
LINE
  5
4B1
330
1F
100
AcDbEntity
  8
P-0000
  6
Continuous
 62
     7
100
AcDbLine
 10
513.9991342575253
 20
450.7728338819251
 30
0.0
 11
505.5733300079493
 21
450.7728338819251
 31
0.0
1001
ACME_LAYERS
1000
1
  0
LINE
  5
4B2
330
1F
100
AcDbEntity
  8
P-0000
  6
Continuous
 62
     7
100
AcDbLine
 10
481.5171832467828
 20
450.7728338819251
 30
0.0
 11
481.5171832467828
 21
435.7728338819251
 31
0.0
1001
ACME_LAYERS
1000
1
  0
LINE
  5
4B3
330
1F
100
AcDbEntity
  8
P-0000
  6
Continuous
 62
     7
100
AcDbLine
 10
482.9750903039242
 20
450.7728338819251
 30
0.0
 11
481.5171832467828
 21
450.7728338819251
 31
0.0
1001
ACME_LAYERS
1000
1
  0
LINE
  5
4B4
330
1F
100
AcDbEntity
  8
P-0000
  6
Continuous
 62
     7
100
AcDbLine
 10
619.4577719180878
 20
481.5362832093996
 30
0.0
 11
619.4577719180878
 21
480.8427512499234
 31
0.0
1001
ACME_LAYERS
1000
1
  0
LINE
  5
4B5
330
1F
100
AcDbEntity
  8
P-0000
  6
Continuous
 62
     7
100
AcDbLine
 10
607.4577719180878
 20
481.5362832093996
 30
0.0
 11
607.4577719180878
 21
480.8427512499234
 31
0.0
1001
ACME_LAYERS
1000
1
  0
LINE
  5
4B6
330
1F
100
AcDbEntity
  8
P-0000
  6
STRICHLINIE
 62
     2
100
AcDbLine
 10
619.4577719180878
 20
451.0410922379096
 30
0.0
 11
607.4577719180878
 21
451.0410922379096
 31
0.0
1001
ACME_LAYERS
1000
1
  0
LINE
  5
4B7
330
1F
100
AcDbEntity
  8
P-0000
  6
STRICHLINIE
 62
     2
100
AcDbLine
 10
619.4577719180878
 20
459.9450017615351
 30
0.0
 11
607.4577719180878
 21
459.9450017615351
 31
0.0
1001
ACME_LAYERS
1000
1
  0
LINE
  5
4B8
330
1F
100
AcDbEntity
  8
P-0000
  6
STRICHLINIE
 62
     2
100
AcDbLine
 10
619.4577719180878
 20
459.9450017615351
 30
0.0
 11
619.4577719180878
 21
451.0410922379096
 31
0.0
1001
ACME_LAYERS
1000
1
  0
LINE
  5
4B9
330
1F
100
AcDbEntity
  8
P-0000
  6
STRICHLINIE
 62
     2
100
AcDbLine
 10
607.4577719180878
 20
459.9450017615351
 30
0.0
 11
607.4577719180878
 21
451.0410922379096
 31
0.0
1001
ACME_LAYERS
1000
1
  0
LINE
  5
4BA
330
1F
100
AcDbEntity
  8
P-0000
  6
STRICHLINIE
 62
     2
100
AcDbLine
 10
619.4577719180878
 20
466.0664569889313
 30
0.0
 11
607.4577719180878
 21
466.0664569889313
 31
0.0
1001
ACME_LAYERS
1000
1
  0
LINE
  5
4BB
330
1F
100
AcDbEntity
  8
P-0000
  6
STRICHLINIE
 62
     2
100
AcDbLine
 10
619.4577719180878
 20
466.0664569889313
 30
0.0
 11
619.4577719180878
 21
459.9450017615351
 31
0.0
1001
ACME_LAYERS
1000
1
  0
LINE
  5
4BC
330
1F
100
AcDbEntity
  8
P-0000
  6
STRICHLINIE
 62
     2
100
AcDbLine
 10
607.4577719180878
 20
466.0664569889313
 30
0.0
 11
607.4577719180878
 21
459.9450017615351
 31
0.0
1001
ACME_LAYERS
1000
1
  0
LINE
  5
4BD
330
1F
100
AcDbEntity
  8
P-0000
  6
Continuous
 62
     7
100
AcDbLine
 10
619.4577719180878
 20
472.7359004774274
 30
0.0
 11
607.4577719180878
 21
472.7359004774274
 31
0.0
1001
ACME_LAYERS
1000
1
  0
LINE
  5
4BE
330
1F
100
AcDbEntity
  8
P-0000
  6
Continuous
 62
     7
100
AcDbLine
 10
619.4577719180878
 20
472.7359004774274
 30
0.0
 11
619.4577719180878
 21
471.7728338819251
 31
0.0
1001
ACME_LAYERS
1000
1
  0
LINE
  5
4BF
330
1F
100
AcDbEntity
  8
P-0000
  6
Continuous
 62
     7
100
AcDbLine
 10
607.4577719180878
 20
472.7359004774274
 30
0.0
 11
607.4577719180878
 21
471.7728338819251
 31
0.0
1001
ACME_LAYERS
1000
1
  0
LINE
  5
4C0
330
1F
100
AcDbEntity
  8
P-0000
  6
Continuous
 62
     7
100
AcDbLine
 10
619.4577719180878
 20
481.5362832093996
 30
0.0
 11
607.4577719180878
 21
481.5362832093996
 31
0.0
1001
ACME_LAYERS
1000
1
  0
LINE
  5
4C1
330
1F
100
AcDbEntity
  8
P-0000
  6
Continuous
 62
     7
100
AcDbLine
 10
619.4577719180878
 20
480.8427512499234
 30
0.0
 11
607.4577719180878
 21
480.8427512499234
 31
0.0
1001
ACME_LAYERS
1000
1
  0
LINE
  5
4C2
330
1F
100
AcDbEntity
  8
P-0000
  6
Continuous
 62
     7
100
AcDbLine
 10
619.4577719180878
 20
480.8427512499234
 30
0.0
 11
619.4577719180878
 21
472.7359004774274
 31
0.0
1001
ACME_LAYERS
1000
1
  0
LINE
  5
4C3
330
1F
100
AcDbEntity
  8
P-0000
  6
Continuous
 62
     7
100
AcDbLine
 10
607.4577719180878
 20
480.8427512499234
 30
0.0
 11
607.4577719180878
 21
472.7359004774274
 31
0.0
1001
ACME_LAYERS
1000
1
  0
LINE
  5
4C4
330
1F
100
AcDbEntity
  8
P-0000
  6
STRICHLINIE
 62
     2
100
AcDbLine
 10
619.4577719180878
 20
471.7728338819251
 30
0.0
 11
619.4577719180878
 21
466.0664569889313
 31
0.0
1001
ACME_LAYERS
1000
1
  0
LINE
  5
4C5
330
1F
100
AcDbEntity
  8
P-0000
  6
STRICHLINIE
 62
     2
100
AcDbLine
 10
607.4577719180878
 20
471.7728338819251
 30
0.0
 11
607.4577719180878
 21
466.0664569889313
 31
0.0
1001
ACME_LAYERS
1000
1
  0
LINE
  5
4C6
330
1F
100
AcDbEntity
  8
P-0000
  6
Continuous
 62
     7
100
AcDbLine
 10
749.2077719180879
 20
396.7728338819251
 30
0.0
 11
477.7077719180878
 21
396.7728338819252
 31
0.0
1001
ACME_LAYERS
1000
1
  0
LINE
  5
4C7
330
1F
100
AcDbEntity
  8
P-0000
  6
Continuous
 62
     7
100
AcDbLine
 10
477.7077719180878
 20
396.7728338819252
 30
0.0
 11
477.7077719180878
 21
471.7728338819251
 31
0.0
1001
ACME_LAYERS
1000
1
  0
LINE
  5
4C8
330
1F
100
AcDbEntity
  8
P-0000
  6
Continuous
 62
     7
100
AcDbLine
 10
613.4577719180878
 20
396.7728338819251
 30
0.0
 11
613.4577719180878
 21
453.7728338819252
 31
0.0
1001
ACME_LAYERS
1000
1
  0
LINE
  5
4C9
330
1F
100
AcDbEntity
  8
P-0000
  6
Continuous
 62
     7
100
AcDbLine
 10
745.2965275160087
 20
435.772833881925
 30
0.0
 11
743.9404535322514
 21
435.772833881925
 31
0.0
1001
ACME_LAYERS
1000
1
  0
CIRCLE
  5
590
330
1F
100
AcDbEntity
  8
P-0000
  6
Continuous
 62
     7
100
AcDbCircle
 10
613.4577719180879
 20
718.4240798511559
 30
0.0
 40
78.67479068047763
1001
ACME_LAYERS
1000
1
  0
CIRCLE
  5
591
330
1F
100
AcDbEntity
  8
P-0000
  6
Continuous
 62
     7
100
AcDbCircle
 10
613.4577719180879
 20
718.4240798511559
 30
0.0
 40
84.17383962842553
1001
ACME_LAYERS
1000
1
  0
CIRCLE
  5
592
330
1F
100
AcDbEntity
  8
P-0000
  6
Continuous
 62
     7
100
AcDbCircle
 10
613.4577719180879
 20
718.4240798511559
 30
0.0
 40
103.6602540378444
1001
ACME_LAYERS
1000
1
  0
CIRCLE
  5
593
330
1F
100
AcDbEntity
  8
P-0000
  6
Continuous
 62
     7
100
AcDbCircle
 10
613.4577719180879
 20
718.4240798511559
 30
0.0
 40
138.0
1001
ACME_LAYERS
1000
1
  0
CIRCLE
  5
594
330
1F
100
AcDbEntity
  8
P-0000
  6
Continuous
 62
     7
100
AcDbCircle
 10
613.4577719180879
 20
718.4240798511559
 30
0.0
 40
139.5
1001
ACME_LAYERS
1000
1
  0
ARC
  5
59A
330
1F
100
AcDbEntity
  8
P-0000
  6
Continuous
 62
     7
100
AcDbCircle
 10
743.2965275160086
 20
396.2728338819251
 30
0.0
 40
4.0
100
AcDbArc
 50
270.0
 51
0.0
1001
ACME_LAYERS
1000
1
  0
ARC
  5
59B
330
1F
100
AcDbEntity
  8
P-0000
  6
Continuous
 62
     7
100
AcDbCircle
 10
743.2965275160086
 20
396.2728338819251
 30
0.0
 40
2.0
100
AcDbArc
 50
270.0
 51
0.0
1001
ACME_LAYERS
1000
1
  0
DIMENSION
  5
5D0
330
1F
100
AcDbEntity
  8
P-1DEE
  6
Continuous
100
AcDbDimension
  2
*D3
 10
477.7077719180878
 20
513.3257238087137
 30
0.0
 11
613.3295191556308
 21
521.0471470386694
 31
0.0
 70
   160
  1
%%c271.5
 71
     5
 42
271.5000000000001
  3
332N4461_001_00116122076
100
AcDbAlignedDimension
 13
749.2077719180879
 23
471.7728338819251
 33
0.0
 14
477.7077719180878
 24
471.7728338819251
 34
0.0
100
AcDbRotatedDimension
1001
ACME_LAYERS
1000
1
1001
ACAD
1000
DSTYLE
1002
{
1070
    41
1040
7.0
1070
   140
1040
10.0
1070
   279
1070
     2
1070
   288
1070
     1
1002
}
  0
DIMENSION
  5
5FA
330
1F
100
AcDbEntity
  8
P-1DEE
  6
Continuous
100
AcDbDimension
  2
*D4
 10
455.2777173077689
 20
396.7728338819252
 30
0.0
 11
445.9649622384331
 21
433.5376792450599
 31
0.0
 70
   160
  1
<>
 71
     5
 42
75.0
  3
332N4461_001_00116122076
100
AcDbAlignedDimension
 13
477.7077719180878
 23
471.7728338819251
 33
0.0
 14
477.7077719180878
 24
396.7728338819252
 34
0.0
 50
270.0
100
AcDbRotatedDimension
1001
ACME_LAYERS
1000
1
1001
ACAD
1000
DSTYLE
1002
{
1070
    41
1040
7.0
1070
   140
1040
10.0
1070
   279
1070
     2
1070
   288
1070
     1
1002
}
  0
DIMENSION
  5
624
330
1F
100
AcDbEntity
  8
P-1DEE
  6
Continuous
100
AcDbDimension
  2
*D5
 10
767.7395404703918
 20
392.2728338819251
 30
0.0
 11
777.4755262888033
 21
395.5740147081986
 31
0.0
 70
   160
  1
4.5
 71
     5
 42
4.5
  3
332N4461_001_00116122076
100
AcDbAlignedDimension
 13
749.2077719180879
 23
396.7728338819251
 33
0.0
 14
743.2965275160086
 24
392.2728338819251
 34
0.0
 50
270.0
100
AcDbRotatedDimension
1001
ACME_LAYERS
1000
1
1001
ACAD
1000
DSTYLE
1002
{
1070
    41
1040
7.0
1070
   140
1040
10.0
1070
   279
1070
     2
1070
   288
1070
     1
1002
}
  0
LINE
  5
C96
330
1F
100
AcDbEntity
  8
AM_7
100
AcDbLine
 10
613.4577719180879
 20
718.4240798511559
 30
0.0
 11
667.2309097495563
 21
718.4240798511559
 31
0.0
1001
GENIUS_GENOREF_13
1005
C9A
  0
LINE
  5
C97
330
1F
100
AcDbEntity
  8
AM_7
100
AcDbLine
 10
613.4577719180879
 20
718.4240798511559
 30
0.0
 11
613.4577719180879
 21
772.1972176826243
 31
0.0
1001
GENIUS_GENOREF_13
1005
C9A
  0
LINE
  5
C98
330
1F
100
AcDbEntity
  8
AM_7
100
AcDbLine
 10
613.4577719180879
 20
718.4240798511559
 30
0.0
 11
559.6846340866195
 21
718.4240798511559
 31
0.0
1001
GENIUS_GENOREF_13
1005
C9A
  0
LINE
  5
C99
330
1F
100
AcDbEntity
  8
AM_7
100
AcDbLine
 10
613.4577719180879
 20
718.4240798511559
 30
0.0
 11
613.4577719180879
 21
664.6509420196876
 31
0.0
1001
GENIUS_GENOREF_13
1005
C9A
  0
POINT
  5
C9A
330
1F
100
AcDbEntity
  8
0
 60
     1
100
AcDbPoint
 10
0.0
 20
0.0
 30
0.0
1001
GENIUS_GENODEF_13
1002
{
1000
HIER
1070
    10
1002
}
1002
{
1000
MANEDIT
1070
     0
1002
}
1002
{
1000
NOSEL
1070
     0
1002
}
1002
{
1000
BEHIND
1070
     0
1002
}
1002
{
1000
OTHER
1070
     0
1002
}
1002
{
1000
REACTOR
1002
}
1001
GENIUS_GENOBJ-N-CRS_13
1002
{
1000
OWNER
1000
GEN
1002
}
1001
GENIUS_GENOLIS_13
1002
{
1000
ENT
1005
C99
1005
C98
1005
C97
1005
C96
1002
}
1001
GENIUS_GENOENT_13
1002
{
1000
MYREF
1005
C9A
1002
}
1002
{
1000
GRP
1005
0
1002
}
  0
ENDSEC
  0
SECTION
  2
OBJECTS
  0
DICTIONARY
  5
C
330
0
100
AcDbDictionary
281
     1
  3
ACAD_COLOR
350
65E
  3
ACAD_GROUP
350
D
  3
ACAD_LAYOUT
350
1A
  3
ACAD_MATERIAL
350
65D
  3
ACAD_MLINESTYLE
350
17
  3
ACAD_PLOTSETTINGS
350
19
  3
ACAD_PLOTSTYLENAME
350
E
  3
ACAD_TABLESTYLE
350
65F
  3
ACDBHEADERROUNDTRIPXREC
350
CA2
  3
AcDbVariableDictionary
350
703
  3
AcmDictionary
350
6BD
  3
AMG
350
664
  3
AMGSNAPSETTINGS
350
707
  3
qs_topprt_diz
350
2B
  3
QsTop499
350
656
  3
TopSpotLight
350
31
  0
DICTIONARY
  5
8BB
330
2
100
AcDbDictionary
280
     1
281
     1
  3
ACAD_LAYERSTATES
360
8BC
  0
DICTIONARY
  5
65E
102
{ACAD_REACTORS
330
C
102
}
330
C
100
AcDbDictionary
281
     1
  0
DICTIONARY
  5
D
102
{ACAD_REACTORS
330
C
102
}
330
C
100
AcDbDictionary
281
     1
  0
DICTIONARY
  5
1A
102
{ACAD_REACTORS
330
C
102
}
330
C
100
AcDbDictionary
281
     1
  3
Layout1
350
1E
  3
Layout2
350
26
  3
Model
350
22
  0
DICTIONARY
  5
65D
102
{ACAD_REACTORS
330
C
102
}
330
C
100
AcDbDictionary
281
     1
  0
DICTIONARY
  5
17
102
{ACAD_REACTORS
330
C
102
}
330
C
100
AcDbDictionary
281
     1
  3
Standard
350
18
  0
DICTIONARY
  5
19
102
{ACAD_REACTORS
330
C
102
}
330
C
100
AcDbDictionary
281
     1
  0
ACDBDICTIONARYWDFLT
  5
E
102
{ACAD_REACTORS
330
C
102
}
330
C
100
AcDbDictionary
281
     1
  3
Normal
350
F
100
AcDbDictionaryWithDefault
340
F
  0
DICTIONARY
  5
65F
102
{ACAD_REACTORS
330
C
102
}
330
C
100
AcDbDictionary
281
     1
  3
Standard
350
660
  0
DICTIONARY
  5
CA2
102
{ACAD_REACTORS
330
C
102
}
330
C
100
AcDbDictionary
281
     1
  0
DICTIONARY
  5
703
102
{ACAD_REACTORS
330
C
102
}
330
C
100
AcDbDictionary
281
     1
  3
CTABLESTYLE
350
704
  3
DIMASSOC
350
C9F
  3
PROJECTNAME
350
CA0
  0
DICTIONARY
  5
6BD
102
{ACAD_REACTORS
330
C
102
}
330
C
100
AcDbDictionary
281
     1
  3
AcmStdDictionary
350
6CA
  3
AMDTSECTSYM_ARROWCOLOR
350
6ED
  0
DICTIONARY
  5
664
102
{ACAD_REACTORS
330
C
102
}
330
C
100
AcDbDictionary
281
     1
  0
DICTIONARY
  5
707
102
{ACAD_REACTORS
330
C
102
}
330
C
100
AcDbDictionary
281
     1
  0
DICTIONARY
  5
2B
102
{ACAD_REACTORS
330
C
102
}
330
C
100
AcDbDictionary
281
     1
  3
UCNT
350
2C
  0
DICTIONARY
  5
656
102
{ACAD_REACTORS
330
C
102
}
330
C
100
AcDbDictionary
281
     1
  3
TOP
350
65A
  3
X13ad
350
657
  3
X28bd
350
659
  3
X6fc5
350
658
  0
DICTIONARY
  5
31
102
{ACAD_REACTORS
330
C
102
}
330
C
100
AcDbDictionary
281
     1
  3
colors
350
32
  0
DICTIONARY
  5
8BC
102
{ACAD_REACTORS
330
8BB
102
}
330
8BB
100
AcDbDictionary
281
     1
  0
LAYOUT
  5
1E
102
{ACAD_XDICTIONARY
360
CA3
102
}
102
{ACAD_REACTORS
330
1A
102
}
330
1A
100
AcDbPlotSettings
  1

  2
\\RD-SR-200\PH-PR-011
  4

  6

 40
0.0
 41
0.0
 42
0.0
 43
0.0
 44
0.0
 45
0.0
 46
0.0
 47
0.0
 48
0.0
 49
0.0
140
0.0
141
0.0
142
1.0
143
1.0
 70
   688
 72
     0
 73
     0
 74
     5
  7
monochrome.ctb
 75
    16
147
1.0
148
0.0
149
0.0
100
AcDbLayout
  1
Layout1
 70
     1
 71
     1
 10
0.0
 20
0.0
 11
420.0
 21
297.0
 12
0.0
 22
0.0
 32
0.0
 14
1.000000000000000E+20
 24
1.000000000000000E+20
 34
1.000000000000000E+20
 15
-1.000000000000000E+20
 25
-1.000000000000000E+20
 35
-1.000000000000000E+20
146
0.0
 13
0.0
 23
0.0
 33
0.0
 16
1.0
 26
0.0
 36
0.0
 17
0.0
 27
1.0
 37
0.0
 76
     0
330
1B
  0
LAYOUT
  5
26
102
{ACAD_XDICTIONARY
360
CA7
102
}
102
{ACAD_REACTORS
330
1A
102
}
330
1A
100
AcDbPlotSettings
  1

  2
\\RD-SR-200\PH-PR-011
  4

  6

 40
0.0
 41
0.0
 42
0.0
 43
0.0
 44
0.0
 45
0.0
 46
0.0
 47
0.0
 48
0.0
 49
0.0
140
0.0
141
0.0
142
1.0
143
1.0
 70
   688
 72
     0
 73
     0
 74
     5
  7
monochrome.ctb
 75
    16
147
1.0
148
0.0
149
0.0
100
AcDbLayout
  1
Layout2
 70
     1
 71
     2
 10
0.0
 20
0.0
 11
12.0
 21
9.0
 12
0.0
 22
0.0
 32
0.0
 14
0.0
 24
0.0
 34
0.0
 15
0.0
 25
0.0
 35
0.0
146
0.0
 13
0.0
 23
0.0
 33
0.0
 16
1.0
 26
0.0
 36
0.0
 17
0.0
 27
1.0
 37
0.0
 76
     0
330
23
  0
LAYOUT
  5
22
102
{ACAD_XDICTIONARY
360
CA5
102
}
102
{ACAD_REACTORS
330
1A
102
}
330
1A
100
AcDbPlotSettings
  1

  2
\\RD-SR-210\PH-PR-040
  4
A4
  6

 40
4.233333110809326
 41
4.233341693878173
 42
4.233322143554687
 43
4.23333740234375
 44
209.9733276367187
 45
296.9259948730469
 46
0.0
 47
1.580574156459363
 48
0.0000000000000364
 49
0.0
140
840.9999999999998
141
594.0
142
1.0
143
2.94779320693112
 70
 11956
 72
     1
 73
     1
 74
     4
  7
monochrome.ctb
 75
     0
147
0.3392368221925164
148
-0.0000000000000364
149
0.0
100
AcDbLayout
  1
Model
 70
     1
 71
     0
 10
0.0
 20
0.0
 11
12.0
 21
9.0
 12
0.0
 22
0.0
 32
0.0
 14
0.0
 24
0.0
 34
0.0
 15
0.0
 25
0.0
 35
0.0
146
0.0
 13
0.0
 23
0.0
 33
0.0
 16
1.0
 26
0.0
 36
0.0
 17
0.0
 27
1.0
 37
0.0
 76
     0
330
1F
1001
ACAD_PSEXT
1000
\\RD-SR-210\PH-PR-040
1000
HP LaserJet 5100 PCL 6
1000
PH, 3.OG, Konstruktion
1000
HP LJ 5100tn; Printserver: JetDirekt 620n, PCL6, Management über http ja
1070
     0
  0
MLINESTYLE
  5
18
102
{ACAD_REACTORS
330
17
102
}
330
17
100
AcDbMlineStyle
  2
STANDARD
 70
     0
  3

 62
   256
 51
90.0
 52
90.0
 71
     2
 49
0.5
 62
   256
  6
BYLAYER
 49
-0.5
 62
   256
  6
BYLAYER
  0
ACDBPLACEHOLDER
  5
F
102
{ACAD_REACTORS
330
E
102
}
330
E
  0
TABLESTYLE
  5
660
102
{ACAD_REACTORS
330
65F
102
}
330
65F
100
AcDbTableStyle
  3
Standard
 70
     0
 71
     0
 40
1.5
 41
1.5
280
     0
281
     0
  7
Standard
140
4.5
170
     2
 62
     0
 63
     7
283
     0
274
    -2
284
     1
 64
     0
275
    -2
285
     1
 65
     0
276
    -2
286
     1
 66
     0
277
    -2
287
     1
 67
     0
278
    -2
288
     1
 68
     0
279
    -2
289
     1
 69
     0
  7
Standard
140
6.0
170
     5
 62
     0
 63
     7
283
     0
274
    -2
284
     1
 64
     0
275
    -2
285
     1
 65
     0
276
    -2
286
     1
 66
     0
277
    -2
287
     1
 67
     0
278
    -2
288
     1
 68
     0
279
    -2
289
     1
 69
     0
  7
Standard
140
4.5
170
     5
 62
     0
 63
     7
283
     0
274
    -2
284
     1
 64
     0
275
    -2
285
     1
 65
     0
276
    -2
286
     1
 66
     0
277
    -2
287
     1
 67
     0
278
    -2
288
     1
 68
     0
279
    -2
289
     1
 69
     0
  0
DICTIONARYVAR
  5
704
102
{ACAD_REACTORS
330
703
102
}
330
703
100
DictionaryVariables
280
     0
  1
STANDARD
  0
DICTIONARYVAR
  5
C9F
102
{ACAD_REACTORS
330
703
102
}
330
703
100
DictionaryVariables
280
     0
  1
1
  0
DICTIONARYVAR
  5
CA0
102
{ACAD_REACTORS
330
703
102
}
330
703
100
DictionaryVariables
280
     0
  1

  0
DICTIONARY
  5
6CA
102
{ACAD_REACTORS
330
6BD
102
}
330
6BD
100
AcDbDictionary
281
     1
  0
XRECORD
  5
6ED
102
{ACAD_REACTORS
330
6BD
102
}
330
6BD
100
AcDbXrecord
280
     1
 90
-1023410169
  0
XRECORD
  5
2C
102
{ACAD_REACTORS
330
2B
102
}
330
2B
100
AcDbXrecord
280
     1
 91
       12
  0
XRECORD
  5
65A
102
{ACAD_REACTORS
330
656
102
}
330
656
100
AcDbXrecord
280
     1
  9
X13ad
  0
XRECORD
  5
657
102
{ACAD_REACTORS
330
656
102
}
330
656
100
AcDbXrecord
280
     1
  2
TOP
  3
P-0000
280
     1
310
5343414C4100313A310000
 10
0.0
 20
0.0
 30
0.0
  0
XRECORD
  5
659
102
{ACAD_REACTORS
330
656
102
}
330
656
100
AcDbXrecord
280
     1
  2
.A2_möck
  3
P-398F
  6
X13ad
280
     1
310
5153434F554E5441535345002D005343414C4100313A310053494D424F4C4F00310000
 10
0.0
 20
0.0
 30
0.0
  0
XRECORD
  5
658
102
{ACAD_REACTORS
330
656
102
}
330
656
100
AcDbXrecord
280
     1
  2
X593010011_KIESFANGKORBDECKEL_MIT_FEDERN
  3
P-1DEE
  6
X13ad
280
     1
310
5153434F554E5441535345002D005343414C4100313A310000
 10
0.0
 20
0.0
 30
0.0
  0
XRECORD
  5
32
102
{ACAD_REACTORS
330
31
102
}
330
31
100
AcDbXrecord
280
     1
 90
      202
 91
      144
  0
DICTIONARY
  5
CA3
330
1E
100
AcDbDictionary
280
     1
281
     1
  3
ACAD_XREC_ROUNDTRIP
360
CA4
  0
DICTIONARY
  5
CA7
330
26
100
AcDbDictionary
280
     1
281
     1
  3
ACAD_XREC_ROUNDTRIP
360
CA8
  0
DICTIONARY
  5
CA5
330
22
100
AcDbDictionary
280
     1
281
     1
  3
ACAD_XREC_ROUNDTRIP
360
CA6
  0
XRECORD
  5
CA4
102
{ACAD_REACTORS
330
CA3
102
}
330
CA3
100
AcDbXrecord
280
     1
102
SHADEPLOT
 70
     0
102
SHADEPLOTRESLEVEL
 70
     2
102
SHADEPLOTCUSTOMDPI
 70
   300
  0
XRECORD
  5
CA8
102
{ACAD_REACTORS
330
CA7
102
}
330
CA7
100
AcDbXrecord
280
     1
102
SHADEPLOT
 70
     0
102
SHADEPLOTRESLEVEL
 70
     2
102
SHADEPLOTCUSTOMDPI
 70
   300
  0
XRECORD
  5
CA6
102
{ACAD_REACTORS
330
CA5
102
}
330
CA5
100
AcDbXrecord
280
     1
102
SHADEPLOT
 70
     0
102
SHADEPLOTRESLEVEL
 70
     2
102
SHADEPLOTCUSTOMDPI
 70
   300
  0
ENDSEC
  0
EOF
