  0
SECTION
  2
HEADER
  9
$ACADVER
  1
AC1015
  9
$ACADMAINTVER
 70
    20
  9
$DWGCODEPAGE
  3
ANSI_1252
  9
$INSBASE
 10
0.0
 20
0.0
 30
0.0
  9
$EXTMIN
 10
107.0893135045776
 20
210.2860559467523
 30
-0.0000000349181948
  9
$EXTMAX
 10
439.2152855399928
 20
324.787157449377
 30
0.0000000814935746
  9
$LIMMIN
 10
0.0
 20
0.0
  9
$LIMMAX
 10
420.0
 20
297.0
  9
$ORTHOMODE
 70
     0
  9
$REGENMODE
 70
     1
  9
$FILLMODE
 70
     1
  9
$QTEXTMODE
 70
     0
  9
$MIRRTEXT
 70
     1
  9
$LTSCALE
 40
1.0
  9
$ATTMODE
 70
     1
  9
$TEXTSIZE
 40
2.5
  9
$TRACEWID
 40
1.0
  9
$TEXTSTYLE
  7
STANDARD
  9
$CLAYER
  8
0
  9
$CELTYPE
  6
ByLayer
  9
$CECOLOR
 62
   256
  9
$CELTSCALE
 40
1.0
  9
$DISPSILH
 70
     0
  9
$DIMSCALE
 40
1.0
  9
$DIMASZ
 40
2.5
  9
$DIMEXO
 40
1.0
  9
$DIMDLI
 40
10.0
  9
$DIMRND
 40
0.0
  9
$DIMDLE
 40
0.0
  9
$DIMEXE
 40
1.0
  9
$DIMTP
 40
0.1
  9
$DIMTM
 40
0.1
  9
$DIMTXT
 40
3.5
  9
$DIMCEN
 40
0.0
  9
$DIMTSZ
 40
0.0
  9
$DIMTOL
 70
     0
  9
$DIMLIM
 70
     0
  9
$DIMTIH
 70
     0
  9
$DIMTOH
 70
     0
  9
$DIMSE1
 70
     0
  9
$DIMSE2
 70
     0
  9
$DIMTAD
 70
     1
  9
$DIMZIN
 70
     8
  9
$DIMBLK
  1

  9
$DIMASO
 70
     1
  9
$DIMSHO
 70
     1
  9
$DIMPOST
  1

  9
$DIMAPOST
  1
"
  9
$DIMALT
 70
     0
  9
$DIMALTD
 70
     2
  9
$DIMALTF
 40
0.0393701
  9
$DIMLFAC
 40
1.0
  9
$DIMTOFL
 70
     1
  9
$DIMTVP
 40
0.0
  9
$DIMTIX
 70
     0
  9
$DIMSOXD
 70
     0
  9
$DIMSAH
 70
     0
  9
$DIMBLK1
  1

  9
$DIMBLK2
  1

  9
$DIMSTYLE
  2
AM_DIN
  9
$DIMCLRD
 70
   256
  9
$DIMCLRE
 70
   256
  9
$DIMCLRT
 70
     2
  9
$DIMTFAC
 40
0.71
  9
$DIMGAP
 40
1.5
  9
$DIMJUST
 70
     0
  9
$DIMSD1
 70
     0
  9
$DIMSD2
 70
     0
  9
$DIMTOLJ
 70
     0
  9
$DIMTZIN
 70
     8
  9
$DIMALTZ
 70
     0
  9
$DIMALTTZ
 70
     0
  9
$DIMUPT
 70
     0
  9
$DIMDEC
 70
     2
  9
$DIMTDEC
 70
     3
  9
$DIMALTU
 70
     2
  9
$DIMALTTD
 70
     4
  9
$DIMTXSTY
  7
STANDARD
  9
$DIMAUNIT
 70
     0
  9
$DIMADEC
 70
     0
  9
$DIMALTRND
 40
0.0
  9
$DIMAZIN
 70
     2
  9
$DIMDSEP
 70
    46
  9
$DIMATFIT
 70
     3
  9
$DIMFRAC
 70
     0
  9
$DIMLDRBLK
  1

  9
$DIMLUNIT
 70
     2
  9
$DIMLWD
 70
    -1
  9
$DIMLWE
 70
    -1
  9
$DIMTMOVE
 70
     0
  9
$LUNITS
 70
     2
  9
$LUPREC
 70
     2
  9
$SKETCHINC
 40
1.0
  9
$FILLETRAD
 40
2.5
  9
$AUNITS
 70
     0
  9
$AUPREC
 70
     0
  9
$MENU
  1
.
  9
$ELEVATION
 40
0.0
  9
$PELEVATION
 40
0.0
  9
$THICKNESS
 40
0.0
  9
$LIMCHECK
 70
     0
  9
$CHAMFERA
 40
2.5
  9
$CHAMFERB
 40
2.5
  9
$CHAMFERC
 40
20.0
  9
$CHAMFERD
 40
0.0
  9
$SKPOLY
 70
     0
  9
$TDCREATE
 40
2452702.557501690
  9
$TDUCREATE
 40
2452702.474168357
  9
$TDUPDATE
 40
2454032.705935405
  9
$TDUUPDATE
 40
2454032.622602072
  9
$TDINDWG
 40
0.0118719907
  9
$TDUSRTIMER
 40
0.0118719907
  9
$USRTIMER
 70
     1
  9
$ANGBASE
 50
0.0
  9
$ANGDIR
 70
     0
  9
$PDMODE
 70
     0
  9
$PDSIZE
 40
0.0
  9
$PLINEWID
 40
0.0
  9
$SPLFRAME
 70
     0
  9
$SPLINETYPE
 70
     6
  9
$SPLINESEGS
 70
     8
  9
$HANDSEED
  5
7BE
  9
$SURFTAB1
 70
     6
  9
$SURFTAB2
 70
     6
  9
$SURFTYPE
 70
     6
  9
$SURFU
 70
     6
  9
$SURFV
 70
     6
  9
$UCSBASE
  2

  9
$UCSNAME
  2

  9
$UCSORG
 10
0.0
 20
0.0
 30
0.0
  9
$UCSXDIR
 10
1.0
 20
0.0
 30
0.0
  9
$UCSYDIR
 10
0.0
 20
1.0
 30
0.0
  9
$UCSORTHOREF
  2

  9
$UCSORTHOVIEW
 70
     0
  9
$UCSORGTOP
 10
0.0
 20
0.0
 30
0.0
  9
$UCSORGBOTTOM
 10
0.0
 20
0.0
 30
0.0
  9
$UCSORGLEFT
 10
0.0
 20
0.0
 30
0.0
  9
$UCSORGRIGHT
 10
0.0
 20
0.0
 30
0.0
  9
$UCSORGFRONT
 10
0.0
 20
0.0
 30
0.0
  9
$UCSORGBACK
 10
0.0
 20
0.0
 30
0.0
  9
$PUCSBASE
  2

  9
$PUCSNAME
  2

  9
$PUCSORG
 10
0.0
 20
0.0
 30
0.0
  9
$PUCSXDIR
 10
1.0
 20
0.0
 30
0.0
  9
$PUCSYDIR
 10
0.0
 20
1.0
 30
0.0
  9
$PUCSORTHOREF
  2

  9
$PUCSORTHOVIEW
 70
     0
  9
$PUCSORGTOP
 10
0.0
 20
0.0
 30
0.0
  9
$PUCSORGBOTTOM
 10
0.0
 20
0.0
 30
0.0
  9
$PUCSORGLEFT
 10
0.0
 20
0.0
 30
0.0
  9
$PUCSORGRIGHT
 10
0.0
 20
0.0
 30
0.0
  9
$PUCSORGFRONT
 10
0.0
 20
0.0
 30
0.0
  9
$PUCSORGBACK
 10
0.0
 20
0.0
 30
0.0
  9
$USERI1
 70
     0
  9
$USERI2
 70
     0
  9
$USERI3
 70
     0
  9
$USERI4
 70
     0
  9
$USERI5
 70
     0
  9
$USERR1
 40
0.0
  9
$USERR2
 40
0.0
  9
$USERR3
 40
0.0
  9
$USERR4
 40
0.0
  9
$USERR5
 40
0.0
  9
$WORLDVIEW
 70
     1
  9
$SHADEDGE
 70
     3
  9
$SHADEDIF
 70
    70
  9
$TILEMODE
 70
     1
  9
$MAXACTVP
 70
    64
  9
$PINSBASE
 10
0.0
 20
0.0
 30
0.0
  9
$PLIMCHECK
 70
     0
  9
$PEXTMIN
 10
1.000000000000000E+20
 20
1.000000000000000E+20
 30
1.000000000000000E+20
  9
$PEXTMAX
 10
-1.000000000000000E+20
 20
-1.000000000000000E+20
 30
-1.000000000000000E+20
  9
$PLIMMIN
 10
0.0
 20
0.0
  9
$PLIMMAX
 10
420.0
 20
297.0
  9
$UNITMODE
 70
     0
  9
$VISRETAIN
 70
     1
  9
$PLINEGEN
 70
     0
  9
$PSLTSCALE
 70
     1
  9
$TREEDEPTH
 70
  3020
  9
$CMLSTYLE
  2
Standard
  9
$CMLJUST
 70
     0
  9
$CMLSCALE
 40
20.0
  9
$PROXYGRAPHICS
 70
     1
  9
$MEASUREMENT
 70
     1
  9
$CELWEIGHT
370
    -1
  9
$ENDCAPS
280
     0
  9
$JOINSTYLE
280
     0
  9
$LWDISPLAY
290
     0
  9
$INSUNITS
 70
     4
  9
$HYPERLINKBASE
  1

  9
$STYLESHEET
  1

  9
$XEDIT
290
     1
  9
$CEPSNTYPE
380
     0
  9
$PSTYLEMODE
290
     1
  9
$FINGERPRINTGUID
  2
{D5091DE6-A8E7-4749-B1FA-F4240FAEB0F0}
  9
$VERSIONGUID
  2
{3B0C27C6-306F-4D67-8E85-AD5BB4842370}
  9
$EXTNAMES
290
     1
  9
$PSVPSCALE
 40
0.0
  9
$OLESTARTUP
290
     0
  0
ENDSEC
  0
SECTION
  2
CLASSES
  0
CLASS
  1
ACDBDICTIONARYWDFLT
  2
AcDbDictionaryWithDefault
  3
ObjectDBX Classes
 90
        0
280
     0
281
     0
  0
CLASS
  1
ACDBPLACEHOLDER
  2
AcDbPlaceHolder
  3
ObjectDBX Classes
 90
        0
280
     0
281
     0
  0
CLASS
  1
LAYOUT
  2
AcDbLayout
  3
ObjectDBX Classes
 90
        0
280
     0
281
     0
  0
CLASS
  1
AMGSETTINGSOBJ
  2
AmgSettingsObj
  3
"AcadM|Product Description: AutoCAD Mechanical 2000|Company: Autodesk"
 90
        0
280
     0
281
     0
  0
CLASS
  1
ACME_DOCUMENT
  2
AcMeDbDoc
  3
AcMeServices
 90
        0
280
     0
281
     0
  0
CLASS
  1
ACMESCOPE
  2
AcMeScope
  3
AcMeServices
 90
        0
280
     0
281
     0
  0
CLASS
  1
ACMECOMMANDHISTORY
  2
AcMeCommandHistory
  3
AcMeServices
 90
        0
280
     0
281
     0
  0
CLASS
  1
DICTIONARYVAR
  2
AcDbDictionaryVar
  3
ObjectDBX Classes
 90
        0
280
     0
281
     0
  0
CLASS
  1
ACIMSYSVARMAN
  2
AcImSysVarManager
  3
AcMeServices
 90
        0
280
     0
281
     0
  0
CLASS
  1
ACIMREALSYSVAR
  2
AcImRealSysVar
  3
AcMeServices
 90
        0
280
     0
281
     0
  0
CLASS
  1
ACIMINTSYSVAR
  2
AcImIntSysVar
  3
AcMeServices
 90
        0
280
     0
281
     0
  0
CLASS
  1
ACMEDRAWINGMAN
  2
AcMeDrawingMan
  3
AcMeServices
 90
        0
280
     0
281
     0
  0
CLASS
  1
ACMEVIEW
  2
AcMeView
  3
AcMeServices
 90
        0
280
     0
281
     0
  0
CLASS
  1
ACDBENTITYCACHE
  2
AcMeEntityCache
  3
AcMeServices
 90
        0
280
     0
281
     0
  0
CLASS
  1
GSMANAGER
  2
AcMeGSManager
  3
AcMeServices
 90
        0
280
     0
281
     0
  0
CLASS
  1
AMDTINTERNALREACTOR
  2
AmdtInternalReactor
  3
AcMeServices
 90
        0
280
     0
281
     0
  0
CLASS
  1
ACMESTATEMGR
  2
AcMeStateMgr
  3
AcMeServices
 90
        0
280
     0
281
     0
  0
CLASS
  1
ACGREFMASTER
  2
AcGrefMaster
  3
AcAttribServices
 90
        0
280
     0
281
     0
  0
CLASS
  1
ACME_DATABASE
  2
AcMeDbDatabase
  3
AcMeServices
 90
        0
280
     0
281
     0
  0
CLASS
  1
ACRFINSADJUSTERMGR
  2
AcRfInsAdjusterMgr
  3
AcMeServices
 90
        0
280
     0
281
     0
  0
CLASS
  1
ACGREFACADMASTER
  2
AcGrefacadMaster
  3
AcGrefServices
 90
        0
280
     0
281
     0
  0
CLASS
  1
AMIMASTER
  2
AmiMaster
  3
AmiServices
 90
        0
280
     0
281
     0
  0
CLASS
  1
ACMDATADICTIONARY
  2
AcmDataDictionary
  3
"AcmSymBB|Product Description: AutoCAD Mechanical 2004 DX|Company: Autodesk"
 90
        0
280
     0
281
     0
  0
CLASS
  1
ACMDATAENTRYBLOCK
  2
AcmDataEntryBlock
  3
"AcmSymBB|Product Description: AutoCAD Mechanical 2004 DX|Company: Autodesk"
 90
        0
280
     0
281
     0
  0
CLASS
  1
ACIMSTRSYSVAR
  2
AcImStrSysVar
  3
AcMeServices
 90
        0
280
     0
281
     0
  0
CLASS
  1
ACMSTANDARDDIN
  2
AcmStandardDIN
  3
"Amdt_StdImp|Product Description: AutoCAD Mechanical 2004 DX|Company: Autodesk"
 90
        0
280
     0
281
     0
  0
CLASS
  1
AMGOBJPROPCFG
  2
AmgObjPropCfg
  3
"AmgLay|Product Description: AutoCAD Mechanical 2000|Company: Autodesk"
 90
        1
280
     0
281
     0
  0
CLASS
  1
AMDTEDGESTANDARDDIN
  2
AmdtEdgeStdDIN
  3
"Amdt_StdImp|Product Description: AutoCAD Mechanical 2004 DX|Company: Autodesk"
 90
        0
280
     0
281
     0
  0
CLASS
  1
ACMSURFSTANDARDDIN
  2
AcmSurfTextStdDIN
  3
"Amdt_StdImp|Product Description: AutoCAD Mechanical 2004 DX|Company: Autodesk"
 90
        0
280
     0
281
     0
  0
CLASS
  1
ACMFCFSTANDARDDIN
  2
AcmFCFStdDIN
  3
"Amdt_StdImp|Product Description: AutoCAD Mechanical 2004 DX|Company: Autodesk"
 90
        0
280
     0
281
     0
  0
CLASS
  1
ACMWELDSTANDARDDIN
  2
AcmWeldingStdDIN
  3
"Amdt_StdImp|Product Description: AutoCAD Mechanical 2004 DX|Company: Autodesk"
 90
        0
280
     0
281
     0
  0
CLASS
  1
ACMIDSTANDARDDIN
  2
AcmIdStdDIN
  3
"Amdt_StdImp|Product Description: AutoCAD Mechanical 2004 DX|Company: Autodesk"
 90
        0
280
     0
281
     0
  0
CLASS
  1
ACMDATUMSTANDARDDIN
  2
AcmDatumStdDIN
  3
"Amdt_StdImp|Product Description: AutoCAD Mechanical 2004 DX|Company: Autodesk"
 90
        0
280
     0
281
     0
  0
CLASS
  1
ACMBOMSTANDARDDIN
  2
AcmBOMStdDIN
  3
"Amdt_StdImp|Product Description: AutoCAD Mechanical 2004 DX|Company: Autodesk"
 90
        0
280
     0
281
     0
  0
CLASS
  1
ACMDETAILSTANDARDDIN
  2
AmdtDetailSymStdDIN
  3
"Amdt_StdImp|Product Description: AutoCAD Mechanical 2004 DX|Company: Autodesk"
 90
        0
280
     0
281
     0
  0
CLASS
  1
ACMSECTIONSTANDARDDIN
  2
AmdtSectionSymStdDIN
  3
"Amdt_StdImp|Product Description: AutoCAD Mechanical 2004 DX|Company: Autodesk"
 90
        0
280
     0
281
     0
  0
CLASS
  1
ACMCENTERLINESTANDARDDIN
  2
AmdtCenterLineStdDIN
  3
"Amdt_StdImp|Product Description: AutoCAD Mechanical 2004 DX|Company: Autodesk"
 90
        0
280
     0
281
     0
  0
CLASS
  1
ACAMGLAYSTD
  2
AcAmgLayStd
  3
"AcAmgLayStd|Product Description: AutoCAD Mechanical 2000|Company: Autodesk"
 90
        0
280
     0
281
     0
  0
CLASS
  1
ACAMGDIMSTD
  2
AcAmgDimStd
  3
"AcAmgDimStd|Product Description: AutoCAD Mechanical 2000|Company: Autodesk"
 90
        0
280
     0
281
     0
  0
CLASS
  1
ACAMGTITLESTD
  2
AcAmgTitleStd
  3
"TITLEAPP"
 90
        0
280
     0
281
     0
  0
CLASS
  1
LAYER_INDEX
  2
AcDbLayerIndex
  3
ObjectDBX Classes
 90
        0
280
     0
281
     0
  0
CLASS
  1
IDBUFFER
  2
AcDbIdBuffer
  3
ObjectDBX Classes
 90
        0
280
     0
281
     0
  0
CLASS
  1
ACAMGFILTERDAT
  2
AcAmgFilterDat
  3
"AcadM|Product Description: AutoCAD Mechanical 2000|Company: Autodesk"
 90
        0
280
     0
281
     0
  0
CLASS
  1
TABLESTYLE
  2
AcDbTableStyle
  3
ObjectDBX Classes
 90
     2047
280
     0
281
     0
  0
CLASS
  1
AM_DRAWING_MGR
  2
AcDmDwgMgr
  3
AcMechDwgViewMgmt
 90
        0
280
     0
281
     0
  0
CLASS
  1
AM_DWG_DOCUMENT
  2
AcDmDwgDocument
  3
AcMechDwgViewMgmt
 90
        0
280
     0
281
     0
  0
CLASS
  1
AM_DWG_SHEET
  2
AcDmSheet
  3
AcMechDwgViewMgmt
 90
        0
280
     0
281
     0
  0
CLASS
  1
AM_VIEWDIMPARMAP
  2
AcDmViewDimParMap
  3
AcMechDwgViewMgmt
 90
        0
280
     0
281
     0
  0
CLASS
  1
AM_DWGMGR_NAME
  2
AcDmDwgMgrName
  3
AcMechDwgViewMgmt
 90
        0
280
     0
281
     0
  0
CLASS
  1
AMDTMENUSTATEMGR
  2
AmdtMenuStateMgr
  3
McadcomServices
 90
        0
280
     0
281
     0
  0
CLASS
  1
AMDTMCOMMENUSTATE
  2
AmdtMcomMenuState
  3
McadcomServices
 90
        0
280
     0
281
     0
  0
CLASS
  1
MAPIAMMOUDLE
  2
MApiAmModule
  3
MApiAmServices
 90
        0
280
     0
281
     0
  0
CLASS
  1
AMDTADMENUSTATE
  2
AmdtAdMenuState
  3
DesignerServices
 90
        0
280
     0
281
     0
  0
CLASS
  1
ADAPPL
  2
AcAdAppl
  3
DesignerServices
 90
        0
280
     0
281
     0
  0
CLASS
  1
DEPMGR
  2
AcAdDepMgr
  3
DesignerServices
 90
        0
280
     0
281
     0
  0
CLASS
  1
PARAMMGR
  2
AcAdParamMgr
  3
DesignerServices
 90
        0
280
     0
281
     0
  0
CLASS
  1
PARAMSCOPE
  2
AcAdParamScope
  3
DesignerServices
 90
        0
280
     0
281
     0
  0
CLASS
  1
NAMEDAPPL
  2
AcAdNamedAppl
  3
DesignerServices
 90
        0
280
     0
281
     0
  0
CLASS
  1
AMDTDMMENUSTATE
  2
AmdtDmMenuState
  3
AcMechDwgViewMgmt
 90
        0
280
     0
281
     0
  0
CLASS
  1
AMDTAMMENUSTATE
  2
AmdtAmMenuState
  3
DesignerAssemblies
 90
        0
280
     0
281
     0
  0
CLASS
  1
ACAMPROJECT
  2
AcAmProject
  3
DesignerAssemblies
 90
        0
280
     0
281
     0
  0
CLASS
  1
ACAMGRCOMPDEF
  2
AcAmGrCompDef
  3
DesignerAssemblies
 90
        0
280
     0
281
     0
  0
CLASS
  1
ACCMCONTEXT
  2
AcCmContext
  3
DesignerAssemblies
 90
        0
280
     0
281
     0
  0
CLASS
  1
ACAMCOMPDEF
  2
AcAmCompDef
  3
DesignerAssemblies
 90
        0
280
     0
281
     0
  0
CLASS
  1
ACAMCOMPDEFMGR
  2
AcAmCompDefMgr
  3
DesignerAssemblies
 90
        0
280
     0
281
     0
  0
CLASS
  1
AMCONTEXTMGR
  2
AcAmContextMgr
  3
DesignerAssemblies
 90
        0
280
     0
281
     0
  0
CLASS
  1
ACAMCONTEXTMODELER
  2
AcAmContextModeler
  3
DesignerAssemblies
 90
        0
280
     0
281
     0
  0
CLASS
  1
ACMTHREADLINESTANDARDDIN
  2
AmdtThreadLineStdDIN
  3
"Amdt_StdImp|Product Description: AutoCAD Mechanical 2004 DX|Company: Autodesk"
 90
        0
280
     0
281
     0
  0
CLASS
  1
ACMNOTESTANDARDDIN
  2
AmdtNoteStdDIN
  3
"Amdt_StdImp|Product Description: AutoCAD Mechanical 2004 DX|Company: Autodesk"
 90
        0
280
     0
281
     0
  0
CLASS
  1
AMDTNOTETEMPLATEDB
  2
AmdtNoteTemplateDB
  3
AMDT_STDIMP_MODULE_NAME
 90
        0
280
     0
281
     0
  0
CLASS
  1
CATALOGSTATE
  2
AcAmCatalogState
  3
DesignerAssemblies
 90
        0
280
     0
281
     0
  0
CLASS
  1
ACAMGRCOMPDEFSET
  2
AcAmGrCompDefSet
  3
DesignerAssemblies
 90
        0
280
     0
281
     0
  0
CLASS
  1
AMDTBROWSERDBTAB
  2
AmdtBrowserDbTab
  3
McadcomServices
 90
        0
280
     0
281
     0
  0
CLASS
  1
CBROWSERAPPOBJECT
  2
CBrowserAppObject
  3
McadcomServices
 90
        0
280
     0
281
     0
  0
CLASS
  1
DM_PLACEHOLDER
  2
AcDmSelsetPlaceholder
  3
AcMechDwgViewMgmt
 90
        0
280
     0
281
     0
  0
ENDSEC
  0
SECTION
  2
TABLES
  0
TABLE
  2
VPORT
  5
8
330
0
100
AcDbSymbolTable
 70
    41
  0
VPORT
  5
7B5
330
8
100
AcDbSymbolTableRecord
100
AcDbViewportTableRecord
  2
*Active
 70
     0
 10
0.0
 20
0.0
 11
1.0
 21
1.0
 12
273.1522995222853
 22
267.5366066980647
 13
0.0
 23
0.0
 14
2.5
 24
2.5
 15
10.0
 25
10.0
 16
0.0
 26
0.0
 36
1.0
 17
0.0
 27
0.0
 37
0.0
 40
223.3054867344339
 41
1.494545454545454
 42
50.0
 43
0.0
 44
0.0
 50
0.0
 51
0.0
 71
     0
 72
   100
 73
     1
 74
     3
 75
     0
 76
     0
 77
     0
 78
     0
281
     0
 65
     1
110
0.0
120
0.0
130
0.0
111
1.0
121
0.0
131
0.0
112
0.0
122
1.0
132
0.0
 79
     0
146
0.0
  0
ENDTAB
  0
TABLE
  2
LTYPE
  5
5
330
0
100
AcDbSymbolTable
 70
    20
  0
LTYPE
  5
14
330
5
100
AcDbSymbolTableRecord
100
AcDbLinetypeTableRecord
  2
ByBlock
 70
     0
  3

 72
    65
 73
     0
 40
0.0
  0
LTYPE
  5
15
330
5
100
AcDbSymbolTableRecord
100
AcDbLinetypeTableRecord
  2
ByLayer
 70
     0
  3

 72
    65
 73
     0
 40
0.0
  0
LTYPE
  5
16
330
5
100
AcDbSymbolTableRecord
100
AcDbLinetypeTableRecord
  2
Continuous
 70
     0
  3
Solid line
 72
    65
 73
     0
 40
0.0
  0
LTYPE
  5
52
330
5
100
AcDbSymbolTableRecord
100
AcDbLinetypeTableRecord
  2
Amconstr
 70
     0
  3
_______________________
 72
    65
 73
     2
 40
9999.0
 49
9999.0
 74
     0
 49
0.0
 74
     0
  0
LTYPE
  5
57
330
5
100
AcDbSymbolTableRecord
100
AcDbLinetypeTableRecord
  2
Amzigzag
 70
     0
  3
/\/-/\/-/\/-/\/-/\/-/\/
 72
    65
 73
     2
 40
11.0001
 49
0.0001
 74
     4
 75
   135
340
56
 46
0.04
 50
0.0
 44
0.0
 45
0.0
 49
-11.0
 74
     0
  0
LTYPE
  5
58
330
5
100
AcDbSymbolTableRecord
100
AcDbLinetypeTableRecord
  2
AM_DIN_F_W050
 70
     0
  3
__ __ __ __ __ __ __ __ __ __ __ __ __ __ __
 72
    65
 73
     2
 40
6.25
 49
4.75
 74
     0
 49
-1.5
 74
     0
  0
LTYPE
  5
59
330
5
100
AcDbSymbolTableRecord
100
AcDbLinetypeTableRecord
  2
AM_DIN_G_W050
 70
     0
  3
____ . ____ . ____ . ____ . ____ . ____ . ____
 72
    65
 73
     4
 40
13.75
 49
9.75
 74
     0
 49
-1.5
 74
     0
 49
1.0
 74
     0
 49
-1.5
 74
     0
  0
LTYPE
  5
5A
330
5
100
AcDbSymbolTableRecord
100
AcDbLinetypeTableRecord
  2
AM_DIN_K_W050
 70
     0
  3
_____ . . _____ . . _____ . . ____ .. ____
 72
    65
 73
     6
 40
16.25
 49
9.75
 74
     0
 49
-1.5
 74
     0
 49
1.0
 74
     0
 49
-1.5
 74
     0
 49
1.0
 74
     0
 49
-1.5
 74
     0
  0
LTYPE
  5
5B
330
5
100
AcDbSymbolTableRecord
100
AcDbLinetypeTableRecord
  2
AM_DIN_G_W050x2
 70
     0
  3
__ . __ . __ . __ . __ . __
 72
    65
 73
     4
 40
6.875
 49
4.75
 74
     0
 49
-0.875
 74
     0
 49
0.375
 74
     0
 49
-0.875
 74
     0
  0
LTYPE
  5
5C
330
5
100
AcDbSymbolTableRecord
100
AcDbLinetypeTableRecord
  2
AM_DIN_F_W050x2
 70
     0
  3
 _ _ _ _ _ _ _ _ _ _ _ _
 72
    65
 73
     2
 40
3.125
 49
2.25
 74
     0
 49
-0.875
 74
     0
  0
LTYPE
  5
69
330
5
100
AcDbSymbolTableRecord
100
AcDbLinetypeTableRecord
  2
ACDINWELD
 70
     0
  3
_ _ _ _ _
 72
    65
 73
     2
 40
2.0
 49
2.0
 74
     0
 49
-1.0
 74
     0
  0
LTYPE
  5
6A
330
5
100
AcDbSymbolTableRecord
100
AcDbLinetypeTableRecord
  2
ACDINTGB
 70
     0
  3
__ . . __ . .
 72
    65
 73
     6
 40
9.0
 49
4.0
 74
     0
 49
-1.0
 74
     0
 49
1.0
 74
     0
 49
-1.0
 74
     0
 49
1.0
 74
     0
 49
-1.0
 74
     0
  0
LTYPE
  5
6B
330
5
100
AcDbSymbolTableRecord
100
AcDbLinetypeTableRecord
  2
ACDINTGL
 70
     0
  3
_ _ _ _ _
 72
    65
 73
     2
 40
3.0
 49
2.0
 74
     0
 49
-1.0
 74
     0
  0
LTYPE
  5
6D
330
5
100
AcDbSymbolTableRecord
100
AcDbLinetypeTableRecord
  2
CENTER
 70
     0
  3
__ . __
 72
    65
 73
     4
 40
7.0
 49
4.0
 74
     0
 49
-1.0
 74
     0
 49
1.0
 74
     0
 49
-1.0
 74
     0
  0
LTYPE
  5
A9
330
5
100
AcDbSymbolTableRecord
100
AcDbLinetypeTableRecord
  2
STRICHPUNKT
 70
     0
  3
Strichpunkt __ . __ . __ . __ . __ . __ . __ . 
 72
    65
 73
     4
 40
25.4
 49
12.7
 74
     0
 49
-6.349999999999999
 74
     0
 49
0.0
 74
     0
 49
-6.349999999999999
 74
     0
  0
LTYPE
  5
6B5
330
5
100
AcDbSymbolTableRecord
100
AcDbLinetypeTableRecord
  2
HIDDEN
 70
     0
  3
Verdeckt
 72
    65
 73
     2
 40
9.525
 49
6.349999999999999
 74
     0
 49
-3.174999999999999
 74
     0
  0
LTYPE
  5
6B6
330
5
100
AcDbSymbolTableRecord
100
AcDbLinetypeTableRecord
  2
PHANTOM2
 70
     0
  3
Phantom (.5x) ___ _ _ ___ _ _ ___ _ _ ___ _ _
 72
    65
 73
     6
 40
31.75
 49
15.875
 74
     0
 49
-3.174999999999999
 74
     0
 49
3.174999999999999
 74
     0
 49
-3.174999999999999
 74
     0
 49
3.174999999999999
 74
     0
 49
-3.174999999999999
 74
     0
  0
ENDTAB
  0
TABLE
  2
LAYER
  5
2
330
0
100
AcDbSymbolTable
 70
     6
  0
LAYER
  5
10
330
2
100
AcDbSymbolTableRecord
100
AcDbLayerTableRecord
  2
0
 70
     0
 62
     7
  6
Continuous
370
    -3
390
F
  0
LAYER
  5
AA
330
2
100
AcDbSymbolTableRecord
100
AcDbLayerTableRecord
  2
P-0000
 70
     0
 62
     7
  6
Continuous
370
    -3
390
F
  0
LAYER
  5
6FC
330
2
100
AcDbSymbolTableRecord
100
AcDbLayerTableRecord
  2
AM_5
 70
     0
 62
     3
  6
Continuous
370
    25
390
F
1001
AcAecLayerStandard
1000

1000

  0
LAYER
  5
70E
330
2
100
AcDbSymbolTableRecord
100
AcDbLayerTableRecord
  2
Defpoints
 70
     0
 62
     7
  6
Continuous
290
     0
370
    -3
390
F
  0
ENDTAB
  0
TABLE
  2
STYLE
  5
3
330
0
100
AcDbSymbolTable
 70
     7
  0
STYLE
  5
11
330
3
100
AcDbSymbolTableRecord
100
AcDbTextStyleTableRecord
  2
STANDARD
 70
     0
 40
0.0
 41
1.0
 50
0.0
 71
     0
 42
2.5
  3
ISOCP.SHX
  4

  0
STYLE
  5
56
330
3
100
AcDbSymbolTableRecord
100
AcDbTextStyleTableRecord
  2

 70
     1
 40
0.0
 41
1.0
 50
0.0
 71
     0
 42
2.5
  3
ltypeshp.shx
  4

  0
STYLE
  5
5D
330
3
100
AcDbSymbolTableRecord
100
AcDbTextStyleTableRecord
  2
ACDINTS
 70
     0
 40
1.0
 41
1.0
 50
0.0
 71
     0
 42
2.5
  3
isocp.shx
  4

  0
STYLE
  5
68
330
3
100
AcDbSymbolTableRecord
100
AcDbTextStyleTableRecord
  2
ACDINGDT
 70
     0
 40
0.0
 41
1.0
 50
0.0
 71
     0
 42
2.5
  3
amgdt.shx
  4

  0
ENDTAB
  0
TABLE
  2
VIEW
  5
6
330
0
100
AcDbSymbolTable
 70
     0
  0
ENDTAB
  0
TABLE
  2
UCS
  5
7
330
0
100
AcDbSymbolTable
 70
     0
  0
ENDTAB
  0
TABLE
  2
APPID
  5
9
330
0
100
AcDbSymbolTable
 70
    13
  0
APPID
  5
12
330
9
100
AcDbSymbolTableRecord
100
AcDbRegAppTableRecord
  2
ACAD
 70
     0
  0
APPID
  5
30
330
9
100
AcDbSymbolTableRecord
100
AcDbRegAppTableRecord
  2
MCAD_NO_VIS
 70
     0
  0
APPID
  5
31
330
9
100
AcDbSymbolTableRecord
100
AcDbRegAppTableRecord
  2
ACAD_TEMP_GRAPHIC
 70
     0
  0
APPID
  5
44
330
9
100
AcDbSymbolTableRecord
100
AcDbRegAppTableRecord
  2
ACATTRIBSERVICES
 70
     0
  0
APPID
  5
AD
330
9
100
AcDbSymbolTableRecord
100
AcDbRegAppTableRecord
  2
ACME_LAYERS
 70
     0
  0
APPID
  5
6B8
330
9
100
AcDbSymbolTableRecord
100
AcDbRegAppTableRecord
  2
AD_DRAW
 70
     0
  0
APPID
  5
6D6
330
9
100
AcDbSymbolTableRecord
100
AcDbRegAppTableRecord
  2
DESIGNERASSEMBLIES
 70
     0
  0
APPID
  5
6E0
330
9
100
AcDbSymbolTableRecord
100
AcDbRegAppTableRecord
  2
ACAD_DSTYLE_DIMARC_LENGTH_SYMBOL
 70
     0
  0
APPID
  5
6E1
330
9
100
AcDbSymbolTableRecord
100
AcDbRegAppTableRecord
  2
ACAD_DSTYLE_DIMJOGGED_JOGANGLE_SYMBOL
 70
     0
  0
APPID
  5
6F1
330
9
100
AcDbSymbolTableRecord
100
AcDbRegAppTableRecord
  2
ACADM_DIM_EDIT
 70
     0
  0
APPID
  5
6F2
330
9
100
AcDbSymbolTableRecord
100
AcDbRegAppTableRecord
  2
AMDT_DM_ADJ
 70
     0
  0
APPID
  5
6FD
330
9
100
AcDbSymbolTableRecord
100
AcDbRegAppTableRecord
  2
AcAecLayerStandard
 70
     0
  0
APPID
  5
736
330
9
100
AcDbSymbolTableRecord
100
AcDbRegAppTableRecord
  2
GENIUS_GENDTOL_13
 70
     0
  0
ENDTAB
  0
TABLE
  2
DIMSTYLE
  5
A
330
0
100
AcDbSymbolTable
 70
     9
100
AcDbDimStyleTable
 71
     1
340
70
  0
DIMSTYLE
105
70
330
A
100
AcDbSymbolTableRecord
100
AcDbDimStyleTableRecord
  2
AM_DIN
 70
     0
  4
"
 41
2.5
 42
1.0
 43
10.0
 44
1.0
 47
0.1
 48
0.1
 73
     0
 74
     0
 77
     1
 78
     8
 79
     2
140
3.5
141
0.0
143
0.0393701
146
0.71
147
1.5
172
     1
176
   256
177
   256
178
     2
271
     2
272
     3
274
     4
283
     0
284
     8
340
11
371
    -1
372
    -1
1001
ACAD_DSTYLE_DIMARC_LENGTH_SYMBOL
1070
   379
1070
     0
1001
ACAD_DSTYLE_DIMJOGGED_JOGANGLE_SYMBOL
1070
   384
1040
1.570796326794896
  0
DIMSTYLE
105
71
330
A
100
AcDbSymbolTableRecord
100
AcDbDimStyleTableRecord
  2
AM_DIN$3
 70
     0
  4
"
 41
2.5
 42
1.0
 43
10.0
 44
1.0
 47
0.1
 48
0.1
 73
     0
 77
     1
 78
     8
 79
     2
140
3.5
141
0.0
143
0.0393701
146
0.71
147
1.5
176
   256
177
   256
178
     2
271
     2
272
     3
274
     4
283
     0
284
     8
288
     1
289
     0
340
11
371
    -1
372
    -1
1001
ACAD_DSTYLE_DIMARC_LENGTH_SYMBOL
1070
   379
1070
     0
1001
ACAD_DSTYLE_DIMJOGGED_JOGANGLE_SYMBOL
1070
   384
1040
1.570796326794896
  0
DIMSTYLE
105
72
330
A
100
AcDbSymbolTableRecord
100
AcDbDimStyleTableRecord
  2
AM_DIN$4
 70
     0
  4
"
 41
2.5
 42
1.0
 43
10.0
 44
1.0
 47
0.1
 48
0.1
 73
     0
 77
     1
 78
     8
 79
     2
140
3.5
141
0.0
143
0.0393701
146
0.71
147
1.5
176
   256
177
   256
178
     2
271
     2
272
     3
274
     4
283
     0
284
     8
288
     1
289
     0
340
11
371
    -1
372
    -1
1001
ACAD_DSTYLE_DIMARC_LENGTH_SYMBOL
1070
   379
1070
     0
1001
ACAD_DSTYLE_DIMJOGGED_JOGANGLE_SYMBOL
1070
   384
1040
1.570796326794896
  0
DIMSTYLE
105
73
330
A
100
AcDbSymbolTableRecord
100
AcDbDimStyleTableRecord
  2
AM_DIN$6
 70
     0
  4
"
 41
2.5
 42
1.0
 43
10.0
 44
1.0
 47
0.1
 48
0.1
 73
     0
 74
     0
 78
     8
 79
     2
140
3.5
141
0.0
143
0.0393701
146
0.71
147
1.5
172
     1
176
   256
177
   256
178
     2
271
     2
272
     3
274
     4
283
     0
284
     8
340
11
371
    -1
372
    -1
1001
ACAD_DSTYLE_DIMARC_LENGTH_SYMBOL
1070
   379
1070
     0
1001
ACAD_DSTYLE_DIMJOGGED_JOGANGLE_SYMBOL
1070
   384
1040
1.570796326794896
  0
DIMSTYLE
105
74
330
A
100
AcDbSymbolTableRecord
100
AcDbDimStyleTableRecord
  2
AM_DIN$7
 70
     0
  4
"
 41
2.5
 42
1.0
 43
10.0
 44
1.0
 47
0.1
 48
0.1
 73
     0
 74
     0
 77
     1
 78
     8
 79
     2
140
5.0
141
0.0
143
0.0393701
146
0.71
147
1.5
172
     1
176
   256
177
   256
178
     2
271
     2
272
     3
274
     4
283
     0
284
     8
340
11
371
    -1
372
    -1
1001
ACAD_DSTYLE_DIMARC_LENGTH_SYMBOL
1070
   379
1070
     0
1001
ACAD_DSTYLE_DIMJOGGED_JOGANGLE_SYMBOL
1070
   384
1040
1.570796326794896
  0
DIMSTYLE
105
75
330
A
100
AcDbSymbolTableRecord
100
AcDbDimStyleTableRecord
  2
AM_DIN$SF
 70
     0
  4
"
 41
2.5
 42
1.0
 43
10.0
 44
1.0
 47
0.1
 48
0.1
 73
     0
 74
     0
 75
     1
 76
     1
 77
     1
 78
     8
 79
     2
140
3.5
141
0.0
143
0.0393701
146
0.71
147
1.5
172
     1
176
   256
177
   256
178
     2
271
     2
272
     3
274
     4
283
     0
284
     8
340
11
371
    -1
372
    -1
1001
ACAD_DSTYLE_DIMARC_LENGTH_SYMBOL
1070
   379
1070
     0
1001
ACAD_DSTYLE_DIMJOGGED_JOGANGLE_SYMBOL
1070
   384
1040
1.570796326794896
  0
DIMSTYLE
105
7A
330
A
100
AcDbSymbolTableRecord
100
AcDbDimStyleTableRecord
  2
AM_DIN$SH
 70
     0
  4
"
 41
2.5
 42
1.0
 43
10.0
 44
1.0
 47
0.1
 48
0.1
 73
     0
 74
     0
 75
     1
 76
     1
 77
     1
 78
     8
 79
     2
140
3.5
141
0.0
143
0.0393701
144
2.0
146
0.71
147
1.5
172
     1
173
     1
176
   256
177
   256
178
     2
271
     2
272
     3
274
     4
283
     0
284
     8
340
11
343
76
371
    -1
372
    -1
1001
ACAD_DSTYLE_DIMARC_LENGTH_SYMBOL
1070
   379
1070
     0
1001
ACAD_DSTYLE_DIMJOGGED_JOGANGLE_SYMBOL
1070
   384
1040
1.570796326794896
  0
DIMSTYLE
105
709
102
{ACAD_REACTORS
330
757
330
70D
102
}
330
A
100
AcDbSymbolTableRecord
100
AcDbDimStyleTableRecord
  2
AM_DIN$0
 70
     0
  4
"
 41
2.5
 42
1.0
 43
10.0
 44
1.0
 47
0.1
 48
0.1
 73
     0
 74
     0
 77
     1
 78
     8
 79
     2
140
3.5
141
0.0
143
0.0393701
146
0.71
147
1.5
172
     1
176
   256
177
   256
178
     2
271
     2
272
     3
274
     4
283
     0
284
     8
340
11
371
    -1
372
    -1
1001
ACAD_DSTYLE_DIMARC_LENGTH_SYMBOL
1070
   379
1070
     0
1001
ACAD_DSTYLE_DIMJOGGED_JOGANGLE_SYMBOL
1070
   384
1040
1.570796326794896
  0
ENDTAB
  0
TABLE
  2
BLOCK_RECORD
  5
1
330
0
100
AcDbSymbolTable
 70
     5
  0
BLOCK_RECORD
  5
1F
102
{ACAD_XDICTIONARY
360
81
102
}
330
1
100
AcDbSymbolTableRecord
100
AcDbBlockTableRecord
  2
*Model_Space
340
22
  0
BLOCK_RECORD
  5
1B
330
1
100
AcDbSymbolTableRecord
100
AcDbBlockTableRecord
  2
*Paper_Space
340
1E
  0
BLOCK_RECORD
  5
23
330
1
100
AcDbSymbolTableRecord
100
AcDbBlockTableRecord
  2
*Paper_Space0
340
26
  0
BLOCK_RECORD
  5
76
330
1
100
AcDbSymbolTableRecord
100
AcDbBlockTableRecord
  2
GENAXEH
340
0
  0
BLOCK_RECORD
  5
70F
330
1
100
AcDbSymbolTableRecord
100
AcDbBlockTableRecord
  2
*D3
340
0
  0
BLOCK_RECORD
  5
758
330
1
100
AcDbSymbolTableRecord
100
AcDbBlockTableRecord
  2
*D4
340
0
  0
ENDTAB
  0
ENDSEC
  0
SECTION
  2
BLOCKS
  0
BLOCK
  5
20
330
1F
100
AcDbEntity
  8
0
100
AcDbBlockBegin
  2
*Model_Space
 70
     0
 10
0.0
 20
0.0
 30
0.0
  3
*Model_Space
  1

  0
ENDBLK
  5
21
330
1F
100
AcDbEntity
  8
0
100
AcDbBlockEnd
  0
BLOCK
  5
1C
330
1B
100
AcDbEntity
 67
     1
  8
0
100
AcDbBlockBegin
  2
*Paper_Space
 70
     0
 10
0.0
 20
0.0
 30
0.0
  3
*Paper_Space
  1

  0
ENDBLK
  5
1D
330
1B
100
AcDbEntity
 67
     1
  8
0
100
AcDbBlockEnd
  0
BLOCK
  5
24
330
23
100
AcDbEntity
 67
     1
  8
0
100
AcDbBlockBegin
  2
*Paper_Space0
 70
     0
 10
0.0
 20
0.0
 30
0.0
  3
*Paper_Space0
  1

  0
ENDBLK
  5
25
330
23
100
AcDbEntity
 67
     1
  8
0
100
AcDbBlockEnd
  0
BLOCK
  5
78
330
76
100
AcDbEntity
  8
0
100
AcDbBlockBegin
  2
GENAXEH
 70
     0
 10
0.0
 20
0.0
 30
0.0
  3
GENAXEH
  1

  0
LINE
  5
77
330
76
100
AcDbEntity
  8
0
100
AcDbLine
 10
-1.0
 20
0.0
 30
0.0
 11
1.0
 21
0.0
 31
0.0
  0
ENDBLK
  5
79
330
76
100
AcDbEntity
  8
0
100
AcDbBlockEnd
  0
BLOCK
  5
719
330
70F
100
AcDbEntity
  8
0
100
AcDbBlockBegin
  2
*D3
 70
     1
 10
0.0
 20
0.0
 30
0.0
  3
*D3
  1

  0
LINE
  5
7A9
330
70F
100
AcDbEntity
  8
AM_5
100
AcDbLine
 10
389.4291489268019
 20
259.6873543682808
 30
0.0
 11
389.4291489268019
 21
290.439967575076
 31
0.0
  0
LINE
  5
7AA
330
70F
100
AcDbEntity
  8
AM_5
100
AcDbLine
 10
156.8421288428674
 20
259.6873543682808
 30
0.0
 11
156.8421288428674
 21
290.439967575076
 31
0.0
  0
LINE
  5
7AB
330
70F
100
AcDbEntity
  8
AM_5
100
AcDbLine
 10
382.429148926802
 20
289.439967575076
 30
0.0
 11
163.8421288428674
 21
289.439967575076
 31
0.0
  0
SOLID
  5
7AC
330
70F
100
AcDbEntity
  8
AM_5
100
AcDbTrace
 10
382.429148926802
 20
290.6066342417427
 30
0.0
 11
382.429148926802
 21
288.2733009084093
 31
0.0
 12
389.4291489268019
 22
289.439967575076
 32
0.0
 13
389.4291489268019
 23
289.439967575076
 33
0.0
  0
SOLID
  5
7AD
330
70F
100
AcDbEntity
  8
AM_5
100
AcDbTrace
 10
163.8421288428674
 20
290.6066342417427
 30
0.0
 11
163.8421288428674
 21
288.2733009084093
 31
0.0
 12
156.8421288428674
 22
289.439967575076
 32
0.0
 13
156.8421288428674
 23
289.439967575076
 33
0.0
  0
MTEXT
  5
7AE
330
70F
100
AcDbEntity
  8
AM_5
 62
     2
100
AcDbMText
 10
273.0170724080334
 20
295.9409518270446
 30
0.0
 40
10.0
 41
0.0
 71
     5
 72
     1
  1
%%c232.5
 73
     1
 44
1.0
1001
ACAD
1000
MTEXTBEGIN
1070
    73
1070
     1
1070
    44
1040
1.0
1070
    74
1070
     0
1000
MTEXTEND
  0
POINT
  5
7AF
330
70F
100
AcDbEntity
  8
Defpoints
 62
     0
100
AcDbPoint
 10
389.4291489268019
 20
258.6873543682809
 30
0.0
  0
POINT
  5
7B0
330
70F
100
AcDbEntity
  8
Defpoints
 62
     0
100
AcDbPoint
 10
156.8421288428674
 20
258.6873543682809
 30
0.0
  0
POINT
  5
7B1
330
70F
100
AcDbEntity
  8
Defpoints
 62
     0
100
AcDbPoint
 10
156.8421288428674
 20
289.439967575076
 30
0.0
  0
ENDBLK
  5
71A
330
70F
100
AcDbEntity
  8
0
100
AcDbBlockEnd
  0
BLOCK
  5
762
330
758
100
AcDbEntity
  8
0
100
AcDbBlockBegin
  2
*D4
 70
     1
 10
0.0
 20
0.0
 30
0.0
  3
*D4
  1

  0
LINE
  5
7A0
330
758
100
AcDbEntity
  8
AM_5
100
AcDbLine
 10
439.1791489268019
 20
232.8999617594523
 30
0.0
 11
439.1791489268019
 21
314.500728567294
 31
0.0
  0
LINE
  5
7A1
330
758
100
AcDbEntity
  8
AM_5
100
AcDbLine
 10
107.0921288428674
 20
232.8999617594523
 30
0.0
 11
107.0921288428674
 21
314.500728567294
 31
0.0
  0
LINE
  5
7A2
330
758
100
AcDbEntity
  8
AM_5
100
AcDbLine
 10
432.1791489268019
 20
313.500728567294
 30
0.0
 11
114.0921288428674
 21
313.500728567294
 31
0.0
  0
SOLID
  5
7A3
330
758
100
AcDbEntity
  8
AM_5
100
AcDbTrace
 10
432.1791489268019
 20
314.6673952339607
 30
0.0
 11
432.1791489268019
 21
312.3340619006273
 31
0.0
 12
439.1791489268019
 22
313.500728567294
 32
0.0
 13
439.1791489268019
 23
313.500728567294
 33
0.0
  0
SOLID
  5
7A4
330
758
100
AcDbEntity
  8
AM_5
100
AcDbTrace
 10
114.0921288428674
 20
314.6673952339607
 30
0.0
 11
114.0921288428674
 21
312.3340619006273
 31
0.0
 12
107.0921288428674
 22
313.500728567294
 32
0.0
 13
107.0921288428674
 23
313.500728567294
 33
0.0
  0
MTEXT
  5
7A5
330
758
100
AcDbEntity
  8
AM_5
 62
     2
100
AcDbMText
 10
272.7466185492391
 20
320.0017128192625
 30
0.0
 40
10.0
 41
0.0
 71
     5
 72
     1
  1
%%c332
 73
     1
 44
1.0
1001
ACAD
1000
MTEXTBEGIN
1070
    73
1070
     1
1070
    44
1040
1.0
1070
    74
1070
     0
1000
MTEXTEND
  0
POINT
  5
7A6
330
758
100
AcDbEntity
  8
Defpoints
 62
     0
100
AcDbPoint
 10
439.1791489268019
 20
231.8999617594523
 30
0.0
  0
POINT
  5
7A7
330
758
100
AcDbEntity
  8
Defpoints
 62
     0
100
AcDbPoint
 10
107.0921288428674
 20
231.8999617594523
 30
0.0
  0
POINT
  5
7A8
330
758
100
AcDbEntity
  8
Defpoints
 62
     0
100
AcDbPoint
 10
107.0921288428674
 20
313.500728567294
 30
0.0
  0
ENDBLK
  5
763
330
758
100
AcDbEntity
  8
0
100
AcDbBlockEnd
  0
ENDSEC
  0
SECTION
  2
ENTITIES
  0
LINE
  5
395
330
1F
100
AcDbEntity
  8
P-0000
  6
Continuous
 62
     3
100
AcDbLine
 10
307.8807699613967
 20
249.4058456631951
 30
0.0
 11
238.8807699613967
 21
249.4058456631951
 31
0.0
1001
ACME_LAYERS
1000
1
  0
LINE
  5
396
330
1F
100
AcDbEntity
  8
P-0000
  6
Continuous
 62
     7
100
AcDbLine
 10
309.6356388848347
 20
231.4058456631951
 30
0.0
 11
236.6356388848347
 21
231.4058456631951
 31
0.0
1001
ACME_LAYERS
1000
1
  0
LINE
  5
397
330
1F
100
AcDbEntity
  8
P-0000
  6
Continuous
 62
     7
100
AcDbLine
 10
309.6356388848347
 20
254.4058456631951
 30
0.0
 11
236.6356388848347
 21
254.4058456631951
 31
0.0
1001
ACME_LAYERS
1000
1
  0
LINE
  5
398
330
1F
100
AcDbEntity
  8
P-0000
  6
Continuous
 62
     7
100
AcDbLine
 10
335.6791489268019
 20
230.1679109518822
 30
0.0
 11
236.6356388848347
 21
230.1679109518822
 31
0.0
1001
ACME_LAYERS
1000
1
  0
HATCH
  5
3B2
330
1F
100
AcDbEntity
  8
P-0000
  6
Continuous
 62
     1
100
AcDbHatch
 10
0.0
 20
0.0
 30
0.0
210
0.0
220
0.0
230
1.0
  2
_U
 70
     0
 71
     0
 91
        1
 92
        1
 93
       18
 72
     1
 10
183.2440526315134
 20
239.5835622503123
 11
180.2440526315134
 21
237.851511442744
 72
     2
 10
179.2440526315152
 20
239.5835622503123
 40
2.0
 50
60.00000000003687
 51
90.0
 73
     0
 72
     1
 10
179.2440526315152
 20
237.5835622503123
 11
172.9989830923608
 21
237.5835622503123
 72
     2
 10
172.9989830923608
 20
239.5835622503123
 40
2.000000000000387
 50
90.0
 51
135.0000000000031
 73
     0
 72
     1
 10
171.5847695299874
 20
238.1693486879389
 11
171.3421288428674
 21
238.411989375059
 72
     2
 10
168.5137017181208
 20
235.5835622503123
 40
4.000000000000625
 50
45.00000000000158
 51
90.0
 73
     1
 72
     1
 10
168.5137017181208
 20
239.5835622503123
 11
161.8421288428674
 21
239.5835622503123
 72
     1
 10
161.8421288428674
 20
239.5835622503123
 11
161.8421288428674
 21
237.5835622503123
 72
     1
 10
161.8421288428674
 20
237.5835622503123
 11
168.5137017181208
 21
237.5835622503123
 72
     1
 10
168.5137017181208
 20
237.5835622503123
 11
169.3421288428674
 21
237.5835622503123
 72
     1
 10
169.3421288428674
 20
237.5835622503123
 11
169.927915280494
 21
236.9977758126855
 72
     1
 10
169.927915280494
 20
236.9977758126855
 11
170.170555967614
 21
236.7551351255675
 72
     2
 10
172.9989830923608
 20
239.5835622503123
 40
3.999999999999469
 50
224.9999999999793
 51
270.0
 73
     1
 72
     1
 10
172.9989830923608
 20
235.5835622503123
 11
179.2440526315152
 21
235.5835622503123
 72
     2
 10
179.2440526315152
 20
239.5835622503123
 40
4.0
 50
270.0
 51
299.9999999999749
 73
     1
 72
     1
 10
181.2440526315134
 20
236.1194606351741
 11
186.8421288428674
 21
239.351511442744
 72
     1
 10
186.8421288428674
 20
239.351511442744
 11
185.8421288428674
 21
241.0835622503123
 72
     1
 10
185.8421288428674
 20
241.0835622503123
 11
183.2440526315134
 21
239.5835622503123
 97
        0
 75
     0
 76
     0
 52
135.0
 41
1.5
 77
     0
 78
     1
 53
135.0
 43
0.0
 44
0.0
 45
-1.060660171779821
 46
-1.060660171779821
 79
     0
 98
        1
 10
609.5335338513672
 20
365.9140016985269
1001
ACME_LAYERS
1000
1
1001
ACAD
1010
0.0
1020
0.0
1030
0.0
  0
HATCH
  5
3B3
330
1F
100
AcDbEntity
  8
P-0000
  6
Continuous
 62
     1
100
AcDbHatch
 10
0.0
 20
0.0
 30
0.0
210
0.0
220
0.0
230
1.0
  2
_U
 70
     0
 71
     0
 91
        1
 92
        1
 93
       37
 72
     1
 10
232.6356388848347
 20
243.1399750995129
 11
232.6356388848347
 21
239.2769946713193
 72
     1
 10
232.6356388848347
 20
239.2769946713193
 11
232.6356388848347
 21
238.1679109518822
 72
     2
 10
228.6356388848347
 20
238.1679109518822
 40
4.000000000000014
 50
360.0
 51
450.0
 73
     0
 72
     1
 10
228.6356388848347
 20
234.1679109518822
 11
188.8139256125926
 21
234.1679109518822
 72
     2
 10
188.8139256125926
 20
232.1679109518822
 40
2.0
 50
90.0
 51
119.9999999999822
 73
     1
 72
     1
 10
187.8139256125926
 20
233.8999617594523
 11
182.2780272277289
 21
230.7038093367442
 72
     2
 10
180.2780272277289
 20
234.1679109518822
 40
4.0
 50
60.00000000000171
 51
90.0
 73
     0
 72
     1
 10
180.2780272277289
 20
230.1679109518822
 11
132.6639256125912
 21
230.1679109518822
 72
     2
 10
132.6639256125912
 20
234.1679109518822
 40
4.000000000000205
 50
90.0
 51
119.9999999999983
 73
     0
 72
     1
 10
130.6639256125912
 20
230.7038093367442
 11
127.2266706029589
 21
232.6883094418294
 72
     2
 10
126.2266706029589
 20
230.9562586342613
 40
1.999999999999401
 50
59.99999999999009
 51
135.0000000000017
 73
     1
 72
     1
 10
124.8124570405856
 20
232.3704721966345
 11
124.1098957958332
 21
231.6679109518822
 72
     1
 10
124.1098957958332
 20
231.6679109518822
 11
122.6956822334599
 21
233.0821245142556
 72
     1
 10
122.6956822334599
 20
233.0821245142556
 11
123.3982434782122
 21
233.7846857590079
 72
     2
 10
126.2266706029589
 20
230.9562586342613
 40
4.0
 50
224.9999999999994
 51
270.0
 73
     0
 72
     2
 10
126.2266706029589
 20
230.9562586342613
 40
3.999999999998728
 50
270.0
 51
300.0000000000105
 73
     0
 72
     1
 10
128.2266706029589
 20
234.4203602493976
 11
131.6639256125912
 21
232.4358601443141
 72
     2
 10
132.6639256125912
 20
234.1679109518822
 40
1.999999999999327
 50
239.9999999999888
 51
270.0
 73
     1
 72
     1
 10
132.6639256125912
 20
232.1679109518822
 11
132.9421288428678
 21
232.1679109518822
 72
     1
 10
132.9421288428678
 20
232.1679109518822
 11
152.8421288428674
 21
232.1679109518822
 72
     1
 10
152.8421288428674
 20
232.1679109518822
 11
153.6421288428666
 21
232.1679109518822
 72
     1
 10
153.6421288428666
 20
232.1679109518822
 11
160.0421288428682
 21
232.1679109518822
 72
     1
 10
160.0421288428682
 20
232.1679109518822
 11
160.8421288428674
 21
232.1679109518822
 72
     1
 10
160.8421288428674
 20
232.1679109518822
 11
180.2780272277289
 21
232.1679109518822
 72
     2
 10
180.2780272277289
 20
234.1679109518822
 40
2.0
 50
270.0
 51
300.0000000000111
 73
     1
 72
     1
 10
181.2780272277289
 20
232.4358601443141
 11
181.3828708776312
 21
232.4963916538067
 72
     1
 10
181.3828708776312
 20
232.4963916538067
 11
181.5144650201894
 21
232.5723675674357
 72
     1
 10
181.5144650201894
 20
232.5723675674357
 11
182.1377380019388
 21
232.9322143912281
 72
     1
 10
182.1377380019388
 20
232.9322143912281
 11
186.8139256125926
 21
235.6320125670204
 72
     2
 10
188.8139256125926
 20
232.1679109518822
 40
4.0
 50
240.0000000000033
 51
270.0
 73
     0
 72
     1
 10
188.8139256125926
 20
236.1679109518822
 11
228.6356388848347
 21
236.1679109518822
 72
     2
 10
228.6356388848347
 20
238.1679109518822
 40
2.000000000000014
 50
270.0
 51
360.0
 73
     1
 72
     1
 10
230.6356388848347
 20
238.1679109518822
 11
230.6356388848347
 21
238.2827747363293
 72
     1
 10
230.6356388848347
 20
238.2827747363293
 11
230.6356388848347
 21
243.5650882228541
 72
     1
 10
230.6356388848347
 20
243.5650882228541
 11
233.236111641205
 21
249.4058456631951
 72
     1
 10
233.236111641205
 20
249.4058456631951
 11
235.0632025564903
 21
248.5923723770442
 72
     1
 10
235.0632025564903
 20
248.5923723770442
 11
232.6356388848347
 21
243.1399750995129
 97
        0
 75
     0
 76
     0
 52
135.0
 41
1.5
 77
     0
 78
     1
 53
135.0
 43
0.0
 44
0.0
 45
-1.060660171779821
 46
-1.060660171779821
 79
     0
 98
        1
 10
609.5335338513672
 20
365.9140016985269
1001
ACME_LAYERS
1000
1
1001
ACAD
1010
0.0
1020
0.0
1030
0.0
  0
ARC
  5
3B6
330
1F
100
AcDbEntity
  8
P-0000
  6
Continuous
 62
     7
100
AcDbCircle
 10
162.4712939674667
 20
244.5061318232632
 30
0.0
 40
3.32256957295015
100
AcDbArc
 50
235.6157525319448
 51
299.3733793948109
1001
ACME_LAYERS
1000
1
  0
ARC
  5
3B7
330
1F
100
AcDbEntity
  8
P-0000
  6
Continuous
 62
     7
100
AcDbCircle
 10
162.4712939674667
 20
244.360992677362
 30
0.0
 40
3.322569572950538
100
AcDbArc
 50
60.62662060518913
 51
124.3842474680386
1001
ACME_LAYERS
1000
1
  0
LINE
  5
3B8
330
1F
100
AcDbEntity
  8
P-0000
  6
Continuous
 62
     7
100
AcDbLine
 10
160.8421288428674
 20
239.5835622503123
 30
0.0
 11
165.2878269562882
 21
239.5835622503123
 31
0.0
1001
ACME_LAYERS
1000
1
  0
LINE
  5
3B9
330
1F
100
AcDbEntity
  8
P-0000
  6
Continuous
 62
     7
100
AcDbLine
 10
163.3421288428674
 20
247.6835622503127
 30
0.0
 11
160.8421288428674
 21
247.6835622503127
 31
0.0
1001
ACME_LAYERS
1000
1
  0
LINE
  5
3BA
330
1F
100
AcDbEntity
  8
P-0000
  6
Continuous
 62
     7
100
AcDbLine
 10
150.3421288428674
 20
241.1835622503127
 30
0.0
 11
163.3421288428674
 21
241.1835622503127
 31
0.0
1001
ACME_LAYERS
1000
1
  0
LINE
  5
3BB
330
1F
100
AcDbEntity
  8
P-0000
  6
Continuous
 62
     7
100
AcDbLine
 10
165.2878269562882
 20
241.1835622503127
 30
0.0
 11
148.2878269562882
 21
241.1835622503127
 31
0.0
1001
ACME_LAYERS
1000
1
  0
LINE
  5
3BC
330
1F
100
AcDbEntity
  8
P-0000
  6
Continuous
 62
     7
100
AcDbLine
 10
160.8421288428674
 20
235.5835622503123
 30
0.0
 11
171.3421288428674
 21
235.5835622503123
 31
0.0
1001
ACME_LAYERS
1000
1
  0
LINE
  5
3BD
330
1F
100
AcDbEntity
  8
P-0000
  6
Continuous
 62
     7
100
AcDbLine
 10
161.8421288428674
 20
237.5835622503123
 30
0.0
 11
168.5137017181208
 21
237.5835622503123
 31
0.0
1001
ACME_LAYERS
1000
1
  0
LINE
  5
3BE
330
1F
100
AcDbEntity
  8
P-0000
  6
Continuous
 62
     7
100
AcDbLine
 10
161.8421288428674
 20
239.5835622503123
 30
0.0
 11
168.5137017181208
 21
239.5835622503123
 31
0.0
1001
ACME_LAYERS
1000
1
  0
LINE
  5
3BF
330
1F
100
AcDbEntity
  8
P-0000
  6
Continuous
 62
     7
100
AcDbLine
 10
160.8421288428674
 20
232.1679109518822
 30
0.0
 11
180.2780272277289
 21
232.1679109518822
 31
0.0
1001
ACME_LAYERS
1000
1
  0
LINE
  5
3C0
330
1F
100
AcDbEntity
  8
P-0000
  6
Continuous
 62
     7
100
AcDbLine
 10
132.6639256125912
 20
230.1679109518822
 30
0.0
 11
180.2780272277289
 21
230.1679109518822
 31
0.0
1001
ACME_LAYERS
1000
1
  0
HATCH
  5
3C1
330
1F
100
AcDbEntity
  8
P-0000
  6
Continuous
 62
     1
100
AcDbHatch
 10
0.0
 20
0.0
 30
0.0
210
0.0
220
0.0
230
1.0
  2
_U
 70
     0
 71
     0
 91
        1
 92
        1
 93
       17
 72
     2
 10
140.6852745933741
 20
239.5835622503123
 40
2.0
 50
270.0
 51
315.0000000000009
 73
     1
 72
     1
 10
142.0994881557474
 20
238.1693486879389
 11
142.3421288428674
 21
238.411989375059
 72
     2
 10
145.1705559676123
 20
235.5835622503123
 40
4.0
 50
225.0000000000183
 51
270.0
 73
     0
 72
     1
 10
145.1705559676123
 20
239.5835622503123
 11
151.8421288428674
 21
239.5835622503123
 72
     1
 10
151.8421288428674
 20
239.5835622503123
 11
151.8421288428674
 21
237.5835622503123
 72
     1
 10
151.8421288428674
 20
237.5835622503123
 11
145.1705559676123
 21
237.5835622503123
 72
     1
 10
145.1705559676123
 20
237.5835622503123
 11
144.3421288428674
 21
237.5835622503123
 72
     1
 10
144.3421288428674
 20
237.5835622503123
 11
143.7563424052408
 21
236.9977758126855
 72
     1
 10
143.7563424052408
 20
236.9977758126855
 11
143.5137017181208
 21
236.7551351255675
 72
     2
 10
140.6852745933741
 20
239.5835622503123
 40
4.0
 50
44.99999999998041
 51
90.0
 73
     0
 72
     1
 10
140.6852745933741
 20
235.5835622503123
 11
134.4402050542215
 21
235.5835622503123
 72
     2
 10
134.4402050542215
 20
239.5835622503123
 40
4.000000000000303
 50
90.0
 51
119.9999999999975
 73
     0
 72
     1
 10
132.4402050542215
 20
236.1194606351741
 11
126.8421288428674
 21
239.351511442744
 72
     1
 10
126.8421288428674
 20
239.351511442744
 11
127.8421288428674
 21
241.0835622503123
 72
     1
 10
127.8421288428674
 20
241.0835622503123
 11
133.4402050542215
 21
237.851511442744
 72
     2
 10
134.4402050542215
 20
239.5835622503123
 40
1.999999999999499
 50
239.9999999999917
 51
270.0
 73
     1
 72
     1
 10
134.4402050542215
 20
237.5835622503123
 11
140.6852745933741
 21
237.5835622503123
 97
        0
 75
     0
 76
     0
 52
135.0
 41
1.5
 77
     0
 78
     1
 53
135.0
 43
0.0
 44
0.0
 45
-1.060660171779821
 46
-1.060660171779821
 79
     0
 98
        1
 10
609.5335338513672
 20
365.9140016985269
1001
ACME_LAYERS
1000
1
1001
ACAD
1010
0.0
1020
0.0
1030
0.0
  0
ARC
  5
3C2
330
1F
100
AcDbEntity
  8
P-0000
  6
Continuous
 62
     7
100
AcDbCircle
 10
134.4402050542215
 20
239.5835622503123
 30
0.0
 40
4.000000000000303
100
AcDbArc
 50
240.0000000000009
 51
270.0
1001
ACME_LAYERS
1000
1
  0
ARC
  5
3C3
330
1F
100
AcDbEntity
  8
P-0000
  6
Continuous
 62
     7
100
AcDbCircle
 10
124.674179650436
 20
231.1679109518822
 30
0.0
 40
5.00000000000009
100
AcDbArc
 50
59.99999999999915
 51
90.0
1001
ACME_LAYERS
1000
1
  0
ARC
  5
3C4
330
1F
100
AcDbEntity
  8
P-0000
  6
Continuous
 62
     7
100
AcDbCircle
 10
115.8241796504356
 20
231.1679109518822
 30
0.0
 40
5.0
100
AcDbArc
 50
89.99999999998046
 51
120.0000000000004
1001
ACME_LAYERS
1000
1
  0
ARC
  5
3C5
330
1F
100
AcDbEntity
  8
P-0000
  6
Continuous
 62
     7
100
AcDbCircle
 10
140.6852745933741
 20
239.5835622503123
 30
0.0
 40
4.0
100
AcDbArc
 50
270.0
 51
315.0000000000184
1001
ACME_LAYERS
1000
1
  0
LINE
  5
3C6
330
1F
100
AcDbEntity
  8
P-0000
  6
Continuous
 62
     7
100
AcDbLine
 10
152.8421288428674
 20
239.5835622503123
 30
0.0
 11
152.8421288428674
 21
232.1679109518822
 31
0.0
1001
ACME_LAYERS
1000
1
  0
LINE
  5
3C7
330
1F
100
AcDbEntity
  8
P-0000
  6
Continuous
 62
     3
100
AcDbLine
 10
153.6421288428666
 20
239.5835622503123
 30
0.0
 11
153.6421288428666
 21
232.1679109518822
 31
0.0
1001
ACME_LAYERS
1000
1
  0
LINE
  5
3C8
330
1F
100
AcDbEntity
  8
P-0000
  6
Continuous
 62
     3
100
AcDbLine
 10
160.0421288428682
 20
239.5835622503123
 30
0.0
 11
160.0421288428682
 21
232.1679109518822
 31
0.0
1001
ACME_LAYERS
1000
1
  0
LINE
  5
3C9
330
1F
100
AcDbEntity
  8
P-0000
  6
Continuous
 62
     7
100
AcDbLine
 10
160.8421288428674
 20
239.5835622503123
 30
0.0
 11
160.8421288428674
 21
232.1679109518822
 31
0.0
1001
ACME_LAYERS
1000
1
  0
LINE
  5
3CA
330
1F
100
AcDbEntity
  8
P-0000
  6
Continuous
 62
     3
100
AcDbLine
 10
132.4402050542215
 20
236.1194606351741
 30
0.0
 11
133.3684082844959
 21
235.5835622503123
 31
0.0
1001
ACME_LAYERS
1000
1
  0
LINE
  5
3CB
330
1F
100
AcDbEntity
  8
P-0000
  6
Continuous
 62
     3
100
AcDbLine
 10
143.5137017181208
 20
236.7551351255675
 30
0.0
 11
142.3421288428655
 21
235.5835622503123
 31
0.0
1001
ACME_LAYERS
1000
1
  0
LINE
  5
3CC
330
1F
100
AcDbEntity
  8
P-0000
  6
STRICHPUNKT
 62
     4
100
AcDbLine
 10
156.8421288428674
 20
258.6873543682809
 30
0.0
 11
156.8421288428674
 21
227.1679109518822
 31
0.0
1001
ACME_LAYERS
1000
1
  0
LINE
  5
3CD
330
1F
100
AcDbEntity
  8
P-0000
  6
STRICHPUNKT
 62
     4
100
AcDbLine
 10
119.8421288428674
 20
237.9562586342613
 30
0.0
 11
119.8421288428674
 21
228.6679109518821
 31
0.0
1001
ACME_LAYERS
1000
1
  0
LINE
  5
3CF
330
1F
100
AcDbEntity
  8
P-0000
  6
Continuous
 62
     7
100
AcDbLine
 10
128.2266706029589
 20
234.4203602493976
 30
0.0
 11
131.6639256125912
 21
232.4358601443141
 31
0.0
1001
ACME_LAYERS
1000
1
  0
LINE
  5
3D0
330
1F
100
AcDbEntity
  8
P-0000
  6
Continuous
 62
     7
100
AcDbLine
 10
132.9421288428678
 20
232.1679109518822
 30
0.0
 11
127.174179650436
 21
235.4980379708045
 31
0.0
1001
ACME_LAYERS
1000
1
  0
LINE
  5
3D1
330
1F
100
AcDbEntity
  8
P-0000
  6
Continuous
 62
     7
100
AcDbLine
 10
127.2266706029589
 20
232.6883094418294
 30
0.0
 11
130.6639256125912
 21
230.7038093367442
 31
0.0
1001
ACME_LAYERS
1000
1
  0
LINE
  5
3D2
330
1F
100
AcDbEntity
  8
P-0000
  6
Continuous
 62
     7
100
AcDbLine
 10
108.0921288428674
 20
230.1679109518822
 30
0.0
 11
132.6639256125912
 21
230.1679109518822
 31
0.0
1001
ACME_LAYERS
1000
1
  0
HATCH
  5
3D3
330
1F
100
AcDbEntity
  8
P-0000
  6
Continuous
 62
     1
100
AcDbHatch
 10
0.0
 20
0.0
 30
0.0
210
0.0
220
0.0
230
1.0
  2
_U
 70
     0
 71
     0
 91
        1
 92
        1
 93
        9
 72
     1
 10
107.0921288428674
 20
231.8999617594523
 11
111.457587082776
 21
234.4203602493976
 72
     2
 10
113.457587082776
 20
230.9562586342613
 40
4.0
 50
239.9999999999895
 51
270.0
 73
     0
 72
     2
 10
113.457587082776
 20
230.9562586342613
 40
4.000000000000675
 50
270.0
 51
315.0000000000012
 73
     0
 72
     1
 10
116.2860142075227
 20
233.7846857590079
 11
116.9885754522751
 21
233.0821245142556
 72
     1
 10
116.9885754522751
 20
233.0821245142556
 11
115.5743618899017
 21
231.6679109518822
 72
     1
 10
115.5743618899017
 20
231.6679109518822
 11
114.8718006451492
 21
232.3704721966345
 72
     2
 10
113.457587082776
 20
230.9562586342613
 40
2.000000000000156
 50
44.99999999999942
 51
120.0000000000099
 73
     1
 72
     1
 10
112.457587082776
 20
232.6883094418294
 11
108.0921288428674
 21
230.1679109518822
 72
     1
 10
108.0921288428674
 20
230.1679109518822
 11
107.0921288428674
 21
231.8999617594523
 97
        0
 75
     0
 76
     0
 52
135.0
 41
1.5
 77
     0
 78
     1
 53
135.0
 43
0.0
 44
0.0
 45
-1.060660171779821
 46
-1.060660171779821
 79
     0
 98
        1
 10
609.5335338513672
 20
365.9140016985269
1001
ACME_LAYERS
1000
1
1001
ACAD
1010
0.0
1020
0.0
1030
0.0
  0
ARC
  5
3D4
330
1F
100
AcDbEntity
  8
P-0000
  6
Continuous
 62
     7
100
AcDbCircle
 10
113.457587082776
 20
230.9562586342613
 30
0.0
 40
2.000000000000156
100
AcDbArc
 50
45.0
 51
120.0000000000077
1001
ACME_LAYERS
1000
1
  0
ARC
  5
3D5
330
1F
100
AcDbEntity
  8
P-0000
  6
Continuous
 62
     7
100
AcDbCircle
 10
113.457587082776
 20
230.9562586342613
 30
0.0
 40
4.000000000000675
100
AcDbArc
 50
45.0
 51
90.0
1001
ACME_LAYERS
1000
1
  0
LINE
  5
3D6
330
1F
100
AcDbEntity
  8
P-0000
  6
Continuous
 62
     7
100
AcDbLine
 10
113.457587082776
 20
234.9562586342613
 30
0.0
 11
126.2266706029589
 21
234.9562586342613
 31
0.0
1001
ACME_LAYERS
1000
1
  0
LINE
  5
3D7
330
1F
100
AcDbEntity
  8
P-0000
  6
Continuous
 62
     7
100
AcDbLine
 10
108.0921288428674
 20
230.1679109518822
 30
0.0
 11
107.0921288428674
 21
231.8999617594523
 31
0.0
1001
ACME_LAYERS
1000
1
  0
LINE
  5
3D8
330
1F
100
AcDbEntity
  8
P-0000
  6
Continuous
 62
     7
100
AcDbLine
 10
108.0921288428674
 20
230.1679109518822
 30
0.0
 11
112.457587082776
 21
232.6883094418294
 31
0.0
1001
ACME_LAYERS
1000
1
  0
LINE
  5
3D9
330
1F
100
AcDbEntity
  8
P-0000
  6
Continuous
 62
     7
100
AcDbLine
 10
108.0921288428674
 20
230.1679109518822
 30
0.0
 11
112.457587082776
 21
232.6883094418294
 31
0.0
1001
ACME_LAYERS
1000
1
  0
LINE
  5
3DA
330
1F
100
AcDbEntity
  8
P-0000
  6
Continuous
 62
     1
100
AcDbLine
 10
107.0921288428674
 20
231.8999617594523
 30
0.0
 11
111.457587082776
 21
234.4203602493976
 31
0.0
1001
ACME_LAYERS
1000
1
  0
ARC
  5
3DB
330
1F
100
AcDbEntity
  8
P-0000
  6
Continuous
 62
     7
100
AcDbCircle
 10
113.457587082776
 20
230.9562586342613
 30
0.0
 40
4.0
100
AcDbArc
 50
90.0
 51
120.0000000000077
1001
ACME_LAYERS
1000
1
  0
LINE
  5
3DC
330
1F
100
AcDbEntity
  8
P-0000
  6
Continuous
 62
     7
100
AcDbLine
 10
111.457587082776
 20
234.4203602493976
 30
0.0
 11
113.3241796504356
 21
235.4980379708045
 31
0.0
1001
ACME_LAYERS
1000
1
  0
LINE
  5
3DD
330
1F
100
AcDbEntity
  8
P-0000
  6
Continuous
 62
     7
100
AcDbLine
 10
116.9885754522751
 20
233.0821245142556
 30
0.0
 11
122.6956822334599
 21
233.0821245142556
 31
0.0
1001
ACME_LAYERS
1000
1
  0
LINE
  5
3DE
330
1F
100
AcDbEntity
  8
P-0000
  6
Continuous
 62
     7
100
AcDbLine
 10
115.5743618899017
 20
231.6679109518822
 30
0.0
 11
124.1098957958332
 21
231.6679109518822
 31
0.0
1001
ACME_LAYERS
1000
1
  0
LINE
  5
3DF
330
1F
100
AcDbEntity
  8
P-0000
  6
Continuous
 62
     7
100
AcDbLine
 10
116.9885754522751
 20
233.0821245142556
 30
0.0
 11
115.5743618899017
 21
231.6679109518822
 31
0.0
1001
ACME_LAYERS
1000
1
  0
LINE
  5
3E0
330
1F
100
AcDbEntity
  8
P-0000
  6
Continuous
 62
     7
100
AcDbLine
 10
116.2860142075227
 20
233.7846857590079
 30
0.0
 11
116.9885754522751
 21
233.0821245142556
 31
0.0
1001
ACME_LAYERS
1000
1
  0
LINE
  5
3E1
330
1F
100
AcDbEntity
  8
P-0000
  6
Continuous
 62
     7
100
AcDbLine
 10
114.8718006451492
 20
232.3704721966345
 30
0.0
 11
115.5743618899017
 21
231.6679109518822
 31
0.0
1001
ACME_LAYERS
1000
1
  0
ARC
  5
3E2
330
1F
100
AcDbEntity
  8
P-0000
  6
Continuous
 62
     7
100
AcDbCircle
 10
126.2266706029589
 20
230.9562586342613
 30
0.0
 40
1.999999999999401
100
AcDbArc
 50
59.99999999999259
 51
134.9999999999997
1001
ACME_LAYERS
1000
1
  0
ARC
  5
3E3
330
1F
100
AcDbEntity
  8
P-0000
  6
Continuous
 62
     7
100
AcDbCircle
 10
126.2266706029589
 20
230.9562586342613
 30
0.0
 40
1.999999999999401
100
AcDbArc
 50
59.99999999999259
 51
134.9999999999997
1001
ACME_LAYERS
1000
1
  0
ARC
  5
3E4
330
1F
100
AcDbEntity
  8
P-0000
  6
Continuous
 62
     7
100
AcDbCircle
 10
126.2266706029589
 20
230.9562586342613
 30
0.0
 40
3.999999999998728
100
AcDbArc
 50
59.99999999999259
 51
90.0
1001
ACME_LAYERS
1000
1
  0
ARC
  5
3E5
330
1F
100
AcDbEntity
  8
P-0000
  6
Continuous
 62
     7
100
AcDbCircle
 10
126.2266706029589
 20
230.9562586342613
 30
0.0
 40
4.0
100
AcDbArc
 50
90.0
 51
134.9999999999997
1001
ACME_LAYERS
1000
1
  0
LINE
  5
3E6
330
1F
100
AcDbEntity
  8
P-0000
  6
Continuous
 62
     7
100
AcDbLine
 10
122.6956822334599
 20
233.0821245142556
 30
0.0
 11
123.3982434782122
 21
233.7846857590079
 31
0.0
1001
ACME_LAYERS
1000
1
  0
LINE
  5
3E7
330
1F
100
AcDbEntity
  8
P-0000
  6
Continuous
 62
     7
100
AcDbLine
 10
124.1098957958332
 20
231.6679109518822
 30
0.0
 11
124.8124570405856
 21
232.3704721966345
 31
0.0
1001
ACME_LAYERS
1000
1
  0
LINE
  5
3E8
330
1F
100
AcDbEntity
  8
P-0000
  6
Continuous
 62
     7
100
AcDbLine
 10
124.1098957958332
 20
231.6679109518822
 30
0.0
 11
122.6956822334599
 21
233.0821245142556
 31
0.0
1001
ACME_LAYERS
1000
1
  0
LINE
  5
3E9
330
1F
100
AcDbEntity
  8
P-0000
  6
Continuous
 62
     7
100
AcDbLine
 10
142.3421288428655
 20
235.5835622503123
 30
0.0
 11
152.8421288428674
 21
235.5835622503123
 31
0.0
1001
ACME_LAYERS
1000
1
  0
LINE
  5
3EA
330
1F
100
AcDbEntity
  8
P-0000
  6
Continuous
 62
     7
100
AcDbLine
 10
132.9421288428678
 20
232.1679109518822
 30
0.0
 11
152.8421288428674
 21
232.1679109518822
 31
0.0
1001
ACME_LAYERS
1000
1
  0
LINE
  5
3EB
330
1F
100
AcDbEntity
  8
P-0000
  6
Continuous
 62
     7
100
AcDbLine
 10
134.4402050542215
 20
235.5835622503123
 30
0.0
 11
140.6852745933741
 21
235.5835622503123
 31
0.0
1001
ACME_LAYERS
1000
1
  0
ARC
  5
3EC
330
1F
100
AcDbEntity
  8
P-0000
  6
Continuous
 62
     7
100
AcDbCircle
 10
132.6639256125912
 20
234.1679109518822
 30
0.0
 40
4.000000000000205
100
AcDbArc
 50
240.0000000000009
 51
270.0
1001
ACME_LAYERS
1000
1
  0
ARC
  5
3ED
330
1F
100
AcDbEntity
  8
P-0000
  6
Continuous
 62
     7
100
AcDbCircle
 10
132.6639256125912
 20
234.1679109518822
 30
0.0
 40
1.999999999999327
100
AcDbArc
 50
239.9999999999923
 51
270.0
1001
ACME_LAYERS
1000
1
  0
LINE
  5
3EE
330
1F
100
AcDbEntity
  8
P-0000
  6
Continuous
 62
     3
100
AcDbLine
 10
133.3684082844959
 20
235.5835622503123
 30
0.0
 11
134.4402050542215
 21
235.5835622503123
 31
0.0
1001
ACME_LAYERS
1000
1
  0
LINE
  5
3EF
330
1F
100
AcDbEntity
  8
P-0000
  6
Continuous
 62
     7
100
AcDbLine
 10
132.9421288428678
 20
232.1679109518822
 30
0.0
 11
132.6639256125912
 21
232.1679109518822
 31
0.0
1001
ACME_LAYERS
1000
1
  0
LINE
  5
3F0
330
1F
100
AcDbEntity
  8
P-0000
  6
Continuous
 62
     7
100
AcDbLine
 10
140.6852745933741
 20
235.5835622503123
 30
0.0
 11
142.3421288428655
 21
235.5835622503123
 31
0.0
1001
ACME_LAYERS
1000
1
  0
LINE
  5
3F1
330
1F
100
AcDbEntity
  8
P-0000
  6
Continuous
 62
     7
100
AcDbLine
 10
153.6421288428666
 20
232.1679109518822
 30
0.0
 11
160.0421288428682
 21
232.1679109518822
 31
0.0
1001
ACME_LAYERS
1000
1
  0
LINE
  5
3F2
330
1F
100
AcDbEntity
  8
P-0000
  6
Continuous
 62
     7
100
AcDbLine
 10
152.8421288428674
 20
232.1679109518822
 30
0.0
 11
153.6421288428666
 21
232.1679109518822
 31
0.0
1001
ACME_LAYERS
1000
1
  0
LINE
  5
3F3
330
1F
100
AcDbEntity
  8
P-0000
  6
Continuous
 62
     7
100
AcDbLine
 10
160.0421288428682
 20
232.1679109518822
 30
0.0
 11
160.8421288428674
 21
232.1679109518822
 31
0.0
1001
ACME_LAYERS
1000
1
  0
LINE
  5
3F4
330
1F
100
AcDbEntity
  8
P-0000
  6
Continuous
 62
     7
100
AcDbLine
 10
127.8421288428674
 20
241.0835622503123
 30
0.0
 11
148.2878269562882
 21
241.0835622503123
 31
0.0
1001
ACME_LAYERS
1000
1
  0
LINE
  5
3F5
330
1F
100
AcDbEntity
  8
P-0000
  6
Continuous
 62
     7
100
AcDbLine
 10
127.8421288428674
 20
241.0835622503123
 30
0.0
 11
133.4402050542215
 21
237.851511442744
 31
0.0
1001
ACME_LAYERS
1000
1
  0
LINE
  5
3F6
330
1F
100
AcDbEntity
  8
P-0000
  6
Continuous
 62
     7
100
AcDbLine
 10
126.8421288428674
 20
239.351511442744
 30
0.0
 11
132.4402050542215
 21
236.1194606351741
 31
0.0
1001
ACME_LAYERS
1000
1
  0
LINE
  5
3F7
330
1F
100
AcDbEntity
  8
P-0000
  6
Continuous
 62
     7
100
AcDbLine
 10
115.8241796504375
 20
236.1679109518822
 30
0.0
 11
124.674179650436
 21
236.1679109518822
 31
0.0
1001
ACME_LAYERS
1000
1
  0
LINE
  5
3F8
330
1F
100
AcDbEntity
  8
P-0000
  6
Continuous
 62
     7
100
AcDbLine
 10
126.8421288428674
 20
239.351511442744
 30
0.0
 11
127.8421288428674
 21
241.0835622503123
 31
0.0
1001
ACME_LAYERS
1000
1
  0
LINE
  5
3F9
330
1F
100
AcDbEntity
  8
P-0000
  6
Continuous
 62
     7
100
AcDbLine
 10
145.1705559676123
 20
237.5835622503123
 30
0.0
 11
151.8421288428674
 21
237.5835622503123
 31
0.0
1001
ACME_LAYERS
1000
1
  0
LINE
  5
3FA
330
1F
100
AcDbEntity
  8
P-0000
  6
Continuous
 62
     7
100
AcDbLine
 10
145.1705559676123
 20
239.5835622503123
 30
0.0
 11
151.8421288428674
 21
239.5835622503123
 31
0.0
1001
ACME_LAYERS
1000
1
  0
LINE
  5
3FB
330
1F
100
AcDbEntity
  8
P-0000
  6
Continuous
 62
     7
100
AcDbLine
 10
134.4402050542215
 20
237.5835622503123
 30
0.0
 11
140.6852745933741
 21
237.5835622503123
 31
0.0
1001
ACME_LAYERS
1000
1
  0
ARC
  5
3FC
330
1F
100
AcDbEntity
  8
P-0000
  6
Continuous
 62
     7
100
AcDbCircle
 10
134.4402050542215
 20
239.5835622503123
 30
0.0
 40
1.999999999999499
100
AcDbArc
 50
239.9999999999923
 51
270.0
1001
ACME_LAYERS
1000
1
  0
LINE
  5
3FD
330
1F
100
AcDbEntity
  8
P-0000
  6
Continuous
 62
     3
100
AcDbLine
 10
133.4402050542215
 20
237.851511442744
 30
0.0
 11
133.9043066693579
 21
237.5835622503123
 31
0.0
1001
ACME_LAYERS
1000
1
  0
LINE
  5
3FE
330
1F
100
AcDbEntity
  8
P-0000
  6
Continuous
 62
     3
100
AcDbLine
 10
133.9043066693579
 20
237.5835622503123
 30
0.0
 11
134.4402050542215
 21
237.5835622503123
 31
0.0
1001
ACME_LAYERS
1000
1
  0
ARC
  5
3FF
330
1F
100
AcDbEntity
  8
P-0000
  6
Continuous
 62
     7
100
AcDbCircle
 10
145.1705559676123
 20
235.5835622503123
 30
0.0
 40
4.0
100
AcDbArc
 50
90.0
 51
134.9999999999812
1001
ACME_LAYERS
1000
1
  0
LINE
  5
400
330
1F
100
AcDbEntity
  8
P-0000
  6
Continuous
 62
     3
100
AcDbLine
 10
142.3421288428674
 20
238.411989375059
 30
0.0
 11
143.5137017181208
 21
239.5835622503123
 31
0.0
1001
ACME_LAYERS
1000
1
  0
ARC
  5
401
330
1F
100
AcDbEntity
  8
P-0000
  6
Continuous
 62
     7
100
AcDbCircle
 10
140.6852745933741
 20
239.5835622503123
 30
0.0
 40
2.0
100
AcDbArc
 50
270.0
 51
315.0
1001
ACME_LAYERS
1000
1
  0
LINE
  5
402
330
1F
100
AcDbEntity
  8
P-0000
  6
Continuous
 62
     7
100
AcDbLine
 10
142.3421288428674
 20
238.411989375059
 30
0.0
 11
142.0994881557474
 21
238.1693486879389
 31
0.0
1001
ACME_LAYERS
1000
1
  0
LINE
  5
403
330
1F
100
AcDbEntity
  8
P-0000
  6
Continuous
 62
     3
100
AcDbLine
 10
140.6852745933741
 20
237.5835622503123
 30
0.0
 11
141.5137017181208
 21
237.5835622503123
 31
0.0
1001
ACME_LAYERS
1000
1
  0
LINE
  5
404
330
1F
100
AcDbEntity
  8
P-0000
  6
Continuous
 62
     3
100
AcDbLine
 10
141.5137017181208
 20
237.5835622503123
 30
0.0
 11
142.0994881557474
 21
238.1693486879389
 31
0.0
1001
ACME_LAYERS
1000
1
  0
ARC
  5
405
330
1F
100
AcDbEntity
  8
P-0000
  6
Continuous
 62
     7
100
AcDbCircle
 10
145.1705559676123
 20
235.5835622503123
 30
0.0
 40
2.0
100
AcDbArc
 50
90.0
 51
134.9999999999628
1001
ACME_LAYERS
1000
1
  0
LINE
  5
406
330
1F
100
AcDbEntity
  8
P-0000
  6
Continuous
 62
     7
100
AcDbLine
 10
143.7563424052408
 20
236.9977758126855
 30
0.0
 11
143.5137017181208
 21
236.7551351255675
 31
0.0
1001
ACME_LAYERS
1000
1
  0
LINE
  5
407
330
1F
100
AcDbEntity
  8
P-0000
  6
Continuous
 62
     3
100
AcDbLine
 10
144.3421288428674
 20
237.5835622503123
 30
0.0
 11
145.1705559676123
 21
237.5835622503123
 31
0.0
1001
ACME_LAYERS
1000
1
  0
LINE
  5
408
330
1F
100
AcDbEntity
  8
P-0000
  6
Continuous
 62
     3
100
AcDbLine
 10
143.7563424052408
 20
236.9977758126855
 30
0.0
 11
144.3421288428674
 21
237.5835622503123
 31
0.0
1001
ACME_LAYERS
1000
1
  0
LINE
  5
409
330
1F
100
AcDbEntity
  8
P-0000
  6
Continuous
 62
     3
100
AcDbLine
 10
143.5137017181208
 20
239.5835622503123
 30
0.0
 11
145.1705559676123
 21
239.5835622503123
 31
0.0
1001
ACME_LAYERS
1000
1
  0
ARC
  5
40A
330
1F
100
AcDbEntity
  8
P-0000
  6
Continuous
 62
     7
100
AcDbCircle
 10
151.2129637182682
 20
244.360992677362
 30
0.0
 40
3.322569572951658
100
AcDbArc
 50
55.61575253196289
 51
119.3733793948105
1001
ACME_LAYERS
1000
1
  0
ARC
  5
40B
330
1F
100
AcDbEntity
  8
P-0000
  6
Continuous
 62
     7
100
AcDbCircle
 10
156.8421288428674
 20
235.2641188339126
 30
0.0
 40
12.41944341640082
100
AcDbArc
 50
72.41204622600982
 51
107.5879537739905
1001
ACME_LAYERS
1000
1
  0
LINE
  5
40C
330
1F
100
AcDbEntity
  8
P-0000
  6
Continuous
 62
     7
100
AcDbLine
 10
150.3421288428674
 20
247.6835622503127
 30
0.0
 11
149.5832469320597
 21
247.2564186846788
 31
0.0
1001
ACME_LAYERS
1000
1
  0
ARC
  5
40D
330
1F
100
AcDbEntity
  8
P-0000
  6
Continuous
 62
     7
100
AcDbCircle
 10
156.8421288428674
 20
253.6030056667128
 30
0.0
 40
12.41944341639917
100
AcDbArc
 50
252.4120462260087
 51
287.5879537739917
1001
ACME_LAYERS
1000
1
  0
LINE
  5
40E
330
1F
100
AcDbEntity
  8
P-0000
  6
Continuous
 62
     7
100
AcDbLine
 10
153.6421288428666
 20
239.5835622503123
 30
0.0
 11
160.0421288428682
 21
239.5835622503123
 31
0.0
1001
ACME_LAYERS
1000
1
  0
LINE
  5
40F
330
1F
100
AcDbEntity
  8
P-0000
  6
Continuous
 62
     7
100
AcDbLine
 10
153.0893520931351
 20
241.7641188339143
 30
0.0
 11
153.0893520931351
 21
247.1030056667128
 31
0.0
1001
ACME_LAYERS
1000
1
  0
LINE
  5
410
330
1F
100
AcDbEntity
  8
P-0000
  6
Continuous
 62
     7
100
AcDbLine
 10
149.336575343403
 20
241.7641188339143
 30
0.0
 11
149.336575343403
 21
247.1030056667128
 31
0.0
1001
ACME_LAYERS
1000
1
  0
ARC
  5
411
330
1F
100
AcDbEntity
  8
P-0000
  6
Continuous
 62
     7
100
AcDbCircle
 10
151.2129637182682
 20
244.5061318232632
 30
0.0
 40
3.322569572950451
100
AcDbArc
 50
240.6266206051895
 51
304.3842474680552
1001
ACME_LAYERS
1000
1
  0
LINE
  5
412
330
1F
100
AcDbEntity
  8
P-0000
  6
Continuous
 62
     7
100
AcDbLine
 10
148.2878269562882
 20
239.5835622503123
 30
0.0
 11
152.8421288428674
 21
239.5835622503123
 31
0.0
1001
ACME_LAYERS
1000
1
  0
ARC
  5
413
330
1F
100
AcDbEntity
  8
P-0000
  6
Continuous
 62
     7
100
AcDbCircle
 10
151.2129637182682
 20
244.5061318232632
 30
0.0
 40
3.322569572949123
100
AcDbArc
 50
235.6157525319706
 51
240.6266206051895
1001
ACME_LAYERS
1000
1
  0
LINE
  5
414
330
1F
100
AcDbEntity
  8
P-0000
  6
Continuous
 62
     7
100
AcDbLine
 10
148.2878269562882
 20
241.0835622503123
 30
0.0
 11
148.2878269562882
 21
239.5835622503123
 31
0.0
1001
ACME_LAYERS
1000
1
  0
LINE
  5
415
330
1F
100
AcDbEntity
  8
P-0000
  6
Continuous
 62
     7
100
AcDbLine
 10
150.3421288428674
 20
241.1835622503127
 30
0.0
 11
149.5832469320597
 21
241.6107058159464
 31
0.0
1001
ACME_LAYERS
1000
1
  0
LINE
  5
416
330
1F
100
AcDbEntity
  8
P-0000
  6
Continuous
 62
     7
100
AcDbLine
 10
148.2878269562882
 20
241.1835622503127
 30
0.0
 11
148.2878269562882
 21
241.0835622503123
 31
0.0
1001
ACME_LAYERS
1000
1
  0
LINE
  5
417
330
1F
100
AcDbEntity
  8
P-0000
  6
Continuous
 62
     7
100
AcDbLine
 10
152.8421288428674
 20
239.5835622503123
 30
0.0
 11
153.6421288428666
 21
239.5835622503123
 31
0.0
1001
ACME_LAYERS
1000
1
  0
LINE
  5
418
330
1F
100
AcDbEntity
  8
P-0000
  6
Continuous
 62
     7
100
AcDbLine
 10
151.8421288428674
 20
237.5835622503123
 30
0.0
 11
152.8421288428674
 21
237.5835622503123
 31
0.0
1001
ACME_LAYERS
1000
1
  0
LINE
  5
419
330
1F
100
AcDbEntity
  8
P-0000
  6
Continuous
 62
     7
100
AcDbLine
 10
151.8421288428674
 20
239.5835622503123
 30
0.0
 11
152.8421288428674
 21
239.5835622503123
 31
0.0
1001
ACME_LAYERS
1000
1
  0
LINE
  5
41A
330
1F
100
AcDbEntity
  8
P-0000
  6
Continuous
 62
     7
100
AcDbLine
 10
151.8421288428674
 20
239.5835622503123
 30
0.0
 11
151.8421288428674
 21
237.5835622503123
 31
0.0
1001
ACME_LAYERS
1000
1
  0
ARC
  5
41B
330
1F
100
AcDbEntity
  8
P-0000
  6
Continuous
 62
     7
100
AcDbCircle
 10
151.2129637182682
 20
244.360992677362
 30
0.0
 40
3.322569572950538
100
AcDbArc
 50
119.3733793948105
 51
124.3842474680133
1001
ACME_LAYERS
1000
1
  0
LINE
  5
41C
330
1F
100
AcDbEntity
  8
P-0000
  6
Continuous
 62
     7
100
AcDbLine
 10
160.5949055925997
 20
241.7641188339143
 30
0.0
 11
160.5949055925997
 21
247.1030056667128
 31
0.0
1001
ACME_LAYERS
1000
1
  0
LINE
  5
41D
330
1F
100
AcDbEntity
  8
P-0000
  6
Continuous
 62
     7
100
AcDbLine
 10
160.0421288428682
 20
239.5835622503123
 30
0.0
 11
160.8421288428674
 21
239.5835622503123
 31
0.0
1001
ACME_LAYERS
1000
1
  0
LINE
  5
41E
330
1F
100
AcDbEntity
  8
P-0000
  6
Continuous
 62
     7
100
AcDbLine
 10
160.8421288428674
 20
237.5835622503123
 30
0.0
 11
161.8421288428674
 21
237.5835622503123
 31
0.0
1001
ACME_LAYERS
1000
1
  0
LINE
  5
41F
330
1F
100
AcDbEntity
  8
P-0000
  6
Continuous
 62
     7
100
AcDbLine
 10
160.8421288428674
 20
239.5835622503123
 30
0.0
 11
161.8421288428674
 21
239.5835622503123
 31
0.0
1001
ACME_LAYERS
1000
1
  0
LINE
  5
420
330
1F
100
AcDbEntity
  8
P-0000
  6
Continuous
 62
     7
100
AcDbLine
 10
161.8421288428674
 20
239.5835622503123
 30
0.0
 11
161.8421288428674
 21
237.5835622503123
 31
0.0
1001
ACME_LAYERS
1000
1
  0
LINE
  5
421
330
1F
100
AcDbEntity
  8
P-0000
  6
Continuous
 62
     7
100
AcDbLine
 10
160.0421288428682
 20
247.6835622503127
 30
0.0
 11
153.6421288428666
 21
247.6835622503127
 31
0.0
1001
ACME_LAYERS
1000
1
  0
LINE
  5
422
330
1F
100
AcDbEntity
  8
P-0000
  6
Continuous
 62
     7
100
AcDbLine
 10
153.6421288428666
 20
257.1679109518822
 30
0.0
 11
160.0421288428682
 21
257.1679109518822
 31
0.0
1001
ACME_LAYERS
1000
1
  0
LINE
  5
423
330
1F
100
AcDbEntity
  8
P-0000
  6
Continuous
 62
     7
100
AcDbLine
 10
160.0421288428682
 20
256.5679109518819
 30
0.0
 11
153.6421288428666
 21
256.5679109518819
 31
0.0
1001
ACME_LAYERS
1000
1
  0
LINE
  5
424
330
1F
100
AcDbEntity
  8
P-0000
  6
Continuous
 62
     7
100
AcDbLine
 10
152.8421288428674
 20
256.5679109518819
 30
0.0
 11
152.8421288428674
 21
247.6835622503127
 31
0.0
1001
ACME_LAYERS
1000
1
  0
LINE
  5
425
330
1F
100
AcDbEntity
  8
P-0000
  6
Continuous
 62
     3
100
AcDbLine
 10
153.6421288428666
 20
257.1679109518822
 30
0.0
 11
153.6421288428666
 21
247.6835622503127
 31
0.0
1001
ACME_LAYERS
1000
1
  0
LINE
  5
426
330
1F
100
AcDbEntity
  8
P-0000
  6
Continuous
 62
     7
100
AcDbLine
 10
152.8421288428674
 20
247.6835622503127
 30
0.0
 11
150.3421288428674
 21
247.6835622503127
 31
0.0
1001
ACME_LAYERS
1000
1
  0
LINE
  5
427
330
1F
100
AcDbEntity
  8
P-0000
  6
Continuous
 62
     7
100
AcDbLine
 10
153.6421288428666
 20
247.6835622503127
 30
0.0
 11
152.8421288428674
 21
247.6835622503127
 31
0.0
1001
ACME_LAYERS
1000
1
  0
LINE
  5
428
330
1F
100
AcDbEntity
  8
P-0000
  6
Continuous
 62
     7
100
AcDbLine
 10
153.6421288428666
 20
256.5679109518819
 30
0.0
 11
152.8421288428674
 21
256.5679109518819
 31
0.0
1001
ACME_LAYERS
1000
1
  0
LINE
  5
429
330
1F
100
AcDbEntity
  8
P-0000
  6
Continuous
 62
     3
100
AcDbLine
 10
153.6421288428666
 20
257.1679109518822
 30
0.0
 11
153.6421288428666
 21
256.5679109518819
 31
0.0
1001
ACME_LAYERS
1000
1
  0
LINE
  5
42A
330
1F
100
AcDbEntity
  8
P-0000
  6
Continuous
 62
     7
100
AcDbLine
 10
152.8421288428674
 20
256.5679109518819
 30
0.0
 11
153.6421288428666
 21
257.1679109518822
 31
0.0
1001
ACME_LAYERS
1000
1
  0
LINE
  5
42B
330
1F
100
AcDbEntity
  8
P-0000
  6
Continuous
 62
     7
100
AcDbLine
 10
160.8421288428674
 20
256.5679109518819
 30
0.0
 11
160.8421288428674
 21
247.6835622503127
 31
0.0
1001
ACME_LAYERS
1000
1
  0
LINE
  5
42C
330
1F
100
AcDbEntity
  8
P-0000
  6
Continuous
 62
     3
100
AcDbLine
 10
160.0421288428682
 20
257.1679109518822
 30
0.0
 11
160.0421288428682
 21
247.6835622503127
 31
0.0
1001
ACME_LAYERS
1000
1
  0
LINE
  5
42D
330
1F
100
AcDbEntity
  8
P-0000
  6
Continuous
 62
     7
100
AcDbLine
 10
160.8421288428674
 20
247.6835622503127
 30
0.0
 11
160.0421288428682
 21
247.6835622503127
 31
0.0
1001
ACME_LAYERS
1000
1
  0
LINE
  5
42E
330
1F
100
AcDbEntity
  8
P-0000
  6
Continuous
 62
     3
100
AcDbLine
 10
160.0421288428682
 20
257.1679109518822
 30
0.0
 11
160.0421288428682
 21
256.5679109518819
 31
0.0
1001
ACME_LAYERS
1000
1
  0
LINE
  5
42F
330
1F
100
AcDbEntity
  8
P-0000
  6
Continuous
 62
     7
100
AcDbLine
 10
160.8421288428674
 20
256.5679109518819
 30
0.0
 11
160.0421288428682
 21
256.5679109518819
 31
0.0
1001
ACME_LAYERS
1000
1
  0
LINE
  5
430
330
1F
100
AcDbEntity
  8
P-0000
  6
Continuous
 62
     7
100
AcDbLine
 10
160.0421288428682
 20
257.1679109518822
 30
0.0
 11
160.8421288428674
 21
256.5679109518819
 31
0.0
1001
ACME_LAYERS
1000
1
  0
HATCH
  5
431
330
1F
100
AcDbEntity
  8
P-0000
  6
Continuous
 62
     1
100
AcDbHatch
 10
0.0
 20
0.0
 30
0.0
210
0.0
220
0.0
230
1.0
  2
_U
 70
     0
 71
     0
 91
        1
 92
        1
 93
       19
 72
     1
 10
236.6356388848347
 20
231.4058456631951
 11
236.6356388848347
 21
233.452791787527
 72
     1
 10
236.6356388848347
 20
233.452791787527
 11
236.6356388848347
 21
249.4058456631951
 72
     1
 10
236.6356388848347
 20
249.4058456631951
 11
235.9161971371234
 21
253.4860025672673
 72
     2
 10
234.7286716370657
 20
253.1793712001049
 40
1.226474463091404
 50
14.47812741465344
 51
90.0
 73
     1
 72
     2
 10
234.7286716370657
 20
253.1793712001049
 40
1.226474463090212
 50
90.0
 51
147.0917791135895
 73
     1
 72
     1
 10
233.698994911016
 20
253.8457085384284
 11
231.1356388848348
 21
249.4058456631951
 72
     1
 10
231.1356388848348
 20
249.4058456631951
 11
233.236111641205
 21
249.4058456631951
 72
     1
 10
233.236111641205
 20
249.4058456631951
 11
235.1356388848348
 21
249.4058456631951
 72
     1
 10
235.1356388848348
 20
249.4058456631951
 11
235.1356388848348
 21
248.7550670342748
 72
     1
 10
235.1356388848348
 20
248.7550670342748
 11
232.6356388848347
 21
243.1399750995129
 72
     1
 10
232.6356388848347
 20
243.1399750995129
 11
232.6356388848347
 21
239.2769946713193
 72
     1
 10
232.6356388848347
 20
239.2769946713193
 11
232.6356388848347
 21
238.1679109518822
 72
     1
 10
232.6356388848347
 20
238.1679109518822
 11
232.6356388848347
 21
235.9058456631951
 72
     1
 10
232.6356388848347
 20
235.9058456631951
 11
234.1356388848347
 21
235.9058456631951
 72
     1
 10
234.1356388848347
 20
235.9058456631951
 11
234.6356388848347
 21
238.4058456631951
 72
     1
 10
234.6356388848347
 20
238.4058456631951
 11
234.9927817419778
 21
235.9058456631951
 72
     1
 10
234.9927817419778
 20
235.9058456631951
 11
235.2410581293082
 21
234.1679109518822
 72
     1
 10
235.2410581293082
 20
234.1679109518822
 11
235.6356388848348
 21
231.4058456631951
 72
     1
 10
235.6356388848348
 20
231.4058456631951
 11
236.6356388848347
 21
231.4058456631951
 97
        0
 75
     0
 76
     0
 52
45.0
 41
1.5
 77
     0
 78
     1
 53
45.0
 43
609.5335338513672
 44
365.9140016985269
 45
-1.060660171779821
 46
1.060660171779821
 79
     0
 98
        1
 10
609.5335338513672
 20
365.9140016985269
1001
ACME_LAYERS
1000
1
  0
HATCH
  5
432
330
1F
100
AcDbEntity
  8
P-0000
  6
Continuous
 62
     1
100
AcDbHatch
 10
0.0
 20
0.0
 30
0.0
210
0.0
220
0.0
230
1.0
  2
_U
 70
     0
 71
     0
 91
        1
 92
        1
 93
       19
 72
     1
 10
236.6356388848347
 20
231.4058456631951
 11
236.6356388848347
 21
233.452791787527
 72
     1
 10
236.6356388848347
 20
233.452791787527
 11
236.6356388848347
 21
249.4058456631951
 72
     1
 10
236.6356388848347
 20
249.4058456631951
 11
235.9161971371234
 21
253.4860025672673
 72
     2
 10
234.7286716370657
 20
253.1793712001049
 40
1.226474463091404
 50
14.47812741465344
 51
90.0
 73
     1
 72
     2
 10
234.7286716370657
 20
253.1793712001049
 40
1.226474463090212
 50
90.0
 51
147.0917791135895
 73
     1
 72
     1
 10
233.698994911016
 20
253.8457085384284
 11
231.1356388848348
 21
249.4058456631951
 72
     1
 10
231.1356388848348
 20
249.4058456631951
 11
233.236111641205
 21
249.4058456631951
 72
     1
 10
233.236111641205
 20
249.4058456631951
 11
235.1356388848348
 21
249.4058456631951
 72
     1
 10
235.1356388848348
 20
249.4058456631951
 11
235.1356388848348
 21
248.7550670342748
 72
     1
 10
235.1356388848348
 20
248.7550670342748
 11
232.6356388848347
 21
243.1399750995129
 72
     1
 10
232.6356388848347
 20
243.1399750995129
 11
232.6356388848347
 21
239.2769946713193
 72
     1
 10
232.6356388848347
 20
239.2769946713193
 11
232.6356388848347
 21
238.1679109518822
 72
     1
 10
232.6356388848347
 20
238.1679109518822
 11
232.6356388848347
 21
235.9058456631951
 72
     1
 10
232.6356388848347
 20
235.9058456631951
 11
234.1356388848347
 21
235.9058456631951
 72
     1
 10
234.1356388848347
 20
235.9058456631951
 11
234.6356388848347
 21
238.4058456631951
 72
     1
 10
234.6356388848347
 20
238.4058456631951
 11
234.9927817419778
 21
235.9058456631951
 72
     1
 10
234.9927817419778
 20
235.9058456631951
 11
235.2410581293082
 21
234.1679109518822
 72
     1
 10
235.2410581293082
 20
234.1679109518822
 11
235.6356388848348
 21
231.4058456631951
 72
     1
 10
235.6356388848348
 20
231.4058456631951
 11
236.6356388848347
 21
231.4058456631951
 97
        0
 75
     0
 76
     0
 52
135.0
 41
1.5
 77
     0
 78
     1
 53
135.0
 43
609.5335338513672
 44
365.9140016985269
 45
-1.060660171779821
 46
-1.060660171779821
 79
     0
 98
        1
 10
609.5335338513672
 20
365.9140016985269
1001
ACME_LAYERS
1000
1
  0
ARC
  5
433
330
1F
100
AcDbEntity
  8
P-0000
  6
Continuous
 62
     7
100
AcDbCircle
 10
228.6356388848347
 20
238.1679109518822
 30
0.0
 40
4.000000000000014
100
AcDbArc
 50
270.0
 51
0.0
1001
ACME_LAYERS
1000
1
  0
ARC
  5
434
330
1F
100
AcDbEntity
  8
P-0000
  6
Continuous
 62
     7
100
AcDbCircle
 10
228.6356388848347
 20
238.1679109518822
 30
0.0
 40
2.000000000000014
100
AcDbArc
 50
270.0
 51
0.0
1001
ACME_LAYERS
1000
1
  0
ARC
  5
435
330
1F
100
AcDbEntity
  8
P-0000
  6
Continuous
 62
     7
100
AcDbCircle
 10
188.8139256125926
 20
232.1679109518822
 30
0.0
 40
4.0
100
AcDbArc
 50
90.0
 51
119.999999999999
1001
ACME_LAYERS
1000
1
  0
ARC
  5
436
330
1F
100
AcDbEntity
  8
P-0000
  6
Continuous
 62
     7
100
AcDbCircle
 10
179.2440526315152
 20
239.5835622503123
 30
0.0
 40
4.0
100
AcDbArc
 50
270.0
 51
299.9999999999776
1001
ACME_LAYERS
1000
1
  0
ARC
  5
437
330
1F
100
AcDbEntity
  8
P-0000
  6
Continuous
 62
     7
100
AcDbCircle
 10
172.9989830923608
 20
239.5835622503123
 30
0.0
 40
3.999999999999469
100
AcDbArc
 50
224.9999999999796
 51
270.0
1001
ACME_LAYERS
1000
1
  0
LINE
  5
438
330
1F
100
AcDbEntity
  8
P-0000
  6
STRICHPUNKT
 62
     4
100
AcDbLine
 10
273.1356388848344
 20
269.6458535686633
 30
0.0
 11
273.1356388848356
 21
210.3039321650187
 31
0.0
1001
ACME_LAYERS
1000
1
  0
LINE
  5
439
330
1F
100
AcDbEntity
  8
P-0000
  6
Continuous
 62
     3
100
AcDbLine
 10
170.170555967614
 20
236.7551351255675
 30
0.0
 11
171.3421288428674
 21
235.5835622503123
 31
0.0
1001
ACME_LAYERS
1000
1
  0
LINE
  5
43A
330
1F
100
AcDbEntity
  8
P-0000
  6
Continuous
 62
     3
100
AcDbLine
 10
181.2440526315134
 20
236.1194606351741
 30
0.0
 11
180.3158494012389
 21
235.5835622503123
 31
0.0
1001
ACME_LAYERS
1000
1
  0
LINE
  5
43B
330
1F
100
AcDbEntity
  8
P-0000
  6
Continuous
 62
     7
100
AcDbLine
 10
236.6356388848347
 20
233.452791787527
 30
0.0
 11
236.6356388848347
 21
246.405845663195
 31
0.0
1001
ACME_LAYERS
1000
1
  0
LINE
  5
43C
330
1F
100
AcDbEntity
  8
P-0000
  6
Continuous
 62
     7
100
AcDbLine
 10
232.6356388848347
 20
235.9058456631951
 30
0.0
 11
232.6356388848347
 21
238.1679109518822
 31
0.0
1001
ACME_LAYERS
1000
1
  0
LINE
  5
43D
330
1F
100
AcDbEntity
  8
P-0000
  6
Continuous
 62
     7
100
AcDbLine
 10
234.9927817419778
 20
235.9058456631951
 30
0.0
 11
234.6356388848347
 21
238.4058456631951
 31
0.0
1001
ACME_LAYERS
1000
1
  0
LINE
  5
43E
330
1F
100
AcDbEntity
  8
P-0000
  6
Continuous
 62
     7
100
AcDbLine
 10
234.6356388848347
 20
238.4058456631951
 30
0.0
 11
234.1356388848347
 21
235.9058456631951
 31
0.0
1001
ACME_LAYERS
1000
1
  0
LINE
  5
43F
330
1F
100
AcDbEntity
  8
P-0000
  6
Continuous
 62
     7
100
AcDbLine
 10
236.6356388848347
 20
249.4058456631951
 30
0.0
 11
236.6356388848347
 21
233.452791787527
 31
0.0
1001
ACME_LAYERS
1000
1
  0
LINE
  5
440
330
1F
100
AcDbEntity
  8
P-0000
  6
Continuous
 62
     7
100
AcDbLine
 10
232.6356388848347
 20
235.9058456631951
 30
0.0
 11
232.6356388848347
 21
238.1679109518822
 31
0.0
1001
ACME_LAYERS
1000
1
  0
LINE
  5
441
330
1F
100
AcDbEntity
  8
P-0000
  6
Continuous
 62
     7
100
AcDbLine
 10
234.9927817419778
 20
235.9058456631951
 30
0.0
 11
234.6356388848347
 21
238.4058456631951
 31
0.0
1001
ACME_LAYERS
1000
1
  0
LINE
  5
442
330
1F
100
AcDbEntity
  8
P-0000
  6
Continuous
 62
     7
100
AcDbLine
 10
234.6356388848347
 20
238.4058456631951
 30
0.0
 11
234.1356388848347
 21
235.9058456631951
 31
0.0
1001
ACME_LAYERS
1000
1
  0
LINE
  5
443
330
1F
100
AcDbEntity
  8
P-0000
  6
Continuous
 62
     7
100
AcDbLine
 10
200.5921288428602
 20
230.1679109518822
 30
0.0
 11
236.5921288428674
 21
230.1679109518822
 31
0.0
1001
ACME_LAYERS
1000
1
  0
LINE
  5
444
330
1F
100
AcDbEntity
  8
P-0000
  6
Continuous
 62
     7
100
AcDbLine
 10
236.3421288428674
 20
230.1679109518822
 30
0.0
 11
222.5051200988731
 21
230.1679109518822
 31
0.0
1001
ACME_LAYERS
1000
1
  0
LINE
  5
445
330
1F
100
AcDbEntity
  8
P-0000
  6
Continuous
 62
     7
100
AcDbLine
 10
235.2410581293082
 20
234.1679109518822
 30
0.0
 11
228.6356388848347
 21
234.1679109518822
 31
0.0
1001
ACME_LAYERS
1000
1
  0
LINE
  5
446
330
1F
100
AcDbEntity
  8
P-0000
  6
Continuous
 62
     7
100
AcDbLine
 10
236.3421288428674
 20
230.1679109518822
 30
0.0
 11
210.5921288428674
 21
230.1679109518822
 31
0.0
1001
ACME_LAYERS
1000
1
  0
LINE
  5
447
330
1F
100
AcDbEntity
  8
P-0000
  6
Continuous
 62
     7
100
AcDbLine
 10
236.3421288428674
 20
230.1679109518822
 30
0.0
 11
210.5921288428674
 21
230.1679109518822
 31
0.0
1001
ACME_LAYERS
1000
1
  0
LINE
  5
448
330
1F
100
AcDbEntity
  8
P-0000
  6
Continuous
 62
     7
100
AcDbLine
 10
188.8139256125926
 20
234.1679109518822
 30
0.0
 11
228.6356388848347
 21
234.1679109518822
 31
0.0
1001
ACME_LAYERS
1000
1
  0
LINE
  5
449
330
1F
100
AcDbEntity
  8
P-0000
  6
Continuous
 62
     7
100
AcDbLine
 10
180.2780272277289
 20
230.1679109518822
 30
0.0
 11
200.5921288428602
 21
230.1679109518822
 31
0.0
1001
ACME_LAYERS
1000
1
  0
LINE
  5
44A
330
1F
100
AcDbEntity
  8
P-0000
  6
Continuous
 62
     7
100
AcDbLine
 10
179.2440526315152
 20
235.5835622503123
 30
0.0
 11
180.3158494012389
 21
235.5835622503123
 31
0.0
1001
ACME_LAYERS
1000
1
  0
LINE
  5
44B
330
1F
100
AcDbEntity
  8
P-0000
  6
Continuous
 62
     7
100
AcDbLine
 10
171.3421288428674
 20
235.5835622503123
 30
0.0
 11
172.9989830923608
 21
235.5835622503123
 31
0.0
1001
ACME_LAYERS
1000
1
  0
LINE
  5
44C
330
1F
100
AcDbEntity
  8
P-0000
  6
Continuous
 62
     7
100
AcDbLine
 10
179.2440526315152
 20
235.5835622503123
 30
0.0
 11
172.9989830923608
 21
235.5835622503123
 31
0.0
1001
ACME_LAYERS
1000
1
  0
ARC
  5
44D
330
1F
100
AcDbEntity
  8
P-0000
  6
Continuous
 62
     7
100
AcDbCircle
 10
188.8139256125926
 20
232.1679109518822
 30
0.0
 40
2.0
100
AcDbArc
 50
90.0
 51
119.9999999999844
1001
ACME_LAYERS
1000
1
  0
ARC
  5
44E
330
1F
100
AcDbEntity
  8
P-0000
  6
Continuous
 62
     7
100
AcDbCircle
 10
180.2780272277289
 20
234.1679109518822
 30
0.0
 40
4.0
100
AcDbArc
 50
270.0
 51
299.999999999999
1001
ACME_LAYERS
1000
1
  0
LINE
  5
44F
330
1F
100
AcDbEntity
  8
P-0000
  6
Continuous
 62
     7
100
AcDbLine
 10
182.2780272277289
 20
230.7038093367442
 30
0.0
 11
187.8139256125926
 21
233.8999617594523
 31
0.0
1001
ACME_LAYERS
1000
1
  0
LINE
  5
450
330
1F
100
AcDbEntity
  8
P-0000
  6
Continuous
 62
     7
100
AcDbLine
 10
182.1377380019388
 20
232.9322143912281
 30
0.0
 11
186.8139256125926
 21
235.6320125670204
 31
0.0
1001
ACME_LAYERS
1000
1
  0
ARC
  5
451
330
1F
100
AcDbEntity
  8
P-0000
  6
Continuous
 62
     7
100
AcDbCircle
 10
180.2780272277289
 20
234.1679109518822
 30
0.0
 40
2.0
100
AcDbArc
 50
270.0
 51
300.0000000000074
1001
ACME_LAYERS
1000
1
  0
LINE
  5
452
330
1F
100
AcDbEntity
  8
P-0000
  6
Continuous
 62
     7
100
AcDbLine
 10
181.2780272277289
 20
232.4358601443141
 30
0.0
 11
181.3828708776312
 21
232.4963916538067
 31
0.0
1001
ACME_LAYERS
1000
1
  0
LINE
  5
453
330
1F
100
AcDbEntity
  8
P-0000
  6
Continuous
 62
     3
100
AcDbLine
 10
182.1377380019388
 20
232.9322143912281
 30
0.0
 11
181.5144650201894
 21
232.5723675674357
 31
0.0
1001
ACME_LAYERS
1000
1
  0
LINE
  5
454
330
1F
100
AcDbEntity
  8
P-0000
  6
Continuous
 62
     7
100
AcDbLine
 10
181.3828708776312
 20
232.4963916538067
 30
0.0
 11
181.5144650201894
 21
232.5723675674357
 31
0.0
1001
ACME_LAYERS
1000
1
  0
LINE
  5
455
330
1F
100
AcDbEntity
  8
P-0000
  6
Continuous
 62
     3
100
AcDbLine
 10
181.5144650201894
 20
232.5723675674357
 30
0.0
 11
181.3828708776312
 21
232.4963916538067
 31
0.0
1001
ACME_LAYERS
1000
1
  0
LINE
  5
456
330
1F
100
AcDbEntity
  8
P-0000
  6
Continuous
 62
     7
100
AcDbLine
 10
181.5144650201894
 20
232.5723675674357
 30
0.0
 11
182.1377380019388
 21
232.9322143912281
 31
0.0
1001
ACME_LAYERS
1000
1
  0
LINE
  5
457
330
1F
100
AcDbEntity
  8
P-0000
  6
Continuous
 62
     7
100
AcDbLine
 10
222.5051200988731
 20
230.1679109518822
 30
0.0
 11
216.5051200988731
 21
230.1679109518822
 31
0.0
1001
ACME_LAYERS
1000
1
  0
LINE
  5
458
330
1F
100
AcDbEntity
  8
P-0000
  6
Continuous
 62
     7
100
AcDbLine
 10
236.6356388848347
 20
230.1679109518822
 30
0.0
 11
236.3421288428674
 21
230.1679109518822
 31
0.0
1001
ACME_LAYERS
1000
1
  0
LINE
  5
459
330
1F
100
AcDbEntity
  8
P-0000
  6
Continuous
 62
     7
100
AcDbLine
 10
232.6356388848347
 20
235.9058456631951
 30
0.0
 11
234.1356388848347
 21
235.9058456631951
 31
0.0
1001
ACME_LAYERS
1000
1
  0
LINE
  5
45A
330
1F
100
AcDbEntity
  8
P-0000
  6
Continuous
 62
     7
100
AcDbLine
 10
234.1356388848347
 20
235.9058456631951
 30
0.0
 11
232.6356388848347
 21
235.9058456631951
 31
0.0
1001
ACME_LAYERS
1000
1
  0
LINE
  5
45B
330
1F
100
AcDbEntity
  8
P-0000
  6
Continuous
 62
     7
100
AcDbLine
 10
232.6356388848347
 20
235.92059614661
 30
0.0
 11
232.6356388848347
 21
235.9058456631951
 31
0.0
1001
ACME_LAYERS
1000
1
  0
LINE
  5
45C
330
1F
100
AcDbEntity
  8
P-0000
  6
Continuous
 62
     7
100
AcDbLine
 10
235.6356388848348
 20
231.4058456631951
 30
0.0
 11
236.6356388848347
 21
231.4058456631951
 31
0.0
1001
ACME_LAYERS
1000
1
  0
LINE
  5
45D
330
1F
100
AcDbEntity
  8
P-0000
  6
Continuous
 62
     7
100
AcDbLine
 10
235.6356388848348
 20
231.4058456631951
 30
0.0
 11
234.9927817419778
 21
235.9058456631951
 31
0.0
1001
ACME_LAYERS
1000
1
  0
LINE
  5
45E
330
1F
100
AcDbEntity
  8
P-0000
  6
Continuous
 62
     7
100
AcDbLine
 10
234.1356388848347
 20
235.9058456631951
 30
0.0
 11
234.9927817419778
 21
235.9058456631951
 31
0.0
1001
ACME_LAYERS
1000
1
  0
LINE
  5
45F
330
1F
100
AcDbEntity
  8
P-0000
  6
Continuous
 62
     7
100
AcDbLine
 10
236.6356388848347
 20
231.4058456631951
 30
0.0
 11
236.6356388848347
 21
233.452791787527
 31
0.0
1001
ACME_LAYERS
1000
1
  0
LINE
  5
460
330
1F
100
AcDbEntity
  8
P-0000
  6
Continuous
 62
     7
100
AcDbLine
 10
235.2410581293082
 20
234.1679109518822
 30
0.0
 11
234.9927817419778
 21
235.9058456631951
 31
0.0
1001
ACME_LAYERS
1000
1
  0
LINE
  5
461
330
1F
100
AcDbEntity
  8
P-0000
  6
Continuous
 62
     7
100
AcDbLine
 10
235.6356388848348
 20
231.4058456631951
 30
0.0
 11
236.6356388848347
 21
231.4058456631951
 31
0.0
1001
ACME_LAYERS
1000
1
  0
LINE
  5
462
330
1F
100
AcDbEntity
  8
P-0000
  6
Continuous
 62
     7
100
AcDbLine
 10
235.6356388848348
 20
231.4058456631951
 30
0.0
 11
235.2410581293082
 21
234.1679109518822
 31
0.0
1001
ACME_LAYERS
1000
1
  0
LINE
  5
463
330
1F
100
AcDbEntity
  8
P-0000
  6
Continuous
 62
     7
100
AcDbLine
 10
234.1356388848347
 20
235.9058456631951
 30
0.0
 11
234.9927817419778
 21
235.9058456631951
 31
0.0
1001
ACME_LAYERS
1000
1
  0
LINE
  5
464
330
1F
100
AcDbEntity
  8
P-0000
  6
Continuous
 62
     7
100
AcDbLine
 10
188.0921288428674
 20
241.0835622503123
 30
0.0
 11
230.6356388848347
 21
241.0835622503123
 31
0.0
1001
ACME_LAYERS
1000
1
  0
LINE
  5
465
330
1F
100
AcDbEntity
  8
P-0000
  6
Continuous
 62
     7
100
AcDbLine
 10
186.8421288428674
 20
239.351511442744
 30
0.0
 11
230.6356388848347
 21
239.351511442744
 31
0.0
1001
ACME_LAYERS
1000
1
  0
LINE
  5
466
330
1F
100
AcDbEntity
  8
P-0000
  6
Continuous
 62
     7
100
AcDbLine
 10
228.6356388848347
 20
236.1679109518822
 30
0.0
 11
188.8139256125926
 21
236.1679109518822
 31
0.0
1001
ACME_LAYERS
1000
1
  0
ARC
  5
467
330
1F
100
AcDbEntity
  8
P-0000
  6
Continuous
 62
     7
100
AcDbCircle
 10
179.2440526315152
 20
239.5835622503123
 30
0.0
 40
2.0
100
AcDbArc
 50
270.0
 51
299.9999999999626
1001
ACME_LAYERS
1000
1
  0
LINE
  5
468
330
1F
100
AcDbEntity
  8
P-0000
  6
Continuous
 62
     7
100
AcDbLine
 10
165.2878269562882
 20
241.0835622503123
 30
0.0
 11
185.8421288428674
 21
241.0835622503123
 31
0.0
1001
ACME_LAYERS
1000
1
  0
LINE
  5
469
330
1F
100
AcDbEntity
  8
P-0000
  6
Continuous
 62
     3
100
AcDbLine
 10
179.2440526315152
 20
237.5835622503123
 30
0.0
 11
179.7799510163771
 21
237.5835622503123
 31
0.0
1001
ACME_LAYERS
1000
1
  0
LINE
  5
46A
330
1F
100
AcDbEntity
  8
P-0000
  6
Continuous
 62
     7
100
AcDbLine
 10
170.170555967614
 20
239.5835622503123
 30
0.0
 11
183.2440526315134
 21
239.5835622503123
 31
0.0
1001
ACME_LAYERS
1000
1
  0
LINE
  5
46B
330
1F
100
AcDbEntity
  8
P-0000
  6
Continuous
 62
     7
100
AcDbLine
 10
163.3421288428674
 20
247.6835622503127
 30
0.0
 11
164.1010107536752
 21
247.2564186846788
 31
0.0
1001
ACME_LAYERS
1000
1
  0
LINE
  5
46C
330
1F
100
AcDbEntity
  8
P-0000
  6
Continuous
 62
     7
100
AcDbLine
 10
171.3421288428674
 20
238.411989375059
 30
0.0
 11
171.5847695299874
 21
238.1693486879389
 31
0.0
1001
ACME_LAYERS
1000
1
  0
LINE
  5
46D
330
1F
100
AcDbEntity
  8
P-0000
  6
Continuous
 62
     7
100
AcDbLine
 10
164.3476823423319
 20
241.7641188339143
 30
0.0
 11
164.3476823423319
 21
247.1030056667128
 31
0.0
1001
ACME_LAYERS
1000
1
  0
ARC
  5
46E
330
1F
100
AcDbEntity
  8
P-0000
  6
Continuous
 62
     7
100
AcDbCircle
 10
162.4712939674667
 20
244.5061318232632
 30
0.0
 40
3.322569572950451
100
AcDbArc
 50
299.3733793948109
 51
304.3842474680295
1001
ACME_LAYERS
1000
1
  0
LINE
  5
46F
330
1F
100
AcDbEntity
  8
P-0000
  6
Continuous
 62
     7
100
AcDbLine
 10
165.2878269562882
 20
241.0835622503123
 30
0.0
 11
165.2878269562882
 21
241.1835622503127
 31
0.0
1001
ACME_LAYERS
1000
1
  0
LINE
  5
470
330
1F
100
AcDbEntity
  8
P-0000
  6
Continuous
 62
     7
100
AcDbLine
 10
163.3421288428674
 20
241.1835622503127
 30
0.0
 11
164.1010107536752
 21
241.6107058159464
 31
0.0
1001
ACME_LAYERS
1000
1
  0
LINE
  5
471
330
1F
100
AcDbEntity
  8
P-0000
  6
Continuous
 62
     7
100
AcDbLine
 10
165.2878269562882
 20
239.5835622503123
 30
0.0
 11
165.2878269562882
 21
241.0835622503123
 31
0.0
1001
ACME_LAYERS
1000
1
  0
ARC
  5
472
330
1F
100
AcDbEntity
  8
P-0000
  6
Continuous
 62
     7
100
AcDbCircle
 10
168.5137017181208
 20
235.5835622503123
 30
0.0
 40
2.000000000000116
100
AcDbArc
 50
45.0
 51
90.0
1001
ACME_LAYERS
1000
1
  0
ARC
  5
473
330
1F
100
AcDbEntity
  8
P-0000
  6
Continuous
 62
     7
100
AcDbCircle
 10
168.5137017181208
 20
235.5835622503123
 30
0.0
 40
4.000000000000625
100
AcDbArc
 50
45.0
 51
90.0
1001
ACME_LAYERS
1000
1
  0
LINE
  5
474
330
1F
100
AcDbEntity
  8
P-0000
  6
Continuous
 62
     7
100
AcDbLine
 10
169.927915280494
 20
236.9977758126855
 30
0.0
 11
170.170555967614
 21
236.7551351255675
 31
0.0
1001
ACME_LAYERS
1000
1
  0
LINE
  5
475
330
1F
100
AcDbEntity
  8
P-0000
  6
Continuous
 62
     7
100
AcDbLine
 10
168.5137017181208
 20
239.5835622503123
 30
0.0
 11
170.170555967614
 21
239.5835622503123
 31
0.0
1001
ACME_LAYERS
1000
1
  0
LINE
  5
476
330
1F
100
AcDbEntity
  8
P-0000
  6
Continuous
 62
     3
100
AcDbLine
 10
169.3421288428674
 20
237.5835622503123
 30
0.0
 11
169.927915280494
 21
236.9977758126855
 31
0.0
1001
ACME_LAYERS
1000
1
  0
LINE
  5
477
330
1F
100
AcDbEntity
  8
P-0000
  6
Continuous
 62
     3
100
AcDbLine
 10
168.5137017181208
 20
237.5835622503123
 30
0.0
 11
169.3421288428674
 21
237.5835622503123
 31
0.0
1001
ACME_LAYERS
1000
1
  0
LINE
  5
478
330
1F
100
AcDbEntity
  8
P-0000
  6
Continuous
 62
     3
100
AcDbLine
 10
171.3421288428674
 20
238.411989375059
 30
0.0
 11
170.170555967614
 21
239.5835622503123
 31
0.0
1001
ACME_LAYERS
1000
1
  0
ARC
  5
479
330
1F
100
AcDbEntity
  8
P-0000
  6
Continuous
 62
     7
100
AcDbCircle
 10
162.4712939674667
 20
244.360992677362
 30
0.0
 40
3.322569572950695
100
AcDbArc
 50
55.61575253198637
 51
60.62662060518913
1001
ACME_LAYERS
1000
1
  0
LINE
  5
47A
330
1F
100
AcDbEntity
  8
P-0000
  6
Continuous
 62
     7
100
AcDbLine
 10
179.2440526315152
 20
237.5835622503123
 30
0.0
 11
172.9989830923608
 21
237.5835622503123
 31
0.0
1001
ACME_LAYERS
1000
1
  0
ARC
  5
47B
330
1F
100
AcDbEntity
  8
P-0000
  6
Continuous
 62
     7
100
AcDbCircle
 10
172.9989830923608
 20
239.5835622503123
 30
0.0
 40
2.000000000000387
100
AcDbArc
 50
224.999999999998
 51
270.0
1001
ACME_LAYERS
1000
1
  0
LINE
  5
47C
330
1F
100
AcDbEntity
  8
P-0000
  6
Continuous
 62
     3
100
AcDbLine
 10
171.5847695299874
 20
238.1693486879389
 30
0.0
 11
172.170555967614
 21
237.5835622503123
 31
0.0
1001
ACME_LAYERS
1000
1
  0
LINE
  5
47D
330
1F
100
AcDbEntity
  8
P-0000
  6
Continuous
 62
     3
100
AcDbLine
 10
172.170555967614
 20
237.5835622503123
 30
0.0
 11
172.9989830923608
 21
237.5835622503123
 31
0.0
1001
ACME_LAYERS
1000
1
  0
LINE
  5
47E
330
1F
100
AcDbEntity
  8
P-0000
  6
Continuous
 62
     7
100
AcDbLine
 10
185.8421288428674
 20
241.0835622503123
 30
0.0
 11
188.0921288428674
 21
241.0835622503123
 31
0.0
1001
ACME_LAYERS
1000
1
  0
LINE
  5
47F
330
1F
100
AcDbEntity
  8
P-0000
  6
Continuous
 62
     7
100
AcDbLine
 10
185.8421288428674
 20
241.0835622503123
 30
0.0
 11
183.2440526315134
 21
239.5835622503123
 31
0.0
1001
ACME_LAYERS
1000
1
  0
LINE
  5
480
330
1F
100
AcDbEntity
  8
P-0000
  6
Continuous
 62
     7
100
AcDbLine
 10
186.8421288428674
 20
239.351511442744
 30
0.0
 11
181.2440526315134
 21
236.1194606351741
 31
0.0
1001
ACME_LAYERS
1000
1
  0
LINE
  5
481
330
1F
100
AcDbEntity
  8
P-0000
  6
Continuous
 62
     7
100
AcDbLine
 10
183.2440526315134
 20
239.5835622503123
 30
0.0
 11
180.2440526315134
 21
237.851511442744
 31
0.0
1001
ACME_LAYERS
1000
1
  0
LINE
  5
482
330
1F
100
AcDbEntity
  8
P-0000
  6
Continuous
 62
     3
100
AcDbLine
 10
179.7799510163771
 20
237.5835622503123
 30
0.0
 11
180.2440526315134
 21
237.851511442744
 31
0.0
1001
ACME_LAYERS
1000
1
  0
LINE
  5
483
330
1F
100
AcDbEntity
  8
P-0000
  6
Continuous
 62
     7
100
AcDbLine
 10
185.8421288428674
 20
241.0835622503123
 30
0.0
 11
186.8421288428674
 21
239.351511442744
 31
0.0
1001
ACME_LAYERS
1000
1
  0
LINE
  5
484
330
1F
100
AcDbEntity
  8
P-0000
  6
Continuous
 62
     7
100
AcDbLine
 10
190.9249485839085
 20
236.1679109518822
 30
0.0
 11
192.6452542944337
 21
236.1679109518822
 31
0.0
1001
ACME_LAYERS
1000
1
  0
LINE
  5
485
330
1F
100
AcDbEntity
  8
P-0000
  6
Continuous
 62
     7
100
AcDbLine
 10
235.0632025564903
 20
248.5923723770442
 30
0.0
 11
232.6356388848347
 21
243.1399750995129
 31
0.0
1001
ACME_LAYERS
1000
1
  0
LINE
  5
486
330
1F
100
AcDbEntity
  8
P-0000
  6
Continuous
 62
     7
100
AcDbLine
 10
230.6356388848347
 20
243.5650882228541
 30
0.0
 11
233.236111641205
 21
249.4058456631951
 31
0.0
1001
ACME_LAYERS
1000
1
  0
LINE
  5
487
330
1F
100
AcDbEntity
  8
P-0000
  6
Continuous
 62
     7
100
AcDbLine
 10
235.0632025564903
 20
248.5923723770442
 30
0.0
 11
232.6356388848347
 21
243.1399750995129
 31
0.0
1001
ACME_LAYERS
1000
1
  0
LINE
  5
488
330
1F
100
AcDbEntity
  8
P-0000
  6
Continuous
 62
     7
100
AcDbLine
 10
235.1356388848348
 20
248.7550670342748
 30
0.0
 11
232.6356388848347
 21
243.1399750995129
 31
0.0
1001
ACME_LAYERS
1000
1
  0
LINE
  5
489
330
1F
100
AcDbEntity
  8
P-0000
  6
Continuous
 62
     7
100
AcDbLine
 10
232.6356388848347
 20
243.1399750995129
 30
0.0
 11
232.6356388848347
 21
239.2769946713193
 31
0.0
1001
ACME_LAYERS
1000
1
  0
LINE
  5
48A
330
1F
100
AcDbEntity
  8
P-0000
  6
Continuous
 62
     7
100
AcDbLine
 10
232.6356388848347
 20
243.1399750995129
 30
0.0
 11
232.6356388848347
 21
239.2769946713193
 31
0.0
1001
ACME_LAYERS
1000
1
  0
LINE
  5
48B
330
1F
100
AcDbEntity
  8
P-0000
  6
Continuous
 62
     7
100
AcDbLine
 10
230.6356388848347
 20
243.5650882228541
 30
0.0
 11
230.6356388848347
 21
238.2827747363293
 31
0.0
1001
ACME_LAYERS
1000
1
  0
LINE
  5
48C
330
1F
100
AcDbEntity
  8
P-0000
  6
Continuous
 62
     7
100
AcDbLine
 10
232.6356388848347
 20
243.1399750995129
 30
0.0
 11
232.6356388848347
 21
239.2769946713193
 31
0.0
1001
ACME_LAYERS
1000
1
  0
LINE
  5
48D
330
1F
100
AcDbEntity
  8
P-0000
  6
Continuous
 62
     7
100
AcDbLine
 10
232.6356388848347
 20
238.1679109518822
 30
0.0
 11
232.6356388848347
 21
239.2769946713193
 31
0.0
1001
ACME_LAYERS
1000
1
  0
LINE
  5
48E
330
1F
100
AcDbEntity
  8
P-0000
  6
Continuous
 62
     7
100
AcDbLine
 10
232.6356388848347
 20
239.2769946713193
 30
0.0
 11
232.6356388848347
 21
238.1679109518822
 31
0.0
1001
ACME_LAYERS
1000
1
  0
LINE
  5
48F
330
1F
100
AcDbEntity
  8
P-0000
  6
Continuous
 62
     7
100
AcDbLine
 10
230.6356388848347
 20
238.2827747363293
 30
0.0
 11
230.6356388848347
 21
238.1679109518822
 31
0.0
1001
ACME_LAYERS
1000
1
  0
LINE
  5
490
330
1F
100
AcDbEntity
  8
P-0000
  6
Continuous
 62
     7
100
AcDbLine
 10
236.6356388848347
 20
247.1355777792372
 30
0.0
 11
236.6356388848347
 21
242.7766788356962
 31
0.0
1001
ACME_LAYERS
1000
1
  0
LINE
  5
491
330
1F
100
AcDbEntity
  8
P-0000
  6
Continuous
 62
     7
100
AcDbLine
 10
233.698994911016
 20
253.8457085384284
 30
0.0
 11
231.1356388848348
 21
249.4058456631951
 31
0.0
1001
ACME_LAYERS
1000
1
  0
LINE
  5
492
330
1F
100
AcDbEntity
  8
P-0000
  6
Continuous
 62
     7
100
AcDbLine
 10
235.9161971371234
 20
253.4860025672674
 30
0.0
 11
236.6356388848347
 21
249.4058456631951
 31
0.0
1001
ACME_LAYERS
1000
1
  0
LINE
  5
493
330
1F
100
AcDbEntity
  8
P-0000
  6
Continuous
 62
     7
100
AcDbLine
 10
233.698994911016
 20
253.8457085384284
 30
0.0
 11
231.1356388848348
 21
249.4058456631951
 31
0.0
1001
ACME_LAYERS
1000
1
  0
LINE
  5
494
330
1F
100
AcDbEntity
  8
P-0000
  6
Continuous
 62
     7
100
AcDbLine
 10
235.9161971371234
 20
253.4860025672674
 30
0.0
 11
236.6356388848347
 21
249.4058456631951
 31
0.0
1001
ACME_LAYERS
1000
1
  0
LINE
  5
495
330
1F
100
AcDbEntity
  8
P-0000
  6
Continuous
 62
     7
100
AcDbLine
 10
235.1356388848348
 20
249.4058456631951
 30
0.0
 11
231.1356388848348
 21
249.4058456631951
 31
0.0
1001
ACME_LAYERS
1000
1
  0
LINE
  5
496
330
1F
100
AcDbEntity
  8
P-0000
  6
Continuous
 62
     7
100
AcDbLine
 10
233.236111641205
 20
249.4058456631951
 30
0.0
 11
231.1356388848348
 21
249.4058456631951
 31
0.0
1001
ACME_LAYERS
1000
1
  0
LINE
  5
497
330
1F
100
AcDbEntity
  8
P-0000
  6
Continuous
 62
     7
100
AcDbLine
 10
235.1356388848348
 20
248.7550670342748
 30
0.0
 11
235.0632025564903
 21
248.5923723770442
 31
0.0
1001
ACME_LAYERS
1000
1
  0
LINE
  5
498
330
1F
100
AcDbEntity
  8
P-0000
  6
Continuous
 62
     7
100
AcDbLine
 10
235.1356388848348
 20
248.7550670342748
 30
0.0
 11
235.1356388848348
 21
249.4058456631951
 31
0.0
1001
ACME_LAYERS
1000
1
  0
LINE
  5
499
330
1F
100
AcDbEntity
  8
P-0000
  6
Continuous
 62
     7
100
AcDbLine
 10
233.236111641205
 20
249.4058456631951
 30
0.0
 11
235.0632025564903
 21
248.5923723770442
 31
0.0
1001
ACME_LAYERS
1000
1
  0
LINE
  5
49A
330
1F
100
AcDbEntity
  8
P-0000
  6
Continuous
 62
     7
100
AcDbLine
 10
235.1356388848348
 20
249.4058456631951
 30
0.0
 11
233.236111641205
 21
249.4058456631951
 31
0.0
1001
ACME_LAYERS
1000
1
  0
LINE
  5
49B
330
1F
100
AcDbEntity
  8
P-0000
  6
Continuous
 62
     7
100
AcDbLine
 10
235.1356388848348
 20
248.7550670342748
 30
0.0
 11
235.1356388848348
 21
249.4058456631951
 31
0.0
1001
ACME_LAYERS
1000
1
  0
ARC
  5
49C
330
1F
100
AcDbEntity
  8
P-0000
  6
Continuous
 62
     7
100
AcDbCircle
 10
234.7286716370657
 20
253.1793712001049
 30
0.0
 40
1.226474463090212
100
AcDbArc
 50
90.0
 51
147.0917791135915
1001
ACME_LAYERS
1000
1
  0
ARC
  5
49D
330
1F
100
AcDbEntity
  8
P-0000
  6
Continuous
 62
     7
100
AcDbCircle
 10
234.7286716370657
 20
253.1793712001049
 30
0.0
 40
1.226474463091404
100
AcDbArc
 50
14.47812741465113
 51
90.0
1001
ACME_LAYERS
1000
1
  0
ARC
  5
49E
330
1F
100
AcDbEntity
  8
P-0000
  6
Continuous
 62
     7
100
AcDbCircle
 10
234.7286716370657
 20
253.1793712001049
 30
0.0
 40
1.226474463090212
100
AcDbArc
 50
90.0
 51
147.0917791135915
1001
ACME_LAYERS
1000
1
  0
ARC
  5
49F
330
1F
100
AcDbEntity
  8
P-0000
  6
Continuous
 62
     7
100
AcDbCircle
 10
234.7286716370657
 20
253.1793712001049
 30
0.0
 40
1.226474463091404
100
AcDbArc
 50
14.47812741465113
 51
90.0
1001
ACME_LAYERS
1000
1
  0
LINE
  5
4A0
330
1F
100
AcDbEntity
  8
P-0000
  6
Continuous
 62
     7
100
AcDbLine
 10
234.7286716370657
 20
254.4058456631951
 30
0.0
 11
236.6356388848347
 21
254.4058456631951
 31
0.0
1001
ACME_LAYERS
1000
1
  0
LINE
  5
4A1
330
1F
100
AcDbEntity
  8
P-0000
  6
Continuous
 62
     7
100
AcDbLine
 10
234.7286716370657
 20
254.4058456631951
 30
0.0
 11
236.6356388848347
 21
254.4058456631951
 31
0.0
1001
ACME_LAYERS
1000
1
  0
LINE
  5
4A2
330
1F
100
AcDbEntity
  8
P-0000
  6
Continuous
 62
     7
100
AcDbLine
 10
236.6356388848347
 20
257.3736823177892
 30
0.0
 11
236.6356388848347
 21
257.373682317791
 31
0.0
1001
ACME_LAYERS
1000
1
  0
LINE
  5
588
330
1F
100
AcDbEntity
  8
P-0000
  6
Continuous
 62
     7
100
AcDbLine
 10
413.6073521570782
 20
230.1679109518822
 30
0.0
 11
438.1791489268019
 21
230.1679109518822
 31
0.0
1001
ACME_LAYERS
1000
1
  0
LINE
  5
589
330
1F
100
AcDbEntity
  8
P-0000
  6
Continuous
 62
     7
100
AcDbLine
 10
420.0446071667104
 20
234.9562586342613
 30
0.0
 11
432.8136906868934
 21
234.9562586342613
 31
0.0
1001
ACME_LAYERS
1000
1
  0
LINE
  5
58A
330
1F
100
AcDbEntity
  8
P-0000
  6
Continuous
 62
     7
100
AcDbLine
 10
421.5970981192334
 20
236.1679109518822
 30
0.0
 11
430.4470981192318
 21
236.1679109518822
 31
0.0
1001
ACME_LAYERS
1000
1
  0
LINE
  5
58B
330
1F
100
AcDbEntity
  8
P-0000
  6
Continuous
 62
     7
100
AcDbLine
 10
422.1613819738361
 20
231.6679109518822
 30
0.0
 11
430.6969158797677
 21
231.6679109518822
 31
0.0
1001
ACME_LAYERS
1000
1
  0
LINE
  5
58C
330
1F
100
AcDbEntity
  8
P-0000
  6
Continuous
 62
     7
100
AcDbLine
 10
423.5755955362095
 20
233.0821245142556
 30
0.0
 11
429.2827023173942
 21
233.0821245142556
 31
0.0
1001
ACME_LAYERS
1000
1
  0
HATCH
  5
58D
330
1F
100
AcDbEntity
  8
P-0000
  6
Continuous
 62
     1
100
AcDbHatch
 10
0.0
 20
0.0
 30
0.0
210
0.0
220
0.0
230
1.0
  2
_U
 70
     0
 71
     0
 91
        1
 92
        1
 93
       37
 72
     1
 10
313.6356388848347
 20
239.2769946713193
 11
313.6356388848347
 21
243.1399750995129
 72
     1
 10
313.6356388848347
 20
243.1399750995129
 11
311.208075213179
 21
248.5923723770442
 72
     1
 10
311.208075213179
 20
248.5923723770442
 11
313.0351661284642
 21
249.4058456631951
 72
     1
 10
313.0351661284642
 20
249.4058456631951
 11
315.6356388848347
 21
243.5650882228541
 72
     1
 10
315.6356388848347
 20
243.5650882228541
 11
315.6356388848347
 21
238.2827747363293
 72
     1
 10
315.6356388848347
 20
238.2827747363293
 11
315.6356388848347
 21
238.1679109518822
 72
     2
 10
317.6356388848347
 20
238.1679109518822
 40
2.0
 50
180.0
 51
270.0
 73
     1
 72
     1
 10
317.6356388848347
 20
236.1679109518822
 11
357.4573521570767
 21
236.1679109518822
 72
     2
 10
357.4573521570767
 20
232.1679109518822
 40
4.000000000000402
 50
270.0
 51
299.9999999999967
 73
     0
 72
     1
 10
359.4573521570767
 20
235.6320125670204
 11
364.1335397677305
 21
232.9322143912281
 72
     1
 10
364.1335397677306
 20
232.9322143912281
 11
364.7568127494799
 21
232.5723675674357
 72
     1
 10
364.7568127494799
 20
232.5723675674357
 11
364.8884068920381
 21
232.4963916538067
 72
     1
 10
364.8884068920381
 20
232.4963916538067
 11
364.9932505419404
 21
232.4358601443141
 72
     2
 10
365.9932505419404
 20
234.1679109518822
 40
1.999999999999327
 50
239.9999999999888
 51
270.0
 73
     1
 72
     1
 10
365.9932505419404
 20
232.1679109518822
 11
385.4291489268019
 21
232.1679109518822
 72
     1
 10
385.4291489268019
 20
232.1679109518822
 11
386.2291489268013
 21
232.1679109518822
 72
     1
 10
386.2291489268013
 20
232.1679109518822
 11
392.6291489268026
 21
232.1679109518822
 72
     1
 10
392.6291489268026
 20
232.1679109518822
 11
393.4291489268019
 21
232.1679109518822
 72
     1
 10
393.4291489268019
 20
232.1679109518822
 11
413.3291489268015
 21
232.1679109518822
 72
     1
 10
413.3291489268015
 20
232.1679109518822
 11
413.6073521570781
 21
232.1679109518822
 72
     2
 10
413.6073521570782
 20
234.1679109518822
 40
2.0
 50
270.0
 51
300.0000000000111
 73
     1
 72
     1
 10
414.6073521570782
 20
232.4358601443141
 11
418.0446071667104
 21
234.4203602493976
 72
     2
 10
420.0446071667104
 20
230.9562586342613
 40
4.0
 50
239.9999999999895
 51
270.0
 73
     0
 72
     2
 10
420.0446071667104
 20
230.9562586342613
 40
4.000000000000655
 50
270.0
 51
315.0000000000009
 73
     0
 72
     1
 10
422.8730342914571
 20
233.7846857590079
 11
423.5755955362095
 21
233.0821245142556
 72
     1
 10
423.5755955362095
 20
233.0821245142556
 11
422.1613819738361
 21
231.6679109518822
 72
     1
 10
422.1613819738361
 20
231.6679109518822
 11
421.4588207290837
 21
232.3704721966345
 72
     2
 10
420.0446071667104
 20
230.9562586342613
 40
2.000000000000277
 50
44.99999999999597
 51
120.0000000000099
 73
     1
 72
     1
 10
419.0446071667103
 20
232.6883094418294
 11
415.6073521570782
 21
230.7038093367442
 72
     2
 10
413.6073521570782
 20
234.1679109518822
 40
4.0
 50
60.00000000000171
 51
90.0
 73
     0
 72
     1
 10
413.6073521570782
 20
230.1679109518822
 11
365.9932505419405
 21
230.1679109518822
 72
     2
 10
365.9932505419404
 20
234.1679109518822
 40
4.000000000000205
 50
90.0
 51
119.9999999999983
 73
     0
 72
     1
 10
363.9932505419404
 20
230.7038093367442
 11
358.4573521570767
 21
233.8999617594523
 72
     2
 10
357.4573521570767
 20
232.1679109518822
 40
2.000000000001074
 50
60.00000000001778
 51
90.0
 73
     1
 72
     1
 10
357.4573521570767
 20
234.1679109518822
 11
317.6356388848347
 21
234.1679109518822
 72
     2
 10
317.6356388848347
 20
238.1679109518822
 40
4.0
 50
90.0
 51
180.0
 73
     0
 72
     1
 10
313.6356388848347
 20
238.1679109518822
 11
313.6356388848347
 21
239.2769946713193
 97
        0
 75
     0
 76
     0
 52
135.0
 41
1.5
 77
     0
 78
     1
 53
135.0
 43
0.0
 44
0.0
 45
-1.060660171779821
 46
-1.060660171779821
 79
     0
 98
        1
 10
609.5335338513672
 20
365.9140016985269
1001
ACME_LAYERS
1000
1
1001
ACAD
1010
0.0
1020
0.0
1030
0.0
  0
HATCH
  5
58E
330
1F
100
AcDbEntity
  8
P-0000
  6
Continuous
 62
     1
100
AcDbHatch
 10
0.0
 20
0.0
 30
0.0
210
0.0
220
0.0
230
1.0
  2
_U
 70
     0
 71
     0
 91
        1
 92
        1
 93
       18
 72
     1
 10
366.027225138156
 20
237.851511442744
 11
363.0272251381561
 21
239.5835622503123
 72
     1
 10
363.0272251381561
 20
239.5835622503123
 11
360.429148926802
 21
241.0835622503123
 72
     1
 10
360.4291489268019
 20
241.0835622503123
 11
359.429148926802
 21
239.351511442744
 72
     1
 10
359.429148926802
 20
239.351511442744
 11
365.0272251381561
 21
236.1194606351741
 72
     2
 10
367.0272251381541
 20
239.5835622503123
 40
3.999999999999365
 50
240.0000000000258
 51
270.0
 73
     1
 72
     1
 10
367.0272251381541
 20
235.5835622503123
 11
373.2722946773086
 21
235.5835622503123
 72
     2
 10
373.2722946773086
 20
239.5835622503123
 40
4.0
 50
270.0
 51
315.0000000000184
 73
     1
 72
     1
 10
376.1007218020552
 20
236.7551351255675
 11
376.3433624891752
 21
236.9977758126855
 72
     1
 10
376.3433624891752
 20
236.9977758126855
 11
376.9291489268019
 21
237.5835622503123
 72
     1
 10
376.9291489268019
 20
237.5835622503123
 11
377.7575760515487
 21
237.5835622503123
 72
     1
 10
377.7575760515487
 20
237.5835622503123
 11
384.429148926802
 21
237.5835622503123
 72
     1
 10
384.429148926802
 20
237.5835622503123
 11
384.429148926802
 21
239.5835622503123
 72
     1
 10
384.429148926802
 20
239.5835622503123
 11
377.7575760515487
 21
239.5835622503123
 72
     2
 10
377.7575760515487
 20
235.5835622503123
 40
4.0
 50
90.0
 51
134.9999999999998
 73
     1
 72
     1
 10
374.9291489268019
 20
238.411989375059
 11
374.6865082396819
 21
238.1693486879389
 72
     2
 10
373.2722946773086
 20
239.5835622503123
 40
2.0
 50
44.99999999999969
 51
90.0
 73
     0
 72
     1
 10
373.2722946773086
 20
237.5835622503123
 11
367.0272251381542
 21
237.5835622503123
 72
     2
 10
367.0272251381541
 20
239.5835622503123
 40
1.999999999998561
 50
90.0
 51
119.9999999999617
 73
     0
 97
        0
 75
     0
 76
     0
 52
135.0
 41
1.5
 77
     0
 78
     1
 53
135.0
 43
0.0
 44
0.0
 45
-1.060660171779821
 46
-1.060660171779821
 79
     0
 98
        1
 10
609.5335338513672
 20
365.9140016985269
1001
ACME_LAYERS
1000
1
1001
ACAD
1010
0.0
1020
0.0
1030
0.0
  0
HATCH
  5
58F
330
1F
100
AcDbEntity
  8
P-0000
  6
Continuous
 62
     1
100
AcDbHatch
 10
0.0
 20
0.0
 30
0.0
210
0.0
220
0.0
230
1.0
  2
_U
 70
     0
 71
     0
 91
        1
 92
        1
 93
       17
 72
     2
 10
405.5860031762952
 20
239.5835622503123
 40
2.000000000000287
 50
224.9999999999997
 51
270.0
 73
     1
 72
     1
 10
405.5860031762952
 20
237.5835622503123
 11
411.8310727154478
 21
237.5835622503123
 72
     2
 10
411.8310727154478
 20
239.5835622503123
 40
2.0
 50
270.0
 51
300.0000000000083
 73
     1
 72
     1
 10
412.8310727154477
 20
237.851511442744
 11
418.4291489268018
 21
241.0835622503123
 72
     1
 10
418.4291489268018
 20
241.0835622503123
 11
419.4291489268019
 21
239.351511442744
 72
     1
 10
419.4291489268019
 20
239.351511442744
 11
413.8310727154478
 21
236.1194606351741
 72
     2
 10
411.8310727154478
 20
239.5835622503123
 40
4.0
 50
60.00000000000253
 51
90.0
 73
     0
 72
     1
 10
411.8310727154478
 20
235.5835622503123
 11
405.5860031762952
 21
235.5835622503123
 72
     2
 10
405.5860031762952
 20
239.5835622503123
 40
3.999999999999308
 50
90.0
 51
135.0000000000184
 73
     0
 72
     1
 10
402.7575760515486
 20
236.7551351255675
 11
402.5149353644286
 21
236.9977758126855
 72
     1
 10
402.5149353644286
 20
236.9977758126855
 11
401.9291489268019
 21
237.5835622503123
 72
     1
 10
401.9291489268018
 20
237.5835622503123
 11
401.1007218020571
 21
237.5835622503123
 72
     1
 10
401.1007218020571
 20
237.5835622503123
 11
394.4291489268019
 21
237.5835622503123
 72
     1
 10
394.4291489268019
 20
237.5835622503123
 11
394.4291489268019
 21
239.5835622503123
 72
     1
 10
394.4291489268019
 20
239.5835622503123
 11
401.1007218020571
 21
239.5835622503123
 72
     2
 10
401.1007218020571
 20
235.5835622503123
 40
3.999999999999379
 50
270.0
 51
314.9999999999806
 73
     0
 72
     1
 10
403.9291489268019
 20
238.411989375059
 11
404.1717896139219
 21
238.1693486879389
 97
        0
 75
     0
 76
     0
 52
135.0
 41
1.5
 77
     0
 78
     1
 53
135.0
 43
0.0
 44
0.0
 45
-1.060660171779821
 46
-1.060660171779821
 79
     0
 98
        1
 10
609.5335338513672
 20
365.9140016985269
1001
ACME_LAYERS
1000
1
1001
ACAD
1010
0.0
1020
0.0
1030
0.0
  0
HATCH
  5
590
330
1F
100
AcDbEntity
  8
P-0000
  6
Continuous
 62
     1
100
AcDbHatch
 10
0.0
 20
0.0
 30
0.0
210
0.0
220
0.0
230
1.0
  2
_U
 70
     0
 71
     0
 91
        1
 92
        1
 93
       19
 72
     1
 10
309.6356388848347
 20
233.452791787527
 11
309.6356388848347
 21
231.4058456631951
 72
     1
 10
309.6356388848347
 20
231.4058456631951
 11
310.6356388848348
 21
231.4058456631951
 72
     1
 10
310.6356388848348
 20
231.4058456631951
 11
311.0302196403611
 21
234.1679109518822
 72
     1
 10
311.0302196403611
 20
234.1679109518822
 11
311.2784960276915
 21
235.9058456631951
 72
     1
 10
311.2784960276915
 20
235.9058456631951
 11
311.6356388848347
 21
238.4058456631951
 72
     1
 10
311.6356388848347
 20
238.4058456631951
 11
312.1356388848348
 21
235.9058456631951
 72
     1
 10
312.1356388848348
 20
235.9058456631951
 11
313.6356388848347
 21
235.9058456631951
 72
     1
 10
313.6356388848347
 20
235.9058456631951
 11
313.6356388848347
 21
238.1679109518822
 72
     1
 10
313.6356388848347
 20
238.1679109518822
 11
313.6356388848347
 21
239.2769946713193
 72
     1
 10
313.6356388848347
 20
239.2769946713193
 11
313.6356388848347
 21
243.1399750995129
 72
     1
 10
313.6356388848347
 20
243.1399750995129
 11
311.1356388848347
 21
248.7550670342748
 72
     1
 10
311.1356388848347
 20
248.7550670342748
 11
311.1356388848347
 21
249.4058456631951
 72
     1
 10
311.1356388848347
 20
249.4058456631951
 11
313.0351661284642
 21
249.4058456631951
 72
     1
 10
313.0351661284642
 20
249.4058456631951
 11
315.1356388848348
 21
249.4058456631951
 72
     1
 10
315.1356388848348
 20
249.4058456631951
 11
312.5722828586534
 21
253.8457085384284
 72
     2
 10
311.5426061326037
 20
253.1793712001049
 40
1.22647446309021
 50
32.9082208864105
 51
90.0
 73
     1
 72
     2
 10
311.5426061326037
 20
253.1793712001049
 40
1.226474463090212
 50
90.0
 51
165.5218725853472
 73
     1
 72
     1
 10
310.3550806325459
 20
253.4860025672674
 11
309.6356388848347
 21
249.4058456631951
 72
     1
 10
309.6356388848347
 20
249.4058456631951
 11
309.6356388848347
 21
233.452791787527
 97
        0
 75
     0
 76
     0
 52
45.0
 41
1.5
 77
     0
 78
     1
 53
45.0
 43
609.5335338513672
 44
365.9140016985269
 45
-1.060660171779821
 46
1.060660171779821
 79
     0
 98
        1
 10
609.5335338513672
 20
365.9140016985269
1001
ACME_LAYERS
1000
1
  0
HATCH
  5
591
330
1F
100
AcDbEntity
  8
P-0000
  6
Continuous
 62
     1
100
AcDbHatch
 10
0.0
 20
0.0
 30
0.0
210
0.0
220
0.0
230
1.0
  2
_U
 70
     0
 71
     0
 91
        1
 92
        1
 93
       19
 72
     1
 10
309.6356388848347
 20
233.452791787527
 11
309.6356388848347
 21
231.4058456631951
 72
     1
 10
309.6356388848347
 20
231.4058456631951
 11
310.6356388848348
 21
231.4058456631951
 72
     1
 10
310.6356388848348
 20
231.4058456631951
 11
311.0302196403611
 21
234.1679109518822
 72
     1
 10
311.0302196403611
 20
234.1679109518822
 11
311.2784960276915
 21
235.9058456631951
 72
     1
 10
311.2784960276915
 20
235.9058456631951
 11
311.6356388848347
 21
238.4058456631951
 72
     1
 10
311.6356388848347
 20
238.4058456631951
 11
312.1356388848348
 21
235.9058456631951
 72
     1
 10
312.1356388848348
 20
235.9058456631951
 11
313.6356388848347
 21
235.9058456631951
 72
     1
 10
313.6356388848347
 20
235.9058456631951
 11
313.6356388848347
 21
238.1679109518822
 72
     1
 10
313.6356388848347
 20
238.1679109518822
 11
313.6356388848347
 21
239.2769946713193
 72
     1
 10
313.6356388848347
 20
239.2769946713193
 11
313.6356388848347
 21
243.1399750995129
 72
     1
 10
313.6356388848347
 20
243.1399750995129
 11
311.1356388848347
 21
248.7550670342748
 72
     1
 10
311.1356388848347
 20
248.7550670342748
 11
311.1356388848347
 21
249.4058456631951
 72
     1
 10
311.1356388848347
 20
249.4058456631951
 11
313.0351661284642
 21
249.4058456631951
 72
     1
 10
313.0351661284642
 20
249.4058456631951
 11
315.1356388848348
 21
249.4058456631951
 72
     1
 10
315.1356388848348
 20
249.4058456631951
 11
312.5722828586534
 21
253.8457085384284
 72
     2
 10
311.5426061326037
 20
253.1793712001049
 40
1.22647446309021
 50
32.9082208864105
 51
90.0
 73
     1
 72
     2
 10
311.5426061326037
 20
253.1793712001049
 40
1.226474463090212
 50
90.0
 51
165.5218725853472
 73
     1
 72
     1
 10
310.3550806325459
 20
253.4860025672674
 11
309.6356388848347
 21
249.4058456631951
 72
     1
 10
309.6356388848347
 20
249.4058456631951
 11
309.6356388848347
 21
233.452791787527
 97
        0
 75
     0
 76
     0
 52
135.0
 41
1.5
 77
     0
 78
     1
 53
135.0
 43
609.5335338513672
 44
365.9140016985269
 45
-1.060660171779821
 46
-1.060660171779821
 79
     0
 98
        1
 10
609.5335338513672
 20
365.9140016985269
1001
ACME_LAYERS
1000
1
  0
ARC
  5
592
330
1F
100
AcDbEntity
  8
P-0000
  6
Continuous
 62
     7
100
AcDbCircle
 10
421.5970981192334
 20
231.1679109518822
 30
0.0
 40
5.0
100
AcDbArc
 50
90.0
 51
120.0000000000004
1001
ACME_LAYERS
1000
1
  0
ARC
  5
593
330
1F
100
AcDbEntity
  8
P-0000
  6
Continuous
 62
     7
100
AcDbCircle
 10
357.4573521570767
 20
232.1679109518822
 30
0.0
 40
4.000000000000402
100
AcDbArc
 50
60.00000000000097
 51
90.0
1001
ACME_LAYERS
1000
1
  0
ARC
  5
594
330
1F
100
AcDbEntity
  8
P-0000
  6
Continuous
 62
     7
100
AcDbCircle
 10
317.6356388848347
 20
238.1679109518822
 30
0.0
 40
2.0
100
AcDbArc
 50
180.0
 51
270.0
1001
ACME_LAYERS
1000
1
  0
ARC
  5
595
330
1F
100
AcDbEntity
  8
P-0000
  6
Continuous
 62
     7
100
AcDbCircle
 10
317.6356388848347
 20
238.1679109518822
 30
0.0
 40
4.0
100
AcDbArc
 50
180.0
 51
270.0
1001
ACME_LAYERS
1000
1
  0
ARC
  5
596
330
1F
100
AcDbEntity
  8
P-0000
  6
Continuous
 62
     7
100
AcDbCircle
 10
411.8310727154478
 20
239.5835622503123
 30
0.0
 40
4.0
100
AcDbArc
 50
270.0
 51
299.999999999999
1001
ACME_LAYERS
1000
1
  0
ARC
  5
597
330
1F
100
AcDbEntity
  8
P-0000
  6
Continuous
 62
     7
100
AcDbCircle
 10
405.5860031762952
 20
239.5835622503123
 30
0.0
 40
3.999999999999308
100
AcDbArc
 50
224.9999999999819
 51
270.0
1001
ACME_LAYERS
1000
1
  0
ARC
  5
598
330
1F
100
AcDbEntity
  8
P-0000
  6
Continuous
 62
     7
100
AcDbCircle
 10
373.2722946773086
 20
239.5835622503123
 30
0.0
 40
4.0
100
AcDbArc
 50
270.0
 51
315.0000000000184
1001
ACME_LAYERS
1000
1
  0
ARC
  5
599
330
1F
100
AcDbEntity
  8
P-0000
  6
Continuous
 62
     7
100
AcDbCircle
 10
367.0272251381541
 20
239.5835622503123
 30
0.0
 40
3.999999999999365
100
AcDbArc
 50
240.0000000000228
 51
270.0
1001
ACME_LAYERS
1000
1
  0
LINE
  5
59A
330
1F
100
AcDbEntity
  8
P-0000
  6
Continuous
 62
     7
100
AcDbLine
 10
312.1356388848348
 20
235.9058456631951
 30
0.0
 11
311.6356388848347
 21
238.4058456631951
 31
0.0
1001
ACME_LAYERS
1000
1
  0
LINE
  5
59B
330
1F
100
AcDbEntity
  8
P-0000
  6
Continuous
 62
     7
100
AcDbLine
 10
311.6356388848347
 20
238.4058456631951
 30
0.0
 11
311.2784960276915
 21
235.9058456631951
 31
0.0
1001
ACME_LAYERS
1000
1
  0
LINE
  5
59C
330
1F
100
AcDbEntity
  8
P-0000
  6
STRICHPUNKT
 62
     4
100
AcDbLine
 10
389.4291489268019
 20
227.1679109518822
 30
0.0
 11
389.4291489268019
 21
258.6873543682809
 31
0.0
1001
ACME_LAYERS
1000
1
  0
LINE
  5
59D
330
1F
100
AcDbEntity
  8
P-0000
  6
Continuous
 62
     7
100
AcDbLine
 10
313.6356388848347
 20
238.1679109518822
 30
0.0
 11
313.6356388848347
 21
235.9058456631951
 31
0.0
1001
ACME_LAYERS
1000
1
  0
LINE
  5
59E
330
1F
100
AcDbEntity
  8
P-0000
  6
Continuous
 62
     7
100
AcDbLine
 10
309.6356388848347
 20
233.452791787527
 30
0.0
 11
309.6356388848347
 21
249.4058456631951
 31
0.0
1001
ACME_LAYERS
1000
1
  0
LINE
  5
59F
330
1F
100
AcDbEntity
  8
P-0000
  6
Continuous
 62
     7
100
AcDbLine
 10
312.1356388848348
 20
235.9058456631951
 30
0.0
 11
311.6356388848347
 21
238.4058456631951
 31
0.0
1001
ACME_LAYERS
1000
1
  0
LINE
  5
5A0
330
1F
100
AcDbEntity
  8
P-0000
  6
Continuous
 62
     7
100
AcDbLine
 10
311.6356388848347
 20
238.4058456631951
 30
0.0
 11
311.2784960276915
 21
235.9058456631951
 31
0.0
1001
ACME_LAYERS
1000
1
  0
LINE
  5
5A1
330
1F
100
AcDbEntity
  8
P-0000
  6
Continuous
 62
     7
100
AcDbLine
 10
313.6356388848347
 20
238.1679109518822
 30
0.0
 11
313.6356388848347
 21
235.9058456631951
 31
0.0
1001
ACME_LAYERS
1000
1
  0
LINE
  5
5A2
330
1F
100
AcDbEntity
  8
P-0000
  6
Continuous
 62
     7
100
AcDbLine
 10
309.6356388848347
 20
246.405845663195
 30
0.0
 11
309.6356388848347
 21
233.452791787527
 31
0.0
1001
ACME_LAYERS
1000
1
  0
LINE
  5
5A3
330
1F
100
AcDbEntity
  8
P-0000
  6
Continuous
 62
     3
100
AcDbLine
 10
403.9291489268037
 20
235.5835622503123
 30
0.0
 11
402.7575760515486
 21
236.7551351255675
 31
0.0
1001
ACME_LAYERS
1000
1
  0
LINE
  5
5A4
330
1F
100
AcDbEntity
  8
P-0000
  6
Continuous
 62
     3
100
AcDbLine
 10
412.9028694851734
 20
235.5835622503123
 30
0.0
 11
413.8310727154478
 21
236.1194606351741
 31
0.0
1001
ACME_LAYERS
1000
1
  0
LINE
  5
5A5
330
1F
100
AcDbEntity
  8
P-0000
  6
Continuous
 62
     3
100
AcDbLine
 10
365.9554283684304
 20
235.5835622503123
 30
0.0
 11
365.0272251381561
 21
236.1194606351741
 31
0.0
1001
ACME_LAYERS
1000
1
  0
LINE
  5
5A6
330
1F
100
AcDbEntity
  8
P-0000
  6
Continuous
 62
     3
100
AcDbLine
 10
374.9291489268019
 20
235.5835622503123
 30
0.0
 11
376.1007218020552
 21
236.7551351255675
 31
0.0
1001
ACME_LAYERS
1000
1
  0
LINE
  5
5A7
330
1F
100
AcDbEntity
  8
P-0000
  6
Continuous
 62
     7
100
AcDbLine
 10
385.4291489268019
 20
232.1679109518822
 30
0.0
 11
385.4291489268019
 21
239.5835622503123
 31
0.0
1001
ACME_LAYERS
1000
1
  0
LINE
  5
5A8
330
1F
100
AcDbEntity
  8
P-0000
  6
Continuous
 62
     3
100
AcDbLine
 10
386.2291489268013
 20
232.1679109518822
 30
0.0
 11
386.2291489268013
 21
239.5835622503123
 31
0.0
1001
ACME_LAYERS
1000
1
  0
LINE
  5
5A9
330
1F
100
AcDbEntity
  8
P-0000
  6
Continuous
 62
     3
100
AcDbLine
 10
392.6291489268026
 20
232.1679109518822
 30
0.0
 11
392.6291489268026
 21
239.5835622503123
 31
0.0
1001
ACME_LAYERS
1000
1
  0
LINE
  5
5AA
330
1F
100
AcDbEntity
  8
P-0000
  6
Continuous
 62
     7
100
AcDbLine
 10
393.4291489268019
 20
232.1679109518822
 30
0.0
 11
393.4291489268019
 21
239.5835622503123
 31
0.0
1001
ACME_LAYERS
1000
1
  0
LINE
  5
5AB
330
1F
100
AcDbEntity
  8
P-0000
  6
Continuous
 62
     7
100
AcDbLine
 10
359.4573521570767
 20
235.6320125670204
 30
0.0
 11
364.1335397677306
 21
232.9322143912281
 31
0.0
1001
ACME_LAYERS
1000
1
  0
LINE
  5
5AC
330
1F
100
AcDbEntity
  8
P-0000
  6
Continuous
 62
     7
100
AcDbLine
 10
358.4573521570767
 20
233.8999617594523
 30
0.0
 11
363.9932505419404
 21
230.7038093367442
 31
0.0
1001
ACME_LAYERS
1000
1
  0
LINE
  5
5AD
330
1F
100
AcDbEntity
  8
P-0000
  6
Continuous
 62
     7
100
AcDbLine
 10
345.6791489268092
 20
230.1679109518822
 30
0.0
 11
365.9932505419404
 21
230.1679109518822
 31
0.0
1001
ACME_LAYERS
1000
1
  0
LINE
  5
5AE
330
1F
100
AcDbEntity
  8
P-0000
  6
Continuous
 62
     7
100
AcDbLine
 10
335.6791489268019
 20
230.1679109518822
 30
0.0
 11
309.9291489268019
 21
230.1679109518822
 31
0.0
1001
ACME_LAYERS
1000
1
  0
LINE
  5
5AF
330
1F
100
AcDbEntity
  8
P-0000
  6
Continuous
 62
     7
100
AcDbLine
 10
317.6356388848347
 20
234.1679109518822
 30
0.0
 11
357.4573521570767
 21
234.1679109518822
 31
0.0
1001
ACME_LAYERS
1000
1
  0
LINE
  5
5B0
330
1F
100
AcDbEntity
  8
P-0000
  6
Continuous
 62
     7
100
AcDbLine
 10
329.7661576707963
 20
230.1679109518822
 30
0.0
 11
323.7661576707963
 21
230.1679109518822
 31
0.0
1001
ACME_LAYERS
1000
1
  0
LINE
  5
5B1
330
1F
100
AcDbEntity
  8
P-0000
  6
Continuous
 62
     7
100
AcDbLine
 10
309.6791489268019
 20
230.1679109518822
 30
0.0
 11
345.6791489268092
 21
230.1679109518822
 31
0.0
1001
ACME_LAYERS
1000
1
  0
LINE
  5
5B2
330
1F
100
AcDbEntity
  8
P-0000
  6
Continuous
 62
     7
100
AcDbLine
 10
311.0302196403611
 20
234.1679109518822
 30
0.0
 11
310.6356388848348
 21
231.4058456631951
 31
0.0
1001
ACME_LAYERS
1000
1
  0
LINE
  5
5B3
330
1F
100
AcDbEntity
  8
P-0000
  6
Continuous
 62
     7
100
AcDbLine
 10
323.7661576707963
 20
230.1679109518822
 30
0.0
 11
309.9291489268019
 21
230.1679109518822
 31
0.0
1001
ACME_LAYERS
1000
1
  0
LINE
  5
5B4
330
1F
100
AcDbEntity
  8
P-0000
  6
Continuous
 62
     7
100
AcDbLine
 10
311.2784960276915
 20
235.9058456631951
 30
0.0
 11
310.6356388848348
 21
231.4058456631951
 31
0.0
1001
ACME_LAYERS
1000
1
  0
LINE
  5
5B5
330
1F
100
AcDbEntity
  8
P-0000
  6
Continuous
 62
     7
100
AcDbLine
 10
309.9291489268019
 20
230.1679109518822
 30
0.0
 11
309.6356388848347
 21
230.1679109518822
 31
0.0
1001
ACME_LAYERS
1000
1
  0
LINE
  5
5B6
330
1F
100
AcDbEntity
  8
P-0000
  6
Continuous
 62
     7
100
AcDbLine
 10
309.6356388848347
 20
231.4058456631951
 30
0.0
 11
310.6356388848348
 21
231.4058456631951
 31
0.0
1001
ACME_LAYERS
1000
1
  0
LINE
  5
5B7
330
1F
100
AcDbEntity
  8
P-0000
  6
Continuous
 62
     7
100
AcDbLine
 10
309.6356388848347
 20
233.452791787527
 30
0.0
 11
309.6356388848347
 21
231.4058456631951
 31
0.0
1001
ACME_LAYERS
1000
1
  0
LINE
  5
5B8
330
1F
100
AcDbEntity
  8
P-0000
  6
Continuous
 62
     7
100
AcDbLine
 10
309.6356388848347
 20
231.4058456631951
 30
0.0
 11
310.6356388848348
 21
231.4058456631951
 31
0.0
1001
ACME_LAYERS
1000
1
  0
LINE
  5
5B9
330
1F
100
AcDbEntity
  8
P-0000
  6
Continuous
 62
     7
100
AcDbLine
 10
317.6356388848347
 20
234.1679109518822
 30
0.0
 11
311.0302196403611
 21
234.1679109518822
 31
0.0
1001
ACME_LAYERS
1000
1
  0
LINE
  5
5BA
330
1F
100
AcDbEntity
  8
P-0000
  6
Continuous
 62
     7
100
AcDbLine
 10
311.2784960276915
 20
235.9058456631951
 30
0.0
 11
312.1356388848348
 21
235.9058456631951
 31
0.0
1001
ACME_LAYERS
1000
1
  0
LINE
  5
5BB
330
1F
100
AcDbEntity
  8
P-0000
  6
Continuous
 62
     7
100
AcDbLine
 10
313.6356388848347
 20
235.9058456631951
 30
0.0
 11
312.1356388848348
 21
235.9058456631951
 31
0.0
1001
ACME_LAYERS
1000
1
  0
LINE
  5
5BC
330
1F
100
AcDbEntity
  8
P-0000
  6
Continuous
 62
     7
100
AcDbLine
 10
311.2784960276915
 20
235.9058456631951
 30
0.0
 11
311.0302196403611
 21
234.1679109518822
 31
0.0
1001
ACME_LAYERS
1000
1
  0
LINE
  5
5BD
330
1F
100
AcDbEntity
  8
P-0000
  6
Continuous
 62
     7
100
AcDbLine
 10
311.2784960276915
 20
235.9058456631951
 30
0.0
 11
312.1356388848348
 21
235.9058456631951
 31
0.0
1001
ACME_LAYERS
1000
1
  0
LINE
  5
5BE
330
1F
100
AcDbEntity
  8
P-0000
  6
Continuous
 62
     7
100
AcDbLine
 10
312.1356388848348
 20
235.9058456631951
 30
0.0
 11
313.6356388848347
 21
235.9058456631951
 31
0.0
1001
ACME_LAYERS
1000
1
  0
LINE
  5
5BF
330
1F
100
AcDbEntity
  8
P-0000
  6
Continuous
 62
     7
100
AcDbLine
 10
313.6356388848347
 20
235.9058456631951
 30
0.0
 11
313.6356388848347
 21
235.92059614661
 31
0.0
1001
ACME_LAYERS
1000
1
  0
ARC
  5
5C0
330
1F
100
AcDbEntity
  8
P-0000
  6
Continuous
 62
     7
100
AcDbCircle
 10
357.4573521570767
 20
232.1679109518822
 30
0.0
 40
2.000000000001074
100
AcDbArc
 50
60.00000000001592
 51
90.0
1001
ACME_LAYERS
1000
1
  0
LINE
  5
5C3
330
1F
100
AcDbEntity
  8
P-0000
  6
Continuous
 62
     7
100
AcDbLine
 10
365.9932505419404
 20
230.1679109518822
 30
0.0
 11
413.6073521570782
 21
230.1679109518822
 31
0.0
1001
ACME_LAYERS
1000
1
  0
LINE
  5
5C4
330
1F
100
AcDbEntity
  8
P-0000
  6
Continuous
 62
     7
100
AcDbLine
 10
392.6291489268026
 20
232.1679109518822
 30
0.0
 11
393.4291489268019
 21
232.1679109518822
 31
0.0
1001
ACME_LAYERS
1000
1
  0
LINE
  5
5C5
330
1F
100
AcDbEntity
  8
P-0000
  6
Continuous
 62
     7
100
AcDbLine
 10
365.9932505419404
 20
232.1679109518822
 30
0.0
 11
385.4291489268019
 21
232.1679109518822
 31
0.0
1001
ACME_LAYERS
1000
1
  0
LINE
  5
5C6
330
1F
100
AcDbEntity
  8
P-0000
  6
Continuous
 62
     7
100
AcDbLine
 10
374.9291489268019
 20
235.5835622503123
 30
0.0
 11
385.4291489268019
 21
235.5835622503123
 31
0.0
1001
ACME_LAYERS
1000
1
  0
LINE
  5
5C7
330
1F
100
AcDbEntity
  8
P-0000
  6
Continuous
 62
     7
100
AcDbLine
 10
373.2722946773086
 20
235.5835622503123
 30
0.0
 11
367.0272251381541
 21
235.5835622503123
 31
0.0
1001
ACME_LAYERS
1000
1
  0
ARC
  5
5C8
330
1F
100
AcDbEntity
  8
P-0000
  6
Continuous
 62
     7
100
AcDbCircle
 10
365.9932505419404
 20
234.1679109518822
 30
0.0
 40
4.000000000000205
100
AcDbArc
 50
240.0000000000009
 51
270.0
1001
ACME_LAYERS
1000
1
  0
LINE
  5
5C9
330
1F
100
AcDbEntity
  8
P-0000
  6
Continuous
 62
     7
100
AcDbLine
 10
364.1335397677306
 20
232.9322143912281
 30
0.0
 11
364.7568127494799
 21
232.5723675674357
 31
0.0
1001
ACME_LAYERS
1000
1
  0
LINE
  5
5CA
330
1F
100
AcDbEntity
  8
P-0000
  6
Continuous
 62
     3
100
AcDbLine
 10
364.7568127494799
 20
232.5723675674357
 30
0.0
 11
364.1335397677306
 21
232.9322143912281
 31
0.0
1001
ACME_LAYERS
1000
1
  0
ARC
  5
5CB
330
1F
100
AcDbEntity
  8
P-0000
  6
Continuous
 62
     7
100
AcDbCircle
 10
365.9932505419404
 20
234.1679109518822
 30
0.0
 40
1.999999999999327
100
AcDbArc
 50
239.9999999999923
 51
270.0
1001
ACME_LAYERS
1000
1
  0
LINE
  5
5CC
330
1F
100
AcDbEntity
  8
P-0000
  6
Continuous
 62
     3
100
AcDbLine
 10
364.8884068920381
 20
232.4963916538067
 30
0.0
 11
364.7568127494799
 21
232.5723675674357
 31
0.0
1001
ACME_LAYERS
1000
1
  0
LINE
  5
5CD
330
1F
100
AcDbEntity
  8
P-0000
  6
Continuous
 62
     7
100
AcDbLine
 10
364.7568127494799
 20
232.5723675674357
 30
0.0
 11
364.8884068920381
 21
232.4963916538067
 31
0.0
1001
ACME_LAYERS
1000
1
  0
LINE
  5
5CE
330
1F
100
AcDbEntity
  8
P-0000
  6
Continuous
 62
     7
100
AcDbLine
 10
364.8884068920381
 20
232.4963916538067
 30
0.0
 11
364.9932505419404
 21
232.4358601443141
 31
0.0
1001
ACME_LAYERS
1000
1
  0
LINE
  5
5CF
330
1F
100
AcDbEntity
  8
P-0000
  6
Continuous
 62
     7
100
AcDbLine
 10
365.9554283684304
 20
235.5835622503123
 30
0.0
 11
367.0272251381541
 21
235.5835622503123
 31
0.0
1001
ACME_LAYERS
1000
1
  0
LINE
  5
5D0
330
1F
100
AcDbEntity
  8
P-0000
  6
Continuous
 62
     7
100
AcDbLine
 10
373.2722946773086
 20
235.5835622503123
 30
0.0
 11
374.9291489268019
 21
235.5835622503123
 31
0.0
1001
ACME_LAYERS
1000
1
  0
LINE
  5
5D1
330
1F
100
AcDbEntity
  8
P-0000
  6
Continuous
 62
     7
100
AcDbLine
 10
386.2291489268013
 20
232.1679109518822
 30
0.0
 11
392.6291489268026
 21
232.1679109518822
 31
0.0
1001
ACME_LAYERS
1000
1
  0
LINE
  5
5D2
330
1F
100
AcDbEntity
  8
P-0000
  6
Continuous
 62
     7
100
AcDbLine
 10
385.4291489268019
 20
232.1679109518822
 30
0.0
 11
386.2291489268013
 21
232.1679109518822
 31
0.0
1001
ACME_LAYERS
1000
1
  0
LINE
  5
5D3
330
1F
100
AcDbEntity
  8
P-0000
  6
Continuous
 62
     7
100
AcDbLine
 10
393.4291489268019
 20
232.1679109518822
 30
0.0
 11
413.3291489268015
 21
232.1679109518822
 31
0.0
1001
ACME_LAYERS
1000
1
  0
LINE
  5
5D4
330
1F
100
AcDbEntity
  8
P-0000
  6
Continuous
 62
     1
100
AcDbLine
 10
405.5860031762952
 20
235.5835622503123
 30
0.0
 11
411.8310727154478
 21
235.5835622503123
 31
0.0
1001
ACME_LAYERS
1000
1
  0
LINE
  5
5D5
330
1F
100
AcDbEntity
  8
P-0000
  6
Continuous
 62
     7
100
AcDbLine
 10
393.4291489268019
 20
235.5835622503123
 30
0.0
 11
403.9291489268037
 21
235.5835622503123
 31
0.0
1001
ACME_LAYERS
1000
1
  0
LINE
  5
5D6
330
1F
100
AcDbEntity
  8
P-0000
  6
Continuous
 62
     7
100
AcDbLine
 10
403.9291489268037
 20
235.5835622503123
 30
0.0
 11
405.5860031762952
 21
235.5835622503123
 31
0.0
1001
ACME_LAYERS
1000
1
  0
LINE
  5
5D7
330
1F
100
AcDbEntity
  8
P-0000
  6
Continuous
 62
     7
100
AcDbLine
 10
415.6073521570782
 20
230.7038093367442
 30
0.0
 11
419.0446071667103
 21
232.6883094418294
 31
0.0
1001
ACME_LAYERS
1000
1
  0
LINE
  5
5D8
330
1F
100
AcDbEntity
  8
P-0000
  6
Continuous
 62
     7
100
AcDbLine
 10
419.0970981192334
 20
235.4980379708045
 30
0.0
 11
413.3291489268015
 21
232.1679109518822
 31
0.0
1001
ACME_LAYERS
1000
1
  0
LINE
  5
5D9
330
1F
100
AcDbEntity
  8
P-0000
  6
Continuous
 62
     7
100
AcDbLine
 10
414.6073521570782
 20
232.4358601443141
 30
0.0
 11
418.0446071667104
 21
234.4203602493976
 31
0.0
1001
ACME_LAYERS
1000
1
  0
ARC
  5
5DA
330
1F
100
AcDbEntity
  8
P-0000
  6
Continuous
 62
     7
100
AcDbCircle
 10
413.6073521570782
 20
234.1679109518822
 30
0.0
 40
4.0
100
AcDbArc
 50
270.0
 51
299.999999999999
1001
ACME_LAYERS
1000
1
  0
LINE
  5
5DB
330
1F
100
AcDbEntity
  8
P-0000
  6
Continuous
 62
     7
100
AcDbLine
 10
413.6073521570782
 20
232.1679109518822
 30
0.0
 11
413.3291489268015
 21
232.1679109518822
 31
0.0
1001
ACME_LAYERS
1000
1
  0
LINE
  5
5DC
330
1F
100
AcDbEntity
  8
P-0000
  6
Continuous
 62
     3
100
AcDbLine
 10
411.8310727154478
 20
235.5835622503123
 30
0.0
 11
412.9028694851734
 21
235.5835622503123
 31
0.0
1001
ACME_LAYERS
1000
1
  0
ARC
  5
5DD
330
1F
100
AcDbEntity
  8
P-0000
  6
Continuous
 62
     7
100
AcDbCircle
 10
413.6073521570782
 20
234.1679109518822
 30
0.0
 40
2.0
100
AcDbArc
 50
270.0
 51
300.0000000000074
1001
ACME_LAYERS
1000
1
  0
ARC
  5
5DE
330
1F
100
AcDbEntity
  8
P-0000
  6
Continuous
 62
     7
100
AcDbCircle
 10
420.0446071667104
 20
230.9562586342613
 30
0.0
 40
4.000000000000655
100
AcDbArc
 50
45.0
 51
90.0
1001
ACME_LAYERS
1000
1
  0
LINE
  5
5DF
330
1F
100
AcDbEntity
  8
P-0000
  6
Continuous
 62
     7
100
AcDbLine
 10
421.4588207290837
 20
232.3704721966345
 30
0.0
 11
422.1613819738361
 21
231.6679109518822
 31
0.0
1001
ACME_LAYERS
1000
1
  0
ARC
  5
5E0
330
1F
100
AcDbEntity
  8
P-0000
  6
Continuous
 62
     7
100
AcDbCircle
 10
420.0446071667104
 20
230.9562586342613
 30
0.0
 40
4.0
100
AcDbArc
 50
90.0
 51
120.0000000000077
1001
ACME_LAYERS
1000
1
  0
ARC
  5
5E1
330
1F
100
AcDbEntity
  8
P-0000
  6
Continuous
 62
     7
100
AcDbCircle
 10
420.0446071667104
 20
230.9562586342613
 30
0.0
 40
2.000000000000277
100
AcDbArc
 50
44.99999999999769
 51
120.0000000000077
1001
ACME_LAYERS
1000
1
  0
ARC
  5
5E2
330
1F
100
AcDbEntity
  8
P-0000
  6
Continuous
 62
     7
100
AcDbCircle
 10
420.0446071667104
 20
230.9562586342613
 30
0.0
 40
2.000000000000277
100
AcDbArc
 50
44.99999999999769
 51
120.0000000000077
1001
ACME_LAYERS
1000
1
  0
LINE
  5
5E3
330
1F
100
AcDbEntity
  8
P-0000
  6
Continuous
 62
     7
100
AcDbLine
 10
423.5755955362095
 20
233.0821245142556
 30
0.0
 11
422.1613819738361
 21
231.6679109518822
 31
0.0
1001
ACME_LAYERS
1000
1
  0
LINE
  5
5E4
330
1F
100
AcDbEntity
  8
P-0000
  6
Continuous
 62
     7
100
AcDbLine
 10
422.8730342914571
 20
233.7846857590079
 30
0.0
 11
423.5755955362095
 21
233.0821245142556
 31
0.0
1001
ACME_LAYERS
1000
1
  0
LINE
  5
5E6
330
1F
100
AcDbEntity
  8
P-0000
  6
Continuous
 62
     7
100
AcDbLine
 10
358.1791489268019
 20
241.0835622503123
 30
0.0
 11
360.4291489268019
 21
241.0835622503123
 31
0.0
1001
ACME_LAYERS
1000
1
  0
LINE
  5
5E7
330
1F
100
AcDbEntity
  8
P-0000
  6
Continuous
 62
     7
100
AcDbLine
 10
359.429148926802
 20
239.351511442744
 30
0.0
 11
360.4291489268019
 21
241.0835622503123
 31
0.0
1001
ACME_LAYERS
1000
1
  0
LINE
  5
5E8
330
1F
100
AcDbEntity
  8
P-0000
  6
Continuous
 62
     7
100
AcDbLine
 10
365.0272251381561
 20
236.1194606351741
 30
0.0
 11
359.429148926802
 21
239.351511442744
 31
0.0
1001
ACME_LAYERS
1000
1
  0
LINE
  5
5E9
330
1F
100
AcDbEntity
  8
P-0000
  6
Continuous
 62
     7
100
AcDbLine
 10
357.4573521570767
 20
236.1679109518822
 30
0.0
 11
317.6356388848347
 21
236.1679109518822
 31
0.0
1001
ACME_LAYERS
1000
1
  0
LINE
  5
5EA
330
1F
100
AcDbEntity
  8
P-0000
  6
Continuous
 62
     7
100
AcDbLine
 10
315.6356388848347
 20
239.351511442744
 30
0.0
 11
359.429148926802
 21
239.351511442744
 31
0.0
1001
ACME_LAYERS
1000
1
  0
LINE
  5
5EB
330
1F
100
AcDbEntity
  8
P-0000
  6
Continuous
 62
     7
100
AcDbLine
 10
315.6356388848347
 20
241.0835622503123
 30
0.0
 11
358.1791489268019
 21
241.0835622503123
 31
0.0
1001
ACME_LAYERS
1000
1
  0
ARC
  5
5EC
330
1F
100
AcDbEntity
  8
P-0000
  6
Continuous
 62
     7
100
AcDbCircle
 10
311.5426061326037
 20
253.1793712001049
 30
0.0
 40
1.226474463090212
100
AcDbArc
 50
90.0
 51
165.5218725853488
1001
ACME_LAYERS
1000
1
  0
ARC
  5
5ED
330
1F
100
AcDbEntity
  8
P-0000
  6
Continuous
 62
     7
100
AcDbCircle
 10
311.5426061326037
 20
253.1793712001049
 30
0.0
 40
1.226474463090212
100
AcDbArc
 50
90.0
 51
165.5218725853488
1001
ACME_LAYERS
1000
1
  0
LINE
  5
5EE
330
1F
100
AcDbEntity
  8
P-0000
  6
Continuous
 62
     7
100
AcDbLine
 10
309.6356388848347
 20
254.4058456631951
 30
0.0
 11
311.5426061326037
 21
254.4058456631951
 31
0.0
1001
ACME_LAYERS
1000
1
  0
LINE
  5
5EF
330
1F
100
AcDbEntity
  8
P-0000
  6
Continuous
 62
     7
100
AcDbLine
 10
309.6356388848347
 20
254.4058456631951
 30
0.0
 11
311.5426061326037
 21
254.4058456631951
 31
0.0
1001
ACME_LAYERS
1000
1
  0
LINE
  5
5F0
330
1F
100
AcDbEntity
  8
P-0000
  6
Continuous
 62
     7
100
AcDbLine
 10
309.6356388848347
 20
242.7766788356962
 30
0.0
 11
309.6356388848347
 21
247.1355777792372
 31
0.0
1001
ACME_LAYERS
1000
1
  0
LINE
  5
5F1
330
1F
100
AcDbEntity
  8
P-0000
  6
Continuous
 62
     7
100
AcDbLine
 10
309.6356388848347
 20
249.4058456631951
 30
0.0
 11
310.3550806325459
 21
253.4860025672674
 31
0.0
1001
ACME_LAYERS
1000
1
  0
LINE
  5
5F2
330
1F
100
AcDbEntity
  8
P-0000
  6
Continuous
 62
     7
100
AcDbLine
 10
309.6356388848347
 20
249.4058456631951
 30
0.0
 11
310.3550806325459
 21
253.4860025672674
 31
0.0
1001
ACME_LAYERS
1000
1
  0
LINE
  5
5F3
330
1F
100
AcDbEntity
  8
P-0000
  6
Continuous
 62
     7
100
AcDbLine
 10
309.6356388848347
 20
257.373682317791
 30
0.0
 11
309.6356388848347
 21
257.3736823177892
 31
0.0
1001
ACME_LAYERS
1000
1
  0
LINE
  5
5F5
330
1F
100
AcDbEntity
  8
P-0000
  6
Continuous
 62
     7
100
AcDbLine
 10
313.6356388848347
 20
243.1399750995129
 30
0.0
 11
311.1356388848347
 21
248.7550670342748
 31
0.0
1001
ACME_LAYERS
1000
1
  0
LINE
  5
5F6
330
1F
100
AcDbEntity
  8
P-0000
  6
Continuous
 62
     7
100
AcDbLine
 10
313.6356388848347
 20
243.1399750995129
 30
0.0
 11
311.208075213179
 21
248.5923723770442
 31
0.0
1001
ACME_LAYERS
1000
1
  0
LINE
  5
5F7
330
1F
100
AcDbEntity
  8
P-0000
  6
Continuous
 62
     7
100
AcDbLine
 10
313.0351661284642
 20
249.4058456631951
 30
0.0
 11
315.6356388848347
 21
243.5650882228541
 31
0.0
1001
ACME_LAYERS
1000
1
  0
LINE
  5
5F8
330
1F
100
AcDbEntity
  8
P-0000
  6
Continuous
 62
     7
100
AcDbLine
 10
313.6356388848347
 20
243.1399750995129
 30
0.0
 11
311.208075213179
 21
248.5923723770442
 31
0.0
1001
ACME_LAYERS
1000
1
  0
LINE
  5
5F9
330
1F
100
AcDbEntity
  8
P-0000
  6
Continuous
 62
     7
100
AcDbLine
 10
313.6356388848347
 20
239.2769946713193
 30
0.0
 11
313.6356388848347
 21
243.1399750995129
 31
0.0
1001
ACME_LAYERS
1000
1
  0
LINE
  5
5FA
330
1F
100
AcDbEntity
  8
P-0000
  6
Continuous
 62
     7
100
AcDbLine
 10
315.6356388848347
 20
238.2827747363293
 30
0.0
 11
315.6356388848347
 21
243.5650882228541
 31
0.0
1001
ACME_LAYERS
1000
1
  0
LINE
  5
5FB
330
1F
100
AcDbEntity
  8
P-0000
  6
Continuous
 62
     7
100
AcDbLine
 10
313.6356388848347
 20
239.2769946713193
 30
0.0
 11
313.6356388848347
 21
243.1399750995129
 31
0.0
1001
ACME_LAYERS
1000
1
  0
LINE
  5
5FC
330
1F
100
AcDbEntity
  8
P-0000
  6
Continuous
 62
     7
100
AcDbLine
 10
313.6356388848347
 20
239.2769946713193
 30
0.0
 11
313.6356388848347
 21
243.1399750995129
 31
0.0
1001
ACME_LAYERS
1000
1
  0
LINE
  5
5FD
330
1F
100
AcDbEntity
  8
P-0000
  6
Continuous
 62
     7
100
AcDbLine
 10
313.6356388848347
 20
238.1679109518822
 30
0.0
 11
313.6356388848347
 21
239.2769946713193
 31
0.0
1001
ACME_LAYERS
1000
1
  0
LINE
  5
5FE
330
1F
100
AcDbEntity
  8
P-0000
  6
Continuous
 62
     7
100
AcDbLine
 10
313.6356388848347
 20
239.2769946713193
 30
0.0
 11
313.6356388848347
 21
238.1679109518822
 31
0.0
1001
ACME_LAYERS
1000
1
  0
LINE
  5
5FF
330
1F
100
AcDbEntity
  8
P-0000
  6
Continuous
 62
     7
100
AcDbLine
 10
315.6356388848347
 20
238.1679109518822
 30
0.0
 11
315.6356388848347
 21
238.2827747363293
 31
0.0
1001
ACME_LAYERS
1000
1
  0
LINE
  5
600
330
1F
100
AcDbEntity
  8
P-0000
  6
Continuous
 62
     7
100
AcDbLine
 10
315.1356388848348
 20
249.4058456631951
 30
0.0
 11
312.5722828586534
 21
253.8457085384284
 31
0.0
1001
ACME_LAYERS
1000
1
  0
LINE
  5
601
330
1F
100
AcDbEntity
  8
P-0000
  6
Continuous
 62
     7
100
AcDbLine
 10
315.1356388848348
 20
249.4058456631951
 30
0.0
 11
312.5722828586534
 21
253.8457085384284
 31
0.0
1001
ACME_LAYERS
1000
1
  0
LINE
  5
602
330
1F
100
AcDbEntity
  8
P-0000
  6
Continuous
 62
     7
100
AcDbLine
 10
315.1356388848348
 20
249.4058456631951
 30
0.0
 11
313.0351661284642
 21
249.4058456631951
 31
0.0
1001
ACME_LAYERS
1000
1
  0
LINE
  5
603
330
1F
100
AcDbEntity
  8
P-0000
  6
Continuous
 62
     7
100
AcDbLine
 10
315.1356388848348
 20
249.4058456631951
 30
0.0
 11
311.1356388848347
 21
249.4058456631951
 31
0.0
1001
ACME_LAYERS
1000
1
  0
LINE
  5
604
330
1F
100
AcDbEntity
  8
P-0000
  6
Continuous
 62
     7
100
AcDbLine
 10
311.1356388848347
 20
249.4058456631951
 30
0.0
 11
311.1356388848347
 21
248.7550670342748
 31
0.0
1001
ACME_LAYERS
1000
1
  0
LINE
  5
605
330
1F
100
AcDbEntity
  8
P-0000
  6
Continuous
 62
     7
100
AcDbLine
 10
313.0351661284642
 20
249.4058456631951
 30
0.0
 11
311.1356388848347
 21
249.4058456631951
 31
0.0
1001
ACME_LAYERS
1000
1
  0
LINE
  5
606
330
1F
100
AcDbEntity
  8
P-0000
  6
Continuous
 62
     7
100
AcDbLine
 10
311.208075213179
 20
248.5923723770442
 30
0.0
 11
313.0351661284642
 21
249.4058456631951
 31
0.0
1001
ACME_LAYERS
1000
1
  0
LINE
  5
607
330
1F
100
AcDbEntity
  8
P-0000
  6
Continuous
 62
     7
100
AcDbLine
 10
311.1356388848347
 20
249.4058456631951
 30
0.0
 11
311.1356388848347
 21
248.7550670342748
 31
0.0
1001
ACME_LAYERS
1000
1
  0
LINE
  5
608
330
1F
100
AcDbEntity
  8
P-0000
  6
Continuous
 62
     7
100
AcDbLine
 10
311.208075213179
 20
248.5923723770442
 30
0.0
 11
311.1356388848347
 21
248.7550670342748
 31
0.0
1001
ACME_LAYERS
1000
1
  0
ARC
  5
609
330
1F
100
AcDbEntity
  8
P-0000
  6
Continuous
 62
     7
100
AcDbCircle
 10
311.5426061326037
 20
253.1793712001049
 30
0.0
 40
1.22647446309021
100
AcDbArc
 50
32.90822088640868
 51
90.0
1001
ACME_LAYERS
1000
1
  0
ARC
  5
60A
330
1F
100
AcDbEntity
  8
P-0000
  6
Continuous
 62
     7
100
AcDbCircle
 10
311.5426061326037
 20
253.1793712001049
 30
0.0
 40
1.22647446309021
100
AcDbArc
 50
32.90822088640868
 51
90.0
1001
ACME_LAYERS
1000
1
  0
LINE
  5
60B
330
1F
100
AcDbEntity
  8
P-0000
  6
Continuous
 62
     7
100
AcDbLine
 10
353.6260234752356
 20
236.1679109518822
 30
0.0
 11
355.346329185761
 21
236.1679109518822
 31
0.0
1001
ACME_LAYERS
1000
1
  0
ARC
  5
60C
330
1F
100
AcDbEntity
  8
P-0000
  6
Continuous
 62
     7
100
AcDbCircle
 10
389.4291489268019
 20
253.6030056667128
 30
0.0
 40
12.41944341639914
100
AcDbArc
 50
252.4120462260087
 51
287.5879537739917
1001
ACME_LAYERS
1000
1
  0
ARC
  5
60D
330
1F
100
AcDbEntity
  8
P-0000
  6
Continuous
 62
     7
100
AcDbCircle
 10
389.4291489268019
 20
235.2641188339126
 30
0.0
 40
12.41944341640078
100
AcDbArc
 50
72.41204622600982
 51
107.5879537739905
1001
ACME_LAYERS
1000
1
  0
LINE
  5
60E
330
1F
100
AcDbEntity
  8
P-0000
  6
Continuous
 62
     7
100
AcDbLine
 10
392.6291489268026
 20
257.1679109518822
 30
0.0
 11
393.4291489268019
 21
256.5679109518819
 31
0.0
1001
ACME_LAYERS
1000
1
  0
LINE
  5
60F
330
1F
100
AcDbEntity
  8
P-0000
  6
Continuous
 62
     7
100
AcDbLine
 10
393.4291489268019
 20
256.5679109518819
 30
0.0
 11
392.6291489268026
 21
256.5679109518819
 31
0.0
1001
ACME_LAYERS
1000
1
  0
LINE
  5
610
330
1F
100
AcDbEntity
  8
P-0000
  6
Continuous
 62
     7
100
AcDbLine
 10
397.9834508133811
 20
241.1835622503127
 30
0.0
 11
380.9834508133811
 21
241.1835622503127
 31
0.0
1001
ACME_LAYERS
1000
1
  0
LINE
  5
611
330
1F
100
AcDbEntity
  8
P-0000
  6
Continuous
 62
     7
100
AcDbLine
 10
382.9291489268019
 20
241.1835622503127
 30
0.0
 11
395.9291489268019
 21
241.1835622503127
 31
0.0
1001
ACME_LAYERS
1000
1
  0
LINE
  5
612
330
1F
100
AcDbEntity
  8
P-0000
  6
Continuous
 62
     7
100
AcDbLine
 10
392.6291489268026
 20
239.5835622503123
 30
0.0
 11
393.4291489268019
 21
239.5835622503123
 31
0.0
1001
ACME_LAYERS
1000
1
  0
LINE
  5
613
330
1F
100
AcDbEntity
  8
P-0000
  6
Continuous
 62
     7
100
AcDbLine
 10
393.4291489268019
 20
247.6835622503127
 30
0.0
 11
392.6291489268026
 21
247.6835622503127
 31
0.0
1001
ACME_LAYERS
1000
1
  0
ARC
  5
614
330
1F
100
AcDbEntity
  8
P-0000
  6
Continuous
 62
     7
100
AcDbCircle
 10
377.7575760515487
 20
235.5835622503123
 30
0.0
 40
2.0
100
AcDbArc
 50
90.0
 51
135.000000000002
1001
ACME_LAYERS
1000
1
  0
ARC
  5
615
330
1F
100
AcDbEntity
  8
P-0000
  6
Continuous
 62
     7
100
AcDbCircle
 10
377.7575760515487
 20
235.5835622503123
 30
0.0
 40
4.0
100
AcDbArc
 50
90.0
 51
134.9999999999997
1001
ACME_LAYERS
1000
1
  0
LINE
  5
616
330
1F
100
AcDbEntity
  8
P-0000
  6
Continuous
 62
     3
100
AcDbLine
 10
376.3433624891752
 20
236.9977758126855
 30
0.0
 11
376.9291489268019
 21
237.5835622503123
 31
0.0
1001
ACME_LAYERS
1000
1
  0
LINE
  5
617
330
1F
100
AcDbEntity
  8
P-0000
  6
Continuous
 62
     7
100
AcDbLine
 10
376.1007218020552
 20
239.5835622503123
 30
0.0
 11
377.7575760515487
 21
239.5835622503123
 31
0.0
1001
ACME_LAYERS
1000
1
  0
LINE
  5
618
330
1F
100
AcDbEntity
  8
P-0000
  6
Continuous
 62
     7
100
AcDbLine
 10
360.4291489268019
 20
241.0835622503123
 30
0.0
 11
380.9834508133811
 21
241.0835622503123
 31
0.0
1001
ACME_LAYERS
1000
1
  0
LINE
  5
619
330
1F
100
AcDbEntity
  8
P-0000
  6
Continuous
 62
     7
100
AcDbLine
 10
363.0272251381561
 20
239.5835622503123
 30
0.0
 11
376.1007218020552
 21
239.5835622503123
 31
0.0
1001
ACME_LAYERS
1000
1
  0
LINE
  5
61A
330
1F
100
AcDbEntity
  8
P-0000
  6
Continuous
 62
     7
100
AcDbLine
 10
373.2722946773086
 20
237.5835622503123
 30
0.0
 11
367.0272251381541
 21
237.5835622503123
 31
0.0
1001
ACME_LAYERS
1000
1
  0
LINE
  5
61B
330
1F
100
AcDbEntity
  8
P-0000
  6
Continuous
 62
     7
100
AcDbLine
 10
366.027225138156
 20
237.851511442744
 30
0.0
 11
363.0272251381561
 21
239.5835622503123
 31
0.0
1001
ACME_LAYERS
1000
1
  0
LINE
  5
61C
330
1F
100
AcDbEntity
  8
P-0000
  6
Continuous
 62
     7
100
AcDbLine
 10
363.0272251381561
 20
239.5835622503123
 30
0.0
 11
360.4291489268019
 21
241.0835622503123
 31
0.0
1001
ACME_LAYERS
1000
1
  0
ARC
  5
61D
330
1F
100
AcDbEntity
  8
P-0000
  6
Continuous
 62
     7
100
AcDbCircle
 10
367.0272251381541
 20
239.5835622503123
 30
0.0
 40
1.999999999998561
100
AcDbArc
 50
240.0000000000374
 51
270.0
1001
ACME_LAYERS
1000
1
  0
LINE
  5
61E
330
1F
100
AcDbEntity
  8
P-0000
  6
Continuous
 62
     3
100
AcDbLine
 10
366.027225138156
 20
237.851511442744
 30
0.0
 11
366.4913267532924
 21
237.5835622503123
 31
0.0
1001
ACME_LAYERS
1000
1
  0
LINE
  5
61F
330
1F
100
AcDbEntity
  8
P-0000
  6
Continuous
 62
     1
100
AcDbLine
 10
366.4913267532924
 20
237.5835622503123
 30
0.0
 11
367.0272251381541
 21
237.5835622503123
 31
0.0
1001
ACME_LAYERS
1000
1
  0
ARC
  5
620
330
1F
100
AcDbEntity
  8
P-0000
  6
Continuous
 62
     7
100
AcDbCircle
 10
373.2722946773086
 20
239.5835622503123
 30
0.0
 40
2.0
100
AcDbArc
 50
270.0
 51
315.0
1001
ACME_LAYERS
1000
1
  0
LINE
  5
621
330
1F
100
AcDbEntity
  8
P-0000
  6
Continuous
 62
     3
100
AcDbLine
 10
376.1007218020552
 20
239.5835622503123
 30
0.0
 11
374.9291489268019
 21
238.411989375059
 31
0.0
1001
ACME_LAYERS
1000
1
  0
LINE
  5
622
330
1F
100
AcDbEntity
  8
P-0000
  6
Continuous
 62
     3
100
AcDbLine
 10
373.2722946773086
 20
237.5835622503123
 30
0.0
 11
374.1007218020552
 21
237.5835622503123
 31
0.0
1001
ACME_LAYERS
1000
1
  0
LINE
  5
623
330
1F
100
AcDbEntity
  8
P-0000
  6
Continuous
 62
     3
100
AcDbLine
 10
374.1007218020552
 20
237.5835622503123
 30
0.0
 11
374.6865082396819
 21
238.1693486879389
 31
0.0
1001
ACME_LAYERS
1000
1
  0
LINE
  5
624
330
1F
100
AcDbEntity
  8
P-0000
  6
Continuous
 62
     7
100
AcDbLine
 10
374.6865082396819
 20
238.1693486879389
 30
0.0
 11
374.9291489268019
 21
238.411989375059
 31
0.0
1001
ACME_LAYERS
1000
1
  0
LINE
  5
625
330
1F
100
AcDbEntity
  8
P-0000
  6
Continuous
 62
     7
100
AcDbLine
 10
376.1007218020552
 20
236.7551351255675
 30
0.0
 11
376.3433624891752
 21
236.9977758126855
 31
0.0
1001
ACME_LAYERS
1000
1
  0
ARC
  5
626
330
1F
100
AcDbEntity
  8
P-0000
  6
Continuous
 62
     7
100
AcDbCircle
 10
383.7999838022028
 20
244.360992677362
 30
0.0
 40
3.322569572951722
100
AcDbArc
 50
55.61575253196174
 51
119.3733793948105
1001
ACME_LAYERS
1000
1
  0
LINE
  5
627
330
1F
100
AcDbEntity
  8
P-0000
  6
Continuous
 62
     7
100
AcDbLine
 10
382.1702670159941
 20
247.2564186846788
 30
0.0
 11
382.9291489268019
 21
247.6835622503127
 31
0.0
1001
ACME_LAYERS
1000
1
  0
ARC
  5
628
330
1F
100
AcDbEntity
  8
P-0000
  6
Continuous
 62
     7
100
AcDbCircle
 10
383.7999838022028
 20
244.5061318232632
 30
0.0
 40
3.322569572950521
100
AcDbArc
 50
240.6266206051837
 51
304.3842474680552
1001
ACME_LAYERS
1000
1
  0
LINE
  5
629
330
1F
100
AcDbEntity
  8
P-0000
  6
Continuous
 62
     7
100
AcDbLine
 10
384.429148926802
 20
239.5835622503123
 30
0.0
 11
385.4291489268019
 21
239.5835622503123
 31
0.0
1001
ACME_LAYERS
1000
1
  0
LINE
  5
62A
330
1F
100
AcDbEntity
  8
P-0000
  6
Continuous
 62
     7
100
AcDbLine
 10
384.429148926802
 20
237.5835622503123
 30
0.0
 11
385.4291489268019
 21
237.5835622503123
 31
0.0
1001
ACME_LAYERS
1000
1
  0
LINE
  5
62B
330
1F
100
AcDbEntity
  8
P-0000
  6
Continuous
 62
     7
100
AcDbLine
 10
380.9834508133811
 20
239.5835622503123
 30
0.0
 11
385.4291489268019
 21
239.5835622503123
 31
0.0
1001
ACME_LAYERS
1000
1
  0
LINE
  5
62C
330
1F
100
AcDbEntity
  8
P-0000
  6
Continuous
 62
     7
100
AcDbLine
 10
381.9235954273375
 20
247.1030056667128
 30
0.0
 11
381.9235954273375
 21
241.7641188339143
 31
0.0
1001
ACME_LAYERS
1000
1
  0
LINE
  5
62D
330
1F
100
AcDbEntity
  8
P-0000
  6
Continuous
 62
     7
100
AcDbLine
 10
377.7575760515487
 20
239.5835622503123
 30
0.0
 11
384.429148926802
 21
239.5835622503123
 31
0.0
1001
ACME_LAYERS
1000
1
  0
LINE
  5
62E
330
1F
100
AcDbEntity
  8
P-0000
  6
Continuous
 62
     7
100
AcDbLine
 10
377.7575760515487
 20
237.5835622503123
 30
0.0
 11
384.429148926802
 21
237.5835622503123
 31
0.0
1001
ACME_LAYERS
1000
1
  0
LINE
  5
62F
330
1F
100
AcDbEntity
  8
P-0000
  6
Continuous
 62
     3
100
AcDbLine
 10
376.9291489268019
 20
237.5835622503123
 30
0.0
 11
377.7575760515487
 21
237.5835622503123
 31
0.0
1001
ACME_LAYERS
1000
1
  0
ARC
  5
630
330
1F
100
AcDbEntity
  8
P-0000
  6
Continuous
 62
     7
100
AcDbCircle
 10
383.7999838022028
 20
244.5061318232632
 30
0.0
 40
3.322569572949123
100
AcDbArc
 50
235.6157525319706
 51
240.6266206051837
1001
ACME_LAYERS
1000
1
  0
LINE
  5
631
330
1F
100
AcDbEntity
  8
P-0000
  6
Continuous
 62
     7
100
AcDbLine
 10
384.429148926802
 20
237.5835622503123
 30
0.0
 11
384.429148926802
 21
239.5835622503123
 31
0.0
1001
ACME_LAYERS
1000
1
  0
LINE
  5
632
330
1F
100
AcDbEntity
  8
P-0000
  6
Continuous
 62
     7
100
AcDbLine
 10
380.9834508133811
 20
241.0835622503123
 30
0.0
 11
380.9834508133811
 21
239.5835622503123
 31
0.0
1001
ACME_LAYERS
1000
1
  0
LINE
  5
633
330
1F
100
AcDbEntity
  8
P-0000
  6
Continuous
 62
     7
100
AcDbLine
 10
382.1702670159941
 20
241.6107058159464
 30
0.0
 11
382.9291489268019
 21
241.1835622503127
 31
0.0
1001
ACME_LAYERS
1000
1
  0
LINE
  5
634
330
1F
100
AcDbEntity
  8
P-0000
  6
Continuous
 62
     7
100
AcDbLine
 10
380.9834508133811
 20
241.1835622503127
 30
0.0
 11
380.9834508133811
 21
241.0835622503123
 31
0.0
1001
ACME_LAYERS
1000
1
  0
ARC
  5
635
330
1F
100
AcDbEntity
  8
P-0000
  6
Continuous
 62
     7
100
AcDbCircle
 10
383.7999838022028
 20
244.360992677362
 30
0.0
 40
3.322569572950607
100
AcDbArc
 50
119.3733793948105
 51
124.3842474680133
1001
ACME_LAYERS
1000
1
  0
LINE
  5
636
330
1F
100
AcDbEntity
  8
P-0000
  6
Continuous
 62
     7
100
AcDbLine
 10
385.6763721770698
 20
247.1030056667128
 30
0.0
 11
385.6763721770698
 21
241.7641188339143
 31
0.0
1001
ACME_LAYERS
1000
1
  0
LINE
  5
637
330
1F
100
AcDbEntity
  8
P-0000
  6
Continuous
 62
     7
100
AcDbLine
 10
386.2291489268013
 20
239.5835622503123
 30
0.0
 11
392.6291489268026
 21
239.5835622503123
 31
0.0
1001
ACME_LAYERS
1000
1
  0
LINE
  5
638
330
1F
100
AcDbEntity
  8
P-0000
  6
Continuous
 62
     7
100
AcDbLine
 10
385.4291489268019
 20
239.5835622503123
 30
0.0
 11
386.2291489268013
 21
239.5835622503123
 31
0.0
1001
ACME_LAYERS
1000
1
  0
LINE
  5
639
330
1F
100
AcDbEntity
  8
P-0000
  6
Continuous
 62
     7
100
AcDbLine
 10
385.4291489268019
 20
247.6835622503127
 30
0.0
 11
382.9291489268019
 21
247.6835622503127
 31
0.0
1001
ACME_LAYERS
1000
1
  0
LINE
  5
63A
330
1F
100
AcDbEntity
  8
P-0000
  6
Continuous
 62
     3
100
AcDbLine
 10
386.2291489268013
 20
247.6835622503127
 30
0.0
 11
386.2291489268013
 21
257.1679109518822
 31
0.0
1001
ACME_LAYERS
1000
1
  0
LINE
  5
63B
330
1F
100
AcDbEntity
  8
P-0000
  6
Continuous
 62
     3
100
AcDbLine
 10
392.6291489268026
 20
247.6835622503127
 30
0.0
 11
392.6291489268026
 21
257.1679109518822
 31
0.0
1001
ACME_LAYERS
1000
1
  0
LINE
  5
63C
330
1F
100
AcDbEntity
  8
P-0000
  6
Continuous
 62
     7
100
AcDbLine
 10
385.4291489268019
 20
247.6835622503127
 30
0.0
 11
385.4291489268019
 21
256.5679109518819
 31
0.0
1001
ACME_LAYERS
1000
1
  0
LINE
  5
63D
330
1F
100
AcDbEntity
  8
P-0000
  6
Continuous
 62
     7
100
AcDbLine
 10
392.6291489268026
 20
247.6835622503127
 30
0.0
 11
386.2291489268013
 21
247.6835622503127
 31
0.0
1001
ACME_LAYERS
1000
1
  0
LINE
  5
63E
330
1F
100
AcDbEntity
  8
P-0000
  6
Continuous
 62
     7
100
AcDbLine
 10
386.2291489268013
 20
247.6835622503127
 30
0.0
 11
385.4291489268019
 21
247.6835622503127
 31
0.0
1001
ACME_LAYERS
1000
1
  0
LINE
  5
63F
330
1F
100
AcDbEntity
  8
P-0000
  6
Continuous
 62
     7
100
AcDbLine
 10
392.6291489268026
 20
256.5679109518819
 30
0.0
 11
386.2291489268013
 21
256.5679109518819
 31
0.0
1001
ACME_LAYERS
1000
1
  0
LINE
  5
640
330
1F
100
AcDbEntity
  8
P-0000
  6
Continuous
 62
     7
100
AcDbLine
 10
386.2291489268013
 20
257.1679109518822
 30
0.0
 11
392.6291489268026
 21
257.1679109518822
 31
0.0
1001
ACME_LAYERS
1000
1
  0
LINE
  5
641
330
1F
100
AcDbEntity
  8
P-0000
  6
Continuous
 62
     7
100
AcDbLine
 10
385.4291489268019
 20
256.5679109518819
 30
0.0
 11
386.2291489268013
 21
257.1679109518822
 31
0.0
1001
ACME_LAYERS
1000
1
  0
LINE
  5
642
330
1F
100
AcDbEntity
  8
P-0000
  6
Continuous
 62
     7
100
AcDbLine
 10
386.2291489268013
 20
256.5679109518819
 30
0.0
 11
385.4291489268019
 21
256.5679109518819
 31
0.0
1001
ACME_LAYERS
1000
1
  0
LINE
  5
643
330
1F
100
AcDbEntity
  8
P-0000
  6
Continuous
 62
     3
100
AcDbLine
 10
386.2291489268013
 20
256.5679109518819
 30
0.0
 11
386.2291489268013
 21
257.1679109518822
 31
0.0
1001
ACME_LAYERS
1000
1
  0
LINE
  5
644
330
1F
100
AcDbEntity
  8
P-0000
  6
Continuous
 62
     3
100
AcDbLine
 10
392.6291489268026
 20
256.5679109518819
 30
0.0
 11
392.6291489268026
 21
257.1679109518822
 31
0.0
1001
ACME_LAYERS
1000
1
  0
LINE
  5
645
330
1F
100
AcDbEntity
  8
P-0000
  6
Continuous
 62
     7
100
AcDbLine
 10
397.9834508133811
 20
241.0835622503123
 30
0.0
 11
418.4291489268018
 21
241.0835622503123
 31
0.0
1001
ACME_LAYERS
1000
1
  0
LINE
  5
646
330
1F
100
AcDbEntity
  8
P-0000
  6
Continuous
 62
     7
100
AcDbLine
 10
405.5860031762952
 20
237.5835622503123
 30
0.0
 11
411.8310727154478
 21
237.5835622503123
 31
0.0
1001
ACME_LAYERS
1000
1
  0
ARC
  5
647
330
1F
100
AcDbEntity
  8
P-0000
  6
Continuous
 62
     7
100
AcDbCircle
 10
395.0583140514011
 20
244.360992677362
 30
0.0
 40
3.322569572950607
100
AcDbArc
 50
60.62662060518913
 51
124.3842474680386
1001
ACME_LAYERS
1000
1
  0
LINE
  5
648
330
1F
100
AcDbEntity
  8
P-0000
  6
Continuous
 62
     7
100
AcDbLine
 10
396.6880308376098
 20
247.2564186846788
 30
0.0
 11
395.9291489268019
 21
247.6835622503127
 31
0.0
1001
ACME_LAYERS
1000
1
  0
ARC
  5
649
330
1F
100
AcDbEntity
  8
P-0000
  6
Continuous
 62
     7
100
AcDbCircle
 10
401.1007218020571
 20
235.5835622503123
 30
0.0
 40
1.99999999999893
100
AcDbArc
 50
45.00000000003454
 51
90.0
1001
ACME_LAYERS
1000
1
  0
ARC
  5
64A
330
1F
100
AcDbEntity
  8
P-0000
  6
Continuous
 62
     7
100
AcDbCircle
 10
401.1007218020571
 20
235.5835622503123
 30
0.0
 40
3.999999999999379
100
AcDbArc
 50
45.00000000001842
 51
90.0
1001
ACME_LAYERS
1000
1
  0
LINE
  5
64B
330
1F
100
AcDbEntity
  8
P-0000
  6
Continuous
 62
     3
100
AcDbLine
 10
401.1007218020571
 20
239.5835622503123
 30
0.0
 11
402.7575760515486
 21
239.5835622503123
 31
0.0
1001
ACME_LAYERS
1000
1
  0
LINE
  5
64C
330
1F
100
AcDbEntity
  8
P-0000
  6
Continuous
 62
     3
100
AcDbLine
 10
401.1007218020571
 20
237.5835622503123
 30
0.0
 11
401.9291489268018
 21
237.5835622503123
 31
0.0
1001
ACME_LAYERS
1000
1
  0
LINE
  5
64D
330
1F
100
AcDbEntity
  8
P-0000
  6
Continuous
 62
     7
100
AcDbLine
 10
396.9347024262663
 20
247.1030056667128
 30
0.0
 11
396.9347024262663
 21
241.7641188339143
 31
0.0
1001
ACME_LAYERS
1000
1
  0
LINE
  5
64E
330
1F
100
AcDbEntity
  8
P-0000
  6
Continuous
 62
     7
100
AcDbLine
 10
393.1819256765341
 20
247.1030056667128
 30
0.0
 11
393.1819256765341
 21
241.7641188339143
 31
0.0
1001
ACME_LAYERS
1000
1
  0
LINE
  5
64F
330
1F
100
AcDbEntity
  8
P-0000
  6
Continuous
 62
     7
100
AcDbLine
 10
394.4291489268019
 20
239.5835622503123
 30
0.0
 11
401.1007218020571
 21
239.5835622503123
 31
0.0
1001
ACME_LAYERS
1000
1
  0
LINE
  5
650
330
1F
100
AcDbEntity
  8
P-0000
  6
Continuous
 62
     7
100
AcDbLine
 10
394.4291489268019
 20
237.5835622503123
 30
0.0
 11
401.1007218020571
 21
237.5835622503123
 31
0.0
1001
ACME_LAYERS
1000
1
  0
LINE
  5
651
330
1F
100
AcDbEntity
  8
P-0000
  6
Continuous
 62
     7
100
AcDbLine
 10
393.4291489268019
 20
239.5835622503123
 30
0.0
 11
397.9834508133811
 21
239.5835622503123
 31
0.0
1001
ACME_LAYERS
1000
1
  0
ARC
  5
652
330
1F
100
AcDbEntity
  8
P-0000
  6
Continuous
 62
     7
100
AcDbCircle
 10
395.0583140514011
 20
244.5061318232632
 30
0.0
 40
3.322569572950134
100
AcDbArc
 50
235.6157525319448
 51
299.3733793948163
1001
ACME_LAYERS
1000
1
  0
ARC
  5
653
330
1F
100
AcDbEntity
  8
P-0000
  6
Continuous
 62
     7
100
AcDbCircle
 10
395.0583140514011
 20
244.5061318232632
 30
0.0
 40
3.322569572950521
100
AcDbArc
 50
299.3733793948163
 51
304.3842474680295
1001
ACME_LAYERS
1000
1
  0
LINE
  5
654
330
1F
100
AcDbEntity
  8
P-0000
  6
Continuous
 62
     7
100
AcDbLine
 10
394.4291489268019
 20
237.5835622503123
 30
0.0
 11
394.4291489268019
 21
239.5835622503123
 31
0.0
1001
ACME_LAYERS
1000
1
  0
LINE
  5
655
330
1F
100
AcDbEntity
  8
P-0000
  6
Continuous
 62
     7
100
AcDbLine
 10
393.4291489268019
 20
239.5835622503123
 30
0.0
 11
394.4291489268019
 21
239.5835622503123
 31
0.0
1001
ACME_LAYERS
1000
1
  0
LINE
  5
656
330
1F
100
AcDbEntity
  8
P-0000
  6
Continuous
 62
     7
100
AcDbLine
 10
393.4291489268019
 20
237.5835622503123
 30
0.0
 11
394.4291489268019
 21
237.5835622503123
 31
0.0
1001
ACME_LAYERS
1000
1
  0
LINE
  5
657
330
1F
100
AcDbEntity
  8
P-0000
  6
Continuous
 62
     7
100
AcDbLine
 10
396.6880308376098
 20
241.6107058159464
 30
0.0
 11
395.9291489268019
 21
241.1835622503127
 31
0.0
1001
ACME_LAYERS
1000
1
  0
LINE
  5
658
330
1F
100
AcDbEntity
  8
P-0000
  6
Continuous
 62
     7
100
AcDbLine
 10
397.9834508133811
 20
241.0835622503123
 30
0.0
 11
397.9834508133811
 21
241.1835622503127
 31
0.0
1001
ACME_LAYERS
1000
1
  0
LINE
  5
659
330
1F
100
AcDbEntity
  8
P-0000
  6
Continuous
 62
     7
100
AcDbLine
 10
397.9834508133811
 20
239.5835622503123
 30
0.0
 11
397.9834508133811
 21
241.0835622503123
 31
0.0
1001
ACME_LAYERS
1000
1
  0
ARC
  5
65A
330
1F
100
AcDbEntity
  8
P-0000
  6
Continuous
 62
     7
100
AcDbCircle
 10
395.0583140514011
 20
244.360992677362
 30
0.0
 40
3.322569572950695
100
AcDbArc
 50
55.61575253198637
 51
60.62662060518913
1001
ACME_LAYERS
1000
1
  0
ARC
  5
65B
330
1F
100
AcDbEntity
  8
P-0000
  6
Continuous
 62
     7
100
AcDbCircle
 10
405.5860031762952
 20
239.5835622503123
 30
0.0
 40
2.000000000000287
100
AcDbArc
 50
225.0000000000003
 51
270.0
1001
ACME_LAYERS
1000
1
  0
LINE
  5
65C
330
1F
100
AcDbEntity
  8
P-0000
  6
Continuous
 62
     3
100
AcDbLine
 10
404.7575760515486
 20
237.5835622503123
 30
0.0
 11
405.5860031762952
 21
237.5835622503123
 31
0.0
1001
ACME_LAYERS
1000
1
  0
LINE
  5
65D
330
1F
100
AcDbEntity
  8
P-0000
  6
Continuous
 62
     3
100
AcDbLine
 10
404.1717896139219
 20
238.1693486879389
 30
0.0
 11
404.7575760515486
 21
237.5835622503123
 31
0.0
1001
ACME_LAYERS
1000
1
  0
LINE
  5
65E
330
1F
100
AcDbEntity
  8
P-0000
  6
Continuous
 62
     3
100
AcDbLine
 10
402.7575760515486
 20
239.5835622503123
 30
0.0
 11
403.9291489268019
 21
238.411989375059
 31
0.0
1001
ACME_LAYERS
1000
1
  0
LINE
  5
65F
330
1F
100
AcDbEntity
  8
P-0000
  6
Continuous
 62
     3
100
AcDbLine
 10
401.9291489268018
 20
237.5835622503123
 30
0.0
 11
402.5149353644286
 21
236.9977758126855
 31
0.0
1001
ACME_LAYERS
1000
1
  0
LINE
  5
660
330
1F
100
AcDbEntity
  8
P-0000
  6
Continuous
 62
     7
100
AcDbLine
 10
404.1717896139219
 20
238.1693486879389
 30
0.0
 11
403.9291489268019
 21
238.411989375059
 31
0.0
1001
ACME_LAYERS
1000
1
  0
LINE
  5
661
330
1F
100
AcDbEntity
  8
P-0000
  6
Continuous
 62
     7
100
AcDbLine
 10
402.7575760515486
 20
236.7551351255675
 30
0.0
 11
402.5149353644286
 21
236.9977758126855
 31
0.0
1001
ACME_LAYERS
1000
1
  0
LINE
  5
662
330
1F
100
AcDbEntity
  8
P-0000
  6
Continuous
 62
     7
100
AcDbLine
 10
393.4291489268019
 20
247.6835622503127
 30
0.0
 11
393.4291489268019
 21
256.5679109518819
 31
0.0
1001
ACME_LAYERS
1000
1
  0
LINE
  5
663
330
1F
100
AcDbEntity
  8
P-0000
  6
Continuous
 62
     7
100
AcDbLine
 10
395.9291489268019
 20
247.6835622503127
 30
0.0
 11
393.4291489268019
 21
247.6835622503127
 31
0.0
1001
ACME_LAYERS
1000
1
  0
LINE
  5
664
330
1F
100
AcDbEntity
  8
P-0000
  6
Continuous
 62
     7
100
AcDbLine
 10
413.8310727154478
 20
236.1194606351741
 30
0.0
 11
419.4291489268019
 21
239.351511442744
 31
0.0
1001
ACME_LAYERS
1000
1
  0
LINE
  5
665
330
1F
100
AcDbEntity
  8
P-0000
  6
Continuous
 62
     7
100
AcDbLine
 10
412.8310727154477
 20
237.851511442744
 30
0.0
 11
418.4291489268018
 21
241.0835622503123
 31
0.0
1001
ACME_LAYERS
1000
1
  0
ARC
  5
666
330
1F
100
AcDbEntity
  8
P-0000
  6
Continuous
 62
     7
100
AcDbCircle
 10
411.8310727154478
 20
239.5835622503123
 30
0.0
 40
2.0
100
AcDbArc
 50
270.0
 51
300.0000000000074
1001
ACME_LAYERS
1000
1
  0
LINE
  5
667
330
1F
100
AcDbEntity
  8
P-0000
  6
Continuous
 62
     3
100
AcDbLine
 10
411.8310727154478
 20
237.5835622503123
 30
0.0
 11
412.3669711003115
 21
237.5835622503123
 31
0.0
1001
ACME_LAYERS
1000
1
  0
LINE
  5
668
330
1F
100
AcDbEntity
  8
P-0000
  6
Continuous
 62
     3
100
AcDbLine
 10
412.3669711003115
 20
237.5835622503123
 30
0.0
 11
412.8310727154477
 21
237.851511442744
 31
0.0
1001
ACME_LAYERS
1000
1
  0
LINE
  5
669
330
1F
100
AcDbEntity
  8
P-0000
  6
Continuous
 62
     7
100
AcDbLine
 10
418.4291489268018
 20
241.0835622503123
 30
0.0
 11
419.4291489268019
 21
239.351511442744
 31
0.0
1001
ACME_LAYERS
1000
1
  0
ARC
  5
66A
330
1F
100
AcDbEntity
  8
P-0000
  6
Continuous
 62
     7
100
AcDbCircle
 10
430.4470981192337
 20
231.1679109518822
 30
0.0
 40
5.00000000000009
100
AcDbArc
 50
59.99999999999915
 51
90.00000000001953
1001
ACME_LAYERS
1000
1
  0
LINE
  5
66B
330
1F
100
AcDbEntity
  8
P-0000
  6
STRICHPUNKT
 62
     4
100
AcDbLine
 10
426.4291489268019
 20
228.6679109518821
 30
0.0
 11
426.4291489268019
 21
237.9562586342613
 31
0.0
1001
ACME_LAYERS
1000
1
  0
HATCH
  5
66C
330
1F
100
AcDbEntity
  8
P-0000
  6
Continuous
 62
     1
100
AcDbHatch
 10
0.0
 20
0.0
 30
0.0
210
0.0
220
0.0
230
1.0
  2
_U
 70
     0
 71
     0
 91
        1
 92
        1
 93
        9
 72
     1
 10
434.8136906868934
 20
234.4203602493976
 11
439.1791489268019
 21
231.8999617594523
 72
     1
 10
439.1791489268019
 20
231.8999617594523
 11
438.1791489268019
 21
230.1679109518822
 72
     1
 10
438.1791489268019
 20
230.1679109518822
 11
433.8136906868934
 21
232.6883094418294
 72
     2
 10
432.8136906868934
 20
230.9562586342613
 40
1.999999999999401
 50
59.99999999999009
 51
135.0000000000046
 73
     1
 72
     1
 10
431.39947712452
 20
232.3704721966345
 11
430.6969158797676
 21
231.6679109518822
 72
     1
 10
430.6969158797677
 20
231.6679109518822
 11
429.2827023173943
 21
233.0821245142556
 72
     1
 10
429.2827023173942
 20
233.0821245142556
 11
429.9852635621467
 21
233.7846857590079
 72
     2
 10
432.8136906868934
 20
230.9562586342613
 40
4.0
 50
224.9999999999989
 51
270.0
 73
     0
 72
     2
 10
432.8136906868934
 20
230.9562586342613
 40
3.999999999998728
 50
270.0
 51
300.0000000000105
 73
     0
 97
        0
 75
     0
 76
     0
 52
135.0
 41
1.5
 77
     0
 78
     1
 53
135.0
 43
0.0
 44
0.0
 45
-1.060660171779821
 46
-1.060660171779821
 79
     0
 98
        1
 10
609.5335338513672
 20
365.9140016985269
1001
ACME_LAYERS
1000
1
1001
ACAD
1010
0.0
1020
0.0
1030
0.0
  0
ARC
  5
66D
330
1F
100
AcDbEntity
  8
P-0000
  6
Continuous
 62
     7
100
AcDbCircle
 10
432.8136906868934
 20
230.9562586342613
 30
0.0
 40
3.999999999998728
100
AcDbArc
 50
59.99999999999259
 51
90.0
1001
ACME_LAYERS
1000
1
  0
LINE
  5
66E
330
1F
100
AcDbEntity
  8
P-0000
  6
Continuous
 62
     7
100
AcDbLine
 10
433.8136906868934
 20
232.6883094418294
 30
0.0
 11
438.1791489268019
 21
230.1679109518822
 31
0.0
1001
ACME_LAYERS
1000
1
  0
LINE
  5
66F
330
1F
100
AcDbEntity
  8
P-0000
  6
Continuous
 62
     7
100
AcDbLine
 10
432.9470981192336
 20
235.4980379708045
 30
0.0
 11
434.8136906868934
 21
234.4203602493976
 31
0.0
1001
ACME_LAYERS
1000
1
  0
LINE
  5
670
330
1F
100
AcDbEntity
  8
P-0000
  6
Continuous
 62
     7
100
AcDbLine
 10
433.8136906868934
 20
232.6883094418294
 30
0.0
 11
438.1791489268019
 21
230.1679109518822
 31
0.0
1001
ACME_LAYERS
1000
1
  0
ARC
  5
671
330
1F
100
AcDbEntity
  8
P-0000
  6
Continuous
 62
     7
100
AcDbCircle
 10
432.8136906868934
 20
230.9562586342613
 30
0.0
 40
4.0
100
AcDbArc
 50
90.0
 51
134.9999999999997
1001
ACME_LAYERS
1000
1
  0
LINE
  5
672
330
1F
100
AcDbEntity
  8
P-0000
  6
Continuous
 62
     7
100
AcDbLine
 10
429.2827023173942
 20
233.0821245142556
 30
0.0
 11
429.9852635621467
 21
233.7846857590079
 31
0.0
1001
ACME_LAYERS
1000
1
  0
LINE
  5
673
330
1F
100
AcDbEntity
  8
P-0000
  6
Continuous
 62
     7
100
AcDbLine
 10
430.6969158797677
 20
231.6679109518822
 30
0.0
 11
429.2827023173942
 21
233.0821245142556
 31
0.0
1001
ACME_LAYERS
1000
1
  0
ARC
  5
674
330
1F
100
AcDbEntity
  8
P-0000
  6
Continuous
 62
     7
100
AcDbCircle
 10
432.8136906868934
 20
230.9562586342613
 30
0.0
 40
1.999999999999401
100
AcDbArc
 50
59.99999999999259
 51
135.000000000002
1001
ACME_LAYERS
1000
1
  0
LINE
  5
675
330
1F
100
AcDbEntity
  8
P-0000
  6
Continuous
 62
     7
100
AcDbLine
 10
430.6969158797677
 20
231.6679109518822
 30
0.0
 11
431.39947712452
 21
232.3704721966345
 31
0.0
1001
ACME_LAYERS
1000
1
  0
LINE
  5
676
330
1F
100
AcDbEntity
  8
P-0000
  6
Continuous
 62
     7
100
AcDbLine
 10
439.1791489268019
 20
231.8999617594523
 30
0.0
 11
438.1791489268019
 21
230.1679109518822
 31
0.0
1001
ACME_LAYERS
1000
1
  0
LINE
  5
677
330
1F
100
AcDbEntity
  8
P-0000
  6
Continuous
 62
     7
100
AcDbLine
 10
434.8136906868934
 20
234.4203602493976
 30
0.0
 11
439.1791489268019
 21
231.8999617594523
 31
0.0
1001
ACME_LAYERS
1000
1
  0
DIMENSION
  5
70D
330
1F
100
AcDbEntity
  8
AM_5
100
AcDbDimension
  2
*D3
 10
156.8421288428674
 20
289.439967575076
 30
0.0
 11
273.0170724080334
 21
289.439967575076
 31
0.0
 70
   160
  1
%%c232.5
 71
     5
 42
232.5870200839345
  3
AM_DIN$0
100
AcDbAlignedDimension
 13
389.4291489268019
 23
258.6873543682809
 33
0.0
 14
156.8421288428674
 24
258.6873543682809
 34
0.0
100
AcDbRotatedDimension
1001
ACAD
1000
DSTYLE
1002
{
1070
    41
1040
7.0
1070
   140
1040
10.0
1070
   271
1070
     0
1002
}
  0
DIMENSION
  5
757
330
1F
100
AcDbEntity
  8
AM_5
100
AcDbDimension
  2
*D4
 10
107.0921288428674
 20
313.500728567294
 30
0.0
 11
272.7466185492391
 21
313.500728567294
 31
0.0
 70
   160
  1
%%c<>
 71
     5
 42
332.0870200839345
  3
AM_DIN$0
100
AcDbAlignedDimension
 13
439.1791489268019
 23
231.8999617594523
 33
0.0
 14
107.0921288428674
 24
231.8999617594523
 34
0.0
 50
0.0000000000000114
100
AcDbRotatedDimension
1001
ACAD
1000
DSTYLE
1002
{
1070
   140
1040
10.0
1070
    41
1040
7.0
1070
   271
1070
     0
1002
}
  0
ENDSEC
  0
SECTION
  2
OBJECTS
  0
DICTIONARY
  5
C
330
0
100
AcDbDictionary
281
     1
  3
ACAD_COLOR
350
685
  3
ACAD_GROUP
350
D
  3
ACAD_LAYOUT
350
1A
  3
ACAD_MATERIAL
350
684
  3
ACAD_MLINESTYLE
350
17
  3
ACAD_PLOTSETTINGS
350
19
  3
ACAD_PLOTSTYLENAME
350
E
  3
ACAD_TABLESTYLE
350
686
  3
ACDBHEADERROUNDTRIPXREC
350
7B7
  3
AcDbVariableDictionary
350
34
  3
AcmDictionary
350
47
  3
AMG
350
2B
  3
AMGSNAPSETTINGS
350
678
  3
DWGPROPS
350
7B6
  0
DICTIONARY
  5
81
330
1F
100
AcDbDictionary
280
     1
281
     1
  0
DICTIONARY
  5
685
102
{ACAD_REACTORS
330
C
102
}
330
C
100
AcDbDictionary
281
     1
  0
DICTIONARY
  5
D
102
{ACAD_REACTORS
330
C
102
}
330
C
100
AcDbDictionary
281
     1
  0
DICTIONARY
  5
1A
102
{ACAD_REACTORS
330
C
102
}
330
C
100
AcDbDictionary
281
     1
  3
Layout1
350
1E
  3
Layout2
350
26
  3
Model
350
22
  0
DICTIONARY
  5
684
102
{ACAD_REACTORS
330
C
102
}
330
C
100
AcDbDictionary
281
     1
  0
DICTIONARY
  5
17
102
{ACAD_REACTORS
330
C
102
}
330
C
100
AcDbDictionary
281
     1
  3
Standard
350
18
  0
DICTIONARY
  5
19
102
{ACAD_REACTORS
330
C
102
}
330
C
100
AcDbDictionary
281
     1
  0
ACDBDICTIONARYWDFLT
  5
E
102
{ACAD_REACTORS
330
C
102
}
330
C
100
AcDbDictionary
281
     1
  3
Normal
350
F
100
AcDbDictionaryWithDefault
340
F
  0
DICTIONARY
  5
686
102
{ACAD_REACTORS
330
C
102
}
330
C
100
AcDbDictionary
281
     1
  3
Standard
350
687
  0
DICTIONARY
  5
7B7
102
{ACAD_REACTORS
330
C
102
}
330
C
100
AcDbDictionary
281
     1
  0
DICTIONARY
  5
34
102
{ACAD_REACTORS
330
C
102
}
330
C
100
AcDbDictionary
281
     1
  3
CTABLESTYLE
350
796
  3
DIMASSOC
350
7B3
  3
INDEXCTL
350
35
  3
PROJECTNAME
350
7B4
  0
DICTIONARY
  5
47
102
{ACAD_REACTORS
330
C
102
}
330
C
100
AcDbDictionary
281
     1
  3
AcmStdDictionary
350
4C
  3
AMDTSECTSYM_ARROWCOLOR
350
6DF
  0
DICTIONARY
  5
2B
102
{ACAD_REACTORS
330
C
102
}
330
C
100
AcDbDictionary
281
     1
  0
DICTIONARY
  5
678
102
{ACAD_REACTORS
330
C
102
}
330
C
100
AcDbDictionary
281
     1
  0
XRECORD
  5
7B6
102
{ACAD_REACTORS
330
C
102
}
330
C
100
AcDbXrecord
280
     1
  1
DWGPROPS COOKIE
  2

  3

  4

  6

  7

  8

  9

300
AmdtFileType=84
301
=
302
=
303
=
304
=
305
=
306
=
307
=
308
=
309
=
 40
0.011871875
 41
2452702.55750169
 42
2454032.705935405
  1

 90
        1
  0
LAYOUT
  5
1E
102
{ACAD_XDICTIONARY
360
7B8
102
}
102
{ACAD_REACTORS
330
1A
102
}
330
1A
100
AcDbPlotSettings
  1

  2
C:\Programme\Acadm 2000i\plotters\PH36.pc3
  4

  6

 40
0.0
 41
0.0
 42
0.0
 43
0.0
 44
0.0
 45
0.0
 46
0.0
 47
0.0
 48
0.0
 49
0.0
140
0.0
141
0.0
142
1.0
143
1.0
 70
   688
 72
     0
 73
     0
 74
     5
  7
monochrome.ctb
 75
    16
147
1.0
148
0.0
149
0.0
100
AcDbLayout
  1
Layout1
 70
     1
 71
     1
 10
0.0
 20
0.0
 11
420.0
 21
297.0
 12
0.0
 22
0.0
 32
0.0
 14
1.000000000000000E+20
 24
1.000000000000000E+20
 34
1.000000000000000E+20
 15
-1.000000000000000E+20
 25
-1.000000000000000E+20
 35
-1.000000000000000E+20
146
0.0
 13
0.0
 23
0.0
 33
0.0
 16
1.0
 26
0.0
 36
0.0
 17
0.0
 27
1.0
 37
0.0
 76
     0
330
1B
  0
LAYOUT
  5
26
102
{ACAD_XDICTIONARY
360
7BC
102
}
102
{ACAD_REACTORS
330
1A
102
}
330
1A
100
AcDbPlotSettings
  1

  2
C:\Programme\Acadm 2000i\plotters\PH36.pc3
  4

  6

 40
0.0
 41
0.0
 42
0.0
 43
0.0
 44
0.0
 45
0.0
 46
0.0
 47
0.0
 48
0.0
 49
0.0
140
0.0
141
0.0
142
1.0
143
1.0
 70
   688
 72
     0
 73
     0
 74
     5
  7
monochrome.ctb
 75
    16
147
1.0
148
0.0
149
0.0
100
AcDbLayout
  1
Layout2
 70
     1
 71
     2
 10
0.0
 20
0.0
 11
12.0
 21
9.0
 12
0.0
 22
0.0
 32
0.0
 14
0.0
 24
0.0
 34
0.0
 15
0.0
 25
0.0
 35
0.0
146
0.0
 13
0.0
 23
0.0
 33
0.0
 16
1.0
 26
0.0
 36
0.0
 17
0.0
 27
1.0
 37
0.0
 76
     0
330
23
  0
LAYOUT
  5
22
102
{ACAD_XDICTIONARY
360
7BA
102
}
102
{ACAD_REACTORS
330
1A
102
}
330
1A
100
AcDbPlotSettings
  1

  2
C:\Programme\Acadm 2000i\plotters\PH36.pc3
  4

  6

 40
0.0
 41
0.0
 42
0.0
 43
0.0
 44
0.0
 45
0.0
 46
0.0
 47
0.0
 48
0.0
 49
0.0
140
0.0
141
0.0
142
1.0
143
1.0
 70
  1712
 72
     0
 73
     0
 74
     0
  7
monochrome.ctb
 75
     0
147
1.0
148
0.0
149
0.0
100
AcDbLayout
  1
Model
 70
     1
 71
     0
 10
0.0
 20
0.0
 11
12.0
 21
9.0
 12
0.0
 22
0.0
 32
0.0
 14
0.0
 24
0.0
 34
0.0
 15
0.0
 25
0.0
 35
0.0
146
0.0
 13
0.0
 23
0.0
 33
0.0
 16
1.0
 26
0.0
 36
0.0
 17
0.0
 27
1.0
 37
0.0
 76
     0
330
1F
  0
MLINESTYLE
  5
18
102
{ACAD_REACTORS
330
17
102
}
330
17
100
AcDbMlineStyle
  2
STANDARD
 70
     0
  3

 62
   256
 51
90.0
 52
90.0
 71
     2
 49
0.5
 62
   256
  6
BYLAYER
 49
-0.5
 62
   256
  6
BYLAYER
  0
ACDBPLACEHOLDER
  5
F
102
{ACAD_REACTORS
330
E
102
}
330
E
  0
TABLESTYLE
  5
687
102
{ACAD_REACTORS
330
686
102
}
330
686
100
AcDbTableStyle
  3
Standard
 70
     0
 71
     0
 40
1.5
 41
1.5
280
     0
281
     0
  7
STANDARD
140
4.5
170
     2
 62
     0
 63
     7
283
     0
274
    -2
284
     1
 64
     0
275
    -2
285
     1
 65
     0
276
    -2
286
     1
 66
     0
277
    -2
287
     1
 67
     0
278
    -2
288
     1
 68
     0
279
    -2
289
     1
 69
     0
  7
STANDARD
140
6.0
170
     5
 62
     0
 63
     7
283
     0
274
    -2
284
     1
 64
     0
275
    -2
285
     1
 65
     0
276
    -2
286
     1
 66
     0
277
    -2
287
     1
 67
     0
278
    -2
288
     1
 68
     0
279
    -2
289
     1
 69
     0
  7
STANDARD
140
4.5
170
     5
 62
     0
 63
     7
283
     0
274
    -2
284
     1
 64
     0
275
    -2
285
     1
 65
     0
276
    -2
286
     1
 66
     0
277
    -2
287
     1
 67
     0
278
    -2
288
     1
 68
     0
279
    -2
289
     1
 69
     0
  0
DICTIONARYVAR
  5
796
102
{ACAD_REACTORS
330
34
102
}
330
34
100
DictionaryVariables
280
     0
  1
STANDARD
  0
DICTIONARYVAR
  5
7B3
102
{ACAD_REACTORS
330
34
102
}
330
34
100
DictionaryVariables
280
     0
  1
1
  0
DICTIONARYVAR
  5
35
102
{ACAD_REACTORS
330
34
102
}
330
34
100
DictionaryVariables
280
     0
  1
0
  0
DICTIONARYVAR
  5
7B4
102
{ACAD_REACTORS
330
34
102
}
330
34
100
DictionaryVariables
280
     0
  1

  0
DICTIONARY
  5
4C
102
{ACAD_REACTORS
330
47
102
}
330
47
100
AcDbDictionary
281
     1
  0
XRECORD
  5
6DF
102
{ACAD_REACTORS
330
47
102
}
330
47
100
AcDbXrecord
280
     1
 90
-1023410169
  0
DICTIONARY
  5
7B8
330
1E
100
AcDbDictionary
280
     1
281
     1
  3
ACAD_XREC_ROUNDTRIP
360
7B9
  0
DICTIONARY
  5
7BC
330
26
100
AcDbDictionary
280
     1
281
     1
  3
ACAD_XREC_ROUNDTRIP
360
7BD
  0
DICTIONARY
  5
7BA
330
22
100
AcDbDictionary
280
     1
281
     1
  3
ACAD_XREC_ROUNDTRIP
360
7BB
  0
XRECORD
  5
7B9
102
{ACAD_REACTORS
330
7B8
102
}
330
7B8
100
AcDbXrecord
280
     1
102
SHADEPLOT
 70
     0
102
SHADEPLOTRESLEVEL
 70
     2
102
SHADEPLOTCUSTOMDPI
 70
   300
  0
XRECORD
  5
7BD
102
{ACAD_REACTORS
330
7BC
102
}
330
7BC
100
AcDbXrecord
280
     1
102
SHADEPLOT
 70
     0
102
SHADEPLOTRESLEVEL
 70
     2
102
SHADEPLOTCUSTOMDPI
 70
   300
  0
XRECORD
  5
7BB
102
{ACAD_REACTORS
330
7BA
102
}
330
7BA
100
AcDbXrecord
280
     1
102
SHADEPLOT
 70
     0
102
SHADEPLOTRESLEVEL
 70
     2
102
SHADEPLOTCUSTOMDPI
 70
   300
  0
ENDSEC
  0
EOF
