  0
SECTION
  2
HEADER
  9
$ACADVER
  1
AC1018
  9
$ACADMAINTVER
 70
   104
  9
$DWGCODEPAGE
  3
ANSI_1252
  9
$LASTSAVEDBY
  1
kbaersch
  9
$CUSTOMPROPERTYTAG
  1
AmdtFileType
  9
$CUSTOMPROPERTY
  1
84
  9
$INSBASE
 10
0.0
 20
0.0
 30
0.0
  9
$EXTMIN
 10
25.18777228692858
 20
28.02237628581183
 30
0.0
  9
$EXTMAX
 10
219.3380081917794
 20
418.5465518684297
 30
0.0
  9
$LIMMIN
 10
0.0
 20
0.0
  9
$LIMMAX
 10
420.0
 20
297.0
  9
$ORTHOMODE
 70
     0
  9
$REGENMODE
 70
     1
  9
$FILLMODE
 70
     1
  9
$QTEXTMODE
 70
     0
  9
$MIRRTEXT
 70
     1
  9
$LTSCALE
 40
1.0
  9
$ATTMODE
 70
     1
  9
$TEXTSIZE
 40
2.5
  9
$TRACEWID
 40
1.0
  9
$TEXTSTYLE
  7
STANDARD
  9
$CLAYER
  8
0
  9
$CELTYPE
  6
ByLayer
  9
$CECOLOR
 62
   256
  9
$CELTSCALE
 40
1.0
  9
$DISPSILH
 70
     0
  9
$DIMSCALE
 40
1.0
  9
$DIMASZ
 40
2.5
  9
$DIMEXO
 40
1.0
  9
$DIMDLI
 40
10.0
  9
$DIMRND
 40
0.0
  9
$DIMDLE
 40
0.0
  9
$DIMEXE
 40
1.0
  9
$DIMTP
 40
0.1
  9
$DIMTM
 40
0.1
  9
$DIMTXT
 40
3.5
  9
$DIMCEN
 40
0.0
  9
$DIMTSZ
 40
0.0
  9
$DIMTOL
 70
     0
  9
$DIMLIM
 70
     0
  9
$DIMTIH
 70
     0
  9
$DIMTOH
 70
     0
  9
$DIMSE1
 70
     0
  9
$DIMSE2
 70
     0
  9
$DIMTAD
 70
     1
  9
$DIMZIN
 70
     8
  9
$DIMBLK
  1

  9
$DIMASO
 70
     1
  9
$DIMSHO
 70
     1
  9
$DIMPOST
  1

  9
$DIMAPOST
  1
"
  9
$DIMALT
 70
     0
  9
$DIMALTD
 70
     2
  9
$DIMALTF
 40
0.0393701
  9
$DIMLFAC
 40
1.0
  9
$DIMTOFL
 70
     1
  9
$DIMTVP
 40
0.0
  9
$DIMTIX
 70
     0
  9
$DIMSOXD
 70
     0
  9
$DIMSAH
 70
     0
  9
$DIMBLK1
  1

  9
$DIMBLK2
  1

  9
$DIMSTYLE
  2
AM_DIN
  9
$DIMCLRD
 70
   256
  9
$DIMCLRE
 70
   256
  9
$DIMCLRT
 70
     2
  9
$DIMTFAC
 40
0.71
  9
$DIMGAP
 40
1.5
  9
$DIMJUST
 70
     0
  9
$DIMSD1
 70
     0
  9
$DIMSD2
 70
     0
  9
$DIMTOLJ
 70
     0
  9
$DIMTZIN
 70
     8
  9
$DIMALTZ
 70
     0
  9
$DIMALTTZ
 70
     0
  9
$DIMUPT
 70
     0
  9
$DIMDEC
 70
     2
  9
$DIMTDEC
 70
     3
  9
$DIMALTU
 70
     2
  9
$DIMALTTD
 70
     4
  9
$DIMTXSTY
  7
STANDARD
  9
$DIMAUNIT
 70
     0
  9
$DIMADEC
 70
     0
  9
$DIMALTRND
 40
0.0
  9
$DIMAZIN
 70
     2
  9
$DIMDSEP
 70
    46
  9
$DIMATFIT
 70
     3
  9
$DIMFRAC
 70
     0
  9
$DIMLDRBLK
  1

  9
$DIMLUNIT
 70
     2
  9
$DIMLWD
 70
    -1
  9
$DIMLWE
 70
    -1
  9
$DIMTMOVE
 70
     0
  9
$LUNITS
 70
     2
  9
$LUPREC
 70
     2
  9
$SKETCHINC
 40
1.0
  9
$FILLETRAD
 40
0.0
  9
$AUNITS
 70
     0
  9
$AUPREC
 70
     0
  9
$MENU
  1
.
  9
$ELEVATION
 40
0.0
  9
$PELEVATION
 40
0.0
  9
$THICKNESS
 40
0.0
  9
$LIMCHECK
 70
     0
  9
$CHAMFERA
 40
2.5
  9
$CHAMFERB
 40
2.5
  9
$CHAMFERC
 40
20.0
  9
$CHAMFERD
 40
0.0
  9
$SKPOLY
 70
     0
  9
$TDCREATE
 40
2455574.529283113
  9
$TDUCREATE
 40
2455574.445949781
  9
$TDUPDATE
 40
2456443.454644942
  9
$TDUUPDATE
 40
2456443.371311609
  9
$TDINDWG
 40
0.1442475810
  9
$TDUSRTIMER
 40
0.1442472222
  9
$USRTIMER
 70
     1
  9
$ANGBASE
 50
0.0
  9
$ANGDIR
 70
     0
  9
$PDMODE
 70
     0
  9
$PDSIZE
 40
0.0
  9
$PLINEWID
 40
0.0
  9
$SPLFRAME
 70
     0
  9
$SPLINETYPE
 70
     6
  9
$SPLINESEGS
 70
     8
  9
$HANDSEED
  5
17CA
  9
$SURFTAB1
 70
     6
  9
$SURFTAB2
 70
     6
  9
$SURFTYPE
 70
     6
  9
$SURFU
 70
     6
  9
$SURFV
 70
     6
  9
$UCSBASE
  2

  9
$UCSNAME
  2

  9
$UCSORG
 10
0.0
 20
0.0
 30
0.0
  9
$UCSXDIR
 10
1.0
 20
0.0
 30
0.0
  9
$UCSYDIR
 10
0.0
 20
1.0
 30
0.0
  9
$UCSORTHOREF
  2

  9
$UCSORTHOVIEW
 70
     0
  9
$UCSORGTOP
 10
0.0
 20
0.0
 30
0.0
  9
$UCSORGBOTTOM
 10
0.0
 20
0.0
 30
0.0
  9
$UCSORGLEFT
 10
0.0
 20
0.0
 30
0.0
  9
$UCSORGRIGHT
 10
0.0
 20
0.0
 30
0.0
  9
$UCSORGFRONT
 10
0.0
 20
0.0
 30
0.0
  9
$UCSORGBACK
 10
0.0
 20
0.0
 30
0.0
  9
$PUCSBASE
  2

  9
$PUCSNAME
  2

  9
$PUCSORG
 10
0.0
 20
0.0
 30
0.0
  9
$PUCSXDIR
 10
1.0
 20
0.0
 30
0.0
  9
$PUCSYDIR
 10
0.0
 20
1.0
 30
0.0
  9
$PUCSORTHOREF
  2

  9
$PUCSORTHOVIEW
 70
     0
  9
$PUCSORGTOP
 10
0.0
 20
0.0
 30
0.0
  9
$PUCSORGBOTTOM
 10
0.0
 20
0.0
 30
0.0
  9
$PUCSORGLEFT
 10
0.0
 20
0.0
 30
0.0
  9
$PUCSORGRIGHT
 10
0.0
 20
0.0
 30
0.0
  9
$PUCSORGFRONT
 10
0.0
 20
0.0
 30
0.0
  9
$PUCSORGBACK
 10
0.0
 20
0.0
 30
0.0
  9
$USERI1
 70
     0
  9
$USERI2
 70
     0
  9
$USERI3
 70
     0
  9
$USERI4
 70
     0
  9
$USERI5
 70
     0
  9
$USERR1
 40
0.0
  9
$USERR2
 40
0.0
  9
$USERR3
 40
0.0
  9
$USERR4
 40
0.0
  9
$USERR5
 40
0.0
  9
$WORLDVIEW
 70
     1
  9
$SHADEDGE
 70
     3
  9
$SHADEDIF
 70
    70
  9
$TILEMODE
 70
     1
  9
$MAXACTVP
 70
    64
  9
$PINSBASE
 10
0.0
 20
0.0
 30
0.0
  9
$PLIMCHECK
 70
     0
  9
$PEXTMIN
 10
1.000000000000000E+20
 20
1.000000000000000E+20
 30
1.000000000000000E+20
  9
$PEXTMAX
 10
-1.000000000000000E+20
 20
-1.000000000000000E+20
 30
-1.000000000000000E+20
  9
$PLIMMIN
 10
0.0
 20
0.0
  9
$PLIMMAX
 10
420.0
 20
297.0
  9
$UNITMODE
 70
     0
  9
$VISRETAIN
 70
     1
  9
$PLINEGEN
 70
     0
  9
$PSLTSCALE
 70
     1
  9
$TREEDEPTH
 70
  3020
  9
$CMLSTYLE
  2
Standard
  9
$CMLJUST
 70
     0
  9
$CMLSCALE
 40
20.0
  9
$PROXYGRAPHICS
 70
     1
  9
$MEASUREMENT
 70
     1
  9
$CELWEIGHT
370
    -1
  9
$ENDCAPS
280
     0
  9
$JOINSTYLE
280
     0
  9
$LWDISPLAY
290
     0
  9
$INSUNITS
 70
     4
  9
$HYPERLINKBASE
  1

  9
$STYLESHEET
  1

  9
$XEDIT
290
     1
  9
$CEPSNTYPE
380
     0
  9
$PSTYLEMODE
290
     1
  9
$FINGERPRINTGUID
  2
{04736968-85A1-4712-8936-A7B219E40AC9}
  9
$VERSIONGUID
  2
{BACFCE2E-0580-418F-8847-3FD08DD944CF}
  9
$EXTNAMES
290
     1
  9
$PSVPSCALE
 40
0.0
  9
$OLESTARTUP
290
     0
  9
$SORTENTS
280
   127
  9
$INDEXCTL
280
     0
  9
$HIDETEXT
280
     0
  9
$XCLIPFRAME
290
     0
  9
$HALOGAP
280
     0
  9
$OBSCOLOR
 70
   257
  9
$OBSLTYPE
280
     0
  9
$INTERSECTIONDISPLAY
280
     0
  9
$INTERSECTIONCOLOR
 70
   257
  9
$DIMASSOC
280
     2
  9
$PROJECTNAME
  1

  0
ENDSEC
  0
SECTION
  2
CLASSES
  0
CLASS
  1
ACDBDICTIONARYWDFLT
  2
AcDbDictionaryWithDefault
  3
ObjectDBX Classes
 90
        0
 91
        1
280
     0
281
     0
  0
CLASS
  1
ACME_DOCUMENT
  2
AcMeDbDoc
  3
AcMeServices
 90
     1024
 91
        2
280
     0
281
     0
  0
CLASS
  1
AMGSETTINGSOBJ
  2
AmgSettingsObj
  3
"AcadM|Product Description: AutoCAD Mechanical|Company: Autodesk, Inc."
 90
     1024
 91
        2
280
     0
281
     0
  0
CLASS
  1
ACMESCOPE
  2
AcMeScope
  3
AcMeServices
 90
     1024
 91
        1
280
     0
281
     0
  0
CLASS
  1
ACMECOMMANDHISTORY
  2
AcMeCommandHistory
  3
AcMeServices
 90
     1024
 91
        1
280
     0
281
     0
  0
CLASS
  1
ACIMSYSVARMAN
  2
AcImSysVarManager
  3
AcMeServices
 90
     1024
 91
        5
280
     0
281
     0
  0
CLASS
  1
ACIMREALSYSVAR
  2
AcImRealSysVar
  3
AcMeServices
 90
     1024
 91
        1
280
     0
281
     0
  0
CLASS
  1
ACIMINTSYSVAR
  2
AcImIntSysVar
  3
AcMeServices
 90
     1024
 91
       27
280
     0
281
     0
  0
CLASS
  1
ACMEDRAWINGMAN
  2
AcMeDrawingMan
  3
AcMeServices
 90
     1024
 91
        1
280
     0
281
     0
  0
CLASS
  1
ACMEVIEW
  2
AcMeView
  3
AcMeServices
 90
     1024
 91
        1
280
     0
281
     0
  0
CLASS
  1
ACDBENTITYCACHE
  2
AcMeEntityCache
  3
AcMeServices
 90
     1024
 91
        1
280
     0
281
     0
  0
CLASS
  1
GSMANAGER
  2
AcMeGSManager
  3
AcMeServices
 90
     1024
 91
        0
280
     0
281
     0
  0
CLASS
  1
AMDTINTERNALREACTOR
  2
AmdtInternalReactor
  3
AcMeServices
 90
     1024
 91
        1
280
     0
281
     0
  0
CLASS
  1
ACMESTATEMGR
  2
AcMeStateMgr
  3
AcMeServices
 90
     1024
 91
        1
280
     0
281
     0
  0
CLASS
  1
ACGREFMASTER
  2
AcGrefMaster
  3
AcAttribServices
 90
     1024
 91
        1
280
     0
281
     0
  0
CLASS
  1
ACME_DATABASE
  2
AcMeDbDatabase
  3
AcMeServices
 90
     1024
 91
        1
280
     0
281
     0
  0
CLASS
  1
ACRFINSADJUSTERMGR
  2
AcRfInsAdjusterMgr
  3
AcMeServices
 90
     1024
 91
        1
280
     0
281
     0
  0
CLASS
  1
ACGREFACADMASTER
  2
AcGrefacadMaster
  3
AcGrefServices
 90
     1024
 91
        1
280
     0
281
     0
  0
CLASS
  1
AMIMASTER
  2
AmiMaster
  3
AmiServices
 90
     1024
 91
        1
280
     0
281
     0
  0
CLASS
  1
ACMDATADICTIONARY
  2
AcmDataDictionary
  3
"AcmSymBB|Product Description: AutoCAD Mechanical|Company: Autodesk, Inc."
 90
     1024
 91
        1
280
     0
281
     0
  0
CLASS
  1
ACMDATAENTRYBLOCK
  2
AcmDataEntryBlock
  3
AcmSymBB|Product Description: AutoCAD Mechanical|Company: Autodesk, Inc.
 90
     1024
 91
        0
280
     0
281
     0
  0
CLASS
  1
ACIMSTRSYSVAR
  2
AcImStrSysVar
  3
AcMeServices
 90
     1024
 91
        5
280
     0
281
     0
  0
CLASS
  1
ACMSTANDARDISO
  2
AcmStandardISO
  3
"Amdt_StdImp|Product Description: AutoCAD Mechanical|Company: Autodesk, Inc."
 90
     1024
 91
        0
280
     0
281
     0
  0
CLASS
  1
AMGOBJPROPCFG
  2
AmgObjPropCfg
  3
"AmgLay|Product Description: AutoCAD Mechanical|Company: Autodesk, Inc."
 90
     1025
 91
        1
280
     0
281
     0
  0
CLASS
  1
AMDTEDGESTANDARDISO
  2
AmdtEdgeStdISO
  3
"Amdt_StdImp|Product Description: AutoCAD Mechanical|Company: Autodesk, Inc."
 90
     1024
 91
        0
280
     0
281
     0
  0
CLASS
  1
ACMSURFSTANDARDISO
  2
AcmSurfTextStdISO
  3
"Amdt_StdImp|Product Description: AutoCAD Mechanical|Company: Autodesk, Inc."
 90
     1024
 91
        0
280
     0
281
     0
  0
CLASS
  1
ACMFCFSTANDARDISO
  2
AcmFCFStdISO
  3
"Amdt_StdImp|Product Description: AutoCAD Mechanical|Company: Autodesk, Inc."
 90
     1024
 91
        0
280
     0
281
     0
  0
CLASS
  1
ACMWELDSTANDARDISO
  2
AcmWeldingStdISO
  3
"Amdt_StdImp|Product Description: AutoCAD Mechanical|Company: Autodesk, Inc."
 90
     1024
 91
        0
280
     0
281
     0
  0
CLASS
  1
ACMIDSTANDARDISO
  2
AcmIdStdISO
  3
"Amdt_StdImp|Product Description: AutoCAD Mechanical|Company: Autodesk, Inc."
 90
     1024
 91
        0
280
     0
281
     0
  0
CLASS
  1
ACMDATUMSTANDARDISO
  2
AcmDatumStdISO
  3
"Amdt_StdImp|Product Description: AutoCAD Mechanical|Company: Autodesk, Inc."
 90
     1024
 91
        0
280
     0
281
     0
  0
CLASS
  1
ACMBOMSTANDARDISO
  2
AcmBOMStdISO
  3
"Amdt_StdImp|Product Description: AutoCAD Mechanical|Company: Autodesk, Inc."
 90
     1024
 91
        0
280
     0
281
     0
  0
CLASS
  1
ACMDETAILSTANDARDISO
  2
AmdtDetailSymStdISO
  3
"Amdt_StdImp|Product Description: AutoCAD Mechanical|Company: Autodesk, Inc."
 90
     1024
 91
        0
280
     0
281
     0
  0
CLASS
  1
ACMSECTIONSTANDARDISO
  2
AmdtSectionSymStdISO
  3
"Amdt_StdImp|Product Description: AutoCAD Mechanical|Company: Autodesk, Inc."
 90
     1024
 91
        0
280
     0
281
     0
  0
CLASS
  1
ACMCENTERLINESTANDARDISO
  2
AmdtCenterLineStdISO
  3
"Amdt_StdImp|Product Description: AutoCAD Mechanical|Company: Autodesk, Inc."
 90
     1024
 91
        0
280
     0
281
     0
  0
CLASS
  1
ACMNOTESTANDARDISO
  2
AmdtNoteStdISO
  3
"Amdt_StdImp|Product Description: AutoCAD Mechanical|Company: Autodesk, Inc."
 90
     1024
 91
        0
280
     0
281
     0
  0
CLASS
  1
ACAMGLAYSTD
  2
AcAmgLayStd
  3
"AmgLay|Product Description: AutoCAD Mechanical|Company: Autodesk, Inc."
 90
     1024
 91
        1
280
     0
281
     0
  0
CLASS
  1
ACAMGDIMSTD
  2
AcAmgDimStd
  3
"AmgDim|Product Description: AutoCAD Mechanical|Company: Autodesk, Inc."
 90
     1024
 91
        1
280
     0
281
     0
  0
CLASS
  1
ACAMGHOLECHARTSTDISO
  2
AcAmgHoleChartStdISO
  3
AmgDim|Product Description: AutoCAD Mechanical|Company: Autodesk, Inc.
 90
     1024
 91
        0
280
     0
281
     0
  0
CLASS
  1
ACAMGTITLESTD
  2
AcAmgTitleStd
  3
"AmgTitle|Product Description: AutoCAD Mechanical|Company: Autodesk, Inc."
 90
     4095
 91
        1
280
     0
281
     0
  0
CLASS
  1
LAYER_INDEX
  2
AcDbLayerIndex
  3
ObjectDBX Classes
 90
        0
 91
        0
280
     0
281
     0
  0
CLASS
  1
IDBUFFER
  2
AcDbIdBuffer
  3
ObjectDBX Classes
 90
        0
 91
        0
280
     0
281
     0
  0
CLASS
  1
DICTIONARYVAR
  2
AcDbDictionaryVar
  3
ObjectDBX Classes
 90
        0
 91
        9
280
     0
281
     0
  0
CLASS
  1
AM_DRAWING_MGR
  2
AcDmDwgMgr
  3
AcMechDwgViewMgmt
 90
     1024
 91
        1
280
     0
281
     0
  0
CLASS
  1
AM_DWG_DOCUMENT
  2
AcDmDwgDocument
  3
AcMechDwgViewMgmt
 90
     1024
 91
        1
280
     0
281
     0
  0
CLASS
  1
AM_DWG_SHEET
  2
AcDmSheet
  3
AcMechDwgViewMgmt
 90
     1024
 91
        2
280
     0
281
     0
  0
CLASS
  1
AM_VIEWDIMPARMAP
  2
AcDmViewDimParMap
  3
AcMechDwgViewMgmt
 90
     1024
 91
        2
280
     0
281
     0
  0
CLASS
  1
AM_DWGMGR_NAME
  2
AcDmDwgMgrName
  3
AcMechDwgViewMgmt
 90
     1024
 91
        1
280
     0
281
     0
  0
CLASS
  1
AMDTMENUSTATEMGR
  2
AmdtMenuStateMgr
  3
McadcomServices
 90
     1024
 91
        1
280
     0
281
     0
  0
CLASS
  1
AMDTMCOMMENUSTATE
  2
AmdtMcomMenuState
  3
McadcomServices
 90
     1024
 91
        1
280
     0
281
     0
  0
CLASS
  1
MAPIAMMOUDLE
  2
MApiAmModule
  3
MApiAmServices
 90
     1024
 91
        1
280
     0
281
     0
  0
CLASS
  1
AMDTADMENUSTATE
  2
AmdtAdMenuState
  3
DesignerServices
 90
     1024
 91
        1
280
     0
281
     0
  0
CLASS
  1
ADAPPL
  2
AcAdAppl
  3
DesignerServices
 90
     1024
 91
        1
280
     0
281
     0
  0
CLASS
  1
DEPMGR
  2
AcAdDepMgr
  3
DesignerServices
 90
     1024
 91
        1
280
     0
281
     0
  0
CLASS
  1
PARAMMGR
  2
AcAdParamMgr
  3
DesignerServices
 90
     1024
 91
        1
280
     0
281
     0
  0
CLASS
  1
PARAMSCOPE
  2
AcAdParamScope
  3
DesignerServices
 90
     1024
 91
        1
280
     0
281
     0
  0
CLASS
  1
NAMEDAPPL
  2
AcAdNamedAppl
  3
DesignerServices
 90
     1024
 91
        1
280
     0
281
     0
  0
CLASS
  1
AMDTDMMENUSTATE
  2
AmdtDmMenuState
  3
AcMechDwgViewMgmt
 90
     1024
 91
        1
280
     0
281
     0
  0
CLASS
  1
AMDTAMMENUSTATE
  2
AmdtAmMenuState
  3
DesignerAssemblies
 90
     1024
 91
        1
280
     0
281
     0
  0
CLASS
  1
ACAMPROJECT
  2
AcAmProject
  3
DesignerAssemblies
 90
     1024
 91
        1
280
     0
281
     0
  0
CLASS
  1
ACAMGRCOMPDEF
  2
AcAmGrCompDef
  3
DesignerAssemblies
 90
     1024
 91
        1
280
     0
281
     0
  0
CLASS
  1
ACCMCONTEXT
  2
AcCmContext
  3
DesignerAssemblies
 90
     1024
 91
        0
280
     0
281
     0
  0
CLASS
  1
ACAMCOMPDEF
  2
AcAmCompDef
  3
DesignerAssemblies
 90
     1024
 91
        1
280
     0
281
     0
  0
CLASS
  1
ACAMCOMPDEFMGR
  2
AcAmCompDefMgr
  3
DesignerAssemblies
 90
     1024
 91
        1
280
     0
281
     0
  0
CLASS
  1
AMCONTEXTMGR
  2
AcAmContextMgr
  3
DesignerAssemblies
 90
     1024
 91
        1
280
     0
281
     0
  0
CLASS
  1
ACAMCONTEXTMODELER
  2
AcAmContextModeler
  3
DesignerAssemblies
 90
     1024
 91
        1
280
     0
281
     0
  0
CLASS
  1
ACMTHREADLINESTANDARDISO
  2
AmdtThreadLineStdISO
  3
"Amdt_StdImp|Product Description: AutoCAD Mechanical|Company: Autodesk, Inc."
 90
     1024
 91
        0
280
     0
281
     0
  0
CLASS
  1
CATALOGSTATE
  2
AcAmCatalogState
  3
DesignerAssemblies
 90
     1024
 91
        1
280
     0
281
     0
  0
CLASS
  1
ACAMGRCOMPDEFSET
  2
AcAmGrCompDefSet
  3
DesignerAssemblies
 90
     1024
 91
        1
280
     0
281
     0
  0
CLASS
  1
AMDTBROWSERDBTAB
  2
AmdtBrowserDbTab
  3
McadcomServices
 90
     1024
 91
        1
280
     0
281
     0
  0
CLASS
  1
CBROWSERAPPOBJECT
  2
CBrowserAppObject
  3
McadcomServices
 90
     1024
 91
        2
280
     0
281
     0
  0
CLASS
  1
DM_PLACEHOLDER
  2
AcDmSelsetPlaceholder
  3
AcMechDwgViewMgmt
 90
     1024
 91
        1
280
     0
281
     0
  0
CLASS
  1
TABLESTYLE
  2
AcDbTableStyle
  3
ObjectDBX Classes
 90
     4095
 91
        1
280
     0
281
     0
  0
CLASS
  1
VAACXREFPANELOBJECT
  2
VaAcXREFPanelObject
  3
VAAC_ADDIN
 90
        0
 91
        0
280
     0
281
     0
  0
CLASS
  1
VAACIMAGEINVENTORY
  2
VaAcImageInventory
  3
VAAC_ADDIN
 90
        0
 91
        0
280
     0
281
     0
  0
CLASS
  1
AMDTNOTETEMPLATEDB
  2
AmdtNoteTemplateDB
  3
AcmSymBB|Product Description: AutoCAD Mechanical|Company: Autodesk, Inc.
 90
     1024
 91
        6
280
     0
281
     0
  0
CLASS
  1
ACAMGFILTERDAT
  2
AcAmgFilterDat
  3
"AcadM|Product Description: AutoCAD Mechanical|Company: Autodesk, Inc."
 90
     1024
 91
        0
280
     0
281
     0
  0
CLASS
  1
ACMBOM
  2
AcmBom
  3
"AcmSymBB|Product Description: AutoCAD Mechanical|Company: Autodesk, Inc."
 90
     1024
 91
        0
280
     0
281
     0
  0
CLASS
  1
AMDTFORMULAUPDATEDISPATCHER
  2
AmdtFormulaUpdateDispatcher
  3
AcMeServices
 90
     1024
 91
        0
280
     0
281
     0
  0
CLASS
  1
ACMSTANDARDDIN
  2
AcmStandardDIN
  3
"Amdt_StdImp|Product Description: AutoCAD Mechanical|Company: Autodesk, Inc."
 90
     1024
 91
        1
280
     0
281
     0
  0
CLASS
  1
AMDTEDGESTANDARDDIN13715
  2
AmdtEdgeStdDIN13715
  3
"Amdt_StdImp|Product Description: AutoCAD Mechanical|Company: Autodesk, Inc."
 90
     1024
 91
        1
280
     0
281
     0
  0
CLASS
  1
ACMSURFSTANDARDDIN
  2
AcmSurfTextStdDIN
  3
"Amdt_StdImp|Product Description: AutoCAD Mechanical|Company: Autodesk, Inc."
 90
     1024
 91
        0
280
     0
281
     0
  0
CLASS
  1
ACMFCFSTANDARDDIN
  2
AcmFCFStdDIN
  3
"Amdt_StdImp|Product Description: AutoCAD Mechanical|Company: Autodesk, Inc."
 90
     1024
 91
        1
280
     0
281
     0
  0
CLASS
  1
ACMWELDSTANDARDDIN
  2
AcmWeldingStdDIN
  3
"Amdt_StdImp|Product Description: AutoCAD Mechanical|Company: Autodesk, Inc."
 90
     1024
 91
        1
280
     0
281
     0
  0
CLASS
  1
ACMIDSTANDARDDIN
  2
AcmIdStdDIN
  3
"Amdt_StdImp|Product Description: AutoCAD Mechanical|Company: Autodesk, Inc."
 90
     1024
 91
        1
280
     0
281
     0
  0
CLASS
  1
ACMDATUMSTANDARDDIN
  2
AcmDatumStdDIN
  3
"Amdt_StdImp|Product Description: AutoCAD Mechanical|Company: Autodesk, Inc."
 90
     1024
 91
        1
280
     0
281
     0
  0
CLASS
  1
ACMBOMSTANDARDDIN
  2
AcmBOMStdDIN
  3
"Amdt_StdImp|Product Description: AutoCAD Mechanical|Company: Autodesk, Inc."
 90
     1024
 91
        1
280
     0
281
     0
  0
CLASS
  1
ACMDETAILSTANDARDDIN
  2
AmdtDetailSymStdDIN
  3
"Amdt_StdImp|Product Description: AutoCAD Mechanical|Company: Autodesk, Inc."
 90
     1024
 91
        1
280
     0
281
     0
  0
CLASS
  1
ACMSECTIONSTANDARDDIN
  2
AmdtSectionSymStdDIN
  3
"Amdt_StdImp|Product Description: AutoCAD Mechanical|Company: Autodesk, Inc."
 90
     1024
 91
        1
280
     0
281
     0
  0
CLASS
  1
ACMCENTERLINESTANDARDDIN
  2
AmdtCenterLineStdDIN
  3
"Amdt_StdImp|Product Description: AutoCAD Mechanical|Company: Autodesk, Inc."
 90
     1024
 91
        1
280
     0
281
     0
  0
CLASS
  1
ACMTHREADLINESTANDARDDIN
  2
AmdtThreadLineStdDIN
  3
"Amdt_StdImp|Product Description: AutoCAD Mechanical|Company: Autodesk, Inc."
 90
     1024
 91
        1
280
     0
281
     0
  0
CLASS
  1
ACMNOTESTANDARDDIN
  2
AmdtNoteStdDIN
  3
"Amdt_StdImp|Product Description: AutoCAD Mechanical|Company: Autodesk, Inc."
 90
     1024
 91
        1
280
     0
281
     0
  0
CLASS
  1
ACAMGHOLECHARTSTDDIN
  2
AcAmgHoleChartStdDIN
  3
AmgDim|Product Description: AutoCAD Mechanical|Company: Autodesk, Inc.
 90
     1024
 91
        1
280
     0
281
     0
  0
CLASS
  1
MATERIAL
  2
AcDbMaterial
  3
ObjectDBX Classes
 90
     1153
 91
        3
280
     0
281
     0
  0
CLASS
  1
VISUALSTYLE
  2
AcDbVisualStyle
  3
ObjectDBX Classes
 90
     4095
 91
       19
280
     0
281
     0
  0
CLASS
  1
SCALE
  2
AcDbScale
  3
ObjectDBX Classes
 90
     1153
 91
       17
280
     0
281
     0
  0
CLASS
  1
MLEADERSTYLE
  2
AcDbMLeaderStyle
  3
ACDB_MLEADERSTYLE_CLASS
 90
     4095
 91
        1
280
     0
281
     0
  0
CLASS
  1
ACRFATTGENMGR
  2
AcRfAttGeneralMgr
  3
AcAttribServices
 90
     1024
 91
        0
280
     0
281
     0
  0
CLASS
  1
ACRFOBJATTMGR
  2
AcRfObjAttGroupMgr
  3
AcAttribServices
 90
     1024
 91
        0
280
     0
281
     0
  0
CLASS
  1
ACRFMCADAPIATTHOLDER
  2
AcRfMCADAPIAttHolder
  3
AcAttribServices
 90
     1024
 91
        0
280
     0
281
     0
  0
CLASS
  1
AMDTSYSATTR
  2
AmdtSystemAttribute
  3
AcAttribServices
 90
     1024
 91
        0
280
     0
281
     0
  0
CLASS
  1
ACMTAPERSTANDARDISO
  2
AcmTaperStdISO
  3
"Amdt_StdImp|Product Description: AutoCAD Mechanical|Company: Autodesk, Inc."
 90
     1024
 91
        0
280
     0
281
     0
  0
CLASS
  1
ACMANOOTATIONVIEWSTANDARDISO
  2
AmdtAnViewStdISO
  3
"Amdt_StdImp|Product Description: AutoCAD Mechanical|Company: Autodesk, Inc."
 90
     1024
 91
        0
280
     0
281
     0
  0
CLASS
  1
ACMTAPERSTANDARDDIN
  2
AcmTaperStdDIN
  3
"Amdt_StdImp|Product Description: AutoCAD Mechanical|Company: Autodesk, Inc."
 90
     1024
 91
        1
280
     0
281
     0
  0
CLASS
  1
ACMANOOTATIONVIEWSTANDARDDIN
  2
AmdtAnViewStdDIN
  3
"Amdt_StdImp|Product Description: AutoCAD Mechanical|Company: Autodesk, Inc."
 90
     1024
 91
        1
280
     0
281
     0
  0
CLASS
  1
EXACXREFPANELOBJECT
  2
ExAcXREFPanelObject
  3
EXAC_ESW
 90
     1025
 91
        1
280
     0
281
     0
  0
CLASS
  1
NPOCOLLECTION
  2
AcDbImpNonPersistentObjectsCollection
  3
ObjectDBX Classes
 90
     1153
 91
        1
280
     0
281
     0
  0
CLASS
  1
CAMSSTRUCTBTNSTATE
  2
StructBtnState
  3
DesignerAssemblies
 90
     1024
 91
        1
280
     0
281
     0
  0
CLASS
  1
CELLSTYLEMAP
  2
AcDbCellStyleMap
  3
ObjectDBX Classes
 90
     1152
 91
        1
280
     0
281
     0
  0
CLASS
  1
AEC_REFEDIT_STATUS_TRACKER
  2
AecDbRefEditStatusTracker
  3
AecArchBase60|Product Desc: Autodesk Architectural Desktop 2007 |Company: Autodesk,Inc. |WEB Address: www.autodesk.com
 90
      129
 91
        0
280
     0
281
     0
  0
CLASS
  1
IMAGE
  2
AcDbRasterImage
  3
ISM
 90
     2175
 91
        0
280
     0
281
     1
  0
CLASS
  1
IMAGEDEF_REACTOR
  2
AcDbRasterImageDefReactor
  3
ISM
 90
        1
 91
        0
280
     0
281
     0
  0
CLASS
  1
IMAGEDEF
  2
AcDbRasterImageDef
  3
ISM
 90
        0
 91
        0
280
     0
281
     0
  0
CLASS
  1
RASTERVARIABLES
  2
AcDbRasterVariables
  3
ISM
 90
        0
 91
        0
280
     0
281
     0
  0
CLASS
  1
SORTENTSTABLE
  2
AcDbSortentsTable
  3
ObjectDBX Classes
 90
        0
 91
        1
280
     0
281
     0
  0
CLASS
  1
AMDTSECTIONSYM
  2
AmdtSectionSym
  3
"AcmSymBB|Product Description: AutoCAD Mechanical|Company: Autodesk, Inc."
 90
     4095
 91
        0
280
     0
281
     1
  0
CLASS
  1
AMDTSECTIONSYMLABEL
  2
AmdtSectionSymLabel
  3
"AcmSymBB|Product Description: AutoCAD Mechanical|Company: Autodesk, Inc."
 90
     4095
 91
        0
280
     0
281
     1
  0
CLASS
  1
DIMASSOC
  2
AcDbDimAssoc
  3
"AcDbDimAssoc|Product Desc:     AcDim ARX App For Dimension|Company:          Autodesk, Inc.|WEB Address:      www.autodesk.com"
 90
        0
 91
        1
280
     0
281
     0
  0
CLASS
  1
ACMSURFSTANDARDDIN2002
  2
AcmSurfTextStdDIN2002
  3
"Amdt_StdImp|Product Description: AutoCAD Mechanical|Company: Autodesk, Inc."
 90
     1024
 91
        1
280
     0
281
     0
  0
ENDSEC
  0
SECTION
  2
TABLES
  0
TABLE
  2
VPORT
  5
8
330
0
100
AcDbSymbolTable
 70
     1
  0
VPORT
  5
3B2
330
8
100
AcDbSymbolTableRecord
100
AcDbViewportTableRecord
  2
*Active
 70
     0
 10
0.0
 20
0.0
 11
1.0
 21
1.0
 12
535.9798344814264
 22
259.9012614247795
 13
0.0
 23
0.0
 14
2.5
 24
2.5
 15
10.0
 25
10.0
 16
0.0
 26
0.0
 36
1.0
 17
0.0
 27
0.0
 37
0.0
 40
572.0667011409959
 41
1.9728555917481
 42
50.0
 43
0.0
 44
0.0
 50
0.0
 51
0.0
 71
     0
 72
   100
 73
     1
 74
     3
 75
     0
 76
     0
 77
     0
 78
     0
281
     0
 65
     0
110
0.0
120
0.0
130
0.0
111
1.0
121
0.0
131
0.0
112
0.0
122
1.0
132
0.0
 79
     0
146
0.0
  0
ENDTAB
  0
TABLE
  2
LTYPE
  5
5
330
0
100
AcDbSymbolTable
 70
    14
  0
LTYPE
  5
14
330
5
100
AcDbSymbolTableRecord
100
AcDbLinetypeTableRecord
  2
ByBlock
 70
     0
  3

 72
    65
 73
     0
 40
0.0
  0
LTYPE
  5
15
330
5
100
AcDbSymbolTableRecord
100
AcDbLinetypeTableRecord
  2
ByLayer
 70
     0
  3

 72
    65
 73
     0
 40
0.0
  0
LTYPE
  5
16
330
5
100
AcDbSymbolTableRecord
100
AcDbLinetypeTableRecord
  2
Continuous
 70
     0
  3
Solid line
 72
    65
 73
     0
 40
0.0
  0
LTYPE
  5
67
330
5
100
AcDbSymbolTableRecord
100
AcDbLinetypeTableRecord
  2
Amconstr
 70
     0
  3
_______________________
 72
    65
 73
     2
 40
9999.0
 49
9999.0
 74
     0
 49
0.0
 74
     0
  0
LTYPE
  5
6C
330
5
100
AcDbSymbolTableRecord
100
AcDbLinetypeTableRecord
  2
Amzigzag
 70
     0
  3
/\/-/\/-/\/-/\/-/\/-/\/
 72
    65
 73
     2
 40
11.0001
 49
0.0001
 74
     4
 75
   136
340
22C
 46
0.04
 50
0.0
 44
0.0
 45
0.0
 49
-11.0
 74
     0
  0
LTYPE
  5
7E
330
5
100
AcDbSymbolTableRecord
100
AcDbLinetypeTableRecord
  2
CENTER
 70
     0
  3
__ . __
 72
    65
 73
     4
 40
7.0
 49
4.0
 74
     0
 49
-1.0
 74
     0
 49
1.0
 74
     0
 49
-1.0
 74
     0
  0
LTYPE
  5
D8
330
5
100
AcDbSymbolTableRecord
100
AcDbLinetypeTableRecord
  2
HIDDEN
 70
     0
  3
Hidden __ __ __ __ __ __ __ __ __ __ __ __ __ _
 72
    65
 73
     2
 40
9.524999999999996
 49
6.349999999999998
 74
     0
 49
-3.174999999999998
 74
     0
  0
LTYPE
  5
D9
330
5
100
AcDbSymbolTableRecord
100
AcDbLinetypeTableRecord
  2
PHANTOM2
 70
     0
  3
Phantom (.5x) ___ _ _ ___ _ _ ___ _ _ ___ _ _
 72
    65
 73
     6
 40
31.75
 49
15.875
 74
     0
 49
-3.174999999999998
 74
     0
 49
3.174999999999998
 74
     0
 49
-3.174999999999998
 74
     0
 49
3.174999999999998
 74
     0
 49
-3.174999999999998
 74
     0
  0
LTYPE
  5
2E5
330
5
100
AcDbSymbolTableRecord
100
AcDbLinetypeTableRecord
  2
ACDINWELD
 70
     0
  3
_ _ _ _ _
 72
    65
 73
     2
 40
2.0
 49
2.0
 74
     0
 49
-1.0
 74
     0
  0
LTYPE
  5
2E6
330
5
100
AcDbSymbolTableRecord
100
AcDbLinetypeTableRecord
  2
ACDINTGB
 70
     0
  3
__ . . __ . .
 72
    65
 73
     6
 40
9.0
 49
4.0
 74
     0
 49
-1.0
 74
     0
 49
1.0
 74
     0
 49
-1.0
 74
     0
 49
1.0
 74
     0
 49
-1.0
 74
     0
  0
LTYPE
  5
2E7
330
5
100
AcDbSymbolTableRecord
100
AcDbLinetypeTableRecord
  2
ACDINTGL
 70
     0
  3
_ _ _ _ _
 72
    65
 73
     2
 40
3.0
 49
2.0
 74
     0
 49
-1.0
 74
     0
  0
LTYPE
  5
321
330
5
100
AcDbSymbolTableRecord
100
AcDbLinetypeTableRecord
  2
AM_DIN_F_W050
 70
     0
  3
__ __ __ __ __ __ __ __ __ __ __ __ __ __ __
 72
    65
 73
     2
 40
6.25
 49
4.75
 74
     0
 49
-1.5
 74
     0
  0
LTYPE
  5
322
330
5
100
AcDbSymbolTableRecord
100
AcDbLinetypeTableRecord
  2
AM_DIN_G_W050
 70
     0
  3
____ . ____ . ____ . ____ . ____ . ____ . ____
 72
    65
 73
     4
 40
13.75
 49
9.75
 74
     0
 49
-1.5
 74
     0
 49
1.0
 74
     0
 49
-1.5
 74
     0
  0
LTYPE
  5
323
330
5
100
AcDbSymbolTableRecord
100
AcDbLinetypeTableRecord
  2
AM_DIN_K_W050
 70
     0
  3
_____ . . _____ . . _____ . . ____ .. ____
 72
    65
 73
     6
 40
16.25
 49
9.75
 74
     0
 49
-1.5
 74
     0
 49
1.0
 74
     0
 49
-1.5
 74
     0
 49
1.0
 74
     0
 49
-1.5
 74
     0
  0
LTYPE
  5
324
330
5
100
AcDbSymbolTableRecord
100
AcDbLinetypeTableRecord
  2
AM_DIN_G_W050x2
 70
     0
  3
__ . __ . __ . __ . __ . __
 72
    65
 73
     4
 40
6.875
 49
4.75
 74
     0
 49
-0.875
 74
     0
 49
0.375
 74
     0
 49
-0.875
 74
     0
  0
LTYPE
  5
325
330
5
100
AcDbSymbolTableRecord
100
AcDbLinetypeTableRecord
  2
AM_DIN_F_W050x2
 70
     0
  3
 _ _ _ _ _ _ _ _ _ _ _ _
 72
    65
 73
     2
 40
3.125
 49
2.25
 74
     0
 49
-0.875
 74
     0
  0
ENDTAB
  0
TABLE
  2
LAYER
  5
2
102
{ACAD_XDICTIONARY
360
752
102
}
330
0
100
AcDbSymbolTable
 70
     9
  0
LAYER
  5
10
102
{ACAD_XDICTIONARY
360
5C0
102
}
330
2
100
AcDbSymbolTableRecord
100
AcDbLayerTableRecord
  2
0
 70
     0
 62
     7
  6
Continuous
370
    -3
390
F
  0
LAYER
  5
722
102
{ACAD_XDICTIONARY
360
723
102
}
330
2
100
AcDbSymbolTableRecord
100
AcDbLayerTableRecord
  2
BEZUGSACHSEN
 70
     0
 62
     7
  6
Continuous
370
    -3
390
F
  0
LAYER
  5
724
102
{ACAD_XDICTIONARY
360
725
102
}
330
2
100
AcDbSymbolTableRecord
100
AcDbLayerTableRecord
  2
RUNDUNGEN
 70
     0
 62
     7
  6
Continuous
370
    -3
390
F
  0
LAYER
  5
726
330
2
100
AcDbSymbolTableRecord
100
AcDbLayerTableRecord
  2
Defpoints
 70
     0
 62
     7
  6
Continuous
290
     0
370
    -3
390
F
  0
LAYER
  5
727
102
{ACAD_XDICTIONARY
360
728
102
}
330
2
100
AcDbSymbolTableRecord
100
AcDbLayerTableRecord
  2
AM_5
 70
     0
 62
     3
  6
Continuous
370
    25
390
F
1001
AcAecLayerStandard
1000

1000

  0
LAYER
  5
72D
102
{ACAD_XDICTIONARY
360
72E
102
}
330
2
100
AcDbSymbolTableRecord
100
AcDbLayerTableRecord
  2
AM_8
 70
     0
 62
     1
  6
Continuous
370
    25
390
F
1001
AcAecLayerStandard
1000

1000

  0
LAYER
  5
72F
330
2
100
AcDbSymbolTableRecord
100
AcDbLayerTableRecord
  2
AM_BOR
 70
     0
 62
     7
  6
Continuous
370
    50
390
F
1001
AcAecLayerStandard
1000

1000

  0
LAYER
  5
736
330
2
100
AcDbSymbolTableRecord
100
AcDbLayerTableRecord
  2
TEIL_STARTBEZUEGE
 70
     0
 62
     7
  6
Continuous
370
    -3
390
F
  0
LAYER
  5
737
330
2
100
AcDbSymbolTableRecord
100
AcDbLayerTableRecord
  2
AM_7
 70
     0
 62
     4
  6
AM_DIN_G_W050
370
    25
390
F
1001
AcAecLayerStandard
1000

1000

  0
ENDTAB
  0
TABLE
  2
STYLE
  5
3
330
0
100
AcDbSymbolTable
 70
     3
  0
STYLE
  5
11
330
3
100
AcDbSymbolTableRecord
100
AcDbTextStyleTableRecord
  2
STANDARD
 70
     0
 40
0.0
 41
1.0
 50
0.0
 71
     0
 42
2.5
  3
ISOCP.SHX
  4

  0
STYLE
  5
22C
330
3
100
AcDbSymbolTableRecord
100
AcDbTextStyleTableRecord
  2

 70
     1
 40
0.0
 41
1.0
 50
0.0
 71
     0
 42
2.5
  3
genltshp.shx
  4

  0
STYLE
  5
2E4
330
3
100
AcDbSymbolTableRecord
100
AcDbTextStyleTableRecord
  2
ACDINGDT
 70
     0
 40
0.0
 41
1.0
 50
0.0
 71
     0
 42
2.5
  3
amgdt.shx
  4

  0
ENDTAB
  0
TABLE
  2
VIEW
  5
6
330
0
100
AcDbSymbolTable
 70
     0
  0
ENDTAB
  0
TABLE
  2
UCS
  5
7
330
0
100
AcDbSymbolTable
 70
     0
  0
ENDTAB
  0
TABLE
  2
APPID
  5
9
330
0
100
AcDbSymbolTable
 70
    55
  0
APPID
  5
12
330
9
100
AcDbSymbolTableRecord
100
AcDbRegAppTableRecord
  2
ACAD
 70
     0
  0
APPID
  5
46
330
9
100
AcDbSymbolTableRecord
100
AcDbRegAppTableRecord
  2
MCAD_NO_VIS
 70
     0
  0
APPID
  5
47
330
9
100
AcDbSymbolTableRecord
100
AcDbRegAppTableRecord
  2
ACAD_TEMP_GRAPHIC
 70
     0
  0
APPID
  5
58
330
9
100
AcDbSymbolTableRecord
100
AcDbRegAppTableRecord
  2
ACATTRIBSERVICES
 70
     0
  0
APPID
  5
EE
330
9
100
AcDbSymbolTableRecord
100
AcDbRegAppTableRecord
  2
AD_DRAW
 70
     0
  0
APPID
  5
10C
330
9
100
AcDbSymbolTableRecord
100
AcDbRegAppTableRecord
  2
DESIGNERASSEMBLIES
 70
     0
  0
APPID
  5
111
330
9
100
AcDbSymbolTableRecord
100
AcDbRegAppTableRecord
  2
ACADM_DIM_EDIT
 70
     0
  0
APPID
  5
112
330
9
100
AcDbSymbolTableRecord
100
AcDbRegAppTableRecord
  2
AMDT_DM_ADJ
 70
     0
  0
APPID
  5
1A3
330
9
100
AcDbSymbolTableRecord
100
AcDbRegAppTableRecord
  2
ACAD_DSTYLE_DIMARC_LENGTH_SYMBOL
 70
     0
  0
APPID
  5
1A4
330
9
100
AcDbSymbolTableRecord
100
AcDbRegAppTableRecord
  2
ACAD_DSTYLE_DIMJOGGED_JOGANGLE_SYMBOL
 70
     0
  0
APPID
  5
3F1
330
9
100
AcDbSymbolTableRecord
100
AcDbRegAppTableRecord
  2
ACAD_MLEADERVER
 70
     0
  0
APPID
  5
73E
330
9
100
AcDbSymbolTableRecord
100
AcDbRegAppTableRecord
  2
GENIUS_VERSION2
 70
     0
  0
APPID
  5
73F
330
9
100
AcDbSymbolTableRecord
100
AcDbRegAppTableRecord
  2
GENIUS_GENREC_14
 70
     0
  0
APPID
  5
740
330
9
100
AcDbSymbolTableRecord
100
AcDbRegAppTableRecord
  2
GENIUS_GENODEF_13
 70
     0
  0
APPID
  5
741
330
9
100
AcDbSymbolTableRecord
100
AcDbRegAppTableRecord
  2
GENIUS_GENOBJ-N-REC_13
 70
     0
  0
APPID
  5
742
330
9
100
AcDbSymbolTableRecord
100
AcDbRegAppTableRecord
  2
AcAecLayerStandard
 70
     0
  0
APPID
  5
743
330
9
100
AcDbSymbolTableRecord
100
AcDbRegAppTableRecord
  2
GENIUS_FIRSTVISTXT_14
 70
     0
  0
APPID
  5
744
330
9
100
AcDbSymbolTableRecord
100
AcDbRegAppTableRecord
  2
GENIUS_SECONDVISTXT_14
 70
     0
  0
APPID
  5
745
330
9
100
AcDbSymbolTableRecord
100
AcDbRegAppTableRecord
  2
GENIUS_GENTRA_14
 70
     0
  0
APPID
  5
746
330
9
100
AcDbSymbolTableRecord
100
AcDbRegAppTableRecord
  2
GENIUS_GENOBJ-N-HTC_13
 70
     0
  0
APPID
  5
747
330
9
100
AcDbSymbolTableRecord
100
AcDbRegAppTableRecord
  2
GENIUS_GENHATCH_13
 70
     0
  0
APPID
  5
748
330
9
100
AcDbSymbolTableRecord
100
AcDbRegAppTableRecord
  2
ACAD_PSEXT
 70
     0
  0
APPID
  5
749
330
9
100
AcDbSymbolTableRecord
100
AcDbRegAppTableRecord
  2
GENIUS_GENOLIS_13
 70
     0
  0
APPID
  5
74A
330
9
100
AcDbSymbolTableRecord
100
AcDbRegAppTableRecord
  2
GENIUS_GENOENT_13
 70
     0
  0
APPID
  5
74B
330
9
100
AcDbSymbolTableRecord
100
AcDbRegAppTableRecord
  2
GENIUS_GENOBJ-N-TIT_13
 70
     0
  0
APPID
  5
74C
330
9
100
AcDbSymbolTableRecord
100
AcDbRegAppTableRecord
  2
GENIUS_GENTITLE_13
 70
     0
  0
APPID
  5
74D
330
9
100
AcDbSymbolTableRecord
100
AcDbRegAppTableRecord
  2
GENIUS_GENOREF_13
 70
     0
  0
APPID
  5
74E
330
9
100
AcDbSymbolTableRecord
100
AcDbRegAppTableRecord
  2
GENIUS_GENSCREG_15
 70
     0
  0
APPID
  5
74F
330
9
100
AcDbSymbolTableRecord
100
AcDbRegAppTableRecord
  2
GENIUS_GENOBJ-N-SDF_13
 70
     0
  0
APPID
  5
750
330
9
100
AcDbSymbolTableRecord
100
AcDbRegAppTableRecord
  2
GENIUS_GENOBJ-N-CEN_13
 70
     0
  0
APPID
  5
751
330
9
100
AcDbSymbolTableRecord
100
AcDbRegAppTableRecord
  2
GENIUS_GENCEN_19
 70
     0
  0
APPID
  5
EB4
330
9
100
AcDbSymbolTableRecord
100
AcDbRegAppTableRecord
  2
GENIUS_GENDTOL_13
 70
     0
  0
APPID
  5
EB5
330
9
100
AcDbSymbolTableRecord
100
AcDbRegAppTableRecord
  2
GEVPT
 70
     0
  0
APPID
  5
EB6
330
9
100
AcDbSymbolTableRecord
100
AcDbRegAppTableRecord
  2
GEVIT
 70
     0
  0
APPID
  5
EB7
330
9
100
AcDbSymbolTableRecord
100
AcDbRegAppTableRecord
  2
VCC
 70
     0
  0
APPID
  5
EB8
330
9
100
AcDbSymbolTableRecord
100
AcDbRegAppTableRecord
  2
GENBH
 70
     0
  0
APPID
  5
EB9
330
9
100
AcDbSymbolTableRecord
100
AcDbRegAppTableRecord
  2
GENIUS_GENBH_13
 70
     0
  0
APPID
  5
EBA
330
9
100
AcDbSymbolTableRecord
100
AcDbRegAppTableRecord
  2
GENIUS_GENOBJ-NBEHI-BHF_13
 70
     0
  0
APPID
  5
EBB
330
9
100
AcDbSymbolTableRecord
100
AcDbRegAppTableRecord
  2
GENIUS_GENOBJ-F-PART_13
 70
     0
  0
APPID
  5
EBC
330
9
100
AcDbSymbolTableRecord
100
AcDbRegAppTableRecord
  2
GENIUS_GEFSTDP_13
 70
     0
  0
APPID
  5
EBD
330
9
100
AcDbSymbolTableRecord
100
AcDbRegAppTableRecord
  2
GENIUS_GEFPARTINS_13
 70
     0
  0
APPID
  5
EBE
330
9
100
AcDbSymbolTableRecord
100
AcDbRegAppTableRecord
  2
GEVMK
 70
     0
  0
APPID
  5
EBF
330
9
100
AcDbSymbolTableRecord
100
AcDbRegAppTableRecord
  2
GENIUS_GENOBJ-NBEHI-BHB_13
 70
     0
  0
APPID
  5
EC0
330
9
100
AcDbSymbolTableRecord
100
AcDbRegAppTableRecord
  2
GEVID991893077
 70
     0
  0
APPID
  5
EC1
330
9
100
AcDbSymbolTableRecord
100
AcDbRegAppTableRecord
  2
GEVID991893078
 70
     0
  0
APPID
  5
EC2
330
9
100
AcDbSymbolTableRecord
100
AcDbRegAppTableRecord
  2
GEVID991893079
 70
     0
  0
APPID
  5
EC3
330
9
100
AcDbSymbolTableRecord
100
AcDbRegAppTableRecord
  2
GEVID991893080
 70
     0
  0
APPID
  5
EC4
330
9
100
AcDbSymbolTableRecord
100
AcDbRegAppTableRecord
  2
GENIUS_GENHINW_13
 70
     0
  0
APPID
  5
EC5
330
9
100
AcDbSymbolTableRecord
100
AcDbRegAppTableRecord
  2
GENIUS_GENOBJ-N-HINW_13
 70
     0
  0
APPID
  5
1334
330
9
100
AcDbSymbolTableRecord
100
AcDbRegAppTableRecord
  2
GENIUS_GENOBJ-N-FIL_13
 70
     0
  0
APPID
  5
14F3
330
9
100
AcDbSymbolTableRecord
100
AcDbRegAppTableRecord
  2
ACAD_DSTYLE_DIMINSPECT
 70
     0
  0
APPID
  5
15A2
330
9
100
AcDbSymbolTableRecord
100
AcDbRegAppTableRecord
  2
ACAD_DSTYLE_DIMBREAK
 70
     0
  0
APPID
  5
15A3
330
9
100
AcDbSymbolTableRecord
100
AcDbRegAppTableRecord
  2
ACAD_DSTYLE_DIMJAG
 70
     0
  0
APPID
  5
15BA
330
9
100
AcDbSymbolTableRecord
100
AcDbRegAppTableRecord
  2
GENIUS_GENFIL_13
 70
     0
  0
APPID
  5
15BB
330
9
100
AcDbSymbolTableRecord
100
AcDbRegAppTableRecord
  2
GENIUS_GENOBJ-N-CHA_13
 70
     0
  0
ENDTAB
  0
TABLE
  2
DIMSTYLE
  5
A
330
0
100
AcDbSymbolTable
 70
     8
100
AcDbDimStyleTable
 71
     1
340
2F0
  0
DIMSTYLE
105
2F0
102
{ACAD_REACTORS
330
1591
102
}
330
A
100
AcDbSymbolTableRecord
100
AcDbDimStyleTableRecord
  2
AM_DIN
 70
     0
  4
"
 41
2.5
 42
1.0
 43
10.0
 44
1.0
 47
0.1
 48
0.1
 73
     0
 74
     0
 77
     1
 78
     8
 79
     2
140
3.5
141
0.0
143
0.0393701
146
0.71
147
1.5
172
     1
176
   256
177
   256
178
     2
271
     2
272
     3
274
     4
283
     0
284
     8
340
11
371
    -1
372
    -1
1001
ACAD_DSTYLE_DIMJOGGED_JOGANGLE_SYMBOL
1070
   384
1040
1.570796326794896
  0
DIMSTYLE
105
301
330
A
100
AcDbSymbolTableRecord
100
AcDbDimStyleTableRecord
  2
AM_DIN$3
 70
     0
  4
"
 41
2.5
 42
1.0
 43
10.0
 44
1.0
 47
0.1
 48
0.1
 73
     0
 77
     1
 78
     8
 79
     2
140
3.5
141
0.0
143
0.0393701
146
0.71
147
1.5
176
   256
177
   256
178
     2
271
     2
272
     3
274
     4
283
     0
284
     8
288
     1
289
     0
340
11
371
    -1
372
    -1
1001
ACAD_DSTYLE_DIMJOGGED_JOGANGLE_SYMBOL
1070
   384
1040
1.570796326794896
  0
DIMSTYLE
105
306
330
A
100
AcDbSymbolTableRecord
100
AcDbDimStyleTableRecord
  2
AM_DIN$4
 70
     0
  4
"
 41
2.5
 42
1.0
 43
10.0
 44
1.0
 47
0.1
 48
0.1
 73
     0
 77
     1
 78
     8
 79
     2
140
3.5
141
0.0
143
0.0393701
146
0.71
147
1.5
176
   256
177
   256
178
     2
271
     2
272
     3
274
     4
283
     0
284
     8
288
     1
289
     0
340
11
371
    -1
372
    -1
1001
ACAD_DSTYLE_DIMJOGGED_JOGANGLE_SYMBOL
1070
   384
1040
1.570796326794896
  0
DIMSTYLE
105
30B
330
A
100
AcDbSymbolTableRecord
100
AcDbDimStyleTableRecord
  2
AM_DIN$6
 70
     0
  4
"
 41
2.5
 42
1.0
 43
10.0
 44
1.0
 47
0.1
 48
0.1
 73
     0
 74
     0
 78
     8
 79
     2
140
3.5
141
0.0
143
0.0393701
146
0.71
147
1.5
172
     1
176
   256
177
   256
178
     2
271
     2
272
     3
274
     4
283
     0
284
     8
340
11
371
    -1
372
    -1
1001
ACAD_DSTYLE_DIMJOGGED_JOGANGLE_SYMBOL
1070
   384
1040
1.570796326794896
  0
DIMSTYLE
105
310
330
A
100
AcDbSymbolTableRecord
100
AcDbDimStyleTableRecord
  2
AM_DIN$7
 70
     0
  4
"
 41
2.5
 42
1.0
 43
10.0
 44
1.0
 47
0.1
 48
0.1
 73
     0
 74
     0
 77
     1
 78
     8
 79
     2
140
5.0
141
0.0
143
0.0393701
146
0.71
147
1.5
172
     1
176
   256
177
   256
178
     2
271
     2
272
     3
274
     4
283
     0
284
     8
340
11
371
    -1
372
    -1
1001
ACAD_DSTYLE_DIMJOGGED_JOGANGLE_SYMBOL
1070
   384
1040
1.570796326794896
  0
DIMSTYLE
105
315
330
A
100
AcDbSymbolTableRecord
100
AcDbDimStyleTableRecord
  2
AM_DIN$SF
 70
     0
  4
"
 41
2.5
 42
1.0
 43
10.0
 44
1.0
 47
0.1
 48
0.1
 73
     0
 74
     0
 75
     1
 76
     1
 77
     1
 78
     8
 79
     2
140
3.5
141
0.0
143
0.0393701
146
0.71
147
1.5
172
     1
176
   256
177
   256
178
     2
271
     2
272
     3
274
     4
283
     0
284
     8
340
11
371
    -1
372
    -1
1001
ACAD_DSTYLE_DIMJOGGED_JOGANGLE_SYMBOL
1070
   384
1040
1.570796326794896
  0
DIMSTYLE
105
31A
330
A
100
AcDbSymbolTableRecord
100
AcDbDimStyleTableRecord
  2
AM_DIN$SH
 70
     0
  4
"
 41
2.5
 42
1.0
 43
10.0
 44
1.0
 47
0.1
 48
0.1
 73
     0
 74
     0
 75
     1
 76
     1
 77
     1
 78
     8
 79
     2
140
3.5
141
0.0
143
0.0393701
144
2.0
146
0.71
147
1.5
172
     1
173
     1
176
   256
177
   256
178
     2
271
     2
272
     3
274
     4
283
     0
284
     8
340
11
343
87
371
    -1
372
    -1
1001
ACAD_DSTYLE_DIMJOGGED_JOGANGLE_SYMBOL
1070
   384
1040
1.570796326794896
  0
DIMSTYLE
105
73D
102
{ACAD_REACTORS
330
B5E
330
B5F
330
B5D
330
14DB
102
}
330
A
100
AcDbSymbolTableRecord
100
AcDbDimStyleTableRecord
  2
AM_DIN$0
 70
     0
  4
"
 41
2.5
 42
1.0
 43
10.0
 44
1.0
 47
0.1
 48
0.1
 73
     0
 74
     0
 77
     1
 78
     8
 79
     2
140
3.5
141
0.0
143
0.0393701
146
0.71
147
1.5
172
     1
176
   256
177
   256
178
     2
271
     2
272
     3
274
     4
283
     0
284
     8
340
11
371
    -1
372
    -1
1001
ACAD_DSTYLE_DIMJOGGED_JOGANGLE_SYMBOL
1070
   384
1040
1.570796326794896
  0
ENDTAB
  0
TABLE
  2
BLOCK_RECORD
  5
1
330
0
100
AcDbSymbolTable
 70
     7
  0
BLOCK_RECORD
  5
1F
102
{ACAD_XDICTIONARY
360
8F
102
}
330
1
100
AcDbSymbolTableRecord
100
AcDbBlockTableRecord
  2
*Model_Space
340
22
  0
BLOCK_RECORD
  5
1B
330
1
100
AcDbSymbolTableRecord
100
AcDbBlockTableRecord
  2
*Paper_Space
340
1E
  0
BLOCK_RECORD
  5
23
330
1
100
AcDbSymbolTableRecord
100
AcDbBlockTableRecord
  2
*Paper_Space0
340
26
  0
BLOCK_RECORD
  5
87
330
1
100
AcDbSymbolTableRecord
100
AcDbBlockTableRecord
  2
GENAXEH
340
0
  0
BLOCK_RECORD
  5
DD7
330
1
100
AcDbSymbolTableRecord
100
AcDbBlockTableRecord
  2
*D2
340
0
  0
BLOCK_RECORD
  5
DE3
330
1
100
AcDbSymbolTableRecord
100
AcDbBlockTableRecord
  2
*D3
340
0
  0
BLOCK_RECORD
  5
DEF
330
1
100
AcDbSymbolTableRecord
100
AcDbBlockTableRecord
  2
*D4
340
0
  0
BLOCK_RECORD
  5
14DC
330
1
100
AcDbSymbolTableRecord
100
AcDbBlockTableRecord
  2
*D5
340
0
  0
ENDTAB
  0
ENDSEC
  0
SECTION
  2
BLOCKS
  0
BLOCK
  5
20
330
1F
100
AcDbEntity
  8
0
100
AcDbBlockBegin
  2
*Model_Space
 70
     0
 10
0.0
 20
0.0
 30
0.0
  3
*Model_Space
  1

  0
ENDBLK
  5
21
330
1F
100
AcDbEntity
  8
0
100
AcDbBlockEnd
  0
BLOCK
  5
1C
330
1B
100
AcDbEntity
 67
     1
  8
0
100
AcDbBlockBegin
  2
*Paper_Space
 70
     0
 10
0.0
 20
0.0
 30
0.0
  3
*Paper_Space
  1

  0
ENDBLK
  5
1D
330
1B
100
AcDbEntity
 67
     1
  8
0
100
AcDbBlockEnd
  0
BLOCK
  5
24
330
23
100
AcDbEntity
 67
     1
  8
0
100
AcDbBlockBegin
  2
*Paper_Space0
 70
     0
 10
0.0
 20
0.0
 30
0.0
  3
*Paper_Space0
  1

  0
ENDBLK
  5
25
330
23
100
AcDbEntity
 67
     1
  8
0
100
AcDbBlockEnd
  0
BLOCK
  5
89
330
87
100
AcDbEntity
  8
0
100
AcDbBlockBegin
  2
GENAXEH
 70
     0
 10
0.0
 20
0.0
 30
0.0
  3
GENAXEH
  1

  0
LINE
  5
88
330
87
100
AcDbEntity
  8
0
100
AcDbLine
 10
-1.0
 20
0.0
 30
0.0
 11
1.0
 21
0.0
 31
0.0
  0
ENDBLK
  5
8A
330
87
100
AcDbEntity
  8
0
100
AcDbBlockEnd
  0
BLOCK
  5
DD8
330
DD7
100
AcDbEntity
  8
0
100
AcDbBlockBegin
  2
*D2
 70
     1
 10
0.0
 20
0.0
 30
0.0
  3
*D2
  1

  0
LINE
  5
1314
330
DD7
100
AcDbEntity
  8
AM_5
100
AcDbLine
 10
49.33133732663981
 20
372.0576163505322
 30
0.0
 11
32.84052819244045
 21
372.0576163505322
 31
0.0
  0
LINE
  5
1315
330
DD7
100
AcDbEntity
  8
AM_5
100
AcDbLine
 10
63.88133732663982
 20
222.0576163505321
 30
0.0
 11
32.84052819244042
 21
222.0576163505321
 31
0.0
  0
LINE
  5
1316
330
DD7
100
AcDbEntity
  8
AM_5
100
AcDbLine
 10
34.84052819244045
 20
367.057616350532
 30
0.0
 11
34.84052819244042
 21
227.0576163505321
 31
0.0
  0
SOLID
  5
1317
330
DD7
100
AcDbEntity
  8
AM_5
100
AcDbTrace
 10
34.00719485910711
 20
367.057616350532
 30
0.0
 11
35.67386152577378
 21
367.057616350532
 31
0.0
 12
34.84052819244045
 22
372.0576163505322
 32
0.0
 13
34.84052819244045
 23
372.0576163505322
 33
0.0
  0
SOLID
  5
1318
330
DD7
100
AcDbEntity
  8
AM_5
100
AcDbTrace
 10
34.00719485910708
 20
227.0576163505321
 30
0.0
 11
35.67386152577376
 21
227.0576163505321
 31
0.0
 12
34.84052819244042
 22
222.0576163505321
 32
0.0
 13
34.84052819244042
 23
222.0576163505321
 33
0.0
  0
MTEXT
  5
1319
330
DD7
100
AcDbEntity
  8
AM_5
 62
     2
100
AcDbMText
 10
28.34052819244039
 20
298.7752608733541
 30
0.0
 40
7.0
 41
0.0
 71
     5
 72
     1
  1
150
 11
0.0000000000000001
 21
1.0
 31
0.0
 73
     1
 44
1.0
  0
POINT
  5
131A
330
DD7
100
AcDbEntity
  8
Defpoints
 62
     0
100
AcDbPoint
 10
51.33133732663981
 20
372.0576163505322
 30
0.0
  0
POINT
  5
131B
330
DD7
100
AcDbEntity
  8
Defpoints
 62
     0
100
AcDbPoint
 10
65.88133732663982
 20
222.057616350532
 30
0.0
  0
POINT
  5
131C
330
DD7
100
AcDbEntity
  8
Defpoints
 62
     0
100
AcDbPoint
 10
34.84052819244042
 20
222.0576163505321
 30
0.0
  0
ENDBLK
  5
DD9
330
DD7
100
AcDbEntity
  8
0
100
AcDbBlockEnd
  0
BLOCK
  5
DE4
330
DE3
100
AcDbEntity
  8
0
100
AcDbBlockBegin
  2
*D3
 70
     1
 10
0.0
 20
0.0
 30
0.0
  3
*D3
  1

  0
LINE
  5
DE6
330
DE3
100
AcDbEntity
  8
AM_5
100
AcDbLine
 10
187.8813373266398
 20
223.057616350532
 30
0.0
 11
187.8813373266398
 21
199.998515234972
 31
0.0
  0
LINE
  5
DE7
330
DE3
100
AcDbEntity
  8
AM_5
100
AcDbLine
 10
62.88133732663983
 20
223.057616350532
 30
0.0
 11
62.88133732663983
 21
199.998515234972
 31
0.0
  0
LINE
  5
DE8
330
DE3
100
AcDbEntity
  8
AM_5
100
AcDbLine
 10
182.8813373266398
 20
201.9985152349721
 30
0.0
 11
67.88133732663983
 21
201.9985152349721
 31
0.0
  0
SOLID
  5
DE9
330
DE3
100
AcDbEntity
  8
AM_5
100
AcDbTrace
 10
182.8813373266398
 20
202.8318485683055
 30
0.0
 11
182.8813373266398
 21
201.1651819016388
 31
0.0
 12
187.8813373266398
 22
201.9985152349721
 32
0.0
 13
187.8813373266398
 23
201.9985152349721
 33
0.0
  0
SOLID
  5
DEA
330
DE3
100
AcDbEntity
  8
AM_5
100
AcDbTrace
 10
67.88133732663983
 20
202.8318485683055
 30
0.0
 11
67.88133732663983
 21
201.1651819016388
 31
0.0
 12
62.88133732663983
 22
201.9985152349721
 32
0.0
 13
62.88133732663983
 23
201.9985152349721
 33
0.0
  0
MTEXT
  5
DEB
330
DE3
100
AcDbEntity
  8
AM_5
 62
     2
100
AcDbMText
 10
125.3813373266398
 20
208.4992042113501
 30
0.0
 40
7.0
 41
0.0
 71
     5
 72
     1
  1
%%c125
 73
     1
 44
1.0
  0
POINT
  5
DEC
330
DE3
100
AcDbEntity
  8
Defpoints
 62
     0
100
AcDbPoint
 10
187.8813373266398
 20
225.057616350532
 30
0.0
  0
POINT
  5
DED
330
DE3
100
AcDbEntity
  8
Defpoints
 62
     0
100
AcDbPoint
 10
62.88133732663983
 20
225.057616350532
 30
0.0
  0
POINT
  5
DEE
330
DE3
100
AcDbEntity
  8
Defpoints
 62
     0
100
AcDbPoint
 10
62.88133732663983
 20
201.9985152349721
 30
0.0
  0
ENDBLK
  5
DE5
330
DE3
100
AcDbEntity
  8
0
100
AcDbBlockEnd
  0
BLOCK
  5
DF0
330
DEF
100
AcDbEntity
  8
0
100
AcDbBlockBegin
  2
*D4
 70
     1
 10
0.0
 20
0.0
 30
0.0
  3
*D4
  1

  0
LINE
  5
131D
330
DEF
100
AcDbEntity
  8
AM_5
100
AcDbLine
 10
201.4313373266398
 20
372.0576163505322
 30
0.0
 11
219.3380081917794
 21
372.0576163505322
 31
0.0
  0
LINE
  5
131E
330
DEF
100
AcDbEntity
  8
AM_5
100
AcDbLine
 10
199.8813373266398
 20
357.307616350532
 30
0.0
 11
219.3380081917794
 21
357.307616350532
 31
0.0
  0
LINE
  5
131F
330
DEF
100
AcDbEntity
  8
AM_5
100
AcDbLine
 10
217.3380081917794
 20
377.057616350532
 30
0.0
 11
217.3380081917794
 21
382.057616350532
 31
0.0
  0
LINE
  5
1320
330
DEF
100
AcDbEntity
  8
AM_5
100
AcDbLine
 10
217.3380081917794
 20
352.307616350532
 30
0.0
 11
217.3380081917794
 21
347.3076163505322
 31
0.0
  0
LINE
  5
1321
330
DEF
100
AcDbEntity
  8
AM_5
100
AcDbLine
 10
217.3380081917794
 20
372.0576163505322
 30
0.0
 11
217.3380081917794
 21
357.307616350532
 31
0.0
  0
SOLID
  5
1322
330
DEF
100
AcDbEntity
  8
AM_5
100
AcDbTrace
 10
216.504674858446
 20
377.057616350532
 30
0.0
 11
218.1713415251127
 21
377.057616350532
 31
0.0
 12
217.3380081917794
 22
372.0576163505322
 32
0.0
 13
217.3380081917794
 23
372.0576163505322
 33
0.0
  0
SOLID
  5
1323
330
DEF
100
AcDbEntity
  8
AM_5
100
AcDbTrace
 10
216.504674858446
 20
352.307616350532
 30
0.0
 11
218.1713415251127
 21
352.307616350532
 31
0.0
 12
217.3380081917794
 22
357.307616350532
 32
0.0
 13
217.3380081917794
 23
357.307616350532
 33
0.0
  0
MTEXT
  5
1324
330
DEF
100
AcDbEntity
  8
AM_5
 62
     2
100
AcDbMText
 10
210.8380081917793
 20
364.6826163505322
 30
0.0
 40
7.0
 41
0.0
 71
     5
 72
     1
  1
15
 11
0.0000000000000001
 21
1.0
 31
0.0
 73
     1
 44
1.0
  0
POINT
  5
1325
330
DEF
100
AcDbEntity
  8
Defpoints
 62
     0
100
AcDbPoint
 10
199.4313373266398
 20
372.0576163505322
 30
0.0
  0
POINT
  5
1326
330
DEF
100
AcDbEntity
  8
Defpoints
 62
     0
100
AcDbPoint
 10
197.8813373266398
 20
357.307616350532
 30
0.0
  0
POINT
  5
1327
330
DEF
100
AcDbEntity
  8
Defpoints
 62
     0
100
AcDbPoint
 10
217.3380081917794
 20
357.307616350532
 30
0.0
  0
ENDBLK
  5
DF1
330
DEF
100
AcDbEntity
  8
0
100
AcDbBlockEnd
  0
BLOCK
  5
14DD
330
14DC
100
AcDbEntity
  8
0
100
AcDbBlockBegin
  2
*D5
 70
     1
 10
0.0
 20
0.0
 30
0.0
  3
*D5
  1

  0
LINE
  5
1770
330
14DC
100
AcDbEntity
  8
AM_5
100
AcDbLine
 10
199.8813373266398
 20
373.5576163505335
 30
0.0
 11
199.8813373266398
 21
410.5465518684297
 31
0.0
  0
LINE
  5
1771
330
14DC
100
AcDbEntity
  8
AM_5
100
AcDbLine
 10
50.88133732663982
 20
373.557616350532
 30
0.0
 11
50.88133732663982
 21
410.5465518684297
 31
0.0
  0
LINE
  5
1772
330
14DC
100
AcDbEntity
  8
AM_5
100
AcDbLine
 10
194.8813373266398
 20
408.5465518684298
 30
0.0
 11
55.88133732663982
 21
408.5465518684298
 31
0.0
  0
SOLID
  5
1773
330
14DC
100
AcDbEntity
  8
AM_5
100
AcDbTrace
 10
194.8813373266398
 20
409.3798852017631
 30
0.0
 11
194.8813373266398
 21
407.7132185350964
 31
0.0
 12
199.8813373266398
 22
408.5465518684298
 32
0.0
 13
199.8813373266398
 23
408.5465518684298
 33
0.0
  0
SOLID
  5
1774
330
14DC
100
AcDbEntity
  8
AM_5
100
AcDbTrace
 10
55.88133732663982
 20
409.3798852017631
 30
0.0
 11
55.88133732663982
 21
407.7132185350964
 31
0.0
 12
50.88133732663982
 22
408.5465518684298
 32
0.0
 13
50.88133732663982
 23
408.5465518684298
 33
0.0
  0
MTEXT
  5
1775
330
14DC
100
AcDbEntity
  8
AM_5
 62
     2
100
AcDbMText
 10
126.1048244083104
 20
415.0465518684297
 30
0.0
 40
7.0
 41
0.0
 71
     5
 72
     1
  1
{\Famgdt;o}149
 73
     1
 44
1.0
  0
POINT
  5
1776
330
14DC
100
AcDbEntity
  8
Defpoints
 62
     0
100
AcDbPoint
 10
199.8813373266398
 20
371.5576163505335
 30
0.0
  0
POINT
  5
1777
330
14DC
100
AcDbEntity
  8
Defpoints
 62
     0
100
AcDbPoint
 10
50.88133732663982
 20
371.557616350532
 30
0.0
  0
POINT
  5
1778
330
14DC
100
AcDbEntity
  8
Defpoints
 62
     0
100
AcDbPoint
 10
50.88133732663982
 20
408.5465518684298
 30
0.0
  0
ENDBLK
  5
14DE
330
14DC
100
AcDbEntity
  8
0
100
AcDbBlockEnd
  0
ENDSEC
  0
SECTION
  2
ENTITIES
  0
LINE
  5
A96
330
1F
100
AcDbEntity
  8
0
  6
Continuous
 62
     7
100
AcDbLine
 10
187.0211011693398
 20
222.057616350532
 30
0.0
 11
187.8813373266398
 21
225.057616350532
 31
0.0
  0
LINE
  5
A98
330
1F
100
AcDbEntity
  8
0
  6
Continuous
 62
     7
100
AcDbLine
 10
199.9313373266398
 20
371.557616350532
 30
0.0
 11
199.9313373266398
 21
368.6576163505321
 31
0.0
  0
LINE
  5
A99
330
1F
100
AcDbEntity
  8
0
  6
Continuous
 62
     7
100
AcDbLine
 10
196.8813373266398
 20
371.557616350532
 30
0.0
 11
196.8813373266398
 21
367.557616350532
 31
0.0
  0
LINE
  5
A9C
330
1F
100
AcDbEntity
  8
0
  6
Continuous
 62
     7
100
AcDbLine
 10
196.1813373266398
 20
372.0576163505322
 30
0.0
 11
196.1813373266398
 21
367.057616350532
 31
0.0
  0
LINE
  5
A9E
102
{ACAD_REACTORS
330
14E9
102
}
330
1F
100
AcDbEntity
  8
0
  6
Continuous
 62
     7
100
AcDbLine
 10
199.8813373266398
 20
371.557616350532
 30
0.0
 11
199.8418549647398
 21
367.0333857938321
 31
0.0
  0
LINE
  5
A9F
330
1F
100
AcDbEntity
  8
0
  6
Continuous
 62
     7
100
AcDbLine
 10
187.8813373266398
 20
292.007616350532
 30
0.0
 11
187.8813373266398
 21
282.107616350532
 31
0.0
  0
LINE
  5
AA0
330
1F
100
AcDbEntity
  8
0
  6
Continuous
 62
     7
100
AcDbLine
 10
187.8813373266398
 20
282.007616350532
 30
0.0
 11
187.8813373266398
 21
272.107616350532
 31
0.0
  0
LINE
  5
AA1
330
1F
100
AcDbEntity
  8
0
  6
Continuous
 62
     7
100
AcDbLine
 10
187.8813373266398
 20
272.007616350532
 30
0.0
 11
187.8813373266398
 21
262.107616350532
 31
0.0
  0
LINE
  5
AA2
330
1F
100
AcDbEntity
  8
0
  6
Continuous
 62
     7
100
AcDbLine
 10
187.8813373266398
 20
225.057616350532
 30
0.0
 11
187.8813373266398
 21
232.007616350532
 31
0.0
  0
LINE
  5
AA3
330
1F
100
AcDbEntity
  8
0
  6
Continuous
 62
     7
100
AcDbLine
 10
187.8813373266398
 20
232.107616350532
 30
0.0
 11
187.8813373266398
 21
242.007616350532
 31
0.0
  0
LINE
  5
AA4
330
1F
100
AcDbEntity
  8
0
  6
Continuous
 62
     7
100
AcDbLine
 10
187.8813373266398
 20
242.107616350532
 30
0.0
 11
187.8813373266398
 21
252.007616350532
 31
0.0
  0
LINE
  5
AA5
330
1F
100
AcDbEntity
  8
0
  6
Continuous
 62
     7
100
AcDbLine
 10
187.8813373266398
 20
252.107616350532
 30
0.0
 11
187.8813373266398
 21
262.007616350532
 31
0.0
  0
LINE
  5
AA6
330
1F
100
AcDbEntity
  8
0
  6
Continuous
 62
     7
100
AcDbLine
 10
187.8813373266398
 20
292.107616350532
 30
0.0
 11
187.8813373266398
 21
302.007616350532
 31
0.0
  0
LINE
  5
AA7
330
1F
100
AcDbEntity
  8
0
  6
Continuous
 62
     7
100
AcDbLine
 10
187.8813373266398
 20
302.107616350532
 30
0.0
 11
187.8813373266398
 21
312.007616350532
 31
0.0
  0
LINE
  5
AA8
330
1F
100
AcDbEntity
  8
0
  6
Continuous
 62
     7
100
AcDbLine
 10
187.8813373266398
 20
312.107616350532
 30
0.0
 11
187.8813373266398
 21
322.007616350532
 31
0.0
  0
LINE
  5
AA9
330
1F
100
AcDbEntity
  8
0
  6
Continuous
 62
     7
100
AcDbLine
 10
187.8813373266398
 20
322.107616350532
 30
0.0
 11
187.8813373266398
 21
332.007616350532
 31
0.0
  0
LINE
  5
AAA
330
1F
100
AcDbEntity
  8
0
  6
Continuous
 62
     7
100
AcDbLine
 10
187.8813373266398
 20
332.107616350532
 30
0.0
 11
187.8813373266398
 21
342.007616350532
 31
0.0
  0
LINE
  5
AAB
330
1F
100
AcDbEntity
  8
0
  6
Continuous
 62
     7
100
AcDbLine
 10
187.8813373266398
 20
342.107616350532
 30
0.0
 11
187.8813373266398
 21
352.007616350532
 31
0.0
  0
LINE
  5
AAC
330
1F
100
AcDbEntity
  8
0
  6
Continuous
 62
     7
100
AcDbLine
 10
187.8813373266398
 20
352.107616350532
 30
0.0
 11
187.8813373266398
 21
358.0576163505321
 31
0.0
  0
LINE
  5
AAD
330
1F
100
AcDbEntity
  8
0
  6
Continuous
 62
     7
100
AcDbLine
 10
187.5010658400398
 20
372.0576163505322
 30
0.0
 11
187.5010658400398
 21
367.057616350532
 31
0.0
  0
LINE
  5
AAE
330
1F
100
AcDbEntity
  8
0
  6
Continuous
 62
     9
100
AcDbLine
 10
187.0097644514398
 20
367.057616350532
 30
0.0
 11
187.0097644514398
 21
372.0576163505322
 31
0.0
  0
LINE
  5
AAF
330
1F
100
AcDbEntity
  8
0
  6
Continuous
 62
     7
100
AcDbLine
 10
184.8813373266398
 20
222.057616350532
 30
0.0
 11
183.6684550143398
 21
361.0401632795321
 31
0.0
  0
LINE
  5
AB4
330
1F
100
AcDbEntity
  8
0
  6
Continuous
 62
     7
100
AcDbLine
 10
51.33133732663981
 20
372.0576163505322
 30
0.0
 11
53.43133732663982
 21
372.0576163505322
 31
0.0
  0
LINE
  5
AB5
330
1F
100
AcDbEntity
  8
0
  6
Continuous
 62
     7
100
AcDbLine
 10
54.58133732663981
 20
372.0576163505322
 30
0.0
 11
196.1813373266398
 21
372.0576163505322
 31
0.0
  0
LINE
  5
AB6
330
1F
100
AcDbEntity
  8
0
  6
Continuous
 62
     7
100
AcDbLine
 10
197.3313373266398
 20
372.0576163505322
 30
0.0
 11
199.4313373266398
 21
372.0576163505322
 31
0.0
  0
LINE
  5
AB7
330
1F
100
AcDbEntity
  8
RUNDUNGEN
  6
Continuous
 62
     9
100
AcDbLine
 10
199.9313373266398
 20
371.557616350532
 30
0.0
 11
199.8813373266398
 21
371.557616350532
 31
0.0
  0
LINE
  5
ABA
330
1F
100
AcDbEntity
  8
RUNDUNGEN
  6
Continuous
 62
     9
100
AcDbLine
 10
196.1813373266398
 20
371.557616350532
 30
0.0
 11
196.2313373266398
 21
371.557616350532
 31
0.0
  0
LINE
  5
ABB
330
1F
100
AcDbEntity
  8
RUNDUNGEN
  6
Continuous
 62
     9
100
AcDbLine
 10
196.8313373266398
 20
371.557616350532
 30
0.0
 11
196.8813373266398
 21
371.557616350532
 31
0.0
  0
LINE
  5
ABC
330
1F
100
AcDbEntity
  8
0
  6
Continuous
 62
     7
100
AcDbLine
 10
199.9313373266398
 20
369.7576163505321
 30
0.0
 11
199.8656289646398
 21
369.7576163505321
 31
0.0
  0
LINE
  5
AC2
330
1F
100
AcDbEntity
  8
RUNDUNGEN
  6
Continuous
 62
     9
100
AcDbLine
 10
53.88133732663982
 20
367.557616350532
 30
0.0
 11
54.58133732663981
 21
367.557616350532
 31
0.0
  0
LINE
  5
AC3
330
1F
100
AcDbEntity
  8
0
  6
Continuous
 62
     7
100
AcDbLine
 10
54.38133732663982
 20
367.057616350532
 30
0.0
 11
196.3813373266398
 21
367.057616350532
 31
0.0
  0
LINE
  5
AC4
330
1F
100
AcDbEntity
  8
0
  6
Continuous
 62
     7
100
AcDbLine
 10
176.2930255719398
 20
372.0576163505322
 30
0.0
 11
176.2930255719398
 21
367.057616350532
 31
0.0
  0
LINE
  5
AC5
330
1F
100
AcDbEntity
  8
RUNDUNGEN
  6
Continuous
 62
     9
100
AcDbLine
 10
89.18133732663982
 20
364.200473493432
 30
0.0
 11
187.3816130040398
 21
364.200473493432
 31
0.0
  0
LINE
  5
AC6
330
1F
100
AcDbEntity
  8
0
  6
Continuous
 62
     9
100
AcDbLine
 10
187.3816130040398
 20
364.200473493432
 30
0.0
 11
191.2627772977398
 21
364.200473493432
 31
0.0
  0
LINE
  5
AC7
330
1F
100
AcDbEntity
  8
0
  6
Continuous
 62
     7
100
AcDbLine
 10
185.6683788605398
 20
363.0576163505322
 30
0.0
 11
87.57243522413984
 21
363.057616350532
 31
0.0
  0
LINE
  5
AC8
330
1F
100
AcDbEntity
  8
0
  6
Continuous
 62
     7
100
AcDbLine
 10
61.3069131614398
 20
363.057616350532
 30
0.0
 11
78.42375754763981
 21
363.057616350532
 31
0.0
  0
LINE
  5
AC9
330
1F
100
AcDbEntity
  8
0
  6
Continuous
 62
     7
100
AcDbLine
 10
185.6683788605398
 20
363.057616350532
 30
0.0
 11
189.4557614918398
 21
363.057616350532
 31
0.0
  0
LINE
  5
ACA
330
1F
100
AcDbEntity
  8
0
  6
Continuous
 62
     7
100
AcDbLine
 10
80.22304339753981
 20
362.896247804632
 30
0.0
 11
86.63887368003981
 21
362.896247804632
 31
0.0
  0
LINE
  5
ACB
330
1F
100
AcDbEntity
  8
0
  6
Continuous
 62
     9
100
AcDbLine
 10
183.6684550143398
 20
361.0401632795321
 30
0.0
 11
67.09421963893982
 21
361.0401632795321
 31
0.0
  0
LINE
  5
ACC
330
1F
100
AcDbEntity
  8
0
  6
Continuous
 62
     7
100
AcDbLine
 10
190.6959860226398
 20
360.0576163505321
 30
0.0
 11
189.8813373266398
 21
360.0576163505321
 31
0.0
  0
LINE
  5
ACD
330
1F
100
AcDbEntity
  8
0
  6
Continuous
 62
     7
100
AcDbLine
 10
60.88133732663982
 20
360.0576163505321
 30
0.0
 11
60.06668863073979
 21
360.0576163505321
 31
0.0
  0
LINE
  5
ACE
330
1F
100
AcDbEntity
  8
0
  6
Continuous
 62
     7
100
AcDbLine
 10
164.9793170729398
 20
372.0576163505322
 30
0.0
 11
164.9793170729398
 21
367.057616350532
 31
0.0
  0
LINE
  5
ACF
330
1F
100
AcDbEntity
  8
0
  6
Continuous
 62
     7
100
AcDbLine
 10
153.6656085739398
 20
372.0576163505322
 30
0.0
 11
153.6656085739398
 21
367.057616350532
 31
0.0
  0
LINE
  5
AD0
330
1F
100
AcDbEntity
  8
0
  6
Continuous
 62
     7
100
AcDbLine
 10
142.3519000751398
 20
372.0576163505322
 30
0.0
 11
142.3519000751398
 21
367.057616350532
 31
0.0
  0
LINE
  5
AD1
330
1F
100
AcDbEntity
  8
0
  6
Continuous
 62
     7
100
AcDbLine
 10
131.0381915761398
 20
372.0576163505322
 30
0.0
 11
131.0381915761398
 21
367.057616350532
 31
0.0
  0
LINE
  5
AD2
330
1F
100
AcDbEntity
  8
0
  6
Continuous
 62
     7
100
AcDbLine
 10
119.7244830771398
 20
372.0576163505322
 30
0.0
 11
119.7244830771398
 21
367.057616350532
 31
0.0
  0
LINE
  5
AD3
330
1F
100
AcDbEntity
  8
BEZUGSACHSEN
  6
Continuous
 62
     9
100
AcDbLine
 10
118.4135576833398
 20
367.057616350532
 30
0.0
 11
118.4135576833398
 21
372.0576163505322
 31
0.0
  0
LINE
  5
AD4
330
1F
100
AcDbEntity
  8
0
  6
Continuous
 62
     7
100
AcDbLine
 10
111.8841592676398
 20
372.0576163505322
 30
0.0
 11
111.8841592676398
 21
367.057616350532
 31
0.0
  0
LINE
  5
AD5
330
1F
100
AcDbEntity
  8
0
  6
Continuous
 62
     7
100
AcDbLine
 10
89.18133732663982
 20
367.057616350532
 30
0.0
 11
89.18133732663982
 21
363.057616350532
 31
0.0
  0
LINE
  5
AD6
330
1F
100
AcDbEntity
  8
0
  6
Continuous
 62
     7
100
AcDbLine
 10
86.63887368003981
 20
367.057616350532
 30
0.0
 11
86.63887368003981
 21
362.896247804632
 31
0.0
  0
LINE
  5
AD7
330
1F
100
AcDbEntity
  8
0
  6
Continuous
 62
     7
100
AcDbLine
 10
80.22304339753981
 20
367.057616350532
 30
0.0
 11
80.22304339753981
 21
362.896247804632
 31
0.0
  0
LINE
  5
AD8
330
1F
100
AcDbEntity
  8
0
  6
Continuous
 62
     7
100
AcDbLine
 10
74.46964908133981
 20
372.0576163505322
 30
0.0
 11
74.46964908133981
 21
367.057616350532
 31
0.0
  0
LINE
  5
AD9
330
1F
100
AcDbEntity
  8
0
  6
Continuous
 62
     9
100
AcDbLine
 10
69.10700183123982
 20
367.057616350532
 30
0.0
 11
69.10700183123982
 21
372.0576163505322
 31
0.0
  0
LINE
  5
ADA
330
1F
100
AcDbEntity
  8
0
  6
Continuous
 62
     7
100
AcDbLine
 10
63.18378418753979
 20
367.057616350532
 30
0.0
 11
63.18378418753979
 21
372.0576163505322
 31
0.0
  0
LINE
  5
ADB
330
1F
100
AcDbEntity
  8
0
  6
Continuous
 62
     7
100
AcDbLine
 10
62.88133732663983
 20
358.0576163505321
 30
0.0
 11
62.88133732663983
 21
352.1076163505322
 31
0.0
  0
LINE
  5
ADC
330
1F
100
AcDbEntity
  8
0
  6
Continuous
 62
     7
100
AcDbLine
 10
62.88133732663983
 20
352.0076163505322
 30
0.0
 11
62.88133732663983
 21
342.1076163505321
 31
0.0
  0
LINE
  5
ADD
330
1F
100
AcDbEntity
  8
0
  6
Continuous
 62
     7
100
AcDbLine
 10
62.88133732663983
 20
342.0076163505321
 30
0.0
 11
62.88133732663983
 21
332.107616350532
 31
0.0
  0
LINE
  5
ADE
330
1F
100
AcDbEntity
  8
0
  6
Continuous
 62
     7
100
AcDbLine
 10
62.88133732663983
 20
332.0076163505321
 30
0.0
 11
62.88133732663983
 21
322.107616350532
 31
0.0
  0
LINE
  5
ADF
330
1F
100
AcDbEntity
  8
0
  6
Continuous
 62
     7
100
AcDbLine
 10
62.88133732663983
 20
322.0076163505321
 30
0.0
 11
62.88133732663983
 21
312.1076163505321
 31
0.0
  0
LINE
  5
AE0
330
1F
100
AcDbEntity
  8
0
  6
Continuous
 62
     7
100
AcDbLine
 10
62.88133732663983
 20
312.0076163505321
 30
0.0
 11
62.88133732663983
 21
302.1076163505321
 31
0.0
  0
LINE
  5
AE1
330
1F
100
AcDbEntity
  8
0
  6
Continuous
 62
     7
100
AcDbLine
 10
62.88133732663983
 20
302.0076163505321
 30
0.0
 11
62.88133732663983
 21
292.107616350532
 31
0.0
  0
LINE
  5
AE2
330
1F
100
AcDbEntity
  8
0
  6
Continuous
 62
     7
100
AcDbLine
 10
62.88133732663983
 20
292.0076163505321
 30
0.0
 11
62.88133732663983
 21
282.107616350532
 31
0.0
  0
LINE
  5
AE3
330
1F
100
AcDbEntity
  8
0
  6
Continuous
 62
     7
100
AcDbLine
 10
62.88133732663983
 20
282.0076163505321
 30
0.0
 11
62.88133732663983
 21
272.107616350532
 31
0.0
  0
LINE
  5
AE4
330
1F
100
AcDbEntity
  8
0
  6
Continuous
 62
     7
100
AcDbLine
 10
62.88133732663983
 20
272.0076163505321
 30
0.0
 11
62.88133732663983
 21
262.1076163505321
 31
0.0
  0
LINE
  5
AE5
330
1F
100
AcDbEntity
  8
0
  6
Continuous
 62
     7
100
AcDbLine
 10
62.88133732663983
 20
262.0076163505321
 30
0.0
 11
62.88133732663983
 21
252.1076163505321
 31
0.0
  0
LINE
  5
AE6
330
1F
100
AcDbEntity
  8
0
  6
Continuous
 62
     7
100
AcDbLine
 10
62.88133732663983
 20
252.0076163505321
 30
0.0
 11
62.88133732663983
 21
242.1076163505321
 31
0.0
  0
LINE
  5
AE7
330
1F
100
AcDbEntity
  8
0
  6
Continuous
 62
     7
100
AcDbLine
 10
62.88133732663983
 20
242.007616350532
 30
0.0
 11
62.88133732663983
 21
232.107616350532
 31
0.0
  0
LINE
  5
AE8
330
1F
100
AcDbEntity
  8
0
  6
Continuous
 62
     7
100
AcDbLine
 10
62.88133732663983
 20
232.007616350532
 30
0.0
 11
62.88133732663983
 21
225.057616350532
 31
0.0
  0
LINE
  5
AE9
330
1F
100
AcDbEntity
  8
0
  6
Continuous
 62
     7
100
AcDbLine
 10
65.88133732663982
 20
222.057616350532
 30
0.0
 11
67.09421963893982
 21
361.0401632795321
 31
0.0
  0
LINE
  5
AEB
330
1F
100
AcDbEntity
  8
0
  6
Continuous
 62
     7
100
AcDbLine
 10
54.58133732663981
 20
372.0576163505322
 30
0.0
 11
54.58133732663981
 21
367.057616350532
 31
0.0
  0
LINE
  5
AEE
330
1F
100
AcDbEntity
  8
0
  6
Continuous
 62
     7
100
AcDbLine
 10
53.88133732663982
 20
367.557616350532
 30
0.0
 11
53.88133732663982
 21
371.557616350532
 31
0.0
  0
LINE
  5
AEF
330
1F
100
AcDbEntity
  8
0
  6
Continuous
 62
     7
100
AcDbLine
 10
50.88133732663982
 20
371.557616350532
 30
0.0
 11
50.92081968853985
 21
367.0333857938321
 31
0.0
  0
LINE
  5
AF2
330
1F
100
AcDbEntity
  8
0
  6
Continuous
 62
     7
100
AcDbLine
 10
62.88133732663983
 20
225.057616350532
 30
0.0
 11
63.74157348393982
 21
222.057616350532
 31
0.0
  0
LINE
  5
AF3
330
1F
100
AcDbEntity
  8
0
  6
Continuous
 62
     7
100
AcDbLine
 10
63.74157348393982
 20
222.057616350532
 30
0.0
 11
187.0211011693398
 21
222.057616350532
 31
0.0
  0
ARC
  5
AF4
330
1F
100
AcDbEntity
  8
0
  6
Continuous
 62
     7
100
AcDbCircle
 10
190.6959860226398
 20
365.057616350532
 30
0.0
 40
5.0
100
AcDbArc
 50
270.0
 51
334.9680948998001
  0
ARC
  5
AF5
330
1F
100
AcDbEntity
  8
0
  6
Continuous
 62
     7
100
AcDbCircle
 10
195.7803168122398
 20
362.0576163505321
 30
0.0
 40
5.0
100
AcDbArc
 50
90.0
 51
154.6230664747997
  0
ARC
  5
AF6
330
1F
100
AcDbEntity
  8
0
  6
Continuous
 62
     7
100
AcDbCircle
 10
196.3813373266398
 20
367.557616350532
 30
0.0
 40
3.5
100
AcDbArc
 50
276.8607693086986
 51
351.3858133266003
  0
ARC
  5
AF7
330
1F
100
AcDbEntity
  8
0
  6
Continuous
 62
     7
100
AcDbCircle
 10
197.0385231066398
 20
362.095741810732
 30
0.0
 40
2.000008048599998
100
AcDbArc
 50
96.86135406509922
 51
154.9680948993
  0
ARC
  5
AF8
330
1F
100
AcDbEntity
  8
0
  6
Continuous
 62
     7
100
AcDbCircle
 10
185.6683788605398
 20
361.057616350532
 30
0.0
 40
2.0
100
AcDbArc
 50
90.0
 51
180.4999999999997
  0
ARC
  5
AF9
330
1F
100
AcDbEntity
  8
0
  6
Continuous
 62
     7
100
AcDbCircle
 10
189.4557614918398
 20
365.057616350532
 30
0.0
 40
2.0
100
AcDbArc
 50
270.0
 51
334.6230664747997
  0
ARC
  5
AFA
330
1F
100
AcDbEntity
  8
0
  6
Continuous
 62
     7
100
AcDbCircle
 10
189.8813373266398
 20
358.0576163505321
 30
0.0
 40
2.0
100
AcDbArc
 50
90.0
 51
180.0
  0
ARC
  5
AFB
330
1F
100
AcDbEntity
  8
0
  6
Continuous
 62
     7
100
AcDbCircle
 10
200.6313373266398
 20
369.957616350532
 30
0.0
 40
1.399999999999999
100
AcDbArc
 50
236.3713988682006
 51
240.0
  0
ARC
  5
AFE
330
1F
100
AcDbEntity
  8
0
  6
Continuous
 62
     7
100
AcDbCircle
 10
197.3313373266398
 20
371.557616350532
 30
0.0
 40
0.5
100
AcDbArc
 50
90.0
 51
180.0
  0
ARC
  5
AFF
330
1F
100
AcDbEntity
  8
0
  6
Continuous
 62
     7
100
AcDbCircle
 10
199.4313373266398
 20
371.557616350532
 30
0.0
 40
0.5
100
AcDbArc
 50
0.0
 51
90.0
  0
ARC
  5
B00
102
{ACAD_REACTORS
330
14E9
102
}
330
1F
100
AcDbEntity
  8
0
  6
Continuous
 62
     7
100
AcDbCircle
 10
199.3813373266398
 20
371.557616350532
 30
0.0
 40
0.5
100
AcDbArc
 50
0.0
 51
90.0
  0
ARC
  5
B01
330
1F
100
AcDbEntity
  8
0
  6
Continuous
 62
     7
100
AcDbCircle
 10
196.3813373266398
 20
367.557616350532
 30
0.0
 40
0.5
100
AcDbArc
 50
270.0
 51
0.0
  0
ARC
  5
B02
330
1F
100
AcDbEntity
  8
0
  6
Continuous
 62
     7
100
AcDbCircle
 10
197.3813373266398
 20
371.557616350532
 30
0.0
 40
0.5
100
AcDbArc
 50
90.0
 51
180.0
  0
ARC
  5
B03
330
1F
100
AcDbEntity
  8
0
  6
Continuous
 62
     7
100
AcDbCircle
 10
187.8813373266398
 20
352.057616350532
 30
0.0
 40
0.05
100
AcDbArc
 50
90.00000000010095
 51
269.999999999899
  0
ARC
  5
B04
330
1F
100
AcDbEntity
  8
0
  6
Continuous
 62
     7
100
AcDbCircle
 10
187.8813373266398
 20
342.057616350532
 30
0.0
 40
0.05
100
AcDbArc
 50
90.00000000010095
 51
269.999999999899
  0
ARC
  5
B05
330
1F
100
AcDbEntity
  8
0
  6
Continuous
 62
     7
100
AcDbCircle
 10
187.8813373266398
 20
332.057616350532
 30
0.0
 40
0.05
100
AcDbArc
 50
90.00000000010095
 51
269.999999999899
  0
ARC
  5
B06
330
1F
100
AcDbEntity
  8
0
  6
Continuous
 62
     7
100
AcDbCircle
 10
187.8813373266398
 20
322.0576163505321
 30
0.0
 40
0.05
100
AcDbArc
 50
90.00000000010095
 51
269.999999999899
  0
ARC
  5
B07
330
1F
100
AcDbEntity
  8
0
  6
Continuous
 62
     7
100
AcDbCircle
 10
187.8813373266398
 20
312.0576163505321
 30
0.0
 40
0.05
100
AcDbArc
 50
90.00000000010095
 51
269.999999999899
  0
ARC
  5
B08
330
1F
100
AcDbEntity
  8
0
  6
Continuous
 62
     7
100
AcDbCircle
 10
187.8813373266398
 20
302.057616350532
 30
0.0
 40
0.05
100
AcDbArc
 50
90.0
 51
270.0
  0
ARC
  5
B09
330
1F
100
AcDbEntity
  8
0
  6
Continuous
 62
     7
100
AcDbCircle
 10
187.8813373266398
 20
292.057616350532
 30
0.0
 40
0.05
100
AcDbArc
 50
90.0
 51
270.0
  0
ARC
  5
B0A
330
1F
100
AcDbEntity
  8
0
  6
Continuous
 62
     7
100
AcDbCircle
 10
187.8813373266398
 20
282.057616350532
 30
0.0
 40
0.05
100
AcDbArc
 50
90.0
 51
270.0
  0
ARC
  5
B0B
330
1F
100
AcDbEntity
  8
0
  6
Continuous
 62
     7
100
AcDbCircle
 10
187.8813373266398
 20
272.057616350532
 30
0.0
 40
0.05
100
AcDbArc
 50
90.0
 51
270.0
  0
ARC
  5
B0C
330
1F
100
AcDbEntity
  8
0
  6
Continuous
 62
     7
100
AcDbCircle
 10
187.8813373266398
 20
262.0576163505321
 30
0.0
 40
0.05
100
AcDbArc
 50
90.0
 51
270.0
  0
ARC
  5
B0D
330
1F
100
AcDbEntity
  8
0
  6
Continuous
 62
     7
100
AcDbCircle
 10
187.8813373266398
 20
252.057616350532
 30
0.0
 40
0.05
100
AcDbArc
 50
90.0
 51
270.0
  0
ARC
  5
B0E
330
1F
100
AcDbEntity
  8
0
  6
Continuous
 62
     7
100
AcDbCircle
 10
187.8813373266398
 20
242.057616350532
 30
0.0
 40
0.05
100
AcDbArc
 50
90.0
 51
270.0
  0
ARC
  5
B0F
330
1F
100
AcDbEntity
  8
0
  6
Continuous
 62
     7
100
AcDbCircle
 10
187.8813373266398
 20
232.057616350532
 30
0.0
 40
0.05
100
AcDbArc
 50
90.0
 51
270.0
  0
ARC
  5
B10
330
1F
100
AcDbEntity
  8
0
  6
Continuous
 62
     7
100
AcDbCircle
 10
60.06668863073979
 20
365.057616350532
 30
0.0
 40
5.0
100
AcDbArc
 50
205.0198402560994
 51
270.0
  0
ARC
  5
B11
330
1F
100
AcDbEntity
  8
0
  6
Continuous
 62
     7
100
AcDbCircle
 10
61.3069131614398
 20
365.057616350532
 30
0.0
 40
2.0
100
AcDbArc
 50
205.3769335252002
 51
270.0
  0
ARC
  5
B12
330
1F
100
AcDbEntity
  8
0
  6
Continuous
 62
     7
100
AcDbCircle
 10
65.09429579283983
 20
361.057616350532
 30
0.0
 40
2.0
100
AcDbArc
 50
359.5000000000003
 51
90.0
  0
ARC
  5
B13
330
1F
100
AcDbEntity
  8
0
  6
Continuous
 62
     7
100
AcDbCircle
 10
60.88133732663982
 20
358.0576163505321
 30
0.0
 40
2.0
100
AcDbArc
 50
0.0
 51
90.0
  0
ARC
  5
B14
330
1F
100
AcDbEntity
  8
0
  6
Continuous
 62
     7
100
AcDbCircle
 10
62.88133732663983
 20
352.057616350532
 30
0.0
 40
0.05
100
AcDbArc
 50
270.0
 51
90.0
  0
ARC
  5
B15
330
1F
100
AcDbEntity
  8
0
  6
Continuous
 62
     7
100
AcDbCircle
 10
62.88133732663983
 20
342.057616350532
 30
0.0
 40
0.05
100
AcDbArc
 50
270.0
 51
90.0
  0
ARC
  5
B16
330
1F
100
AcDbEntity
  8
0
  6
Continuous
 62
     7
100
AcDbCircle
 10
62.88133732663983
 20
332.057616350532
 30
0.0
 40
0.05
100
AcDbArc
 50
270.0
 51
90.0
  0
ARC
  5
B17
330
1F
100
AcDbEntity
  8
0
  6
Continuous
 62
     7
100
AcDbCircle
 10
62.88133732663983
 20
322.0576163505321
 30
0.0
 40
0.05
100
AcDbArc
 50
270.0
 51
90.0
  0
ARC
  5
B18
330
1F
100
AcDbEntity
  8
0
  6
Continuous
 62
     7
100
AcDbCircle
 10
62.88133732663983
 20
312.0576163505321
 30
0.0
 40
0.05
100
AcDbArc
 50
270.0
 51
90.0
  0
ARC
  5
B19
330
1F
100
AcDbEntity
  8
0
  6
Continuous
 62
     7
100
AcDbCircle
 10
62.88133732663983
 20
302.057616350532
 30
0.0
 40
0.05
100
AcDbArc
 50
270.0
 51
90.0
  0
ARC
  5
B1A
330
1F
100
AcDbEntity
  8
0
  6
Continuous
 62
     7
100
AcDbCircle
 10
54.9823578410398
 20
362.0576163505321
 30
0.0
 40
5.0
100
AcDbArc
 50
25.37693352520023
 51
90.0
  0
ARC
  5
B1B
330
1F
100
AcDbEntity
  8
0
  6
Continuous
 62
     7
100
AcDbCircle
 10
54.38133732663982
 20
367.557616350532
 30
0.0
 40
3.5
100
AcDbArc
 50
188.6141866733997
 51
263.1312084256002
  0
ARC
  5
B1C
330
1F
100
AcDbEntity
  8
0
  6
Continuous
 62
     7
100
AcDbCircle
 10
53.72355890473983
 20
362.0970918558322
 30
0.0
 40
2.0000000001
100
AcDbArc
 50
25.01984025609937
 51
83.13120842009897
  0
ARC
  5
B22
102
{ACAD_REACTORS
330
14E9
102
}
330
1F
100
AcDbEntity
  8
0
  6
Continuous
 62
     7
100
AcDbCircle
 10
51.38133732663982
 20
371.557616350532
 30
0.0
 40
0.5
100
AcDbArc
 50
90.0
 51
180.0
  0
ARC
  5
B23
330
1F
100
AcDbEntity
  8
0
  6
Continuous
 62
     7
100
AcDbCircle
 10
54.38133732663982
 20
367.557616350532
 30
0.0
 40
0.5
100
AcDbArc
 50
180.0
 51
270.0
  0
ARC
  5
B24
330
1F
100
AcDbEntity
  8
0
  6
Continuous
 62
     7
100
AcDbCircle
 10
53.38133732663982
 20
371.557616350532
 30
0.0
 40
0.5
100
AcDbArc
 50
0.0
 51
90.0
  0
ARC
  5
B25
330
1F
100
AcDbEntity
  8
0
  6
Continuous
 62
     7
100
AcDbCircle
 10
62.88133732663983
 20
292.057616350532
 30
0.0
 40
0.05
100
AcDbArc
 50
270.0
 51
90.0
  0
ARC
  5
B26
330
1F
100
AcDbEntity
  8
0
  6
Continuous
 62
     7
100
AcDbCircle
 10
62.88133732663983
 20
282.057616350532
 30
0.0
 40
0.05
100
AcDbArc
 50
270.0
 51
90.0
  0
ARC
  5
B27
330
1F
100
AcDbEntity
  8
0
  6
Continuous
 62
     7
100
AcDbCircle
 10
62.88133732663983
 20
272.057616350532
 30
0.0
 40
0.05
100
AcDbArc
 50
270.0
 51
90.0
  0
ARC
  5
B28
330
1F
100
AcDbEntity
  8
0
  6
Continuous
 62
     7
100
AcDbCircle
 10
62.88133732663983
 20
262.0576163505321
 30
0.0
 40
0.05
100
AcDbArc
 50
270.0
 51
90.0
  0
ARC
  5
B29
330
1F
100
AcDbEntity
  8
0
  6
Continuous
 62
     7
100
AcDbCircle
 10
62.88133732663983
 20
252.057616350532
 30
0.0
 40
0.05
100
AcDbArc
 50
270.0
 51
90.0
  0
ARC
  5
B2A
330
1F
100
AcDbEntity
  8
0
  6
Continuous
 62
     7
100
AcDbCircle
 10
62.88133732663983
 20
242.057616350532
 30
0.0
 40
0.05
100
AcDbArc
 50
270.0
 51
90.0
  0
ARC
  5
B2B
330
1F
100
AcDbEntity
  8
0
  6
Continuous
 62
     7
100
AcDbCircle
 10
62.88133732663983
 20
232.057616350532
 30
0.0
 40
0.05
100
AcDbArc
 50
270.0
 51
90.0
  0
SPLINE
  5
B2C
330
1F
100
AcDbEntity
  8
RUNDUNGEN
  6
Continuous
 62
     7
100
AcDbSpline
210
0.0
220
0.0
230
1.0
 70
     8
 71
     3
 72
    15
 73
    11
 74
     9
 42
0.0000000001
 43
0.0000000001
 44
0.0000000001
 12
1.0
 22
-0.0000000000000001
 32
0.0
 13
0.4117437376152826
 23
-0.9112996732878803
 33
0.0
 40
0.0
 40
0.0
 40
0.0
 40
0.0
 40
0.6948684912362947
 40
1.375162672921088
 40
2.047373858035218
 40
2.712229580943244
 40
3.375870384699168
 40
4.040700552571275
 40
4.704428410615906
 40
5.370049461633286
 40
5.370049461633286
 40
5.370049461633286
 40
5.370049461633286
 10
56.93233338083982
 20
367.057616350532
 30
0.0
 10
57.16395621125192
 20
367.057616350532
 30
0.0
 10
57.62321268115247
 20
367.0185570990522
 30
0.0
 10
58.28764513233958
 20
366.851664713601
 30
0.0
 10
58.90982438871965
 20
366.5900042297998
 30
0.0
 10
59.48269855141264
 20
366.2442527763573
 30
0.0
 10
59.99996122741847
 20
365.8238952673251
 30
0.0
 10
60.45527343168839
 20
365.3377212114364
 30
0.0
 10
60.84246531793777
 20
364.7951546463285
 30
0.0
 10
61.05131280634605
 20
364.4026669088739
 30
0.0
 10
61.14266790613982
 20
364.200473493432
 30
0.0
 11
56.93233338083982
 21
367.057616350532
 31
0.0
 11
57.62476683483981
 21
366.999494651532
 31
0.0
 11
58.28475349353983
 21
366.8345165197321
 31
0.0
 11
58.90463198963981
 21
366.574480892432
 31
0.0
 11
59.47411637873982
 21
366.231376443532
 31
0.0
 11
59.98939207023983
 21
365.813153921232
 31
0.0
 11
60.44408527663985
 21
365.328124808532
 31
0.0
 11
60.82981771563982
 21
364.787990422432
 31
0.0
 11
61.14266790613982
 21
364.200473493432
 31
0.0
  0
SPLINE
  5
B2D
330
1F
100
AcDbEntity
  8
RUNDUNGEN
  6
Continuous
 62
     9
100
AcDbSpline
210
0.0
220
0.0
230
1.0
 70
     8
 71
     3
 72
    14
 73
    10
 74
     8
 42
0.0000000001
 43
0.0000000001
 44
0.0000000001
 12
-1.0
 22
0.0000000000000001
 32
0.0
 13
-0.4256438773062011
 23
-0.9048907612036623
 33
0.0
 40
0.0
 40
0.0
 40
0.0
 40
0.0
 40
0.7980861144232782
 40
1.596514944776447
 40
2.395593519812604
 40
3.195561332637451
 40
3.996565705057502
 40
4.798646891675117
 40
5.601734346571963
 40
5.601734346571963
 40
5.601734346571963
 40
5.601734346571963
 10
191.8614368527398
 20
367.057616350532
 30
0.0
 10
191.5954081479321
 20
367.057616350532
 30
0.0
 10
191.0622260013893
 20
367.0142308410745
 30
0.0
 10
190.2840498263756
 20
366.8207040099171
 30
0.0
 10
189.5465650806932
 20
366.5037509626377
 30
0.0
 10
188.8691692467176
 20
366.0716255530038
 30
0.0
 10
188.2693024971549
 20
365.5354840649871
 30
0.0
 10
187.7626233379047
 20
364.9094803699526
 30
0.0
 10
187.4955560900792
 20
364.4427089662236
 30
0.0
 10
187.3816130040398
 20
364.200473493432
 30
0.0
 11
191.8614368527398
 21
367.057616350532
 31
0.0
 11
191.0659828541398
 21
366.992852300732
 31
0.0
 11
190.2911355844398
 21
366.800237904132
 31
0.0
 11
189.5569679426398
 21
366.484762956132
 31
0.0
 11
188.8824989965398
 21
366.0546000308321
 31
0.0
 11
188.2852012823398
 21
365.5208927653321
 31
0.0
 11
187.7805481675398
 21
364.897467177432
 31
0.0
 11
187.3816130040398
 21
364.200473493432
 31
0.0
  0
SPLINE
  5
B2E
330
1F
100
AcDbEntity
  8
RUNDUNGEN
  6
Continuous
 62
     9
100
AcDbSpline
210
0.0
220
0.0
230
1.0
 70
     8
 71
     3
 72
    14
 73
    10
 74
     8
 42
0.0000000001
 43
0.0000000001
 44
0.0000000001
 12
-1.0
 22
0.0000000000000001
 32
0.0
 13
-0.0610515837723717
 23
-0.9981346122236645
 33
0.0
 40
0.0
 40
0.0
 40
0.0
 40
0.0
 40
0.1220386589223651
 40
0.3394143863764418
 40
0.6690177417424243
 40
1.108030428213509
 40
1.647359584524511
 40
2.274229373166665
 40
2.973150851841539
 40
2.973150851841539
 40
2.973150851841539
 40
2.973150851841539
 10
185.9096686046398
 20
367.057616350532
 30
0.0
 10
185.8689890516657
 20
367.057616350532
 30
0.0
 10
185.7717674296493
 20
366.9703066644873
 30
0.0
 10
185.6892493185153
 20
366.768045427051
 30
0.0
 10
185.5948451377024
 20
366.4501315170816
 30
0.0
 10
185.5129991843001
 20
366.0224369233336
 30
0.0
 10
185.4372264770183
 20
365.4923211623233
 30
0.0
 10
185.3736890218122
 20
364.8738409380885
 30
0.0
 10
185.3413617258083
 20
364.4330127331293
 30
0.0
 10
185.3271383047398
 20
364.200473493432
 30
0.0
 11
185.9096686046398
 21
367.057616350532
 31
0.0
 11
185.8062323821398
 21
366.992852300732
 31
0.0
 11
185.7054757391398
 21
366.800237904132
 31
0.0
 11
185.6100088388398
 21
366.484762956132
 31
0.0
 11
185.5223048105398
 21
366.0546000308321
 31
0.0
 11
185.4446356815398
 21
365.5208927653321
 31
0.0
 11
185.3790135186398
 21
364.897467177432
 31
0.0
 11
185.3271383047398
 21
364.200473493432
 31
0.0
  0
SPLINE
  5
B2F
330
1F
100
AcDbEntity
  8
RUNDUNGEN
  6
Continuous
 62
     9
100
AcDbSpline
210
0.0
220
0.0
230
1.0
 70
     8
 71
     3
 72
    13
 73
     9
 74
     7
 42
0.0000000001
 43
0.0000000001
 44
0.0000000001
 12
1.0
 22
-0.0000000000000001
 32
0.0
 13
0.0610515836703409
 23
0.9981346122299054
 33
0.0
 40
0.0
 40
0.0
 40
0.0
 40
0.0
 40
0.0596999637148535
 40
0.1740383302471853
 40
0.3494329922204389
 40
0.5821625218227982
 40
0.8650118762929984
 40
1.188548192168572
 40
1.188548192168572
 40
1.188548192168572
 40
1.188548192168572
 10
185.0941261847398
 20
363.057616350532
 30
0.0
 10
185.1140261726447
 20
363.057616350532
 30
0.0
 10
185.1601051632504
 20
363.1086666377517
 30
0.0
 10
185.1960063369114
 20
363.2147406158769
 30
0.0
 10
185.2390812599062
 20
363.3860779511573
 30
0.0
 10
185.2742667748884
 20
363.6129741399217
 30
0.0
 10
185.3055493078087
 20
363.8912912780424
 30
0.0
 10
185.3205541691201
 20
364.0928292282691
 30
0.0
 10
185.3271383039398
 20
364.2004734933319
 30
0.0
 11
185.0941261847398
 21
363.057616350532
 31
0.0
 11
185.1423208994398
 21
363.0928492207321
 31
0.0
 11
185.1888175800398
 21
363.1973064883321
 31
0.0
 11
185.2319780165398
 21
363.367307853532
 31
0.0
 11
185.2702815358398
 21
363.5968636732321
 31
0.0
 11
185.3023785886398
 21
363.8778859793321
 31
0.0
 11
185.3271383039398
 21
364.2004734933319
 31
0.0
  0
SPLINE
  5
B30
330
1F
100
AcDbEntity
  8
RUNDUNGEN
  6
Continuous
 62
     7
100
AcDbSpline
210
0.0
220
0.0
230
1.0
 70
     8
 71
     3
 72
    13
 73
     9
 74
     7
 42
0.0000000001
 43
0.0000000001
 44
0.0000000001
 12
0.4117437376239528
 22
-0.9112996732839629
 32
0.0
 13
1.0
 23
-0.0000000000000001
 33
0.0
 40
0.0
 40
0.0
 40
0.0
 40
0.0
 40
0.3535499307865696
 40
0.7172954352336733
 40
1.082937331783518
 40
1.45039486682075
 40
1.822704265322334
 40
2.190924093774264
 40
2.190924093774264
 40
2.190924093774264
 40
2.190924093774264
 10
61.14266790613982
 20
364.200473493432
 30
0.0
 10
61.1911918961194
 20
364.0930768479602
 30
0.0
 10
61.30881483144401
 20
363.8832619933003
 30
0.0
 10
61.54020726228639
 20
363.6036101542225
 30
0.0
 10
61.82355426534297
 20
363.369015952136
 30
0.0
 10
62.1493780210009
 20
363.1919005872285
 30
0.0
 10
62.50455166973538
 20
363.0822318251448
 30
0.0
 10
62.75209604262248
 20
363.057616350532
 30
0.0
 10
62.87483598543979
 20
363.057616350532
 30
0.0
 11
61.14266790613982
 21
364.200473493432
 31
0.0
 11
61.31580203653982
 21
363.892216901532
 31
0.0
 11
61.54790301713982
 21
363.6121456127321
 31
0.0
 11
61.82972798223983
 21
363.3791892100321
 31
0.0
 11
62.15265768283981
 21
363.2038568156321
 31
0.0
 11
62.50843126353982
 21
363.094132399532
 31
0.0
 11
62.87483598543979
 21
363.057616350532
 31
0.0
  0
SPLINE
  5
B31
330
1F
100
AcDbEntity
  8
RUNDUNGEN
  6
Continuous
 62
     9
100
AcDbSpline
210
0.0
220
0.0
230
1.0
 70
     8
 71
     3
 72
    13
 73
     9
 74
     7
 42
0.0000000001
 43
0.0000000001
 44
0.0000000001
 12
0.9955102738220416
 22
0.0946535509886656
 32
0.0
 13
0.4256438773226046
 23
0.9048907611959467
 33
0.0
 40
0.0
 40
0.0
 40
0.0
 40
0.0
 40
0.1863732541377311
 40
0.5588911251581094
 40
0.9318102622975068
 40
1.305259517750668
 40
1.679293319249551
 40
2.053884378515008
 40
2.053884378515008
 40
2.053884378515008
 40
2.053884378515008
 10
185.7758191538398
 20
363.066459268732
 30
0.0
 10
185.8376646502597
 20
363.0723395655031
 30
0.0
 10
186.0223490622072
 20
363.0987219840187
 30
0.0
 10
186.3224167164795
 20
363.1864003324809
 30
0.0
 10
186.6562808006377
 20
363.3574587892038
 30
0.0
 10
186.9525984374526
 20
363.5884595972596
 30
0.0
 10
187.2007917740024
 20
363.8710712303865
 30
0.0
 10
187.3284655404144
 20
364.0874854971801
 30
0.0
 10
187.3816130040398
 20
364.200473493432
 30
0.0
 11
185.7758191538398
 21
363.066459268732
 31
0.0
 11
185.9603145737398
 21
363.092849226932
 31
0.0
 11
186.3178872827398
 21
363.197306500532
 31
0.0
 11
186.6498032767398
 21
363.367307841032
 31
0.0
 11
186.9443682003398
 21
363.596863612432
 31
0.0
 11
187.1912036841398
 21
363.877885904432
 31
0.0
 11
187.3816130040398
 21
364.200473493432
 31
0.0
  0
SPLINE
  5
B32
330
1F
100
AcDbEntity
  8
0
  6
Continuous
 62
     7
100
AcDbSpline
210
0.0
220
0.0
230
1.0
 70
     8
 71
     3
 72
    10
 73
     6
 74
     4
 42
0.0000000001
 43
0.0000000001
 44
0.0000000001
 12
-0.9874401384159561
 22
0.1579935854554774
 32
0.0
 13
-1.0
 23
0.0000000000000001
 33
0.0
 40
0.0
 40
0.0
 40
0.0
 40
0.0
 40
0.6305149145784164
 40
1.234154290474219
 40
1.808195195865027
 40
1.808195195865027
 40
1.808195195865027
 40
1.808195195865027
 10
80.22304339753981
 20
362.896247804632
 30
0.0
 10
80.0155114860316
 20
362.9294535753112
 30
0.0
 10
79.60808442129871
 20
362.987390002701
 30
0.0
 10
79.0077422897869
 20
363.0437598866756
 30
0.0
 10
78.61510451610342
 20
363.057616350532
 30
0.0
 10
78.42375754763981
 20
363.057616350532
 30
0.0
 11
80.22304339753981
 21
362.896247804632
 31
0.0
 11
79.59860480453982
 21
362.9835719197321
 31
0.0
 11
78.99748594893981
 21
363.0386774328321
 31
0.0
 11
78.42375754763981
 21
363.057616350532
 31
0.0
  0
SPLINE
  5
B33
330
1F
100
AcDbEntity
  8
0
  6
Continuous
 62
     7
100
AcDbSpline
210
0.0
220
0.0
230
1.0
 70
     8
 71
     3
 72
    10
 73
     6
 74
     4
 42
0.0000000001
 43
0.0000000001
 44
0.0000000001
 12
-1.0
 22
0.0000000000000001
 32
0.0
 13
-0.9653114529256168
 23
-0.2611011276318714
 33
0.0
 40
0.0
 40
0.0
 40
0.0
 40
0.0
 40
0.2710631989695567
 40
0.5860738323952491
 40
0.9497217237271005
 40
0.9497217237271005
 40
0.9497217237271005
 40
0.9497217237271005
 10
87.57243522413984
 20
363.057616350532
 30
0.0
 10
87.48208082448332
 20
363.057616350532
 30
0.0
 10
87.28670731591945
 20
363.0417685976552
 30
0.0
 10
86.97523550187751
 20
362.9836676788794
 30
0.0
 10
86.75588483815143
 20
362.9278974294613
 30
0.0
 10
86.63887368003981
 20
362.896247804632
 30
0.0
 11
87.57243522413984
 21
363.057616350532
 31
0.0
 11
87.3020344623398
 21
363.038677347032
 31
0.0
 11
86.99188102013982
 21
362.9835725245321
 31
0.0
 11
86.63887368003981
 21
362.896247804632
 31
0.0
  0
LINE
  5
B58
330
1F
100
AcDbEntity
  8
RUNDUNGEN
  6
Continuous
 62
     7
100
AcDbLine
 10
194.5413373266398
 20
357.307616350532
 30
0.0
 11
197.8813373266398
 21
357.307616350532
 31
0.0
  0
LINE
  5
B59
330
1F
100
AcDbEntity
  8
0
  6
Continuous
 62
     7
100
AcDbLine
 10
199.7686574687398
 20
358.645783530732
 30
0.0
 11
199.8813373266398
 21
371.557616350532
 31
0.0
  0
ARC
  5
B5A
330
1F
100
AcDbEntity
  8
RUNDUNGEN
  6
Continuous
 62
     7
100
AcDbCircle
 10
194.5413373266398
 20
366.5576163505321
 30
0.0
 40
9.25
100
AcDbArc
 50
229.461923789401
 51
270.0
  0
ARC
  5
B5B
330
1F
100
AcDbEntity
  8
0
  6
Continuous
 62
     7
100
AcDbCircle
 10
197.8813373266398
 20
359.307616350532
 30
0.0
 40
2.0
100
AcDbArc
 50
270.0
 51
340.6755927260011
  0
DIMENSION
  5
B5D
330
1F
100
AcDbEntity
  8
AM_5
100
AcDbDimension
  2
*D2
 10
34.84052819244042
 20
222.0576163505321
 30
0.0
 11
34.84052819244039
 21
298.7752608733541
 31
0.0
 70
   160
  1
150
 71
     5
 42
150.0
  3
AM_DIN$0
100
AcDbAlignedDimension
 13
51.33133732663981
 23
372.0576163505322
 33
0.0
 14
65.88133732663982
 24
222.057616350532
 34
0.0
 50
90.0
100
AcDbRotatedDimension
1001
ACAD
1000
DSTYLE
1002
{
1070
    40
1040
2.0
1070
    47
1040
0.05
1070
    48
1040
0.05
1002
}
  0
DIMENSION
  5
B5E
330
1F
100
AcDbEntity
  8
AM_5
100
AcDbDimension
  2
*D3
 10
62.88133732663983
 20
201.9985152349721
 30
0.0
 11
125.3813373266398
 21
201.9985152349721
 31
0.0
 70
   160
  1
%%c<>
 71
     5
 42
125.0
  3
AM_DIN$0
100
AcDbAlignedDimension
 13
187.8813373266398
 23
225.057616350532
 33
0.0
 14
62.88133732663983
 24
225.057616350532
 34
0.0
100
AcDbRotatedDimension
1001
ACAD
1000
DSTYLE
1002
{
1070
    40
1040
2.0
1070
    47
1040
0.05
1070
    48
1040
0.05
1002
}
  0
DIMENSION
  5
B5F
330
1F
100
AcDbEntity
  8
AM_5
100
AcDbDimension
  2
*D4
 10
217.3380081917794
 20
357.307616350532
 30
0.0
 11
210.8380081917793
 21
364.6826163505322
 31
0.0
 70
    32
 71
     5
 42
14.75
  3
AM_DIN$0
100
AcDbAlignedDimension
 13
199.4313373266398
 23
372.0576163505322
 33
0.0
 14
197.8813373266398
 24
357.307616350532
 34
0.0
 50
90.0
100
AcDbRotatedDimension
1001
ACAD
1000
DSTYLE
1002
{
1070
    40
1040
2.0
1070
    47
1040
0.05
1070
    48
1040
0.05
1070
   271
1070
     0
1002
}
  0
LINE
  5
CE2
330
1F
100
AcDbEntity
  8
TEIL_STARTBEZUEGE
  6
CENTER
 62
     4
100
AcDbLine
 10
45.43558584423978
 20
107.9784220782118
 30
0.0
 11
207.3030748080398
 21
107.9784220782117
 31
0.0
  0
LINE
  5
CE3
330
1F
100
AcDbEntity
  8
TEIL_STARTBEZUEGE
  6
CENTER
 62
     4
100
AcDbLine
 10
125.3813373266398
 20
187.9344674726118
 30
0.0
 11
125.3813373266398
 21
28.02237628581183
 31
0.0
  0
ARC
  5
D26
330
1F
100
AcDbEntity
  8
RUNDUNGEN
  6
Continuous
 62
     9
100
AcDbCircle
 10
125.3813373266398
 20
107.9784220782117
 30
0.0
 40
60.2870415338
100
AcDbArc
 50
242.3257067866196
 51
250.5448294988851
  0
ARC
  5
D27
330
1F
100
AcDbEntity
  8
RUNDUNGEN
  6
Continuous
 62
     7
100
AcDbCircle
 10
125.3813373266398
 20
107.9784220782117
 30
0.0
 40
58.2870415338
100
AcDbArc
 50
128.1434884738621
 51
139.0153023333657
  0
LINE
  5
D7F
330
1F
100
AcDbEntity
  8
AM_7
100
AcDbLine
 10
125.3813373266398
 20
219.057616350532
 30
0.0
 11
125.3813373266398
 21
375.057616350532
 31
0.0
1001
GENIUS_GENOBJ-N-CEN_13
1002
{
1000
OWNER
1000
GEN
1002
}
1001
GENIUS_GENODEF_13
1002
{
1000
HIER
1070
     0
1002
}
1002
{
1000
MANEDIT
1070
     0
1002
}
1002
{
1000
NOSEL
1070
     0
1002
}
1002
{
1000
BEHIND
1070
     0
1002
}
1002
{
1000
OTHER
1070
     0
1002
}
1002
{
1000
REACTOR
1002
}
1001
GENIUS_GENCEN_19
1002
{
1040
3.0
1002
}
  0
HATCH
  5
DA4
330
1F
100
AcDbEntity
  8
AM_8
100
AcDbHatch
 10
0.0
 20
0.0
 30
0.0
210
0.0
220
0.0
230
1.0
  2
_U
 70
     0
 71
     0
 91
        1
 92
        1
 93
       48
 72
     1
 10
50.90548013403893
 20
368.7911246387088
 11
50.92081968853985
 21
367.0333857938321
 72
     2
 10
54.38133732662464
 20
367.5576163505468
 40
3.500000000012783
 50
188.6141866739525
 51
263.1312084258758
 73
     1
 72
     2
 10
53.72355888894222
 20
362.0970918672779
 40
2.000000009574345
 50
276.8687920683722
 51
334.9801602324374
 73
     0
 72
     2
 10
60.0666886305613
 20
365.0576163506457
 40
5.000000000113688
 50
205.0198402576433
 51
270.0000000020456
 73
     1
 72
     1
 10
60.06668863073979
 20
360.0576163505321
 11
60.88133732663982
 21
360.0576163505321
 72
     2
 10
60.88133732663982
 20
358.0576163505321
 40
2.0
 50
270.0
 51
360.0
 73
     0
 72
     1
 10
62.88133732663983
 20
358.0576163505321
 11
62.88133732663983
 21
352.1076163505322
 72
     2
 10
62.88133732663983
 20
352.057616350532
 40
0.0500000000000114
 50
270.0
 51
450.0
 73
     0
 72
     1
 10
62.88133732663983
 20
352.007616350532
 11
62.88133732663983
 21
342.1076163505321
 72
     2
 10
62.88133732663983
 20
342.057616350532
 40
0.0500000000000114
 50
270.0
 51
450.0
 73
     0
 72
     1
 10
62.88133732663983
 20
342.007616350532
 11
62.88133732663983
 21
332.107616350532
 72
     2
 10
62.88133732663983
 20
332.057616350532
 40
0.0500000000000114
 50
270.0
 51
450.0
 73
     0
 72
     1
 10
62.88133732663983
 20
332.007616350532
 11
62.88133732663983
 21
322.107616350532
 72
     2
 10
62.88133732663983
 20
322.0576163505321
 40
0.0500000000000114
 50
270.0
 51
450.0
 73
     0
 72
     1
 10
62.88133732663983
 20
322.007616350532
 11
62.88133732663983
 21
312.1076163505321
 72
     2
 10
62.88133732663983
 20
312.0576163505321
 40
0.0500000000000114
 50
270.0
 51
450.0
 73
     0
 72
     1
 10
62.88133732663983
 20
312.007616350532
 11
62.88133732663983
 21
302.1076163505321
 72
     2
 10
62.88133732663983
 20
302.057616350532
 40
0.0500000000000114
 50
270.0
 51
450.0
 73
     0
 72
     1
 10
62.88133732663983
 20
302.007616350532
 11
62.88133732663983
 21
292.107616350532
 72
     2
 10
62.88133732663983
 20
292.057616350532
 40
0.0500000000000114
 50
270.0
 51
450.0
 73
     0
 72
     1
 10
62.88133732663983
 20
292.007616350532
 11
62.88133732663983
 21
282.107616350532
 72
     2
 10
62.88133732663983
 20
282.057616350532
 40
0.0500000000000114
 50
270.0
 51
450.0
 73
     0
 72
     1
 10
62.88133732663983
 20
282.007616350532
 11
62.88133732663983
 21
272.107616350532
 72
     2
 10
62.88133732663983
 20
272.057616350532
 40
0.0500000000000114
 50
270.0
 51
450.0
 73
     0
 72
     1
 10
62.88133732663983
 20
272.007616350532
 11
62.88133732663983
 21
262.1076163505321
 72
     2
 10
62.88133732663983
 20
262.0576163505321
 40
0.0500000000000114
 50
270.0
 51
450.0
 73
     0
 72
     1
 10
62.88133732663983
 20
262.007616350532
 11
62.88133732663983
 21
252.1076163505321
 72
     2
 10
62.88133732663983
 20
252.057616350532
 40
0.0500000000000114
 50
270.0
 51
450.0
 73
     0
 72
     1
 10
62.88133732663983
 20
252.007616350532
 11
62.88133732663983
 21
242.1076163505321
 72
     2
 10
62.88133732663983
 20
242.057616350532
 40
0.0500000000000114
 50
270.0
 51
450.0
 73
     0
 72
     1
 10
62.88133732663983
 20
242.007616350532
 11
62.88133732663983
 21
232.107616350532
 72
     2
 10
62.88133732663983
 20
232.057616350532
 40
0.0500000000000114
 50
270.0
 51
450.0
 73
     0
 72
     1
 10
62.88133732663983
 20
232.007616350532
 11
62.88133732663983
 21
225.057616350532
 72
     1
 10
62.88133732663983
 20
225.057616350532
 11
63.74157348393982
 21
222.057616350532
 72
     1
 10
63.74157348393982
 20
222.057616350532
 11
65.88133732663982
 21
222.057616350532
 72
     1
 10
65.88133732663982
 20
222.057616350532
 11
67.09421963893982
 21
361.0401632795321
 72
     2
 10
65.09429579282579
 20
361.0576163505462
 40
1.999999999985838
 50
359.4999999994985
 51
449.9999999995977
 73
     1
 72
     1
 10
65.09429579283983
 20
363.057616350532
 11
61.3069131614398
 21
363.057616350532
 72
     2
 10
61.3069131614398
 20
365.057616350532
 40
2.0
 50
90.0
 51
154.6230664747997
 73
     0
 72
     2
 10
54.98235784108498
 20
362.0576163505035
 40
5.000000000028578
 50
25.37693352534045
 51
90.00000000051777
 73
     1
 72
     1
 10
54.9823578410398
 20
367.057616350532
 11
54.38133732663982
 21
367.057616350532
 72
     2
 10
54.38133732663982
 20
367.557616350532
 40
0.5
 50
90.0
 51
180.0
 73
     0
 72
     1
 10
53.88133732663982
 20
367.557616350532
 11
53.88133732663982
 21
371.557616350532
 72
     2
 10
53.38133732663982
 20
371.557616350532
 40
0.5
 50
0.0
 51
90.0
 73
     1
 72
     1
 10
53.38133732663982
 20
372.0576163505322
 11
51.38133732663982
 21
372.0576163505322
 72
     2
 10
51.38133732663982
 20
371.557616350532
 40
0.5
 50
90.0
 51
180.0
 73
     1
 72
     1
 10
50.88133732663982
 20
371.557616350532
 11
50.89704568863982
 21
369.7576163505321
 72
     1
 10
50.89704568863982
 20
369.7576163505321
 11
50.90548013403893
 21
368.7911246387088
 97
        0
 75
     0
 76
     0
 52
45.0
 41
2.5
 77
     0
 78
     1
 53
45.0
 43
-0.0000001365676781
 44
0.0000004564298024
 45
-1.767766952966368
 46
1.767766952966368
 79
     0
 98
        1
 10
-0.0000001365676781
 20
0.0000004564298024
1001
GENIUS_GENODEF_13
1002
{
1000
HIER
1070
     0
1002
}
1002
{
1000
MANEDIT
1070
     0
1002
}
1002
{
1000
NOSEL
1070
     0
1002
}
1002
{
1000
BEHIND
1070
     0
1002
}
1002
{
1000
OTHER
1070
     0
1002
}
1002
{
1000
REACTOR
1002
}
1001
GENIUS_GENOBJ-N-HTC_13
1002
{
1000
OWNER
1000
GEN
1002
}
1001
GENIUS_GENHATCH_13
1002
{
1000
DATA
1040
45.0
1042
2.5
1000
_U
1070
     0
1011
65.05471755572489
1021
348.1010952816413
1031
0.0
1002
}
1002
{
1000
UCS
1010
0.0
1020
0.0
1030
0.0
1010
1.0
1020
0.0
1030
0.0
1010
0.0
1020
1.0
1030
0.0
1002
}
  0
LINE
  5
DA5
330
1F
100
AcDbEntity
  8
AM_BOR
100
AcDbLine
 10
187.0211011693398
 20
222.057616350532
 30
0.0
 11
187.8813373266398
 21
225.057616350532
 31
0.0
  0
HATCH
  5
DA6
330
1F
100
AcDbEntity
  8
AM_8
100
AcDbHatch
 10
0.0
 20
0.0
 30
0.0
210
0.0
220
0.0
230
1.0
  2
_U
 70
     0
 71
     0
 91
        1
 92
        1
 93
       48
 72
     1
 10
199.8571945192407
 20
368.7911246387088
 11
199.8418549647398
 21
367.0333857938321
 72
     2
 10
196.381337326655
 20
367.5576163505468
 40
3.500000000012783
 50
8.614186673952472
 51
83.13120842587572
 73
     0
 72
     2
 10
197.0391157643374
 20
362.0970918672779
 40
2.000000009574345
 50
456.868792068372
 51
514.9801602324373
 73
     1
 72
     2
 10
190.6959860227183
 20
365.0576163506457
 40
5.000000000113688
 50
25.01984025764335
 51
90.00000000204556
 73
     0
 72
     1
 10
190.6959860225398
 20
360.0576163505321
 11
189.8813373266398
 21
360.0576163505321
 72
     2
 10
189.8813373266398
 20
358.0576163505321
 40
2.0
 50
450.0
 51
540.0
 73
     1
 72
     1
 10
187.8813373266398
 20
358.0576163505321
 11
187.8813373266398
 21
352.1076163505322
 72
     2
 10
187.8813373266398
 20
352.057616350532
 40
0.0500000000000114
 50
450.0
 51
630.0
 73
     1
 72
     1
 10
187.8813373266398
 20
352.007616350532
 11
187.8813373266398
 21
342.1076163505321
 72
     2
 10
187.8813373266398
 20
342.057616350532
 40
0.0500000000000114
 50
450.0
 51
630.0
 73
     1
 72
     1
 10
187.8813373266398
 20
342.007616350532
 11
187.8813373266398
 21
332.107616350532
 72
     2
 10
187.8813373266398
 20
332.057616350532
 40
0.0500000000000114
 50
450.0
 51
630.0
 73
     1
 72
     1
 10
187.8813373266398
 20
332.007616350532
 11
187.8813373266398
 21
322.107616350532
 72
     2
 10
187.8813373266398
 20
322.0576163505321
 40
0.0500000000000114
 50
450.0
 51
630.0
 73
     1
 72
     1
 10
187.8813373266398
 20
322.007616350532
 11
187.8813373266398
 21
312.1076163505321
 72
     2
 10
187.8813373266398
 20
312.0576163505321
 40
0.0500000000000114
 50
450.0
 51
630.0
 73
     1
 72
     1
 10
187.8813373266398
 20
312.007616350532
 11
187.8813373266398
 21
302.1076163505321
 72
     2
 10
187.8813373266398
 20
302.057616350532
 40
0.0500000000000114
 50
450.0
 51
630.0
 73
     1
 72
     1
 10
187.8813373266398
 20
302.007616350532
 11
187.8813373266398
 21
292.107616350532
 72
     2
 10
187.8813373266398
 20
292.057616350532
 40
0.0500000000000114
 50
450.0
 51
630.0
 73
     1
 72
     1
 10
187.8813373266398
 20
292.007616350532
 11
187.8813373266398
 21
282.107616350532
 72
     2
 10
187.8813373266398
 20
282.057616350532
 40
0.0500000000000114
 50
450.0
 51
630.0
 73
     1
 72
     1
 10
187.8813373266398
 20
282.007616350532
 11
187.8813373266398
 21
272.107616350532
 72
     2
 10
187.8813373266398
 20
272.057616350532
 40
0.0500000000000114
 50
450.0
 51
630.0
 73
     1
 72
     1
 10
187.8813373266398
 20
272.007616350532
 11
187.8813373266398
 21
262.1076163505321
 72
     2
 10
187.8813373266398
 20
262.0576163505321
 40
0.0500000000000114
 50
450.0
 51
630.0
 73
     1
 72
     1
 10
187.8813373266398
 20
262.007616350532
 11
187.8813373266398
 21
252.1076163505321
 72
     2
 10
187.8813373266398
 20
252.057616350532
 40
0.0500000000000114
 50
450.0
 51
630.0
 73
     1
 72
     1
 10
187.8813373266398
 20
252.007616350532
 11
187.8813373266398
 21
242.1076163505321
 72
     2
 10
187.8813373266398
 20
242.057616350532
 40
0.0500000000000114
 50
450.0
 51
630.0
 73
     1
 72
     1
 10
187.8813373266398
 20
242.007616350532
 11
187.8813373266398
 21
232.107616350532
 72
     2
 10
187.8813373266398
 20
232.057616350532
 40
0.0500000000000114
 50
450.0
 51
630.0
 73
     1
 72
     1
 10
187.8813373266398
 20
232.007616350532
 11
187.8813373266398
 21
225.057616350532
 72
     1
 10
187.8813373266398
 20
225.057616350532
 11
187.0211011693398
 21
222.057616350532
 72
     1
 10
187.0211011693398
 20
222.057616350532
 11
184.8813373266398
 21
222.057616350532
 72
     1
 10
184.8813373266398
 20
222.057616350532
 11
183.6684550143398
 21
361.0401632795321
 72
     2
 10
185.6683788604538
 20
361.0576163505462
 40
1.999999999985838
 50
179.4999999994985
 51
269.9999999995978
 73
     0
 72
     1
 10
185.6683788604398
 20
363.057616350532
 11
189.4557614918398
 21
363.057616350532
 72
     2
 10
189.4557614918398
 20
365.057616350532
 40
2.0
 50
270.0
 51
334.6230664747998
 73
     1
 72
     2
 10
195.7803168121946
 20
362.0576163505035
 40
5.000000000028578
 50
-154.6230664746595
 51
-89.9999999994822
 73
     0
 72
     1
 10
195.7803168122398
 20
367.057616350532
 11
196.3813373266398
 21
367.057616350532
 72
     2
 10
196.3813373266398
 20
367.557616350532
 40
0.5
 50
270.0
 51
360.0
 73
     1
 72
     1
 10
196.8813373266398
 20
367.557616350532
 11
196.8813373266398
 21
371.557616350532
 72
     2
 10
197.3813373266398
 20
371.557616350532
 40
0.5
 50
-180.0
 51
-90.0
 73
     0
 72
     1
 10
197.3813373266398
 20
372.0576163505322
 11
199.3813373266398
 21
372.0576163505322
 72
     2
 10
199.3813373266398
 20
371.557616350532
 40
0.5
 50
-90.0
 51
0.0
 73
     0
 72
     1
 10
199.8813373266398
 20
371.557616350532
 11
199.8656289646398
 21
369.7576163505321
 72
     1
 10
199.8656289646398
 20
369.7576163505321
 11
199.8571945192407
 21
368.7911246387088
 97
        0
 75
     0
 76
     0
 52
45.0
 41
2.5
 77
     0
 78
     1
 53
135.0
 43
250.7626747898473
 44
0.0000004564298024
 45
1.767766952966368
 46
1.767766952966368
 79
     0
 98
        1
 10
250.7626747898473
 20
0.0000004564298024
1001
GENIUS_GENODEF_13
1002
{
1000
HIER
1070
     0
1002
}
1002
{
1000
MANEDIT
1070
     0
1002
}
1002
{
1000
NOSEL
1070
     0
1002
}
1002
{
1000
BEHIND
1070
     0
1002
}
1002
{
1000
OTHER
1070
     0
1002
}
1002
{
1000
REACTOR
1002
}
1001
GENIUS_GENOBJ-N-HTC_13
1002
{
1000
OWNER
1000
GEN
1002
}
1001
GENIUS_GENHATCH_13
1002
{
1000
DATA
1040
45.0
1042
-2.5
1000
_U
1070
     0
1011
185.7079570975547
1021
348.1010952816413
1031
0.0
1002
}
1002
{
1000
UCS
1010
0.0
1020
0.0
1030
0.0
1010
1.0
1020
0.0
1030
0.0
1010
0.0
1020
1.0
1030
0.0
1002
}
  0
LINE
  5
1208
330
1F
100
AcDbEntity
  8
RUNDUNGEN
  6
Continuous
 62
     7
100
AcDbLine
 10
196.1813373266399
 20
145.8326218792118
 30
0.0
 11
196.2313373266399
 21
145.8326218792118
 31
0.0
  0
LINE
  5
1209
330
1F
100
AcDbEntity
  8
RUNDUNGEN
  6
Continuous
 62
     7
100
AcDbLine
 10
196.2313373266399
 20
145.3326218792118
 30
0.0
 11
196.1813373266399
 21
145.3326218792118
 31
0.0
  0
LINE
  5
120A
330
1F
100
AcDbEntity
  8
RUNDUNGEN
  6
Continuous
 62
     9
100
AcDbLine
 10
196.2313373266399
 20
144.3326218792118
 30
0.0
 11
196.1813373266399
 21
144.3326218792118
 31
0.0
  0
LINE
  5
120B
330
1F
100
AcDbEntity
  8
0
  6
Continuous
 62
     7
100
AcDbLine
 10
184.4130809132396
 20
43.28057776501181
 30
0.0
 11
183.8048518920398
 21
43.63173935461182
 31
0.0
  0
LINE
  5
120C
330
1F
100
AcDbEntity
  8
RUNDUNGEN
  6
Continuous
 62
     9
100
AcDbLine
 10
196.1813373266399
 20
71.62422187921183
 30
0.0
 11
196.2313373266399
 21
71.62422187921183
 31
0.0
  0
LINE
  5
120D
330
1F
100
AcDbEntity
  8
RUNDUNGEN
  6
Continuous
 62
     7
100
AcDbLine
 10
196.1813373266399
 20
70.62422187921183
 30
0.0
 11
196.2313373266399
 21
70.62422187921183
 31
0.0
  0
LINE
  5
120E
330
1F
100
AcDbEntity
  8
RUNDUNGEN
  6
Continuous
 62
     7
100
AcDbLine
 10
196.1813373266399
 20
70.12422187921183
 30
0.0
 11
196.2313373266399
 21
70.12422187921183
 31
0.0
  0
LINE
  5
1213
330
1F
100
AcDbEntity
  8
RUNDUNGEN
  6
Continuous
 62
     7
100
AcDbLine
 10
196.1813373266398
 20
46.12422187921182
 30
0.0
 11
196.2313373266398
 21
46.12422187921182
 31
0.0
  0
LINE
  5
1214
330
1F
100
AcDbEntity
  8
RUNDUNGEN
  6
Continuous
 62
     7
100
AcDbLine
 10
196.2313373266398
 20
45.62422187921182
 30
0.0
 11
196.1813373266398
 21
45.62422187921182
 31
0.0
  0
LINE
  5
1215
330
1F
100
AcDbEntity
  8
RUNDUNGEN
  6
Continuous
 62
     9
100
AcDbLine
 10
196.2313373266398
 20
44.62422187921182
 30
0.0
 11
196.1813373266398
 21
44.62422187921182
 31
0.0
  0
LINE
  5
1216
330
1F
100
AcDbEntity
  8
0
  6
Continuous
 62
     7
100
AcDbLine
 10
177.3570737605397
 20
43.44434780001182
 30
0.0
 11
174.5806315640398
 21
43.44434847991183
 31
0.0
  0
LINE
  5
1217
330
1F
100
AcDbEntity
  8
0
  6
Continuous
 62
     7
100
AcDbLine
 10
174.4328934964398
 20
42.74202369771183
 30
0.0
 11
177.5048215438398
 21
42.74202384541182
 31
0.0
  0
LINE
  5
1218
330
1F
100
AcDbEntity
  8
0
  6
Continuous
 62
     7
100
AcDbLine
 10
173.6863525132398
 20
42.10858212751182
 30
0.0
 11
174.3886935669398
 21
42.10858212631182
 31
0.0
  0
LINE
  5
1219
330
1F
100
AcDbEntity
  8
0
  6
Continuous
 62
     7
100
AcDbLine
 10
177.5490214160398
 20
42.10858200401182
 30
0.0
 11
178.2513500842398
 21
42.10858200871182
 31
0.0
  0
LINE
  5
1220
330
1F
100
AcDbEntity
  8
0
  6
Continuous
 62
     7
100
AcDbLine
 10
183.7900607052398
 20
45.23704537881184
 30
0.0
 11
184.3983607876397
 21
45.58825044341181
 31
0.0
  0
ARC
  5
122F
330
1F
100
AcDbEntity
  8
0
  6
Continuous
 62
     7
100
AcDbCircle
 10
172.6328131615398
 20
42.08380455251182
 30
0.0
 40
5.6185915561
100
AcDbArc
 50
0.2526697764009885
 51
53.57631774520021
  0
ARC
  5
1230
330
1F
100
AcDbEntity
  8
0
  6
Continuous
 62
     7
100
AcDbCircle
 10
179.3048447742398
 20
42.08381361751182
 30
0.0
 40
5.618546855399999
100
AcDbArc
 50
126.4232201917987
 51
179.7474194447991
  0
ARC
  5
1232
330
1F
100
AcDbEntity
  8
0
  6
Continuous
 62
     7
100
AcDbCircle
 10
172.6328135852398
 20
42.08380520681183
 30
0.0
 40
4.916270265699998
100
AcDbArc
 50
0.2887579078018075
 51
7.694194411398687
  0
ARC
  5
1233
330
1F
100
AcDbEntity
  8
0
  6
Continuous
 62
     7
100
AcDbCircle
 10
172.6328135497398
 20
42.08380489531181
 30
0.0
 40
4.916270083499998
100
AcDbArc
 50
16.06590737020226
 51
47.26777830449804
  0
ARC
  5
1234
330
1F
100
AcDbEntity
  8
0
  6
Continuous
 62
     7
100
AcDbCircle
 10
179.3048414532398
 20
42.08381080411182
 30
0.0
 40
4.9162202803
100
AcDbArc
 50
132.7316948797037
 51
163.9339888871035
  0
ARC
  5
1235
330
1F
100
AcDbEntity
  8
0
  6
Continuous
 62
     7
100
AcDbCircle
 10
179.3048372377398
 20
42.08380908451184
 30
0.0
 40
4.916206087599999
100
AcDbArc
 50
172.3057518773992
 51
179.7112820890005
  0
CIRCLE
  5
1237
330
1F
100
AcDbEntity
  8
0
  6
Continuous
 62
     7
100
AcDbCircle
 10
188.9038133266398
 20
44.42185110371184
 30
0.0
 40
2.282548999999999
  0
ARC
  5
1238
330
1F
100
AcDbEntity
  8
0
  6
Continuous
 62
     7
100
AcDbCircle
 10
182.4363374252397
 20
44.42185184971182
 30
0.0
 40
2.282547119699998
100
AcDbArc
 50
30.73095911389891
 51
329.999984789
  0
CIRCLE
  5
1239
330
1F
100
AcDbEntity
  8
0
  6
Continuous
 62
     7
100
AcDbCircle
 10
188.9038133266398
 20
44.42185110371184
 30
0.0
 40
1.580225999999998
  0
ARC
  5
123A
330
1F
100
AcDbEntity
  8
0
  6
Continuous
 62
     7
100
AcDbCircle
 10
182.4363373266398
 20
44.42185110371184
 30
0.0
 40
1.580224253599998
100
AcDbArc
 50
31.05579359020241
 51
330.000015814498
  0
LINE
  5
123D
330
1F
100
AcDbEntity
  8
RUNDUNGEN
  6
Continuous
 62
     7
100
AcDbLine
 10
55.33133732663991
 20
176.4784218792116
 30
0.0
 11
55.3313373266398
 21
39.47842187921189
 31
0.0
  0
LINE
  5
123E
330
1F
100
AcDbEntity
  8
RUNDUNGEN
  6
Continuous
 62
     7
100
AcDbLine
 10
56.88133732663974
 20
37.9284218792117
 30
0.0
 11
193.8813373266397
 21
37.9284218792117
 31
0.0
  0
LINE
  5
123F
330
1F
100
AcDbEntity
  8
RUNDUNGEN
  6
Continuous
 62
     7
100
AcDbLine
 10
65.38133732663975
 20
71.92842187921177
 30
0.0
 11
65.38133732663986
 21
154.0284218792119
 31
0.0
  0
LINE
  5
1240
330
1F
100
AcDbEntity
  8
RUNDUNGEN
  6
Continuous
 62
     7
100
AcDbLine
 10
73.38133732663987
 20
154.0284218792119
 30
0.0
 11
73.38133732663975
 21
71.92842187921177
 31
0.0
  0
LINE
  5
1241
330
1F
100
AcDbEntity
  8
RUNDUNGEN
  6
Continuous
 62
     9
100
AcDbLine
 10
169.8813373266396
 20
51.92842187921169
 30
0.0
 11
169.3813373266397
 21
51.92842188151181
 31
0.0
  0
LINE
  5
1242
330
1F
100
AcDbEntity
  8
RUNDUNGEN
  6
Continuous
 62
     9
100
AcDbLine
 10
185.8813373266397
 20
61.92842187921169
 30
0.0
 11
185.3813373266397
 21
61.92842188151181
 31
0.0
  0
LINE
  5
1243
330
1F
100
AcDbEntity
  8
RUNDUNGEN
  6
Continuous
 62
     7
100
AcDbLine
 10
81.38133732663975
 20
67.92842187921175
 30
0.0
 11
81.38133732663986
 21
164.0284218792119
 31
0.0
  0
LINE
  5
1244
330
1F
100
AcDbEntity
  8
RUNDUNGEN
  6
Continuous
 62
     9
100
AcDbLine
 10
80.88133732663974
 20
67.92842187921175
 30
0.0
 11
81.38133732663975
 21
67.92842187921175
 31
0.0
  0
LINE
  5
1245
330
1F
100
AcDbEntity
  8
RUNDUNGEN
  6
Continuous
 62
     7
100
AcDbLine
 10
89.38133732663986
 20
164.0284218792119
 30
0.0
 11
89.38133732663976
 21
67.92842187921175
 31
0.0
  0
LINE
  5
1246
330
1F
100
AcDbEntity
  8
RUNDUNGEN
  6
Continuous
 62
     9
100
AcDbLine
 10
64.88133732663975
 20
71.92842187921177
 30
0.0
 11
65.38133732663975
 21
71.92842187921177
 31
0.0
  0
LINE
  5
1247
330
1F
100
AcDbEntity
  8
RUNDUNGEN
  6
Continuous
 62
     7
100
AcDbLine
 10
97.38133732663976
 20
51.92842187921169
 30
0.0
 11
97.38133732663989
 21
164.0284218792119
 31
0.0
  0
LINE
  5
1248
330
1F
100
AcDbEntity
  8
RUNDUNGEN
  6
Continuous
 62
     7
100
AcDbLine
 10
105.3813373266398
 20
164.0284218792119
 30
0.0
 11
105.3813373266397
 21
51.92842187921169
 31
0.0
  0
LINE
  5
1249
330
1F
100
AcDbEntity
  8
RUNDUNGEN
  6
Continuous
 62
     7
100
AcDbLine
 10
113.3813373266397
 20
51.92842187921169
 30
0.0
 11
113.3813373266398
 21
164.0284218792119
 31
0.0
  0
LINE
  5
124A
330
1F
100
AcDbEntity
  8
RUNDUNGEN
  6
Continuous
 62
     7
100
AcDbLine
 10
121.3813373266398
 20
164.0284218792118
 30
0.0
 11
121.3813373266397
 21
51.92842187921169
 31
0.0
  0
LINE
  5
124B
330
1F
100
AcDbEntity
  8
RUNDUNGEN
  6
Continuous
 62
     7
100
AcDbLine
 10
129.3813373266397
 20
51.92842187921169
 30
0.0
 11
129.3813373266399
 21
164.0284218792118
 31
0.0
  0
LINE
  5
124C
330
1F
100
AcDbEntity
  8
RUNDUNGEN
  6
Continuous
 62
     7
100
AcDbLine
 10
137.3813373266399
 20
164.0284218792118
 30
0.0
 11
137.3813373266397
 21
51.92842187921169
 31
0.0
  0
LINE
  5
124D
330
1F
100
AcDbEntity
  8
RUNDUNGEN
  6
Continuous
 62
     7
100
AcDbLine
 10
145.3813373266397
 20
51.92842187921169
 30
0.0
 11
145.3813373266399
 21
164.0284218792118
 31
0.0
  0
LINE
  5
124E
330
1F
100
AcDbEntity
  8
RUNDUNGEN
  6
Continuous
 62
     7
100
AcDbLine
 10
153.3813373266398
 20
164.0284218792118
 30
0.0
 11
153.3813373266396
 21
51.92842187921169
 31
0.0
  0
LINE
  5
124F
330
1F
100
AcDbEntity
  8
RUNDUNGEN
  6
Continuous
 62
     7
100
AcDbLine
 10
161.3813373266397
 20
51.92842187921169
 30
0.0
 11
161.3813373266399
 21
164.0284218792118
 31
0.0
  0
LINE
  5
1250
330
1F
100
AcDbEntity
  8
RUNDUNGEN
  6
Continuous
 62
     7
100
AcDbLine
 10
169.3813373266399
 20
164.0284218792118
 30
0.0
 11
169.3813373266397
 21
51.92842187921169
 31
0.0
  0
LINE
  5
1251
330
1F
100
AcDbEntity
  8
RUNDUNGEN
  6
Continuous
 62
     9
100
AcDbLine
 10
64.88133732663986
 20
154.0284218792119
 30
0.0
 11
65.38133732663986
 21
154.0284218770119
 31
0.0
  0
LINE
  5
1252
330
1F
100
AcDbEntity
  8
RUNDUNGEN
  6
Continuous
 62
     9
100
AcDbLine
 10
185.8813373266398
 20
154.0284218792118
 30
0.0
 11
185.3813373266399
 21
154.0284218792118
 31
0.0
  0
LINE
  5
1253
330
1F
100
AcDbEntity
  8
RUNDUNGEN
  6
Continuous
 62
     7
100
AcDbLine
 10
177.3813373266396
 20
61.92842187921169
 30
0.0
 11
177.3813373266398
 21
154.0284218792118
 31
0.0
  0
LINE
  5
1254
330
1F
100
AcDbEntity
  8
RUNDUNGEN
  6
Continuous
 62
     7
100
AcDbLine
 10
185.3813373266399
 20
154.0284218792118
 30
0.0
 11
185.3813373266397
 21
61.92842187921169
 31
0.0
  0
LINE
  5
1255
330
1F
100
AcDbEntity
  8
RUNDUNGEN
  6
Continuous
 62
     7
100
AcDbLine
 10
195.4313373266398
 20
39.47842187921189
 30
0.0
 11
195.4313373266399
 21
176.4784218792116
 31
0.0
  0
LINE
  5
1256
330
1F
100
AcDbEntity
  8
RUNDUNGEN
  6
Continuous
 62
     7
100
AcDbLine
 10
193.8813373266398
 20
178.0284218792118
 30
0.0
 11
56.88133732663986
 21
178.0284218792119
 31
0.0
  0
ARC
  5
1257
330
1F
100
AcDbEntity
  8
RUNDUNGEN
  6
Continuous
 62
     7
100
AcDbCircle
 10
69.38133732663975
 20
71.92842187921177
 30
0.0
 40
4.0
100
AcDbArc
 50
180.0
 51
0.0
  0
ARC
  5
1258
330
1F
100
AcDbEntity
  8
RUNDUNGEN
  6
Continuous
 62
     7
100
AcDbCircle
 10
101.3813373266397
 20
51.92842187921169
 30
0.0
 40
4.0
100
AcDbArc
 50
180.0
 51
0.0
  0
ARC
  5
1259
330
1F
100
AcDbEntity
  8
RUNDUNGEN
  6
Continuous
 62
     7
100
AcDbCircle
 10
85.38133732663975
 20
67.92842187921175
 30
0.0
 40
4.0
100
AcDbArc
 50
180.0
 51
0.0
  0
ARC
  5
125A
330
1F
100
AcDbEntity
  8
RUNDUNGEN
  6
Continuous
 62
     7
100
AcDbCircle
 10
117.3813373266397
 20
51.92842187921169
 30
0.0
 40
4.0
100
AcDbArc
 50
180.0
 51
0.0
  0
ARC
  5
125B
330
1F
100
AcDbEntity
  8
RUNDUNGEN
  6
Continuous
 62
     7
100
AcDbCircle
 10
56.88133732663974
 20
39.47842187921189
 30
0.0
 40
1.55
100
AcDbArc
 50
180.0
 51
270.0
  0
ARC
  5
125C
330
1F
100
AcDbEntity
  8
RUNDUNGEN
  6
Continuous
 62
     7
100
AcDbCircle
 10
101.3813373266398
 20
164.0284218792119
 30
0.0
 40
4.0
100
AcDbArc
 50
0.0
 51
180.0
  0
ARC
  5
125D
330
1F
100
AcDbEntity
  8
RUNDUNGEN
  6
Continuous
 62
     7
100
AcDbCircle
 10
69.38133732663986
 20
154.0284218792119
 30
0.0
 40
4.0
100
AcDbArc
 50
0.0
 51
180.0
  0
ARC
  5
125E
330
1F
100
AcDbEntity
  8
RUNDUNGEN
  6
Continuous
 62
     7
100
AcDbCircle
 10
117.3813373266398
 20
164.0284218792118
 30
0.0
 40
4.0
100
AcDbArc
 50
0.0
 51
180.0
  0
ARC
  5
125F
330
1F
100
AcDbEntity
  8
RUNDUNGEN
  6
Continuous
 62
     7
100
AcDbCircle
 10
85.38133732663986
 20
164.0284218792119
 30
0.0
 40
4.0
100
AcDbArc
 50
0.0
 51
180.0
  0
ARC
  5
1260
330
1F
100
AcDbEntity
  8
RUNDUNGEN
  6
Continuous
 62
     7
100
AcDbCircle
 10
56.88133732663986
 20
176.4784218792116
 30
0.0
 40
1.55
100
AcDbArc
 50
90.0
 51
180.0
  0
ARC
  5
1261
330
1F
100
AcDbEntity
  8
RUNDUNGEN
  6
Continuous
 62
     7
100
AcDbCircle
 10
149.3813373266396
 20
51.92842187921169
 30
0.0
 40
4.0
100
AcDbArc
 50
180.0
 51
0.0
  0
ARC
  5
1262
330
1F
100
AcDbEntity
  8
RUNDUNGEN
  6
Continuous
 62
     7
100
AcDbCircle
 10
165.3813373266397
 20
51.92842187921169
 30
0.0
 40
4.0
100
AcDbArc
 50
180.0
 51
0.0
  0
ARC
  5
1263
330
1F
100
AcDbEntity
  8
RUNDUNGEN
  6
Continuous
 62
     7
100
AcDbCircle
 10
181.3813373266397
 20
61.92842187921169
 30
0.0
 40
4.0
100
AcDbArc
 50
180.0
 51
0.0
  0
ARC
  5
1264
330
1F
100
AcDbEntity
  8
RUNDUNGEN
  6
Continuous
 62
     7
100
AcDbCircle
 10
133.3813373266397
 20
51.92842187921169
 30
0.0
 40
4.0
100
AcDbArc
 50
180.0
 51
0.0
  0
ARC
  5
1265
330
1F
100
AcDbEntity
  8
RUNDUNGEN
  6
Continuous
 62
     7
100
AcDbCircle
 10
193.8813373266397
 20
39.47842187921189
 30
0.0
 40
1.55
100
AcDbArc
 50
270.0
 51
0.0
  0
ARC
  5
1266
330
1F
100
AcDbEntity
  8
RUNDUNGEN
  6
Continuous
 62
     7
100
AcDbCircle
 10
149.3813373266398
 20
164.0284218792118
 30
0.0
 40
4.0
100
AcDbArc
 50
0.0
 51
180.0
  0
ARC
  5
1267
330
1F
100
AcDbEntity
  8
RUNDUNGEN
  6
Continuous
 62
     7
100
AcDbCircle
 10
181.3813373266398
 20
154.0284218792118
 30
0.0
 40
4.0
100
AcDbArc
 50
0.0
 51
180.0
  0
ARC
  5
1268
330
1F
100
AcDbEntity
  8
RUNDUNGEN
  6
Continuous
 62
     7
100
AcDbCircle
 10
133.3813373266399
 20
164.0284218792118
 30
0.0
 40
4.0
100
AcDbArc
 50
0.0
 51
180.0
  0
ARC
  5
1269
330
1F
100
AcDbEntity
  8
RUNDUNGEN
  6
Continuous
 62
     7
100
AcDbCircle
 10
165.3813373266399
 20
164.0284218792118
 30
0.0
 40
4.0
100
AcDbArc
 50
0.0
 51
180.0
  0
ARC
  5
126A
330
1F
100
AcDbEntity
  8
RUNDUNGEN
  6
Continuous
 62
     7
100
AcDbCircle
 10
193.8813373266398
 20
176.4784218792116
 30
0.0
 40
1.55
100
AcDbArc
 50
0.0
 51
90.0
  0
LINE
  5
126B
330
1F
100
AcDbEntity
  8
AM_7
370
     0
100
AcDbLine
 10
85.38133732663975
 20
63.42842420351181
 30
0.0
 11
85.38133732663986
 21
169.2351861576397
 31
0.0
  0
LINE
  5
126C
330
1F
100
AcDbEntity
  8
AM_7
370
     0
100
AcDbLine
 10
101.3813373266397
 20
47.4284242035118
 30
0.0
 11
101.3813373266398
 21
169.2351861576397
 31
0.0
  0
LINE
  5
126D
330
1F
100
AcDbEntity
  8
AM_7
370
     0
100
AcDbLine
 10
117.3813373266397
 20
47.4284242035118
 30
0.0
 11
117.3813373266398
 21
169.2351861576395
 31
0.0
  0
LINE
  5
126E
330
1F
100
AcDbEntity
  8
AM_7
370
     0
100
AcDbLine
 10
133.3813373266397
 20
47.4284242035118
 30
0.0
 11
133.3813373266399
 21
169.2351861576395
 31
0.0
  0
LINE
  5
126F
330
1F
100
AcDbEntity
  8
AM_7
370
     0
100
AcDbLine
 10
149.3813373266396
 20
47.4284242035118
 30
0.0
 11
149.3813373266398
 21
169.2351861576395
 31
0.0
  0
LINE
  5
1270
330
1F
100
AcDbEntity
  8
AM_7
370
     0
100
AcDbLine
 10
125.3813373266398
 20
178.0284218792118
 30
0.0
 11
125.3813373266397
 21
35.89702400988463
 31
0.0
  0
LINE
  5
1271
330
1F
100
AcDbEntity
  8
AM_7
370
     0
100
AcDbLine
 10
55.3313373266398
 20
107.9784218792118
 30
0.0
 11
198.366216481771
 21
107.9784218792117
 31
0.0
  0
LINE
  5
1272
330
1F
100
AcDbEntity
  8
AM_7
370
     0
100
AcDbLine
 10
69.38133732663986
 20
158.0284218792119
 30
0.0
 11
69.38133732663975
 21
67.92842187921175
 31
0.0
  0
LINE
  5
1273
330
1F
100
AcDbEntity
  8
AM_7
370
     0
100
AcDbLine
 10
165.3813373266399
 20
168.0284218792118
 30
0.0
 11
165.3813373266397
 21
47.92842187921168
 31
0.0
  0
LINE
  5
1274
330
1F
100
AcDbEntity
  8
AM_7
370
     0
100
AcDbLine
 10
181.3813373266397
 20
57.9284218792117
 30
0.0
 11
181.3813373266398
 21
158.0284218792118
 31
0.0
  0
LINE
  5
1275
330
1F
100
AcDbEntity
  8
AM_7
370
     0
100
AcDbLine
 10
69.38133732663986
 20
154.0284218792119
 30
0.0
 11
73.38133732663987
 21
154.0284218792119
 31
0.0
  0
LINE
  5
1276
330
1F
100
AcDbEntity
  8
AM_7
370
     0
100
AcDbLine
 10
85.38133732663986
 20
164.0284218792119
 30
0.0
 11
81.38133732663986
 21
164.0284218792119
 31
0.0
  0
LINE
  5
1277
330
1F
100
AcDbEntity
  8
AM_7
370
     0
100
AcDbLine
 10
85.38133732663986
 20
164.0284218792119
 30
0.0
 11
89.38133732663986
 21
164.0284218792119
 31
0.0
  0
LINE
  5
1278
330
1F
100
AcDbEntity
  8
AM_7
370
     0
100
AcDbLine
 10
101.3813373266398
 20
164.0284218792119
 30
0.0
 11
97.6475149586918
 21
164.0284218792119
 31
0.0
  0
LINE
  5
1279
330
1F
100
AcDbEntity
  8
AM_7
370
     0
100
AcDbLine
 10
101.3813373266398
 20
164.0284218792119
 30
0.0
 11
104.9845436911057
 21
164.0284218792119
 31
0.0
  0
LINE
  5
127A
330
1F
100
AcDbEntity
  8
AM_7
370
     0
100
AcDbLine
 10
117.3813373266398
 20
164.0284218792118
 30
0.0
 11
113.6757167829292
 21
164.0284218792119
 31
0.0
  0
LINE
  5
127B
330
1F
100
AcDbEntity
  8
AM_7
370
     0
100
AcDbLine
 10
117.3813373266398
 20
164.0284218792118
 30
0.0
 11
121.1056782632968
 21
164.0284218792118
 31
0.0
  0
LINE
  5
127C
330
1F
100
AcDbEntity
  8
AM_7
370
     0
100
AcDbLine
 10
133.3813373266399
 20
164.0284218792118
 30
0.0
 11
129.6757167829291
 21
164.0284218792118
 31
0.0
  0
LINE
  5
127D
330
1F
100
AcDbEntity
  8
AM_7
370
     0
100
AcDbLine
 10
133.3813373266399
 20
164.0284218792118
 30
0.0
 11
137.1056782632967
 21
164.0284218792118
 31
0.0
  0
LINE
  5
127E
330
1F
100
AcDbEntity
  8
AM_7
370
     0
100
AcDbLine
 10
149.3813373266398
 20
164.0284218792118
 30
0.0
 11
145.6757167829291
 21
164.0284218792118
 31
0.0
  0
LINE
  5
127F
330
1F
100
AcDbEntity
  8
AM_7
370
     0
100
AcDbLine
 10
149.3813373266398
 20
164.0284218792118
 30
0.0
 11
153.1056782632967
 21
164.0284218792118
 31
0.0
  0
LINE
  5
1280
330
1F
100
AcDbEntity
  8
AM_7
370
     0
100
AcDbLine
 10
165.3813373266399
 20
164.0284218792118
 30
0.0
 11
161.6757167829291
 21
164.0284218792118
 31
0.0
  0
LINE
  5
1281
330
1F
100
AcDbEntity
  8
AM_7
370
     0
100
AcDbLine
 10
165.3813373266399
 20
164.0284218792118
 30
0.0
 11
169.1056782632968
 21
164.0284218792118
 31
0.0
  0
LINE
  5
1282
330
1F
100
AcDbEntity
  8
AM_7
370
     0
100
AcDbLine
 10
181.3813373266398
 20
154.0284218792118
 30
0.0
 11
177.3813373266399
 21
154.0284218792118
 31
0.0
  0
LINE
  5
1283
330
1F
100
AcDbEntity
  8
AM_7
370
     0
100
AcDbLine
 10
69.38133732663975
 20
71.92842187921177
 30
0.0
 11
72.90277766738954
 21
71.92842187921177
 31
0.0
  0
LINE
  5
1284
330
1F
100
AcDbEntity
  8
AM_7
370
     0
100
AcDbLine
 10
85.38133732663975
 20
67.92842187921175
 30
0.0
 11
89.22883535042574
 21
67.92842187921175
 31
0.0
  0
LINE
  5
1285
330
1F
100
AcDbEntity
  8
AM_7
370
     0
100
AcDbLine
 10
101.3813373266397
 20
51.92842187921169
 30
0.0
 11
97.63660220307002
 21
51.92842187921169
 31
0.0
  0
LINE
  5
1286
330
1F
100
AcDbEntity
  8
AM_7
370
     0
100
AcDbLine
 10
101.3813373266397
 20
51.92842187921169
 30
0.0
 11
105.1983806289602
 21
51.92842187921169
 31
0.0
  0
LINE
  5
1287
330
1F
100
AcDbEntity
  8
AM_7
370
     0
100
AcDbLine
 10
117.3813373266397
 20
51.92842187921169
 30
0.0
 11
113.6541004618891
 21
51.92842187921169
 31
0.0
  0
LINE
  5
1288
330
1F
100
AcDbEntity
  8
AM_7
370
     0
100
AcDbLine
 10
117.3813373266397
 20
51.92842187921169
 30
0.0
 11
121.3813373266397
 21
51.92842187921169
 31
0.0
  0
LINE
  5
1289
330
1F
100
AcDbEntity
  8
AM_7
370
     0
100
AcDbLine
 10
133.3813373266397
 20
51.92842187921169
 30
0.0
 11
129.6382057659842
 21
51.92842187921169
 31
0.0
  0
LINE
  5
128A
330
1F
100
AcDbEntity
  8
AM_7
370
     0
100
AcDbLine
 10
133.3813373266397
 20
51.92842187921169
 30
0.0
 11
137.1724737431535
 21
51.92842187921169
 31
0.0
  0
LINE
  5
128B
330
1F
100
AcDbEntity
  8
AM_7
370
     0
100
AcDbLine
 10
149.3813373266396
 20
51.92842187921169
 30
0.0
 11
145.6617472973524
 21
51.92842187921169
 31
0.0
  0
LINE
  5
128C
330
1F
100
AcDbEntity
  8
AM_7
370
     0
100
AcDbLine
 10
149.3813373266396
 20
51.92842187921169
 30
0.0
 11
153.0607699339951
 21
51.92842187921169
 31
0.0
  0
LINE
  5
128D
330
1F
100
AcDbEntity
  8
AM_7
370
     0
100
AcDbLine
 10
165.3813373266397
 20
51.92842187921169
 30
0.0
 11
161.7771891842802
 21
51.92842187921169
 31
0.0
  0
LINE
  5
128E
330
1F
100
AcDbEntity
  8
AM_7
370
     0
100
AcDbLine
 10
181.3813373266397
 20
61.92842187921169
 30
0.0
 11
177.6548883417521
 21
61.92842187921169
 31
0.0
  0
LINE
  5
128F
330
1F
100
AcDbEntity
  8
AM_7
370
     0
100
AcDbLine
 10
168.9854854689993
 20
51.92842187921169
 30
0.0
 11
165.3813373266397
 21
51.92842187921169
 31
0.0
  0
LINE
  5
1290
330
1F
100
AcDbEntity
  8
AM_7
370
     0
100
AcDbLine
 10
65.85989698588996
 20
71.92842187921177
 30
0.0
 11
69.38133732663975
 21
71.92842187921177
 31
0.0
  0
LINE
  5
1291
330
1F
100
AcDbEntity
  8
AM_7
370
     0
100
AcDbLine
 10
81.53383930285377
 20
67.92842187921175
 30
0.0
 11
85.38133732663975
 21
67.92842187921175
 31
0.0
  0
LINE
  5
1292
330
1F
100
AcDbEntity
  8
AM_7
370
     0
100
AcDbLine
 10
185.1077863115273
 20
61.92842187921169
 30
0.0
 11
181.3813373266397
 21
61.92842187921169
 31
0.0
  0
LINE
  5
1293
330
1F
100
AcDbEntity
  8
AM_7
370
     0
100
AcDbLine
 10
185.3813373266399
 20
154.0284218792118
 30
0.0
 11
181.3813373266399
 21
154.0284218792118
 31
0.0
  0
LINE
  5
1294
330
1F
100
AcDbEntity
  8
AM_7
370
     0
100
AcDbLine
 10
65.38133732663986
 20
154.0284218792119
 30
0.0
 11
69.38133732663986
 21
154.0284218792119
 31
0.0
  0
ARC
  5
12B2
330
1F
100
AcDbEntity
  8
RUNDUNGEN
  6
Continuous
 62
     9
100
AcDbCircle
 10
125.3813373266398
 20
107.9784220782117
 30
0.0
 40
60.2870415338
100
AcDbArc
 50
126.665570915792
 51
136.873129185157
  0
ARC
  5
12B4
330
1F
100
AcDbEntity
  8
RUNDUNGEN
  6
Continuous
 62
     7
100
AcDbCircle
 10
125.3813373266398
 20
107.9784220782117
 30
0.0
 40
58.2870415338
100
AcDbArc
 50
153.1429645735466
 51
206.8570354264533
  0
ARC
  5
12B5
330
1F
100
AcDbEntity
  8
RUNDUNGEN
  6
Continuous
 62
     9
100
AcDbCircle
 10
125.3813373266398
 20
107.9784220782117
 30
0.0
 40
60.2870415338
100
AcDbArc
 50
149.6030099828934
 51
174.4066695096477
  0
ARC
  5
12B6
330
1F
100
AcDbEntity
  8
RUNDUNGEN
  6
Continuous
 62
     9
100
AcDbCircle
 10
125.3813373266398
 20
107.9784220782117
 30
0.0
 40
60.2870415338
100
AcDbArc
 50
185.5933304903521
 51
210.3969900171064
  0
ARC
  5
12B7
330
1F
100
AcDbEntity
  8
RUNDUNGEN
  6
Continuous
 62
     9
100
AcDbCircle
 10
125.3813373266398
 20
107.9784220782117
 30
0.0
 40
60.2870415338
100
AcDbArc
 50
109.4551705770105
 51
117.6742932133802
  0
ARC
  5
12B8
330
1F
100
AcDbEntity
  8
RUNDUNGEN
  6
Continuous
 62
     7
100
AcDbCircle
 10
125.3813373266398
 20
107.9784220782117
 30
0.0
 40
58.2870415338
100
AcDbArc
 50
110.067651665131
 51
118.7103029141433
  0
ARC
  5
12B9
330
1F
100
AcDbEntity
  8
RUNDUNGEN
  6
Continuous
 62
     7
100
AcDbCircle
 10
125.3813373266398
 20
107.9784220782117
 30
0.0
 40
58.2870415338
100
AcDbArc
 50
94.4967113086459
 51
101.7491820342662
  0
ARC
  5
12BA
330
1F
100
AcDbEntity
  8
RUNDUNGEN
  6
Continuous
 62
     9
100
AcDbCircle
 10
125.3813373266398
 20
107.9784220782117
 30
0.0
 40
60.2870415338
100
AcDbArc
 50
96.5604135726722
 51
99.68547977023995
  0
ARC
  5
12BB
330
1F
100
AcDbEntity
  8
RUNDUNGEN
  6
Continuous
 62
     7
100
AcDbCircle
 10
125.3813373266398
 20
107.9784220782117
 30
0.0
 40
58.2870415338
100
AcDbArc
 50
78.25081796573359
 51
85.50328869135395
  0
ARC
  5
12BC
330
1F
100
AcDbEntity
  8
RUNDUNGEN
  6
Continuous
 62
     9
100
AcDbCircle
 10
125.3813373266398
 20
107.9784220782117
 30
0.0
 40
60.2870415338
100
AcDbArc
 50
80.31452022975981
 51
83.4395864273277
  0
ARC
  5
12BD
330
1F
100
AcDbEntity
  8
RUNDUNGEN
  6
Continuous
 62
     7
100
AcDbCircle
 10
125.3813373266398
 20
107.9784220782117
 30
0.0
 40
58.2870415338
100
AcDbArc
 50
61.28969708585645
 51
69.93234833486879
  0
ARC
  5
12BE
330
1F
100
AcDbEntity
  8
RUNDUNGEN
  6
Continuous
 62
     9
100
AcDbCircle
 10
125.3813373266398
 20
107.9784220782117
 30
0.0
 40
60.2870415338
100
AcDbArc
 50
62.32570678661954
 51
70.54482942298924
  0
ARC
  5
12BF
330
1F
100
AcDbEntity
  8
RUNDUNGEN
  6
Continuous
 62
     7
100
AcDbCircle
 10
125.3813373266398
 20
107.9784220782117
 30
0.0
 40
58.2870415338
100
AcDbArc
 50
40.98469766663405
 51
51.85651152613767
  0
ARC
  5
12C0
330
1F
100
AcDbEntity
  8
RUNDUNGEN
  6
Continuous
 62
     9
100
AcDbCircle
 10
125.3813373266398
 20
107.9784220782117
 30
0.0
 40
60.2870415338
100
AcDbArc
 50
43.12687081484273
 51
53.33442908420778
  0
ARC
  5
12C1
330
1F
100
AcDbEntity
  8
RUNDUNGEN
  6
Continuous
 62
     9
100
AcDbCircle
 10
125.3813373266398
 20
107.9784220782117
 30
0.0
 40
60.2870415338
100
AcDbArc
 50
5.59333049035157
 51
30.39699001710639
  0
ARC
  5
12C2
330
1F
100
AcDbEntity
  8
RUNDUNGEN
  6
Continuous
 62
     9
100
AcDbCircle
 10
125.3813373266398
 20
107.9784220782117
 30
0.0
 40
60.2870415338
100
AcDbArc
 50
329.6030099828935
 51
354.4066695096483
  0
ARC
  5
12C3
330
1F
100
AcDbEntity
  8
RUNDUNGEN
  6
Continuous
 62
     7
100
AcDbCircle
 10
125.3813373266398
 20
107.9784220782117
 30
0.0
 40
58.2870415338
100
AcDbArc
 50
333.1429645735467
 51
26.85703542645318
  0
ARC
  5
12C4
330
1F
100
AcDbEntity
  8
RUNDUNGEN
  6
Continuous
 62
     9
100
AcDbCircle
 10
125.3813373266398
 20
107.9784220782117
 30
0.0
 40
60.2870415338
100
AcDbArc
 50
306.6655709157921
 51
316.8731291851571
  0
ARC
  5
12C5
330
1F
100
AcDbEntity
  8
RUNDUNGEN
  6
Continuous
 62
     7
100
AcDbCircle
 10
125.3813373266398
 20
107.9784220782117
 30
0.0
 40
58.2870415338
100
AcDbArc
 50
308.1434884738622
 51
319.0153023333659
  0
ARC
  5
12C6
330
1F
100
AcDbEntity
  8
RUNDUNGEN
  6
Continuous
 62
     9
100
AcDbCircle
 10
125.3813373266398
 20
107.9784220782117
 30
0.0
 40
60.2870415338
100
AcDbArc
 50
289.4551705011149
 51
297.6742932133803
  0
ARC
  5
12C7
330
1F
100
AcDbEntity
  8
RUNDUNGEN
  6
Continuous
 62
     7
100
AcDbCircle
 10
125.3813373266398
 20
107.9784220782117
 30
0.0
 40
58.2870415338
100
AcDbArc
 50
290.067651665131
 51
298.7103029141433
  0
ARC
  5
12C8
330
1F
100
AcDbEntity
  8
RUNDUNGEN
  6
Continuous
 62
     7
100
AcDbCircle
 10
125.3813373266398
 20
107.9784220782117
 30
0.0
 40
58.2870415338
100
AcDbArc
 50
274.4967110838433
 51
281.7491821452497
  0
ARC
  5
12C9
330
1F
100
AcDbEntity
  8
RUNDUNGEN
  6
Continuous
 62
     9
100
AcDbCircle
 10
125.3813373266398
 20
107.9784220782117
 30
0.0
 40
60.2870415338
100
AcDbArc
 50
276.5604126312969
 51
279.685480597796
  0
ARC
  5
12CA
330
1F
100
AcDbEntity
  8
RUNDUNGEN
  6
Continuous
 62
     9
100
AcDbCircle
 10
125.3813373266398
 20
107.9784220782117
 30
0.0
 40
60.2870415338
100
AcDbArc
 50
260.3145194022039
 51
263.439587368703
  0
ARC
  5
12CB
330
1F
100
AcDbEntity
  8
RUNDUNGEN
  6
Continuous
 62
     7
100
AcDbCircle
 10
125.3813373266398
 20
107.9784220782117
 30
0.0
 40
58.2870415338
100
AcDbArc
 50
258.2508178547503
 51
265.5032889161567
  0
ARC
  5
12CC
330
1F
100
AcDbEntity
  8
RUNDUNGEN
  6
Continuous
 62
     7
100
AcDbCircle
 10
125.3813373266398
 20
107.9784220782117
 30
0.0
 40
58.2870415338
100
AcDbArc
 50
241.2896970858565
 51
249.9323483348689
  0
ARC
  5
12CD
330
1F
100
AcDbEntity
  8
RUNDUNGEN
  6
Continuous
 62
     7
100
AcDbCircle
 10
125.3813373266398
 20
107.9784220782117
 30
0.0
 40
58.2870415338
100
AcDbArc
 50
220.9846976666341
 51
228.6559674828153
  0
LINE
  5
132C
330
1F
100
AcDbEntity
  8
RUNDUNGEN
  6
Continuous
 62
     7
100
AcDbLine
 10
194.8813373266396
 20
33.47842207821182
 30
0.0
 11
55.88133732663997
 21
33.47842207821186
 31
0.0
  0
LINE
  5
132D
330
1F
100
AcDbEntity
  8
RUNDUNGEN
  6
Continuous
 62
     7
100
AcDbLine
 10
193.8813373266396
 20
36.47842207821182
 30
0.0
 11
56.88133732663995
 21
36.47842207821187
 31
0.0
  0
LINE
  5
132E
330
1F
100
AcDbEntity
  8
RUNDUNGEN
  6
Continuous
 62
     7
100
AcDbLine
 10
199.8813373266396
 20
38.47842207821182
 30
0.0
 11
199.8813373266397
 21
177.4784220782116
 31
0.0
  0
LINE
  5
132F
330
1F
100
AcDbEntity
  8
RUNDUNGEN
  6
Continuous
 62
     7
100
AcDbLine
 10
196.8813373266396
 20
39.47842207821182
 30
0.0
 11
196.8813373266397
 21
176.4784220782116
 31
0.0
  0
ARC
  5
1332
330
1F
100
AcDbEntity
  8
RUNDUNGEN
  6
Continuous
 62
     7
100
AcDbCircle
 10
194.8813373266396
 20
38.47842207821182
 30
0.0
 40
5.0
100
AcDbArc
 50
270.0
 51
0.0000000000001628
1001
GENIUS_GENODEF_13
1002
{
1000
HIER
1070
     0
1002
}
1002
{
1000
MANEDIT
1070
     0
1002
}
1002
{
1000
NOSEL
1070
     0
1002
}
1002
{
1000
BEHIND
1070
     0
1002
}
1002
{
1000
OTHER
1070
     0
1002
}
1002
{
1000
REACTOR
1002
}
1001
GENIUS_GENOBJ-N-FIL_13
1002
{
1000
OWNER
1000
GEN
1002
}
  0
ARC
  5
1336
330
1F
100
AcDbEntity
  8
RUNDUNGEN
  6
Continuous
 62
     7
100
AcDbCircle
 10
193.8813373266396
 20
39.47842207821183
 30
0.0
 40
3.0
100
AcDbArc
 50
270.0
 51
359.9999999999998
1001
GENIUS_GENODEF_13
1002
{
1000
HIER
1070
     0
1002
}
1002
{
1000
MANEDIT
1070
     0
1002
}
1002
{
1000
NOSEL
1070
     0
1002
}
1002
{
1000
BEHIND
1070
     0
1002
}
1002
{
1000
OTHER
1070
     0
1002
}
1002
{
1000
REACTOR
1002
}
1001
GENIUS_GENOBJ-N-FIL_13
1002
{
1000
OWNER
1000
GEN
1002
}
  0
ARC
  5
1337
330
1F
100
AcDbEntity
  8
RUNDUNGEN
  6
Continuous
 62
     7
100
AcDbCircle
 10
55.88133732663997
 20
38.47842207821177
 30
0.0
 40
5.0
100
AcDbArc
 50
179.9999999999998
 51
270.0
1001
GENIUS_GENODEF_13
1002
{
1000
HIER
1070
     0
1002
}
1002
{
1000
MANEDIT
1070
     0
1002
}
1002
{
1000
NOSEL
1070
     0
1002
}
1002
{
1000
BEHIND
1070
     0
1002
}
1002
{
1000
OTHER
1070
     0
1002
}
1002
{
1000
REACTOR
1002
}
1001
GENIUS_GENOBJ-N-FIL_13
1002
{
1000
OWNER
1000
GEN
1002
}
  0
ARC
  5
1338
330
1F
100
AcDbEntity
  8
RUNDUNGEN
  6
Continuous
 62
     7
100
AcDbCircle
 10
56.88133732663995
 20
39.47842207821178
 30
0.0
 40
3.0
100
AcDbArc
 50
180.0000000000002
 51
270.0
1001
GENIUS_GENODEF_13
1002
{
1000
HIER
1070
     0
1002
}
1002
{
1000
MANEDIT
1070
     0
1002
}
1002
{
1000
NOSEL
1070
     0
1002
}
1002
{
1000
BEHIND
1070
     0
1002
}
1002
{
1000
OTHER
1070
     0
1002
}
1002
{
1000
REACTOR
1002
}
1001
GENIUS_GENOBJ-N-FIL_13
1002
{
1000
OWNER
1000
GEN
1002
}
  0
ARC
  5
1339
330
1F
100
AcDbEntity
  8
RUNDUNGEN
  6
Continuous
 62
     7
100
AcDbCircle
 10
194.8813373266396
 20
177.4784220782116
 30
0.0
 40
5.0
100
AcDbArc
 50
0.0
 51
89.99999999999998
1001
GENIUS_GENODEF_13
1002
{
1000
HIER
1070
     0
1002
}
1002
{
1000
MANEDIT
1070
     0
1002
}
1002
{
1000
NOSEL
1070
     0
1002
}
1002
{
1000
BEHIND
1070
     0
1002
}
1002
{
1000
OTHER
1070
     0
1002
}
1002
{
1000
REACTOR
1002
}
1001
GENIUS_GENOBJ-N-FIL_13
1002
{
1000
OWNER
1000
GEN
1002
}
  0
ARC
  5
133A
330
1F
100
AcDbEntity
  8
RUNDUNGEN
  6
Continuous
 62
     7
100
AcDbCircle
 10
193.8813373266397
 20
176.4784220782116
 30
0.0
 40
3.0
100
AcDbArc
 50
0.0
 51
89.99999999999998
1001
GENIUS_GENODEF_13
1002
{
1000
HIER
1070
     0
1002
}
1002
{
1000
MANEDIT
1070
     0
1002
}
1002
{
1000
NOSEL
1070
     0
1002
}
1002
{
1000
BEHIND
1070
     0
1002
}
1002
{
1000
OTHER
1070
     0
1002
}
1002
{
1000
REACTOR
1002
}
1001
GENIUS_GENOBJ-N-FIL_13
1002
{
1000
OWNER
1000
GEN
1002
}
  0
ARC
  5
133B
330
1F
100
AcDbEntity
  8
RUNDUNGEN
  6
Continuous
 62
     7
100
AcDbCircle
 10
55.88133732664002
 20
177.4784220782118
 30
0.0
 40
5.0
100
AcDbArc
 50
89.99999999999998
 51
180.0
1001
GENIUS_GENODEF_13
1002
{
1000
HIER
1070
     0
1002
}
1002
{
1000
MANEDIT
1070
     0
1002
}
1002
{
1000
NOSEL
1070
     0
1002
}
1002
{
1000
BEHIND
1070
     0
1002
}
1002
{
1000
OTHER
1070
     0
1002
}
1002
{
1000
REACTOR
1002
}
1001
GENIUS_GENOBJ-N-FIL_13
1002
{
1000
OWNER
1000
GEN
1002
}
  0
ARC
  5
133C
330
1F
100
AcDbEntity
  8
RUNDUNGEN
  6
Continuous
 62
     7
100
AcDbCircle
 10
56.88133732664002
 20
176.4784220782118
 30
0.0
 40
3.0
100
AcDbArc
 50
89.99999999999998
 51
180.0
1001
GENIUS_GENODEF_13
1002
{
1000
HIER
1070
     0
1002
}
1002
{
1000
MANEDIT
1070
     0
1002
}
1002
{
1000
NOSEL
1070
     0
1002
}
1002
{
1000
BEHIND
1070
     0
1002
}
1002
{
1000
OTHER
1070
     0
1002
}
1002
{
1000
REACTOR
1002
}
1001
GENIUS_GENOBJ-N-FIL_13
1002
{
1000
OWNER
1000
GEN
1002
}
  0
LINE
  5
133D
330
1F
100
AcDbEntity
  8
0
100
AcDbLine
 10
55.88133732664002
 20
182.4784220782118
 30
0.0
 11
194.8813373266396
 21
182.4784220782116
 31
0.0
  0
LINE
  5
133E
330
1F
100
AcDbEntity
  8
0
100
AcDbLine
 10
56.88133732664002
 20
179.4784220782118
 30
0.0
 11
193.8813373266397
 21
179.4784220782116
 31
0.0
  0
LINE
  5
133F
330
1F
100
AcDbEntity
  8
0
100
AcDbLine
 10
50.88133732663982
 20
177.4784220782118
 30
0.0
 11
50.88133732663982
 21
38.47842207821177
 31
0.0
  0
LINE
  5
1340
330
1F
100
AcDbEntity
  8
0
100
AcDbLine
 10
53.88133732664002
 20
176.4784220782118
 30
0.0
 11
53.88133732663982
 21
39.47842207821178
 31
0.0
  0
LINE
  5
14CD
330
1F
100
AcDbEntity
  8
0
  6
Continuous
 62
     7
100
AcDbLine
 10
69.93133732663982
 20
60.64342187921186
 30
0.0
 11
69.93133732663982
 21
46.41342187921182
 31
0.0
  0
LINE
  5
14CE
330
1F
100
AcDbEntity
  8
0
  6
Continuous
 62
     7
100
AcDbLine
 10
71.93133732663985
 20
46.41342187921182
 30
0.0
 11
71.93133732663985
 21
60.64342187921186
 31
0.0
  0
LINE
  5
14CF
330
1F
100
AcDbEntity
  8
0
  6
Continuous
 62
     7
100
AcDbLine
 10
71.93133732663985
 20
60.64342187921186
 30
0.0
 11
69.93133732663982
 21
60.64342187921186
 31
0.0
  0
LINE
  5
14D0
330
1F
100
AcDbEntity
  8
0
  6
Continuous
 62
     7
100
AcDbLine
 10
71.93133732663985
 20
60.02842187921185
 30
0.0
 11
69.93133732663982
 21
60.02842187921185
 31
0.0
  0
LINE
  5
14D1
330
1F
100
AcDbEntity
  8
0
  6
Continuous
 62
     7
100
AcDbLine
 10
71.93133732663985
 20
47.02842187921183
 30
0.0
 11
69.93133732663982
 21
47.02842187921183
 31
0.0
  0
LINE
  5
14D2
330
1F
100
AcDbEntity
  8
0
  6
Continuous
 62
     7
100
AcDbLine
 10
69.93133732663982
 20
46.41342187921182
 30
0.0
 11
71.93133732663985
 21
46.41342187921182
 31
0.0
  0
CIRCLE
  5
14D3
330
1F
100
AcDbEntity
  8
RUNDUNGEN
  6
Continuous
 62
     9
100
AcDbCircle
 10
70.93133732663982
 20
53.52842187921185
 30
0.0
 40
11.4999997232
  0
CIRCLE
  5
14D4
330
1F
100
AcDbEntity
  8
RUNDUNGEN
  6
Continuous
 62
     7
100
AcDbCircle
 10
70.93133732663982
 20
53.52842187921185
 30
0.0
 40
10.5
  0
CIRCLE
  5
14D5
330
1F
100
AcDbEntity
  8
RUNDUNGEN
  6
Continuous
 62
     7
100
AcDbCircle
 10
70.93133732663982
 20
53.52842187921185
 30
0.0
 40
10.4
  0
ARC
  5
14D6
330
1F
100
AcDbEntity
  8
0
  6
Continuous
 62
     7
100
AcDbCircle
 10
70.93133732663982
 20
53.52842187921185
 30
0.0
 40
10.4
100
AcDbArc
 50
83.92851296529533
 51
96.07148703470464
  0
CIRCLE
  5
14D7
330
1F
100
AcDbEntity
  8
RUNDUNGEN
  6
Continuous
 62
     9
100
AcDbCircle
 10
70.93133732663982
 20
53.52842187921185
 30
0.0
 40
9.400000531399999
  0
CIRCLE
  5
14D8
330
1F
100
AcDbEntity
  8
RUNDUNGEN
  6
Continuous
 62
     9
100
AcDbCircle
 10
70.93133732663982
 20
53.52842187921185
 30
0.0
 40
11.4999997232
  0
DIMENSION
  5
14DB
102
{ACAD_XDICTIONARY
360
14E8
102
}
102
{ACAD_REACTORS
330
14E9
102
}
330
1F
100
AcDbEntity
  8
AM_5
100
AcDbDimension
  2
*D5
 10
50.88133732663982
 20
408.5465518684298
 30
0.0
 11
126.1048244083104
 21
408.5465518684298
 31
0.0
 70
   160
  1
{\Famgdt;o}<>
 71
     5
 42
149.0
  3
AM_DIN$0
100
AcDbAlignedDimension
 13
199.8813373266398
 23
371.5576163505335
 33
0.0
 14
50.88133732663982
 24
371.557616350532
 34
0.0
 50
0.0000000000000114
100
AcDbRotatedDimension
1001
ACAD_DSTYLE_DIMINSPECT
1070
   396
1000
100%
1070
   395
1000

1070
   394
1070
    33
1070
   393
1070
     0
1001
ACAD
1000
DSTYLE
1002
{
1070
    40
1040
2.0
1070
    47
1040
0.05
1070
    48
1040
0.05
1002
}
  0
HATCH
  5
16F5
330
1F
100
AcDbEntity
  8
AM_8
100
AcDbHatch
 10
0.0
 20
0.0
 30
0.0
210
0.0
220
0.0
230
1.0
  2
_U
 70
     0
 71
     0
 91
        2
 92
        1
 93
       16
 72
     1
 10
194.3813004935396
 20
283.9071928201614
 11
193.3813373266394
 21
283.9071928201614
 72
     1
 10
194.3813004935396
 20
283.9071928201614
 11
195.8813373266393
 21
282.4071551862614
 72
     1
 10
195.8813373266393
 20
282.0071928201614
 11
195.8813373266393
 21
282.4071551862614
 72
     4
 94
        3
 73
     1
 74
     0
 95
        8
 96
        4
 40
0.0
 40
0.0
 40
0.0
 40
0.0
 40
1.0
 40
1.0
 40
1.0
 40
1.0
 10
195.8813373266393
 20
282.0071928201614
 42
1.0
 10
196.8813373266394
 20
282.0071928201614
 42
0.3333333333
 10
196.8813373266394
 20
281.0071928201614
 42
0.3333333333
 10
195.8813373266393
 20
281.0071928201614
 42
1.0
 72
     1
 10
195.8813373266393
 20
281.0071928201614
 11
195.8813373266393
 21
280.2071928201615
 72
     4
 94
        3
 73
     1
 74
     0
 95
        8
 96
        4
 40
0.0
 40
0.0
 40
0.0
 40
0.0
 40
1.0
 40
1.0
 40
1.0
 40
1.0
 10
195.8813373266393
 20
280.2071928201613
 42
1.0
 10
196.8813373266394
 20
280.2071928201613
 42
0.3333333333
 10
196.8813373266394
 20
279.2071928201614
 42
0.3333333333
 10
195.8813373266393
 20
279.2071928201614
 42
1.0
 72
     1
 10
195.8813373266393
 20
279.2071928201614
 11
195.8813373266393
 21
278.4071928201613
 72
     4
 94
        3
 73
     1
 74
     0
 95
        8
 96
        4
 40
0.0
 40
0.0
 40
0.0
 40
0.0
 40
1.0
 40
1.0
 40
1.0
 40
1.0
 10
195.8813373266393
 20
278.4071928201613
 42
1.0
 10
196.8813373266394
 20
278.4071928201613
 42
0.3333333333
 10
196.8813373266394
 20
277.4071928201613
 42
0.3333333333
 10
195.8813373266393
 20
277.4071928201613
 42
1.0
 72
     1
 10
195.8813373266393
 20
277.4071928201613
 11
195.8813373266393
 21
276.6071928201613
 72
     4
 94
        3
 73
     1
 74
     0
 95
        8
 96
        4
 40
0.0
 40
0.0
 40
0.0
 40
0.0
 40
1.0
 40
1.0
 40
1.0
 40
1.0
 10
195.8813373266393
 20
276.6071928201613
 42
1.0
 10
196.8813373266394
 20
276.6071928201613
 42
0.3333333333
 10
196.8813373266394
 20
275.6071928201613
 42
0.3333333333
 10
195.8813373266393
 20
275.6071928201613
 42
1.0
 72
     1
 10
195.8813373266393
 20
275.6071928201613
 11
195.8813373266393
 21
275.2072309009613
 72
     1
 10
194.3813000561395
 20
273.7071928201614
 11
195.8813373266393
 21
275.2072309009613
 72
     1
 10
194.3813000561395
 20
273.7071928201614
 11
193.3813373266394
 21
273.7071928201614
 72
     4
 94
        3
 73
     1
 74
     0
 95
        8
 96
        4
 40
0.0
 40
0.0
 40
0.0
 40
0.0
 40
1.0
 40
1.0
 40
1.0
 40
1.0
 10
192.3813373266393
 20
274.7071928201614
 42
1.0
 10
192.3813373266393
 20
274.1214063824614
 42
0.8047378541
 10
192.7955508890395
 20
273.7071928201614
 42
0.8047378541
 10
193.3813373266394
 20
273.7071928201614
 42
1.0
 72
     1
 10
192.3813373266393
 20
274.7071928201614
 11
192.3813373266393
 21
282.9071928201613
 72
     4
 94
        3
 73
     1
 74
     0
 95
        8
 96
        4
 40
0.0
 40
0.0
 40
0.0
 40
0.0
 40
1.0
 40
1.0
 40
1.0
 40
1.0
 10
193.3813373266394
 20
283.9071928201614
 42
1.0
 10
192.7955508890395
 20
283.9071928201615
 42
0.8047378541
 10
192.3813373266393
 20
283.4929792577614
 42
0.8047378541
 10
192.3813373266393
 20
282.9071928201614
 42
1.0
 97
        0
 92
        1
 93
       16
 72
     1
 10
57.38133732663982
 20
283.9071928201614
 11
56.38137415983965
 21
283.9071928201614
 72
     4
 94
        3
 73
     1
 74
     0
 95
        8
 96
        4
 40
0.0
 40
0.0
 40
0.0
 40
0.0
 40
1.0
 40
1.0
 40
1.0
 40
1.0
 10
57.38133732663982
 20
283.9071928201614
 42
1.0
 10
57.9671237643397
 20
283.9071928201615
 42
0.8047378541
 10
58.38133732663982
 20
283.4929792577614
 42
0.8047378541
 10
58.38133732663982
 20
282.9071928201614
 42
1.0
 72
     1
 10
58.38133732663982
 20
274.7071928201614
 11
58.38133732663982
 21
282.9071928201613
 72
     4
 94
        3
 73
     1
 74
     0
 95
        8
 96
        4
 40
0.0
 40
0.0
 40
0.0
 40
0.0
 40
1.0
 40
1.0
 40
1.0
 40
1.0
 10
58.38133732663982
 20
274.7071928201614
 42
1.0
 10
58.38133732663982
 20
274.1214063824614
 42
0.8047378541
 10
57.9671237643397
 20
273.7071928201614
 42
0.8047378541
 10
57.38133732663982
 20
273.7071928201614
 42
1.0
 72
     1
 10
57.38133732663982
 20
273.7071928201614
 11
56.38137459723975
 21
273.7071928201614
 72
     1
 10
56.38137459723975
 20
273.7071928201614
 11
54.88133732663982
 21
275.2072309009613
 72
     1
 10
54.88133732663982
 20
275.6071928201613
 11
54.88133732663982
 21
275.2072309009613
 72
     4
 94
        3
 73
     1
 74
     0
 95
       11
 96
        7
 40
0.0
 40
0.0
 40
0.0
 40
0.0
 40
1.0
 40
1.0
 40
1.0
 40
2.0
 40
2.0
 40
2.0
 40
2.0
 10
54.88133732663982
 20
276.6071928201613
 42
1.0
 10
54.58844410783923
 20
276.6071928201613
 42
0.8047378541
 10
54.38133732663982
 20
276.4000860389615
 42
0.8047378541
 10
54.38133732663982
 20
276.1071928201614
 42
1.0
 10
54.38133732663982
 20
275.8142996012614
 42
0.8047378541
 10
54.58844410783923
 20
275.6071928201613
 42
0.8047378541
 10
54.88133732663982
 20
275.6071928201613
 42
1.0
 72
     1
 10
54.88133732663982
 20
277.4071928201613
 11
54.88133732663982
 21
276.6071928201613
 72
     4
 94
        3
 73
     1
 74
     0
 95
       11
 96
        7
 40
0.0
 40
0.0
 40
0.0
 40
0.0
 40
1.0
 40
1.0
 40
1.0
 40
2.0
 40
2.0
 40
2.0
 40
2.0
 10
54.88133732663982
 20
278.4071928201613
 42
1.0
 10
54.58844410783923
 20
278.4071928201613
 42
0.8047378541
 10
54.38133732663982
 20
278.2000860389615
 42
0.8047378541
 10
54.38133732663982
 20
277.9071928201613
 42
1.0
 10
54.38133732663982
 20
277.6142996012613
 42
0.8047378541
 10
54.58844410783923
 20
277.4071928201613
 42
0.8047378541
 10
54.88133732663982
 20
277.4071928201613
 42
1.0
 72
     1
 10
54.88133732663982
 20
279.2071928201614
 11
54.88133732663982
 21
278.4071928201613
 72
     4
 94
        3
 73
     1
 74
     0
 95
       11
 96
        7
 40
0.0
 40
0.0
 40
0.0
 40
0.0
 40
1.0
 40
1.0
 40
1.0
 40
2.0
 40
2.0
 40
2.0
 40
2.0
 10
54.88133732663982
 20
280.2071928201613
 42
1.0
 10
54.58844410783923
 20
280.2071928201613
 42
0.8047378541
 10
54.38133732663982
 20
280.0000860389614
 42
0.8047378541
 10
54.38133732663982
 20
279.7071928201614
 42
1.0
 10
54.38133732663982
 20
279.4142996012614
 42
0.8047378541
 10
54.58844410783923
 20
279.2071928201614
 42
0.8047378541
 10
54.88133732663982
 20
279.2071928201614
 42
1.0
 72
     1
 10
54.88133732663982
 20
280.2071928201613
 11
54.88133732663982
 21
281.0071928201614
 72
     4
 94
        3
 73
     1
 74
     0
 95
       11
 96
        7
 40
0.0
 40
0.0
 40
0.0
 40
0.0
 40
1.0
 40
1.0
 40
1.0
 40
2.0
 40
2.0
 40
2.0
 40
2.0
 10
54.88133732663982
 20
282.0071928201614
 42
1.0
 10
54.58844410783923
 20
282.0071928201614
 42
0.8047378541
 10
54.38133732663982
 20
281.8000860389613
 42
0.8047378541
 10
54.38133732663982
 20
281.5071928201614
 42
1.0
 10
54.38133732663982
 20
281.2142996012614
 42
0.8047378541
 10
54.58844410783923
 20
281.0071928201614
 42
0.8047378541
 10
54.88133732663982
 20
281.0071928201614
 42
1.0
 72
     1
 10
54.88133732663982
 20
282.4071551862614
 11
54.88133732663982
 21
282.0071928201614
 72
     1
 10
56.38137415983965
 20
283.9071928201614
 11
54.88133732663982
 21
282.4071551862614
 97
        0
 75
     0
 76
     0
 52
315.0
 41
1.5
 77
     0
 78
     1
 53
315.0
 43
-24.67602496146037
 44
153.5614830743613
 45
1.06066017177982
 46
1.060660171779819
 79
     0
 98
        1
 10
-24.67602496146037
 20
153.5614830743613
1001
ACAD
1010
0.0
1020
0.0
1030
0.0
  0
LINE
  5
16F6
330
1F
100
AcDbEntity
  8
0
  6
Continuous
 62
     7
100
AcDbLine
 10
54.88133732663982
 20
282.4071551862614
 30
0.0
 11
54.88133732663982
 21
282.0071928201614
 31
0.0
  0
LINE
  5
16F7
330
1F
100
AcDbEntity
  8
0
  6
Continuous
 62
     7
100
AcDbLine
 10
54.88133732663982
 20
279.2071928201614
 30
0.0
 11
54.88133732663982
 21
278.4071928201613
 31
0.0
  0
LINE
  5
16F8
330
1F
100
AcDbEntity
  8
0
  6
Continuous
 62
     7
100
AcDbLine
 10
54.88133732663982
 20
277.4071928201613
 30
0.0
 11
54.88133732663982
 21
276.6071928201613
 31
0.0
  0
LINE
  5
16F9
330
1F
100
AcDbEntity
  8
0
  6
Continuous
 62
     7
100
AcDbLine
 10
54.88133732663982
 20
275.6071928201613
 30
0.0
 11
54.88133732663982
 21
275.2072309009613
 31
0.0
  0
LINE
  5
16FA
330
1F
100
AcDbEntity
  8
0
  6
Continuous
 62
     7
100
AcDbLine
 10
54.88133732663982
 20
280.2071928201613
 30
0.0
 11
54.88133732663982
 21
281.0071928201614
 31
0.0
  0
LINE
  5
16FB
330
1F
100
AcDbEntity
  8
0
  6
Continuous
 62
     7
100
AcDbLine
 10
58.38133732663982
 20
274.7071928201614
 30
0.0
 11
58.38133732663982
 21
282.9071928201614
 31
0.0
  0
LINE
  5
16FC
330
1F
100
AcDbEntity
  8
RUNDUNGEN
  6
Continuous
 62
     9
100
AcDbLine
 10
59.0316124992396
 20
282.9071928201614
 30
0.0
 11
59.0316124992396
 21
274.7071928201614
 31
0.0
  0
LINE
  5
16FD
330
1F
100
AcDbEntity
  8
RUNDUNGEN
  6
Continuous
 62
     9
100
AcDbLine
 10
59.80546728573973
 20
282.9071928201614
 30
0.0
 11
59.80546728573973
 21
274.7071928201614
 31
0.0
  0
LINE
  5
16FE
330
1F
100
AcDbEntity
  8
0
  6
Continuous
 62
     7
100
AcDbLine
 10
56.38137415983965
 20
283.9071928201614
 30
0.0
 11
54.88133732663982
 21
282.4071551862614
 31
0.0
  0
LINE
  5
16FF
330
1F
100
AcDbEntity
  8
0
  6
Continuous
 62
     7
100
AcDbLine
 10
56.38137459723975
 20
273.7071928201614
 30
0.0
 11
54.88133732663982
 21
275.2072309009613
 31
0.0
  0
LINE
  5
1700
330
1F
100
AcDbEntity
  8
0
  6
Continuous
 62
     7
100
AcDbLine
 10
194.3813000561395
 20
273.7071928201614
 30
0.0
 11
192.7213565545398
 21
273.7071928201614
 31
0.0
  0
LINE
  5
1701
330
1F
100
AcDbEntity
  8
0
  6
Continuous
 62
     7
100
AcDbLine
 10
58.04131809883938
 20
273.7071928201614
 30
0.0
 11
56.38137459723975
 21
273.7071928201614
 31
0.0
  0
LINE
  5
1702
330
1F
100
AcDbEntity
  8
0
  6
Continuous
 62
     7
100
AcDbLine
 10
59.58902767173959
 20
273.7071928201614
 30
0.0
 11
62.83113356401009
 21
273.7071928201615
 31
0.0
  0
LINE
  5
1703
330
1F
100
AcDbEntity
  8
RUNDUNGEN
  6
Continuous
 62
     7
100
AcDbLine
 10
58.04131809883938
 20
273.7071928201614
 30
0.0
 11
62.83113356401009
 21
273.7071928201613
 31
0.0
  0
LINE
  5
1704
330
1F
100
AcDbEntity
  8
RUNDUNGEN
  6
Continuous
 62
     7
100
AcDbLine
 10
187.9314402785012
 20
273.7071928201614
 30
0.0
 11
192.7213565545398
 21
273.7071928201614
 31
0.0
  0
LINE
  5
1705
330
1F
100
AcDbEntity
  8
RUNDUNGEN
  6
Continuous
 62
     9
100
AcDbLine
 10
61.58319301853953
 20
274.5037587617614
 30
0.0
 11
62.82417152831204
 21
274.5037587479625
 31
0.0
  0
LINE
  5
1706
330
1F
100
AcDbEntity
  8
RUNDUNGEN
  6
Continuous
 62
     9
100
AcDbLine
 10
187.9383883293767
 20
274.5037581940614
 30
0.0
 11
189.1794811283398
 21
274.5037581802614
 31
0.0
  0
LINE
  5
1707
330
1F
100
AcDbEntity
  8
0
  6
Continuous
 62
     9
100
AcDbLine
 10
192.3813373266393
 20
274.7071928201614
 30
0.0
 11
191.7310621541396
 21
274.7071928201614
 31
0.0
  0
LINE
  5
1708
330
1F
100
AcDbEntity
  8
RUNDUNGEN
  6
Continuous
 62
     9
100
AcDbLine
 10
191.7310621541396
 20
274.7071928201614
 30
0.0
 11
189.9859782679395
 21
274.7071928201614
 31
0.0
  0
LINE
  5
1709
330
1F
100
AcDbEntity
  8
RUNDUNGEN
  6
Continuous
 62
     9
100
AcDbLine
 10
60.77669638543966
 20
274.7071928201614
 30
0.0
 11
59.0316124992396
 21
274.7071928201614
 31
0.0
  0
LINE
  5
170A
330
1F
100
AcDbEntity
  8
0
  6
Continuous
 62
     9
100
AcDbLine
 10
59.0316124992396
 20
274.7071928201614
 30
0.0
 11
58.38133732663982
 21
274.7071928201614
 31
0.0
  0
LINE
  5
170B
330
1F
100
AcDbEntity
  8
RUNDUNGEN
  6
Continuous
 62
     9
100
AcDbLine
 10
187.9437613784012
 20
275.119756102242
 30
0.0
 11
188.7800077115398
 21
275.1197561722614
 31
0.0
  0
LINE
  5
170C
330
1F
100
AcDbEntity
  8
RUNDUNGEN
  6
Continuous
 62
     9
100
AcDbLine
 10
61.98265719583969
 20
275.1197518208615
 30
0.0
 11
62.81878770997218
 21
275.1197518908711
 31
0.0
  0
LINE
  5
170D
330
1F
100
AcDbEntity
  8
RUNDUNGEN
  6
Continuous
 62
     9
100
AcDbLine
 10
62.75433078429023
 20
282.4946337551969
 30
0.0
 11
61.98265807133975
 21
282.4946338198614
 31
0.0
  0
LINE
  5
170E
330
1F
100
AcDbEntity
  8
RUNDUNGEN
  6
Continuous
 62
     9
100
AcDbLine
 10
188.7800077681395
 20
282.4946294649613
 30
0.0
 11
188.0080887989143
 21
282.4946295296464
 31
0.0
  0
LINE
  5
170F
330
1F
100
AcDbEntity
  8
0
  6
Continuous
 62
     9
100
AcDbLine
 10
58.38133732663982
 20
282.9071928201614
 30
0.0
 11
59.0316124992396
 21
282.9071928201614
 31
0.0
  0
LINE
  5
1710
330
1F
100
AcDbEntity
  8
RUNDUNGEN
  6
Continuous
 62
     9
100
AcDbLine
 10
59.0316124992396
 20
282.9071928201614
 30
0.0
 11
60.77669638653969
 21
282.9071928201614
 31
0.0
  0
LINE
  5
1711
330
1F
100
AcDbEntity
  8
RUNDUNGEN
  6
Continuous
 62
     9
100
AcDbLine
 10
189.9859782668395
 20
282.9071928201614
 30
0.0
 11
191.7310621541396
 21
282.9071928201614
 31
0.0
  0
LINE
  5
1712
330
1F
100
AcDbEntity
  8
0
  6
Continuous
 62
     9
100
AcDbLine
 10
191.7310621541396
 20
282.9071928201614
 30
0.0
 11
192.3813373266393
 21
282.9071928201614
 31
0.0
  0
LINE
  5
1713
330
1F
100
AcDbEntity
  8
RUNDUNGEN
  6
Continuous
 62
     9
100
AcDbLine
 10
189.1794811279396
 20
283.1106274594614
 30
0.0
 11
188.0134618480147
 21
283.1106274464982
 31
0.0
  0
LINE
  5
1714
330
1F
100
AcDbEntity
  8
RUNDUNGEN
  6
Continuous
 62
     9
100
AcDbLine
 10
62.74894696601268
 20
283.1106268910215
 30
0.0
 11
61.58319301853953
 21
283.1106268780613
 31
0.0
  0
LINE
  5
1715
330
1F
100
AcDbEntity
  8
0
  6
Continuous
 62
     7
100
AcDbLine
 10
194.3813004935396
 20
283.9071928201614
 30
0.0
 11
192.7213565545398
 21
283.9071928201614
 31
0.0
  0
LINE
  5
1716
330
1F
100
AcDbEntity
  8
0
  6
Continuous
 62
     7
100
AcDbLine
 10
56.38137415983965
 20
283.9071928201614
 30
0.0
 11
58.04131809883938
 21
283.9071928201614
 31
0.0
  0
LINE
  5
1717
330
1F
100
AcDbEntity
  8
0
  6
Continuous
 62
     7
100
AcDbLine
 10
59.58902767173959
 20
283.9071928201614
 30
0.0
 11
62.7419849303028
 21
283.9071928201614
 31
0.0
  0
LINE
  5
1718
330
1F
100
AcDbEntity
  8
RUNDUNGEN
  6
Continuous
 62
     7
100
AcDbLine
 10
58.04131809883938
 20
283.9071928201614
 30
0.0
 11
62.7419849303028
 21
283.9071928201614
 31
0.0
  0
LINE
  5
1719
330
1F
100
AcDbEntity
  8
RUNDUNGEN
  6
Continuous
 62
     7
100
AcDbLine
 10
188.0204098988879
 20
283.9071928201614
 30
0.0
 11
192.7213565545398
 21
283.9071928201614
 31
0.0
  0
LINE
  5
171A
330
1F
100
AcDbEntity
  8
0
  6
Continuous
 62
     7
100
AcDbLine
 10
194.3813000561395
 20
273.7071928201614
 30
0.0
 11
195.8813373266393
 21
275.2072309009613
 31
0.0
  0
LINE
  5
171B
330
1F
100
AcDbEntity
  8
0
  6
Continuous
 62
     7
100
AcDbLine
 10
194.3813004935396
 20
283.9071928201614
 30
0.0
 11
195.8813373266393
 21
282.4071551862614
 31
0.0
  0
LINE
  5
171C
330
1F
100
AcDbEntity
  8
RUNDUNGEN
  6
Continuous
 62
     9
100
AcDbLine
 10
190.9572073676395
 20
282.9071928201614
 30
0.0
 11
190.9572073676395
 21
274.7071928201614
 31
0.0
  0
LINE
  5
171D
330
1F
100
AcDbEntity
  8
RUNDUNGEN
  6
Continuous
 62
     9
100
AcDbLine
 10
191.7310621541396
 20
282.9071928201614
 30
0.0
 11
191.7310621541396
 21
274.7071928201614
 31
0.0
  0
LINE
  5
171E
330
1F
100
AcDbEntity
  8
0
  6
Continuous
 62
     7
100
AcDbLine
 10
192.3813373266393
 20
274.7071928201614
 30
0.0
 11
192.3813373266393
 21
282.9071928201614
 31
0.0
  0
LINE
  5
171F
330
1F
100
AcDbEntity
  8
0
  6
Continuous
 62
     7
100
AcDbLine
 10
195.8813373266393
 20
281.0071928201614
 30
0.0
 11
195.8813373266393
 21
280.2071928201613
 31
0.0
  0
LINE
  5
1720
330
1F
100
AcDbEntity
  8
0
  6
Continuous
 62
     7
100
AcDbLine
 10
195.8813373266393
 20
279.2071928201614
 30
0.0
 11
195.8813373266393
 21
278.4071928201613
 31
0.0
  0
LINE
  5
1721
330
1F
100
AcDbEntity
  8
0
  6
Continuous
 62
     7
100
AcDbLine
 10
195.8813373266393
 20
277.4071928201613
 30
0.0
 11
195.8813373266393
 21
276.6071928201613
 31
0.0
  0
LINE
  5
1722
330
1F
100
AcDbEntity
  8
0
  6
Continuous
 62
     7
100
AcDbLine
 10
195.8813373266393
 20
275.6071928201613
 30
0.0
 11
195.8813373266393
 21
275.2072309009613
 31
0.0
  0
LINE
  5
1723
330
1F
100
AcDbEntity
  8
0
  6
Continuous
 62
     7
100
AcDbLine
 10
195.8813373266393
 20
282.0071928201614
 30
0.0
 11
195.8813373266393
 21
282.4071551862614
 31
0.0
  0
ARC
  5
1724
330
1F
100
AcDbEntity
  8
0
  6
Continuous
 62
     7
100
AcDbCircle
 10
193.3813373266394
 20
282.9071928201614
 30
0.0
 40
1.0
100
AcDbArc
 50
90.0
 51
180.0
  0
ARC
  5
1725
330
1F
100
AcDbEntity
  8
0
  6
Continuous
 62
     7
100
AcDbCircle
 10
57.38133732663982
 20
274.7071928201614
 30
0.0
 40
1.0
100
AcDbArc
 50
270.0
 51
0.0
  0
ARC
  5
1726
330
1F
100
AcDbEntity
  8
0
  6
Continuous
 62
     7
100
AcDbCircle
 10
193.3813373266394
 20
274.7071928201614
 30
0.0
 40
1.0
100
AcDbArc
 50
180.0
 51
270.0
  0
ARC
  5
1727
330
1F
100
AcDbEntity
  8
0
  6
Continuous
 62
     7
100
AcDbCircle
 10
57.38133732663982
 20
282.9071928201614
 30
0.0
 40
1.0
100
AcDbArc
 50
0.0
 51
90.0
  0
ARC
  5
1728
330
1F
100
AcDbEntity
  8
0
  6
Continuous
 62
     7
100
AcDbCircle
 10
195.8813373266393
 20
281.5071928201614
 30
0.0
 40
0.5
100
AcDbArc
 50
270.0
 51
90.0
  0
ARC
  5
1729
330
1F
100
AcDbEntity
  8
0
  6
Continuous
 62
     7
100
AcDbCircle
 10
195.8813373266393
 20
279.7071928201614
 30
0.0
 40
0.5
100
AcDbArc
 50
270.0
 51
90.0
  0
ARC
  5
172A
330
1F
100
AcDbEntity
  8
0
  6
Continuous
 62
     7
100
AcDbCircle
 10
195.8813373266393
 20
277.9071928201613
 30
0.0
 40
0.5
100
AcDbArc
 50
270.0
 51
90.0
  0
ARC
  5
172B
330
1F
100
AcDbEntity
  8
0
  6
Continuous
 62
     7
100
AcDbCircle
 10
195.8813373266393
 20
276.1071928201614
 30
0.0
 40
0.5
100
AcDbArc
 50
270.0
 51
90.0
  0
ARC
  5
172C
330
1F
100
AcDbEntity
  8
0
  6
Continuous
 62
     7
100
AcDbCircle
 10
54.88133732663982
 20
276.1071928201614
 30
0.0
 40
0.5
100
AcDbArc
 50
90.0
 51
270.0
  0
ARC
  5
172D
330
1F
100
AcDbEntity
  8
0
  6
Continuous
 62
     7
100
AcDbCircle
 10
54.88133732663982
 20
281.5071928201614
 30
0.0
 40
0.5
100
AcDbArc
 50
90.0
 51
270.0
  0
ARC
  5
172E
330
1F
100
AcDbEntity
  8
0
  6
Continuous
 62
     7
100
AcDbCircle
 10
54.88133732663982
 20
279.7071928201614
 30
0.0
 40
0.5
100
AcDbArc
 50
90.0
 51
270.0
  0
ARC
  5
172F
330
1F
100
AcDbEntity
  8
0
  6
Continuous
 62
     7
100
AcDbCircle
 10
54.88133732663982
 20
277.9071928201613
 30
0.0
 40
0.5
100
AcDbArc
 50
90.0
 51
270.0
  0
LINE
  5
1730
330
1F
100
AcDbEntity
  8
RUNDUNGEN
  6
Continuous
 62
     9
100
AcDbLine
 10
189.9859782679395
 20
274.7071928201614
 30
0.0
 11
189.8239521301393
 21
275.5770586794614
 31
0.0
  0
LINE
  5
1731
330
1F
100
AcDbEntity
  8
RUNDUNGEN
  6
Continuous
 62
     9
100
AcDbLine
 10
189.8239521594396
 20
282.0373269820613
 30
0.0
 11
189.9859782668395
 21
282.9071928201614
 31
0.0
  0
SPLINE
  5
1732
330
1F
100
AcDbEntity
  8
RUNDUNGEN
  6
Continuous
 62
     9
100
AcDbSpline
210
0.0
220
0.0
230
1.0
 70
     8
 71
     3
 72
    16
 73
    12
 74
     0
 42
0.0000000001
 43
0.0000000001
 40
0.0
 40
0.0
 40
0.0
 40
0.0
 40
0.0439252466
 40
0.0737769991
 40
0.1103781717
 40
0.2047857781
 40
0.3265852917
 40
0.4723533633
 40
0.6371372056000002
 40
0.8152609901000001
 40
1.0
 40
1.0
 40
1.0
 40
1.0
 10
59.58902767173959
 20
283.9071928201614
 30
0.0
 10
59.60448835533952
 20
283.9071928201614
 30
0.0
 10
59.62959538073983
 20
283.8926899213614
 30
0.0
 10
59.6538825868397
 20
283.8627525383614
 30
0.0
 10
59.68283927413949
 20
283.8136986764614
 30
0.0
 10
59.71420170893953
 20
283.7300222799613
 30
0.0
 10
59.74566109993975
 20
283.6064348096613
 30
0.0
 10
59.77150575883979
 20
283.4563340774614
 30
0.0
 10
59.79086614213975
 20
283.2853531485614
 30
0.0
 10
59.80278528203962
 20
283.0999526155614
 30
0.0
 10
59.80546728573973
 20
282.9722167324614
 30
0.0
 10
59.80546728573973
 20
282.9071928201614
 30
0.0
  0
LINE
  5
1733
330
1F
100
AcDbEntity
  8
RUNDUNGEN
  6
Continuous
 62
     9
100
AcDbLine
 10
60.93875492843972
 20
275.5772327720614
 30
0.0
 11
60.77669638543966
 21
274.7071928201614
 31
0.0
  0
LINE
  5
1734
330
1F
100
AcDbEntity
  8
RUNDUNGEN
  6
Continuous
 62
     9
100
AcDbLine
 10
60.77669638653969
 20
282.9071928201614
 30
0.0
 11
60.93872308963955
 21
282.0373239213613
 31
0.0
  0
SPLINE
  5
1735
330
1F
100
AcDbEntity
  8
RUNDUNGEN
  6
Continuous
 62
     9
100
AcDbSpline
210
0.0
220
0.0
230
1.0
 70
     8
 71
     3
 72
    12
 73
     8
 74
     0
 42
0.0000000001
 43
0.0000000001
 40
0.0
 40
0.0
 40
0.0
 40
0.0
 40
0.0682311683
 40
0.1609426228
 40
0.4012221082
 40
0.6884224523000002
 40
1.0
 40
1.0
 40
1.0
 40
1.0
 10
61.91989364773963
 20
282.4785313000614
 30
0.0
 10
61.89971347653955
 20
282.4646496873613
 30
0.0
 10
61.84971561573957
 20
282.4354935214614
 30
0.0
 10
61.72203615323951
 20
282.3688763919614
 30
0.0
 10
61.51976203793947
 20
282.2755371461614
 30
0.0
 10
61.2424730878397
 20
282.1579415919614
 30
0.0
 10
61.04310088583952
 20
282.0775201848613
 30
0.0
 10
60.93872308963955
 20
282.0373239213613
 30
0.0
  0
SPLINE
  5
1736
330
1F
100
AcDbEntity
  8
RUNDUNGEN
  6
Continuous
 62
     9
100
AcDbSpline
210
0.0
220
0.0
230
1.0
 70
     8
 71
     3
 72
     9
 73
     5
 74
     0
 42
0.0000000001
 43
0.0000000001
 40
0.0
 40
0.0
 40
0.0
 40
0.0
 40
0.2294570978
 40
1.0
 40
1.0
 40
1.0
 40
1.0
 10
61.93541296453941
 20
282.4899838387614
 30
0.0
 10
61.93426529223962
 20
282.4890566310614
 30
0.0
 10
61.92919865243948
 20
282.4850965899612
 30
0.0
 10
61.92397795633951
 20
282.4813360769614
 30
0.0
 10
61.91989364773963
 20
282.4785313000614
 30
0.0
  0
SPLINE
  5
1737
330
1F
100
AcDbEntity
  8
RUNDUNGEN
  6
Continuous
 62
     9
100
AcDbSpline
210
0.0
220
0.0
230
1.0
 70
     8
 71
     3
 72
     9
 73
     5
 74
     0
 42
0.0000000001
 43
0.0000000001
 40
0.0
 40
0.0
 40
0.0
 40
0.0
 40
0.5382463234000002
 40
1.0
 40
1.0
 40
1.0
 40
1.0
 10
61.98264940463968
 20
282.4946371495614
 30
0.0
 10
61.97427952663975
 20
282.4973922584613
 30
0.0
 10
61.95769548983981
 20
282.5009266447614
 30
0.0
 10
61.94129612183951
 20
282.4947307330614
 30
0.0
 10
61.93541296453941
 20
282.4899838387614
 30
0.0
  0
SPLINE
  5
1738
330
1F
100
AcDbEntity
  8
RUNDUNGEN
  6
Continuous
 62
     9
100
AcDbSpline
210
0.0
220
0.0
230
1.0
 70
     8
 71
     3
 72
     9
 73
     5
 74
     0
 42
0.0000000001
 43
0.0000000001
 40
0.0
 40
0.0
 40
0.0
 40
0.0
 40
0.4617457074000001
 40
1.0
 40
1.0
 40
1.0
 40
1.0
 10
61.93541296923967
 20
275.1244018036614
 30
0.0
 10
61.9412968862398
 20
275.1196563193614
 30
0.0
 10
61.95769366273953
 20
275.1134570641614
 30
0.0
 10
61.97427826713965
 20
275.1169926332614
 30
0.0
 10
61.98264796103967
 20
275.1197481089614
 30
0.0
  0
SPLINE
  5
1739
330
1F
100
AcDbEntity
  8
RUNDUNGEN
  6
Continuous
 62
     9
100
AcDbSpline
210
0.0
220
0.0
230
1.0
 70
     8
 71
     3
 72
     9
 73
     5
 74
     0
 42
0.0000000001
 43
0.0000000001
 40
0.0
 40
0.0
 40
0.0
 40
0.0
 40
0.2718573447
 40
1.0
 40
1.0
 40
1.0
 40
1.0
 10
61.91869627633969
 20
275.1366836616615
 30
0.0
 10
61.92025269773967
 20
275.1356290837614
 30
0.0
 10
61.92594134253977
 20
275.1316971480615
 30
0.0
 10
61.93150006753967
 20
275.1275712948614
 30
0.0
 10
61.93541296923967
 20
275.1244018036614
 30
0.0
  0
SPLINE
  5
173A
330
1F
100
AcDbEntity
  8
RUNDUNGEN
  6
Continuous
 62
     9
100
AcDbSpline
210
0.0
220
0.0
230
1.0
 70
     8
 71
     3
 72
    12
 73
     8
 74
     0
 42
0.0000000001
 43
0.0000000001
 40
0.0
 40
0.0
 40
0.0
 40
0.0
 40
0.311059584
 40
0.5979242832000002
 40
0.8382730733
 40
0.9312697471999999
 40
1.0
 40
1.0
 40
1.0
 40
1.0
 10
60.93841001543978
 20
275.5772043457614
 30
0.0
 10
61.04250809133964
 20
275.5371195393613
 30
0.0
 10
61.24138382303954
 20
275.4568791945615
 30
0.0
 10
61.51814679613972
 20
275.3395575364613
 30
0.0
 10
61.72023690163951
 20
275.2463585782614
 30
0.0
 10
61.84810912743978
 20
275.1797684242614
 30
0.0
 10
61.89834515983966
 20
275.1505877772613
 30
0.0
 10
61.91869627633969
 20
275.1366836616615
 30
0.0
  0
SPLINE
  5
173B
330
1F
100
AcDbEntity
  8
RUNDUNGEN
  6
Continuous
 62
     9
100
AcDbSpline
210
0.0
220
0.0
230
1.0
 70
     8
 71
     3
 72
    15
 73
    11
 74
     0
 42
0.0000000001
 43
0.0000000001
 40
0.0
 40
0.0
 40
0.0
 40
0.0
 40
0.1239166044
 40
0.2485765794
 40
0.3740291694
 40
0.4999988342
 40
0.6259685426
 40
0.7514211101999999
 40
0.8760801364
 40
1.0
 40
1.0
 40
1.0
 40
1.0
 10
60.93875492843972
 20
275.5772327720614
 30
0.0
 10
61.26028950993941
 20
275.7041895272614
 30
0.0
 10
61.8741906518394
 20
276.0484307137614
 30
0.0
 10
62.61521284523951
 20
276.8030992525614
 30
0.0
 10
63.10482655373971
 20
277.7500571653614
 30
0.0
 10
63.27685773783969
 20
278.8072395003614
 30
0.0
 10
63.10479494713945
 20
279.8644090709613
 30
0.0
 10
62.61517408553982
 20
280.8113757938613
 30
0.0
 10
61.87406888683972
 20
281.5659441244613
 30
0.0
 10
61.26025806953975
 20
281.9103434197614
 30
0.0
 10
60.93872308963955
 20
282.0373239213613
 30
0.0
  0
SPLINE
  5
173C
330
1F
100
AcDbEntity
  8
RUNDUNGEN
  6
Continuous
 62
     9
100
AcDbSpline
210
0.0
220
0.0
230
1.0
 70
     8
 71
     3
 72
     9
 73
     5
 74
     0
 42
0.0000000001
 43
0.0000000001
 40
0.0
 40
0.0
 40
0.0
 40
0.0
 40
0.4618221573
 40
1.0
 40
1.0
 40
1.0
 40
1.0
 10
188.8272322136394
 20
282.4899635341613
 30
0.0
 10
188.8213476082396
 20
282.4947085069614
 30
0.0
 10
188.8049554103395
 20
282.5009094302613
 30
0.0
 10
188.7883715754396
 20
282.4973800894613
 30
0.0
 10
188.7800039070398
 20
282.4946263272614
 30
0.0
  0
SPLINE
  5
173D
330
1F
100
AcDbEntity
  8
RUNDUNGEN
  6
Continuous
 62
     9
100
AcDbSpline
210
0.0
220
0.0
230
1.0
 70
     8
 71
     3
 72
     9
 73
     5
 74
     0
 42
0.0000000001
 43
0.0000000001
 40
0.0
 40
0.0
 40
0.0
 40
0.0
 40
0.2718562411
 40
1.0
 40
1.0
 40
1.0
 40
1.0
 10
188.8439472861396
 20
282.4776828694614
 30
0.0
 10
188.8423910021397
 20
282.4787373118613
 30
0.0
 10
188.8367028362395
 20
282.4826687631614
 30
0.0
 10
188.8311446880398
 20
282.4867942780613
 30
0.0
 10
188.8272322136394
 20
282.4899635341613
 30
0.0
  0
SPLINE
  5
173E
330
1F
100
AcDbEntity
  8
RUNDUNGEN
  6
Continuous
 62
     9
100
AcDbSpline
210
0.0
220
0.0
230
1.0
 70
     8
 71
     3
 72
    12
 73
     8
 74
     0
 42
0.0000000001
 43
0.0000000001
 40
0.0
 40
0.0
 40
0.0
 40
0.0
 40
0.3110652956
 40
0.5979261722000002
 40
0.8382686902999999
 40
0.9312660678
 40
1.0
 40
1.0
 40
1.0
 40
1.0
 10
189.8239521312398
 20
282.0373269675614
 30
0.0
 10
189.7198854126395
 20
282.0774049244613
 30
0.0
 10
189.5210628669397
 20
282.1576051568613
 30
0.0
 10
189.2443893487398
 20
282.2749007485613
 30
0.0
 10
189.0423575648396
 20
282.3680567098613
 30
0.0
 10
188.9145188772395
 20
282.4346149934613
 30
0.0
 10
188.8642935716397
 20
282.4637825721613
 30
0.0
 10
188.8439472861396
 20
282.4776828694614
 30
0.0
  0
SPLINE
  5
173F
330
1F
100
AcDbEntity
  8
RUNDUNGEN
  6
Continuous
 62
     9
100
AcDbSpline
210
0.0
220
0.0
230
1.0
 70
     8
 71
     3
 72
    15
 73
    11
 74
     0
 42
0.0000000001
 43
0.0000000001
 40
0.0
 40
0.0
 40
0.0
 40
0.0
 40
0.1239198717
 40
0.2485788008
 40
0.3740314055
 40
0.5000011458
 40
0.6259708331000002
 40
0.7514234437999999
 40
0.8760826169999999
 40
1.0
 40
1.0
 40
1.0
 40
1.0
 10
189.8239521594396
 20
282.0373269820613
 30
0.0
 10
189.5024087763395
 20
281.9103530588614
 30
0.0
 10
188.8885976282395
 20
281.5659296021614
 30
0.0
 10
188.1474737810395
 20
280.8113603607613
 30
0.0
 10
187.6578514889397
 20
279.8643736955614
 30
0.0
 10
187.4857970300395
 20
278.8071831595614
 30
0.0
 10
187.6578580626396
 20
277.7499940146614
 30
0.0
 10
188.1474844229396
 20
276.8030085873613
 30
0.0
 10
188.8886100813397
 20
276.0484499398614
 30
0.0
 10
189.5024151988395
 20
275.7040300381614
 30
0.0
 10
189.8239521301393
 20
275.5770586794614
 30
0.0
  0
SPLINE
  5
1740
330
1F
100
AcDbEntity
  8
RUNDUNGEN
  6
Continuous
 62
     9
100
AcDbSpline
210
0.0
220
0.0
230
1.0
 70
     8
 71
     3
 72
    12
 73
     8
 74
     0
 42
0.0000000001
 43
0.0000000001
 40
0.0
 40
0.0
 40
0.0
 40
0.0
 40
0.0682333286
 40
0.1609471665
 40
0.4012260999000001
 40
0.688423392
 40
1.0
 40
1.0
 40
1.0
 40
1.0
 10
188.8427500216394
 20
275.1358735360613
 30
0.0
 10
188.8629313732394
 20
275.1497555163614
 30
0.0
 10
188.9129350117396
 20
275.1789073533614
 30
0.0
 10
189.0406248698395
 20
275.2455124142614
 30
0.0
 10
189.2429087224395
 20
275.3388380019615
 30
0.0
 10
189.5202016511393
 20
275.4564324214614
 30
0.0
 10
189.7195743351394
 20
275.5368582022613
 30
0.0
 10
189.8239521301393
 20
275.5770586794614
 30
0.0
  0
SPLINE
  5
1741
330
1F
100
AcDbEntity
  8
RUNDUNGEN
  6
Continuous
 62
     9
100
AcDbSpline
210
0.0
220
0.0
230
1.0
 70
     8
 71
     3
 72
     9
 73
     5
 74
     0
 42
0.0000000001
 43
0.0000000001
 40
0.0
 40
0.0
 40
0.0
 40
0.0
 40
0.2294585041
 40
1.0
 40
1.0
 40
1.0
 40
1.0
 10
188.8272322277398
 20
275.1244220937614
 30
0.0
 10
188.8283797782396
 20
275.1253492385614
 30
0.0
 10
188.8334458581394
 20
275.1293089819613
 30
0.0
 10
188.8386660722394
 20
275.1330691024614
 30
0.0
 10
188.8427500216394
 20
275.1358735360613
 30
0.0
  0
SPLINE
  5
1742
330
1F
100
AcDbEntity
  8
RUNDUNGEN
  6
Continuous
 62
     9
100
AcDbSpline
210
0.0
220
0.0
230
1.0
 70
     8
 71
     3
 72
     9
 73
     5
 74
     0
 42
0.0000000001
 43
0.0000000001
 40
0.0
 40
0.0
 40
0.0
 40
0.0
 40
0.5381791809000001
 40
1.0
 40
1.0
 40
1.0
 40
1.0
 10
188.7800038165396
 20
275.1197593312613
 30
0.0
 10
188.7883715217394
 20
275.1170055292614
 30
0.0
 10
188.8049553843398
 20
275.1134761056613
 30
0.0
 10
188.8213476766395
 20
275.1196770538613
 30
0.0
 10
188.8272322277398
 20
275.1244220937614
 30
0.0
  0
SPLINE
  5
1743
330
1F
100
AcDbEntity
  8
RUNDUNGEN
  6
Continuous
 62
     9
100
AcDbSpline
210
0.0
220
0.0
230
1.0
 70
     8
 71
     3
 72
    12
 73
     8
 74
     0
 42
0.0000000001
 43
0.0000000001
 40
0.0
 40
0.0
 40
0.0
 40
0.0
 40
0.0794560118
 40
0.1796128509
 40
0.4236543514
 40
0.7031861694
 40
1.0
 40
1.0
 40
1.0
 40
1.0
 10
189.2437661946396
 20
274.5381151556614
 30
0.0
 10
189.2536508291396
 20
274.5680734724614
 30
0.0
 10
189.2815366729396
 20
274.6338971591614
 30
0.0
 10
189.3569950977398
 20
274.7842286396614
 30
0.0
 10
189.4801521463396
 20
274.9992365516614
 30
0.0
 10
189.6464916146396
 20
275.2792329559613
 30
0.0
 10
189.7645017312397
 20
275.4753076234614
 30
0.0
 10
189.8239521300397
 20
275.5770586794614
 30
0.0
  0
SPLINE
  5
1744
330
1F
100
AcDbEntity
  8
RUNDUNGEN
  6
Continuous
 62
     9
100
AcDbSpline
210
0.0
220
0.0
230
1.0
 70
     8
 71
     3
 72
     9
 73
     5
 74
     0
 42
0.0000000001
 43
0.0000000001
 40
0.0
 40
0.0
 40
0.0
 40
0.0
 40
0.2616616054
 40
1.0
 40
1.0
 40
1.0
 40
1.0
 10
61.52840773023945
 20
274.5228231681614
 30
0.0
 10
61.5324499936396
 20
274.5196907840614
 30
0.0
 10
61.54874400253948
 20
274.5088241620614
 30
0.0
 10
61.56876306233971
 20
274.5037825033614
 30
0.0
 10
61.58319301853953
 20
274.5037587617614
 30
0.0
  0
SPLINE
  5
1745
330
1F
100
AcDbEntity
  8
RUNDUNGEN
  6
Continuous
 62
     9
100
AcDbSpline
210
0.0
220
0.0
230
1.0
 70
     8
 71
     3
 72
    12
 73
     8
 74
     0
 42
0.0000000001
 43
0.0000000001
 40
0.0
 40
0.0
 40
0.0
 40
0.0
 40
0.2963882635
 40
0.5756185276
 40
0.8196404323000001
 40
0.9200411402
 40
1.0
 40
1.0
 40
1.0
 40
1.0
 10
60.93872308813979
 20
275.5770617213614
 30
0.0
 10
60.99800048513952
 20
275.4756073225613
 30
0.0
 10
61.11568692323953
 20
275.2800711915613
 30
0.0
 10
61.28161914723978
 20
275.0007350262614
 30
0.0
 10
61.40464234773935
 20
274.7861198252614
 30
0.0
 10
61.48025319533963
 20
274.6358102202614
 30
0.0
 10
61.50819046993956
 20
274.5698133956614
 30
0.0
 10
61.5182421258396
 20
274.5397497721614
 30
0.0
  0
SPLINE
  5
1746
330
1F
100
AcDbEntity
  8
RUNDUNGEN
  6
Continuous
 62
     9
100
AcDbSpline
210
0.0
220
0.0
230
1.0
 70
     8
 71
     3
 72
    11
 73
     7
 74
     0
 42
0.0000000001
 43
0.0000000001
 40
0.0
 40
0.0
 40
0.0
 40
0.0
 40
0.2488909654
 40
0.4984071591
 40
0.7488562852
 40
1.0
 40
1.0
 40
1.0
 40
1.0
 10
58.04131809883938
 20
273.7071928201614
 30
0.0
 10
58.17017369603945
 20
273.7071928201614
 30
0.0
 10
58.43106983123971
 20
273.7594161260614
 30
0.0
 10
58.76023155163967
 20
273.9823320145614
 30
0.0
 10
58.98024624823938
 20
274.3146819249614
 30
0.0
 10
59.0316124992396
 20
274.5771709315613
 30
0.0
 10
59.0316124992396
 20
274.7071928201614
 30
0.0
  0
SPLINE
  5
1747
330
1F
100
AcDbEntity
  8
RUNDUNGEN
  6
Continuous
 62
     9
100
AcDbSpline
210
0.0
220
0.0
230
1.0
 70
     8
 71
     3
 72
    16
 73
    12
 74
     0
 42
0.0000000001
 43
0.0000000001
 40
0.0
 40
0.0
 40
0.0
 40
0.0
 40
0.0439252466
 40
0.073776999
 40
0.1103781717
 40
0.204785778
 40
0.3265852918
 40
0.4723533634000001
 40
0.6371372057000002
 40
0.8152609902
 40
1.0
 40
1.0
 40
1.0
 40
1.0
 10
59.58902767173959
 20
273.7071928201614
 30
0.0
 10
59.60448835533952
 20
273.7071928201614
 30
0.0
 10
59.62959538073983
 20
273.7216957188614
 30
0.0
 10
59.6538825868397
 20
273.7516331018615
 30
0.0
 10
59.68283927413949
 20
273.8006869637613
 30
0.0
 10
59.71420170893953
 20
273.8843633602614
 30
0.0
 10
59.74566109993975
 20
274.0079508305614
 30
0.0
 10
59.77150575883979
 20
274.1580515628614
 30
0.0
 10
59.79086614223979
 20
274.3290324917614
 30
0.0
 10
59.80278528203962
 20
274.5144330247614
 30
0.0
 10
59.80546728553964
 20
274.6421689078613
 30
0.0
 10
59.80546728553964
 20
274.7071928201614
 30
0.0
  0
SPLINE
  5
1748
330
1F
100
AcDbEntity
  8
RUNDUNGEN
  6
Continuous
 62
     9
100
AcDbSpline
210
0.0
220
0.0
230
1.0
 70
     8
 71
     3
 72
    11
 73
     7
 74
     0
 42
0.0000000001
 43
0.0000000001
 40
0.0
 40
0.0
 40
0.0
 40
0.0
 40
0.2484997829
 40
0.4977734111000001
 40
0.7483075606999999
 40
1.0
 40
1.0
 40
1.0
 40
1.0
 10
60.56025674233978
 20
283.9071928201614
 30
0.0
 10
60.67347150043952
 20
283.9071928201614
 30
0.0
 10
60.90224334373942
 20
283.8666738840613
 30
0.0
 10
61.20261494723945
 20
283.6915750375614
 30
0.0
 10
61.42678295223959
 20
283.4240566108614
 30
0.0
 10
61.50757181903964
 20
283.2043225734614
 30
0.0
 10
61.52840753173951
 20
283.0915621028614
 30
0.0
  0
SPLINE
  5
1749
330
1F
100
AcDbEntity
  8
RUNDUNGEN
  6
Continuous
 62
     9
100
AcDbSpline
210
0.0
220
0.0
230
1.0
 70
     8
 71
     3
 72
    11
 73
     7
 74
     0
 42
0.0000000001
 43
0.0000000001
 40
0.0
 40
0.0
 40
0.0
 40
0.0
 40
0.2488909653
 40
0.4984071591
 40
0.7488562853000002
 40
1.0
 40
1.0
 40
1.0
 40
1.0
 10
192.7213565545398
 20
273.7071928201614
 30
0.0
 10
192.5925009573397
 20
273.7071928201614
 30
0.0
 10
192.3316048221395
 20
273.7594161260614
 30
0.0
 10
192.0024431017395
 20
273.9823320144613
 30
0.0
 10
191.7824284050393
 20
274.3146819249614
 30
0.0
 10
191.7310621541396
 20
274.5771709316614
 30
0.0
 10
191.7310621541396
 20
274.7071928201614
 30
0.0
  0
SPLINE
  5
174A
330
1F
100
AcDbEntity
  8
RUNDUNGEN
  6
Continuous
 62
     9
100
AcDbSpline
210
0.0
220
0.0
230
1.0
 70
     8
 71
     3
 72
    16
 73
    12
 74
     0
 42
0.0000000001
 43
0.0000000001
 40
0.0
 40
0.0
 40
0.0
 40
0.0
 40
0.0439252466
 40
0.0737769991
 40
0.1103781717
 40
0.2047857781
 40
0.3265852917
 40
0.4723533633
 40
0.6371372056000002
 40
0.8152609901000001
 40
1.0
 40
1.0
 40
1.0
 40
1.0
 10
191.1736469815396
 20
273.7071928201614
 30
0.0
 10
191.1581862979396
 20
273.7071928201614
 30
0.0
 10
191.1330792725394
 20
273.7216957188614
 30
0.0
 10
191.1087920664395
 20
273.7516331018615
 30
0.0
 10
191.0798353791397
 20
273.8006869637613
 30
0.0
 10
191.0484729443396
 20
273.8843633603614
 30
0.0
 10
191.0170135533399
 20
274.0079508305614
 30
0.0
 10
190.9911688945394
 20
274.1580515627613
 30
0.0
 10
190.9718085111394
 20
274.3290324916614
 30
0.0
 10
190.9598893713396
 20
274.5144330246615
 30
0.0
 10
190.9572073676395
 20
274.6421689078613
 30
0.0
 10
190.9572073676395
 20
274.7071928201614
 30
0.0
  0
SPLINE
  5
174B
330
1F
100
AcDbEntity
  8
RUNDUNGEN
  6
Continuous
 62
     9
100
AcDbSpline
210
0.0
220
0.0
230
1.0
 70
     8
 71
     3
 72
     9
 73
     5
 74
     0
 42
0.0000000001
 43
0.0000000001
 40
0.0
 40
0.0
 40
0.0
 40
0.0
 40
0.7383338924
 40
1.0
 40
1.0
 40
1.0
 40
1.0
 10
189.1794811283398
 20
274.5037581802614
 30
0.0
 10
189.1939110725397
 20
274.5037826447614
 30
0.0
 10
189.2139301214397
 20
274.5088256392614
 30
0.0
 10
189.2302233493396
 20
274.5196929294614
 30
0.0
 10
189.2342667672396
 20
274.5228240114613
 30
0.0
  0
SPLINE
  5
174C
330
1F
100
AcDbEntity
  8
RUNDUNGEN
  6
Continuous
 62
     9
100
AcDbSpline
210
0.0
220
0.0
230
1.0
 70
     8
 71
     3
 72
    16
 73
    12
 74
     0
 42
0.0000000001
 43
0.0000000001
 40
0.0
 40
0.0
 40
0.0
 40
0.0
 40
0.0439252466
 40
0.0737769991
 40
0.1103781717
 40
0.2047857781
 40
0.3265852917
 40
0.4723533633
 40
0.6371372056000002
 40
0.8152609901000001
 40
1.0
 40
1.0
 40
1.0
 40
1.0
 10
60.56025674233978
 20
273.7071928201614
 30
0.0
 10
60.57571742593973
 20
273.7071928201614
 30
0.0
 10
60.60082445133957
 20
273.7216957188614
 30
0.0
 10
60.62511165743945
 20
273.7516331018615
 30
0.0
 10
60.6540683447397
 20
273.8006869637613
 30
0.0
 10
60.68543077953973
 20
273.8843633603614
 30
0.0
 10
60.7168901705395
 20
274.0079508305614
 30
0.0
 10
60.74273482943954
 20
274.1580515627613
 30
0.0
 10
60.76209521273949
 20
274.3290324916614
 30
0.0
 10
60.77401435263936
 20
274.5144330246615
 30
0.0
 10
60.77669635633947
 20
274.6421689078613
 30
0.0
 10
60.77669635633947
 20
274.7071928201614
 30
0.0
  0
SPLINE
  5
174D
330
1F
100
AcDbEntity
  8
RUNDUNGEN
  6
Continuous
 62
     9
100
AcDbSpline
210
0.0
220
0.0
230
1.0
 70
     8
 71
     3
 72
     9
 73
     5
 74
     0
 42
0.0000000001
 43
0.0000000001
 40
0.0
 40
0.0
 40
0.0
 40
0.0
 40
0.2317417357
 40
1.0
 40
1.0
 40
1.0
 40
1.0
 10
189.2342669738395
 20
274.5228243951614
 30
0.0
 10
189.2349330967395
 20
274.5240454145614
 30
0.0
 10
189.2378903893395
 20
274.5292690957614
 30
0.0
 10
189.2411527046397
 20
274.5343162814613
 30
0.0
 10
189.2437661908397
 20
274.5381151547614
 30
0.0
  0
SPLINE
  5
174E
330
1F
100
AcDbEntity
  8
RUNDUNGEN
  6
Continuous
 62
     9
100
AcDbSpline
210
0.0
220
0.0
230
1.0
 70
     8
 71
     3
 72
    11
 73
     7
 74
     0
 42
0.0000000001
 43
0.0000000001
 40
0.0
 40
0.0
 40
0.0
 40
0.0
 40
0.1344758236
 40
0.3585139108
 40
0.6547525377000003
 40
1.0
 40
1.0
 40
1.0
 40
1.0
 10
189.2437661908397
 20
274.5381151547614
 30
0.0
 10
189.2757768911397
 20
274.5499727523613
 30
0.0
 10
189.3639586365398
 20
274.5732964429613
 30
0.0
 10
189.5254599251393
 20
274.6121084847614
 30
0.0
 10
189.7403472965397
 20
274.6582121627614
 30
0.0
 10
189.8999645677395
 20
274.6903873288613
 30
0.0
 10
189.9859782970397
 20
274.7071928201614
 30
0.0
  0
SPLINE
  5
174F
330
1F
100
AcDbEntity
  8
RUNDUNGEN
  6
Continuous
 62
     9
100
AcDbSpline
210
0.0
220
0.0
230
1.0
 70
     8
 71
     3
 72
    16
 73
    12
 74
     0
 42
0.0000000001
 43
0.0000000001
 40
0.0
 40
0.0
 40
0.0
 40
0.0
 40
0.1847370374
 40
0.3628591904
 40
0.5276442099000001
 40
0.6734128903000001
 40
0.7952131162000002
 40
0.8896212910999999
 40
0.9262227111999999
 40
0.9560746073
 40
1.0
 40
1.0
 40
1.0
 40
1.0
 10
189.9859782970397
 20
274.7071928201614
 30
0.0
 10
189.9859782970397
 20
274.6421696040613
 30
0.0
 10
189.9886600404397
 20
274.5144349858614
 30
0.0
 10
190.0005793407395
 20
274.3290353266614
 30
0.0
 10
190.0199393980397
 20
274.1580543136614
 30
0.0
 10
190.0457840918398
 20
274.0079526998613
 30
0.0
 10
190.0772434849395
 20
273.8843645405613
 30
0.0
 10
190.1086060061398
 20
273.8006876205613
 30
0.0
 10
190.1375627522398
 20
273.7516333823614
 30
0.0
 10
190.1618501267394
 20
273.7216959202614
 30
0.0
 10
190.1869571764396
 20
273.7071928201614
 30
0.0
 10
190.2024179109394
 20
273.7071928201614
 30
0.0
  0
SPLINE
  5
1750
330
1F
100
AcDbEntity
  8
RUNDUNGEN
  6
Continuous
 62
     9
100
AcDbSpline
210
0.0
220
0.0
230
1.0
 70
     8
 71
     3
 72
    11
 73
     7
 74
     0
 42
0.0000000001
 43
0.0000000001
 40
0.0
 40
0.0
 40
0.0
 40
0.0
 40
0.2484997832
 40
0.4977734122000001
 40
0.7483075649
 40
1.0
 40
1.0
 40
1.0
 40
1.0
 10
190.2024179109394
 20
273.7071928201614
 30
0.0
 10
190.0892030819395
 20
273.7071928201614
 30
0.0
 10
189.8604310917399
 20
273.7477118078614
 30
0.0
 10
189.5600593521394
 20
273.9228108710613
 30
0.0
 10
189.3358913391393
 20
274.1903295900613
 30
0.0
 10
189.2551026031396
 20
274.4100638381614
 30
0.0
 10
189.2342669738395
 20
274.5228243951614
 30
0.0
  0
SPLINE
  5
1751
330
1F
100
AcDbEntity
  8
RUNDUNGEN
  6
Continuous
 62
     9
100
AcDbSpline
210
0.0
220
0.0
230
1.0
 70
     8
 71
     3
 72
     9
 73
     5
 74
     0
 42
0.0000000001
 43
0.0000000001
 40
0.0
 40
0.0
 40
0.0
 40
0.0
 40
0.2700740056
 40
1.0
 40
1.0
 40
1.0
 40
1.0
 10
61.51787586103956
 20
274.5397219732613
 30
0.0
 10
61.51890244863944
 20
274.5382519279614
 30
0.0
 10
61.52260197133955
 20
274.5327393592613
 30
0.0
 10
61.52608753423965
 20
274.5270775494614
 30
0.0
 10
61.52840774803962
 20
274.5228231347614
 30
0.0
  0
SPLINE
  5
1752
330
1F
100
AcDbEntity
  8
RUNDUNGEN
  6
Continuous
 62
     9
100
AcDbSpline
210
0.0
220
0.0
230
1.0
 70
     8
 71
     3
 72
    11
 73
     7
 74
     0
 42
0.0000000001
 43
0.0000000001
 40
0.0
 40
0.0
 40
0.0
 40
0.0
 40
0.2516991298
 40
0.502232228
 40
0.7515062181000002
 40
1.0
 40
1.0
 40
1.0
 40
1.0
 10
61.52840774803962
 20
274.5228231347614
 30
0.0
 10
61.50757146533942
 20
274.4100596947614
 30
0.0
 10
61.42678066053941
 20
274.1903232750614
 30
0.0
 10
61.20260832133954
 20
273.9228049544614
 30
0.0
 10
60.90223768363967
 20
273.7477108639614
 30
0.0
 10
60.67346874223949
 20
273.7071928201614
 30
0.0
 10
60.56025674233978
 20
273.7071928201614
 30
0.0
  0
SPLINE
  5
1753
330
1F
100
AcDbEntity
  8
RUNDUNGEN
  6
Continuous
 62
     9
100
AcDbSpline
210
0.0
220
0.0
230
1.0
 70
     8
 71
     3
 72
    13
 73
     9
 74
     0
 42
0.0000000001
 43
0.0000000001
 40
0.0
 40
0.0
 40
0.0
 40
0.0
 40
0.3442531988000001
 40
0.6400215948
 40
0.7623450943000001
 40
0.8643751783999999
 40
0.9439970845999999
 40
1.0
 40
1.0
 40
1.0
 40
1.0
 10
60.77669635633947
 20
274.7071928201614
 30
0.0
 10
60.86185276483957
 20
274.6882959699614
 30
0.0
 10
61.02138270773957
 20
274.6589351249613
 30
0.0
 10
61.21015773643967
 20
274.6177951864613
 30
0.0
 10
61.33828132173949
 20
274.5869961972614
 30
0.0
 10
61.41310748893966
 20
274.5685662338614
 30
0.0
 10
61.47161941943977
 20
274.5547745101614
 30
0.0
 10
61.50492911093943
 20
274.5455308440615
 30
0.0
 10
61.51787586103956
 20
274.5397219732613
 30
0.0
  0
SPLINE
  5
1754
330
1F
100
AcDbEntity
  8
RUNDUNGEN
  6
Continuous
 62
     9
100
AcDbSpline
210
0.0
220
0.0
230
1.0
 70
     8
 71
     3
 72
    12
 73
     8
 74
     0
 42
0.0000000001
 43
0.0000000001
 40
0.0
 40
0.0
 40
0.0
 40
0.0
 40
0.0794550651
 40
0.1796116556
 40
0.4236543565
 40
0.7031869122
 40
1.0
 40
1.0
 40
1.0
 40
1.0
 10
61.5189068378395
 20
283.0762698842614
 30
0.0
 10
61.50902151523951
 20
283.0463121761614
 30
0.0
 10
61.48113408123982
 20
282.9804896625613
 30
0.0
 10
61.40567331753937
 20
282.8301593169614
 30
0.0
 10
61.2825170869396
 20
282.6151501745615
 30
0.0
 10
61.11618571953977
 20
282.3351481955614
 30
0.0
 10
60.99817583123968
 20
282.1390733251614
 30
0.0
 10
60.93872308963955
 20
282.0373239213613
 30
0.0
  0
SPLINE
  5
1755
330
1F
100
AcDbEntity
  8
RUNDUNGEN
  6
Continuous
 62
     9
100
AcDbSpline
210
0.0
220
0.0
230
1.0
 70
     8
 71
     3
 72
     9
 73
     5
 74
     0
 42
0.0000000001
 43
0.0000000001
 40
0.0
 40
0.0
 40
0.0
 40
0.0
 40
0.2616657932
 40
1.0
 40
1.0
 40
1.0
 40
1.0
 10
189.2342667669395
 20
283.0915616269614
 30
0.0
 10
189.2302233227397
 20
283.0946926601614
 30
0.0
 10
189.2139300490398
 20
283.1055598363614
 30
0.0
 10
189.1939110700396
 20
283.1106029640614
 30
0.0
 10
189.1794811279396
 20
283.1106274594614
 30
0.0
  0
SPLINE
  5
1756
330
1F
100
AcDbEntity
  8
RUNDUNGEN
  6
Continuous
 62
     9
100
AcDbSpline
210
0.0
220
0.0
230
1.0
 70
     8
 71
     3
 72
    12
 73
     8
 74
     0
 42
0.0000000001
 43
0.0000000001
 40
0.0
 40
0.0
 40
0.0
 40
0.0
 40
0.2963890595
 40
0.5756186312000002
 40
0.8196393361
 40
0.9200402454999998
 40
1.0
 40
1.0
 40
1.0
 40
1.0
 10
189.8239521326395
 20
282.0373269652614
 30
0.0
 10
189.7646770448395
 20
282.1387830398614
 30
0.0
 10
189.6469903753395
 20
282.3343190492614
 30
0.0
 10
189.4810500099397
 20
282.6136497163613
 30
0.0
 10
189.3580259554396
 20
282.8282637043614
 30
0.0
 10
189.2824174124398
 20
282.9785744116614
 30
0.0
 10
189.2544817371394
 20
283.0445723821614
 30
0.0
 10
189.2444307913397
 20
283.0746366073613
 30
0.0
  0
SPLINE
  5
1757
330
1F
100
AcDbEntity
  8
RUNDUNGEN
  6
Continuous
 62
     9
100
AcDbSpline
210
0.0
220
0.0
230
1.0
 70
     8
 71
     3
 72
    11
 73
     7
 74
     0
 42
0.0000000001
 43
0.0000000001
 40
0.0
 40
0.0
 40
0.0
 40
0.0
 40
0.2488909654
 40
0.4984071591
 40
0.7488562852
 40
1.0
 40
1.0
 40
1.0
 40
1.0
 10
192.7213565545398
 20
283.9071928201614
 30
0.0
 10
192.5925009573397
 20
283.9071928201614
 30
0.0
 10
192.3316048221395
 20
283.8549695141614
 30
0.0
 10
192.0024431017395
 20
283.6320536257614
 30
0.0
 10
191.7824284050393
 20
283.2997037153614
 30
0.0
 10
191.7310621541396
 20
283.0372147086614
 30
0.0
 10
191.7310621541396
 20
282.9071928201614
 30
0.0
  0
SPLINE
  5
1758
330
1F
100
AcDbEntity
  8
RUNDUNGEN
  6
Continuous
 62
     9
100
AcDbSpline
210
0.0
220
0.0
230
1.0
 70
     8
 71
     3
 72
    16
 73
    12
 74
     0
 42
0.0000000001
 43
0.0000000001
 40
0.0
 40
0.0
 40
0.0
 40
0.0
 40
0.0439252464
 40
0.0737769987
 40
0.1103781712
 40
0.2047857776
 40
0.3265852919999999
 40
0.4723533646
 40
0.6371372072
 40
0.8152609908
 40
1.0
 40
1.0
 40
1.0
 40
1.0
 10
191.1736469815396
 20
283.9071928201614
 30
0.0
 10
191.1581862980397
 20
283.9071928201614
 30
0.0
 10
191.1330792726394
 20
283.8926899215613
 30
0.0
 10
191.1087920667396
 20
283.8627525386614
 30
0.0
 10
191.0798353793398
 20
283.8136986769614
 30
0.0
 10
191.0484729445397
 20
283.7300222801614
 30
0.0
 10
191.0170135532398
 20
283.6064348093614
 30
0.0
 10
190.9911688945394
 20
283.4563340763614
 30
0.0
 10
190.9718085106397
 20
283.2853531473613
 30
0.0
 10
190.9598893715397
 20
283.0999526148614
 30
0.0
 10
190.9572073694398
 20
282.9722167321613
 30
0.0
 10
190.9572073694398
 20
282.9071928201614
 30
0.0
  0
SPLINE
  5
1759
330
1F
100
AcDbEntity
  8
RUNDUNGEN
  6
Continuous
 62
     9
100
AcDbSpline
210
0.0
220
0.0
230
1.0
 70
     8
 71
     3
 72
    11
 73
     7
 74
     0
 42
0.0000000001
 43
0.0000000001
 40
0.0
 40
0.0
 40
0.0
 40
0.0
 40
0.2488909641
 40
0.4984071588
 40
0.748856286
 40
1.0
 40
1.0
 40
1.0
 40
1.0
 10
58.04131809973978
 20
283.9071928201614
 30
0.0
 10
58.17017369623954
 20
283.9071928200614
 30
0.0
 10
58.43106983103962
 20
283.8549695141614
 30
0.0
 10
58.76023155183975
 20
283.6320536258613
 30
0.0
 10
58.98024624833943
 20
283.2997037147613
 30
0.0
 10
59.03161249943969
 20
283.0372147081614
 30
0.0
 10
59.03161249943969
 20
282.9071928201614
 30
0.0
  0
SPLINE
  5
175A
330
1F
100
AcDbEntity
  8
RUNDUNGEN
  6
Continuous
 62
     9
100
AcDbSpline
210
0.0
220
0.0
230
1.0
 70
     8
 71
     3
 72
     9
 73
     5
 74
     0
 42
0.0000000001
 43
0.0000000001
 40
0.0
 40
0.0
 40
0.0
 40
0.0
 40
0.7383736770000002
 40
1.0
 40
1.0
 40
1.0
 40
1.0
 10
61.58319301853953
 20
283.1106268780613
 30
0.0
 10
61.5687627920397
 20
283.1105988117614
 30
0.0
 10
61.54874865833972
 20
283.1055518842613
 30
0.0
 10
61.53244985533956
 20
283.0946936702613
 30
0.0
 10
61.5284077303395
 20
283.0915624716614
 30
0.0
  0
SPLINE
  5
175B
330
1F
100
AcDbEntity
  8
RUNDUNGEN
  6
Continuous
 62
     9
100
AcDbSpline
210
0.0
220
0.0
230
1.0
 70
     8
 71
     3
 72
     9
 73
     5
 74
     0
 42
0.0000000001
 43
0.0000000001
 40
0.0
 40
0.0
 40
0.0
 40
0.0
 40
0.2317394113
 40
1.0
 40
1.0
 40
1.0
 40
1.0
 10
61.52840753173951
 20
283.0915621028614
 30
0.0
 10
61.52774131663955
 20
283.0903409721614
 30
0.0
 10
61.52478357943983
 20
283.0851167695614
 30
0.0
 10
61.52152074783953
 20
283.0800691135614
 30
0.0
 10
61.51890684183945
 20
283.0762698851613
 30
0.0
  0
SPLINE
  5
175C
330
1F
100
AcDbEntity
  8
RUNDUNGEN
  6
Continuous
 62
     9
100
AcDbSpline
210
0.0
220
0.0
230
1.0
 70
     8
 71
     3
 72
    11
 73
     7
 74
     0
 42
0.0000000001
 43
0.0000000001
 40
0.0
 40
0.0
 40
0.0
 40
0.0
 40
0.1344774527
 40
0.3585159304999999
 40
0.6547538979
 40
1.0
 40
1.0
 40
1.0
 40
1.0
 10
61.51890684183945
 20
283.0762698851613
 30
0.0
 10
61.48689576003971
 20
283.0644123492614
 30
0.0
 10
61.3987137377394
 20
283.0410885878614
 30
0.0
 10
61.23721243733962
 20
283.0022766676614
 30
0.0
 10
61.02232596323938
 20
282.9561731873614
 30
0.0
 10
60.86270955183954
 20
282.9239982070614
 30
0.0
 10
60.77669635633947
 20
282.9071928201614
 30
0.0
  0
SPLINE
  5
175D
330
1F
100
AcDbEntity
  8
RUNDUNGEN
  6
Continuous
 62
     9
100
AcDbSpline
210
0.0
220
0.0
230
1.0
 70
     8
 71
     3
 72
    16
 73
    12
 74
     0
 42
0.0000000001
 43
0.0000000001
 40
0.0
 40
0.0
 40
0.0
 40
0.0
 40
0.1847370374
 40
0.3628591904
 40
0.5276442099000001
 40
0.6734128903000001
 40
0.7952131162000002
 40
0.8896212910999999
 40
0.9262227111999999
 40
0.9560746073
 40
1.0
 40
1.0
 40
1.0
 40
1.0
 10
60.77669635633947
 20
282.9071928201614
 30
0.0
 10
60.77669635633947
 20
282.9722160362615
 30
0.0
 10
60.77401461293948
 20
283.0999506543614
 30
0.0
 10
60.76209531263976
 20
283.2853503136614
 30
0.0
 10
60.74273525533953
 20
283.4563313265615
 30
0.0
 10
60.71689056153946
 20
283.6064329403614
 30
0.0
 10
60.68543116843966
 20
283.7300210996614
 30
0.0
 10
60.65406864723946
 20
283.8136980196614
 30
0.0
 10
60.62511190113946
 20
283.8627522578614
 30
0.0
 10
60.60082452663937
 20
283.8926897199613
 30
0.0
 10
60.57571747693964
 20
283.9071928201614
 30
0.0
 10
60.56025674233978
 20
283.9071928201614
 30
0.0
  0
SPLINE
  5
175E
330
1F
100
AcDbEntity
  8
RUNDUNGEN
  6
Continuous
 62
     9
100
AcDbSpline
210
0.0
220
0.0
230
1.0
 70
     8
 71
     3
 72
     9
 73
     5
 74
     0
 42
0.0000000001
 43
0.0000000001
 40
0.0
 40
0.0
 40
0.0
 40
0.0
 40
0.2700713537
 40
1.0
 40
1.0
 40
1.0
 40
1.0
 10
189.2447970090397
 20
283.0746644060614
 30
0.0
 10
189.2437705925394
 20
283.0761343063614
 30
0.0
 10
189.2400716447396
 20
283.0816463723613
 30
0.0
 10
189.2365866294394
 20
283.0873076489613
 30
0.0
 10
189.2342667525395
 20
283.0915616538614
 30
0.0
  0
SPLINE
  5
175F
330
1F
100
AcDbEntity
  8
RUNDUNGEN
  6
Continuous
 62
     9
100
AcDbSpline
210
0.0
220
0.0
230
1.0
 70
     8
 71
     3
 72
    11
 73
     7
 74
     0
 42
0.0000000001
 43
0.0000000001
 40
0.0
 40
0.0
 40
0.0
 40
0.0
 40
0.2516991404
 40
0.5022322352000002
 40
0.7515062223000001
 40
1.0
 40
1.0
 40
1.0
 40
1.0
 10
189.2342667525395
 20
283.0915616538614
 30
0.0
 10
189.2551029531396
 20
283.2043251866614
 30
0.0
 10
189.3358936398394
 20
283.4240618165613
 30
0.0
 10
189.5600659895394
 20
283.6915804264613
 30
0.0
 10
189.8604367589396
 20
283.8666747263614
 30
0.0
 10
190.0892058424397
 20
283.9071928201614
 30
0.0
 10
190.2024179109394
 20
283.9071928201614
 30
0.0
  0
SPLINE
  5
1760
330
1F
100
AcDbEntity
  8
RUNDUNGEN
  6
Continuous
 62
     9
100
AcDbSpline
210
0.0
220
0.0
230
1.0
 70
     8
 71
     3
 72
    16
 73
    12
 74
     0
 42
0.0000000001
 43
0.0000000001
 40
0.0
 40
0.0
 40
0.0
 40
0.0
 40
0.0439252466
 40
0.0737769991
 40
0.1103781717
 40
0.2047857781
 40
0.3265852917
 40
0.4723533633
 40
0.6371372056000002
 40
0.8152609901000001
 40
1.0
 40
1.0
 40
1.0
 40
1.0
 10
190.2024179109394
 20
283.9071928201614
 30
0.0
 10
190.1869572273394
 20
283.9071928201614
 30
0.0
 10
190.1618502019396
 20
283.8926899213614
 30
0.0
 10
190.1375629958397
 20
283.8627525383614
 30
0.0
 10
190.1086063085395
 20
283.8136986764614
 30
0.0
 10
190.0772438737394
 20
283.7300222799613
 30
0.0
 10
190.0457844827397
 20
283.6064348096613
 30
0.0
 10
190.0199398238396
 20
283.4563340774614
 30
0.0
 10
190.0005794405397
 20
283.2853531485614
 30
0.0
 10
189.9886603007398
 20
283.0999526155614
 30
0.0
 10
189.9859782970397
 20
282.9722167324614
 30
0.0
 10
189.9859782970397
 20
282.9071928201614
 30
0.0
  0
SPLINE
  5
1761
330
1F
100
AcDbEntity
  8
RUNDUNGEN
  6
Continuous
 62
     9
100
AcDbSpline
210
0.0
220
0.0
230
1.0
 70
     8
 71
     3
 72
    13
 73
     9
 74
     0
 42
0.0000000001
 43
0.0000000001
 40
0.0
 40
0.0
 40
0.0
 40
0.0
 40
0.3442546579
 40
0.6400237627000001
 40
0.7623472101000001
 40
0.8643769243999999
 40
0.9439981201
 40
1.0
 40
1.0
 40
1.0
 40
1.0
 10
189.9859782970397
 20
282.9071928201614
 30
0.0
 10
189.9008213158395
 20
282.9260898150613
 30
0.0
 10
189.7412904182397
 20
282.9554507804614
 30
0.0
 10
189.5525143929399
 20
282.9965909704614
 30
0.0
 10
189.4243904298396
 20
283.0273901168614
 30
0.0
 10
189.3495643614396
 20
283.0458201156614
 30
0.0
 10
189.2910528350394
 20
283.0596118315614
 30
0.0
 10
189.2577434891395
 20
283.0688554868613
 30
0.0
 10
189.2447970090397
 20
283.0746644060614
 30
0.0
  0
SPLINE
  5
1762
330
1F
100
AcDbEntity
  8
RUNDUNGEN
  6
Continuous
 62
     9
100
AcDbSpline
210
0.0
220
0.0
230
1.0
 70
     8
 71
     3
 72
     9
 73
     5
 74
     0
 42
0.0000000001
 43
0.0000000001
 40
0.0
 40
0.0
 40
0.0
 40
0.0
 40
0.4966820233
 40
1.0
 40
1.0
 40
1.0
 40
1.0
 10
61.51890562493964
 20
283.0762696706613
 30
0.0
 10
61.54625126493965
 20
282.9583001696613
 30
0.0
 10
61.64650043383971
 20
282.7293561872614
 30
0.0
 10
61.82045621343968
 20
282.5504427585614
 30
0.0
 10
61.91989190683944
 20
282.4785289062613
 30
0.0
  0
SPLINE
  5
1763
330
1F
100
AcDbEntity
  8
RUNDUNGEN
  6
Continuous
 62
     9
100
AcDbSpline
210
0.0
220
0.0
230
1.0
 70
     8
 71
     3
 72
     9
 73
     5
 74
     0
 42
0.0000000001
 43
0.0000000001
 40
0.0
 40
0.0
 40
0.0
 40
0.0
 40
0.4973561897
 40
1.0
 40
1.0
 40
1.0
 40
1.0
 10
61.52839831103938
 20
283.0915606776614
 30
0.0
 10
61.55549583353968
 20
282.9721193317614
 30
0.0
 10
61.65647796143957
 20
282.7404289042613
 30
0.0
 10
61.83408615683948
 20
282.5610756895614
 30
0.0
 10
61.93540942733943
 20
282.4899788843613
 30
0.0
  0
SPLINE
  5
1764
330
1F
100
AcDbEntity
  8
RUNDUNGEN
  6
Continuous
 62
     9
100
AcDbSpline
210
0.0
220
0.0
230
1.0
 70
     8
 71
     3
 72
     9
 73
     5
 74
     0
 42
0.0000000001
 43
0.0000000001
 40
0.0
 40
0.0
 40
0.0
 40
0.0
 40
0.5013468987
 40
1.0
 40
1.0
 40
1.0
 40
1.0
 10
61.58319301853953
 20
283.1106268780613
 30
0.0
 10
61.60821246133946
 20
282.9882712882613
 30
0.0
 10
61.7043987951397
 20
282.7513562308613
 30
0.0
 10
61.88141267373976
 20
282.5665967203614
 30
0.0
 10
61.98266012543945
 20
282.4946338198614
 30
0.0
  0
SPLINE
  5
1765
330
1F
100
AcDbEntity
  8
RUNDUNGEN
  6
Continuous
 62
     9
100
AcDbSpline
210
0.0
220
0.0
230
1.0
 70
     8
 71
     3
 72
     9
 73
     5
 74
     0
 42
0.0000000001
 43
0.0000000001
 40
0.0
 40
0.0
 40
0.0
 40
0.0
 40
0.5013472757999999
 40
1.0
 40
1.0
 40
1.0
 40
1.0
 10
61.58319301853953
 20
274.5037587617614
 30
0.0
 10
61.60821275143963
 20
274.6261143597615
 30
0.0
 10
61.70439939043944
 20
274.8630291429614
 30
0.0
 10
61.88141291413967
 20
275.0477887933614
 30
0.0
 10
61.98266012623981
 20
275.1197518208615
 30
0.0
  0
SPLINE
  5
1766
330
1F
100
AcDbEntity
  8
RUNDUNGEN
  6
Continuous
 62
     9
100
AcDbSpline
210
0.0
220
0.0
230
1.0
 70
     8
 71
     3
 72
     9
 73
     5
 74
     0
 42
0.0000000001
 43
0.0000000001
 40
0.0
 40
0.0
 40
0.0
 40
0.0
 40
0.4973549273
 40
1.0
 40
1.0
 40
1.0
 40
1.0
 10
61.52844224663977
 20
274.5228165960614
 30
0.0
 10
61.55553283513973
 20
274.6422560366614
 30
0.0
 10
61.65649907433953
 20
274.8739461875614
 30
0.0
 10
61.8340930571394
 20
275.0533050340614
 30
0.0
 10
61.93541059013978
 20
275.1244051357614
 30
0.0
  0
SPLINE
  5
1767
330
1F
100
AcDbEntity
  8
RUNDUNGEN
  6
Continuous
 62
     9
100
AcDbSpline
210
0.0
220
0.0
230
1.0
 70
     8
 71
     3
 72
     9
 73
     5
 74
     0
 42
0.0000000001
 43
0.0000000001
 40
0.0
 40
0.0
 40
0.0
 40
0.0
 40
0.4966380794
 40
1.0
 40
1.0
 40
1.0
 40
1.0
 10
61.51815879283958
 20
274.5393151137614
 30
0.0
 10
61.54553302403974
 20
274.6571619379614
 30
0.0
 10
61.64573405103965
 20
274.8858702101613
 30
0.0
 10
61.81940823753939
 20
275.0647244296614
 30
0.0
 10
61.91869419353952
 20
275.1366865222613
 30
0.0
  0
SPLINE
  5
1768
330
1F
100
AcDbEntity
  8
RUNDUNGEN
  6
Continuous
 62
     9
100
AcDbSpline
210
0.0
220
0.0
230
1.0
 70
     8
 71
     3
 72
     9
 73
     5
 74
     0
 42
0.0000000001
 43
0.0000000001
 40
0.0
 40
0.0
 40
0.0
 40
0.0
 40
0.5013472409000001
 40
1.0
 40
1.0
 40
1.0
 40
1.0
 10
189.1794811279396
 20
283.1106274594614
 30
0.0
 10
189.1544611101399
 20
282.9882705232614
 30
0.0
 10
189.0582728751397
 20
282.7513531921614
 30
0.0
 10
188.8812561755394
 20
282.5665924779614
 30
0.0
 10
188.7800072621394
 20
282.4946294649613
 30
0.0
  0
SPLINE
  5
1769
330
1F
100
AcDbEntity
  8
RUNDUNGEN
  6
Continuous
 62
     9
100
AcDbSpline
210
0.0
220
0.0
230
1.0
 70
     8
 71
     3
 72
     9
 73
     5
 74
     0
 42
0.0000000001
 43
0.0000000001
 40
0.0
 40
0.0
 40
0.0
 40
0.0
 40
0.4973549092000001
 40
1.0
 40
1.0
 40
1.0
 40
1.0
 10
189.2342377680397
 20
283.0915671484613
 30
0.0
 10
189.2071445981396
 20
282.9721221596614
 30
0.0
 10
189.1061687058395
 20
282.7404221007614
 30
0.0
 10
188.9285595158399
 20
282.5610603009613
 30
0.0
 10
188.8272341317397
 20
282.4899608475614
 30
0.0
  0
SPLINE
  5
176A
330
1F
100
AcDbEntity
  8
RUNDUNGEN
  6
Continuous
 62
     9
100
AcDbSpline
210
0.0
220
0.0
230
1.0
 70
     8
 71
     3
 72
     9
 73
     5
 74
     0
 42
0.0000000001
 43
0.0000000001
 40
0.0
 40
0.0
 40
0.0
 40
0.0
 40
0.4966378524000001
 40
1.0
 40
1.0
 40
1.0
 40
1.0
 10
189.2445141220396
 20
283.0750712334614
 30
0.0
 10
189.2171385926394
 20
282.9572189026613
 30
0.0
 10
189.1169303670394
 20
282.7285002299614
 30
0.0
 10
188.9432426467397
 20
282.5496419598613
 30
0.0
 10
188.8439493794394
 20
282.4776799942614
 30
0.0
  0
SPLINE
  5
176B
330
1F
100
AcDbEntity
  8
RUNDUNGEN
  6
Continuous
 62
     9
100
AcDbSpline
210
0.0
220
0.0
230
1.0
 70
     8
 71
     3
 72
     9
 73
     5
 74
     0
 42
0.0000000001
 43
0.0000000001
 40
0.0
 40
0.0
 40
0.0
 40
0.0
 40
0.4966817938000001
 40
1.0
 40
1.0
 40
1.0
 40
1.0
 10
189.2437674040398
 20
274.5381153685614
 30
0.0
 10
189.2164204597397
 20
274.6560903723614
 30
0.0
 10
189.1161640806394
 20
274.8850447470613
 30
0.0
 10
188.9421947634396
 20
275.0639622106614
 30
0.0
 10
188.8427517620393
 20
275.1358759294614
 30
0.0
  0
SPLINE
  5
176C
330
1F
100
AcDbEntity
  8
RUNDUNGEN
  6
Continuous
 62
     9
100
AcDbSpline
210
0.0
220
0.0
230
1.0
 70
     8
 71
     3
 72
     9
 73
     5
 74
     0
 42
0.0000000001
 43
0.0000000001
 40
0.0
 40
0.0
 40
0.0
 40
0.0
 40
0.4973559317000002
 40
1.0
 40
1.0
 40
1.0
 40
1.0
 10
189.2342761775399
 20
274.5228258037614
 30
0.0
 10
189.2071773359394
 20
274.6422726087615
 30
0.0
 10
189.1061879892395
 20
274.8739733597614
 30
0.0
 10
188.9285662750399
 20
275.0533304578614
 30
0.0
 10
188.8272357593396
 20
275.1244270407614
 30
0.0
  0
SPLINE
  5
176D
330
1F
100
AcDbEntity
  8
RUNDUNGEN
  6
Continuous
 62
     9
100
AcDbSpline
210
0.0
220
0.0
230
1.0
 70
     8
 71
     3
 72
     9
 73
     5
 74
     0
 42
0.0000000001
 43
0.0000000001
 40
0.0
 40
0.0
 40
0.0
 40
0.0
 40
0.5013470267
 40
1.0
 40
1.0
 40
1.0
 40
1.0
 10
189.1794811283398
 20
274.5037581802614
 30
0.0
 10
189.1544614016397
 20
274.6261151409614
 30
0.0
 10
189.0582732597395
 20
274.8630326582613
 30
0.0
 10
188.8812563079395
 20
275.0477932142615
 30
0.0
 10
188.7800072668397
 20
275.1197561722614
 30
0.0
  0
SPLINE
  5
176E
330
1F
100
AcDbEntity
  8
RUNDUNGEN
  6
Continuous
 62
     9
100
AcDbSpline
210
0.0
220
0.0
230
1.0
 70
     8
 71
     3
 72
    15
 73
    11
 74
     0
 42
0.0000000001
 43
0.0000000001
 40
0.0
 40
0.0
 40
0.0
 40
0.0
 40
0.1246821898
 40
0.2496064664
 40
0.3747438612
 40
0.5000000367000002
 40
0.6252562121000002
 40
0.7503936062000001
 40
0.8753178890999999
 40
1.0
 40
1.0
 40
1.0
 40
1.0
 10
61.98265807133975
 20
282.4946338198614
 30
0.0
 10
62.28339154233982
 20
282.2926353352614
 30
0.0
 10
62.84080669023978
 20
281.8164666389614
 30
0.0
 10
63.48403181273943
 20
280.9252240392614
 30
0.0
 10
63.89206718463947
 20
279.9015474332614
 30
0.0
 10
64.03199865723945
 20
278.8071921544614
 30
0.0
 10
63.89206686133957
 20
277.7128368936613
 30
0.0
 10
63.48403110183972
 20
276.6891604802613
 30
0.0
 10
62.84080612743946
 20
275.7979179362615
 30
0.0
 10
62.28339049113947
 20
275.3217501561614
 30
0.0
 10
61.98265719583969
 20
275.1197518208615
 30
0.0
  0
SPLINE
  5
176F
330
1F
100
AcDbEntity
  8
RUNDUNGEN
  6
Continuous
 62
     9
100
AcDbSpline
210
0.0
220
0.0
230
1.0
 70
     8
 71
     3
 72
    15
 73
    11
 74
     0
 42
0.0000000001
 43
0.0000000001
 40
0.0
 40
0.0
 40
0.0
 40
0.0
 40
0.1246822902
 40
0.2496066123
 40
0.3747439501
 40
0.5000000124000002
 40
0.6252560753000001
 40
0.7503934123000002
 40
0.8753177315999998
 40
1.0
 40
1.0
 40
1.0
 40
1.0
 10
188.7800077115398
 20
275.1197561722614
 30
0.0
 10
188.4792718582394
 20
275.3217501073613
 30
0.0
 10
187.9218646155395
 20
275.7979276716613
 30
0.0
 10
187.2786414100396
 20
276.6891672218615
 30
0.0
 10
186.8706090730397
 20
277.7128416713614
 30
0.0
 10
186.7306711642395
 20
278.8071929533614
 30
0.0
 10
186.8706091395397
 20
279.9015442253613
 30
0.0
 10
187.2786415346395
 20
280.9252186384614
 30
0.0
 10
187.9218647322395
 20
281.8164581081613
 30
0.0
 10
188.4792719645397
 20
282.2926355691613
 30
0.0
 10
188.7800077681395
 20
282.4946294649613
 30
0.0
  0
LINE
  5
177E
330
1F
100
AcDbEntity
  8
0
100
AcDbLine
 10
81.38133732663986
 20
372.0576163505322
 30
0.0
 11
81.38133732663986
 21
367.057616350532
 31
0.0
  0
LINE
  5
177F
330
1F
100
AcDbEntity
  8
0
100
AcDbLine
 10
89.38133732663986
 20
372.0576163505322
 30
0.0
 11
89.18133732663982
 21
367.057616350532
 31
0.0
  0
LINE
  5
1780
330
1F
100
AcDbEntity
  8
0
100
AcDbLine
 10
97.38133732663982
 20
372.0576163505322
 30
0.0
 11
97.38133732663982
 21
367.057616350532
 31
0.0
  0
LINE
  5
1781
330
1F
100
AcDbEntity
  8
0
100
AcDbLine
 10
105.3813373266398
 20
372.0576163505322
 30
0.0
 11
105.3813373266398
 21
367.057616350532
 31
0.0
  0
ENDSEC
  0
SECTION
  2
OBJECTS
  0
DICTIONARY
  5
C
330
0
100
AcDbDictionary
281
     1
  3
ACAD_2007HEADERVARS_RT
350
17A0
  3
ACAD_COLOR
350
BE
  3
ACAD_GROUP
350
D
  3
ACAD_LAYOUT
350
1A
  3
ACAD_MATERIAL
350
BD
  3
ACAD_MLEADERSTYLE
350
3EF
  3
ACAD_MLINESTYLE
350
17
  3
ACAD_PLOTSETTINGS
350
19
  3
ACAD_PLOTSTYLENAME
350
E
  3
ACAD_SCALELIST
350
3DD
  3
ACAD_TABLESTYLE
350
11A
  3
ACAD_VISUALSTYLE
350
3CC
  3
ACDB_RECOMPOSE_DATA
350
179F
  3
AcDbVariableDictionary
350
94
  3
AcmDictionary
350
5B
  3
AEC_PROPERTY_SET_DEFS
350
10B6
  3
AMG
350
41
  3
AMGSNAPSETTINGS
350
26B
  0
DICTIONARY
  5
752
330
2
100
AcDbDictionary
280
     1
281
     1
  3
ACAD_LAYERSTATES
360
753
  3
AMLAYER_GROUPCOLORS
360
1783
  0
DICTIONARY
  5
5C0
330
10
100
AcDbDictionary
280
     1
281
     1
  3
ADSK_XREC_LAYER_RECONCILED
360
5C1
  0
DICTIONARY
  5
723
330
722
100
AcDbDictionary
280
     1
281
     1
  0
DICTIONARY
  5
725
330
724
100
AcDbDictionary
280
     1
281
     1
  0
DICTIONARY
  5
728
330
727
100
AcDbDictionary
280
     1
281
     1
  0
DICTIONARY
  5
72E
330
72D
100
AcDbDictionary
280
     1
281
     1
  0
DICTIONARY
  5
8F
330
1F
100
AcDbDictionary
280
     1
281
     1
  3
ACAD_SORTENTS
360
12B3
  0
DICTIONARY
  5
14E8
330
14DB
100
AcDbDictionary
280
     1
281
     1
  3
ACAD_DIMASSOC
360
14E9
  0
DICTIONARY
  5
17A0
102
{ACAD_REACTORS
330
C
102
}
330
C
100
AcDbDictionary
281
     1
  3
DIMARCSYM
350
17A1
  3
DIMJOGANG
350
17A2
  0
DICTIONARY
  5
BE
102
{ACAD_REACTORS
330
C
102
}
330
C
100
AcDbDictionary
281
     1
  0
DICTIONARY
  5
D
102
{ACAD_REACTORS
330
C
102
}
330
C
100
AcDbDictionary
281
     1
  0
DICTIONARY
  5
1A
102
{ACAD_REACTORS
330
C
102
}
330
C
100
AcDbDictionary
281
     1
  3
Layout1
350
1E
  3
Layout2
350
26
  3
Model
350
22
  0
DICTIONARY
  5
BD
102
{ACAD_REACTORS
330
C
102
}
330
C
100
AcDbDictionary
281
     1
  3
ByBlock
350
3BC
  3
ByLayer
350
3B4
  3
Global
350
3C4
  0
DICTIONARY
  5
3EF
102
{ACAD_REACTORS
330
C
102
}
330
C
100
AcDbDictionary
281
     1
  3
Standard
350
3F0
  0
DICTIONARY
  5
17
102
{ACAD_REACTORS
330
C
102
}
330
C
100
AcDbDictionary
281
     1
  3
Standard
350
18
  0
DICTIONARY
  5
19
102
{ACAD_REACTORS
330
C
102
}
330
C
100
AcDbDictionary
281
     1
  0
ACDBDICTIONARYWDFLT
  5
E
102
{ACAD_REACTORS
330
C
102
}
330
C
100
AcDbDictionary
281
     1
  3
Normal
350
F
100
AcDbDictionaryWithDefault
340
F
  0
DICTIONARY
  5
3DD
102
{ACAD_REACTORS
330
C
102
}
330
C
100
AcDbDictionary
281
     1
  3
A0
350
3DE
  3
A1
350
3DF
  3
A2
350
3E0
  3
A3
350
3E1
  3
A4
350
3E2
  3
A5
350
3E3
  3
A6
350
3E4
  3
A7
350
3E5
  3
A8
350
3E6
  3
A9
350
3E7
  3
B0
350
3E8
  3
B1
350
3E9
  3
B2
350
3EA
  3
B3
350
3EB
  3
B4
350
3EC
  3
B5
350
3ED
  3
B6
350
3EE
  0
DICTIONARY
  5
11A
102
{ACAD_REACTORS
330
C
102
}
330
C
100
AcDbDictionary
281
     1
  3
Standard
350
11B
  0
DICTIONARY
  5
3CC
102
{ACAD_REACTORS
330
C
102
}
330
C
100
AcDbDictionary
281
     1
  3
2dWireframe
350
3D2
  3
3D Hidden
350
3D4
  3
3dWireframe
350
3D3
  3
Basic
350
3D1
  3
Brighten
350
3D8
  3
ColorChange
350
3DC
  3
Conceptual
350
3D5
  3
Dim
350
3D7
  3
EdgeColorOff
350
1531
  3
Facepattern
350
3DB
  3
Flat
350
3CD
  3
FlatWithEdges
350
3CE
  3
Gouraud
350
3CF
  3
GouraudWithEdges
350
3D0
  3
JitterOff
350
152F
  3
Linepattern
350
3DA
  3
OverhangOff
350
1530
  3
Realistic
350
3D6
  3
Thicken
350
3D9
  0
XRECORD
  5
179F
102
{ACAD_REACTORS
330
C
102
}
330
C
100
AcDbXrecord
280
     1
 90
        1
330
11B
  0
DICTIONARY
  5
94
102
{ACAD_REACTORS
330
C
102
}
330
C
100
AcDbDictionary
281
     1
  3
CANNOSCALE
350
420
  3
CMLEADERSTYLE
350
41E
  3
CTABLESTYLE
350
138
  3
DIMASSOC
350
96
  3
INDEXCTL
350
95
  3
LAYEREVAL
350
422
  3
LAYERNOTIFY
350
423
  3
LIGHTINGUNITS
350
421
  3
MSLTSCALE
350
41F
  0
DICTIONARY
  5
5B
102
{ACAD_REACTORS
330
C
102
}
330
C
100
AcDbDictionary
281
     1
  3
AcmBOM
350
272
  3
AcmStdDictionary
350
61
  3
AMDTSECTSYM_ARROWCOLOR
350
123
  0
DICTIONARY
  5
10B6
102
{ACAD_REACTORS
330
C
102
}
330
C
100
AcDbDictionary
281
     1
  0
DICTIONARY
  5
41
102
{ACAD_REACTORS
330
C
102
}
330
C
100
AcDbDictionary
281
     1
  0
DICTIONARY
  5
26B
102
{ACAD_REACTORS
330
C
102
}
330
C
100
AcDbDictionary
281
     1
  0
DICTIONARY
  5
753
102
{ACAD_REACTORS
330
752
102
}
330
752
100
AcDbDictionary
281
     1
  0
DICTIONARY
  5
1783
102
{ACAD_REACTORS
330
752
102
}
330
752
100
AcDbDictionary
280
     1
281
     1
  0
XRECORD
  5
5C1
102
{ACAD_REACTORS
330
5C0
102
}
330
5C0
100
AcDbXrecord
280
     1
290
     1
  0
SORTENTSTABLE
  5
12B3
102
{ACAD_REACTORS
330
8F
102
}
330
8F
100
AcDbSortentsTable
330
1F
331
B17
  5
B17
331
A99
  5
A99
331
B13
  5
B13
331
AD4
  5
AD4
331
B0F
  5
B0F
331
D26
  5
D26
331
B0B
  5
B0B
331
AD0
  5
AD0
331
1267
  5
1282
331
1263
  5
127E
331
12B6
  5
1201
331
125F
  5
127A
331
1220
  5
123B
331
125B
  5
1276
331
12B2
  5
11FF
331
B07
  5
B07
331
ACC
  5
ACC
331
AC8
  5
AC8
331
B03
  5
B03
331
CE2
  5
CE2
331
AC4
  5
AC4
331
AFF
  5
AFF
331
B5E
  5
B5E
331
AFB
  5
AFB
331
B5A
  5
B5A
331
1257
  5
1272
331
1218
  5
1233
331
1292
  5
12CB
331
1253
  5
126E
331
1214
  5
122F
331
124F
  5
126A
331
128E
  5
12C7
331
124B
  5
1266
331
128A
  5
12C3
331
AF7
  5
AF7
331
ABC
  5
ABC
331
AF3
  5
AF3
331
B32
  5
B32
331
AB4
  5
AB4
331
AEF
  5
AEF
331
B2E
  5
B2E
331
AEB
  5
AEB
331
B2A
  5
B2A
331
120C
  5
1227
331
1247
  5
1262
331
1286
  5
12BF
331
1208
  5
1223
331
1243
  5
125E
331
1282
  5
12BB
331
123F
  5
125A
331
127E
  5
12B7
331
127A
  5
12B2
331
12CD
  5
1204
331
12C9
  5
D7F
331
AAC
  5
AAC
331
AE7
  5
AE7
331
B26
  5
B26
331
AA8
  5
AA8
331
AE3
  5
AE3
331
B22
  5
B22
331
ADF
  5
ADF
331
AA4
  5
AA4
331
ADB
  5
ADB
331
B1A
  5
B1A
331
AA0
  5
AA0
331
1237
  5
1252
331
1276
  5
1291
331
DA5
  5
1214
331
1233
  5
124E
331
1272
  5
128D
331
122F
  5
124A
331
126E
  5
1289
331
12C5
  5
1209
331
126A
  5
1285
331
12C1
  5
DA5
331
12BD
  5
120C
331
12B9
  5
120E
331
B16
  5
B16
331
A9C
  5
A9C
331
AD7
  5
AD7
331
B12
  5
B12
331
A98
  5
A98
331
B0E
  5
B0E
331
AD3
  5
AD3
331
B0A
  5
B0A
331
1266
  5
1281
331
1262
  5
127D
331
12B5
  5
1200
331
125E
  5
1279
331
125A
  5
1275
331
ACF
  5
ACF
331
B06
  5
B06
331
ACB
  5
ACB
331
B02
  5
B02
331
AC7
  5
AC7
331
AC3
  5
AC3
331
AFE
  5
AFE
331
B5D
  5
B5D
331
AFA
  5
AFA
331
B59
  5
B59
331
1256
  5
1271
331
1217
  5
1232
331
1291
  5
12CA
331
1252
  5
126D
331
1213
  5
122E
331
124E
  5
1269
331
128D
  5
12C6
331
124A
  5
1265
331
1289
  5
12C2
331
AF6
  5
AF6
331
ABB
  5
ABB
331
AB7
  5
AB7
331
AF2
  5
AF2
331
B31
  5
B31
331
AEE
  5
AEE
331
B2D
  5
B2D
331
B29
  5
B29
331
120B
  5
1226
331
1246
  5
1261
331
1285
  5
12BE
331
1242
  5
125D
331
1281
  5
12BA
331
123E
  5
1259
331
127D
  5
12B6
331
123A
  5
1255
331
1279
  5
1294
331
12CC
  5
1205
331
12C8
  5
1207
331
AAF
  5
AAF
331
AAB
  5
AAB
331
AE6
  5
AE6
331
B25
  5
B25
331
AE2
  5
AE2
331
AA7
  5
AA7
331
ADE
  5
ADE
331
AA3
  5
AA3
331
ADA
  5
ADA
331
B19
  5
B19
331
1275
  5
1290
331
DA4
  5
1213
331
1232
  5
124D
331
1271
  5
128C
331
126D
  5
1288
331
12C4
  5
D81
331
12C0
  5
DA6
331
1269
  5
1284
331
12BC
  5
DC7
331
12B8
  5
120F
331
A9F
  5
A9F
331
B15
  5
B15
331
B11
  5
B11
331
AD6
  5
AD6
331
B0D
  5
B0D
331
AD2
  5
AD2
331
B09
  5
B09
331
1265
  5
1280
331
1261
  5
127C
331
125D
  5
1278
331
12B4
  5
1203
331
1259
  5
1274
331
ACE
  5
ACE
331
B05
  5
B05
331
ACA
  5
ACA
331
B01
  5
B01
331
AC6
  5
AC6
331
AC2
  5
AC2
331
AF9
  5
AF9
331
B58
  5
B58
331
1294
  5
12CD
331
1255
  5
1270
331
1290
  5
12C9
331
1251
  5
126C
331
1216
  5
1231
331
128C
  5
12C5
331
124D
  5
1268
331
1288
  5
12C1
331
1249
  5
1264
331
AF5
  5
AF5
331
ABA
  5
ABA
331
AB6
  5
AB6
331
B30
  5
B30
331
B2C
  5
B2C
331
AE9
  5
AE9
331
B28
  5
B28
331
120E
  5
1229
331
120A
  5
1225
331
1245
  5
1260
331
1284
  5
12BD
331
1241
  5
125C
331
1280
  5
12B9
331
123D
  5
1258
331
127C
  5
12B5
331
1239
  5
1254
331
1278
  5
1293
331
12CB
  5
1206
331
AAE
  5
AAE
331
AAA
  5
AAA
331
AE5
  5
AE5
331
B24
  5
B24
331
AE1
  5
AE1
331
AA6
  5
AA6
331
B1C
  5
B1C
331
AA2
  5
AA2
331
ADD
  5
ADD
331
B18
  5
B18
331
AD9
  5
AD9
331
1235
  5
1250
331
1274
  5
128F
331
D7F
  5
1210
331
12C7
  5
1208
331
1270
  5
128B
331
126C
  5
1287
331
12C3
  5
120A
331
12BF
  5
120B
331
1268
  5
1283
331
12BB
  5
120D
331
A9E
  5
A9E
331
B14
  5
B14
331
D27
  5
1202
331
A96
  5
A96
331
B10
  5
B10
331
AD5
  5
AD5
331
B0C
  5
B0C
331
AD1
  5
AD1
331
B08
  5
B08
331
1264
  5
127F
331
12B7
  5
11FE
331
1260
  5
127B
331
125C
  5
1277
331
1258
  5
1273
331
ACD
  5
ACD
331
CE3
  5
CE3
331
B04
  5
B04
331
AC9
  5
AC9
331
AC5
  5
AC5
331
B00
  5
B00
331
B5F
  5
B5F
331
B5B
  5
B5B
331
AF8
  5
AF8
331
1219
  5
1234
331
1293
  5
12CC
331
1254
  5
126F
331
1215
  5
1230
331
128F
  5
12C8
331
1250
  5
126B
331
124C
  5
1267
331
128B
  5
12C4
331
1248
  5
1263
331
B33
  5
B33
331
AF4
  5
AF4
331
B2F
  5
B2F
331
AB5
  5
AB5
331
B2B
  5
B2B
331
AE8
  5
AE8
331
120D
  5
1228
331
1287
  5
12C0
331
1209
  5
1224
331
1244
  5
125F
331
1283
  5
12BC
331
1240
  5
125B
331
127F
  5
12B8
331
127B
  5
12B4
331
1238
  5
1253
331
12CA
  5
D27
331
B27
  5
B27
331
AAD
  5
AAD
331
B23
  5
B23
331
AE4
  5
AE4
331
AA9
  5
AA9
331
AA5
  5
AA5
331
AE0
  5
AE0
331
B1B
  5
B1B
331
AA1
  5
AA1
331
ADC
  5
ADC
331
AD8
  5
AD8
331
1277
  5
1292
331
DA6
  5
1215
331
1234
  5
124F
331
1273
  5
128E
331
1230
  5
124B
331
12C6
  5
D80
331
126F
  5
128A
331
126B
  5
1286
331
12C2
  5
DA4
331
12BE
  5
DA7
331
12BA
  5
11FD
  0
DIMASSOC
  5
14E9
102
{ACAD_REACTORS
330
14E8
102
}
330
14E8
100
AcDbDimAssoc
330
14DB
 90
        3
 70
     0
 71
     0
  1
AcDbOsnapPointRef
 72
     6
331
B00
 73
     0
 91
        0
 40
0.0000000000028422
 10
0.0
 20
0.0
 30
0.0
332
A9E
 74
     0
 92
        0
 75
     0
  1
AcDbOsnapPointRef
 72
     1
331
B22
 73
     0
 91
        0
 40
0.0
 10
0.0
 20
0.0
 30
2.000000000000000E+50
 75
     0
  0
XRECORD
  5
17A1
102
{ACAD_REACTORS
330
17A0
102
}
330
17A0
100
AcDbXrecord
280
     1
 70
     1
  0
XRECORD
  5
17A2
102
{ACAD_REACTORS
330
17A0
102
}
330
17A0
100
AcDbXrecord
280
     1
 40
1.570796326794896
  0
LAYOUT
  5
1E
102
{ACAD_REACTORS
330
1A
102
}
330
1A
100
AcDbPlotSettings
  1

  2

  4

  6

 40
0.0
 41
0.0
 42
0.0
 43
0.0
 44
0.0
 45
0.0
 46
0.0
 47
0.0
 48
0.0
 49
0.0
140
0.0
141
0.0
142
1.0
143
1.0
 70
   688
 72
     0
 73
     0
 74
     5
  7

 75
    16
147
1.0
 76
     0
 77
     2
 78
   300
148
0.0
149
0.0
100
AcDbLayout
  1
Layout1
 70
     1
 71
     1
 10
0.0
 20
0.0
 11
420.0
 21
297.0
 12
0.0
 22
0.0
 32
0.0
 14
1.000000000000000E+20
 24
1.000000000000000E+20
 34
1.000000000000000E+20
 15
-1.000000000000000E+20
 25
-1.000000000000000E+20
 35
-1.000000000000000E+20
146
0.0
 13
0.0
 23
0.0
 33
0.0
 16
1.0
 26
0.0
 36
0.0
 17
0.0
 27
1.0
 37
0.0
 76
     0
330
1B
  0
LAYOUT
  5
26
102
{ACAD_REACTORS
330
1A
102
}
330
1A
100
AcDbPlotSettings
  1

  2

  4

  6

 40
0.0
 41
0.0
 42
0.0
 43
0.0
 44
0.0
 45
0.0
 46
0.0
 47
0.0
 48
0.0
 49
0.0
140
0.0
141
0.0
142
1.0
143
1.0
 70
   688
 72
     0
 73
     0
 74
     5
  7

 75
    16
147
1.0
 76
     0
 77
     2
 78
   300
148
0.0
149
0.0
100
AcDbLayout
  1
Layout2
 70
     1
 71
     2
 10
0.0
 20
0.0
 11
12.0
 21
9.0
 12
0.0
 22
0.0
 32
0.0
 14
0.0
 24
0.0
 34
0.0
 15
0.0
 25
0.0
 35
0.0
146
0.0
 13
0.0
 23
0.0
 33
0.0
 16
1.0
 26
0.0
 36
0.0
 17
0.0
 27
1.0
 37
0.0
 76
     0
330
23
  0
LAYOUT
  5
22
102
{ACAD_REACTORS
330
1A
102
}
330
1A
100
AcDbPlotSettings
  1

  2

  4

  6

 40
0.0
 41
0.0
 42
0.0
 43
0.0
 44
0.0
 45
0.0
 46
0.0
 47
0.0
 48
0.0
 49
0.0
140
0.0
141
0.0
142
1.0
143
1.0
 70
  1712
 72
     0
 73
     0
 74
     0
  7

 75
     0
147
1.0
 76
     0
 77
     2
 78
   300
148
0.0
149
0.0
100
AcDbLayout
  1
Model
 70
     1
 71
     0
 10
0.0
 20
0.0
 11
12.0
 21
9.0
 12
0.0
 22
0.0
 32
0.0
 14
0.0
 24
0.0
 34
0.0
 15
0.0
 25
0.0
 35
0.0
146
0.0
 13
0.0
 23
0.0
 33
0.0
 16
1.0
 26
0.0
 36
0.0
 17
0.0
 27
1.0
 37
0.0
 76
     0
330
1F
331
3B2
  0
MATERIAL
  5
3BC
102
{ACAD_XDICTIONARY
360
3BD
102
}
102
{ACAD_REACTORS
330
BD
102
}
330
BD
100
AcDbMaterial
  1
ByBlock
 72
     0
 43
0.0008202099737533
 43
0.0
 43
0.0
 43
0.0
 43
0.0
 43
0.0008202099737533
 43
0.0
 43
0.0
 43
0.0
 43
0.0
 43
1.0
 43
0.0
 43
0.0
 43
0.0
 43
0.0
 43
1.0
 77
     0
 47
0.0008202099737533
 47
0.0
 47
0.0
 47
0.0
 47
0.0
 47
0.0008202099737533
 47
0.0
 47
0.0
 47
0.0
 47
0.0
 47
1.0
 47
0.0
 47
0.0
 47
0.0
 47
0.0
 47
1.0
171
     0
 49
0.0008202099737533
 49
0.0
 49
0.0
 49
0.0
 49
0.0
 49
0.0008202099737533
 49
0.0
 49
0.0
 49
0.0
 49
0.0
 49
1.0
 49
0.0
 49
0.0
 49
0.0
 49
0.0
 49
1.0
175
     0
142
0.0008202099737533
142
0.0
142
0.0
142
0.0
142
0.0
142
0.0008202099737533
142
0.0
142
0.0
142
0.0
142
0.0
142
1.0
142
0.0
142
0.0
142
0.0
142
0.0
142
1.0
179
     0
144
0.0008202099737533
144
0.0
144
0.0
144
0.0
144
0.0
144
0.0008202099737533
144
0.0
144
0.0
144
0.0
144
0.0
144
1.0
144
0.0
144
0.0
144
0.0
144
0.0
144
1.0
147
0.0008202099737533
147
0.0
147
0.0
147
0.0
147
0.0
147
0.0008202099737533
147
0.0
147
0.0
147
0.0
147
0.0
147
1.0
147
0.0
147
0.0
147
0.0
147
0.0
147
1.0
  0
MATERIAL
  5
3B4
102
{ACAD_XDICTIONARY
360
3B5
102
}
102
{ACAD_REACTORS
330
BD
102
}
330
BD
100
AcDbMaterial
  1
ByLayer
 72
     0
 43
0.0008202099737533
 43
0.0
 43
0.0
 43
0.0
 43
0.0
 43
0.0008202099737533
 43
0.0
 43
0.0
 43
0.0
 43
0.0
 43
1.0
 43
0.0
 43
0.0
 43
0.0
 43
0.0
 43
1.0
 77
     0
 47
0.0008202099737533
 47
0.0
 47
0.0
 47
0.0
 47
0.0
 47
0.0008202099737533
 47
0.0
 47
0.0
 47
0.0
 47
0.0
 47
1.0
 47
0.0
 47
0.0
 47
0.0
 47
0.0
 47
1.0
171
     0
 49
0.0008202099737533
 49
0.0
 49
0.0
 49
0.0
 49
0.0
 49
0.0008202099737533
 49
0.0
 49
0.0
 49
0.0
 49
0.0
 49
1.0
 49
0.0
 49
0.0
 49
0.0
 49
0.0
 49
1.0
175
     0
142
0.0008202099737533
142
0.0
142
0.0
142
0.0
142
0.0
142
0.0008202099737533
142
0.0
142
0.0
142
0.0
142
0.0
142
1.0
142
0.0
142
0.0
142
0.0
142
0.0
142
1.0
179
     0
144
0.0008202099737533
144
0.0
144
0.0
144
0.0
144
0.0
144
0.0008202099737533
144
0.0
144
0.0
144
0.0
144
0.0
144
1.0
144
0.0
144
0.0
144
0.0
144
0.0
144
1.0
147
0.0008202099737533
147
0.0
147
0.0
147
0.0
147
0.0
147
0.0008202099737533
147
0.0
147
0.0
147
0.0
147
0.0
147
1.0
147
0.0
147
0.0
147
0.0
147
0.0
147
1.0
  0
MATERIAL
  5
3C4
102
{ACAD_XDICTIONARY
360
3C5
102
}
102
{ACAD_REACTORS
330
BD
102
}
330
BD
100
AcDbMaterial
  1
Global
 72
     0
 43
0.0008202099737533
 43
0.0
 43
0.0
 43
0.0
 43
0.0
 43
0.0008202099737533
 43
0.0
 43
0.0
 43
0.0
 43
0.0
 43
1.0
 43
0.0
 43
0.0
 43
0.0
 43
0.0
 43
1.0
 77
     0
 47
0.0008202099737533
 47
0.0
 47
0.0
 47
0.0
 47
0.0
 47
0.0008202099737533
 47
0.0
 47
0.0
 47
0.0
 47
0.0
 47
1.0
 47
0.0
 47
0.0
 47
0.0
 47
0.0
 47
1.0
171
     0
 49
0.0008202099737533
 49
0.0
 49
0.0
 49
0.0
 49
0.0
 49
0.0008202099737533
 49
0.0
 49
0.0
 49
0.0
 49
0.0
 49
1.0
 49
0.0
 49
0.0
 49
0.0
 49
0.0
 49
1.0
175
     0
142
0.0008202099737533
142
0.0
142
0.0
142
0.0
142
0.0
142
0.0008202099737533
142
0.0
142
0.0
142
0.0
142
0.0
142
1.0
142
0.0
142
0.0
142
0.0
142
0.0
142
1.0
179
     0
144
0.0008202099737533
144
0.0
144
0.0
144
0.0
144
0.0
144
0.0008202099737533
144
0.0
144
0.0
144
0.0
144
0.0
144
1.0
144
0.0
144
0.0
144
0.0
144
0.0
144
1.0
147
0.0008202099737533
147
0.0
147
0.0
147
0.0
147
0.0
147
0.0008202099737533
147
0.0
147
0.0
147
0.0
147
0.0
147
1.0
147
0.0
147
0.0
147
0.0
147
0.0
147
1.0
  0
MLEADERSTYLE
  5
3F0
102
{ACAD_REACTORS
330
3EF
102
}
330
3EF
100
AcDbMLeaderStyle
170
     2
171
     1
172
     0
 90
        2
 40
0.0
 41
0.0
173
     1
 91
-1056964608
340
14
 92
       -2
290
     1
 42
2.0
291
     1
 43
0.36
  3
Standard
 44
4.0
300

342
11
174
     1
178
     6
175
     1
176
     0
 93
-1056964608
 45
4.0
292
     0
297
     0
 46
4.0
 94
-1056964608
 47
1.0
 49
1.0
140
1.0
293
     1
141
0.0
294
     1
177
     0
142
1.0
295
     0
296
     0
143
0.125
1001
ACAD_MLEADERVER
1070
     2
  0
MLINESTYLE
  5
18
102
{ACAD_REACTORS
330
17
102
}
330
17
100
AcDbMlineStyle
  2
STANDARD
 70
     0
  3

 62
   256
 51
90.0
 52
90.0
 71
     2
 49
0.5
 62
   256
  6
BYLAYER
 49
-0.5
 62
   256
  6
BYLAYER
  0
ACDBPLACEHOLDER
  5
F
102
{ACAD_REACTORS
330
E
102
}
330
E
  0
SCALE
  5
3DE
102
{ACAD_REACTORS
330
3DD
102
}
330
3DD
100
AcDbScale
 70
     0
300
1:1
140
1.0
141
1.0
290
     1
  0
SCALE
  5
3DF
102
{ACAD_REACTORS
330
3DD
102
}
330
3DD
100
AcDbScale
 70
     0
300
1:2
140
1.0
141
2.0
290
     0
  0
SCALE
  5
3E0
102
{ACAD_REACTORS
330
3DD
102
}
330
3DD
100
AcDbScale
 70
     0
300
1:4
140
1.0
141
4.0
290
     0
  0
SCALE
  5
3E1
102
{ACAD_REACTORS
330
3DD
102
}
330
3DD
100
AcDbScale
 70
     0
300
1:5
140
1.0
141
5.0
290
     0
  0
SCALE
  5
3E2
102
{ACAD_REACTORS
330
3DD
102
}
330
3DD
100
AcDbScale
 70
     0
300
1:8
140
1.0
141
8.0
290
     0
  0
SCALE
  5
3E3
102
{ACAD_REACTORS
330
3DD
102
}
330
3DD
100
AcDbScale
 70
     0
300
1:10
140
1.0
141
10.0
290
     0
  0
SCALE
  5
3E4
102
{ACAD_REACTORS
330
3DD
102
}
330
3DD
100
AcDbScale
 70
     0
300
1:16
140
1.0
141
16.0
290
     0
  0
SCALE
  5
3E5
102
{ACAD_REACTORS
330
3DD
102
}
330
3DD
100
AcDbScale
 70
     0
300
1:20
140
1.0
141
20.0
290
     0
  0
SCALE
  5
3E6
102
{ACAD_REACTORS
330
3DD
102
}
330
3DD
100
AcDbScale
 70
     0
300
1:30
140
1.0
141
30.0
290
     0
  0
SCALE
  5
3E7
102
{ACAD_REACTORS
330
3DD
102
}
330
3DD
100
AcDbScale
 70
     0
300
1:40
140
1.0
141
40.0
290
     0
  0
SCALE
  5
3E8
102
{ACAD_REACTORS
330
3DD
102
}
330
3DD
100
AcDbScale
 70
     0
300
1:50
140
1.0
141
50.0
290
     0
  0
SCALE
  5
3E9
102
{ACAD_REACTORS
330
3DD
102
}
330
3DD
100
AcDbScale
 70
     0
300
1:100
140
1.0
141
100.0
290
     0
  0
SCALE
  5
3EA
102
{ACAD_REACTORS
330
3DD
102
}
330
3DD
100
AcDbScale
 70
     0
300
2:1
140
2.0
141
1.0
290
     0
  0
SCALE
  5
3EB
102
{ACAD_REACTORS
330
3DD
102
}
330
3DD
100
AcDbScale
 70
     0
300
4:1
140
4.0
141
1.0
290
     0
  0
SCALE
  5
3EC
102
{ACAD_REACTORS
330
3DD
102
}
330
3DD
100
AcDbScale
 70
     0
300
8:1
140
8.0
141
1.0
290
     0
  0
SCALE
  5
3ED
102
{ACAD_REACTORS
330
3DD
102
}
330
3DD
100
AcDbScale
 70
     0
300
10:1
140
10.0
141
1.0
290
     0
  0
SCALE
  5
3EE
102
{ACAD_REACTORS
330
3DD
102
}
330
3DD
100
AcDbScale
 70
     0
300
100:1
140
100.0
141
1.0
290
     0
  0
TABLESTYLE
  5
11B
102
{ACAD_XDICTIONARY
360
41B
102
}
102
{ACAD_REACTORS
330
11A
102
}
330
11A
100
AcDbTableStyle
  3
Standard
 70
     0
 71
     0
 40
1.5
 41
1.5
280
     0
281
     0
  7
STANDARD
140
4.5
170
     2
 62
     0
 63
     7
283
     0
274
    -2
284
     1
 64
     0
275
    -2
285
     1
 65
     0
276
    -2
286
     1
 66
     0
277
    -2
287
     1
 67
     0
278
    -2
288
     1
 68
     0
279
    -2
289
     1
 69
     0
  7
STANDARD
140
6.0
170
     5
 62
     0
 63
     7
283
     0
274
    -2
284
     1
 64
     0
275
    -2
285
     1
 65
     0
276
    -2
286
     1
 66
     0
277
    -2
287
     1
 67
     0
278
    -2
288
     1
 68
     0
279
    -2
289
     1
 69
     0
  7
STANDARD
140
4.5
170
     5
 62
     0
 63
     7
283
     0
274
    -2
284
     1
 64
     0
275
    -2
285
     1
 65
     0
276
    -2
286
     1
 66
     0
277
    -2
287
     1
 67
     0
278
    -2
288
     1
 68
     0
279
    -2
289
     1
 69
     0
  0
VISUALSTYLE
  5
3D2
102
{ACAD_XDICTIONARY
360
17AE
102
}
102
{ACAD_REACTORS
330
3CC
102
}
330
3CC
100
AcDbVisualStyle
  2

 70
     4
 71
     0
 72
     2
 73
     0
 90
        0
 40
-0.6
 41
-30.0
 62
     5
 63
     7
421
 16777215
 74
     1
 91
        4
 64
     7
 65
   257
 75
     1
175
     1
 42
1.0
 92
        0
 66
   257
 43
1.0
 76
     1
 77
     6
 78
     2
 67
     7
 79
     5
170
     0
171
     0
290
     0
174
     0
 93
        1
 44
0.0
173
     0
291
     0
 45
0.0
1001
ACAD
1000
AcDbSavedByObjectVersion
1070
     0
  0
VISUALSTYLE
  5
3D4
102
{ACAD_XDICTIONARY
360
17B2
102
}
102
{ACAD_REACTORS
330
3CC
102
}
330
3CC
100
AcDbVisualStyle
  2

 70
     6
 71
     1
 72
     2
 73
     2
 90
        0
 40
-0.6
 41
-30.0
 62
     5
 63
     7
421
 16777215
 74
     2
 91
        2
 64
     7
 65
   257
 75
     2
175
     1
 42
40.0
 92
        0
 66
   257
 43
1.0
 76
     1
 77
     6
 78
     2
 67
     7
 79
     3
170
     0
171
     0
290
     0
174
     0
 93
        1
 44
0.0
173
     0
291
     0
 45
0.0
1001
ACAD
1000
AcDbSavedByObjectVersion
1070
     0
  0
VISUALSTYLE
  5
3D3
102
{ACAD_XDICTIONARY
360
17B0
102
}
102
{ACAD_REACTORS
330
3CC
102
}
330
3CC
100
AcDbVisualStyle
  2

 70
     5
 71
     0
 72
     2
 73
     0
 90
        0
 40
-0.6
 41
-30.0
 62
     5
 63
     7
421
 16777215
 74
     1
 91
        4
 64
     7
 65
   257
 75
     1
175
     1
 42
1.0
 92
        0
 66
   257
 43
1.0
 76
     1
 77
     6
 78
     2
 67
     7
 79
     5
170
     0
171
     0
290
     0
174
     0
 93
        1
 44
0.0
173
     0
291
     0
 45
0.0
1001
ACAD
1000
AcDbSavedByObjectVersion
1070
     0
  0
VISUALSTYLE
  5
3D1
102
{ACAD_XDICTIONARY
360
17AC
102
}
102
{ACAD_REACTORS
330
3CC
102
}
330
3CC
100
AcDbVisualStyle
  2

 70
     7
 71
     1
 72
     0
 73
     1
 90
        0
 40
-0.6
 41
-30.0
 62
     5
 63
     7
421
 16777215
 74
     0
 91
        4
 64
     7
 65
   257
 75
     1
175
     1
 42
1.0
 92
        8
 66
     7
 43
1.0
 76
     1
 77
     6
 78
     2
 67
     7
 79
     5
170
     0
171
     0
290
     0
174
     0
 93
        1
 44
0.0
173
     0
291
     1
 45
0.0
1001
ACAD
1000
AcDbSavedByObjectVersion
1070
     0
  0
VISUALSTYLE
  5
3D8
102
{ACAD_XDICTIONARY
360
17BA
102
}
102
{ACAD_REACTORS
330
3CC
102
}
330
3CC
100
AcDbVisualStyle
  2

 70
    12
 71
     2
 72
     2
 73
     0
 90
        0
 40
-0.6
 41
-30.0
 62
     5
 63
     7
421
 16777215
 74
     1
 91
        4
 64
     7
 65
   257
 75
     1
175
     1
 42
1.0
 92
        8
 66
     7
 43
1.0
 76
     1
 77
     6
 78
     2
 67
     7
 79
     5
170
     0
171
     0
290
     0
174
     0
 93
        1
 44
50.0
173
     0
291
     1
 45
0.0
1001
ACAD
1000
AcDbSavedByObjectVersion
1070
     0
  0
VISUALSTYLE
  5
3DC
102
{ACAD_XDICTIONARY
360
17C2
102
}
102
{ACAD_REACTORS
330
3CC
102
}
330
3CC
100
AcDbVisualStyle
  2

 70
    16
 71
     2
 72
     2
 73
     3
 90
        0
 40
-0.6
 41
-30.0
 62
     5
 63
     8
421
  8421504
 74
     1
 91
        4
 64
     7
 65
   257
 75
     1
175
     1
 42
1.0
 92
        8
 66
     8
424
  8421504
 43
1.0
 76
     1
 77
     6
 78
     2
 67
     7
 79
     5
170
     0
171
     0
290
     0
174
     0
 93
        1
 44
0.0
173
     0
291
     1
 45
0.0
1001
ACAD
1000
AcDbSavedByObjectVersion
1070
     0
  0
VISUALSTYLE
  5
3D5
102
{ACAD_XDICTIONARY
360
17B4
102
}
102
{ACAD_REACTORS
330
3CC
102
}
330
3CC
100
AcDbVisualStyle
  2

 70
     9
 71
     3
 72
     2
 73
     0
 90
        0
 40
-0.6
 41
-30.0
 62
     5
 63
     7
421
 16777215
 74
     2
 91
        2
 64
     7
 65
   257
 75
     1
175
     1
 42
40.0
 92
        8
 66
     7
 43
1.0
 76
     1
 77
     6
 78
     2
 67
     7
 79
     3
170
     0
171
     0
290
     0
174
     0
 93
        1
 44
0.0
173
     0
291
     0
 45
0.0
1001
ACAD
1000
AcDbSavedByObjectVersion
1070
     0
  0
VISUALSTYLE
  5
3D7
102
{ACAD_XDICTIONARY
360
17B8
102
}
102
{ACAD_REACTORS
330
3CC
102
}
330
3CC
100
AcDbVisualStyle
  2

 70
    11
 71
     2
 72
     2
 73
     0
 90
        0
 40
-0.6
 41
-30.0
 62
     5
 63
     7
421
 16777215
 74
     1
 91
        4
 64
     7
 65
   257
 75
     1
175
     1
 42
1.0
 92
        8
 66
     7
 43
1.0
 76
     1
 77
     6
 78
     2
 67
     7
 79
     5
170
     0
171
     0
290
     0
174
     0
 93
        1
 44
-50.0
173
     0
291
     1
 45
0.0
1001
ACAD
1000
AcDbSavedByObjectVersion
1070
     0
  0
VISUALSTYLE
  5
1531
102
{ACAD_XDICTIONARY
360
17C8
102
}
102
{ACAD_REACTORS
330
3CC
102
}
330
3CC
100
AcDbVisualStyle
  2
EdgeColorOff
 70
    22
 71
     2
 72
     2
 73
     0
 90
        0
 40
-0.6
 41
-30.0
 62
     5
 63
     7
421
 16777215
 74
     1
 91
        4
 64
     7
 65
   257
 75
     1
175
     1
 42
1.0
 92
        8
 66
     7
 43
1.0
 76
     1
 77
     6
 78
     2
 67
     7
 79
     5
170
     0
171
     0
290
     0
174
     0
 93
        1
 44
0.0
173
     0
291
     1
 45
0.0
1001
ACAD
1000
AcDbSavedByObjectVersion
1070
     0
  0
VISUALSTYLE
  5
3DB
102
{ACAD_XDICTIONARY
360
17C0
102
}
102
{ACAD_REACTORS
330
3CC
102
}
330
3CC
100
AcDbVisualStyle
  2

 70
    15
 71
     2
 72
     2
 73
     0
 90
        0
 40
-0.6
 41
-30.0
 62
     5
 63
     7
421
 16777215
 74
     1
 91
        4
 64
     7
 65
   257
 75
     1
175
     1
 42
1.0
 92
        8
 66
     7
 43
1.0
 76
     1
 77
     6
 78
     2
 67
     7
 79
     5
170
     0
171
     0
290
     0
174
     0
 93
        1
 44
0.0
173
     0
291
     1
 45
0.0
1001
ACAD
1000
AcDbSavedByObjectVersion
1070
     0
  0
VISUALSTYLE
  5
3CD
102
{ACAD_XDICTIONARY
360
17A4
102
}
102
{ACAD_REACTORS
330
3CC
102
}
330
3CC
100
AcDbVisualStyle
  2

 70
     0
 71
     2
 72
     1
 73
     1
 90
        2
 40
-0.6
 41
30.0
 62
     5
 63
     7
421
 16777215
 74
     0
 91
        4
 64
     7
 65
   257
 75
     1
175
     1
 42
1.0
 92
        8
 66
     7
 43
1.0
 76
     1
 77
     6
 78
     2
 67
     7
 79
     5
170
     0
171
     0
290
     0
174
     0
 93
       13
 44
0.0
173
     0
291
     1
 45
0.0
1001
ACAD
1000
AcDbSavedByObjectVersion
1070
     0
  0
VISUALSTYLE
  5
3CE
102
{ACAD_XDICTIONARY
360
17A6
102
}
102
{ACAD_REACTORS
330
3CC
102
}
330
3CC
100
AcDbVisualStyle
  2

 70
     1
 71
     2
 72
     1
 73
     1
 90
        2
 40
-0.6
 41
30.0
 62
     5
 63
     7
421
 16777215
 74
     1
 91
        4
 64
     7
 65
   257
 75
     1
175
     1
 42
1.0
 92
        0
 66
   257
 43
1.0
 76
     1
 77
     6
 78
     2
 67
     7
 79
     5
170
     0
171
     0
290
     0
174
     0
 93
       13
 44
0.0
173
     0
291
     1
 45
0.0
1001
ACAD
1000
AcDbSavedByObjectVersion
1070
     0
  0
VISUALSTYLE
  5
3CF
102
{ACAD_XDICTIONARY
360
17A8
102
}
102
{ACAD_REACTORS
330
3CC
102
}
330
3CC
100
AcDbVisualStyle
  2

 70
     2
 71
     2
 72
     2
 73
     1
 90
        2
 40
-0.6
 41
30.0
 62
     5
 63
     7
421
 16777215
 74
     0
 91
        4
 64
     7
 65
   257
 75
     1
175
     1
 42
1.0
 92
        0
 66
     7
 43
1.0
 76
     1
 77
     6
 78
     2
 67
     7
 79
     5
170
     0
171
     0
290
     0
174
     0
 93
       13
 44
0.0
173
     0
291
     1
 45
0.0
1001
ACAD
1000
AcDbSavedByObjectVersion
1070
     0
  0
VISUALSTYLE
  5
3D0
102
{ACAD_XDICTIONARY
360
17AA
102
}
102
{ACAD_REACTORS
330
3CC
102
}
330
3CC
100
AcDbVisualStyle
  2

 70
     3
 71
     2
 72
     2
 73
     1
 90
        2
 40
-0.6
 41
30.0
 62
     5
 63
     7
421
 16777215
 74
     1
 91
        4
 64
     7
 65
   257
 75
     1
175
     1
 42
1.0
 92
        0
 66
   257
 43
1.0
 76
     1
 77
     6
 78
     2
 67
     7
 79
     5
170
     0
171
     0
290
     0
174
     0
 93
       13
 44
0.0
173
     0
291
     1
 45
0.0
1001
ACAD
1000
AcDbSavedByObjectVersion
1070
     0
  0
VISUALSTYLE
  5
152F
102
{ACAD_XDICTIONARY
360
17C4
102
}
102
{ACAD_REACTORS
330
3CC
102
}
330
3CC
100
AcDbVisualStyle
  2
JitterOff
 70
    20
 71
     2
 72
     2
 73
     0
 90
        0
 40
-0.6
 41
-30.0
 62
     5
 63
     7
421
 16777215
 74
     1
 91
        4
 64
     7
 65
   257
 75
     1
175
     1
 42
1.0
 92
       10
 66
     7
 43
1.0
 76
     1
 77
     6
 78
     2
 67
     7
 79
     5
170
     0
171
     0
290
     0
174
     0
 93
        1
 44
0.0
173
     0
291
     1
 45
0.0
1001
ACAD
1000
AcDbSavedByObjectVersion
1070
     0
  0
VISUALSTYLE
  5
3DA
102
{ACAD_XDICTIONARY
360
17BE
102
}
102
{ACAD_REACTORS
330
3CC
102
}
330
3CC
100
AcDbVisualStyle
  2

 70
    14
 71
     2
 72
     2
 73
     0
 90
        0
 40
-0.6
 41
-30.0
 62
     5
 63
     7
421
 16777215
 74
     1
 91
        4
 64
     7
 65
   257
 75
     7
175
     7
 42
1.0
 92
        8
 66
     7
 43
1.0
 76
     1
 77
     6
 78
     2
 67
     7
 79
     5
170
     0
171
     0
290
     0
174
     0
 93
        1
 44
0.0
173
     0
291
     1
 45
0.0
1001
ACAD
1000
AcDbSavedByObjectVersion
1070
     0
  0
VISUALSTYLE
  5
1530
102
{ACAD_XDICTIONARY
360
17C6
102
}
102
{ACAD_REACTORS
330
3CC
102
}
330
3CC
100
AcDbVisualStyle
  2
OverhangOff
 70
    21
 71
     2
 72
     2
 73
     0
 90
        0
 40
-0.6
 41
-30.0
 62
     5
 63
     7
421
 16777215
 74
     1
 91
        4
 64
     7
 65
   257
 75
     1
175
     1
 42
1.0
 92
        9
 66
     7
 43
1.0
 76
     1
 77
     6
 78
     2
 67
     7
 79
     5
170
     0
171
     0
290
     0
174
     0
 93
        1
 44
0.0
173
     0
291
     1
 45
0.0
1001
ACAD
1000
AcDbSavedByObjectVersion
1070
     0
  0
VISUALSTYLE
  5
3D6
102
{ACAD_XDICTIONARY
360
17B6
102
}
102
{ACAD_REACTORS
330
3CC
102
}
330
3CC
100
AcDbVisualStyle
  2

 70
     8
 71
     2
 72
     2
 73
     0
 90
        0
 40
-0.6
 41
-30.0
 62
     5
 63
     7
421
 16777215
 74
     1
 91
        0
 64
     7
 65
   257
 75
     1
175
     1
 42
1.0
 92
        8
 66
     8
424
  7895160
 43
1.0
 76
     1
 77
     6
 78
     2
 67
     7
 79
     5
170
     0
171
     0
290
     0
174
     0
 93
       13
 44
0.0
173
     0
291
     0
 45
0.0
1001
ACAD
1000
AcDbSavedByObjectVersion
1070
     0
  0
VISUALSTYLE
  5
3D9
102
{ACAD_XDICTIONARY
360
17BC
102
}
102
{ACAD_REACTORS
330
3CC
102
}
330
3CC
100
AcDbVisualStyle
  2

 70
    13
 71
     2
 72
     2
 73
     0
 90
        0
 40
-0.6
 41
-30.0
 62
     5
 63
     7
421
 16777215
 74
     1
 91
        4
 64
     7
 65
   257
 75
     1
175
     1
 42
1.0
 92
       12
 66
     7
 43
1.0
 76
     1
 77
     6
 78
     2
 67
     7
 79
     5
170
     0
171
     0
290
     0
174
     0
 93
        1
 44
0.0
173
     0
291
     1
 45
0.0
1001
ACAD
1000
AcDbSavedByObjectVersion
1070
     0
  0
DICTIONARYVAR
  5
420
102
{ACAD_REACTORS
330
94
102
}
330
94
100
DictionaryVariables
280
     0
  1
1:1
  0
DICTIONARYVAR
  5
41E
102
{ACAD_REACTORS
330
94
102
}
330
94
100
DictionaryVariables
280
     0
  1
STANDARD
  0
DICTIONARYVAR
  5
138
102
{ACAD_REACTORS
330
94
102
}
330
94
100
DictionaryVariables
280
     0
  1
STANDARD
  0
DICTIONARYVAR
  5
96
102
{ACAD_REACTORS
330
94
102
}
330
94
100
DictionaryVariables
280
     0
  1
2
  0
DICTIONARYVAR
  5
95
102
{ACAD_REACTORS
330
94
102
}
330
94
100
DictionaryVariables
280
     0
  1
1
  0
DICTIONARYVAR
  5
422
102
{ACAD_REACTORS
330
94
102
}
330
94
100
DictionaryVariables
280
     0
  1
1
  0
DICTIONARYVAR
  5
423
102
{ACAD_REACTORS
330
94
102
}
330
94
100
DictionaryVariables
280
     0
  1
15
  0
DICTIONARYVAR
  5
421
102
{ACAD_REACTORS
330
94
102
}
330
94
100
DictionaryVariables
280
     0
  1
0
  0
DICTIONARYVAR
  5
41F
102
{ACAD_REACTORS
330
94
102
}
330
94
100
DictionaryVariables
280
     0
  1
0
  0
DICTIONARY
  5
272
102
{ACAD_REACTORS
330
5B
102
}
330
5B
100
AcDbDictionary
281
     1
  0
DICTIONARY
  5
61
102
{ACAD_REACTORS
330
5B
102
}
330
5B
100
AcDbDictionary
281
     1
  0
XRECORD
  5
123
102
{ACAD_REACTORS
330
5B
102
}
330
5B
100
AcDbXrecord
280
     1
 90
-1023410169
  0
DICTIONARY
  5
3BD
330
3BC
100
AcDbDictionary
280
     1
281
     1
  3
ACAD_XREC_ROUNDTRIP
360
1528
  3
BUMPTILE
360
3BF
  3
DIFFUSETILE
360
3BE
  3
OPACITYTILE
360
3C2
  3
REFLECTIONTILE
360
3C1
  3
REFRACTIONTILE
360
3C3
  3
SPECULARTILE
360
3C0
  0
DICTIONARY
  5
3B5
330
3B4
100
AcDbDictionary
280
     1
281
     1
  3
ACAD_XREC_ROUNDTRIP
360
1527
  3
BUMPTILE
360
3B7
  3
DIFFUSETILE
360
3B6
  3
OPACITYTILE
360
3BA
  3
REFLECTIONTILE
360
3B9
  3
REFRACTIONTILE
360
3BB
  3
SPECULARTILE
360
3B8
  0
DICTIONARY
  5
3C5
330
3C4
100
AcDbDictionary
280
     1
281
     1
  3
ACAD_XREC_ROUNDTRIP
360
1529
  3
BUMPTILE
360
3C7
  3
DIFFUSETILE
360
3C6
  3
OPACITYTILE
360
3CA
  3
REFLECTIONTILE
360
3C9
  3
REFRACTIONTILE
360
3CB
  3
SPECULARTILE
360
3C8
  0
DICTIONARY
  5
41B
330
11B
100
AcDbDictionary
280
     1
281
     1
  3
ACAD_ROUNDTRIP_2008_TABLESTYLE_CELLSTYLEMAP
360
179E
  3
ACAD_XREC_ROUNDTRIP
360
17A3
  0
DICTIONARY
  5
17AE
330
3D2
100
AcDbDictionary
280
     1
281
     1
  3
ACAD_XREC_ROUNDTRIP
360
17AF
  0
DICTIONARY
  5
17B2
330
3D4
100
AcDbDictionary
280
     1
281
     1
  3
ACAD_XREC_ROUNDTRIP
360
17B3
  0
DICTIONARY
  5
17B0
330
3D3
100
AcDbDictionary
280
     1
281
     1
  3
ACAD_XREC_ROUNDTRIP
360
17B1
  0
DICTIONARY
  5
17AC
330
3D1
100
AcDbDictionary
280
     1
281
     1
  3
ACAD_XREC_ROUNDTRIP
360
17AD
  0
DICTIONARY
  5
17BA
330
3D8
100
AcDbDictionary
280
     1
281
     1
  3
ACAD_XREC_ROUNDTRIP
360
17BB
  0
DICTIONARY
  5
17C2
330
3DC
100
AcDbDictionary
280
     1
281
     1
  3
ACAD_XREC_ROUNDTRIP
360
17C3
  0
DICTIONARY
  5
17B4
330
3D5
100
AcDbDictionary
280
     1
281
     1
  3
ACAD_XREC_ROUNDTRIP
360
17B5
  0
DICTIONARY
  5
17B8
330
3D7
100
AcDbDictionary
280
     1
281
     1
  3
ACAD_XREC_ROUNDTRIP
360
17B9
  0
DICTIONARY
  5
17C8
330
1531
100
AcDbDictionary
280
     1
281
     1
  3
ACAD_XREC_ROUNDTRIP
360
17C9
  0
DICTIONARY
  5
17C0
330
3DB
100
AcDbDictionary
280
     1
281
     1
  3
ACAD_XREC_ROUNDTRIP
360
17C1
  0
DICTIONARY
  5
17A4
330
3CD
100
AcDbDictionary
280
     1
281
     1
  3
ACAD_XREC_ROUNDTRIP
360
17A5
  0
DICTIONARY
  5
17A6
330
3CE
100
AcDbDictionary
280
     1
281
     1
  3
ACAD_XREC_ROUNDTRIP
360
17A7
  0
DICTIONARY
  5
17A8
330
3CF
100
AcDbDictionary
280
     1
281
     1
  3
ACAD_XREC_ROUNDTRIP
360
17A9
  0
DICTIONARY
  5
17AA
330
3D0
100
AcDbDictionary
280
     1
281
     1
  3
ACAD_XREC_ROUNDTRIP
360
17AB
  0
DICTIONARY
  5
17C4
330
152F
100
AcDbDictionary
280
     1
281
     1
  3
ACAD_XREC_ROUNDTRIP
360
17C5
  0
DICTIONARY
  5
17BE
330
3DA
100
AcDbDictionary
280
     1
281
     1
  3
ACAD_XREC_ROUNDTRIP
360
17BF
  0
DICTIONARY
  5
17C6
330
1530
100
AcDbDictionary
280
     1
281
     1
  3
ACAD_XREC_ROUNDTRIP
360
17C7
  0
DICTIONARY
  5
17B6
330
3D6
100
AcDbDictionary
280
     1
281
     1
  3
ACAD_XREC_ROUNDTRIP
360
17B7
  0
DICTIONARY
  5
17BC
330
3D9
100
AcDbDictionary
280
     1
281
     1
  3
ACAD_XREC_ROUNDTRIP
360
17BD
  0
XRECORD
  5
1528
102
{ACAD_REACTORS
330
3BD
102
}
330
3BD
100
AcDbXrecord
280
     1
102
MATERIAL
148
0.0
149
0.0
149
0.0
 93
        0
 94
      127
282
     0
 72
     0
 77
     0
171
     0
175
     0
179
     0
273
     0
  0
XRECORD
  5
3BF
102
{ACAD_REACTORS
330
3BD
102
}
330
3BD
100
AcDbXrecord
280
     1
270
     1
271
     1
  0
XRECORD
  5
3BE
102
{ACAD_REACTORS
330
3BD
102
}
330
3BD
100
AcDbXrecord
280
     1
270
     1
271
     1
  0
XRECORD
  5
3C2
102
{ACAD_REACTORS
330
3BD
102
}
330
3BD
100
AcDbXrecord
280
     1
270
     1
271
     1
  0
XRECORD
  5
3C1
102
{ACAD_REACTORS
330
3BD
102
}
330
3BD
100
AcDbXrecord
280
     1
270
     1
271
     1
  0
XRECORD
  5
3C3
102
{ACAD_REACTORS
330
3BD
102
}
330
3BD
100
AcDbXrecord
280
     1
270
     1
271
     1
  0
XRECORD
  5
3C0
102
{ACAD_REACTORS
330
3BD
102
}
330
3BD
100
AcDbXrecord
280
     1
270
     1
271
     1
  0
XRECORD
  5
1527
102
{ACAD_REACTORS
330
3B5
102
}
330
3B5
100
AcDbXrecord
280
     1
102
MATERIAL
148
0.0
149
0.0
149
0.0
 93
        0
 94
      127
282
     0
 72
     0
 77
     0
171
     0
175
     0
179
     0
273
     0
  0
XRECORD
  5
3B7
102
{ACAD_REACTORS
330
3B5
102
}
330
3B5
100
AcDbXrecord
280
     1
270
     1
271
     1
  0
XRECORD
  5
3B6
102
{ACAD_REACTORS
330
3B5
102
}
330
3B5
100
AcDbXrecord
280
     1
270
     1
271
     1
  0
XRECORD
  5
3BA
102
{ACAD_REACTORS
330
3B5
102
}
330
3B5
100
AcDbXrecord
280
     1
270
     1
271
     1
  0
XRECORD
  5
3B9
102
{ACAD_REACTORS
330
3B5
102
}
330
3B5
100
AcDbXrecord
280
     1
270
     1
271
     1
  0
XRECORD
  5
3BB
102
{ACAD_REACTORS
330
3B5
102
}
330
3B5
100
AcDbXrecord
280
     1
270
     1
271
     1
  0
XRECORD
  5
3B8
102
{ACAD_REACTORS
330
3B5
102
}
330
3B5
100
AcDbXrecord
280
     1
270
     1
271
     1
  0
XRECORD
  5
1529
102
{ACAD_REACTORS
330
3C5
102
}
330
3C5
100
AcDbXrecord
280
     1
102
MATERIAL
148
0.0
149
0.0
149
0.0
 93
        0
 94
      127
282
     0
 72
     0
 77
     0
171
     0
175
     0
179
     0
273
     0
  0
XRECORD
  5
3C7
102
{ACAD_REACTORS
330
3C5
102
}
330
3C5
100
AcDbXrecord
280
     1
270
     1
271
     1
  0
XRECORD
  5
3C6
102
{ACAD_REACTORS
330
3C5
102
}
330
3C5
100
AcDbXrecord
280
     1
270
     1
271
     1
  0
XRECORD
  5
3CA
102
{ACAD_REACTORS
330
3C5
102
}
330
3C5
100
AcDbXrecord
280
     1
270
     1
271
     1
  0
XRECORD
  5
3C9
102
{ACAD_REACTORS
330
3C5
102
}
330
3C5
100
AcDbXrecord
280
     1
270
     1
271
     1
  0
XRECORD
  5
3CB
102
{ACAD_REACTORS
330
3C5
102
}
330
3C5
100
AcDbXrecord
280
     1
270
     1
271
     1
  0
XRECORD
  5
3C8
102
{ACAD_REACTORS
330
3C5
102
}
330
3C5
100
AcDbXrecord
280
     1
270
     1
271
     1
  0
CELLSTYLEMAP
  5
179E
102
{ACAD_REACTORS
330
41B
102
}
330
41B
100
AcDbCellStyleMap
 90
        3
300
CELLSTYLE
  1
TABLEFORMAT_BEGIN
 90
        5
170
     1
 91
        0
 92
    32768
 62
   257
 93
        1
300
CONTENTFORMAT
  1
CONTENTFORMAT_BEGIN
 90
        0
 91
        0
 92
        4
 93
        0
300

 40
0.0
140
1.0
 94
        5
 62
     0
340
11
144
6.0
309
CONTENTFORMAT_END
171
     1
301
MARGIN
  1
CELLMARGIN_BEGIN
 40
1.5
 40
1.5
 40
1.5
 40
1.5
 40
0.18
 40
0.18
309
CELLMARGIN_END
 94
        6
 95
        1
302
GRIDFORMAT
  1
GRIDFORMAT_BEGIN
 90
        0
 91
        1
 62
     0
 92
       -2
340
0
 93
        0
 40
0.045
309
GRIDFORMAT_END
 95
        2
302
GRIDFORMAT
  1
GRIDFORMAT_BEGIN
 90
        0
 91
        1
 62
     0
 92
       -2
340
0
 93
        0
 40
0.045
309
GRIDFORMAT_END
 95
        4
302
GRIDFORMAT
  1
GRIDFORMAT_BEGIN
 90
        0
 91
        1
 62
     0
 92
       -2
340
0
 93
        0
 40
0.045
309
GRIDFORMAT_END
 95
        8
302
GRIDFORMAT
  1
GRIDFORMAT_BEGIN
 90
        0
 91
        1
 62
     0
 92
       -2
340
0
 93
        0
 40
0.045
309
GRIDFORMAT_END
 95
       16
302
GRIDFORMAT
  1
GRIDFORMAT_BEGIN
 90
        0
 91
        1
 62
     0
 92
       -2
340
0
 93
        0
 40
0.045
309
GRIDFORMAT_END
 95
       32
302
GRIDFORMAT
  1
GRIDFORMAT_BEGIN
 90
        0
 91
        1
 62
     0
 92
       -2
340
0
 93
        0
 40
0.045
309
GRIDFORMAT_END
309
TABLEFORMAT_END
  1
CELLSTYLE_BEGIN
 90
        1
 91
        1
300
_TITLE
309
CELLSTYLE_END
300
CELLSTYLE
  1
TABLEFORMAT_BEGIN
 90
        5
170
     1
 91
        0
 92
        0
 62
   257
 93
        1
300
CONTENTFORMAT
  1
CONTENTFORMAT_BEGIN
 90
        0
 91
        0
 92
        4
 93
        0
300

 40
0.0
140
1.0
 94
        5
 62
     0
340
11
144
4.5
309
CONTENTFORMAT_END
171
     1
301
MARGIN
  1
CELLMARGIN_BEGIN
 40
1.5
 40
1.5
 40
1.5
 40
1.5
 40
0.18
 40
0.18
309
CELLMARGIN_END
 94
        6
 95
        1
302
GRIDFORMAT
  1
GRIDFORMAT_BEGIN
 90
        0
 91
        1
 62
     0
 92
       -2
340
0
 93
        0
 40
0.045
309
GRIDFORMAT_END
 95
        2
302
GRIDFORMAT
  1
GRIDFORMAT_BEGIN
 90
        0
 91
        1
 62
     0
 92
       -2
340
0
 93
        0
 40
0.045
309
GRIDFORMAT_END
 95
        4
302
GRIDFORMAT
  1
GRIDFORMAT_BEGIN
 90
        0
 91
        1
 62
     0
 92
       -2
340
0
 93
        0
 40
0.045
309
GRIDFORMAT_END
 95
        8
302
GRIDFORMAT
  1
GRIDFORMAT_BEGIN
 90
        0
 91
        1
 62
     0
 92
       -2
340
0
 93
        0
 40
0.045
309
GRIDFORMAT_END
 95
       16
302
GRIDFORMAT
  1
GRIDFORMAT_BEGIN
 90
        0
 91
        1
 62
     0
 92
       -2
340
0
 93
        0
 40
0.045
309
GRIDFORMAT_END
 95
       32
302
GRIDFORMAT
  1
GRIDFORMAT_BEGIN
 90
        0
 91
        1
 62
     0
 92
       -2
340
0
 93
        0
 40
0.045
309
GRIDFORMAT_END
309
TABLEFORMAT_END
  1
CELLSTYLE_BEGIN
 90
        2
 91
        1
300
_HEADER
309
CELLSTYLE_END
300
CELLSTYLE
  1
TABLEFORMAT_BEGIN
 90
        5
170
     1
 91
        0
 92
        0
 62
   257
 93
        1
300
CONTENTFORMAT
  1
CONTENTFORMAT_BEGIN
 90
        0
 91
        0
 92
        4
 93
        0
300

 40
0.0
140
1.0
 94
        2
 62
     0
340
11
144
4.5
309
CONTENTFORMAT_END
171
     1
301
MARGIN
  1
CELLMARGIN_BEGIN
 40
1.5
 40
1.5
 40
1.5
 40
1.5
 40
0.18
 40
0.18
309
CELLMARGIN_END
 94
        6
 95
        1
302
GRIDFORMAT
  1
GRIDFORMAT_BEGIN
 90
        0
 91
        1
 62
     0
 92
       -2
340
0
 93
        0
 40
0.045
309
GRIDFORMAT_END
 95
        2
302
GRIDFORMAT
  1
GRIDFORMAT_BEGIN
 90
        0
 91
        1
 62
     0
 92
       -2
340
0
 93
        0
 40
0.045
309
GRIDFORMAT_END
 95
        4
302
GRIDFORMAT
  1
GRIDFORMAT_BEGIN
 90
        0
 91
        1
 62
     0
 92
       -2
340
0
 93
        0
 40
0.045
309
GRIDFORMAT_END
 95
        8
302
GRIDFORMAT
  1
GRIDFORMAT_BEGIN
 90
        0
 91
        1
 62
     0
 92
       -2
340
0
 93
        0
 40
0.045
309
GRIDFORMAT_END
 95
       16
302
GRIDFORMAT
  1
GRIDFORMAT_BEGIN
 90
        0
 91
        1
 62
     0
 92
       -2
340
0
 93
        0
 40
0.045
309
GRIDFORMAT_END
 95
       32
302
GRIDFORMAT
  1
GRIDFORMAT_BEGIN
 90
        0
 91
        1
 62
     0
 92
       -2
340
0
 93
        0
 40
0.045
309
GRIDFORMAT_END
309
TABLEFORMAT_END
  1
CELLSTYLE_BEGIN
 90
        3
 91
        2
300
_DATA
309
CELLSTYLE_END
  0
XRECORD
  5
17A3
102
{ACAD_REACTORS
330
41B
102
}
330
41B
100
AcDbXrecord
280
     1
102
ACAD_ROUNDTRIP_PRE2007_TABLESTYLE
 90
        4
 91
        0
  1

 92
        4
 93
        0
  2

 94
        4
 95
        0
  3

  0
XRECORD
  5
17AF
102
{ACAD_REACTORS
330
17AE
102
}
330
17AE
100
AcDbXrecord
280
     1
102
RTVSPropertyOp0
 70
     1
102
RTVSPropertyOp1
 70
     1
102
RTVSPropertyOp2
 70
     1
102
RTVSPropertyOp3
 70
     1
102
RTVSPropertyOp4
 70
     1
102
RTVSPropertyOp5
 70
     1
102
RTVSPropertyOp6
 70
     1
102
RTVSPropertyOp7
 70
     1
102
RTVSPropertyOp8
 70
     1
102
RTVSPropertyOp9
 70
     1
102
RTVSPropertyOp10
 70
     1
102
RTVSPropertyOp11
 70
     1
102
RTVSPropertyOp12
 70
     1
102
RTVSPropertyOp13
 70
     1
102
RTVSPropertyOp14
 70
     1
102
RTVSPropertyOp15
 70
     1
102
RTVSPropertyOp16
 70
     1
102
RTVSPropertyOp17
 70
     1
102
RTVSPropertyOp18
 70
     1
102
RTVSPropertyOp19
 70
     1
102
RTVSPropertyOp20
 70
     1
102
RTVSPropertyOp21
 70
     1
102
RTVSPropertyOp22
 70
     1
102
RTVSPropertyOp23
 70
     1
102
RTVSPropertyOp24
 70
     1
102
RTVSPropertyOp25
 70
     1
102
RTVSPropertyOp26
 70
     1
102
RTVSPropertyOp27
 70
     1
  0
XRECORD
  5
17B3
102
{ACAD_REACTORS
330
17B2
102
}
330
17B2
100
AcDbXrecord
280
     1
102
RTVSPropertyOp0
 70
     1
102
RTVSPropertyOp1
 70
     1
102
RTVSPropertyOp2
 70
     1
102
RTVSPropertyOp3
 70
     1
102
RTVSPropertyOp4
 70
     1
102
RTVSPropertyOp5
 70
     1
102
RTVSPropertyOp6
 70
     1
102
RTVSPropertyOp7
 70
     1
102
RTVSPropertyOp8
 70
     1
102
RTVSPropertyOp9
 70
     1
102
RTVSPropertyOp10
 70
     1
102
RTVSPropertyOp11
 70
     1
102
RTVSPropertyOp12
 70
     1
102
RTVSPropertyOp13
 70
     1
102
RTVSPropertyOp14
 70
     1
102
RTVSPropertyOp15
 70
     1
102
RTVSPropertyOp16
 70
     1
102
RTVSPropertyOp17
 70
     1
102
RTVSPropertyOp18
 70
     1
102
RTVSPropertyOp19
 70
     1
102
RTVSPropertyOp20
 70
     1
102
RTVSPropertyOp21
 70
     1
102
RTVSPropertyOp22
 70
     1
102
RTVSPropertyOp23
 70
     1
102
RTVSPropertyOp24
 70
     1
102
RTVSPropertyOp25
 70
     1
102
RTVSPropertyOp26
 70
     1
102
RTVSPropertyOp27
 70
     1
  0
XRECORD
  5
17B1
102
{ACAD_REACTORS
330
17B0
102
}
330
17B0
100
AcDbXrecord
280
     1
102
RTVSPropertyOp0
 70
     1
102
RTVSPropertyOp1
 70
     1
102
RTVSPropertyOp2
 70
     1
102
RTVSPropertyOp3
 70
     1
102
RTVSPropertyOp4
 70
     1
102
RTVSPropertyOp5
 70
     1
102
RTVSPropertyOp6
 70
     1
102
RTVSPropertyOp7
 70
     1
102
RTVSPropertyOp8
 70
     1
102
RTVSPropertyOp9
 70
     1
102
RTVSPropertyOp10
 70
     1
102
RTVSPropertyOp11
 70
     1
102
RTVSPropertyOp12
 70
     1
102
RTVSPropertyOp13
 70
     1
102
RTVSPropertyOp14
 70
     1
102
RTVSPropertyOp15
 70
     1
102
RTVSPropertyOp16
 70
     1
102
RTVSPropertyOp17
 70
     1
102
RTVSPropertyOp18
 70
     1
102
RTVSPropertyOp19
 70
     1
102
RTVSPropertyOp20
 70
     1
102
RTVSPropertyOp21
 70
     1
102
RTVSPropertyOp22
 70
     1
102
RTVSPropertyOp23
 70
     1
102
RTVSPropertyOp24
 70
     1
102
RTVSPropertyOp25
 70
     1
102
RTVSPropertyOp26
 70
     1
102
RTVSPropertyOp27
 70
     1
  0
XRECORD
  5
17AD
102
{ACAD_REACTORS
330
17AC
102
}
330
17AC
100
AcDbXrecord
280
     1
102
RTVSPropertyOp0
 70
     1
102
RTVSPropertyOp1
 70
     1
102
RTVSPropertyOp2
 70
     1
102
RTVSPropertyOp3
 70
     1
102
RTVSPropertyOp4
 70
     1
102
RTVSPropertyOp5
 70
     1
102
RTVSPropertyOp6
 70
     1
102
RTVSPropertyOp7
 70
     1
102
RTVSPropertyOp8
 70
     1
102
RTVSPropertyOp9
 70
     1
102
RTVSPropertyOp10
 70
     1
102
RTVSPropertyOp11
 70
     1
102
RTVSPropertyOp12
 70
     1
102
RTVSPropertyOp13
 70
     1
102
RTVSPropertyOp14
 70
     1
102
RTVSPropertyOp15
 70
     1
102
RTVSPropertyOp16
 70
     1
102
RTVSPropertyOp17
 70
     1
102
RTVSPropertyOp18
 70
     1
102
RTVSPropertyOp19
 70
     1
102
RTVSPropertyOp20
 70
     1
102
RTVSPropertyOp21
 70
     1
102
RTVSPropertyOp22
 70
     1
102
RTVSPropertyOp23
 70
     1
102
RTVSPropertyOp24
 70
     1
102
RTVSPropertyOp25
 70
     1
102
RTVSPropertyOp26
 70
     1
102
RTVSPropertyOp27
 70
     1
  0
XRECORD
  5
17BB
102
{ACAD_REACTORS
330
17BA
102
}
330
17BA
100
AcDbXrecord
280
     1
102
RTVSPropertyOp0
 70
     1
102
RTVSPropertyOp1
 70
     1
102
RTVSPropertyOp2
 70
     1
102
RTVSPropertyOp3
 70
     1
102
RTVSPropertyOp4
 70
     1
102
RTVSPropertyOp5
 70
     1
102
RTVSPropertyOp6
 70
     1
102
RTVSPropertyOp7
 70
     1
102
RTVSPropertyOp8
 70
     1
102
RTVSPropertyOp9
 70
     1
102
RTVSPropertyOp10
 70
     1
102
RTVSPropertyOp11
 70
     1
102
RTVSPropertyOp12
 70
     1
102
RTVSPropertyOp13
 70
     1
102
RTVSPropertyOp14
 70
     1
102
RTVSPropertyOp15
 70
     1
102
RTVSPropertyOp16
 70
     1
102
RTVSPropertyOp17
 70
     1
102
RTVSPropertyOp18
 70
     1
102
RTVSPropertyOp19
 70
     1
102
RTVSPropertyOp20
 70
     1
102
RTVSPropertyOp21
 70
     1
102
RTVSPropertyOp22
 70
     1
102
RTVSPropertyOp23
 70
     1
102
RTVSPropertyOp24
 70
     1
102
RTVSPropertyOp25
 70
     1
102
RTVSPropertyOp26
 70
     1
102
RTVSPropertyOp27
 70
     1
  0
XRECORD
  5
17C3
102
{ACAD_REACTORS
330
17C2
102
}
330
17C2
100
AcDbXrecord
280
     1
102
RTVSPropertyOp0
 70
     1
102
RTVSPropertyOp1
 70
     1
102
RTVSPropertyOp2
 70
     1
102
RTVSPropertyOp3
 70
     1
102
RTVSPropertyOp4
 70
     1
102
RTVSPropertyOp5
 70
     1
102
RTVSPropertyOp6
 70
     1
102
RTVSPropertyOp7
 70
     1
102
RTVSPropertyOp8
 70
     1
102
RTVSPropertyOp9
 70
     1
102
RTVSPropertyOp10
 70
     1
102
RTVSPropertyOp11
 70
     1
102
RTVSPropertyOp12
 70
     1
102
RTVSPropertyOp13
 70
     1
102
RTVSPropertyOp14
 70
     1
102
RTVSPropertyOp15
 70
     1
102
RTVSPropertyOp16
 70
     1
102
RTVSPropertyOp17
 70
     1
102
RTVSPropertyOp18
 70
     1
102
RTVSPropertyOp19
 70
     1
102
RTVSPropertyOp20
 70
     1
102
RTVSPropertyOp21
 70
     1
102
RTVSPropertyOp22
 70
     1
102
RTVSPropertyOp23
 70
     1
102
RTVSPropertyOp24
 70
     1
102
RTVSPropertyOp25
 70
     1
102
RTVSPropertyOp26
 70
     1
102
RTVSPropertyOp27
 70
     1
  0
XRECORD
  5
17B5
102
{ACAD_REACTORS
330
17B4
102
}
330
17B4
100
AcDbXrecord
280
     1
102
RTVSPropertyOp0
 70
     1
102
RTVSPropertyOp1
 70
     1
102
RTVSPropertyOp2
 70
     1
102
RTVSPropertyOp3
 70
     1
102
RTVSPropertyOp4
 70
     1
102
RTVSPropertyOp5
 70
     1
102
RTVSPropertyOp6
 70
     1
102
RTVSPropertyOp7
 70
     1
102
RTVSPropertyOp8
 70
     1
102
RTVSPropertyOp9
 70
     1
102
RTVSPropertyOp10
 70
     1
102
RTVSPropertyOp11
 70
     1
102
RTVSPropertyOp12
 70
     1
102
RTVSPropertyOp13
 70
     1
102
RTVSPropertyOp14
 70
     1
102
RTVSPropertyOp15
 70
     1
102
RTVSPropertyOp16
 70
     1
102
RTVSPropertyOp17
 70
     1
102
RTVSPropertyOp18
 70
     1
102
RTVSPropertyOp19
 70
     1
102
RTVSPropertyOp20
 70
     1
102
RTVSPropertyOp21
 70
     1
102
RTVSPropertyOp22
 70
     1
102
RTVSPropertyOp23
 70
     1
102
RTVSPropertyOp24
 70
     1
102
RTVSPropertyOp25
 70
     1
102
RTVSPropertyOp26
 70
     1
102
RTVSPropertyOp27
 70
     1
  0
XRECORD
  5
17B9
102
{ACAD_REACTORS
330
17B8
102
}
330
17B8
100
AcDbXrecord
280
     1
102
RTVSPropertyOp0
 70
     1
102
RTVSPropertyOp1
 70
     1
102
RTVSPropertyOp2
 70
     1
102
RTVSPropertyOp3
 70
     1
102
RTVSPropertyOp4
 70
     1
102
RTVSPropertyOp5
 70
     1
102
RTVSPropertyOp6
 70
     1
102
RTVSPropertyOp7
 70
     1
102
RTVSPropertyOp8
 70
     1
102
RTVSPropertyOp9
 70
     1
102
RTVSPropertyOp10
 70
     1
102
RTVSPropertyOp11
 70
     1
102
RTVSPropertyOp12
 70
     1
102
RTVSPropertyOp13
 70
     1
102
RTVSPropertyOp14
 70
     1
102
RTVSPropertyOp15
 70
     1
102
RTVSPropertyOp16
 70
     1
102
RTVSPropertyOp17
 70
     1
102
RTVSPropertyOp18
 70
     1
102
RTVSPropertyOp19
 70
     1
102
RTVSPropertyOp20
 70
     1
102
RTVSPropertyOp21
 70
     1
102
RTVSPropertyOp22
 70
     1
102
RTVSPropertyOp23
 70
     1
102
RTVSPropertyOp24
 70
     1
102
RTVSPropertyOp25
 70
     1
102
RTVSPropertyOp26
 70
     1
102
RTVSPropertyOp27
 70
     1
  0
XRECORD
  5
17C9
102
{ACAD_REACTORS
330
17C8
102
}
330
17C8
100
AcDbXrecord
280
     1
102
RTVSPropertyOp0
 70
     0
102
RTVSPropertyOp1
 70
     0
102
RTVSPropertyOp2
 70
     0
102
RTVSPropertyOp3
 70
     0
102
RTVSPropertyOp4
 70
     0
102
RTVSPropertyOp5
 70
     0
102
RTVSPropertyOp6
 70
     0
102
RTVSPropertyOp7
 70
     0
102
RTVSPropertyOp8
 70
     0
102
RTVSPropertyOp9
 70
     0
102
RTVSPropertyOp10
 70
     0
102
RTVSPropertyOp11
 70
     0
102
RTVSPropertyOp12
 70
     0
102
RTVSPropertyOp13
 70
     0
102
RTVSPropertyOp14
 70
     2
102
RTVSPropertyOp15
 70
     0
102
RTVSPropertyOp16
 70
     0
102
RTVSPropertyOp17
 70
     0
102
RTVSPropertyOp18
 70
     0
102
RTVSPropertyOp19
 70
     0
102
RTVSPropertyOp20
 70
     0
102
RTVSPropertyOp21
 70
     0
102
RTVSPropertyOp22
 70
     0
102
RTVSPropertyOp23
 70
     0
102
RTVSPropertyOp24
 70
     0
102
RTVSPropertyOp25
 70
     0
102
RTVSPropertyOp26
 70
     0
102
RTVSPropertyOp27
 70
     0
  0
XRECORD
  5
17C1
102
{ACAD_REACTORS
330
17C0
102
}
330
17C0
100
AcDbXrecord
280
     1
102
RTVSPropertyOp0
 70
     1
102
RTVSPropertyOp1
 70
     1
102
RTVSPropertyOp2
 70
     1
102
RTVSPropertyOp3
 70
     1
102
RTVSPropertyOp4
 70
     1
102
RTVSPropertyOp5
 70
     1
102
RTVSPropertyOp6
 70
     1
102
RTVSPropertyOp7
 70
     1
102
RTVSPropertyOp8
 70
     1
102
RTVSPropertyOp9
 70
     1
102
RTVSPropertyOp10
 70
     1
102
RTVSPropertyOp11
 70
     1
102
RTVSPropertyOp12
 70
     1
102
RTVSPropertyOp13
 70
     1
102
RTVSPropertyOp14
 70
     1
102
RTVSPropertyOp15
 70
     1
102
RTVSPropertyOp16
 70
     1
102
RTVSPropertyOp17
 70
     1
102
RTVSPropertyOp18
 70
     1
102
RTVSPropertyOp19
 70
     1
102
RTVSPropertyOp20
 70
     1
102
RTVSPropertyOp21
 70
     1
102
RTVSPropertyOp22
 70
     1
102
RTVSPropertyOp23
 70
     1
102
RTVSPropertyOp24
 70
     1
102
RTVSPropertyOp25
 70
     1
102
RTVSPropertyOp26
 70
     1
102
RTVSPropertyOp27
 70
     1
  0
XRECORD
  5
17A5
102
{ACAD_REACTORS
330
17A4
102
}
330
17A4
100
AcDbXrecord
280
     1
102
RTVSPropertyOp0
 70
     1
102
RTVSPropertyOp1
 70
     1
102
RTVSPropertyOp2
 70
     1
102
RTVSPropertyOp3
 70
     1
102
RTVSPropertyOp4
 70
     1
102
RTVSPropertyOp5
 70
     1
102
RTVSPropertyOp6
 70
     1
102
RTVSPropertyOp7
 70
     1
102
RTVSPropertyOp8
 70
     1
102
RTVSPropertyOp9
 70
     1
102
RTVSPropertyOp10
 70
     1
102
RTVSPropertyOp11
 70
     1
102
RTVSPropertyOp12
 70
     1
102
RTVSPropertyOp13
 70
     1
102
RTVSPropertyOp14
 70
     1
102
RTVSPropertyOp15
 70
     1
102
RTVSPropertyOp16
 70
     1
102
RTVSPropertyOp17
 70
     1
102
RTVSPropertyOp18
 70
     1
102
RTVSPropertyOp19
 70
     1
102
RTVSPropertyOp20
 70
     1
102
RTVSPropertyOp21
 70
     1
102
RTVSPropertyOp22
 70
     1
102
RTVSPropertyOp23
 70
     1
102
RTVSPropertyOp24
 70
     1
102
RTVSPropertyOp25
 70
     1
102
RTVSPropertyOp26
 70
     1
102
RTVSPropertyOp27
 70
     1
  0
XRECORD
  5
17A7
102
{ACAD_REACTORS
330
17A6
102
}
330
17A6
100
AcDbXrecord
280
     1
102
RTVSPropertyOp0
 70
     1
102
RTVSPropertyOp1
 70
     1
102
RTVSPropertyOp2
 70
     1
102
RTVSPropertyOp3
 70
     1
102
RTVSPropertyOp4
 70
     1
102
RTVSPropertyOp5
 70
     1
102
RTVSPropertyOp6
 70
     1
102
RTVSPropertyOp7
 70
     1
102
RTVSPropertyOp8
 70
     1
102
RTVSPropertyOp9
 70
     1
102
RTVSPropertyOp10
 70
     1
102
RTVSPropertyOp11
 70
     1
102
RTVSPropertyOp12
 70
     1
102
RTVSPropertyOp13
 70
     1
102
RTVSPropertyOp14
 70
     1
102
RTVSPropertyOp15
 70
     1
102
RTVSPropertyOp16
 70
     1
102
RTVSPropertyOp17
 70
     1
102
RTVSPropertyOp18
 70
     1
102
RTVSPropertyOp19
 70
     1
102
RTVSPropertyOp20
 70
     1
102
RTVSPropertyOp21
 70
     1
102
RTVSPropertyOp22
 70
     1
102
RTVSPropertyOp23
 70
     1
102
RTVSPropertyOp24
 70
     1
102
RTVSPropertyOp25
 70
     1
102
RTVSPropertyOp26
 70
     1
102
RTVSPropertyOp27
 70
     1
  0
XRECORD
  5
17A9
102
{ACAD_REACTORS
330
17A8
102
}
330
17A8
100
AcDbXrecord
280
     1
102
RTVSPropertyOp0
 70
     1
102
RTVSPropertyOp1
 70
     1
102
RTVSPropertyOp2
 70
     1
102
RTVSPropertyOp3
 70
     1
102
RTVSPropertyOp4
 70
     1
102
RTVSPropertyOp5
 70
     1
102
RTVSPropertyOp6
 70
     1
102
RTVSPropertyOp7
 70
     1
102
RTVSPropertyOp8
 70
     1
102
RTVSPropertyOp9
 70
     1
102
RTVSPropertyOp10
 70
     1
102
RTVSPropertyOp11
 70
     1
102
RTVSPropertyOp12
 70
     1
102
RTVSPropertyOp13
 70
     1
102
RTVSPropertyOp14
 70
     1
102
RTVSPropertyOp15
 70
     1
102
RTVSPropertyOp16
 70
     1
102
RTVSPropertyOp17
 70
     1
102
RTVSPropertyOp18
 70
     1
102
RTVSPropertyOp19
 70
     1
102
RTVSPropertyOp20
 70
     1
102
RTVSPropertyOp21
 70
     1
102
RTVSPropertyOp22
 70
     1
102
RTVSPropertyOp23
 70
     1
102
RTVSPropertyOp24
 70
     1
102
RTVSPropertyOp25
 70
     1
102
RTVSPropertyOp26
 70
     1
102
RTVSPropertyOp27
 70
     1
  0
XRECORD
  5
17AB
102
{ACAD_REACTORS
330
17AA
102
}
330
17AA
100
AcDbXrecord
280
     1
102
RTVSPropertyOp0
 70
     1
102
RTVSPropertyOp1
 70
     1
102
RTVSPropertyOp2
 70
     1
102
RTVSPropertyOp3
 70
     1
102
RTVSPropertyOp4
 70
     1
102
RTVSPropertyOp5
 70
     1
102
RTVSPropertyOp6
 70
     1
102
RTVSPropertyOp7
 70
     1
102
RTVSPropertyOp8
 70
     1
102
RTVSPropertyOp9
 70
     1
102
RTVSPropertyOp10
 70
     1
102
RTVSPropertyOp11
 70
     1
102
RTVSPropertyOp12
 70
     1
102
RTVSPropertyOp13
 70
     1
102
RTVSPropertyOp14
 70
     1
102
RTVSPropertyOp15
 70
     1
102
RTVSPropertyOp16
 70
     1
102
RTVSPropertyOp17
 70
     1
102
RTVSPropertyOp18
 70
     1
102
RTVSPropertyOp19
 70
     1
102
RTVSPropertyOp20
 70
     1
102
RTVSPropertyOp21
 70
     1
102
RTVSPropertyOp22
 70
     1
102
RTVSPropertyOp23
 70
     1
102
RTVSPropertyOp24
 70
     1
102
RTVSPropertyOp25
 70
     1
102
RTVSPropertyOp26
 70
     1
102
RTVSPropertyOp27
 70
     1
  0
XRECORD
  5
17C5
102
{ACAD_REACTORS
330
17C4
102
}
330
17C4
100
AcDbXrecord
280
     1
102
RTVSPropertyOp0
 70
     0
102
RTVSPropertyOp1
 70
     0
102
RTVSPropertyOp2
 70
     0
102
RTVSPropertyOp3
 70
     0
102
RTVSPropertyOp4
 70
     0
102
RTVSPropertyOp5
 70
     0
102
RTVSPropertyOp6
 70
     0
102
RTVSPropertyOp7
 70
     0
102
RTVSPropertyOp8
 70
     0
102
RTVSPropertyOp9
 70
     0
102
RTVSPropertyOp10
 70
     0
102
RTVSPropertyOp11
 70
     0
102
RTVSPropertyOp12
 70
     0
102
RTVSPropertyOp13
 70
     0
102
RTVSPropertyOp14
 70
     2
102
RTVSPropertyOp15
 70
     0
102
RTVSPropertyOp16
 70
     0
102
RTVSPropertyOp17
 70
     0
102
RTVSPropertyOp18
 70
     0
102
RTVSPropertyOp19
 70
     0
102
RTVSPropertyOp20
 70
     0
102
RTVSPropertyOp21
 70
     0
102
RTVSPropertyOp22
 70
     0
102
RTVSPropertyOp23
 70
     0
102
RTVSPropertyOp24
 70
     0
102
RTVSPropertyOp25
 70
     0
102
RTVSPropertyOp26
 70
     0
102
RTVSPropertyOp27
 70
     0
  0
XRECORD
  5
17BF
102
{ACAD_REACTORS
330
17BE
102
}
330
17BE
100
AcDbXrecord
280
     1
102
RTVSPropertyOp0
 70
     1
102
RTVSPropertyOp1
 70
     1
102
RTVSPropertyOp2
 70
     1
102
RTVSPropertyOp3
 70
     1
102
RTVSPropertyOp4
 70
     1
102
RTVSPropertyOp5
 70
     1
102
RTVSPropertyOp6
 70
     1
102
RTVSPropertyOp7
 70
     1
102
RTVSPropertyOp8
 70
     1
102
RTVSPropertyOp9
 70
     1
102
RTVSPropertyOp10
 70
     1
102
RTVSPropertyOp11
 70
     1
102
RTVSPropertyOp12
 70
     1
102
RTVSPropertyOp13
 70
     1
102
RTVSPropertyOp14
 70
     1
102
RTVSPropertyOp15
 70
     1
102
RTVSPropertyOp16
 70
     1
102
RTVSPropertyOp17
 70
     1
102
RTVSPropertyOp18
 70
     1
102
RTVSPropertyOp19
 70
     1
102
RTVSPropertyOp20
 70
     1
102
RTVSPropertyOp21
 70
     1
102
RTVSPropertyOp22
 70
     1
102
RTVSPropertyOp23
 70
     1
102
RTVSPropertyOp24
 70
     1
102
RTVSPropertyOp25
 70
     1
102
RTVSPropertyOp26
 70
     1
102
RTVSPropertyOp27
 70
     1
  0
XRECORD
  5
17C7
102
{ACAD_REACTORS
330
17C6
102
}
330
17C6
100
AcDbXrecord
280
     1
102
RTVSPropertyOp0
 70
     0
102
RTVSPropertyOp1
 70
     0
102
RTVSPropertyOp2
 70
     0
102
RTVSPropertyOp3
 70
     0
102
RTVSPropertyOp4
 70
     0
102
RTVSPropertyOp5
 70
     0
102
RTVSPropertyOp6
 70
     0
102
RTVSPropertyOp7
 70
     0
102
RTVSPropertyOp8
 70
     0
102
RTVSPropertyOp9
 70
     0
102
RTVSPropertyOp10
 70
     0
102
RTVSPropertyOp11
 70
     0
102
RTVSPropertyOp12
 70
     0
102
RTVSPropertyOp13
 70
     0
102
RTVSPropertyOp14
 70
     2
102
RTVSPropertyOp15
 70
     0
102
RTVSPropertyOp16
 70
     0
102
RTVSPropertyOp17
 70
     0
102
RTVSPropertyOp18
 70
     0
102
RTVSPropertyOp19
 70
     0
102
RTVSPropertyOp20
 70
     0
102
RTVSPropertyOp21
 70
     0
102
RTVSPropertyOp22
 70
     0
102
RTVSPropertyOp23
 70
     0
102
RTVSPropertyOp24
 70
     0
102
RTVSPropertyOp25
 70
     0
102
RTVSPropertyOp26
 70
     0
102
RTVSPropertyOp27
 70
     0
  0
XRECORD
  5
17B7
102
{ACAD_REACTORS
330
17B6
102
}
330
17B6
100
AcDbXrecord
280
     1
102
RTVSPropertyOp0
 70
     1
102
RTVSPropertyOp1
 70
     1
102
RTVSPropertyOp2
 70
     1
102
RTVSPropertyOp3
 70
     1
102
RTVSPropertyOp4
 70
     1
102
RTVSPropertyOp5
 70
     1
102
RTVSPropertyOp6
 70
     1
102
RTVSPropertyOp7
 70
     1
102
RTVSPropertyOp8
 70
     1
102
RTVSPropertyOp9
 70
     1
102
RTVSPropertyOp10
 70
     1
102
RTVSPropertyOp11
 70
     1
102
RTVSPropertyOp12
 70
     1
102
RTVSPropertyOp13
 70
     1
102
RTVSPropertyOp14
 70
     1
102
RTVSPropertyOp15
 70
     1
102
RTVSPropertyOp16
 70
     1
102
RTVSPropertyOp17
 70
     1
102
RTVSPropertyOp18
 70
     1
102
RTVSPropertyOp19
 70
     1
102
RTVSPropertyOp20
 70
     1
102
RTVSPropertyOp21
 70
     1
102
RTVSPropertyOp22
 70
     1
102
RTVSPropertyOp23
 70
     1
102
RTVSPropertyOp24
 70
     1
102
RTVSPropertyOp25
 70
     1
102
RTVSPropertyOp26
 70
     1
102
RTVSPropertyOp27
 70
     1
  0
XRECORD
  5
17BD
102
{ACAD_REACTORS
330
17BC
102
}
330
17BC
100
AcDbXrecord
280
     1
102
RTVSPropertyOp0
 70
     1
102
RTVSPropertyOp1
 70
     1
102
RTVSPropertyOp2
 70
     1
102
RTVSPropertyOp3
 70
     1
102
RTVSPropertyOp4
 70
     1
102
RTVSPropertyOp5
 70
     1
102
RTVSPropertyOp6
 70
     1
102
RTVSPropertyOp7
 70
     1
102
RTVSPropertyOp8
 70
     1
102
RTVSPropertyOp9
 70
     1
102
RTVSPropertyOp10
 70
     1
102
RTVSPropertyOp11
 70
     1
102
RTVSPropertyOp12
 70
     1
102
RTVSPropertyOp13
 70
     1
102
RTVSPropertyOp14
 70
     1
102
RTVSPropertyOp15
 70
     1
102
RTVSPropertyOp16
 70
     1
102
RTVSPropertyOp17
 70
     1
102
RTVSPropertyOp18
 70
     1
102
RTVSPropertyOp19
 70
     1
102
RTVSPropertyOp20
 70
     1
102
RTVSPropertyOp21
 70
     1
102
RTVSPropertyOp22
 70
     1
102
RTVSPropertyOp23
 70
     1
102
RTVSPropertyOp24
 70
     1
102
RTVSPropertyOp25
 70
     1
102
RTVSPropertyOp26
 70
     1
102
RTVSPropertyOp27
 70
     1
  0
ENDSEC
  0
EOF
