  0
SECTION
  2
HEADER
  9
$ACADVER
  1
AC1015
  9
$ACADMAINTVER
 70
    20
  9
$DWGCODEPAGE
  3
ANSI_1252
  9
$INSBASE
 10
0.0
 20
0.0
 30
0.0
  9
$EXTMIN
 10
2303.767653132888
 20
1405.497524381673
 30
-0.0000000349181948
  9
$EXTMAX
 10
2786.562652521843
 20
1742.86323221849
 30
0.0000000814935747
  9
$LIMMIN
 10
0.0
 20
0.0
  9
$LIMMAX
 10
420.0
 20
297.0
  9
$ORTHOMODE
 70
     0
  9
$REGENMODE
 70
     1
  9
$FILLMODE
 70
     1
  9
$QTEXTMODE
 70
     0
  9
$MIRRTEXT
 70
     1
  9
$LTSCALE
 40
1.0
  9
$ATTMODE
 70
     1
  9
$TEXTSIZE
 40
2.5
  9
$TRACEWID
 40
1.0
  9
$TEXTSTYLE
  7
STANDARD
  9
$CLAYER
  8
0
  9
$CELTYPE
  6
ByLayer
  9
$CECOLOR
 62
   256
  9
$CELTSCALE
 40
1.0
  9
$DISPSILH
 70
     0
  9
$DIMSCALE
 40
1.0
  9
$DIMASZ
 40
3.5
  9
$DIMEXO
 40
1.0
  9
$DIMDLI
 40
10.0
  9
$DIMRND
 40
0.0
  9
$DIMDLE
 40
0.0
  9
$DIMEXE
 40
1.0
  9
$DIMTP
 40
0.1
  9
$DIMTM
 40
0.1
  9
$DIMTXT
 40
3.5
  9
$DIMCEN
 40
0.0
  9
$DIMTSZ
 40
0.0
  9
$DIMTOL
 70
     0
  9
$DIMLIM
 70
     0
  9
$DIMTIH
 70
     0
  9
$DIMTOH
 70
     0
  9
$DIMSE1
 70
     0
  9
$DIMSE2
 70
     0
  9
$DIMTAD
 70
     1
  9
$DIMZIN
 70
     8
  9
$DIMBLK
  1

  9
$DIMASO
 70
     1
  9
$DIMSHO
 70
     1
  9
$DIMPOST
  1

  9
$DIMAPOST
  1
"
  9
$DIMALT
 70
     0
  9
$DIMALTD
 70
     2
  9
$DIMALTF
 40
0.0393701
  9
$DIMLFAC
 40
1.0
  9
$DIMTOFL
 70
     1
  9
$DIMTVP
 40
0.0
  9
$DIMTIX
 70
     0
  9
$DIMSOXD
 70
     0
  9
$DIMSAH
 70
     0
  9
$DIMBLK1
  1

  9
$DIMBLK2
  1

  9
$DIMSTYLE
  2
AM_DIN
  9
$DIMCLRD
 70
   256
  9
$DIMCLRE
 70
   256
  9
$DIMCLRT
 70
     2
  9
$DIMTFAC
 40
0.71
  9
$DIMGAP
 40
1.5
  9
$DIMJUST
 70
     0
  9
$DIMSD1
 70
     0
  9
$DIMSD2
 70
     0
  9
$DIMTOLJ
 70
     0
  9
$DIMTZIN
 70
     8
  9
$DIMALTZ
 70
     0
  9
$DIMALTTZ
 70
     0
  9
$DIMUPT
 70
     0
  9
$DIMDEC
 70
     2
  9
$DIMTDEC
 70
     3
  9
$DIMALTU
 70
     2
  9
$DIMALTTD
 70
     4
  9
$DIMTXSTY
  7
STANDARD
  9
$DIMAUNIT
 70
     0
  9
$DIMADEC
 70
     0
  9
$DIMALTRND
 40
0.0
  9
$DIMAZIN
 70
     2
  9
$DIMDSEP
 70
    46
  9
$DIMATFIT
 70
     3
  9
$DIMFRAC
 70
     0
  9
$DIMLDRBLK
  1

  9
$DIMLUNIT
 70
     2
  9
$DIMLWD
 70
    -1
  9
$DIMLWE
 70
    -1
  9
$DIMTMOVE
 70
     0
  9
$LUNITS
 70
     2
  9
$LUPREC
 70
     2
  9
$SKETCHINC
 40
1.0
  9
$FILLETRAD
 40
0.0
  9
$AUNITS
 70
     0
  9
$AUPREC
 70
     0
  9
$MENU
  1
.
  9
$ELEVATION
 40
0.0
  9
$PELEVATION
 40
0.0
  9
$THICKNESS
 40
0.0
  9
$LIMCHECK
 70
     0
  9
$CHAMFERA
 40
2.5
  9
$CHAMFERB
 40
2.5
  9
$CHAMFERC
 40
20.0
  9
$CHAMFERD
 40
0.0
  9
$SKPOLY
 70
     0
  9
$TDCREATE
 40
2455512.436305834
  9
$TDUCREATE
 40
2455512.394639167
  9
$TDUPDATE
 40
2455609.639230764
  9
$TDUUPDATE
 40
2455609.597564097
  9
$TDINDWG
 40
0.0342242824
  9
$TDUSRTIMER
 40
0.0342239236
  9
$USRTIMER
 70
     1
  9
$ANGBASE
 50
0.0
  9
$ANGDIR
 70
     0
  9
$PDMODE
 70
     0
  9
$PDSIZE
 40
0.0
  9
$PLINEWID
 40
0.0
  9
$SPLFRAME
 70
     0
  9
$SPLINETYPE
 70
     6
  9
$SPLINESEGS
 70
     8
  9
$HANDSEED
  5
18E8
  9
$SURFTAB1
 70
     6
  9
$SURFTAB2
 70
     6
  9
$SURFTYPE
 70
     6
  9
$SURFU
 70
     6
  9
$SURFV
 70
     6
  9
$UCSBASE
  2

  9
$UCSNAME
  2

  9
$UCSORG
 10
0.0
 20
0.0
 30
0.0
  9
$UCSXDIR
 10
1.0
 20
0.0
 30
0.0
  9
$UCSYDIR
 10
0.0
 20
1.0
 30
0.0
  9
$UCSORTHOREF
  2

  9
$UCSORTHOVIEW
 70
     0
  9
$UCSORGTOP
 10
0.0
 20
0.0
 30
0.0
  9
$UCSORGBOTTOM
 10
0.0
 20
0.0
 30
0.0
  9
$UCSORGLEFT
 10
0.0
 20
0.0
 30
0.0
  9
$UCSORGRIGHT
 10
0.0
 20
0.0
 30
0.0
  9
$UCSORGFRONT
 10
0.0
 20
0.0
 30
0.0
  9
$UCSORGBACK
 10
0.0
 20
0.0
 30
0.0
  9
$PUCSBASE
  2

  9
$PUCSNAME
  2

  9
$PUCSORG
 10
0.0
 20
0.0
 30
0.0
  9
$PUCSXDIR
 10
1.0
 20
0.0
 30
0.0
  9
$PUCSYDIR
 10
0.0
 20
1.0
 30
0.0
  9
$PUCSORTHOREF
  2

  9
$PUCSORTHOVIEW
 70
     0
  9
$PUCSORGTOP
 10
0.0
 20
0.0
 30
0.0
  9
$PUCSORGBOTTOM
 10
0.0
 20
0.0
 30
0.0
  9
$PUCSORGLEFT
 10
0.0
 20
0.0
 30
0.0
  9
$PUCSORGRIGHT
 10
0.0
 20
0.0
 30
0.0
  9
$PUCSORGFRONT
 10
0.0
 20
0.0
 30
0.0
  9
$PUCSORGBACK
 10
0.0
 20
0.0
 30
0.0
  9
$USERI1
 70
     0
  9
$USERI2
 70
     0
  9
$USERI3
 70
     0
  9
$USERI4
 70
     0
  9
$USERI5
 70
     0
  9
$USERR1
 40
0.0
  9
$USERR2
 40
0.0
  9
$USERR3
 40
0.0
  9
$USERR4
 40
0.0
  9
$USERR5
 40
0.0
  9
$WORLDVIEW
 70
     1
  9
$SHADEDGE
 70
     3
  9
$SHADEDIF
 70
    70
  9
$TILEMODE
 70
     1
  9
$MAXACTVP
 70
    64
  9
$PINSBASE
 10
0.0
 20
0.0
 30
0.0
  9
$PLIMCHECK
 70
     0
  9
$PEXTMIN
 10
1.000000000000000E+20
 20
1.000000000000000E+20
 30
1.000000000000000E+20
  9
$PEXTMAX
 10
-1.000000000000000E+20
 20
-1.000000000000000E+20
 30
-1.000000000000000E+20
  9
$PLIMMIN
 10
0.0
 20
0.0
  9
$PLIMMAX
 10
420.0
 20
297.0
  9
$UNITMODE
 70
     0
  9
$VISRETAIN
 70
     1
  9
$PLINEGEN
 70
     0
  9
$PSLTSCALE
 70
     1
  9
$TREEDEPTH
 70
  3020
  9
$CMLSTYLE
  2
Standard
  9
$CMLJUST
 70
     0
  9
$CMLSCALE
 40
20.0
  9
$PROXYGRAPHICS
 70
     1
  9
$MEASUREMENT
 70
     1
  9
$CELWEIGHT
370
    -1
  9
$ENDCAPS
280
     0
  9
$JOINSTYLE
280
     0
  9
$LWDISPLAY
290
     0
  9
$INSUNITS
 70
     4
  9
$HYPERLINKBASE
  1

  9
$STYLESHEET
  1

  9
$XEDIT
290
     1
  9
$CEPSNTYPE
380
     0
  9
$PSTYLEMODE
290
     1
  9
$FINGERPRINTGUID
  2
{A53BE619-7E0D-49DC-BB6E-0D7D0DD4E3E6}
  9
$VERSIONGUID
  2
{39897F2B-0614-4379-A746-55D66C6E0876}
  9
$EXTNAMES
290
     1
  9
$PSVPSCALE
 40
0.0
  9
$OLESTARTUP
290
     0
  0
ENDSEC
  0
SECTION
  2
CLASSES
  0
CLASS
  1
ACDBDICTIONARYWDFLT
  2
AcDbDictionaryWithDefault
  3
ObjectDBX Classes
 90
        0
280
     0
281
     0
  0
CLASS
  1
ACME_DOCUMENT
  2
AcMeDbDoc
  3
AcMeServices
 90
     1024
280
     0
281
     0
  0
CLASS
  1
AMGSETTINGSOBJ
  2
AmgSettingsObj
  3
"AcadM|Product Description: AutoCAD Mechanical|Company: Autodesk, Inc."
 90
     1024
280
     0
281
     0
  0
CLASS
  1
ACMESCOPE
  2
AcMeScope
  3
AcMeServices
 90
     1024
280
     0
281
     0
  0
CLASS
  1
ACMECOMMANDHISTORY
  2
AcMeCommandHistory
  3
AcMeServices
 90
     1024
280
     0
281
     0
  0
CLASS
  1
ACIMSYSVARMAN
  2
AcImSysVarManager
  3
AcMeServices
 90
     1024
280
     0
281
     0
  0
CLASS
  1
ACIMREALSYSVAR
  2
AcImRealSysVar
  3
AcMeServices
 90
     1024
280
     0
281
     0
  0
CLASS
  1
ACIMINTSYSVAR
  2
AcImIntSysVar
  3
AcMeServices
 90
     1024
280
     0
281
     0
  0
CLASS
  1
ACMEDRAWINGMAN
  2
AcMeDrawingMan
  3
AcMeServices
 90
     1024
280
     0
281
     0
  0
CLASS
  1
ACMEVIEW
  2
AcMeView
  3
AcMeServices
 90
     1024
280
     0
281
     0
  0
CLASS
  1
ACDBENTITYCACHE
  2
AcMeEntityCache
  3
AcMeServices
 90
     1024
280
     0
281
     0
  0
CLASS
  1
GSMANAGER
  2
AcMeGSManager
  3
AcMeServices
 90
     1024
280
     0
281
     0
  0
CLASS
  1
AMDTINTERNALREACTOR
  2
AmdtInternalReactor
  3
AcMeServices
 90
     1024
280
     0
281
     0
  0
CLASS
  1
ACMESTATEMGR
  2
AcMeStateMgr
  3
AcMeServices
 90
     1024
280
     0
281
     0
  0
CLASS
  1
ACGREFMASTER
  2
AcGrefMaster
  3
AcAttribServices
 90
     1024
280
     0
281
     0
  0
CLASS
  1
ACME_DATABASE
  2
AcMeDbDatabase
  3
AcMeServices
 90
     1024
280
     0
281
     0
  0
CLASS
  1
ACRFINSADJUSTERMGR
  2
AcRfInsAdjusterMgr
  3
AcMeServices
 90
     1024
280
     0
281
     0
  0
CLASS
  1
ACGREFACADMASTER
  2
AcGrefacadMaster
  3
AcGrefServices
 90
     1024
280
     0
281
     0
  0
CLASS
  1
AMIMASTER
  2
AmiMaster
  3
AmiServices
 90
     1024
280
     0
281
     0
  0
CLASS
  1
ACMDATADICTIONARY
  2
AcmDataDictionary
  3
"AcmSymBB|Product Description: AutoCAD Mechanical|Company: Autodesk, Inc."
 90
     1024
280
     0
281
     0
  0
CLASS
  1
ACMDATAENTRYBLOCK
  2
AcmDataEntryBlock
  3
AcmSymBB|Product Description: AutoCAD Mechanical|Company: Autodesk, Inc.
 90
    33792
280
     0
281
     0
  0
CLASS
  1
ACIMSTRSYSVAR
  2
AcImStrSysVar
  3
AcMeServices
 90
     1024
280
     0
281
     0
  0
CLASS
  1
ACMSTANDARDISO
  2
AcmStandardISO
  3
"Amdt_StdImp|Product Description: AutoCAD Mechanical|Company: Autodesk, Inc."
 90
    33792
280
     0
281
     0
  0
CLASS
  1
AMGOBJPROPCFG
  2
AmgObjPropCfg
  3
"AmgLay|Product Description: AutoCAD Mechanical|Company: Autodesk, Inc."
 90
     1025
280
     0
281
     0
  0
CLASS
  1
AMDTEDGESTANDARDISO
  2
AmdtEdgeStdISO
  3
"Amdt_StdImp|Product Description: AutoCAD Mechanical|Company: Autodesk, Inc."
 90
    33792
280
     0
281
     0
  0
CLASS
  1
ACMSURFSTANDARDISO
  2
AcmSurfTextStdISO
  3
"Amdt_StdImp|Product Description: AutoCAD Mechanical|Company: Autodesk, Inc."
 90
    33792
280
     0
281
     0
  0
CLASS
  1
ACMFCFSTANDARDISO
  2
AcmFCFStdISO
  3
"Amdt_StdImp|Product Description: AutoCAD Mechanical|Company: Autodesk, Inc."
 90
    33792
280
     0
281
     0
  0
CLASS
  1
ACMWELDSTANDARDISO
  2
AcmWeldingStdISO
  3
"Amdt_StdImp|Product Description: AutoCAD Mechanical|Company: Autodesk, Inc."
 90
    33792
280
     0
281
     0
  0
CLASS
  1
ACMIDSTANDARDISO
  2
AcmIdStdISO
  3
"Amdt_StdImp|Product Description: AutoCAD Mechanical|Company: Autodesk, Inc."
 90
    33792
280
     0
281
     0
  0
CLASS
  1
ACMDATUMSTANDARDISO
  2
AcmDatumStdISO
  3
"Amdt_StdImp|Product Description: AutoCAD Mechanical|Company: Autodesk, Inc."
 90
    33792
280
     0
281
     0
  0
CLASS
  1
ACMBOMSTANDARDISO
  2
AcmBOMStdISO
  3
"Amdt_StdImp|Product Description: AutoCAD Mechanical|Company: Autodesk, Inc."
 90
    33792
280
     0
281
     0
  0
CLASS
  1
ACMDETAILSTANDARDISO
  2
AmdtDetailSymStdISO
  3
"Amdt_StdImp|Product Description: AutoCAD Mechanical|Company: Autodesk, Inc."
 90
    33792
280
     0
281
     0
  0
CLASS
  1
ACMSECTIONSTANDARDISO
  2
AmdtSectionSymStdISO
  3
"Amdt_StdImp|Product Description: AutoCAD Mechanical|Company: Autodesk, Inc."
 90
    33792
280
     0
281
     0
  0
CLASS
  1
ACMCENTERLINESTANDARDISO
  2
AmdtCenterLineStdISO
  3
"Amdt_StdImp|Product Description: AutoCAD Mechanical|Company: Autodesk, Inc."
 90
    33792
280
     0
281
     0
  0
CLASS
  1
ACMNOTESTANDARDISO
  2
AmdtNoteStdISO
  3
"Amdt_StdImp|Product Description: AutoCAD Mechanical|Company: Autodesk, Inc."
 90
    33792
280
     0
281
     0
  0
CLASS
  1
ACAMGLAYSTD
  2
AcAmgLayStd
  3
"AmgLay|Product Description: AutoCAD Mechanical|Company: Autodesk, Inc."
 90
     1024
280
     0
281
     0
  0
CLASS
  1
ACAMGDIMSTD
  2
AcAmgDimStd
  3
"AmgDim|Product Description: AutoCAD Mechanical|Company: Autodesk, Inc."
 90
     1024
280
     0
281
     0
  0
CLASS
  1
ACAMGHOLECHARTSTDISO
  2
AcAmgHoleChartStdISO
  3
AmgDim|Product Description: AutoCAD Mechanical|Company: Autodesk, Inc.
 90
    33792
280
     0
281
     0
  0
CLASS
  1
ACAMGTITLESTD
  2
AcAmgTitleStd
  3
"AmgTitle|Product Description: AutoCAD Mechanical|Company: Autodesk, Inc."
 90
     4095
280
     0
281
     0
  0
CLASS
  1
LAYER_INDEX
  2
AcDbLayerIndex
  3
ObjectDBX Classes
 90
    32768
280
     0
281
     0
  0
CLASS
  1
IDBUFFER
  2
AcDbIdBuffer
  3
ObjectDBX Classes
 90
    32768
280
     0
281
     0
  0
CLASS
  1
DICTIONARYVAR
  2
AcDbDictionaryVar
  3
ObjectDBX Classes
 90
        0
280
     0
281
     0
  0
CLASS
  1
AM_DRAWING_MGR
  2
AcDmDwgMgr
  3
AcMechDwgViewMgmt
 90
     1024
280
     0
281
     0
  0
CLASS
  1
AM_DWG_DOCUMENT
  2
AcDmDwgDocument
  3
AcMechDwgViewMgmt
 90
     1024
280
     0
281
     0
  0
CLASS
  1
AM_DWG_SHEET
  2
AcDmSheet
  3
AcMechDwgViewMgmt
 90
     1024
280
     0
281
     0
  0
CLASS
  1
AM_VIEWDIMPARMAP
  2
AcDmViewDimParMap
  3
AcMechDwgViewMgmt
 90
     1024
280
     0
281
     0
  0
CLASS
  1
AM_DWGMGR_NAME
  2
AcDmDwgMgrName
  3
AcMechDwgViewMgmt
 90
     1024
280
     0
281
     0
  0
CLASS
  1
AMDTMENUSTATEMGR
  2
AmdtMenuStateMgr
  3
McadcomServices
 90
     1024
280
     0
281
     0
  0
CLASS
  1
AMDTMCOMMENUSTATE
  2
AmdtMcomMenuState
  3
McadcomServices
 90
     1024
280
     0
281
     0
  0
CLASS
  1
MAPIAMMOUDLE
  2
MApiAmModule
  3
MApiAmServices
 90
     1024
280
     0
281
     0
  0
CLASS
  1
AMDTADMENUSTATE
  2
AmdtAdMenuState
  3
DesignerServices
 90
     1024
280
     0
281
     0
  0
CLASS
  1
ADAPPL
  2
AcAdAppl
  3
DesignerServices
 90
     1024
280
     0
281
     0
  0
CLASS
  1
DEPMGR
  2
AcAdDepMgr
  3
DesignerServices
 90
     1024
280
     0
281
     0
  0
CLASS
  1
PARAMMGR
  2
AcAdParamMgr
  3
DesignerServices
 90
     1024
280
     0
281
     0
  0
CLASS
  1
PARAMSCOPE
  2
AcAdParamScope
  3
DesignerServices
 90
     1024
280
     0
281
     0
  0
CLASS
  1
NAMEDAPPL
  2
AcAdNamedAppl
  3
DesignerServices
 90
     1024
280
     0
281
     0
  0
CLASS
  1
AMDTDMMENUSTATE
  2
AmdtDmMenuState
  3
AcMechDwgViewMgmt
 90
     1024
280
     0
281
     0
  0
CLASS
  1
AMDTAMMENUSTATE
  2
AmdtAmMenuState
  3
DesignerAssemblies
 90
     1024
280
     0
281
     0
  0
CLASS
  1
ACAMPROJECT
  2
AcAmProject
  3
DesignerAssemblies
 90
     1024
280
     0
281
     0
  0
CLASS
  1
ACAMGRCOMPDEF
  2
AcAmGrCompDef
  3
DesignerAssemblies
 90
     1024
280
     0
281
     0
  0
CLASS
  1
ACCMCONTEXT
  2
AcCmContext
  3
DesignerAssemblies
 90
     1024
280
     0
281
     0
  0
CLASS
  1
ACAMCOMPDEF
  2
AcAmCompDef
  3
DesignerAssemblies
 90
     1024
280
     0
281
     0
  0
CLASS
  1
ACAMCOMPDEFMGR
  2
AcAmCompDefMgr
  3
DesignerAssemblies
 90
     1024
280
     0
281
     0
  0
CLASS
  1
AMCONTEXTMGR
  2
AcAmContextMgr
  3
DesignerAssemblies
 90
     1024
280
     0
281
     0
  0
CLASS
  1
ACAMCONTEXTMODELER
  2
AcAmContextModeler
  3
DesignerAssemblies
 90
     1024
280
     0
281
     0
  0
CLASS
  1
ACMTHREADLINESTANDARDISO
  2
AmdtThreadLineStdISO
  3
"Amdt_StdImp|Product Description: AutoCAD Mechanical|Company: Autodesk, Inc."
 90
    33792
280
     0
281
     0
  0
CLASS
  1
CATALOGSTATE
  2
AcAmCatalogState
  3
DesignerAssemblies
 90
     1024
280
     0
281
     0
  0
CLASS
  1
ACAMGRCOMPDEFSET
  2
AcAmGrCompDefSet
  3
DesignerAssemblies
 90
     1024
280
     0
281
     0
  0
CLASS
  1
AMDTBROWSERDBTAB
  2
AmdtBrowserDbTab
  3
McadcomServices
 90
     1024
280
     0
281
     0
  0
CLASS
  1
CBROWSERAPPOBJECT
  2
CBrowserAppObject
  3
McadcomServices
 90
     1024
280
     0
281
     0
  0
CLASS
  1
DM_PLACEHOLDER
  2
AcDmSelsetPlaceholder
  3
AcMechDwgViewMgmt
 90
     1024
280
     0
281
     0
  0
CLASS
  1
TABLESTYLE
  2
AcDbTableStyle
  3
ObjectDBX Classes
 90
     4095
280
     0
281
     0
  0
CLASS
  1
VAACXREFPANELOBJECT
  2
VaAcXREFPanelObject
  3
VAAC_ADDIN
 90
    32768
280
     0
281
     0
  0
CLASS
  1
VAACIMAGEINVENTORY
  2
VaAcImageInventory
  3
VAAC_ADDIN
 90
    32768
280
     0
281
     0
  0
CLASS
  1
AMDTNOTETEMPLATEDB
  2
AmdtNoteTemplateDB
  3
AcmSymBB|Product Description: AutoCAD Mechanical|Company: Autodesk, Inc.
 90
     1024
280
     0
281
     0
  0
CLASS
  1
ACAMGFILTERDAT
  2
AcAmgFilterDat
  3
"AcadM|Product Description: AutoCAD Mechanical|Company: Autodesk, Inc."
 90
    33792
280
     0
281
     0
  0
CLASS
  1
ACMBOM
  2
AcmBom
  3
"AcmSymBB|Product Description: AutoCAD Mechanical|Company: Autodesk, Inc."
 90
    33792
280
     0
281
     0
  0
CLASS
  1
AMDTFORMULAUPDATEDISPATCHER
  2
AmdtFormulaUpdateDispatcher
  3
AcMeServices
 90
    33792
280
     0
281
     0
  0
CLASS
  1
ACMSTANDARDDIN
  2
AcmStandardDIN
  3
"Amdt_StdImp|Product Description: AutoCAD Mechanical|Company: Autodesk, Inc."
 90
     1024
280
     0
281
     0
  0
CLASS
  1
AMDTEDGESTANDARDDIN13715
  2
AmdtEdgeStdDIN13715
  3
"Amdt_StdImp|Product Description: AutoCAD Mechanical|Company: Autodesk, Inc."
 90
     1024
280
     0
281
     0
  0
CLASS
  1
ACMSURFSTANDARDDIN
  2
AcmSurfTextStdDIN
  3
"Amdt_StdImp|Product Description: AutoCAD Mechanical|Company: Autodesk, Inc."
 90
    33792
280
     0
281
     0
  0
CLASS
  1
ACMFCFSTANDARDDIN
  2
AcmFCFStdDIN
  3
"Amdt_StdImp|Product Description: AutoCAD Mechanical|Company: Autodesk, Inc."
 90
     1024
280
     0
281
     0
  0
CLASS
  1
ACMWELDSTANDARDDIN
  2
AcmWeldingStdDIN
  3
"Amdt_StdImp|Product Description: AutoCAD Mechanical|Company: Autodesk, Inc."
 90
     1024
280
     0
281
     0
  0
CLASS
  1
ACMIDSTANDARDDIN
  2
AcmIdStdDIN
  3
"Amdt_StdImp|Product Description: AutoCAD Mechanical|Company: Autodesk, Inc."
 90
     1024
280
     0
281
     0
  0
CLASS
  1
ACMDATUMSTANDARDDIN
  2
AcmDatumStdDIN
  3
"Amdt_StdImp|Product Description: AutoCAD Mechanical|Company: Autodesk, Inc."
 90
     1024
280
     0
281
     0
  0
CLASS
  1
ACMBOMSTANDARDDIN
  2
AcmBOMStdDIN
  3
"Amdt_StdImp|Product Description: AutoCAD Mechanical|Company: Autodesk, Inc."
 90
     1024
280
     0
281
     0
  0
CLASS
  1
ACMDETAILSTANDARDDIN
  2
AmdtDetailSymStdDIN
  3
"Amdt_StdImp|Product Description: AutoCAD Mechanical|Company: Autodesk, Inc."
 90
     1024
280
     0
281
     0
  0
CLASS
  1
ACMSECTIONSTANDARDDIN
  2
AmdtSectionSymStdDIN
  3
"Amdt_StdImp|Product Description: AutoCAD Mechanical|Company: Autodesk, Inc."
 90
     1024
280
     0
281
     0
  0
CLASS
  1
ACMCENTERLINESTANDARDDIN
  2
AmdtCenterLineStdDIN
  3
"Amdt_StdImp|Product Description: AutoCAD Mechanical|Company: Autodesk, Inc."
 90
     1024
280
     0
281
     0
  0
CLASS
  1
ACMTHREADLINESTANDARDDIN
  2
AmdtThreadLineStdDIN
  3
"Amdt_StdImp|Product Description: AutoCAD Mechanical|Company: Autodesk, Inc."
 90
     1024
280
     0
281
     0
  0
CLASS
  1
ACMNOTESTANDARDDIN
  2
AmdtNoteStdDIN
  3
"Amdt_StdImp|Product Description: AutoCAD Mechanical|Company: Autodesk, Inc."
 90
     1024
280
     0
281
     0
  0
CLASS
  1
ACAMGHOLECHARTSTDDIN
  2
AcAmgHoleChartStdDIN
  3
AmgDim|Product Description: AutoCAD Mechanical|Company: Autodesk, Inc.
 90
     1024
280
     0
281
     0
  0
CLASS
  1
MATERIAL
  2
AcDbMaterial
  3
ObjectDBX Classes
 90
     1153
280
     0
281
     0
  0
CLASS
  1
VISUALSTYLE
  2
AcDbVisualStyle
  3
ObjectDBX Classes
 90
     4095
280
     0
281
     0
  0
CLASS
  1
SCALE
  2
AcDbScale
  3
ObjectDBX Classes
 90
     1153
280
     0
281
     0
  0
CLASS
  1
MLEADERSTYLE
  2
AcDbMLeaderStyle
  3
ACDB_MLEADERSTYLE_CLASS
 90
     4095
280
     0
281
     0
  0
CLASS
  1
ACRFATTGENMGR
  2
AcRfAttGeneralMgr
  3
AcAttribServices
 90
    33792
280
     0
281
     0
  0
CLASS
  1
ACRFOBJATTMGR
  2
AcRfObjAttGroupMgr
  3
AcAttribServices
 90
    33792
280
     0
281
     0
  0
CLASS
  1
ACRFMCADAPIATTHOLDER
  2
AcRfMCADAPIAttHolder
  3
AcAttribServices
 90
    33792
280
     0
281
     0
  0
CLASS
  1
AMDTSYSATTR
  2
AmdtSystemAttribute
  3
AcAttribServices
 90
    33792
280
     0
281
     0
  0
CLASS
  1
ACMTAPERSTANDARDISO
  2
AcmTaperStdISO
  3
"Amdt_StdImp|Product Description: AutoCAD Mechanical|Company: Autodesk, Inc."
 90
    33792
280
     0
281
     0
  0
CLASS
  1
ACMANOOTATIONVIEWSTANDARDISO
  2
AmdtAnViewStdISO
  3
"Amdt_StdImp|Product Description: AutoCAD Mechanical|Company: Autodesk, Inc."
 90
    33792
280
     0
281
     0
  0
CLASS
  1
ACMTAPERSTANDARDDIN
  2
AcmTaperStdDIN
  3
"Amdt_StdImp|Product Description: AutoCAD Mechanical|Company: Autodesk, Inc."
 90
     1024
280
     0
281
     0
  0
CLASS
  1
ACMANOOTATIONVIEWSTANDARDDIN
  2
AmdtAnViewStdDIN
  3
"Amdt_StdImp|Product Description: AutoCAD Mechanical|Company: Autodesk, Inc."
 90
     1024
280
     0
281
     0
  0
CLASS
  1
EXACXREFPANELOBJECT
  2
ExAcXREFPanelObject
  3
EXAC_ESW
 90
     1025
280
     0
281
     0
  0
CLASS
  1
NPOCOLLECTION
  2
AcDbImpNonPersistentObjectsCollection
  3
ObjectDBX Classes
 90
     1153
280
     0
281
     0
  0
CLASS
  1
AMDTNOTE
  2
AmdtNote
  3
"AcmSymBB|Product Description: AutoCAD Mechanical|Company: Autodesk, Inc."
 90
    36863
280
     0
281
     1
  0
CLASS
  1
SORTENTSTABLE
  2
AcDbSortentsTable
  3
ObjectDBX Classes
 90
    32768
280
     0
281
     0
  0
CLASS
  1
AEC_REFEDIT_STATUS_TRACKER
  2
AecDbRefEditStatusTracker
  3
AecArchBase50|Product Desc: Autodesk Architectural Desktop 2007 |Company: Autodesk,Inc. |WEB Address: www.autodesk.com
 90
    32897
280
     0
281
     0
  0
CLASS
  1
DIMASSOC
  2
AcDbDimAssoc
  3
"AcDbDimAssoc|Product Desc:     AcDim ARX App For Dimension|Company:          Autodesk, Inc.|WEB Address:      www.autodesk.com"
 90
        0
280
     0
281
     0
  0
CLASS
  1
CAMSSTRUCTBTNSTATE
  2
StructBtnState
  3
DesignerAssemblies
 90
    33792
280
     0
281
     0
  0
CLASS
  1
CELLSTYLEMAP
  2
AcDbCellStyleMap
  3
ObjectDBX Classes
 90
     1152
280
     0
281
     0
  0
CLASS
  1
ACMSURFSTANDARDDIN2002
  2
AcmSurfTextStdDIN2002
  3
"Amdt_StdImp|Product Description: AutoCAD Mechanical|Company: Autodesk, Inc."
 90
     1024
280
     0
281
     0
  0
CLASS
  1
ACDBPLACEHOLDER
  2
AcDbPlaceHolder
  3
ObjectDBX Classes
 90
        0
280
     0
281
     0
  0
CLASS
  1
LAYOUT
  2
AcDbLayout
  3
ObjectDBX Classes
 90
        0
280
     0
281
     0
  0
ENDSEC
  0
SECTION
  2
TABLES
  0
TABLE
  2
VPORT
  5
8
330
0
100
AcDbSymbolTable
 70
     1
  0
VPORT
  5
3B2
330
8
100
AcDbSymbolTableRecord
100
AcDbViewportTableRecord
  2
*Active
 70
     0
 10
0.0
 20
0.0
 11
1.0
 21
1.0
 12
2545.165152827366
 22
1574.180378300082
 13
0.0
 23
0.0
 14
2.5
 24
2.5
 15
10.0
 25
10.0
 16
0.0
 26
0.0
 36
1.0
 17
0.0
 27
0.0
 37
0.0
 40
339.6633176518235
 41
1.752272727272727
 42
50.0
 43
0.0
 44
0.0
 50
0.0
 51
0.0
 71
     0
 72
   100
 73
     1
 74
     3
 75
     0
 76
     0
 77
     0
 78
     0
281
     0
 65
     0
110
0.0
120
0.0
130
0.0
111
1.0
121
0.0
131
0.0
112
0.0
122
1.0
132
0.0
 79
     0
146
0.0
  0
ENDTAB
  0
TABLE
  2
LTYPE
  5
5
330
0
100
AcDbSymbolTable
 70
    25
  0
LTYPE
  5
14
330
5
100
AcDbSymbolTableRecord
100
AcDbLinetypeTableRecord
  2
ByBlock
 70
     0
  3

 72
    65
 73
     0
 40
0.0
  0
LTYPE
  5
15
330
5
100
AcDbSymbolTableRecord
100
AcDbLinetypeTableRecord
  2
ByLayer
 70
     0
  3

 72
    65
 73
     0
 40
0.0
  0
LTYPE
  5
16
330
5
100
AcDbSymbolTableRecord
100
AcDbLinetypeTableRecord
  2
Continuous
 70
     0
  3
Solid line
 72
    65
 73
     0
 40
0.0
  0
LTYPE
  5
64
330
5
100
AcDbSymbolTableRecord
100
AcDbLinetypeTableRecord
  2
AM_ISO02W050
 70
     0
  3
__ __ __ __ __ __ __ __ __ __ __ __ __ __ __
 72
    65
 73
     2
 40
7.5
 49
6.0
 74
     0
 49
-1.5
 74
     0
  0
LTYPE
  5
65
330
5
100
AcDbSymbolTableRecord
100
AcDbLinetypeTableRecord
  2
AM_ISO08W050
 70
     0
  3
____ . ____ . ____ . ____ . ____ . ____ . ____
 72
    65
 73
     4
 40
18.0
 49
12.0
 74
     0
 49
-1.5
 74
     0
 49
3.0
 74
     0
 49
-1.5
 74
     0
  0
LTYPE
  5
66
330
5
100
AcDbSymbolTableRecord
100
AcDbLinetypeTableRecord
  2
AM_ISO09W050
 70
     0
  3
_____ . . _____ . . _____ . . ____ .. ____
 72
    65
 73
     6
 40
22.5
 49
12.0
 74
     0
 49
-1.5
 74
     0
 49
3.0
 74
     0
 49
-1.5
 74
     0
 49
3.0
 74
     0
 49
-1.5
 74
     0
  0
LTYPE
  5
67
330
5
100
AcDbSymbolTableRecord
100
AcDbLinetypeTableRecord
  2
Amconstr
 70
     0
  3
_______________________
 72
    65
 73
     2
 40
9999.0
 49
9999.0
 74
     0
 49
0.0
 74
     0
  0
LTYPE
  5
68
330
5
100
AcDbSymbolTableRecord
100
AcDbLinetypeTableRecord
  2
AM_ISO08W050x2
 70
     0
  3
__ . __ . __ . __ . __ . __
 72
    65
 73
     4
 40
9.0
 49
6.0
 74
     0
 49
-0.75
 74
     0
 49
1.5
 74
     0
 49
-0.75
 74
     0
  0
LTYPE
  5
69
330
5
100
AcDbSymbolTableRecord
100
AcDbLinetypeTableRecord
  2
AM_ISO02W050x2
 70
     0
  3
 _ _ _ _ _ _ _ _ _ _ _ _
 72
    65
 73
     2
 40
3.75
 49
3.0
 74
     0
 49
-0.75
 74
     0
  0
LTYPE
  5
6C
330
5
100
AcDbSymbolTableRecord
100
AcDbLinetypeTableRecord
  2
Amzigzag
 70
     0
  3
/\/-/\/-/\/-/\/-/\/-/\/
 72
    65
 73
     2
 40
11.0001
 49
0.0001
 74
     4
 75
   136
340
22C
 46
0.04
 50
0.0
 44
0.0
 45
0.0
 49
-11.0
 74
     0
  0
LTYPE
  5
7A
330
5
100
AcDbSymbolTableRecord
100
AcDbLinetypeTableRecord
  2
ACISOWELD
 70
     0
  3
_ _ _ _ _
 72
    65
 73
     2
 40
2.0
 49
2.0
 74
     0
 49
-1.0
 74
     0
  0
LTYPE
  5
7B
330
5
100
AcDbSymbolTableRecord
100
AcDbLinetypeTableRecord
  2
ACISOTGB
 70
     0
  3
__ . . __ . .
 72
    65
 73
     6
 40
9.0
 49
4.0
 74
     0
 49
-1.0
 74
     0
 49
1.0
 74
     0
 49
-1.0
 74
     0
 49
1.0
 74
     0
 49
-1.0
 74
     0
  0
LTYPE
  5
7C
330
5
100
AcDbSymbolTableRecord
100
AcDbLinetypeTableRecord
  2
ACISOTGL
 70
     0
  3
_ _ _ _ _
 72
    65
 73
     2
 40
3.0
 49
2.0
 74
     0
 49
-1.0
 74
     0
  0
LTYPE
  5
7E
330
5
100
AcDbSymbolTableRecord
100
AcDbLinetypeTableRecord
  2
CENTER
 70
     0
  3
__ . __
 72
    65
 73
     4
 40
7.0
 49
4.0
 74
     0
 49
-1.0
 74
     0
 49
1.0
 74
     0
 49
-1.0
 74
     0
  0
LTYPE
  5
D8
330
5
100
AcDbSymbolTableRecord
100
AcDbLinetypeTableRecord
  2
HIDDEN
 70
     0
  3
Hidden __ __ __ __ __ __ __ __ __ __ __ __ __ _
 72
    65
 73
     2
 40
9.524999999999996
 49
6.349999999999997
 74
     0
 49
-3.174999999999998
 74
     0
  0
LTYPE
  5
D9
330
5
100
AcDbSymbolTableRecord
100
AcDbLinetypeTableRecord
  2
PHANTOM2
 70
     0
  3
Phantom (.5x) ___ _ _ ___ _ _ ___ _ _ ___ _ _
 72
    65
 73
     6
 40
31.75
 49
15.875
 74
     0
 49
-3.174999999999998
 74
     0
 49
3.174999999999998
 74
     0
 49
-3.174999999999998
 74
     0
 49
3.174999999999998
 74
     0
 49
-3.174999999999998
 74
     0
  0
LTYPE
  5
2E5
330
5
100
AcDbSymbolTableRecord
100
AcDbLinetypeTableRecord
  2
ACDINWELD
 70
     0
  3
_ _ _ _ _
 72
    65
 73
     2
 40
2.0
 49
2.0
 74
     0
 49
-1.0
 74
     0
  0
LTYPE
  5
2E6
330
5
100
AcDbSymbolTableRecord
100
AcDbLinetypeTableRecord
  2
ACDINTGB
 70
     0
  3
__ . . __ . .
 72
    65
 73
     6
 40
9.0
 49
4.0
 74
     0
 49
-1.0
 74
     0
 49
1.0
 74
     0
 49
-1.0
 74
     0
 49
1.0
 74
     0
 49
-1.0
 74
     0
  0
LTYPE
  5
2E7
330
5
100
AcDbSymbolTableRecord
100
AcDbLinetypeTableRecord
  2
ACDINTGL
 70
     0
  3
_ _ _ _ _
 72
    65
 73
     2
 40
3.0
 49
2.0
 74
     0
 49
-1.0
 74
     0
  0
LTYPE
  5
321
330
5
100
AcDbSymbolTableRecord
100
AcDbLinetypeTableRecord
  2
AM_DIN_F_W050
 70
     0
  3
__ __ __ __ __ __ __ __ __ __ __ __ __ __ __
 72
    65
 73
     2
 40
6.25
 49
4.75
 74
     0
 49
-1.5
 74
     0
  0
LTYPE
  5
322
330
5
100
AcDbSymbolTableRecord
100
AcDbLinetypeTableRecord
  2
AM_DIN_G_W050
 70
     0
  3
____ . ____ . ____ . ____ . ____ . ____ . ____
 72
    65
 73
     4
 40
13.75
 49
9.75
 74
     0
 49
-1.5
 74
     0
 49
1.0
 74
     0
 49
-1.5
 74
     0
  0
LTYPE
  5
323
330
5
100
AcDbSymbolTableRecord
100
AcDbLinetypeTableRecord
  2
AM_DIN_K_W050
 70
     0
  3
_____ . . _____ . . _____ . . ____ .. ____
 72
    65
 73
     6
 40
16.25
 49
9.75
 74
     0
 49
-1.5
 74
     0
 49
1.0
 74
     0
 49
-1.5
 74
     0
 49
1.0
 74
     0
 49
-1.5
 74
     0
  0
LTYPE
  5
324
330
5
100
AcDbSymbolTableRecord
100
AcDbLinetypeTableRecord
  2
AM_DIN_G_W050x2
 70
     0
  3
__ . __ . __ . __ . __ . __
 72
    65
 73
     4
 40
6.875
 49
4.75
 74
     0
 49
-0.875
 74
     0
 49
0.375
 74
     0
 49
-0.875
 74
     0
  0
LTYPE
  5
325
330
5
100
AcDbSymbolTableRecord
100
AcDbLinetypeTableRecord
  2
AM_DIN_F_W050x2
 70
     0
  3
 _ _ _ _ _ _ _ _ _ _ _ _
 72
    65
 73
     2
 40
3.125
 49
2.25
 74
     0
 49
-0.875
 74
     0
  0
LTYPE
  5
484
330
5
100
AcDbSymbolTableRecord
100
AcDbLinetypeTableRecord
  2
STRICHPUNKT
 70
     0
  3
Strichpunkt __ . __ . __ . __ . __ . __ . __ . 
 72
    65
 73
     4
 40
25.4
 49
12.7
 74
     0
 49
-6.349999999999997
 74
     0
 49
0.0
 74
     0
 49
-6.349999999999997
 74
     0
  0
LTYPE
  5
485
330
5
100
AcDbSymbolTableRecord
100
AcDbLinetypeTableRecord
  2
STRICHLINIE
 70
     0
  3
Strichlinie __ __ __ __ __ __ __ __ __ __ __ __
 72
    65
 73
     2
 40
19.05
 49
12.7
 74
     0
 49
-6.349999999999997
 74
     0
  0
ENDTAB
  0
TABLE
  2
LAYER
  5
2
102
{ACAD_XDICTIONARY
360
49A
102
}
330
0
100
AcDbSymbolTable
 70
     7
  0
LAYER
  5
10
102
{ACAD_XDICTIONARY
360
15B5
102
}
330
2
100
AcDbSymbolTableRecord
100
AcDbLayerTableRecord
  2
0
 70
     0
 62
     7
  6
Continuous
370
    -3
390
F
  0
LAYER
  5
486
102
{ACAD_XDICTIONARY
360
487
102
}
330
2
100
AcDbSymbolTableRecord
100
AcDbLayerTableRecord
  2
P-0000
 70
     0
 62
     7
  6
Continuous
370
    -3
390
F
  0
LAYER
  5
48A
330
2
100
AcDbSymbolTableRecord
100
AcDbLayerTableRecord
  2
Defpoints
 70
     0
 62
     7
  6
Continuous
290
     0
370
    -3
390
F
  0
LAYER
  5
48B
102
{ACAD_XDICTIONARY
360
48C
102
}
330
2
100
AcDbSymbolTableRecord
100
AcDbLayerTableRecord
  2
AM_5
 70
     0
 62
     3
  6
Continuous
370
    25
390
F
1001
AcAecLayerStandard
1000

1000

  0
LAYER
  5
48D
102
{ACAD_XDICTIONARY
360
48E
102
}
330
2
100
AcDbSymbolTableRecord
100
AcDbLayerTableRecord
  2
AM_8
 70
     0
 62
     1
  6
Continuous
370
    25
390
F
  0
LAYER
  5
48F
102
{ACAD_XDICTIONARY
360
15BB
102
}
330
2
100
AcDbSymbolTableRecord
100
AcDbLayerTableRecord
  2
AM_7
 70
     0
 62
     4
  6
AM_DIN_G_W050
370
    25
390
F
  0
LAYER
  5
17AA
330
2
100
AcDbSymbolTableRecord
100
AcDbLayerTableRecord
  2
AM_CL
 70
     0
 62
     1
  6
Amconstr
370
    25
390
F
1001
AcAecLayerStandard
1000

1000

  0
ENDTAB
  0
TABLE
  2
STYLE
  5
3
330
0
100
AcDbSymbolTable
 70
     6
  0
STYLE
  5
11
330
3
100
AcDbSymbolTableRecord
100
AcDbTextStyleTableRecord
  2
STANDARD
 70
     0
 40
0.0
 41
1.0
 50
0.0
 71
     0
 42
2.5
  3
ISOCP.SHX
  4

  0
STYLE
  5
6D
330
3
100
AcDbSymbolTableRecord
100
AcDbTextStyleTableRecord
  2
ACISOTS
 70
     0
 40
1.0
 41
1.0
 50
0.0
 71
     0
 42
2.5
  3
isocp.shx
  4
bigfont.shx
  0
STYLE
  5
79
330
3
100
AcDbSymbolTableRecord
100
AcDbTextStyleTableRecord
  2
ACISOGDT
 70
     0
 40
0.0
 41
1.0
 50
0.0
 71
     0
 42
2.5
  3
AMGDT
  4
bigfont.shx
  0
STYLE
  5
22C
330
3
100
AcDbSymbolTableRecord
100
AcDbTextStyleTableRecord
  2

 70
     1
 40
0.0
 41
1.0
 50
0.0
 71
     0
 42
2.5
  3
genltshp.shx
  4

  0
STYLE
  5
2D7
330
3
100
AcDbSymbolTableRecord
100
AcDbTextStyleTableRecord
  2
ACDINTS
 70
     0
 40
1.0
 41
1.0
 50
0.0
 71
     0
 42
2.5
  3
isocp.shx
  4

  0
STYLE
  5
2E4
330
3
100
AcDbSymbolTableRecord
100
AcDbTextStyleTableRecord
  2
ACDINGDT
 70
     0
 40
0.0
 41
1.0
 50
0.0
 71
     0
 42
2.5
  3
amgdt.shx
  4

  0
ENDTAB
  0
TABLE
  2
VIEW
  5
6
330
0
100
AcDbSymbolTable
 70
     0
  0
ENDTAB
  0
TABLE
  2
UCS
  5
7
330
0
100
AcDbSymbolTable
 70
     0
  0
ENDTAB
  0
TABLE
  2
APPID
  5
9
330
0
100
AcDbSymbolTable
 70
    25
  0
APPID
  5
12
330
9
100
AcDbSymbolTableRecord
100
AcDbRegAppTableRecord
  2
ACAD
 70
     0
  0
APPID
  5
46
330
9
100
AcDbSymbolTableRecord
100
AcDbRegAppTableRecord
  2
MCAD_NO_VIS
 70
     0
  0
APPID
  5
47
330
9
100
AcDbSymbolTableRecord
100
AcDbRegAppTableRecord
  2
ACAD_TEMP_GRAPHIC
 70
     0
  0
APPID
  5
58
330
9
100
AcDbSymbolTableRecord
100
AcDbRegAppTableRecord
  2
ACATTRIBSERVICES
 70
     0
  0
APPID
  5
EE
330
9
100
AcDbSymbolTableRecord
100
AcDbRegAppTableRecord
  2
AD_DRAW
 70
     0
  0
APPID
  5
10C
330
9
100
AcDbSymbolTableRecord
100
AcDbRegAppTableRecord
  2
DESIGNERASSEMBLIES
 70
     0
  0
APPID
  5
111
330
9
100
AcDbSymbolTableRecord
100
AcDbRegAppTableRecord
  2
ACADM_DIM_EDIT
 70
     0
  0
APPID
  5
112
330
9
100
AcDbSymbolTableRecord
100
AcDbRegAppTableRecord
  2
AMDT_DM_ADJ
 70
     0
  0
APPID
  5
1A3
330
9
100
AcDbSymbolTableRecord
100
AcDbRegAppTableRecord
  2
ACAD_DSTYLE_DIMARC_LENGTH_SYMBOL
 70
     0
  0
APPID
  5
1A4
330
9
100
AcDbSymbolTableRecord
100
AcDbRegAppTableRecord
  2
ACAD_DSTYLE_DIMJOGGED_JOGANGLE_SYMBOL
 70
     0
  0
APPID
  5
3F1
330
9
100
AcDbSymbolTableRecord
100
AcDbRegAppTableRecord
  2
ACAD_MLEADERVER
 70
     0
  0
APPID
  5
493
330
9
100
AcDbSymbolTableRecord
100
AcDbRegAppTableRecord
  2
ACME_LAYERS
 70
     0
  0
APPID
  5
494
330
9
100
AcDbSymbolTableRecord
100
AcDbRegAppTableRecord
  2
AcAecLayerStandard
 70
     0
  0
APPID
  5
495
330
9
100
AcDbSymbolTableRecord
100
AcDbRegAppTableRecord
  2
GENIUS_GENODEF_13
 70
     0
  0
APPID
  5
496
330
9
100
AcDbSymbolTableRecord
100
AcDbRegAppTableRecord
  2
ACAD_PSEXT
 70
     0
  0
APPID
  5
497
330
9
100
AcDbSymbolTableRecord
100
AcDbRegAppTableRecord
  2
GENIUS_GENOBJ-N-HTC_13
 70
     0
  0
APPID
  5
498
330
9
100
AcDbSymbolTableRecord
100
AcDbRegAppTableRecord
  2
GENIUS_GENHATCH_13
 70
     0
  0
APPID
  5
499
330
9
100
AcDbSymbolTableRecord
100
AcDbRegAppTableRecord
  2
ACAD_DSTYLE_DIMINSPECT
 70
     0
  0
APPID
  5
FB1
330
9
100
AcDbSymbolTableRecord
100
AcDbRegAppTableRecord
  2
GENIUS_GENOBJ-N-CEN_13
 70
     0
  0
APPID
  5
FB2
330
9
100
AcDbSymbolTableRecord
100
AcDbRegAppTableRecord
  2
GENIUS_GENCEN_19
 70
     0
  0
APPID
  5
14A6
330
9
100
AcDbSymbolTableRecord
100
AcDbRegAppTableRecord
  2
ACAD_EXEMPT_FROM_CAD_STANDARDS
 70
     0
  0
APPID
  5
14E3
330
9
100
AcDbSymbolTableRecord
100
AcDbRegAppTableRecord
  2
ACAD_DSTYLE_DIMANGULAR_EXTENSION
 70
     0
  0
APPID
  5
1740
330
9
100
AcDbSymbolTableRecord
100
AcDbRegAppTableRecord
  2
ACAD_DSTYLE_DIM_LINETYPE
 70
     0
  0
APPID
  5
1741
330
9
100
AcDbSymbolTableRecord
100
AcDbRegAppTableRecord
  2
ACAD_DSTYLE_DIM_EXT1_LINETYPE
 70
     0
  0
APPID
  5
1742
330
9
100
AcDbSymbolTableRecord
100
AcDbRegAppTableRecord
  2
ACAD_DSTYLE_DIM_EXT2_LINETYPE
 70
     0
  0
ENDTAB
  0
TABLE
  2
DIMSTYLE
  5
A
330
0
100
AcDbSymbolTable
 70
    17
100
AcDbDimStyleTable
 71
     2
340
2F0
340
81
  0
DIMSTYLE
105
81
330
A
100
AcDbSymbolTableRecord
100
AcDbDimStyleTableRecord
  2
AM_ISO
 70
     0
  4
"
 41
2.5
 42
1.0
 43
10.0
 44
1.0
 47
0.1
 48
0.1
 73
     0
 74
     0
 77
     1
 78
     8
 79
     2
140
3.5
141
0.0
143
0.0393701
146
0.71
147
1.5
172
     1
176
   256
177
   256
178
     2
271
     2
272
     3
274
     4
283
     0
284
     8
340
11
371
    -1
372
    -1
1001
ACAD_DSTYLE_DIMJOGGED_JOGANGLE_SYMBOL
1070
   384
1040
0.7853981633974483
1001
ACAD_DSTYLE_DIMARC_LENGTH_SYMBOL
1070
   379
1070
     1
  0
DIMSTYLE
105
82
330
A
100
AcDbSymbolTableRecord
100
AcDbDimStyleTableRecord
  2
AM_ISO$3
 70
     0
  4
"
 41
2.5
 42
1.0
 43
10.0
 44
1.0
 47
0.1
 48
0.1
 73
     0
 77
     1
 78
     8
 79
     2
140
3.5
141
0.0
143
0.0393701
146
0.71
147
1.5
176
   256
177
   256
178
     2
271
     2
272
     3
274
     4
283
     0
284
     8
288
     1
289
     0
340
11
371
    -1
372
    -1
1001
ACAD_DSTYLE_DIMJOGGED_JOGANGLE_SYMBOL
1070
   384
1040
0.7853981633974483
1001
ACAD_DSTYLE_DIMARC_LENGTH_SYMBOL
1070
   379
1070
     1
  0
DIMSTYLE
105
83
330
A
100
AcDbSymbolTableRecord
100
AcDbDimStyleTableRecord
  2
AM_ISO$4
 70
     0
  4
"
 41
2.5
 42
1.0
 43
10.0
 44
1.0
 47
0.1
 48
0.1
 73
     0
 77
     1
 78
     8
 79
     2
140
3.5
141
0.0
143
0.0393701
146
0.71
147
1.5
176
   256
177
   256
178
     2
271
     2
272
     3
274
     4
283
     0
284
     8
288
     1
289
     0
340
11
371
    -1
372
    -1
1001
ACAD_DSTYLE_DIMJOGGED_JOGANGLE_SYMBOL
1070
   384
1040
0.7853981633974483
1001
ACAD_DSTYLE_DIMARC_LENGTH_SYMBOL
1070
   379
1070
     1
  0
DIMSTYLE
105
84
330
A
100
AcDbSymbolTableRecord
100
AcDbDimStyleTableRecord
  2
AM_ISO$6
 70
     0
  4
"
 41
2.5
 42
1.0
 43
10.0
 44
1.0
 47
0.1
 48
0.1
 73
     0
 74
     0
 78
     8
 79
     2
140
3.5
141
0.0
143
0.0393701
146
0.71
147
1.5
172
     1
176
   256
177
   256
178
     2
271
     2
272
     3
274
     4
283
     0
284
     8
340
11
371
    -1
372
    -1
1001
ACAD_DSTYLE_DIMJOGGED_JOGANGLE_SYMBOL
1070
   384
1040
0.7853981633974483
1001
ACAD_DSTYLE_DIMARC_LENGTH_SYMBOL
1070
   379
1070
     1
  0
DIMSTYLE
105
85
330
A
100
AcDbSymbolTableRecord
100
AcDbDimStyleTableRecord
  2
AM_ISO$7
 70
     0
  4
"
 41
2.5
 42
1.0
 43
10.0
 44
1.0
 47
0.1
 48
0.1
 73
     0
 74
     0
 77
     1
 78
     8
 79
     2
140
5.0
141
0.0
143
0.0393701
146
0.71
147
1.5
172
     1
176
   256
177
   256
178
     2
271
     2
272
     3
274
     4
283
     0
284
     8
340
11
371
    -1
372
    -1
1001
ACAD_DSTYLE_DIMJOGGED_JOGANGLE_SYMBOL
1070
   384
1040
0.7853981633974483
1001
ACAD_DSTYLE_DIMARC_LENGTH_SYMBOL
1070
   379
1070
     1
  0
DIMSTYLE
105
86
330
A
100
AcDbSymbolTableRecord
100
AcDbDimStyleTableRecord
  2
AM_ISO$SF
 70
     0
  4
"
 41
2.5
 42
1.0
 43
10.0
 44
1.0
 47
0.1
 48
0.1
 73
     0
 74
     0
 75
     1
 76
     1
 77
     1
 78
     8
 79
     2
140
3.5
141
0.0
143
0.0393701
146
0.71
147
1.5
172
     1
176
   256
177
   256
178
     2
271
     2
272
     3
274
     4
283
     0
284
     8
340
11
371
    -1
372
    -1
1001
ACAD_DSTYLE_DIMJOGGED_JOGANGLE_SYMBOL
1070
   384
1040
0.7853981633974483
1001
ACAD_DSTYLE_DIMARC_LENGTH_SYMBOL
1070
   379
1070
     1
  0
DIMSTYLE
105
8B
330
A
100
AcDbSymbolTableRecord
100
AcDbDimStyleTableRecord
  2
AM_ISO$SH
 70
     0
  4
"
 41
2.5
 42
1.0
 43
10.0
 44
1.0
 47
0.1
 48
0.1
 73
     0
 74
     0
 75
     1
 76
     1
 77
     1
 78
     8
 79
     2
140
3.5
141
0.0
143
0.0393701
144
2.0
146
0.71
147
1.5
172
     1
173
     1
176
   256
177
   256
178
     2
271
     2
272
     3
274
     4
283
     0
284
     8
340
11
343
87
371
    -1
372
    -1
1001
ACAD_DSTYLE_DIMJOGGED_JOGANGLE_SYMBOL
1070
   384
1040
0.7853981633974483
1001
ACAD_DSTYLE_DIMARC_LENGTH_SYMBOL
1070
   379
1070
     1
  0
DIMSTYLE
105
2F0
102
{ACAD_REACTORS
330
1852
102
}
330
A
100
AcDbSymbolTableRecord
100
AcDbDimStyleTableRecord
  2
AM_DIN
 70
     0
  4
"
 41
3.5
 42
1.0
 43
10.0
 44
1.0
 47
0.1
 48
0.1
 73
     0
 74
     0
 77
     1
 78
     8
 79
     2
140
3.5
141
0.0
143
0.0393701
146
0.71
147
1.5
172
     1
176
   256
177
   256
178
     2
271
     2
272
     3
274
     4
283
     0
284
     8
340
11
371
    -1
372
    -1
1001
ACAD_DSTYLE_DIMJOGGED_JOGANGLE_SYMBOL
1070
   384
1040
1.570796326794896
1001
ACAD_DSTYLE_DIM_LINETYPE
1070
   380
1005
14
1001
ACAD_DSTYLE_DIM_EXT1_LINETYPE
1070
   381
1005
14
1001
ACAD_DSTYLE_DIM_EXT2_LINETYPE
1070
   382
1005
14
  0
DIMSTYLE
105
301
330
A
100
AcDbSymbolTableRecord
100
AcDbDimStyleTableRecord
  2
AM_DIN$3
 70
     0
  4
"
 41
3.5
 42
1.0
 43
10.0
 44
1.0
 47
0.1
 48
0.1
 73
     0
 77
     1
 78
     8
 79
     2
140
3.5
141
0.0
143
0.0393701
146
0.71
147
1.5
176
   256
177
   256
178
     2
271
     2
272
     3
274
     4
283
     0
284
     8
288
     1
289
     0
340
11
371
    -1
372
    -1
1001
ACAD_DSTYLE_DIMJOGGED_JOGANGLE_SYMBOL
1070
   384
1040
1.570796326794896
1001
ACAD_DSTYLE_DIM_LINETYPE
1070
   380
1005
14
1001
ACAD_DSTYLE_DIM_EXT1_LINETYPE
1070
   381
1005
14
1001
ACAD_DSTYLE_DIM_EXT2_LINETYPE
1070
   382
1005
14
  0
DIMSTYLE
105
306
330
A
100
AcDbSymbolTableRecord
100
AcDbDimStyleTableRecord
  2
AM_DIN$4
 70
     0
  4
"
 41
3.5
 42
1.0
 43
10.0
 44
1.0
 47
0.1
 48
0.1
 73
     0
 74
     0
 77
     1
 78
     8
 79
     2
140
3.5
141
0.0
143
0.0393701
146
0.71
147
1.5
172
     1
176
   256
177
   256
178
     2
271
     2
272
     3
274
     4
283
     0
284
     8
340
11
371
    -1
372
    -1
1001
ACAD_DSTYLE_DIMJOGGED_JOGANGLE_SYMBOL
1070
   384
1040
1.570796326794896
1001
ACAD_DSTYLE_DIM_LINETYPE
1070
   380
1005
14
1001
ACAD_DSTYLE_DIM_EXT1_LINETYPE
1070
   381
1005
14
1001
ACAD_DSTYLE_DIM_EXT2_LINETYPE
1070
   382
1005
14
  0
DIMSTYLE
105
30B
330
A
100
AcDbSymbolTableRecord
100
AcDbDimStyleTableRecord
  2
AM_DIN$6
 70
     0
  4
"
 41
3.5
 42
1.0
 43
10.0
 44
1.0
 47
0.1
 48
0.1
 73
     0
 74
     0
 78
     8
 79
     2
140
3.5
141
0.0
143
0.0393701
146
0.71
147
1.5
172
     1
176
   256
177
   256
178
     2
271
     2
272
     3
274
     4
283
     0
284
     8
340
11
371
    -1
372
    -1
1001
ACAD_DSTYLE_DIMJOGGED_JOGANGLE_SYMBOL
1070
   384
1040
1.570796326794896
1001
ACAD_DSTYLE_DIM_LINETYPE
1070
   380
1005
14
1001
ACAD_DSTYLE_DIM_EXT1_LINETYPE
1070
   381
1005
14
1001
ACAD_DSTYLE_DIM_EXT2_LINETYPE
1070
   382
1005
14
  0
DIMSTYLE
105
310
330
A
100
AcDbSymbolTableRecord
100
AcDbDimStyleTableRecord
  2
AM_DIN$7
 70
     0
  4
"
 41
3.5
 42
1.0
 43
10.0
 44
1.0
 47
0.1
 48
0.1
 73
     0
 74
     0
 77
     1
 78
     8
 79
     2
140
3.5
141
0.0
143
0.0393701
146
0.71
147
1.5
172
     1
176
   256
177
   256
178
     2
271
     2
272
     3
274
     4
283
     0
284
     8
340
11
371
    -1
372
    -1
1001
ACAD_DSTYLE_DIMJOGGED_JOGANGLE_SYMBOL
1070
   384
1040
1.570796326794896
1001
ACAD_DSTYLE_DIM_LINETYPE
1070
   380
1005
14
1001
ACAD_DSTYLE_DIM_EXT1_LINETYPE
1070
   381
1005
14
1001
ACAD_DSTYLE_DIM_EXT2_LINETYPE
1070
   382
1005
14
  0
DIMSTYLE
105
315
330
A
100
AcDbSymbolTableRecord
100
AcDbDimStyleTableRecord
  2
AM_DIN$SF
 70
     0
  4
"
 41
3.5
 42
1.0
 43
10.0
 44
1.0
 47
0.1
 48
0.1
 73
     0
 74
     0
 75
     1
 76
     1
 77
     1
 78
     8
 79
     2
140
3.5
141
0.0
143
0.0393701
146
0.71
147
1.5
172
     1
176
   256
177
   256
178
     2
271
     2
272
     3
274
     4
283
     0
284
     8
340
11
371
    -1
372
    -1
1001
ACAD_DSTYLE_DIMJOGGED_JOGANGLE_SYMBOL
1070
   384
1040
1.570796326794896
1001
ACAD_DSTYLE_DIM_LINETYPE
1070
   380
1005
14
1001
ACAD_DSTYLE_DIM_EXT1_LINETYPE
1070
   381
1005
14
1001
ACAD_DSTYLE_DIM_EXT2_LINETYPE
1070
   382
1005
14
  0
DIMSTYLE
105
31A
330
A
100
AcDbSymbolTableRecord
100
AcDbDimStyleTableRecord
  2
AM_DIN$SH
 70
     0
  4
"
 41
3.5
 42
1.0
 43
10.0
 44
1.0
 47
0.1
 48
0.1
 73
     0
 74
     0
 75
     1
 76
     1
 77
     1
 78
     8
 79
     2
140
3.5
141
0.0
143
0.0393701
144
2.0
146
0.71
147
1.5
172
     1
173
     1
176
   256
177
   256
178
     2
271
     2
272
     3
274
     4
283
     0
284
     8
340
11
343
87
371
    -1
372
    -1
1001
ACAD_DSTYLE_DIMJOGGED_JOGANGLE_SYMBOL
1070
   384
1040
1.570796326794896
1001
ACAD_DSTYLE_DIM_LINETYPE
1070
   380
1005
14
1001
ACAD_DSTYLE_DIM_EXT1_LINETYPE
1070
   381
1005
14
1001
ACAD_DSTYLE_DIM_EXT2_LINETYPE
1070
   382
1005
14
  0
DIMSTYLE
105
492
102
{ACAD_REACTORS
330
73C
330
878
330
877
330
731
102
}
330
A
100
AcDbSymbolTableRecord
100
AcDbDimStyleTableRecord
  2
AM_DIN$0
 70
     0
  4
"
 41
3.5
 42
1.0
 43
10.0
 44
1.0
 47
0.1
 48
0.1
 73
     0
 74
     0
 77
     1
 78
     8
 79
     2
140
3.5
141
0.0
143
0.0393701
146
0.71
147
1.5
172
     1
176
   256
177
   256
178
     2
271
     2
272
     3
274
     4
283
     0
284
     8
340
11
371
    -1
372
    -1
1001
ACAD_DSTYLE_DIMJOGGED_JOGANGLE_SYMBOL
1070
   384
1040
1.570796326794896
1001
ACAD_DSTYLE_DIM_LINETYPE
1070
   380
1005
14
1001
ACAD_DSTYLE_DIM_EXT1_LINETYPE
1070
   381
1005
14
1001
ACAD_DSTYLE_DIM_EXT2_LINETYPE
1070
   382
1005
14
  0
DIMSTYLE
105
14B1
102
{ACAD_REACTORS
330
14B3
102
}
330
A
100
AcDbSymbolTableRecord
100
AcDbDimStyleTableRecord
  2
AM_DIN$2
 70
     0
  4
"
 41
3.5
 42
1.0
 43
10.0
 44
1.0
 47
0.1
 48
0.1
 73
     0
 74
     0
 77
     1
 78
     8
 79
     2
140
3.5
141
0.0
143
0.0393701
146
0.71
147
1.5
172
     1
176
   256
177
   256
178
     2
271
     2
272
     3
274
     4
283
     0
284
     8
340
11
371
    -1
372
    -1
1001
ACAD_DSTYLE_DIMJOGGED_JOGANGLE_SYMBOL
1070
   384
1040
1.570796326794896
1001
ACAD_DSTYLE_DIM_LINETYPE
1070
   380
1005
14
1001
ACAD_DSTYLE_DIM_EXT1_LINETYPE
1070
   381
1005
14
1001
ACAD_DSTYLE_DIM_EXT2_LINETYPE
1070
   382
1005
14
  0
ENDTAB
  0
TABLE
  2
BLOCK_RECORD
  5
1
330
0
100
AcDbSymbolTable
 70
    10
  0
BLOCK_RECORD
  5
1F
102
{ACAD_XDICTIONARY
360
8F
102
}
330
1
100
AcDbSymbolTableRecord
100
AcDbBlockTableRecord
  2
*Model_Space
340
22
  0
BLOCK_RECORD
  5
1B
330
1
100
AcDbSymbolTableRecord
100
AcDbBlockTableRecord
  2
*Paper_Space
340
1E
  0
BLOCK_RECORD
  5
23
330
1
100
AcDbSymbolTableRecord
100
AcDbBlockTableRecord
  2
*Paper_Space0
340
26
  0
BLOCK_RECORD
  5
87
330
1
100
AcDbSymbolTableRecord
100
AcDbBlockTableRecord
  2
GENAXEH
340
0
  0
BLOCK_RECORD
  5
9D3
330
1
100
AcDbSymbolTableRecord
100
AcDbBlockTableRecord
  2
*D2
340
0
  0
BLOCK_RECORD
  5
9EB
330
1
100
AcDbSymbolTableRecord
100
AcDbBlockTableRecord
  2
*D3
340
0
  0
BLOCK_RECORD
  5
A0F
330
1
100
AcDbSymbolTableRecord
100
AcDbBlockTableRecord
  2
*D4
340
0
  0
BLOCK_RECORD
  5
A1B
330
1
100
AcDbSymbolTableRecord
100
AcDbBlockTableRecord
  2
*D5
340
0
  0
BLOCK_RECORD
  5
1459
330
1
100
AcDbSymbolTableRecord
100
AcDbBlockTableRecord
  2
*D6
340
0
  0
BLOCK_RECORD
  5
14B4
330
1
100
AcDbSymbolTableRecord
100
AcDbBlockTableRecord
  2
*D7
340
0
  0
ENDTAB
  0
ENDSEC
  0
SECTION
  2
BLOCKS
  0
BLOCK
  5
20
330
1F
100
AcDbEntity
  8
0
100
AcDbBlockBegin
  2
*Model_Space
 70
     0
 10
0.0
 20
0.0
 30
0.0
  3
*Model_Space
  1

  0
ENDBLK
  5
21
330
1F
100
AcDbEntity
  8
0
100
AcDbBlockEnd
  0
BLOCK
  5
1C
330
1B
100
AcDbEntity
 67
     1
  8
0
100
AcDbBlockBegin
  2
*Paper_Space
 70
     0
 10
0.0
 20
0.0
 30
0.0
  3
*Paper_Space
  1

  0
ENDBLK
  5
1D
330
1B
100
AcDbEntity
 67
     1
  8
0
100
AcDbBlockEnd
  0
BLOCK
  5
24
330
23
100
AcDbEntity
 67
     1
  8
0
100
AcDbBlockBegin
  2
*Paper_Space0
 70
     0
 10
0.0
 20
0.0
 30
0.0
  3
*Paper_Space0
  1

  0
ENDBLK
  5
25
330
23
100
AcDbEntity
 67
     1
  8
0
100
AcDbBlockEnd
  0
BLOCK
  5
89
330
87
100
AcDbEntity
  8
0
100
AcDbBlockBegin
  2
GENAXEH
 70
     0
 10
0.0
 20
0.0
 30
0.0
  3
GENAXEH
  1

  0
LINE
  5
88
330
87
100
AcDbEntity
  8
0
100
AcDbLine
 10
-1.0
 20
0.0
 30
0.0
 11
1.0
 21
0.0
 31
0.0
  0
ENDBLK
  5
8A
330
87
100
AcDbEntity
  8
0
100
AcDbBlockEnd
  0
BLOCK
  5
9D4
330
9D3
100
AcDbEntity
  8
0
100
AcDbBlockBegin
  2
*D2
 70
     1
 10
0.0
 20
0.0
 30
0.0
  3
*D2
  1

  0
LINE
  5
18C2
330
9D3
100
AcDbEntity
  8
AM_5
  6
ByBlock
100
AcDbLine
 10
2503.823157780354
 20
1479.559798695888
 30
0.0
 11
2503.823157780354
 21
1405.543881741671
 31
0.0
  0
LINE
  5
18C3
330
9D3
100
AcDbEntity
  8
AM_5
  6
ByBlock
100
AcDbLine
 10
2729.3493328252
 20
1523.255709425145
 30
0.0
 11
2729.3493328252
 21
1405.543881741671
 31
0.0
  0
LINE
  5
18C4
330
9D3
100
AcDbEntity
  8
AM_5
  6
ByBlock
100
AcDbLine
 10
2508.823157780354
 20
1406.543881741671
 30
0.0
 11
2724.3493328252
 21
1406.543881741671
 31
0.0
  0
SOLID
  5
18C5
330
9D3
100
AcDbEntity
  8
AM_5
100
AcDbTrace
 10
2508.823157780354
 20
1407.377215075004
 30
0.0
 11
2508.823157780354
 21
1405.710548408338
 31
0.0
 12
2503.823157780354
 22
1406.543881741671
 32
0.0
 13
2503.823157780354
 23
1406.543881741671
 33
0.0
  0
SOLID
  5
18C6
330
9D3
100
AcDbEntity
  8
AM_5
100
AcDbTrace
 10
2724.3493328252
 20
1407.377215075004
 30
0.0
 11
2724.3493328252
 21
1405.710548408338
 31
0.0
 12
2729.3493328252
 22
1406.543881741671
 32
0.0
 13
2729.3493328252
 23
1406.543881741671
 33
0.0
  0
MTEXT
  5
18C7
330
9D3
100
AcDbEntity
  8
AM_5
 62
     2
100
AcDbMText
 10
2603.952323122077
 20
1413.044865993639
 30
0.0
 40
10.0
 41
0.0
 71
     5
 72
     1
  1
226
 73
     1
 44
1.0
1001
ACAD
1000
MTEXTBEGIN
1070
    73
1070
     1
1070
    44
1040
1.0
1070
    74
1070
     0
1000
MTEXTEND
  0
POINT
  5
18C8
330
9D3
100
AcDbEntity
  8
Defpoints
 62
     0
100
AcDbPoint
 10
2503.823157780354
 20
1480.559798695888
 30
0.0
  0
POINT
  5
18C9
330
9D3
100
AcDbEntity
  8
Defpoints
 62
     0
100
AcDbPoint
 10
2729.3493328252
 20
1524.255709425145
 30
0.0
  0
POINT
  5
18CA
330
9D3
100
AcDbEntity
  8
Defpoints
 62
     0
100
AcDbPoint
 10
2729.3493328252
 20
1406.543881741671
 30
0.0
  0
ENDBLK
  5
9D5
330
9D3
100
AcDbEntity
  8
0
100
AcDbBlockEnd
  0
BLOCK
  5
9EC
330
9EB
100
AcDbEntity
  8
0
100
AcDbBlockBegin
  2
*D3
 70
     1
 10
0.0
 20
0.0
 30
0.0
  3
*D3
  1

  0
LINE
  5
18A7
330
9EB
100
AcDbEntity
  8
AM_5
  6
ByBlock
100
AcDbLine
 10
2461.523157780358
 20
1480.559798695888
 30
0.0
 11
2313.786454591657
 21
1480.559798695888
 31
0.0
  0
LINE
  5
18A8
330
9EB
100
AcDbEntity
  8
AM_5
  6
ByBlock
100
AcDbLine
 10
2337.779647738388
 20
1628.05496976189
 30
0.0
 11
2313.786454591657
 21
1628.05496976189
 31
0.0
  0
LINE
  5
18A9
330
9EB
100
AcDbEntity
  8
AM_5
  6
ByBlock
100
AcDbLine
 10
2314.786454591656
 20
1485.559798695888
 30
0.0
 11
2314.786454591656
 21
1623.05496976189
 31
0.0
  0
SOLID
  5
18AA
330
9EB
100
AcDbEntity
  8
AM_5
100
AcDbTrace
 10
2313.953121258323
 20
1485.559798695888
 30
0.0
 11
2315.61978792499
 21
1485.559798695888
 31
0.0
 12
2314.786454591656
 22
1480.559798695888
 32
0.0
 13
2314.786454591656
 23
1480.559798695888
 33
0.0
  0
SOLID
  5
18AB
330
9EB
100
AcDbEntity
  8
AM_5
100
AcDbTrace
 10
2313.953121258323
 20
1623.05496976189
 30
0.0
 11
2315.61978792499
 21
1623.05496976189
 31
0.0
 12
2314.786454591656
 22
1628.05496976189
 32
0.0
 13
2314.786454591656
 23
1628.05496976189
 33
0.0
  0
MTEXT
  5
18AC
330
9EB
100
AcDbEntity
  8
AM_5
 62
     2
100
AcDbMText
 10
2308.286454591656
 20
1556.941557243691
 30
0.0
 40
10.0
 41
0.0
 71
     5
 72
     1
  1
147.5
 11
0.0000000000000001
 21
1.0
 31
0.0
 73
     1
 44
1.0
1001
ACAD
1000
MTEXTBEGIN
1070
    73
1070
     1
1070
    44
1040
1.0
1070
    74
1070
     0
1000
MTEXTEND
  0
POINT
  5
18AD
330
9EB
100
AcDbEntity
  8
Defpoints
 62
     0
100
AcDbPoint
 10
2462.523157780358
 20
1480.559798695888
 30
0.0
  0
POINT
  5
18AE
330
9EB
100
AcDbEntity
  8
Defpoints
 62
     0
100
AcDbPoint
 10
2338.779647738388
 20
1628.05496976189
 30
0.0
  0
POINT
  5
18AF
330
9EB
100
AcDbEntity
  8
Defpoints
 62
     0
100
AcDbPoint
 10
2314.786454591656
 20
1628.05496976189
 30
0.0
  0
ENDBLK
  5
9ED
330
9EB
100
AcDbEntity
  8
0
100
AcDbBlockEnd
  0
BLOCK
  5
A10
330
A0F
100
AcDbEntity
  8
0
100
AcDbBlockBegin
  2
*D4
 70
     1
 10
0.0
 20
0.0
 30
0.0
  3
*D4
  1

  0
LINE
  5
18B9
330
A0F
100
AcDbEntity
  8
AM_5
  6
ByBlock
100
AcDbLine
 10
2669.866667822319
 20
1628.05496976189
 30
0.0
 11
2786.392569045242
 21
1628.05496976189
 31
0.0
  0
LINE
  5
18BA
330
A0F
100
AcDbEntity
  8
AM_5
  6
ByBlock
100
AcDbLine
 10
2730.3493328252
 20
1524.255709425145
 30
0.0
 11
2786.392569045242
 21
1524.255709425145
 31
0.0
  0
LINE
  5
18BB
330
A0F
100
AcDbEntity
  8
AM_5
  6
ByBlock
100
AcDbLine
 10
2785.392569045242
 20
1623.05496976189
 30
0.0
 11
2785.392569045242
 21
1529.255709425145
 31
0.0
  0
SOLID
  5
18BC
330
A0F
100
AcDbEntity
  8
AM_5
100
AcDbTrace
 10
2784.559235711908
 20
1623.05496976189
 30
0.0
 11
2786.225902378575
 21
1623.05496976189
 31
0.0
 12
2785.392569045242
 22
1628.05496976189
 32
0.0
 13
2785.392569045242
 23
1628.05496976189
 33
0.0
  0
SOLID
  5
18BD
330
A0F
100
AcDbEntity
  8
AM_5
100
AcDbTrace
 10
2784.559235711908
 20
1529.255709425145
 30
0.0
 11
2786.225902378575
 21
1529.255709425145
 31
0.0
 12
2785.392569045242
 22
1524.255709425145
 32
0.0
 13
2785.392569045242
 23
1524.255709425145
 33
0.0
  0
MTEXT
  5
18BE
330
A0F
100
AcDbEntity
  8
AM_5
 62
     2
100
AcDbMText
 10
2778.892569045241
 20
1581.521926233861
 30
0.0
 40
10.0
 41
0.0
 71
     5
 72
     1
  1
103.8
 11
0.0000000000000001
 21
1.0
 31
0.0
 73
     1
 44
1.0
1001
ACAD
1000
MTEXTBEGIN
1070
    73
1070
     1
1070
    44
1040
1.0
1070
    74
1070
     0
1000
MTEXTEND
  0
POINT
  5
18BF
330
A0F
100
AcDbEntity
  8
Defpoints
 62
     0
100
AcDbPoint
 10
2668.866667822319
 20
1628.05496976189
 30
0.0
  0
POINT
  5
18C0
330
A0F
100
AcDbEntity
  8
Defpoints
 62
     0
100
AcDbPoint
 10
2729.3493328252
 20
1524.255709425145
 30
0.0
  0
POINT
  5
18C1
330
A0F
100
AcDbEntity
  8
Defpoints
 62
     0
100
AcDbPoint
 10
2785.392569045242
 20
1524.255709425145
 30
0.0
  0
ENDBLK
  5
A11
330
A0F
100
AcDbEntity
  8
0
100
AcDbBlockEnd
  0
BLOCK
  5
A1C
330
A1B
100
AcDbEntity
  8
0
100
AcDbBlockBegin
  2
*D5
 70
     1
 10
0.0
 20
0.0
 30
0.0
  3
*D5
  1

  0
LINE
  5
18B0
330
A1B
100
AcDbEntity
  8
AM_5
  6
ByBlock
100
AcDbLine
 10
2726.15006604088
 20
1575.909237208921
 30
0.0
 11
2766.7683981946
 21
1574.490813794639
 31
0.0
  0
LINE
  5
18B1
330
A1B
100
AcDbEntity
  8
AM_5
  6
ByBlock
100
AcDbLine
 10
2722.555417880521
 20
1472.971982025954
 30
0.0
 11
2763.173750034236
 21
1471.553558611673
 31
0.0
  0
LINE
  5
18B2
330
A1B
100
AcDbEntity
  8
AM_5
  6
ByBlock
100
AcDbLine
 10
2765.594509884069
 20
1569.528759156247
 30
0.0
 11
2762.34885669073
 21
1476.58541224347
 31
0.0
  0
SOLID
  5
18B3
330
A1B
100
AcDbEntity
  8
AM_5
100
AcDbTrace
 10
2764.761684194886
 20
1569.557842070165
 30
0.0
 11
2766.427335573251
 21
1569.499676242328
 31
0.0
 12
2765.769007367581
 22
1574.525713291342
 32
0.0
 13
2765.769007367581
 23
1574.525713291342
 33
0.0
  0
SOLID
  5
18B4
330
A1B
100
AcDbEntity
  8
AM_5
100
AcDbTrace
 10
2761.516031001547
 20
1476.614495157389
 30
0.0
 11
2763.181682379913
 21
1476.556329329552
 31
0.0
 12
2762.174359207217
 22
1471.588458108375
 32
0.0
 13
2762.174359207217
 23
1471.588458108375
 33
0.0
  0
MTEXT
  5
18B5
330
A1B
100
AcDbEntity
  8
AM_5
 62
     2
100
AcDbMText
 10
2756.84759244686
 20
1505.298920240701
 30
0.0
 40
10.0
 41
0.0
 71
     5
 72
     1
  1
%%c103
 11
0.0348994967025624
 21
0.9993908270190937
 31
0.0
 73
     1
 44
1.0
1001
ACAD
1000
MTEXTBEGIN
1070
    73
1070
     1
1070
    44
1040
1.0
1070
    74
1070
     0
1000
MTEXTEND
  0
POINT
  5
18B6
330
A1B
100
AcDbEntity
  8
Defpoints
 62
     0
100
AcDbPoint
 10
2725.150675213861
 20
1575.944136705624
 30
0.0
  0
POINT
  5
18B7
330
A1B
100
AcDbEntity
  8
Defpoints
 62
     0
100
AcDbPoint
 10
2721.556027053502
 20
1473.006881522657
 30
0.0
  0
POINT
  5
18B8
330
A1B
100
AcDbEntity
  8
Defpoints
 62
     0
100
AcDbPoint
 10
2762.174359207217
 20
1471.588458108375
 30
0.0
  0
ENDBLK
  5
A1D
330
A1B
100
AcDbEntity
  8
0
100
AcDbBlockEnd
  0
BLOCK
  5
145A
330
1459
100
AcDbEntity
  8
0
100
AcDbBlockBegin
  2
*D6
 70
     1
 10
0.0
 20
0.0
 30
0.0
  3
*D6
  1

  0
LINE
  5
189E
330
1459
100
AcDbEntity
  8
AM_5
  6
ByBlock
100
AcDbLine
 10
2253.757892717405
 20
1637.086117118804
 30
0.0
 11
2253.757892717405
 21
1795.784671451254
 31
0.0
  0
LINE
  5
189F
330
1459
100
AcDbEntity
  8
AM_5
  6
ByBlock
100
AcDbLine
 10
2753.757892717408
 20
1635.086117118797
 30
0.0
 11
2753.757892717408
 21
1795.784671451254
 31
0.0
  0
LINE
  5
18A0
330
1459
100
AcDbEntity
  8
AM_5
  6
ByBlock
100
AcDbLine
 10
2258.757892717405
 20
1794.784671451254
 30
0.0
 11
2748.757892717408
 21
1794.784671451254
 31
0.0
  0
SOLID
  5
18A1
330
1459
100
AcDbEntity
  8
AM_5
100
AcDbTrace
 10
2258.757892717405
 20
1795.618004784587
 30
0.0
 11
2258.757892717405
 21
1793.951338117921
 31
0.0
 12
2253.757892717405
 22
1794.784671451254
 32
0.0
 13
2253.757892717405
 23
1794.784671451254
 33
0.0
  0
SOLID
  5
18A2
330
1459
100
AcDbEntity
  8
AM_5
100
AcDbTrace
 10
2748.757892717408
 20
1795.618004784587
 30
0.0
 11
2748.757892717408
 21
1793.951338117921
 31
0.0
 12
2753.757892717408
 22
1794.784671451254
 32
0.0
 13
2753.757892717408
 23
1794.784671451254
 33
0.0
  0
MTEXT
  5
18A3
330
1459
100
AcDbEntity
  8
AM_5
 62
     2
100
AcDbMText
 10
2503.757892717406
 20
1801.284671451254
 30
0.0
 40
10.0
 41
0.0
 71
     5
 72
     1
  1
{\Famgdt;o}500
 73
     1
 44
1.0
1001
ACAD
1000
MTEXTBEGIN
1070
    73
1070
     1
1070
    44
1040
1.0
1070
    74
1070
     0
1000
MTEXTEND
  0
POINT
  5
18A4
330
1459
100
AcDbEntity
  8
Defpoints
 62
     0
100
AcDbPoint
 10
2253.757892717405
 20
1636.086117118804
 30
0.0
  0
POINT
  5
18A5
330
1459
100
AcDbEntity
  8
Defpoints
 62
     0
100
AcDbPoint
 10
2753.757892717408
 20
1634.086117118797
 30
0.0
  0
POINT
  5
18A6
330
1459
100
AcDbEntity
  8
Defpoints
 62
     0
100
AcDbPoint
 10
2753.757892717408
 20
1794.784671451254
 30
0.0
  0
ENDBLK
  5
145B
330
1459
100
AcDbEntity
  8
0
100
AcDbBlockEnd
  0
BLOCK
  5
14B5
330
14B4
100
AcDbEntity
  8
0
100
AcDbBlockBegin
  2
*D7
 70
     1
 10
0.0
 20
0.0
 30
0.0
  3
*D7
  1

  0
ARC
  5
1893
330
14B4
100
AcDbEntity
  8
AM_5
  6
ByBlock
100
AcDbCircle
 10
2563.223157780354
 20
1530.460975740106
 30
0.0
 40
142.365503619132
100
AcDbArc
 50
353.8360788259897
 51
355.8484597458976
  0
ARC
  5
1894
330
14B4
100
AcDbEntity
  8
AM_5
  6
ByBlock
100
AcDbCircle
 10
2563.223157780354
 20
1530.460975740106
 30
0.0
 40
142.365503619132
100
AcDbArc
 50
2.012380919907768
 51
4.024761839815695
  0
ARC
  5
1895
330
14B4
100
AcDbEntity
  8
AM_5
  6
ByBlock
100
AcDbCircle
 10
2563.223157780354
 20
1530.460975740106
 30
0.0
 40
142.365503619132
100
AcDbArc
 50
357.8608406658055
 51
359.9999999999999
  0
SOLID
  5
1896
330
14B4
100
AcDbEntity
  8
AM_5
100
AcDbTrace
 10
2704.38302547649
 20
1520.200197754226
 30
0.0
 11
2706.047181399816
 21
1520.108749185967
 31
0.0
 12
2705.48944914293
 22
1525.146941240074
 32
0.0
 13
2705.48944914293
 23
1525.146941240074
 33
0.0
  0
SOLID
  5
1897
330
14B4
100
AcDbEntity
  8
AM_5
100
AcDbTrace
 10
2706.334064066957
 20
1535.4748384534
 30
0.0
 11
2704.667654394134
 21
1535.445571063754
 31
0.0
 12
2705.588661399485
 22
1530.460975740106
 32
0.0
 13
2705.588661399485
 23
1530.460975740106
 33
0.0
  0
MTEXT
  5
1898
330
14B4
100
AcDbEntity
  8
AM_5
 62
     2
100
AcDbMText
 10
2698.324200899541
 20
1516.077799075061
 30
0.0
 40
10.0
 41
0.0
 71
     5
 72
     1
  1
2\U+00B0
 11
0.1058641117786909
 21
0.9943806061248926
 31
0.0
 73
     1
 44
1.0
1001
ACAD
1000
MTEXTBEGIN
1070
    73
1070
     1
1070
    44
1040
1.0
1070
    74
1070
     0
1000
MTEXTEND
  0
POINT
  5
1899
330
14B4
100
AcDbEntity
  8
Defpoints
 62
     0
100
AcDbPoint
 10
2705.577636677121
 20
1528.689265052925
 30
0.0
  0
POINT
  5
189A
330
14B4
100
AcDbEntity
  8
Defpoints
 62
     0
100
AcDbPoint
 10
2563.223157780354
 20
1530.460975740106
 30
0.0
  0
POINT
  5
189B
330
14B4
100
AcDbEntity
  8
Defpoints
 62
     0
100
AcDbPoint
 10
2729.3493328252
 20
1524.255709425145
 30
0.0
  0
POINT
  5
189C
330
14B4
100
AcDbEntity
  8
Defpoints
 62
     0
100
AcDbPoint
 10
2668.862754024113
 20
1526.515048327279
 30
0.0
  0
POINT
  5
189D
330
14B4
100
AcDbEntity
  8
Defpoints
 62
     0
100
AcDbPoint
 10
2729.566025499821
 20
1530.460975740106
 30
0.0
  0
ENDBLK
  5
14B6
330
14B4
100
AcDbEntity
  8
0
100
AcDbBlockEnd
  0
ENDSEC
  0
SECTION
  2
ENTITIES
  0
DIMENSION
  5
731
330
1F
100
AcDbEntity
  8
AM_5
100
AcDbDimension
  2
*D2
 10
2729.3493328252
 20
1406.543881741671
 30
0.0
 11
2603.952323122077
 21
1406.543881741671
 31
0.0
 70
   160
  1
226
 71
     5
 42
225.5261750448458
  3
AM_DIN$0
100
AcDbAlignedDimension
 13
2503.823157780354
 23
1480.559798695888
 33
0.0
 14
2729.3493328252
 24
1524.255709425145
 34
0.0
100
AcDbRotatedDimension
1001
ACME_LAYERS
1000
1
1001
ACAD
1000
DSTYLE
1002
{
1070
    41
1040
5.0
1070
   140
1040
10.0
1070
   271
1070
     0
1002
}
  0
LINE
  5
732
330
1F
100
AcDbEntity
  8
P-0000
  6
Continuous
 62
     7
100
AcDbLine
 10
2613.745005820663
 20
1579.834508406578
 30
0.0
 11
2657.103975026452
 21
1578.320379837543
 31
0.0
1001
ACME_LAYERS
1000
1
  0
LINE
  5
733
330
1F
100
AcDbEntity
  8
P-0000
  6
Continuous
 62
     7
100
AcDbLine
 10
2570.16094924983
 20
1478.293714136825
 30
0.0
 11
2712.56150961033
 21
1473.32097699298
 31
0.0
1001
ACME_LAYERS
1000
1
  0
LINE
  5
734
330
1F
100
AcDbEntity
  8
P-0000
  6
Continuous
 62
     7
100
AcDbLine
 10
2644.294871052595
 20
1628.05496976189
 30
0.0
 11
2668.866667822319
 21
1628.05496976189
 31
0.0
1001
ACME_LAYERS
1000
1
  0
LINE
  5
735
330
1F
100
AcDbEntity
  8
P-0000
  6
Continuous
 62
     7
100
AcDbLine
 10
2650.732126062227
 20
1632.843317444268
 30
0.0
 11
2663.501209582411
 21
1632.843317444268
 31
0.0
1001
ACME_LAYERS
1000
1
  0
LINE
  5
736
330
1F
100
AcDbEntity
  8
P-0000
  6
Continuous
 62
     7
100
AcDbLine
 10
2652.28461701475
 20
1634.05496976189
 30
0.0
 11
2661.134617014749
 21
1634.05496976189
 31
0.0
1001
ACME_LAYERS
1000
1
  0
LINE
  5
737
330
1F
100
AcDbEntity
  8
P-0000
  6
Continuous
 62
     7
100
AcDbLine
 10
2652.848900869353
 20
1629.554969761889
 30
0.0
 11
2661.384434775284
 21
1629.554969761889
 31
0.0
1001
ACME_LAYERS
1000
1
  0
LINE
  5
738
330
1F
100
AcDbEntity
  8
P-0000
  6
Continuous
 62
     7
100
AcDbLine
 10
2654.263114431727
 20
1630.969183324263
 30
0.0
 11
2659.970221212911
 21
1630.969183324263
 31
0.0
1001
ACME_LAYERS
1000
1
  0
LINE
  5
739
330
1F
100
AcDbEntity
  8
P-0000
  6
STRICHPUNKT
 62
     3
100
AcDbLine
 10
2668.862754024113
 20
1526.515048327279
 30
0.0
 11
2497.827339084983
 21
1532.903688159025
 31
0.0
1001
ACME_LAYERS
1000
1
  0
HATCH
  5
73A
330
1F
100
AcDbEntity
  8
P-0000
  6
Continuous
 62
     3
100
AcDbHatch
 10
0.0
 20
0.0
 30
0.0
210
0.0
220
0.0
230
1.0
  2
_U
 70
     0
 71
     0
 91
        1
 92
        1
 93
        6
 72
     1
 10
2446.423157780355
 20
1583.413070711827
 11
2446.423157780355
 21
1572.40503121655
 72
     1
 10
2446.423157780355
 20
1572.40503121655
 11
2446.423157780355
 21
1570.559798695888
 72
     1
 10
2446.423157780355
 20
1570.559798695888
 11
2446.423157780355
 21
1524.156180431077
 72
     1
 10
2446.423157780355
 20
1524.156180431077
 11
2444.423157780355
 21
1524.125480231202
 72
     1
 10
2444.423157780355
 20
1524.125480231202
 11
2444.423157780355
 21
1582.799059823609
 72
     1
 10
2444.423157780355
 20
1582.799059823609
 11
2446.423157780355
 21
1583.413070711827
 97
        0
 75
     0
 76
     0
 52
45.0
 41
2.0
 77
     0
 78
     1
 53
45.0
 43
2444.540029765462
 44
1774.096586554694
 45
-1.414213562373094
 46
1.414213562373094
 79
     0
 98
        1
 10
2444.540029765462
 20
1774.096586554694
1001
ACME_LAYERS
1000
1
  0
DIMENSION
  5
73C
330
1F
100
AcDbEntity
  8
AM_5
100
AcDbDimension
  2
*D3
 10
2314.786454591656
 20
1628.05496976189
 30
0.0
 11
2314.786454591656
 21
1556.941557243691
 31
0.0
 70
   160
  1
147.5
 71
     5
 42
147.4951710660018
  3
AM_DIN$0
100
AcDbAlignedDimension
 13
2462.523157780358
 23
1480.559798695888
 33
0.0
 14
2338.779647738388
 24
1628.05496976189
 34
0.0
 50
90.0
100
AcDbRotatedDimension
1001
ACME_LAYERS
1000
1
1001
ACAD
1000
DSTYLE
1002
{
1070
    41
1040
5.0
1070
   140
1040
10.0
1070
   271
1070
     0
1002
}
  0
SPLINE
  5
73E
330
1F
100
AcDbEntity
  8
P-0000
  6
Continuous
 62
     3
100
AcDbSpline
210
0.0
220
0.0
230
1.0
 70
     8
 71
     3
 72
    12
 73
     8
 74
     0
 42
0.0000000001
 43
0.0000000001
 40
1.840341840037804
 40
1.840341840037804
 40
1.840341840037804
 40
1.840341840037804
 40
19.91329270764132
 40
34.46798770376157
 40
54.11594987685134
 40
68.4846029736532
 40
87.97665251291361
 40
87.97665251291361
 40
87.97665251291361
 40
87.97665251291361
 10
2446.423157780355
 20
1583.413070711827
 30
0.0
 10
2452.776709751266
 20
1584.821947888764
 30
0.0
 10
2460.956737558631
 20
1577.069515811736
 30
0.0
 10
2476.358531124104
 20
1565.595501137229
 30
0.0
 10
2469.898856600313
 20
1547.572168835615
 30
0.0
 10
2464.08658332536
 20
1531.040324332862
 30
0.0
 10
2452.904281440709
 20
1524.598576546391
 30
0.0
 10
2446.423157780355
 20
1524.156180431077
 30
0.0
  0
ARC
  5
73F
330
1F
100
AcDbEntity
  8
P-0000
  6
Continuous
 62
     7
100
AcDbCircle
 10
2592.799242897783
 20
1530.102299454393
 30
0.0
 40
59.38544696981221
100
AcDbArc
 50
119.8701416971419
 51
228.0440169412308
1001
ACME_LAYERS
1000
1
  0
LINE
  5
740
330
1F
100
AcDbEntity
  8
P-0000
  6
STRICHPUNKT
 62
     3
100
AcDbLine
 10
2503.823157780354
 20
1578.867027145111
 30
0.0
 11
2503.823157780354
 21
1534.633697960054
 31
0.0
1001
ACME_LAYERS
1000
1
  0
LINE
  5
741
330
1F
100
AcDbEntity
  8
P-0000
  6
STRICHLINIE
 62
     2
100
AcDbLine
 10
2563.223157780354
 20
1581.598770216291
 30
0.0
 11
2563.223157780354
 21
1492.559798695888
 31
0.0
1001
ACME_LAYERS
1000
1
  0
LINE
  5
742
330
1F
100
AcDbEntity
  8
P-0000
  6
Continuous
 62
     7
100
AcDbLine
 10
2459.423157780355
 20
1566.059798695888
 30
0.0
 11
2459.423157780355
 21
1548.059798695888
 31
0.0
1001
ACME_LAYERS
1000
1
  0
LINE
  5
743
330
1F
100
AcDbEntity
  8
P-0000
  6
Continuous
 62
     7
100
AcDbLine
 10
2461.423157780355
 20
1566.059798695888
 30
0.0
 11
2461.423157780355
 21
1548.059798695888
 31
0.0
1001
ACME_LAYERS
1000
1
  0
LINE
  5
744
330
1F
100
AcDbEntity
  8
P-0000
  6
Continuous
 62
     7
100
AcDbLine
 10
2444.423157780355
 20
1582.799059823609
 30
0.0
 11
2444.423157780355
 21
1524.125480231202
 31
0.0
1001
ACME_LAYERS
1000
1
  0
LINE
  5
745
330
1F
100
AcDbEntity
  8
P-0000
  6
Continuous
 62
     7
100
AcDbLine
 10
2446.423157780355
 20
1570.559798695888
 30
0.0
 11
2446.423157780355
 21
1524.156180431077
 31
0.0
1001
ACME_LAYERS
1000
1
  0
LINE
  5
746
330
1F
100
AcDbEntity
  8
P-0000
  6
Continuous
 62
     7
100
AcDbLine
 10
2462.523157780358
 20
1480.559798695888
 30
0.0
 11
2545.123157780343
 21
1480.559798695888
 31
0.0
1001
ACME_LAYERS
1000
1
  0
LINE
  5
747
330
1F
100
AcDbEntity
  8
P-0000
  6
STRICHPUNKT
 62
     3
100
AcDbLine
 10
2503.823157780354
 20
1513.120585682569
 30
0.0
 11
2503.823157780354
 21
1480.559798695888
 31
0.0
1001
ACME_LAYERS
1000
1
  0
ARC
  5
748
330
1F
100
AcDbEntity
  8
P-0000
  6
Continuous
 62
     7
100
AcDbCircle
 10
2456.923157780355
 20
1548.059798695888
 30
0.0
 40
2.5
100
AcDbArc
 50
270.0
 51
0.0
1001
ACME_LAYERS
1000
1
  0
ARC
  5
749
330
1F
100
AcDbEntity
  8
P-0000
  6
Continuous
 62
     7
100
AcDbCircle
 10
2456.923157780355
 20
1548.059798695888
 30
0.0
 40
4.5
100
AcDbArc
 50
270.0
 51
0.0
1001
ACME_LAYERS
1000
1
  0
LINE
  5
74A
330
1F
100
AcDbEntity
  8
P-0000
  6
Continuous
 62
     7
100
AcDbLine
 10
2456.423157780355
 20
1480.559798695888
 30
0.0
 11
2462.523157780358
 21
1480.559798695888
 31
0.0
1001
ACME_LAYERS
1000
1
  0
LINE
  5
74B
330
1F
100
AcDbEntity
  8
P-0000
  6
Continuous
 62
     7
100
AcDbLine
 10
2444.423157780355
 20
1515.781279679124
 30
0.0
 11
2444.423157780355
 21
1492.559798695888
 31
0.0
1001
ACME_LAYERS
1000
1
  0
ARC
  5
74C
330
1F
100
AcDbEntity
  8
P-0000
  6
Continuous
 62
     7
100
AcDbCircle
 10
2456.423157780355
 20
1492.559798695888
 30
0.0
 40
12.0
100
AcDbArc
 50
180.0
 51
270.0
1001
ACME_LAYERS
1000
1
  0
LINE
  5
74D
330
1F
100
AcDbEntity
  8
P-0000
  6
Continuous
 62
     7
100
AcDbLine
 10
2444.423157780355
 20
1524.125480231202
 30
0.0
 11
2444.423157780355
 21
1515.781279679124
 31
0.0
1001
ACME_LAYERS
1000
1
  0
SPLINE
  5
74E
330
1F
100
AcDbEntity
  8
P-0000
  6
Continuous
 62
     3
100
AcDbSpline
210
0.0
220
0.0
230
1.0
 70
     8
 71
     3
 72
     8
 73
     4
 74
     0
 42
0.0000000001
 43
0.0000000001
 40
87.97665251291361
 40
87.97665251291361
 40
87.97665251291361
 40
87.97665251291361
 40
89.98292855350005
 40
89.98292855350005
 40
89.98292855350005
 40
89.98292855350005
 10
2446.423157780355
 20
1524.156180431077
 30
0.0
 10
2445.756069227679
 20
1524.110645520815
 30
0.0
 10
2445.088514673625
 20
1524.099709236805
 30
0.0
 10
2444.423157780355
 20
1524.125480231202
 30
0.0
  0
LINE
  5
74F
330
1F
100
AcDbEntity
  8
P-0000
  6
Continuous
 62
     7
100
AcDbLine
 10
2446.423157780355
 20
1545.559798695888
 30
0.0
 11
2456.923157780355
 21
1545.559798695888
 31
0.0
1001
ACME_LAYERS
1000
1
  0
LINE
  5
750
330
1F
100
AcDbEntity
  8
P-0000
  6
Continuous
 62
     7
100
AcDbLine
 10
2446.423157780355
 20
1543.559798695888
 30
0.0
 11
2456.923157780355
 21
1543.559798695888
 31
0.0
1001
ACME_LAYERS
1000
1
  0
LINE
  5
751
330
1F
100
AcDbEntity
  8
P-0000
  6
Continuous
 62
     7
100
AcDbLine
 10
2446.423157780355
 20
1545.559798695888
 30
0.0
 11
2446.423157780355
 21
1543.559798695888
 31
0.0
1001
ACME_LAYERS
1000
1
  0
LINE
  5
752
330
1F
100
AcDbEntity
  8
P-0000
  6
STRICHPUNKT
 62
     3
100
AcDbLine
 10
2503.823157780354
 20
1534.633697960054
 30
0.0
 11
2503.823157780354
 21
1519.648723620439
 31
0.0
1001
ACME_LAYERS
1000
1
  0
LINE
  5
753
330
1F
100
AcDbEntity
  8
P-0000
  6
STRICHPUNKT
 62
     3
100
AcDbLine
 10
2503.823157780354
 20
1519.648723620439
 30
0.0
 11
2503.823157780354
 21
1513.144761582497
 31
0.0
1001
ACME_LAYERS
1000
1
  0
ARC
  5
754
330
1F
100
AcDbEntity
  8
P-0000
  6
STRICHLINIE
 62
     2
100
AcDbCircle
 10
2551.223157780354
 20
1492.559798695888
 30
0.0
 40
12.0
100
AcDbArc
 50
270.0
 51
0.0
1001
ACME_LAYERS
1000
1
  0
LINE
  5
755
330
1F
100
AcDbEntity
  8
P-0000
  6
Continuous
 62
     7
100
AcDbLine
 10
2548.223157780354
 20
1479.059798695888
 30
0.0
 11
2566.921957244657
 21
1478.406822230023
 31
0.0
1001
ACME_LAYERS
1000
1
  0
ARC
  5
756
330
1F
100
AcDbEntity
  8
P-0000
  6
Continuous
 62
     7
100
AcDbCircle
 10
2551.270664808808
 20
1483.55942251934
 30
0.0
 40
2.999999999994918
100
AcDbArc
 50
269.0926446653919
 51
52.5098846056623
1001
ACME_LAYERS
1000
1
  0
HATCH
  5
757
330
1F
100
AcDbEntity
  8
P-0000
  6
Continuous
 62
     3
100
AcDbHatch
 10
0.0
 20
0.0
 30
0.0
210
0.0
220
0.0
230
1.0
  2
_SOLID
 70
     1
 71
     0
 91
        1
 92
        1
 93
        3
 72
     1
 10
2546.723157780354
 20
1480.559798695888
 11
2548.223157780354
 21
1480.559798695888
 72
     1
 10
2548.223157780354
 20
1480.559798695888
 11
2548.223157780354
 21
1479.059798695888
 72
     1
 10
2548.223157780354
 20
1479.059798695888
 11
2546.723157780354
 21
1480.559798695888
 97
        0
 75
     0
 76
     1
 98
        1
 10
2444.540029765462
 20
1774.096586554694
1001
ACME_LAYERS
1000
1
  0
LINE
  5
758
330
1F
100
AcDbEntity
  8
P-0000
  6
Continuous
 62
     7
100
AcDbLine
 10
2546.723157780354
 20
1480.559798695888
 30
0.0
 11
2548.223157780354
 21
1480.559798695888
 31
0.0
1001
ACME_LAYERS
1000
1
  0
LINE
  5
759
330
1F
100
AcDbEntity
  8
P-0000
  6
Continuous
 62
     3
100
AcDbLine
 10
2548.223157780354
 20
1479.059798695888
 30
0.0
 11
2546.723157780354
 21
1480.559798695888
 31
0.0
1001
ACME_LAYERS
1000
1
  0
LINE
  5
75A
330
1F
100
AcDbEntity
  8
P-0000
  6
Continuous
 62
     7
100
AcDbLine
 10
2545.123157780343
 20
1480.559798695888
 30
0.0
 11
2546.723157780354
 21
1480.559798695888
 31
0.0
1001
ACME_LAYERS
1000
1
  0
LINE
  5
75B
330
1F
100
AcDbEntity
  8
P-0000
  6
Continuous
 62
     7
100
AcDbLine
 10
2548.223157780354
 20
1480.559798695888
 30
0.0
 11
2548.223157780354
 21
1479.059798695888
 31
0.0
1001
ACME_LAYERS
1000
1
  0
LINE
  5
75C
330
1F
100
AcDbEntity
  8
P-0000
  6
Continuous
 62
     7
100
AcDbLine
 10
2548.223157780354
 20
1480.559798695888
 30
0.0
 11
2551.223157780354
 21
1480.559798695888
 31
0.0
1001
ACME_LAYERS
1000
1
  0
LINE
  5
75D
330
1F
100
AcDbEntity
  8
P-0000
  6
Continuous
 62
     7
100
AcDbLine
 10
2566.921957244657
 20
1478.406822230023
 30
0.0
 11
2570.16094924983
 21
1478.293714136825
 31
0.0
1001
ACME_LAYERS
1000
1
  0
HATCH
  5
75E
330
1F
100
AcDbEntity
  8
P-0000
  6
Continuous
 62
     3
100
AcDbHatch
 10
0.0
 20
0.0
 30
0.0
210
0.0
220
0.0
230
1.0
  2
_U
 70
     0
 71
     0
 91
        1
 92
        1
 93
       35
 72
     1
 10
2354.797414691354
 20
1629.554969761889
 11
2353.383201128981
 21
1630.969183324263
 72
     1
 10
2353.383201128981
 20
1630.969183324263
 11
2354.085762373733
 21
1631.671744569015
 72
     2
 10
2356.91418949848
 20
1628.843317444269
 40
4.0
 50
224.9999999999992
 51
270.0
 73
     0
 72
     2
 10
2356.91418949848
 20
1628.843317444269
 40
3.999999999998728
 50
270.0
 51
300.0000000000105
 73
     0
 72
     1
 10
2358.914189498479
 20
1632.307419059405
 11
2362.351444508112
 21
1630.322918954322
 72
     2
 10
2363.351444508112
 20
1632.05496976189
 40
1.999999999999324
 50
239.9999999999888
 51
270.0
 73
     1
 72
     1
 10
2363.351444508112
 20
1630.054969761889
 11
2363.629647738389
 21
1630.054969761889
 72
     1
 10
2363.629647738389
 20
1630.054969761889
 11
2383.573157780347
 21
1630.054969761889
 72
     1
 10
2383.573157780347
 20
1630.054969761889
 11
2384.373157780346
 21
1630.054969761889
 72
     1
 10
2384.373157780346
 20
1630.054969761889
 11
2388.862754024112
 21
1630.054969761889
 72
     1
 10
2388.862754024112
 20
1630.054969761889
 11
2391.529647738388
 21
1630.054969761889
 72
     1
 10
2391.529647738388
 20
1630.054969761889
 11
2410.965546123251
 21
1630.054969761889
 72
     2
 10
2410.965546123251
 20
1632.05496976189
 40
2.0
 50
270.0
 51
300.0000000000111
 73
     1
 72
     1
 10
2411.96554612325
 20
1630.322918954322
 11
2412.304731133037
 21
1630.518747511025
 72
     1
 10
2412.304731133036
 20
1630.518747511025
 11
2417.501444508113
 21
1633.519071377028
 72
     2
 10
2419.501444508114
 20
1630.054969761889
 40
4.0
 50
240.0000000000031
 51
270.0
 73
     0
 72
     1
 10
2419.501444508114
 20
1634.05496976189
 11
2437.485366310879
 21
1634.05496976189
 72
     1
 10
2437.485366310879
 20
1634.05496976189
 11
2439.423157780356
 21
1634.05496976189
 72
     2
 10
2439.423157780356
 20
1629.054969761889
 40
5.000000000000311
 50
269.9999999999977
 51
360.0
 73
     0
 72
     1
 10
2444.423157780356
 20
1629.054969761889
 11
2444.423157780356
 21
1619.05496976189
 72
     1
 10
2444.423157780356
 20
1619.05496976189
 11
2442.423157780357
 21
1619.05496976189
 72
     1
 10
2442.423157780357
 20
1619.05496976189
 11
2442.423157780357
 21
1628.05496976189
 72
     1
 10
2442.423157780357
 20
1628.05496976189
 11
2442.423157780357
 21
1629.054969761889
 72
     2
 10
2439.423157780356
 20
1629.054969761889
 40
3.0
 50
0.0
 51
90.0
 73
     1
 72
     1
 10
2439.423157780356
 20
1632.05496976189
 11
2437.485366310879
 21
1632.05496976189
 72
     1
 10
2437.485366310879
 20
1632.05496976189
 11
2419.501444508114
 21
1632.05496976189
 72
     2
 10
2419.501444508114
 20
1630.054969761889
 40
2.0
 50
90.0
 51
119.9999999999826
 73
     1
 72
     1
 10
2418.501444508113
 20
1631.78702056946
 11
2412.965546123249
 21
1628.590868146751
 72
     2
 10
2410.965546123251
 20
1632.05496976189
 40
4.0
 50
60.00000000000174
 51
90.0
 73
     0
 72
     1
 10
2410.965546123251
 20
1628.05496976189
 11
2388.862754024112
 21
1628.05496976189
 72
     1
 10
2388.862754024112
 20
1628.05496976189
 11
2363.351444508112
 21
1628.05496976189
 72
     2
 10
2363.351444508112
 20
1632.05496976189
 40
4.000000000000205
 50
90.0
 51
119.9999999999983
 73
     0
 72
     1
 10
2361.351444508112
 20
1628.590868146751
 11
2357.91418949848
 21
1630.575368251837
 72
     2
 10
2356.91418949848
 20
1628.843317444269
 40
1.999999999999401
 50
59.99999999999008
 51
135.000000000004
 73
     1
 72
     1
 10
2355.499975936107
 20
1630.257531006642
 11
2354.797414691354
 21
1629.554969761889
 97
        0
 75
     0
 76
     0
 52
45.0
 41
2.0
 77
     0
 78
     1
 53
45.0
 43
2444.540029765462
 44
1774.096586554694
 45
-1.414213562373094
 46
1.414213562373094
 79
     0
 98
        1
 10
2444.540029765462
 20
1774.096586554694
1001
ACME_LAYERS
1000
1
  0
LINE
  5
761
330
1F
100
AcDbEntity
  8
P-0000
  6
Continuous
 62
     7
100
AcDbLine
 10
2391.529647738388
 20
1630.054969761889
 30
0.0
 11
2410.965546123251
 21
1630.054969761889
 31
0.0
1001
ACME_LAYERS
1000
1
  0
LINE
  5
762
330
1F
100
AcDbEntity
  8
P-0000
  6
Continuous
 62
     7
100
AcDbLine
 10
2388.862754024112
 20
1628.05496976189
 30
0.0
 11
2410.965546123251
 21
1628.05496976189
 31
0.0
1001
ACME_LAYERS
1000
1
  0
LINE
  5
76A
330
1F
100
AcDbEntity
  8
P-0000
  6
Continuous
 62
     7
100
AcDbLine
 10
2338.779647738388
 20
1628.05496976189
 30
0.0
 11
2363.351444508112
 21
1628.05496976189
 31
0.0
1001
ACME_LAYERS
1000
1
  0
LINE
  5
76B
330
1F
100
AcDbEntity
  8
P-0000
  6
Continuous
 62
     7
100
AcDbLine
 10
2357.91418949848
 20
1630.575368251837
 30
0.0
 11
2361.351444508112
 21
1628.590868146751
 31
0.0
1001
ACME_LAYERS
1000
1
  0
LINE
  5
76C
330
1F
100
AcDbEntity
  8
P-0000
  6
Continuous
 62
     7
100
AcDbLine
 10
2363.629647738389
 20
1630.054969761889
 30
0.0
 11
2357.861698545957
 21
1633.385096780812
 31
0.0
1001
ACME_LAYERS
1000
1
  0
LINE
  5
76D
330
1F
100
AcDbEntity
  8
P-0000
  6
Continuous
 62
     7
100
AcDbLine
 10
2358.914189498479
 20
1632.307419059405
 30
0.0
 11
2362.351444508112
 21
1630.322918954322
 31
0.0
1001
ACME_LAYERS
1000
1
  0
HATCH
  5
76E
330
1F
100
AcDbEntity
  8
P-0000
  6
Continuous
 62
     3
100
AcDbHatch
 10
0.0
 20
0.0
 30
0.0
210
0.0
220
0.0
230
1.0
  2
_U
 70
     0
 71
     0
 91
        1
 92
        1
 93
        9
 72
     1
 10
2337.779647738388
 20
1629.78702056946
 11
2342.145105978297
 21
1632.307419059405
 72
     2
 10
2344.145105978297
 20
1628.843317444269
 40
4.0
 50
239.9999999999895
 51
270.0
 73
     0
 72
     2
 10
2344.145105978297
 20
1628.843317444269
 40
4.000000000000635
 50
270.0
 51
315.0000000000012
 73
     0
 72
     1
 10
2346.973533103044
 20
1631.671744569015
 11
2347.676094347797
 21
1630.969183324263
 72
     1
 10
2347.676094347797
 20
1630.969183324263
 11
2346.261880785422
 21
1629.554969761889
 72
     1
 10
2346.261880785422
 20
1629.554969761889
 11
2345.55931954067
 21
1630.257531006642
 72
     2
 10
2344.145105978297
 20
1628.843317444269
 40
2.000000000000215
 50
44.99999999999769
 51
120.0000000000099
 73
     1
 72
     1
 10
2343.145105978297
 20
1630.575368251837
 11
2338.779647738388
 21
1628.054969761889
 72
     1
 10
2338.779647738388
 20
1628.05496976189
 11
2337.779647738388
 21
1629.78702056946
 97
        0
 75
     0
 76
     0
 52
45.0
 41
2.0
 77
     0
 78
     1
 53
45.0
 43
2444.540029765462
 44
1774.096586554694
 45
-1.414213562373094
 46
1.414213562373094
 79
     0
 98
        1
 10
2444.540029765462
 20
1774.096586554694
1001
ACME_LAYERS
1000
1
  0
ARC
  5
76F
330
1F
100
AcDbEntity
  8
P-0000
  6
Continuous
 62
     7
100
AcDbCircle
 10
2344.145105978297
 20
1628.843317444269
 30
0.0
 40
4.0
100
AcDbArc
 50
90.0
 51
120.0000000000038
1001
ACME_LAYERS
1000
1
  0
LINE
  5
770
330
1F
100
AcDbEntity
  8
P-0000
  6
Continuous
 62
     7
100
AcDbLine
 10
2338.779647738388
 20
1628.05496976189
 30
0.0
 11
2343.145105978297
 21
1630.575368251837
 31
0.0
1001
ACME_LAYERS
1000
1
  0
LINE
  5
771
330
1F
100
AcDbEntity
  8
P-0000
  6
Continuous
 62
     7
100
AcDbLine
 10
2342.145105978297
 20
1632.307419059405
 30
0.0
 11
2344.011698545957
 21
1633.385096780812
 31
0.0
1001
ACME_LAYERS
1000
1
  0
LINE
  5
772
330
1F
100
AcDbEntity
  8
P-0000
  6
Continuous
 62
     7
100
AcDbLine
 10
2338.779647738388
 20
1628.05496976189
 30
0.0
 11
2343.145105978297
 21
1630.575368251837
 31
0.0
1001
ACME_LAYERS
1000
1
  0
LINE
  5
773
330
1F
100
AcDbEntity
  8
P-0000
  6
Continuous
 62
     7
100
AcDbLine
 10
2338.779647738388
 20
1628.05496976189
 30
0.0
 11
2337.779647738388
 21
1629.78702056946
 31
0.0
1001
ACME_LAYERS
1000
1
  0
LINE
  5
774
330
1F
100
AcDbEntity
  8
P-0000
  6
Continuous
 62
     3
100
AcDbLine
 10
2337.779647738388
 20
1629.78702056946
 30
0.0
 11
2342.145105978297
 21
1632.307419059405
 31
0.0
1001
ACME_LAYERS
1000
1
  0
ARC
  5
775
330
1F
100
AcDbEntity
  8
P-0000
  6
Continuous
 62
     7
100
AcDbCircle
 10
2344.145105978297
 20
1628.843317444269
 30
0.0
 40
4.000000000000635
100
AcDbArc
 50
44.99999999999078
 51
90.0
1001
ACME_LAYERS
1000
1
  0
ARC
  5
776
330
1F
100
AcDbEntity
  8
P-0000
  6
Continuous
 62
     7
100
AcDbCircle
 10
2356.91418949848
 20
1628.843317444269
 30
0.0
 40
3.999999999998728
100
AcDbArc
 50
59.9999999999962
 51
90.0
1001
ACME_LAYERS
1000
1
  0
ARC
  5
777
330
1F
100
AcDbEntity
  8
P-0000
  6
Continuous
 62
     7
100
AcDbCircle
 10
2356.91418949848
 20
1628.843317444269
 30
0.0
 40
4.0
100
AcDbArc
 50
90.0
 51
135.0000000000092
1001
ACME_LAYERS
1000
1
  0
LINE
  5
779
330
1F
100
AcDbEntity
  8
P-0000
  6
Continuous
 62
     7
100
AcDbLine
 10
2346.261880785422
 20
1629.554969761889
 30
0.0
 11
2354.797414691354
 21
1629.554969761889
 31
0.0
1001
ACME_LAYERS
1000
1
  0
LINE
  5
77A
330
1F
100
AcDbEntity
  8
P-0000
  6
Continuous
 62
     7
100
AcDbLine
 10
2347.676094347797
 20
1630.969183324263
 30
0.0
 11
2353.383201128981
 21
1630.969183324263
 31
0.0
1001
ACME_LAYERS
1000
1
  0
LINE
  5
77B
330
1F
100
AcDbEntity
  8
P-0000
  6
Continuous
 62
     7
100
AcDbLine
 10
2347.676094347797
 20
1630.969183324263
 30
0.0
 11
2346.261880785422
 21
1629.554969761889
 31
0.0
1001
ACME_LAYERS
1000
1
  0
ARC
  5
77C
330
1F
100
AcDbEntity
  8
P-0000
  6
Continuous
 62
     7
100
AcDbCircle
 10
2344.145105978297
 20
1628.843317444269
 30
0.0
 40
2.000000000000215
100
AcDbArc
 50
44.99999999999078
 51
120.0000000000038
1001
ACME_LAYERS
1000
1
  0
LINE
  5
77D
330
1F
100
AcDbEntity
  8
P-0000
  6
Continuous
 62
     7
100
AcDbLine
 10
2345.55931954067
 20
1630.257531006642
 30
0.0
 11
2346.261880785422
 21
1629.554969761889
 31
0.0
1001
ACME_LAYERS
1000
1
  0
LINE
  5
77E
330
1F
100
AcDbEntity
  8
P-0000
  6
Continuous
 62
     7
100
AcDbLine
 10
2346.973533103044
 20
1631.671744569015
 30
0.0
 11
2347.676094347797
 21
1630.969183324263
 31
0.0
1001
ACME_LAYERS
1000
1
  0
LINE
  5
77F
330
1F
100
AcDbEntity
  8
P-0000
  6
Continuous
 62
     7
100
AcDbLine
 10
2354.797414691354
 20
1629.554969761889
 30
0.0
 11
2355.499975936107
 21
1630.257531006642
 31
0.0
1001
ACME_LAYERS
1000
1
  0
LINE
  5
780
330
1F
100
AcDbEntity
  8
P-0000
  6
Continuous
 62
     7
100
AcDbLine
 10
2354.797414691354
 20
1629.554969761889
 30
0.0
 11
2353.383201128981
 21
1630.969183324263
 31
0.0
1001
ACME_LAYERS
1000
1
  0
LINE
  5
781
330
1F
100
AcDbEntity
  8
P-0000
  6
Continuous
 62
     7
100
AcDbLine
 10
2353.383201128981
 20
1630.969183324263
 30
0.0
 11
2354.085762373733
 21
1631.671744569015
 31
0.0
1001
ACME_LAYERS
1000
1
  0
ARC
  5
782
330
1F
100
AcDbEntity
  8
P-0000
  6
Continuous
 62
     7
100
AcDbCircle
 10
2356.91418949848
 20
1628.843317444269
 30
0.0
 40
1.999999999999401
100
AcDbArc
 50
59.9999999999962
 51
135.0000000000092
1001
ACME_LAYERS
1000
1
  0
ARC
  5
783
330
1F
100
AcDbEntity
  8
P-0000
  6
Continuous
 62
     7
100
AcDbCircle
 10
2356.91418949848
 20
1628.843317444269
 30
0.0
 40
1.999999999999401
100
AcDbArc
 50
59.9999999999962
 51
135.0000000000092
1001
ACME_LAYERS
1000
1
  0
LINE
  5
784
330
1F
100
AcDbEntity
  8
P-0000
  6
Continuous
 62
     7
100
AcDbLine
 10
2344.145105978297
 20
1632.843317444268
 30
0.0
 11
2356.91418949848
 21
1632.843317444268
 31
0.0
1001
ACME_LAYERS
1000
1
  0
LINE
  5
785
330
1F
100
AcDbEntity
  8
P-0000
  6
Continuous
 62
     7
100
AcDbLine
 10
2346.511698545958
 20
1634.05496976189
 30
0.0
 11
2355.361698545957
 21
1634.05496976189
 31
0.0
1001
ACME_LAYERS
1000
1
  0
ARC
  5
786
330
1F
100
AcDbEntity
  8
P-0000
  6
Continuous
 62
     7
100
AcDbCircle
 10
2346.511698545956
 20
1629.054969761889
 30
0.0
 40
5.0
100
AcDbArc
 50
89.99999999997395
 51
119.9999999999972
1001
ACME_LAYERS
1000
1
  0
ARC
  5
787
330
1F
100
AcDbEntity
  8
P-0000
  6
Continuous
 62
     7
100
AcDbCircle
 10
2355.361698545957
 20
1629.054969761889
 30
0.0
 40
5.000000000000087
100
AcDbArc
 50
60.00000000000272
 51
90.0
1001
ACME_LAYERS
1000
1
  0
LINE
  5
788
330
1F
100
AcDbEntity
  8
P-0000
  6
Continuous
 62
     7
100
AcDbLine
 10
2363.351444508112
 20
1628.05496976189
 30
0.0
 11
2388.862754024112
 21
1628.05496976189
 31
0.0
1001
ACME_LAYERS
1000
1
  0
LINE
  5
789
330
1F
100
AcDbEntity
  8
P-0000
  6
Continuous
 62
     7
100
AcDbLine
 10
2363.629647738389
 20
1630.054969761889
 30
0.0
 11
2383.573157780347
 21
1630.054969761889
 31
0.0
1001
ACME_LAYERS
1000
1
  0
ARC
  5
78A
330
1F
100
AcDbEntity
  8
P-0000
  6
Continuous
 62
     7
100
AcDbCircle
 10
2363.351444508112
 20
1632.05496976189
 30
0.0
 40
1.999999999999324
100
AcDbArc
 50
239.9999999999962
 51
270.0
1001
ACME_LAYERS
1000
1
  0
ARC
  5
78B
330
1F
100
AcDbEntity
  8
P-0000
  6
Continuous
 62
     7
100
AcDbCircle
 10
2363.351444508112
 20
1632.05496976189
 30
0.0
 40
4.000000000000205
100
AcDbArc
 50
240.0000000000027
 51
270.0
1001
ACME_LAYERS
1000
1
  0
LINE
  5
78C
330
1F
100
AcDbEntity
  8
P-0000
  6
Continuous
 62
     7
100
AcDbLine
 10
2363.629647738389
 20
1630.054969761889
 30
0.0
 11
2363.351444508112
 21
1630.054969761889
 31
0.0
1001
ACME_LAYERS
1000
1
  0
LINE
  5
78D
330
1F
100
AcDbEntity
  8
P-0000
  6
Continuous
 62
     7
100
AcDbLine
 10
2391.573157780346
 20
1634.05496976189
 30
0.0
 11
2391.573157780346
 21
1630.054969761889
 31
0.0
1001
ACME_LAYERS
1000
1
  0
LINE
  5
78F
330
1F
100
AcDbEntity
  8
P-0000
  6
Continuous
 62
     7
100
AcDbLine
 10
2383.573157780347
 20
1630.054969761889
 30
0.0
 11
2384.373157780346
 21
1630.054969761889
 31
0.0
1001
ACME_LAYERS
1000
1
  0
LINE
  5
790
330
1F
100
AcDbEntity
  8
P-0000
  6
Continuous
 62
     7
100
AcDbLine
 10
2383.573157780347
 20
1630.054969761889
 30
0.0
 11
2384.373157780346
 21
1630.054969761889
 31
0.0
1001
ACME_LAYERS
1000
1
  0
LINE
  5
791
330
1F
100
AcDbEntity
  8
P-0000
  6
Continuous
 62
     7
100
AcDbLine
 10
2384.373157780346
 20
1630.054969761889
 30
0.0
 11
2388.862754024112
 21
1630.054969761889
 31
0.0
1001
ACME_LAYERS
1000
1
  0
LINE
  5
792
330
1F
100
AcDbEntity
  8
P-0000
  6
Continuous
 62
     7
100
AcDbLine
 10
2384.373157780346
 20
1630.054969761889
 30
0.0
 11
2390.773157780347
 21
1630.054969761889
 31
0.0
1001
ACME_LAYERS
1000
1
  0
LINE
  5
793
330
1F
100
AcDbEntity
  8
P-0000
  6
Continuous
 62
     7
100
AcDbLine
 10
2390.773157780347
 20
1630.054969761889
 30
0.0
 11
2391.573157780346
 21
1630.054969761889
 31
0.0
1001
ACME_LAYERS
1000
1
  0
LINE
  5
794
330
1F
100
AcDbEntity
  8
P-0000
  6
Continuous
 62
     7
100
AcDbLine
 10
2388.862754024112
 20
1630.054969761889
 30
0.0
 11
2391.529647738388
 21
1630.054969761889
 31
0.0
1001
ACME_LAYERS
1000
1
  0
SPLINE
  5
7A0
330
1F
100
AcDbEntity
  8
P-0000
  6
Continuous
 62
     3
100
AcDbSpline
210
0.0
220
0.0
230
1.0
 70
     8
 71
     3
 72
     8
 73
     4
 74
     0
 42
0.0000000001
 43
0.0000000001
 40
0.0
 40
0.0
 40
0.0
 40
0.0
 40
2.006678903704167
 40
2.006678903704167
 40
2.006678903704167
 40
2.006678903704167
 10
2444.423157780355
 20
1591.553240500717
 30
0.0
 10
2445.088780125137
 20
1591.481322409648
 30
0.0
 10
2445.755561790051
 20
1591.428691644827
 30
0.0
 10
2446.423157780355
 20
1591.389654980051
 30
0.0
  0
LINE
  5
7A1
330
1F
100
AcDbEntity
  8
P-0000
  6
Continuous
 62
     3
100
AcDbLine
 10
2545.12315778035
 20
1633.241496475745
 30
0.0
 11
2503.823157780356
 21
1633.241496475745
 31
0.0
1001
ACME_LAYERS
1000
1
  0
LINE
  5
7A2
330
1F
100
AcDbEntity
  8
P-0000
  6
Continuous
 62
     3
100
AcDbLine
 10
2556.513113915232
 20
1625.380367767074
 30
0.0
 11
2503.823157780356
 21
1625.380367767076
 31
0.0
1001
ACME_LAYERS
1000
1
  0
LINE
  5
7A3
330
1F
100
AcDbEntity
  8
P-0000
  6
Continuous
 62
     7
100
AcDbLine
 10
2475.517854221414
 20
1634.05496976189
 30
0.0
 11
2545.12315778035
 21
1634.05496976189
 31
0.0
1001
ACME_LAYERS
1000
1
  0
ARC
  5
7A4
330
1F
100
AcDbEntity
  8
P-0000
  6
Continuous
 62
     7
100
AcDbCircle
 10
2456.923157780355
 20
1566.059798695888
 30
0.0
 40
2.5
100
AcDbArc
 50
0.0
 51
90.0
1001
ACME_LAYERS
1000
1
  0
ARC
  5
7A5
330
1F
100
AcDbEntity
  8
P-0000
  6
Continuous
 62
     7
100
AcDbCircle
 10
2456.923157780355
 20
1566.059798695888
 30
0.0
 40
4.5
100
AcDbArc
 50
0.0
 51
90.0
1001
ACME_LAYERS
1000
1
  0
LINE
  5
7A6
330
1F
100
AcDbEntity
  8
P-0000
  6
Continuous
 62
     3
100
AcDbLine
 10
2475.517854221414
 20
1625.380367767078
 30
0.0
 11
2449.517854221415
 21
1625.380367767078
 31
0.0
1001
ACME_LAYERS
1000
1
  0
LINE
  5
7A7
330
1F
100
AcDbEntity
  8
P-0000
  6
Continuous
 62
     3
100
AcDbLine
 10
2475.517854221414
 20
1633.241496475745
 30
0.0
 11
2452.815529941116
 21
1633.241496475745
 31
0.0
1001
ACME_LAYERS
1000
1
  0
LINE
  5
7A8
330
1F
100
AcDbEntity
  8
P-0000
  6
Continuous
 62
     7
100
AcDbLine
 10
2448.096066865069
 20
1634.05496976189
 30
0.0
 11
2475.517854221414
 21
1634.05496976189
 31
0.0
1001
ACME_LAYERS
1000
1
  0
HATCH
  5
7A9
330
1F
100
AcDbEntity
  8
P-0000
  6
Continuous
 62
     3
100
AcDbHatch
 10
0.0
 20
0.0
 30
0.0
210
0.0
220
0.0
230
1.0
  2
_U
 70
     0
 71
     0
 91
        1
 92
        1
 93
       10
 72
     1
 10
2446.423157780355
 20
1591.389654980051
 11
2444.423157780355
 21
1591.553240500717
 72
     1
 10
2444.423157780355
 20
1591.553240500717
 11
2444.423157780355
 21
1606.05496976189
 72
     1
 10
2444.423157780355
 20
1606.05496976189
 11
2444.423157780356
 21
1625.805480890414
 72
     1
 10
2444.423157780356
 20
1625.805480890414
 11
2445.596984368821
 21
1628.441938574294
 72
     1
 10
2445.596984368821
 20
1628.441938574294
 11
2446.368143072762
 21
1630.173989381862
 72
     1
 10
2446.368143072763
 20
1630.173989381862
 11
2448.096066865069
 21
1634.05496976189
 72
     1
 10
2448.096066865069
 20
1634.05496976189
 11
2449.923157780358
 21
1633.241496475737
 72
     1
 10
2449.923157780358
 20
1633.241496475737
 11
2446.423157780355
 21
1625.380367767076
 72
     1
 10
2446.423157780355
 20
1625.380367767076
 11
2446.423157780355
 21
1606.389654980051
 72
     1
 10
2446.423157780355
 20
1606.389654980051
 11
2446.423157780355
 21
1591.389654980051
 97
        0
 75
     0
 76
     0
 52
45.0
 41
2.0
 77
     0
 78
     1
 53
45.0
 43
2444.540029765462
 44
1774.096586554694
 45
-1.414213562373094
 46
1.414213562373094
 79
     0
 98
        1
 10
2444.540029765462
 20
1774.096586554694
1001
ACME_LAYERS
1000
1
  0
LINE
  5
7AA
330
1F
100
AcDbEntity
  8
P-0000
  6
Continuous
 62
     7
100
AcDbLine
 10
2444.423157780355
 20
1606.05496976189
 30
0.0
 11
2444.423157780355
 21
1591.553240500717
 31
0.0
1001
ACME_LAYERS
1000
1
  0
LINE
  5
7AB
330
1F
100
AcDbEntity
  8
P-0000
  6
Continuous
 62
     7
100
AcDbLine
 10
2446.423157780355
 20
1606.389654980051
 30
0.0
 11
2446.423157780355
 21
1591.389654980051
 31
0.0
1001
ACME_LAYERS
1000
1
  0
LINE
  5
7AC
330
1F
100
AcDbEntity
  8
P-0000
  6
Continuous
 62
     7
100
AcDbLine
 10
2446.423157780355
 20
1583.413070711827
 30
0.0
 11
2446.423157780355
 21
1572.40503121655
 31
0.0
1001
ACME_LAYERS
1000
1
  0
LINE
  5
7AD
330
1F
100
AcDbEntity
  8
P-0000
  6
Continuous
 62
     7
100
AcDbLine
 10
2446.423157780355
 20
1568.559798695888
 30
0.0
 11
2456.923157780355
 21
1568.559798695888
 31
0.0
1001
ACME_LAYERS
1000
1
  0
LINE
  5
7AE
330
1F
100
AcDbEntity
  8
P-0000
  6
Continuous
 62
     7
100
AcDbLine
 10
2448.268390301016
 20
1570.559798695888
 30
0.0
 11
2456.923157780355
 21
1570.559798695888
 31
0.0
1001
ACME_LAYERS
1000
1
  0
LINE
  5
7AF
330
1F
100
AcDbEntity
  8
P-0000
  6
Continuous
 62
     7
100
AcDbLine
 10
2446.423157780355
 20
1570.559798695888
 30
0.0
 11
2446.423157780355
 21
1568.559798695888
 31
0.0
1001
ACME_LAYERS
1000
1
  0
LINE
  5
7B1
330
1F
100
AcDbEntity
  8
P-0000
  6
Continuous
 62
     7
100
AcDbLine
 10
2446.423157780355
 20
1570.559798695888
 30
0.0
 11
2448.268390301016
 21
1570.559798695888
 31
0.0
1001
ACME_LAYERS
1000
1
  0
LINE
  5
7B3
330
1F
100
AcDbEntity
  8
P-0000
  6
Continuous
 62
     7
100
AcDbLine
 10
2446.423157780355
 20
1572.40503121655
 30
0.0
 11
2446.423157780355
 21
1570.559798695888
 31
0.0
1001
ACME_LAYERS
1000
1
  0
LINE
  5
7B4
330
1F
100
AcDbEntity
  8
P-0000
  6
Continuous
 62
     7
100
AcDbLine
 10
2444.423157780355
 20
1591.553240500717
 30
0.0
 11
2444.423157780355
 21
1585.806586554694
 31
0.0
1001
ACME_LAYERS
1000
1
  0
SPLINE
  5
7B5
330
1F
100
AcDbEntity
  8
P-0000
  6
Continuous
 62
     3
100
AcDbSpline
210
0.0
220
0.0
230
1.0
 70
     8
 71
     3
 72
     8
 73
     4
 74
     0
 42
0.0000000001
 43
0.0000000001
 40
0.0
 40
0.0
 40
0.0
 40
0.0
 40
1.840341840037804
 40
1.840341840037804
 40
1.840341840037804
 40
1.840341840037804
 10
2444.423157780355
 20
1582.799059823609
 30
0.0
 10
2445.110314501393
 20
1583.067007577352
 30
0.0
 10
2445.776184986007
 20
1583.269606833948
 30
0.0
 10
2446.423157780355
 20
1583.413070711827
 30
0.0
  0
LINE
  5
7B6
330
1F
100
AcDbEntity
  8
P-0000
  6
Continuous
 62
     7
100
AcDbLine
 10
2444.423157780355
 20
1585.806586554694
 30
0.0
 11
2444.423157780355
 21
1582.799059823609
 31
0.0
1001
ACME_LAYERS
1000
1
  0
LINE
  5
7B7
330
1F
100
AcDbEntity
  8
P-0000
  6
Continuous
 62
     7
100
AcDbLine
 10
2419.501444508114
 20
1632.05496976189
 30
0.0
 11
2437.485366310879
 21
1632.05496976189
 31
0.0
1001
ACME_LAYERS
1000
1
  0
LINE
  5
7B8
330
1F
100
AcDbEntity
  8
P-0000
  6
Continuous
 62
     7
100
AcDbLine
 10
2419.501444508114
 20
1634.05496976189
 30
0.0
 11
2437.485366310879
 21
1634.05496976189
 31
0.0
1001
ACME_LAYERS
1000
1
  0
LINE
  5
7B9
330
1F
100
AcDbEntity
  8
P-0000
  6
Continuous
 62
     7
100
AcDbLine
 10
2410.965546123251
 20
1628.05496976189
 30
0.0
 11
2437.485366310879
 21
1628.05496976189
 31
0.0
1001
ACME_LAYERS
1000
1
  0
LINE
  5
7BA
330
1F
100
AcDbEntity
  8
P-0000
  6
Continuous
 62
     7
100
AcDbLine
 10
2411.96554612325
 20
1630.32291895432
 30
0.0
 11
2417.501444508113
 21
1633.519071377028
 31
0.0
1001
ACME_LAYERS
1000
1
  0
LINE
  5
7BB
330
1F
100
AcDbEntity
  8
P-0000
  6
Continuous
 62
     7
100
AcDbLine
 10
2412.965546123249
 20
1628.590868146751
 30
0.0
 11
2418.501444508113
 21
1631.78702056946
 31
0.0
1001
ACME_LAYERS
1000
1
  0
ARC
  5
7BC
330
1F
100
AcDbEntity
  8
P-0000
  6
Continuous
 62
     7
100
AcDbCircle
 10
2410.965546123251
 20
1632.05496976189
 30
0.0
 40
4.0
100
AcDbArc
 50
270.0
 51
299.9999999999973
1001
ACME_LAYERS
1000
1
  0
ARC
  5
7BD
330
1F
100
AcDbEntity
  8
P-0000
  6
Continuous
 62
     7
100
AcDbCircle
 10
2410.965546123251
 20
1632.05496976189
 30
0.0
 40
2.0
100
AcDbArc
 50
270.0
 51
300.0000000000038
1001
ACME_LAYERS
1000
1
  0
ARC
  5
7BE
330
1F
100
AcDbEntity
  8
P-0000
  6
Continuous
 62
     7
100
AcDbCircle
 10
2419.501444508114
 20
1630.054969761889
 30
0.0
 40
2.0
100
AcDbArc
 50
90.0
 51
119.9999999999747
1001
ACME_LAYERS
1000
1
  0
ARC
  5
7BF
330
1F
100
AcDbEntity
  8
P-0000
  6
Continuous
 62
     7
100
AcDbCircle
 10
2419.501444508114
 20
1630.054969761889
 30
0.0
 40
4.0
100
AcDbArc
 50
90.0
 51
119.9999999999972
1001
ACME_LAYERS
1000
1
  0
LINE
  5
7C0
330
1F
100
AcDbEntity
  8
P-0000
  6
Continuous
 62
     7
100
AcDbLine
 10
2446.423157780355
 20
1625.380367767076
 30
0.0
 11
2446.423157780355
 21
1614.758338083429
 31
0.0
1001
ACME_LAYERS
1000
1
  0
LINE
  5
7C1
330
1F
100
AcDbEntity
  8
P-0000
  6
Continuous
 62
     7
100
AcDbLine
 10
2446.423157780355
 20
1625.380367767076
 30
0.0
 11
2446.423157780355
 21
1606.389654980051
 31
0.0
1001
ACME_LAYERS
1000
1
  0
LINE
  5
7C2
330
1F
100
AcDbEntity
  8
P-0000
  6
Continuous
 62
     7
100
AcDbLine
 10
2444.423157780356
 20
1625.258338083432
 30
0.0
 11
2444.423157780356
 21
1620.258338083432
 31
0.0
1001
ACME_LAYERS
1000
1
  0
LINE
  5
7C3
330
1F
100
AcDbEntity
  8
P-0000
  6
Continuous
 62
     7
100
AcDbLine
 10
2442.423157780357
 20
1619.05496976189
 30
0.0
 11
2442.423157780357
 21
1628.05496976189
 31
0.0
1001
ACME_LAYERS
1000
1
  0
LINE
  5
7C4
330
1F
100
AcDbEntity
  8
P-0000
  6
Continuous
 62
     7
100
AcDbLine
 10
2444.423157780355
 20
1610.258338083432
 30
0.0
 11
2444.423157780355
 21
1608.156653922662
 31
0.0
1001
ACME_LAYERS
1000
1
  0
LINE
  5
7C5
330
1F
100
AcDbEntity
  8
P-0000
  6
Continuous
 62
     7
100
AcDbLine
 10
2444.423157780355
 20
1608.156653922662
 30
0.0
 11
2444.423157780355
 21
1606.05496976189
 31
0.0
1001
ACME_LAYERS
1000
1
  0
LINE
  5
7C6
330
1F
100
AcDbEntity
  8
P-0000
  6
Continuous
 62
     7
100
AcDbLine
 10
2444.423157780356
 20
1617.054969761889
 30
0.0
 11
2444.423157780355
 21
1610.258338083432
 31
0.0
1001
ACME_LAYERS
1000
1
  0
LINE
  5
7C9
330
1F
100
AcDbEntity
  8
P-0000
  6
Continuous
 62
     7
100
AcDbLine
 10
2444.423157780356
 20
1620.258338083432
 30
0.0
 11
2444.423157780356
 21
1619.05496976189
 31
0.0
1001
ACME_LAYERS
1000
1
  0
LINE
  5
7CA
330
1F
100
AcDbEntity
  8
P-0000
  6
Continuous
 62
     7
100
AcDbLine
 10
2444.423157780356
 20
1619.05496976189
 30
0.0
 11
2442.423157780357
 21
1619.05496976189
 31
0.0
1001
ACME_LAYERS
1000
1
  0
LINE
  5
7CB
330
1F
100
AcDbEntity
  8
P-0000
  6
Continuous
 62
     7
100
AcDbLine
 10
2444.423157780356
 20
1619.05496976189
 30
0.0
 11
2444.423157780356
 21
1617.054969761889
 31
0.0
1001
ACME_LAYERS
1000
1
  0
ARC
  5
7CC
330
1F
100
AcDbEntity
  8
P-0000
  6
Continuous
 62
     7
100
AcDbCircle
 10
2439.423157780356
 20
1629.054969761889
 30
0.0
 40
3.0
100
AcDbArc
 50
0.0
 51
90.0
1001
ACME_LAYERS
1000
1
  0
ARC
  5
7CD
330
1F
100
AcDbEntity
  8
P-0000
  6
Continuous
 62
     7
100
AcDbCircle
 10
2439.423157780356
 20
1629.054969761889
 30
0.0
 40
5.000000000000311
100
AcDbArc
 50
0.0
 51
90.0
1001
ACME_LAYERS
1000
1
  0
LINE
  5
7CE
330
1F
100
AcDbEntity
  8
P-0000
  6
Continuous
 62
     7
100
AcDbLine
 10
2437.485366310879
 20
1628.05496976189
 30
0.0
 11
2442.423157780357
 21
1628.05496976189
 31
0.0
1001
ACME_LAYERS
1000
1
  0
LINE
  5
7CF
330
1F
100
AcDbEntity
  8
P-0000
  6
Continuous
 62
     7
100
AcDbLine
 10
2439.423157780356
 20
1634.05496976189
 30
0.0
 11
2448.096066865069
 21
1634.05496976189
 31
0.0
1001
ACME_LAYERS
1000
1
  0
LINE
  5
7D0
330
1F
100
AcDbEntity
  8
P-0000
  6
Continuous
 62
     7
100
AcDbLine
 10
2439.423157780356
 20
1632.05496976189
 30
0.0
 11
2437.485366310879
 21
1632.05496976189
 31
0.0
1001
ACME_LAYERS
1000
1
  0
LINE
  5
7D1
330
1F
100
AcDbEntity
  8
P-0000
  6
Continuous
 62
     7
100
AcDbLine
 10
2437.485366310879
 20
1634.05496976189
 30
0.0
 11
2439.423157780356
 21
1634.05496976189
 31
0.0
1001
ACME_LAYERS
1000
1
  0
LINE
  5
7D2
330
1F
100
AcDbEntity
  8
P-0000
  6
Continuous
 62
     7
100
AcDbLine
 10
2449.923157780353
 20
1633.241496475745
 30
0.0
 11
2446.423157780355
 21
1625.380367767076
 31
0.0
1001
ACME_LAYERS
1000
1
  0
LINE
  5
7D3
330
1F
100
AcDbEntity
  8
P-0000
  6
Continuous
 62
     7
100
AcDbLine
 10
2449.923157780358
 20
1633.241496475737
 30
0.0
 11
2446.423157780355
 21
1625.380367767076
 31
0.0
1001
ACME_LAYERS
1000
1
  0
LINE
  5
7D4
330
1F
100
AcDbEntity
  8
P-0000
  6
Continuous
 62
     7
100
AcDbLine
 10
2448.096066865069
 20
1634.05496976189
 30
0.0
 11
2446.368143072763
 21
1630.173989381862
 31
0.0
1001
ACME_LAYERS
1000
1
  0
LINE
  5
7D5
330
1F
100
AcDbEntity
  8
P-0000
  6
Continuous
 62
     7
100
AcDbLine
 10
2445.596984368821
 20
1628.441938574294
 30
0.0
 11
2444.423157780356
 21
1625.805480890414
 31
0.0
1001
ACME_LAYERS
1000
1
  0
LINE
  5
7D6
330
1F
100
AcDbEntity
  8
P-0000
  6
Continuous
 62
     7
100
AcDbLine
 10
2444.423157780356
 20
1625.805480890414
 30
0.0
 11
2444.423157780356
 21
1629.054969761889
 31
0.0
1001
ACME_LAYERS
1000
1
  0
LINE
  5
7D7
330
1F
100
AcDbEntity
  8
P-0000
  6
Continuous
 62
     7
100
AcDbLine
 10
2444.423157780356
 20
1625.805480890414
 30
0.0
 11
2444.423157780356
 21
1625.258338083432
 31
0.0
1001
ACME_LAYERS
1000
1
  0
LINE
  5
7D8
330
1F
100
AcDbEntity
  8
P-0000
  6
Continuous
 62
     7
100
AcDbLine
 10
2444.423157780356
 20
1625.805480890414
 30
0.0
 11
2444.423157780356
 21
1625.258338083432
 31
0.0
1001
ACME_LAYERS
1000
1
  0
LINE
  5
7D9
330
1F
100
AcDbEntity
  8
P-0000
  6
Continuous
 62
     7
100
AcDbLine
 10
2442.423157780357
 20
1628.05496976189
 30
0.0
 11
2442.423157780357
 21
1629.054969761889
 31
0.0
1001
ACME_LAYERS
1000
1
  0
LINE
  5
7DA
330
1F
100
AcDbEntity
  8
P-0000
  6
Continuous
 62
     7
100
AcDbLine
 10
2446.368143072763
 20
1630.173989381862
 30
0.0
 11
2445.596984368821
 21
1628.441938574294
 31
0.0
1001
ACME_LAYERS
1000
1
  0
LINE
  5
7DB
330
1F
100
AcDbEntity
  8
P-0000
  6
Continuous
 62
     7
100
AcDbLine
 10
2448.096066865069
 20
1634.05496976189
 30
0.0
 11
2449.923157780358
 21
1633.241496475737
 31
0.0
1001
ACME_LAYERS
1000
1
  0
LINE
  5
7DC
330
1F
100
AcDbEntity
  8
P-0000
  6
STRICHPUNKT
 62
     3
100
AcDbLine
 10
2503.284078573984
 20
1742.737214142334
 30
0.0
 11
2503.823157780354
 21
1582.096586554694
 31
0.0
1001
ACME_LAYERS
1000
1
  0
LINE
  5
7DD
330
1F
100
AcDbEntity
  8
P-0000
  6
STRICHPUNKT
 62
     3
100
AcDbLine
 10
2503.823157780354
 20
1585.096586554694
 30
0.0
 11
2503.823157780354
 21
1578.867027145111
 31
0.0
1001
ACME_LAYERS
1000
1
  0
LINE
  5
7DE
330
1F
100
AcDbEntity
  8
P-0000
  6
Continuous
 62
     3
100
AcDbLine
 10
2503.823157780354
 20
1625.380367767076
 30
0.0
 11
2475.517854221414
 21
1625.380367767078
 31
0.0
1001
ACME_LAYERS
1000
1
  0
LINE
  5
7DF
330
1F
100
AcDbEntity
  8
P-0000
  6
Continuous
 62
     3
100
AcDbLine
 10
2503.823157780353
 20
1633.241496475745
 30
0.0
 11
2475.517854221414
 21
1633.241496475745
 31
0.0
1001
ACME_LAYERS
1000
1
  0
LINE
  5
7E0
330
1F
100
AcDbEntity
  8
P-0000
  6
STRICHPUNKT
 62
     3
100
AcDbLine
 10
2503.757892717405
 20
1642.007294977787
 30
0.0
 11
2503.757892717404
 21
1625.858067155135
 31
0.0
1001
ACME_LAYERS
1000
1
  0
LINE
  5
7E1
330
1F
100
AcDbEntity
  8
P-0000
  6
Continuous
 62
     7
100
AcDbLine
 10
2503.748132485665
 20
1651.942669149948
 30
0.0
 11
2503.748132485668
 21
1651.942669149948
 31
0.0
1001
ACME_LAYERS
1000
1
  0
LINE
  5
7E2
330
1F
100
AcDbEntity
  8
P-0000
  6
Continuous
 62
     7
100
AcDbLine
 10
2503.767652949122
 20
1651.942669149948
 30
0.0
 11
2503.767652949127
 21
1651.942669149949
 31
0.0
1001
ACME_LAYERS
1000
1
  0
LINE
  5
7E3
330
1F
100
AcDbEntity
  8
P-0000
  6
Continuous
 62
     7
100
AcDbLine
 10
2503.767652949122
 20
1651.942669149948
 30
0.0
 11
2503.767652949127
 21
1651.942669149949
 31
0.0
1001
ACME_LAYERS
1000
1
  0
LINE
  5
7E4
330
1F
100
AcDbEntity
  8
P-0000
  6
Continuous
 62
     7
100
AcDbLine
 10
2503.748132485665
 20
1651.942669149948
 30
0.0
 11
2503.748132485668
 21
1651.942669149948
 31
0.0
1001
ACME_LAYERS
1000
1
  0
LINE
  5
7E5
330
1F
100
AcDbEntity
  8
P-0000
  6
Continuous
 62
     7
100
AcDbLine
 10
2503.767652949122
 20
1651.942669149948
 30
0.0
 11
2503.767652949127
 21
1651.942669149949
 31
0.0
1001
ACME_LAYERS
1000
1
  0
LINE
  5
7E6
330
1F
100
AcDbEntity
  8
P-0000
  6
Continuous
 62
     7
100
AcDbLine
 10
2503.748132485665
 20
1651.942669149948
 30
0.0
 11
2503.748132485668
 21
1651.942669149948
 31
0.0
1001
ACME_LAYERS
1000
1
  0
LINE
  5
7E7
330
1F
100
AcDbEntity
  8
P-0000
  6
Continuous
 62
     7
100
AcDbLine
 10
2503.748132485665
 20
1651.942669149948
 30
0.0
 11
2503.748132485668
 21
1651.942669149948
 31
0.0
1001
ACME_LAYERS
1000
1
  0
LINE
  5
7E8
330
1F
100
AcDbEntity
  8
P-0000
  6
Continuous
 62
     7
100
AcDbLine
 10
2503.767652949122
 20
1651.942669149948
 30
0.0
 11
2503.767652949127
 21
1651.942669149949
 31
0.0
1001
ACME_LAYERS
1000
1
  0
LINE
  5
7E9
330
1F
100
AcDbEntity
  8
P-0000
  6
Continuous
 62
     7
100
AcDbLine
 10
2503.767652949122
 20
1651.942669149948
 30
0.0
 11
2503.767652949127
 21
1651.942669149949
 31
0.0
1001
ACME_LAYERS
1000
1
  0
LINE
  5
7EA
330
1F
100
AcDbEntity
  8
P-0000
  6
Continuous
 62
     7
100
AcDbLine
 10
2503.748132485665
 20
1651.942669149948
 30
0.0
 11
2503.748132485668
 21
1651.942669149948
 31
0.0
1001
ACME_LAYERS
1000
1
  0
LINE
  5
7EB
330
1F
100
AcDbEntity
  8
P-0000
  6
Continuous
 62
     7
100
AcDbLine
 10
2503.767652949136
 20
1651.942669149948
 30
0.0
 11
2503.767652949139
 21
1651.942669149948
 31
0.0
1001
ACME_LAYERS
1000
1
  0
LINE
  5
7EC
330
1F
100
AcDbEntity
  8
P-0000
  6
Continuous
 62
     7
100
AcDbLine
 10
2503.748132485678
 20
1651.942669149949
 30
0.0
 11
2503.748132485683
 21
1651.942669149948
 31
0.0
1001
ACME_LAYERS
1000
1
  0
LINE
  5
7ED
330
1F
100
AcDbEntity
  8
P-0000
  6
Continuous
 62
     7
100
AcDbLine
 10
2503.748132485678
 20
1651.942669149949
 30
0.0
 11
2503.748132485683
 21
1651.942669149948
 31
0.0
1001
ACME_LAYERS
1000
1
  0
LINE
  5
7EE
330
1F
100
AcDbEntity
  8
P-0000
  6
Continuous
 62
     7
100
AcDbLine
 10
2503.767652949136
 20
1651.942669149948
 30
0.0
 11
2503.767652949139
 21
1651.942669149948
 31
0.0
1001
ACME_LAYERS
1000
1
  0
LINE
  5
7EF
330
1F
100
AcDbEntity
  8
P-0000
  6
Continuous
 62
     7
100
AcDbLine
 10
2503.748132485678
 20
1651.942669149949
 30
0.0
 11
2503.748132485683
 21
1651.942669149948
 31
0.0
1001
ACME_LAYERS
1000
1
  0
LINE
  5
7F0
330
1F
100
AcDbEntity
  8
P-0000
  6
Continuous
 62
     7
100
AcDbLine
 10
2503.767652949136
 20
1651.942669149948
 30
0.0
 11
2503.767652949139
 21
1651.942669149948
 31
0.0
1001
ACME_LAYERS
1000
1
  0
LINE
  5
7F1
330
1F
100
AcDbEntity
  8
P-0000
  6
Continuous
 62
     7
100
AcDbLine
 10
2503.767652949136
 20
1651.942669149948
 30
0.0
 11
2503.767652949139
 21
1651.942669149948
 31
0.0
1001
ACME_LAYERS
1000
1
  0
LINE
  5
7F2
330
1F
100
AcDbEntity
  8
P-0000
  6
Continuous
 62
     7
100
AcDbLine
 10
2503.748132485678
 20
1651.942669149949
 30
0.0
 11
2503.748132485683
 21
1651.942669149948
 31
0.0
1001
ACME_LAYERS
1000
1
  0
LINE
  5
7F3
330
1F
100
AcDbEntity
  8
P-0000
  6
Continuous
 62
     7
100
AcDbLine
 10
2503.748132485678
 20
1651.942669149949
 30
0.0
 11
2503.748132485683
 21
1651.942669149948
 31
0.0
1001
ACME_LAYERS
1000
1
  0
LINE
  5
7F4
330
1F
100
AcDbEntity
  8
P-0000
  6
Continuous
 62
     7
100
AcDbLine
 10
2503.767652949136
 20
1651.942669149948
 30
0.0
 11
2503.767652949139
 21
1651.942669149948
 31
0.0
1001
ACME_LAYERS
1000
1
  0
HATCH
  5
7FB
330
1F
100
AcDbEntity
  8
P-0000
  6
Continuous
 62
     3
100
AcDbHatch
 10
0.0
 20
0.0
 30
0.0
210
0.0
220
0.0
230
1.0
  2
_U
 70
     0
 71
     0
 91
        1
 92
        1
 93
       30
 72
     1
 10
2565.223157780354
 20
1629.054969761889
 11
2565.223157780354
 21
1619.05496976189
 72
     1
 10
2565.223157780354
 20
1619.05496976189
 11
2563.223157780354
 21
1619.05496976189
 72
     1
 10
2563.223157780353
 20
1619.05496976189
 11
2563.223157780353
 21
1629.054969761889
 72
     2
 10
2568.223157780353
 20
1629.054969761889
 40
5.0
 50
180.0
 51
269.9999999999989
 73
     0
 72
     1
 10
2568.223157780353
 20
1634.05496976189
 11
2588.144871052594
 21
1634.05496976189
 72
     2
 10
2588.144871052593
 20
1630.054969761889
 40
4.000000000000376
 50
270.0
 51
299.9999999999969
 73
     0
 72
     1
 10
2590.144871052594
 20
1633.519071377028
 11
2594.821058663248
 21
1630.819273201235
 72
     1
 10
2594.821058663248
 20
1630.819273201235
 11
2595.444331644996
 21
1630.459426377443
 72
     1
 10
2595.444331644996
 20
1630.459426377443
 11
2595.680769437457
 21
1630.322918954322
 72
     2
 10
2596.680769437457
 20
1632.05496976189
 40
1.999999999999324
 50
239.9999999999888
 51
270.0
 73
     1
 72
     1
 10
2596.680769437457
 20
1630.054969761889
 11
2616.116667822319
 21
1630.054969761889
 72
     1
 10
2616.116667822319
 20
1630.054969761889
 11
2644.016667822318
 21
1630.054969761889
 72
     1
 10
2644.016667822318
 20
1630.054969761889
 11
2644.294871052595
 21
1630.054969761889
 72
     2
 10
2644.294871052595
 20
1632.05496976189
 40
2.0
 50
270.0
 51
300.0000000000111
 73
     1
 72
     1
 10
2645.294871052595
 20
1630.322918954322
 11
2648.732126062227
 21
1632.307419059405
 72
     2
 10
2650.732126062227
 20
1628.843317444269
 40
4.0
 50
239.9999999999895
 51
270.0
 73
     0
 72
     2
 10
2650.732126062227
 20
1628.843317444269
 40
4.000000000000635
 50
270.0
 51
315.0000000000012
 73
     0
 72
     1
 10
2653.560553186974
 20
1631.671744569015
 11
2654.263114431727
 21
1630.969183324263
 72
     1
 10
2654.263114431727
 20
1630.969183324263
 11
2652.848900869353
 21
1629.554969761889
 72
     1
 10
2652.848900869353
 20
1629.554969761889
 11
2652.146339624601
 21
1630.257531006642
 72
     2
 10
2650.732126062227
 20
1628.843317444269
 40
2.000000000000274
 50
44.99999999999595
 51
120.0000000000099
 73
     1
 72
     1
 10
2649.732126062227
 20
1630.575368251837
 11
2646.294871052595
 21
1628.590868146751
 72
     2
 10
2644.294871052595
 20
1632.05496976189
 40
4.0
 50
60.0000000000017
 51
90.0
 73
     0
 72
     1
 10
2644.294871052595
 20
1628.05496976189
 11
2596.680769437457
 21
1628.05496976189
 72
     2
 10
2596.680769437457
 20
1632.05496976189
 40
4.000000000000205
 50
90.0
 51
119.9999999999983
 73
     0
 72
     1
 10
2594.680769437457
 20
1628.590868146751
 11
2589.144871052594
 21
1631.78702056946
 72
     2
 10
2588.144871052593
 20
1630.054969761889
 40
2.000000000001048
 50
60.00000000001736
 51
90.0
 73
     1
 72
     1
 10
2588.144871052593
 20
1632.05496976189
 11
2570.16094924983
 21
1632.05496976189
 72
     1
 10
2570.16094924983
 20
1632.05496976189
 11
2568.223157780353
 21
1632.05496976189
 72
     2
 10
2568.223157780353
 20
1629.054969761889
 40
3.0
 50
90.0
 51
180.0
 73
     1
 97
        0
 75
     0
 76
     0
 52
45.0
 41
2.0
 77
     0
 78
     1
 53
45.0
 43
2444.540029765462
 44
1774.096586554694
 45
-1.414213562373094
 46
1.414213562373094
 79
     0
 98
        1
 10
2444.540029765462
 20
1774.096586554694
1001
ACME_LAYERS
1000
1
  0
ARC
  5
7FC
330
1F
100
AcDbEntity
  8
P-0000
  6
Continuous
 62
     7
100
AcDbCircle
 10
2588.144871052593
 20
1630.054969761889
 30
0.0
 40
2.000000000001048
100
AcDbArc
 50
60.00000000002527
 51
90.0
1001
ACME_LAYERS
1000
1
  0
ARC
  5
7FD
330
1F
100
AcDbEntity
  8
P-0000
  6
Continuous
 62
     7
100
AcDbCircle
 10
2588.144871052593
 20
1630.054969761889
 30
0.0
 40
4.000000000000376
100
AcDbArc
 50
60.00000000000272
 51
90.0
1001
ACME_LAYERS
1000
1
  0
ARC
  5
7FE
330
1F
100
AcDbEntity
  8
P-0000
  6
Continuous
 62
     7
100
AcDbCircle
 10
2588.144871052593
 20
1630.054969761889
 30
0.0
 40
2.000000000001048
100
AcDbArc
 50
60.00000000002527
 51
90.0
1001
ACME_LAYERS
1000
1
  0
ARC
  5
7FF
330
1F
100
AcDbEntity
  8
P-0000
  6
Continuous
 62
     7
100
AcDbCircle
 10
2588.144871052593
 20
1630.054969761889
 30
0.0
 40
4.000000000000376
100
AcDbArc
 50
60.00000000000272
 51
90.0
1001
ACME_LAYERS
1000
1
  0
LINE
  5
801
330
1F
100
AcDbEntity
  8
P-0000
  6
Continuous
 62
     7
100
AcDbLine
 10
2570.16094924983
 20
1581.356497199603
 30
0.0
 11
2613.745005820663
 21
1579.834508406578
 31
0.0
1001
ACME_LAYERS
1000
1
  0
LINE
  5
802
330
1F
100
AcDbEntity
  8
P-0000
  6
Continuous
 62
     7
100
AcDbLine
 10
2596.680769437457
 20
1628.05496976189
 30
0.0
 11
2565.223157780354
 21
1628.05496976189
 31
0.0
1001
ACME_LAYERS
1000
1
  0
HATCH
  5
803
330
1F
100
AcDbEntity
  8
P-0000
  6
Continuous
 62
     3
100
AcDbHatch
 10
0.0
 20
0.0
 30
0.0
210
0.0
220
0.0
230
1.0
  2
_U
 70
     0
 71
     0
 91
        1
 92
        1
 93
       10
 72
     1
 10
2557.723157780356
 20
1633.241496475745
 11
2558.507408789127
 21
1633.590667521326
 72
     1
 10
2558.507408789127
 20
1633.590667521326
 11
2559.55024869564
 21
1634.05496976189
 72
     1
 10
2559.55024869564
 20
1634.05496976189
 11
2561.278172487947
 21
1630.173989381862
 72
     1
 10
2561.278172487947
 20
1630.173989381862
 11
2562.049331191888
 21
1628.441938574294
 72
     1
 10
2562.049331191888
 20
1628.441938574294
 11
2563.223157780353
 21
1625.805480890414
 72
     1
 10
2563.223157780353
 20
1625.805480890414
 11
2563.223157780354
 21
1592.369771756624
 72
     1
 10
2563.223157780354
 20
1592.369771756624
 11
2561.223157780354
 21
1592.389654980051
 72
     1
 10
2561.223157780354
 20
1592.389654980051
 11
2561.223157780354
 21
1606.389654980051
 72
     1
 10
2561.223157780354
 20
1606.389654980051
 11
2561.223157780354
 21
1625.380367767076
 72
     1
 10
2561.223157780354
 20
1625.380367767076
 11
2557.723157780356
 21
1633.241496475745
 97
        0
 75
     0
 76
     0
 52
45.0
 41
2.0
 77
     0
 78
     1
 53
45.0
 43
2444.540029765462
 44
1774.096586554694
 45
-1.414213562373094
 46
1.414213562373094
 79
     0
 98
        1
 10
2444.540029765462
 20
1774.096586554694
1001
ACME_LAYERS
1000
1
  0
LINE
  5
804
330
1F
100
AcDbEntity
  8
P-0000
  6
Continuous
 62
     7
100
AcDbLine
 10
2563.223157780354
 20
1602.273712017062
 30
0.0
 11
2563.223157780354
 21
1592.369771756624
 31
0.0
1001
ACME_LAYERS
1000
1
  0
LINE
  5
805
330
1F
100
AcDbEntity
  8
P-0000
  6
Continuous
 62
     7
100
AcDbLine
 10
2561.223157780354
 20
1606.389654980051
 30
0.0
 11
2561.223157780354
 21
1592.389654980051
 31
0.0
1001
ACME_LAYERS
1000
1
  0
LINE
  5
806
330
1F
100
AcDbEntity
  8
P-0000
  6
Continuous
 62
     7
100
AcDbLine
 10
2563.223157780354
 20
1592.369771756624
 30
0.0
 11
2563.223157780354
 21
1585.806586554694
 31
0.0
1001
ACME_LAYERS
1000
1
  0
LINE
  5
809
330
1F
100
AcDbEntity
  8
P-0000
  6
Continuous
 62
     7
100
AcDbLine
 10
2563.223157780354
 20
1581.598770216291
 30
0.0
 11
2565.296789690912
 21
1581.526357394331
 31
0.0
1001
ACME_LAYERS
1000
1
  0
LINE
  5
80A
330
1F
100
AcDbEntity
  8
P-0000
  6
Continuous
 62
     7
100
AcDbLine
 10
2563.223157780354
 20
1583.599989304888
 30
0.0
 11
2563.223157780354
 21
1581.598770216291
 31
0.0
1001
ACME_LAYERS
1000
1
  0
LINE
  5
80B
330
1F
100
AcDbEntity
  8
P-0000
  6
Continuous
 62
     7
100
AcDbLine
 10
2563.223157780354
 20
1585.806586554694
 30
0.0
 11
2563.223157780354
 21
1583.599989304888
 31
0.0
1001
ACME_LAYERS
1000
1
  0
LINE
  5
80C
330
1F
100
AcDbEntity
  8
P-0000
  6
Continuous
 62
     7
100
AcDbLine
 10
2565.296789690912
 20
1581.526357394331
 30
0.0
 11
2570.16094924983
 21
1581.356497199603
 31
0.0
1001
ACME_LAYERS
1000
1
  0
LINE
  5
80D
330
1F
100
AcDbEntity
  8
P-0000
  6
Continuous
 62
     7
100
AcDbLine
 10
2545.12315778035
 20
1634.05496976189
 30
0.0
 11
2559.55024869564
 21
1634.05496976189
 31
0.0
1001
ACME_LAYERS
1000
1
  0
LINE
  5
80E
330
1F
100
AcDbEntity
  8
P-0000
  6
Continuous
 62
     3
100
AcDbLine
 10
2554.830785619595
 20
1633.241496475745
 30
0.0
 11
2545.12315778035
 21
1633.241496475745
 31
0.0
1001
ACME_LAYERS
1000
1
  0
LINE
  5
80F
330
1F
100
AcDbEntity
  8
P-0000
  6
Continuous
 62
     7
100
AcDbLine
 10
2561.223157780354
 20
1614.758338083429
 30
0.0
 11
2561.223157780354
 21
1625.380367767074
 31
0.0
1001
ACME_LAYERS
1000
1
  0
LINE
  5
810
330
1F
100
AcDbEntity
  8
P-0000
  6
Continuous
 62
     7
100
AcDbLine
 10
2561.223157780354
 20
1606.389654980051
 30
0.0
 11
2561.223157780354
 21
1625.380367767076
 31
0.0
1001
ACME_LAYERS
1000
1
  0
LINE
  5
811
330
1F
100
AcDbEntity
  8
P-0000
  6
Continuous
 62
     7
100
AcDbLine
 10
2563.223157780353
 20
1620.258338083432
 30
0.0
 11
2563.223157780353
 21
1625.258338083432
 31
0.0
1001
ACME_LAYERS
1000
1
  0
LINE
  5
812
330
1F
100
AcDbEntity
  8
P-0000
  6
Continuous
 62
     7
100
AcDbLine
 10
2561.223157780354
 20
1614.758338083429
 30
0.0
 11
2561.223157780354
 21
1625.380367767076
 31
0.0
1001
ACME_LAYERS
1000
1
  0
LINE
  5
813
330
1F
100
AcDbEntity
  8
P-0000
  6
Continuous
 62
     7
100
AcDbLine
 10
2563.223157780353
 20
1620.258338083432
 30
0.0
 11
2563.223157780353
 21
1625.258338083432
 31
0.0
1001
ACME_LAYERS
1000
1
  0
LINE
  5
814
330
1F
100
AcDbEntity
  8
P-0000
  6
Continuous
 62
     7
100
AcDbLine
 10
2565.223157780354
 20
1628.05496976189
 30
0.0
 11
2565.223157780354
 21
1619.05496976189
 31
0.0
1001
ACME_LAYERS
1000
1
  0
LINE
  5
815
330
1F
100
AcDbEntity
  8
P-0000
  6
Continuous
 62
     7
100
AcDbLine
 10
2563.223157780354
 20
1606.05496976189
 30
0.0
 11
2563.223157780354
 21
1610.258338083432
 31
0.0
1001
ACME_LAYERS
1000
1
  0
LINE
  5
816
330
1F
100
AcDbEntity
  8
P-0000
  6
Continuous
 62
     7
100
AcDbLine
 10
2563.223157780354
 20
1606.05496976189
 30
0.0
 11
2563.223157780354
 21
1602.273712017062
 31
0.0
1001
ACME_LAYERS
1000
1
  0
LINE
  5
819
330
1F
100
AcDbEntity
  8
P-0000
  6
Continuous
 62
     7
100
AcDbLine
 10
2565.223157780354
 20
1619.05496976189
 30
0.0
 11
2563.223157780353
 21
1619.05496976189
 31
0.0
1001
ACME_LAYERS
1000
1
  0
LINE
  5
81A
330
1F
100
AcDbEntity
  8
P-0000
  6
Continuous
 62
     7
100
AcDbLine
 10
2565.223157780354
 20
1619.05496976189
 30
0.0
 11
2563.223157780353
 21
1619.05496976189
 31
0.0
1001
ACME_LAYERS
1000
1
  0
LINE
  5
81B
330
1F
100
AcDbEntity
  8
P-0000
  6
Continuous
 62
     7
100
AcDbLine
 10
2563.223157780354
 20
1610.258338083432
 30
0.0
 11
2563.223157780353
 21
1620.258338083432
 31
0.0
1001
ACME_LAYERS
1000
1
  0
LINE
  5
81C
330
1F
100
AcDbEntity
  8
P-0000
  6
Continuous
 62
     7
100
AcDbLine
 10
2563.223157780354
 20
1610.258338083432
 30
0.0
 11
2563.223157780353
 21
1619.05496976189
 31
0.0
1001
ACME_LAYERS
1000
1
  0
LINE
  5
81D
330
1F
100
AcDbEntity
  8
P-0000
  6
Continuous
 62
     7
100
AcDbLine
 10
2563.223157780353
 20
1619.05496976189
 30
0.0
 11
2563.223157780353
 21
1620.258338083432
 31
0.0
1001
ACME_LAYERS
1000
1
  0
LINE
  5
81E
330
1F
100
AcDbEntity
  8
P-0000
  6
Continuous
 62
     7
100
AcDbLine
 10
2563.223157780353
 20
1617.054969761889
 30
0.0
 11
2563.223157780353
 21
1619.05496976189
 31
0.0
1001
ACME_LAYERS
1000
1
  0
LINE
  5
81F
330
1F
100
AcDbEntity
  8
P-0000
  6
Continuous
 62
     7
100
AcDbLine
 10
2563.223157780353
 20
1619.05496976189
 30
0.0
 11
2563.223157780353
 21
1620.258338083432
 31
0.0
1001
ACME_LAYERS
1000
1
  0
LINE
  5
820
330
1F
100
AcDbEntity
  8
P-0000
  6
Continuous
 62
     7
100
AcDbLine
 10
2570.16094924983
 20
1632.05496976189
 30
0.0
 11
2588.144871052593
 21
1632.05496976189
 31
0.0
1001
ACME_LAYERS
1000
1
  0
LINE
  5
821
330
1F
100
AcDbEntity
  8
P-0000
  6
Continuous
 62
     7
100
AcDbLine
 10
2568.223157780353
 20
1634.05496976189
 30
0.0
 11
2588.144871052593
 21
1634.05496976189
 31
0.0
1001
ACME_LAYERS
1000
1
  0
ARC
  5
822
330
1F
100
AcDbEntity
  8
P-0000
  6
Continuous
 62
     7
100
AcDbCircle
 10
2568.223157780353
 20
1629.054969761889
 30
0.0
 40
3.0
100
AcDbArc
 50
90.0
 51
180.0
1001
ACME_LAYERS
1000
1
  0
ARC
  5
823
330
1F
100
AcDbEntity
  8
P-0000
  6
Continuous
 62
     7
100
AcDbCircle
 10
2568.223157780353
 20
1629.054969761889
 30
0.0
 40
5.0
100
AcDbArc
 50
90.0
 51
180.0
1001
ACME_LAYERS
1000
1
  0
LINE
  5
824
330
1F
100
AcDbEntity
  8
P-0000
  6
Continuous
 62
     7
100
AcDbLine
 10
2561.223157780354
 20
1625.380367767076
 30
0.0
 11
2557.723157780356
 21
1633.241496475745
 31
0.0
1001
ACME_LAYERS
1000
1
  0
LINE
  5
825
330
1F
100
AcDbEntity
  8
P-0000
  6
Continuous
 62
     7
100
AcDbLine
 10
2561.223157780354
 20
1625.380367767076
 30
0.0
 11
2557.723157780351
 21
1633.241496475737
 31
0.0
1001
ACME_LAYERS
1000
1
  0
LINE
  5
826
330
1F
100
AcDbEntity
  8
P-0000
  6
Continuous
 62
     7
100
AcDbLine
 10
2561.278172487947
 20
1630.173989381862
 30
0.0
 11
2559.55024869564
 21
1634.05496976189
 31
0.0
1001
ACME_LAYERS
1000
1
  0
LINE
  5
827
330
1F
100
AcDbEntity
  8
P-0000
  6
Continuous
 62
     7
100
AcDbLine
 10
2561.223157780354
 20
1625.380367767076
 30
0.0
 11
2557.723157780356
 21
1633.241496475745
 31
0.0
1001
ACME_LAYERS
1000
1
  0
LINE
  5
828
330
1F
100
AcDbEntity
  8
P-0000
  6
Continuous
 62
     7
100
AcDbLine
 10
2561.223157780354
 20
1625.380367767076
 30
0.0
 11
2557.723157780351
 21
1633.241496475737
 31
0.0
1001
ACME_LAYERS
1000
1
  0
LINE
  5
829
330
1F
100
AcDbEntity
  8
P-0000
  6
Continuous
 62
     7
100
AcDbLine
 10
2561.278172487947
 20
1630.173989381862
 30
0.0
 11
2559.55024869564
 21
1634.05496976189
 31
0.0
1001
ACME_LAYERS
1000
1
  0
LINE
  5
82A
330
1F
100
AcDbEntity
  8
P-0000
  6
Continuous
 62
     7
100
AcDbLine
 10
2563.223157780353
 20
1625.805480890414
 30
0.0
 11
2562.049331191888
 21
1628.441938574294
 31
0.0
1001
ACME_LAYERS
1000
1
  0
LINE
  5
82B
330
1F
100
AcDbEntity
  8
P-0000
  6
Continuous
 62
     7
100
AcDbLine
 10
2563.223157780353
 20
1625.805480890414
 30
0.0
 11
2562.049331191888
 21
1628.441938574294
 31
0.0
1001
ACME_LAYERS
1000
1
  0
LINE
  5
82C
330
1F
100
AcDbEntity
  8
P-0000
  6
Continuous
 62
     7
100
AcDbLine
 10
2563.223157780353
 20
1629.054969761889
 30
0.0
 11
2563.223157780353
 21
1625.805480890414
 31
0.0
1001
ACME_LAYERS
1000
1
  0
LINE
  5
82D
330
1F
100
AcDbEntity
  8
P-0000
  6
Continuous
 62
     7
100
AcDbLine
 10
2561.223157780354
 20
1625.380367767074
 30
0.0
 11
2561.223157780354
 21
1625.380367767076
 31
0.0
1001
ACME_LAYERS
1000
1
  0
LINE
  5
82E
330
1F
100
AcDbEntity
  8
P-0000
  6
Continuous
 62
     7
100
AcDbLine
 10
2563.223157780353
 20
1625.258338083432
 30
0.0
 11
2563.223157780353
 21
1625.805480890414
 31
0.0
1001
ACME_LAYERS
1000
1
  0
LINE
  5
82F
330
1F
100
AcDbEntity
  8
P-0000
  6
Continuous
 62
     7
100
AcDbLine
 10
2563.223157780353
 20
1625.258338083432
 30
0.0
 11
2563.223157780353
 21
1625.805480890414
 31
0.0
1001
ACME_LAYERS
1000
1
  0
LINE
  5
830
330
1F
100
AcDbEntity
  8
P-0000
  6
Continuous
 62
     7
100
AcDbLine
 10
2563.223157780353
 20
1625.258338083432
 30
0.0
 11
2563.223157780353
 21
1625.805480890414
 31
0.0
1001
ACME_LAYERS
1000
1
  0
LINE
  5
831
330
1F
100
AcDbEntity
  8
P-0000
  6
Continuous
 62
     7
100
AcDbLine
 10
2563.223157780353
 20
1625.258338083432
 30
0.0
 11
2563.223157780353
 21
1625.805480890414
 31
0.0
1001
ACME_LAYERS
1000
1
  0
LINE
  5
832
330
1F
100
AcDbEntity
  8
P-0000
  6
Continuous
 62
     7
100
AcDbLine
 10
2562.049331191888
 20
1628.441938574294
 30
0.0
 11
2561.278172487947
 21
1630.173989381862
 31
0.0
1001
ACME_LAYERS
1000
1
  0
LINE
  5
833
330
1F
100
AcDbEntity
  8
P-0000
  6
Continuous
 62
     7
100
AcDbLine
 10
2562.049331191888
 20
1628.441938574294
 30
0.0
 11
2561.278172487947
 21
1630.173989381862
 31
0.0
1001
ACME_LAYERS
1000
1
  0
LINE
  5
834
330
1F
100
AcDbEntity
  8
P-0000
  6
Continuous
 62
     7
100
AcDbLine
 10
2570.16094924983
 20
1632.05496976189
 30
0.0
 11
2568.223157780353
 21
1632.05496976189
 31
0.0
1001
ACME_LAYERS
1000
1
  0
LINE
  5
835
330
1F
100
AcDbEntity
  8
P-0000
  6
Continuous
 62
     7
100
AcDbLine
 10
2565.223157780354
 20
1629.054969761889
 30
0.0
 11
2565.223157780354
 21
1628.05496976189
 31
0.0
1001
ACME_LAYERS
1000
1
  0
LINE
  5
836
330
1F
100
AcDbEntity
  8
P-0000
  6
Continuous
 62
     7
100
AcDbLine
 10
2567.723157780346
 20
1628.05496976189
 30
0.0
 11
2565.223157780354
 21
1628.05496976189
 31
0.0
1001
ACME_LAYERS
1000
1
  0
LINE
  5
837
330
1F
100
AcDbEntity
  8
P-0000
  6
Continuous
 62
     7
100
AcDbLine
 10
2568.223157780353
 20
1634.05496976189
 30
0.0
 11
2559.55024869564
 21
1634.05496976189
 31
0.0
1001
ACME_LAYERS
1000
1
  0
LINE
  5
838
330
1F
100
AcDbEntity
  8
P-0000
  6
Continuous
 62
     7
100
AcDbLine
 10
2557.723157780351
 20
1633.241496475737
 30
0.0
 11
2559.55024869564
 21
1634.05496976189
 31
0.0
1001
ACME_LAYERS
1000
1
  0
LINE
  5
839
330
1F
100
AcDbEntity
  8
P-0000
  6
Continuous
 62
     7
100
AcDbLine
 10
2557.723157780351
 20
1633.241496475737
 30
0.0
 11
2559.55024869564
 21
1634.05496976189
 31
0.0
1001
ACME_LAYERS
1000
1
  0
LINE
  5
83A
330
1F
100
AcDbEntity
  8
P-0000
  6
Continuous
 62
     7
100
AcDbLine
 10
2586.260949249837
 20
1632.05496976189
 30
0.0
 11
2588.144871052593
 21
1632.05496976189
 31
0.0
1001
ACME_LAYERS
1000
1
  0
LINE
  5
83B
330
1F
100
AcDbEntity
  8
P-0000
  6
Continuous
 62
     7
100
AcDbLine
 10
2584.323157780359
 20
1634.05496976189
 30
0.0
 11
2588.144871052593
 21
1634.05496976189
 31
0.0
1001
ACME_LAYERS
1000
1
  0
LINE
  5
83C
330
1F
100
AcDbEntity
  8
P-0000
  6
Continuous
 62
     7
100
AcDbLine
 10
2621.964710711295
 20
1579.547469986802
 30
0.0
 11
2622.794849330434
 21
1579.518480907437
 31
0.0
1001
ACME_LAYERS
1000
1
  0
LINE
  5
83D
330
1F
100
AcDbEntity
  8
P-0000
  6
Continuous
 62
     7
100
AcDbLine
 10
2628.791194292551
 20
1579.309083927222
 30
0.0
 11
2629.621332911688
 21
1579.280094847857
 31
0.0
1001
ACME_LAYERS
1000
1
  0
LINE
  5
83E
330
1F
100
AcDbEntity
  8
P-0000
  6
Continuous
 62
     7
100
AcDbLine
 10
2633.788148427646
 20
1579.134586443709
 30
0.0
 11
2635.786930081682
 21
1579.064787450304
 31
0.0
1001
ACME_LAYERS
1000
1
  0
LINE
  5
83F
330
1F
100
AcDbEntity
  8
P-0000
  6
Continuous
 62
     7
100
AcDbLine
 10
2616.87315778036
 20
1630.054969761889
 30
0.0
 11
2623.27315778036
 21
1630.054969761889
 31
0.0
1001
ACME_LAYERS
1000
1
  0
LINE
  5
840
330
1F
100
AcDbEntity
  8
P-0000
  6
Continuous
 62
     7
100
AcDbLine
 10
2596.680769437457
 20
1628.05496976189
 30
0.0
 11
2644.294871052595
 21
1628.05496976189
 31
0.0
1001
ACME_LAYERS
1000
1
  0
LINE
  5
841
330
1F
100
AcDbEntity
  8
P-0000
  6
Continuous
 62
     7
100
AcDbLine
 10
2616.116667822319
 20
1630.054969761889
 30
0.0
 11
2644.016667822318
 21
1630.054969761889
 31
0.0
1001
ACME_LAYERS
1000
1
  0
LINE
  5
842
330
1F
100
AcDbEntity
  8
P-0000
  6
Continuous
 62
     7
100
AcDbLine
 10
2596.680769437457
 20
1630.054969761889
 30
0.0
 11
2616.116667822319
 21
1630.054969761889
 31
0.0
1001
ACME_LAYERS
1000
1
  0
LINE
  5
843
330
1F
100
AcDbEntity
  8
P-0000
  6
Continuous
 62
     7
100
AcDbLine
 10
2590.144871052594
 20
1633.519071377028
 30
0.0
 11
2594.821058663248
 21
1630.819273201235
 31
0.0
1001
ACME_LAYERS
1000
1
  0
LINE
  5
844
330
1F
100
AcDbEntity
  8
P-0000
  6
Continuous
 62
     7
100
AcDbLine
 10
2590.144871052594
 20
1633.519071377028
 30
0.0
 11
2594.821058663248
 21
1630.819273201235
 31
0.0
1001
ACME_LAYERS
1000
1
  0
LINE
  5
845
330
1F
100
AcDbEntity
  8
P-0000
  6
Continuous
 62
     7
100
AcDbLine
 10
2589.144871052594
 20
1631.78702056946
 30
0.0
 11
2594.680769437457
 21
1628.590868146751
 31
0.0
1001
ACME_LAYERS
1000
1
  0
LINE
  5
846
330
1F
100
AcDbEntity
  8
P-0000
  6
Continuous
 62
     7
100
AcDbLine
 10
2589.144871052594
 20
1631.78702056946
 30
0.0
 11
2594.680769437457
 21
1628.590868146751
 31
0.0
1001
ACME_LAYERS
1000
1
  0
ARC
  5
847
330
1F
100
AcDbEntity
  8
P-0000
  6
Continuous
 62
     7
100
AcDbCircle
 10
2596.680769437457
 20
1632.05496976189
 30
0.0
 40
1.999999999999324
100
AcDbArc
 50
239.9999999999962
 51
270.0
1001
ACME_LAYERS
1000
1
  0
ARC
  5
848
330
1F
100
AcDbEntity
  8
P-0000
  6
Continuous
 62
     7
100
AcDbCircle
 10
2596.680769437457
 20
1632.05496976189
 30
0.0
 40
1.999999999999324
100
AcDbArc
 50
239.9999999999962
 51
270.0
1001
ACME_LAYERS
1000
1
  0
ARC
  5
849
330
1F
100
AcDbEntity
  8
P-0000
  6
Continuous
 62
     7
100
AcDbCircle
 10
2596.680769437457
 20
1632.05496976189
 30
0.0
 40
4.000000000000205
100
AcDbArc
 50
240.0000000000027
 51
270.0
1001
ACME_LAYERS
1000
1
  0
ARC
  5
84A
330
1F
100
AcDbEntity
  8
P-0000
  6
Continuous
 62
     7
100
AcDbCircle
 10
2596.680769437457
 20
1632.05496976189
 30
0.0
 40
4.000000000000205
100
AcDbArc
 50
240.0000000000027
 51
270.0
1001
ACME_LAYERS
1000
1
  0
LINE
  5
84B
330
1F
100
AcDbEntity
  8
P-0000
  6
Continuous
 62
     7
100
AcDbLine
 10
2594.821058663248
 20
1630.819273201235
 30
0.0
 11
2595.444331644996
 21
1630.459426377443
 31
0.0
1001
ACME_LAYERS
1000
1
  0
LINE
  5
84C
330
1F
100
AcDbEntity
  8
P-0000
  6
Continuous
 62
     3
100
AcDbLine
 10
2595.575925787555
 20
1630.383450463814
 30
0.0
 11
2595.444331644996
 21
1630.459426377443
 31
0.0
1001
ACME_LAYERS
1000
1
  0
LINE
  5
84D
330
1F
100
AcDbEntity
  8
P-0000
  6
Continuous
 62
     7
100
AcDbLine
 10
2595.444331644996
 20
1630.459426377443
 30
0.0
 11
2595.575925787555
 21
1630.383450463814
 31
0.0
1001
ACME_LAYERS
1000
1
  0
LINE
  5
84E
330
1F
100
AcDbEntity
  8
P-0000
  6
Continuous
 62
     3
100
AcDbLine
 10
2595.444331644996
 20
1630.459426377443
 30
0.0
 11
2594.821058663248
 21
1630.819273201235
 31
0.0
1001
ACME_LAYERS
1000
1
  0
LINE
  5
84F
330
1F
100
AcDbEntity
  8
P-0000
  6
Continuous
 62
     7
100
AcDbLine
 10
2595.575925787555
 20
1630.383450463814
 30
0.0
 11
2595.680769437457
 21
1630.322918954322
 31
0.0
1001
ACME_LAYERS
1000
1
  0
LINE
  5
850
330
1F
100
AcDbEntity
  8
P-0000
  6
Continuous
 62
     7
100
AcDbLine
 10
2594.821058663248
 20
1630.819273201235
 30
0.0
 11
2595.444331644996
 21
1630.459426377443
 31
0.0
1001
ACME_LAYERS
1000
1
  0
LINE
  5
851
330
1F
100
AcDbEntity
  8
P-0000
  6
Continuous
 62
     3
100
AcDbLine
 10
2595.575925787555
 20
1630.383450463814
 30
0.0
 11
2595.444331644996
 21
1630.459426377443
 31
0.0
1001
ACME_LAYERS
1000
1
  0
LINE
  5
852
330
1F
100
AcDbEntity
  8
P-0000
  6
Continuous
 62
     7
100
AcDbLine
 10
2595.444331644996
 20
1630.459426377443
 30
0.0
 11
2595.575925787555
 21
1630.383450463814
 31
0.0
1001
ACME_LAYERS
1000
1
  0
LINE
  5
853
330
1F
100
AcDbEntity
  8
P-0000
  6
Continuous
 62
     3
100
AcDbLine
 10
2595.444331644996
 20
1630.459426377443
 30
0.0
 11
2594.821058663248
 21
1630.819273201235
 31
0.0
1001
ACME_LAYERS
1000
1
  0
LINE
  5
854
330
1F
100
AcDbEntity
  8
P-0000
  6
Continuous
 62
     7
100
AcDbLine
 10
2595.575925787555
 20
1630.383450463814
 30
0.0
 11
2595.680769437457
 21
1630.322918954322
 31
0.0
1001
ACME_LAYERS
1000
1
  0
LINE
  5
855
330
1F
100
AcDbEntity
  8
P-0000
  6
Continuous
 62
     7
100
AcDbLine
 10
2616.073157780361
 20
1630.054969761889
 30
0.0
 11
2616.073157780354
 21
1635.786117118714
 31
0.0
1001
ACME_LAYERS
1000
1
  0
LINE
  5
856
330
1F
100
AcDbEntity
  8
P-0000
  6
Continuous
 62
     7
100
AcDbLine
 10
2616.073157780361
 20
1630.054969761889
 30
0.0
 11
2616.87315778036
 21
1630.054969761889
 31
0.0
1001
ACME_LAYERS
1000
1
  0
LINE
  5
859
330
1F
100
AcDbEntity
  8
P-0000
  6
Continuous
 62
     7
100
AcDbLine
 10
2624.07315778036
 20
1630.054969761889
 30
0.0
 11
2624.07315778036
 21
1634.05496976189
 31
0.0
1001
ACME_LAYERS
1000
1
  0
LINE
  5
85B
330
1F
100
AcDbEntity
  8
P-0000
  6
Continuous
 62
     7
100
AcDbLine
 10
2623.27315778036
 20
1630.054969761889
 30
0.0
 11
2624.07315778036
 21
1630.054969761889
 31
0.0
1001
ACME_LAYERS
1000
1
  0
ARC
  5
85D
330
1F
100
AcDbEntity
  8
P-0000
  6
Continuous
 62
     7
100
AcDbCircle
 10
2650.732126062227
 20
1628.843317444269
 30
0.0
 40
4.0
100
AcDbArc
 50
90.0
 51
120.0000000000038
1001
ACME_LAYERS
1000
1
  0
ARC
  5
85E
330
1F
100
AcDbEntity
  8
P-0000
  6
Continuous
 62
     7
100
AcDbCircle
 10
2650.732126062227
 20
1628.843317444269
 30
0.0
 40
4.000000000000635
100
AcDbArc
 50
44.99999999999078
 51
90.0
1001
ACME_LAYERS
1000
1
  0
LINE
  5
85F
330
1F
100
AcDbEntity
  8
P-0000
  6
Continuous
 62
     7
100
AcDbLine
 10
2649.78461701475
 20
1633.385096780812
 30
0.0
 11
2644.016667822318
 21
1630.054969761889
 31
0.0
1001
ACME_LAYERS
1000
1
  0
LINE
  5
860
330
1F
100
AcDbEntity
  8
P-0000
  6
Continuous
 62
     7
100
AcDbLine
 10
2646.294871052595
 20
1628.590868146751
 30
0.0
 11
2649.732126062227
 21
1630.575368251837
 31
0.0
1001
ACME_LAYERS
1000
1
  0
LINE
  5
861
330
1F
100
AcDbEntity
  8
P-0000
  6
Continuous
 62
     7
100
AcDbLine
 10
2645.294871052595
 20
1630.322918954322
 30
0.0
 11
2648.732126062227
 21
1632.307419059405
 31
0.0
1001
ACME_LAYERS
1000
1
  0
ARC
  5
862
330
1F
100
AcDbEntity
  8
P-0000
  6
Continuous
 62
     7
100
AcDbCircle
 10
2644.294871052595
 20
1632.05496976189
 30
0.0
 40
2.0
100
AcDbArc
 50
270.0
 51
300.0000000000038
1001
ACME_LAYERS
1000
1
  0
ARC
  5
863
330
1F
100
AcDbEntity
  8
P-0000
  6
Continuous
 62
     7
100
AcDbCircle
 10
2644.294871052595
 20
1632.05496976189
 30
0.0
 40
4.0
100
AcDbArc
 50
270.0
 51
299.9999999999973
1001
ACME_LAYERS
1000
1
  0
LINE
  5
864
330
1F
100
AcDbEntity
  8
P-0000
  6
Continuous
 62
     7
100
AcDbLine
 10
2644.294871052595
 20
1630.054969761889
 30
0.0
 11
2644.016667822318
 21
1630.054969761889
 31
0.0
1001
ACME_LAYERS
1000
1
  0
ARC
  5
865
330
1F
100
AcDbEntity
  8
P-0000
  6
Continuous
 62
     7
100
AcDbCircle
 10
2650.732126062227
 20
1628.843317444269
 30
0.0
 40
2.000000000000274
100
AcDbArc
 50
44.99999999999078
 51
120.0000000000038
1001
ACME_LAYERS
1000
1
  0
ARC
  5
866
330
1F
100
AcDbEntity
  8
P-0000
  6
Continuous
 62
     7
100
AcDbCircle
 10
2650.732126062227
 20
1628.843317444269
 30
0.0
 40
2.000000000000274
100
AcDbArc
 50
44.99999999999078
 51
120.0000000000038
1001
ACME_LAYERS
1000
1
  0
LINE
  5
867
330
1F
100
AcDbEntity
  8
P-0000
  6
Continuous
 62
     7
100
AcDbLine
 10
2654.263114431727
 20
1630.969183324263
 30
0.0
 11
2652.848900869353
 21
1629.554969761889
 31
0.0
1001
ACME_LAYERS
1000
1
  0
LINE
  5
868
330
1F
100
AcDbEntity
  8
P-0000
  6
Continuous
 62
     7
100
AcDbLine
 10
2652.146339624601
 20
1630.257531006642
 30
0.0
 11
2652.848900869353
 21
1629.554969761889
 31
0.0
1001
ACME_LAYERS
1000
1
  0
LINE
  5
869
330
1F
100
AcDbEntity
  8
P-0000
  6
Continuous
 62
     7
100
AcDbLine
 10
2653.560553186974
 20
1631.671744569015
 30
0.0
 11
2654.263114431727
 21
1630.969183324263
 31
0.0
1001
ACME_LAYERS
1000
1
  0
ARC
  5
86A
330
1F
100
AcDbEntity
  8
P-0000
  6
Continuous
 62
     7
100
AcDbCircle
 10
2652.28461701475
 20
1629.054969761889
 30
0.0
 40
5.0
100
AcDbArc
 50
90.0
 51
119.9999999999972
1001
ACME_LAYERS
1000
1
  0
DIMENSION
  5
877
330
1F
100
AcDbEntity
  8
AM_5
100
AcDbDimension
  2
*D4
 10
2785.392569045242
 20
1524.255709425145
 30
0.0
 11
2785.392569045241
 21
1581.521926233861
 31
0.0
 70
   160
  1
103.8
 71
     5
 42
103.7992603367449
  3
AM_DIN$0
100
AcDbAlignedDimension
 13
2668.866667822319
 23
1628.05496976189
 33
0.0
 14
2729.3493328252
 24
1524.255709425145
 34
0.0
 50
90.0
100
AcDbRotatedDimension
1001
ACME_LAYERS
1000
1
1001
ACAD
1000
DSTYLE
1002
{
1070
    41
1040
5.0
1070
   140
1040
10.0
1070
   271
1070
     0
1002
}
  0
DIMENSION
  5
878
330
1F
100
AcDbEntity
  8
AM_5
100
AcDbDimension
  2
*D5
 10
2762.174359207217
 20
1471.588458108375
 30
0.0
 11
2763.343632822484
 21
1505.072073512135
 31
0.0
 70
   160
  1
%%c<>
 71
     5
 42
103.0000000000002
  3
AM_DIN$0
100
AcDbAlignedDimension
 13
2725.150675213861
 23
1575.944136705624
 33
0.0
 14
2721.556027053502
 24
1473.006881522657
 34
0.0
 50
87.99999999999648
100
AcDbRotatedDimension
1001
ACME_LAYERS
1000
1
1001
ACAD
1000
DSTYLE
1002
{
1070
    41
1040
5.0
1070
   140
1040
10.0
1070
   271
1070
     0
1002
}
  0
LINE
  5
879
330
1F
100
AcDbEntity
  8
P-0000
  6
Continuous
 62
     7
100
AcDbLine
 10
2729.3493328252
 20
1524.255709425145
 30
0.0
 11
2731.098677073925
 21
1574.350374410641
 31
0.0
1001
ACME_LAYERS
1000
1
  0
LINE
  5
87A
330
1F
100
AcDbEntity
  8
P-0000
  6
Continuous
 62
     3
100
AcDbLine
 10
2725.113454102453
 20
1574.87826353191
 30
0.0
 11
2722.603011954577
 21
1502.98860633323
 31
0.0
1001
ACME_LAYERS
1000
1
  0
LINE
  5
87B
102
{ACAD_REACTORS
330
14C6
102
}
330
1F
100
AcDbEntity
  8
P-0000
  6
STRICHPUNKT
 62
     3
100
AcDbLine
 10
2729.3493328252
 20
1524.255709425145
 30
0.0
 11
2668.862754024113
 21
1526.515048327279
 31
0.0
1001
ACME_LAYERS
1000
1
  0
LINE
  5
87C
330
1F
100
AcDbEntity
  8
P-0000
  6
Continuous
 62
     7
100
AcDbLine
 10
2712.56150961033
 20
1473.32097699298
 30
0.0
 11
2721.556027053502
 21
1473.006881522657
 31
0.0
1001
ACME_LAYERS
1000
1
  0
LINE
  5
87D
330
1F
100
AcDbEntity
  8
P-0000
  6
STRICHPUNKT
 62
     3
100
AcDbLine
 10
2668.862754024113
 20
1532.483986778285
 30
0.0
 11
2668.862754024113
 21
1526.515048327279
 31
0.0
1001
ACME_LAYERS
1000
1
  0
LINE
  5
87E
330
1F
100
AcDbEntity
  8
P-0000
  6
STRICHPUNKT
 62
     3
100
AcDbLine
 10
2668.862754024113
 20
1526.515048327279
 30
0.0
 11
2668.862754024113
 21
1522.483986778285
 31
0.0
1001
ACME_LAYERS
1000
1
  0
LINE
  5
87F
330
1F
100
AcDbEntity
  8
P-0000
  6
Continuous
 62
     7
100
AcDbLine
 10
2728.599356916692
 20
1502.779209353015
 30
0.0
 11
2728.826203645258
 21
1509.275249728639
 31
0.0
1001
ACME_LAYERS
1000
1
  0
LINE
  5
880
330
1F
100
AcDbEntity
  8
P-0000
  6
Continuous
 62
     7
100
AcDbLine
 10
2727.616391097073
 20
1474.630751173971
 30
0.0
 11
2728.599356916692
 21
1502.779209353015
 31
0.0
1001
ACME_LAYERS
1000
1
  0
LINE
  5
881
330
1F
100
AcDbEntity
  8
P-0000
  6
Continuous
 62
     3
100
AcDbLine
 10
2722.603011954577
 20
1502.98860633323
 30
0.0
 11
2721.654276033954
 21
1475.820364211655
 31
0.0
1001
ACME_LAYERS
1000
1
  0
LINE
  5
882
330
1F
100
AcDbEntity
  8
P-0000
  6
Continuous
 62
     7
100
AcDbLine
 10
2721.556027053502
 20
1473.006881522657
 30
0.0
 11
2727.616391097073
 21
1474.630751173971
 31
0.0
1001
ACME_LAYERS
1000
1
  0
LINE
  5
883
330
1F
100
AcDbEntity
  8
P-0000
  6
Continuous
 62
     7
100
AcDbLine
 10
2728.826203645258
 20
1509.275249728639
 30
0.0
 11
2729.3493328252
 21
1524.255709425145
 31
0.0
1001
ACME_LAYERS
1000
1
  0
LINE
  5
884
330
1F
100
AcDbEntity
  8
P-0000
  6
STRICHPUNKT
 62
     3
100
AcDbLine
 10
2734.806190010256
 20
1524.051880907051
 30
0.0
 11
2729.3493328252
 21
1524.255709425145
 31
0.0
1001
ACME_LAYERS
1000
1
  0
LINE
  5
885
330
1F
100
AcDbEntity
  8
P-0000
  6
STRICHPUNKT
 62
     3
100
AcDbLine
 10
2729.3493328252
 20
1524.255709425145
 30
0.0
 11
2729.333500494827
 21
1524.256300805921
 31
0.0
1001
ACME_LAYERS
1000
1
  0
LINE
  5
886
330
1F
100
AcDbEntity
  8
P-0000
  6
Continuous
 62
     7
100
AcDbLine
 10
2716.156157770688
 20
1576.258232175947
 30
0.0
 11
2725.150675213861
 21
1575.944136705624
 31
0.0
1001
ACME_LAYERS
1000
1
  0
LINE
  5
887
330
1F
100
AcDbEntity
  8
P-0000
  6
Continuous
 62
     7
100
AcDbLine
 10
2657.103975026452
 20
1578.320379837543
 30
0.0
 11
2716.156157770688
 21
1576.258232175947
 31
0.0
1001
ACME_LAYERS
1000
1
  0
HATCH
  5
888
330
1F
100
AcDbEntity
  8
P-0000
  6
Continuous
 62
     3
100
AcDbHatch
 10
0.0
 20
0.0
 30
0.0
210
0.0
220
0.0
230
1.0
  2
_U
 70
     0
 71
     0
 91
        1
 92
        1
 93
        9
 72
     1
 10
2665.501209582411
 20
1632.307419059405
 11
2669.866667822319
 21
1629.78702056946
 72
     1
 10
2669.866667822319
 20
1629.78702056946
 11
2668.866667822319
 21
1628.054969761889
 72
     1
 10
2668.866667822319
 20
1628.05496976189
 11
2664.50120958241
 21
1630.575368251837
 72
     2
 10
2663.501209582411
 20
1628.843317444269
 40
1.999999999999401
 50
59.99999999999008
 51
135.0000000000017
 73
     1
 72
     1
 10
2662.086996020037
 20
1630.257531006642
 11
2661.384434775284
 21
1629.554969761889
 72
     1
 10
2661.384434775284
 20
1629.554969761889
 11
2659.970221212911
 21
1630.969183324263
 72
     1
 10
2659.970221212911
 20
1630.969183324263
 11
2660.672782457663
 21
1631.671744569015
 72
     2
 10
2663.501209582411
 20
1628.843317444269
 40
4.0
 50
224.9999999999989
 51
270.0
 73
     0
 72
     2
 10
2663.501209582411
 20
1628.843317444269
 40
3.999999999998728
 50
270.0
 51
300.0000000000105
 73
     0
 97
        0
 75
     0
 76
     0
 52
45.0
 41
2.0
 77
     0
 78
     1
 53
45.0
 43
2444.540029765462
 44
1774.096586554694
 45
-1.414213562373094
 46
1.414213562373094
 79
     0
 98
        1
 10
2444.540029765462
 20
1774.096586554694
1001
ACME_LAYERS
1000
1
  0
ARC
  5
889
330
1F
100
AcDbEntity
  8
P-0000
  6
Continuous
 62
     7
100
AcDbCircle
 10
2663.501209582411
 20
1628.843317444269
 30
0.0
 40
4.0
100
AcDbArc
 50
90.0
 51
135.0000000000092
1001
ACME_LAYERS
1000
1
  0
ARC
  5
88A
330
1F
100
AcDbEntity
  8
P-0000
  6
Continuous
 62
     7
100
AcDbCircle
 10
2663.501209582411
 20
1628.843317444269
 30
0.0
 40
3.999999999998728
100
AcDbArc
 50
59.9999999999962
 51
90.0
1001
ACME_LAYERS
1000
1
  0
LINE
  5
88B
330
1F
100
AcDbEntity
  8
P-0000
  6
Continuous
 62
     7
100
AcDbLine
 10
2663.63461701475
 20
1633.385096780812
 30
0.0
 11
2665.501209582411
 21
1632.307419059405
 31
0.0
1001
ACME_LAYERS
1000
1
  0
LINE
  5
88C
330
1F
100
AcDbEntity
  8
P-0000
  6
STRICHPUNKT
 62
     3
100
AcDbLine
 10
2657.116667822319
 20
1626.55496976189
 30
0.0
 11
2657.116667822319
 21
1635.843317444269
 31
0.0
1001
ACME_LAYERS
1000
1
  0
ARC
  5
88D
330
1F
100
AcDbEntity
  8
P-0000
  6
Continuous
 62
     7
100
AcDbCircle
 10
2663.501209582411
 20
1628.843317444269
 30
0.0
 40
1.999999999999401
100
AcDbArc
 50
59.9999999999962
 51
135.0000000000092
1001
ACME_LAYERS
1000
1
  0
LINE
  5
88E
330
1F
100
AcDbEntity
  8
P-0000
  6
Continuous
 62
     7
100
AcDbLine
 10
2661.384434775284
 20
1629.554969761889
 30
0.0
 11
2662.086996020037
 21
1630.257531006642
 31
0.0
1001
ACME_LAYERS
1000
1
  0
LINE
  5
88F
330
1F
100
AcDbEntity
  8
P-0000
  6
Continuous
 62
     7
100
AcDbLine
 10
2659.970221212911
 20
1630.969183324263
 30
0.0
 11
2660.672782457663
 21
1631.671744569015
 31
0.0
1001
ACME_LAYERS
1000
1
  0
LINE
  5
890
330
1F
100
AcDbEntity
  8
P-0000
  6
Continuous
 62
     7
100
AcDbLine
 10
2661.384434775284
 20
1629.554969761889
 30
0.0
 11
2659.970221212911
 21
1630.969183324263
 31
0.0
1001
ACME_LAYERS
1000
1
  0
LINE
  5
891
330
1F
100
AcDbEntity
  8
P-0000
  6
Continuous
 62
     7
100
AcDbLine
 10
2664.50120958241
 20
1630.575368251837
 30
0.0
 11
2668.866667822319
 21
1628.05496976189
 31
0.0
1001
ACME_LAYERS
1000
1
  0
LINE
  5
892
330
1F
100
AcDbEntity
  8
P-0000
  6
Continuous
 62
     7
100
AcDbLine
 10
2664.50120958241
 20
1630.575368251837
 30
0.0
 11
2668.866667822319
 21
1628.05496976189
 31
0.0
1001
ACME_LAYERS
1000
1
  0
LINE
  5
893
330
1F
100
AcDbEntity
  8
P-0000
  6
Continuous
 62
     3
100
AcDbLine
 10
2665.501209582411
 20
1632.307419059405
 30
0.0
 11
2669.866667822319
 21
1629.78702056946
 31
0.0
1001
ACME_LAYERS
1000
1
  0
LINE
  5
894
330
1F
100
AcDbEntity
  8
P-0000
  6
Continuous
 62
     7
100
AcDbLine
 10
2669.866667822319
 20
1629.78702056946
 30
0.0
 11
2668.866667822319
 21
1628.05496976189
 31
0.0
1001
ACME_LAYERS
1000
1
  0
ARC
  5
895
330
1F
100
AcDbEntity
  8
P-0000
  6
Continuous
 62
     7
100
AcDbCircle
 10
2661.13461701475
 20
1629.054969761889
 30
0.0
 40
5.000000000000087
100
AcDbArc
 50
60.00000000000272
 51
90.00000000002605
1001
ACME_LAYERS
1000
1
  0
LINE
  5
897
330
1F
100
AcDbEntity
  8
P-0000
  6
Continuous
 62
     7
100
AcDbLine
 10
2731.098677073925
 20
1574.350374410641
 30
0.0
 11
2725.150675213861
 21
1575.944136705624
 31
0.0
1001
ACME_LAYERS
1000
1
  0
LINE
  5
99D
330
1F
100
AcDbEntity
  8
P-0000
  6
Continuous
 62
     7
100
AcDbLine
 10
2391.529647738388
 20
1630.054969761889
 30
0.0
 11
2410.965546123251
 21
1630.054969761889
 31
0.0
1001
ACME_LAYERS
1000
1
  0
LINE
  5
120A
330
1F
100
AcDbEntity
  8
P-0000
  6
STRICHPUNKT
 62
     3
100
AcDbLine
 10
2350.464382675437
 20
1635.874464801183
 30
0.0
 11
2350.464382675437
 21
1626.586117118804
 31
0.0
1001
ACME_LAYERS
1000
1
  0
LINE
  5
1214
330
1F
100
AcDbEntity
  8
P-0000
  6
Continuous
 62
     7
100
AcDbLine
 10
2383.442627654458
 20
1643.292037023746
 30
0.0
 11
2383.442627654458
 21
1639.292037023747
 31
0.0
1001
ACME_LAYERS
1000
1
  0
LINE
  5
1215
330
1F
100
AcDbEntity
  8
P-0000
  6
Continuous
 62
     7
100
AcDbLine
 10
2391.442627654457
 20
1643.292037023746
 30
0.0
 11
2391.442627654457
 21
1639.292037023747
 31
0.0
1001
ACME_LAYERS
1000
1
  0
LINE
  5
1216
330
1F
100
AcDbEntity
  8
P-0000
  6
Continuous
 62
     7
100
AcDbLine
 10
2375.827591223294
 20
1643.292037023746
 30
0.0
 11
2378.26519393652
 21
1643.292037023746
 31
0.0
1001
ACME_LAYERS
1000
1
  0
LINE
  5
1217
330
1F
100
AcDbEntity
  8
P-0000
  6
Continuous
 62
     7
100
AcDbLine
 10
2375.827591223294
 20
1643.292037023746
 30
0.0
 11
2378.26519393652
 21
1643.292037023746
 31
0.0
1001
ACME_LAYERS
1000
1
  0
LINE
  5
1218
330
1F
100
AcDbEntity
  8
P-0000
  6
Continuous
 62
     7
100
AcDbLine
 10
2378.26519393652
 20
1643.292037023746
 30
0.0
 11
2379.675522465381
 21
1643.292037023746
 31
0.0
1001
ACME_LAYERS
1000
1
  0
LINE
  5
1219
330
1F
100
AcDbEntity
  8
P-0000
  6
Continuous
 62
     7
100
AcDbLine
 10
2378.26519393652
 20
1643.292037023746
 30
0.0
 11
2379.675522465381
 21
1643.292037023746
 31
0.0
1001
ACME_LAYERS
1000
1
  0
LINE
  5
121A
330
1F
100
AcDbEntity
  8
P-0000
  6
Continuous
 62
     7
100
AcDbLine
 10
2540.257892717409
 20
1643.059986216179
 30
0.0
 11
2413.01371269002
 21
1643.059986216178
 31
0.0
1001
ACME_LAYERS
1000
1
  0
LINE
  5
121B
330
1F
100
AcDbEntity
  8
P-0000
  6
Continuous
 62
     7
100
AcDbLine
 10
2379.675522465381
 20
1643.292037023746
 30
0.0
 11
2382.49916409855
 21
1643.292037023746
 31
0.0
1001
ACME_LAYERS
1000
1
  0
LINE
  5
121C
330
1F
100
AcDbEntity
  8
P-0000
  6
Continuous
 62
     3
100
AcDbLine
 10
2365.132154785329
 20
1639.292037023747
 30
0.0
 11
2365.097240309902
 21
1639.292037023747
 31
0.0
1001
ACME_LAYERS
1000
1
  0
LINE
  5
121D
330
1F
100
AcDbEntity
  8
P-0000
  6
Continuous
 62
     3
100
AcDbLine
 10
2364.561341925041
 20
1641.292037023745
 30
0.0
 11
2365.097240309902
 21
1641.292037023745
 31
0.0
1001
ACME_LAYERS
1000
1
  0
LINE
  5
121E
330
1F
100
AcDbEntity
  8
P-0000
  6
Continuous
 62
     3
100
AcDbLine
 10
2364.097240309902
 20
1641.559986216179
 30
0.0
 11
2364.561341925041
 21
1641.292037023745
 31
0.0
1001
ACME_LAYERS
1000
1
  0
LINE
  5
121F
330
1F
100
AcDbEntity
  8
P-0000
  6
Continuous
 62
     7
100
AcDbLine
 10
2401.999164098549
 20
1642.120464148493
 30
0.0
 11
2402.24180478567
 21
1641.877823461373
 31
0.0
1001
ACME_LAYERS
1000
1
  0
LINE
  5
1220
330
1F
100
AcDbEntity
  8
P-0000
  6
Continuous
 62
     7
100
AcDbLine
 10
2372.999164098549
 20
1642.120464148493
 30
0.0
 11
2372.756523411431
 21
1641.877823461373
 31
0.0
1001
ACME_LAYERS
1000
1
  0
LINE
  5
1221
330
1F
100
AcDbEntity
  8
P-0000
  6
Continuous
 62
     7
100
AcDbLine
 10
2382.49916409855
 20
1643.292037023746
 30
0.0
 11
2382.49916409855
 21
1641.292037023745
 31
0.0
1001
ACME_LAYERS
1000
1
  0
LINE
  5
1222
330
1F
100
AcDbEntity
  8
P-0000
  6
Continuous
 62
     7
100
AcDbLine
 10
2392.49916409855
 20
1643.292037023746
 30
0.0
 11
2392.49916409855
 21
1641.292037023745
 31
0.0
1001
ACME_LAYERS
1000
1
  0
LINE
  5
1223
330
1F
100
AcDbEntity
  8
P-0000
  6
Continuous
 62
     7
100
AcDbLine
 10
2357.49916409855
 20
1643.059986216178
 30
0.0
 11
2363.097240309902
 21
1639.827935408609
 31
0.0
1001
ACME_LAYERS
1000
1
  0
LINE
  5
1225
330
1F
100
AcDbEntity
  8
P-0000
  6
Continuous
 62
     7
100
AcDbLine
 10
2374.413377660923
 20
1640.70625058612
 30
0.0
 11
2374.170736973802
 21
1640.463609899002
 31
0.0
1001
ACME_LAYERS
1000
1
  0
LINE
  5
1226
330
1F
100
AcDbEntity
  8
P-0000
  6
Continuous
 62
     7
100
AcDbLine
 10
2400.584950536174
 20
1640.70625058612
 30
0.0
 11
2400.827591223296
 21
1640.463609899002
 31
0.0
1001
ACME_LAYERS
1000
1
  0
LINE
  5
1227
330
1F
100
AcDbEntity
  8
P-0000
  6
Continuous
 62
     7
100
AcDbLine
 10
2417.49916409855
 20
1643.059986216178
 30
0.0
 11
2411.901087887196
 21
1639.827935408609
 31
0.0
1001
ACME_LAYERS
1000
1
  0
LINE
  5
1228
330
1F
100
AcDbEntity
  8
P-0000
  6
Continuous
 62
     7
100
AcDbLine
 10
2409.901087887197
 20
1639.292037023747
 30
0.0
 11
2467.257892717405
 21
1639.292037023747
 31
0.0
1001
ACME_LAYERS
1000
1
  0
LINE
  5
1229
330
1F
100
AcDbEntity
  8
P-0000
  6
Continuous
 62
     7
100
AcDbLine
 10
2409.901087887197
 20
1641.292037023745
 30
0.0
 11
2403.656018348041
 21
1641.292037023745
 31
0.0
1001
ACME_LAYERS
1000
1
  0
LINE
  5
122A
330
1F
100
AcDbEntity
  8
P-0000
  6
Continuous
 62
     7
100
AcDbLine
 10
2409.901087887197
 20
1639.292037023747
 30
0.0
 11
2403.656018348041
 21
1639.292037023747
 31
0.0
1001
ACME_LAYERS
1000
1
  0
LINE
  5
122B
330
1F
100
AcDbEntity
  8
P-0000
  6
Continuous
 62
     7
100
AcDbLine
 10
2365.132154785329
 20
1639.292037023747
 30
0.0
 11
2371.342309849056
 21
1639.292037023747
 31
0.0
1001
ACME_LAYERS
1000
1
  0
LINE
  5
122C
330
1F
100
AcDbEntity
  8
P-0000
  6
Continuous
 62
     7
100
AcDbLine
 10
2382.49916409855
 20
1643.292037023746
 30
0.0
 11
2383.499164098549
 21
1643.292037023746
 31
0.0
1001
ACME_LAYERS
1000
1
  0
LINE
  5
122D
330
1F
100
AcDbEntity
  8
P-0000
  6
Continuous
 62
     7
100
AcDbLine
 10
2379.675522465381
 20
1643.292037023746
 30
0.0
 11
2382.49916409855
 21
1643.292037023746
 31
0.0
1001
ACME_LAYERS
1000
1
  0
LINE
  5
122E
330
1F
100
AcDbEntity
  8
P-0000
  6
Continuous
 62
     7
100
AcDbLine
 10
2392.49916409855
 20
1643.292037023746
 30
0.0
 11
2399.170736973802
 21
1643.292037023746
 31
0.0
1001
ACME_LAYERS
1000
1
  0
LINE
  5
122F
330
1F
100
AcDbEntity
  8
P-0000
  6
Continuous
 62
     7
100
AcDbLine
 10
2391.442627654457
 20
1641.292037023745
 30
0.0
 11
2399.170736973802
 21
1641.292037023745
 31
0.0
1001
ACME_LAYERS
1000
1
  0
LINE
  5
1230
330
1F
100
AcDbEntity
  8
P-0000
  6
Continuous
 62
     7
100
AcDbLine
 10
2375.827591223295
 20
1641.292037023745
 30
0.0
 11
2383.442627654458
 21
1641.292037023745
 31
0.0
1001
ACME_LAYERS
1000
1
  0
LINE
  5
1231
330
1F
100
AcDbEntity
  8
P-0000
  6
Continuous
 62
     7
100
AcDbLine
 10
2391.499164098549
 20
1643.292037023746
 30
0.0
 11
2392.49916409855
 21
1643.292037023746
 31
0.0
1001
ACME_LAYERS
1000
1
  0
LINE
  5
1232
330
1F
100
AcDbEntity
  8
P-0000
  6
Continuous
 62
     7
100
AcDbLine
 10
2365.097240309902
 20
1641.292037023745
 30
0.0
 11
2371.342309849056
 21
1641.292037023745
 31
0.0
1001
ACME_LAYERS
1000
1
  0
LINE
  5
1233
330
1F
100
AcDbEntity
  8
P-0000
  6
Continuous
 62
     7
100
AcDbLine
 10
2397.499164098549
 20
1643.292037023746
 30
0.0
 11
2392.49916409855
 21
1643.292037023746
 31
0.0
1001
ACME_LAYERS
1000
1
  0
LINE
  5
1234
330
1F
100
AcDbEntity
  8
P-0000
  6
Continuous
 62
     7
100
AcDbLine
 10
2392.49916409855
 20
1643.292037023746
 30
0.0
 11
2391.499164098549
 21
1643.292037023746
 31
0.0
1001
ACME_LAYERS
1000
1
  0
LINE
  5
1235
330
1F
100
AcDbEntity
  8
P-0000
  6
Continuous
 62
     7
100
AcDbLine
 10
2379.053465985128
 20
1643.292037023746
 30
0.0
 11
2383.499164098549
 21
1643.292037023746
 31
0.0
1001
ACME_LAYERS
1000
1
  0
LINE
  5
1236
330
1F
100
AcDbEntity
  8
P-0000
  6
Continuous
 62
     7
100
AcDbLine
 10
2391.499164098549
 20
1643.292037023746
 30
0.0
 11
2392.49916409855
 21
1643.292037023746
 31
0.0
1001
ACME_LAYERS
1000
1
  0
LINE
  5
1237
330
1F
100
AcDbEntity
  8
P-0000
  6
Continuous
 62
     7
100
AcDbLine
 10
2381.99916409855
 20
1643.292037023749
 30
0.0
 11
2376.999164098551
 21
1643.292037023749
 31
0.0
1001
ACME_LAYERS
1000
1
  0
LINE
  5
1238
330
1F
100
AcDbEntity
  8
P-0000
  6
Continuous
 62
     7
100
AcDbLine
 10
2392.49916409855
 20
1643.292037023746
 30
0.0
 11
2396.053465985128
 21
1643.292037023746
 31
0.0
1001
ACME_LAYERS
1000
1
  0
LINE
  5
1239
330
1F
100
AcDbEntity
  8
P-0000
  6
Continuous
 62
     7
100
AcDbLine
 10
2392.49916409855
 20
1643.292037023746
 30
0.0
 11
2391.99916409855
 21
1643.292037023749
 31
0.0
1001
ACME_LAYERS
1000
1
  0
LINE
  5
123A
330
1F
100
AcDbEntity
  8
P-0000
  6
Continuous
 62
     7
100
AcDbLine
 10
2383.499164098549
 20
1643.292037023746
 30
0.0
 11
2382.49916409855
 21
1643.292037023746
 31
0.0
1001
ACME_LAYERS
1000
1
  0
LINE
  5
123B
330
1F
100
AcDbEntity
  8
P-0000
  6
Continuous
 62
     7
100
AcDbLine
 10
2399.170736973802
 20
1643.292037023746
 30
0.0
 11
2392.49916409855
 21
1643.292037023746
 31
0.0
1001
ACME_LAYERS
1000
1
  0
ARC
  5
123C
330
1F
100
AcDbEntity
  8
P-0000
  6
Continuous
 62
     7
100
AcDbCircle
 10
2371.342309849056
 20
1643.292037023746
 30
0.0
 40
4.0
100
AcDbArc
 50
270.0
 51
315.0000000000092
1001
ACME_LAYERS
1000
1
  0
ARC
  5
123D
330
1F
100
AcDbEntity
  8
P-0000
  6
Continuous
 62
     7
100
AcDbCircle
 10
2399.170736973802
 20
1639.292037023747
 30
0.0
 40
4.000000000000613
100
AcDbArc
 50
45.00000000002764
 51
90.0
1001
ACME_LAYERS
1000
1
  0
ARC
  5
123E
330
1F
100
AcDbEntity
  8
P-0000
  6
Continuous
 62
     7
100
AcDbCircle
 10
2403.656018348041
 20
1643.292037023746
 30
0.0
 40
3.999999999999423
100
AcDbArc
 50
224.9999999999908
 51
270.0
1001
ACME_LAYERS
1000
1
  0
ARC
  5
123F
330
1F
100
AcDbEntity
  8
P-0000
  6
Continuous
 62
     7
100
AcDbCircle
 10
2409.901087887197
 20
1643.292037023746
 30
0.0
 40
4.0
100
AcDbArc
 50
270.0
 51
299.9999999999973
1001
ACME_LAYERS
1000
1
  0
ARC
  5
1240
330
1F
100
AcDbEntity
  8
P-0000
  6
Continuous
 62
     7
100
AcDbCircle
 10
2409.901087887197
 20
1643.292037023746
 30
0.0
 40
2.0
100
AcDbArc
 50
270.0
 51
300.0000000000329
1001
ACME_LAYERS
1000
1
  0
ARC
  5
1241
330
1F
100
AcDbEntity
  8
P-0000
  6
Continuous
 62
     7
100
AcDbCircle
 10
2403.656018348041
 20
1643.292037023746
 30
0.0
 40
2.000000000000397
100
AcDbArc
 50
225.0000000000276
 51
270.0
1001
ACME_LAYERS
1000
1
  0
ARC
  5
1242
330
1F
100
AcDbEntity
  8
P-0000
  6
Continuous
 62
     7
100
AcDbCircle
 10
2399.170736973802
 20
1639.292037023747
 30
0.0
 40
2.000000000000311
100
AcDbArc
 50
45.00000000002764
 51
90.0
1001
ACME_LAYERS
1000
1
  0
ARC
  5
1243
330
1F
100
AcDbEntity
  8
P-0000
  6
Continuous
 62
     7
100
AcDbCircle
 10
2375.827591223295
 20
1639.292037023747
 30
0.0
 40
2.0
100
AcDbArc
 50
90.0
 51
134.9999999999724
1001
ACME_LAYERS
1000
1
  0
ARC
  5
1244
330
1F
100
AcDbEntity
  8
P-0000
  6
Continuous
 62
     7
100
AcDbCircle
 10
2371.342309849056
 20
1643.292037023746
 30
0.0
 40
2.0
100
AcDbArc
 50
270.0
 51
315.0000000000092
1001
ACME_LAYERS
1000
1
  0
ARC
  5
1245
330
1F
100
AcDbEntity
  8
P-0000
  6
Continuous
 62
     7
100
AcDbCircle
 10
2365.097240309902
 20
1643.292037023746
 30
0.0
 40
1.999999999999425
100
AcDbArc
 50
239.9999999999671
 51
270.0
1001
ACME_LAYERS
1000
1
  0
ARC
  5
1246
330
1F
100
AcDbEntity
  8
P-0000
  6
Continuous
 62
     7
100
AcDbCircle
 10
2365.097240309902
 20
1643.292037023746
 30
0.0
 40
4.000000000000401
100
AcDbArc
 50
240.0000000000027
 51
270.0
1001
ACME_LAYERS
1000
1
  0
ARC
  5
1247
330
1F
100
AcDbEntity
  8
P-0000
  6
Continuous
 62
     7
100
AcDbCircle
 10
2375.827591223295
 20
1639.292037023747
 30
0.0
 40
4.0
100
AcDbArc
 50
90.00000000002605
 51
134.9999999999724
1001
ACME_LAYERS
1000
1
  0
HATCH
  5
1248
330
1F
100
AcDbEntity
  8
P-0000
  6
Continuous
 62
     3
100
AcDbHatch
 10
0.0
 20
0.0
 30
0.0
210
0.0
220
0.0
230
1.0
  2
_U
 70
     0
 71
     0
 91
        1
 92
        1
 93
       19
 72
     1
 10
2416.499164098549
 20
1644.792037023746
 11
2410.901087887198
 21
1641.559986216178
 72
     1
 10
2410.901087887197
 20
1641.559986216179
 11
2410.436986272058
 21
1641.292037023747
 72
     1
 10
2410.436986272058
 20
1641.292037023745
 11
2409.901087887197
 21
1641.292037023745
 72
     1
 10
2409.901087887197
 20
1641.292037023745
 11
2403.656018348041
 21
1641.292037023745
 72
     1
 10
2403.656018348041
 20
1641.292037023745
 11
2402.827591223295
 21
1641.292037023745
 72
     1
 10
2402.827591223295
 20
1641.292037023745
 11
2402.24180478567
 21
1641.877823461373
 72
     1
 10
2402.24180478567
 20
1641.877823461373
 11
2401.999164098549
 21
1642.120464148493
 72
     2
 10
2399.170736973802
 20
1639.292037023747
 40
4.000000000000613
 50
44.99999999999911
 51
89.99999999999998
 73
     1
 72
     1
 10
2399.170736973802
 20
1643.292037023746
 11
2392.49916409855
 21
1643.292037023746
 72
     1
 10
2392.49916409855
 20
1643.292037023746
 11
2392.49916409855
 21
1641.292037023747
 72
     1
 10
2392.49916409855
 20
1641.292037023745
 11
2399.170736973802
 21
1641.292037023745
 72
     1
 10
2399.170736973802
 20
1641.292037023745
 11
2399.99916409855
 21
1641.292037023745
 72
     1
 10
2399.99916409855
 20
1641.292037023745
 11
2400.584950536175
 21
1640.70625058612
 72
     1
 10
2400.584950536174
 20
1640.70625058612
 11
2400.827591223296
 21
1640.463609899002
 72
     2
 10
2403.656018348041
 20
1643.292037023746
 40
3.999999999999423
 50
224.9999999999822
 51
270.0
 73
     1
 72
     1
 10
2403.656018348041
 20
1639.292037023747
 11
2409.901087887197
 21
1639.292037023747
 72
     2
 10
2409.901087887197
 20
1643.292037023746
 40
4.0
 50
270.0
 51
299.9999999999967
 73
     1
 72
     1
 10
2411.901087887196
 20
1639.827935408609
 11
2417.49916409855
 21
1643.059986216178
 72
     1
 10
2417.49916409855
 20
1643.059986216178
 11
2416.499164098549
 21
1644.792037023746
 97
        0
 75
     0
 76
     0
 52
44.99999999999999
 41
3.0
 77
     0
 78
     1
 53
45.0
 43
2444.466036083654
 44
1779.918002518122
 45
-2.121320343559641
 46
2.121320343559641
 79
     0
 98
        1
 10
2444.466036083654
 20
1779.918002518122
1001
ACME_LAYERS
1000
1
  0
LINE
  5
1249
330
1F
100
AcDbEntity
  8
P-0000
  6
Continuous
 62
     7
100
AcDbLine
 10
2409.866306464092
 20
1639.292037023747
 30
0.0
 11
2403.621236924939
 21
1639.292037023747
 31
0.0
1001
ACME_LAYERS
1000
1
  0
LINE
  5
124A
330
1F
100
AcDbEntity
  8
P-0000
  6
Continuous
 62
     7
100
AcDbLine
 10
2365.097240309902
 20
1639.292037023747
 30
0.0
 11
2371.342309849058
 21
1639.292037023747
 31
0.0
1001
ACME_LAYERS
1000
1
  0
LINE
  5
124B
330
1F
100
AcDbEntity
  8
P-0000
  6
Continuous
 62
     7
100
AcDbLine
 10
2409.901087887199
 20
1639.292037023747
 30
0.0
 11
2403.656018348043
 21
1639.292037023747
 31
0.0
1001
ACME_LAYERS
1000
1
  0
LINE
  5
124D
330
1F
100
AcDbEntity
  8
0
100
AcDbLine
 10
2383.442627654458
 20
1643.292037023746
 30
0.0
 11
2383.442627654458
 21
1630.054969761889
 31
0.0
  0
LINE
  5
124E
330
1F
100
AcDbEntity
  8
0
100
AcDbLine
 10
2391.442627654461
 20
1641.292037023745
 30
0.0
 11
2391.442627654459
 21
1630.054969761889
 31
0.0
  0
LINE
  5
1250
330
1F
100
AcDbEntity
  8
P-0000
  6
Continuous
 62
     7
100
AcDbLine
 10
2624.073157780353
 20
1643.292037023746
 30
0.0
 11
2624.073157780353
 21
1635.047625418496
 31
0.0
1001
ACME_LAYERS
1000
1
  0
LINE
  5
1251
330
1F
100
AcDbEntity
  8
P-0000
  6
Continuous
 62
     7
100
AcDbLine
 10
2616.073157780354
 20
1643.292037023746
 30
0.0
 11
2616.073157780354
 21
1636.086117118801
 31
0.0
1001
ACME_LAYERS
1000
1
  0
LINE
  5
1252
330
1F
100
AcDbEntity
  8
P-0000
  6
Continuous
 62
     7
100
AcDbLine
 10
2631.688194211518
 20
1643.292037023746
 30
0.0
 11
2629.250591498291
 21
1643.292037023746
 31
0.0
1001
ACME_LAYERS
1000
1
  0
LINE
  5
1253
330
1F
100
AcDbEntity
  8
P-0000
  6
Continuous
 62
     7
100
AcDbLine
 10
2631.688194211518
 20
1643.292037023746
 30
0.0
 11
2629.250591498291
 21
1643.292037023746
 31
0.0
1001
ACME_LAYERS
1000
1
  0
LINE
  5
1254
330
1F
100
AcDbEntity
  8
P-0000
  6
Continuous
 62
     7
100
AcDbLine
 10
2629.250591498291
 20
1643.292037023746
 30
0.0
 11
2627.840262969432
 21
1643.292037023746
 31
0.0
1001
ACME_LAYERS
1000
1
  0
LINE
  5
1255
330
1F
100
AcDbEntity
  8
P-0000
  6
Continuous
 62
     7
100
AcDbLine
 10
2629.250591498291
 20
1643.292037023746
 30
0.0
 11
2627.840262969432
 21
1643.292037023746
 31
0.0
1001
ACME_LAYERS
1000
1
  0
LINE
  5
1256
330
1F
100
AcDbEntity
  8
P-0000
  6
Continuous
 62
     7
100
AcDbLine
 10
2540.257892717409
 20
1643.059986216179
 30
0.0
 11
2594.536987220218
 21
1643.059986216178
 31
0.0
1001
ACME_LAYERS
1000
1
  0
LINE
  5
1257
330
1F
100
AcDbEntity
  8
P-0000
  6
Continuous
 62
     7
100
AcDbLine
 10
2627.840262969432
 20
1643.292037023746
 30
0.0
 11
2625.016621336263
 21
1643.292037023746
 31
0.0
1001
ACME_LAYERS
1000
1
  0
LINE
  5
1258
330
1F
100
AcDbEntity
  8
P-0000
  6
Continuous
 62
     3
100
AcDbLine
 10
2642.418545124908
 20
1639.292037023747
 30
0.0
 11
2642.418545124908
 21
1639.292037023747
 31
0.0
1001
ACME_LAYERS
1000
1
  0
LINE
  5
1259
330
1F
100
AcDbEntity
  8
P-0000
  6
Continuous
 62
     3
100
AcDbLine
 10
2642.954443509772
 20
1641.292037023745
 30
0.0
 11
2642.418545124908
 21
1641.292037023745
 31
0.0
1001
ACME_LAYERS
1000
1
  0
LINE
  5
125A
330
1F
100
AcDbEntity
  8
P-0000
  6
Continuous
 62
     3
100
AcDbLine
 10
2643.418545124909
 20
1641.559986216179
 30
0.0
 11
2642.954443509772
 21
1641.292037023745
 31
0.0
1001
ACME_LAYERS
1000
1
  0
LINE
  5
125B
330
1F
100
AcDbEntity
  8
P-0000
  6
Continuous
 62
     7
100
AcDbLine
 10
2605.516621336263
 20
1642.120464148493
 30
0.0
 11
2605.273980649144
 21
1641.877823461373
 31
0.0
1001
ACME_LAYERS
1000
1
  0
LINE
  5
125C
330
1F
100
AcDbEntity
  8
P-0000
  6
Continuous
 62
     7
100
AcDbLine
 10
2634.516621336262
 20
1642.120464148493
 30
0.0
 11
2634.759262023381
 21
1641.877823461373
 31
0.0
1001
ACME_LAYERS
1000
1
  0
LINE
  5
125D
330
1F
100
AcDbEntity
  8
P-0000
  6
Continuous
 62
     7
100
AcDbLine
 10
2625.016621336263
 20
1643.292037023746
 30
0.0
 11
2625.016621336263
 21
1641.292037023745
 31
0.0
1001
ACME_LAYERS
1000
1
  0
LINE
  5
125E
330
1F
100
AcDbEntity
  8
P-0000
  6
Continuous
 62
     7
100
AcDbLine
 10
2615.016621336263
 20
1643.292037023746
 30
0.0
 11
2615.016621336263
 21
1641.292037023745
 31
0.0
1001
ACME_LAYERS
1000
1
  0
LINE
  5
125F
330
1F
100
AcDbEntity
  8
P-0000
  6
Continuous
 62
     7
100
AcDbLine
 10
2650.016621336261
 20
1643.059986216178
 30
0.0
 11
2644.418545124909
 21
1639.827935408609
 31
0.0
1001
ACME_LAYERS
1000
1
  0
LINE
  5
1260
330
1F
100
AcDbEntity
  8
P-0000
  6
Continuous
 62
     7
100
AcDbLine
 10
2649.016621336262
 20
1644.792037023746
 30
0.0
 11
2643.418545124909
 21
1641.559986216179
 31
0.0
1001
ACME_LAYERS
1000
1
  0
LINE
  5
1261
330
1F
100
AcDbEntity
  8
P-0000
  6
Continuous
 62
     7
100
AcDbLine
 10
2633.10240777389
 20
1640.70625058612
 30
0.0
 11
2633.345048461011
 21
1640.463609899002
 31
0.0
1001
ACME_LAYERS
1000
1
  0
LINE
  5
1262
330
1F
100
AcDbEntity
  8
P-0000
  6
Continuous
 62
     7
100
AcDbLine
 10
2606.930834898637
 20
1640.70625058612
 30
0.0
 11
2606.688194211517
 21
1640.463609899002
 31
0.0
1001
ACME_LAYERS
1000
1
  0
LINE
  5
1263
330
1F
100
AcDbEntity
  8
P-0000
  6
Continuous
 62
     7
100
AcDbLine
 10
2590.016621336264
 20
1643.059986216178
 30
0.0
 11
2595.614697547616
 21
1639.827935408609
 31
0.0
1001
ACME_LAYERS
1000
1
  0
LINE
  5
1264
330
1F
100
AcDbEntity
  8
P-0000
  6
Continuous
 62
     7
100
AcDbLine
 10
2597.614697547616
 20
1639.292037023747
 30
0.0
 11
2467.257892717405
 21
1639.292037023747
 31
0.0
1001
ACME_LAYERS
1000
1
  0
LINE
  5
1265
330
1F
100
AcDbEntity
  8
P-0000
  6
Continuous
 62
     7
100
AcDbLine
 10
2597.614697547616
 20
1641.292037023745
 30
0.0
 11
2603.85976708677
 21
1641.292037023745
 31
0.0
1001
ACME_LAYERS
1000
1
  0
LINE
  5
1266
330
1F
100
AcDbEntity
  8
P-0000
  6
Continuous
 62
     7
100
AcDbLine
 10
2597.614697547616
 20
1639.292037023747
 30
0.0
 11
2603.85976708677
 21
1639.292037023747
 31
0.0
1001
ACME_LAYERS
1000
1
  0
LINE
  5
1267
330
1F
100
AcDbEntity
  8
P-0000
  6
Continuous
 62
     7
100
AcDbLine
 10
2642.418545124908
 20
1639.292037023747
 30
0.0
 11
2636.173475585757
 21
1639.292037023747
 31
0.0
1001
ACME_LAYERS
1000
1
  0
LINE
  5
1268
330
1F
100
AcDbEntity
  8
P-0000
  6
Continuous
 62
     7
100
AcDbLine
 10
2625.016621336263
 20
1643.292037023746
 30
0.0
 11
2624.016621336263
 21
1643.292037023746
 31
0.0
1001
ACME_LAYERS
1000
1
  0
LINE
  5
1269
330
1F
100
AcDbEntity
  8
P-0000
  6
Continuous
 62
     7
100
AcDbLine
 10
2627.840262969432
 20
1643.292037023746
 30
0.0
 11
2625.016621336263
 21
1643.292037023746
 31
0.0
1001
ACME_LAYERS
1000
1
  0
LINE
  5
126A
330
1F
100
AcDbEntity
  8
P-0000
  6
Continuous
 62
     7
100
AcDbLine
 10
2615.016621336263
 20
1643.292037023746
 30
0.0
 11
2608.345048461009
 21
1643.292037023746
 31
0.0
1001
ACME_LAYERS
1000
1
  0
LINE
  5
126B
330
1F
100
AcDbEntity
  8
P-0000
  6
Continuous
 62
     7
100
AcDbLine
 10
2616.016621336263
 20
1641.292037023745
 30
0.0
 11
2608.345048461009
 21
1641.292037023745
 31
0.0
1001
ACME_LAYERS
1000
1
  0
LINE
  5
126C
330
1F
100
AcDbEntity
  8
P-0000
  6
Continuous
 62
     7
100
AcDbLine
 10
2631.688194211517
 20
1641.292037023745
 30
0.0
 11
2624.073157780353
 21
1641.292037023745
 31
0.0
1001
ACME_LAYERS
1000
1
  0
LINE
  5
126D
330
1F
100
AcDbEntity
  8
P-0000
  6
Continuous
 62
     7
100
AcDbLine
 10
2616.016621336263
 20
1643.292037023746
 30
0.0
 11
2615.016621336263
 21
1643.292037023746
 31
0.0
1001
ACME_LAYERS
1000
1
  0
LINE
  5
126E
330
1F
100
AcDbEntity
  8
P-0000
  6
Continuous
 62
     7
100
AcDbLine
 10
2642.418545124908
 20
1641.292037023745
 30
0.0
 11
2636.173475585757
 21
1641.292037023745
 31
0.0
1001
ACME_LAYERS
1000
1
  0
LINE
  5
126F
330
1F
100
AcDbEntity
  8
P-0000
  6
Continuous
 62
     7
100
AcDbLine
 10
2610.016621336264
 20
1643.292037023746
 30
0.0
 11
2615.016621336263
 21
1643.292037023746
 31
0.0
1001
ACME_LAYERS
1000
1
  0
LINE
  5
1270
330
1F
100
AcDbEntity
  8
P-0000
  6
Continuous
 62
     7
100
AcDbLine
 10
2615.016621336263
 20
1643.292037023746
 30
0.0
 11
2616.016621336263
 21
1643.292037023746
 31
0.0
1001
ACME_LAYERS
1000
1
  0
LINE
  5
1271
330
1F
100
AcDbEntity
  8
P-0000
  6
Continuous
 62
     7
100
AcDbLine
 10
2628.462319449684
 20
1643.292037023746
 30
0.0
 11
2624.016621336263
 21
1643.292037023746
 31
0.0
1001
ACME_LAYERS
1000
1
  0
LINE
  5
1272
330
1F
100
AcDbEntity
  8
P-0000
  6
Continuous
 62
     7
100
AcDbLine
 10
2616.016621336263
 20
1643.292037023746
 30
0.0
 11
2615.016621336263
 21
1643.292037023746
 31
0.0
1001
ACME_LAYERS
1000
1
  0
LINE
  5
1273
330
1F
100
AcDbEntity
  8
P-0000
  6
Continuous
 62
     7
100
AcDbLine
 10
2625.516621336262
 20
1643.292037023749
 30
0.0
 11
2630.516621336262
 21
1643.292037023749
 31
0.0
1001
ACME_LAYERS
1000
1
  0
LINE
  5
1274
330
1F
100
AcDbEntity
  8
P-0000
  6
Continuous
 62
     7
100
AcDbLine
 10
2615.016621336263
 20
1643.292037023746
 30
0.0
 11
2611.462319449684
 21
1643.292037023746
 31
0.0
1001
ACME_LAYERS
1000
1
  0
LINE
  5
1275
330
1F
100
AcDbEntity
  8
P-0000
  6
Continuous
 62
     7
100
AcDbLine
 10
2615.016621336263
 20
1643.292037023746
 30
0.0
 11
2615.516621336261
 21
1643.292037023749
 31
0.0
1001
ACME_LAYERS
1000
1
  0
LINE
  5
1276
330
1F
100
AcDbEntity
  8
P-0000
  6
Continuous
 62
     7
100
AcDbLine
 10
2624.016621336263
 20
1643.292037023746
 30
0.0
 11
2625.016621336263
 21
1643.292037023746
 31
0.0
1001
ACME_LAYERS
1000
1
  0
LINE
  5
1277
330
1F
100
AcDbEntity
  8
P-0000
  6
Continuous
 62
     7
100
AcDbLine
 10
2608.345048461009
 20
1643.292037023746
 30
0.0
 11
2615.016621336263
 21
1643.292037023746
 31
0.0
1001
ACME_LAYERS
1000
1
  0
ARC
  5
1278
330
1F
100
AcDbEntity
  8
P-0000
  6
Continuous
 62
     7
100
AcDbCircle
 10
2636.173475585757
 20
1643.292037023746
 30
0.0
 40
4.0
100
AcDbArc
 50
224.9999999999908
 51
270.0
1001
ACME_LAYERS
1000
1
  0
ARC
  5
1279
330
1F
100
AcDbEntity
  8
P-0000
  6
Continuous
 62
     7
100
AcDbCircle
 10
2608.345048461009
 20
1639.292037023747
 30
0.0
 40
4.000000000000613
100
AcDbArc
 50
90.0
 51
134.9999999999724
1001
ACME_LAYERS
1000
1
  0
ARC
  5
127A
330
1F
100
AcDbEntity
  8
P-0000
  6
Continuous
 62
     7
100
AcDbCircle
 10
2603.85976708677
 20
1643.292037023746
 30
0.0
 40
3.999999999999423
100
AcDbArc
 50
270.0
 51
315.0000000000092
1001
ACME_LAYERS
1000
1
  0
ARC
  5
127B
330
1F
100
AcDbEntity
  8
P-0000
  6
Continuous
 62
     7
100
AcDbCircle
 10
2597.614697547616
 20
1643.292037023746
 30
0.0
 40
4.0
100
AcDbArc
 50
240.0000000000027
 51
270.0
1001
ACME_LAYERS
1000
1
  0
ARC
  5
127C
330
1F
100
AcDbEntity
  8
P-0000
  6
Continuous
 62
     7
100
AcDbCircle
 10
2597.614697547616
 20
1643.292037023746
 30
0.0
 40
2.0
100
AcDbArc
 50
239.9999999999671
 51
270.0
1001
ACME_LAYERS
1000
1
  0
ARC
  5
127D
330
1F
100
AcDbEntity
  8
P-0000
  6
Continuous
 62
     7
100
AcDbCircle
 10
2603.85976708677
 20
1643.292037023746
 30
0.0
 40
2.000000000000397
100
AcDbArc
 50
270.0
 51
314.9999999999724
1001
ACME_LAYERS
1000
1
  0
ARC
  5
127E
330
1F
100
AcDbEntity
  8
P-0000
  6
Continuous
 62
     7
100
AcDbCircle
 10
2608.345048461009
 20
1639.292037023747
 30
0.0
 40
2.000000000000311
100
AcDbArc
 50
90.0
 51
134.9999999999724
1001
ACME_LAYERS
1000
1
  0
ARC
  5
127F
330
1F
100
AcDbEntity
  8
P-0000
  6
Continuous
 62
     7
100
AcDbCircle
 10
2631.688194211517
 20
1639.292037023747
 30
0.0
 40
2.0
100
AcDbArc
 50
45.00000000002764
 51
90.0
1001
ACME_LAYERS
1000
1
  0
ARC
  5
1280
330
1F
100
AcDbEntity
  8
P-0000
  6
Continuous
 62
     7
100
AcDbCircle
 10
2636.173475585757
 20
1643.292037023746
 30
0.0
 40
2.0
100
AcDbArc
 50
224.9999999999908
 51
270.0
1001
ACME_LAYERS
1000
1
  0
ARC
  5
1281
330
1F
100
AcDbEntity
  8
P-0000
  6
Continuous
 62
     7
100
AcDbCircle
 10
2642.418545124908
 20
1643.292037023746
 30
0.0
 40
1.999999999999425
100
AcDbArc
 50
270.0
 51
300.0000000000329
1001
ACME_LAYERS
1000
1
  0
ARC
  5
1282
330
1F
100
AcDbEntity
  8
P-0000
  6
Continuous
 62
     7
100
AcDbCircle
 10
2642.418545124908
 20
1643.292037023746
 30
0.0
 40
4.000000000000401
100
AcDbArc
 50
270.0
 51
299.9999999999973
1001
ACME_LAYERS
1000
1
  0
ARC
  5
1283
330
1F
100
AcDbEntity
  8
P-0000
  6
Continuous
 62
     7
100
AcDbCircle
 10
2631.688194211517
 20
1639.292037023747
 30
0.0
 40
4.0
100
AcDbArc
 50
45.00000000002764
 51
89.99999999997395
1001
ACME_LAYERS
1000
1
  0
HATCH
  5
1284
330
1F
100
AcDbEntity
  8
P-0000
  6
Continuous
 62
     3
100
AcDbHatch
 10
0.0
 20
0.0
 30
0.0
210
0.0
220
0.0
230
1.0
  2
_U
 70
     0
 71
     0
 91
        1
 92
        1
 93
       19
 72
     1
 10
2591.016621336264
 20
1644.792037023746
 11
2596.614697547616
 21
1641.559986216178
 72
     1
 10
2596.614697547616
 20
1641.559986216179
 11
2597.078799162754
 21
1641.292037023747
 72
     1
 10
2597.078799162753
 20
1641.292037023745
 11
2597.614697547616
 21
1641.292037023745
 72
     1
 10
2597.614697547616
 20
1641.292037023745
 11
2603.85976708677
 21
1641.292037023745
 72
     1
 10
2603.85976708677
 20
1641.292037023745
 11
2604.688194211516
 21
1641.292037023745
 72
     1
 10
2604.688194211516
 20
1641.292037023745
 11
2605.273980649144
 21
1641.877823461373
 72
     1
 10
2605.273980649144
 20
1641.877823461373
 11
2605.516621336264
 21
1642.120464148493
 72
     2
 10
2608.345048461009
 20
1639.292037023747
 40
4.000000000000613
 50
-135.0000000000008
 51
-90.00000000000001
 73
     0
 72
     1
 10
2608.345048461009
 20
1643.292037023746
 11
2615.016621336263
 21
1643.292037023746
 72
     1
 10
2615.016621336263
 20
1643.292037023746
 11
2615.016621336263
 21
1641.292037023747
 72
     1
 10
2615.016621336263
 20
1641.292037023745
 11
2608.345048461009
 21
1641.292037023745
 72
     1
 10
2608.345048461009
 20
1641.292037023745
 11
2607.516621336263
 21
1641.292037023745
 72
     1
 10
2607.516621336265
 20
1641.292037023745
 11
2606.930834898638
 21
1640.70625058612
 72
     1
 10
2606.930834898637
 20
1640.70625058612
 11
2606.688194211516
 21
1640.463609899002
 72
     2
 10
2603.85976708677
 20
1643.292037023746
 40
3.999999999999423
 50
44.99999999998222
 51
90.0
 73
     0
 72
     1
 10
2603.85976708677
 20
1639.292037023747
 11
2597.614697547616
 21
1639.292037023747
 72
     2
 10
2597.614697547616
 20
1643.292037023746
 40
4.0
 50
90.0
 51
119.9999999999965
 73
     0
 72
     1
 10
2595.614697547616
 20
1639.827935408609
 11
2590.016621336264
 21
1643.059986216178
 72
     1
 10
2590.016621336264
 20
1643.059986216178
 11
2591.016621336264
 21
1644.792037023746
 97
        0
 75
     0
 76
     0
 52
44.99999999999999
 41
3.0
 77
     0
 78
     1
 53
135.0
 43
2563.049749351158
 44
1779.918002518122
 45
2.121320343559641
 46
2.121320343559641
 79
     0
 98
        1
 10
2563.049749351158
 20
1779.918002518122
1001
ACME_LAYERS
1000
1
  0
HATCH
  5
1285
330
1F
100
AcDbEntity
  8
P-0000
  6
Continuous
 62
     3
100
AcDbHatch
 10
0.0
 20
0.0
 30
0.0
210
0.0
220
0.0
230
1.0
  2
_U
 70
     0
 71
     0
 91
        1
 92
        1
 93
       19
 72
     2
 10
2636.173475585757
 20
1643.292037023746
 40
2.0
 50
90.0
 51
135.0000000000351
 73
     0
 72
     1
 10
2634.759262023381
 20
1641.877823461373
 11
2634.516621336262
 21
1642.120464148493
 72
     2
 10
2631.688194211517
 20
1639.292037023747
 40
4.0
 50
404.9999999999991
 51
449.9999999999738
 73
     1
 72
     1
 10
2631.688194211518
 20
1643.292037023746
 11
2629.25059149829
 21
1643.292037023746
 72
     1
 10
2629.250591498291
 20
1643.292037023746
 11
2627.840262969432
 21
1643.292037023746
 72
     1
 10
2627.840262969432
 20
1643.292037023746
 11
2625.016621336263
 21
1643.292037023746
 72
     1
 10
2625.016621336263
 20
1643.292037023746
 11
2625.016621336263
 21
1641.292037023747
 72
     1
 10
2625.016621336263
 20
1641.292037023745
 11
2631.688194211516
 21
1641.292037023745
 72
     1
 10
2631.688194211517
 20
1641.292037023745
 11
2632.516621336264
 21
1641.292037023745
 72
     1
 10
2632.516621336263
 20
1641.292037023745
 11
2633.10240777389
 21
1640.70625058612
 72
     1
 10
2633.10240777389
 20
1640.70625058612
 11
2633.345048461011
 21
1640.463609899002
 72
     2
 10
2636.173475585757
 20
1643.292037023746
 40
4.0
 50
224.9999999999821
 51
270.0
 73
     1
 72
     1
 10
2636.173475585757
 20
1639.292037023747
 11
2642.418545124908
 21
1639.292037023747
 72
     2
 10
2642.418545124908
 20
1643.292037023746
 40
4.000000000000401
 50
270.0
 51
299.9999999999967
 73
     1
 72
     1
 10
2644.418545124909
 20
1639.827935408609
 11
2650.016621336261
 21
1643.059986216178
 72
     1
 10
2650.016621336261
 20
1643.059986216178
 11
2649.016621336262
 21
1644.792037023746
 72
     1
 10
2649.016621336262
 20
1644.792037023746
 11
2643.418545124909
 21
1641.559986216178
 72
     2
 10
2642.418545124908
 20
1643.292037023746
 40
1.999999999999425
 50
59.99999999999046
 51
90.0
 73
     0
 72
     1
 10
2642.418545124908
 20
1641.292037023745
 11
2636.173475585757
 21
1641.292037023745
 97
        0
 75
     0
 76
     0
 52
44.99999999999999
 41
5.0
 77
     0
 78
     1
 53
135.0
 43
2563.049749351158
 44
1779.918002518122
 45
3.535533905932736
 46
3.535533905932738
 79
     0
 98
        1
 10
2563.049749351158
 20
1779.918002518122
1001
ACME_LAYERS
1000
1
  0
LINE
  5
1286
330
1F
100
AcDbEntity
  8
P-0000
  6
Continuous
 62
     7
100
AcDbLine
 10
2597.649478970721
 20
1639.292037023747
 30
0.0
 11
2603.894548509874
 21
1639.292037023747
 31
0.0
1001
ACME_LAYERS
1000
1
  0
LINE
  5
1288
330
1F
100
AcDbEntity
  8
P-0000
  6
Continuous
 62
     7
100
AcDbLine
 10
2597.614697547614
 20
1639.292037023747
 30
0.0
 11
2603.859767086768
 21
1639.292037023747
 31
0.0
1001
ACME_LAYERS
1000
1
  0
LINE
  5
1289
330
1F
100
AcDbEntity
  8
0
100
AcDbLine
 10
2624.073157780353
 20
1643.292037023746
 30
0.0
 11
2624.073157780354
 21
1630.054969761889
 31
0.0
  0
LINE
  5
128A
330
1F
100
AcDbEntity
  8
0
100
AcDbLine
 10
2616.073157780354
 20
1643.292037023746
 30
0.0
 11
2616.073157780354
 21
1635.786117118714
 31
0.0
  0
LINE
  5
128B
330
1F
100
AcDbEntity
  8
P-0000
  6
STRICHPUNKT
 62
     3
100
AcDbLine
 10
2503.757892717406
 20
1639.086117118803
 30
0.0
 11
2503.757892717406
 21
1612.586117118803
 31
0.0
1001
ACME_LAYERS
1000
1
  0
LINE
  5
128C
330
1F
100
AcDbEntity
  8
0
100
AcDbLine
 10
2650.016621336261
 20
1643.059986216178
 30
0.0
 11
2649.016621336262
 21
1644.792037023746
 31
0.0
  0
LINE
  5
1292
330
1F
100
AcDbEntity
  8
0
100
AcDbLine
 10
2383.442627654458
 20
1635.786117118804
 30
0.0
 11
2383.442627654458
 21
1633.786117118804
 31
0.0
  0
LINE
  5
12A0
330
1F
100
AcDbEntity
  8
P-0000
  6
Continuous
 62
     7
100
AcDbLine
 10
2642.418545124913
 20
1639.292037023745
 30
0.0
 11
2636.173475585756
 21
1639.292037023747
 31
0.0
1001
ACME_LAYERS
1000
1
  0
LINE
  5
12A6
330
1F
100
AcDbEntity
  8
P-0000
  6
Continuous
 62
     7
100
AcDbLine
 10
2391.499164098548
 20
1643.792037023748
 30
0.0
 11
2391.499164098548
 21
1637.792037023745
 31
0.0
1001
ACME_LAYERS
1000
1
  0
LINE
  5
12A7
330
1F
100
AcDbEntity
  8
P-0000
  6
Continuous
 62
     7
100
AcDbLine
 10
2391.499164098548
 20
1643.792037023748
 30
0.0
 11
2391.99916409855
 21
1643.792037023748
 31
0.0
1001
ACME_LAYERS
1000
1
  0
LINE
  5
12A8
330
1F
100
AcDbEntity
  8
P-0000
  6
Continuous
 62
     7
100
AcDbLine
 10
2390.699164098549
 20
1643.792037023748
 30
0.0
 11
2391.499164098548
 21
1643.792037023748
 31
0.0
1001
ACME_LAYERS
1000
1
  0
LINE
  5
12A9
330
1F
100
AcDbEntity
  8
0
100
AcDbLine
 10
2383.499164098548
 20
1637.792037023745
 30
0.0
 11
2383.499164098548
 21
1643.792037023748
 31
0.0
  0
LINE
  5
12AA
330
1F
100
AcDbEntity
  8
P-0000
  6
Continuous
 62
     7
100
AcDbLine
 10
2392.516621336262
 20
1643.792037023748
 30
0.0
 11
2397.92786573834
 21
1643.792037023748
 31
0.0
1001
ACME_LAYERS
1000
1
  0
LINE
  5
12AB
330
1F
100
AcDbEntity
  8
P-0000
  6
Continuous
 62
     7
100
AcDbLine
 10
2382.516621336261
 20
1643.792037023748
 30
0.0
 11
2392.516621336262
 21
1643.792037023748
 31
0.0
1001
ACME_LAYERS
1000
1
  0
LINE
  5
12AC
330
1F
100
AcDbEntity
  8
P-0000
  6
Continuous
 62
     7
100
AcDbLine
 10
2397.92786573834
 20
1643.792037023748
 30
0.0
 11
2399.92786573834
 21
1643.792037023748
 31
0.0
1001
ACME_LAYERS
1000
1
  0
LINE
  5
12AD
330
1F
100
AcDbEntity
  8
P-0000
  6
Continuous
 62
     7
100
AcDbLine
 10
2503.256861104548
 20
1657.786385725317
 30
0.0
 11
2503.256861104552
 21
1657.786385725317
 31
0.0
1001
ACME_LAYERS
1000
1
  0
LINE
  5
12AE
330
1F
100
AcDbEntity
  8
P-0000
  6
Continuous
 62
     7
100
AcDbLine
 10
2503.276381568004
 20
1657.786385725317
 30
0.0
 11
2503.276381568007
 21
1657.786385725317
 31
0.0
1001
ACME_LAYERS
1000
1
  0
LINE
  5
12AF
330
1F
100
AcDbEntity
  8
P-0000
  6
STRICHPUNKT
 62
     3
100
AcDbLine
 10
2620.034078573974
 20
1640.764925538992
 30
0.0
 11
2620.034078573974
 21
1647.764925538992
 31
0.0
1001
ACME_LAYERS
1000
1
  0
LINE
  5
12B0
330
1F
100
AcDbEntity
  8
P-0000
  6
Continuous
 62
     7
100
AcDbLine
 10
2625.034078573975
 20
1645.792037023747
 30
0.0
 11
2615.034078573975
 21
1645.792037023747
 31
0.0
1001
ACME_LAYERS
1000
1
  0
LINE
  5
12B1
330
1F
100
AcDbEntity
  8
P-0000
  6
Continuous
 62
     7
100
AcDbLine
 10
2512.284078573975
 20
1643.792037023747
 30
0.0
 11
2508.784078573977
 21
1643.792037023747
 31
0.0
1001
ACME_LAYERS
1000
1
  0
LINE
  5
12B2
330
1F
100
AcDbEntity
  8
P-0000
  6
Continuous
 62
     7
100
AcDbLine
 10
2508.784078573977
 20
1643.792037023747
 30
0.0
 11
2503.784078573975
 21
1643.792037023747
 31
0.0
1001
ACME_LAYERS
1000
1
  0
LINE
  5
12B3
330
1F
100
AcDbEntity
  8
P-0000
  6
Continuous
 62
     7
100
AcDbLine
 10
2514.284078573977
 20
1643.792037023747
 30
0.0
 11
2512.284078573975
 21
1643.792037023747
 31
0.0
1001
ACME_LAYERS
1000
1
  0
LINE
  5
12B4
330
1F
100
AcDbEntity
  8
P-0000
  6
Continuous
 62
     7
100
AcDbLine
 10
2514.284078573977
 20
1645.792037023747
 30
0.0
 11
2514.284078573977
 21
1643.792037023747
 31
0.0
1001
ACME_LAYERS
1000
1
  0
LINE
  5
12B5
330
1F
100
AcDbEntity
  8
P-0000
  6
Continuous
 62
     7
100
AcDbLine
 10
2623.234078573976
 20
1656.939318463459
 30
0.0
 11
2620.034078573974
 21
1656.939318463459
 31
0.0
1001
ACME_LAYERS
1000
1
  0
LINE
  5
12B6
330
1F
100
AcDbEntity
  8
P-0000
  6
Continuous
 62
     7
100
AcDbLine
 10
2616.834078573975
 20
1656.339318463459
 30
0.0
 11
2623.234078573976
 21
1656.339318463459
 31
0.0
1001
ACME_LAYERS
1000
1
  0
LINE
  5
12B7
330
1F
100
AcDbEntity
  8
P-0000
  6
Continuous
 62
     7
100
AcDbLine
 10
2624.034078573977
 20
1656.339318463459
 30
0.0
 11
2624.034078573977
 21
1653.392037023746
 31
0.0
1001
ACME_LAYERS
1000
1
  0
LINE
  5
12B8
330
1F
100
AcDbEntity
  8
P-0000
  6
Continuous
 62
     3
100
AcDbLine
 10
2623.234078573976
 20
1656.939318463459
 30
0.0
 11
2623.234078573976
 21
1653.392037023746
 31
0.0
1001
ACME_LAYERS
1000
1
  0
LINE
  5
12B9
330
1F
100
AcDbEntity
  8
P-0000
  6
Continuous
 62
     7
100
AcDbLine
 10
2623.234078573976
 20
1656.339318463459
 30
0.0
 11
2624.034078573977
 21
1656.339318463459
 31
0.0
1001
ACME_LAYERS
1000
1
  0
LINE
  5
12BA
330
1F
100
AcDbEntity
  8
P-0000
  6
Continuous
 62
     3
100
AcDbLine
 10
2623.234078573976
 20
1656.939318463459
 30
0.0
 11
2623.234078573976
 21
1656.339318463459
 31
0.0
1001
ACME_LAYERS
1000
1
  0
LINE
  5
12BB
330
1F
100
AcDbEntity
  8
P-0000
  6
Continuous
 62
     7
100
AcDbLine
 10
2624.034078573977
 20
1656.339318463459
 30
0.0
 11
2623.234078573976
 21
1656.939318463459
 31
0.0
1001
ACME_LAYERS
1000
1
  0
LINE
  5
12BC
330
1F
100
AcDbEntity
  8
P-0000
  6
Continuous
 62
     3
100
AcDbLine
 10
2623.290615018066
 20
1643.792037023747
 30
0.0
 11
2623.290615018066
 21
1630.054969761889
 31
0.0
1001
ACME_LAYERS
1000
1
  0
LINE
  5
12BD
330
1F
100
AcDbEntity
  8
P-0000
  6
Continuous
 62
     7
100
AcDbLine
 10
2616.034078573975
 20
1656.339318463459
 30
0.0
 11
2616.034078573975
 21
1653.392037023746
 31
0.0
1001
ACME_LAYERS
1000
1
  0
LINE
  5
12BE
330
1F
100
AcDbEntity
  8
P-0000
  6
Continuous
 62
     3
100
AcDbLine
 10
2616.890615018065
 20
1643.792037023747
 30
0.0
 11
2616.890615018065
 21
1630.054969761889
 31
0.0
1001
ACME_LAYERS
1000
1
  0
LINE
  5
12BF
330
1F
100
AcDbEntity
  8
P-0000
  6
STRICHPUNKT
 62
     3
100
AcDbLine
 10
2620.034078573974
 20
1653.392037023746
 30
0.0
 11
2620.034078573974
 21
1656.939318463459
 31
0.0
1001
ACME_LAYERS
1000
1
  0
LINE
  5
12C0
330
1F
100
AcDbEntity
  8
P-0000
  6
Continuous
 62
     3
100
AcDbLine
 10
2616.834078573975
 20
1656.939318463459
 30
0.0
 11
2616.834078573975
 21
1653.392037023746
 31
0.0
1001
ACME_LAYERS
1000
1
  0
LINE
  5
12C1
330
1F
100
AcDbEntity
  8
P-0000
  6
Continuous
 62
     3
100
AcDbLine
 10
2616.834078573975
 20
1656.939318463459
 30
0.0
 11
2616.834078573975
 21
1656.339318463459
 31
0.0
1001
ACME_LAYERS
1000
1
  0
LINE
  5
12C2
330
1F
100
AcDbEntity
  8
P-0000
  6
Continuous
 62
     7
100
AcDbLine
 10
2616.034078573975
 20
1656.339318463459
 30
0.0
 11
2616.834078573975
 21
1656.339318463459
 31
0.0
1001
ACME_LAYERS
1000
1
  0
LINE
  5
12C3
330
1F
100
AcDbEntity
  8
P-0000
  6
Continuous
 62
     7
100
AcDbLine
 10
2616.834078573975
 20
1656.939318463459
 30
0.0
 11
2616.034078573975
 21
1656.339318463459
 31
0.0
1001
ACME_LAYERS
1000
1
  0
LINE
  5
12C4
330
1F
100
AcDbEntity
  8
P-0000
  6
Continuous
 62
     7
100
AcDbLine
 10
2620.034078573974
 20
1656.939318463459
 30
0.0
 11
2616.834078573975
 21
1656.939318463459
 31
0.0
1001
ACME_LAYERS
1000
1
  0
LINE
  5
12C5
330
1F
100
AcDbEntity
  8
P-0000
  6
Continuous
 62
     7
100
AcDbLine
 10
2616.034078573977
 20
1653.392037023746
 30
0.0
 11
2623.234078573976
 21
1653.392037023746
 31
0.0
1001
ACME_LAYERS
1000
1
  0
LINE
  5
12C6
330
1F
100
AcDbEntity
  8
P-0000
  6
Continuous
 62
     7
100
AcDbLine
 10
2623.234078573976
 20
1653.392037023746
 30
0.0
 11
2624.034078573977
 21
1653.392037023746
 31
0.0
1001
ACME_LAYERS
1000
1
  0
LINE
  5
12C7
330
1F
100
AcDbEntity
  8
P-0000
  6
Continuous
 62
     7
100
AcDbLine
 10
2628.479776687397
 20
1647.292037023745
 30
0.0
 11
2628.479776687397
 21
1645.792037023747
 31
0.0
1001
ACME_LAYERS
1000
1
  0
LINE
  5
12C8
330
1F
100
AcDbEntity
  8
P-0000
  6
Continuous
 62
     7
100
AcDbLine
 10
2616.034078573977
 20
1643.792037023747
 30
0.0
 11
2616.034078573977
 21
1637.792037023744
 31
0.0
1001
ACME_LAYERS
1000
1
  0
LINE
  5
12C9
330
1F
100
AcDbEntity
  8
P-0000
  6
Continuous
 62
     7
100
AcDbLine
 10
2611.479776687396
 20
1645.792037023747
 30
0.0
 11
2611.479776687396
 21
1647.292037023745
 31
0.0
1001
ACME_LAYERS
1000
1
  0
LINE
  5
12CA
330
1F
100
AcDbEntity
  8
P-0000
  6
Continuous
 62
     7
100
AcDbLine
 10
2628.479776687397
 20
1647.392037023745
 30
0.0
 11
2628.479776687397
 21
1647.292037023745
 31
0.0
1001
ACME_LAYERS
1000
1
  0
LINE
  5
12CB
330
1F
100
AcDbEntity
  8
P-0000
  6
Continuous
 62
     7
100
AcDbLine
 10
2611.479776687396
 20
1647.392037023745
 30
0.0
 11
2628.479776687397
 21
1647.392037023745
 31
0.0
1001
ACME_LAYERS
1000
1
  0
LINE
  5
12CC
330
1F
100
AcDbEntity
  8
P-0000
  6
Continuous
 62
     7
100
AcDbLine
 10
2611.479776687396
 20
1647.292037023745
 30
0.0
 11
2611.479776687396
 21
1647.392037023745
 31
0.0
1001
ACME_LAYERS
1000
1
  0
LINE
  5
12CD
330
1F
100
AcDbEntity
  8
P-0000
  6
Continuous
 62
     7
100
AcDbLine
 10
2612.528525074511
 20
1649.278976215652
 30
0.0
 11
2612.528525074511
 21
1647.972593607345
 31
0.0
1001
ACME_LAYERS
1000
1
  0
LINE
  5
12CE
330
1F
100
AcDbEntity
  8
P-0000
  6
Continuous
 62
     7
100
AcDbLine
 10
2626.534078573977
 20
1647.392037023745
 30
0.0
 11
2613.534078573975
 21
1647.392037023745
 31
0.0
1001
ACME_LAYERS
1000
1
  0
LINE
  5
12CF
330
1F
100
AcDbEntity
  8
P-0000
  6
Continuous
 62
     7
100
AcDbLine
 10
2627.539632073441
 20
1649.278976215652
 30
0.0
 11
2627.539632073441
 21
1647.972593607345
 31
0.0
1001
ACME_LAYERS
1000
1
  0
LINE
  5
12D0
330
1F
100
AcDbEntity
  8
P-0000
  6
Continuous
 62
     7
100
AcDbLine
 10
2624.034078573977
 20
1653.392037023746
 30
0.0
 11
2626.534078573977
 21
1653.392037023746
 31
0.0
1001
ACME_LAYERS
1000
1
  0
LINE
  5
12D1
330
1F
100
AcDbEntity
  8
P-0000
  6
Continuous
 62
     7
100
AcDbLine
 10
2612.775196663165
 20
1647.819180589379
 30
0.0
 11
2613.534078573975
 21
1647.392037023745
 31
0.0
1001
ACME_LAYERS
1000
1
  0
LINE
  5
12D2
330
1F
100
AcDbEntity
  8
P-0000
  6
Continuous
 62
     7
100
AcDbLine
 10
2612.775196663165
 20
1652.96489345811
 30
0.0
 11
2613.534078573975
 21
1653.392037023746
 31
0.0
1001
ACME_LAYERS
1000
1
  0
LINE
  5
12D3
330
1F
100
AcDbEntity
  8
P-0000
  6
Continuous
 62
     7
100
AcDbLine
 10
2627.292960484783
 20
1647.819180589379
 30
0.0
 11
2626.534078573977
 21
1647.392037023745
 31
0.0
1001
ACME_LAYERS
1000
1
  0
LINE
  5
12D4
330
1F
100
AcDbEntity
  8
P-0000
  6
Continuous
 62
     7
100
AcDbLine
 10
2627.292960484783
 20
1652.96489345811
 30
0.0
 11
2626.534078573977
 21
1653.392037023746
 31
0.0
1001
ACME_LAYERS
1000
1
  0
LINE
  5
12D5
330
1F
100
AcDbEntity
  8
P-0000
  6
Continuous
 62
     7
100
AcDbLine
 10
2613.534078573975
 20
1653.392037023746
 30
0.0
 11
2616.034078573977
 21
1653.392037023746
 31
0.0
1001
ACME_LAYERS
1000
1
  0
LINE
  5
12D6
330
1F
100
AcDbEntity
  8
P-0000
  6
Continuous
 62
     7
100
AcDbLine
 10
2627.539632073441
 20
1652.811480440144
 30
0.0
 11
2627.539632073441
 21
1649.278976215652
 31
0.0
1001
ACME_LAYERS
1000
1
  0
LINE
  5
12D7
330
1F
100
AcDbEntity
  8
P-0000
  6
Continuous
 62
     7
100
AcDbLine
 10
2623.78685532371
 20
1652.811480440144
 30
0.0
 11
2623.78685532371
 21
1647.392037023745
 31
0.0
1001
ACME_LAYERS
1000
1
  0
LINE
  5
12D8
330
1F
100
AcDbEntity
  8
P-0000
  6
Continuous
 62
     7
100
AcDbLine
 10
2616.281301824243
 20
1652.811480440144
 30
0.0
 11
2616.281301824243
 21
1647.392037023745
 31
0.0
1001
ACME_LAYERS
1000
1
  0
LINE
  5
12D9
330
1F
100
AcDbEntity
  8
P-0000
  6
Continuous
 62
     7
100
AcDbLine
 10
2612.528525074511
 20
1652.811480440144
 30
0.0
 11
2612.528525074511
 21
1649.278976215652
 31
0.0
1001
ACME_LAYERS
1000
1
  0
LINE
  5
12DA
330
1F
100
AcDbEntity
  8
P-0000
  6
Continuous
 62
     7
100
AcDbLine
 10
2628.479776687397
 20
1645.792037023747
 30
0.0
 11
2624.034078573977
 21
1645.792037023747
 31
0.0
1001
ACME_LAYERS
1000
1
  0
LINE
  5
12DB
330
1F
100
AcDbEntity
  8
P-0000
  6
Continuous
 62
     7
100
AcDbLine
 10
2611.479776687396
 20
1645.792037023747
 30
0.0
 11
2615.534078573973
 21
1645.792037023747
 31
0.0
1001
ACME_LAYERS
1000
1
  0
LINE
  5
12DC
330
1F
100
AcDbEntity
  8
P-0000
  6
Continuous
 62
     7
100
AcDbLine
 10
2616.034078573977
 20
1643.792037023747
 30
0.0
 11
2615.534078573973
 21
1643.792037023747
 31
0.0
1001
ACME_LAYERS
1000
1
  0
LINE
  5
12DD
330
1F
100
AcDbEntity
  8
P-0000
  6
Continuous
 62
     7
100
AcDbLine
 10
2616.834078573975
 20
1643.792037023747
 30
0.0
 11
2616.034078573977
 21
1643.792037023747
 31
0.0
1001
ACME_LAYERS
1000
1
  0
LINE
  5
12DE
330
1F
100
AcDbEntity
  8
P-0000
  6
Continuous
 62
     7
100
AcDbLine
 10
2623.234078573976
 20
1643.792037023747
 30
0.0
 11
2616.834078573975
 21
1643.792037023747
 31
0.0
1001
ACME_LAYERS
1000
1
  0
LINE
  5
12DF
330
1F
100
AcDbEntity
  8
P-0000
  6
Continuous
 62
     7
100
AcDbLine
 10
2624.034078573977
 20
1643.792037023747
 30
0.0
 11
2623.234078573976
 21
1643.792037023747
 31
0.0
1001
ACME_LAYERS
1000
1
  0
ARC
  5
12E0
330
1F
100
AcDbEntity
  8
P-0000
  6
Continuous
 62
     7
100
AcDbCircle
 10
2620.034078573977
 20
1659.811480440143
 30
0.0
 40
12.41944341639904
100
AcDbArc
 50
252.4120462260076
 51
287.5879537739924
1001
ACME_LAYERS
1000
1
  0
ARC
  5
12E1
330
1F
100
AcDbEntity
  8
P-0000
  6
Continuous
 62
     7
100
AcDbCircle
 10
2620.034078573977
 20
1640.972593607345
 30
0.0
 40
12.41944341639904
100
AcDbArc
 50
72.41204622600756
 51
107.5879537739924
1001
ACME_LAYERS
1000
1
  0
ARC
  5
12E2
330
1F
100
AcDbEntity
  8
P-0000
  6
Continuous
 62
     7
100
AcDbCircle
 10
2614.404913449376
 20
1650.714606596694
 30
0.0
 40
3.322569572950221
100
AcDbArc
 50
240.6266206051644
 51
304.3842474680531
1001
ACME_LAYERS
1000
1
  0
ARC
  5
12E3
330
1F
100
AcDbEntity
  8
P-0000
  6
Continuous
 62
     7
100
AcDbCircle
 10
2614.404913449375
 20
1650.069467450794
 30
0.0
 40
3.322569572950149
100
AcDbArc
 50
119.3733793948355
 51
124.3842474680531
1001
ACME_LAYERS
1000
1
  0
ARC
  5
12E4
330
1F
100
AcDbEntity
  8
P-0000
  6
Continuous
 62
     7
100
AcDbCircle
 10
2625.663243698574
 20
1650.714606596694
 30
0.0
 40
3.322569572950221
100
AcDbArc
 50
299.3733793948356
 51
304.3842474680531
1001
ACME_LAYERS
1000
1
  0
ARC
  5
12E5
330
1F
100
AcDbEntity
  8
P-0000
  6
Continuous
 62
     7
100
AcDbCircle
 10
2625.663243698574
 20
1650.069467450794
 30
0.0
 40
3.322569572949122
100
AcDbArc
 50
60.62662060516443
 51
124.3842474680243
1001
ACME_LAYERS
1000
1
  0
ARC
  5
12E6
330
1F
100
AcDbEntity
  8
P-0000
  6
Continuous
 62
     7
100
AcDbCircle
 10
2614.404913449376
 20
1650.714606596694
 30
0.0
 40
3.322569572949876
100
AcDbArc
 50
235.6157525319468
 51
240.6266206051644
1001
ACME_LAYERS
1000
1
  0
ARC
  5
12E7
330
1F
100
AcDbEntity
  8
P-0000
  6
Continuous
 62
     7
100
AcDbCircle
 10
2614.404913449376
 20
1650.069467450794
 30
0.0
 40
3.322569572949888
100
AcDbArc
 50
55.61575253194686
 51
119.3733793948355
1001
ACME_LAYERS
1000
1
  0
ARC
  5
12E8
330
1F
100
AcDbEntity
  8
P-0000
  6
Continuous
 62
     7
100
AcDbCircle
 10
2625.663243698574
 20
1650.714606596694
 30
0.0
 40
3.322569572949872
100
AcDbArc
 50
235.6157525319757
 51
299.3733793948356
1001
ACME_LAYERS
1000
1
  0
ARC
  5
12E9
330
1F
100
AcDbEntity
  8
P-0000
  6
Continuous
 62
     7
100
AcDbCircle
 10
2625.663243698574
 20
1650.069467450794
 30
0.0
 40
3.322569572949884
100
AcDbArc
 50
55.61575253194686
 51
60.62662060516443
1001
ACME_LAYERS
1000
1
  0
LINE
  5
12EA
330
1F
100
AcDbEntity
  8
0
100
AcDbLine
 10
2624.034078573977
 20
1637.792037023744
 30
0.0
 11
2624.034078573977
 21
1643.792037023747
 31
0.0
  0
LINE
  5
12EB
330
1F
100
AcDbEntity
  8
P-0000
  6
Continuous
 62
     7
100
AcDbLine
 10
2495.284078573973
 20
1643.792037023747
 30
0.0
 11
2498.784078573974
 21
1643.792037023747
 31
0.0
1001
ACME_LAYERS
1000
1
  0
LINE
  5
12EC
330
1F
100
AcDbEntity
  8
P-0000
  6
Continuous
 62
     7
100
AcDbLine
 10
2498.784078573974
 20
1643.792037023747
 30
0.0
 11
2503.784078573975
 21
1643.792037023747
 31
0.0
1001
ACME_LAYERS
1000
1
  0
LINE
  5
12ED
330
1F
100
AcDbEntity
  8
P-0000
  6
Continuous
 62
     7
100
AcDbLine
 10
2493.284078573978
 20
1643.792037023747
 30
0.0
 11
2495.284078573973
 21
1643.792037023747
 31
0.0
1001
ACME_LAYERS
1000
1
  0
LINE
  5
12EE
330
1F
100
AcDbEntity
  8
P-0000
  6
Continuous
 62
     7
100
AcDbLine
 10
2493.284078573978
 20
1645.792037023747
 30
0.0
 11
2493.284078573978
 21
1643.792037023747
 31
0.0
1001
ACME_LAYERS
1000
1
  0
LINE
  5
12EF
330
1F
100
AcDbEntity
  8
P-0000
  6
Continuous
 62
     7
100
AcDbLine
 10
2581.98268533364
 20
1653.774704716507
 30
0.0
 11
2581.98268533364
 21
1650.892037023743
 31
0.0
1001
ACME_LAYERS
1000
1
  0
LINE
  5
12F0
330
1F
100
AcDbEntity
  8
P-0000
  6
Continuous
 62
     3
100
AcDbLine
 10
2582.782685333638
 20
1653.312824501154
 30
0.0
 11
2582.782685333638
 21
1650.892037023743
 31
0.0
1001
ACME_LAYERS
1000
1
  0
LINE
  5
12F1
330
1F
100
AcDbEntity
  8
P-0000
  6
Continuous
 62
     7
100
AcDbLine
 10
2586.97561223884
 20
1650.892037023743
 30
0.0
 11
2582.782685333639
 21
1650.892037023743
 31
0.0
1001
ACME_LAYERS
1000
1
  0
LINE
  5
12F2
330
1F
100
AcDbEntity
  8
P-0000
  6
Continuous
 62
     7
100
AcDbLine
 10
2582.782685333639
 20
1650.892037023743
 30
0.0
 11
2581.98268533364
 21
1650.892037023743
 31
0.0
1001
ACME_LAYERS
1000
1
  0
LINE
  5
12F3
330
1F
100
AcDbEntity
  8
P-0000
  6
Continuous
 62
     7
100
AcDbLine
 10
2577.536987220219
 20
1644.792037023743
 30
0.0
 11
2577.536987220219
 21
1643.059986216179
 31
0.0
1001
ACME_LAYERS
1000
1
  0
LINE
  5
12F4
330
1F
100
AcDbEntity
  8
P-0000
  6
Continuous
 62
     7
100
AcDbLine
 10
2594.536987220218
 20
1643.059986216178
 30
0.0
 11
2594.536987220218
 21
1644.792037023743
 31
0.0
1001
ACME_LAYERS
1000
1
  0
LINE
  5
12F5
330
1F
100
AcDbEntity
  8
P-0000
  6
Continuous
 62
     7
100
AcDbLine
 10
2577.536987220219
 20
1644.892037023742
 30
0.0
 11
2577.536987220219
 21
1644.792037023743
 31
0.0
1001
ACME_LAYERS
1000
1
  0
LINE
  5
12F6
330
1F
100
AcDbEntity
  8
P-0000
  6
Continuous
 62
     7
100
AcDbLine
 10
2594.536987220218
 20
1644.892037023742
 30
0.0
 11
2577.536987220219
 21
1644.892037023742
 31
0.0
1001
ACME_LAYERS
1000
1
  0
LINE
  5
12F7
330
1F
100
AcDbEntity
  8
P-0000
  6
Continuous
 62
     7
100
AcDbLine
 10
2594.536987220218
 20
1644.792037023743
 30
0.0
 11
2594.536987220218
 21
1644.892037023742
 31
0.0
1001
ACME_LAYERS
1000
1
  0
LINE
  5
12F8
330
1F
100
AcDbEntity
  8
P-0000
  6
Continuous
 62
     7
100
AcDbLine
 10
2593.488238833103
 20
1646.77897621565
 30
0.0
 11
2593.488238833103
 21
1645.472593607343
 31
0.0
1001
ACME_LAYERS
1000
1
  0
LINE
  5
12F9
330
1F
100
AcDbEntity
  8
P-0000
  6
Continuous
 62
     7
100
AcDbLine
 10
2579.482685333637
 20
1644.892037023742
 30
0.0
 11
2592.482685333639
 21
1644.892037023742
 31
0.0
1001
ACME_LAYERS
1000
1
  0
LINE
  5
12FA
330
1F
100
AcDbEntity
  8
P-0000
  6
Continuous
 62
     7
100
AcDbLine
 10
2578.477131834175
 20
1646.77897621565
 30
0.0
 11
2578.477131834175
 21
1645.472593607343
 31
0.0
1001
ACME_LAYERS
1000
1
  0
LINE
  5
12FB
330
1F
100
AcDbEntity
  8
P-0000
  6
Continuous
 62
     7
100
AcDbLine
 10
2581.98268533364
 20
1650.892037023743
 30
0.0
 11
2579.482685333637
 21
1650.892037023743
 31
0.0
1001
ACME_LAYERS
1000
1
  0
LINE
  5
12FC
330
1F
100
AcDbEntity
  8
P-0000
  6
Continuous
 62
     7
100
AcDbLine
 10
2589.73546208337
 20
1646.77897621565
 30
0.0
 11
2589.73546208337
 21
1645.472593607343
 31
0.0
1001
ACME_LAYERS
1000
1
  0
LINE
  5
12FD
330
1F
100
AcDbEntity
  8
P-0000
  6
Continuous
 62
     7
100
AcDbLine
 10
2582.229908583907
 20
1646.77897621565
 30
0.0
 11
2582.229908583907
 21
1645.472593607343
 31
0.0
1001
ACME_LAYERS
1000
1
  0
LINE
  5
12FE
330
1F
100
AcDbEntity
  8
P-0000
  6
Continuous
 62
     7
100
AcDbLine
 10
2593.241567244449
 20
1645.319180589377
 30
0.0
 11
2592.482685333639
 21
1644.892037023742
 31
0.0
1001
ACME_LAYERS
1000
1
  0
LINE
  5
12FF
330
1F
100
AcDbEntity
  8
P-0000
  6
Continuous
 62
     7
100
AcDbLine
 10
2578.723803422831
 20
1645.319180589377
 30
0.0
 11
2579.482685333637
 21
1644.892037023742
 31
0.0
1001
ACME_LAYERS
1000
1
  0
LINE
  5
1300
330
1F
100
AcDbEntity
  8
P-0000
  6
Continuous
 62
     7
100
AcDbLine
 10
2578.723803422831
 20
1650.464893458108
 30
0.0
 11
2579.482685333637
 21
1650.892037023743
 31
0.0
1001
ACME_LAYERS
1000
1
  0
LINE
  5
1301
330
1F
100
AcDbEntity
  8
P-0000
  6
Continuous
 62
     7
100
AcDbLine
 10
2578.477131834175
 20
1650.311480440142
 30
0.0
 11
2578.477131834175
 21
1646.77897621565
 31
0.0
1001
ACME_LAYERS
1000
1
  0
LINE
  5
1302
330
1F
100
AcDbEntity
  8
P-0000
  6
Continuous
 62
     7
100
AcDbLine
 10
2582.229908583907
 20
1650.311480440142
 30
0.0
 11
2582.229908583907
 21
1646.77897621565
 31
0.0
1001
ACME_LAYERS
1000
1
  0
LINE
  5
1303
330
1F
100
AcDbEntity
  8
P-0000
  6
Continuous
 62
     7
100
AcDbLine
 10
2589.73546208337
 20
1649.298636973081
 30
0.0
 11
2589.73546208337
 21
1646.77897621565
 31
0.0
1001
ACME_LAYERS
1000
1
  0
LINE
  5
1304
330
1F
100
AcDbEntity
  8
P-0000
  6
Continuous
 62
     7
100
AcDbLine
 10
2593.488238833103
 20
1647.131970306414
 30
0.0
 11
2593.488238833103
 21
1646.77897621565
 31
0.0
1001
ACME_LAYERS
1000
1
  0
ARC
  5
1305
330
1F
100
AcDbEntity
  8
P-0000
  6
Continuous
 62
     7
100
AcDbCircle
 10
2585.982685333636
 20
1657.311480440142
 30
0.0
 40
12.41944341639904
100
AcDbArc
 50
252.4120462260076
 51
287.5879537739924
1001
ACME_LAYERS
1000
1
  0
ARC
  5
1306
330
1F
100
AcDbEntity
  8
P-0000
  6
Continuous
 62
     7
100
AcDbCircle
 10
2585.982685333636
 20
1638.472593607343
 30
0.0
 40
12.41944341639904
100
AcDbArc
 50
85.04168193073009
 51
107.5879537739924
1001
ACME_LAYERS
1000
1
  0
ARC
  5
1307
330
1F
100
AcDbEntity
  8
P-0000
  6
Continuous
 62
     7
100
AcDbCircle
 10
2591.611850458237
 20
1648.214606596692
 30
0.0
 40
3.322569572950221
100
AcDbArc
 50
235.6157525319468
 51
299.3733793948356
1001
ACME_LAYERS
1000
1
  0
ARC
  5
1308
330
1F
100
AcDbEntity
  8
P-0000
  6
Continuous
 62
     7
100
AcDbCircle
 10
2580.35352020904
 20
1648.214606596692
 30
0.0
 40
3.322569572950221
100
AcDbArc
 50
235.6157525319468
 51
240.6266206051644
1001
ACME_LAYERS
1000
1
  0
ARC
  5
1309
330
1F
100
AcDbEntity
  8
P-0000
  6
Continuous
 62
     7
100
AcDbCircle
 10
2580.35352020904
 20
1647.569467450793
 30
0.0
 40
3.322569572949122
100
AcDbArc
 50
55.61575253197573
 51
119.3733793948355
1001
ACME_LAYERS
1000
1
  0
ARC
  5
130A
330
1F
100
AcDbEntity
  8
P-0000
  6
Continuous
 62
     7
100
AcDbCircle
 10
2591.611850458237
 20
1648.214606596692
 30
0.0
 40
3.322569572949876
100
AcDbArc
 50
299.3733793948356
 51
304.3842474680531
1001
ACME_LAYERS
1000
1
  0
ARC
  5
130B
330
1F
100
AcDbEntity
  8
P-0000
  6
Continuous
 62
     7
100
AcDbCircle
 10
2580.35352020904
 20
1648.214606596692
 30
0.0
 40
3.322569572949872
100
AcDbArc
 50
240.6266206051644
 51
304.3842474680243
1001
ACME_LAYERS
1000
1
  0
ARC
  5
130C
330
1F
100
AcDbEntity
  8
P-0000
  6
Continuous
 62
     7
100
AcDbCircle
 10
2580.35352020904
 20
1647.569467450793
 30
0.0
 40
3.322569572949884
100
AcDbArc
 50
119.3733793948355
 51
124.3842474680531
1001
ACME_LAYERS
1000
1
  0
LINE
  5
130D
330
1F
100
AcDbEntity
  8
0
100
AcDbLine
 10
2594.050425101892
 20
1645.16058294242
 30
0.0
 11
2594.050425101892
 21
1646.807391912794
 31
0.0
  0
HATCH
  5
1311
330
1F
100
AcDbEntity
  8
P-0000
  6
Continuous
 62
     1
100
AcDbHatch
 10
0.0
 20
0.0
 30
0.0
210
0.0
220
0.0
230
1.0
  2
_U
 70
     0
 71
     0
 91
        1
 92
        1
 93
       16
 72
     1
 10
2588.284078573983
 20
1662.786385725317
 11
2588.284078573983
 21
1662.737214142334
 72
     1
 10
2588.284078573983
 20
1662.737214142334
 11
2588.784078573982
 21
1662.737214142334
 72
     1
 10
2588.784078573982
 20
1662.737214142334
 11
2588.784078573982
 21
1660.786385725316
 72
     1
 10
2588.784078573982
 20
1660.786385725316
 11
2595.844969742298
 21
1660.786385725316
 72
     2
 10
2595.844969742298
 20
1660.286385725317
 40
0.5
 50
270.0
 51
360.0
 73
     0
 72
     1
 10
2596.344969742299
 20
1660.286385725317
 11
2596.344969742299
 21
1647.792037023746
 72
     2
 10
2600.344969742299
 20
1647.792037023746
 40
4.000000000000068
 50
180.0
 51
270.0
 73
     1
 72
     1
 10
2600.344969742299
 20
1643.792037023747
 11
2615.034078573975
 21
1643.792037023747
 72
     1
 10
2615.034078573975
 20
1643.792037023747
 11
2615.034078573975
 21
1645.792037023747
 72
     1
 10
2615.034078573975
 20
1645.792037023747
 11
2600.284078573983
 21
1645.792037023747
 72
     2
 10
2600.284078573983
 20
1647.792037023746
 40
1.999999999999999
 50
90.0
 51
180.0
 73
     0
 72
     1
 10
2598.284078573983
 20
1647.792037023746
 11
2598.284078573983
 21
1665.286385725316
 72
     1
 10
2598.284078573983
 20
1665.286385725316
 11
2596.284078573984
 21
1665.286385725316
 72
     1
 10
2596.284078573984
 20
1665.286385725316
 11
2596.284078573984
 21
1663.286385725317
 72
     2
 10
2595.784078573984
 20
1663.286385725317
 40
0.5
 50
360.0
 51
450.0
 73
     0
 72
     1
 10
2595.784078573984
 20
1662.786385725317
 11
2588.284078573983
 21
1662.786385725317
 97
        0
 75
     0
 76
     0
 52
44.99999999999999
 41
1.0
 77
     0
 78
     1
 53
45.0
 43
-89.03549280664902
 44
510.3036289460752
 45
-0.7071067811865475
 46
0.7071067811865476
 79
     0
 98
        1
 10
2629.223187405667
 20
1154.370717382218
1001
ACME_LAYERS
1000
1
1001
ACAD
1010
0.0
1020
0.0
1030
0.0
  0
LINE
  5
1312
330
1F
100
AcDbEntity
  8
P-0000
  6
Continuous
 62
     7
100
AcDbLine
 10
2568.284078573975
 20
1665.286385725316
 30
0.0
 11
2571.059781588846
 21
1665.286385725316
 31
0.0
1001
ACME_LAYERS
1000
1
  0
LINE
  5
1313
330
1F
100
AcDbEntity
  8
P-0000
  6
Continuous
 62
     7
100
AcDbLine
 10
2587.746358117101
 20
1665.286385725316
 30
0.0
 11
2596.284078573984
 21
1665.286385725316
 31
0.0
1001
ACME_LAYERS
1000
1
  0
LINE
  5
1314
330
1F
100
AcDbEntity
  8
P-0000
  6
Continuous
 62
     7
100
AcDbLine
 10
2569.838097579913
 20
1660.786385725316
 30
0.0
 11
2598.344969742298
 21
1644.327935408609
 31
0.0
1001
ACME_LAYERS
1000
1
  0
LINE
  5
1315
330
1F
100
AcDbEntity
  8
P-0000
  6
Continuous
 62
     7
100
AcDbLine
 10
2595.844969742298
 20
1660.786385725316
 30
0.0
 11
2588.784078573982
 21
1660.786385725316
 31
0.0
1001
ACME_LAYERS
1000
1
  0
LINE
  5
1316
330
1F
100
AcDbEntity
  8
P-0000
  6
Continuous
 62
     7
100
AcDbLine
 10
2588.284078573983
 20
1662.786385725317
 30
0.0
 11
2595.784078573984
 21
1662.786385725317
 31
0.0
1001
ACME_LAYERS
1000
1
  0
LINE
  5
1317
330
1F
100
AcDbEntity
  8
P-0000
  6
Continuous
 62
     7
100
AcDbLine
 10
2508.284078573991
 20
1643.792037023747
 30
0.0
 11
2503.284078573982
 21
1643.792037023747
 31
0.0
1001
ACME_LAYERS
1000
1
  0
LINE
  5
1318
330
1F
100
AcDbEntity
  8
P-0000
  6
Continuous
 62
     7
100
AcDbLine
 10
2503.293838805703
 20
1665.286385725316
 30
0.0
 11
2568.284078573975
 21
1665.286385725316
 31
0.0
1001
ACME_LAYERS
1000
1
  0
LINE
  5
1319
330
1F
100
AcDbEntity
  8
P-0000
  6
Continuous
 62
     7
100
AcDbLine
 10
2503.293838805703
 20
1662.786385725317
 30
0.0
 11
2558.284078573984
 21
1662.786385725317
 31
0.0
1001
ACME_LAYERS
1000
1
  0
LINE
  5
131A
330
1F
100
AcDbEntity
  8
P-0000
  6
Continuous
 62
     7
100
AcDbLine
 10
2513.28407857399
 20
1660.786385725316
 30
0.0
 11
2564.284078573975
 21
1660.786385725316
 31
0.0
1001
ACME_LAYERS
1000
1
  0
LINE
  5
131B
330
1F
100
AcDbEntity
  8
P-0000
  6
Continuous
 62
     7
100
AcDbLine
 10
2514.284078573991
 20
1645.792037023747
 30
0.0
 11
2514.284078573991
 21
1660.786385725316
 31
0.0
1001
ACME_LAYERS
1000
1
  0
LINE
  5
131C
330
1F
100
AcDbEntity
  8
P-0000
  6
Continuous
 62
     7
100
AcDbLine
 10
2504.784078573991
 20
1660.786385725316
 30
0.0
 11
2513.28407857399
 21
1660.786385725316
 31
0.0
1001
ACME_LAYERS
1000
1
  0
LINE
  5
131D
330
1F
100
AcDbEntity
  8
P-0000
  6
Continuous
 62
     7
100
AcDbLine
 10
2504.29383880572
 20
1662.786385725317
 30
0.0
 11
2513.276094381521
 21
1662.786385725317
 31
0.0
1001
ACME_LAYERS
1000
1
  0
LINE
  5
131E
330
1F
100
AcDbEntity
  8
P-0000
  6
Continuous
 62
     7
100
AcDbLine
 10
2503.293838805721
 20
1662.786385725317
 30
0.0
 11
2504.29383880572
 21
1662.786385725317
 31
0.0
1001
ACME_LAYERS
1000
1
  0
LINE
  5
131F
330
1F
100
AcDbEntity
  8
P-0000
  6
Continuous
 62
     7
100
AcDbLine
 10
2503.293838805721
 20
1660.786385725316
 30
0.0
 11
2504.784078573991
 21
1660.786385725316
 31
0.0
1001
ACME_LAYERS
1000
1
  0
LINE
  5
1320
330
1F
100
AcDbEntity
  8
P-0000
  6
Continuous
 62
     7
100
AcDbLine
 10
2503.274318342262
 20
1657.786385725317
 30
0.0
 11
2503.274318342266
 21
1657.786385725317
 31
0.0
1001
ACME_LAYERS
1000
1
  0
LINE
  5
1321
330
1F
100
AcDbEntity
  8
P-0000
  6
Continuous
 62
     7
100
AcDbLine
 10
2503.293838805717
 20
1657.786385725317
 30
0.0
 11
2503.293838805721
 21
1657.786385725317
 31
0.0
1001
ACME_LAYERS
1000
1
  0
LINE
  5
1322
330
1F
100
AcDbEntity
  8
P-0000
  6
Continuous
 62
     7
100
AcDbLine
 10
2513.28407857399
 20
1643.792037023747
 30
0.0
 11
2508.284078573991
 21
1643.792037023747
 31
0.0
1001
ACME_LAYERS
1000
1
  0
HATCH
  5
1323
330
1F
100
AcDbEntity
  8
P-0000
  6
Continuous
 62
     1
100
AcDbHatch
 10
0.0
 20
0.0
 30
0.0
210
0.0
220
0.0
230
1.0
  2
_U
 70
     0
 71
     0
 91
        1
 92
        1
 93
       11
 72
     1
 10
2568.784078573975
 20
1662.786385725317
 11
2580.284078573982
 21
1662.786385725317
 72
     1
 10
2580.284078573982
 20
1662.786385725317
 11
2580.284078573982
 21
1660.786385725316
 72
     1
 10
2580.284078573982
 20
1660.786385725316
 11
2569.838097579913
 21
1660.786385725316
 72
     1
 10
2569.838097579913
 20
1660.786385725316
 11
2564.284078573975
 21
1660.786385725316
 72
     1
 10
2564.284078573975
 20
1660.786385725316
 11
2564.284078573975
 21
1662.786385725317
 72
     1
 10
2564.284078573975
 20
1662.786385725317
 11
2565.784078573975
 21
1662.786385725317
 72
     2
 10
2565.784078573975
 20
1663.286385725317
 40
0.5
 50
-90.00000000000001
 51
-0.0000000000000127
 73
     1
 72
     1
 10
2566.284078573975
 20
1663.286385725317
 11
2566.284078573975
 21
1665.286385725316
 72
     1
 10
2566.284078573975
 20
1665.286385725316
 11
2568.284078573975
 21
1665.286385725316
 72
     1
 10
2568.284078573975
 20
1665.286385725316
 11
2568.284078573975
 21
1663.286385725317
 72
     2
 10
2568.784078573975
 20
1663.286385725317
 40
0.5
 50
180.0
 51
270.0
 73
     1
 97
        0
 75
     0
 76
     0
 52
44.99999999999999
 41
1.0
 77
     0
 78
     1
 53
45.0
 43
-89.03549280664902
 44
510.3036289460752
 45
-0.7071067811865475
 46
0.7071067811865476
 79
     0
 98
        1
 10
2629.223187405667
 20
1154.370717382218
1001
ACME_LAYERS
1000
1
1001
ACAD
1010
0.0
1020
0.0
1030
0.0
  0
LINE
  5
1324
330
1F
100
AcDbEntity
  8
P-0000
  6
Continuous
 62
     7
100
AcDbLine
 10
2568.784078573975
 20
1662.786385725317
 30
0.0
 11
2580.284078573982
 21
1662.786385725317
 31
0.0
1001
ACME_LAYERS
1000
1
  0
LINE
  5
1325
330
1F
100
AcDbEntity
  8
P-0000
  6
Continuous
 62
     7
100
AcDbLine
 10
2564.284078573975
 20
1660.786385725316
 30
0.0
 11
2569.838097579913
 21
1660.786385725316
 31
0.0
1001
ACME_LAYERS
1000
1
  0
LINE
  5
1326
330
1F
100
AcDbEntity
  8
P-0000
  6
Continuous
 62
     7
100
AcDbLine
 10
2558.284078573984
 20
1662.786385725317
 30
0.0
 11
2564.284078573975
 21
1662.786385725317
 31
0.0
1001
ACME_LAYERS
1000
1
  0
LINE
  5
1327
330
1F
100
AcDbEntity
  8
P-0000
  6
Continuous
 62
     7
100
AcDbLine
 10
2564.284078573975
 20
1660.786385725316
 30
0.0
 11
2564.284078573975
 21
1662.786385725317
 31
0.0
1001
ACME_LAYERS
1000
1
  0
LINE
  5
1328
330
1F
100
AcDbEntity
  8
P-0000
  6
Continuous
 62
     7
100
AcDbLine
 10
2564.284078573975
 20
1662.786385725317
 30
0.0
 11
2565.784078573975
 21
1662.786385725317
 31
0.0
1001
ACME_LAYERS
1000
1
  0
LINE
  5
1329
330
1F
100
AcDbEntity
  8
P-0000
  6
Continuous
 62
     7
100
AcDbLine
 10
2568.284078573975
 20
1663.286385725317
 30
0.0
 11
2568.284078573975
 21
1665.286385725316
 31
0.0
1001
ACME_LAYERS
1000
1
  0
LINE
  5
132A
330
1F
100
AcDbEntity
  8
P-0000
  6
Continuous
 62
     7
100
AcDbLine
 10
2566.284078573975
 20
1663.286385725317
 30
0.0
 11
2566.284078573975
 21
1665.286385725316
 31
0.0
1001
ACME_LAYERS
1000
1
  0
LINE
  5
132B
330
1F
100
AcDbEntity
  8
P-0000
  6
Continuous
 62
     7
100
AcDbLine
 10
2568.284078573975
 20
1665.286385725316
 30
0.0
 11
2566.284078573975
 21
1665.286385725316
 31
0.0
1001
ACME_LAYERS
1000
1
  0
ARC
  5
132C
330
1F
100
AcDbEntity
  8
P-0000
  6
Continuous
 62
     7
100
AcDbCircle
 10
2568.784078573975
 20
1663.286385725317
 30
0.0
 40
0.5
100
AcDbArc
 50
180.0
 51
270.0
1001
ACME_LAYERS
1000
1
  0
ARC
  5
132D
330
1F
100
AcDbEntity
  8
P-0000
  6
Continuous
 62
     7
100
AcDbCircle
 10
2565.784078573975
 20
1663.286385725317
 30
0.0
 40
0.5
100
AcDbArc
 50
270.0
 51
0.0
1001
ACME_LAYERS
1000
1
  0
LINE
  5
132E
330
1F
100
AcDbEntity
  8
P-0000
  6
Continuous
 62
     7
100
AcDbLine
 10
2583.994909179045
 20
1660.786385725316
 30
0.0
 11
2580.284078573982
 21
1660.786385725316
 31
0.0
1001
ACME_LAYERS
1000
1
  0
LINE
  5
132F
330
1F
100
AcDbEntity
  8
P-0000
  6
Continuous
 62
     7
100
AcDbLine
 10
2580.284078573982
 20
1662.786385725317
 30
0.0
 11
2588.284078573983
 21
1662.786385725317
 31
0.0
1001
ACME_LAYERS
1000
1
  0
LINE
  5
1330
330
1F
100
AcDbEntity
  8
P-0000
  6
Continuous
 62
     7
100
AcDbLine
 10
2580.284078573982
 20
1660.786385725316
 30
0.0
 11
2569.838097579913
 21
1660.786385725316
 31
0.0
1001
ACME_LAYERS
1000
1
  0
LINE
  5
1331
330
1F
100
AcDbEntity
  8
P-0000
  6
Continuous
 62
     7
100
AcDbLine
 10
2580.284078573982
 20
1662.786385725317
 30
0.0
 11
2580.284078573982
 21
1660.786385725316
 31
0.0
1001
ACME_LAYERS
1000
1
  0
LINE
  5
1332
330
1F
100
AcDbEntity
  8
P-0000
  6
Continuous
 62
     7
100
AcDbLine
 10
2585.793838805705
 20
1662.786385725317
 30
0.0
 11
2586.793838805705
 21
1662.786385725317
 31
0.0
1001
ACME_LAYERS
1000
1
  0
LINE
  5
1333
330
1F
100
AcDbEntity
  8
P-0000
  6
Continuous
 62
     7
100
AcDbLine
 10
2585.793838805705
 20
1662.786385725317
 30
0.0
 11
2586.793838805705
 21
1662.786385725317
 31
0.0
1001
ACME_LAYERS
1000
1
  0
LINE
  5
1334
330
1F
100
AcDbEntity
  8
P-0000
  6
Continuous
 62
     7
100
AcDbLine
 10
2625.034078573975
 20
1645.792037023747
 30
0.0
 11
2615.034078573975
 21
1645.792037023747
 31
0.0
1001
ACME_LAYERS
1000
1
  0
LINE
  5
1335
330
1F
100
AcDbEntity
  8
P-0000
  6
Continuous
 62
     7
100
AcDbLine
 10
2625.034078573975
 20
1643.792037023747
 30
0.0
 11
2615.034078573975
 21
1643.792037023747
 31
0.0
1001
ACME_LAYERS
1000
1
  0
LINE
  5
1336
330
1F
100
AcDbEntity
  8
P-0000
  6
Continuous
 62
     7
100
AcDbLine
 10
2596.344969742299
 20
1647.792037023746
 30
0.0
 11
2596.344969742299
 21
1660.286385725317
 31
0.0
1001
ACME_LAYERS
1000
1
  0
LINE
  5
1337
330
1F
100
AcDbEntity
  8
P-0000
  6
Continuous
 62
     7
100
AcDbLine
 10
2598.284078573983
 20
1647.792037023746
 30
0.0
 11
2598.284078573983
 21
1662.786385725317
 31
0.0
1001
ACME_LAYERS
1000
1
  0
LINE
  5
1338
330
1F
100
AcDbEntity
  8
P-0000
  6
Continuous
 62
     7
100
AcDbLine
 10
2608.095770371537
 20
1645.792037023747
 30
0.0
 11
2598.284078573983
 21
1662.786385725317
 31
0.0
1001
ACME_LAYERS
1000
1
  0
LINE
  5
1339
330
1F
100
AcDbEntity
  8
P-0000
  6
Continuous
 62
     7
100
AcDbLine
 10
2598.284078573983
 20
1665.286385725316
 30
0.0
 11
2596.284078573984
 21
1665.286385725316
 31
0.0
1001
ACME_LAYERS
1000
1
  0
LINE
  5
133A
330
1F
100
AcDbEntity
  8
P-0000
  6
Continuous
 62
     7
100
AcDbLine
 10
2596.284078573984
 20
1665.286385725316
 30
0.0
 11
2596.284078573984
 21
1663.286385725317
 31
0.0
1001
ACME_LAYERS
1000
1
  0
ARC
  5
133B
330
1F
100
AcDbEntity
  8
P-0000
  6
Continuous
 62
     7
100
AcDbCircle
 10
2595.784078573984
 20
1663.286385725317
 30
0.0
 40
0.5
100
AcDbArc
 50
270.0
 51
0.0
1001
ACME_LAYERS
1000
1
  0
ARC
  5
133C
330
1F
100
AcDbEntity
  8
P-0000
  6
Continuous
 62
     7
100
AcDbCircle
 10
2595.844969742298
 20
1660.286385725317
 30
0.0
 40
0.5
100
AcDbArc
 50
0.0
 51
90.0
1001
ACME_LAYERS
1000
1
  0
LINE
  5
133D
330
1F
100
AcDbEntity
  8
P-0000
  6
Continuous
 62
     7
100
AcDbLine
 10
2598.284078573983
 20
1665.286385725316
 30
0.0
 11
2598.284078573983
 21
1662.786385725317
 31
0.0
1001
ACME_LAYERS
1000
1
  0
LINE
  5
133E
330
1F
100
AcDbEntity
  8
P-0000
  6
Continuous
 62
     7
100
AcDbLine
 10
2608.095770371537
 20
1645.792037023747
 30
0.0
 11
2600.284078573983
 21
1645.792037023747
 31
0.0
1001
ACME_LAYERS
1000
1
  0
LINE
  5
133F
330
1F
100
AcDbEntity
  8
P-0000
  6
Continuous
 62
     7
100
AcDbLine
 10
2615.034078573975
 20
1643.792037023747
 30
0.0
 11
2600.344969742299
 21
1643.792037023747
 31
0.0
1001
ACME_LAYERS
1000
1
  0
ARC
  5
1340
330
1F
100
AcDbEntity
  8
P-0000
  6
Continuous
 62
     7
100
AcDbCircle
 10
2600.284078573983
 20
1647.792037023746
 30
0.0
 40
2.0
100
AcDbArc
 50
180.0
 51
270.0
1001
ACME_LAYERS
1000
1
  0
ARC
  5
1341
330
1F
100
AcDbEntity
  8
P-0000
  6
Continuous
 62
     7
100
AcDbCircle
 10
2600.344969742299
 20
1647.792037023746
 30
0.0
 40
4.0
100
AcDbArc
 50
180.0
 51
240.0000000000027
1001
ACME_LAYERS
1000
1
  0
LINE
  5
1342
330
1F
100
AcDbEntity
  8
P-0000
  6
Continuous
 62
     7
100
AcDbLine
 10
2615.034078573975
 20
1645.792037023747
 30
0.0
 11
2608.095770371537
 21
1645.792037023747
 31
0.0
1001
ACME_LAYERS
1000
1
  0
LINE
  5
1343
330
1F
100
AcDbEntity
  8
P-0000
  6
Continuous
 62
     7
100
AcDbLine
 10
2615.034078573975
 20
1643.792037023747
 30
0.0
 11
2615.034078573975
 21
1645.792037023747
 31
0.0
1001
ACME_LAYERS
1000
1
  0
LINE
  5
1344
330
1F
100
AcDbEntity
  8
AM_7
  6
AM_DIN_G_W050x2
100
AcDbLine
 10
2620.034078573974
 20
1637.792037023748
 30
0.0
 11
2620.034078573974
 21
1651.792037023747
 31
0.0
1001
ACME_LAYERS
1000
1
  0
HATCH
  5
1345
330
1F
100
AcDbEntity
  8
P-0000
  6
Continuous
 62
     1
100
AcDbHatch
 10
0.0
 20
0.0
 30
0.0
210
0.0
220
0.0
230
1.0
  2
_U
 70
     0
 71
     0
 91
        1
 92
        1
 93
        4
 72
     1
 10
2630.034078573975
 20
1643.792037023747
 11
2625.034078573975
 21
1643.792037023747
 72
     1
 10
2625.034078573975
 20
1643.792037023747
 11
2625.034078573975
 21
1645.792037023747
 72
     1
 10
2625.034078573975
 20
1645.792037023747
 11
2630.034078573975
 21
1645.792037023747
 72
     1
 10
2630.034078573975
 20
1645.792037023747
 11
2630.034078573975
 21
1643.792037023747
 97
        0
 75
     0
 76
     0
 52
44.99999999999999
 41
1.0
 77
     0
 78
     1
 53
45.0
 43
2236.932893217661
 44
1471.448015249526
 45
-0.7071067811865475
 46
0.7071067811865476
 79
     0
 98
        1
 10
2629.223187405667
 20
1154.370717382218
1001
ACME_LAYERS
1000
1
1001
ACAD
1010
0.0
1020
0.0
1030
0.0
  0
LINE
  5
1346
330
1F
100
AcDbEntity
  8
P-0000
  6
Continuous
 62
     7
100
AcDbLine
 10
2630.034078573975
 20
1645.792037023747
 30
0.0
 11
2625.034078573975
 21
1645.792037023747
 31
0.0
1001
ACME_LAYERS
1000
1
  0
LINE
  5
1347
330
1F
100
AcDbEntity
  8
P-0000
  6
Continuous
 62
     7
100
AcDbLine
 10
2630.034078573975
 20
1643.792037023747
 30
0.0
 11
2625.034078573975
 21
1643.792037023747
 31
0.0
1001
ACME_LAYERS
1000
1
  0
LINE
  5
1348
330
1F
100
AcDbEntity
  8
P-0000
  6
Continuous
 62
     7
100
AcDbLine
 10
2625.034078573975
 20
1643.792037023747
 30
0.0
 11
2625.034078573975
 21
1645.792037023747
 31
0.0
1001
ACME_LAYERS
1000
1
  0
LINE
  5
1349
330
1F
100
AcDbEntity
  8
P-0000
  6
Continuous
 62
     7
100
AcDbLine
 10
2630.034078573975
 20
1643.792037023747
 30
0.0
 11
2630.034078573975
 21
1645.792037023747
 31
0.0
1001
ACME_LAYERS
1000
1
  0
LINE
  5
134A
330
1F
100
AcDbEntity
  8
P-0000
  6
Continuous
 62
     7
100
AcDbLine
 10
2504.784078573984
 20
1704.737214142333
 30
0.0
 11
2504.784078573984
 21
1668.737214142335
 31
0.0
1001
ACME_LAYERS
1000
1
  0
LINE
  5
134B
330
1F
100
AcDbEntity
  8
P-0000
  6
Continuous
 62
     7
100
AcDbLine
 10
2579.731748984964
 20
1687.306343341623
 30
0.0
 11
2580.710538201247
 21
1684.617142071475
 31
0.0
1001
ACME_LAYERS
1000
1
  0
LINE
  5
134C
330
1F
100
AcDbEntity
  8
P-0000
  6
Continuous
 62
     7
100
AcDbLine
 10
2571.059781588849
 20
1668.737214142335
 30
0.0
 11
2557.956853155263
 21
1704.737214142333
 31
0.0
1001
ACME_LAYERS
1000
1
  0
LINE
  5
134D
330
1F
100
AcDbEntity
  8
P-0000
  6
Continuous
 62
     7
100
AcDbLine
 10
2504.784078573984
 20
1710.706863241966
 30
0.0
 11
2555.784078573983
 21
1710.706863241966
 31
0.0
1001
ACME_LAYERS
1000
1
  0
LINE
  5
134E
330
1F
100
AcDbEntity
  8
P-0000
  6
Continuous
 62
     7
100
AcDbLine
 10
2504.784078573984
 20
1710.706863241966
 30
0.0
 11
2555.784078573983
 21
1710.706863241966
 31
0.0
1001
ACME_LAYERS
1000
1
  0
LINE
  5
134F
330
1F
100
AcDbEntity
  8
P-0000
  6
Continuous
 62
     7
100
AcDbLine
 10
2551.154071495532
 20
1742.737214142334
 30
0.0
 11
2544.125984253146
 21
1742.737214142334
 31
0.0
1001
ACME_LAYERS
1000
1
  0
LINE
  5
1350
330
1F
100
AcDbEntity
  8
P-0000
  6
Continuous
 62
     7
100
AcDbLine
 10
2556.784078573982
 20
1704.737214142333
 30
0.0
 11
2504.784078573984
 21
1704.737214142333
 31
0.0
1001
ACME_LAYERS
1000
1
  0
LINE
  5
1351
330
1F
100
AcDbEntity
  8
P-0000
  6
Continuous
 62
     7
100
AcDbLine
 10
2549.585537767141
 20
1727.737214142333
 30
0.0
 11
2507.388241630016
 21
1727.737214142333
 31
0.0
1001
ACME_LAYERS
1000
1
  0
LINE
  5
1352
330
1F
100
AcDbEntity
  8
P-0000
  6
Continuous
 62
     7
100
AcDbLine
 10
2504.784078573984
 20
1727.737214142333
 30
0.0
 11
2504.784078573984
 21
1710.706863241966
 31
0.0
1001
ACME_LAYERS
1000
1
  0
LINE
  5
1353
330
1F
100
AcDbEntity
  8
P-0000
  6
Continuous
 62
     7
100
AcDbLine
 10
2541.997628708195
 20
1742.737214142334
 30
0.0
 11
2507.388241630016
 21
1742.737214142334
 31
0.0
1001
ACME_LAYERS
1000
1
  0
LINE
  5
1354
330
1F
100
AcDbEntity
  8
P-0000
  6
Continuous
 62
     7
100
AcDbLine
 10
2507.388241630016
 20
1742.737214142334
 30
0.0
 11
2507.388241630016
 21
1727.737214142333
 31
0.0
1001
ACME_LAYERS
1000
1
  0
LINE
  5
1355
330
1F
100
AcDbEntity
  8
P-0000
  6
Continuous
 62
     7
100
AcDbLine
 10
2507.388241630016
 20
1742.737214142334
 30
0.0
 11
2503.284078573984
 21
1742.737214142334
 31
0.0
1001
ACME_LAYERS
1000
1
  0
LINE
  5
1356
330
1F
100
AcDbEntity
  8
P-0000
  6
Continuous
 62
     7
100
AcDbLine
 10
2507.388241630016
 20
1727.737214142333
 30
0.0
 11
2504.784078573984
 21
1727.737214142333
 31
0.0
1001
ACME_LAYERS
1000
1
  0
LINE
  5
1357
330
1F
100
AcDbEntity
  8
P-0000
  6
Continuous
 62
     7
100
AcDbLine
 10
2504.784078573984
 20
1727.737214142333
 30
0.0
 11
2503.284078573984
 21
1727.737214142333
 31
0.0
1001
ACME_LAYERS
1000
1
  0
LINE
  5
1358
330
1F
100
AcDbEntity
  8
P-0000
  6
Continuous
 62
     7
100
AcDbLine
 10
2503.284078573984
 20
1727.737214142333
 30
0.0
 11
2501.784078573982
 21
1727.737214142333
 31
0.0
1001
ACME_LAYERS
1000
1
  0
HATCH
  5
1359
330
1F
100
AcDbEntity
  8
P-0000
  6
Continuous
 62
     1
100
AcDbHatch
 10
0.0
 20
0.0
 30
0.0
210
0.0
220
0.0
230
1.0
  2
_U
 70
     0
 71
     0
 91
        1
 92
        1
 93
        5
 72
     1
 10
2545.581865190211
 20
1738.737214142334
 11
2544.125984253146
 21
1742.737214142334
 72
     1
 10
2544.125984253146
 20
1742.737214142334
 11
2541.997628708195
 21
1742.737214142334
 72
     1
 10
2541.997628708195
 20
1742.737214142334
 11
2543.214024562683
 21
1739.395193999009
 72
     2
 10
2544.15371718347
 20
1739.737214142334
 40
1.000000000000015
 50
200.0000000000031
 51
270.0
 73
     1
 72
     1
 10
2544.15371718347
 20
1738.737214142334
 11
2545.581865190211
 21
1738.737214142334
 97
        0
 75
     0
 76
     0
 52
44.99999999999999
 41
1.0
 77
     0
 78
     1
 53
45.0
 43
2330.693051337922
 44
1781.235297174313
 45
-0.7071067811865474
 46
0.7071067811865479
 79
     0
 98
        1
 10
2629.232947637389
 20
1174.25835847398
1001
ACME_LAYERS
1000
1
  0
LINE
  5
135A
330
1F
100
AcDbEntity
  8
P-0000
  6
Continuous
 62
     7
100
AcDbLine
 10
2543.214024562683
 20
1739.395193999008
 30
0.0
 11
2541.997628708195
 21
1742.737214142334
 31
0.0
1001
ACME_LAYERS
1000
1
  0
LINE
  5
135B
330
1F
100
AcDbEntity
  8
P-0000
  6
Continuous
 62
     7
100
AcDbLine
 10
2545.581865190211
 20
1738.737214142334
 30
0.0
 11
2544.125984253146
 21
1742.737214142334
 31
0.0
1001
ACME_LAYERS
1000
1
  0
LINE
  5
135C
330
1F
100
AcDbEntity
  8
P-0000
  6
Continuous
 62
     7
100
AcDbLine
 10
2544.125984253146
 20
1742.737214142334
 30
0.0
 11
2541.997628708195
 21
1742.737214142334
 31
0.0
1001
ACME_LAYERS
1000
1
  0
ARC
  5
135D
330
1F
100
AcDbEntity
  8
P-0000
  6
Continuous
 62
     7
100
AcDbCircle
 10
2544.15371718347
 20
1739.737214142334
 30
0.0
 40
1.000000000000015
100
AcDbArc
 50
200.0000000000015
 51
270.0
1001
ACME_LAYERS
1000
1
  0
ARC
  5
135E
330
1F
100
AcDbEntity
  8
P-0000
  6
Continuous
 62
     7
100
AcDbCircle
 10
2544.15371718347
 20
1739.737214142334
 30
0.0
 40
1.000000000000015
100
AcDbArc
 50
200.0000000000015
 51
270.0
1001
ACME_LAYERS
1000
1
  0
LINE
  5
135F
330
1F
100
AcDbEntity
  8
P-0000
  6
Continuous
 62
     7
100
AcDbLine
 10
2545.581865190211
 20
1738.737214142334
 30
0.0
 11
2544.15371718347
 21
1738.737214142334
 31
0.0
1001
ACME_LAYERS
1000
1
  0
LINE
  5
1360
330
1F
100
AcDbEntity
  8
P-0000
  6
Continuous
 62
     7
100
AcDbLine
 10
2503.284078573984
 20
1710.706863241966
 30
0.0
 11
2504.784078573984
 21
1710.706863241966
 31
0.0
1001
ACME_LAYERS
1000
1
  0
LINE
  5
1361
330
1F
100
AcDbEntity
  8
P-0000
  6
Continuous
 62
     7
100
AcDbLine
 10
2503.284078573984
 20
1710.706863241966
 30
0.0
 11
2504.784078573984
 21
1710.706863241966
 31
0.0
1001
ACME_LAYERS
1000
1
  0
LINE
  5
1362
330
1F
100
AcDbEntity
  8
P-0000
  6
Continuous
 62
     7
100
AcDbLine
 10
2504.784078573984
 20
1704.737214142333
 30
0.0
 11
2503.284078573984
 21
1704.737214142333
 31
0.0
1001
ACME_LAYERS
1000
1
  0
LINE
  5
1363
330
1F
100
AcDbEntity
  8
P-0000
  6
Continuous
 62
     7
100
AcDbLine
 10
2562.430382944962
 20
1734.841455862242
 30
0.0
 11
2579.731748984964
 21
1687.306343341623
 31
0.0
1001
ACME_LAYERS
1000
1
  0
LINE
  5
1364
330
1F
100
AcDbEntity
  8
P-0000
  6
Continuous
 62
     7
100
AcDbLine
 10
2555.784078573983
 20
1710.706863241966
 30
0.0
 11
2549.585537767141
 21
1727.737214142333
 31
0.0
1001
ACME_LAYERS
1000
1
  0
ARC
  5
1365
330
1F
100
AcDbEntity
  8
P-0000
  6
Continuous
 62
     7
100
AcDbCircle
 10
2551.154071495532
 20
1730.737214142334
 30
0.0
 40
11.99999999999995
100
AcDbArc
 50
19.99999999998923
 51
90.0
1001
ACME_LAYERS
1000
1
  0
HATCH
  5
1366
330
1F
100
AcDbEntity
  8
P-0000
  6
Continuous
 62
     3
100
AcDbHatch
 10
0.0
 20
0.0
 30
0.0
210
0.0
220
0.0
230
1.0
  2
_U
 70
     0
 71
     0
 91
        1
 92
        1
 93
        4
 72
     1
 10
2557.956853155263
 20
1704.737214142333
 11
2555.784078573983
 21
1710.706863241966
 72
     1
 10
2555.784078573983
 20
1710.706863241966
 11
2555.784078573983
 21
1705.737214142334
 72
     2
 10
2556.784078573982
 20
1705.737214142334
 40
1.0
 50
180.0
 51
270.0
 73
     1
 72
     1
 10
2556.784078573982
 20
1704.737214142333
 11
2557.956853155263
 21
1704.737214142333
 97
        0
 75
     0
 76
     0
 52
44.99999999999999
 41
1.0
 77
     0
 78
     1
 53
45.0
 43
2629.232947637389
 44
1174.25835847398
 45
-0.7071067811865474
 46
0.7071067811865479
 79
     0
 98
        1
 10
2629.232947637389
 20
1174.25835847398
1001
ACME_LAYERS
1000
1
  0
LINE
  5
1367
330
1F
100
AcDbEntity
  8
P-0000
  6
Continuous
 62
     7
100
AcDbLine
 10
2557.956853155263
 20
1704.737214142333
 30
0.0
 11
2556.784078573982
 21
1704.737214142333
 31
0.0
1001
ACME_LAYERS
1000
1
  0
LINE
  5
1368
330
1F
100
AcDbEntity
  8
P-0000
  6
Continuous
 62
     7
100
AcDbLine
 10
2557.956853155263
 20
1704.737214142333
 30
0.0
 11
2555.784078573983
 21
1710.706863241966
 31
0.0
1001
ACME_LAYERS
1000
1
  0
LINE
  5
1369
330
1F
100
AcDbEntity
  8
P-0000
  6
Continuous
 62
     7
100
AcDbLine
 10
2555.784078573983
 20
1705.737214142334
 30
0.0
 11
2555.784078573983
 21
1710.706863241966
 31
0.0
1001
ACME_LAYERS
1000
1
  0
LINE
  5
136A
330
1F
100
AcDbEntity
  8
P-0000
  6
Continuous
 62
     7
100
AcDbLine
 10
2555.784078573983
 20
1705.737214142334
 30
0.0
 11
2555.784078573983
 21
1710.706863241966
 31
0.0
1001
ACME_LAYERS
1000
1
  0
ARC
  5
136B
330
1F
100
AcDbEntity
  8
P-0000
  6
Continuous
 62
     7
100
AcDbCircle
 10
2556.784078573982
 20
1705.737214142334
 30
0.0
 40
1.0
100
AcDbArc
 50
180.0
 51
270.0
1001
ACME_LAYERS
1000
1
  0
ARC
  5
136C
330
1F
100
AcDbEntity
  8
P-0000
  6
Continuous
 62
     7
100
AcDbCircle
 10
2556.784078573982
 20
1705.737214142334
 30
0.0
 40
1.0
100
AcDbArc
 50
180.0
 51
270.0
1001
ACME_LAYERS
1000
1
  0
LINE
  5
136D
330
1F
100
AcDbEntity
  8
P-0000
  6
Continuous
 62
     7
100
AcDbLine
 10
2504.784078573984
 20
1668.737214142335
 30
0.0
 11
2571.059781588849
 21
1668.737214142335
 31
0.0
1001
ACME_LAYERS
1000
1
  0
LINE
  5
136E
330
1F
100
AcDbEntity
  8
P-0000
  6
Continuous
 62
     7
100
AcDbLine
 10
2504.784078573984
 20
1668.737214142335
 30
0.0
 11
2571.059781588849
 21
1668.737214142335
 31
0.0
1001
ACME_LAYERS
1000
1
  0
LINE
  5
136F
330
1F
100
AcDbEntity
  8
P-0000
  6
Continuous
 62
     7
100
AcDbLine
 10
2504.784078573984
 20
1668.737214142335
 30
0.0
 11
2571.059781588849
 21
1668.737214142335
 31
0.0
1001
ACME_LAYERS
1000
1
  0
LINE
  5
1370
330
1F
100
AcDbEntity
  8
P-0000
  6
Continuous
 62
     7
100
AcDbLine
 10
2571.059781588849
 20
1662.737214142334
 30
0.0
 11
2504.784078573984
 21
1662.737214142334
 31
0.0
1001
ACME_LAYERS
1000
1
  0
LINE
  5
1371
330
1F
100
AcDbEntity
  8
P-0000
  6
Continuous
 62
     7
100
AcDbLine
 10
2503.284078573984
 20
1668.737214142335
 30
0.0
 11
2504.784078573984
 21
1668.737214142335
 31
0.0
1001
ACME_LAYERS
1000
1
  0
LINE
  5
1372
330
1F
100
AcDbEntity
  8
P-0000
  6
Continuous
 62
     7
100
AcDbLine
 10
2503.284078573984
 20
1668.737214142335
 30
0.0
 11
2504.784078573984
 21
1668.737214142335
 31
0.0
1001
ACME_LAYERS
1000
1
  0
LINE
  5
1373
330
1F
100
AcDbEntity
  8
P-0000
  6
Continuous
 62
     7
100
AcDbLine
 10
2503.284078573984
 20
1668.737214142335
 30
0.0
 11
2504.784078573984
 21
1668.737214142335
 31
0.0
1001
ACME_LAYERS
1000
1
  0
LINE
  5
1374
330
1F
100
AcDbEntity
  8
P-0000
  6
Continuous
 62
     7
100
AcDbLine
 10
2504.784078573984
 20
1662.737214142334
 30
0.0
 11
2503.284078573984
 21
1662.737214142334
 31
0.0
1001
ACME_LAYERS
1000
1
  0
LINE
  5
1375
330
1F
100
AcDbEntity
  8
P-0000
  6
Continuous
 62
     7
100
AcDbLine
 10
2580.710538201247
 20
1684.617142071475
 30
0.0
 11
2588.284078573983
 21
1663.809010912058
 31
0.0
1001
ACME_LAYERS
1000
1
  0
LINE
  5
1376
330
1F
100
AcDbEntity
  8
P-0000
  6
Continuous
 62
     7
100
AcDbLine
 10
2582.284078573983
 20
1662.737214142334
 30
0.0
 11
2574.059781588848
 21
1662.737214142334
 31
0.0
1001
ACME_LAYERS
1000
1
  0
LINE
  5
1377
330
1F
100
AcDbEntity
  8
P-0000
  6
Continuous
 62
     7
100
AcDbLine
 10
2574.059781588848
 20
1662.737214142334
 30
0.0
 11
2574.059781588848
 21
1668.737214142335
 31
0.0
1001
ACME_LAYERS
1000
1
  0
LINE
  5
1378
330
1F
100
AcDbEntity
  8
P-0000
  6
Continuous
 62
     7
100
AcDbLine
 10
2571.059781588849
 20
1662.737214142334
 30
0.0
 11
2571.059781588849
 21
1668.737214142335
 31
0.0
1001
ACME_LAYERS
1000
1
  0
LINE
  5
1379
330
1F
100
AcDbEntity
  8
P-0000
  6
Continuous
 62
     7
100
AcDbLine
 10
2571.059781588849
 20
1668.737214142335
 30
0.0
 11
2574.059781588848
 21
1668.737214142335
 31
0.0
1001
ACME_LAYERS
1000
1
  0
LINE
  5
137A
330
1F
100
AcDbEntity
  8
P-0000
  6
Continuous
 62
     7
100
AcDbLine
 10
2571.059781588849
 20
1668.737214142335
 30
0.0
 11
2574.059781588848
 21
1668.737214142335
 31
0.0
1001
ACME_LAYERS
1000
1
  0
LINE
  5
137B
330
1F
100
AcDbEntity
  8
P-0000
  6
Continuous
 62
     7
100
AcDbLine
 10
2574.059781588848
 20
1662.737214142334
 30
0.0
 11
2571.059781588849
 21
1662.737214142334
 31
0.0
1001
ACME_LAYERS
1000
1
  0
LINE
  5
137C
330
1F
100
AcDbEntity
  8
P-0000
  6
Continuous
 62
     7
100
AcDbLine
 10
2588.784078573982
 20
1660.537214142333
 30
0.0
 11
2588.784078573982
 21
1662.737214142334
 31
0.0
1001
ACME_LAYERS
1000
1
  0
LINE
  5
137D
330
1F
100
AcDbEntity
  8
P-0000
  6
Continuous
 62
     7
100
AcDbLine
 10
2587.507848307434
 20
1656.780646373542
 30
0.0
 11
2582.284078573983
 21
1662.737214142334
 31
0.0
1001
ACME_LAYERS
1000
1
  0
LINE
  5
137E
330
1F
100
AcDbEntity
  8
P-0000
  6
Continuous
 62
     7
100
AcDbLine
 10
2588.284078573983
 20
1662.737214142334
 30
0.0
 11
2588.284078573983
 21
1663.809010912058
 31
0.0
1001
ACME_LAYERS
1000
1
  0
LINE
  5
137F
330
1F
100
AcDbEntity
  8
P-0000
  6
Continuous
 62
     7
100
AcDbLine
 10
2588.784078573982
 20
1662.737214142334
 30
0.0
 11
2588.284078573983
 21
1662.737214142334
 31
0.0
1001
ACME_LAYERS
1000
1
  0
LINE
  5
1380
330
1F
100
AcDbEntity
  8
P-0000
  6
Continuous
 62
     7
100
AcDbLine
 10
2588.284078573983
 20
1662.737214142334
 30
0.0
 11
2588.284078573983
 21
1663.809010912058
 31
0.0
1001
ACME_LAYERS
1000
1
  0
LINE
  5
1381
330
1F
100
AcDbEntity
  8
P-0000
  6
Continuous
 62
     7
100
AcDbLine
 10
2589.984078573984
 20
1659.037214142334
 30
0.0
 11
2588.425251381913
 21
1656.839672371134
 31
0.0
1001
ACME_LAYERS
1000
1
  0
LINE
  5
1382
330
1F
100
AcDbEntity
  8
P-0000
  6
Continuous
 62
     7
100
AcDbLine
 10
2588.784078573982
 20
1660.537214142333
 30
0.0
 11
2589.984078573984
 21
1660.537214142333
 31
0.0
1001
ACME_LAYERS
1000
1
  0
LINE
  5
1383
330
1F
100
AcDbEntity
  8
P-0000
  6
Continuous
 62
     7
100
AcDbLine
 10
2589.984078573984
 20
1660.537214142333
 30
0.0
 11
2589.984078573984
 21
1659.037214142334
 31
0.0
1001
ACME_LAYERS
1000
1
  0
ARC
  5
1384
330
1F
100
AcDbEntity
  8
P-0000
  6
Continuous
 62
     7
100
AcDbCircle
 10
2587.935871579829
 20
1657.186814142334
 30
0.0
 40
0.6000000000000229
100
AcDbArc
 50
270.0
 51
324.6500000000025
1001
ACME_LAYERS
1000
1
  0
ARC
  5
1385
330
1F
100
AcDbEntity
  8
P-0000
  6
Continuous
 62
     7
100
AcDbCircle
 10
2587.93564515789
 20
1657.155814142334
 30
0.0
 40
0.5689999999999894
100
AcDbArc
 50
221.2500000000013
 51
270.0
1001
ACME_LAYERS
1000
1
  0
LINE
  5
1386
330
1F
100
AcDbEntity
  8
P-0000
  6
Continuous
 62
     7
100
AcDbLine
 10
2587.935871579829
 20
1656.586814142334
 30
0.0
 11
2587.93564515789
 21
1656.586814142334
 31
0.0
1001
ACME_LAYERS
1000
1
  0
HATCH
  5
1387
330
1F
100
AcDbEntity
  8
AM_8
100
AcDbHatch
 10
0.0
 20
0.0
 30
0.0
210
0.0
220
0.0
230
1.0
  2
_U
 70
     0
 71
     0
 91
        1
 92
        1
 93
        4
 72
     1
 10
2574.059781588848
 20
1668.737214142335
 11
2571.059781588849
 21
1668.737214142335
 72
     1
 10
2571.059781588849
 20
1668.737214142335
 11
2571.059781588849
 21
1662.737214142334
 72
     1
 10
2571.059781588849
 20
1662.737214142334
 11
2574.059781588848
 21
1662.737214142334
 72
     1
 10
2574.059781588848
 20
1662.737214142334
 11
2574.059781588848
 21
1668.737214142335
 97
        0
 75
     0
 76
     0
 52
44.99999999999999
 41
1.0
 77
     0
 78
     1
 53
45.0
 43
2330.693051337922
 44
1781.235297174313
 45
-0.7071067811865474
 46
0.7071067811865479
 79
     0
 98
        1
 10
2330.693051337922
 20
1781.235297174313
1001
GENIUS_GENODEF_13
1002
{
1000
HIER
1070
     0
1002
}
1002
{
1000
MANEDIT
1070
     0
1002
}
1002
{
1000
NOSEL
1070
     0
1002
}
1002
{
1000
BEHIND
1070
     0
1002
}
1002
{
1000
OTHER
1070
     0
1002
}
1002
{
1000
REACTOR
1002
}
1001
GENIUS_GENOBJ-N-HTC_13
1002
{
1000
OWNER
1000
GEN
1002
}
1001
GENIUS_GENHATCH_13
1002
{
1000
DATA
1040
135.0
1042
1.0
1000
_U
1070
     0
1011
2571.828758404296
1021
1663.195801188852
1031
0.0
1002
}
1002
{
1000
UCS
1010
0.0
1020
0.0
1030
0.0
1010
1.0
1020
0.0
1030
0.0
1010
0.0
1020
1.0
1030
0.0
1002
}
  0
LINE
  5
1388
330
1F
100
AcDbEntity
  8
P-0000
  6
Continuous
 62
     7
100
AcDbLine
 10
2382.516621336262
 20
1645.792037023749
 30
0.0
 11
2392.516621336262
 21
1645.792037023747
 31
0.0
1001
ACME_LAYERS
1000
1
  0
LINE
  5
1389
330
1F
100
AcDbEntity
  8
P-0000
  6
Continuous
 62
     7
100
AcDbLine
 10
2384.316621336262
 20
1656.939318463461
 30
0.0
 11
2387.516621336262
 21
1656.939318463461
 31
0.0
1001
ACME_LAYERS
1000
1
  0
LINE
  5
138A
330
1F
100
AcDbEntity
  8
P-0000
  6
Continuous
 62
     7
100
AcDbLine
 10
2390.716621336261
 20
1656.339318463459
 30
0.0
 11
2384.316621336262
 21
1656.339318463461
 31
0.0
1001
ACME_LAYERS
1000
1
  0
LINE
  5
138B
330
1F
100
AcDbEntity
  8
P-0000
  6
Continuous
 62
     7
100
AcDbLine
 10
2383.516621336262
 20
1656.339318463461
 30
0.0
 11
2383.516621336262
 21
1653.392037023747
 31
0.0
1001
ACME_LAYERS
1000
1
  0
LINE
  5
138C
330
1F
100
AcDbEntity
  8
P-0000
  6
Continuous
 62
     3
100
AcDbLine
 10
2384.316621336262
 20
1656.939318463461
 30
0.0
 11
2384.316621336262
 21
1653.392037023747
 31
0.0
1001
ACME_LAYERS
1000
1
  0
LINE
  5
138D
330
1F
100
AcDbEntity
  8
P-0000
  6
Continuous
 62
     7
100
AcDbLine
 10
2384.316621336262
 20
1656.339318463461
 30
0.0
 11
2383.516621336262
 21
1656.339318463461
 31
0.0
1001
ACME_LAYERS
1000
1
  0
LINE
  5
138E
330
1F
100
AcDbEntity
  8
P-0000
  6
Continuous
 62
     3
100
AcDbLine
 10
2384.316621336262
 20
1656.939318463461
 30
0.0
 11
2384.316621336262
 21
1656.339318463461
 31
0.0
1001
ACME_LAYERS
1000
1
  0
LINE
  5
138F
330
1F
100
AcDbEntity
  8
P-0000
  6
Continuous
 62
     7
100
AcDbLine
 10
2383.516621336262
 20
1656.339318463461
 30
0.0
 11
2384.316621336262
 21
1656.939318463461
 31
0.0
1001
ACME_LAYERS
1000
1
  0
LINE
  5
1390
330
1F
100
AcDbEntity
  8
P-0000
  6
Continuous
 62
     7
100
AcDbLine
 10
2391.516621336263
 20
1656.339318463459
 30
0.0
 11
2391.516621336263
 21
1653.392037023746
 31
0.0
1001
ACME_LAYERS
1000
1
  0
LINE
  5
1391
330
1F
100
AcDbEntity
  8
P-0000
  6
STRICHPUNKT
 62
     3
100
AcDbLine
 10
2387.516621336262
 20
1653.392037023747
 30
0.0
 11
2387.516621336262
 21
1656.939318463461
 31
0.0
1001
ACME_LAYERS
1000
1
  0
LINE
  5
1392
330
1F
100
AcDbEntity
  8
P-0000
  6
Continuous
 62
     3
100
AcDbLine
 10
2390.716621336261
 20
1656.93931846346
 30
0.0
 11
2390.716621336261
 21
1653.392037023746
 31
0.0
1001
ACME_LAYERS
1000
1
  0
LINE
  5
1393
330
1F
100
AcDbEntity
  8
P-0000
  6
Continuous
 62
     3
100
AcDbLine
 10
2390.716621336261
 20
1656.93931846346
 30
0.0
 11
2390.716621336261
 21
1656.339318463459
 31
0.0
1001
ACME_LAYERS
1000
1
  0
LINE
  5
1394
330
1F
100
AcDbEntity
  8
P-0000
  6
Continuous
 62
     7
100
AcDbLine
 10
2391.516621336263
 20
1656.339318463459
 30
0.0
 11
2390.716621336261
 21
1656.339318463459
 31
0.0
1001
ACME_LAYERS
1000
1
  0
LINE
  5
1395
330
1F
100
AcDbEntity
  8
P-0000
  6
Continuous
 62
     7
100
AcDbLine
 10
2390.716621336261
 20
1656.93931846346
 30
0.0
 11
2391.516621336263
 21
1656.339318463459
 31
0.0
1001
ACME_LAYERS
1000
1
  0
LINE
  5
1396
330
1F
100
AcDbEntity
  8
P-0000
  6
Continuous
 62
     7
100
AcDbLine
 10
2387.516621336262
 20
1656.939318463461
 30
0.0
 11
2390.716621336261
 21
1656.93931846346
 31
0.0
1001
ACME_LAYERS
1000
1
  0
LINE
  5
1397
330
1F
100
AcDbEntity
  8
P-0000
  6
Continuous
 62
     7
100
AcDbLine
 10
2391.516621336261
 20
1653.392037023746
 30
0.0
 11
2384.316621336262
 21
1653.392037023747
 31
0.0
1001
ACME_LAYERS
1000
1
  0
LINE
  5
1398
330
1F
100
AcDbEntity
  8
P-0000
  6
Continuous
 62
     7
100
AcDbLine
 10
2384.316621336262
 20
1653.392037023747
 30
0.0
 11
2383.516621336261
 21
1653.392037023747
 31
0.0
1001
ACME_LAYERS
1000
1
  0
LINE
  5
1399
330
1F
100
AcDbEntity
  8
P-0000
  6
Continuous
 62
     7
100
AcDbLine
 10
2379.07092322284
 20
1647.292037023745
 30
0.0
 11
2379.07092322284
 21
1645.792037023749
 31
0.0
1001
ACME_LAYERS
1000
1
  0
LINE
  5
139A
330
1F
100
AcDbEntity
  8
P-0000
  6
Continuous
 62
     7
100
AcDbLine
 10
2396.070923222842
 20
1645.792037023747
 30
0.0
 11
2396.070923222842
 21
1647.292037023745
 31
0.0
1001
ACME_LAYERS
1000
1
  0
LINE
  5
139B
330
1F
100
AcDbEntity
  8
P-0000
  6
Continuous
 62
     7
100
AcDbLine
 10
2379.07092322284
 20
1647.392037023747
 30
0.0
 11
2379.07092322284
 21
1647.292037023745
 31
0.0
1001
ACME_LAYERS
1000
1
  0
LINE
  5
139C
330
1F
100
AcDbEntity
  8
P-0000
  6
Continuous
 62
     7
100
AcDbLine
 10
2396.070923222842
 20
1647.392037023746
 30
0.0
 11
2379.07092322284
 21
1647.392037023747
 31
0.0
1001
ACME_LAYERS
1000
1
  0
LINE
  5
139D
330
1F
100
AcDbEntity
  8
P-0000
  6
Continuous
 62
     7
100
AcDbLine
 10
2396.070923222842
 20
1647.292037023745
 30
0.0
 11
2396.070923222842
 21
1647.392037023746
 31
0.0
1001
ACME_LAYERS
1000
1
  0
LINE
  5
139E
330
1F
100
AcDbEntity
  8
P-0000
  6
Continuous
 62
     7
100
AcDbLine
 10
2395.022174835727
 20
1649.278976215652
 30
0.0
 11
2395.022174835727
 21
1647.972593607346
 31
0.0
1001
ACME_LAYERS
1000
1
  0
LINE
  5
139F
330
1F
100
AcDbEntity
  8
P-0000
  6
Continuous
 62
     7
100
AcDbLine
 10
2381.016621336263
 20
1647.392037023747
 30
0.0
 11
2394.016621336261
 21
1647.392037023746
 31
0.0
1001
ACME_LAYERS
1000
1
  0
LINE
  5
13A0
330
1F
100
AcDbEntity
  8
P-0000
  6
Continuous
 62
     7
100
AcDbLine
 10
2380.011067836795
 20
1649.278976215654
 30
0.0
 11
2380.011067836795
 21
1647.972593607347
 31
0.0
1001
ACME_LAYERS
1000
1
  0
LINE
  5
13A1
330
1F
100
AcDbEntity
  8
P-0000
  6
Continuous
 62
     7
100
AcDbLine
 10
2383.516621336261
 20
1653.392037023747
 30
0.0
 11
2381.016621336263
 21
1653.392037023747
 31
0.0
1001
ACME_LAYERS
1000
1
  0
LINE
  5
13A2
330
1F
100
AcDbEntity
  8
P-0000
  6
Continuous
 62
     7
100
AcDbLine
 10
2394.775503247071
 20
1647.81918058938
 30
0.0
 11
2394.016621336261
 21
1647.392037023746
 31
0.0
1001
ACME_LAYERS
1000
1
  0
LINE
  5
13A3
330
1F
100
AcDbEntity
  8
P-0000
  6
Continuous
 62
     7
100
AcDbLine
 10
2394.775503247071
 20
1652.964893458111
 30
0.0
 11
2394.016621336261
 21
1653.392037023746
 31
0.0
1001
ACME_LAYERS
1000
1
  0
LINE
  5
13A4
330
1F
100
AcDbEntity
  8
P-0000
  6
Continuous
 62
     7
100
AcDbLine
 10
2380.257739425453
 20
1647.81918058938
 30
0.0
 11
2381.016621336263
 21
1647.392037023747
 31
0.0
1001
ACME_LAYERS
1000
1
  0
LINE
  5
13A5
330
1F
100
AcDbEntity
  8
P-0000
  6
Continuous
 62
     7
100
AcDbLine
 10
2380.257739425454
 20
1652.964893458111
 30
0.0
 11
2381.016621336263
 21
1653.392037023747
 31
0.0
1001
ACME_LAYERS
1000
1
  0
LINE
  5
13A6
330
1F
100
AcDbEntity
  8
P-0000
  6
Continuous
 62
     7
100
AcDbLine
 10
2394.016621336261
 20
1653.392037023746
 30
0.0
 11
2391.516621336261
 21
1653.392037023746
 31
0.0
1001
ACME_LAYERS
1000
1
  0
LINE
  5
13A7
330
1F
100
AcDbEntity
  8
P-0000
  6
Continuous
 62
     7
100
AcDbLine
 10
2380.011067836795
 20
1652.811480440145
 30
0.0
 11
2380.011067836795
 21
1649.278976215654
 31
0.0
1001
ACME_LAYERS
1000
1
  0
LINE
  5
13A8
330
1F
100
AcDbEntity
  8
P-0000
  6
Continuous
 62
     7
100
AcDbLine
 10
2383.76384458653
 20
1652.811480440145
 30
0.0
 11
2383.76384458653
 21
1647.392037023747
 31
0.0
1001
ACME_LAYERS
1000
1
  0
LINE
  5
13A9
330
1F
100
AcDbEntity
  8
P-0000
  6
Continuous
 62
     7
100
AcDbLine
 10
2391.269398085993
 20
1652.811480440145
 30
0.0
 11
2391.269398085993
 21
1647.392037023746
 31
0.0
1001
ACME_LAYERS
1000
1
  0
LINE
  5
13AA
330
1F
100
AcDbEntity
  8
P-0000
  6
Continuous
 62
     7
100
AcDbLine
 10
2395.022174835727
 20
1652.811480440145
 30
0.0
 11
2395.022174835727
 21
1649.278976215652
 31
0.0
1001
ACME_LAYERS
1000
1
  0
LINE
  5
13AB
330
1F
100
AcDbEntity
  8
P-0000
  6
Continuous
 62
     7
100
AcDbLine
 10
2379.07092322284
 20
1645.792037023749
 30
0.0
 11
2383.516621336261
 21
1645.792037023749
 31
0.0
1001
ACME_LAYERS
1000
1
  0
LINE
  5
13AC
330
1F
100
AcDbEntity
  8
P-0000
  6
Continuous
 62
     7
100
AcDbLine
 10
2396.070923222842
 20
1645.792037023747
 30
0.0
 11
2392.016621336263
 21
1645.792037023747
 31
0.0
1001
ACME_LAYERS
1000
1
  0
LINE
  5
13AD
330
1F
100
AcDbEntity
  8
P-0000
  6
Continuous
 62
     7
100
AcDbLine
 10
2384.316621336262
 20
1643.792037023748
 30
0.0
 11
2390.716621336261
 21
1643.792037023748
 31
0.0
1001
ACME_LAYERS
1000
1
  0
ARC
  5
13AE
330
1F
100
AcDbEntity
  8
P-0000
  6
Continuous
 62
     7
100
AcDbCircle
 10
2387.516621336262
 20
1659.811480440144
 30
0.0
 40
12.41944341639904
100
AcDbArc
 50
252.4120462260364
 51
287.5879537739637
1001
ACME_LAYERS
1000
1
  0
ARC
  5
13AF
330
1F
100
AcDbEntity
  8
P-0000
  6
Continuous
 62
     7
100
AcDbCircle
 10
2387.516621336262
 20
1640.972593607346
 30
0.0
 40
12.41944341639904
100
AcDbArc
 50
72.41204622603635
 51
107.5879537739635
1001
ACME_LAYERS
1000
1
  0
ARC
  5
13B0
330
1F
100
AcDbEntity
  8
P-0000
  6
Continuous
 62
     7
100
AcDbCircle
 10
2393.145786460861
 20
1650.714606596696
 30
0.0
 40
3.322569572950221
100
AcDbArc
 50
235.6157525319757
 51
299.3733793948356
1001
ACME_LAYERS
1000
1
  0
ARC
  5
13B1
330
1F
100
AcDbEntity
  8
P-0000
  6
Continuous
 62
     7
100
AcDbCircle
 10
2393.145786460861
 20
1650.069467450794
 30
0.0
 40
3.322569572950149
100
AcDbArc
 50
55.61575253197573
 51
60.62662060516443
1001
ACME_LAYERS
1000
1
  0
ARC
  5
13B2
330
1F
100
AcDbEntity
  8
P-0000
  6
Continuous
 62
     7
100
AcDbCircle
 10
2381.887456211663
 20
1650.714606596696
 30
0.0
 40
3.322569572950221
100
AcDbArc
 50
235.6157525319757
 51
240.6266206051644
1001
ACME_LAYERS
1000
1
  0
ARC
  5
13B3
330
1F
100
AcDbEntity
  8
P-0000
  6
Continuous
 62
     7
100
AcDbCircle
 10
2381.887456211663
 20
1650.069467450797
 30
0.0
 40
3.322569572949122
100
AcDbArc
 50
55.61575253197573
 51
119.3733793948355
1001
ACME_LAYERS
1000
1
  0
ARC
  5
13B4
330
1F
100
AcDbEntity
  8
P-0000
  6
Continuous
 62
     7
100
AcDbCircle
 10
2393.145786460861
 20
1650.714606596696
 30
0.0
 40
3.322569572949876
100
AcDbArc
 50
299.3733793948356
 51
304.3842474680243
1001
ACME_LAYERS
1000
1
  0
ARC
  5
13B5
330
1F
100
AcDbEntity
  8
P-0000
  6
Continuous
 62
     7
100
AcDbCircle
 10
2393.145786460861
 20
1650.069467450796
 30
0.0
 40
3.322569572949888
100
AcDbArc
 50
60.62662060516443
 51
124.3842474680243
1001
ACME_LAYERS
1000
1
  0
ARC
  5
13B6
330
1F
100
AcDbEntity
  8
P-0000
  6
Continuous
 62
     7
100
AcDbCircle
 10
2381.887456211663
 20
1650.714606596696
 30
0.0
 40
3.322569572949872
100
AcDbArc
 50
240.6266206051644
 51
304.3842474680243
1001
ACME_LAYERS
1000
1
  0
ARC
  5
13B7
330
1F
100
AcDbEntity
  8
P-0000
  6
Continuous
 62
     7
100
AcDbCircle
 10
2381.887456211663
 20
1650.069467450797
 30
0.0
 40
3.322569572949884
100
AcDbArc
 50
119.3733793948355
 51
124.3842474680243
1001
ACME_LAYERS
1000
1
  0
LINE
  5
13B8
330
1F
100
AcDbEntity
  8
P-0000
  6
Continuous
 62
     7
100
AcDbLine
 10
2425.5680145766
 20
1653.774704716507
 30
0.0
 11
2425.5680145766
 21
1650.892037023744
 31
0.0
1001
ACME_LAYERS
1000
1
  0
LINE
  5
13B9
330
1F
100
AcDbEntity
  8
P-0000
  6
Continuous
 62
     3
100
AcDbLine
 10
2424.7680145766
 20
1653.312824501155
 30
0.0
 11
2424.7680145766
 21
1650.892037023744
 31
0.0
1001
ACME_LAYERS
1000
1
  0
LINE
  5
13BA
330
1F
100
AcDbEntity
  8
P-0000
  6
Continuous
 62
     7
100
AcDbLine
 10
2420.575087671397
 20
1650.892037023744
 30
0.0
 11
2424.768014576598
 21
1650.892037023744
 31
0.0
1001
ACME_LAYERS
1000
1
  0
LINE
  5
13BB
330
1F
100
AcDbEntity
  8
P-0000
  6
Continuous
 62
     7
100
AcDbLine
 10
2424.768014576598
 20
1650.892037023744
 30
0.0
 11
2425.5680145766
 21
1650.892037023744
 31
0.0
1001
ACME_LAYERS
1000
1
  0
LINE
  5
13BC
330
1F
100
AcDbEntity
  8
P-0000
  6
Continuous
 62
     7
100
AcDbLine
 10
2430.013712690018
 20
1644.892037023744
 30
0.0
 11
2430.013712690018
 21
1643.059986216178
 31
0.0
1001
ACME_LAYERS
1000
1
  0
LINE
  5
13BD
330
1F
100
AcDbEntity
  8
P-0000
  6
Continuous
 62
     7
100
AcDbLine
 10
2413.01371269002
 20
1643.059986216178
 30
0.0
 11
2413.01371269002
 21
1644.792037023744
 31
0.0
1001
ACME_LAYERS
1000
1
  0
LINE
  5
13BE
330
1F
100
AcDbEntity
  8
P-0000
  6
Continuous
 62
     7
100
AcDbLine
 10
2430.013712690018
 20
1644.892037023744
 30
0.0
 11
2430.013712690018
 21
1644.792037023744
 31
0.0
1001
ACME_LAYERS
1000
1
  0
LINE
  5
13BF
330
1F
100
AcDbEntity
  8
P-0000
  6
Continuous
 62
     7
100
AcDbLine
 10
2413.01371269002
 20
1644.892037023744
 30
0.0
 11
2430.013712690018
 21
1644.892037023744
 31
0.0
1001
ACME_LAYERS
1000
1
  0
LINE
  5
13C0
330
1F
100
AcDbEntity
  8
P-0000
  6
Continuous
 62
     7
100
AcDbLine
 10
2413.01371269002
 20
1644.792037023744
 30
0.0
 11
2413.01371269002
 21
1644.892037023744
 31
0.0
1001
ACME_LAYERS
1000
1
  0
LINE
  5
13C1
330
1F
100
AcDbEntity
  8
P-0000
  6
Continuous
 62
     7
100
AcDbLine
 10
2414.062461077133
 20
1646.77897621565
 30
0.0
 11
2414.062461077133
 21
1645.472593607344
 31
0.0
1001
ACME_LAYERS
1000
1
  0
LINE
  5
13C2
330
1F
100
AcDbEntity
  8
P-0000
  6
Continuous
 62
     7
100
AcDbLine
 10
2428.068014576599
 20
1644.892037023744
 30
0.0
 11
2415.068014576598
 21
1644.892037023744
 31
0.0
1001
ACME_LAYERS
1000
1
  0
LINE
  5
13C3
330
1F
100
AcDbEntity
  8
P-0000
  6
Continuous
 62
     7
100
AcDbLine
 10
2429.073568076065
 20
1646.77897621565
 30
0.0
 11
2429.073568076065
 21
1645.472593607344
 31
0.0
1001
ACME_LAYERS
1000
1
  0
LINE
  5
13C4
330
1F
100
AcDbEntity
  8
P-0000
  6
Continuous
 62
     7
100
AcDbLine
 10
2425.5680145766
 20
1650.892037023744
 30
0.0
 11
2428.068014576601
 21
1650.892037023744
 31
0.0
1001
ACME_LAYERS
1000
1
  0
LINE
  5
13C5
330
1F
100
AcDbEntity
  8
P-0000
  6
Continuous
 62
     7
100
AcDbLine
 10
2417.815237826867
 20
1646.77897621565
 30
0.0
 11
2417.815237826867
 21
1645.472593607344
 31
0.0
1001
ACME_LAYERS
1000
1
  0
LINE
  5
13C6
330
1F
100
AcDbEntity
  8
P-0000
  6
Continuous
 62
     7
100
AcDbLine
 10
2425.320791326331
 20
1646.77897621565
 30
0.0
 11
2425.320791326331
 21
1645.472593607344
 31
0.0
1001
ACME_LAYERS
1000
1
  0
LINE
  5
13C7
330
1F
100
AcDbEntity
  8
P-0000
  6
Continuous
 62
     7
100
AcDbLine
 10
2414.309132665789
 20
1645.319180589378
 30
0.0
 11
2415.068014576598
 21
1644.892037023744
 31
0.0
1001
ACME_LAYERS
1000
1
  0
LINE
  5
13C8
330
1F
100
AcDbEntity
  8
P-0000
  6
Continuous
 62
     7
100
AcDbLine
 10
2428.826896487406
 20
1645.319180589378
 30
0.0
 11
2428.068014576599
 21
1644.892037023744
 31
0.0
1001
ACME_LAYERS
1000
1
  0
LINE
  5
13C9
330
1F
100
AcDbEntity
  8
P-0000
  6
Continuous
 62
     7
100
AcDbLine
 10
2428.826896487408
 20
1650.464893458109
 30
0.0
 11
2428.068014576601
 21
1650.892037023744
 31
0.0
1001
ACME_LAYERS
1000
1
  0
LINE
  5
13CA
330
1F
100
AcDbEntity
  8
P-0000
  6
Continuous
 62
     7
100
AcDbLine
 10
2429.073568076065
 20
1650.311480440143
 30
0.0
 11
2429.073568076065
 21
1646.77897621565
 31
0.0
1001
ACME_LAYERS
1000
1
  0
LINE
  5
13CB
330
1F
100
AcDbEntity
  8
P-0000
  6
Continuous
 62
     7
100
AcDbLine
 10
2425.320791326331
 20
1650.311480440143
 30
0.0
 11
2425.320791326331
 21
1646.77897621565
 31
0.0
1001
ACME_LAYERS
1000
1
  0
LINE
  5
13CC
330
1F
100
AcDbEntity
  8
P-0000
  6
Continuous
 62
     7
100
AcDbLine
 10
2417.815237826867
 20
1649.298636973083
 30
0.0
 11
2417.815237826867
 21
1646.77897621565
 31
0.0
1001
ACME_LAYERS
1000
1
  0
LINE
  5
13CD
330
1F
100
AcDbEntity
  8
P-0000
  6
Continuous
 62
     7
100
AcDbLine
 10
2414.062461077133
 20
1647.131970306415
 30
0.0
 11
2414.062461077133
 21
1646.77897621565
 31
0.0
1001
ACME_LAYERS
1000
1
  0
ARC
  5
13CE
330
1F
100
AcDbEntity
  8
P-0000
  6
Continuous
 62
     7
100
AcDbCircle
 10
2421.5680145766
 20
1657.311480440143
 30
0.0
 40
12.41944341639904
100
AcDbArc
 50
252.4120462260364
 51
287.5879537739637
1001
ACME_LAYERS
1000
1
  0
ARC
  5
13CF
330
1F
100
AcDbEntity
  8
P-0000
  6
Continuous
 62
     7
100
AcDbCircle
 10
2421.568014576599
 20
1638.472593607344
 30
0.0
 40
12.41944341639904
100
AcDbArc
 50
72.41204622603635
 51
94.95831806929585
1001
ACME_LAYERS
1000
1
  0
ARC
  5
13D0
330
1F
100
AcDbEntity
  8
P-0000
  6
Continuous
 62
     7
100
AcDbCircle
 10
2415.938849451999
 20
1648.214606596693
 30
0.0
 40
3.322569572950221
100
AcDbArc
 50
240.6266206051644
 51
304.3842474680243
1001
ACME_LAYERS
1000
1
  0
ARC
  5
13D1
330
1F
100
AcDbEntity
  8
P-0000
  6
Continuous
 62
     7
100
AcDbCircle
 10
2427.197179701197
 20
1648.214606596693
 30
0.0
 40
3.322569572950221
100
AcDbArc
 50
299.3733793948356
 51
304.3842474680243
1001
ACME_LAYERS
1000
1
  0
ARC
  5
13D2
330
1F
100
AcDbEntity
  8
P-0000
  6
Continuous
 62
     7
100
AcDbCircle
 10
2427.197179701197
 20
1647.569467450794
 30
0.0
 40
3.322569572949122
100
AcDbArc
 50
60.62662060516443
 51
124.3842474680243
1001
ACME_LAYERS
1000
1
  0
ARC
  5
13D3
330
1F
100
AcDbEntity
  8
P-0000
  6
Continuous
 62
     7
100
AcDbCircle
 10
2415.938849451999
 20
1648.214606596693
 30
0.0
 40
3.322569572949876
100
AcDbArc
 50
235.6157525319757
 51
240.6266206051644
1001
ACME_LAYERS
1000
1
  0
ARC
  5
13D4
330
1F
100
AcDbEntity
  8
P-0000
  6
Continuous
 62
     7
100
AcDbCircle
 10
2427.197179701197
 20
1648.214606596693
 30
0.0
 40
3.322569572949872
100
AcDbArc
 50
235.6157525319757
 51
299.3733793948356
1001
ACME_LAYERS
1000
1
  0
ARC
  5
13D5
330
1F
100
AcDbEntity
  8
P-0000
  6
Continuous
 62
     7
100
AcDbCircle
 10
2427.197179701197
 20
1647.569467450794
 30
0.0
 40
3.322569572949884
100
AcDbArc
 50
55.61575253197573
 51
60.62662060516443
1001
ACME_LAYERS
1000
1
  0
HATCH
  5
13D6
330
1F
100
AcDbEntity
  8
P-0000
  6
Continuous
 62
     1
100
AcDbHatch
 10
0.0
 20
0.0
 30
0.0
210
0.0
220
0.0
230
1.0
  2
_U
 70
     0
 71
     0
 91
        1
 92
        1
 93
       16
 72
     1
 10
2419.266621336257
 20
1662.786385725317
 11
2419.266621336257
 21
1662.737214142335
 72
     1
 10
2419.266621336257
 20
1662.737214142335
 11
2418.766621336255
 21
1662.737214142335
 72
     1
 10
2418.766621336255
 20
1662.737214142335
 11
2418.766621336255
 21
1660.786385725317
 72
     1
 10
2418.766621336255
 20
1660.786385725317
 11
2411.70573016794
 21
1660.786385725317
 72
     2
 10
2411.70573016794
 20
1660.286385725317
 40
0.5
 50
449.9999999999992
 51
539.9999999999992
 73
     1
 72
     1
 10
2411.205730167939
 20
1660.286385725317
 11
2411.205730167939
 21
1647.792037023747
 72
     2
 10
2407.205730167938
 20
1647.792037023747
 40
4.000000000000068
 50
0.0000000000008651
 51
90.00000000000088
 73
     0
 72
     1
 10
2407.205730167938
 20
1643.792037023748
 11
2392.516621336262
 21
1643.792037023748
 72
     1
 10
2392.516621336262
 20
1643.792037023748
 11
2392.516621336262
 21
1645.792037023747
 72
     1
 10
2392.516621336262
 20
1645.792037023747
 11
2407.266621336254
 21
1645.792037023747
 72
     2
 10
2407.266621336254
 20
1647.792037023747
 40
1.999999999999999
 50
269.9999999999992
 51
359.9999999999992
 73
     1
 72
     1
 10
2409.266621336254
 20
1647.792037023747
 11
2409.266621336254
 21
1665.286385725317
 72
     1
 10
2409.266621336254
 20
1665.286385725317
 11
2411.266621336255
 21
1665.286385725317
 72
     1
 10
2411.266621336255
 20
1665.286385725317
 11
2411.266621336255
 21
1663.286385725317
 72
     2
 10
2411.766621336252
 20
1663.286385725317
 40
0.5
 50
539.9999999999992
 51
629.999999999999
 73
     1
 72
     1
 10
2411.766621336252
 20
1662.786385725317
 11
2419.266621336257
 21
1662.786385725317
 97
        0
 75
     0
 76
     0
 52
44.99999999999999
 41
1.0
 77
     0
 78
     1
 53
45.0
 43
-89.03549280664902
 44
510.3036289460752
 45
-0.7071067811865475
 46
0.7071067811865476
 79
     0
 98
        1
 10
2378.327512504561
 20
1154.37071738222
1001
ACME_LAYERS
1000
1
1001
ACAD
1010
0.0
1020
0.0
1030
0.0
  0
LINE
  5
13D7
330
1F
100
AcDbEntity
  8
P-0000
  6
Continuous
 62
     7
100
AcDbLine
 10
2439.266621336263
 20
1665.286385725317
 30
0.0
 11
2436.49091832139
 21
1665.286385725317
 31
0.0
1001
ACME_LAYERS
1000
1
  0
LINE
  5
13D8
330
1F
100
AcDbEntity
  8
P-0000
  6
Continuous
 62
     7
100
AcDbLine
 10
2419.804341793136
 20
1665.286385725317
 30
0.0
 11
2411.266621336255
 21
1665.286385725317
 31
0.0
1001
ACME_LAYERS
1000
1
  0
LINE
  5
13D9
330
1F
100
AcDbEntity
  8
P-0000
  6
Continuous
 62
     7
100
AcDbLine
 10
2437.712602330325
 20
1660.786385725317
 30
0.0
 11
2409.205730167939
 21
1644.327935408609
 31
0.0
1001
ACME_LAYERS
1000
1
  0
LINE
  5
13DA
330
1F
100
AcDbEntity
  8
P-0000
  6
Continuous
 62
     7
100
AcDbLine
 10
2411.70573016794
 20
1660.786385725317
 30
0.0
 11
2418.766621336255
 21
1660.786385725317
 31
0.0
1001
ACME_LAYERS
1000
1
  0
LINE
  5
13DB
330
1F
100
AcDbEntity
  8
P-0000
  6
Continuous
 62
     7
100
AcDbLine
 10
2419.266621336257
 20
1662.786385725317
 30
0.0
 11
2411.766621336252
 21
1662.786385725317
 31
0.0
1001
ACME_LAYERS
1000
1
  0
LINE
  5
13DC
330
1F
100
AcDbEntity
  8
P-0000
  6
Continuous
 62
     7
100
AcDbLine
 10
2504.256861104535
 20
1665.286385725316
 30
0.0
 11
2439.266621336263
 21
1665.286385725317
 31
0.0
1001
ACME_LAYERS
1000
1
  0
LINE
  5
13DD
330
1F
100
AcDbEntity
  8
P-0000
  6
Continuous
 62
     7
100
AcDbLine
 10
2504.256861104535
 20
1662.786385725317
 30
0.0
 11
2449.266621336252
 21
1662.786385725317
 31
0.0
1001
ACME_LAYERS
1000
1
  0
LINE
  5
13DE
330
1F
100
AcDbEntity
  8
P-0000
  6
Continuous
 62
     7
100
AcDbLine
 10
2494.266621336247
 20
1660.786385725316
 30
0.0
 11
2443.266621336264
 21
1660.786385725317
 31
0.0
1001
ACME_LAYERS
1000
1
  0
LINE
  5
13DF
330
1F
100
AcDbEntity
  8
P-0000
  6
Continuous
 62
     7
100
AcDbLine
 10
2493.266621336247
 20
1645.792037023747
 30
0.0
 11
2493.266621336247
 21
1660.786385725316
 31
0.0
1001
ACME_LAYERS
1000
1
  0
LINE
  5
13E0
330
1F
100
AcDbEntity
  8
P-0000
  6
Continuous
 62
     7
100
AcDbLine
 10
2502.766621336246
 20
1660.786385725316
 30
0.0
 11
2494.266621336247
 21
1660.786385725316
 31
0.0
1001
ACME_LAYERS
1000
1
  0
LINE
  5
13E1
330
1F
100
AcDbEntity
  8
P-0000
  6
Continuous
 62
     7
100
AcDbLine
 10
2503.256861104517
 20
1662.786385725317
 30
0.0
 11
2494.274605528719
 21
1662.786385725317
 31
0.0
1001
ACME_LAYERS
1000
1
  0
LINE
  5
13E2
330
1F
100
AcDbEntity
  8
P-0000
  6
Continuous
 62
     7
100
AcDbLine
 10
2504.256861104516
 20
1662.786385725317
 30
0.0
 11
2503.256861104517
 21
1662.786385725317
 31
0.0
1001
ACME_LAYERS
1000
1
  0
LINE
  5
13E3
330
1F
100
AcDbEntity
  8
P-0000
  6
Continuous
 62
     7
100
AcDbLine
 10
2504.256861104516
 20
1660.786385725316
 30
0.0
 11
2502.766621336246
 21
1660.786385725316
 31
0.0
1001
ACME_LAYERS
1000
1
  0
HATCH
  5
13E4
330
1F
100
AcDbEntity
  8
P-0000
  6
Continuous
 62
     1
100
AcDbHatch
 10
0.0
 20
0.0
 30
0.0
210
0.0
220
0.0
230
1.0
  2
_U
 70
     0
 71
     0
 91
        1
 92
        1
 93
       11
 72
     1
 10
2438.766621336262
 20
1662.786385725317
 11
2427.266621336255
 21
1662.786385725317
 72
     1
 10
2427.266621336255
 20
1662.786385725317
 11
2427.266621336255
 21
1660.786385725317
 72
     1
 10
2427.266621336255
 20
1660.786385725317
 11
2437.712602330325
 21
1660.786385725317
 72
     1
 10
2437.712602330325
 20
1660.786385725317
 11
2443.266621336264
 21
1660.786385725317
 72
     1
 10
2443.266621336264
 20
1660.786385725317
 11
2443.266621336264
 21
1662.786385725317
 72
     1
 10
2443.266621336264
 20
1662.786385725317
 11
2441.766621336264
 21
1662.786385725317
 72
     2
 10
2441.766621336264
 20
1663.286385725317
 40
0.5
 50
-269.9999999999992
 51
-179.9999999999991
 73
     0
 72
     1
 10
2441.266621336263
 20
1663.286385725317
 11
2441.266621336263
 21
1665.286385725317
 72
     1
 10
2441.266621336263
 20
1665.286385725317
 11
2439.266621336263
 21
1665.286385725317
 72
     1
 10
2439.266621336263
 20
1665.286385725317
 11
2439.266621336263
 21
1663.286385725317
 72
     2
 10
2438.766621336262
 20
1663.286385725317
 40
0.5
 50
0.0000000000008651
 51
90.00000000000088
 73
     0
 97
        0
 75
     0
 76
     0
 52
44.99999999999999
 41
1.0
 77
     0
 78
     1
 53
45.0
 43
-89.03549280664902
 44
510.3036289460752
 45
-0.7071067811865475
 46
0.7071067811865476
 79
     0
 98
        1
 10
2378.327512504561
 20
1154.37071738222
1001
ACME_LAYERS
1000
1
1001
ACAD
1010
0.0
1020
0.0
1030
0.0
  0
LINE
  5
13E5
330
1F
100
AcDbEntity
  8
P-0000
  6
Continuous
 62
     7
100
AcDbLine
 10
2438.766621336262
 20
1662.786385725317
 30
0.0
 11
2427.266621336255
 21
1662.786385725317
 31
0.0
1001
ACME_LAYERS
1000
1
  0
LINE
  5
13E6
330
1F
100
AcDbEntity
  8
P-0000
  6
Continuous
 62
     7
100
AcDbLine
 10
2443.266621336264
 20
1660.786385725317
 30
0.0
 11
2437.712602330325
 21
1660.786385725317
 31
0.0
1001
ACME_LAYERS
1000
1
  0
LINE
  5
13E7
330
1F
100
AcDbEntity
  8
P-0000
  6
Continuous
 62
     7
100
AcDbLine
 10
2449.266621336252
 20
1662.786385725317
 30
0.0
 11
2443.266621336264
 21
1662.786385725317
 31
0.0
1001
ACME_LAYERS
1000
1
  0
LINE
  5
13E8
330
1F
100
AcDbEntity
  8
P-0000
  6
Continuous
 62
     7
100
AcDbLine
 10
2443.266621336264
 20
1660.786385725317
 30
0.0
 11
2443.266621336264
 21
1662.786385725317
 31
0.0
1001
ACME_LAYERS
1000
1
  0
LINE
  5
13E9
330
1F
100
AcDbEntity
  8
P-0000
  6
Continuous
 62
     7
100
AcDbLine
 10
2443.266621336264
 20
1662.786385725317
 30
0.0
 11
2441.766621336264
 21
1662.786385725317
 31
0.0
1001
ACME_LAYERS
1000
1
  0
LINE
  5
13EA
330
1F
100
AcDbEntity
  8
P-0000
  6
Continuous
 62
     7
100
AcDbLine
 10
2439.266621336263
 20
1663.286385725317
 30
0.0
 11
2439.266621336263
 21
1665.286385725317
 31
0.0
1001
ACME_LAYERS
1000
1
  0
LINE
  5
13EB
330
1F
100
AcDbEntity
  8
P-0000
  6
Continuous
 62
     7
100
AcDbLine
 10
2441.266621336263
 20
1663.286385725317
 30
0.0
 11
2441.266621336263
 21
1665.286385725317
 31
0.0
1001
ACME_LAYERS
1000
1
  0
LINE
  5
13EC
330
1F
100
AcDbEntity
  8
P-0000
  6
Continuous
 62
     7
100
AcDbLine
 10
2439.266621336263
 20
1665.286385725317
 30
0.0
 11
2441.266621336263
 21
1665.286385725317
 31
0.0
1001
ACME_LAYERS
1000
1
  0
ARC
  5
13ED
330
1F
100
AcDbEntity
  8
P-0000
  6
Continuous
 62
     7
100
AcDbCircle
 10
2438.766621336262
 20
1663.286385725317
 30
0.0
 40
0.5
100
AcDbArc
 50
270.0
 51
0.0
1001
ACME_LAYERS
1000
1
  0
ARC
  5
13EE
330
1F
100
AcDbEntity
  8
P-0000
  6
Continuous
 62
     7
100
AcDbCircle
 10
2441.766621336264
 20
1663.286385725317
 30
0.0
 40
0.5
100
AcDbArc
 50
180.0
 51
270.0
1001
ACME_LAYERS
1000
1
  0
LINE
  5
13EF
330
1F
100
AcDbEntity
  8
P-0000
  6
Continuous
 62
     7
100
AcDbLine
 10
2423.555790731195
 20
1660.786385725317
 30
0.0
 11
2427.266621336255
 21
1660.786385725317
 31
0.0
1001
ACME_LAYERS
1000
1
  0
LINE
  5
13F0
330
1F
100
AcDbEntity
  8
P-0000
  6
Continuous
 62
     7
100
AcDbLine
 10
2427.266621336255
 20
1662.786385725317
 30
0.0
 11
2419.266621336257
 21
1662.786385725317
 31
0.0
1001
ACME_LAYERS
1000
1
  0
LINE
  5
13F1
330
1F
100
AcDbEntity
  8
P-0000
  6
Continuous
 62
     7
100
AcDbLine
 10
2427.266621336255
 20
1660.786385725317
 30
0.0
 11
2437.712602330325
 21
1660.786385725317
 31
0.0
1001
ACME_LAYERS
1000
1
  0
LINE
  5
13F2
330
1F
100
AcDbEntity
  8
P-0000
  6
Continuous
 62
     7
100
AcDbLine
 10
2427.266621336255
 20
1662.786385725317
 30
0.0
 11
2427.266621336255
 21
1660.786385725317
 31
0.0
1001
ACME_LAYERS
1000
1
  0
LINE
  5
13F3
330
1F
100
AcDbEntity
  8
P-0000
  6
Continuous
 62
     7
100
AcDbLine
 10
2421.756861104533
 20
1662.786385725317
 30
0.0
 11
2420.756861104532
 21
1662.786385725317
 31
0.0
1001
ACME_LAYERS
1000
1
  0
LINE
  5
13F4
330
1F
100
AcDbEntity
  8
P-0000
  6
Continuous
 62
     7
100
AcDbLine
 10
2421.756861104533
 20
1662.786385725317
 30
0.0
 11
2420.756861104532
 21
1662.786385725317
 31
0.0
1001
ACME_LAYERS
1000
1
  0
LINE
  5
13F5
330
1F
100
AcDbEntity
  8
P-0000
  6
Continuous
 62
     7
100
AcDbLine
 10
2382.516621336263
 20
1645.792037023749
 30
0.0
 11
2392.516621336262
 21
1645.792037023747
 31
0.0
1001
ACME_LAYERS
1000
1
  0
LINE
  5
13F6
330
1F
100
AcDbEntity
  8
P-0000
  6
Continuous
 62
     7
100
AcDbLine
 10
2382.516621336263
 20
1643.792037023748
 30
0.0
 11
2392.516621336262
 21
1643.792037023748
 31
0.0
1001
ACME_LAYERS
1000
1
  0
LINE
  5
13F7
330
1F
100
AcDbEntity
  8
P-0000
  6
Continuous
 62
     7
100
AcDbLine
 10
2411.205730167939
 20
1647.792037023747
 30
0.0
 11
2411.205730167939
 21
1660.286385725317
 31
0.0
1001
ACME_LAYERS
1000
1
  0
LINE
  5
13F8
330
1F
100
AcDbEntity
  8
P-0000
  6
Continuous
 62
     7
100
AcDbLine
 10
2409.266621336254
 20
1647.792037023747
 30
0.0
 11
2409.266621336254
 21
1662.786385725317
 31
0.0
1001
ACME_LAYERS
1000
1
  0
LINE
  5
13F9
330
1F
100
AcDbEntity
  8
P-0000
  6
Continuous
 62
     7
100
AcDbLine
 10
2399.454929538701
 20
1645.792037023747
 30
0.0
 11
2409.266621336254
 21
1662.786385725317
 31
0.0
1001
ACME_LAYERS
1000
1
  0
LINE
  5
13FA
330
1F
100
AcDbEntity
  8
P-0000
  6
Continuous
 62
     7
100
AcDbLine
 10
2409.266621336254
 20
1665.286385725317
 30
0.0
 11
2411.266621336255
 21
1665.286385725317
 31
0.0
1001
ACME_LAYERS
1000
1
  0
LINE
  5
13FB
330
1F
100
AcDbEntity
  8
P-0000
  6
Continuous
 62
     7
100
AcDbLine
 10
2411.266621336255
 20
1665.286385725317
 30
0.0
 11
2411.266621336255
 21
1663.286385725317
 31
0.0
1001
ACME_LAYERS
1000
1
  0
ARC
  5
13FC
330
1F
100
AcDbEntity
  8
P-0000
  6
Continuous
 62
     7
100
AcDbCircle
 10
2411.766621336252
 20
1663.286385725317
 30
0.0
 40
0.5
100
AcDbArc
 50
180.0
 51
270.0
1001
ACME_LAYERS
1000
1
  0
ARC
  5
13FD
330
1F
100
AcDbEntity
  8
P-0000
  6
Continuous
 62
     7
100
AcDbCircle
 10
2411.70573016794
 20
1660.286385725317
 30
0.0
 40
0.5
100
AcDbArc
 50
90.0
 51
180.0
1001
ACME_LAYERS
1000
1
  0
LINE
  5
13FE
330
1F
100
AcDbEntity
  8
P-0000
  6
Continuous
 62
     7
100
AcDbLine
 10
2409.266621336254
 20
1665.286385725317
 30
0.0
 11
2409.266621336254
 21
1662.786385725317
 31
0.0
1001
ACME_LAYERS
1000
1
  0
LINE
  5
13FF
330
1F
100
AcDbEntity
  8
P-0000
  6
Continuous
 62
     7
100
AcDbLine
 10
2399.454929538701
 20
1645.792037023747
 30
0.0
 11
2407.266621336254
 21
1645.792037023747
 31
0.0
1001
ACME_LAYERS
1000
1
  0
LINE
  5
1400
330
1F
100
AcDbEntity
  8
P-0000
  6
Continuous
 62
     7
100
AcDbLine
 10
2392.516621336262
 20
1643.792037023748
 30
0.0
 11
2407.205730167938
 21
1643.792037023748
 31
0.0
1001
ACME_LAYERS
1000
1
  0
ARC
  5
1401
330
1F
100
AcDbEntity
  8
P-0000
  6
Continuous
 62
     7
100
AcDbCircle
 10
2407.266621336254
 20
1647.792037023747
 30
0.0
 40
2.0
100
AcDbArc
 50
270.0
 51
0.0
1001
ACME_LAYERS
1000
1
  0
ARC
  5
1402
330
1F
100
AcDbEntity
  8
P-0000
  6
Continuous
 62
     7
100
AcDbCircle
 10
2407.205730167938
 20
1647.792037023747
 30
0.0
 40
4.0
100
AcDbArc
 50
299.9999999999973
 51
0.0
1001
ACME_LAYERS
1000
1
  0
ARC
  5
1403
330
1F
100
AcDbEntity
  8
P-0000
  6
Continuous
 62
     7
100
AcDbCircle
 10
2407.205730167938
 20
1647.792037023747
 30
0.0
 40
4.000000000000031
100
AcDbArc
 50
270.0
 51
299.9999999999973
1001
ACME_LAYERS
1000
1
  0
LINE
  5
1404
330
1F
100
AcDbEntity
  8
P-0000
  6
Continuous
 62
     7
100
AcDbLine
 10
2392.516621336262
 20
1645.792037023747
 30
0.0
 11
2399.454929538701
 21
1645.792037023747
 31
0.0
1001
ACME_LAYERS
1000
1
  0
LINE
  5
1405
330
1F
100
AcDbEntity
  8
P-0000
  6
Continuous
 62
     7
100
AcDbLine
 10
2392.516621336262
 20
1643.792037023748
 30
0.0
 11
2392.516621336262
 21
1645.792037023747
 31
0.0
1001
ACME_LAYERS
1000
1
  0
HATCH
  5
1406
330
1F
100
AcDbEntity
  8
P-0000
  6
Continuous
 62
     1
100
AcDbHatch
 10
0.0
 20
0.0
 30
0.0
210
0.0
220
0.0
230
1.0
  2
_U
 70
     0
 71
     0
 91
        1
 92
        1
 93
        4
 72
     1
 10
2377.516621336263
 20
1643.792037023748
 11
2382.516621336263
 21
1643.792037023748
 72
     1
 10
2382.516621336263
 20
1643.792037023748
 11
2382.516621336263
 21
1645.792037023749
 72
     1
 10
2382.516621336263
 20
1645.792037023749
 11
2377.516621336263
 21
1645.792037023749
 72
     1
 10
2377.516621336263
 20
1645.792037023749
 11
2377.516621336263
 21
1643.792037023748
 97
        0
 75
     0
 76
     0
 52
44.99999999999999
 41
1.0
 77
     0
 78
     1
 53
45.0
 43
2236.932893217661
 44
1471.448015249526
 45
-0.7071067811865475
 46
0.7071067811865476
 79
     0
 98
        1
 10
2378.327512504561
 20
1154.37071738222
1001
ACME_LAYERS
1000
1
1001
ACAD
1010
0.0
1020
0.0
1030
0.0
  0
LINE
  5
1407
330
1F
100
AcDbEntity
  8
P-0000
  6
Continuous
 62
     7
100
AcDbLine
 10
2377.516621336263
 20
1645.792037023749
 30
0.0
 11
2382.516621336263
 21
1645.792037023749
 31
0.0
1001
ACME_LAYERS
1000
1
  0
LINE
  5
1408
330
1F
100
AcDbEntity
  8
P-0000
  6
Continuous
 62
     7
100
AcDbLine
 10
2377.516621336263
 20
1643.792037023748
 30
0.0
 11
2382.516621336263
 21
1643.792037023748
 31
0.0
1001
ACME_LAYERS
1000
1
  0
LINE
  5
1409
330
1F
100
AcDbEntity
  8
P-0000
  6
Continuous
 62
     7
100
AcDbLine
 10
2382.516621336263
 20
1643.792037023748
 30
0.0
 11
2382.516621336263
 21
1645.792037023749
 31
0.0
1001
ACME_LAYERS
1000
1
  0
LINE
  5
140A
330
1F
100
AcDbEntity
  8
P-0000
  6
Continuous
 62
     7
100
AcDbLine
 10
2377.516621336263
 20
1643.792037023748
 30
0.0
 11
2377.516621336263
 21
1645.792037023749
 31
0.0
1001
ACME_LAYERS
1000
1
  0
LINE
  5
140B
330
1F
100
AcDbEntity
  8
P-0000
  6
Continuous
 62
     7
100
AcDbLine
 10
2502.766621336255
 20
1704.737214142333
 30
0.0
 11
2502.766621336255
 21
1668.737214142335
 31
0.0
1001
ACME_LAYERS
1000
1
  0
LINE
  5
140C
330
1F
100
AcDbEntity
  8
P-0000
  6
Continuous
 62
     7
100
AcDbLine
 10
2427.818950925275
 20
1687.306343341624
 30
0.0
 11
2426.84016170899
 21
1684.617142071476
 31
0.0
1001
ACME_LAYERS
1000
1
  0
LINE
  5
140D
330
1F
100
AcDbEntity
  8
P-0000
  6
Continuous
 62
     7
100
AcDbLine
 10
2436.49091832139
 20
1668.737214142335
 30
0.0
 11
2449.593846754976
 21
1704.737214142333
 31
0.0
1001
ACME_LAYERS
1000
1
  0
LINE
  5
140E
330
1F
100
AcDbEntity
  8
P-0000
  6
Continuous
 62
     7
100
AcDbLine
 10
2502.766621336255
 20
1710.706863241966
 30
0.0
 11
2451.766621336255
 21
1710.706863241966
 31
0.0
1001
ACME_LAYERS
1000
1
  0
LINE
  5
140F
330
1F
100
AcDbEntity
  8
P-0000
  6
Continuous
 62
     7
100
AcDbLine
 10
2502.766621336255
 20
1710.706863241966
 30
0.0
 11
2451.766621336255
 21
1710.706863241966
 31
0.0
1001
ACME_LAYERS
1000
1
  0
LINE
  5
1410
330
1F
100
AcDbEntity
  8
P-0000
  6
Continuous
 62
     7
100
AcDbLine
 10
2456.396628414706
 20
1742.737214142335
 30
0.0
 11
2463.424715657093
 21
1742.737214142335
 31
0.0
1001
ACME_LAYERS
1000
1
  0
LINE
  5
1411
330
1F
100
AcDbEntity
  8
P-0000
  6
Continuous
 62
     7
100
AcDbLine
 10
2450.766621336255
 20
1704.737214142333
 30
0.0
 11
2502.766621336255
 21
1704.737214142333
 31
0.0
1001
ACME_LAYERS
1000
1
  0
LINE
  5
1412
330
1F
100
AcDbEntity
  8
P-0000
  6
Continuous
 62
     7
100
AcDbLine
 10
2457.965162143099
 20
1727.737214142333
 30
0.0
 11
2500.162458280221
 21
1727.737214142333
 31
0.0
1001
ACME_LAYERS
1000
1
  0
LINE
  5
1413
330
1F
100
AcDbEntity
  8
P-0000
  6
Continuous
 62
     7
100
AcDbLine
 10
2502.766621336255
 20
1727.737214142333
 30
0.0
 11
2502.766621336255
 21
1710.706863241966
 31
0.0
1001
ACME_LAYERS
1000
1
  0
LINE
  5
1414
330
1F
100
AcDbEntity
  8
P-0000
  6
Continuous
 62
     7
100
AcDbLine
 10
2465.553071202044
 20
1742.737214142334
 30
0.0
 11
2500.162458280222
 21
1742.737214142334
 31
0.0
1001
ACME_LAYERS
1000
1
  0
LINE
  5
1415
330
1F
100
AcDbEntity
  8
P-0000
  6
Continuous
 62
     7
100
AcDbLine
 10
2500.162458280222
 20
1742.737214142334
 30
0.0
 11
2500.162458280221
 21
1727.737214142333
 31
0.0
1001
ACME_LAYERS
1000
1
  0
LINE
  5
1416
330
1F
100
AcDbEntity
  8
P-0000
  6
Continuous
 62
     7
100
AcDbLine
 10
2500.162458280222
 20
1742.737214142334
 30
0.0
 11
2504.266621336255
 21
1742.737214142334
 31
0.0
1001
ACME_LAYERS
1000
1
  0
LINE
  5
1417
330
1F
100
AcDbEntity
  8
P-0000
  6
Continuous
 62
     7
100
AcDbLine
 10
2500.162458280221
 20
1727.737214142333
 30
0.0
 11
2502.766621336255
 21
1727.737214142333
 31
0.0
1001
ACME_LAYERS
1000
1
  0
LINE
  5
1418
330
1F
100
AcDbEntity
  8
P-0000
  6
Continuous
 62
     7
100
AcDbLine
 10
2502.766621336255
 20
1727.737214142333
 30
0.0
 11
2504.266621336255
 21
1727.737214142333
 31
0.0
1001
ACME_LAYERS
1000
1
  0
HATCH
  5
1419
330
1F
100
AcDbEntity
  8
P-0000
  6
Continuous
 62
     1
100
AcDbHatch
 10
0.0
 20
0.0
 30
0.0
210
0.0
220
0.0
230
1.0
  2
_U
 70
     0
 71
     0
 91
        1
 92
        1
 93
        5
 72
     1
 10
2461.968834720027
 20
1738.737214142335
 11
2463.424715657093
 21
1742.737214142335
 72
     1
 10
2463.424715657093
 20
1742.737214142335
 11
2465.553071202044
 21
1742.737214142335
 72
     1
 10
2465.553071202044
 20
1742.737214142334
 11
2464.336675347556
 21
1739.395193999009
 72
     2
 10
2463.396982726769
 20
1739.737214142334
 40
1.000000000000015
 50
20.00000000000397
 51
90.00000000000088
 73
     0
 72
     1
 10
2463.396982726769
 20
1738.737214142335
 11
2461.968834720027
 21
1738.737214142335
 97
        0
 75
     0
 76
     0
 52
44.99999999999999
 41
1.0
 77
     0
 78
     1
 53
45.0
 43
-89.03549280664902
 44
510.3036289460752
 45
-0.7071067811865475
 46
0.7071067811865476
 79
     0
 98
        1
 10
2378.31775227284
 20
1174.258358473981
1001
ACME_LAYERS
1000
1
1001
ACAD
1010
0.0
1020
0.0
1030
0.0
  0
LINE
  5
141A
330
1F
100
AcDbEntity
  8
P-0000
  6
Continuous
 62
     7
100
AcDbLine
 10
2464.336675347556
 20
1739.395193999008
 30
0.0
 11
2465.553071202044
 21
1742.737214142334
 31
0.0
1001
ACME_LAYERS
1000
1
  0
LINE
  5
141B
330
1F
100
AcDbEntity
  8
P-0000
  6
Continuous
 62
     7
100
AcDbLine
 10
2461.968834720027
 20
1738.737214142335
 30
0.0
 11
2463.424715657093
 21
1742.737214142335
 31
0.0
1001
ACME_LAYERS
1000
1
  0
LINE
  5
141C
330
1F
100
AcDbEntity
  8
P-0000
  6
Continuous
 62
     7
100
AcDbLine
 10
2463.424715657093
 20
1742.737214142335
 30
0.0
 11
2465.553071202044
 21
1742.737214142334
 31
0.0
1001
ACME_LAYERS
1000
1
  0
ARC
  5
141D
330
1F
100
AcDbEntity
  8
P-0000
  6
Continuous
 62
     7
100
AcDbCircle
 10
2463.396982726769
 20
1739.737214142334
 30
0.0
 40
1.000000000000015
100
AcDbArc
 50
270.0
 51
339.9999999999985
1001
ACME_LAYERS
1000
1
  0
ARC
  5
141E
330
1F
100
AcDbEntity
  8
P-0000
  6
Continuous
 62
     7
100
AcDbCircle
 10
2463.396982726769
 20
1739.737214142334
 30
0.0
 40
1.000000000000015
100
AcDbArc
 50
270.0
 51
339.9999999999985
1001
ACME_LAYERS
1000
1
  0
LINE
  5
141F
330
1F
100
AcDbEntity
  8
P-0000
  6
Continuous
 62
     7
100
AcDbLine
 10
2461.968834720027
 20
1738.737214142335
 30
0.0
 11
2463.396982726769
 21
1738.737214142335
 31
0.0
1001
ACME_LAYERS
1000
1
  0
LINE
  5
1420
330
1F
100
AcDbEntity
  8
P-0000
  6
Continuous
 62
     7
100
AcDbLine
 10
2502.766621336255
 20
1704.737214142333
 30
0.0
 11
2504.266621336255
 21
1704.737214142333
 31
0.0
1001
ACME_LAYERS
1000
1
  0
LINE
  5
1421
330
1F
100
AcDbEntity
  8
P-0000
  6
Continuous
 62
     7
100
AcDbLine
 10
2445.120316965275
 20
1734.841455862243
 30
0.0
 11
2427.818950925275
 21
1687.306343341624
 31
0.0
1001
ACME_LAYERS
1000
1
  0
LINE
  5
1422
330
1F
100
AcDbEntity
  8
P-0000
  6
Continuous
 62
     7
100
AcDbLine
 10
2451.766621336255
 20
1710.706863241966
 30
0.0
 11
2457.965162143099
 21
1727.737214142333
 31
0.0
1001
ACME_LAYERS
1000
1
  0
ARC
  5
1423
330
1F
100
AcDbEntity
  8
P-0000
  6
Continuous
 62
     7
100
AcDbCircle
 10
2456.396628414706
 20
1730.737214142334
 30
0.0
 40
11.99999999999995
100
AcDbArc
 50
90.0
 51
159.9999999999985
1001
ACME_LAYERS
1000
1
  0
HATCH
  5
1424
330
1F
100
AcDbEntity
  8
P-0000
  6
Continuous
 62
     3
100
AcDbHatch
 10
0.0
 20
0.0
 30
0.0
210
0.0
220
0.0
230
1.0
  2
_U
 70
     0
 71
     0
 91
        1
 92
        1
 93
        4
 72
     1
 10
2449.593846754976
 20
1704.737214142333
 11
2451.766621336255
 21
1710.706863241966
 72
     1
 10
2451.766621336255
 20
1710.706863241966
 11
2451.766621336255
 21
1705.737214142334
 72
     2
 10
2450.766621336255
 20
1705.737214142334
 40
1.0
 50
0.0000000000008651
 51
90.00000000000088
 73
     0
 72
     1
 10
2450.766621336255
 20
1704.737214142333
 11
2449.593846754976
 21
1704.737214142333
 97
        0
 75
     0
 76
     0
 52
44.99999999999999
 41
1.0
 77
     0
 78
     1
 53
45.0
 43
-89.03549280664902
 44
510.3036289460752
 45
-0.7071067811865475
 46
0.7071067811865476
 79
     0
 98
        1
 10
2378.31775227284
 20
1174.258358473981
1001
ACME_LAYERS
1000
1
1001
ACAD
1010
0.0
1020
0.0
1030
0.0
  0
LINE
  5
1425
330
1F
100
AcDbEntity
  8
P-0000
  6
Continuous
 62
     7
100
AcDbLine
 10
2449.593846754976
 20
1704.737214142333
 30
0.0
 11
2450.766621336255
 21
1704.737214142333
 31
0.0
1001
ACME_LAYERS
1000
1
  0
LINE
  5
1426
330
1F
100
AcDbEntity
  8
P-0000
  6
Continuous
 62
     7
100
AcDbLine
 10
2449.593846754976
 20
1704.737214142333
 30
0.0
 11
2451.766621336255
 21
1710.706863241966
 31
0.0
1001
ACME_LAYERS
1000
1
  0
LINE
  5
1427
330
1F
100
AcDbEntity
  8
P-0000
  6
Continuous
 62
     7
100
AcDbLine
 10
2451.766621336255
 20
1705.737214142334
 30
0.0
 11
2451.766621336255
 21
1710.706863241966
 31
0.0
1001
ACME_LAYERS
1000
1
  0
LINE
  5
1428
330
1F
100
AcDbEntity
  8
P-0000
  6
Continuous
 62
     7
100
AcDbLine
 10
2451.766621336255
 20
1705.737214142334
 30
0.0
 11
2451.766621336255
 21
1710.706863241966
 31
0.0
1001
ACME_LAYERS
1000
1
  0
ARC
  5
1429
330
1F
100
AcDbEntity
  8
P-0000
  6
Continuous
 62
     7
100
AcDbCircle
 10
2450.766621336255
 20
1705.737214142334
 30
0.0
 40
1.0
100
AcDbArc
 50
270.0
 51
0.0
1001
ACME_LAYERS
1000
1
  0
ARC
  5
142A
330
1F
100
AcDbEntity
  8
P-0000
  6
Continuous
 62
     7
100
AcDbCircle
 10
2450.766621336255
 20
1705.737214142334
 30
0.0
 40
1.0
100
AcDbArc
 50
270.0
 51
0.0
1001
ACME_LAYERS
1000
1
  0
LINE
  5
142B
330
1F
100
AcDbEntity
  8
P-0000
  6
Continuous
 62
     7
100
AcDbLine
 10
2502.766621336255
 20
1668.737214142335
 30
0.0
 11
2436.49091832139
 21
1668.737214142335
 31
0.0
1001
ACME_LAYERS
1000
1
  0
LINE
  5
142C
330
1F
100
AcDbEntity
  8
P-0000
  6
Continuous
 62
     7
100
AcDbLine
 10
2502.766621336255
 20
1668.737214142335
 30
0.0
 11
2436.49091832139
 21
1668.737214142335
 31
0.0
1001
ACME_LAYERS
1000
1
  0
LINE
  5
142D
330
1F
100
AcDbEntity
  8
P-0000
  6
Continuous
 62
     7
100
AcDbLine
 10
2502.766621336255
 20
1668.737214142335
 30
0.0
 11
2436.49091832139
 21
1668.737214142335
 31
0.0
1001
ACME_LAYERS
1000
1
  0
LINE
  5
142E
330
1F
100
AcDbEntity
  8
P-0000
  6
Continuous
 62
     7
100
AcDbLine
 10
2436.49091832139
 20
1662.737214142335
 30
0.0
 11
2502.766621336255
 21
1662.737214142334
 31
0.0
1001
ACME_LAYERS
1000
1
  0
LINE
  5
142F
330
1F
100
AcDbEntity
  8
P-0000
  6
Continuous
 62
     7
100
AcDbLine
 10
2504.266621336255
 20
1668.737214142335
 30
0.0
 11
2502.766621336255
 21
1668.737214142335
 31
0.0
1001
ACME_LAYERS
1000
1
  0
LINE
  5
1430
330
1F
100
AcDbEntity
  8
P-0000
  6
Continuous
 62
     7
100
AcDbLine
 10
2504.266621336255
 20
1668.737214142335
 30
0.0
 11
2502.766621336255
 21
1668.737214142335
 31
0.0
1001
ACME_LAYERS
1000
1
  0
LINE
  5
1431
330
1F
100
AcDbEntity
  8
P-0000
  6
Continuous
 62
     7
100
AcDbLine
 10
2504.266621336255
 20
1668.737214142335
 30
0.0
 11
2502.766621336255
 21
1668.737214142335
 31
0.0
1001
ACME_LAYERS
1000
1
  0
LINE
  5
1432
330
1F
100
AcDbEntity
  8
P-0000
  6
Continuous
 62
     7
100
AcDbLine
 10
2502.766621336255
 20
1662.737214142334
 30
0.0
 11
2504.266621336255
 21
1662.737214142334
 31
0.0
1001
ACME_LAYERS
1000
1
  0
LINE
  5
1433
330
1F
100
AcDbEntity
  8
P-0000
  6
Continuous
 62
     7
100
AcDbLine
 10
2426.84016170899
 20
1684.617142071476
 30
0.0
 11
2419.266621336257
 21
1663.809010912059
 31
0.0
1001
ACME_LAYERS
1000
1
  0
LINE
  5
1434
330
1F
100
AcDbEntity
  8
P-0000
  6
Continuous
 62
     7
100
AcDbLine
 10
2425.266621336255
 20
1662.737214142335
 30
0.0
 11
2433.490918321389
 21
1662.737214142335
 31
0.0
1001
ACME_LAYERS
1000
1
  0
LINE
  5
1435
330
1F
100
AcDbEntity
  8
P-0000
  6
Continuous
 62
     7
100
AcDbLine
 10
2433.490918321389
 20
1662.737214142335
 30
0.0
 11
2433.490918321389
 21
1668.737214142335
 31
0.0
1001
ACME_LAYERS
1000
1
  0
LINE
  5
1436
330
1F
100
AcDbEntity
  8
P-0000
  6
Continuous
 62
     7
100
AcDbLine
 10
2436.49091832139
 20
1662.737214142335
 30
0.0
 11
2436.49091832139
 21
1668.737214142335
 31
0.0
1001
ACME_LAYERS
1000
1
  0
LINE
  5
1437
330
1F
100
AcDbEntity
  8
P-0000
  6
Continuous
 62
     7
100
AcDbLine
 10
2436.49091832139
 20
1668.737214142335
 30
0.0
 11
2433.490918321389
 21
1668.737214142335
 31
0.0
1001
ACME_LAYERS
1000
1
  0
LINE
  5
1438
330
1F
100
AcDbEntity
  8
P-0000
  6
Continuous
 62
     7
100
AcDbLine
 10
2436.49091832139
 20
1668.737214142335
 30
0.0
 11
2433.490918321389
 21
1668.737214142335
 31
0.0
1001
ACME_LAYERS
1000
1
  0
LINE
  5
1439
330
1F
100
AcDbEntity
  8
P-0000
  6
Continuous
 62
     7
100
AcDbLine
 10
2433.490918321389
 20
1662.737214142335
 30
0.0
 11
2436.49091832139
 21
1662.737214142335
 31
0.0
1001
ACME_LAYERS
1000
1
  0
LINE
  5
143A
330
1F
100
AcDbEntity
  8
P-0000
  6
Continuous
 62
     7
100
AcDbLine
 10
2418.766621336255
 20
1660.537214142334
 30
0.0
 11
2418.766621336255
 21
1662.737214142335
 31
0.0
1001
ACME_LAYERS
1000
1
  0
LINE
  5
143B
330
1F
100
AcDbEntity
  8
P-0000
  6
Continuous
 62
     7
100
AcDbLine
 10
2420.042851602806
 20
1656.780646373542
 30
0.0
 11
2425.266621336255
 21
1662.737214142335
 31
0.0
1001
ACME_LAYERS
1000
1
  0
LINE
  5
143C
330
1F
100
AcDbEntity
  8
P-0000
  6
Continuous
 62
     7
100
AcDbLine
 10
2419.266621336257
 20
1662.737214142335
 30
0.0
 11
2419.266621336257
 21
1663.809010912059
 31
0.0
1001
ACME_LAYERS
1000
1
  0
LINE
  5
143D
330
1F
100
AcDbEntity
  8
P-0000
  6
Continuous
 62
     7
100
AcDbLine
 10
2418.766621336255
 20
1662.737214142335
 30
0.0
 11
2419.266621336257
 21
1662.737214142335
 31
0.0
1001
ACME_LAYERS
1000
1
  0
LINE
  5
143E
330
1F
100
AcDbEntity
  8
P-0000
  6
Continuous
 62
     7
100
AcDbLine
 10
2419.266621336257
 20
1662.737214142335
 30
0.0
 11
2419.266621336257
 21
1663.809010912059
 31
0.0
1001
ACME_LAYERS
1000
1
  0
LINE
  5
143F
330
1F
100
AcDbEntity
  8
P-0000
  6
Continuous
 62
     7
100
AcDbLine
 10
2417.566621336255
 20
1659.037214142335
 30
0.0
 11
2419.125448528327
 21
1656.839672371135
 31
0.0
1001
ACME_LAYERS
1000
1
  0
LINE
  5
1440
330
1F
100
AcDbEntity
  8
P-0000
  6
Continuous
 62
     7
100
AcDbLine
 10
2418.766621336255
 20
1660.537214142334
 30
0.0
 11
2417.566621336255
 21
1660.537214142334
 31
0.0
1001
ACME_LAYERS
1000
1
  0
LINE
  5
1441
330
1F
100
AcDbEntity
  8
P-0000
  6
Continuous
 62
     7
100
AcDbLine
 10
2417.566621336255
 20
1660.537214142334
 30
0.0
 11
2417.566621336255
 21
1659.037214142335
 31
0.0
1001
ACME_LAYERS
1000
1
  0
ARC
  5
1442
330
1F
100
AcDbEntity
  8
P-0000
  6
Continuous
 62
     7
100
AcDbCircle
 10
2419.61482833041
 20
1657.186814142335
 30
0.0
 40
0.6000000000000229
100
AcDbArc
 50
215.3499999999974
 51
270.0
1001
ACME_LAYERS
1000
1
  0
ARC
  5
1443
330
1F
100
AcDbEntity
  8
P-0000
  6
Continuous
 62
     7
100
AcDbCircle
 10
2419.615054752349
 20
1657.155814142334
 30
0.0
 40
0.5689999999999894
100
AcDbArc
 50
270.0
 51
318.7499999999986
1001
ACME_LAYERS
1000
1
  0
LINE
  5
1444
330
1F
100
AcDbEntity
  8
P-0000
  6
Continuous
 62
     7
100
AcDbLine
 10
2419.61482833041
 20
1656.586814142334
 30
0.0
 11
2419.615054752349
 21
1656.586814142334
 31
0.0
1001
ACME_LAYERS
1000
1
  0
HATCH
  5
1445
330
1F
100
AcDbEntity
  8
P-0000
  6
Continuous
 62
     1
100
AcDbHatch
 10
0.0
 20
0.0
 30
0.0
210
0.0
220
0.0
230
1.0
  2
_U
 70
     0
 71
     0
 91
        1
 92
        1
 93
        4
 72
     1
 10
2433.490918321389
 20
1668.737214142335
 11
2436.49091832139
 21
1668.737214142335
 72
     1
 10
2436.49091832139
 20
1668.737214142335
 11
2436.49091832139
 21
1662.737214142335
 72
     1
 10
2436.49091832139
 20
1662.737214142335
 11
2433.490918321389
 21
1662.737214142335
 72
     1
 10
2433.490918321389
 20
1662.737214142335
 11
2433.490918321389
 21
1668.737214142335
 97
        0
 75
     0
 76
     0
 52
44.99999999999999
 41
1.0
 77
     0
 78
     1
 53
45.0
 43
-89.03549280664902
 44
510.3036289460752
 45
-0.7071067811865475
 46
0.7071067811865476
 79
     0
 98
        1
 10
2676.857648572319
 20
1781.23529717431
1001
ACAD
1010
0.0
1020
0.0
1030
0.0
1001
GENIUS_GENODEF_13
1002
{
1000
HIER
1070
     0
1002
}
1002
{
1000
MANEDIT
1070
     0
1002
}
1002
{
1000
NOSEL
1070
     0
1002
}
1002
{
1000
BEHIND
1070
     0
1002
}
1002
{
1000
OTHER
1070
     0
1002
}
1002
{
1000
REACTOR
1002
}
1001
GENIUS_GENOBJ-N-HTC_13
1002
{
1000
OWNER
1000
GEN
1002
}
1001
GENIUS_GENHATCH_13
1002
{
1000
DATA
1040
135.0
1042
-1.0
1000
_U
1070
     0
1011
2435.721941505941
1021
1663.195801188854
1031
0.0
1002
}
1002
{
1000
UCS
1010
0.0
1020
0.0
1030
0.0
1010
1.0
1020
0.0
1030
0.0
1010
0.0
1020
1.0
1030
0.0
1002
}
  0
LWPOLYLINE
  5
1446
330
1F
100
AcDbEntity
  8
0
100
AcDbPolyline
 90
        5
 70
     0
 43
0.0
 10
2500.162458280222
 20
1742.737214142334
 10
2507.388241630016
 20
1742.737214142334
 10
2507.388241630016
 20
1727.737214142333
 10
2500.162458280221
 20
1727.737214142333
 10
2500.162458280222
 20
1742.737214142334
  0
HATCH
  5
1447
330
1F
100
AcDbEntity
  8
AM_8
100
AcDbHatch
 10
0.0
 20
0.0
 30
0.0
210
0.0
220
0.0
230
1.0
  2
_U
 70
     0
 71
     0
 91
        1
 92
        1
 93
        4
 72
     1
 10
2507.388241630016
 20
1727.737214142333
 11
2507.388241630016
 21
1742.737214142334
 72
     1
 10
2507.388241630016
 20
1742.737214142334
 11
2503.77534995512
 21
1742.737214142334
 72
     1
 10
2503.77534995512
 20
1742.737214142334
 11
2503.77534995512
 21
1727.737214142333
 72
     1
 10
2503.77534995512
 20
1727.737214142333
 11
2507.388241630016
 21
1727.737214142333
 97
        0
 75
     0
 76
     0
 52
45.0
 41
2.5
 77
     0
 78
     1
 53
45.0
 43
-89.03549280664902
 44
510.3036289460752
 45
-1.767766952966368
 46
1.767766952966368
 79
     0
 98
        1
 10
-89.03549280664902
 20
510.3036289460752
1001
GENIUS_GENOBJ-N-HTC_13
1002
{
1000
OWNER
1000
GEN
1002
}
1001
GENIUS_GENODEF_13
1002
{
1000
HIER
1070
     0
1002
}
1002
{
1000
MANEDIT
1070
     0
1002
}
1002
{
1000
NOSEL
1070
     0
1002
}
1002
{
1000
BEHIND
1070
     0
1002
}
1002
{
1000
OTHER
1070
     0
1002
}
1002
{
1000
REACTOR
1002
}
1001
GENIUS_GENHATCH_13
1002
{
1000
DATA
1040
45.0
1042
2.5
1000
_U
1070
     0
1011
2504.687064618777
1021
1734.200911127446
1031
0.0
1002
}
1002
{
1000
UCS
1010
0.0
1020
0.0
1030
0.0
1010
1.0
1020
0.0
1030
0.0
1010
0.0
1020
1.0
1030
0.0
1002
}
  0
HATCH
  5
1448
330
1F
100
AcDbEntity
  8
AM_8
100
AcDbHatch
 10
0.0
 20
0.0
 30
0.0
210
0.0
220
0.0
230
1.0
  2
_U
 70
     0
 71
     0
 91
        1
 92
        1
 93
        4
 72
     1
 10
2503.77534995512
 20
1727.737214142333
 11
2503.77534995512
 21
1742.737214142334
 72
     1
 10
2503.77534995512
 20
1742.737214142334
 11
2500.162458280222
 21
1742.737214142334
 72
     1
 10
2500.162458280222
 20
1742.737214142334
 11
2500.162458280221
 21
1727.737214142333
 72
     1
 10
2500.162458280221
 20
1727.737214142333
 11
2503.77534995512
 21
1727.737214142333
 97
        0
 75
     0
 76
     0
 52
45.0
 41
2.5
 77
     0
 78
     1
 53
45.0
 43
-89.03549280664902
 44
510.3036289460752
 45
-1.767766952966368
 46
1.767766952966368
 79
     0
 98
        1
 10
-89.03549280664902
 20
510.3036289460752
1001
GENIUS_GENOBJ-N-HTC_13
1002
{
1000
OWNER
1000
GEN
1002
}
1001
GENIUS_GENODEF_13
1002
{
1000
HIER
1070
     0
1002
}
1002
{
1000
MANEDIT
1070
     0
1002
}
1002
{
1000
NOSEL
1070
     0
1002
}
1002
{
1000
BEHIND
1070
     0
1002
}
1002
{
1000
OTHER
1070
     0
1002
}
1002
{
1000
REACTOR
1002
}
1001
GENIUS_GENHATCH_13
1002
{
1000
DATA
1040
45.0
1042
2.5
1000
_U
1070
     0
1011
2501.565675288806
1021
1735.940745713567
1031
0.0
1002
}
1002
{
1000
UCS
1010
0.0
1020
0.0
1030
0.0
1010
1.0
1020
0.0
1030
0.0
1010
0.0
1020
1.0
1030
0.0
1002
}
  0
ARC
  5
1449
330
1F
100
AcDbEntity
  8
0
100
AcDbCircle
 10
2600.179876370727
 20
1647.175900173051
 30
0.0
 40
3.387888078812326
100
AcDbArc
 50
237.2068436404873
 51
272.7931563595038
  0
LINE
  5
144A
330
1F
100
AcDbEntity
  8
P-0000
  6
STRICHPUNKT
 62
     3
100
AcDbLine
 10
2503.757892717405
 20
1631.354969761889
 30
0.0
 11
2503.757892717405
 21
1656.939318463458
 31
0.0
1001
ACME_LAYERS
1000
1
  0
LINE
  5
144B
330
1F
100
AcDbEntity
  8
0
100
AcDbLine
 10
2502.275349955118
 20
1660.786385725316
 30
0.0
 11
2502.275349955118
 21
1643.792037023747
 31
0.0
  0
LINE
  5
144C
330
1F
100
AcDbEntity
  8
0
100
AcDbLine
 10
2505.257892717406
 20
1660.786385725316
 30
0.0
 11
2505.257892717406
 21
1643.792037023747
 31
0.0
  0
LINE
  5
144D
330
1F
100
AcDbEntity
  8
0
100
AcDbLine
 10
2596.614697547615
 20
1641.559986216178
 30
0.0
 11
2593.954131610641
 21
1643.059986216178
 31
0.0
  0
LINE
  5
144E
330
1F
100
AcDbEntity
  8
0
100
AcDbLine
 10
2410.901087887197
 20
1641.559986216178
 30
0.0
 11
2413.986474041272
 21
1643.059986216178
 31
0.0
  0
LINE
  5
144F
330
1F
100
AcDbEntity
  8
P-0000
  6
Continuous
 62
     7
100
AcDbLine
 10
2357.534078573976
 20
1643.059986216182
 30
0.0
 11
2363.132154785327
 21
1639.827935408613
 31
0.0
1001
ACME_LAYERS
1000
1
  0
LINE
  5
1450
330
1F
100
AcDbEntity
  8
P-0000
  6
Continuous
 62
     7
100
AcDbLine
 10
2358.534078573975
 20
1644.792037023751
 30
0.0
 11
2364.132154785328
 21
1641.559986216182
 31
0.0
1001
ACME_LAYERS
1000
1
  0
ARC
  5
1451
330
1F
100
AcDbEntity
  8
P-0000
  6
Continuous
 62
     7
100
AcDbCircle
 10
2365.132154785329
 20
1643.29203702375
 30
0.0
 40
4.000000000000401
100
AcDbArc
 50
240.0000000000027
 51
270.0
1001
ACME_LAYERS
1000
1
  0
HATCH
  5
1452
330
1F
100
AcDbEntity
  8
P-0000
  6
Continuous
 62
     3
100
AcDbHatch
 10
0.0
 20
0.0
 30
0.0
210
0.0
220
0.0
230
1.0
  2
_U
 70
     0
 71
     0
 91
        1
 92
        1
 93
       19
 72
     2
 10
2371.377224324481
 20
1643.29203702375
 40
2.0
 50
269.9999999999983
 51
315.0000000000334
 73
     1
 72
     1
 10
2372.791437886855
 20
1641.877823461377
 11
2373.034078573974
 21
1642.120464148497
 72
     2
 10
2375.86250569872
 20
1639.29203702375
 40
4.0
 50
225.0000000000008
 51
269.9999999999755
 73
     0
 72
     1
 10
2375.862505698719
 20
1643.29203702375
 11
2378.300108411947
 21
1643.29203702375
 72
     1
 10
2378.300108411947
 20
1643.29203702375
 11
2379.710436940805
 21
1643.29203702375
 72
     1
 10
2379.710436940805
 20
1643.29203702375
 11
2382.534078573974
 21
1643.29203702375
 72
     1
 10
2382.534078573974
 20
1643.29203702375
 11
2382.534078573974
 21
1641.29203702375
 72
     1
 10
2382.534078573974
 20
1641.29203702375
 11
2375.862505698721
 21
1641.292037023751
 72
     1
 10
2375.86250569872
 20
1641.29203702375
 11
2375.034078573973
 21
1641.292037023751
 72
     1
 10
2375.034078573974
 20
1641.292037023751
 11
2374.448292136348
 21
1640.706250586124
 72
     1
 10
2374.448292136347
 20
1640.706250586124
 11
2374.205651449226
 21
1640.463609899006
 72
     2
 10
2371.377224324481
 20
1643.29203702375
 40
4.0
 50
44.99999999998384
 51
90.00000000000174
 73
     0
 72
     1
 10
2371.377224324481
 20
1639.29203702375
 11
2365.132154785329
 21
1639.292037023751
 72
     2
 10
2365.132154785329
 20
1643.29203702375
 40
4.000000000000401
 50
90.00000000000174
 51
119.9999999999984
 73
     0
 72
     1
 10
2363.132154785327
 20
1639.827935408613
 11
2357.534078573976
 21
1643.059986216182
 72
     1
 10
2357.534078573976
 20
1643.059986216182
 11
2358.534078573975
 21
1644.792037023751
 72
     1
 10
2358.534078573975
 20
1644.792037023751
 11
2364.132154785328
 21
1641.559986216182
 72
     2
 10
2365.132154785329
 20
1643.29203702375
 40
1.999999999999425
 50
239.9999999999888
 51
269.9999999999983
 73
     1
 72
     1
 10
2365.132154785329
 20
1641.292037023751
 11
2371.377224324481
 21
1641.292037023751
 97
        0
 75
     0
 76
     0
 52
44.99999999999999
 41
5.0
 77
     0
 78
     1
 53
44.99999999999827
 43
2444.500950559084
 44
1779.918002518124
 45
-3.535533905932628
 46
3.535533905932843
 79
     0
 98
        1
 10
2444.500950559084
 20
1779.918002518124
1001
ACME_LAYERS
1000
1
  0
LINE
  5
1453
330
1F
100
AcDbEntity
  8
0
100
AcDbLine
 10
2357.534078573976
 20
1643.059986216182
 30
0.0
 11
2358.534078573975
 21
1644.79203702375
 31
0.0
  0
LINE
  5
1454
330
1F
100
AcDbEntity
  8
P-0000
  6
Continuous
 62
     3
100
AcDbLine
 10
2384.261903802249
 20
1643.792037023748
 30
0.0
 11
2384.261903802249
 21
1630.054969761889
 31
0.0
  0
LINE
  5
1455
330
1F
100
AcDbEntity
  8
P-0000
  6
Continuous
 62
     3
100
AcDbLine
 10
2390.716621336261
 20
1643.792037023748
 30
0.0
 11
2390.716621336261
 21
1630.054969761889
 31
0.0
  0
LINE
  5
1456
330
1F
100
AcDbEntity
  8
AM_7
  6
AM_DIN_G_W050x2
100
AcDbLine
 10
2387.489262569255
 20
1656.939318463461
 30
0.0
 11
2387.489262569255
 21
1630.054969761889
 31
0.0
1001
GENIUS_GENODEF_13
1002
{
1000
HIER
1070
     0
1002
}
1002
{
1000
MANEDIT
1070
     0
1002
}
1002
{
1000
NOSEL
1070
     0
1002
}
1002
{
1000
BEHIND
1070
     0
1002
}
1002
{
1000
OTHER
1070
     0
1002
}
1002
{
1000
REACTOR
1002
}
1001
GENIUS_GENOBJ-N-CEN_13
1002
{
1000
OWNER
1000
GEN
1002
}
1001
GENIUS_GENCEN_19
1002
{
1040
3.0
1002
}
  0
LINE
  5
14B0
102
{ACAD_REACTORS
330
14C6
102
}
330
1F
100
AcDbEntity
  8
AM_8
100
AcDbLine
 10
2563.223157780354
 20
1530.460975740106
 30
0.0
 11
2729.566025499821
 21
1530.460975740106
 31
0.0
  0
DIMENSION
  5
14B3
102
{ACAD_XDICTIONARY
360
14C5
102
}
102
{ACAD_REACTORS
330
14C6
102
}
330
1F
100
AcDbEntity
  8
AM_5
100
AcDbDimension
  2
*D7
 10
2729.566025499821
 20
1530.460975740106
 30
0.0
 11
2704.788653560422
 21
1515.389578151539
 31
0.0
 70
   162
 71
     5
 42
0.0373353736064628
  3
AM_DIN$2
100
AcDb2LineAngularDimension
 13
2729.3493328252
 23
1524.255709425145
 33
0.0
 14
2668.862754024113
 24
1526.515048327279
 34
0.0
 15
2563.223157780354
 25
1530.460975740106
 35
0.0
 16
2705.577636677121
 26
1528.689265052925
 36
0.0
1001
ACAD_DSTYLE_DIMINSPECT
1070
   396
1000
100%
1070
   395
1000

1070
   394
1070
    33
1070
   393
1070
     0
1001
ACAD
1000
DSTYLE
1002
{
1070
    41
1040
5.0
1070
   140
1040
10.0
1070
   271
1070
     0
1002
}
  0
LINE
  5
15F1
330
1F
100
AcDbEntity
  8
P-0000
  6
Continuous
 62
     7
100
AcDbLine
 10
2410.965546123251
 20
1628.05496976189
 30
0.0
 11
2437.485366310879
 21
1628.05496976189
 31
0.0
1001
ACME_LAYERS
1000
1
  0
LINE
  5
15F2
330
1F
100
AcDbEntity
  8
P-0000
  6
Continuous
 62
     7
100
AcDbLine
 10
2437.485366310879
 20
1628.05496976189
 30
0.0
 11
2442.423157780357
 21
1628.05496976189
 31
0.0
1001
ACME_LAYERS
1000
1
  0
LINE
  5
15F3
330
1F
100
AcDbEntity
  8
P-0000
  6
Continuous
 62
     7
100
AcDbLine
 10
2596.680769437457
 20
1628.05496976189
 30
0.0
 11
2565.223157780354
 21
1628.05496976189
 31
0.0
1001
ACME_LAYERS
1000
1
  0
LINE
  5
15F4
330
1F
100
AcDbEntity
  8
P-0000
  6
Continuous
 62
     7
100
AcDbLine
 10
2589.144871052594
 20
1631.78702056946
 30
0.0
 11
2594.680769437457
 21
1628.590868146751
 31
0.0
1001
ACME_LAYERS
1000
1
  0
LINE
  5
15F5
330
1F
100
AcDbEntity
  8
P-0000
  6
Continuous
 62
     7
100
AcDbLine
 10
2589.144871052594
 20
1631.78702056946
 30
0.0
 11
2594.680769437457
 21
1628.590868146751
 31
0.0
1001
ACME_LAYERS
1000
1
  0
LINE
  5
15F6
330
1F
100
AcDbEntity
  8
0
100
AcDbLine
 10
2409.423157780358
 20
1628.054969761889
 30
0.0
 11
2409.423157780353
 21
1446.109098290037
 31
0.0
  0
LINE
  5
15F7
330
1F
100
AcDbEntity
  8
0
100
AcDbLine
 10
2442.423157780357
 20
1629.054969761889
 30
0.0
 11
2442.423157780357
 21
1479.109098290035
 31
0.0
  0
LINE
  5
15F8
330
1F
100
AcDbEntity
  8
0
100
AcDbLine
 10
2659.423157780356
 20
1436.770915560423
 30
0.0
 11
2660.762680657854
 21
1475.129831958772
 31
0.0
  0
LINE
  5
15F9
330
1F
100
AcDbEntity
  8
0
100
AcDbLine
 10
2664.357328818207
 20
1578.067087141739
 30
0.0
 11
2665.705085715378
 21
1616.661795013001
 31
0.0
  0
LINE
  5
15FA
330
1F
100
AcDbEntity
  8
0
100
AcDbLine
 10
2664.553398927291
 20
1583.681800446694
 30
0.0
 11
2563.223157780354
 21
1587.466761678155
 31
0.0
  0
LINE
  5
15FB
330
1F
100
AcDbEntity
  8
0
100
AcDbLine
 10
2665.705085715378
 20
1616.661795013001
 30
0.0
 11
2583.062770660058
 21
1619.748711169737
 31
0.0
  0
LINE
  5
15FC
330
1F
100
AcDbEntity
  8
0
100
AcDbLine
 10
2659.423157780356
 20
1436.770915560423
 30
0.0
 11
2409.423157780358
 21
1446.109098290037
 31
0.0
  0
LINE
  5
15FD
330
1F
100
AcDbEntity
  8
0
100
AcDbLine
 10
2660.574844568444
 20
1469.750910126729
 30
0.0
 11
2441.257086808304
 21
1477.943027317982
 31
0.0
  0
HATCH
  5
15FE
330
1F
100
AcDbEntity
  8
AM_8
100
AcDbHatch
 10
0.0
 20
0.0
 30
0.0
210
0.0
220
0.0
230
1.0
  2
_U
 70
     0
 71
     0
 91
        1
 92
        1
 93
        4
 72
     1
 10
2659.423157780356
 20
1436.770915560423
 11
2660.574844568443
 21
1469.750910126729
 72
     1
 10
2660.574844568444
 20
1469.750910126729
 11
2442.346035871149
 21
1477.902352096654
 72
     1
 10
2442.346035871148
 20
1477.902352096654
 11
2409.423157780358
 21
1446.109098290037
 72
     1
 10
2409.423157780358
 20
1446.109098290037
 11
2659.423157780356
 21
1436.770915560423
 97
        0
 75
     0
 76
     0
 52
45.0
 41
4.599999999999996
 77
     1
 78
     2
 53
45.0
 43
2129.1019869626
 44
1308.098772142278
 45
-3.252691193458116
 46
3.252691193458118
 79
     0
 53
135.0
 43
2129.1019869626
 44
1308.098772142278
 45
-3.252691193458118
 46
-3.252691193458116
 79
     0
 98
        1
 10
2129.1019869626
 20
1308.098772142278
1001
GENIUS_GENODEF_13
1002
{
1000
HIER
1070
     0
1002
}
1002
{
1000
MANEDIT
1070
     0
1002
}
1002
{
1000
NOSEL
1070
     0
1002
}
1002
{
1000
BEHIND
1070
     0
1002
}
1002
{
1000
OTHER
1070
     0
1002
}
1002
{
1000
REACTOR
1002
}
1001
GENIUS_GENOBJ-N-HTC_13
1002
{
1000
OWNER
1000
GEN
1002
}
1001
GENIUS_GENHATCH_13
1002
{
1000
DATA
1040
45.0
1042
2.299999999999998
1000
_U
1070
     1
1011
2546.395120389801
1021
1459.388466125681
1031
0.0
1002
}
1002
{
1000
UCS
1010
0.0
1020
0.0
1030
0.0
1010
1.0
1020
0.0
1030
0.0
1010
0.0
1020
1.0
1030
0.0
1002
}
  0
LINE
  5
15FF
330
1F
100
AcDbEntity
  8
0
100
AcDbLine
 10
2409.423157780358
 20
1446.109098290037
 30
0.0
 11
2447.667672677195
 21
1484.353613186874
 31
0.0
  0
LINE
  5
1600
330
1F
100
AcDbEntity
  8
0
100
AcDbLine
 10
2563.223157780354
 20
1599.909098290033
 30
0.0
 11
2591.369029252212
 21
1628.05496976189
 31
0.0
  0
HATCH
  5
1601
330
1F
100
AcDbEntity
  8
AM_8
100
AcDbHatch
 10
0.0
 20
0.0
 30
0.0
210
0.0
220
0.0
230
1.0
  2
_U
 70
     0
 71
     0
 91
        1
 92
        1
 93
        4
 72
     1
 10
2442.423157780357
 20
1479.109098290035
 11
2442.423157780357
 21
1628.05496976189
 72
     1
 10
2442.423157780357
 20
1628.05496976189
 11
2409.423157780358
 21
1628.05496976189
 72
     1
 10
2409.423157780358
 20
1628.054969761889
 11
2409.423157780353
 21
1446.109098290037
 72
     1
 10
2409.423157780353
 20
1446.109098290037
 11
2442.423157780357
 21
1479.109098290035
 97
        0
 75
     0
 76
     0
 52
45.0
 41
4.599999999999996
 77
     1
 78
     2
 53
45.0
 43
2165.781632033533
 44
2002.484460890835
 45
-3.252691193458116
 46
3.252691193458118
 79
     0
 53
135.0
 43
2165.781632033533
 44
2002.484460890835
 45
-3.252691193458118
 46
-3.252691193458116
 79
     0
 98
        1
 10
2165.781632033533
 20
2002.484460890835
1001
GENIUS_GENODEF_13
1002
{
1000
HIER
1070
     0
1002
}
1002
{
1000
MANEDIT
1070
     0
1002
}
1002
{
1000
NOSEL
1070
     0
1002
}
1002
{
1000
BEHIND
1070
     0
1002
}
1002
{
1000
OTHER
1070
     0
1002
}
1002
{
1000
REACTOR
1002
}
1001
GENIUS_GENOBJ-N-HTC_13
1002
{
1000
OWNER
1000
GEN
1002
}
1001
GENIUS_GENHATCH_13
1002
{
1000
DATA
1040
45.0
1042
2.299999999999998
1000
_U
1070
     1
1011
2425.364660197005
1021
1531.455446658937
1031
0.0
1002
}
1002
{
1000
UCS
1010
0.0
1020
0.0
1030
0.0
1010
1.0
1020
0.0
1030
0.0
1010
0.0
1020
1.0
1030
0.0
1002
}
  0
HATCH
  5
1602
330
1F
100
AcDbEntity
  8
AM_8
100
AcDbHatch
 10
0.0
 20
0.0
 30
0.0
210
0.0
220
0.0
230
1.0
  2
_U
 70
     0
 71
     0
 91
        1
 92
        1
 93
        5
 72
     1
 10
2664.553398927291
 20
1583.681800446694
 11
2665.705085715378
 21
1616.661795013001
 72
     1
 10
2665.705085715378
 20
1616.661795013001
 11
2583.062770660058
 21
1619.748711169737
 72
     1
 10
2583.062770660058
 20
1619.748711169737
 11
2563.223157780354
 21
1599.909098290033
 72
     1
 10
2563.223157780354
 20
1599.909098290033
 11
2563.223157780354
 21
1587.466761678155
 72
     1
 10
2563.223157780354
 20
1587.466761678155
 11
2664.553398927291
 21
1583.681800446694
 97
        0
 75
     0
 76
     0
 52
45.0
 41
4.599999999999996
 77
     1
 78
     2
 53
45.0
 43
2165.781632033533
 44
2002.484460890835
 45
-3.252691193458116
 46
3.252691193458118
 79
     0
 53
135.0
 43
2165.781632033533
 44
2002.484460890835
 45
-3.252691193458118
 46
-3.252691193458116
 79
     0
 98
        1
 10
2165.781632033533
 20
2002.484460890835
1001
GENIUS_GENOBJ-N-HTC_13
1002
{
1000
OWNER
1000
GEN
1002
}
1001
GENIUS_GENODEF_13
1002
{
1000
HIER
1070
     0
1002
}
1002
{
1000
MANEDIT
1070
     0
1002
}
1002
{
1000
NOSEL
1070
     0
1002
}
1002
{
1000
BEHIND
1070
     0
1002
}
1002
{
1000
OTHER
1070
     0
1002
}
1002
{
1000
REACTOR
1002
}
1001
GENIUS_GENHATCH_13
1002
{
1000
DATA
1040
45.0
1042
2.299999999999998
1000
_U
1070
     1
1011
2595.548656867761
1021
1603.253269099839
1031
0.0
1002
}
1002
{
1000
UCS
1010
0.0
1020
0.0
1030
0.0
1010
1.0
1020
0.0
1030
0.0
1010
0.0
1020
1.0
1030
0.0
1002
}
  0
HATCH
  5
1603
330
1F
100
AcDbEntity
  8
AM_8
100
AcDbHatch
 10
0.0
 20
0.0
 30
0.0
210
0.0
220
0.0
230
1.0
  2
_U
 70
     0
 71
     0
 91
        1
 92
        1
 93
        5
 72
     1
 10
2565.223157780354
 20
1628.05496976189
 11
2565.223157780354
 21
1619.05496976189
 72
     1
 10
2565.223157780354
 20
1619.05496976189
 11
2563.223157780353
 21
1617.05496976189
 72
     1
 10
2563.223157780353
 20
1617.054969761889
 11
2563.223157780354
 21
1599.909098290033
 72
     1
 10
2563.223157780354
 20
1599.909098290033
 11
2591.36902925221
 21
1628.054969761889
 72
     1
 10
2591.369029252212
 20
1628.05496976189
 11
2565.223157780354
 21
1628.05496976189
 97
        0
 75
     0
 76
     0
 52
45.0
 41
4.599999999999996
 77
     1
 78
     2
 53
45.0
 43
2122.11834615546
 44
1308.393594355314
 45
-3.252691193458116
 46
3.252691193458118
 79
     0
 53
135.0
 43
2122.11834615546
 44
1308.393594355314
 45
-3.252691193458118
 46
-3.252691193458116
 79
     0
 98
        1
 10
2122.11834615546
 20
1308.393594355314
1001
GENIUS_GENODEF_13
1002
{
1000
HIER
1070
     0
1002
}
1002
{
1000
MANEDIT
1070
     0
1002
}
1002
{
1000
NOSEL
1070
     0
1002
}
1002
{
1000
BEHIND
1070
     0
1002
}
1002
{
1000
OTHER
1070
     0
1002
}
1002
{
1000
REACTOR
1002
}
1001
GENIUS_GENOBJ-N-HTC_13
1002
{
1000
OWNER
1000
GEN
1002
}
1001
GENIUS_GENHATCH_13
1002
{
1000
DATA
1040
45.0
1042
2.299999999999998
1000
_U
1070
     1
1011
2577.417331329793
1021
1621.940087931147
1031
0.0
1002
}
1002
{
1000
UCS
1010
0.0
1020
0.0
1030
0.0
1010
1.0
1020
0.0
1030
0.0
1010
0.0
1020
1.0
1030
0.0
1002
}
  0
LWPOLYLINE
  5
161A
330
1F
100
AcDbEntity
  8
0
100
AcDbPolyline
 90
        3
 70
     0
 43
0.0
 10
2561.223157780354
 20
1592.389654980051
 10
2562.242178704053
 20
1592.168947654205
 10
2563.223157780354
 20
1592.369771756624
  0
ENDSEC
  0
SECTION
  2
OBJECTS
  0
DICTIONARY
  5
C
330
0
100
AcDbDictionary
281
     1
  3
ACAD_2007HEADERVARS_RT
350
18DA
  3
ACAD_COLOR
350
BE
  3
ACAD_GROUP
350
D
  3
ACAD_LAYOUT
350
1A
  3
ACAD_MATERIAL
350
BD
  3
ACAD_MLEADERSTYLE
350
3EF
  3
ACAD_MLINESTYLE
350
17
  3
ACAD_PLOTSETTINGS
350
19
  3
ACAD_PLOTSTYLENAME
350
E
  3
ACAD_SCALELIST
350
3DD
  3
ACAD_TABLESTYLE
350
11A
  3
ACAD_VISUALSTYLE
350
3CC
  3
ACDB_RECOMPOSE_DATA
350
1648
  3
AcDbVariableDictionary
350
94
  3
AcmDictionary
350
5B
  3
AcmSystemVariableManager
350
18E6
  3
AEC_PROPERTY_SET_DEFS
350
72E
  3
AMG
350
41
  3
AMGSNAPSETTINGS
350
26B
  3
DWGPROPS
350
18D9
  0
DICTIONARY
  5
49A
330
2
100
AcDbDictionary
280
     1
281
     1
  3
ACAD_LAYERSTATES
360
49B
  0
DICTIONARY
  5
15B5
330
10
100
AcDbDictionary
280
     1
281
     1
  3
ADSK_XREC_LAYER_RECONCILED
360
15B6
  0
DICTIONARY
  5
487
330
486
100
AcDbDictionary
280
     1
281
     1
  3
ADSK_XREC_LAYER_RECONCILED
360
15B7
  0
DICTIONARY
  5
48C
330
48B
100
AcDbDictionary
280
     1
281
     1
  3
ADSK_XREC_LAYER_RECONCILED
360
15B9
  0
DICTIONARY
  5
48E
330
48D
100
AcDbDictionary
280
     1
281
     1
  3
ADSK_XREC_LAYER_RECONCILED
360
15BA
  0
DICTIONARY
  5
15BB
330
48F
100
AcDbDictionary
280
     1
281
     1
  3
ADSK_XREC_LAYER_RECONCILED
360
15BC
  0
DICTIONARY
  5
8F
330
1F
100
AcDbDictionary
280
     1
281
     1
  0
DICTIONARY
  5
14C5
330
14B3
100
AcDbDictionary
280
     1
281
     1
  3
ACAD_DIMASSOC
360
14C6
  0
DICTIONARY
  5
18DA
102
{ACAD_REACTORS
330
C
102
}
330
C
100
AcDbDictionary
281
     1
  3
DIMJOGANG
350
18DB
  3
DIMLTEX1
350
18DD
  3
DIMLTEX2
350
18DE
  3
DIMLTYPE
350
18DC
  0
DICTIONARY
  5
BE
102
{ACAD_REACTORS
330
C
102
}
330
C
100
AcDbDictionary
281
     1
  0
DICTIONARY
  5
D
102
{ACAD_REACTORS
330
C
102
}
330
C
100
AcDbDictionary
281
     1
  0
DICTIONARY
  5
1A
102
{ACAD_REACTORS
330
C
102
}
330
C
100
AcDbDictionary
281
     1
  3
Layout1
350
1E
  3
Layout2
350
26
  3
Model
350
22
  0
DICTIONARY
  5
BD
102
{ACAD_REACTORS
330
C
102
}
330
C
100
AcDbDictionary
281
     1
  3
ByBlock
350
3BC
  3
ByLayer
350
3B4
  3
Global
350
3C4
  0
DICTIONARY
  5
3EF
102
{ACAD_REACTORS
330
C
102
}
330
C
100
AcDbDictionary
281
     1
  3
Standard
350
3F0
  0
DICTIONARY
  5
17
102
{ACAD_REACTORS
330
C
102
}
330
C
100
AcDbDictionary
281
     1
  3
Standard
350
18
  0
DICTIONARY
  5
19
102
{ACAD_REACTORS
330
C
102
}
330
C
100
AcDbDictionary
281
     1
  0
ACDBDICTIONARYWDFLT
  5
E
102
{ACAD_REACTORS
330
C
102
}
330
C
100
AcDbDictionary
281
     1
  3
Normal
350
F
100
AcDbDictionaryWithDefault
340
F
  0
DICTIONARY
  5
3DD
102
{ACAD_REACTORS
330
C
102
}
330
C
100
AcDbDictionary
281
     1
  3
A0
350
3DE
  3
A1
350
3DF
  3
A2
350
3E0
  3
A3
350
3E1
  3
A4
350
3E2
  3
A5
350
3E3
  3
A6
350
3E4
  3
A7
350
3E5
  3
A8
350
3E6
  3
A9
350
3E7
  3
B0
350
3E8
  3
B1
350
3E9
  3
B2
350
3EA
  3
B3
350
3EB
  3
B4
350
3EC
  3
B5
350
3ED
  3
B6
350
3EE
  0
DICTIONARY
  5
11A
102
{ACAD_REACTORS
330
C
102
}
330
C
100
AcDbDictionary
281
     1
  3
Standard
350
11B
  0
DICTIONARY
  5
3CC
102
{ACAD_REACTORS
330
C
102
}
330
C
100
AcDbDictionary
281
     1
  3
2dWireframe
350
3D2
  3
3D Hidden
350
3D4
  3
3dWireframe
350
3D3
  3
Basic
350
3D1
  3
Brighten
350
3D8
  3
ColorChange
350
3DC
  3
Conceptual
350
3D5
  3
Dim
350
3D7
  3
Facepattern
350
3DB
  3
Flat
350
3CD
  3
FlatWithEdges
350
3CE
  3
Gouraud
350
3CF
  3
GouraudWithEdges
350
3D0
  3
Linepattern
350
3DA
  3
Realistic
350
3D6
  3
Thicken
350
3D9
  0
XRECORD
  5
1648
102
{ACAD_REACTORS
330
C
102
}
330
C
100
AcDbXrecord
280
     1
 90
        1
330
11B
  0
DICTIONARY
  5
94
102
{ACAD_REACTORS
330
C
102
}
330
C
100
AcDbDictionary
281
     1
  3
CANNOSCALE
350
1645
  3
CMLEADERSTYLE
350
1644
  3
CTABLESTYLE
350
138
  3
DIMASSOC
350
96
  3
INDEXCTL
350
95
  3
SORTENTS
350
18D7
  0
DICTIONARY
  5
5B
102
{ACAD_REACTORS
330
C
102
}
330
C
100
AcDbDictionary
281
     1
  3
AcmBOM
350
272
  3
AcmStdDictionary
350
61
  3
AMDTSECTSYM_ARROWCOLOR
350
123
  0
DICTIONARY
  5
72E
102
{ACAD_REACTORS
330
C
102
}
330
C
100
AcDbDictionary
281
     1
  0
DICTIONARY
  5
41
102
{ACAD_REACTORS
330
C
102
}
330
C
100
AcDbDictionary
281
     1
  0
DICTIONARY
  5
26B
102
{ACAD_REACTORS
330
C
102
}
330
C
100
AcDbDictionary
281
     1
  0
XRECORD
  5
18D9
102
{ACAD_REACTORS
330
C
102
}
330
C
100
AcDbXrecord
280
     1
  1
DWGPROPS COOKIE
  2

  3

  4

  6

  7

  8
jamoeller
  9

300
AmdtFileType=84
301
=
302
=
303
=
304
=
305
=
306
=
307
=
308
=
309
=
 40
0.0342239236111111
 41
2455512.436305834
 42
2455609.639230764
  1

 90
        1
  0
DICTIONARY
  5
49B
102
{ACAD_REACTORS
330
49A
102
}
330
49A
100
AcDbDictionary
281
     1
  0
XRECORD
  5
15B6
102
{ACAD_REACTORS
330
15B5
102
}
330
15B5
100
AcDbXrecord
280
     1
290
     1
  0
XRECORD
  5
15B7
102
{ACAD_REACTORS
330
487
102
}
330
487
100
AcDbXrecord
280
     1
290
     1
  0
XRECORD
  5
15B9
102
{ACAD_REACTORS
330
48C
102
}
330
48C
100
AcDbXrecord
280
     1
290
     1
  0
XRECORD
  5
15BA
102
{ACAD_REACTORS
330
48E
102
}
330
48E
100
AcDbXrecord
280
     1
290
     1
  0
XRECORD
  5
15BC
102
{ACAD_REACTORS
330
15BB
102
}
330
15BB
100
AcDbXrecord
280
     1
290
     1
  0
DIMASSOC
  5
14C6
102
{ACAD_REACTORS
330
14C5
102
}
330
14C5
100
AcDbDimAssoc
330
14B3
 90
       15
 70
     0
 71
     0
  1
AcDbOsnapPointRef
 72
    13
331
87B
 73
     2
 91
        0
 40
0.0
 10
0.0
 20
0.0
 30
2.000000000000000E+50
 75
     0
  1
AcDbOsnapPointRef
 72
     1
331
87B
 73
     2
 91
        0
 40
0.0
 10
0.0
 20
0.0
 30
2.000000000000000E+50
 75
     0
  1
AcDbOsnapPointRef
 72
    13
331
14B0
 73
     2
 91
        0
 40
0.0
 10
0.0
 20
0.0
 30
2.000000000000000E+50
 75
     0
  1
AcDbOsnapPointRef
 72
     1
331
14B0
 73
     2
 91
        0
 40
0.0
 10
0.0
 20
0.0
 30
2.000000000000000E+50
 75
     0
  0
XRECORD
  5
18DB
102
{ACAD_REACTORS
330
18DA
102
}
330
18DA
100
AcDbXrecord
280
     1
 40
1.570796326794896
  0
XRECORD
  5
18DD
102
{ACAD_REACTORS
330
18DA
102
}
330
18DA
100
AcDbXrecord
280
     1
340
14
  0
XRECORD
  5
18DE
102
{ACAD_REACTORS
330
18DA
102
}
330
18DA
100
AcDbXrecord
280
     1
340
14
  0
XRECORD
  5
18DC
102
{ACAD_REACTORS
330
18DA
102
}
330
18DA
100
AcDbXrecord
280
     1
340
14
  0
LAYOUT
  5
1E
102
{ACAD_XDICTIONARY
360
18DF
102
}
102
{ACAD_REACTORS
330
1A
102
}
330
1A
100
AcDbPlotSettings
  1

  2

  4

  6

 40
0.0
 41
0.0
 42
0.0
 43
0.0
 44
0.0
 45
0.0
 46
0.0
 47
0.0
 48
0.0
 49
0.0
140
0.0
141
0.0
142
1.0
143
1.0
 70
   688
 72
     0
 73
     0
 74
     5
  7

 75
    16
147
1.0
148
0.0
149
0.0
100
AcDbLayout
  1
Layout1
 70
     1
 71
     1
 10
0.0
 20
0.0
 11
420.0
 21
297.0
 12
0.0
 22
0.0
 32
0.0
 14
1.000000000000000E+20
 24
1.000000000000000E+20
 34
1.000000000000000E+20
 15
-1.000000000000000E+20
 25
-1.000000000000000E+20
 35
-1.000000000000000E+20
146
0.0
 13
0.0
 23
0.0
 33
0.0
 16
1.0
 26
0.0
 36
0.0
 17
0.0
 27
1.0
 37
0.0
 76
     0
330
1B
  0
LAYOUT
  5
26
102
{ACAD_XDICTIONARY
360
18E3
102
}
102
{ACAD_REACTORS
330
1A
102
}
330
1A
100
AcDbPlotSettings
  1

  2

  4

  6

 40
0.0
 41
0.0
 42
0.0
 43
0.0
 44
0.0
 45
0.0
 46
0.0
 47
0.0
 48
0.0
 49
0.0
140
0.0
141
0.0
142
1.0
143
1.0
 70
   688
 72
     0
 73
     0
 74
     5
  7

 75
    16
147
1.0
148
0.0
149
0.0
100
AcDbLayout
  1
Layout2
 70
     1
 71
     2
 10
0.0
 20
0.0
 11
12.0
 21
9.0
 12
0.0
 22
0.0
 32
0.0
 14
0.0
 24
0.0
 34
0.0
 15
0.0
 25
0.0
 35
0.0
146
0.0
 13
0.0
 23
0.0
 33
0.0
 16
1.0
 26
0.0
 36
0.0
 17
0.0
 27
1.0
 37
0.0
 76
     0
330
23
  0
LAYOUT
  5
22
102
{ACAD_XDICTIONARY
360
18E1
102
}
102
{ACAD_REACTORS
330
1A
102
}
330
1A
100
AcDbPlotSettings
  1

  2

  4

  6

 40
0.0
 41
0.0
 42
0.0
 43
0.0
 44
0.0
 45
0.0
 46
0.0
 47
0.0
 48
0.0
 49
0.0
140
0.0
141
0.0
142
1.0
143
1.0
 70
  1712
 72
     0
 73
     0
 74
     0
  7

 75
     0
147
1.0
148
0.0
149
0.0
100
AcDbLayout
  1
Model
 70
     1
 71
     0
 10
0.0
 20
0.0
 11
12.0
 21
9.0
 12
0.0
 22
0.0
 32
0.0
 14
0.0
 24
0.0
 34
0.0
 15
0.0
 25
0.0
 35
0.0
146
0.0
 13
0.0
 23
0.0
 33
0.0
 16
1.0
 26
0.0
 36
0.0
 17
0.0
 27
1.0
 37
0.0
 76
     0
330
1F
331
3B2
  0
MATERIAL
  5
3BC
102
{ACAD_XDICTIONARY
360
3BD
102
}
102
{ACAD_REACTORS
330
BD
102
}
330
BD
100
AcDbMaterial
  1
ByBlock
 72
     0
 43
0.0008202099737533
 43
0.0
 43
0.0
 43
0.0
 43
0.0
 43
0.0008202099737533
 43
0.0
 43
0.0
 43
0.0
 43
0.0
 43
1.0
 43
0.0
 43
0.0
 43
0.0
 43
0.0
 43
1.0
 77
     0
 47
0.0008202099737533
 47
0.0
 47
0.0
 47
0.0
 47
0.0
 47
0.0008202099737533
 47
0.0
 47
0.0
 47
0.0
 47
0.0
 47
1.0
 47
0.0
 47
0.0
 47
0.0
 47
0.0
 47
1.0
171
     0
 49
0.0008202099737533
 49
0.0
 49
0.0
 49
0.0
 49
0.0
 49
0.0008202099737533
 49
0.0
 49
0.0
 49
0.0
 49
0.0
 49
1.0
 49
0.0
 49
0.0
 49
0.0
 49
0.0
 49
1.0
175
     0
142
0.0008202099737533
142
0.0
142
0.0
142
0.0
142
0.0
142
0.0008202099737533
142
0.0
142
0.0
142
0.0
142
0.0
142
1.0
142
0.0
142
0.0
142
0.0
142
0.0
142
1.0
179
     0
144
0.0008202099737533
144
0.0
144
0.0
144
0.0
144
0.0
144
0.0008202099737533
144
0.0
144
0.0
144
0.0
144
0.0
144
1.0
144
0.0
144
0.0
144
0.0
144
0.0
144
1.0
147
0.0008202099737533
147
0.0
147
0.0
147
0.0
147
0.0
147
0.0008202099737533
147
0.0
147
0.0
147
0.0
147
0.0
147
1.0
147
0.0
147
0.0
147
0.0
147
0.0
147
1.0
  0
MATERIAL
  5
3B4
102
{ACAD_XDICTIONARY
360
3B5
102
}
102
{ACAD_REACTORS
330
BD
102
}
330
BD
100
AcDbMaterial
  1
ByLayer
 72
     0
 43
0.0008202099737533
 43
0.0
 43
0.0
 43
0.0
 43
0.0
 43
0.0008202099737533
 43
0.0
 43
0.0
 43
0.0
 43
0.0
 43
1.0
 43
0.0
 43
0.0
 43
0.0
 43
0.0
 43
1.0
 77
     0
 47
0.0008202099737533
 47
0.0
 47
0.0
 47
0.0
 47
0.0
 47
0.0008202099737533
 47
0.0
 47
0.0
 47
0.0
 47
0.0
 47
1.0
 47
0.0
 47
0.0
 47
0.0
 47
0.0
 47
1.0
171
     0
 49
0.0008202099737533
 49
0.0
 49
0.0
 49
0.0
 49
0.0
 49
0.0008202099737533
 49
0.0
 49
0.0
 49
0.0
 49
0.0
 49
1.0
 49
0.0
 49
0.0
 49
0.0
 49
0.0
 49
1.0
175
     0
142
0.0008202099737533
142
0.0
142
0.0
142
0.0
142
0.0
142
0.0008202099737533
142
0.0
142
0.0
142
0.0
142
0.0
142
1.0
142
0.0
142
0.0
142
0.0
142
0.0
142
1.0
179
     0
144
0.0008202099737533
144
0.0
144
0.0
144
0.0
144
0.0
144
0.0008202099737533
144
0.0
144
0.0
144
0.0
144
0.0
144
1.0
144
0.0
144
0.0
144
0.0
144
0.0
144
1.0
147
0.0008202099737533
147
0.0
147
0.0
147
0.0
147
0.0
147
0.0008202099737533
147
0.0
147
0.0
147
0.0
147
0.0
147
1.0
147
0.0
147
0.0
147
0.0
147
0.0
147
1.0
  0
MATERIAL
  5
3C4
102
{ACAD_XDICTIONARY
360
3C5
102
}
102
{ACAD_REACTORS
330
BD
102
}
330
BD
100
AcDbMaterial
  1
Global
 72
     0
 43
0.0008202099737533
 43
0.0
 43
0.0
 43
0.0
 43
0.0
 43
0.0008202099737533
 43
0.0
 43
0.0
 43
0.0
 43
0.0
 43
1.0
 43
0.0
 43
0.0
 43
0.0
 43
0.0
 43
1.0
 77
     0
 47
0.0008202099737533
 47
0.0
 47
0.0
 47
0.0
 47
0.0
 47
0.0008202099737533
 47
0.0
 47
0.0
 47
0.0
 47
0.0
 47
1.0
 47
0.0
 47
0.0
 47
0.0
 47
0.0
 47
1.0
171
     0
 49
0.0008202099737533
 49
0.0
 49
0.0
 49
0.0
 49
0.0
 49
0.0008202099737533
 49
0.0
 49
0.0
 49
0.0
 49
0.0
 49
1.0
 49
0.0
 49
0.0
 49
0.0
 49
0.0
 49
1.0
175
     0
142
0.0008202099737533
142
0.0
142
0.0
142
0.0
142
0.0
142
0.0008202099737533
142
0.0
142
0.0
142
0.0
142
0.0
142
1.0
142
0.0
142
0.0
142
0.0
142
0.0
142
1.0
179
     0
144
0.0008202099737533
144
0.0
144
0.0
144
0.0
144
0.0
144
0.0008202099737533
144
0.0
144
0.0
144
0.0
144
0.0
144
1.0
144
0.0
144
0.0
144
0.0
144
0.0
144
1.0
147
0.0008202099737533
147
0.0
147
0.0
147
0.0
147
0.0
147
0.0008202099737533
147
0.0
147
0.0
147
0.0
147
0.0
147
1.0
147
0.0
147
0.0
147
0.0
147
0.0
147
1.0
  0
MLEADERSTYLE
  5
3F0
102
{ACAD_REACTORS
330
3EF
102
}
330
3EF
100
AcDbMLeaderStyle
170
     2
171
     1
172
     0
 90
        2
 40
0.0
 41
0.0
173
     1
 91
-1056964608
340
14
 92
       -2
290
     1
 42
2.0
291
     1
 43
0.36
  3
Standard
 44
4.0
300

342
11
174
     1
178
     6
175
     1
176
     0
 93
-1056964608
 45
4.0
292
     0
297
     0
 46
4.0
 94
-1056964608
 47
1.0
 49
1.0
140
1.0
293
     1
141
0.0
294
     1
177
     0
142
1.0
295
     0
296
     0
143
0.125
1001
ACAD_MLEADERVER
1070
     2
  0
MLINESTYLE
  5
18
102
{ACAD_REACTORS
330
17
102
}
330
17
100
AcDbMlineStyle
  2
STANDARD
 70
     0
  3

 62
   256
 51
90.0
 52
90.0
 71
     2
 49
0.5
 62
   256
  6
BYLAYER
 49
-0.5
 62
   256
  6
BYLAYER
  0
ACDBPLACEHOLDER
  5
F
102
{ACAD_REACTORS
330
E
102
}
330
E
  0
SCALE
  5
3DE
102
{ACAD_REACTORS
330
3DD
102
}
330
3DD
100
AcDbScale
 70
     0
300
1:1
140
1.0
141
1.0
290
     1
  0
SCALE
  5
3DF
102
{ACAD_REACTORS
330
3DD
102
}
330
3DD
100
AcDbScale
 70
     0
300
1:2
140
1.0
141
2.0
290
     0
  0
SCALE
  5
3E0
102
{ACAD_REACTORS
330
3DD
102
}
330
3DD
100
AcDbScale
 70
     0
300
1:4
140
1.0
141
4.0
290
     0
  0
SCALE
  5
3E1
102
{ACAD_REACTORS
330
3DD
102
}
330
3DD
100
AcDbScale
 70
     0
300
1:5
140
1.0
141
5.0
290
     0
  0
SCALE
  5
3E2
102
{ACAD_REACTORS
330
3DD
102
}
330
3DD
100
AcDbScale
 70
     0
300
1:8
140
1.0
141
8.0
290
     0
  0
SCALE
  5
3E3
102
{ACAD_REACTORS
330
3DD
102
}
330
3DD
100
AcDbScale
 70
     0
300
1:10
140
1.0
141
10.0
290
     0
  0
SCALE
  5
3E4
102
{ACAD_REACTORS
330
3DD
102
}
330
3DD
100
AcDbScale
 70
     0
300
1:16
140
1.0
141
16.0
290
     0
  0
SCALE
  5
3E5
102
{ACAD_REACTORS
330
3DD
102
}
330
3DD
100
AcDbScale
 70
     0
300
1:20
140
1.0
141
20.0
290
     0
  0
SCALE
  5
3E6
102
{ACAD_REACTORS
330
3DD
102
}
330
3DD
100
AcDbScale
 70
     0
300
1:30
140
1.0
141
30.0
290
     0
  0
SCALE
  5
3E7
102
{ACAD_REACTORS
330
3DD
102
}
330
3DD
100
AcDbScale
 70
     0
300
1:40
140
1.0
141
40.0
290
     0
  0
SCALE
  5
3E8
102
{ACAD_REACTORS
330
3DD
102
}
330
3DD
100
AcDbScale
 70
     0
300
1:50
140
1.0
141
50.0
290
     0
  0
SCALE
  5
3E9
102
{ACAD_REACTORS
330
3DD
102
}
330
3DD
100
AcDbScale
 70
     0
300
1:100
140
1.0
141
100.0
290
     0
  0
SCALE
  5
3EA
102
{ACAD_REACTORS
330
3DD
102
}
330
3DD
100
AcDbScale
 70
     0
300
2:1
140
2.0
141
1.0
290
     0
  0
SCALE
  5
3EB
102
{ACAD_REACTORS
330
3DD
102
}
330
3DD
100
AcDbScale
 70
     0
300
4:1
140
4.0
141
1.0
290
     0
  0
SCALE
  5
3EC
102
{ACAD_REACTORS
330
3DD
102
}
330
3DD
100
AcDbScale
 70
     0
300
8:1
140
8.0
141
1.0
290
     0
  0
SCALE
  5
3ED
102
{ACAD_REACTORS
330
3DD
102
}
330
3DD
100
AcDbScale
 70
     0
300
10:1
140
10.0
141
1.0
290
     0
  0
SCALE
  5
3EE
102
{ACAD_REACTORS
330
3DD
102
}
330
3DD
100
AcDbScale
 70
     0
300
100:1
140
100.0
141
1.0
290
     0
  0
TABLESTYLE
  5
11B
102
{ACAD_XDICTIONARY
360
1646
102
}
102
{ACAD_REACTORS
330
11A
102
}
330
11A
100
AcDbTableStyle
  3
Standard
 70
     0
 71
     0
 40
1.5
 41
1.5
280
     0
281
     0
  7
STANDARD
140
4.5
170
     2
 62
     0
 63
     7
283
     0
274
    -2
284
     1
 64
     0
275
    -2
285
     1
 65
     0
276
    -2
286
     1
 66
     0
277
    -2
287
     1
 67
     0
278
    -2
288
     1
 68
     0
279
    -2
289
     1
 69
     0
  7
STANDARD
140
6.0
170
     5
 62
     0
 63
     7
283
     0
274
    -2
284
     1
 64
     0
275
    -2
285
     1
 65
     0
276
    -2
286
     1
 66
     0
277
    -2
287
     1
 67
     0
278
    -2
288
     1
 68
     0
279
    -2
289
     1
 69
     0
  7
STANDARD
140
4.5
170
     5
 62
     0
 63
     7
283
     0
274
    -2
284
     1
 64
     0
275
    -2
285
     1
 65
     0
276
    -2
286
     1
 66
     0
277
    -2
287
     1
 67
     0
278
    -2
288
     1
 68
     0
279
    -2
289
     1
 69
     0
  0
VISUALSTYLE
  5
3D2
102
{ACAD_REACTORS
330
3CC
102
}
330
3CC
100
AcDbVisualStyle
  2
2dWireframe
 70
     4
 71
     0
 72
     2
 73
     0
 90
        0
 40
-0.6
 41
-30.0
 62
     5
 63
     7
 74
     1
 91
        4
 64
     7
 65
   257
 75
     1
175
     1
 42
1.0
 92
        0
 66
   257
 43
1.0
 76
     1
 77
     6
 78
     2
 67
     7
 79
     5
170
     0
171
     0
290
     0
174
     0
 93
        1
 44
0.0
173
     0
291
     0
 45
0.0
1001
ACAD
1000
AcDbSavedByObjectVersion
1070
     0
1000
AcDbSavedByObjectVersion
1070
     0
1000
AcDbSavedByObjectVersion
1070
     0
1000
AcDbSavedByObjectVersion
1070
     0
  0
VISUALSTYLE
  5
3D4
102
{ACAD_REACTORS
330
3CC
102
}
330
3CC
100
AcDbVisualStyle
  2
3D Hidden
 70
     6
 71
     1
 72
     2
 73
     2
 90
        0
 40
-0.6
 41
-30.0
 62
     5
 63
     7
 74
     2
 91
        2
 64
     7
 65
   257
 75
     2
175
     1
 42
40.0
 92
        0
 66
   257
 43
1.0
 76
     1
 77
     6
 78
     2
 67
     7
 79
     3
170
     0
171
     0
290
     0
174
     0
 93
        1
 44
0.0
173
     0
291
     0
 45
0.0
1001
ACAD
1000
AcDbSavedByObjectVersion
1070
     0
1000
AcDbSavedByObjectVersion
1070
     0
1000
AcDbSavedByObjectVersion
1070
     0
1000
AcDbSavedByObjectVersion
1070
     0
  0
VISUALSTYLE
  5
3D3
102
{ACAD_REACTORS
330
3CC
102
}
330
3CC
100
AcDbVisualStyle
  2
3dWireframe
 70
     5
 71
     0
 72
     2
 73
     0
 90
        0
 40
-0.6
 41
-30.0
 62
     5
 63
     7
 74
     1
 91
        4
 64
     7
 65
   257
 75
     1
175
     1
 42
1.0
 92
        0
 66
   257
 43
1.0
 76
     1
 77
     6
 78
     2
 67
     7
 79
     5
170
     0
171
     0
290
     0
174
     0
 93
        1
 44
0.0
173
     0
291
     0
 45
0.0
1001
ACAD
1000
AcDbSavedByObjectVersion
1070
     0
1000
AcDbSavedByObjectVersion
1070
     0
1000
AcDbSavedByObjectVersion
1070
     0
1000
AcDbSavedByObjectVersion
1070
     0
  0
VISUALSTYLE
  5
3D1
102
{ACAD_REACTORS
330
3CC
102
}
330
3CC
100
AcDbVisualStyle
  2
Basic
 70
     7
 71
     1
 72
     0
 73
     1
 90
        0
 40
-0.6
 41
-30.0
 62
     5
 63
     7
 74
     0
 91
        4
 64
     7
 65
   257
 75
     1
175
     1
 42
1.0
 92
        8
 66
     7
 43
1.0
 76
     1
 77
     6
 78
     2
 67
     7
 79
     5
170
     0
171
     0
290
     0
174
     0
 93
        1
 44
0.0
173
     0
291
     1
 45
0.0
1001
ACAD
1000
AcDbSavedByObjectVersion
1070
     0
1000
AcDbSavedByObjectVersion
1070
     0
1000
AcDbSavedByObjectVersion
1070
     0
1000
AcDbSavedByObjectVersion
1070
     0
  0
VISUALSTYLE
  5
3D8
102
{ACAD_REACTORS
330
3CC
102
}
330
3CC
100
AcDbVisualStyle
  2
Brighten
 70
    12
 71
     2
 72
     2
 73
     0
 90
        0
 40
-0.6
 41
-30.0
 62
     5
 63
     7
 74
     1
 91
        4
 64
     7
 65
   257
 75
     1
175
     1
 42
1.0
 92
        8
 66
     7
 43
1.0
 76
     1
 77
     6
 78
     2
 67
     7
 79
     5
170
     0
171
     0
290
     0
174
     0
 93
        1
 44
50.0
173
     0
291
     1
 45
0.0
1001
ACAD
1000
AcDbSavedByObjectVersion
1070
     0
1000
AcDbSavedByObjectVersion
1070
     0
1000
AcDbSavedByObjectVersion
1070
     0
1000
AcDbSavedByObjectVersion
1070
     0
  0
VISUALSTYLE
  5
3DC
102
{ACAD_REACTORS
330
3CC
102
}
330
3CC
100
AcDbVisualStyle
  2
ColorChange
 70
    16
 71
     2
 72
     2
 73
     3
 90
        0
 40
-0.6
 41
-30.0
 62
     5
 63
     8
 74
     1
 91
        4
 64
     7
 65
   257
 75
     1
175
     1
 42
1.0
 92
        8
 66
     8
 43
1.0
 76
     1
 77
     6
 78
     2
 67
     7
 79
     5
170
     0
171
     0
290
     0
174
     0
 93
        1
 44
0.0
173
     0
291
     1
 45
0.0
1001
ACAD
1000
AcDbSavedByObjectVersion
1070
     0
1000
AcDbSavedByObjectVersion
1070
     0
1000
AcDbSavedByObjectVersion
1070
     0
1000
AcDbSavedByObjectVersion
1070
     0
  0
VISUALSTYLE
  5
3D5
102
{ACAD_REACTORS
330
3CC
102
}
330
3CC
100
AcDbVisualStyle
  2
Conceptual
 70
     9
 71
     3
 72
     2
 73
     0
 90
        0
 40
-0.6
 41
-30.0
 62
     5
 63
     7
 74
     2
 91
        2
 64
     7
 65
   257
 75
     1
175
     1
 42
40.0
 92
        8
 66
     7
 43
1.0
 76
     1
 77
     6
 78
     2
 67
     7
 79
     3
170
     0
171
     0
290
     0
174
     0
 93
        1
 44
0.0
173
     0
291
     0
 45
0.0
1001
ACAD
1000
AcDbSavedByObjectVersion
1070
     0
1000
AcDbSavedByObjectVersion
1070
     0
1000
AcDbSavedByObjectVersion
1070
     0
1000
AcDbSavedByObjectVersion
1070
     0
  0
VISUALSTYLE
  5
3D7
102
{ACAD_REACTORS
330
3CC
102
}
330
3CC
100
AcDbVisualStyle
  2
Dim
 70
    11
 71
     2
 72
     2
 73
     0
 90
        0
 40
-0.6
 41
-30.0
 62
     5
 63
     7
 74
     1
 91
        4
 64
     7
 65
   257
 75
     1
175
     1
 42
1.0
 92
        8
 66
     7
 43
1.0
 76
     1
 77
     6
 78
     2
 67
     7
 79
     5
170
     0
171
     0
290
     0
174
     0
 93
        1
 44
-50.0
173
     0
291
     1
 45
0.0
1001
ACAD
1000
AcDbSavedByObjectVersion
1070
     0
1000
AcDbSavedByObjectVersion
1070
     0
1000
AcDbSavedByObjectVersion
1070
     0
1000
AcDbSavedByObjectVersion
1070
     0
  0
VISUALSTYLE
  5
3DB
102
{ACAD_REACTORS
330
3CC
102
}
330
3CC
100
AcDbVisualStyle
  2
Facepattern
 70
    15
 71
     2
 72
     2
 73
     0
 90
        0
 40
-0.6
 41
-30.0
 62
     5
 63
     7
 74
     1
 91
        4
 64
     7
 65
   257
 75
     1
175
     1
 42
1.0
 92
        8
 66
     7
 43
1.0
 76
     1
 77
     6
 78
     2
 67
     7
 79
     5
170
     0
171
     0
290
     0
174
     0
 93
        1
 44
0.0
173
     0
291
     1
 45
0.0
1001
ACAD
1000
AcDbSavedByObjectVersion
1070
     0
1000
AcDbSavedByObjectVersion
1070
     0
1000
AcDbSavedByObjectVersion
1070
     0
1000
AcDbSavedByObjectVersion
1070
     0
  0
VISUALSTYLE
  5
3CD
102
{ACAD_REACTORS
330
3CC
102
}
330
3CC
100
AcDbVisualStyle
  2
Flat
 70
     0
 71
     2
 72
     1
 73
     1
 90
        2
 40
-0.6
 41
30.0
 62
     5
 63
     7
 74
     0
 91
        4
 64
     7
 65
   257
 75
     1
175
     1
 42
1.0
 92
        8
 66
     7
 43
1.0
 76
     1
 77
     6
 78
     2
 67
     7
 79
     5
170
     0
171
     0
290
     0
174
     0
 93
       13
 44
0.0
173
     0
291
     1
 45
0.0
1001
ACAD
1000
AcDbSavedByObjectVersion
1070
     0
1000
AcDbSavedByObjectVersion
1070
     0
1000
AcDbSavedByObjectVersion
1070
     0
1000
AcDbSavedByObjectVersion
1070
     0
  0
VISUALSTYLE
  5
3CE
102
{ACAD_REACTORS
330
3CC
102
}
330
3CC
100
AcDbVisualStyle
  2
FlatWithEdges
 70
     1
 71
     2
 72
     1
 73
     1
 90
        2
 40
-0.6
 41
30.0
 62
     5
 63
     7
 74
     1
 91
        4
 64
     7
 65
   257
 75
     1
175
     1
 42
1.0
 92
        0
 66
   257
 43
1.0
 76
     1
 77
     6
 78
     2
 67
     7
 79
     5
170
     0
171
     0
290
     0
174
     0
 93
       13
 44
0.0
173
     0
291
     1
 45
0.0
1001
ACAD
1000
AcDbSavedByObjectVersion
1070
     0
1000
AcDbSavedByObjectVersion
1070
     0
1000
AcDbSavedByObjectVersion
1070
     0
1000
AcDbSavedByObjectVersion
1070
     0
  0
VISUALSTYLE
  5
3CF
102
{ACAD_REACTORS
330
3CC
102
}
330
3CC
100
AcDbVisualStyle
  2
Gouraud
 70
     2
 71
     2
 72
     2
 73
     1
 90
        2
 40
-0.6
 41
30.0
 62
     5
 63
     7
 74
     0
 91
        4
 64
     7
 65
   257
 75
     1
175
     1
 42
1.0
 92
        0
 66
     7
 43
1.0
 76
     1
 77
     6
 78
     2
 67
     7
 79
     5
170
     0
171
     0
290
     0
174
     0
 93
       13
 44
0.0
173
     0
291
     1
 45
0.0
1001
ACAD
1000
AcDbSavedByObjectVersion
1070
     0
1000
AcDbSavedByObjectVersion
1070
     0
1000
AcDbSavedByObjectVersion
1070
     0
1000
AcDbSavedByObjectVersion
1070
     0
  0
VISUALSTYLE
  5
3D0
102
{ACAD_REACTORS
330
3CC
102
}
330
3CC
100
AcDbVisualStyle
  2
GouraudWithEdges
 70
     3
 71
     2
 72
     2
 73
     1
 90
        2
 40
-0.6
 41
30.0
 62
     5
 63
     7
 74
     1
 91
        4
 64
     7
 65
   257
 75
     1
175
     1
 42
1.0
 92
        0
 66
   257
 43
1.0
 76
     1
 77
     6
 78
     2
 67
     7
 79
     5
170
     0
171
     0
290
     0
174
     0
 93
       13
 44
0.0
173
     0
291
     1
 45
0.0
1001
ACAD
1000
AcDbSavedByObjectVersion
1070
     0
1000
AcDbSavedByObjectVersion
1070
     0
1000
AcDbSavedByObjectVersion
1070
     0
1000
AcDbSavedByObjectVersion
1070
     0
  0
VISUALSTYLE
  5
3DA
102
{ACAD_REACTORS
330
3CC
102
}
330
3CC
100
AcDbVisualStyle
  2
Linepattern
 70
    14
 71
     2
 72
     2
 73
     0
 90
        0
 40
-0.6
 41
-30.0
 62
     5
 63
     7
 74
     1
 91
        4
 64
     7
 65
   257
 75
     7
175
     7
 42
1.0
 92
        8
 66
     7
 43
1.0
 76
     1
 77
     6
 78
     2
 67
     7
 79
     5
170
     0
171
     0
290
     0
174
     0
 93
        1
 44
0.0
173
     0
291
     1
 45
0.0
1001
ACAD
1000
AcDbSavedByObjectVersion
1070
     0
1000
AcDbSavedByObjectVersion
1070
     0
1000
AcDbSavedByObjectVersion
1070
     0
1000
AcDbSavedByObjectVersion
1070
     0
  0
VISUALSTYLE
  5
3D6
102
{ACAD_REACTORS
330
3CC
102
}
330
3CC
100
AcDbVisualStyle
  2
Realistic
 70
     8
 71
     2
 72
     2
 73
     0
 90
        0
 40
-0.6
 41
-30.0
 62
     5
 63
     7
 74
     1
 91
        0
 64
     7
 65
   257
 75
     1
175
     1
 42
1.0
 92
        8
 66
     8
 43
1.0
 76
     1
 77
     6
 78
     2
 67
     7
 79
     5
170
     0
171
     0
290
     0
174
     0
 93
       13
 44
0.0
173
     0
291
     0
 45
0.0
1001
ACAD
1000
AcDbSavedByObjectVersion
1070
     0
1000
AcDbSavedByObjectVersion
1070
     0
1000
AcDbSavedByObjectVersion
1070
     0
1000
AcDbSavedByObjectVersion
1070
     0
  0
VISUALSTYLE
  5
3D9
102
{ACAD_REACTORS
330
3CC
102
}
330
3CC
100
AcDbVisualStyle
  2
Thicken
 70
    13
 71
     2
 72
     2
 73
     0
 90
        0
 40
-0.6
 41
-30.0
 62
     5
 63
     7
 74
     1
 91
        4
 64
     7
 65
   257
 75
     1
175
     1
 42
1.0
 92
       12
 66
     7
 43
1.0
 76
     1
 77
     6
 78
     2
 67
     7
 79
     5
170
     0
171
     0
290
     0
174
     0
 93
        1
 44
0.0
173
     0
291
     1
 45
0.0
1001
ACAD
1000
AcDbSavedByObjectVersion
1070
     0
1000
AcDbSavedByObjectVersion
1070
     0
1000
AcDbSavedByObjectVersion
1070
     0
1000
AcDbSavedByObjectVersion
1070
     0
  0
DICTIONARYVAR
  5
1645
102
{ACAD_REACTORS
330
94
102
}
330
94
100
DictionaryVariables
280
     0
  1
1:1
  0
DICTIONARYVAR
  5
1644
102
{ACAD_REACTORS
330
94
102
}
330
94
100
DictionaryVariables
280
     0
  1
STANDARD
  0
DICTIONARYVAR
  5
138
102
{ACAD_REACTORS
330
94
102
}
330
94
100
DictionaryVariables
280
     0
  1
STANDARD
  0
DICTIONARYVAR
  5
96
102
{ACAD_REACTORS
330
94
102
}
330
94
100
DictionaryVariables
280
     0
  1
2
  0
DICTIONARYVAR
  5
95
102
{ACAD_REACTORS
330
94
102
}
330
94
100
DictionaryVariables
280
     0
  1
0
  0
DICTIONARYVAR
  5
18D7
102
{ACAD_REACTORS
330
94
102
}
330
94
100
DictionaryVariables
280
     0
  1
127
  0
DICTIONARY
  5
272
102
{ACAD_REACTORS
330
5B
102
}
330
5B
100
AcDbDictionary
281
     1
  0
DICTIONARY
  5
61
102
{ACAD_REACTORS
330
5B
102
}
330
5B
100
AcDbDictionary
281
     1
  0
XRECORD
  5
123
102
{ACAD_REACTORS
330
5B
102
}
330
5B
100
AcDbXrecord
280
     1
 90
-1023410169
  0
DICTIONARY
  5
18DF
330
1E
100
AcDbDictionary
280
     1
281
     1
  3
ACAD_XREC_ROUNDTRIP
360
18E0
  0
DICTIONARY
  5
18E3
330
26
100
AcDbDictionary
280
     1
281
     1
  3
ACAD_XREC_ROUNDTRIP
360
18E4
  0
DICTIONARY
  5
18E1
330
22
100
AcDbDictionary
280
     1
281
     1
  3
ACAD_XREC_ROUNDTRIP
360
18E2
  0
DICTIONARY
  5
3BD
330
3BC
100
AcDbDictionary
280
     1
281
     1
  3
ACAD_XREC_ROUNDTRIP
360
164D
  3
BUMPTILE
360
3BF
  3
DIFFUSETILE
360
3BE
  3
OPACITYTILE
360
3C2
  3
REFLECTIONTILE
360
3C1
  3
REFRACTIONTILE
360
3C3
  3
SPECULARTILE
360
3C0
  0
DICTIONARY
  5
3B5
330
3B4
100
AcDbDictionary
280
     1
281
     1
  3
ACAD_XREC_ROUNDTRIP
360
164C
  3
BUMPTILE
360
3B7
  3
DIFFUSETILE
360
3B6
  3
OPACITYTILE
360
3BA
  3
REFLECTIONTILE
360
3B9
  3
REFRACTIONTILE
360
3BB
  3
SPECULARTILE
360
3B8
  0
DICTIONARY
  5
3C5
330
3C4
100
AcDbDictionary
280
     1
281
     1
  3
ACAD_XREC_ROUNDTRIP
360
164E
  3
BUMPTILE
360
3C7
  3
DIFFUSETILE
360
3C6
  3
OPACITYTILE
360
3CA
  3
REFLECTIONTILE
360
3C9
  3
REFRACTIONTILE
360
3CB
  3
SPECULARTILE
360
3C8
  0
DICTIONARY
  5
1646
330
11B
100
AcDbDictionary
280
     1
281
     1
  3
ACAD_ROUNDTRIP_2008_TABLESTYLE_CELLSTYLEMAP
360
18D8
  3
ACAD_XREC_ROUNDTRIP
360
18E5
  0
XRECORD
  5
18E0
102
{ACAD_REACTORS
330
18DF
102
}
330
18DF
100
AcDbXrecord
280
     1
102
SHADEPLOT
 70
     0
102
SHADEPLOTRESLEVEL
 70
     2
102
SHADEPLOTCUSTOMDPI
 70
   300
  0
XRECORD
  5
18E4
102
{ACAD_REACTORS
330
18E3
102
}
330
18E3
100
AcDbXrecord
280
     1
102
SHADEPLOT
 70
     0
102
SHADEPLOTRESLEVEL
 70
     2
102
SHADEPLOTCUSTOMDPI
 70
   300
  0
XRECORD
  5
18E2
102
{ACAD_REACTORS
330
18E1
102
}
330
18E1
100
AcDbXrecord
280
     1
102
SHADEPLOT
 70
     0
102
SHADEPLOTRESLEVEL
 70
     2
102
SHADEPLOTCUSTOMDPI
 70
   300
  0
XRECORD
  5
164D
102
{ACAD_REACTORS
330
3BD
102
}
330
3BD
100
AcDbXrecord
280
     1
102
MATERIAL
148
0.0
149
0.0
149
0.0
 93
        0
 94
      127
282
     0
 72
     0
 77
     0
171
     0
175
     0
179
     0
273
     0
  0
XRECORD
  5
3BF
102
{ACAD_REACTORS
330
3BD
102
}
330
3BD
100
AcDbXrecord
280
     1
270
     1
271
     1
  0
XRECORD
  5
3BE
102
{ACAD_REACTORS
330
3BD
102
}
330
3BD
100
AcDbXrecord
280
     1
270
     1
271
     1
  0
XRECORD
  5
3C2
102
{ACAD_REACTORS
330
3BD
102
}
330
3BD
100
AcDbXrecord
280
     1
270
     1
271
     1
  0
XRECORD
  5
3C1
102
{ACAD_REACTORS
330
3BD
102
}
330
3BD
100
AcDbXrecord
280
     1
270
     1
271
     1
  0
XRECORD
  5
3C3
102
{ACAD_REACTORS
330
3BD
102
}
330
3BD
100
AcDbXrecord
280
     1
270
     1
271
     1
  0
XRECORD
  5
3C0
102
{ACAD_REACTORS
330
3BD
102
}
330
3BD
100
AcDbXrecord
280
     1
270
     1
271
     1
  0
XRECORD
  5
164C
102
{ACAD_REACTORS
330
3B5
102
}
330
3B5
100
AcDbXrecord
280
     1
102
MATERIAL
148
0.0
149
0.0
149
0.0
 93
        0
 94
      127
282
     0
 72
     0
 77
     0
171
     0
175
     0
179
     0
273
     0
  0
XRECORD
  5
3B7
102
{ACAD_REACTORS
330
3B5
102
}
330
3B5
100
AcDbXrecord
280
     1
270
     1
271
     1
  0
XRECORD
  5
3B6
102
{ACAD_REACTORS
330
3B5
102
}
330
3B5
100
AcDbXrecord
280
     1
270
     1
271
     1
  0
XRECORD
  5
3BA
102
{ACAD_REACTORS
330
3B5
102
}
330
3B5
100
AcDbXrecord
280
     1
270
     1
271
     1
  0
XRECORD
  5
3B9
102
{ACAD_REACTORS
330
3B5
102
}
330
3B5
100
AcDbXrecord
280
     1
270
     1
271
     1
  0
XRECORD
  5
3BB
102
{ACAD_REACTORS
330
3B5
102
}
330
3B5
100
AcDbXrecord
280
     1
270
     1
271
     1
  0
XRECORD
  5
3B8
102
{ACAD_REACTORS
330
3B5
102
}
330
3B5
100
AcDbXrecord
280
     1
270
     1
271
     1
  0
XRECORD
  5
164E
102
{ACAD_REACTORS
330
3C5
102
}
330
3C5
100
AcDbXrecord
280
     1
102
MATERIAL
148
0.0
149
0.0
149
0.0
 93
        0
 94
      127
282
     0
 72
     0
 77
     0
171
     0
175
     0
179
     0
273
     0
  0
XRECORD
  5
3C7
102
{ACAD_REACTORS
330
3C5
102
}
330
3C5
100
AcDbXrecord
280
     1
270
     1
271
     1
  0
XRECORD
  5
3C6
102
{ACAD_REACTORS
330
3C5
102
}
330
3C5
100
AcDbXrecord
280
     1
270
     1
271
     1
  0
XRECORD
  5
3CA
102
{ACAD_REACTORS
330
3C5
102
}
330
3C5
100
AcDbXrecord
280
     1
270
     1
271
     1
  0
XRECORD
  5
3C9
102
{ACAD_REACTORS
330
3C5
102
}
330
3C5
100
AcDbXrecord
280
     1
270
     1
271
     1
  0
XRECORD
  5
3CB
102
{ACAD_REACTORS
330
3C5
102
}
330
3C5
100
AcDbXrecord
280
     1
270
     1
271
     1
  0
XRECORD
  5
3C8
102
{ACAD_REACTORS
330
3C5
102
}
330
3C5
100
AcDbXrecord
280
     1
270
     1
271
     1
  0
CELLSTYLEMAP
  5
18D8
102
{ACAD_REACTORS
330
1646
102
}
330
1646
100
AcDbCellStyleMap
 90
        3
300
CELLSTYLE
  1
TABLEFORMAT_BEGIN
 90
        5
170
     1
 91
        0
 92
    32768
 62
   257
 93
        1
300
CONTENTFORMAT
  1
CONTENTFORMAT_BEGIN
 90
        0
 91
        0
 92
        4
 93
        0
300

 40
0.0
140
1.0
 94
        5
 62
     0
340
11
144
6.0
309
CONTENTFORMAT_END
171
     1
301
MARGIN
  1
CELLMARGIN_BEGIN
 40
1.5
 40
1.5
 40
1.5
 40
1.5
 40
0.18
 40
0.18
309
CELLMARGIN_END
 94
        6
 95
        1
302
GRIDFORMAT
  1
GRIDFORMAT_BEGIN
 90
        0
 91
        1
 62
     0
 92
       -2
340
0
 93
        0
 40
0.045
309
GRIDFORMAT_END
 95
        2
302
GRIDFORMAT
  1
GRIDFORMAT_BEGIN
 90
        0
 91
        1
 62
     0
 92
       -2
340
0
 93
        0
 40
0.045
309
GRIDFORMAT_END
 95
        4
302
GRIDFORMAT
  1
GRIDFORMAT_BEGIN
 90
        0
 91
        1
 62
     0
 92
       -2
340
0
 93
        0
 40
0.045
309
GRIDFORMAT_END
 95
        8
302
GRIDFORMAT
  1
GRIDFORMAT_BEGIN
 90
        0
 91
        1
 62
     0
 92
       -2
340
0
 93
        0
 40
0.045
309
GRIDFORMAT_END
 95
       16
302
GRIDFORMAT
  1
GRIDFORMAT_BEGIN
 90
        0
 91
        1
 62
     0
 92
       -2
340
0
 93
        0
 40
0.045
309
GRIDFORMAT_END
 95
       32
302
GRIDFORMAT
  1
GRIDFORMAT_BEGIN
 90
        0
 91
        1
 62
     0
 92
       -2
340
0
 93
        0
 40
0.045
309
GRIDFORMAT_END
309
TABLEFORMAT_END
  1
CELLSTYLE_BEGIN
 90
        1
 91
        1
300
_TITLE
309
CELLSTYLE_END
300
CELLSTYLE
  1
TABLEFORMAT_BEGIN
 90
        5
170
     1
 91
        0
 92
        0
 62
   257
 93
        1
300
CONTENTFORMAT
  1
CONTENTFORMAT_BEGIN
 90
        0
 91
        0
 92
        4
 93
        0
300

 40
0.0
140
1.0
 94
        5
 62
     0
340
11
144
4.5
309
CONTENTFORMAT_END
171
     1
301
MARGIN
  1
CELLMARGIN_BEGIN
 40
1.5
 40
1.5
 40
1.5
 40
1.5
 40
0.18
 40
0.18
309
CELLMARGIN_END
 94
        6
 95
        1
302
GRIDFORMAT
  1
GRIDFORMAT_BEGIN
 90
        0
 91
        1
 62
     0
 92
       -2
340
0
 93
        0
 40
0.045
309
GRIDFORMAT_END
 95
        2
302
GRIDFORMAT
  1
GRIDFORMAT_BEGIN
 90
        0
 91
        1
 62
     0
 92
       -2
340
0
 93
        0
 40
0.045
309
GRIDFORMAT_END
 95
        4
302
GRIDFORMAT
  1
GRIDFORMAT_BEGIN
 90
        0
 91
        1
 62
     0
 92
       -2
340
0
 93
        0
 40
0.045
309
GRIDFORMAT_END
 95
        8
302
GRIDFORMAT
  1
GRIDFORMAT_BEGIN
 90
        0
 91
        1
 62
     0
 92
       -2
340
0
 93
        0
 40
0.045
309
GRIDFORMAT_END
 95
       16
302
GRIDFORMAT
  1
GRIDFORMAT_BEGIN
 90
        0
 91
        1
 62
     0
 92
       -2
340
0
 93
        0
 40
0.045
309
GRIDFORMAT_END
 95
       32
302
GRIDFORMAT
  1
GRIDFORMAT_BEGIN
 90
        0
 91
        1
 62
     0
 92
       -2
340
0
 93
        0
 40
0.045
309
GRIDFORMAT_END
309
TABLEFORMAT_END
  1
CELLSTYLE_BEGIN
 90
        2
 91
        1
300
_HEADER
309
CELLSTYLE_END
300
CELLSTYLE
  1
TABLEFORMAT_BEGIN
 90
        5
170
     1
 91
        0
 92
        0
 62
   257
 93
        1
300
CONTENTFORMAT
  1
CONTENTFORMAT_BEGIN
 90
        0
 91
        0
 92
        4
 93
        0
300

 40
0.0
140
1.0
 94
        2
 62
     0
340
11
144
4.5
309
CONTENTFORMAT_END
171
     1
301
MARGIN
  1
CELLMARGIN_BEGIN
 40
1.5
 40
1.5
 40
1.5
 40
1.5
 40
0.18
 40
0.18
309
CELLMARGIN_END
 94
        6
 95
        1
302
GRIDFORMAT
  1
GRIDFORMAT_BEGIN
 90
        0
 91
        1
 62
     0
 92
       -2
340
0
 93
        0
 40
0.045
309
GRIDFORMAT_END
 95
        2
302
GRIDFORMAT
  1
GRIDFORMAT_BEGIN
 90
        0
 91
        1
 62
     0
 92
       -2
340
0
 93
        0
 40
0.045
309
GRIDFORMAT_END
 95
        4
302
GRIDFORMAT
  1
GRIDFORMAT_BEGIN
 90
        0
 91
        1
 62
     0
 92
       -2
340
0
 93
        0
 40
0.045
309
GRIDFORMAT_END
 95
        8
302
GRIDFORMAT
  1
GRIDFORMAT_BEGIN
 90
        0
 91
        1
 62
     0
 92
       -2
340
0
 93
        0
 40
0.045
309
GRIDFORMAT_END
 95
       16
302
GRIDFORMAT
  1
GRIDFORMAT_BEGIN
 90
        0
 91
        1
 62
     0
 92
       -2
340
0
 93
        0
 40
0.045
309
GRIDFORMAT_END
 95
       32
302
GRIDFORMAT
  1
GRIDFORMAT_BEGIN
 90
        0
 91
        1
 62
     0
 92
       -2
340
0
 93
        0
 40
0.045
309
GRIDFORMAT_END
309
TABLEFORMAT_END
  1
CELLSTYLE_BEGIN
 90
        3
 91
        2
300
_DATA
309
CELLSTYLE_END
  0
XRECORD
  5
18E5
102
{ACAD_REACTORS
330
1646
102
}
330
1646
100
AcDbXrecord
280
     1
102
ACAD_ROUNDTRIP_PRE2007_TABLESTYLE
 90
        4
 91
        0
  1

 92
        4
 93
        0
  2

 94
        4
 95
        0
  3

  0
ENDSEC
  0
EOF
