  0
SECTION
  2
HEADER
  9
$ACADVER
  1
AC1015
  9
$ACADMAINTVER
 70
    20
  9
$DWGCODEPAGE
  3
ANSI_1252
  9
$INSBASE
 10
0.0
 20
0.0
 30
0.0
  9
$EXTMIN
 10
2404.551961576004
 20
705.0840648783805
 30
-0.0000000000000058
  9
$EXTMAX
 10
2758.979133556626
 20
1232.52846221942
 30
0.0000000000000104
  9
$LIMMIN
 10
0.0
 20
0.0
  9
$LIMMAX
 10
420.0
 20
297.0
  9
$ORTHOMODE
 70
     1
  9
$REGENMODE
 70
     1
  9
$FILLMODE
 70
     1
  9
$QTEXTMODE
 70
     0
  9
$MIRRTEXT
 70
     1
  9
$LTSCALE
 40
1.0
  9
$ATTMODE
 70
     1
  9
$TEXTSIZE
 40
2.5
  9
$TRACEWID
 40
1.0
  9
$TEXTSTYLE
  7
STANDARD
  9
$CLAYER
  8
0
  9
$CELTYPE
  6
ByLayer
  9
$CECOLOR
 62
   256
  9
$CELTSCALE
 40
1.0
  9
$DISPSILH
 70
     0
  9
$DIMSCALE
 40
1.0
  9
$DIMASZ
 40
3.5
  9
$DIMEXO
 40
1.0
  9
$DIMDLI
 40
10.0
  9
$DIMRND
 40
0.0
  9
$DIMDLE
 40
0.0
  9
$DIMEXE
 40
1.0
  9
$DIMTP
 40
0.1
  9
$DIMTM
 40
0.1
  9
$DIMTXT
 40
3.5
  9
$DIMCEN
 40
0.0
  9
$DIMTSZ
 40
0.0
  9
$DIMTOL
 70
     0
  9
$DIMLIM
 70
     0
  9
$DIMTIH
 70
     0
  9
$DIMTOH
 70
     0
  9
$DIMSE1
 70
     0
  9
$DIMSE2
 70
     0
  9
$DIMTAD
 70
     1
  9
$DIMZIN
 70
     8
  9
$DIMBLK
  1

  9
$DIMASO
 70
     1
  9
$DIMSHO
 70
     1
  9
$DIMPOST
  1

  9
$DIMAPOST
  1
"
  9
$DIMALT
 70
     0
  9
$DIMALTD
 70
     2
  9
$DIMALTF
 40
0.0393701
  9
$DIMLFAC
 40
1.0
  9
$DIMTOFL
 70
     1
  9
$DIMTVP
 40
0.0
  9
$DIMTIX
 70
     0
  9
$DIMSOXD
 70
     0
  9
$DIMSAH
 70
     0
  9
$DIMBLK1
  1

  9
$DIMBLK2
  1

  9
$DIMSTYLE
  2
AM_DIN
  9
$DIMCLRD
 70
   256
  9
$DIMCLRE
 70
   256
  9
$DIMCLRT
 70
     2
  9
$DIMTFAC
 40
0.71
  9
$DIMGAP
 40
1.5
  9
$DIMJUST
 70
     0
  9
$DIMSD1
 70
     0
  9
$DIMSD2
 70
     0
  9
$DIMTOLJ
 70
     0
  9
$DIMTZIN
 70
     8
  9
$DIMALTZ
 70
     0
  9
$DIMALTTZ
 70
     0
  9
$DIMUPT
 70
     0
  9
$DIMDEC
 70
     2
  9
$DIMTDEC
 70
     3
  9
$DIMALTU
 70
     2
  9
$DIMALTTD
 70
     4
  9
$DIMTXSTY
  7
STANDARD
  9
$DIMAUNIT
 70
     0
  9
$DIMADEC
 70
     0
  9
$DIMALTRND
 40
0.0
  9
$DIMAZIN
 70
     2
  9
$DIMDSEP
 70
    46
  9
$DIMATFIT
 70
     3
  9
$DIMFRAC
 70
     0
  9
$DIMLDRBLK
  1

  9
$DIMLUNIT
 70
     2
  9
$DIMLWD
 70
    -1
  9
$DIMLWE
 70
    -1
  9
$DIMTMOVE
 70
     0
  9
$LUNITS
 70
     2
  9
$LUPREC
 70
     2
  9
$SKETCHINC
 40
1.0
  9
$FILLETRAD
 40
0.0
  9
$AUNITS
 70
     0
  9
$AUPREC
 70
     0
  9
$MENU
  1
.
  9
$ELEVATION
 40
0.0
  9
$PELEVATION
 40
0.0
  9
$THICKNESS
 40
0.0
  9
$LIMCHECK
 70
     0
  9
$CHAMFERA
 40
2.5
  9
$CHAMFERB
 40
2.5
  9
$CHAMFERC
 40
20.0
  9
$CHAMFERD
 40
0.0
  9
$SKPOLY
 70
     0
  9
$TDCREATE
 40
2455477.292545521
  9
$TDUCREATE
 40
2455477.250878854
  9
$TDUPDATE
 40
2455610.332966053
  9
$TDUUPDATE
 40
2455610.291299386
  9
$TDINDWG
 40
0.2772096759
  9
$TDUSRTIMER
 40
0.2772082407
  9
$USRTIMER
 70
     1
  9
$ANGBASE
 50
0.0
  9
$ANGDIR
 70
     0
  9
$PDMODE
 70
     0
  9
$PDSIZE
 40
0.0
  9
$PLINEWID
 40
0.0
  9
$SPLFRAME
 70
     0
  9
$SPLINETYPE
 70
     6
  9
$SPLINESEGS
 70
     8
  9
$HANDSEED
  5
380D
  9
$SURFTAB1
 70
     6
  9
$SURFTAB2
 70
     6
  9
$SURFTYPE
 70
     6
  9
$SURFU
 70
     6
  9
$SURFV
 70
     6
  9
$UCSBASE
  2

  9
$UCSNAME
  2

  9
$UCSORG
 10
0.0
 20
0.0
 30
0.0
  9
$UCSXDIR
 10
1.0
 20
0.0
 30
0.0
  9
$UCSYDIR
 10
0.0
 20
1.0
 30
0.0
  9
$UCSORTHOREF
  2

  9
$UCSORTHOVIEW
 70
     0
  9
$UCSORGTOP
 10
0.0
 20
0.0
 30
0.0
  9
$UCSORGBOTTOM
 10
0.0
 20
0.0
 30
0.0
  9
$UCSORGLEFT
 10
0.0
 20
0.0
 30
0.0
  9
$UCSORGRIGHT
 10
0.0
 20
0.0
 30
0.0
  9
$UCSORGFRONT
 10
0.0
 20
0.0
 30
0.0
  9
$UCSORGBACK
 10
0.0
 20
0.0
 30
0.0
  9
$PUCSBASE
  2

  9
$PUCSNAME
  2

  9
$PUCSORG
 10
0.0
 20
0.0
 30
0.0
  9
$PUCSXDIR
 10
1.0
 20
0.0
 30
0.0
  9
$PUCSYDIR
 10
0.0
 20
1.0
 30
0.0
  9
$PUCSORTHOREF
  2

  9
$PUCSORTHOVIEW
 70
     0
  9
$PUCSORGTOP
 10
0.0
 20
0.0
 30
0.0
  9
$PUCSORGBOTTOM
 10
0.0
 20
0.0
 30
0.0
  9
$PUCSORGLEFT
 10
0.0
 20
0.0
 30
0.0
  9
$PUCSORGRIGHT
 10
0.0
 20
0.0
 30
0.0
  9
$PUCSORGFRONT
 10
0.0
 20
0.0
 30
0.0
  9
$PUCSORGBACK
 10
0.0
 20
0.0
 30
0.0
  9
$USERI1
 70
     0
  9
$USERI2
 70
     0
  9
$USERI3
 70
     0
  9
$USERI4
 70
     0
  9
$USERI5
 70
     0
  9
$USERR1
 40
0.0
  9
$USERR2
 40
0.0
  9
$USERR3
 40
0.0
  9
$USERR4
 40
0.0
  9
$USERR5
 40
0.0
  9
$WORLDVIEW
 70
     1
  9
$SHADEDGE
 70
     3
  9
$SHADEDIF
 70
    70
  9
$TILEMODE
 70
     1
  9
$MAXACTVP
 70
    64
  9
$PINSBASE
 10
0.0
 20
0.0
 30
0.0
  9
$PLIMCHECK
 70
     0
  9
$PEXTMIN
 10
1.000000000000000E+20
 20
1.000000000000000E+20
 30
1.000000000000000E+20
  9
$PEXTMAX
 10
-1.000000000000000E+20
 20
-1.000000000000000E+20
 30
-1.000000000000000E+20
  9
$PLIMMIN
 10
0.0
 20
0.0
  9
$PLIMMAX
 10
420.0
 20
297.0
  9
$UNITMODE
 70
     0
  9
$VISRETAIN
 70
     1
  9
$PLINEGEN
 70
     0
  9
$PSLTSCALE
 70
     1
  9
$TREEDEPTH
 70
  3020
  9
$CMLSTYLE
  2
Standard
  9
$CMLJUST
 70
     0
  9
$CMLSCALE
 40
20.0
  9
$PROXYGRAPHICS
 70
     1
  9
$MEASUREMENT
 70
     1
  9
$CELWEIGHT
370
    -1
  9
$ENDCAPS
280
     0
  9
$JOINSTYLE
280
     0
  9
$LWDISPLAY
290
     0
  9
$INSUNITS
 70
     4
  9
$HYPERLINKBASE
  1

  9
$STYLESHEET
  1

  9
$XEDIT
290
     1
  9
$CEPSNTYPE
380
     0
  9
$PSTYLEMODE
290
     1
  9
$FINGERPRINTGUID
  2
{135D8A84-6883-4383-80F5-1B71993FAB95}
  9
$VERSIONGUID
  2
{6B3236BE-7A67-4D83-8690-828B728E40A6}
  9
$EXTNAMES
290
     1
  9
$PSVPSCALE
 40
0.0
  9
$OLESTARTUP
290
     0
  0
ENDSEC
  0
SECTION
  2
CLASSES
  0
CLASS
  1
ACDBDICTIONARYWDFLT
  2
AcDbDictionaryWithDefault
  3
ObjectDBX Classes
 90
        0
280
     0
281
     0
  0
CLASS
  1
ACME_DOCUMENT
  2
AcMeDbDoc
  3
AcMeServices
 90
     1024
280
     0
281
     0
  0
CLASS
  1
AMGSETTINGSOBJ
  2
AmgSettingsObj
  3
"AcadM|Product Description: AutoCAD Mechanical|Company: Autodesk, Inc."
 90
     1024
280
     0
281
     0
  0
CLASS
  1
ACMESCOPE
  2
AcMeScope
  3
AcMeServices
 90
     1024
280
     0
281
     0
  0
CLASS
  1
ACMECOMMANDHISTORY
  2
AcMeCommandHistory
  3
AcMeServices
 90
     1024
280
     0
281
     0
  0
CLASS
  1
ACIMSYSVARMAN
  2
AcImSysVarManager
  3
AcMeServices
 90
     1024
280
     0
281
     0
  0
CLASS
  1
ACIMREALSYSVAR
  2
AcImRealSysVar
  3
AcMeServices
 90
     1024
280
     0
281
     0
  0
CLASS
  1
ACIMINTSYSVAR
  2
AcImIntSysVar
  3
AcMeServices
 90
     1024
280
     0
281
     0
  0
CLASS
  1
ACMEDRAWINGMAN
  2
AcMeDrawingMan
  3
AcMeServices
 90
     1024
280
     0
281
     0
  0
CLASS
  1
ACMEVIEW
  2
AcMeView
  3
AcMeServices
 90
     1024
280
     0
281
     0
  0
CLASS
  1
ACDBENTITYCACHE
  2
AcMeEntityCache
  3
AcMeServices
 90
     1024
280
     0
281
     0
  0
CLASS
  1
GSMANAGER
  2
AcMeGSManager
  3
AcMeServices
 90
     1024
280
     0
281
     0
  0
CLASS
  1
AMDTINTERNALREACTOR
  2
AmdtInternalReactor
  3
AcMeServices
 90
     1024
280
     0
281
     0
  0
CLASS
  1
ACMESTATEMGR
  2
AcMeStateMgr
  3
AcMeServices
 90
     1024
280
     0
281
     0
  0
CLASS
  1
ACGREFMASTER
  2
AcGrefMaster
  3
AcAttribServices
 90
     1024
280
     0
281
     0
  0
CLASS
  1
ACME_DATABASE
  2
AcMeDbDatabase
  3
AcMeServices
 90
     1024
280
     0
281
     0
  0
CLASS
  1
ACRFINSADJUSTERMGR
  2
AcRfInsAdjusterMgr
  3
AcMeServices
 90
     1024
280
     0
281
     0
  0
CLASS
  1
ACGREFACADMASTER
  2
AcGrefacadMaster
  3
AcGrefServices
 90
     1024
280
     0
281
     0
  0
CLASS
  1
AMIMASTER
  2
AmiMaster
  3
AmiServices
 90
     1024
280
     0
281
     0
  0
CLASS
  1
ACMDATADICTIONARY
  2
AcmDataDictionary
  3
"AcmSymBB|Product Description: AutoCAD Mechanical|Company: Autodesk, Inc."
 90
     1024
280
     0
281
     0
  0
CLASS
  1
ACMDATAENTRYBLOCK
  2
AcmDataEntryBlock
  3
AcmSymBB|Product Description: AutoCAD Mechanical|Company: Autodesk, Inc.
 90
    33792
280
     0
281
     0
  0
CLASS
  1
ACIMSTRSYSVAR
  2
AcImStrSysVar
  3
AcMeServices
 90
     1024
280
     0
281
     0
  0
CLASS
  1
ACMSTANDARDISO
  2
AcmStandardISO
  3
"Amdt_StdImp|Product Description: AutoCAD Mechanical|Company: Autodesk, Inc."
 90
    33792
280
     0
281
     0
  0
CLASS
  1
AMGOBJPROPCFG
  2
AmgObjPropCfg
  3
"AmgLay|Product Description: AutoCAD Mechanical|Company: Autodesk, Inc."
 90
     1025
280
     0
281
     0
  0
CLASS
  1
AMDTEDGESTANDARDISO
  2
AmdtEdgeStdISO
  3
"Amdt_StdImp|Product Description: AutoCAD Mechanical|Company: Autodesk, Inc."
 90
    33792
280
     0
281
     0
  0
CLASS
  1
ACMSURFSTANDARDISO
  2
AcmSurfTextStdISO
  3
"Amdt_StdImp|Product Description: AutoCAD Mechanical|Company: Autodesk, Inc."
 90
    33792
280
     0
281
     0
  0
CLASS
  1
ACMFCFSTANDARDISO
  2
AcmFCFStdISO
  3
"Amdt_StdImp|Product Description: AutoCAD Mechanical|Company: Autodesk, Inc."
 90
    33792
280
     0
281
     0
  0
CLASS
  1
ACMWELDSTANDARDISO
  2
AcmWeldingStdISO
  3
"Amdt_StdImp|Product Description: AutoCAD Mechanical|Company: Autodesk, Inc."
 90
    33792
280
     0
281
     0
  0
CLASS
  1
ACMIDSTANDARDISO
  2
AcmIdStdISO
  3
"Amdt_StdImp|Product Description: AutoCAD Mechanical|Company: Autodesk, Inc."
 90
    33792
280
     0
281
     0
  0
CLASS
  1
ACMDATUMSTANDARDISO
  2
AcmDatumStdISO
  3
"Amdt_StdImp|Product Description: AutoCAD Mechanical|Company: Autodesk, Inc."
 90
    33792
280
     0
281
     0
  0
CLASS
  1
ACMBOMSTANDARDISO
  2
AcmBOMStdISO
  3
"Amdt_StdImp|Product Description: AutoCAD Mechanical|Company: Autodesk, Inc."
 90
    33792
280
     0
281
     0
  0
CLASS
  1
ACMDETAILSTANDARDISO
  2
AmdtDetailSymStdISO
  3
"Amdt_StdImp|Product Description: AutoCAD Mechanical|Company: Autodesk, Inc."
 90
    33792
280
     0
281
     0
  0
CLASS
  1
ACMSECTIONSTANDARDISO
  2
AmdtSectionSymStdISO
  3
"Amdt_StdImp|Product Description: AutoCAD Mechanical|Company: Autodesk, Inc."
 90
    33792
280
     0
281
     0
  0
CLASS
  1
ACMCENTERLINESTANDARDISO
  2
AmdtCenterLineStdISO
  3
"Amdt_StdImp|Product Description: AutoCAD Mechanical|Company: Autodesk, Inc."
 90
    33792
280
     0
281
     0
  0
CLASS
  1
ACMNOTESTANDARDISO
  2
AmdtNoteStdISO
  3
"Amdt_StdImp|Product Description: AutoCAD Mechanical|Company: Autodesk, Inc."
 90
    33792
280
     0
281
     0
  0
CLASS
  1
ACAMGLAYSTD
  2
AcAmgLayStd
  3
"AmgLay|Product Description: AutoCAD Mechanical|Company: Autodesk, Inc."
 90
    33792
280
     0
281
     0
  0
CLASS
  1
ACAMGDIMSTD
  2
AcAmgDimStd
  3
"AmgDim|Product Description: AutoCAD Mechanical|Company: Autodesk, Inc."
 90
    33792
280
     0
281
     0
  0
CLASS
  1
ACAMGHOLECHARTSTDISO
  2
AcAmgHoleChartStdISO
  3
AmgDim|Product Description: AutoCAD Mechanical|Company: Autodesk, Inc.
 90
    33792
280
     0
281
     0
  0
CLASS
  1
ACAMGTITLESTD
  2
AcAmgTitleStd
  3
"AmgTitle|Product Description: AutoCAD Mechanical|Company: Autodesk, Inc."
 90
    36863
280
     0
281
     0
  0
CLASS
  1
LAYER_INDEX
  2
AcDbLayerIndex
  3
ObjectDBX Classes
 90
    32768
280
     0
281
     0
  0
CLASS
  1
IDBUFFER
  2
AcDbIdBuffer
  3
ObjectDBX Classes
 90
    32768
280
     0
281
     0
  0
CLASS
  1
DICTIONARYVAR
  2
AcDbDictionaryVar
  3
ObjectDBX Classes
 90
        0
280
     0
281
     0
  0
CLASS
  1
AM_DRAWING_MGR
  2
AcDmDwgMgr
  3
AcMechDwgViewMgmt
 90
     1024
280
     0
281
     0
  0
CLASS
  1
AM_DWG_DOCUMENT
  2
AcDmDwgDocument
  3
AcMechDwgViewMgmt
 90
     1024
280
     0
281
     0
  0
CLASS
  1
AM_DWG_SHEET
  2
AcDmSheet
  3
AcMechDwgViewMgmt
 90
     1024
280
     0
281
     0
  0
CLASS
  1
AM_VIEWDIMPARMAP
  2
AcDmViewDimParMap
  3
AcMechDwgViewMgmt
 90
     1024
280
     0
281
     0
  0
CLASS
  1
AM_DWGMGR_NAME
  2
AcDmDwgMgrName
  3
AcMechDwgViewMgmt
 90
     1024
280
     0
281
     0
  0
CLASS
  1
AMDTMENUSTATEMGR
  2
AmdtMenuStateMgr
  3
McadcomServices
 90
     1024
280
     0
281
     0
  0
CLASS
  1
AMDTMCOMMENUSTATE
  2
AmdtMcomMenuState
  3
McadcomServices
 90
     1024
280
     0
281
     0
  0
CLASS
  1
MAPIAMMOUDLE
  2
MApiAmModule
  3
MApiAmServices
 90
     1024
280
     0
281
     0
  0
CLASS
  1
AMDTADMENUSTATE
  2
AmdtAdMenuState
  3
DesignerServices
 90
     1024
280
     0
281
     0
  0
CLASS
  1
ADAPPL
  2
AcAdAppl
  3
DesignerServices
 90
     1024
280
     0
281
     0
  0
CLASS
  1
DEPMGR
  2
AcAdDepMgr
  3
DesignerServices
 90
     1024
280
     0
281
     0
  0
CLASS
  1
PARAMMGR
  2
AcAdParamMgr
  3
DesignerServices
 90
     1024
280
     0
281
     0
  0
CLASS
  1
PARAMSCOPE
  2
AcAdParamScope
  3
DesignerServices
 90
     1024
280
     0
281
     0
  0
CLASS
  1
NAMEDAPPL
  2
AcAdNamedAppl
  3
DesignerServices
 90
     1024
280
     0
281
     0
  0
CLASS
  1
AMDTDMMENUSTATE
  2
AmdtDmMenuState
  3
AcMechDwgViewMgmt
 90
     1024
280
     0
281
     0
  0
CLASS
  1
AMDTAMMENUSTATE
  2
AmdtAmMenuState
  3
DesignerAssemblies
 90
     1024
280
     0
281
     0
  0
CLASS
  1
ACAMPROJECT
  2
AcAmProject
  3
DesignerAssemblies
 90
     1024
280
     0
281
     0
  0
CLASS
  1
ACAMGRCOMPDEF
  2
AcAmGrCompDef
  3
DesignerAssemblies
 90
     1024
280
     0
281
     0
  0
CLASS
  1
ACCMCONTEXT
  2
AcCmContext
  3
DesignerAssemblies
 90
     1024
280
     0
281
     0
  0
CLASS
  1
ACAMCOMPDEF
  2
AcAmCompDef
  3
DesignerAssemblies
 90
     1024
280
     0
281
     0
  0
CLASS
  1
ACAMCOMPDEFMGR
  2
AcAmCompDefMgr
  3
DesignerAssemblies
 90
     1024
280
     0
281
     0
  0
CLASS
  1
AMCONTEXTMGR
  2
AcAmContextMgr
  3
DesignerAssemblies
 90
     1024
280
     0
281
     0
  0
CLASS
  1
ACAMCONTEXTMODELER
  2
AcAmContextModeler
  3
DesignerAssemblies
 90
     1024
280
     0
281
     0
  0
CLASS
  1
ACMTHREADLINESTANDARDISO
  2
AmdtThreadLineStdISO
  3
"Amdt_StdImp|Product Description: AutoCAD Mechanical|Company: Autodesk, Inc."
 90
    33792
280
     0
281
     0
  0
CLASS
  1
CATALOGSTATE
  2
AcAmCatalogState
  3
DesignerAssemblies
 90
     1024
280
     0
281
     0
  0
CLASS
  1
ACAMGRCOMPDEFSET
  2
AcAmGrCompDefSet
  3
DesignerAssemblies
 90
     1024
280
     0
281
     0
  0
CLASS
  1
AMDTBROWSERDBTAB
  2
AmdtBrowserDbTab
  3
McadcomServices
 90
     1024
280
     0
281
     0
  0
CLASS
  1
CBROWSERAPPOBJECT
  2
CBrowserAppObject
  3
McadcomServices
 90
     1024
280
     0
281
     0
  0
CLASS
  1
DM_PLACEHOLDER
  2
AcDmSelsetPlaceholder
  3
AcMechDwgViewMgmt
 90
     1024
280
     0
281
     0
  0
CLASS
  1
TABLESTYLE
  2
AcDbTableStyle
  3
ObjectDBX Classes
 90
     4095
280
     0
281
     0
  0
CLASS
  1
VAACXREFPANELOBJECT
  2
VaAcXREFPanelObject
  3
VAAC_ADDIN
 90
    32768
280
     0
281
     0
  0
CLASS
  1
VAACIMAGEINVENTORY
  2
VaAcImageInventory
  3
VAAC_ADDIN
 90
    32768
280
     0
281
     0
  0
CLASS
  1
AMDTNOTETEMPLATEDB
  2
AmdtNoteTemplateDB
  3
AcmSymBB|Product Description: AutoCAD Mechanical|Company: Autodesk, Inc.
 90
    33792
280
     0
281
     0
  0
CLASS
  1
ACAMGFILTERDAT
  2
AcAmgFilterDat
  3
"AcadM|Product Description: AutoCAD Mechanical|Company: Autodesk, Inc."
 90
    33792
280
     0
281
     0
  0
CLASS
  1
ACMBOM
  2
AcmBom
  3
"AcmSymBB|Product Description: AutoCAD Mechanical|Company: Autodesk, Inc."
 90
    33792
280
     0
281
     0
  0
CLASS
  1
AMDTFORMULAUPDATEDISPATCHER
  2
AmdtFormulaUpdateDispatcher
  3
AcMeServices
 90
    33792
280
     0
281
     0
  0
CLASS
  1
ACMSTANDARDDIN
  2
AcmStandardDIN
  3
"Amdt_StdImp|Product Description: AutoCAD Mechanical|Company: Autodesk, Inc."
 90
    33792
280
     0
281
     0
  0
CLASS
  1
AMDTEDGESTANDARDDIN13715
  2
AmdtEdgeStdDIN13715
  3
"Amdt_StdImp|Product Description: AutoCAD Mechanical|Company: Autodesk, Inc."
 90
    33792
280
     0
281
     0
  0
CLASS
  1
ACMSURFSTANDARDDIN
  2
AcmSurfTextStdDIN
  3
"Amdt_StdImp|Product Description: AutoCAD Mechanical|Company: Autodesk, Inc."
 90
    33792
280
     0
281
     0
  0
CLASS
  1
ACMFCFSTANDARDDIN
  2
AcmFCFStdDIN
  3
"Amdt_StdImp|Product Description: AutoCAD Mechanical|Company: Autodesk, Inc."
 90
    33792
280
     0
281
     0
  0
CLASS
  1
ACMWELDSTANDARDDIN
  2
AcmWeldingStdDIN
  3
"Amdt_StdImp|Product Description: AutoCAD Mechanical|Company: Autodesk, Inc."
 90
    33792
280
     0
281
     0
  0
CLASS
  1
ACMIDSTANDARDDIN
  2
AcmIdStdDIN
  3
"Amdt_StdImp|Product Description: AutoCAD Mechanical|Company: Autodesk, Inc."
 90
    33792
280
     0
281
     0
  0
CLASS
  1
ACMDATUMSTANDARDDIN
  2
AcmDatumStdDIN
  3
"Amdt_StdImp|Product Description: AutoCAD Mechanical|Company: Autodesk, Inc."
 90
    33792
280
     0
281
     0
  0
CLASS
  1
ACMBOMSTANDARDDIN
  2
AcmBOMStdDIN
  3
"Amdt_StdImp|Product Description: AutoCAD Mechanical|Company: Autodesk, Inc."
 90
    33792
280
     0
281
     0
  0
CLASS
  1
ACMDETAILSTANDARDDIN
  2
AmdtDetailSymStdDIN
  3
"Amdt_StdImp|Product Description: AutoCAD Mechanical|Company: Autodesk, Inc."
 90
    33792
280
     0
281
     0
  0
CLASS
  1
ACMSECTIONSTANDARDDIN
  2
AmdtSectionSymStdDIN
  3
"Amdt_StdImp|Product Description: AutoCAD Mechanical|Company: Autodesk, Inc."
 90
    33792
280
     0
281
     0
  0
CLASS
  1
ACMCENTERLINESTANDARDDIN
  2
AmdtCenterLineStdDIN
  3
"Amdt_StdImp|Product Description: AutoCAD Mechanical|Company: Autodesk, Inc."
 90
    33792
280
     0
281
     0
  0
CLASS
  1
ACMTHREADLINESTANDARDDIN
  2
AmdtThreadLineStdDIN
  3
"Amdt_StdImp|Product Description: AutoCAD Mechanical|Company: Autodesk, Inc."
 90
    33792
280
     0
281
     0
  0
CLASS
  1
ACMNOTESTANDARDDIN
  2
AmdtNoteStdDIN
  3
"Amdt_StdImp|Product Description: AutoCAD Mechanical|Company: Autodesk, Inc."
 90
    33792
280
     0
281
     0
  0
CLASS
  1
ACAMGHOLECHARTSTDDIN
  2
AcAmgHoleChartStdDIN
  3
AmgDim|Product Description: AutoCAD Mechanical|Company: Autodesk, Inc.
 90
    33792
280
     0
281
     0
  0
CLASS
  1
MATERIAL
  2
AcDbMaterial
  3
ObjectDBX Classes
 90
     1153
280
     0
281
     0
  0
CLASS
  1
VISUALSTYLE
  2
AcDbVisualStyle
  3
ObjectDBX Classes
 90
     4095
280
     0
281
     0
  0
CLASS
  1
SCALE
  2
AcDbScale
  3
ObjectDBX Classes
 90
     1153
280
     0
281
     0
  0
CLASS
  1
MLEADERSTYLE
  2
AcDbMLeaderStyle
  3
ACDB_MLEADERSTYLE_CLASS
 90
     4095
280
     0
281
     0
  0
CLASS
  1
ACRFATTGENMGR
  2
AcRfAttGeneralMgr
  3
AcAttribServices
 90
    33792
280
     0
281
     0
  0
CLASS
  1
ACRFOBJATTMGR
  2
AcRfObjAttGroupMgr
  3
AcAttribServices
 90
    33792
280
     0
281
     0
  0
CLASS
  1
ACRFMCADAPIATTHOLDER
  2
AcRfMCADAPIAttHolder
  3
AcAttribServices
 90
    33792
280
     0
281
     0
  0
CLASS
  1
AMDTSYSATTR
  2
AmdtSystemAttribute
  3
AcAttribServices
 90
    33792
280
     0
281
     0
  0
CLASS
  1
ACMTAPERSTANDARDISO
  2
AcmTaperStdISO
  3
"Amdt_StdImp|Product Description: AutoCAD Mechanical|Company: Autodesk, Inc."
 90
    33792
280
     0
281
     0
  0
CLASS
  1
ACMANOOTATIONVIEWSTANDARDISO
  2
AmdtAnViewStdISO
  3
"Amdt_StdImp|Product Description: AutoCAD Mechanical|Company: Autodesk, Inc."
 90
    33792
280
     0
281
     0
  0
CLASS
  1
ACMTAPERSTANDARDDIN
  2
AcmTaperStdDIN
  3
"Amdt_StdImp|Product Description: AutoCAD Mechanical|Company: Autodesk, Inc."
 90
    33792
280
     0
281
     0
  0
CLASS
  1
ACMANOOTATIONVIEWSTANDARDDIN
  2
AmdtAnViewStdDIN
  3
"Amdt_StdImp|Product Description: AutoCAD Mechanical|Company: Autodesk, Inc."
 90
    33792
280
     0
281
     0
  0
CLASS
  1
EXACXREFPANELOBJECT
  2
ExAcXREFPanelObject
  3
EXAC_ESW
 90
     1025
280
     0
281
     0
  0
CLASS
  1
NPOCOLLECTION
  2
AcDbImpNonPersistentObjectsCollection
  3
ObjectDBX Classes
 90
     1153
280
     0
281
     0
  0
CLASS
  1
SORTENTSTABLE
  2
AcDbSortentsTable
  3
ObjectDBX Classes
 90
        0
280
     0
281
     0
  0
CLASS
  1
AEC_REFEDIT_STATUS_TRACKER
  2
AecDbRefEditStatusTracker
  3
AecArchBase50|Product Desc: Autodesk Architectural Desktop 2007 |Company: Autodesk,Inc. |WEB Address: www.autodesk.com
 90
    32897
280
     0
281
     0
  0
CLASS
  1
CAMSSTRUCTBTNSTATE
  2
StructBtnState
  3
DesignerAssemblies
 90
    33792
280
     0
281
     0
  0
CLASS
  1
CELLSTYLEMAP
  2
AcDbCellStyleMap
  3
ObjectDBX Classes
 90
     1152
280
     0
281
     0
  0
CLASS
  1
DIMASSOC
  2
AcDbDimAssoc
  3
"AcDbDimAssoc|Product Desc:     AcDim ARX App For Dimension|Company:          Autodesk, Inc.|WEB Address:      www.autodesk.com"
 90
        0
280
     0
281
     0
  0
CLASS
  1
ACMSURFSTANDARDDIN2002
  2
AcmSurfTextStdDIN2002
  3
"Amdt_StdImp|Product Description: AutoCAD Mechanical|Company: Autodesk, Inc."
 90
    33792
280
     0
281
     0
  0
CLASS
  1
ACDBPLACEHOLDER
  2
AcDbPlaceHolder
  3
ObjectDBX Classes
 90
        0
280
     0
281
     0
  0
CLASS
  1
LAYOUT
  2
AcDbLayout
  3
ObjectDBX Classes
 90
        0
280
     0
281
     0
  0
ENDSEC
  0
SECTION
  2
TABLES
  0
TABLE
  2
VPORT
  5
8
330
0
100
AcDbSymbolTable
 70
     1
  0
VPORT
  5
3B2
330
8
100
AcDbSymbolTableRecord
100
AcDbViewportTableRecord
  2
*Active
 70
     0
 10
0.0
 20
0.0
 11
1.0
 21
1.0
 12
2581.765547566315
 22
968.8062635489004
 13
0.0
 23
0.0
 14
2.5
 24
2.5
 15
10.0
 25
10.0
 16
0.0
 26
0.0
 36
1.0
 17
0.0
 27
0.0
 37
0.0
 40
531.0365271753716
 41
1.752272727272727
 42
50.0
 43
0.0
 44
0.0
 50
0.0
 51
0.0
 71
     0
 72
   100
 73
     1
 74
     3
 75
     0
 76
     0
 77
     0
 78
     0
281
     0
 65
     0
110
0.0
120
0.0
130
0.0
111
1.0
121
0.0
131
0.0
112
0.0
122
1.0
132
0.0
 79
     0
146
0.0
  0
ENDTAB
  0
TABLE
  2
LTYPE
  5
5
330
0
100
AcDbSymbolTable
 70
    21
  0
LTYPE
  5
14
330
5
100
AcDbSymbolTableRecord
100
AcDbLinetypeTableRecord
  2
ByBlock
 70
     0
  3

 72
    65
 73
     0
 40
0.0
  0
LTYPE
  5
15
330
5
100
AcDbSymbolTableRecord
100
AcDbLinetypeTableRecord
  2
ByLayer
 70
     0
  3

 72
    65
 73
     0
 40
0.0
  0
LTYPE
  5
16
330
5
100
AcDbSymbolTableRecord
100
AcDbLinetypeTableRecord
  2
Continuous
 70
     0
  3
Solid line
 72
    65
 73
     0
 40
0.0
  0
LTYPE
  5
64
330
5
100
AcDbSymbolTableRecord
100
AcDbLinetypeTableRecord
  2
AM_ISO02W050
 70
     0
  3
__ __ __ __ __ __ __ __ __ __ __ __ __ __ __
 72
    65
 73
     2
 40
7.5
 49
6.0
 74
     0
 49
-1.5
 74
     0
  0
LTYPE
  5
65
330
5
100
AcDbSymbolTableRecord
100
AcDbLinetypeTableRecord
  2
AM_ISO08W050
 70
     0
  3
____ . ____ . ____ . ____ . ____ . ____ . ____
 72
    65
 73
     4
 40
18.0
 49
12.0
 74
     0
 49
-1.5
 74
     0
 49
3.0
 74
     0
 49
-1.5
 74
     0
  0
LTYPE
  5
66
330
5
100
AcDbSymbolTableRecord
100
AcDbLinetypeTableRecord
  2
AM_ISO09W050
 70
     0
  3
_____ . . _____ . . _____ . . ____ .. ____
 72
    65
 73
     6
 40
22.5
 49
12.0
 74
     0
 49
-1.5
 74
     0
 49
3.0
 74
     0
 49
-1.5
 74
     0
 49
3.0
 74
     0
 49
-1.5
 74
     0
  0
LTYPE
  5
67
330
5
100
AcDbSymbolTableRecord
100
AcDbLinetypeTableRecord
  2
Amconstr
 70
     0
  3
_______________________
 72
    65
 73
     2
 40
9999.0
 49
9999.0
 74
     0
 49
0.0
 74
     0
  0
LTYPE
  5
68
330
5
100
AcDbSymbolTableRecord
100
AcDbLinetypeTableRecord
  2
AM_ISO08W050x2
 70
     0
  3
__ . __ . __ . __ . __ . __
 72
    65
 73
     4
 40
9.0
 49
6.0
 74
     0
 49
-0.75
 74
     0
 49
1.5
 74
     0
 49
-0.75
 74
     0
  0
LTYPE
  5
69
330
5
100
AcDbSymbolTableRecord
100
AcDbLinetypeTableRecord
  2
AM_ISO02W050x2
 70
     0
  3
 _ _ _ _ _ _ _ _ _ _ _ _
 72
    65
 73
     2
 40
3.75
 49
3.0
 74
     0
 49
-0.75
 74
     0
  0
LTYPE
  5
6C
330
5
100
AcDbSymbolTableRecord
100
AcDbLinetypeTableRecord
  2
Amzigzag
 70
     0
  3
/\/-/\/-/\/-/\/-/\/-/\/
 72
    65
 73
     2
 40
11.0001
 49
0.0001
 74
     4
 75
   136
340
22C
 46
0.04
 50
0.0
 44
0.0
 45
0.0
 49
-11.0
 74
     0
  0
LTYPE
  5
7E
330
5
100
AcDbSymbolTableRecord
100
AcDbLinetypeTableRecord
  2
CENTER
 70
     0
  3
__ . __
 72
    65
 73
     4
 40
7.0
 49
4.0
 74
     0
 49
-1.0
 74
     0
 49
1.0
 74
     0
 49
-1.0
 74
     0
  0
LTYPE
  5
D8
330
5
100
AcDbSymbolTableRecord
100
AcDbLinetypeTableRecord
  2
HIDDEN
 70
     0
  3
Hidden __ __ __ __ __ __ __ __ __ __ __ __ __ _
 72
    65
 73
     2
 40
9.524999999999996
 49
6.349999999999997
 74
     0
 49
-3.174999999999998
 74
     0
  0
LTYPE
  5
D9
330
5
100
AcDbSymbolTableRecord
100
AcDbLinetypeTableRecord
  2
PHANTOM2
 70
     0
  3
Phantom (.5x) ___ _ _ ___ _ _ ___ _ _ ___ _ _
 72
    65
 73
     6
 40
31.75
 49
15.875
 74
     0
 49
-3.174999999999998
 74
     0
 49
3.174999999999998
 74
     0
 49
-3.174999999999998
 74
     0
 49
3.174999999999998
 74
     0
 49
-3.174999999999998
 74
     0
  0
LTYPE
  5
322
330
5
100
AcDbSymbolTableRecord
100
AcDbLinetypeTableRecord
  2
AM_DIN_G_W050
 70
     0
  3
____ . ____ . ____ . ____ . ____ . ____ . ____
 72
    65
 73
     4
 40
13.75
 49
9.75
 74
     0
 49
-1.5
 74
     0
 49
1.0
 74
     0
 49
-1.5
 74
     0
  0
LTYPE
  5
324
330
5
100
AcDbSymbolTableRecord
100
AcDbLinetypeTableRecord
  2
AM_DIN_G_W050x2
 70
     0
  3
__ . __ . __ . __ . __ . __
 72
    65
 73
     4
 40
6.875
 49
4.75
 74
     0
 49
-0.875
 74
     0
 49
0.375
 74
     0
 49
-0.875
 74
     0
  0
LTYPE
  5
456
330
5
100
AcDbSymbolTableRecord
100
AcDbLinetypeTableRecord
  2
STRICHPUNKT
 70
     0
  3
Strichpunkt __ . __ . __ . __ . __ . __ . __ . 
 72
    65
 73
     4
 40
25.4
 49
12.7
 74
     0
 49
-6.349999999999997
 74
     0
 49
0.0
 74
     0
 49
-6.349999999999997
 74
     0
  0
LTYPE
  5
457
330
5
100
AcDbSymbolTableRecord
100
AcDbLinetypeTableRecord
  2
STRICHLINIE
 70
     0
  3
Strichlinie __ __ __ __ __ __ __ __ __ __ __ __
 72
    65
 73
     2
 40
19.05
 49
12.7
 74
     0
 49
-6.349999999999997
 74
     0
  0
LTYPE
  5
345A
330
5
100
AcDbSymbolTableRecord
100
AcDbLinetypeTableRecord
  2
ACDINWELD
 70
     0
  3
_ _ _ _ _
 72
    65
 73
     2
 40
2.0
 49
2.0
 74
     0
 49
-1.0
 74
     0
  0
LTYPE
  5
345B
330
5
100
AcDbSymbolTableRecord
100
AcDbLinetypeTableRecord
  2
ACDINTGB
 70
     0
  3
__ . . __ . .
 72
    65
 73
     6
 40
9.0
 49
4.0
 74
     0
 49
-1.0
 74
     0
 49
1.0
 74
     0
 49
-1.0
 74
     0
 49
1.0
 74
     0
 49
-1.0
 74
     0
  0
LTYPE
  5
345C
330
5
100
AcDbSymbolTableRecord
100
AcDbLinetypeTableRecord
  2
ACDINTGL
 70
     0
  3
_ _ _ _ _
 72
    65
 73
     2
 40
3.0
 49
2.0
 74
     0
 49
-1.0
 74
     0
  0
LTYPE
  5
3742
330
5
100
AcDbSymbolTableRecord
100
AcDbLinetypeTableRecord
  2
AM_DIN_F_W050
 70
     0
  3
__ __ __ __ __ __ __ __ __ __ __ __ __ __ __
 72
    65
 73
     2
 40
6.25
 49
4.75
 74
     0
 49
-1.5
 74
     0
  0
LTYPE
  5
3743
330
5
100
AcDbSymbolTableRecord
100
AcDbLinetypeTableRecord
  2
AM_DIN_K_W050
 70
     0
  3
_____ . . _____ . . _____ . . ____ .. ____
 72
    65
 73
     6
 40
16.25
 49
9.75
 74
     0
 49
-1.5
 74
     0
 49
1.0
 74
     0
 49
-1.5
 74
     0
 49
1.0
 74
     0
 49
-1.5
 74
     0
  0
LTYPE
  5
3744
330
5
100
AcDbSymbolTableRecord
100
AcDbLinetypeTableRecord
  2
AM_DIN_F_W050x2
 70
     0
  3
 _ _ _ _ _ _ _ _ _ _ _ _
 72
    65
 73
     2
 40
3.125
 49
2.25
 74
     0
 49
-0.875
 74
     0
  0
ENDTAB
  0
TABLE
  2
LAYER
  5
2
102
{ACAD_XDICTIONARY
360
468
102
}
330
0
100
AcDbSymbolTable
 70
     7
  0
LAYER
  5
10
102
{ACAD_XDICTIONARY
360
20EC
102
}
330
2
100
AcDbSymbolTableRecord
100
AcDbLayerTableRecord
  2
0
 70
     0
 62
     7
  6
Continuous
370
    -3
390
F
  0
LAYER
  5
458
102
{ACAD_XDICTIONARY
360
459
102
}
330
2
100
AcDbSymbolTableRecord
100
AcDbLayerTableRecord
  2
P-0000
 70
     0
 62
     7
  6
Continuous
370
    -3
390
F
  0
LAYER
  5
45A
330
2
100
AcDbSymbolTableRecord
100
AcDbLayerTableRecord
  2
Defpoints
 70
     0
 62
     7
  6
Continuous
290
     0
370
    -3
390
F
  0
LAYER
  5
45B
102
{ACAD_XDICTIONARY
360
45C
102
}
330
2
100
AcDbSymbolTableRecord
100
AcDbLayerTableRecord
  2
AM_5
 70
     0
 62
     3
  6
Continuous
370
    25
390
F
1001
AcAecLayerStandard
1000

1000

  0
LAYER
  5
45E
102
{ACAD_XDICTIONARY
360
45F
102
}
330
2
100
AcDbSymbolTableRecord
100
AcDbLayerTableRecord
  2
AM_8
 70
     0
 62
     1
  6
Continuous
370
    25
390
F
  0
LAYER
  5
460
102
{ACAD_XDICTIONARY
360
461
102
}
330
2
100
AcDbSymbolTableRecord
100
AcDbLayerTableRecord
  2
P-3FF0
 70
     0
 62
     7
  6
Continuous
370
    -3
390
F
  0
LAYER
  5
EAD
102
{ACAD_XDICTIONARY
360
EAE
102
}
330
2
100
AcDbSymbolTableRecord
100
AcDbLayerTableRecord
  2
AM_7
 70
     0
 62
     4
  6
AM_DIN_G_W050
370
    25
390
F
1001
AcAecLayerStandard
1000

1000

  0
ENDTAB
  0
TABLE
  2
STYLE
  5
3
330
0
100
AcDbSymbolTable
 70
     4
  0
STYLE
  5
11
330
3
100
AcDbSymbolTableRecord
100
AcDbTextStyleTableRecord
  2
STANDARD
 70
     0
 40
0.0
 41
1.0
 50
0.0
 71
     0
 42
2.5
  3
ISOCP.SHX
  4

  0
STYLE
  5
22C
330
3
100
AcDbSymbolTableRecord
100
AcDbTextStyleTableRecord
  2

 70
     1
 40
0.0
 41
1.0
 50
0.0
 71
     0
 42
2.5
  3
genltshp.shx
  4

  0
STYLE
  5
3459
330
3
100
AcDbSymbolTableRecord
100
AcDbTextStyleTableRecord
  2
ACDINGDT
 70
     0
 40
0.0
 41
1.0
 50
0.0
 71
     0
 42
2.5
  3
amgdt.shx
  4

  0
STYLE
  5
3746
330
3
100
AcDbSymbolTableRecord
100
AcDbTextStyleTableRecord
  2
ACDINTS
 70
     0
 40
1.0
 41
1.0
 50
0.0
 71
     0
 42
2.5
  3
isocp.shx
  4

  0
ENDTAB
  0
TABLE
  2
VIEW
  5
6
330
0
100
AcDbSymbolTable
 70
     0
  0
ENDTAB
  0
TABLE
  2
UCS
  5
7
330
0
100
AcDbSymbolTable
 70
     0
  0
ENDTAB
  0
TABLE
  2
APPID
  5
9
330
0
100
AcDbSymbolTable
 70
    30
  0
APPID
  5
12
330
9
100
AcDbSymbolTableRecord
100
AcDbRegAppTableRecord
  2
ACAD
 70
     0
  0
APPID
  5
46
330
9
100
AcDbSymbolTableRecord
100
AcDbRegAppTableRecord
  2
MCAD_NO_VIS
 70
     0
  0
APPID
  5
47
330
9
100
AcDbSymbolTableRecord
100
AcDbRegAppTableRecord
  2
ACAD_TEMP_GRAPHIC
 70
     0
  0
APPID
  5
58
330
9
100
AcDbSymbolTableRecord
100
AcDbRegAppTableRecord
  2
ACATTRIBSERVICES
 70
     0
  0
APPID
  5
EE
330
9
100
AcDbSymbolTableRecord
100
AcDbRegAppTableRecord
  2
AD_DRAW
 70
     0
  0
APPID
  5
10C
330
9
100
AcDbSymbolTableRecord
100
AcDbRegAppTableRecord
  2
DESIGNERASSEMBLIES
 70
     0
  0
APPID
  5
111
330
9
100
AcDbSymbolTableRecord
100
AcDbRegAppTableRecord
  2
ACADM_DIM_EDIT
 70
     0
  0
APPID
  5
112
330
9
100
AcDbSymbolTableRecord
100
AcDbRegAppTableRecord
  2
AMDT_DM_ADJ
 70
     0
  0
APPID
  5
1A3
330
9
100
AcDbSymbolTableRecord
100
AcDbRegAppTableRecord
  2
ACAD_DSTYLE_DIMARC_LENGTH_SYMBOL
 70
     0
  0
APPID
  5
1A4
330
9
100
AcDbSymbolTableRecord
100
AcDbRegAppTableRecord
  2
ACAD_DSTYLE_DIMJOGGED_JOGANGLE_SYMBOL
 70
     0
  0
APPID
  5
3F1
330
9
100
AcDbSymbolTableRecord
100
AcDbRegAppTableRecord
  2
ACAD_MLEADERVER
 70
     0
  0
APPID
  5
464
330
9
100
AcDbSymbolTableRecord
100
AcDbRegAppTableRecord
  2
ACME_LAYERS
 70
     0
  0
APPID
  5
465
330
9
100
AcDbSymbolTableRecord
100
AcDbRegAppTableRecord
  2
AcAecLayerStandard
 70
     0
  0
APPID
  5
466
330
9
100
AcDbSymbolTableRecord
100
AcDbRegAppTableRecord
  2
ACAD_PSEXT
 70
     0
  0
APPID
  5
467
330
9
100
AcDbSymbolTableRecord
100
AcDbRegAppTableRecord
  2
ACAD_DSTYLE_DIMINSPECT
 70
     0
  0
APPID
  5
EB0
330
9
100
AcDbSymbolTableRecord
100
AcDbRegAppTableRecord
  2
GENIUS_GENODEF_13
 70
     0
  0
APPID
  5
EB1
330
9
100
AcDbSymbolTableRecord
100
AcDbRegAppTableRecord
  2
GENIUS_GENOBJ-N-CEN_13
 70
     0
  0
APPID
  5
EB2
330
9
100
AcDbSymbolTableRecord
100
AcDbRegAppTableRecord
  2
GENIUS_GENCEN_19
 70
     0
  0
APPID
  5
15A4
330
9
100
AcDbSymbolTableRecord
100
AcDbRegAppTableRecord
  2
GENIUS_GENOBJ-N-HTC_13
 70
     0
  0
APPID
  5
15A5
330
9
100
AcDbSymbolTableRecord
100
AcDbRegAppTableRecord
  2
GENIUS_GENHATCH_13
 70
     0
  0
APPID
  5
1DFF
330
9
100
AcDbSymbolTableRecord
100
AcDbRegAppTableRecord
  2
ACAD_EXEMPT_FROM_CAD_STANDARDS
 70
     0
  0
APPID
  5
2220
330
9
100
AcDbSymbolTableRecord
100
AcDbRegAppTableRecord
  2
ACAD_DSTYLE_DIM_LINETYPE
 70
     0
  0
APPID
  5
2221
330
9
100
AcDbSymbolTableRecord
100
AcDbRegAppTableRecord
  2
ACAD_DSTYLE_DIM_EXT1_LINETYPE
 70
     0
  0
APPID
  5
2222
330
9
100
AcDbSymbolTableRecord
100
AcDbRegAppTableRecord
  2
ACAD_DSTYLE_DIM_EXT2_LINETYPE
 70
     0
  0
APPID
  5
29FB
330
9
100
AcDbSymbolTableRecord
100
AcDbRegAppTableRecord
  2
GENIUS_GENDTOL_13
 70
     0
  0
APPID
  5
3655
330
9
100
AcDbSymbolTableRecord
100
AcDbRegAppTableRecord
  2
GENIUS_GENOBJ-N-FIL_13
 70
     0
  0
APPID
  5
3787
330
9
100
AcDbSymbolTableRecord
100
AcDbRegAppTableRecord
  2
ACAD_DSTYLE_DIMRADIAL_EXTENSION
 70
     0
  0
APPID
  5
3789
330
9
100
AcDbSymbolTableRecord
100
AcDbRegAppTableRecord
  2
GENIUS_GENOLIS_13
 70
     0
  0
APPID
  5
378A
330
9
100
AcDbSymbolTableRecord
100
AcDbRegAppTableRecord
  2
GENIUS_GENOENT_13
 70
     0
  0
APPID
  5
378B
330
9
100
AcDbSymbolTableRecord
100
AcDbRegAppTableRecord
  2
GENIUS_GENOREF_13
 70
     0
  0
ENDTAB
  0
TABLE
  2
DIMSTYLE
  5
A
330
0
100
AcDbSymbolTable
 70
     8
100
AcDbDimStyleTable
 71
     1
340
2F0
  0
DIMSTYLE
105
2F0
330
A
100
AcDbSymbolTableRecord
100
AcDbDimStyleTableRecord
  2
AM_DIN
 70
     0
  4
"
 41
3.5
 42
1.0
 43
10.0
 44
1.0
 47
0.1
 48
0.1
 73
     0
 74
     0
 77
     1
 78
     8
 79
     2
140
3.5
141
0.0
143
0.0393701
146
0.71
147
1.5
172
     1
176
   256
177
   256
178
     2
271
     2
272
     3
274
     4
283
     0
284
     8
340
11
371
    -1
372
    -1
1001
ACAD_DSTYLE_DIMJOGGED_JOGANGLE_SYMBOL
1070
   384
1040
1.570796326794896
1001
ACAD_DSTYLE_DIM_LINETYPE
1070
   380
1005
14
1001
ACAD_DSTYLE_DIM_EXT1_LINETYPE
1070
   381
1005
14
1001
ACAD_DSTYLE_DIM_EXT2_LINETYPE
1070
   382
1005
14
  0
DIMSTYLE
105
463
102
{ACAD_REACTORS
330
347D
102
}
330
A
100
AcDbSymbolTableRecord
100
AcDbDimStyleTableRecord
  2
AM_DIN$0
 70
     0
  4
"
 41
3.5
 42
1.0
 43
10.0
 44
1.0
 47
0.1
 48
0.1
 73
     0
 74
     0
 77
     1
 78
     8
 79
     2
140
3.5
141
0.0
143
0.0393701
146
0.71
147
1.5
172
     1
176
   256
177
   256
178
     2
271
     2
272
     3
274
     4
283
     0
284
     8
340
11
371
    -1
372
    -1
1001
ACAD_DSTYLE_DIMJOGGED_JOGANGLE_SYMBOL
1070
   384
1040
1.570796326794896
1001
ACAD_DSTYLE_DIM_LINETYPE
1070
   380
1005
14
1001
ACAD_DSTYLE_DIM_EXT1_LINETYPE
1070
   381
1005
14
1001
ACAD_DSTYLE_DIM_EXT2_LINETYPE
1070
   382
1005
14
  0
DIMSTYLE
105
33AD
330
A
100
AcDbSymbolTableRecord
100
AcDbDimStyleTableRecord
  2
AM_DIN$3
 70
     0
  4
"
 41
3.5
 42
1.0
 43
10.0
 44
1.0
 47
0.1
 48
0.1
 73
     0
 77
     1
 78
     8
 79
     2
140
3.5
141
0.0
143
0.0393701
146
0.71
147
1.5
176
   256
177
   256
178
     2
271
     2
272
     3
274
     4
283
     0
284
     8
288
     1
289
     0
340
11
371
    -1
372
    -1
1001
ACAD_DSTYLE_DIMJOGGED_JOGANGLE_SYMBOL
1070
   384
1040
1.570796326794896
1001
ACAD_DSTYLE_DIM_LINETYPE
1070
   380
1005
14
1001
ACAD_DSTYLE_DIM_EXT1_LINETYPE
1070
   381
1005
14
1001
ACAD_DSTYLE_DIM_EXT2_LINETYPE
1070
   382
1005
14
  0
DIMSTYLE
105
33AE
330
A
100
AcDbSymbolTableRecord
100
AcDbDimStyleTableRecord
  2
AM_DIN$4
 70
     0
  4
"
 41
3.5
 42
1.0
 43
10.0
 44
1.0
 47
0.1
 48
0.1
 73
     0
 74
     0
 77
     1
 78
     8
 79
     2
140
3.5
141
0.0
143
0.0393701
146
0.71
147
1.5
172
     1
176
   256
177
   256
178
     2
271
     2
272
     3
274
     4
283
     0
284
     8
340
11
371
    -1
372
    -1
1001
ACAD_DSTYLE_DIMJOGGED_JOGANGLE_SYMBOL
1070
   384
1040
1.570796326794896
1001
ACAD_DSTYLE_DIM_LINETYPE
1070
   380
1005
14
1001
ACAD_DSTYLE_DIM_EXT1_LINETYPE
1070
   381
1005
14
1001
ACAD_DSTYLE_DIM_EXT2_LINETYPE
1070
   382
1005
14
  0
DIMSTYLE
105
33AF
330
A
100
AcDbSymbolTableRecord
100
AcDbDimStyleTableRecord
  2
AM_DIN$6
 70
     0
  4
"
 41
3.5
 42
1.0
 43
10.0
 44
1.0
 47
0.1
 48
0.1
 73
     0
 74
     0
 78
     8
 79
     2
140
3.5
141
0.0
143
0.0393701
146
0.71
147
1.5
172
     1
176
   256
177
   256
178
     2
271
     2
272
     3
274
     4
283
     0
284
     8
340
11
371
    -1
372
    -1
1001
ACAD_DSTYLE_DIMJOGGED_JOGANGLE_SYMBOL
1070
   384
1040
1.570796326794896
1001
ACAD_DSTYLE_DIM_LINETYPE
1070
   380
1005
14
1001
ACAD_DSTYLE_DIM_EXT1_LINETYPE
1070
   381
1005
14
1001
ACAD_DSTYLE_DIM_EXT2_LINETYPE
1070
   382
1005
14
  0
DIMSTYLE
105
33B0
330
A
100
AcDbSymbolTableRecord
100
AcDbDimStyleTableRecord
  2
AM_DIN$7
 70
     0
  4
"
 41
3.5
 42
1.0
 43
10.0
 44
1.0
 47
0.1
 48
0.1
 73
     0
 74
     0
 77
     1
 78
     8
 79
     2
140
3.5
141
0.0
143
0.0393701
146
0.71
147
1.5
172
     1
176
   256
177
   256
178
     2
271
     2
272
     3
274
     4
283
     0
284
     8
340
11
371
    -1
372
    -1
1001
ACAD_DSTYLE_DIMJOGGED_JOGANGLE_SYMBOL
1070
   384
1040
1.570796326794896
1001
ACAD_DSTYLE_DIM_LINETYPE
1070
   380
1005
14
1001
ACAD_DSTYLE_DIM_EXT1_LINETYPE
1070
   381
1005
14
1001
ACAD_DSTYLE_DIM_EXT2_LINETYPE
1070
   382
1005
14
  0
DIMSTYLE
105
33B1
330
A
100
AcDbSymbolTableRecord
100
AcDbDimStyleTableRecord
  2
AM_DIN$SF
 70
     0
  4
"
 41
3.5
 42
1.0
 43
10.0
 44
1.0
 47
0.1
 48
0.1
 73
     0
 74
     0
 75
     1
 76
     1
 77
     1
 78
     8
 79
     2
140
3.5
141
0.0
143
0.0393701
146
0.71
147
1.5
172
     1
176
   256
177
   256
178
     2
271
     2
272
     3
274
     4
283
     0
284
     8
340
11
371
    -1
372
    -1
1001
ACAD_DSTYLE_DIMJOGGED_JOGANGLE_SYMBOL
1070
   384
1040
1.570796326794896
1001
ACAD_DSTYLE_DIM_LINETYPE
1070
   380
1005
14
1001
ACAD_DSTYLE_DIM_EXT1_LINETYPE
1070
   381
1005
14
1001
ACAD_DSTYLE_DIM_EXT2_LINETYPE
1070
   382
1005
14
  0
DIMSTYLE
105
33B6
330
A
100
AcDbSymbolTableRecord
100
AcDbDimStyleTableRecord
  2
AM_DIN$SH
 70
     0
  4
"
 41
3.5
 42
1.0
 43
10.0
 44
1.0
 47
0.1
 48
0.1
 73
     0
 74
     0
 75
     1
 76
     1
 77
     1
 78
     8
 79
     2
140
3.5
141
0.0
143
0.0393701
144
2.0
146
0.71
147
1.5
172
     1
173
     1
176
   256
177
   256
178
     2
271
     2
272
     3
274
     4
283
     0
284
     8
340
11
343
33B2
371
    -1
372
    -1
1001
ACAD_DSTYLE_DIMJOGGED_JOGANGLE_SYMBOL
1070
   384
1040
1.570796326794896
1001
ACAD_DSTYLE_DIM_LINETYPE
1070
   380
1005
14
1001
ACAD_DSTYLE_DIM_EXT1_LINETYPE
1070
   381
1005
14
1001
ACAD_DSTYLE_DIM_EXT2_LINETYPE
1070
   382
1005
14
  0
ENDTAB
  0
TABLE
  2
BLOCK_RECORD
  5
1
330
0
100
AcDbSymbolTable
 70
     5
  0
BLOCK_RECORD
  5
1F
102
{ACAD_XDICTIONARY
360
8F
102
}
330
1
100
AcDbSymbolTableRecord
100
AcDbBlockTableRecord
  2
*Model_Space
340
22
  0
BLOCK_RECORD
  5
1B
330
1
100
AcDbSymbolTableRecord
100
AcDbBlockTableRecord
  2
*Paper_Space
340
1E
  0
BLOCK_RECORD
  5
23
330
1
100
AcDbSymbolTableRecord
100
AcDbBlockTableRecord
  2
*Paper_Space0
340
26
  0
BLOCK_RECORD
  5
E48
330
1
100
AcDbSymbolTableRecord
100
AcDbBlockTableRecord
  2
*D1
340
0
  0
BLOCK_RECORD
  5
33B2
330
1
100
AcDbSymbolTableRecord
100
AcDbBlockTableRecord
  2
GENAXEH
340
0
  0
BLOCK_RECORD
  5
347E
330
1
100
AcDbSymbolTableRecord
100
AcDbBlockTableRecord
  2
*D3
340
0
  0
ENDTAB
  0
ENDSEC
  0
SECTION
  2
BLOCKS
  0
BLOCK
  5
20
330
1F
100
AcDbEntity
  8
0
100
AcDbBlockBegin
  2
*Model_Space
 70
     0
 10
0.0
 20
0.0
 30
0.0
  3
*Model_Space
  1

  0
ENDBLK
  5
21
330
1F
100
AcDbEntity
  8
0
100
AcDbBlockEnd
  0
BLOCK
  5
1C
330
1B
100
AcDbEntity
 67
     1
  8
0
100
AcDbBlockBegin
  2
*Paper_Space
 70
     0
 10
0.0
 20
0.0
 30
0.0
  3
*Paper_Space
  1

  0
ENDBLK
  5
1D
330
1B
100
AcDbEntity
 67
     1
  8
0
100
AcDbBlockEnd
  0
BLOCK
  5
24
330
23
100
AcDbEntity
 67
     1
  8
0
100
AcDbBlockBegin
  2
*Paper_Space0
 70
     0
 10
0.0
 20
0.0
 30
0.0
  3
*Paper_Space0
  1

  0
ENDBLK
  5
25
330
23
100
AcDbEntity
 67
     1
  8
0
100
AcDbBlockEnd
  0
BLOCK
  5
E49
330
E48
100
AcDbEntity
  8
0
100
AcDbBlockBegin
  2
*D1
 70
     1
 10
0.0
 20
0.0
 30
0.0
  3
*D1
  1

  0
LINE
  5
3759
330
E48
100
AcDbEntity
  8
AM_5
  6
ByBlock
100
AcDbLine
 10
2342.767332719822
 20
1125.282488172726
 30
0.0
 11
2342.767332719822
 21
1275.440047195184
 31
0.0
  0
LINE
  5
375A
330
E48
100
AcDbEntity
  8
AM_5
  6
ByBlock
100
AcDbLine
 10
2842.854352803712
 20
1125.282488172726
 30
0.0
 11
2842.854352803712
 21
1275.440047195184
 31
0.0
  0
LINE
  5
375B
330
E48
100
AcDbEntity
  8
AM_5
  6
ByBlock
100
AcDbLine
 10
2347.767332719822
 20
1274.440047195184
 30
0.0
 11
2837.854352803712
 21
1274.440047195184
 31
0.0
  0
SOLID
  5
375C
330
E48
100
AcDbEntity
  8
AM_5
100
AcDbTrace
 10
2347.767332719822
 20
1275.273380528517
 30
0.0
 11
2347.767332719822
 21
1273.60671386185
 31
0.0
 12
2342.767332719822
 22
1274.440047195184
 32
0.0
 13
2342.767332719822
 23
1274.440047195184
 33
0.0
  0
SOLID
  5
375D
330
E48
100
AcDbEntity
  8
AM_5
100
AcDbTrace
 10
2837.854352803712
 20
1275.273380528517
 30
0.0
 11
2837.854352803712
 21
1273.60671386185
 31
0.0
 12
2842.854352803712
 22
1274.440047195184
 32
0.0
 13
2842.854352803712
 23
1274.440047195184
 33
0.0
  0
MTEXT
  5
375E
330
E48
100
AcDbEntity
  8
AM_5
 62
     2
100
AcDbMText
 10
2592.810842761767
 20
1280.940047195184
 30
0.0
 40
10.0
 41
0.0
 71
     5
 72
     1
  1
{\Famgdt;o} 500
 73
     1
 44
1.0
1001
ACAD
1000
MTEXTBEGIN
1070
    73
1070
     1
1070
    44
1040
1.0
1070
    74
1070
     0
1000
MTEXTEND
  0
POINT
  5
375F
330
E48
100
AcDbEntity
  8
Defpoints
 62
     0
100
AcDbPoint
 10
2342.767332719822
 20
1124.282488172726
 30
0.0
  0
POINT
  5
3760
330
E48
100
AcDbEntity
  8
Defpoints
 62
     0
100
AcDbPoint
 10
2842.854352803712
 20
1124.282488172726
 30
0.0
  0
POINT
  5
3761
330
E48
100
AcDbEntity
  8
Defpoints
 62
     0
100
AcDbPoint
 10
2842.854352803712
 20
1274.440047195184
 30
0.0
  0
ENDBLK
  5
E4A
330
E48
100
AcDbEntity
  8
0
100
AcDbBlockEnd
  0
BLOCK
  5
33B4
330
33B2
100
AcDbEntity
  8
0
100
AcDbBlockBegin
  2
GENAXEH
 70
     0
 10
0.0
 20
0.0
 30
0.0
  3
GENAXEH
  1

  0
LINE
  5
33B3
330
33B2
100
AcDbEntity
  8
0
100
AcDbLine
 10
-1.0
 20
0.0
 30
0.0
 11
1.0
 21
0.0
 31
0.0
  0
ENDBLK
  5
33B5
330
33B2
100
AcDbEntity
  8
0
100
AcDbBlockEnd
  0
BLOCK
  5
347F
330
347E
100
AcDbEntity
  8
0
100
AcDbBlockBegin
  2
*D3
 70
     1
 10
0.0
 20
0.0
 30
0.0
  3
*D3
  1

  0
LINE
  5
3762
330
347E
100
AcDbEntity
  8
AM_5
  6
ByBlock
100
AcDbLine
 10
2591.810842761764
 20
746.2824881727257
 30
0.0
 11
2414.7673327198
 21
746.2824881727257
 31
0.0
  0
LINE
  5
3763
330
347E
100
AcDbEntity
  8
AM_5
  6
ByBlock
100
AcDbLine
 10
2426.767332719801
 20
1116.282488172726
 30
0.0
 11
2414.767332719801
 21
1116.282488172726
 31
0.0
  0
LINE
  5
3764
330
347E
100
AcDbEntity
  8
AM_5
  6
ByBlock
100
AcDbLine
 10
2415.767332719801
 20
751.2824881727257
 30
0.0
 11
2415.767332719801
 21
1111.282488172726
 31
0.0
  0
SOLID
  5
3765
330
347E
100
AcDbEntity
  8
AM_5
100
AcDbTrace
 10
2414.933999386467
 20
751.2824881727257
 30
0.0
 11
2416.600666053134
 21
751.2824881727257
 31
0.0
 12
2415.767332719801
 22
746.2824881727257
 32
0.0
 13
2415.767332719801
 23
746.2824881727257
 33
0.0
  0
SOLID
  5
3766
330
347E
100
AcDbEntity
  8
AM_5
100
AcDbTrace
 10
2414.933999386468
 20
1111.282488172726
 30
0.0
 11
2416.600666053135
 21
1111.282488172726
 31
0.0
 12
2415.767332719801
 22
1116.282488172726
 32
0.0
 13
2415.767332719801
 23
1116.282488172726
 33
0.0
  0
MTEXT
  5
3767
330
347E
100
AcDbEntity
  8
AM_5
 62
     2
100
AcDbMText
 10
2409.2673327198
 20
931.2824881727262
 30
0.0
 40
10.0
 41
0.0
 71
     5
 72
     1
  1
370
 11
0.0000000000000001
 21
1.0
 31
0.0
 73
     1
 44
1.0
1001
ACAD
1000
MTEXTBEGIN
1070
    73
1070
     1
1070
    44
1040
1.0
1070
    74
1070
     0
1000
MTEXTEND
  0
POINT
  5
3768
330
347E
100
AcDbEntity
  8
Defpoints
 62
     0
100
AcDbPoint
 10
2592.810842761764
 20
746.2824881727257
 30
0.0
  0
POINT
  5
3769
330
347E
100
AcDbEntity
  8
Defpoints
 62
     0
100
AcDbPoint
 10
2427.767332719801
 20
1116.282488172726
 30
0.0
  0
POINT
  5
376A
330
347E
100
AcDbEntity
  8
Defpoints
 62
     0
100
AcDbPoint
 10
2415.767332719801
 20
1116.282488172726
 30
0.0
  0
ENDBLK
  5
3480
330
347E
100
AcDbEntity
  8
0
100
AcDbBlockEnd
  0
ENDSEC
  0
SECTION
  2
ENTITIES
  0
LINE
  5
950
330
1F
100
AcDbEntity
  8
P-0000
  6
Continuous
 62
     7
100
AcDbLine
 10
2427.767332719801
 20
1116.282488172726
 30
0.0
 11
2426.767332719801
 21
1118.014538980296
 31
0.0
1001
ACME_LAYERS
1000
1
  0
LINE
  5
995
330
1F
100
AcDbEntity
  8
P-0000
  6
Continuous
 62
     7
100
AcDbLine
 10
2556.310842761764
 20
971.2824881727268
 30
0.0
 11
2556.310842761767
 21
751.2824881727254
 31
0.0
1001
ACME_LAYERS
1000
1
  0
LINE
  5
996
330
1F
100
AcDbEntity
  8
P-0000
  6
Continuous
 62
     7
100
AcDbLine
 10
2556.310842761766
 20
978.2824881727259
 30
0.0
 11
2556.310842761764
 21
971.2824881727268
 31
0.0
1001
ACME_LAYERS
1000
1
  0
LINE
  5
997
102
{ACAD_REACTORS
330
348B
102
}
330
1F
100
AcDbEntity
  8
P-0000
  6
Continuous
 62
     7
100
AcDbLine
 10
2627.971096799611
 20
746.2824881727257
 30
0.0
 11
2557.650588723922
 21
746.2824881727257
 31
0.0
1001
ACME_LAYERS
1000
1
  0
LINE
  5
998
330
1F
100
AcDbEntity
  8
P-0000
  6
Continuous
 62
     3
100
AcDbLine
 10
2626.669278300296
 20
751.2824881727257
 30
0.0
 11
2558.669278300297
 21
751.2824881727257
 31
0.0
1001
ACME_LAYERS
1000
1
  0
LINE
  5
999
330
1F
100
AcDbEntity
  8
P-0000
  6
Continuous
 62
     7
100
AcDbLine
 10
2556.310842761766
 20
751.2824881727257
 30
0.0
 11
2557.650588723922
 21
746.2824881727257
 31
0.0
1001
ACME_LAYERS
1000
1
  0
LINE
  5
99A
330
1F
100
AcDbEntity
  8
P-0000
  6
Continuous
 62
     7
100
AcDbLine
 10
2629.310842761766
 20
751.2824881727257
 30
0.0
 11
2627.971096799611
 21
746.2824881727257
 31
0.0
1001
ACME_LAYERS
1000
1
  0
LINE
  5
B50
330
1F
100
AcDbEntity
  8
0
100
AcDbLine
 10
2557.810842761766
 20
1049.219650556999
 30
0.0
 11
2556.310842761766
 21
1049.219650556999
 31
0.0
  0
LINE
  5
C2E
330
1F
100
AcDbEntity
  8
0
100
AcDbLine
 10
2627.81084276177
 20
1049.219650556999
 30
0.0
 11
2629.310842761769
 21
1049.219650556999
 31
0.0
  0
LINE
  5
1962
330
1F
100
AcDbEntity
  8
P-0000
  6
Continuous
 62
     7
100
AcDbLine
 10
2592.810842761764
 20
803.9502261204678
 30
0.0
 11
2592.810842761767
 21
803.9502261204678
 31
0.0
1001
ACME_LAYERS
1000
1
  0
LINE
  5
2156
330
1F
100
AcDbEntity
  8
P-0000
  6
STRICHPUNKT
 62
     3
100
AcDbLine
 10
2592.771246518001
 20
765.2547167345259
 30
0.0
 11
2592.771246518001
 21
1232.433585196259
 31
0.0
1001
ACME_LAYERS
1000
1
  0
LINE
  5
235A
330
1F
100
AcDbEntity
  8
P-0000
  6
STRICHPUNKT
 62
     3
100
AcDbLine
 10
2592.810842761764
 20
773.1158454431952
 30
0.0
 11
2592.810842761764
 21
802.0967062036604
 31
0.0
1001
ACME_LAYERS
1000
1
  0
LINE
  5
26AE
330
1F
100
AcDbEntity
  8
P-0000
  6
STRICHPUNKT
 62
     3
100
AcDbLine
 10
2592.810842761764
 20
750.1158454431951
 30
0.0
 11
2592.810842761764
 21
773.1158454431952
 31
0.0
1001
ACME_LAYERS
1000
1
  0
LINE
  5
26AF
330
1F
100
AcDbEntity
  8
P-0000
  6
Continuous
 62
     7
100
AcDbLine
 10
2592.850439005523
 20
796.0967062036604
 30
0.0
 11
2592.810842761764
 21
796.0967062036602
 31
0.0
1001
ACME_LAYERS
1000
1
  0
LINE
  5
26B2
330
1F
100
AcDbEntity
  8
P-0000
  6
Continuous
 62
     7
100
AcDbLine
 10
2592.810842761764
 20
776.0967062036602
 30
0.0
 11
2592.850439005523
 21
776.0967062036602
 31
0.0
1001
ACME_LAYERS
1000
1
  0
LINE
  5
26B9
330
1F
100
AcDbEntity
  8
P-0000
  6
STRICHPUNKT
 62
     3
100
AcDbLine
 10
2592.810842761764
 20
773.1158454431952
 30
0.0
 11
2592.810842761764
 21
802.0967062036604
 31
0.0
1001
ACME_LAYERS
1000
1
  0
LINE
  5
2FA7
330
1F
100
AcDbEntity
  8
P-0000
  6
Continuous
 62
     7
100
AcDbLine
 10
2508.810842761767
 20
1116.282488172722
 30
0.0
 11
2528.810842761767
 21
1116.28248817274
 31
0.0
1001
ACME_LAYERS
1000
1
  0
LINE
  5
2FA8
330
1F
100
AcDbEntity
  8
P-0000
  6
Continuous
 62
     7
100
AcDbLine
 10
2545.810842761766
 20
1120.282488172726
 30
0.0
 11
2510.373051292283
 21
1120.282488172726
 31
0.0
1001
ACME_LAYERS
1000
1
  0
LINE
  5
2FAA
330
1F
100
AcDbEntity
  8
P-0000
  6
Continuous
 62
     7
100
AcDbLine
 10
2508.489129489526
 20
1122.282488172726
 30
0.0
 11
2545.810842761766
 21
1122.282488172726
 31
0.0
1001
ACME_LAYERS
1000
1
  0
HATCH
  5
2FAB
330
1F
100
AcDbEntity
  8
P-0000
  6
Continuous
 62
     3
100
AcDbHatch
 10
0.0
 20
0.0
 30
0.0
210
0.0
220
0.0
230
1.0
  2
_U
 70
     0
 71
     0
 91
        1
 92
        1
 93
        9
 72
     1
 10
2427.767332719801
 20
1116.282488172726
 11
2426.767332719801
 21
1118.014538980296
 72
     1
 10
2426.767332719801
 20
1118.014538980296
 11
2431.13279095971
 21
1120.534937470241
 72
     2
 10
2433.132790959709
 20
1117.070835855105
 40
4.0
 50
239.9999999999895
 51
270.0
 73
     0
 72
     2
 10
2433.132790959709
 20
1117.070835855105
 40
4.000000000000613
 50
270.0
 51
315.0000000000009
 73
     0
 72
     1
 10
2435.961218084456
 20
1119.899262979852
 11
2436.663779329208
 21
1119.196701735098
 72
     1
 10
2436.663779329208
 20
1119.196701735098
 11
2435.249565766835
 21
1117.782488172725
 72
     1
 10
2435.249565766835
 20
1117.782488172726
 11
2434.547004522083
 21
1118.485049417478
 72
     2
 10
2433.132790959709
 20
1117.070835855105
 40
2.000000000000115
 50
44.99999999999594
 51
120.0000000000099
 73
     1
 72
     1
 10
2432.132790959709
 20
1118.802886662673
 11
2427.767332719801
 21
1116.282488172726
 97
        0
 75
     0
 76
     0
 52
44.99999999999999
 41
2.0
 77
     0
 78
     1
 53
45.0
 43
2744.571284263033
 44
982.3916231391617
 45
-1.414213562373094
 46
1.414213562373094
 79
     0
 98
        1
 10
2744.571284263033
 20
982.3916231391617
1001
ACME_LAYERS
1000
1
  0
LINE
  5
2FAC
330
1F
100
AcDbEntity
  8
P-0000
  6
Continuous
 62
     3
100
AcDbLine
 10
2426.767332719801
 20
1118.014538980296
 30
0.0
 11
2431.13279095971
 21
1120.53493747024
 31
0.0
1001
ACME_LAYERS
1000
1
  0
LINE
  5
2FAD
330
1F
100
AcDbEntity
  8
P-0000
  6
Continuous
 62
     7
100
AcDbLine
 10
2427.767332719801
 20
1116.282488172726
 30
0.0
 11
2432.132790959709
 21
1118.802886662673
 31
0.0
1001
ACME_LAYERS
1000
1
  0
LINE
  5
2FAE
330
1F
100
AcDbEntity
  8
P-0000
  6
Continuous
 62
     7
100
AcDbLine
 10
2427.767332719801
 20
1116.282488172726
 30
0.0
 11
2432.132790959709
 21
1118.802886662673
 31
0.0
1001
ACME_LAYERS
1000
1
  0
LINE
  5
2FAF
330
1F
100
AcDbEntity
  8
P-0000
  6
Continuous
 62
     7
100
AcDbLine
 10
2427.767332719801
 20
1116.282488172726
 30
0.0
 11
2452.339129489525
 21
1116.282488172726
 31
0.0
1001
ACME_LAYERS
1000
1
  0
LINE
  5
2FB0
102
{ACAD_REACTORS
330
348B
102
}
330
1F
100
AcDbEntity
  8
P-0000
  6
Continuous
 62
     7
100
AcDbLine
 10
2427.767332719801
 20
1116.282488172726
 30
0.0
 11
2426.767332719801
 21
1118.014538980296
 31
0.0
1001
ACME_LAYERS
1000
1
  0
LINE
  5
2FB1
330
1F
100
AcDbEntity
  8
P-0000
  6
Continuous
 62
     7
100
AcDbLine
 10
2452.339129489525
 20
1116.282488172726
 30
0.0
 11
2490.310842761779
 21
1116.282488172722
 31
0.0
1001
ACME_LAYERS
1000
1
  0
LINE
  5
2FB2
330
1F
100
AcDbEntity
  8
P-0000
  6
Continuous
 62
     7
100
AcDbLine
 10
2473.352114142911
 20
1146.635689517383
 30
0.0
 11
2476.552114142911
 21
1146.635689517383
 31
0.0
1001
ACME_LAYERS
1000
1
  0
LINE
  5
2FB3
330
1F
100
AcDbEntity
  8
P-0000
  6
Continuous
 62
     7
100
AcDbLine
 10
2479.752114142911
 20
1146.035689517384
 30
0.0
 11
2473.352114142911
 21
1146.035689517384
 31
0.0
1001
ACME_LAYERS
1000
1
  0
LINE
  5
2FB5
330
1F
100
AcDbEntity
  8
P-0000
  6
Continuous
 62
     7
100
AcDbLine
 10
2472.560842761759
 20
1118.282488172726
 30
0.0
 11
2480.517332719801
 21
1118.282488172726
 31
0.0
1001
ACME_LAYERS
1000
1
  0
LINE
  5
2FB6
330
1F
100
AcDbEntity
  8
P-0000
  6
Continuous
 62
     7
100
AcDbLine
 10
2472.55211414291
 20
1146.035689517384
 30
0.0
 11
2472.552114142911
 21
1143.08840807767
 31
0.0
1001
ACME_LAYERS
1000
1
  0
LINE
  5
2FB7
330
1F
100
AcDbEntity
  8
P-0000
  6
Continuous
 62
     3
100
AcDbLine
 10
2473.352114142911
 20
1146.635689517383
 30
0.0
 11
2473.352114142911
 21
1143.08840807767
 31
0.0
1001
ACME_LAYERS
1000
1
  0
LINE
  5
2FB8
330
1F
100
AcDbEntity
  8
P-0000
  6
Continuous
 62
     3
100
AcDbLine
 10
2473.29557769882
 20
1135.488408077671
 30
0.0
 11
2473.29557769882
 21
1134.904059376099
 31
0.0
1001
ACME_LAYERS
1000
1
  0
LINE
  5
2FB9
330
1F
100
AcDbEntity
  8
P-0000
  6
Continuous
 62
     7
100
AcDbLine
 10
2473.352114142911
 20
1146.035689517384
 30
0.0
 11
2472.55211414291
 21
1146.035689517384
 31
0.0
1001
ACME_LAYERS
1000
1
  0
LINE
  5
2FBA
330
1F
100
AcDbEntity
  8
P-0000
  6
Continuous
 62
     3
100
AcDbLine
 10
2473.352114142911
 20
1146.635689517383
 30
0.0
 11
2473.352114142911
 21
1146.035689517384
 31
0.0
1001
ACME_LAYERS
1000
1
  0
LINE
  5
2FBB
330
1F
100
AcDbEntity
  8
P-0000
  6
Continuous
 62
     7
100
AcDbLine
 10
2472.55211414291
 20
1146.035689517384
 30
0.0
 11
2473.352114142911
 21
1146.635689517383
 31
0.0
1001
ACME_LAYERS
1000
1
  0
ARC
  5
2FBC
330
1F
100
AcDbEntity
  8
P-0000
  6
Continuous
 62
     7
100
AcDbCircle
 10
2452.339129489525
 20
1120.282488172726
 30
0.0
 40
1.999999999999253
100
AcDbArc
 50
239.9999999999995
 51
270.0
1001
ACME_LAYERS
1000
1
  0
ARC
  5
2FBD
330
1F
100
AcDbEntity
  8
P-0000
  6
Continuous
 62
     7
100
AcDbCircle
 10
2452.339129489525
 20
1120.282488172726
 30
0.0
 40
4.000000000000131
100
AcDbArc
 50
239.9999999999995
 51
270.0
1001
ACME_LAYERS
1000
1
  0
LINE
  5
2FBE
330
1F
100
AcDbEntity
  8
P-0000
  6
Continuous
 62
     7
100
AcDbLine
 10
2452.617332719801
 20
1118.282488172726
 30
0.0
 11
2446.84938352737
 21
1121.612615191648
 31
0.0
1001
ACME_LAYERS
1000
1
  0
LINE
  5
2FBF
330
1F
100
AcDbEntity
  8
P-0000
  6
Continuous
 62
     7
100
AcDbLine
 10
2446.901874479892
 20
1118.802886662673
 30
0.0
 11
2450.339129489524
 21
1116.818386557588
 31
0.0
1001
ACME_LAYERS
1000
1
  0
LINE
  5
2FC0
330
1F
100
AcDbEntity
  8
P-0000
  6
Continuous
 62
     7
100
AcDbLine
 10
2436.663779329208
 20
1119.196701735098
 30
0.0
 11
2442.370886110393
 21
1119.196701735098
 31
0.0
1001
ACME_LAYERS
1000
1
  0
LINE
  5
2FC1
330
1F
100
AcDbEntity
  8
P-0000
  6
Continuous
 62
     7
100
AcDbLine
 10
2435.249565766835
 20
1117.782488172726
 30
0.0
 11
2443.785099672767
 21
1117.782488172726
 31
0.0
1001
ACME_LAYERS
1000
1
  0
LINE
  5
2FC2
330
1F
100
AcDbEntity
  8
P-0000
  6
Continuous
 62
     7
100
AcDbLine
 10
2435.499383527371
 20
1122.282488172726
 30
0.0
 11
2444.34938352737
 21
1122.282488172726
 31
0.0
1001
ACME_LAYERS
1000
1
  0
LINE
  5
2FC3
330
1F
100
AcDbEntity
  8
P-0000
  6
Continuous
 62
     7
100
AcDbLine
 10
2433.132790959709
 20
1121.070835855105
 30
0.0
 11
2445.901874479893
 21
1121.070835855105
 31
0.0
1001
ACME_LAYERS
1000
1
  0
ARC
  5
2FC4
330
1F
100
AcDbEntity
  8
P-0000
  6
Continuous
 62
     7
100
AcDbCircle
 10
2435.499383527369
 20
1117.282488172726
 30
0.0
 40
5.0
100
AcDbArc
 50
89.99999999997395
 51
120.0000000000005
1001
ACME_LAYERS
1000
1
  0
ARC
  5
2FC5
330
1F
100
AcDbEntity
  8
P-0000
  6
Continuous
 62
     7
100
AcDbCircle
 10
2433.132790959709
 20
1117.070835855105
 30
0.0
 40
4.000000000000613
100
AcDbArc
 50
44.99999999999078
 51
90.0
1001
ACME_LAYERS
1000
1
  0
LINE
  5
2FC6
330
1F
100
AcDbEntity
  8
P-0000
  6
Continuous
 62
     7
100
AcDbLine
 10
2434.547004522083
 20
1118.485049417477
 30
0.0
 11
2435.249565766835
 21
1117.782488172726
 31
0.0
1001
ACME_LAYERS
1000
1
  0
ARC
  5
2FC7
330
1F
100
AcDbEntity
  8
P-0000
  6
Continuous
 62
     7
100
AcDbCircle
 10
2433.132790959709
 20
1117.070835855105
 30
0.0
 40
4.0
100
AcDbArc
 50
90.0
 51
120.0000000000005
1001
ACME_LAYERS
1000
1
  0
LINE
  5
2FC8
330
1F
100
AcDbEntity
  8
P-0000
  6
Continuous
 62
     7
100
AcDbLine
 10
2431.13279095971
 20
1120.53493747024
 30
0.0
 11
2432.999383527369
 21
1121.612615191648
 31
0.0
1001
ACME_LAYERS
1000
1
  0
ARC
  5
2FC9
330
1F
100
AcDbEntity
  8
P-0000
  6
Continuous
 62
     7
100
AcDbCircle
 10
2433.132790959709
 20
1117.070835855105
 30
0.0
 40
2.000000000000115
100
AcDbArc
 50
44.99999999999078
 51
120.0000000000005
1001
ACME_LAYERS
1000
1
  0
LINE
  5
2FCA
330
1F
100
AcDbEntity
  8
P-0000
  6
Continuous
 62
     7
100
AcDbLine
 10
2436.663779329208
 20
1119.196701735098
 30
0.0
 11
2435.249565766835
 21
1117.782488172726
 31
0.0
1001
ACME_LAYERS
1000
1
  0
LINE
  5
2FCB
330
1F
100
AcDbEntity
  8
P-0000
  6
Continuous
 62
     7
100
AcDbLine
 10
2435.961218084456
 20
1119.899262979852
 30
0.0
 11
2436.663779329208
 21
1119.196701735098
 31
0.0
1001
ACME_LAYERS
1000
1
  0
ARC
  5
2FCC
330
1F
100
AcDbEntity
  8
P-0000
  6
Continuous
 62
     7
100
AcDbCircle
 10
2445.901874479893
 20
1117.070835855105
 30
0.0
 40
1.999999999999401
100
AcDbArc
 50
59.99999999999944
 51
135.0000000000092
1001
ACME_LAYERS
1000
1
  0
ARC
  5
2FCD
330
1F
100
AcDbEntity
  8
P-0000
  6
Continuous
 62
     7
100
AcDbCircle
 10
2444.34938352737
 20
1117.282488172726
 30
0.0
 40
5.000000000000164
100
AcDbArc
 50
59.99999999999944
 51
90.0
1001
ACME_LAYERS
1000
1
  0
ARC
  5
2FCE
330
1F
100
AcDbEntity
  8
P-0000
  6
Continuous
 62
     7
100
AcDbCircle
 10
2445.901874479893
 20
1117.070835855105
 30
0.0
 40
1.999999999999401
100
AcDbArc
 50
59.99999999999944
 51
135.0000000000092
1001
ACME_LAYERS
1000
1
  0
ARC
  5
2FCF
330
1F
100
AcDbEntity
  8
P-0000
  6
Continuous
 62
     7
100
AcDbCircle
 10
2445.901874479893
 20
1117.070835855105
 30
0.0
 40
3.999999999998728
100
AcDbArc
 50
59.99999999999944
 51
90.0
1001
ACME_LAYERS
1000
1
  0
ARC
  5
2FD0
330
1F
100
AcDbEntity
  8
P-0000
  6
Continuous
 62
     7
100
AcDbCircle
 10
2445.901874479893
 20
1117.070835855105
 30
0.0
 40
4.0
100
AcDbArc
 50
90.0
 51
135.0000000000092
1001
ACME_LAYERS
1000
1
  0
LINE
  5
2FD1
330
1F
100
AcDbEntity
  8
P-0000
  6
Continuous
 62
     7
100
AcDbLine
 10
2442.370886110393
 20
1119.196701735098
 30
0.0
 11
2443.073447355146
 21
1119.899262979852
 31
0.0
1001
ACME_LAYERS
1000
1
  0
LINE
  5
2FD2
330
1F
100
AcDbEntity
  8
P-0000
  6
Continuous
 62
     7
100
AcDbLine
 10
2443.785099672767
 20
1117.782488172726
 30
0.0
 11
2444.487660917519
 21
1118.485049417477
 31
0.0
1001
ACME_LAYERS
1000
1
  0
LINE
  5
2FD3
330
1F
100
AcDbEntity
  8
P-0000
  6
Continuous
 62
     7
100
AcDbLine
 10
2443.785099672767
 20
1117.782488172726
 30
0.0
 11
2442.370886110393
 21
1119.196701735098
 31
0.0
1001
ACME_LAYERS
1000
1
  0
LINE
  5
2FD4
330
1F
100
AcDbEntity
  8
P-0000
  6
Continuous
 62
     7
100
AcDbLine
 10
2447.901874479893
 20
1120.53493747024
 30
0.0
 11
2451.339129489525
 21
1118.550437365158
 31
0.0
1001
ACME_LAYERS
1000
1
  0
LINE
  5
2FD5
330
1F
100
AcDbEntity
  8
P-0000
  6
Continuous
 62
     7
100
AcDbLine
 10
2452.617332719801
 20
1118.282488172726
 30
0.0
 11
2472.560842761759
 21
1118.282488172726
 31
0.0
1001
ACME_LAYERS
1000
1
  0
LINE
  5
2FD6
330
1F
100
AcDbEntity
  8
P-0000
  6
Continuous
 62
     7
100
AcDbLine
 10
2452.617332719801
 20
1118.282488172726
 30
0.0
 11
2452.339129489525
 21
1118.282488172726
 31
0.0
1001
ACME_LAYERS
1000
1
  0
LINE
  5
2FD7
330
1F
100
AcDbEntity
  8
P-0000
  6
Continuous
 62
     3
100
AcDbLine
 10
2473.29557769882
 20
1134.904059376099
 30
0.0
 11
2473.29557769882
 21
1118.282488172726
 31
0.0
1001
ACME_LAYERS
1000
1
  0
LINE
  5
2FD8
330
1F
100
AcDbEntity
  8
P-0000
  6
Continuous
 62
     7
100
AcDbLine
 10
2472.49557769882
 20
1131.488408077669
 30
0.0
 11
2472.49557769882
 21
1127.488408077669
 31
0.0
1001
ACME_LAYERS
1000
1
  0
LINE
  5
2FD9
330
1F
100
AcDbEntity
  8
P-0000
  6
Continuous
 62
     7
100
AcDbLine
 10
2480.55211414291
 20
1146.035689517384
 30
0.0
 11
2480.55211414291
 21
1143.08840807767
 31
0.0
1001
ACME_LAYERS
1000
1
  0
LINE
  5
2FDA
330
1F
100
AcDbEntity
  8
P-0000
  6
Continuous
 62
     3
100
AcDbLine
 10
2479.69557769882
 20
1135.488408077671
 30
0.0
 11
2479.69557769882
 21
1118.282488172726
 31
0.0
1001
ACME_LAYERS
1000
1
  0
LINE
  5
2FDB
330
1F
100
AcDbEntity
  8
P-0000
  6
STRICHPUNKT
 62
     3
100
AcDbLine
 10
2476.552114142911
 20
1121.051340815814
 30
0.0
 11
2476.552114142911
 21
1146.635689517383
 31
0.0
1001
ACME_LAYERS
1000
1
  0
LINE
  5
2FDC
330
1F
100
AcDbEntity
  8
P-0000
  6
Continuous
 62
     3
100
AcDbLine
 10
2479.752114142911
 20
1146.635689517383
 30
0.0
 11
2479.752114142911
 21
1143.08840807767
 31
0.0
1001
ACME_LAYERS
1000
1
  0
LINE
  5
2FDD
330
1F
100
AcDbEntity
  8
P-0000
  6
Continuous
 62
     3
100
AcDbLine
 10
2479.752114142911
 20
1146.635689517383
 30
0.0
 11
2479.752114142911
 21
1146.035689517384
 31
0.0
1001
ACME_LAYERS
1000
1
  0
LINE
  5
2FDE
330
1F
100
AcDbEntity
  8
P-0000
  6
Continuous
 62
     7
100
AcDbLine
 10
2480.55211414291
 20
1146.035689517384
 30
0.0
 11
2479.752114142911
 21
1146.035689517384
 31
0.0
1001
ACME_LAYERS
1000
1
  0
LINE
  5
2FDF
330
1F
100
AcDbEntity
  8
P-0000
  6
Continuous
 62
     7
100
AcDbLine
 10
2479.752114142911
 20
1146.635689517383
 30
0.0
 11
2480.55211414291
 21
1146.035689517384
 31
0.0
1001
ACME_LAYERS
1000
1
  0
LINE
  5
2FE0
330
1F
100
AcDbEntity
  8
P-0000
  6
Continuous
 62
     7
100
AcDbLine
 10
2476.552114142911
 20
1146.635689517383
 30
0.0
 11
2479.752114142911
 21
1146.635689517383
 31
0.0
1001
ACME_LAYERS
1000
1
  0
LINE
  5
2FE1
330
1F
100
AcDbEntity
  8
P-0000
  6
Continuous
 62
     7
100
AcDbLine
 10
2495.310842761764
 20
1116.282488172722
 30
0.0
 11
2508.810842761767
 21
1116.282488172722
 31
0.0
1001
ACME_LAYERS
1000
1
  0
LINE
  5
2FE2
330
1F
100
AcDbEntity
  8
P-0000
  6
Continuous
 62
     7
100
AcDbLine
 10
2480.517332719801
 20
1118.282488172726
 30
0.0
 11
2499.953231104663
 21
1118.282488172726
 31
0.0
1001
ACME_LAYERS
1000
1
  0
LINE
  5
2FE3
330
1F
100
AcDbEntity
  8
P-0000
  6
Continuous
 62
     7
100
AcDbLine
 10
2491.072045821855
 20
1116.282488172726
 30
0.0
 11
2499.953231104663
 21
1116.282488172726
 31
0.0
1001
ACME_LAYERS
1000
1
  0
LINE
  5
2FE4
330
1F
100
AcDbEntity
  8
P-0000
  6
Continuous
 62
     7
100
AcDbLine
 10
2480.49557769882
 20
1131.488408077669
 30
0.0
 11
2480.49557769882
 21
1127.488408077669
 31
0.0
1001
ACME_LAYERS
1000
1
  0
LINE
  5
2FE5
330
1F
100
AcDbEntity
  8
P-0000
  6
Continuous
 62
     7
100
AcDbLine
 10
2490.310842761779
 20
1116.282488172722
 30
0.0
 11
2491.072045821855
 21
1116.282488172726
 31
0.0
1001
ACME_LAYERS
1000
1
  0
LINE
  5
2FE6
330
1F
100
AcDbEntity
  8
P-0000
  6
Continuous
 62
     7
100
AcDbLine
 10
2501.953231104663
 20
1116.818386557588
 30
0.0
 11
2507.489129489526
 21
1120.014538980296
 31
0.0
1001
ACME_LAYERS
1000
1
  0
LINE
  5
2FE7
330
1F
100
AcDbEntity
  8
P-0000
  6
Continuous
 62
     7
100
AcDbLine
 10
2508.489129489526
 20
1120.282488172726
 30
0.0
 11
2510.373051292283
 21
1120.282488172726
 31
0.0
1001
ACME_LAYERS
1000
1
  0
LINE
  5
2FE8
330
1F
100
AcDbEntity
  8
P-0000
  6
Continuous
 62
     7
100
AcDbLine
 10
2500.953231104662
 20
1118.550437365155
 30
0.0
 11
2506.489129489526
 21
1121.746589787864
 31
0.0
1001
ACME_LAYERS
1000
1
  0
ARC
  5
2FE9
330
1F
100
AcDbEntity
  8
P-0000
  6
Continuous
 62
     7
100
AcDbCircle
 10
2499.953231104663
 20
1120.282488172726
 30
0.0
 40
2.0
100
AcDbArc
 50
270.0
 51
300.0000000000005
1001
ACME_LAYERS
1000
1
  0
ARC
  5
2FEA
330
1F
100
AcDbEntity
  8
P-0000
  6
Continuous
 62
     7
100
AcDbCircle
 10
2508.489129489526
 20
1118.282488172726
 30
0.0
 40
4.0
100
AcDbArc
 50
90.0
 51
120.0000000000005
1001
ACME_LAYERS
1000
1
  0
ARC
  5
2FEB
330
1F
100
AcDbEntity
  8
P-0000
  6
Continuous
 62
     7
100
AcDbCircle
 10
2508.489129489526
 20
1118.282488172726
 30
0.0
 40
2.0
100
AcDbArc
 50
90.0
 51
119.9999999999714
1001
ACME_LAYERS
1000
1
  0
ARC
  5
2FEC
330
1F
100
AcDbEntity
  8
P-0000
  6
Continuous
 62
     7
100
AcDbCircle
 10
2499.953231104663
 20
1120.282488172726
 30
0.0
 40
4.0
100
AcDbArc
 50
270.0
 51
300.0000000000005
1001
ACME_LAYERS
1000
1
  0
LINE
  5
2FED
330
1F
100
AcDbEntity
  8
P-0000
  6
Continuous
 62
     7
100
AcDbLine
 10
2553.440524575302
 20
1122.282488172726
 30
0.0
 11
2592.810842761767
 21
1122.282488172726
 31
0.0
1001
ACME_LAYERS
1000
1
  0
LINE
  5
2FEE
330
1F
100
AcDbEntity
  8
P-0000
  6
Continuous
 62
     7
100
AcDbLine
 10
2545.810842761766
 20
1122.282488172726
 30
0.0
 11
2592.810842761767
 21
1122.282488172726
 31
0.0
1001
ACME_LAYERS
1000
1
  0
LINE
  5
2FEF
330
1F
100
AcDbEntity
  8
P-0000
  6
Continuous
 62
     7
100
AcDbLine
 10
2528.810842761767
 20
1116.28248817274
 30
0.0
 11
2544.347615179831
 21
1116.28248817274
 31
0.0
1001
ACME_LAYERS
1000
1
  0
LINE
  5
2FF0
330
1F
100
AcDbEntity
  8
P-0000
  6
Continuous
 62
     7
100
AcDbLine
 10
2526.306571445447
 20
1122.502020246857
 30
0.0
 11
2526.310842761759
 21
1122.485856494265
 31
0.0
1001
ACME_LAYERS
1000
1
  0
LINE
  5
2FF3
330
1F
100
AcDbEntity
  8
P-0000
  6
Continuous
 62
     7
100
AcDbLine
 10
2541.196993804825
 20
1116.282488172735
 30
0.0
 11
2544.347615179831
 21
1116.282488172738
 31
0.0
1001
ACME_LAYERS
1000
1
  0
LINE
  5
2FF4
330
1F
100
AcDbEntity
  8
P-0000
  6
Continuous
 62
     7
100
AcDbLine
 10
2479.752114142911
 20
1143.08840807767
 30
0.0
 11
2473.352114142912
 21
1143.08840807767
 31
0.0
1001
ACME_LAYERS
1000
1
  0
LINE
  5
2FF5
330
1F
100
AcDbEntity
  8
P-0000
  6
Continuous
 62
     7
100
AcDbLine
 10
2473.352114142912
 20
1143.08840807767
 30
0.0
 11
2472.55211414291
 21
1143.08840807767
 31
0.0
1001
ACME_LAYERS
1000
1
  0
LINE
  5
2FF6
330
1F
100
AcDbEntity
  8
P-0000
  6
Continuous
 62
     7
100
AcDbLine
 10
2468.10641602949
 20
1136.988408077669
 30
0.0
 11
2468.10641602949
 21
1135.488408077671
 31
0.0
1001
ACME_LAYERS
1000
1
  0
LINE
  5
2FF7
330
1F
100
AcDbEntity
  8
P-0000
  6
Continuous
 62
     7
100
AcDbLine
 10
2480.55211414291
 20
1133.488408077671
 30
0.0
 11
2480.55211414291
 21
1127.488408077669
 31
0.0
1001
ACME_LAYERS
1000
1
  0
LINE
  5
2FF8
330
1F
100
AcDbEntity
  8
P-0000
  6
Continuous
 62
     7
100
AcDbLine
 10
2485.10641602949
 20
1135.488408077671
 30
0.0
 11
2485.10641602949
 21
1136.988408077669
 31
0.0
1001
ACME_LAYERS
1000
1
  0
LINE
  5
2FF9
330
1F
100
AcDbEntity
  8
P-0000
  6
Continuous
 62
     7
100
AcDbLine
 10
2459.05211414292
 20
1132.988408077669
 30
0.0
 11
2472.55211414291
 21
1132.988408077669
 31
0.0
1001
ACME_LAYERS
1000
1
  0
LINE
  5
2FFA
330
1F
100
AcDbEntity
  8
P-0000
  6
Continuous
 62
     7
100
AcDbLine
 10
2464.880541267655
 20
1131.488408077669
 30
0.0
 11
2467.318143980883
 21
1131.488408077669
 31
0.0
1001
ACME_LAYERS
1000
1
  0
LINE
  5
2FFB
330
1F
100
AcDbEntity
  8
P-0000
  6
Continuous
 62
     7
100
AcDbLine
 10
2592.802114142903
 20
1132.988408077669
 30
0.0
 11
2505.55211414291
 21
1132.988408077669
 31
0.0
1001
ACME_LAYERS
1000
1
  0
LINE
  5
2FFC
330
1F
100
AcDbEntity
  8
P-0000
  6
Continuous
 62
     7
100
AcDbLine
 10
2464.880541267655
 20
1131.488408077669
 30
0.0
 11
2467.318143980883
 21
1131.488408077669
 31
0.0
1001
ACME_LAYERS
1000
1
  0
LINE
  5
2FFD
330
1F
100
AcDbEntity
  8
P-0000
  6
Continuous
 62
     7
100
AcDbLine
 10
2467.318143980883
 20
1131.488408077669
 30
0.0
 11
2468.728472509743
 21
1131.488408077669
 31
0.0
1001
ACME_LAYERS
1000
1
  0
LINE
  5
2FFE
330
1F
100
AcDbEntity
  8
P-0000
  6
Continuous
 62
     7
100
AcDbLine
 10
2467.318143980883
 20
1131.488408077669
 30
0.0
 11
2468.728472509743
 21
1131.488408077669
 31
0.0
1001
ACME_LAYERS
1000
1
  0
LINE
  5
2FFF
330
1F
100
AcDbEntity
  8
P-0000
  6
Continuous
 62
     7
100
AcDbLine
 10
2592.802114142908
 20
1131.256357270101
 30
0.0
 11
2506.552114142911
 21
1131.256357270101
 31
0.0
1001
ACME_LAYERS
1000
1
  0
LINE
  5
3000
330
1F
100
AcDbEntity
  8
P-0000
  6
Continuous
 62
     7
100
AcDbLine
 10
2505.55211414291
 20
1132.988408077669
 30
0.0
 11
2499.954037931559
 21
1129.756357270101
 31
0.0
1001
ACME_LAYERS
1000
1
  0
LINE
  5
3001
330
1F
100
AcDbEntity
  8
P-0000
  6
Continuous
 62
     7
100
AcDbLine
 10
2480.55211414291
 20
1132.988408077669
 30
0.0
 11
2505.55211414291
 21
1132.988408077669
 31
0.0
1001
ACME_LAYERS
1000
1
  0
LINE
  5
3002
330
1F
100
AcDbEntity
  8
P-0000
  6
Continuous
 62
     7
100
AcDbLine
 10
2506.552114142911
 20
1131.256357270101
 30
0.0
 11
2505.55211414291
 21
1132.988408077669
 31
0.0
1001
ACME_LAYERS
1000
1
  0
LINE
  5
3003
330
1F
100
AcDbEntity
  8
P-0000
  6
Continuous
 62
     7
100
AcDbLine
 10
2505.55211414291
 20
1132.988408077669
 30
0.0
 11
2505.48014798041
 21
1132.988408077669
 31
0.0
1001
ACME_LAYERS
1000
1
  0
LINE
  5
3004
330
1F
100
AcDbEntity
  8
P-0000
  6
Continuous
 62
     7
100
AcDbLine
 10
2468.728472509743
 20
1131.488408077669
 30
0.0
 11
2471.552114142911
 21
1131.488408077669
 31
0.0
1001
ACME_LAYERS
1000
1
  0
LINE
  5
3006
330
1F
100
AcDbEntity
  8
P-0000
  6
Continuous
 62
     3
100
AcDbLine
 10
2453.614291969403
 20
1129.488408077669
 30
0.0
 11
2454.150190354265
 21
1129.488408077669
 31
0.0
1001
ACME_LAYERS
1000
1
  0
LINE
  5
3007
330
1F
100
AcDbEntity
  8
P-0000
  6
Continuous
 62
     3
100
AcDbLine
 10
2453.150190354266
 20
1129.756357270101
 30
0.0
 11
2453.614291969403
 21
1129.488408077669
 31
0.0
1001
ACME_LAYERS
1000
1
  0
LINE
  5
3008
330
1F
100
AcDbEntity
  8
P-0000
  6
Continuous
 62
     7
100
AcDbLine
 10
2491.05211414291
 20
1130.316835202417
 30
0.0
 11
2491.294754830031
 21
1130.074194515297
 31
0.0
1001
ACME_LAYERS
1000
1
  0
LINE
  5
3009
330
1F
100
AcDbEntity
  8
P-0000
  6
Continuous
 62
     7
100
AcDbLine
 10
2462.052114142911
 20
1130.316835202417
 30
0.0
 11
2461.809473455792
 21
1130.074194515297
 31
0.0
1001
ACME_LAYERS
1000
1
  0
LINE
  5
300A
330
1F
100
AcDbEntity
  8
P-0000
  6
Continuous
 62
     7
100
AcDbLine
 10
2471.552114142911
 20
1131.488408077669
 30
0.0
 11
2471.552114142911
 21
1129.488408077669
 31
0.0
1001
ACME_LAYERS
1000
1
  0
LINE
  5
300B
330
1F
100
AcDbEntity
  8
P-0000
  6
Continuous
 62
     7
100
AcDbLine
 10
2481.552114142911
 20
1131.488408077669
 30
0.0
 11
2481.552114142911
 21
1129.488408077669
 31
0.0
1001
ACME_LAYERS
1000
1
  0
LINE
  5
300C
330
1F
100
AcDbEntity
  8
P-0000
  6
Continuous
 62
     7
100
AcDbLine
 10
2446.552114142912
 20
1131.256357270101
 30
0.0
 11
2447.552114142911
 21
1132.988408077669
 31
0.0
1001
ACME_LAYERS
1000
1
  0
LINE
  5
300D
330
1F
100
AcDbEntity
  8
P-0000
  6
Continuous
 62
     7
100
AcDbLine
 10
2446.552114142912
 20
1131.256357270101
 30
0.0
 11
2452.150190354265
 21
1128.024306462531
 31
0.0
1001
ACME_LAYERS
1000
1
  0
LINE
  5
300E
330
1F
100
AcDbEntity
  8
P-0000
  6
Continuous
 62
     7
100
AcDbLine
 10
2447.552114142911
 20
1132.988408077669
 30
0.0
 11
2453.150190354266
 21
1129.756357270101
 31
0.0
1001
ACME_LAYERS
1000
1
  0
LINE
  5
300F
330
1F
100
AcDbEntity
  8
P-0000
  6
Continuous
 62
     7
100
AcDbLine
 10
2463.466327705284
 20
1128.902621640043
 30
0.0
 11
2463.223687018163
 21
1128.659980952925
 31
0.0
1001
ACME_LAYERS
1000
1
  0
LINE
  5
3010
330
1F
100
AcDbEntity
  8
P-0000
  6
Continuous
 62
     7
100
AcDbLine
 10
2489.637900580536
 20
1128.902621640043
 30
0.0
 11
2489.880541267657
 21
1128.659980952925
 31
0.0
1001
ACME_LAYERS
1000
1
  0
LINE
  5
3011
330
1F
100
AcDbEntity
  8
P-0000
  6
Continuous
 62
     7
100
AcDbLine
 10
2506.552114142911
 20
1131.256357270101
 30
0.0
 11
2500.954037931558
 21
1128.024306462531
 31
0.0
1001
ACME_LAYERS
1000
1
  0
LINE
  5
3012
330
1F
100
AcDbEntity
  8
P-0000
  6
Continuous
 62
     7
100
AcDbLine
 10
2498.954037931558
 20
1127.488408077669
 30
0.0
 11
2592.802114142908
 21
1127.488408077669
 31
0.0
1001
ACME_LAYERS
1000
1
  0
LINE
  5
3013
330
1F
100
AcDbEntity
  8
P-0000
  6
Continuous
 62
     7
100
AcDbLine
 10
2498.954037931558
 20
1129.488408077669
 30
0.0
 11
2492.708968392404
 21
1129.488408077669
 31
0.0
1001
ACME_LAYERS
1000
1
  0
LINE
  5
3014
330
1F
100
AcDbEntity
  8
P-0000
  6
Continuous
 62
     7
100
AcDbLine
 10
2498.954037931558
 20
1127.488408077669
 30
0.0
 11
2492.708968392404
 21
1127.488408077669
 31
0.0
1001
ACME_LAYERS
1000
1
  0
LINE
  5
3015
330
1F
100
AcDbEntity
  8
P-0000
  6
Continuous
 62
     7
100
AcDbLine
 10
2454.150190354265
 20
1127.488408077669
 30
0.0
 11
2460.395259893417
 21
1127.488408077669
 31
0.0
1001
ACME_LAYERS
1000
1
  0
LINE
  5
3016
330
1F
100
AcDbEntity
  8
P-0000
  6
Continuous
 62
     7
100
AcDbLine
 10
2471.552114142911
 20
1131.488408077669
 30
0.0
 11
2472.55211414291
 21
1131.488408077669
 31
0.0
1001
ACME_LAYERS
1000
1
  0
LINE
  5
3017
330
1F
100
AcDbEntity
  8
P-0000
  6
Continuous
 62
     7
100
AcDbLine
 10
2468.728472509743
 20
1131.488408077669
 30
0.0
 11
2471.552114142911
 21
1131.488408077669
 31
0.0
1001
ACME_LAYERS
1000
1
  0
LINE
  5
3018
330
1F
100
AcDbEntity
  8
P-0000
  6
Continuous
 62
     7
100
AcDbLine
 10
2481.552114142911
 20
1131.488408077669
 30
0.0
 11
2488.223687018165
 21
1131.488408077669
 31
0.0
1001
ACME_LAYERS
1000
1
  0
LINE
  5
3019
330
1F
100
AcDbEntity
  8
P-0000
  6
Continuous
 62
     7
100
AcDbLine
 10
2480.55211414291
 20
1129.488408077669
 30
0.0
 11
2488.223687018165
 21
1129.488408077669
 31
0.0
1001
ACME_LAYERS
1000
1
  0
LINE
  5
301A
330
1F
100
AcDbEntity
  8
P-0000
  6
Continuous
 62
     7
100
AcDbLine
 10
2464.880541267657
 20
1129.488408077669
 30
0.0
 11
2472.49557769882
 21
1129.488408077669
 31
0.0
1001
ACME_LAYERS
1000
1
  0
LINE
  5
301B
330
1F
100
AcDbEntity
  8
P-0000
  6
Continuous
 62
     7
100
AcDbLine
 10
2480.55211414291
 20
1131.488408077669
 30
0.0
 11
2481.552114142911
 21
1131.488408077669
 31
0.0
1001
ACME_LAYERS
1000
1
  0
LINE
  5
301C
330
1F
100
AcDbEntity
  8
P-0000
  6
Continuous
 62
     7
100
AcDbLine
 10
2454.150190354265
 20
1129.488408077669
 30
0.0
 11
2460.395259893417
 21
1129.488408077669
 31
0.0
1001
ACME_LAYERS
1000
1
  0
LINE
  5
301D
330
1F
100
AcDbEntity
  8
P-0000
  6
Continuous
 62
     7
100
AcDbLine
 10
2486.55211414291
 20
1131.488408077669
 30
0.0
 11
2481.552114142911
 21
1131.488408077669
 31
0.0
1001
ACME_LAYERS
1000
1
  0
LINE
  5
301E
330
1F
100
AcDbEntity
  8
P-0000
  6
Continuous
 62
     7
100
AcDbLine
 10
2481.552114142911
 20
1131.488408077669
 30
0.0
 11
2480.55211414291
 21
1131.488408077669
 31
0.0
1001
ACME_LAYERS
1000
1
  0
LINE
  5
301F
330
1F
100
AcDbEntity
  8
P-0000
  6
Continuous
 62
     7
100
AcDbLine
 10
2447.552114142911
 20
1132.988408077669
 30
0.0
 11
2459.05211414292
 21
1132.988408077669
 31
0.0
1001
ACME_LAYERS
1000
1
  0
LINE
  5
3020
330
1F
100
AcDbEntity
  8
P-0000
  6
Continuous
 62
     7
100
AcDbLine
 10
2468.10641602949
 20
1131.488408077669
 30
0.0
 11
2472.55211414291
 21
1131.488408077669
 31
0.0
1001
ACME_LAYERS
1000
1
  0
LINE
  5
3021
330
1F
100
AcDbEntity
  8
P-0000
  6
Continuous
 62
     7
100
AcDbLine
 10
2480.55211414291
 20
1131.488408077669
 30
0.0
 11
2481.552114142911
 21
1131.488408077669
 31
0.0
1001
ACME_LAYERS
1000
1
  0
LINE
  5
3022
330
1F
100
AcDbEntity
  8
P-0000
  6
Continuous
 62
     7
100
AcDbLine
 10
2468.10641602949
 20
1137.08840807767
 30
0.0
 11
2468.10641602949
 21
1136.988408077669
 31
0.0
1001
ACME_LAYERS
1000
1
  0
LINE
  5
3023
330
1F
100
AcDbEntity
  8
P-0000
  6
Continuous
 62
     7
100
AcDbLine
 10
2485.10641602949
 20
1137.08840807767
 30
0.0
 11
2468.10641602949
 21
1137.08840807767
 31
0.0
1001
ACME_LAYERS
1000
1
  0
LINE
  5
3024
330
1F
100
AcDbEntity
  8
P-0000
  6
Continuous
 62
     7
100
AcDbLine
 10
2485.10641602949
 20
1136.988408077669
 30
0.0
 11
2485.10641602949
 21
1137.08840807767
 31
0.0
1001
ACME_LAYERS
1000
1
  0
LINE
  5
3025
330
1F
100
AcDbEntity
  8
P-0000
  6
Continuous
 62
     7
100
AcDbLine
 10
2484.057667642377
 20
1138.975347269577
 30
0.0
 11
2484.057667642377
 21
1137.66896466127
 31
0.0
1001
ACME_LAYERS
1000
1
  0
LINE
  5
3026
330
1F
100
AcDbEntity
  8
P-0000
  6
Continuous
 62
     7
100
AcDbLine
 10
2470.052114142911
 20
1137.08840807767
 30
0.0
 11
2483.05211414291
 21
1137.08840807767
 31
0.0
1001
ACME_LAYERS
1000
1
  0
LINE
  5
3027
330
1F
100
AcDbEntity
  8
P-0000
  6
Continuous
 62
     7
100
AcDbLine
 10
2469.046560643446
 20
1138.975347269577
 30
0.0
 11
2469.046560643446
 21
1137.66896466127
 31
0.0
1001
ACME_LAYERS
1000
1
  0
LINE
  5
3028
330
1F
100
AcDbEntity
  8
P-0000
  6
Continuous
 62
     7
100
AcDbLine
 10
2472.55211414291
 20
1143.08840807767
 30
0.0
 11
2470.052114142911
 21
1143.08840807767
 31
0.0
1001
ACME_LAYERS
1000
1
  0
LINE
  5
3029
330
1F
100
AcDbEntity
  8
P-0000
  6
Continuous
 62
     7
100
AcDbLine
 10
2480.304890892643
 20
1138.975347269577
 30
0.0
 11
2480.304890892643
 21
1137.66896466127
 31
0.0
1001
ACME_LAYERS
1000
1
  0
LINE
  5
302A
330
1F
100
AcDbEntity
  8
P-0000
  6
Continuous
 62
     7
100
AcDbLine
 10
2472.799337393178
 20
1138.975347269577
 30
0.0
 11
2472.799337393178
 21
1137.66896466127
 31
0.0
1001
ACME_LAYERS
1000
1
  0
LINE
  5
302B
330
1F
100
AcDbEntity
  8
P-0000
  6
Continuous
 62
     7
100
AcDbLine
 10
2483.81099605372
 20
1137.515551643303
 30
0.0
 11
2483.05211414291
 21
1137.08840807767
 31
0.0
1001
ACME_LAYERS
1000
1
  0
LINE
  5
302C
330
1F
100
AcDbEntity
  8
P-0000
  6
Continuous
 62
     7
100
AcDbLine
 10
2483.81099605372
 20
1142.661264512035
 30
0.0
 11
2483.05211414291
 21
1143.08840807767
 31
0.0
1001
ACME_LAYERS
1000
1
  0
LINE
  5
302D
330
1F
100
AcDbEntity
  8
P-0000
  6
Continuous
 62
     7
100
AcDbLine
 10
2469.293232232103
 20
1137.515551643303
 30
0.0
 11
2470.052114142911
 21
1137.08840807767
 31
0.0
1001
ACME_LAYERS
1000
1
  0
LINE
  5
302E
330
1F
100
AcDbEntity
  8
P-0000
  6
Continuous
 62
     7
100
AcDbLine
 10
2469.293232232103
 20
1142.661264512035
 30
0.0
 11
2470.052114142911
 21
1143.08840807767
 31
0.0
1001
ACME_LAYERS
1000
1
  0
LINE
  5
302F
330
1F
100
AcDbEntity
  8
P-0000
  6
Continuous
 62
     7
100
AcDbLine
 10
2483.05211414291
 20
1143.08840807767
 30
0.0
 11
2480.55211414291
 21
1143.08840807767
 31
0.0
1001
ACME_LAYERS
1000
1
  0
LINE
  5
3030
330
1F
100
AcDbEntity
  8
P-0000
  6
Continuous
 62
     7
100
AcDbLine
 10
2480.55211414291
 20
1143.08840807767
 30
0.0
 11
2479.752114142911
 21
1143.08840807767
 31
0.0
1001
ACME_LAYERS
1000
1
  0
LINE
  5
3031
330
1F
100
AcDbEntity
  8
P-0000
  6
Continuous
 62
     7
100
AcDbLine
 10
2469.046560643446
 20
1142.507851494069
 30
0.0
 11
2469.046560643446
 21
1138.975347269577
 31
0.0
1001
ACME_LAYERS
1000
1
  0
LINE
  5
3032
330
1F
100
AcDbEntity
  8
P-0000
  6
Continuous
 62
     7
100
AcDbLine
 10
2472.799337393178
 20
1142.507851494069
 30
0.0
 11
2472.799337393178
 21
1138.975347269577
 31
0.0
1001
ACME_LAYERS
1000
1
  0
LINE
  5
3033
330
1F
100
AcDbEntity
  8
P-0000
  6
Continuous
 62
     7
100
AcDbLine
 10
2480.304890892643
 20
1142.507851494069
 30
0.0
 11
2480.304890892643
 21
1138.975347269577
 31
0.0
1001
ACME_LAYERS
1000
1
  0
LINE
  5
3034
330
1F
100
AcDbEntity
  8
P-0000
  6
Continuous
 62
     7
100
AcDbLine
 10
2484.057667642377
 20
1142.507851494069
 30
0.0
 11
2484.057667642377
 21
1138.975347269577
 31
0.0
1001
ACME_LAYERS
1000
1
  0
LINE
  5
3035
330
1F
100
AcDbEntity
  8
P-0000
  6
Continuous
 62
     7
100
AcDbLine
 10
2592.810842761767
 20
1132.988408077669
 30
0.0
 11
2592.802114142932
 21
1132.988408077669
 31
0.0
1001
ACME_LAYERS
1000
1
  0
LINE
  5
3036
330
1F
100
AcDbEntity
  8
P-0000
  6
Continuous
 62
     7
100
AcDbLine
 10
2592.810842761767
 20
1131.256357270101
 30
0.0
 11
2592.802114142908
 21
1131.256357270101
 31
0.0
1001
ACME_LAYERS
1000
1
  0
LINE
  5
3037
330
1F
100
AcDbEntity
  8
P-0000
  6
Continuous
 62
     7
100
AcDbLine
 10
2592.810842761767
 20
1127.488408077669
 30
0.0
 11
2592.802114142908
 21
1127.488408077669
 31
0.0
1001
ACME_LAYERS
1000
1
  0
LINE
  5
3038
330
1F
100
AcDbEntity
  8
P-0000
  6
Continuous
 62
     7
100
AcDbLine
 10
2471.052114142912
 20
1131.488408077671
 30
0.0
 11
2466.052114142912
 21
1131.488408077671
 31
0.0
1001
ACME_LAYERS
1000
1
  0
LINE
  5
3039
330
1F
100
AcDbEntity
  8
P-0000
  6
Continuous
 62
     7
100
AcDbLine
 10
2468.10641602949
 20
1135.488408077671
 30
0.0
 11
2472.55211414291
 21
1135.488408077671
 31
0.0
1001
ACME_LAYERS
1000
1
  0
LINE
  5
303A
330
1F
100
AcDbEntity
  8
P-0000
  6
Continuous
 62
     7
100
AcDbLine
 10
2481.552114142911
 20
1131.488408077669
 30
0.0
 11
2485.10641602949
 21
1131.488408077669
 31
0.0
1001
ACME_LAYERS
1000
1
  0
LINE
  5
303B
330
1F
100
AcDbEntity
  8
P-0000
  6
Continuous
 62
     7
100
AcDbLine
 10
2481.552114142911
 20
1131.488408077669
 30
0.0
 11
2481.052114142912
 21
1131.488408077671
 31
0.0
1001
ACME_LAYERS
1000
1
  0
LINE
  5
303C
330
1F
100
AcDbEntity
  8
P-0000
  6
Continuous
 62
     7
100
AcDbLine
 10
2485.10641602949
 20
1135.488408077671
 30
0.0
 11
2481.052114142912
 21
1135.488408077671
 31
0.0
1001
ACME_LAYERS
1000
1
  0
LINE
  5
303D
330
1F
100
AcDbEntity
  8
P-0000
  6
Continuous
 62
     7
100
AcDbLine
 10
2472.55211414291
 20
1131.488408077669
 30
0.0
 11
2471.552114142911
 21
1131.488408077669
 31
0.0
1001
ACME_LAYERS
1000
1
  0
LINE
  5
303E
330
1F
100
AcDbEntity
  8
P-0000
  6
Continuous
 62
     7
100
AcDbLine
 10
2480.55211414291
 20
1133.488408077671
 30
0.0
 11
2481.052114142912
 21
1133.488408077671
 31
0.0
1001
ACME_LAYERS
1000
1
  0
LINE
  5
303F
330
1F
100
AcDbEntity
  8
P-0000
  6
Continuous
 62
     7
100
AcDbLine
 10
2479.752114142911
 20
1133.488408077671
 30
0.0
 11
2480.55211414291
 21
1133.488408077671
 31
0.0
1001
ACME_LAYERS
1000
1
  0
LINE
  5
3040
330
1F
100
AcDbEntity
  8
P-0000
  6
Continuous
 62
     7
100
AcDbLine
 10
2473.352114142912
 20
1135.488408077671
 30
0.0
 11
2481.052114142912
 21
1135.488408077671
 31
0.0
1001
ACME_LAYERS
1000
1
  0
LINE
  5
3041
330
1F
100
AcDbEntity
  8
P-0000
  6
Continuous
 62
     7
100
AcDbLine
 10
2472.55211414291
 20
1135.488408077671
 30
0.0
 11
2473.352114142912
 21
1135.488408077671
 31
0.0
1001
ACME_LAYERS
1000
1
  0
LINE
  5
3042
330
1F
100
AcDbEntity
  8
P-0000
  6
Continuous
 62
     7
100
AcDbLine
 10
2488.223687018165
 20
1131.488408077669
 30
0.0
 11
2481.552114142911
 21
1131.488408077669
 31
0.0
1001
ACME_LAYERS
1000
1
  0
ARC
  5
3043
330
1F
100
AcDbEntity
  8
P-0000
  6
Continuous
 62
     7
100
AcDbCircle
 10
2460.395259893417
 20
1131.488408077669
 30
0.0
 40
4.0
100
AcDbArc
 50
270.0
 51
315.0000000000092
1001
ACME_LAYERS
1000
1
  0
ARC
  5
3044
330
1F
100
AcDbEntity
  8
P-0000
  6
Continuous
 62
     7
100
AcDbCircle
 10
2488.223687018165
 20
1127.488408077669
 30
0.0
 40
4.000000000000613
100
AcDbArc
 50
44.99999999999078
 51
90.0
1001
ACME_LAYERS
1000
1
  0
ARC
  5
3045
330
1F
100
AcDbEntity
  8
P-0000
  6
Continuous
 62
     7
100
AcDbCircle
 10
2492.708968392404
 20
1131.488408077669
 30
0.0
 40
3.999999999999423
100
AcDbArc
 50
224.9999999999908
 51
270.0
1001
ACME_LAYERS
1000
1
  0
ARC
  5
3046
330
1F
100
AcDbEntity
  8
P-0000
  6
Continuous
 62
     7
100
AcDbCircle
 10
2498.954037931558
 20
1131.488408077669
 30
0.0
 40
4.0
100
AcDbArc
 50
270.0
 51
300.0000000000005
1001
ACME_LAYERS
1000
1
  0
ARC
  5
3047
330
1F
100
AcDbEntity
  8
P-0000
  6
Continuous
 62
     7
100
AcDbCircle
 10
2476.55211414291
 20
1149.507851494067
 30
0.0
 40
12.41944341639904
100
AcDbArc
 50
252.4120462260095
 51
287.5879537739905
1001
ACME_LAYERS
1000
1
  0
ARC
  5
3048
330
1F
100
AcDbEntity
  8
P-0000
  6
Continuous
 62
     7
100
AcDbCircle
 10
2476.55211414291
 20
1130.66896466127
 30
0.0
 40
12.41944341639904
100
AcDbArc
 50
72.41204622600953
 51
107.5879537739904
1001
ACME_LAYERS
1000
1
  0
ARC
  5
3049
330
1F
100
AcDbEntity
  8
P-0000
  6
Continuous
 62
     7
100
AcDbCircle
 10
2482.18127926751
 20
1140.410977650619
 30
0.0
 40
3.322569572950221
100
AcDbArc
 50
235.6157525319468
 51
299.3733793948324
1001
ACME_LAYERS
1000
1
  0
ARC
  5
304A
330
1F
100
AcDbEntity
  8
P-0000
  6
Continuous
 62
     7
100
AcDbCircle
 10
2482.18127926751
 20
1139.765838504719
 30
0.0
 40
3.322569572950149
100
AcDbArc
 50
55.61575253194686
 51
60.62662060516761
1001
ACME_LAYERS
1000
1
  0
ARC
  5
304B
330
1F
100
AcDbEntity
  8
P-0000
  6
Continuous
 62
     7
100
AcDbCircle
 10
2470.922949018313
 20
1140.410977650619
 30
0.0
 40
3.322569572950221
100
AcDbArc
 50
235.6157525319468
 51
240.6266206051676
1001
ACME_LAYERS
1000
1
  0
ARC
  5
304C
330
1F
100
AcDbEntity
  8
P-0000
  6
Continuous
 62
     7
100
AcDbCircle
 10
2470.922949018313
 20
1139.765838504719
 30
0.0
 40
3.322569572949122
100
AcDbArc
 50
55.61575253197573
 51
119.3733793948324
1001
ACME_LAYERS
1000
1
  0
ARC
  5
304D
330
1F
100
AcDbEntity
  8
P-0000
  6
Continuous
 62
     7
100
AcDbCircle
 10
2482.18127926751
 20
1140.410977650619
 30
0.0
 40
3.322569572949876
100
AcDbArc
 50
299.3733793948324
 51
304.3842474680531
1001
ACME_LAYERS
1000
1
  0
ARC
  5
304E
330
1F
100
AcDbEntity
  8
P-0000
  6
Continuous
 62
     7
100
AcDbCircle
 10
2482.18127926751
 20
1139.765838504719
 30
0.0
 40
3.322569572949888
100
AcDbArc
 50
60.62662060516761
 51
124.3842474680531
1001
ACME_LAYERS
1000
1
  0
ARC
  5
304F
330
1F
100
AcDbEntity
  8
P-0000
  6
Continuous
 62
     7
100
AcDbCircle
 10
2470.922949018313
 20
1140.410977650619
 30
0.0
 40
3.322569572949872
100
AcDbArc
 50
240.6266206051676
 51
304.3842474680243
1001
ACME_LAYERS
1000
1
  0
ARC
  5
3050
330
1F
100
AcDbEntity
  8
P-0000
  6
Continuous
 62
     7
100
AcDbCircle
 10
2470.922949018313
 20
1139.765838504719
 30
0.0
 40
3.322569572949884
100
AcDbArc
 50
119.3733793948324
 51
124.3842474680531
1001
ACME_LAYERS
1000
1
  0
ARC
  5
3051
330
1F
100
AcDbEntity
  8
P-0000
  6
Continuous
 62
     7
100
AcDbCircle
 10
2498.954037931558
 20
1131.488408077669
 30
0.0
 40
2.0
100
AcDbArc
 50
270.0
 51
300.0000000000296
1001
ACME_LAYERS
1000
1
  0
ARC
  5
3052
330
1F
100
AcDbEntity
  8
P-0000
  6
Continuous
 62
     7
100
AcDbCircle
 10
2492.708968392404
 20
1131.488408077669
 30
0.0
 40
2.000000000000397
100
AcDbArc
 50
224.9999999999908
 51
270.0
1001
ACME_LAYERS
1000
1
  0
ARC
  5
3053
330
1F
100
AcDbEntity
  8
P-0000
  6
Continuous
 62
     7
100
AcDbCircle
 10
2488.223687018165
 20
1127.488408077669
 30
0.0
 40
2.000000000000311
100
AcDbArc
 50
44.99999999999078
 51
90.0
1001
ACME_LAYERS
1000
1
  0
ARC
  5
3054
330
1F
100
AcDbEntity
  8
P-0000
  6
Continuous
 62
     7
100
AcDbCircle
 10
2464.880541267657
 20
1127.488408077669
 30
0.0
 40
2.0
100
AcDbArc
 50
90.0
 51
135.0000000000092
1001
ACME_LAYERS
1000
1
  0
ARC
  5
3055
330
1F
100
AcDbEntity
  8
P-0000
  6
Continuous
 62
     7
100
AcDbCircle
 10
2460.395259893417
 20
1131.488408077669
 30
0.0
 40
2.0
100
AcDbArc
 50
270.0
 51
315.0000000000092
1001
ACME_LAYERS
1000
1
  0
ARC
  5
3056
330
1F
100
AcDbEntity
  8
P-0000
  6
Continuous
 62
     7
100
AcDbCircle
 10
2454.150190354265
 20
1131.488408077669
 30
0.0
 40
1.999999999999425
100
AcDbArc
 50
239.9999999999704
 51
270.0
1001
ACME_LAYERS
1000
1
  0
ARC
  5
3057
330
1F
100
AcDbEntity
  8
P-0000
  6
Continuous
 62
     7
100
AcDbCircle
 10
2454.150190354265
 20
1131.488408077669
 30
0.0
 40
4.000000000000401
100
AcDbArc
 50
239.9999999999995
 51
270.0
1001
ACME_LAYERS
1000
1
  0
ARC
  5
3058
330
1F
100
AcDbEntity
  8
P-0000
  6
Continuous
 62
     7
100
AcDbCircle
 10
2464.880541267657
 20
1127.488408077669
 30
0.0
 40
4.0
100
AcDbArc
 50
90.00000000002605
 51
135.0000000000092
1001
ACME_LAYERS
1000
1
  0
HATCH
  5
3059
330
1F
100
AcDbEntity
  8
P-0000
  6
Continuous
 62
     3
100
AcDbHatch
 10
0.0
 20
0.0
 30
0.0
210
0.0
220
0.0
230
1.0
  2
_U
 70
     0
 71
     0
 91
        1
 92
        1
 93
       19
 72
     1
 10
2505.55211414291
 20
1132.988408077669
 11
2499.954037931559
 21
1129.756357270102
 72
     1
 10
2499.954037931559
 20
1129.756357270101
 11
2499.48993631642
 21
1129.488408077669
 72
     1
 10
2499.48993631642
 20
1129.488408077669
 11
2498.954037931558
 21
1129.488408077669
 72
     1
 10
2498.954037931558
 20
1129.488408077669
 11
2492.708968392404
 21
1129.488408077669
 72
     1
 10
2492.708968392404
 20
1129.488408077669
 11
2491.880541267657
 21
1129.488408077669
 72
     1
 10
2491.880541267657
 20
1129.488408077669
 11
2491.294754830031
 21
1130.074194515296
 72
     1
 10
2491.294754830031
 20
1130.074194515297
 11
2491.05211414291
 21
1130.316835202417
 72
     2
 10
2488.223687018165
 20
1127.488408077669
 40
4.000000000000613
 50
44.99999999999911
 51
89.99999999999998
 73
     1
 72
     1
 10
2488.223687018165
 20
1131.488408077669
 11
2481.552114142911
 21
1131.488408077669
 72
     1
 10
2481.552114142911
 20
1131.488408077669
 11
2481.552114142911
 21
1129.488408077669
 72
     1
 10
2481.552114142911
 20
1129.488408077669
 11
2488.223687018165
 21
1129.488408077669
 72
     1
 10
2488.223687018165
 20
1129.488408077669
 11
2489.052114142911
 21
1129.488408077669
 72
     1
 10
2489.052114142911
 20
1129.488408077669
 11
2489.637900580537
 21
1128.902621640043
 72
     1
 10
2489.637900580536
 20
1128.902621640043
 11
2489.880541267657
 21
1128.659980952925
 72
     2
 10
2492.708968392404
 20
1131.488408077669
 40
3.999999999999423
 50
224.9999999999822
 51
270.0
 73
     1
 72
     1
 10
2492.708968392404
 20
1127.488408077669
 11
2498.954037931558
 21
1127.488408077669
 72
     2
 10
2498.954037931558
 20
1131.488408077669
 40
4.0
 50
270.0
 51
299.9999999999967
 73
     1
 72
     1
 10
2500.954037931558
 20
1128.024306462531
 11
2506.552114142911
 21
1131.256357270101
 72
     1
 10
2506.552114142911
 20
1131.256357270101
 11
2505.55211414291
 21
1132.988408077669
 97
        0
 75
     0
 76
     0
 52
44.99999999999999
 41
1.0
 77
     0
 78
     1
 53
45.0
 43
0.0
 44
-0.0000000000001137
 45
-0.7071067811865475
 46
0.7071067811865476
 79
     0
 98
        1
 10
2533.518986128016
 20
1268.114373572045
1001
ACME_LAYERS
1000
1
1001
ACAD
1010
0.0
1020
0.0
1030
0.0
  0
HATCH
  5
305A
330
1F
100
AcDbEntity
  8
P-0000
  6
Continuous
 62
     3
100
AcDbHatch
 10
0.0
 20
0.0
 30
0.0
210
0.0
220
0.0
230
1.0
  2
_U
 70
     0
 71
     0
 91
        1
 92
        1
 93
       19
 72
     2
 10
2460.395259893417
 20
1131.488408077669
 40
2.0
 50
270.0
 51
315.0000000000351
 73
     1
 72
     1
 10
2461.809473455792
 20
1130.074194515297
 11
2462.052114142911
 21
1130.316835202417
 72
     2
 10
2464.880541267657
 20
1127.488408077669
 40
4.0
 50
224.9999999999992
 51
269.9999999999739
 73
     0
 72
     1
 10
2464.880541267655
 20
1131.488408077669
 11
2467.318143980883
 21
1131.488408077669
 72
     1
 10
2467.318143980883
 20
1131.488408077669
 11
2468.728472509743
 21
1131.488408077669
 72
     1
 10
2468.728472509743
 20
1131.488408077669
 11
2471.552114142911
 21
1131.488408077669
 72
     1
 10
2471.552114142911
 20
1131.488408077669
 11
2471.552114142911
 21
1129.488408077669
 72
     1
 10
2471.552114142911
 20
1129.488408077669
 11
2464.880541267657
 21
1129.488408077669
 72
     1
 10
2464.880541267657
 20
1129.488408077669
 11
2464.052114142911
 21
1129.488408077669
 72
     1
 10
2464.052114142911
 20
1129.488408077669
 11
2463.466327705284
 21
1128.902621640043
 72
     1
 10
2463.466327705284
 20
1128.902621640043
 11
2463.223687018163
 21
1128.659980952925
 72
     2
 10
2460.395259893417
 20
1131.488408077669
 40
4.0
 50
44.99999999998212
 51
90.00000000000001
 73
     0
 72
     1
 10
2460.395259893417
 20
1127.488408077669
 11
2454.150190354265
 21
1127.488408077669
 72
     2
 10
2454.150190354265
 20
1131.488408077669
 40
4.000000000000401
 50
90.00000000000001
 51
119.9999999999967
 73
     0
 72
     1
 10
2452.150190354265
 20
1128.024306462531
 11
2446.552114142912
 21
1131.256357270101
 72
     1
 10
2446.552114142912
 20
1131.256357270101
 11
2447.552114142911
 21
1132.988408077669
 72
     1
 10
2447.552114142911
 20
1132.988408077669
 11
2453.150190354266
 21
1129.756357270102
 72
     2
 10
2454.150190354265
 20
1131.488408077669
 40
1.999999999999425
 50
239.9999999999905
 51
270.0
 73
     1
 72
     1
 10
2454.150190354265
 20
1129.488408077669
 11
2460.395259893417
 21
1129.488408077669
 97
        0
 75
     0
 76
     0
 52
44.99999999999999
 41
5.0
 77
     0
 78
     1
 53
45.0
 43
2533.518986128016
 44
1268.114373572045
 45
-3.535533905932736
 46
3.535533905932738
 79
     0
 98
        1
 10
2533.518986128016
 20
1268.114373572045
1001
ACME_LAYERS
1000
1
  0
LINE
  5
305B
330
1F
100
AcDbEntity
  8
0
100
AcDbLine
 10
2472.55211414291
 20
1127.488408077669
 30
0.0
 11
2472.55211414291
 21
1133.488408077671
 31
0.0
  0
LINE
  5
305C
330
1F
100
AcDbEntity
  8
P-0000
  6
STRICHPUNKT
 62
     3
100
AcDbLine
 10
2709.069571380624
 20
1130.461296592917
 30
0.0
 11
2709.069571380624
 21
1137.461296592917
 31
0.0
1001
ACME_LAYERS
1000
1
  0
LINE
  5
305D
330
1F
100
AcDbEntity
  8
P-0000
  6
Continuous
 62
     7
100
AcDbLine
 10
2714.069571380624
 20
1135.488408077671
 30
0.0
 11
2704.069571380624
 21
1135.488408077671
 31
0.0
1001
ACME_LAYERS
1000
1
  0
LINE
  5
305E
330
1F
100
AcDbEntity
  8
P-0000
  6
Continuous
 62
     7
100
AcDbLine
 10
2601.319571380624
 20
1133.488408077671
 30
0.0
 11
2597.819571380624
 21
1133.488408077671
 31
0.0
1001
ACME_LAYERS
1000
1
  0
LINE
  5
305F
330
1F
100
AcDbEntity
  8
P-0000
  6
Continuous
 62
     7
100
AcDbLine
 10
2597.819571380624
 20
1133.488408077671
 30
0.0
 11
2592.819571380624
 21
1133.488408077671
 31
0.0
1001
ACME_LAYERS
1000
1
  0
LINE
  5
3060
330
1F
100
AcDbEntity
  8
P-0000
  6
Continuous
 62
     7
100
AcDbLine
 10
2603.319571380624
 20
1133.488408077671
 30
0.0
 11
2601.319571380624
 21
1133.488408077671
 31
0.0
1001
ACME_LAYERS
1000
1
  0
LINE
  5
3061
330
1F
100
AcDbEntity
  8
P-0000
  6
Continuous
 62
     7
100
AcDbLine
 10
2603.319571380624
 20
1135.488408077671
 30
0.0
 11
2603.319571380624
 21
1133.488408077671
 31
0.0
1001
ACME_LAYERS
1000
1
  0
LINE
  5
3062
330
1F
100
AcDbEntity
  8
P-0000
  6
Continuous
 62
     7
100
AcDbLine
 10
2498.919256508454
 20
1127.488408077669
 30
0.0
 11
2492.6741869693
 21
1127.488408077669
 31
0.0
1001
ACME_LAYERS
1000
1
  0
LINE
  5
3063
330
1F
100
AcDbEntity
  8
P-0000
  6
Continuous
 62
     7
100
AcDbLine
 10
2454.150190354265
 20
1127.488408077669
 30
0.0
 11
2460.395259893419
 21
1127.488408077669
 31
0.0
1001
ACME_LAYERS
1000
1
  0
LINE
  5
3064
330
1F
100
AcDbEntity
  8
P-0000
  6
Continuous
 62
     7
100
AcDbLine
 10
2498.95403793156
 20
1127.488408077669
 30
0.0
 11
2492.708968392406
 21
1127.488408077669
 31
0.0
1001
ACME_LAYERS
1000
1
  0
LINE
  5
306B
330
1F
100
AcDbEntity
  8
0
100
AcDbLine
 10
2472.49557769882
 20
1131.488408077669
 30
0.0
 11
2472.49557769882
 21
1118.282488172726
 31
0.0
  0
LINE
  5
306C
330
1F
100
AcDbEntity
  8
0
100
AcDbLine
 10
2480.49557769882
 20
1131.488408077669
 30
0.0
 11
2480.49557769882
 21
1118.282488172726
 31
0.0
  0
HATCH
  5
306E
330
1F
100
AcDbEntity
  8
P-3FF0
  6
Continuous
 62
     3
100
AcDbHatch
 10
0.0
 20
0.0
 30
0.0
210
0.0
220
0.0
230
1.0
  2
_U
 70
     0
 71
     0
 91
        1
 92
        1
 93
       37
 72
     1
 10
2443.828609714711
 20
1117.717314962583
 11
2442.414396152337
 21
1119.131528524957
 72
     1
 10
2442.414396152337
 20
1119.131528524958
 11
2443.116957397089
 21
1119.834089769709
 72
     2
 10
2445.945384521835
 20
1117.005662644962
 40
4.0
 50
224.9999999999994
 51
270.0
 73
     0
 72
     2
 10
2445.945384521835
 20
1117.005662644962
 40
3.999999999999721
 50
270.0
 51
299.9999999999985
 73
     0
 72
     1
 10
2447.945384521835
 20
1120.4697642601
 11
2451.382639531468
 21
1118.485264155014
 72
     2
 10
2452.382639531468
 20
1120.217314962584
 40
1.999999999999868
 50
239.9999999999979
 51
270.0
 73
     1
 72
     1
 10
2452.382639531468
 20
1118.217314962584
 11
2452.660842761744
 21
1118.217314962584
 72
     1
 10
2452.660842761744
 20
1118.217314962584
 11
2472.560842761744
 21
1118.217314962584
 72
     1
 10
2472.560842761744
 20
1118.217314962584
 11
2473.360842761744
 21
1118.217314962584
 72
     1
 10
2473.360842761744
 20
1118.217314962584
 11
2479.760842761745
 21
1118.217314962584
 72
     1
 10
2479.760842761745
 20
1118.217314962584
 11
2480.560842761744
 21
1118.217314962584
 72
     1
 10
2480.560842761744
 20
1118.217314962584
 11
2499.996741146607
 21
1118.217314962584
 72
     2
 10
2499.996741146607
 20
1120.217314962584
 40
2.0
 50
-90.00000000000001
 51
-59.99999999999786
 73
     1
 72
     1
 10
2500.996741146606
 20
1118.485264155014
 11
2506.44872112129
 21
1121.632966261014
 72
     2
 10
2508.246132941515
 20
1119.231027305017
 40
2.999999999970075
 50
233.1918656392357
 51
275.4802249851991
 73
     0
 72
     1
 10
2508.53263953147
 20
1122.217314962584
 11
2546.280975828524
 21
1122.217314962584
 72
     2
 10
2546.280975828524
 20
1116.217314962584
 40
6.000000000000177
 50
270.0
 51
322.9999999999994
 73
     0
 72
     1
 10
2551.072788888808
 20
1119.828205101496
 11
2556.804020312002
 21
1112.222604119837
 72
     2
 10
2552.810842761767
 20
1109.213529004078
 40
5.0
 50
322.9999999999976
 51
359.9999999999961
 73
     0
 72
     1
 10
2557.810842761766
 20
1109.213529004078
 11
2557.810842761766
 21
1105.217314962583
 72
     1
 10
2557.810842761766
 20
1105.217314962583
 11
2557.214312386941
 21
1105.217314962583
 72
     1
 10
2557.214312386941
 20
1105.217314962583
 11
2555.810842761767
 21
1106.620784587758
 72
     1
 10
2555.810842761767
 20
1106.620784587758
 11
2555.810842761767
 21
1109.213529004077
 72
     2
 10
2552.810842761767
 20
1109.213529004078
 40
3.0
 50
-0.0000000000000127
 51
37.00000000000023
 73
     1
 72
     1
 10
2555.206749291909
 20
1111.018974073533
 11
2551.289518461149
 21
1116.217314962584
 72
     1
 10
2551.289518461149
 20
1116.217314962584
 11
2549.475517868713
 21
1118.624575055191
 72
     2
 10
2546.280975828524
 20
1116.217314962584
 40
4.000000000000238
 50
37.00000000000207
 51
89.99999999999998
 73
     1
 72
     1
 10
2546.280975828524
 20
1120.217314962584
 11
2508.53263953147
 21
1120.217314962584
 72
     2
 10
2508.53263953147
 20
1118.217314962584
 40
2.0
 50
89.99999999999998
 51
119.9999999999928
 73
     1
 72
     1
 10
2507.53263953147
 20
1119.949365770152
 11
2501.996741146605
 21
1116.753213347446
 72
     2
 10
2499.996741146607
 20
1120.217314962584
 40
4.0
 50
420.0000000000091
 51
450.0
 73
     0
 72
     1
 10
2499.996741146607
 20
1116.217314962584
 11
2492.810842761744
 21
1116.217314962584
 72
     1
 10
2492.810842761744
 20
1116.217314962584
 11
2452.382639531468
 21
1116.217314962584
 72
     2
 10
2452.382639531468
 20
1120.217314962584
 40
3.999999999999785
 50
90.0000000000049
 51
120.0000000000017
 73
     0
 72
     1
 10
2450.382639531468
 20
1116.753213347445
 11
2446.945384521835
 21
1118.73771345253
 72
     2
 10
2445.945384521835
 20
1117.005662644962
 40
1.999999999999721
 50
59.99999999999537
 51
135.000000000001
 73
     1
 72
     1
 10
2444.531170959462
 20
1118.419876207336
 11
2443.828609714711
 21
1117.717314962584
 97
        0
 75
     0
 76
     0
 52
44.99999999999999
 41
2.0
 77
     0
 78
     1
 53
45.0
 43
3300.790286703112
 44
720.4333345552639
 45
-1.414213562373094
 46
1.414213562373094
 79
     0
 98
        1
 10
3300.790286703112
 20
720.4333345552639
1001
ACME_LAYERS
1000
1
  0
LINE
  5
306F
330
1F
100
AcDbEntity
  8
P-3FF0
  6
Continuous
 62
     7
100
AcDbLine
 10
2546.280975828524
 20
1120.217314962584
 30
0.0
 11
2508.53263953147
 21
1120.217314962584
 31
0.0
1001
ACME_LAYERS
1000
1
  0
HATCH
  5
3070
330
1F
100
AcDbEntity
  8
P-3FF0
  6
Continuous
 62
     3
100
AcDbHatch
 10
0.0
 20
0.0
 30
0.0
210
0.0
220
0.0
230
1.0
  2
_U
 70
     0
 71
     0
 91
        1
 92
        1
 93
        6
 72
     1
 10
2557.810842761757
 20
1049.219650557008
 11
2556.979339489266
 21
1050.141510091292
 72
     1
 10
2556.979339489266
 20
1050.141510091292
 11
2556.310842761766
 21
1051.217314962584
 72
     1
 10
2556.310842761766
 20
1051.217314962584
 11
2556.310842761766
 21
1103.652459668686
 72
     1
 10
2556.310842761766
 20
1103.652459668686
 11
2557.214312386941
 21
1105.217314962584
 72
     1
 10
2557.214312386941
 20
1105.217314962583
 11
2557.810842761766
 21
1105.217314962583
 72
     1
 10
2557.810842761766
 20
1105.217314962583
 11
2557.810842761766
 21
1049.219650556999
 97
        0
 75
     0
 76
     0
 52
-45.0
 41
2.0
 77
     0
 78
     1
 53
315.0
 43
3300.790286703112
 44
720.4333345552639
 45
1.414213562373094
 46
1.414213562373094
 79
     0
 98
        1
 10
3300.790286703112
 20
720.4333345552639
1001
ACME_LAYERS
1000
1
  0
LINE
  5
3071
330
1F
100
AcDbEntity
  8
P-3FF0
  6
Continuous
 62
     7
100
AcDbLine
 10
2556.310842761766
 20
1051.217314962584
 30
0.0
 11
2556.310842761766
 21
1103.652459668686
 31
0.0
1001
ACME_LAYERS
1000
1
  0
LINE
  5
3072
330
1F
100
AcDbEntity
  8
P-3FF0
  6
Continuous
 62
     7
100
AcDbLine
 10
2557.810842761766
 20
1105.217314962583
 30
0.0
 11
2557.810842761766
 21
1049.219650556999
 31
0.0
1001
ACME_LAYERS
1000
1
  0
LINE
  5
3073
330
1F
100
AcDbEntity
  8
P-3FF0
  6
Continuous
 62
     7
100
AcDbLine
 10
2557.810842761766
 20
1109.213529004078
 30
0.0
 11
2557.810842761766
 21
1105.217314962583
 31
0.0
1001
ACME_LAYERS
1000
1
  0
ARC
  5
3074
330
1F
100
AcDbEntity
  8
P-3FF0
  6
Continuous
 62
     7
100
AcDbCircle
 10
2546.280975828524
 20
1116.217314962584
 30
0.0
 40
6.000000000000177
100
AcDbArc
 50
36.99999999998547
 51
90.0
1001
ACME_LAYERS
1000
1
  0
LINE
  5
3075
102
{ACAD_REACTORS
330
352F
102
}
330
1F
100
AcDbEntity
  8
P-3FF0
  6
Continuous
 62
     7
100
AcDbLine
 10
2551.289518461149
 20
1116.217314962584
 30
0.0
 11
2549.475517868713
 21
1118.624575055192
 31
0.0
1001
ACME_LAYERS
1000
1
  0
ARC
  5
3076
330
1F
100
AcDbEntity
  8
P-3FF0
  6
Continuous
 62
     7
100
AcDbCircle
 10
2546.280975828524
 20
1116.217314962584
 30
0.0
 40
4.000000000000238
100
AcDbArc
 50
36.99999999998547
 51
90.0
1001
ACME_LAYERS
1000
1
  0
LINE
  5
3077
102
{ACAD_REACTORS
330
352F
102
}
330
1F
100
AcDbEntity
  8
P-3FF0
  6
Continuous
 62
     7
100
AcDbLine
 10
2555.206749291909
 20
1111.018974073533
 30
0.0
 11
2551.289518461149
 21
1116.217314962584
 31
0.0
1001
ACME_LAYERS
1000
1
  0
LINE
  5
3078
102
{ACAD_REACTORS
330
352F
102
}
330
1F
100
AcDbEntity
  8
P-3FF0
  6
Continuous
 62
     7
100
AcDbLine
 10
2556.804020312002
 20
1112.222604119837
 30
0.0
 11
2551.072788888808
 21
1119.828205101496
 31
0.0
1001
ACME_LAYERS
1000
1
  0
ARC
  5
3079
102
{ACAD_REACTORS
330
352F
102
}
330
1F
100
AcDbEntity
  8
P-3FF0
  6
Continuous
 62
     7
100
AcDbCircle
 10
2552.810842761767
 20
1109.213529004078
 30
0.0
 40
3.0
100
AcDbArc
 50
0.0
 51
36.99999999998547
1001
ACME_LAYERS
1000
1
  0
ARC
  5
307A
330
1F
100
AcDbEntity
  8
P-3FF0
  6
Continuous
 62
     7
100
AcDbCircle
 10
2552.810842761767
 20
1109.213529004078
 30
0.0
 40
5.0
100
AcDbArc
 50
0.0
 51
36.99999999998547
1001
ACME_LAYERS
1000
1
  0
LINE
  5
307B
330
1F
100
AcDbEntity
  8
P-3FF0
  6
Continuous
 62
     7
100
AcDbLine
 10
2555.810842761767
 20
1109.213529004078
 30
0.0
 11
2555.810842761767
 21
1106.620784587758
 31
0.0
1001
ACME_LAYERS
1000
1
  0
LINE
  5
307C
330
1F
100
AcDbEntity
  8
0
100
AcDbLine
 10
2555.810842761767
 20
1106.620784587758
 30
0.0
 11
2556.310842761766
 21
1103.652459668686
 31
0.0
  0
LINE
  5
3084
330
1F
100
AcDbEntity
  8
P-0000
  6
Continuous
 62
     7
100
AcDbLine
 10
2676.810842761769
 20
1116.282488172722
 30
0.0
 11
2656.810842761768
 21
1116.28248817274
 31
0.0
1001
ACME_LAYERS
1000
1
  0
LINE
  5
3085
330
1F
100
AcDbEntity
  8
P-0000
  6
Continuous
 62
     7
100
AcDbLine
 10
2639.81084276177
 20
1120.282488172726
 30
0.0
 11
2675.248634231252
 21
1120.282488172726
 31
0.0
1001
ACME_LAYERS
1000
1
  0
LINE
  5
3087
330
1F
100
AcDbEntity
  8
P-0000
  6
Continuous
 62
     7
100
AcDbLine
 10
2677.132556034009
 20
1122.282488172726
 30
0.0
 11
2639.81084276177
 21
1122.282488172726
 31
0.0
1001
ACME_LAYERS
1000
1
  0
HATCH
  5
3088
330
1F
100
AcDbEntity
  8
P-0000
  6
Continuous
 62
     3
100
AcDbHatch
 10
0.0
 20
0.0
 30
0.0
210
0.0
220
0.0
230
1.0
  2
_U
 70
     0
 71
     0
 91
        1
 92
        1
 93
        9
 72
     1
 10
2757.854352803735
 20
1116.282488172726
 11
2758.854352803735
 21
1118.014538980296
 72
     1
 10
2758.854352803735
 20
1118.014538980296
 11
2754.488894563826
 21
1120.534937470241
 72
     2
 10
2752.488894563825
 20
1117.070835855105
 40
4.0
 50
419.9999999999893
 51
450.0
 73
     1
 72
     2
 10
2752.488894563825
 20
1117.070835855105
 40
4.000000000000613
 50
450.0
 51
495.0000000000009
 73
     1
 72
     1
 10
2749.660467439079
 20
1119.899262979852
 11
2748.957906194327
 21
1119.196701735098
 72
     1
 10
2748.957906194327
 20
1119.196701735098
 11
2750.372119756699
 21
1117.782488172725
 72
     1
 10
2750.372119756699
 20
1117.782488172726
 11
2751.074681001452
 21
1118.485049417478
 72
     2
 10
2752.488894563825
 20
1117.070835855105
 40
2.000000000000115
 50
-135.000000000004
 51
-59.99999999999011
 73
     0
 72
     1
 10
2753.488894563826
 20
1118.802886662673
 11
2757.854352803735
 21
1116.282488172726
 97
        0
 75
     0
 76
     0
 52
44.99999999999999
 41
2.0
 77
     0
 78
     1
 53
135.0
 43
2441.050401260503
 44
982.3916231391617
 45
1.414213562373094
 46
1.414213562373094
 79
     0
 98
        1
 10
2441.050401260503
 20
982.3916231391617
1001
ACME_LAYERS
1000
1
  0
LINE
  5
3089
330
1F
100
AcDbEntity
  8
P-0000
  6
Continuous
 62
     3
100
AcDbLine
 10
2758.854352803735
 20
1118.014538980296
 30
0.0
 11
2754.488894563826
 21
1120.53493747024
 31
0.0
1001
ACME_LAYERS
1000
1
  0
LINE
  5
308A
330
1F
100
AcDbEntity
  8
P-0000
  6
Continuous
 62
     7
100
AcDbLine
 10
2757.854352803735
 20
1116.282488172726
 30
0.0
 11
2753.488894563826
 21
1118.802886662673
 31
0.0
1001
ACME_LAYERS
1000
1
  0
LINE
  5
308B
330
1F
100
AcDbEntity
  8
P-0000
  6
Continuous
 62
     7
100
AcDbLine
 10
2757.854352803735
 20
1116.282488172726
 30
0.0
 11
2753.488894563826
 21
1118.802886662673
 31
0.0
1001
ACME_LAYERS
1000
1
  0
LINE
  5
308C
330
1F
100
AcDbEntity
  8
P-0000
  6
Continuous
 62
     7
100
AcDbLine
 10
2757.854352803735
 20
1116.282488172726
 30
0.0
 11
2733.28255603401
 21
1116.282488172726
 31
0.0
1001
ACME_LAYERS
1000
1
  0
LINE
  5
308D
330
1F
100
AcDbEntity
  8
P-0000
  6
Continuous
 62
     7
100
AcDbLine
 10
2757.854352803735
 20
1116.282488172726
 30
0.0
 11
2758.854352803735
 21
1118.014538980296
 31
0.0
1001
ACME_LAYERS
1000
1
  0
LINE
  5
308E
330
1F
100
AcDbEntity
  8
P-0000
  6
Continuous
 62
     7
100
AcDbLine
 10
2733.28255603401
 20
1116.282488172726
 30
0.0
 11
2695.310842761756
 21
1116.282488172722
 31
0.0
1001
ACME_LAYERS
1000
1
  0
LINE
  5
308F
330
1F
100
AcDbEntity
  8
P-0000
  6
Continuous
 62
     7
100
AcDbLine
 10
2712.269571380625
 20
1146.635689517383
 30
0.0
 11
2709.069571380624
 21
1146.635689517383
 31
0.0
1001
ACME_LAYERS
1000
1
  0
LINE
  5
3090
330
1F
100
AcDbEntity
  8
P-0000
  6
Continuous
 62
     7
100
AcDbLine
 10
2705.869571380624
 20
1146.035689517384
 30
0.0
 11
2712.269571380625
 21
1146.035689517384
 31
0.0
1001
ACME_LAYERS
1000
1
  0
LINE
  5
3092
330
1F
100
AcDbEntity
  8
P-0000
  6
Continuous
 62
     7
100
AcDbLine
 10
2713.060842761776
 20
1118.282488172726
 30
0.0
 11
2705.104352803735
 21
1118.282488172726
 31
0.0
1001
ACME_LAYERS
1000
1
  0
LINE
  5
3093
330
1F
100
AcDbEntity
  8
P-0000
  6
Continuous
 62
     7
100
AcDbLine
 10
2713.069571380624
 20
1146.035689517384
 30
0.0
 11
2713.069571380624
 21
1143.08840807767
 31
0.0
1001
ACME_LAYERS
1000
1
  0
LINE
  5
3094
330
1F
100
AcDbEntity
  8
P-0000
  6
Continuous
 62
     3
100
AcDbLine
 10
2712.269571380625
 20
1146.635689517383
 30
0.0
 11
2712.269571380625
 21
1143.08840807767
 31
0.0
1001
ACME_LAYERS
1000
1
  0
LINE
  5
3095
330
1F
100
AcDbEntity
  8
P-0000
  6
Continuous
 62
     7
100
AcDbLine
 10
2712.269571380625
 20
1146.035689517384
 30
0.0
 11
2713.069571380624
 21
1146.035689517384
 31
0.0
1001
ACME_LAYERS
1000
1
  0
LINE
  5
3096
330
1F
100
AcDbEntity
  8
P-0000
  6
Continuous
 62
     3
100
AcDbLine
 10
2712.269571380625
 20
1146.635689517383
 30
0.0
 11
2712.269571380625
 21
1146.035689517384
 31
0.0
1001
ACME_LAYERS
1000
1
  0
LINE
  5
3097
330
1F
100
AcDbEntity
  8
P-0000
  6
Continuous
 62
     7
100
AcDbLine
 10
2713.069571380624
 20
1146.035689517384
 30
0.0
 11
2712.269571380625
 21
1146.635689517383
 31
0.0
1001
ACME_LAYERS
1000
1
  0
ARC
  5
3098
330
1F
100
AcDbEntity
  8
P-0000
  6
Continuous
 62
     7
100
AcDbCircle
 10
2733.28255603401
 20
1120.282488172726
 30
0.0
 40
1.999999999999253
100
AcDbArc
 50
270.0
 51
300.0000000000296
1001
ACME_LAYERS
1000
1
  0
ARC
  5
3099
330
1F
100
AcDbEntity
  8
P-0000
  6
Continuous
 62
     7
100
AcDbCircle
 10
2733.28255603401
 20
1120.282488172726
 30
0.0
 40
4.000000000000131
100
AcDbArc
 50
270.0
 51
300.0000000000005
1001
ACME_LAYERS
1000
1
  0
LINE
  5
309A
330
1F
100
AcDbEntity
  8
P-0000
  6
Continuous
 62
     7
100
AcDbLine
 10
2733.004352803734
 20
1118.282488172726
 30
0.0
 11
2738.772301996166
 21
1121.612615191648
 31
0.0
1001
ACME_LAYERS
1000
1
  0
LINE
  5
309B
330
1F
100
AcDbEntity
  8
P-0000
  6
Continuous
 62
     7
100
AcDbLine
 10
2738.719811043643
 20
1118.802886662673
 30
0.0
 11
2735.282556034011
 21
1116.818386557588
 31
0.0
1001
ACME_LAYERS
1000
1
  0
LINE
  5
309C
330
1F
100
AcDbEntity
  8
P-0000
  6
Continuous
 62
     7
100
AcDbLine
 10
2748.957906194327
 20
1119.196701735098
 30
0.0
 11
2743.250799413142
 21
1119.196701735098
 31
0.0
1001
ACME_LAYERS
1000
1
  0
LINE
  5
309D
330
1F
100
AcDbEntity
  8
P-0000
  6
Continuous
 62
     7
100
AcDbLine
 10
2750.372119756699
 20
1117.782488172726
 30
0.0
 11
2741.836585850768
 21
1117.782488172726
 31
0.0
1001
ACME_LAYERS
1000
1
  0
LINE
  5
309E
330
1F
100
AcDbEntity
  8
P-0000
  6
Continuous
 62
     7
100
AcDbLine
 10
2750.122301996164
 20
1122.282488172726
 30
0.0
 11
2741.272301996166
 21
1122.282488172726
 31
0.0
1001
ACME_LAYERS
1000
1
  0
LINE
  5
309F
330
1F
100
AcDbEntity
  8
P-0000
  6
Continuous
 62
     7
100
AcDbLine
 10
2752.488894563825
 20
1121.070835855105
 30
0.0
 11
2739.719811043642
 21
1121.070835855105
 31
0.0
1001
ACME_LAYERS
1000
1
  0
ARC
  5
30A0
330
1F
100
AcDbEntity
  8
P-0000
  6
Continuous
 62
     7
100
AcDbCircle
 10
2750.122301996166
 20
1117.282488172726
 30
0.0
 40
5.0
100
AcDbArc
 50
59.99999999999944
 51
90.00000000002605
1001
ACME_LAYERS
1000
1
  0
ARC
  5
30A1
330
1F
100
AcDbEntity
  8
P-0000
  6
Continuous
 62
     7
100
AcDbCircle
 10
2752.488894563825
 20
1117.070835855105
 30
0.0
 40
4.000000000000613
100
AcDbArc
 50
90.0
 51
135.0000000000092
1001
ACME_LAYERS
1000
1
  0
LINE
  5
30A2
330
1F
100
AcDbEntity
  8
P-0000
  6
Continuous
 62
     7
100
AcDbLine
 10
2751.074681001452
 20
1118.485049417477
 30
0.0
 11
2750.372119756699
 21
1117.782488172726
 31
0.0
1001
ACME_LAYERS
1000
1
  0
ARC
  5
30A3
330
1F
100
AcDbEntity
  8
P-0000
  6
Continuous
 62
     7
100
AcDbCircle
 10
2752.488894563825
 20
1117.070835855105
 30
0.0
 40
4.0
100
AcDbArc
 50
59.99999999997037
 51
90.0
1001
ACME_LAYERS
1000
1
  0
LINE
  5
30A4
330
1F
100
AcDbEntity
  8
P-0000
  6
Continuous
 62
     7
100
AcDbLine
 10
2754.488894563826
 20
1120.53493747024
 30
0.0
 11
2752.622301996166
 21
1121.612615191648
 31
0.0
1001
ACME_LAYERS
1000
1
  0
ARC
  5
30A5
330
1F
100
AcDbEntity
  8
P-0000
  6
Continuous
 62
     7
100
AcDbCircle
 10
2752.488894563825
 20
1117.070835855105
 30
0.0
 40
2.000000000000115
100
AcDbArc
 50
59.99999999997037
 51
135.0000000000092
1001
ACME_LAYERS
1000
1
  0
LINE
  5
30A6
330
1F
100
AcDbEntity
  8
P-0000
  6
Continuous
 62
     7
100
AcDbLine
 10
2748.957906194327
 20
1119.196701735098
 30
0.0
 11
2750.372119756699
 21
1117.782488172726
 31
0.0
1001
ACME_LAYERS
1000
1
  0
LINE
  5
30A7
330
1F
100
AcDbEntity
  8
P-0000
  6
Continuous
 62
     7
100
AcDbLine
 10
2749.660467439079
 20
1119.899262979852
 30
0.0
 11
2748.957906194327
 21
1119.196701735098
 31
0.0
1001
ACME_LAYERS
1000
1
  0
ARC
  5
30A8
330
1F
100
AcDbEntity
  8
P-0000
  6
Continuous
 62
     7
100
AcDbCircle
 10
2739.719811043642
 20
1117.070835855105
 30
0.0
 40
1.999999999999401
100
AcDbArc
 50
44.99999999999078
 51
120.0000000000296
1001
ACME_LAYERS
1000
1
  0
ARC
  5
30A9
330
1F
100
AcDbEntity
  8
P-0000
  6
Continuous
 62
     7
100
AcDbCircle
 10
2741.272301996166
 20
1117.282488172726
 30
0.0
 40
5.000000000000164
100
AcDbArc
 50
90.0
 51
120.0000000000005
1001
ACME_LAYERS
1000
1
  0
ARC
  5
30AA
330
1F
100
AcDbEntity
  8
P-0000
  6
Continuous
 62
     7
100
AcDbCircle
 10
2739.719811043642
 20
1117.070835855105
 30
0.0
 40
1.999999999999401
100
AcDbArc
 50
44.99999999999078
 51
120.0000000000296
1001
ACME_LAYERS
1000
1
  0
ARC
  5
30AB
330
1F
100
AcDbEntity
  8
P-0000
  6
Continuous
 62
     7
100
AcDbCircle
 10
2739.719811043642
 20
1117.070835855105
 30
0.0
 40
3.999999999998728
100
AcDbArc
 50
90.0
 51
120.0000000000296
1001
ACME_LAYERS
1000
1
  0
ARC
  5
30AC
330
1F
100
AcDbEntity
  8
P-0000
  6
Continuous
 62
     7
100
AcDbCircle
 10
2739.719811043642
 20
1117.070835855105
 30
0.0
 40
4.0
100
AcDbArc
 50
44.99999999999078
 51
90.0
1001
ACME_LAYERS
1000
1
  0
LINE
  5
30AD
330
1F
100
AcDbEntity
  8
P-0000
  6
Continuous
 62
     7
100
AcDbLine
 10
2743.250799413142
 20
1119.196701735098
 30
0.0
 11
2742.548238168389
 21
1119.899262979852
 31
0.0
1001
ACME_LAYERS
1000
1
  0
LINE
  5
30AE
330
1F
100
AcDbEntity
  8
P-0000
  6
Continuous
 62
     7
100
AcDbLine
 10
2741.836585850768
 20
1117.782488172726
 30
0.0
 11
2741.134024606016
 21
1118.485049417477
 31
0.0
1001
ACME_LAYERS
1000
1
  0
LINE
  5
30AF
330
1F
100
AcDbEntity
  8
P-0000
  6
Continuous
 62
     7
100
AcDbLine
 10
2741.836585850768
 20
1117.782488172726
 30
0.0
 11
2743.250799413142
 21
1119.196701735098
 31
0.0
1001
ACME_LAYERS
1000
1
  0
LINE
  5
30B0
330
1F
100
AcDbEntity
  8
P-0000
  6
Continuous
 62
     7
100
AcDbLine
 10
2737.719811043643
 20
1120.53493747024
 30
0.0
 11
2734.28255603401
 21
1118.550437365158
 31
0.0
1001
ACME_LAYERS
1000
1
  0
LINE
  5
30B1
330
1F
100
AcDbEntity
  8
P-0000
  6
Continuous
 62
     7
100
AcDbLine
 10
2733.004352803734
 20
1118.282488172726
 30
0.0
 11
2713.060842761776
 21
1118.282488172726
 31
0.0
1001
ACME_LAYERS
1000
1
  0
LINE
  5
30B2
330
1F
100
AcDbEntity
  8
P-0000
  6
Continuous
 62
     7
100
AcDbLine
 10
2733.004352803734
 20
1118.282488172726
 30
0.0
 11
2733.28255603401
 21
1118.282488172726
 31
0.0
1001
ACME_LAYERS
1000
1
  0
LINE
  5
30B3
330
1F
100
AcDbEntity
  8
P-0000
  6
Continuous
 62
     3
100
AcDbLine
 10
2712.326107824715
 20
1133.488408077671
 30
0.0
 11
2712.326107824716
 21
1118.282488172726
 31
0.0
1001
ACME_LAYERS
1000
1
  0
LINE
  5
30B4
330
1F
100
AcDbEntity
  8
P-0000
  6
Continuous
 62
     7
100
AcDbLine
 10
2713.126107824715
 20
1131.488408077669
 30
0.0
 11
2713.126107824715
 21
1127.488408077669
 31
0.0
1001
ACME_LAYERS
1000
1
  0
LINE
  5
30B5
330
1F
100
AcDbEntity
  8
P-0000
  6
Continuous
 62
     7
100
AcDbLine
 10
2705.069571380624
 20
1146.035689517384
 30
0.0
 11
2705.069571380624
 21
1143.08840807767
 31
0.0
1001
ACME_LAYERS
1000
1
  0
LINE
  5
30B6
330
1F
100
AcDbEntity
  8
P-0000
  6
Continuous
 62
     3
100
AcDbLine
 10
2705.926107824715
 20
1133.488408077671
 30
0.0
 11
2705.926107824715
 21
1118.282488172726
 31
0.0
1001
ACME_LAYERS
1000
1
  0
LINE
  5
30B7
330
1F
100
AcDbEntity
  8
P-0000
  6
STRICHPUNKT
 62
     3
100
AcDbLine
 10
2709.069571380624
 20
1143.08840807767
 30
0.0
 11
2709.069571380624
 21
1146.635689517383
 31
0.0
1001
ACME_LAYERS
1000
1
  0
LINE
  5
30B8
330
1F
100
AcDbEntity
  8
P-0000
  6
Continuous
 62
     3
100
AcDbLine
 10
2705.869571380624
 20
1146.635689517383
 30
0.0
 11
2705.869571380624
 21
1143.08840807767
 31
0.0
1001
ACME_LAYERS
1000
1
  0
LINE
  5
30B9
330
1F
100
AcDbEntity
  8
P-0000
  6
Continuous
 62
     3
100
AcDbLine
 10
2705.869571380624
 20
1146.635689517383
 30
0.0
 11
2705.869571380624
 21
1146.035689517384
 31
0.0
1001
ACME_LAYERS
1000
1
  0
LINE
  5
30BA
330
1F
100
AcDbEntity
  8
P-0000
  6
Continuous
 62
     7
100
AcDbLine
 10
2705.069571380624
 20
1146.035689517384
 30
0.0
 11
2705.869571380624
 21
1146.035689517384
 31
0.0
1001
ACME_LAYERS
1000
1
  0
LINE
  5
30BB
330
1F
100
AcDbEntity
  8
P-0000
  6
Continuous
 62
     7
100
AcDbLine
 10
2705.869571380624
 20
1146.635689517383
 30
0.0
 11
2705.069571380624
 21
1146.035689517384
 31
0.0
1001
ACME_LAYERS
1000
1
  0
LINE
  5
30BC
330
1F
100
AcDbEntity
  8
P-0000
  6
Continuous
 62
     7
100
AcDbLine
 10
2709.069571380624
 20
1146.635689517383
 30
0.0
 11
2705.869571380624
 21
1146.635689517383
 31
0.0
1001
ACME_LAYERS
1000
1
  0
LINE
  5
30BD
330
1F
100
AcDbEntity
  8
P-0000
  6
Continuous
 62
     7
100
AcDbLine
 10
2690.310842761771
 20
1116.282488172722
 30
0.0
 11
2676.810842761769
 21
1116.282488172722
 31
0.0
1001
ACME_LAYERS
1000
1
  0
LINE
  5
30BE
330
1F
100
AcDbEntity
  8
P-0000
  6
Continuous
 62
     7
100
AcDbLine
 10
2705.104352803735
 20
1118.282488172726
 30
0.0
 11
2685.668454418872
 21
1118.282488172726
 31
0.0
1001
ACME_LAYERS
1000
1
  0
LINE
  5
30BF
330
1F
100
AcDbEntity
  8
P-0000
  6
Continuous
 62
     7
100
AcDbLine
 10
2694.54963970168
 20
1116.282488172726
 30
0.0
 11
2685.668454418872
 21
1116.282488172726
 31
0.0
1001
ACME_LAYERS
1000
1
  0
LINE
  5
30C0
330
1F
100
AcDbEntity
  8
P-0000
  6
Continuous
 62
     7
100
AcDbLine
 10
2705.126107824716
 20
1131.488408077669
 30
0.0
 11
2705.126107824716
 21
1127.488408077669
 31
0.0
1001
ACME_LAYERS
1000
1
  0
LINE
  5
30C1
330
1F
100
AcDbEntity
  8
P-0000
  6
Continuous
 62
     7
100
AcDbLine
 10
2695.310842761756
 20
1116.282488172722
 30
0.0
 11
2694.54963970168
 21
1116.282488172726
 31
0.0
1001
ACME_LAYERS
1000
1
  0
LINE
  5
30C2
330
1F
100
AcDbEntity
  8
P-0000
  6
Continuous
 62
     7
100
AcDbLine
 10
2683.668454418873
 20
1116.818386557588
 30
0.0
 11
2678.13255603401
 21
1120.014538980296
 31
0.0
1001
ACME_LAYERS
1000
1
  0
LINE
  5
30C3
330
1F
100
AcDbEntity
  8
P-0000
  6
Continuous
 62
     7
100
AcDbLine
 10
2677.132556034009
 20
1120.282488172726
 30
0.0
 11
2675.248634231252
 21
1120.282488172726
 31
0.0
1001
ACME_LAYERS
1000
1
  0
LINE
  5
30C4
330
1F
100
AcDbEntity
  8
P-0000
  6
Continuous
 62
     7
100
AcDbLine
 10
2684.668454418873
 20
1118.550437365155
 30
0.0
 11
2679.132556034009
 21
1121.746589787864
 31
0.0
1001
ACME_LAYERS
1000
1
  0
ARC
  5
30C5
330
1F
100
AcDbEntity
  8
P-0000
  6
Continuous
 62
     7
100
AcDbCircle
 10
2685.668454418872
 20
1120.282488172726
 30
0.0
 40
2.0
100
AcDbArc
 50
239.9999999999704
 51
270.0
1001
ACME_LAYERS
1000
1
  0
ARC
  5
30C6
330
1F
100
AcDbEntity
  8
P-0000
  6
Continuous
 62
     7
100
AcDbCircle
 10
2677.132556034009
 20
1118.282488172726
 30
0.0
 40
4.0
100
AcDbArc
 50
59.99999999999944
 51
90.0
1001
ACME_LAYERS
1000
1
  0
ARC
  5
30C7
330
1F
100
AcDbEntity
  8
P-0000
  6
Continuous
 62
     7
100
AcDbCircle
 10
2677.132556034009
 20
1118.282488172726
 30
0.0
 40
2.0
100
AcDbArc
 50
60.00000000002852
 51
90.0
1001
ACME_LAYERS
1000
1
  0
ARC
  5
30C8
330
1F
100
AcDbEntity
  8
P-0000
  6
Continuous
 62
     7
100
AcDbCircle
 10
2685.668454418872
 20
1120.282488172726
 30
0.0
 40
4.0
100
AcDbArc
 50
239.9999999999995
 51
270.0
1001
ACME_LAYERS
1000
1
  0
LINE
  5
30C9
330
1F
100
AcDbEntity
  8
P-0000
  6
Continuous
 62
     7
100
AcDbLine
 10
2632.181160948233
 20
1122.282488172726
 30
0.0
 11
2592.810842761768
 21
1122.282488172726
 31
0.0
1001
ACME_LAYERS
1000
1
  0
LINE
  5
30CA
330
1F
100
AcDbEntity
  8
P-0000
  6
Continuous
 62
     7
100
AcDbLine
 10
2639.81084276177
 20
1122.282488172726
 30
0.0
 11
2592.810842761768
 21
1122.282488172726
 31
0.0
1001
ACME_LAYERS
1000
1
  0
LINE
  5
30CB
330
1F
100
AcDbEntity
  8
P-0000
  6
Continuous
 62
     7
100
AcDbLine
 10
2656.810842761768
 20
1116.28248817274
 30
0.0
 11
2635.489683076047
 21
1116.28248817274
 31
0.0
1001
ACME_LAYERS
1000
1
  0
LINE
  5
30CC
330
1F
100
AcDbEntity
  8
P-0000
  6
Continuous
 62
     7
100
AcDbLine
 10
2659.315114078089
 20
1122.502020246857
 30
0.0
 11
2659.310842761776
 21
1122.485856494265
 31
0.0
1001
ACME_LAYERS
1000
1
  0
LINE
  5
30CD
330
1F
100
AcDbEntity
  8
P-0000
  6
Continuous
 62
     7
100
AcDbLine
 10
2636.81084276177
 20
1116.282488172743
 30
0.0
 11
2636.81084276177
 21
1117.282488172726
 31
0.0
1001
ACME_LAYERS
1000
1
  0
ARC
  5
30CE
330
1F
100
AcDbEntity
  8
P-0000
  6
Continuous
 62
     7
100
AcDbCircle
 10
2639.81084276177
 20
1117.282488172726
 30
0.0
 40
3.0
100
AcDbArc
 50
90.0
 51
180.0
1001
ACME_LAYERS
1000
1
  0
LINE
  5
30CF
330
1F
100
AcDbEntity
  8
P-0000
  6
Continuous
 62
     7
100
AcDbLine
 10
2639.81084276177
 20
1116.28248817274
 30
0.0
 11
2635.489683076042
 21
1116.282488172744
 31
0.0
1001
ACME_LAYERS
1000
1
  0
LINE
  5
30D0
330
1F
100
AcDbEntity
  8
P-0000
  6
Continuous
 62
     7
100
AcDbLine
 10
2705.069571380625
 20
1143.08840807767
 30
0.0
 11
2712.269571380625
 21
1143.08840807767
 31
0.0
1001
ACME_LAYERS
1000
1
  0
LINE
  5
30D1
330
1F
100
AcDbEntity
  8
P-0000
  6
Continuous
 62
     7
100
AcDbLine
 10
2712.269571380625
 20
1143.08840807767
 30
0.0
 11
2713.069571380625
 21
1143.08840807767
 31
0.0
1001
ACME_LAYERS
1000
1
  0
LINE
  5
30D2
330
1F
100
AcDbEntity
  8
P-0000
  6
Continuous
 62
     7
100
AcDbLine
 10
2717.515269494045
 20
1136.988408077669
 30
0.0
 11
2717.515269494045
 21
1135.488408077671
 31
0.0
1001
ACME_LAYERS
1000
1
  0
LINE
  5
30D3
330
1F
100
AcDbEntity
  8
P-0000
  6
Continuous
 62
     7
100
AcDbLine
 10
2705.069571380625
 20
1133.488408077671
 30
0.0
 11
2705.069571380625
 21
1127.488408077669
 31
0.0
1001
ACME_LAYERS
1000
1
  0
LINE
  5
30D4
330
1F
100
AcDbEntity
  8
P-0000
  6
Continuous
 62
     7
100
AcDbLine
 10
2700.515269494045
 20
1135.488408077671
 30
0.0
 11
2700.515269494045
 21
1136.988408077669
 31
0.0
1001
ACME_LAYERS
1000
1
  0
LINE
  5
30D5
330
1F
100
AcDbEntity
  8
P-0000
  6
Continuous
 62
     7
100
AcDbLine
 10
2726.569571380615
 20
1132.988408077669
 30
0.0
 11
2713.069571380625
 21
1132.988408077669
 31
0.0
1001
ACME_LAYERS
1000
1
  0
LINE
  5
30D6
330
1F
100
AcDbEntity
  8
P-0000
  6
Continuous
 62
     7
100
AcDbLine
 10
2720.74114425588
 20
1131.488408077669
 30
0.0
 11
2718.303541542652
 21
1131.488408077669
 31
0.0
1001
ACME_LAYERS
1000
1
  0
LINE
  5
30D7
330
1F
100
AcDbEntity
  8
P-0000
  6
Continuous
 62
     7
100
AcDbLine
 10
2592.819571380632
 20
1132.988408077669
 30
0.0
 11
2680.069571380625
 21
1132.988408077669
 31
0.0
1001
ACME_LAYERS
1000
1
  0
LINE
  5
30D8
330
1F
100
AcDbEntity
  8
P-0000
  6
Continuous
 62
     7
100
AcDbLine
 10
2720.74114425588
 20
1131.488408077669
 30
0.0
 11
2718.303541542652
 21
1131.488408077669
 31
0.0
1001
ACME_LAYERS
1000
1
  0
LINE
  5
30D9
330
1F
100
AcDbEntity
  8
P-0000
  6
Continuous
 62
     7
100
AcDbLine
 10
2718.303541542652
 20
1131.488408077669
 30
0.0
 11
2716.893213013793
 21
1131.488408077669
 31
0.0
1001
ACME_LAYERS
1000
1
  0
LINE
  5
30DA
330
1F
100
AcDbEntity
  8
P-0000
  6
Continuous
 62
     7
100
AcDbLine
 10
2718.303541542652
 20
1131.488408077669
 30
0.0
 11
2716.893213013793
 21
1131.488408077669
 31
0.0
1001
ACME_LAYERS
1000
1
  0
LINE
  5
30DB
330
1F
100
AcDbEntity
  8
P-0000
  6
Continuous
 62
     7
100
AcDbLine
 10
2592.819571380627
 20
1131.256357270101
 30
0.0
 11
2679.069571380625
 21
1131.256357270101
 31
0.0
1001
ACME_LAYERS
1000
1
  0
LINE
  5
30DC
330
1F
100
AcDbEntity
  8
P-0000
  6
Continuous
 62
     7
100
AcDbLine
 10
2680.069571380625
 20
1132.988408077669
 30
0.0
 11
2685.667647591977
 21
1129.756357270101
 31
0.0
1001
ACME_LAYERS
1000
1
  0
LINE
  5
30DD
330
1F
100
AcDbEntity
  8
P-0000
  6
Continuous
 62
     7
100
AcDbLine
 10
2705.069571380625
 20
1132.988408077669
 30
0.0
 11
2680.069571380625
 21
1132.988408077669
 31
0.0
1001
ACME_LAYERS
1000
1
  0
LINE
  5
30DE
330
1F
100
AcDbEntity
  8
P-0000
  6
Continuous
 62
     7
100
AcDbLine
 10
2679.069571380625
 20
1131.256357270101
 30
0.0
 11
2680.069571380625
 21
1132.988408077669
 31
0.0
1001
ACME_LAYERS
1000
1
  0
LINE
  5
30DF
330
1F
100
AcDbEntity
  8
P-0000
  6
Continuous
 62
     7
100
AcDbLine
 10
2680.069571380625
 20
1132.988408077669
 30
0.0
 11
2680.141537543125
 21
1132.988408077669
 31
0.0
1001
ACME_LAYERS
1000
1
  0
LINE
  5
30E0
330
1F
100
AcDbEntity
  8
P-0000
  6
Continuous
 62
     7
100
AcDbLine
 10
2716.893213013793
 20
1131.488408077669
 30
0.0
 11
2714.069571380625
 21
1131.488408077669
 31
0.0
1001
ACME_LAYERS
1000
1
  0
LINE
  5
30E2
330
1F
100
AcDbEntity
  8
P-0000
  6
Continuous
 62
     3
100
AcDbLine
 10
2732.007393554133
 20
1129.488408077669
 30
0.0
 11
2731.47149516927
 21
1129.488408077669
 31
0.0
1001
ACME_LAYERS
1000
1
  0
LINE
  5
30E3
330
1F
100
AcDbEntity
  8
P-0000
  6
Continuous
 62
     3
100
AcDbLine
 10
2732.471495169271
 20
1129.756357270101
 30
0.0
 11
2732.007393554133
 21
1129.488408077669
 31
0.0
1001
ACME_LAYERS
1000
1
  0
LINE
  5
30E4
330
1F
100
AcDbEntity
  8
P-0000
  6
Continuous
 62
     7
100
AcDbLine
 10
2694.569571380625
 20
1130.316835202417
 30
0.0
 11
2694.326930693505
 21
1130.074194515297
 31
0.0
1001
ACME_LAYERS
1000
1
  0
LINE
  5
30E5
330
1F
100
AcDbEntity
  8
P-0000
  6
Continuous
 62
     7
100
AcDbLine
 10
2723.569571380624
 20
1130.316835202417
 30
0.0
 11
2723.812212067743
 21
1130.074194515297
 31
0.0
1001
ACME_LAYERS
1000
1
  0
LINE
  5
30E6
330
1F
100
AcDbEntity
  8
P-0000
  6
Continuous
 62
     7
100
AcDbLine
 10
2714.069571380625
 20
1131.488408077669
 30
0.0
 11
2714.069571380625
 21
1129.488408077669
 31
0.0
1001
ACME_LAYERS
1000
1
  0
LINE
  5
30E7
330
1F
100
AcDbEntity
  8
P-0000
  6
Continuous
 62
     7
100
AcDbLine
 10
2704.069571380625
 20
1131.488408077669
 30
0.0
 11
2704.069571380625
 21
1129.488408077669
 31
0.0
1001
ACME_LAYERS
1000
1
  0
LINE
  5
30E8
330
1F
100
AcDbEntity
  8
P-0000
  6
Continuous
 62
     7
100
AcDbLine
 10
2739.069571380623
 20
1131.256357270101
 30
0.0
 11
2738.069571380625
 21
1132.988408077669
 31
0.0
1001
ACME_LAYERS
1000
1
  0
LINE
  5
30E9
330
1F
100
AcDbEntity
  8
P-0000
  6
Continuous
 62
     7
100
AcDbLine
 10
2739.069571380623
 20
1131.256357270101
 30
0.0
 11
2733.471495169271
 21
1128.024306462531
 31
0.0
1001
ACME_LAYERS
1000
1
  0
LINE
  5
30EA
330
1F
100
AcDbEntity
  8
P-0000
  6
Continuous
 62
     7
100
AcDbLine
 10
2738.069571380625
 20
1132.988408077669
 30
0.0
 11
2732.471495169271
 21
1129.756357270101
 31
0.0
1001
ACME_LAYERS
1000
1
  0
LINE
  5
30EB
330
1F
100
AcDbEntity
  8
P-0000
  6
Continuous
 62
     7
100
AcDbLine
 10
2722.155357818251
 20
1128.902621640043
 30
0.0
 11
2722.397998505372
 21
1128.659980952925
 31
0.0
1001
ACME_LAYERS
1000
1
  0
LINE
  5
30EC
330
1F
100
AcDbEntity
  8
P-0000
  6
Continuous
 62
     7
100
AcDbLine
 10
2695.983784942999
 20
1128.902621640043
 30
0.0
 11
2695.741144255878
 21
1128.659980952925
 31
0.0
1001
ACME_LAYERS
1000
1
  0
LINE
  5
30ED
330
1F
100
AcDbEntity
  8
P-0000
  6
Continuous
 62
     7
100
AcDbLine
 10
2679.069571380625
 20
1131.256357270101
 30
0.0
 11
2684.667647591977
 21
1128.024306462531
 31
0.0
1001
ACME_LAYERS
1000
1
  0
LINE
  5
30EE
330
1F
100
AcDbEntity
  8
P-0000
  6
Continuous
 62
     7
100
AcDbLine
 10
2686.667647591977
 20
1127.488408077669
 30
0.0
 11
2592.819571380627
 21
1127.488408077669
 31
0.0
1001
ACME_LAYERS
1000
1
  0
LINE
  5
30EF
330
1F
100
AcDbEntity
  8
P-0000
  6
Continuous
 62
     7
100
AcDbLine
 10
2686.667647591977
 20
1129.488408077669
 30
0.0
 11
2692.912717131131
 21
1129.488408077669
 31
0.0
1001
ACME_LAYERS
1000
1
  0
LINE
  5
30F0
330
1F
100
AcDbEntity
  8
P-0000
  6
Continuous
 62
     7
100
AcDbLine
 10
2686.667647591977
 20
1127.488408077669
 30
0.0
 11
2692.912717131131
 21
1127.488408077669
 31
0.0
1001
ACME_LAYERS
1000
1
  0
LINE
  5
30F1
330
1F
100
AcDbEntity
  8
P-0000
  6
Continuous
 62
     7
100
AcDbLine
 10
2731.47149516927
 20
1127.488408077669
 30
0.0
 11
2725.226425630118
 21
1127.488408077669
 31
0.0
1001
ACME_LAYERS
1000
1
  0
LINE
  5
30F2
330
1F
100
AcDbEntity
  8
P-0000
  6
Continuous
 62
     7
100
AcDbLine
 10
2714.069571380625
 20
1131.488408077669
 30
0.0
 11
2713.069571380625
 21
1131.488408077669
 31
0.0
1001
ACME_LAYERS
1000
1
  0
LINE
  5
30F3
330
1F
100
AcDbEntity
  8
P-0000
  6
Continuous
 62
     7
100
AcDbLine
 10
2716.893213013793
 20
1131.488408077669
 30
0.0
 11
2714.069571380625
 21
1131.488408077669
 31
0.0
1001
ACME_LAYERS
1000
1
  0
LINE
  5
30F4
330
1F
100
AcDbEntity
  8
P-0000
  6
Continuous
 62
     7
100
AcDbLine
 10
2704.069571380625
 20
1131.488408077669
 30
0.0
 11
2697.397998505371
 21
1131.488408077669
 31
0.0
1001
ACME_LAYERS
1000
1
  0
LINE
  5
30F5
330
1F
100
AcDbEntity
  8
P-0000
  6
Continuous
 62
     7
100
AcDbLine
 10
2705.069571380625
 20
1129.488408077669
 30
0.0
 11
2697.397998505371
 21
1129.488408077669
 31
0.0
1001
ACME_LAYERS
1000
1
  0
LINE
  5
30F6
330
1F
100
AcDbEntity
  8
P-0000
  6
Continuous
 62
     7
100
AcDbLine
 10
2720.741144255878
 20
1129.488408077669
 30
0.0
 11
2713.126107824715
 21
1129.488408077669
 31
0.0
1001
ACME_LAYERS
1000
1
  0
LINE
  5
30F7
330
1F
100
AcDbEntity
  8
P-0000
  6
Continuous
 62
     7
100
AcDbLine
 10
2705.069571380625
 20
1131.488408077669
 30
0.0
 11
2704.069571380625
 21
1131.488408077669
 31
0.0
1001
ACME_LAYERS
1000
1
  0
LINE
  5
30F8
330
1F
100
AcDbEntity
  8
P-0000
  6
Continuous
 62
     7
100
AcDbLine
 10
2731.47149516927
 20
1129.488408077669
 30
0.0
 11
2725.226425630118
 21
1129.488408077669
 31
0.0
1001
ACME_LAYERS
1000
1
  0
LINE
  5
30F9
330
1F
100
AcDbEntity
  8
P-0000
  6
Continuous
 62
     7
100
AcDbLine
 10
2699.069571380625
 20
1131.488408077669
 30
0.0
 11
2704.069571380625
 21
1131.488408077669
 31
0.0
1001
ACME_LAYERS
1000
1
  0
LINE
  5
30FA
330
1F
100
AcDbEntity
  8
P-0000
  6
Continuous
 62
     7
100
AcDbLine
 10
2704.069571380625
 20
1131.488408077669
 30
0.0
 11
2705.069571380625
 21
1131.488408077669
 31
0.0
1001
ACME_LAYERS
1000
1
  0
LINE
  5
30FB
330
1F
100
AcDbEntity
  8
P-0000
  6
Continuous
 62
     7
100
AcDbLine
 10
2738.069571380625
 20
1132.988408077669
 30
0.0
 11
2726.569571380615
 21
1132.988408077669
 31
0.0
1001
ACME_LAYERS
1000
1
  0
LINE
  5
30FC
330
1F
100
AcDbEntity
  8
P-0000
  6
Continuous
 62
     7
100
AcDbLine
 10
2717.515269494045
 20
1131.488408077669
 30
0.0
 11
2713.069571380625
 21
1131.488408077669
 31
0.0
1001
ACME_LAYERS
1000
1
  0
LINE
  5
30FD
330
1F
100
AcDbEntity
  8
P-0000
  6
Continuous
 62
     7
100
AcDbLine
 10
2705.069571380625
 20
1131.488408077669
 30
0.0
 11
2704.069571380625
 21
1131.488408077669
 31
0.0
1001
ACME_LAYERS
1000
1
  0
LINE
  5
30FE
330
1F
100
AcDbEntity
  8
P-0000
  6
Continuous
 62
     7
100
AcDbLine
 10
2717.515269494045
 20
1137.08840807767
 30
0.0
 11
2717.515269494045
 21
1136.988408077669
 31
0.0
1001
ACME_LAYERS
1000
1
  0
LINE
  5
30FF
330
1F
100
AcDbEntity
  8
P-0000
  6
Continuous
 62
     7
100
AcDbLine
 10
2700.515269494045
 20
1137.08840807767
 30
0.0
 11
2717.515269494045
 21
1137.08840807767
 31
0.0
1001
ACME_LAYERS
1000
1
  0
LINE
  5
3100
330
1F
100
AcDbEntity
  8
P-0000
  6
Continuous
 62
     7
100
AcDbLine
 10
2700.515269494045
 20
1136.988408077669
 30
0.0
 11
2700.515269494045
 21
1137.08840807767
 31
0.0
1001
ACME_LAYERS
1000
1
  0
LINE
  5
3101
330
1F
100
AcDbEntity
  8
P-0000
  6
Continuous
 62
     7
100
AcDbLine
 10
2701.564017881159
 20
1138.975347269577
 30
0.0
 11
2701.564017881159
 21
1137.66896466127
 31
0.0
1001
ACME_LAYERS
1000
1
  0
LINE
  5
3102
330
1F
100
AcDbEntity
  8
P-0000
  6
Continuous
 62
     7
100
AcDbLine
 10
2715.569571380625
 20
1137.08840807767
 30
0.0
 11
2702.569571380625
 21
1137.08840807767
 31
0.0
1001
ACME_LAYERS
1000
1
  0
LINE
  5
3103
330
1F
100
AcDbEntity
  8
P-0000
  6
Continuous
 62
     7
100
AcDbLine
 10
2716.57512488009
 20
1138.975347269577
 30
0.0
 11
2716.57512488009
 21
1137.66896466127
 31
0.0
1001
ACME_LAYERS
1000
1
  0
LINE
  5
3104
330
1F
100
AcDbEntity
  8
P-0000
  6
Continuous
 62
     7
100
AcDbLine
 10
2713.069571380625
 20
1143.08840807767
 30
0.0
 11
2715.569571380625
 21
1143.08840807767
 31
0.0
1001
ACME_LAYERS
1000
1
  0
LINE
  5
3105
330
1F
100
AcDbEntity
  8
P-0000
  6
Continuous
 62
     7
100
AcDbLine
 10
2701.810689469815
 20
1137.515551643303
 30
0.0
 11
2702.569571380625
 21
1137.08840807767
 31
0.0
1001
ACME_LAYERS
1000
1
  0
LINE
  5
3106
330
1F
100
AcDbEntity
  8
P-0000
  6
Continuous
 62
     7
100
AcDbLine
 10
2701.810689469815
 20
1142.661264512035
 30
0.0
 11
2702.569571380625
 21
1143.08840807767
 31
0.0
1001
ACME_LAYERS
1000
1
  0
LINE
  5
3107
330
1F
100
AcDbEntity
  8
P-0000
  6
Continuous
 62
     7
100
AcDbLine
 10
2716.328453291432
 20
1137.515551643303
 30
0.0
 11
2715.569571380625
 21
1137.08840807767
 31
0.0
1001
ACME_LAYERS
1000
1
  0
LINE
  5
3108
330
1F
100
AcDbEntity
  8
P-0000
  6
Continuous
 62
     7
100
AcDbLine
 10
2716.328453291432
 20
1142.661264512035
 30
0.0
 11
2715.569571380625
 21
1143.08840807767
 31
0.0
1001
ACME_LAYERS
1000
1
  0
LINE
  5
3109
330
1F
100
AcDbEntity
  8
P-0000
  6
Continuous
 62
     7
100
AcDbLine
 10
2702.569571380625
 20
1143.08840807767
 30
0.0
 11
2705.069571380625
 21
1143.08840807767
 31
0.0
1001
ACME_LAYERS
1000
1
  0
LINE
  5
310A
330
1F
100
AcDbEntity
  8
P-0000
  6
Continuous
 62
     7
100
AcDbLine
 10
2716.57512488009
 20
1142.507851494069
 30
0.0
 11
2716.57512488009
 21
1138.975347269577
 31
0.0
1001
ACME_LAYERS
1000
1
  0
LINE
  5
310B
330
1F
100
AcDbEntity
  8
P-0000
  6
Continuous
 62
     7
100
AcDbLine
 10
2712.822348130357
 20
1142.507851494069
 30
0.0
 11
2712.822348130357
 21
1137.08840807767
 31
0.0
1001
ACME_LAYERS
1000
1
  0
LINE
  5
310C
330
1F
100
AcDbEntity
  8
P-0000
  6
Continuous
 62
     7
100
AcDbLine
 10
2705.316794630892
 20
1142.507851494069
 30
0.0
 11
2705.316794630892
 21
1137.08840807767
 31
0.0
1001
ACME_LAYERS
1000
1
  0
LINE
  5
310D
330
1F
100
AcDbEntity
  8
P-0000
  6
Continuous
 62
     7
100
AcDbLine
 10
2701.564017881159
 20
1142.507851494069
 30
0.0
 11
2701.564017881159
 21
1138.975347269577
 31
0.0
1001
ACME_LAYERS
1000
1
  0
LINE
  5
310E
330
1F
100
AcDbEntity
  8
P-0000
  6
Continuous
 62
     7
100
AcDbLine
 10
2592.810842761767
 20
1132.988408077669
 30
0.0
 11
2592.819571380603
 21
1132.988408077669
 31
0.0
1001
ACME_LAYERS
1000
1
  0
LINE
  5
310F
330
1F
100
AcDbEntity
  8
P-0000
  6
Continuous
 62
     7
100
AcDbLine
 10
2592.810842761767
 20
1131.256357270101
 30
0.0
 11
2592.819571380627
 21
1131.256357270101
 31
0.0
1001
ACME_LAYERS
1000
1
  0
LINE
  5
3110
330
1F
100
AcDbEntity
  8
P-0000
  6
Continuous
 62
     7
100
AcDbLine
 10
2592.810842761768
 20
1127.488408077669
 30
0.0
 11
2592.819571380627
 21
1127.488408077669
 31
0.0
1001
ACME_LAYERS
1000
1
  0
LINE
  5
3111
330
1F
100
AcDbEntity
  8
P-0000
  6
Continuous
 62
     7
100
AcDbLine
 10
2714.569571380623
 20
1131.488408077671
 30
0.0
 11
2719.569571380623
 21
1131.488408077671
 31
0.0
1001
ACME_LAYERS
1000
1
  0
LINE
  5
3112
330
1F
100
AcDbEntity
  8
P-0000
  6
Continuous
 62
     7
100
AcDbLine
 10
2717.515269494045
 20
1135.488408077671
 30
0.0
 11
2713.069571380625
 21
1135.488408077671
 31
0.0
1001
ACME_LAYERS
1000
1
  0
LINE
  5
3113
330
1F
100
AcDbEntity
  8
P-0000
  6
Continuous
 62
     7
100
AcDbLine
 10
2704.069571380625
 20
1131.488408077669
 30
0.0
 11
2700.515269494045
 21
1131.488408077669
 31
0.0
1001
ACME_LAYERS
1000
1
  0
LINE
  5
3114
330
1F
100
AcDbEntity
  8
P-0000
  6
Continuous
 62
     7
100
AcDbLine
 10
2704.069571380625
 20
1131.488408077669
 30
0.0
 11
2704.569571380623
 21
1131.488408077671
 31
0.0
1001
ACME_LAYERS
1000
1
  0
LINE
  5
3115
330
1F
100
AcDbEntity
  8
P-0000
  6
Continuous
 62
     7
100
AcDbLine
 10
2700.515269494045
 20
1135.488408077671
 30
0.0
 11
2704.569571380623
 21
1135.488408077671
 31
0.0
1001
ACME_LAYERS
1000
1
  0
LINE
  5
3116
330
1F
100
AcDbEntity
  8
P-0000
  6
Continuous
 62
     7
100
AcDbLine
 10
2713.069571380625
 20
1131.488408077669
 30
0.0
 11
2714.069571380625
 21
1131.488408077669
 31
0.0
1001
ACME_LAYERS
1000
1
  0
LINE
  5
3117
330
1F
100
AcDbEntity
  8
P-0000
  6
Continuous
 62
     7
100
AcDbLine
 10
2705.069571380625
 20
1133.488408077671
 30
0.0
 11
2704.569571380623
 21
1133.488408077671
 31
0.0
1001
ACME_LAYERS
1000
1
  0
LINE
  5
3118
330
1F
100
AcDbEntity
  8
P-0000
  6
Continuous
 62
     7
100
AcDbLine
 10
2705.869571380624
 20
1133.488408077671
 30
0.0
 11
2705.069571380625
 21
1133.488408077671
 31
0.0
1001
ACME_LAYERS
1000
1
  0
LINE
  5
3119
330
1F
100
AcDbEntity
  8
P-0000
  6
Continuous
 62
     7
100
AcDbLine
 10
2712.269571380625
 20
1133.488408077671
 30
0.0
 11
2705.869571380624
 21
1133.488408077671
 31
0.0
1001
ACME_LAYERS
1000
1
  0
LINE
  5
311A
330
1F
100
AcDbEntity
  8
P-0000
  6
Continuous
 62
     7
100
AcDbLine
 10
2713.069571380625
 20
1133.488408077671
 30
0.0
 11
2712.269571380625
 21
1133.488408077671
 31
0.0
1001
ACME_LAYERS
1000
1
  0
LINE
  5
311B
330
1F
100
AcDbEntity
  8
P-0000
  6
Continuous
 62
     7
100
AcDbLine
 10
2697.397998505371
 20
1131.488408077669
 30
0.0
 11
2704.069571380625
 21
1131.488408077669
 31
0.0
1001
ACME_LAYERS
1000
1
  0
ARC
  5
311C
330
1F
100
AcDbEntity
  8
P-0000
  6
Continuous
 62
     7
100
AcDbCircle
 10
2725.226425630118
 20
1131.488408077669
 30
0.0
 40
4.0
100
AcDbArc
 50
224.9999999999908
 51
270.0
1001
ACME_LAYERS
1000
1
  0
ARC
  5
311D
330
1F
100
AcDbEntity
  8
P-0000
  6
Continuous
 62
     7
100
AcDbCircle
 10
2697.397998505371
 20
1127.488408077669
 30
0.0
 40
4.000000000000613
100
AcDbArc
 50
90.0
 51
135.0000000000092
1001
ACME_LAYERS
1000
1
  0
ARC
  5
311E
330
1F
100
AcDbEntity
  8
P-0000
  6
Continuous
 62
     7
100
AcDbCircle
 10
2692.912717131131
 20
1131.488408077669
 30
0.0
 40
3.999999999999423
100
AcDbArc
 50
270.0
 51
315.0000000000092
1001
ACME_LAYERS
1000
1
  0
ARC
  5
311F
330
1F
100
AcDbEntity
  8
P-0000
  6
Continuous
 62
     7
100
AcDbCircle
 10
2686.667647591977
 20
1131.488408077669
 30
0.0
 40
4.0
100
AcDbArc
 50
239.9999999999995
 51
270.0
1001
ACME_LAYERS
1000
1
  0
ARC
  5
3120
330
1F
100
AcDbEntity
  8
P-0000
  6
Continuous
 62
     7
100
AcDbCircle
 10
2709.069571380625
 20
1149.507851494067
 30
0.0
 40
12.41944341639904
100
AcDbArc
 50
252.4120462260095
 51
287.5879537739905
1001
ACME_LAYERS
1000
1
  0
ARC
  5
3121
330
1F
100
AcDbEntity
  8
P-0000
  6
Continuous
 62
     7
100
AcDbCircle
 10
2709.069571380625
 20
1130.66896466127
 30
0.0
 40
12.41944341639904
100
AcDbArc
 50
72.41204622600953
 51
107.5879537739904
1001
ACME_LAYERS
1000
1
  0
ARC
  5
3122
330
1F
100
AcDbEntity
  8
P-0000
  6
Continuous
 62
     7
100
AcDbCircle
 10
2703.440406256025
 20
1140.410977650619
 30
0.0
 40
3.322569572950221
100
AcDbArc
 50
240.6266206051676
 51
304.3842474680531
1001
ACME_LAYERS
1000
1
  0
ARC
  5
3123
330
1F
100
AcDbEntity
  8
P-0000
  6
Continuous
 62
     7
100
AcDbCircle
 10
2703.440406256023
 20
1139.765838504718
 30
0.0
 40
3.322569572950149
100
AcDbArc
 50
119.3733793948324
 51
124.3842474680531
1001
ACME_LAYERS
1000
1
  0
ARC
  5
3124
330
1F
100
AcDbEntity
  8
P-0000
  6
Continuous
 62
     7
100
AcDbCircle
 10
2714.698736505222
 20
1140.410977650619
 30
0.0
 40
3.322569572950221
100
AcDbArc
 50
299.3733793948324
 51
304.3842474680531
1001
ACME_LAYERS
1000
1
  0
ARC
  5
3125
330
1F
100
AcDbEntity
  8
P-0000
  6
Continuous
 62
     7
100
AcDbCircle
 10
2714.698736505222
 20
1139.765838504719
 30
0.0
 40
3.322569572949122
100
AcDbArc
 50
60.62662060516761
 51
124.3842474680243
1001
ACME_LAYERS
1000
1
  0
ARC
  5
3126
330
1F
100
AcDbEntity
  8
P-0000
  6
Continuous
 62
     7
100
AcDbCircle
 10
2703.440406256025
 20
1140.410977650619
 30
0.0
 40
3.322569572949876
100
AcDbArc
 50
235.6157525319468
 51
240.6266206051676
1001
ACME_LAYERS
1000
1
  0
ARC
  5
3127
330
1F
100
AcDbEntity
  8
P-0000
  6
Continuous
 62
     7
100
AcDbCircle
 10
2703.440406256025
 20
1139.765838504719
 30
0.0
 40
3.322569572949888
100
AcDbArc
 50
55.61575253194686
 51
119.3733793948324
1001
ACME_LAYERS
1000
1
  0
ARC
  5
3128
330
1F
100
AcDbEntity
  8
P-0000
  6
Continuous
 62
     7
100
AcDbCircle
 10
2714.698736505222
 20
1140.410977650619
 30
0.0
 40
3.322569572949872
100
AcDbArc
 50
235.6157525319757
 51
299.3733793948324
1001
ACME_LAYERS
1000
1
  0
ARC
  5
3129
330
1F
100
AcDbEntity
  8
P-0000
  6
Continuous
 62
     7
100
AcDbCircle
 10
2714.698736505222
 20
1139.765838504719
 30
0.0
 40
3.322569572949884
100
AcDbArc
 50
55.61575253194686
 51
60.62662060516761
1001
ACME_LAYERS
1000
1
  0
ARC
  5
312A
330
1F
100
AcDbEntity
  8
P-0000
  6
Continuous
 62
     7
100
AcDbCircle
 10
2686.667647591977
 20
1131.488408077669
 30
0.0
 40
2.0
100
AcDbArc
 50
239.9999999999704
 51
270.0
1001
ACME_LAYERS
1000
1
  0
ARC
  5
312B
330
1F
100
AcDbEntity
  8
P-0000
  6
Continuous
 62
     7
100
AcDbCircle
 10
2692.912717131131
 20
1131.488408077669
 30
0.0
 40
2.000000000000397
100
AcDbArc
 50
270.0
 51
315.0000000000092
1001
ACME_LAYERS
1000
1
  0
ARC
  5
312C
330
1F
100
AcDbEntity
  8
P-0000
  6
Continuous
 62
     7
100
AcDbCircle
 10
2697.397998505371
 20
1127.488408077669
 30
0.0
 40
2.000000000000311
100
AcDbArc
 50
90.0
 51
135.0000000000092
1001
ACME_LAYERS
1000
1
  0
ARC
  5
312D
330
1F
100
AcDbEntity
  8
P-0000
  6
Continuous
 62
     7
100
AcDbCircle
 10
2720.741144255878
 20
1127.488408077669
 30
0.0
 40
2.0
100
AcDbArc
 50
44.99999999999078
 51
90.0
1001
ACME_LAYERS
1000
1
  0
ARC
  5
312E
330
1F
100
AcDbEntity
  8
P-0000
  6
Continuous
 62
     7
100
AcDbCircle
 10
2725.226425630118
 20
1131.488408077669
 30
0.0
 40
2.0
100
AcDbArc
 50
224.9999999999908
 51
270.0
1001
ACME_LAYERS
1000
1
  0
ARC
  5
312F
330
1F
100
AcDbEntity
  8
P-0000
  6
Continuous
 62
     7
100
AcDbCircle
 10
2731.47149516927
 20
1131.488408077669
 30
0.0
 40
1.999999999999425
100
AcDbArc
 50
270.0
 51
300.0000000000296
1001
ACME_LAYERS
1000
1
  0
ARC
  5
3130
330
1F
100
AcDbEntity
  8
P-0000
  6
Continuous
 62
     7
100
AcDbCircle
 10
2731.47149516927
 20
1131.488408077669
 30
0.0
 40
4.000000000000401
100
AcDbArc
 50
270.0
 51
300.0000000000005
1001
ACME_LAYERS
1000
1
  0
ARC
  5
3131
330
1F
100
AcDbEntity
  8
P-0000
  6
Continuous
 62
     7
100
AcDbCircle
 10
2720.741144255878
 20
1127.488408077669
 30
0.0
 40
4.0
100
AcDbArc
 50
44.99999999999078
 51
89.99999999997395
1001
ACME_LAYERS
1000
1
  0
HATCH
  5
3132
330
1F
100
AcDbEntity
  8
P-0000
  6
Continuous
 62
     3
100
AcDbHatch
 10
0.0
 20
0.0
 30
0.0
210
0.0
220
0.0
230
1.0
  2
_U
 70
     0
 71
     0
 91
        1
 92
        1
 93
       19
 72
     1
 10
2680.069571380625
 20
1132.988408077669
 11
2685.667647591977
 21
1129.756357270102
 72
     1
 10
2685.667647591977
 20
1129.756357270101
 11
2686.131749207115
 21
1129.488408077669
 72
     1
 10
2686.131749207115
 20
1129.488408077669
 11
2686.667647591977
 21
1129.488408077669
 72
     1
 10
2686.667647591977
 20
1129.488408077669
 11
2692.912717131131
 21
1129.488408077669
 72
     1
 10
2692.912717131131
 20
1129.488408077669
 11
2693.741144255878
 21
1129.488408077669
 72
     1
 10
2693.741144255878
 20
1129.488408077669
 11
2694.326930693505
 21
1130.074194515296
 72
     1
 10
2694.326930693505
 20
1130.074194515297
 11
2694.569571380625
 21
1130.316835202417
 72
     2
 10
2697.397998505371
 20
1127.488408077669
 40
4.000000000000613
 50
-135.0000000000008
 51
-90.00000000000001
 73
     0
 72
     1
 10
2697.397998505371
 20
1131.488408077669
 11
2704.069571380625
 21
1131.488408077669
 72
     1
 10
2704.069571380625
 20
1131.488408077669
 11
2704.069571380625
 21
1129.488408077669
 72
     1
 10
2704.069571380625
 20
1129.488408077669
 11
2697.397998505372
 21
1129.488408077669
 72
     1
 10
2697.397998505371
 20
1129.488408077669
 11
2696.569571380625
 21
1129.488408077669
 72
     1
 10
2696.569571380625
 20
1129.488408077669
 11
2695.983784942999
 21
1128.902621640043
 72
     1
 10
2695.983784942999
 20
1128.902621640043
 11
2695.741144255878
 21
1128.659980952925
 72
     2
 10
2692.912717131131
 20
1131.488408077669
 40
3.999999999999423
 50
44.99999999998222
 51
90.0
 73
     0
 72
     1
 10
2692.912717131131
 20
1127.488408077669
 11
2686.667647591977
 21
1127.488408077669
 72
     2
 10
2686.667647591977
 20
1131.488408077669
 40
4.0
 50
90.0
 51
119.9999999999965
 73
     0
 72
     1
 10
2684.667647591977
 20
1128.024306462531
 11
2679.069571380625
 21
1131.256357270101
 72
     1
 10
2679.069571380625
 20
1131.256357270101
 11
2680.069571380625
 21
1132.988408077669
 97
        0
 75
     0
 76
     0
 52
44.99999999999999
 41
1.0
 77
     0
 78
     1
 53
45.0
 43
0.0
 44
-0.0000000000001137
 45
-0.7071067811865475
 46
0.7071067811865476
 79
     0
 98
        1
 10
2652.102699395519
 20
1268.114373572045
1001
ACME_LAYERS
1000
1
1001
ACAD
1010
0.0
1020
0.0
1030
0.0
  0
HATCH
  5
3133
330
1F
100
AcDbEntity
  8
P-0000
  6
Continuous
 62
     3
100
AcDbHatch
 10
0.0
 20
0.0
 30
0.0
210
0.0
220
0.0
230
1.0
  2
_U
 70
     0
 71
     0
 91
        1
 92
        1
 93
       19
 72
     2
 10
2725.226425630118
 20
1131.488408077669
 40
2.0
 50
90.0
 51
135.0000000000351
 73
     0
 72
     1
 10
2723.812212067743
 20
1130.074194515297
 11
2723.569571380624
 21
1130.316835202417
 72
     2
 10
2720.741144255878
 20
1127.488408077669
 40
4.0
 50
404.9999999999991
 51
449.9999999999738
 73
     1
 72
     1
 10
2720.74114425588
 20
1131.488408077669
 11
2718.303541542652
 21
1131.488408077669
 72
     1
 10
2718.303541542652
 20
1131.488408077669
 11
2716.893213013793
 21
1131.488408077669
 72
     1
 10
2716.893213013793
 20
1131.488408077669
 11
2714.069571380625
 21
1131.488408077669
 72
     1
 10
2714.069571380625
 20
1131.488408077669
 11
2714.069571380625
 21
1129.488408077669
 72
     1
 10
2714.069571380625
 20
1129.488408077669
 11
2720.741144255878
 21
1129.488408077669
 72
     1
 10
2720.741144255878
 20
1129.488408077669
 11
2721.569571380625
 21
1129.488408077669
 72
     1
 10
2721.569571380625
 20
1129.488408077669
 11
2722.155357818251
 21
1128.902621640043
 72
     1
 10
2722.155357818251
 20
1128.902621640043
 11
2722.397998505372
 21
1128.659980952925
 72
     2
 10
2725.226425630118
 20
1131.488408077669
 40
4.0
 50
224.9999999999821
 51
270.0
 73
     1
 72
     1
 10
2725.226425630118
 20
1127.488408077669
 11
2731.47149516927
 21
1127.488408077669
 72
     2
 10
2731.47149516927
 20
1131.488408077669
 40
4.000000000000401
 50
270.0
 51
299.9999999999967
 73
     1
 72
     1
 10
2733.471495169271
 20
1128.024306462531
 11
2739.069571380623
 21
1131.256357270101
 72
     1
 10
2739.069571380623
 20
1131.256357270101
 11
2738.069571380624
 21
1132.988408077669
 72
     1
 10
2738.069571380625
 20
1132.988408077669
 11
2732.471495169271
 21
1129.756357270102
 72
     2
 10
2731.47149516927
 20
1131.488408077669
 40
1.999999999999425
 50
59.99999999999046
 51
90.0
 73
     0
 72
     1
 10
2731.47149516927
 20
1129.488408077669
 11
2725.226425630118
 21
1129.488408077669
 97
        0
 75
     0
 76
     0
 52
44.99999999999999
 41
5.0
 77
     0
 78
     1
 53
135.0
 43
2652.102699395519
 44
1268.114373572045
 45
3.535533905932736
 46
3.535533905932738
 79
     0
 98
        1
 10
2652.102699395519
 20
1268.114373572045
1001
ACME_LAYERS
1000
1
  0
LINE
  5
3134
330
1F
100
AcDbEntity
  8
0
100
AcDbLine
 10
2713.069571380625
 20
1127.488408077669
 30
0.0
 11
2713.069571380625
 21
1133.488408077671
 31
0.0
  0
LINE
  5
3135
330
1F
100
AcDbEntity
  8
P-0000
  6
Continuous
 62
     7
100
AcDbLine
 10
2686.702429015082
 20
1127.488408077669
 30
0.0
 11
2692.947498554236
 21
1127.488408077669
 31
0.0
1001
ACME_LAYERS
1000
1
  0
LINE
  5
3136
330
1F
100
AcDbEntity
  8
P-0000
  6
Continuous
 62
     7
100
AcDbLine
 10
2731.47149516927
 20
1127.488408077669
 30
0.0
 11
2725.226425630116
 21
1127.488408077669
 31
0.0
1001
ACME_LAYERS
1000
1
  0
LINE
  5
3137
330
1F
100
AcDbEntity
  8
P-0000
  6
Continuous
 62
     7
100
AcDbLine
 10
2686.667647591975
 20
1127.488408077669
 30
0.0
 11
2692.912717131129
 21
1127.488408077669
 31
0.0
1001
ACME_LAYERS
1000
1
  0
LINE
  5
313E
330
1F
100
AcDbEntity
  8
0
100
AcDbLine
 10
2713.126107824715
 20
1131.488408077669
 30
0.0
 11
2713.126107824715
 21
1118.282488172726
 31
0.0
  0
LINE
  5
313F
330
1F
100
AcDbEntity
  8
0
100
AcDbLine
 10
2705.126107824716
 20
1131.488408077669
 30
0.0
 11
2705.126107824716
 21
1118.282488172726
 31
0.0
  0
HATCH
  5
3141
330
1F
100
AcDbEntity
  8
P-3FF0
  6
Continuous
 62
     3
100
AcDbHatch
 10
0.0
 20
0.0
 30
0.0
210
0.0
220
0.0
230
1.0
  2
_U
 70
     0
 71
     0
 91
        1
 92
        1
 93
       37
 72
     1
 10
2741.793075808825
 20
1117.717314962583
 11
2743.207289371198
 21
1119.131528524957
 72
     1
 10
2743.207289371198
 20
1119.131528524958
 11
2742.504728126446
 21
1119.834089769709
 72
     2
 10
2739.676301001701
 20
1117.005662644962
 40
4.0
 50
404.9999999999993
 51
450.0
 73
     1
 72
     2
 10
2739.676301001701
 20
1117.005662644962
 40
3.999999999999721
 50
450.0
 51
479.9999999999984
 73
     1
 72
     1
 10
2737.6763010017
 20
1120.4697642601
 11
2734.239045992068
 21
1118.485264155014
 72
     2
 10
2733.239045992067
 20
1120.217314962584
 40
1.999999999999868
 50
59.99999999999786
 51
90.0
 73
     0
 72
     1
 10
2733.239045992067
 20
1118.217314962584
 11
2732.960842761791
 21
1118.217314962584
 72
     1
 10
2732.960842761791
 20
1118.217314962584
 11
2713.060842761791
 21
1118.217314962584
 72
     1
 10
2713.060842761791
 20
1118.217314962584
 11
2712.260842761792
 21
1118.217314962584
 72
     1
 10
2712.260842761792
 20
1118.217314962584
 11
2705.860842761791
 21
1118.217314962584
 72
     1
 10
2705.860842761791
 20
1118.217314962584
 11
2705.060842761791
 21
1118.217314962584
 72
     1
 10
2705.060842761791
 20
1118.217314962584
 11
2685.624944376929
 21
1118.217314962584
 72
     2
 10
2685.624944376929
 20
1120.217314962584
 40
2.0
 50
-270.0
 51
-239.9999999999979
 73
     0
 72
     1
 10
2684.624944376929
 20
1118.485264155014
 11
2679.172964402245
 21
1121.632966261014
 72
     2
 10
2677.375552582021
 20
1119.231027305017
 40
2.999999999970075
 50
413.1918656392357
 51
455.4802249851991
 73
     1
 72
     1
 10
2677.089045992065
 20
1122.217314962584
 11
2639.340709695011
 21
1122.217314962584
 72
     2
 10
2639.340709695011
 20
1116.217314962584
 40
6.000000000000177
 50
450.0
 51
502.9999999999994
 73
     1
 72
     1
 10
2634.548896634727
 20
1119.828205101496
 11
2628.817665211534
 21
1112.222604119837
 72
     2
 10
2632.810842761769
 20
1109.213529004078
 40
5.0
 50
502.9999999999976
 51
539.9999999999961
 73
     1
 72
     1
 10
2627.81084276177
 20
1109.213529004078
 11
2627.81084276177
 21
1105.217314962583
 72
     1
 10
2627.81084276177
 20
1105.217314962583
 11
2628.407373136595
 21
1105.217314962583
 72
     1
 10
2628.407373136595
 20
1105.217314962583
 11
2629.810842761769
 21
1106.620784587758
 72
     1
 10
2629.810842761769
 20
1106.620784587758
 11
2629.810842761769
 21
1109.213529004077
 72
     2
 10
2632.810842761769
 20
1109.213529004078
 40
3.0
 50
-180.0
 51
-142.9999999999997
 73
     0
 72
     1
 10
2630.414936231628
 20
1111.018974073533
 11
2634.332167062388
 21
1116.217314962584
 72
     1
 10
2634.332167062386
 20
1116.217314962584
 11
2636.146167654822
 21
1118.624575055191
 72
     2
 10
2639.340709695011
 20
1116.217314962584
 40
4.000000000000238
 50
-142.9999999999979
 51
-90.00000000000001
 73
     0
 72
     1
 10
2639.340709695011
 20
1120.217314962584
 11
2677.089045992065
 21
1120.217314962584
 72
     2
 10
2677.089045992065
 20
1118.217314962584
 40
2.0
 50
-90.00000000000001
 51
-60.00000000000715
 73
     0
 72
     1
 10
2678.089045992065
 20
1119.949365770152
 11
2683.624944376929
 21
1116.753213347446
 72
     2
 10
2685.624944376929
 20
1120.217314962584
 40
4.0
 50
600.0000000000092
 51
630.0
 73
     1
 72
     1
 10
2685.624944376929
 20
1116.217314962584
 11
2692.810842761792
 21
1116.217314962584
 72
     1
 10
2692.810842761792
 20
1116.217314962584
 11
2733.239045992067
 21
1116.217314962584
 72
     2
 10
2733.239045992067
 20
1120.217314962584
 40
3.999999999999785
 50
270.0000000000049
 51
300.0000000000018
 73
     1
 72
     1
 10
2735.239045992067
 20
1116.753213347445
 11
2738.676301001702
 21
1118.73771345253
 72
     2
 10
2739.676301001701
 20
1117.005662644962
 40
1.999999999999721
 50
-120.0000000000046
 51
-44.9999999999988
 73
     0
 72
     1
 10
2741.090514564073
 20
1118.419876207336
 11
2741.793075808825
 21
1117.717314962584
 97
        0
 75
     0
 76
     0
 52
44.99999999999999
 41
2.0
 77
     0
 78
     1
 53
135.0
 43
1884.831398820425
 44
720.4333345552639
 45
1.414213562373094
 46
1.414213562373094
 79
     0
 98
        1
 10
1884.831398820425
 20
720.4333345552639
1001
ACME_LAYERS
1000
1
  0
LINE
  5
3142
330
1F
100
AcDbEntity
  8
P-3FF0
  6
Continuous
 62
     7
100
AcDbLine
 10
2639.340709695011
 20
1120.217314962584
 30
0.0
 11
2677.089045992065
 21
1120.217314962584
 31
0.0
1001
ACME_LAYERS
1000
1
  0
HATCH
  5
3143
330
1F
100
AcDbEntity
  8
P-3FF0
  6
Continuous
 62
     3
100
AcDbHatch
 10
0.0
 20
0.0
 30
0.0
210
0.0
220
0.0
230
1.0
  2
_U
 70
     0
 71
     0
 91
        1
 92
        1
 93
        6
 72
     1
 10
2627.810842761779
 20
1049.219650557008
 11
2628.642346034269
 21
1050.141510091292
 72
     1
 10
2628.642346034269
 20
1050.141510091292
 11
2629.310842761769
 21
1051.217314962584
 72
     1
 10
2629.310842761769
 20
1051.217314962584
 11
2629.310842761769
 21
1103.652459668686
 72
     1
 10
2629.310842761769
 20
1103.652459668686
 11
2628.407373136595
 21
1105.217314962584
 72
     1
 10
2628.407373136595
 20
1105.217314962583
 11
2627.81084276177
 21
1105.217314962583
 72
     1
 10
2627.81084276177
 20
1105.217314962583
 11
2627.81084276177
 21
1049.219650556999
 97
        0
 75
     0
 76
     0
 52
-45.0
 41
2.0
 77
     0
 78
     1
 53
225.0
 43
1884.831398820425
 44
720.4333345552639
 45
-1.414213562373094
 46
1.414213562373094
 79
     0
 98
        1
 10
1884.831398820425
 20
720.4333345552639
1001
ACME_LAYERS
1000
1
  0
LINE
  5
3144
330
1F
100
AcDbEntity
  8
P-3FF0
  6
Continuous
 62
     7
100
AcDbLine
 10
2629.310842761769
 20
1051.217314962584
 30
0.0
 11
2629.310842761769
 21
1051.962418283663
 31
0.0
1001
ACME_LAYERS
1000
1
  0
LINE
  5
3145
330
1F
100
AcDbEntity
  8
P-3FF0
  6
Continuous
 62
     7
100
AcDbLine
 10
2627.81084276177
 20
1105.217314962583
 30
0.0
 11
2627.81084276177
 21
1049.219650556999
 31
0.0
1001
ACME_LAYERS
1000
1
  0
LINE
  5
3146
330
1F
100
AcDbEntity
  8
P-3FF0
  6
Continuous
 62
     7
100
AcDbLine
 10
2627.81084276177
 20
1109.213529004078
 30
0.0
 11
2627.81084276177
 21
1105.217314962583
 31
0.0
1001
ACME_LAYERS
1000
1
  0
ARC
  5
3147
330
1F
100
AcDbEntity
  8
P-3FF0
  6
Continuous
 62
     7
100
AcDbCircle
 10
2639.340709695011
 20
1116.217314962584
 30
0.0
 40
6.000000000000177
100
AcDbArc
 50
90.0
 51
143.0000000000145
1001
ACME_LAYERS
1000
1
  0
LINE
  5
3148
330
1F
100
AcDbEntity
  8
P-3FF0
  6
Continuous
 62
     7
100
AcDbLine
 10
2634.332167062386
 20
1116.217314962584
 30
0.0
 11
2636.146167654822
 21
1118.624575055192
 31
0.0
1001
ACME_LAYERS
1000
1
  0
ARC
  5
3149
330
1F
100
AcDbEntity
  8
P-3FF0
  6
Continuous
 62
     7
100
AcDbCircle
 10
2639.340709695011
 20
1116.217314962584
 30
0.0
 40
4.000000000000238
100
AcDbArc
 50
90.0
 51
143.0000000000145
1001
ACME_LAYERS
1000
1
  0
LINE
  5
314A
330
1F
100
AcDbEntity
  8
P-3FF0
  6
Continuous
 62
     7
100
AcDbLine
 10
2630.414936231628
 20
1111.018974073533
 30
0.0
 11
2634.332167062386
 21
1116.217314962584
 31
0.0
1001
ACME_LAYERS
1000
1
  0
LINE
  5
314B
330
1F
100
AcDbEntity
  8
P-3FF0
  6
Continuous
 62
     7
100
AcDbLine
 10
2628.817665211534
 20
1112.222604119837
 30
0.0
 11
2634.548896634727
 21
1119.828205101496
 31
0.0
1001
ACME_LAYERS
1000
1
  0
ARC
  5
314C
330
1F
100
AcDbEntity
  8
P-3FF0
  6
Continuous
 62
     7
100
AcDbCircle
 10
2632.810842761769
 20
1109.213529004078
 30
0.0
 40
3.0
100
AcDbArc
 50
143.0000000000145
 51
180.0
1001
ACME_LAYERS
1000
1
  0
ARC
  5
314D
330
1F
100
AcDbEntity
  8
P-3FF0
  6
Continuous
 62
     7
100
AcDbCircle
 10
2632.810842761769
 20
1109.213529004078
 30
0.0
 40
5.0
100
AcDbArc
 50
143.0000000000145
 51
179.999999999987
1001
ACME_LAYERS
1000
1
  0
LINE
  5
314E
330
1F
100
AcDbEntity
  8
P-3FF0
  6
Continuous
 62
     7
100
AcDbLine
 10
2629.810842761769
 20
1109.213529004078
 30
0.0
 11
2629.810842761769
 21
1106.620784587758
 31
0.0
1001
ACME_LAYERS
1000
1
  0
LINE
  5
314F
330
1F
100
AcDbEntity
  8
0
100
AcDbLine
 10
2629.810842761769
 20
1106.620784587758
 30
0.0
 11
2629.310842761769
 21
1103.652459668686
 31
0.0
  0
LINE
  5
3156
330
1F
100
AcDbEntity
  8
P-0000
  6
STRICHPUNKT
 62
     3
100
AcDbLine
 10
2476.569571380624
 20
1130.461296592917
 30
0.0
 11
2476.569571380624
 21
1137.461296592917
 31
0.0
1001
ACME_LAYERS
1000
1
  0
LINE
  5
3157
330
1F
100
AcDbEntity
  8
P-0000
  6
Continuous
 62
     7
100
AcDbLine
 10
2481.569571380624
 20
1135.488408077671
 30
0.0
 11
2486.980815782703
 21
1135.488408077671
 31
0.0
1001
ACME_LAYERS
1000
1
  0
LINE
  5
3158
330
1F
100
AcDbEntity
  8
P-0000
  6
Continuous
 62
     7
100
AcDbLine
 10
2481.569571380624
 20
1133.488408077671
 30
0.0
 11
2486.980815782703
 21
1133.488408077671
 31
0.0
1001
ACME_LAYERS
1000
1
  0
LINE
  5
3159
330
1F
100
AcDbEntity
  8
P-0000
  6
STRICHLINIE
 62
     2
100
AcDbLine
 10
2481.569571380624
 20
1135.488408077671
 30
0.0
 11
2481.569571380624
 21
1133.488408077671
 31
0.0
1001
ACME_LAYERS
1000
1
  0
LINE
  5
315A
330
1F
100
AcDbEntity
  8
P-0000
  6
Continuous
 62
     7
100
AcDbLine
 10
2471.569571380624
 20
1135.488408077671
 30
0.0
 11
2481.569571380624
 21
1135.488408077671
 31
0.0
1001
ACME_LAYERS
1000
1
  0
LINE
  5
315B
330
1F
100
AcDbEntity
  8
P-0000
  6
Continuous
 62
     7
100
AcDbLine
 10
2471.569571380624
 20
1133.488408077671
 30
0.0
 11
2481.569571380624
 21
1133.488408077671
 31
0.0
1001
ACME_LAYERS
1000
1
  0
LINE
  5
315C
330
1F
100
AcDbEntity
  8
P-0000
  6
STRICHLINIE
 62
     2
100
AcDbLine
 10
2471.569571380624
 20
1135.488408077671
 30
0.0
 11
2471.569571380624
 21
1133.488408077671
 31
0.0
1001
ACME_LAYERS
1000
1
  0
LINE
  5
315D
330
1F
100
AcDbEntity
  8
P-0000
  6
Continuous
 62
     7
100
AcDbLine
 10
2486.980815782703
 20
1135.488408077671
 30
0.0
 11
2488.980815782703
 21
1135.488408077671
 31
0.0
1001
ACME_LAYERS
1000
1
  0
LINE
  5
315E
330
1F
100
AcDbEntity
  8
P-0000
  6
Continuous
 62
     7
100
AcDbLine
 10
2486.980815782703
 20
1133.488408077671
 30
0.0
 11
2488.980815782703
 21
1133.488408077671
 31
0.0
1001
ACME_LAYERS
1000
1
  0
LINE
  5
315F
330
1F
100
AcDbEntity
  8
P-0000
  6
Continuous
 62
     7
100
AcDbLine
 10
2486.980815782703
 20
1135.488408077671
 30
0.0
 11
2486.980815782703
 21
1133.488408077671
 31
0.0
1001
ACME_LAYERS
1000
1
  0
LINE
  5
3160
330
1F
100
AcDbEntity
  8
P-0000
  6
Continuous
 62
     7
100
AcDbLine
 10
2488.980815782703
 20
1135.488408077671
 30
0.0
 11
2488.980815782703
 21
1133.488408077671
 31
0.0
1001
ACME_LAYERS
1000
1
  0
LINE
  5
3161
330
1F
100
AcDbEntity
  8
P-0000
  6
Continuous
 62
     7
100
AcDbLine
 10
2584.319571380623
 20
1133.488408077671
 30
0.0
 11
2587.819571380624
 21
1133.488408077671
 31
0.0
1001
ACME_LAYERS
1000
1
  0
LINE
  5
3162
330
1F
100
AcDbEntity
  8
P-0000
  6
Continuous
 62
     7
100
AcDbLine
 10
2587.819571380624
 20
1133.488408077671
 30
0.0
 11
2592.819571380624
 21
1133.488408077671
 31
0.0
1001
ACME_LAYERS
1000
1
  0
LINE
  5
3163
330
1F
100
AcDbEntity
  8
P-0000
  6
Continuous
 62
     7
100
AcDbLine
 10
2582.319571380625
 20
1133.488408077671
 30
0.0
 11
2584.319571380623
 21
1133.488408077671
 31
0.0
1001
ACME_LAYERS
1000
1
  0
LINE
  5
3164
330
1F
100
AcDbEntity
  8
P-0000
  6
Continuous
 62
     7
100
AcDbLine
 10
2582.319571380625
 20
1135.488408077671
 30
0.0
 11
2582.319571380625
 21
1133.488408077671
 31
0.0
1001
ACME_LAYERS
1000
1
  0
LINE
  5
3165
330
1F
100
AcDbEntity
  8
P-0000
  6
Continuous
 62
     7
100
AcDbLine
 10
2582.319571380625
 20
1150.482756779241
 30
0.0
 11
2582.319571380625
 21
1135.488408077671
 31
0.0
1001
ACME_LAYERS
1000
1
  0
LINE
  5
3166
330
1F
100
AcDbEntity
  8
P-0000
  6
Continuous
 62
     7
100
AcDbLine
 10
2502.157809269826
 20
1132.988408077669
 30
0.0
 11
2506.603507383247
 21
1132.988408077669
 31
0.0
1001
ACME_LAYERS
1000
1
  0
LINE
  5
3167
330
1F
100
AcDbEntity
  8
P-0000
  6
Continuous
 62
     7
100
AcDbLine
 10
2519.157809269826
 20
1132.988408077669
 30
0.0
 11
2515.103507383249
 21
1132.988408077669
 31
0.0
1001
ACME_LAYERS
1000
1
  0
LINE
  5
3168
330
1F
100
AcDbEntity
  8
P-0000
  6
Continuous
 62
     7
100
AcDbLine
 10
2507.403507383248
 20
1132.988408077669
 30
0.0
 11
2515.103507383249
 21
1132.988408077669
 31
0.0
1001
ACME_LAYERS
1000
1
  0
LINE
  5
3169
330
1F
100
AcDbEntity
  8
P-0000
  6
Continuous
 62
     7
100
AcDbLine
 10
2506.603507383247
 20
1132.988408077669
 30
0.0
 11
2507.403507383248
 21
1132.988408077669
 31
0.0
1001
ACME_LAYERS
1000
1
  0
LINE
  5
316A
330
1F
100
AcDbEntity
  8
P-0000
  6
Continuous
 62
     7
100
AcDbLine
 10
2671.018178140287
 20
1143.471075770431
 30
0.0
 11
2671.018178140287
 21
1140.588408077668
 31
0.0
1001
ACME_LAYERS
1000
1
  0
LINE
  5
316B
330
1F
100
AcDbEntity
  8
P-0000
  6
Continuous
 62
     3
100
AcDbLine
 10
2671.818178140287
 20
1143.009195555078
 30
0.0
 11
2671.818178140287
 21
1140.588408077668
 31
0.0
1001
ACME_LAYERS
1000
1
  0
LINE
  5
316C
330
1F
100
AcDbEntity
  8
P-0000
  6
Continuous
 62
     7
100
AcDbLine
 10
2676.011105045489
 20
1140.588408077668
 30
0.0
 11
2671.818178140288
 21
1140.588408077668
 31
0.0
1001
ACME_LAYERS
1000
1
  0
LINE
  5
316D
330
1F
100
AcDbEntity
  8
P-0000
  6
Continuous
 62
     7
100
AcDbLine
 10
2671.818178140288
 20
1140.588408077668
 30
0.0
 11
2671.018178140287
 21
1140.588408077668
 31
0.0
1001
ACME_LAYERS
1000
1
  0
LINE
  5
316E
330
1F
100
AcDbEntity
  8
P-0000
  6
Continuous
 62
     7
100
AcDbLine
 10
2666.572480026867
 20
1134.488408077668
 30
0.0
 11
2666.572480026867
 21
1132.988408077669
 31
0.0
1001
ACME_LAYERS
1000
1
  0
LINE
  5
316F
330
1F
100
AcDbEntity
  8
P-0000
  6
Continuous
 62
     7
100
AcDbLine
 10
2683.572480026866
 20
1132.988408077669
 30
0.0
 11
2683.572480026866
 21
1134.488408077668
 31
0.0
1001
ACME_LAYERS
1000
1
  0
LINE
  5
3170
330
1F
100
AcDbEntity
  8
P-0000
  6
Continuous
 62
     7
100
AcDbLine
 10
2666.572480026867
 20
1134.588408077668
 30
0.0
 11
2666.572480026867
 21
1134.488408077668
 31
0.0
1001
ACME_LAYERS
1000
1
  0
LINE
  5
3171
330
1F
100
AcDbEntity
  8
P-0000
  6
Continuous
 62
     7
100
AcDbLine
 10
2683.572480026866
 20
1134.588408077668
 30
0.0
 11
2666.572480026867
 21
1134.588408077668
 31
0.0
1001
ACME_LAYERS
1000
1
  0
LINE
  5
3172
330
1F
100
AcDbEntity
  8
P-0000
  6
Continuous
 62
     7
100
AcDbLine
 10
2683.572480026866
 20
1134.488408077668
 30
0.0
 11
2683.572480026866
 21
1134.588408077668
 31
0.0
1001
ACME_LAYERS
1000
1
  0
LINE
  5
3173
330
1F
100
AcDbEntity
  8
P-0000
  6
Continuous
 62
     7
100
AcDbLine
 10
2682.523731639753
 20
1136.475347269574
 30
0.0
 11
2682.523731639753
 21
1135.168964661268
 31
0.0
1001
ACME_LAYERS
1000
1
  0
LINE
  5
3174
330
1F
100
AcDbEntity
  8
P-0000
  6
Continuous
 62
     7
100
AcDbLine
 10
2668.518178140286
 20
1134.588408077668
 30
0.0
 11
2681.518178140287
 21
1134.588408077668
 31
0.0
1001
ACME_LAYERS
1000
1
  0
LINE
  5
3175
330
1F
100
AcDbEntity
  8
P-0000
  6
Continuous
 62
     7
100
AcDbLine
 10
2667.512624640822
 20
1136.475347269574
 30
0.0
 11
2667.512624640822
 21
1135.168964661268
 31
0.0
1001
ACME_LAYERS
1000
1
  0
LINE
  5
3176
330
1F
100
AcDbEntity
  8
P-0000
  6
Continuous
 62
     7
100
AcDbLine
 10
2671.018178140287
 20
1140.588408077668
 30
0.0
 11
2668.518178140286
 21
1140.588408077668
 31
0.0
1001
ACME_LAYERS
1000
1
  0
LINE
  5
3177
330
1F
100
AcDbEntity
  8
P-0000
  6
Continuous
 62
     7
100
AcDbLine
 10
2678.770954890019
 20
1136.475347269574
 30
0.0
 11
2678.770954890019
 21
1135.168964661268
 31
0.0
1001
ACME_LAYERS
1000
1
  0
LINE
  5
3178
330
1F
100
AcDbEntity
  8
P-0000
  6
Continuous
 62
     7
100
AcDbLine
 10
2671.265401390555
 20
1136.475347269574
 30
0.0
 11
2671.265401390555
 21
1135.168964661268
 31
0.0
1001
ACME_LAYERS
1000
1
  0
LINE
  5
3179
330
1F
100
AcDbEntity
  8
P-0000
  6
Continuous
 62
     7
100
AcDbLine
 10
2682.277060051097
 20
1135.015551643302
 30
0.0
 11
2681.518178140287
 21
1134.588408077668
 31
0.0
1001
ACME_LAYERS
1000
1
  0
LINE
  5
317A
330
1F
100
AcDbEntity
  8
P-0000
  6
Continuous
 62
     7
100
AcDbLine
 10
2667.759296229479
 20
1135.015551643302
 30
0.0
 11
2668.518178140286
 21
1134.588408077668
 31
0.0
1001
ACME_LAYERS
1000
1
  0
LINE
  5
317B
330
1F
100
AcDbEntity
  8
P-0000
  6
Continuous
 62
     7
100
AcDbLine
 10
2667.759296229479
 20
1140.161264512032
 30
0.0
 11
2668.518178140286
 21
1140.588408077668
 31
0.0
1001
ACME_LAYERS
1000
1
  0
LINE
  5
317C
330
1F
100
AcDbEntity
  8
P-0000
  6
Continuous
 62
     7
100
AcDbLine
 10
2667.512624640822
 20
1140.007851494066
 30
0.0
 11
2667.512624640822
 21
1136.475347269574
 31
0.0
1001
ACME_LAYERS
1000
1
  0
LINE
  5
317D
330
1F
100
AcDbEntity
  8
P-0000
  6
Continuous
 62
     7
100
AcDbLine
 10
2671.265401390555
 20
1140.007851494066
 30
0.0
 11
2671.265401390555
 21
1136.475347269574
 31
0.0
1001
ACME_LAYERS
1000
1
  0
LINE
  5
317E
330
1F
100
AcDbEntity
  8
P-0000
  6
Continuous
 62
     7
100
AcDbLine
 10
2678.770954890019
 20
1138.995008027006
 30
0.0
 11
2678.770954890019
 21
1136.475347269574
 31
0.0
1001
ACME_LAYERS
1000
1
  0
LINE
  5
317F
330
1F
100
AcDbEntity
  8
P-0000
  6
Continuous
 62
     7
100
AcDbLine
 10
2682.523731639753
 20
1136.828341360339
 30
0.0
 11
2682.523731639753
 21
1136.475347269574
 31
0.0
1001
ACME_LAYERS
1000
1
  0
LINE
  5
3180
330
1F
100
AcDbEntity
  8
P-0000
  6
Continuous
 62
     7
100
AcDbLine
 10
2666.572480026867
 20
1132.988408077669
 30
0.0
 11
2671.018178140287
 21
1132.988408077669
 31
0.0
1001
ACME_LAYERS
1000
1
  0
LINE
  5
3181
330
1F
100
AcDbEntity
  8
P-0000
  6
Continuous
 62
     7
100
AcDbLine
 10
2683.572480026866
 20
1132.988408077669
 30
0.0
 11
2679.518178140289
 21
1132.988408077669
 31
0.0
1001
ACME_LAYERS
1000
1
  0
LINE
  5
3182
330
1F
100
AcDbEntity
  8
P-0000
  6
Continuous
 62
     7
100
AcDbLine
 10
2671.818178140288
 20
1132.988408077669
 30
0.0
 11
2679.518178140289
 21
1132.988408077669
 31
0.0
1001
ACME_LAYERS
1000
1
  0
LINE
  5
3183
330
1F
100
AcDbEntity
  8
P-0000
  6
Continuous
 62
     7
100
AcDbLine
 10
2671.018178140287
 20
1132.988408077669
 30
0.0
 11
2671.818178140288
 21
1132.988408077669
 31
0.0
1001
ACME_LAYERS
1000
1
  0
ARC
  5
3184
330
1F
100
AcDbEntity
  8
P-0000
  6
Continuous
 62
     7
100
AcDbCircle
 10
2675.018178140286
 20
1147.007851494066
 30
0.0
 40
12.41944341639904
100
AcDbArc
 50
252.4120462260095
 51
287.5879537739905
1001
ACME_LAYERS
1000
1
  0
ARC
  5
3185
330
1F
100
AcDbEntity
  8
P-0000
  6
Continuous
 62
     7
100
AcDbCircle
 10
2675.018178140286
 20
1128.168964661268
 30
0.0
 40
12.41944341639904
100
AcDbArc
 50
85.04168193073009
 51
107.5879537739904
1001
ACME_LAYERS
1000
1
  0
ARC
  5
3186
330
1F
100
AcDbEntity
  8
P-0000
  6
Continuous
 62
     7
100
AcDbCircle
 10
2680.647343264886
 20
1137.910977650617
 30
0.0
 40
3.322569572950221
100
AcDbArc
 50
235.6157525319468
 51
299.3733793948324
1001
ACME_LAYERS
1000
1
  0
ARC
  5
3187
330
1F
100
AcDbEntity
  8
P-0000
  6
Continuous
 62
     7
100
AcDbCircle
 10
2669.389013015689
 20
1137.910977650617
 30
0.0
 40
3.322569572950221
100
AcDbArc
 50
235.6157525319468
 51
240.6266206051676
1001
ACME_LAYERS
1000
1
  0
ARC
  5
3188
330
1F
100
AcDbEntity
  8
P-0000
  6
Continuous
 62
     7
100
AcDbCircle
 10
2669.389013015689
 20
1137.265838504717
 30
0.0
 40
3.322569572949122
100
AcDbArc
 50
55.61575253197573
 51
119.3733793948324
1001
ACME_LAYERS
1000
1
  0
ARC
  5
3189
330
1F
100
AcDbEntity
  8
P-0000
  6
Continuous
 62
     7
100
AcDbCircle
 10
2680.647343264886
 20
1137.910977650617
 30
0.0
 40
3.322569572949876
100
AcDbArc
 50
299.3733793948324
 51
304.3842474680531
1001
ACME_LAYERS
1000
1
  0
ARC
  5
318A
330
1F
100
AcDbEntity
  8
P-0000
  6
Continuous
 62
     7
100
AcDbCircle
 10
2669.389013015689
 20
1137.910977650617
 30
0.0
 40
3.322569572949872
100
AcDbArc
 50
240.6266206051676
 51
304.3842474680243
1001
ACME_LAYERS
1000
1
  0
ARC
  5
318B
330
1F
100
AcDbEntity
  8
P-0000
  6
Continuous
 62
     7
100
AcDbCircle
 10
2669.389013015689
 20
1137.265838504717
 30
0.0
 40
3.322569572949884
100
AcDbArc
 50
119.3733793948324
 51
124.3842474680531
1001
ACME_LAYERS
1000
1
  0
HATCH
  5
318C
330
1F
100
AcDbEntity
  8
P-0000
  6
Continuous
 62
     1
100
AcDbHatch
 10
0.0
 20
0.0
 30
0.0
210
0.0
220
0.0
230
1.0
  2
_U
 70
     0
 71
     0
 91
        1
 92
        1
 93
       16
 72
     1
 10
2677.319571380632
 20
1152.482756779241
 11
2677.319571380632
 21
1152.433585196259
 72
     1
 10
2677.319571380632
 20
1152.433585196259
 11
2677.819571380632
 21
1152.433585196259
 72
     1
 10
2677.819571380632
 20
1152.433585196259
 11
2677.819571380632
 21
1150.482756779241
 72
     1
 10
2677.819571380631
 20
1150.482756779241
 11
2684.880462548946
 21
1150.482756779241
 72
     2
 10
2684.880462548946
 20
1149.982756779241
 40
0.5
 50
270.0
 51
360.0
 73
     0
 72
     1
 10
2685.380462548947
 20
1149.982756779241
 11
2685.380462548947
 21
1137.488408077671
 72
     2
 10
2689.380462548947
 20
1137.488408077671
 40
4.000000000000068
 50
180.0
 51
270.0
 73
     1
 72
     1
 10
2689.380462548947
 20
1133.488408077671
 11
2704.069571380624
 21
1133.488408077671
 72
     1
 10
2704.069571380624
 20
1133.488408077671
 11
2704.069571380624
 21
1135.488408077671
 72
     1
 10
2704.069571380624
 20
1135.488408077671
 11
2689.319571380632
 21
1135.488408077671
 72
     2
 10
2689.319571380632
 20
1137.488408077671
 40
1.999999999999999
 50
90.0
 51
180.0
 73
     0
 72
     1
 10
2687.319571380632
 20
1137.488408077671
 11
2687.319571380632
 21
1154.98275677924
 72
     1
 10
2687.319571380632
 20
1154.982756779241
 11
2685.319571380632
 21
1154.982756779241
 72
     1
 10
2685.319571380632
 20
1154.982756779241
 11
2685.319571380632
 21
1152.982756779241
 72
     2
 10
2684.819571380633
 20
1152.982756779241
 40
0.5
 50
360.0
 51
450.0
 73
     0
 72
     1
 10
2684.819571380633
 20
1152.482756779241
 11
2677.319571380632
 21
1152.482756779241
 97
        0
 75
     0
 76
     0
 52
-45.0
 41
2.0
 77
     0
 78
     1
 53
315.0
 43
2718.258680212317
 44
644.0670884361431
 45
1.414213562373094
 46
1.414213562373094
 79
     0
 98
        1
 10
2718.258680212317
 20
644.0670884361431
1001
ACME_LAYERS
1000
1
  0
LINE
  5
318D
330
1F
100
AcDbEntity
  8
P-0000
  6
Continuous
 62
     7
100
AcDbLine
 10
2657.319571380624
 20
1154.982756779241
 30
0.0
 11
2660.095274395496
 21
1154.982756779241
 31
0.0
1001
ACME_LAYERS
1000
1
  0
LINE
  5
318E
330
1F
100
AcDbEntity
  8
P-0000
  6
Continuous
 62
     7
100
AcDbLine
 10
2676.781850923751
 20
1154.982756779241
 30
0.0
 11
2685.319571380632
 21
1154.982756779241
 31
0.0
1001
ACME_LAYERS
1000
1
  0
LINE
  5
318F
330
1F
100
AcDbEntity
  8
P-0000
  6
Continuous
 62
     7
100
AcDbLine
 10
2658.873590386562
 20
1150.482756779241
 30
0.0
 11
2687.380462548947
 21
1134.024306462534
 31
0.0
1001
ACME_LAYERS
1000
1
  0
LINE
  5
3190
330
1F
100
AcDbEntity
  8
P-0000
  6
Continuous
 62
     7
100
AcDbLine
 10
2684.880462548946
 20
1150.482756779241
 30
0.0
 11
2677.819571380631
 21
1150.482756779241
 31
0.0
1001
ACME_LAYERS
1000
1
  0
LINE
  5
3191
330
1F
100
AcDbEntity
  8
P-0000
  6
Continuous
 62
     7
100
AcDbLine
 10
2677.319571380632
 20
1152.482756779241
 30
0.0
 11
2684.819571380633
 21
1152.482756779241
 31
0.0
1001
ACME_LAYERS
1000
1
  0
LINE
  5
3192
330
1F
100
AcDbEntity
  8
P-0000
  6
Continuous
 62
     7
100
AcDbLine
 10
2597.319571380641
 20
1133.488408077671
 30
0.0
 11
2592.319571380631
 21
1133.488408077671
 31
0.0
1001
ACME_LAYERS
1000
1
  0
LINE
  5
3193
330
1F
100
AcDbEntity
  8
P-0000
  6
Continuous
 62
     7
100
AcDbLine
 10
2592.329331612353
 20
1154.982756779241
 30
0.0
 11
2657.319571380624
 21
1154.982756779241
 31
0.0
1001
ACME_LAYERS
1000
1
  0
LINE
  5
3194
330
1F
100
AcDbEntity
  8
P-0000
  6
Continuous
 62
     7
100
AcDbLine
 10
2592.329331612353
 20
1152.482756779241
 30
0.0
 11
2647.319571380633
 21
1152.482756779241
 31
0.0
1001
ACME_LAYERS
1000
1
  0
LINE
  5
3195
330
1F
100
AcDbEntity
  8
P-0000
  6
Continuous
 62
     7
100
AcDbLine
 10
2603.31957138064
 20
1150.482756779241
 30
0.0
 11
2653.319571380624
 21
1150.482756779241
 31
0.0
1001
ACME_LAYERS
1000
1
  0
LINE
  5
3196
330
1F
100
AcDbEntity
  8
P-0000
  6
Continuous
 62
     7
100
AcDbLine
 10
2603.31957138064
 20
1135.488408077671
 30
0.0
 11
2603.31957138064
 21
1150.482756779241
 31
0.0
1001
ACME_LAYERS
1000
1
  0
LINE
  5
3197
330
1F
100
AcDbEntity
  8
P-0000
  6
Continuous
 62
     7
100
AcDbLine
 10
2593.329331612369
 20
1152.482756779241
 30
0.0
 11
2602.311587188169
 21
1152.482756779241
 31
0.0
1001
ACME_LAYERS
1000
1
  0
LINE
  5
3198
330
1F
100
AcDbEntity
  8
P-0000
  6
Continuous
 62
     7
100
AcDbLine
 10
2592.329331612369
 20
1152.482756779241
 30
0.0
 11
2593.329331612369
 21
1152.482756779241
 31
0.0
1001
ACME_LAYERS
1000
1
  0
LINE
  5
3199
330
1F
100
AcDbEntity
  8
P-0000
  6
Continuous
 62
     7
100
AcDbLine
 10
2592.30981114891
 20
1147.482756779241
 30
0.0
 11
2592.309811148914
 21
1147.482756779241
 31
0.0
1001
ACME_LAYERS
1000
1
  0
LINE
  5
319A
330
1F
100
AcDbEntity
  8
P-0000
  6
Continuous
 62
     7
100
AcDbLine
 10
2592.329331612367
 20
1147.482756779241
 30
0.0
 11
2592.32933161237
 21
1147.482756779241
 31
0.0
1001
ACME_LAYERS
1000
1
  0
LINE
  5
319B
330
1F
100
AcDbEntity
  8
P-0000
  6
Continuous
 62
     7
100
AcDbLine
 10
2602.31957138064
 20
1133.488408077671
 30
0.0
 11
2597.319571380641
 21
1133.488408077671
 31
0.0
1001
ACME_LAYERS
1000
1
  0
HATCH
  5
319C
330
1F
100
AcDbEntity
  8
P-0000
  6
Continuous
 62
     1
100
AcDbHatch
 10
0.0
 20
0.0
 30
0.0
210
0.0
220
0.0
230
1.0
  2
_U
 70
     0
 71
     0
 91
        1
 92
        1
 93
       11
 72
     1
 10
2657.819571380624
 20
1152.482756779241
 11
2669.319571380632
 21
1152.482756779241
 72
     1
 10
2669.319571380632
 20
1152.482756779241
 11
2669.319571380632
 21
1150.482756779241
 72
     1
 10
2669.319571380632
 20
1150.482756779241
 11
2658.873590386562
 21
1150.482756779241
 72
     1
 10
2658.873590386562
 20
1150.482756779241
 11
2653.319571380624
 21
1150.482756779241
 72
     1
 10
2653.319571380624
 20
1150.482756779241
 11
2653.319571380624
 21
1152.482756779241
 72
     1
 10
2653.319571380624
 20
1152.482756779241
 11
2654.819571380624
 21
1152.482756779241
 72
     2
 10
2654.819571380624
 20
1152.982756779241
 40
0.5
 50
-90.00000000000001
 51
-0.0000000000000127
 73
     1
 72
     1
 10
2655.319571380624
 20
1152.982756779241
 11
2655.319571380624
 21
1154.982756779241
 72
     1
 10
2655.319571380624
 20
1154.982756779241
 11
2657.319571380624
 21
1154.982756779241
 72
     1
 10
2657.319571380624
 20
1154.982756779241
 11
2657.319571380624
 21
1152.982756779241
 72
     2
 10
2657.819571380624
 20
1152.982756779241
 40
0.5
 50
180.0
 51
270.0
 73
     1
 97
        0
 75
     0
 76
     0
 52
-45.0
 41
2.0
 77
     0
 78
     1
 53
315.0
 43
2363.639976095535
 44
1213.027147651819
 45
1.414213562373094
 46
1.414213562373094
 79
     0
 98
        1
 10
2718.258680212317
 20
644.0670884361431
1001
ACME_LAYERS
1000
1
  0
LINE
  5
319D
330
1F
100
AcDbEntity
  8
P-0000
  6
Continuous
 62
     7
100
AcDbLine
 10
2657.819571380624
 20
1152.482756779241
 30
0.0
 11
2669.319571380632
 21
1152.482756779241
 31
0.0
1001
ACME_LAYERS
1000
1
  0
LINE
  5
319E
330
1F
100
AcDbEntity
  8
P-0000
  6
Continuous
 62
     7
100
AcDbLine
 10
2653.319571380624
 20
1150.482756779241
 30
0.0
 11
2658.873590386562
 21
1150.482756779241
 31
0.0
1001
ACME_LAYERS
1000
1
  0
LINE
  5
319F
330
1F
100
AcDbEntity
  8
P-0000
  6
Continuous
 62
     7
100
AcDbLine
 10
2647.319571380633
 20
1152.482756779241
 30
0.0
 11
2653.319571380624
 21
1152.482756779241
 31
0.0
1001
ACME_LAYERS
1000
1
  0
LINE
  5
31A0
330
1F
100
AcDbEntity
  8
P-0000
  6
Continuous
 62
     7
100
AcDbLine
 10
2653.319571380624
 20
1150.482756779241
 30
0.0
 11
2653.319571380624
 21
1152.482756779241
 31
0.0
1001
ACME_LAYERS
1000
1
  0
LINE
  5
31A1
330
1F
100
AcDbEntity
  8
P-0000
  6
Continuous
 62
     7
100
AcDbLine
 10
2653.319571380624
 20
1152.482756779241
 30
0.0
 11
2654.819571380624
 21
1152.482756779241
 31
0.0
1001
ACME_LAYERS
1000
1
  0
LINE
  5
31A2
330
1F
100
AcDbEntity
  8
P-0000
  6
Continuous
 62
     7
100
AcDbLine
 10
2657.319571380624
 20
1152.982756779241
 30
0.0
 11
2657.319571380624
 21
1154.982756779241
 31
0.0
1001
ACME_LAYERS
1000
1
  0
LINE
  5
31A3
330
1F
100
AcDbEntity
  8
P-0000
  6
Continuous
 62
     7
100
AcDbLine
 10
2655.319571380624
 20
1152.982756779241
 30
0.0
 11
2655.319571380624
 21
1154.982756779241
 31
0.0
1001
ACME_LAYERS
1000
1
  0
LINE
  5
31A4
330
1F
100
AcDbEntity
  8
P-0000
  6
Continuous
 62
     7
100
AcDbLine
 10
2657.319571380624
 20
1154.982756779241
 30
0.0
 11
2655.319571380624
 21
1154.982756779241
 31
0.0
1001
ACME_LAYERS
1000
1
  0
ARC
  5
31A5
330
1F
100
AcDbEntity
  8
P-0000
  6
Continuous
 62
     7
100
AcDbCircle
 10
2657.819571380624
 20
1152.982756779241
 30
0.0
 40
0.5
100
AcDbArc
 50
180.0
 51
270.0
1001
ACME_LAYERS
1000
1
  0
ARC
  5
31A6
330
1F
100
AcDbEntity
  8
P-0000
  6
Continuous
 62
     7
100
AcDbCircle
 10
2654.819571380624
 20
1152.982756779241
 30
0.0
 40
0.5
100
AcDbArc
 50
270.0
 51
0.0
1001
ACME_LAYERS
1000
1
  0
LINE
  5
31A7
330
1F
100
AcDbEntity
  8
P-0000
  6
Continuous
 62
     7
100
AcDbLine
 10
2673.030401985693
 20
1150.482756779241
 30
0.0
 11
2669.319571380632
 21
1150.482756779241
 31
0.0
1001
ACME_LAYERS
1000
1
  0
LINE
  5
31A8
330
1F
100
AcDbEntity
  8
P-0000
  6
Continuous
 62
     7
100
AcDbLine
 10
2669.319571380632
 20
1152.482756779241
 30
0.0
 11
2677.319571380632
 21
1152.482756779241
 31
0.0
1001
ACME_LAYERS
1000
1
  0
LINE
  5
31A9
330
1F
100
AcDbEntity
  8
P-0000
  6
Continuous
 62
     7
100
AcDbLine
 10
2669.319571380632
 20
1150.482756779241
 30
0.0
 11
2658.873590386562
 21
1150.482756779241
 31
0.0
1001
ACME_LAYERS
1000
1
  0
LINE
  5
31AA
330
1F
100
AcDbEntity
  8
P-0000
  6
Continuous
 62
     7
100
AcDbLine
 10
2669.319571380632
 20
1152.482756779241
 30
0.0
 11
2669.319571380632
 21
1150.482756779241
 31
0.0
1001
ACME_LAYERS
1000
1
  0
LINE
  5
31AB
330
1F
100
AcDbEntity
  8
P-0000
  6
Continuous
 62
     7
100
AcDbLine
 10
2674.829331612354
 20
1152.482756779241
 30
0.0
 11
2675.829331612354
 21
1152.482756779241
 31
0.0
1001
ACME_LAYERS
1000
1
  0
LINE
  5
31AC
330
1F
100
AcDbEntity
  8
P-0000
  6
Continuous
 62
     7
100
AcDbLine
 10
2674.829331612354
 20
1152.482756779241
 30
0.0
 11
2675.829331612354
 21
1152.482756779241
 31
0.0
1001
ACME_LAYERS
1000
1
  0
LINE
  5
31AD
330
1F
100
AcDbEntity
  8
P-0000
  6
Continuous
 62
     7
100
AcDbLine
 10
2714.069571380623
 20
1135.488408077671
 30
0.0
 11
2704.069571380624
 21
1135.488408077671
 31
0.0
1001
ACME_LAYERS
1000
1
  0
LINE
  5
31AE
330
1F
100
AcDbEntity
  8
P-0000
  6
Continuous
 62
     7
100
AcDbLine
 10
2714.069571380623
 20
1133.488408077671
 30
0.0
 11
2704.069571380624
 21
1133.488408077671
 31
0.0
1001
ACME_LAYERS
1000
1
  0
LINE
  5
31AF
330
1F
100
AcDbEntity
  8
P-0000
  6
Continuous
 62
     7
100
AcDbLine
 10
2685.380462548947
 20
1137.488408077671
 30
0.0
 11
2685.380462548947
 21
1149.982756779241
 31
0.0
1001
ACME_LAYERS
1000
1
  0
LINE
  5
31B0
330
1F
100
AcDbEntity
  8
P-0000
  6
Continuous
 62
     7
100
AcDbLine
 10
2687.319571380632
 20
1137.488408077671
 30
0.0
 11
2687.319571380632
 21
1152.482756779241
 31
0.0
1001
ACME_LAYERS
1000
1
  0
LINE
  5
31B1
330
1F
100
AcDbEntity
  8
P-0000
  6
Continuous
 62
     7
100
AcDbLine
 10
2697.131263178186
 20
1135.488408077671
 30
0.0
 11
2687.319571380632
 21
1152.482756779241
 31
0.0
1001
ACME_LAYERS
1000
1
  0
LINE
  5
31B2
330
1F
100
AcDbEntity
  8
P-0000
  6
Continuous
 62
     7
100
AcDbLine
 10
2687.319571380632
 20
1154.982756779241
 30
0.0
 11
2685.319571380632
 21
1154.982756779241
 31
0.0
1001
ACME_LAYERS
1000
1
  0
LINE
  5
31B3
330
1F
100
AcDbEntity
  8
P-0000
  6
Continuous
 62
     7
100
AcDbLine
 10
2685.319571380632
 20
1154.982756779241
 30
0.0
 11
2685.319571380632
 21
1152.982756779241
 31
0.0
1001
ACME_LAYERS
1000
1
  0
ARC
  5
31B4
330
1F
100
AcDbEntity
  8
P-0000
  6
Continuous
 62
     7
100
AcDbCircle
 10
2684.819571380633
 20
1152.982756779241
 30
0.0
 40
0.5
100
AcDbArc
 50
270.0
 51
0.0
1001
ACME_LAYERS
1000
1
  0
ARC
  5
31B5
330
1F
100
AcDbEntity
  8
P-0000
  6
Continuous
 62
     7
100
AcDbCircle
 10
2684.880462548946
 20
1149.982756779241
 30
0.0
 40
0.5
100
AcDbArc
 50
0.0
 51
90.0
1001
ACME_LAYERS
1000
1
  0
LINE
  5
31B6
330
1F
100
AcDbEntity
  8
P-0000
  6
Continuous
 62
     7
100
AcDbLine
 10
2687.319571380632
 20
1154.982756779241
 30
0.0
 11
2687.319571380632
 21
1152.482756779241
 31
0.0
1001
ACME_LAYERS
1000
1
  0
LINE
  5
31B7
330
1F
100
AcDbEntity
  8
P-0000
  6
Continuous
 62
     7
100
AcDbLine
 10
2697.131263178186
 20
1135.488408077671
 30
0.0
 11
2689.319571380632
 21
1135.488408077671
 31
0.0
1001
ACME_LAYERS
1000
1
  0
LINE
  5
31B8
330
1F
100
AcDbEntity
  8
P-0000
  6
Continuous
 62
     7
100
AcDbLine
 10
2704.069571380624
 20
1133.488408077671
 30
0.0
 11
2689.380462548947
 21
1133.488408077671
 31
0.0
1001
ACME_LAYERS
1000
1
  0
ARC
  5
31B9
330
1F
100
AcDbEntity
  8
P-0000
  6
Continuous
 62
     7
100
AcDbCircle
 10
2689.319571380632
 20
1137.488408077671
 30
0.0
 40
2.0
100
AcDbArc
 50
180.0
 51
270.0
1001
ACME_LAYERS
1000
1
  0
ARC
  5
31BA
330
1F
100
AcDbEntity
  8
P-0000
  6
Continuous
 62
     7
100
AcDbCircle
 10
2689.380462548947
 20
1137.488408077671
 30
0.0
 40
4.0
100
AcDbArc
 50
180.0
 51
239.9999999999995
1001
ACME_LAYERS
1000
1
  0
ARC
  5
31BB
330
1F
100
AcDbEntity
  8
P-0000
  6
Continuous
 62
     7
100
AcDbCircle
 10
2689.380462548947
 20
1137.488408077671
 30
0.0
 40
4.000000000000031
100
AcDbArc
 50
239.9999999999995
 51
270.0
1001
ACME_LAYERS
1000
1
  0
LINE
  5
31BC
330
1F
100
AcDbEntity
  8
P-0000
  6
Continuous
 62
     7
100
AcDbLine
 10
2704.069571380624
 20
1135.488408077671
 30
0.0
 11
2697.131263178186
 21
1135.488408077671
 31
0.0
1001
ACME_LAYERS
1000
1
  0
LINE
  5
31BD
330
1F
100
AcDbEntity
  8
P-0000
  6
Continuous
 62
     7
100
AcDbLine
 10
2704.069571380624
 20
1133.488408077671
 30
0.0
 11
2704.069571380624
 21
1135.488408077671
 31
0.0
1001
ACME_LAYERS
1000
1
  0
LINE
  5
31BE
330
1F
100
AcDbEntity
  8
AM_7
  6
AM_DIN_G_W050x2
100
AcDbLine
 10
2709.069571380624
 20
1127.488408077671
 30
0.0
 11
2709.069571380624
 21
1141.488408077671
 31
0.0
1001
ACME_LAYERS
1000
1
  0
HATCH
  5
31BF
330
1F
100
AcDbEntity
  8
P-0000
  6
Continuous
 62
     1
100
AcDbHatch
 10
0.0
 20
0.0
 30
0.0
210
0.0
220
0.0
230
1.0
  2
_U
 70
     0
 71
     0
 91
        1
 92
        1
 93
        4
 72
     1
 10
2719.069571380624
 20
1133.488408077671
 11
2714.069571380623
 21
1133.488408077671
 72
     1
 10
2714.069571380623
 20
1133.488408077671
 11
2714.069571380623
 21
1135.488408077671
 72
     1
 10
2714.069571380623
 20
1135.488408077671
 11
2719.069571380624
 21
1135.488408077671
 72
     1
 10
2719.069571380624
 20
1135.488408077671
 11
2719.069571380624
 21
1133.488408077671
 97
        0
 75
     0
 76
     0
 52
-45.0
 41
2.0
 77
     0
 78
     1
 53
315.0
 43
2718.258680212317
 44
644.0670884361431
 45
1.414213562373094
 46
1.414213562373094
 79
     0
 98
        1
 10
2718.258680212317
 20
644.0670884361431
1001
ACME_LAYERS
1000
1
  0
LINE
  5
31C0
330
1F
100
AcDbEntity
  8
P-0000
  6
Continuous
 62
     7
100
AcDbLine
 10
2719.069571380624
 20
1135.488408077671
 30
0.0
 11
2714.069571380623
 21
1135.488408077671
 31
0.0
1001
ACME_LAYERS
1000
1
  0
LINE
  5
31C1
330
1F
100
AcDbEntity
  8
P-0000
  6
Continuous
 62
     7
100
AcDbLine
 10
2719.069571380624
 20
1133.488408077671
 30
0.0
 11
2714.069571380623
 21
1133.488408077671
 31
0.0
1001
ACME_LAYERS
1000
1
  0
LINE
  5
31C2
330
1F
100
AcDbEntity
  8
P-0000
  6
Continuous
 62
     7
100
AcDbLine
 10
2714.069571380623
 20
1133.488408077671
 30
0.0
 11
2714.069571380623
 21
1135.488408077671
 31
0.0
1001
ACME_LAYERS
1000
1
  0
LINE
  5
31C3
330
1F
100
AcDbEntity
  8
P-0000
  6
Continuous
 62
     7
100
AcDbLine
 10
2719.069571380624
 20
1133.488408077671
 30
0.0
 11
2719.069571380624
 21
1135.488408077671
 31
0.0
1001
ACME_LAYERS
1000
1
  0
LINE
  5
31C4
330
1F
100
AcDbEntity
  8
P-0000
  6
Continuous
 62
     7
100
AcDbLine
 10
2593.819571380632
 20
1194.433585196259
 30
0.0
 11
2593.819571380632
 21
1158.433585196259
 31
0.0
1001
ACME_LAYERS
1000
1
  0
LINE
  5
31C5
330
1F
100
AcDbEntity
  8
P-0000
  6
Continuous
 62
     7
100
AcDbLine
 10
2668.767241791612
 20
1177.002714395547
 30
0.0
 11
2669.746031007897
 21
1174.3135131254
 31
0.0
1001
ACME_LAYERS
1000
1
  0
LINE
  5
31C6
330
1F
100
AcDbEntity
  8
P-0000
  6
Continuous
 62
     7
100
AcDbLine
 10
2660.095274395497
 20
1158.433585196259
 30
0.0
 11
2646.992345961912
 21
1194.433585196259
 31
0.0
1001
ACME_LAYERS
1000
1
  0
LINE
  5
31C7
330
1F
100
AcDbEntity
  8
P-0000
  6
Continuous
 62
     7
100
AcDbLine
 10
2593.819571380632
 20
1200.403234295891
 30
0.0
 11
2644.819571380632
 21
1200.403234295891
 31
0.0
1001
ACME_LAYERS
1000
1
  0
LINE
  5
31C8
330
1F
100
AcDbEntity
  8
P-0000
  6
Continuous
 62
     7
100
AcDbLine
 10
2593.819571380632
 20
1200.403234295891
 30
0.0
 11
2644.819571380632
 21
1200.403234295891
 31
0.0
1001
ACME_LAYERS
1000
1
  0
LINE
  5
31C9
330
1F
100
AcDbEntity
  8
P-0000
  6
Continuous
 62
     7
100
AcDbLine
 10
2640.189564302181
 20
1232.433585196259
 30
0.0
 11
2633.161477059795
 21
1232.433585196259
 31
0.0
1001
ACME_LAYERS
1000
1
  0
LINE
  5
31CA
330
1F
100
AcDbEntity
  8
P-0000
  6
Continuous
 62
     7
100
AcDbLine
 10
2645.819571380632
 20
1194.433585196259
 30
0.0
 11
2593.819571380632
 21
1194.433585196259
 31
0.0
1001
ACME_LAYERS
1000
1
  0
LINE
  5
31CB
330
1F
100
AcDbEntity
  8
P-0000
  6
Continuous
 62
     7
100
AcDbLine
 10
2638.621030573789
 20
1217.433585196258
 30
0.0
 11
2596.423734436666
 21
1217.433585196258
 31
0.0
1001
ACME_LAYERS
1000
1
  0
LINE
  5
31CC
330
1F
100
AcDbEntity
  8
P-0000
  6
Continuous
 62
     7
100
AcDbLine
 10
2593.819571380632
 20
1217.433585196258
 30
0.0
 11
2593.819571380632
 21
1200.403234295891
 31
0.0
1001
ACME_LAYERS
1000
1
  0
LINE
  5
31CD
330
1F
100
AcDbEntity
  8
P-0000
  6
Continuous
 62
     7
100
AcDbLine
 10
2631.033121514844
 20
1232.433585196259
 30
0.0
 11
2596.423734436666
 21
1232.433585196259
 31
0.0
1001
ACME_LAYERS
1000
1
  0
LINE
  5
31CE
330
1F
100
AcDbEntity
  8
P-0000
  6
Continuous
 62
     7
100
AcDbLine
 10
2596.423734436666
 20
1232.433585196259
 30
0.0
 11
2596.423734436666
 21
1217.433585196258
 31
0.0
1001
ACME_LAYERS
1000
1
  0
LINE
  5
31CF
330
1F
100
AcDbEntity
  8
P-0000
  6
Continuous
 62
     7
100
AcDbLine
 10
2596.423734436666
 20
1232.433585196259
 30
0.0
 11
2592.319571380632
 21
1232.433585196259
 31
0.0
1001
ACME_LAYERS
1000
1
  0
LINE
  5
31D0
330
1F
100
AcDbEntity
  8
P-0000
  6
Continuous
 62
     7
100
AcDbLine
 10
2596.423734436666
 20
1217.433585196258
 30
0.0
 11
2593.819571380632
 21
1217.433585196258
 31
0.0
1001
ACME_LAYERS
1000
1
  0
LINE
  5
31D1
330
1F
100
AcDbEntity
  8
P-0000
  6
Continuous
 62
     7
100
AcDbLine
 10
2593.819571380632
 20
1217.433585196258
 30
0.0
 11
2592.319571380632
 21
1217.433585196258
 31
0.0
1001
ACME_LAYERS
1000
1
  0
HATCH
  5
31D2
330
1F
100
AcDbEntity
  8
P-0000
  6
Continuous
 62
     1
100
AcDbHatch
 10
0.0
 20
0.0
 30
0.0
210
0.0
220
0.0
230
1.0
  2
_U
 70
     0
 71
     0
 91
        1
 92
        1
 93
        5
 72
     1
 10
2634.617357996861
 20
1228.433585196259
 11
2633.161477059795
 21
1232.433585196259
 72
     1
 10
2633.161477059795
 20
1232.433585196259
 11
2631.033121514844
 21
1232.433585196259
 72
     1
 10
2631.033121514844
 20
1232.433585196259
 11
2632.249517369332
 21
1229.091565052933
 72
     2
 10
2633.189209990118
 20
1229.433585196259
 40
1.000000000000015
 50
200.0000000000031
 51
270.0
 73
     1
 72
     1
 10
2633.189209990118
 20
1228.433585196259
 11
2634.617357996861
 21
1228.433585196259
 97
        0
 75
     0
 76
     0
 52
44.99999999999999
 41
1.0
 77
     0
 78
     1
 53
45.0
 43
2419.728544144572
 44
1270.931668228238
 45
-0.7071067811865474
 46
0.7071067811865479
 79
     0
 98
        1
 10
2718.268440444038
 20
663.9547295279045
1001
ACME_LAYERS
1000
1
  0
LINE
  5
31D3
330
1F
100
AcDbEntity
  8
P-0000
  6
Continuous
 62
     7
100
AcDbLine
 10
2632.249517369332
 20
1229.091565052933
 30
0.0
 11
2631.033121514844
 21
1232.433585196259
 31
0.0
1001
ACME_LAYERS
1000
1
  0
LINE
  5
31D4
330
1F
100
AcDbEntity
  8
P-0000
  6
Continuous
 62
     7
100
AcDbLine
 10
2634.617357996861
 20
1228.433585196259
 30
0.0
 11
2633.161477059795
 21
1232.433585196259
 31
0.0
1001
ACME_LAYERS
1000
1
  0
LINE
  5
31D5
330
1F
100
AcDbEntity
  8
P-0000
  6
Continuous
 62
     7
100
AcDbLine
 10
2633.161477059795
 20
1232.433585196259
 30
0.0
 11
2631.033121514844
 21
1232.433585196259
 31
0.0
1001
ACME_LAYERS
1000
1
  0
ARC
  5
31D6
330
1F
100
AcDbEntity
  8
P-0000
  6
Continuous
 62
     7
100
AcDbCircle
 10
2633.189209990118
 20
1229.433585196259
 30
0.0
 40
1.000000000000015
100
AcDbArc
 50
200.0000000000015
 51
270.0
1001
ACME_LAYERS
1000
1
  0
ARC
  5
31D7
330
1F
100
AcDbEntity
  8
P-0000
  6
Continuous
 62
     7
100
AcDbCircle
 10
2633.189209990118
 20
1229.433585196259
 30
0.0
 40
1.000000000000015
100
AcDbArc
 50
200.0000000000015
 51
270.0
1001
ACME_LAYERS
1000
1
  0
LINE
  5
31D8
330
1F
100
AcDbEntity
  8
P-0000
  6
Continuous
 62
     7
100
AcDbLine
 10
2634.617357996861
 20
1228.433585196259
 30
0.0
 11
2633.189209990118
 21
1228.433585196259
 31
0.0
1001
ACME_LAYERS
1000
1
  0
LINE
  5
31D9
330
1F
100
AcDbEntity
  8
P-0000
  6
Continuous
 62
     7
100
AcDbLine
 10
2592.319571380632
 20
1200.403234295891
 30
0.0
 11
2593.819571380632
 21
1200.403234295891
 31
0.0
1001
ACME_LAYERS
1000
1
  0
LINE
  5
31DA
330
1F
100
AcDbEntity
  8
P-0000
  6
Continuous
 62
     7
100
AcDbLine
 10
2592.319571380632
 20
1200.403234295891
 30
0.0
 11
2593.819571380632
 21
1200.403234295891
 31
0.0
1001
ACME_LAYERS
1000
1
  0
LINE
  5
31DB
330
1F
100
AcDbEntity
  8
P-0000
  6
Continuous
 62
     7
100
AcDbLine
 10
2593.819571380632
 20
1194.433585196259
 30
0.0
 11
2592.319571380632
 21
1194.433585196259
 31
0.0
1001
ACME_LAYERS
1000
1
  0
LINE
  5
31DC
330
1F
100
AcDbEntity
  8
P-0000
  6
Continuous
 62
     7
100
AcDbLine
 10
2651.465875751612
 20
1224.537826916167
 30
0.0
 11
2668.767241791612
 21
1177.002714395547
 31
0.0
1001
ACME_LAYERS
1000
1
  0
LINE
  5
31DD
330
1F
100
AcDbEntity
  8
P-0000
  6
Continuous
 62
     7
100
AcDbLine
 10
2644.819571380632
 20
1200.403234295891
 30
0.0
 11
2638.621030573789
 21
1217.433585196258
 31
0.0
1001
ACME_LAYERS
1000
1
  0
ARC
  5
31DE
330
1F
100
AcDbEntity
  8
P-0000
  6
Continuous
 62
     7
100
AcDbCircle
 10
2640.189564302181
 20
1220.433585196259
 30
0.0
 40
11.99999999999995
100
AcDbArc
 50
19.99999999998924
 51
90.0
1001
ACME_LAYERS
1000
1
  0
HATCH
  5
31DF
330
1F
100
AcDbEntity
  8
P-0000
  6
Continuous
 62
     3
100
AcDbHatch
 10
0.0
 20
0.0
 30
0.0
210
0.0
220
0.0
230
1.0
  2
_U
 70
     0
 71
     0
 91
        1
 92
        1
 93
        4
 72
     1
 10
2646.992345961912
 20
1194.433585196259
 11
2644.819571380632
 21
1200.403234295891
 72
     1
 10
2644.819571380632
 20
1200.403234295891
 11
2644.819571380632
 21
1195.433585196258
 72
     2
 10
2645.819571380632
 20
1195.433585196258
 40
1.0
 50
180.0
 51
270.0
 73
     1
 72
     1
 10
2645.819571380632
 20
1194.433585196259
 11
2646.992345961912
 21
1194.433585196259
 97
        0
 75
     0
 76
     0
 52
44.99999999999999
 41
1.0
 77
     0
 78
     1
 53
45.0
 43
2718.268440444038
 44
663.9547295279045
 45
-0.7071067811865474
 46
0.7071067811865479
 79
     0
 98
        1
 10
2718.268440444038
 20
663.9547295279045
1001
ACME_LAYERS
1000
1
  0
LINE
  5
31E0
330
1F
100
AcDbEntity
  8
P-0000
  6
Continuous
 62
     7
100
AcDbLine
 10
2646.992345961912
 20
1194.433585196259
 30
0.0
 11
2645.819571380632
 21
1194.433585196259
 31
0.0
1001
ACME_LAYERS
1000
1
  0
LINE
  5
31E1
330
1F
100
AcDbEntity
  8
P-0000
  6
Continuous
 62
     7
100
AcDbLine
 10
2646.992345961912
 20
1194.433585196259
 30
0.0
 11
2644.819571380632
 21
1200.403234295891
 31
0.0
1001
ACME_LAYERS
1000
1
  0
LINE
  5
31E2
330
1F
100
AcDbEntity
  8
P-0000
  6
Continuous
 62
     7
100
AcDbLine
 10
2644.819571380632
 20
1195.433585196258
 30
0.0
 11
2644.819571380632
 21
1200.403234295891
 31
0.0
1001
ACME_LAYERS
1000
1
  0
LINE
  5
31E3
330
1F
100
AcDbEntity
  8
P-0000
  6
Continuous
 62
     7
100
AcDbLine
 10
2644.819571380632
 20
1195.433585196258
 30
0.0
 11
2644.819571380632
 21
1200.403234295891
 31
0.0
1001
ACME_LAYERS
1000
1
  0
ARC
  5
31E4
330
1F
100
AcDbEntity
  8
P-0000
  6
Continuous
 62
     7
100
AcDbCircle
 10
2645.819571380632
 20
1195.433585196258
 30
0.0
 40
1.0
100
AcDbArc
 50
180.0
 51
270.0
1001
ACME_LAYERS
1000
1
  0
ARC
  5
31E5
330
1F
100
AcDbEntity
  8
P-0000
  6
Continuous
 62
     7
100
AcDbCircle
 10
2645.819571380632
 20
1195.433585196258
 30
0.0
 40
1.0
100
AcDbArc
 50
180.0
 51
270.0
1001
ACME_LAYERS
1000
1
  0
LINE
  5
31E6
330
1F
100
AcDbEntity
  8
P-0000
  6
Continuous
 62
     7
100
AcDbLine
 10
2593.819571380632
 20
1158.433585196259
 30
0.0
 11
2660.095274395497
 21
1158.433585196259
 31
0.0
1001
ACME_LAYERS
1000
1
  0
LINE
  5
31E7
330
1F
100
AcDbEntity
  8
P-0000
  6
Continuous
 62
     7
100
AcDbLine
 10
2593.819571380632
 20
1158.433585196259
 30
0.0
 11
2660.095274395497
 21
1158.433585196259
 31
0.0
1001
ACME_LAYERS
1000
1
  0
LINE
  5
31E8
330
1F
100
AcDbEntity
  8
P-0000
  6
Continuous
 62
     7
100
AcDbLine
 10
2593.819571380632
 20
1158.433585196259
 30
0.0
 11
2660.095274395497
 21
1158.433585196259
 31
0.0
1001
ACME_LAYERS
1000
1
  0
LINE
  5
31E9
330
1F
100
AcDbEntity
  8
P-0000
  6
Continuous
 62
     7
100
AcDbLine
 10
2660.095274395497
 20
1152.433585196259
 30
0.0
 11
2593.819571380632
 21
1152.433585196259
 31
0.0
1001
ACME_LAYERS
1000
1
  0
LINE
  5
31EA
330
1F
100
AcDbEntity
  8
P-0000
  6
Continuous
 62
     7
100
AcDbLine
 10
2592.319571380632
 20
1158.433585196259
 30
0.0
 11
2593.819571380632
 21
1158.433585196259
 31
0.0
1001
ACME_LAYERS
1000
1
  0
LINE
  5
31EB
330
1F
100
AcDbEntity
  8
P-0000
  6
Continuous
 62
     7
100
AcDbLine
 10
2592.319571380632
 20
1158.433585196259
 30
0.0
 11
2593.819571380632
 21
1158.433585196259
 31
0.0
1001
ACME_LAYERS
1000
1
  0
LINE
  5
31EC
330
1F
100
AcDbEntity
  8
P-0000
  6
Continuous
 62
     7
100
AcDbLine
 10
2592.319571380632
 20
1158.433585196259
 30
0.0
 11
2593.819571380632
 21
1158.433585196259
 31
0.0
1001
ACME_LAYERS
1000
1
  0
LINE
  5
31ED
330
1F
100
AcDbEntity
  8
P-0000
  6
Continuous
 62
     7
100
AcDbLine
 10
2593.819571380632
 20
1152.433585196259
 30
0.0
 11
2592.319571380632
 21
1152.433585196259
 31
0.0
1001
ACME_LAYERS
1000
1
  0
LINE
  5
31EE
330
1F
100
AcDbEntity
  8
P-0000
  6
Continuous
 62
     7
100
AcDbLine
 10
2669.746031007897
 20
1174.3135131254
 30
0.0
 11
2677.319571380632
 21
1153.505381965983
 31
0.0
1001
ACME_LAYERS
1000
1
  0
LINE
  5
31EF
330
1F
100
AcDbEntity
  8
P-0000
  6
Continuous
 62
     7
100
AcDbLine
 10
2671.319571380632
 20
1152.433585196259
 30
0.0
 11
2663.095274395497
 21
1152.433585196259
 31
0.0
1001
ACME_LAYERS
1000
1
  0
LINE
  5
31F0
330
1F
100
AcDbEntity
  8
P-0000
  6
Continuous
 62
     7
100
AcDbLine
 10
2663.095274395497
 20
1152.433585196259
 30
0.0
 11
2663.095274395497
 21
1158.433585196259
 31
0.0
1001
ACME_LAYERS
1000
1
  0
LINE
  5
31F1
330
1F
100
AcDbEntity
  8
P-0000
  6
Continuous
 62
     7
100
AcDbLine
 10
2660.095274395497
 20
1152.433585196259
 30
0.0
 11
2660.095274395497
 21
1158.433585196259
 31
0.0
1001
ACME_LAYERS
1000
1
  0
LINE
  5
31F2
330
1F
100
AcDbEntity
  8
P-0000
  6
Continuous
 62
     7
100
AcDbLine
 10
2660.095274395497
 20
1158.433585196259
 30
0.0
 11
2663.095274395497
 21
1158.433585196259
 31
0.0
1001
ACME_LAYERS
1000
1
  0
LINE
  5
31F3
330
1F
100
AcDbEntity
  8
P-0000
  6
Continuous
 62
     7
100
AcDbLine
 10
2660.095274395497
 20
1158.433585196259
 30
0.0
 11
2663.095274395497
 21
1158.433585196259
 31
0.0
1001
ACME_LAYERS
1000
1
  0
LINE
  5
31F4
330
1F
100
AcDbEntity
  8
P-0000
  6
Continuous
 62
     7
100
AcDbLine
 10
2663.095274395497
 20
1152.433585196259
 30
0.0
 11
2660.095274395497
 21
1152.433585196259
 31
0.0
1001
ACME_LAYERS
1000
1
  0
LINE
  5
31F5
102
{ACAD_REACTORS
330
318C
102
}
330
1F
100
AcDbEntity
  8
P-0000
  6
Continuous
 62
     7
100
AcDbLine
 10
2677.819571380632
 20
1150.233585196258
 30
0.0
 11
2677.819571380632
 21
1152.433585196259
 31
0.0
1001
ACME_LAYERS
1000
1
  0
LINE
  5
31F6
330
1F
100
AcDbEntity
  8
P-0000
  6
Continuous
 62
     7
100
AcDbLine
 10
2676.543341114083
 20
1146.477017427466
 30
0.0
 11
2671.319571380632
 21
1152.433585196259
 31
0.0
1001
ACME_LAYERS
1000
1
  0
LINE
  5
31F7
330
1F
100
AcDbEntity
  8
P-0000
  6
Continuous
 62
     7
100
AcDbLine
 10
2677.319571380632
 20
1152.433585196259
 30
0.0
 11
2677.319571380632
 21
1153.505381965983
 31
0.0
1001
ACME_LAYERS
1000
1
  0
LINE
  5
31F8
102
{ACAD_REACTORS
330
318C
102
}
330
1F
100
AcDbEntity
  8
P-0000
  6
Continuous
 62
     7
100
AcDbLine
 10
2677.819571380632
 20
1152.433585196259
 30
0.0
 11
2677.319571380632
 21
1152.433585196259
 31
0.0
1001
ACME_LAYERS
1000
1
  0
LINE
  5
31F9
102
{ACAD_REACTORS
330
318C
102
}
330
1F
100
AcDbEntity
  8
P-0000
  6
Continuous
 62
     7
100
AcDbLine
 10
2677.319571380632
 20
1152.433585196259
 30
0.0
 11
2677.319571380632
 21
1153.505381965983
 31
0.0
1001
ACME_LAYERS
1000
1
  0
LINE
  5
31FA
330
1F
100
AcDbEntity
  8
P-0000
  6
Continuous
 62
     7
100
AcDbLine
 10
2679.019571380632
 20
1148.733585196258
 30
0.0
 11
2677.460744188562
 21
1146.536043425059
 31
0.0
1001
ACME_LAYERS
1000
1
  0
LINE
  5
31FB
330
1F
100
AcDbEntity
  8
P-0000
  6
Continuous
 62
     7
100
AcDbLine
 10
2677.819571380632
 20
1150.233585196258
 30
0.0
 11
2679.019571380632
 21
1150.233585196258
 31
0.0
1001
ACME_LAYERS
1000
1
  0
LINE
  5
31FC
330
1F
100
AcDbEntity
  8
P-0000
  6
Continuous
 62
     7
100
AcDbLine
 10
2679.019571380632
 20
1150.233585196258
 30
0.0
 11
2679.019571380632
 21
1148.733585196258
 31
0.0
1001
ACME_LAYERS
1000
1
  0
ARC
  5
31FD
330
1F
100
AcDbEntity
  8
P-0000
  6
Continuous
 62
     7
100
AcDbCircle
 10
2676.971364386477
 20
1146.883185196259
 30
0.0
 40
0.6000000000000229
100
AcDbArc
 50
270.0
 51
324.6500000000025
1001
ACME_LAYERS
1000
1
  0
ARC
  5
31FE
330
1F
100
AcDbEntity
  8
P-0000
  6
Continuous
 62
     7
100
AcDbCircle
 10
2676.971137964539
 20
1146.852185196258
 30
0.0
 40
0.5689999999999894
100
AcDbArc
 50
221.2500000000013
 51
270.0
1001
ACME_LAYERS
1000
1
  0
LINE
  5
31FF
330
1F
100
AcDbEntity
  8
P-0000
  6
Continuous
 62
     7
100
AcDbLine
 10
2676.971364386477
 20
1146.283185196258
 30
0.0
 11
2676.971137964539
 21
1146.283185196258
 31
0.0
1001
ACME_LAYERS
1000
1
  0
HATCH
  5
3200
330
1F
100
AcDbEntity
  8
AM_8
100
AcDbHatch
 10
0.0
 20
0.0
 30
0.0
210
0.0
220
0.0
230
1.0
  2
_U
 70
     0
 71
     0
 91
        1
 92
        1
 93
        4
 72
     1
 10
2663.095274395497
 20
1158.433585196259
 11
2660.095274395497
 21
1158.433585196259
 72
     1
 10
2660.095274395497
 20
1158.433585196259
 11
2660.095274395497
 21
1152.433585196259
 72
     1
 10
2660.095274395497
 20
1152.433585196259
 11
2663.095274395497
 21
1152.433585196259
 72
     1
 10
2663.095274395497
 20
1152.433585196259
 11
2663.095274395497
 21
1158.433585196259
 97
        0
 75
     0
 76
     0
 52
44.99999999999999
 41
1.0
 77
     0
 78
     1
 53
45.0
 43
2419.728544144572
 44
1270.931668228238
 45
-0.7071067811865474
 46
0.7071067811865479
 79
     0
 98
        1
 10
2419.728544144572
 20
1270.931668228238
1001
GENIUS_GENODEF_13
1002
{
1000
HIER
1070
     0
1002
}
1002
{
1000
MANEDIT
1070
     0
1002
}
1002
{
1000
NOSEL
1070
     0
1002
}
1002
{
1000
BEHIND
1070
     0
1002
}
1002
{
1000
OTHER
1070
     0
1002
}
1002
{
1000
REACTOR
1002
}
1001
GENIUS_GENOBJ-N-HTC_13
1002
{
1000
OWNER
1000
GEN
1002
}
1001
GENIUS_GENHATCH_13
1002
{
1000
DATA
1040
135.0
1042
1.0
1000
_U
1070
     0
1011
2660.864251210944
1021
1152.892172242776
1031
0.0
1002
}
1002
{
1000
UCS
1010
0.0
1020
0.0
1030
0.0
1010
1.0
1020
0.0
1030
0.0
1010
0.0
1020
1.0
1030
0.0
1002
}
  0
LINE
  5
3201
330
1F
100
AcDbEntity
  8
P-0000
  6
Continuous
 62
     7
100
AcDbLine
 10
2514.603507383248
 20
1143.471075770432
 30
0.0
 11
2514.603507383248
 21
1140.588408077669
 31
0.0
1001
ACME_LAYERS
1000
1
  0
LINE
  5
3202
330
1F
100
AcDbEntity
  8
P-0000
  6
Continuous
 62
     3
100
AcDbLine
 10
2513.803507383248
 20
1143.00919555508
 30
0.0
 11
2513.803507383248
 21
1140.588408077669
 31
0.0
1001
ACME_LAYERS
1000
1
  0
LINE
  5
3203
330
1F
100
AcDbEntity
  8
P-0000
  6
Continuous
 62
     7
100
AcDbLine
 10
2509.610580478045
 20
1140.588408077669
 30
0.0
 11
2513.803507383246
 21
1140.588408077669
 31
0.0
1001
ACME_LAYERS
1000
1
  0
LINE
  5
3204
330
1F
100
AcDbEntity
  8
P-0000
  6
Continuous
 62
     7
100
AcDbLine
 10
2513.803507383246
 20
1140.588408077669
 30
0.0
 11
2514.603507383248
 21
1140.588408077669
 31
0.0
1001
ACME_LAYERS
1000
1
  0
LINE
  5
3205
330
1F
100
AcDbEntity
  8
P-0000
  6
Continuous
 62
     7
100
AcDbLine
 10
2519.049205496668
 20
1134.488408077668
 30
0.0
 11
2519.049205496668
 21
1132.98840807767
 31
0.0
1001
ACME_LAYERS
1000
1
  0
LINE
  5
3206
330
1F
100
AcDbEntity
  8
P-0000
  6
Continuous
 62
     7
100
AcDbLine
 10
2502.049205496668
 20
1132.98840807767
 30
0.0
 11
2502.049205496668
 21
1134.488408077669
 31
0.0
1001
ACME_LAYERS
1000
1
  0
LINE
  5
3207
330
1F
100
AcDbEntity
  8
P-0000
  6
Continuous
 62
     7
100
AcDbLine
 10
2519.049205496668
 20
1134.588408077669
 30
0.0
 11
2519.049205496668
 21
1134.488408077668
 31
0.0
1001
ACME_LAYERS
1000
1
  0
LINE
  5
3208
330
1F
100
AcDbEntity
  8
P-0000
  6
Continuous
 62
     7
100
AcDbLine
 10
2502.049205496668
 20
1134.58840807767
 30
0.0
 11
2519.049205496668
 21
1134.588408077669
 31
0.0
1001
ACME_LAYERS
1000
1
  0
LINE
  5
3209
330
1F
100
AcDbEntity
  8
P-0000
  6
Continuous
 62
     7
100
AcDbLine
 10
2502.049205496668
 20
1134.488408077669
 30
0.0
 11
2502.049205496668
 21
1134.58840807767
 31
0.0
1001
ACME_LAYERS
1000
1
  0
LINE
  5
320A
330
1F
100
AcDbEntity
  8
P-0000
  6
Continuous
 62
     7
100
AcDbLine
 10
2503.097953883782
 20
1136.475347269575
 30
0.0
 11
2503.097953883782
 21
1135.16896466127
 31
0.0
1001
ACME_LAYERS
1000
1
  0
LINE
  5
320B
330
1F
100
AcDbEntity
  8
P-0000
  6
Continuous
 62
     7
100
AcDbLine
 10
2517.103507383249
 20
1134.588408077669
 30
0.0
 11
2504.103507383247
 21
1134.58840807767
 31
0.0
1001
ACME_LAYERS
1000
1
  0
LINE
  5
320C
330
1F
100
AcDbEntity
  8
P-0000
  6
Continuous
 62
     7
100
AcDbLine
 10
2518.109060882713
 20
1136.475347269575
 30
0.0
 11
2518.109060882713
 21
1135.168964661269
 31
0.0
1001
ACME_LAYERS
1000
1
  0
LINE
  5
320D
330
1F
100
AcDbEntity
  8
P-0000
  6
Continuous
 62
     7
100
AcDbLine
 10
2514.603507383248
 20
1140.588408077669
 30
0.0
 11
2517.103507383249
 21
1140.588408077669
 31
0.0
1001
ACME_LAYERS
1000
1
  0
LINE
  5
320E
330
1F
100
AcDbEntity
  8
P-0000
  6
Continuous
 62
     7
100
AcDbLine
 10
2506.850730633516
 20
1136.475347269575
 30
0.0
 11
2506.850730633516
 21
1135.168964661269
 31
0.0
1001
ACME_LAYERS
1000
1
  0
LINE
  5
320F
330
1F
100
AcDbEntity
  8
P-0000
  6
Continuous
 62
     7
100
AcDbLine
 10
2514.356284132979
 20
1136.475347269575
 30
0.0
 11
2514.356284132979
 21
1135.168964661269
 31
0.0
1001
ACME_LAYERS
1000
1
  0
LINE
  5
3210
330
1F
100
AcDbEntity
  8
P-0000
  6
Continuous
 62
     7
100
AcDbLine
 10
2503.344625472437
 20
1135.015551643304
 30
0.0
 11
2504.103507383247
 21
1134.58840807767
 31
0.0
1001
ACME_LAYERS
1000
1
  0
LINE
  5
3211
330
1F
100
AcDbEntity
  8
P-0000
  6
Continuous
 62
     7
100
AcDbLine
 10
2517.862389294056
 20
1135.015551643303
 30
0.0
 11
2517.103507383249
 21
1134.588408077669
 31
0.0
1001
ACME_LAYERS
1000
1
  0
LINE
  5
3212
330
1F
100
AcDbEntity
  8
P-0000
  6
Continuous
 62
     7
100
AcDbLine
 10
2517.862389294056
 20
1140.161264512033
 30
0.0
 11
2517.103507383249
 21
1140.588408077669
 31
0.0
1001
ACME_LAYERS
1000
1
  0
LINE
  5
3213
330
1F
100
AcDbEntity
  8
P-0000
  6
Continuous
 62
     7
100
AcDbLine
 10
2518.109060882713
 20
1140.007851494068
 30
0.0
 11
2518.109060882713
 21
1136.475347269575
 31
0.0
1001
ACME_LAYERS
1000
1
  0
LINE
  5
3214
330
1F
100
AcDbEntity
  8
P-0000
  6
Continuous
 62
     7
100
AcDbLine
 10
2514.356284132979
 20
1140.007851494068
 30
0.0
 11
2514.356284132979
 21
1136.475347269575
 31
0.0
1001
ACME_LAYERS
1000
1
  0
LINE
  5
3215
330
1F
100
AcDbEntity
  8
P-0000
  6
Continuous
 62
     7
100
AcDbLine
 10
2506.850730633516
 20
1138.995008027007
 30
0.0
 11
2506.850730633516
 21
1136.475347269575
 31
0.0
1001
ACME_LAYERS
1000
1
  0
LINE
  5
3216
330
1F
100
AcDbEntity
  8
P-0000
  6
Continuous
 62
     7
100
AcDbLine
 10
2503.097953883782
 20
1136.828341360341
 30
0.0
 11
2503.097953883782
 21
1136.475347269575
 31
0.0
1001
ACME_LAYERS
1000
1
  0
ARC
  5
3217
330
1F
100
AcDbEntity
  8
P-0000
  6
Continuous
 62
     7
100
AcDbCircle
 10
2510.603507383249
 20
1147.007851494068
 30
0.0
 40
12.41944341639904
100
AcDbArc
 50
252.4120462259808
 51
287.5879537739637
1001
ACME_LAYERS
1000
1
  0
ARC
  5
3218
330
1F
100
AcDbEntity
  8
P-0000
  6
Continuous
 62
     7
100
AcDbCircle
 10
2510.603507383248
 20
1128.16896466127
 30
0.0
 40
12.41944341639904
100
AcDbArc
 50
72.41204622598075
 51
94.95831806929642
1001
ACME_LAYERS
1000
1
  0
ARC
  5
3219
330
1F
100
AcDbEntity
  8
P-0000
  6
Continuous
 62
     7
100
AcDbCircle
 10
2504.974342258649
 20
1137.910977650619
 30
0.0
 40
3.322569572950221
100
AcDbArc
 50
240.6266206051676
 51
304.3842474680243
1001
ACME_LAYERS
1000
1
  0
ARC
  5
321A
330
1F
100
AcDbEntity
  8
P-0000
  6
Continuous
 62
     7
100
AcDbCircle
 10
2516.232672507845
 20
1137.910977650618
 30
0.0
 40
3.322569572950221
100
AcDbArc
 50
299.3733793948324
 51
304.3842474680243
1001
ACME_LAYERS
1000
1
  0
ARC
  5
321B
330
1F
100
AcDbEntity
  8
P-0000
  6
Continuous
 62
     7
100
AcDbCircle
 10
2516.232672507845
 20
1137.265838504718
 30
0.0
 40
3.322569572949122
100
AcDbArc
 50
60.62662060516761
 51
124.3842474680243
1001
ACME_LAYERS
1000
1
  0
ARC
  5
321C
330
1F
100
AcDbEntity
  8
P-0000
  6
Continuous
 62
     7
100
AcDbCircle
 10
2504.974342258649
 20
1137.910977650619
 30
0.0
 40
3.322569572949876
100
AcDbArc
 50
235.6157525319757
 51
240.6266206051676
1001
ACME_LAYERS
1000
1
  0
ARC
  5
321D
330
1F
100
AcDbEntity
  8
P-0000
  6
Continuous
 62
     7
100
AcDbCircle
 10
2516.232672507845
 20
1137.910977650618
 30
0.0
 40
3.322569572949872
100
AcDbArc
 50
235.6157525319757
 51
299.3733793948324
1001
ACME_LAYERS
1000
1
  0
ARC
  5
321E
330
1F
100
AcDbEntity
  8
P-0000
  6
Continuous
 62
     7
100
AcDbCircle
 10
2516.232672507845
 20
1137.265838504718
 30
0.0
 40
3.322569572949884
100
AcDbArc
 50
55.61575253197573
 51
60.62662060516761
1001
ACME_LAYERS
1000
1
  0
HATCH
  5
321F
330
1F
100
AcDbEntity
  8
P-0000
  6
Continuous
 62
     1
100
AcDbHatch
 10
0.0
 20
0.0
 30
0.0
210
0.0
220
0.0
230
1.0
  2
_U
 70
     0
 71
     0
 91
        1
 92
        1
 93
       16
 72
     1
 10
2508.302114142902
 20
1152.482756779241
 11
2508.302114142902
 21
1152.43358519626
 72
     1
 10
2508.302114142902
 20
1152.433585196259
 11
2507.802114142902
 21
1152.433585196259
 72
     1
 10
2507.802114142902
 20
1152.433585196259
 11
2507.802114142903
 21
1150.482756779243
 72
     1
 10
2507.802114142903
 20
1150.482756779243
 11
2500.741222974588
 21
1150.482756779243
 72
     2
 10
2500.741222974588
 20
1149.982756779243
 40
0.5
 50
449.9999999999988
 51
539.9999999999987
 73
     1
 72
     1
 10
2500.241222974588
 20
1149.982756779243
 11
2500.241222974587
 21
1137.488408077674
 72
     2
 10
2496.241222974588
 20
1137.488408077674
 40
4.000000000000068
 50
0.0000000000010941
 51
90.0000000000011
 73
     0
 72
     1
 10
2496.241222974588
 20
1133.488408077673
 11
2481.552114142911
 21
1133.488408077673
 72
     1
 10
2481.552114142911
 20
1133.488408077673
 11
2481.552114142911
 21
1135.488408077673
 72
     1
 10
2481.552114142911
 20
1135.488408077674
 11
2496.302114142902
 21
1135.488408077674
 72
     2
 10
2496.302114142902
 20
1137.488408077674
 40
1.999999999999999
 50
269.9999999999989
 51
359.9999999999988
 73
     1
 72
     1
 10
2498.302114142902
 20
1137.488408077674
 11
2498.302114142903
 21
1154.982756779243
 72
     1
 10
2498.302114142903
 20
1154.982756779243
 11
2500.302114142903
 21
1154.982756779243
 72
     1
 10
2500.302114142903
 20
1154.982756779243
 11
2500.302114142903
 21
1152.982756779243
 72
     2
 10
2500.802114142903
 20
1152.982756779243
 40
0.5
 50
539.9999999999987
 51
629.9999999999989
 73
     1
 72
     1
 10
2500.802114142902
 20
1152.482756779243
 11
2508.302114142902
 21
1152.482756779242
 97
        0
 75
     0
 76
     0
 52
-45.0
 41
2.0
 77
     0
 78
     1
 53
224.9999999999989
 43
2467.363005311208
 44
644.0670884361452
 45
-1.414213562373066
 46
1.41421356237312
 79
     0
 98
        1
 10
2467.363005311208
 20
644.0670884361452
1001
ACME_LAYERS
1000
1
  0
LINE
  5
3220
330
1F
100
AcDbEntity
  8
P-0000
  6
Continuous
 62
     7
100
AcDbLine
 10
2528.302114142912
 20
1154.982756779242
 30
0.0
 11
2525.526411128039
 21
1154.982756779242
 31
0.0
1001
ACME_LAYERS
1000
1
  0
LINE
  5
3221
330
1F
100
AcDbEntity
  8
P-0000
  6
Continuous
 62
     7
100
AcDbLine
 10
2508.839834599784
 20
1154.982756779243
 30
0.0
 11
2500.302114142903
 21
1154.982756779243
 31
0.0
1001
ACME_LAYERS
1000
1
  0
LINE
  5
3222
330
1F
100
AcDbEntity
  8
P-0000
  6
Continuous
 62
     7
100
AcDbLine
 10
2526.748095136973
 20
1150.482756779242
 30
0.0
 11
2498.241222974588
 21
1134.024306462536
 31
0.0
1001
ACME_LAYERS
1000
1
  0
LINE
  5
3223
330
1F
100
AcDbEntity
  8
P-0000
  6
Continuous
 62
     7
100
AcDbLine
 10
2500.741222974588
 20
1150.482756779243
 30
0.0
 11
2507.802114142903
 21
1150.482756779243
 31
0.0
1001
ACME_LAYERS
1000
1
  0
LINE
  5
3224
330
1F
100
AcDbEntity
  8
P-0000
  6
Continuous
 62
     7
100
AcDbLine
 10
2508.302114142902
 20
1152.482756779241
 30
0.0
 11
2500.802114142902
 21
1152.482756779243
 31
0.0
1001
ACME_LAYERS
1000
1
  0
LINE
  5
3225
330
1F
100
AcDbEntity
  8
P-0000
  6
Continuous
 62
     7
100
AcDbLine
 10
2593.292353911182
 20
1154.982756779241
 30
0.0
 11
2528.302114142912
 21
1154.982756779242
 31
0.0
1001
ACME_LAYERS
1000
1
  0
LINE
  5
3226
330
1F
100
AcDbEntity
  8
P-0000
  6
Continuous
 62
     7
100
AcDbLine
 10
2593.292353911182
 20
1152.482756779241
 30
0.0
 11
2538.302114142902
 21
1152.482756779241
 31
0.0
1001
ACME_LAYERS
1000
1
  0
LINE
  5
3227
330
1F
100
AcDbEntity
  8
P-0000
  6
Continuous
 62
     7
100
AcDbLine
 10
2582.319571380625
 20
1150.482756779241
 30
0.0
 11
2532.302114142912
 21
1150.482756779242
 31
0.0
1001
ACME_LAYERS
1000
1
  0
HATCH
  5
3228
330
1F
100
AcDbEntity
  8
P-0000
  6
Continuous
 62
     1
100
AcDbHatch
 10
0.0
 20
0.0
 30
0.0
210
0.0
220
0.0
230
1.0
  2
_U
 70
     0
 71
     0
 91
        1
 92
        1
 93
       11
 72
     1
 10
2527.802114142911
 20
1152.482756779241
 11
2516.302114142903
 21
1152.482756779241
 72
     1
 10
2516.302114142903
 20
1152.482756779241
 11
2516.302114142903
 21
1150.482756779243
 72
     1
 10
2516.302114142903
 20
1150.482756779243
 11
2526.748095136973
 21
1150.482756779242
 72
     1
 10
2526.748095136973
 20
1150.482756779242
 11
2532.302114142912
 21
1150.482756779242
 72
     1
 10
2532.302114142912
 20
1150.482756779242
 11
2532.302114142912
 21
1152.482756779241
 72
     1
 10
2532.302114142912
 20
1152.482756779241
 11
2530.802114142912
 21
1152.482756779241
 72
     2
 10
2530.802114142912
 20
1152.982756779242
 40
0.5
 50
-269.9999999999989
 51
-179.9999999999989
 73
     0
 72
     1
 10
2530.302114142911
 20
1152.982756779242
 11
2530.302114142911
 21
1154.982756779242
 72
     1
 10
2530.302114142911
 20
1154.982756779242
 11
2528.302114142912
 21
1154.982756779242
 72
     1
 10
2528.302114142912
 20
1154.982756779242
 11
2528.302114142912
 21
1152.982756779242
 72
     2
 10
2527.802114142911
 20
1152.982756779242
 40
0.5
 50
0.0000000000010941
 51
90.0000000000011
 73
     0
 97
        0
 75
     0
 76
     0
 52
-45.0
 41
2.0
 77
     0
 78
     1
 53
224.9999999999989
 43
2821.981709428001
 44
1213.027147651813
 45
-1.414213562373066
 46
1.41421356237312
 79
     0
 98
        1
 10
2467.363005311208
 20
644.0670884361452
1001
ACME_LAYERS
1000
1
  0
LINE
  5
3229
330
1F
100
AcDbEntity
  8
P-0000
  6
Continuous
 62
     7
100
AcDbLine
 10
2527.802114142911
 20
1152.482756779241
 30
0.0
 11
2516.302114142903
 21
1152.482756779241
 31
0.0
1001
ACME_LAYERS
1000
1
  0
LINE
  5
322A
330
1F
100
AcDbEntity
  8
P-0000
  6
Continuous
 62
     7
100
AcDbLine
 10
2532.302114142912
 20
1150.482756779242
 30
0.0
 11
2526.748095136973
 21
1150.482756779242
 31
0.0
1001
ACME_LAYERS
1000
1
  0
LINE
  5
322B
330
1F
100
AcDbEntity
  8
P-0000
  6
Continuous
 62
     7
100
AcDbLine
 10
2538.302114142902
 20
1152.482756779241
 30
0.0
 11
2532.302114142912
 21
1152.482756779241
 31
0.0
1001
ACME_LAYERS
1000
1
  0
LINE
  5
322C
330
1F
100
AcDbEntity
  8
P-0000
  6
Continuous
 62
     7
100
AcDbLine
 10
2532.302114142912
 20
1150.482756779242
 30
0.0
 11
2532.302114142912
 21
1152.482756779241
 31
0.0
1001
ACME_LAYERS
1000
1
  0
LINE
  5
322D
330
1F
100
AcDbEntity
  8
P-0000
  6
Continuous
 62
     7
100
AcDbLine
 10
2532.302114142912
 20
1152.482756779241
 30
0.0
 11
2530.802114142912
 21
1152.482756779241
 31
0.0
1001
ACME_LAYERS
1000
1
  0
LINE
  5
322E
330
1F
100
AcDbEntity
  8
P-0000
  6
Continuous
 62
     7
100
AcDbLine
 10
2528.302114142912
 20
1152.982756779242
 30
0.0
 11
2528.302114142912
 21
1154.982756779242
 31
0.0
1001
ACME_LAYERS
1000
1
  0
LINE
  5
322F
330
1F
100
AcDbEntity
  8
P-0000
  6
Continuous
 62
     7
100
AcDbLine
 10
2530.302114142911
 20
1152.982756779242
 30
0.0
 11
2530.302114142911
 21
1154.982756779242
 31
0.0
1001
ACME_LAYERS
1000
1
  0
LINE
  5
3230
330
1F
100
AcDbEntity
  8
P-0000
  6
Continuous
 62
     7
100
AcDbLine
 10
2528.302114142912
 20
1154.982756779242
 30
0.0
 11
2530.302114142911
 21
1154.982756779242
 31
0.0
1001
ACME_LAYERS
1000
1
  0
ARC
  5
3231
330
1F
100
AcDbEntity
  8
P-0000
  6
Continuous
 62
     7
100
AcDbCircle
 10
2527.802114142911
 20
1152.982756779242
 30
0.0
 40
0.5
100
AcDbArc
 50
270.0
 51
0.0
1001
ACME_LAYERS
1000
1
  0
ARC
  5
3232
330
1F
100
AcDbEntity
  8
P-0000
  6
Continuous
 62
     7
100
AcDbCircle
 10
2530.802114142912
 20
1152.982756779242
 30
0.0
 40
0.5
100
AcDbArc
 50
180.0
 51
270.0
1001
ACME_LAYERS
1000
1
  0
LINE
  5
3233
330
1F
100
AcDbEntity
  8
P-0000
  6
Continuous
 62
     7
100
AcDbLine
 10
2512.591283537843
 20
1150.482756779243
 30
0.0
 11
2516.302114142903
 21
1150.482756779243
 31
0.0
1001
ACME_LAYERS
1000
1
  0
LINE
  5
3234
330
1F
100
AcDbEntity
  8
P-0000
  6
Continuous
 62
     7
100
AcDbLine
 10
2516.302114142903
 20
1152.482756779241
 30
0.0
 11
2508.302114142902
 21
1152.482756779241
 31
0.0
1001
ACME_LAYERS
1000
1
  0
LINE
  5
3235
330
1F
100
AcDbEntity
  8
P-0000
  6
Continuous
 62
     7
100
AcDbLine
 10
2516.302114142903
 20
1150.482756779243
 30
0.0
 11
2526.748095136973
 21
1150.482756779242
 31
0.0
1001
ACME_LAYERS
1000
1
  0
LINE
  5
3236
330
1F
100
AcDbEntity
  8
P-0000
  6
Continuous
 62
     7
100
AcDbLine
 10
2516.302114142903
 20
1152.482756779241
 30
0.0
 11
2516.302114142903
 21
1150.482756779243
 31
0.0
1001
ACME_LAYERS
1000
1
  0
LINE
  5
3237
330
1F
100
AcDbEntity
  8
P-0000
  6
Continuous
 62
     7
100
AcDbLine
 10
2510.79235391118
 20
1152.482756779241
 30
0.0
 11
2509.79235391118
 21
1152.482756779241
 31
0.0
1001
ACME_LAYERS
1000
1
  0
LINE
  5
3238
330
1F
100
AcDbEntity
  8
P-0000
  6
Continuous
 62
     7
100
AcDbLine
 10
2510.79235391118
 20
1152.482756779241
 30
0.0
 11
2509.79235391118
 21
1152.482756779241
 31
0.0
1001
ACME_LAYERS
1000
1
  0
LINE
  5
3239
330
1F
100
AcDbEntity
  8
P-0000
  6
Continuous
 62
     7
100
AcDbLine
 10
2500.241222974588
 20
1137.488408077674
 30
0.0
 11
2500.241222974588
 21
1149.982756779243
 31
0.0
1001
ACME_LAYERS
1000
1
  0
LINE
  5
323A
330
1F
100
AcDbEntity
  8
P-0000
  6
Continuous
 62
     7
100
AcDbLine
 10
2498.302114142902
 20
1137.488408077674
 30
0.0
 11
2498.302114142902
 21
1152.482756779243
 31
0.0
1001
ACME_LAYERS
1000
1
  0
LINE
  5
323B
330
1F
100
AcDbEntity
  8
P-0000
  6
Continuous
 62
     7
100
AcDbLine
 10
2488.490422345349
 20
1135.488408077674
 30
0.0
 11
2498.302114142902
 21
1152.482756779243
 31
0.0
1001
ACME_LAYERS
1000
1
  0
LINE
  5
323C
330
1F
100
AcDbEntity
  8
P-0000
  6
Continuous
 62
     7
100
AcDbLine
 10
2498.302114142903
 20
1154.982756779243
 30
0.0
 11
2500.302114142903
 21
1154.982756779243
 31
0.0
1001
ACME_LAYERS
1000
1
  0
LINE
  5
323D
330
1F
100
AcDbEntity
  8
P-0000
  6
Continuous
 62
     7
100
AcDbLine
 10
2500.302114142903
 20
1154.982756779243
 30
0.0
 11
2500.302114142903
 21
1152.982756779243
 31
0.0
1001
ACME_LAYERS
1000
1
  0
ARC
  5
323E
330
1F
100
AcDbEntity
  8
P-0000
  6
Continuous
 62
     7
100
AcDbCircle
 10
2500.802114142903
 20
1152.982756779243
 30
0.0
 40
0.5
100
AcDbArc
 50
180.0
 51
270.0
1001
ACME_LAYERS
1000
1
  0
ARC
  5
323F
330
1F
100
AcDbEntity
  8
P-0000
  6
Continuous
 62
     7
100
AcDbCircle
 10
2500.741222974588
 20
1149.982756779243
 30
0.0
 40
0.5
100
AcDbArc
 50
90.0
 51
180.0
1001
ACME_LAYERS
1000
1
  0
LINE
  5
3240
330
1F
100
AcDbEntity
  8
P-0000
  6
Continuous
 62
     7
100
AcDbLine
 10
2498.302114142903
 20
1154.982756779243
 30
0.0
 11
2498.302114142902
 21
1152.482756779243
 31
0.0
1001
ACME_LAYERS
1000
1
  0
LINE
  5
3241
330
1F
100
AcDbEntity
  8
P-0000
  6
Continuous
 62
     7
100
AcDbLine
 10
2488.490422345349
 20
1135.488408077674
 30
0.0
 11
2496.302114142902
 21
1135.488408077674
 31
0.0
1001
ACME_LAYERS
1000
1
  0
LINE
  5
3242
330
1F
100
AcDbEntity
  8
P-0000
  6
Continuous
 62
     7
100
AcDbLine
 10
2481.552114142911
 20
1133.488408077673
 30
0.0
 11
2496.241222974588
 21
1133.488408077673
 31
0.0
1001
ACME_LAYERS
1000
1
  0
ARC
  5
3243
330
1F
100
AcDbEntity
  8
P-0000
  6
Continuous
 62
     7
100
AcDbCircle
 10
2496.302114142902
 20
1137.488408077674
 30
0.0
 40
2.0
100
AcDbArc
 50
270.0
 51
0.0
1001
ACME_LAYERS
1000
1
  0
ARC
  5
3244
330
1F
100
AcDbEntity
  8
P-0000
  6
Continuous
 62
     7
100
AcDbCircle
 10
2496.241222974588
 20
1137.488408077674
 30
0.0
 40
4.0
100
AcDbArc
 50
300.0000000000005
 51
0.0
1001
ACME_LAYERS
1000
1
  0
ARC
  5
3245
330
1F
100
AcDbEntity
  8
P-0000
  6
Continuous
 62
     7
100
AcDbCircle
 10
2496.241222974588
 20
1137.488408077674
 30
0.0
 40
4.000000000000031
100
AcDbArc
 50
270.0
 51
300.0000000000005
1001
ACME_LAYERS
1000
1
  0
LINE
  5
3246
330
1F
100
AcDbEntity
  8
P-0000
  6
Continuous
 62
     7
100
AcDbLine
 10
2481.552114142911
 20
1135.488408077674
 30
0.0
 11
2488.490422345349
 21
1135.488408077674
 31
0.0
1001
ACME_LAYERS
1000
1
  0
HATCH
  5
3247
330
1F
100
AcDbEntity
  8
P-0000
  6
Continuous
 62
     1
100
AcDbHatch
 10
0.0
 20
0.0
 30
0.0
210
0.0
220
0.0
230
1.0
  2
_U
 70
     0
 71
     0
 91
        1
 92
        1
 93
        4
 72
     1
 10
2466.55211414291
 20
1133.488408077673
 11
2471.552114142911
 21
1133.488408077673
 72
     1
 10
2471.552114142911
 20
1133.488408077673
 11
2471.552114142911
 21
1135.488408077673
 72
     1
 10
2471.552114142911
 20
1135.488408077674
 11
2466.55211414291
 21
1135.488408077674
 72
     1
 10
2466.55211414291
 20
1135.488408077674
 11
2466.55211414291
 21
1133.488408077674
 97
        0
 75
     0
 76
     0
 52
-45.0
 41
2.0
 77
     0
 78
     1
 53
224.9999999999989
 43
2467.363005311208
 44
644.0670884361452
 45
-1.414213562373066
 46
1.41421356237312
 79
     0
 98
        1
 10
2467.363005311208
 20
644.0670884361452
1001
ACME_LAYERS
1000
1
  0
LINE
  5
3248
330
1F
100
AcDbEntity
  8
P-0000
  6
Continuous
 62
     7
100
AcDbLine
 10
2466.55211414291
 20
1135.488408077674
 30
0.0
 11
2471.552114142911
 21
1135.488408077674
 31
0.0
1001
ACME_LAYERS
1000
1
  0
LINE
  5
3249
330
1F
100
AcDbEntity
  8
P-0000
  6
Continuous
 62
     7
100
AcDbLine
 10
2466.55211414291
 20
1133.488408077673
 30
0.0
 11
2471.552114142911
 21
1133.488408077673
 31
0.0
1001
ACME_LAYERS
1000
1
  0
LINE
  5
324A
330
1F
100
AcDbEntity
  8
P-0000
  6
Continuous
 62
     7
100
AcDbLine
 10
2466.55211414291
 20
1133.488408077673
 30
0.0
 11
2466.55211414291
 21
1135.488408077674
 31
0.0
1001
ACME_LAYERS
1000
1
  0
LINE
  5
324B
330
1F
100
AcDbEntity
  8
P-0000
  6
Continuous
 62
     7
100
AcDbLine
 10
2591.802114142903
 20
1194.433585196259
 30
0.0
 11
2591.802114142903
 21
1158.433585196259
 31
0.0
1001
ACME_LAYERS
1000
1
  0
LINE
  5
324C
330
1F
100
AcDbEntity
  8
P-0000
  6
Continuous
 62
     7
100
AcDbLine
 10
2516.854443731924
 20
1177.002714395549
 30
0.0
 11
2515.875654515638
 21
1174.3135131254
 31
0.0
1001
ACME_LAYERS
1000
1
  0
LINE
  5
324D
330
1F
100
AcDbEntity
  8
P-0000
  6
Continuous
 62
     7
100
AcDbLine
 10
2525.526411128037
 20
1158.433585196259
 30
0.0
 11
2538.629339561623
 21
1194.433585196259
 31
0.0
1001
ACME_LAYERS
1000
1
  0
LINE
  5
324E
330
1F
100
AcDbEntity
  8
P-0000
  6
Continuous
 62
     7
100
AcDbLine
 10
2591.802114142904
 20
1200.403234295891
 30
0.0
 11
2540.802114142904
 21
1200.403234295891
 31
0.0
1001
ACME_LAYERS
1000
1
  0
LINE
  5
324F
330
1F
100
AcDbEntity
  8
P-0000
  6
Continuous
 62
     7
100
AcDbLine
 10
2591.802114142904
 20
1200.403234295891
 30
0.0
 11
2540.802114142904
 21
1200.403234295891
 31
0.0
1001
ACME_LAYERS
1000
1
  0
LINE
  5
3250
330
1F
100
AcDbEntity
  8
P-0000
  6
Continuous
 62
     7
100
AcDbLine
 10
2545.432121221355
 20
1232.43358519626
 30
0.0
 11
2552.460208463742
 21
1232.43358519626
 31
0.0
1001
ACME_LAYERS
1000
1
  0
LINE
  5
3251
330
1F
100
AcDbEntity
  8
P-0000
  6
Continuous
 62
     7
100
AcDbLine
 10
2539.802114142903
 20
1194.433585196259
 30
0.0
 11
2591.802114142903
 21
1194.433585196259
 31
0.0
1001
ACME_LAYERS
1000
1
  0
LINE
  5
3252
330
1F
100
AcDbEntity
  8
P-0000
  6
Continuous
 62
     7
100
AcDbLine
 10
2547.000654949747
 20
1217.433585196258
 30
0.0
 11
2589.19795108687
 21
1217.433585196258
 31
0.0
1001
ACME_LAYERS
1000
1
  0
LINE
  5
3253
330
1F
100
AcDbEntity
  8
P-0000
  6
Continuous
 62
     7
100
AcDbLine
 10
2554.588564008692
 20
1232.43358519626
 30
0.0
 11
2589.19795108687
 21
1232.433585196259
 31
0.0
1001
ACME_LAYERS
1000
1
  0
LINE
  5
3254
330
1F
100
AcDbEntity
  8
P-0000
  6
Continuous
 62
     7
100
AcDbLine
 10
2589.19795108687
 20
1232.433585196259
 30
0.0
 11
2589.19795108687
 21
1217.433585196258
 31
0.0
1001
ACME_LAYERS
1000
1
  0
LINE
  5
3255
330
1F
100
AcDbEntity
  8
P-0000
  6
Continuous
 62
     7
100
AcDbLine
 10
2589.19795108687
 20
1232.433585196259
 30
0.0
 11
2593.302114142904
 21
1232.433585196259
 31
0.0
1001
ACME_LAYERS
1000
1
  0
LINE
  5
3256
330
1F
100
AcDbEntity
  8
P-0000
  6
Continuous
 62
     7
100
AcDbLine
 10
2589.19795108687
 20
1217.433585196258
 30
0.0
 11
2593.069571380632
 21
1217.433585196258
 31
0.0
1001
ACME_LAYERS
1000
1
  0
HATCH
  5
3257
330
1F
100
AcDbEntity
  8
P-0000
  6
Continuous
 62
     1
100
AcDbHatch
 10
0.0
 20
0.0
 30
0.0
210
0.0
220
0.0
230
1.0
  2
_U
 70
     0
 71
     0
 91
        1
 92
        1
 93
        5
 72
     1
 10
2551.004327526675
 20
1228.43358519626
 11
2552.460208463742
 21
1232.43358519626
 72
     1
 10
2552.460208463742
 20
1232.43358519626
 11
2554.588564008692
 21
1232.43358519626
 72
     1
 10
2554.588564008692
 20
1232.43358519626
 11
2553.372168154205
 21
1229.091565052933
 72
     2
 10
2552.432475533418
 20
1229.433585196259
 40
1.000000000000015
 50
20.0000000000042
 51
90.0000000000011
 73
     0
 72
     1
 10
2552.432475533418
 20
1228.43358519626
 11
2551.004327526675
 21
1228.43358519626
 97
        0
 75
     0
 76
     0
 52
44.99999999999999
 41
1.0
 77
     0
 78
     1
 53
45.0
 43
0.0
 44
-0.0000000000001137
 45
-0.7071067811865475
 46
0.7071067811865476
 79
     0
 98
        1
 10
2467.353245079487
 20
663.954729527907
1001
ACME_LAYERS
1000
1
1001
ACAD
1010
0.0
1020
0.0
1030
0.0
  0
LINE
  5
3258
330
1F
100
AcDbEntity
  8
P-0000
  6
Continuous
 62
     7
100
AcDbLine
 10
2553.372168154205
 20
1229.091565052933
 30
0.0
 11
2554.588564008692
 21
1232.43358519626
 31
0.0
1001
ACME_LAYERS
1000
1
  0
LINE
  5
3259
330
1F
100
AcDbEntity
  8
P-0000
  6
Continuous
 62
     7
100
AcDbLine
 10
2551.004327526675
 20
1228.43358519626
 30
0.0
 11
2552.460208463742
 21
1232.43358519626
 31
0.0
1001
ACME_LAYERS
1000
1
  0
LINE
  5
325A
330
1F
100
AcDbEntity
  8
P-0000
  6
Continuous
 62
     7
100
AcDbLine
 10
2552.460208463742
 20
1232.43358519626
 30
0.0
 11
2554.588564008692
 21
1232.43358519626
 31
0.0
1001
ACME_LAYERS
1000
1
  0
ARC
  5
325B
330
1F
100
AcDbEntity
  8
P-0000
  6
Continuous
 62
     7
100
AcDbCircle
 10
2552.432475533418
 20
1229.433585196259
 30
0.0
 40
1.000000000000015
100
AcDbArc
 50
270.0
 51
339.9999999999985
1001
ACME_LAYERS
1000
1
  0
ARC
  5
325C
330
1F
100
AcDbEntity
  8
P-0000
  6
Continuous
 62
     7
100
AcDbCircle
 10
2552.432475533418
 20
1229.433585196259
 30
0.0
 40
1.000000000000015
100
AcDbArc
 50
270.0
 51
339.9999999999985
1001
ACME_LAYERS
1000
1
  0
LINE
  5
325D
330
1F
100
AcDbEntity
  8
P-0000
  6
Continuous
 62
     7
100
AcDbLine
 10
2551.004327526675
 20
1228.43358519626
 30
0.0
 11
2552.432475533418
 21
1228.43358519626
 31
0.0
1001
ACME_LAYERS
1000
1
  0
LINE
  5
325E
330
1F
100
AcDbEntity
  8
P-0000
  6
Continuous
 62
     7
100
AcDbLine
 10
2591.802114142903
 20
1194.433585196259
 30
0.0
 11
2593.302114142903
 21
1194.433585196259
 31
0.0
1001
ACME_LAYERS
1000
1
  0
LINE
  5
325F
330
1F
100
AcDbEntity
  8
P-0000
  6
Continuous
 62
     7
100
AcDbLine
 10
2534.155809771924
 20
1224.537826916168
 30
0.0
 11
2516.854443731924
 21
1177.002714395549
 31
0.0
1001
ACME_LAYERS
1000
1
  0
LINE
  5
3260
330
1F
100
AcDbEntity
  8
P-0000
  6
Continuous
 62
     7
100
AcDbLine
 10
2540.802114142904
 20
1200.403234295891
 30
0.0
 11
2547.000654949747
 21
1217.433585196258
 31
0.0
1001
ACME_LAYERS
1000
1
  0
ARC
  5
3261
330
1F
100
AcDbEntity
  8
P-0000
  6
Continuous
 62
     7
100
AcDbCircle
 10
2545.432121221355
 20
1220.433585196259
 30
0.0
 40
11.99999999999995
100
AcDbArc
 50
90.0
 51
160.0000000000108
1001
ACME_LAYERS
1000
1
  0
HATCH
  5
3262
330
1F
100
AcDbEntity
  8
P-0000
  6
Continuous
 62
     3
100
AcDbHatch
 10
0.0
 20
0.0
 30
0.0
210
0.0
220
0.0
230
1.0
  2
_U
 70
     0
 71
     0
 91
        1
 92
        1
 93
        4
 72
     1
 10
2538.629339561623
 20
1194.433585196259
 11
2540.802114142903
 21
1200.403234295891
 72
     1
 10
2540.802114142904
 20
1200.403234295891
 11
2540.802114142904
 21
1195.433585196259
 72
     2
 10
2539.802114142903
 20
1195.433585196259
 40
1.0
 50
0.0000000000010941
 51
90.0000000000011
 73
     0
 72
     1
 10
2539.802114142903
 20
1194.433585196259
 11
2538.629339561623
 21
1194.433585196259
 97
        0
 75
     0
 76
     0
 52
44.99999999999999
 41
1.0
 77
     0
 78
     1
 53
45.0
 43
0.0
 44
-0.0000000000001137
 45
-0.7071067811865475
 46
0.7071067811865476
 79
     0
 98
        1
 10
2467.353245079487
 20
663.954729527907
1001
ACME_LAYERS
1000
1
1001
ACAD
1010
0.0
1020
0.0
1030
0.0
  0
LINE
  5
3263
330
1F
100
AcDbEntity
  8
P-0000
  6
Continuous
 62
     7
100
AcDbLine
 10
2538.629339561623
 20
1194.433585196259
 30
0.0
 11
2539.802114142903
 21
1194.433585196259
 31
0.0
1001
ACME_LAYERS
1000
1
  0
LINE
  5
3264
330
1F
100
AcDbEntity
  8
P-0000
  6
Continuous
 62
     7
100
AcDbLine
 10
2538.629339561623
 20
1194.433585196259
 30
0.0
 11
2540.802114142904
 21
1200.403234295891
 31
0.0
1001
ACME_LAYERS
1000
1
  0
LINE
  5
3265
330
1F
100
AcDbEntity
  8
P-0000
  6
Continuous
 62
     7
100
AcDbLine
 10
2540.802114142903
 20
1195.433585196259
 30
0.0
 11
2540.802114142904
 21
1200.403234295891
 31
0.0
1001
ACME_LAYERS
1000
1
  0
LINE
  5
3266
330
1F
100
AcDbEntity
  8
P-0000
  6
Continuous
 62
     7
100
AcDbLine
 10
2540.802114142903
 20
1195.433585196259
 30
0.0
 11
2540.802114142904
 21
1200.403234295891
 31
0.0
1001
ACME_LAYERS
1000
1
  0
ARC
  5
3267
330
1F
100
AcDbEntity
  8
P-0000
  6
Continuous
 62
     7
100
AcDbCircle
 10
2539.802114142903
 20
1195.433585196259
 30
0.0
 40
1.0
100
AcDbArc
 50
270.0
 51
0.0
1001
ACME_LAYERS
1000
1
  0
ARC
  5
3268
330
1F
100
AcDbEntity
  8
P-0000
  6
Continuous
 62
     7
100
AcDbCircle
 10
2539.802114142903
 20
1195.433585196259
 30
0.0
 40
1.0
100
AcDbArc
 50
270.0
 51
0.0
1001
ACME_LAYERS
1000
1
  0
LINE
  5
3269
330
1F
100
AcDbEntity
  8
P-0000
  6
Continuous
 62
     7
100
AcDbLine
 10
2591.802114142903
 20
1158.433585196259
 30
0.0
 11
2525.526411128037
 21
1158.433585196259
 31
0.0
1001
ACME_LAYERS
1000
1
  0
LINE
  5
326A
330
1F
100
AcDbEntity
  8
P-0000
  6
Continuous
 62
     7
100
AcDbLine
 10
2591.802114142903
 20
1158.433585196259
 30
0.0
 11
2525.526411128037
 21
1158.433585196259
 31
0.0
1001
ACME_LAYERS
1000
1
  0
LINE
  5
326B
330
1F
100
AcDbEntity
  8
P-0000
  6
Continuous
 62
     7
100
AcDbLine
 10
2591.802114142903
 20
1158.433585196259
 30
0.0
 11
2525.526411128037
 21
1158.433585196259
 31
0.0
1001
ACME_LAYERS
1000
1
  0
LINE
  5
326C
330
1F
100
AcDbEntity
  8
P-0000
  6
Continuous
 62
     7
100
AcDbLine
 10
2525.526411128037
 20
1152.433585196259
 30
0.0
 11
2591.802114142903
 21
1152.433585196259
 31
0.0
1001
ACME_LAYERS
1000
1
  0
LINE
  5
326D
330
1F
100
AcDbEntity
  8
P-0000
  6
Continuous
 62
     7
100
AcDbLine
 10
2593.302114142903
 20
1158.433585196259
 30
0.0
 11
2591.802114142903
 21
1158.433585196259
 31
0.0
1001
ACME_LAYERS
1000
1
  0
LINE
  5
326E
330
1F
100
AcDbEntity
  8
P-0000
  6
Continuous
 62
     7
100
AcDbLine
 10
2593.302114142903
 20
1158.433585196259
 30
0.0
 11
2591.802114142903
 21
1158.433585196259
 31
0.0
1001
ACME_LAYERS
1000
1
  0
LINE
  5
326F
330
1F
100
AcDbEntity
  8
P-0000
  6
Continuous
 62
     7
100
AcDbLine
 10
2593.302114142903
 20
1158.433585196259
 30
0.0
 11
2591.802114142903
 21
1158.433585196259
 31
0.0
1001
ACME_LAYERS
1000
1
  0
LINE
  5
3270
330
1F
100
AcDbEntity
  8
P-0000
  6
Continuous
 62
     7
100
AcDbLine
 10
2515.875654515638
 20
1174.3135131254
 30
0.0
 11
2508.302114142904
 21
1153.505381965984
 31
0.0
1001
ACME_LAYERS
1000
1
  0
LINE
  5
3271
330
1F
100
AcDbEntity
  8
P-0000
  6
Continuous
 62
     7
100
AcDbLine
 10
2514.302114142902
 20
1152.433585196259
 30
0.0
 11
2522.526411128037
 21
1152.433585196259
 31
0.0
1001
ACME_LAYERS
1000
1
  0
LINE
  5
3272
330
1F
100
AcDbEntity
  8
P-0000
  6
Continuous
 62
     7
100
AcDbLine
 10
2522.526411128037
 20
1152.433585196259
 30
0.0
 11
2522.526411128038
 21
1158.433585196259
 31
0.0
1001
ACME_LAYERS
1000
1
  0
LINE
  5
3273
330
1F
100
AcDbEntity
  8
P-0000
  6
Continuous
 62
     7
100
AcDbLine
 10
2525.526411128037
 20
1152.433585196259
 30
0.0
 11
2525.526411128037
 21
1158.433585196259
 31
0.0
1001
ACME_LAYERS
1000
1
  0
LINE
  5
3274
330
1F
100
AcDbEntity
  8
P-0000
  6
Continuous
 62
     7
100
AcDbLine
 10
2525.526411128037
 20
1158.433585196259
 30
0.0
 11
2522.526411128038
 21
1158.433585196259
 31
0.0
1001
ACME_LAYERS
1000
1
  0
LINE
  5
3275
330
1F
100
AcDbEntity
  8
P-0000
  6
Continuous
 62
     7
100
AcDbLine
 10
2525.526411128037
 20
1158.433585196259
 30
0.0
 11
2522.526411128038
 21
1158.433585196259
 31
0.0
1001
ACME_LAYERS
1000
1
  0
LINE
  5
3276
330
1F
100
AcDbEntity
  8
P-0000
  6
Continuous
 62
     7
100
AcDbLine
 10
2522.526411128037
 20
1152.433585196259
 30
0.0
 11
2525.526411128037
 21
1152.433585196259
 31
0.0
1001
ACME_LAYERS
1000
1
  0
LINE
  5
3277
330
1F
100
AcDbEntity
  8
P-0000
  6
Continuous
 62
     7
100
AcDbLine
 10
2507.802114142902
 20
1150.233585196259
 30
0.0
 11
2507.802114142902
 21
1152.433585196259
 31
0.0
1001
ACME_LAYERS
1000
1
  0
LINE
  5
3278
330
1F
100
AcDbEntity
  8
P-0000
  6
Continuous
 62
     7
100
AcDbLine
 10
2509.078344409451
 20
1146.477017427467
 30
0.0
 11
2514.302114142902
 21
1152.433585196259
 31
0.0
1001
ACME_LAYERS
1000
1
  0
LINE
  5
3279
330
1F
100
AcDbEntity
  8
P-0000
  6
Continuous
 62
     7
100
AcDbLine
 10
2508.302114142902
 20
1152.433585196259
 30
0.0
 11
2508.302114142904
 21
1153.505381965984
 31
0.0
1001
ACME_LAYERS
1000
1
  0
LINE
  5
327A
330
1F
100
AcDbEntity
  8
P-0000
  6
Continuous
 62
     7
100
AcDbLine
 10
2507.802114142902
 20
1152.433585196259
 30
0.0
 11
2508.302114142902
 21
1152.433585196259
 31
0.0
1001
ACME_LAYERS
1000
1
  0
LINE
  5
327B
330
1F
100
AcDbEntity
  8
P-0000
  6
Continuous
 62
     7
100
AcDbLine
 10
2508.302114142902
 20
1152.433585196259
 30
0.0
 11
2508.302114142904
 21
1153.505381965984
 31
0.0
1001
ACME_LAYERS
1000
1
  0
LINE
  5
327C
330
1F
100
AcDbEntity
  8
P-0000
  6
Continuous
 62
     7
100
AcDbLine
 10
2506.602114142902
 20
1148.733585196259
 30
0.0
 11
2508.160941334975
 21
1146.536043425059
 31
0.0
1001
ACME_LAYERS
1000
1
  0
LINE
  5
327D
330
1F
100
AcDbEntity
  8
P-0000
  6
Continuous
 62
     7
100
AcDbLine
 10
2507.802114142902
 20
1150.233585196259
 30
0.0
 11
2506.602114142902
 21
1150.233585196259
 31
0.0
1001
ACME_LAYERS
1000
1
  0
LINE
  5
327E
330
1F
100
AcDbEntity
  8
P-0000
  6
Continuous
 62
     7
100
AcDbLine
 10
2506.602114142902
 20
1150.233585196259
 30
0.0
 11
2506.602114142902
 21
1148.733585196259
 31
0.0
1001
ACME_LAYERS
1000
1
  0
ARC
  5
327F
330
1F
100
AcDbEntity
  8
P-0000
  6
Continuous
 62
     7
100
AcDbCircle
 10
2508.650321137058
 20
1146.88318519626
 30
0.0
 40
0.6000000000000229
100
AcDbArc
 50
215.3499999999974
 51
270.0
1001
ACME_LAYERS
1000
1
  0
ARC
  5
3280
330
1F
100
AcDbEntity
  8
P-0000
  6
Continuous
 62
     7
100
AcDbCircle
 10
2508.650547558997
 20
1146.852185196259
 30
0.0
 40
0.5689999999999894
100
AcDbArc
 50
270.0
 51
318.7499999999986
1001
ACME_LAYERS
1000
1
  0
LINE
  5
3281
330
1F
100
AcDbEntity
  8
P-0000
  6
Continuous
 62
     7
100
AcDbLine
 10
2508.650321137058
 20
1146.283185196259
 30
0.0
 11
2508.650547558997
 21
1146.283185196259
 31
0.0
1001
ACME_LAYERS
1000
1
  0
HATCH
  5
3282
330
1F
100
AcDbEntity
  8
P-0000
  6
Continuous
 62
     1
100
AcDbHatch
 10
0.0
 20
0.0
 30
0.0
210
0.0
220
0.0
230
1.0
  2
_U
 70
     0
 71
     0
 91
        1
 92
        1
 93
        4
 72
     1
 10
2522.526411128038
 20
1158.433585196259
 11
2525.526411128037
 21
1158.433585196259
 72
     1
 10
2525.526411128037
 20
1158.433585196259
 11
2525.526411128037
 21
1152.433585196259
 72
     1
 10
2525.526411128037
 20
1152.433585196259
 11
2522.526411128037
 21
1152.433585196259
 72
     1
 10
2522.526411128037
 20
1152.433585196259
 11
2522.526411128037
 21
1158.433585196259
 97
        0
 75
     0
 76
     0
 52
44.99999999999999
 41
1.0
 77
     0
 78
     1
 53
45.0
 43
0.0
 44
-0.0000000000001137
 45
-0.7071067811865475
 46
0.7071067811865476
 79
     0
 98
        1
 10
2765.893141378965
 20
1270.931668228235
1001
GENIUS_GENODEF_13
1002
{
1000
HIER
1070
     0
1002
}
1002
{
1000
MANEDIT
1070
     0
1002
}
1002
{
1000
NOSEL
1070
     0
1002
}
1002
{
1000
BEHIND
1070
     0
1002
}
1002
{
1000
OTHER
1070
     0
1002
}
1002
{
1000
REACTOR
1002
}
1001
GENIUS_GENOBJ-N-HTC_13
1002
{
1000
OWNER
1000
GEN
1002
}
1001
GENIUS_GENHATCH_13
1002
{
1000
DATA
1040
135.0
1042
-1.0
1000
_U
1070
     0
1011
2524.757434312591
1021
1152.892172242778
1031
0.0
1002
}
1002
{
1000
UCS
1010
0.0
1020
0.0
1030
0.0
1010
1.0
1020
0.0
1030
0.0
1010
0.0
1020
1.0
1030
0.0
1002
}
1001
ACAD
1010
0.0
1020
0.0
1030
0.0
  0
LINE
  5
3286
330
1F
100
AcDbEntity
  8
0
100
AcDbLine
 10
2591.310842761767
 20
1152.433585196259
 30
0.0
 11
2591.310842761767
 21
1133.488408077671
 31
0.0
  0
LINE
  5
3287
330
1F
100
AcDbEntity
  8
0
100
AcDbLine
 10
2594.310842761768
 20
1152.433585196259
 30
0.0
 11
2594.310842761768
 21
1133.488408077671
 31
0.0
  0
LINE
  5
3294
330
1F
100
AcDbEntity
  8
0
100
AcDbLine
 10
2556.310842761766
 20
978.2824881727259
 30
0.0
 11
2556.310842761766
 21
1051.217314962584
 31
0.0
  0
LINE
  5
3295
330
1F
100
AcDbEntity
  8
P-3FF0
  6
Continuous
 62
     7
100
AcDbLine
 10
2629.31084276177
 20
751.2824881727392
 30
0.0
 11
2629.310842761769
 21
1103.652459668686
 31
0.0
1001
ACME_LAYERS
1000
1
  0
DIMENSION
  5
347D
102
{ACAD_XDICTIONARY
360
348A
102
}
102
{ACAD_REACTORS
330
348B
102
}
330
1F
100
AcDbEntity
  8
AM_5
100
AcDbDimension
  2
*D3
 10
2415.767332719801
 20
1116.282488172726
 30
0.0
 11
2409.2673327198
 21
931.2824881727262
 31
0.0
 70
    32
 71
     5
 42
370.0000000000002
  3
AM_DIN$0
100
AcDbAlignedDimension
 13
2592.810842761764
 23
746.2824881727257
 33
0.0
 14
2427.767332719801
 24
1116.282488172726
 34
0.0
 50
90.00000000000005
100
AcDbRotatedDimension
1001
ACAD_DSTYLE_DIMINSPECT
1070
   396
1000
100%
1070
   395
1000

1070
   394
1070
    33
1070
   393
1070
     0
1001
ACAD
1000
DSTYLE
1002
{
1070
    41
1040
5.0
1070
   140
1040
10.0
1070
   271
1070
     0
1002
}
  0
LINE
  5
3515
330
1F
100
AcDbEntity
  8
P-0000
  6
Continuous
 62
     7
100
AcDbLine
 10
2629.271246518003
 20
1098.282488172743
 30
0.0
 11
2629.271246518003
 21
986.2824881727432
 31
0.0
1001
ACME_LAYERS
1000
1
  0
LINE
  5
3516
330
1F
100
AcDbEntity
  8
P-0000
  6
Continuous
 62
     7
100
AcDbLine
 10
2556.271246518002
 20
1091.282488172744
 30
0.0
 11
2556.271246518003
 21
986.2824881727432
 31
0.0
1001
ACME_LAYERS
1000
1
  0
LINE
  5
3517
330
1F
100
AcDbEntity
  8
P-0000
  6
Continuous
 62
     7
100
AcDbLine
 10
2556.271246518003
 20
1098.282488172743
 30
0.0
 11
2556.271246518002
 21
1091.282488172744
 31
0.0
1001
ACME_LAYERS
1000
1
  0
LINE
  5
3521
330
1F
100
AcDbEntity
  8
P-0000
  6
Continuous
 62
     7
100
AcDbLine
 10
2629.271246518
 20
1008.761303813028
 30
0.0
 11
2629.271246518
 21
1030.761303813028
 31
0.0
1001
ACME_LAYERS
1000
1
  0
LINE
  5
3522
330
1F
100
AcDbEntity
  8
P-0000
  6
Continuous
 62
     7
100
AcDbLine
 10
2556.271246518003
 20
1030.761303813028
 30
0.0
 11
2556.271246517998
 21
1008.761303813028
 31
0.0
1001
ACME_LAYERS
1000
1
  0
LINE
  5
3523
330
1F
100
AcDbEntity
  8
P-0000
  6
STRICHPUNKT
 62
     3
100
AcDbLine
 10
2592.771246518001
 20
1030.761303813028
 30
0.0
 11
2592.771246518
 21
991.4010795103576
 31
0.0
1001
ACME_LAYERS
1000
1
  0
LINE
  5
3528
330
1F
100
AcDbEntity
  8
P-0000
  6
STRICHPUNKT
 62
     3
100
AcDbLine
 10
2592.771246518
 20
1131.903181044082
 30
0.0
 11
2592.771246518
 21
1131.447367685248
 31
0.0
1001
ACME_LAYERS
1000
1
  0
LINE
  5
3529
330
1F
100
AcDbEntity
  8
P-0000
  6
Continuous
 62
     7
100
AcDbLine
 10
2629.271246518002
 20
983.7844668588656
 30
0.0
 11
2629.271246518002
 21
878.7844668588657
 31
0.0
1001
ACME_LAYERS
1000
1
  0
LINE
  5
352A
330
1F
100
AcDbEntity
  8
P-0000
  6
Continuous
 62
     7
100
AcDbLine
 10
2556.271246517999
 20
983.7844668588656
 30
0.0
 11
2556.271246518001
 21
878.7844668588657
 31
0.0
1001
ACME_LAYERS
1000
1
  0
LINE
  5
352B
330
1F
100
AcDbEntity
  8
P-0000
  6
STRICHPUNKT
 62
     3
100
AcDbLine
 10
2592.771246518001
 20
983.7844668588656
 30
0.0
 11
2592.771246518001
 21
875.7844668588656
 31
0.0
1001
ACME_LAYERS
1000
1
  0
LINE
  5
352C
330
1F
100
AcDbEntity
  8
P-0000
  6
STRICHPUNKT
 62
     3
100
AcDbLine
 10
2592.771246518001
 20
986.7844668588658
 30
0.0
 11
2592.771246518001
 21
983.7844668588656
 31
0.0
1001
ACME_LAYERS
1000
1
  0
HATCH
  5
352F
330
1F
100
AcDbEntity
  8
AM_8
100
AcDbHatch
 10
0.0
 20
0.0
 30
0.0
210
0.0
220
0.0
230
1.0
  2
ANSI37
 70
     0
 71
     0
 91
        2
 92
        1
 93
        6
 72
     1
 10
2555.271246518001
 20
1054.603190289062
 11
2544.347615179831
 21
1054.603190289062
 72
     1
 10
2544.347615179831
 20
1054.603190289062
 11
2544.347615179831
 21
1116.282488172743
 72
     1
 10
2544.347615179831
 20
1116.282488172743
 11
2503.771246518001
 21
1116.282488172743
 72
     1
 10
2503.771246518001
 20
1116.282488172743
 11
2503.771246518001
 21
866.2824881727431
 72
     1
 10
2503.771246518001
 20
866.2824881727431
 11
2555.271246518001
 21
866.2824881727431
 72
     1
 10
2555.271246518001
 20
866.2824881727431
 11
2555.271246518001
 21
1054.603190289062
 97
        0
 92
        1
 93
        6
 72
     1
 10
2646.587146452022
 20
1054.603190289057
 11
2646.587146452022
 21
866.2824881727432
 72
     1
 10
2646.587146452022
 20
866.2824881727432
 11
2681.771246518001
 21
866.2824881727431
 72
     1
 10
2681.771246518001
 20
866.2824881727431
 11
2681.771246518001
 21
1116.282488172743
 72
     1
 10
2681.771246518001
 20
1116.282488172743
 11
2641.274070343698
 21
1116.282488172743
 72
     1
 10
2641.274070343698
 20
1116.282488172743
 11
2641.274070343693
 21
1054.603190289058
 72
     1
 10
2641.274070343693
 20
1054.603190289058
 11
2646.587146452022
 21
1054.603190289057
 97
        0
 75
     0
 76
     1
 52
-90.00000000000001
 41
3.0
 77
     0
 78
     2
 53
315.0
 43
2230.05361689623
 44
1279.251639083689
 45
6.735192090801866
 46
6.735192090801862
 79
     0
 53
44.99999999999999
 43
2230.05361689623
 44
1279.251639083689
 45
-6.735192090801862
 46
6.735192090801866
 79
     0
 98
        2
 10
2653.300142598399
 20
1004.025635573698
 10
2529.782621482582
 20
986.2319167445289
1001
ACAD
1010
0.0
1020
0.0
1030
0.0
  0
LINE
  5
3531
330
1F
100
AcDbEntity
  8
P-0000
  6
Continuous
 62
     7
100
AcDbLine
 10
2555.271246518001
 20
866.2824881727431
 30
0.0
 11
2555.357586392865
 21
1054.603190289062
 31
0.0
1001
ACME_LAYERS
1000
1
  0
LINE
  5
3533
330
1F
100
AcDbEntity
  8
P-0000
  6
Continuous
 62
     7
100
AcDbLine
 10
2503.771246518001
 20
866.2824881727431
 30
0.0
 11
2503.771246518001
 21
1116.282488172743
 31
0.0
1001
ACME_LAYERS
1000
1
  0
LINE
  5
3534
330
1F
100
AcDbEntity
  8
P-0000
  6
STRICHPUNKT
 62
     3
100
AcDbLine
 10
2592.771246518001
 20
1121.548902989465
 30
0.0
 11
2592.771246518001
 21
860.282488172743
 31
0.0
1001
ACME_LAYERS
1000
1
  0
LINE
  5
3535
330
1F
100
AcDbEntity
  8
P-0000
  6
Continuous
 62
     7
100
AcDbLine
 10
2634.381278598861
 20
1116.282488172743
 30
0.0
 11
2682.771246518001
 21
1116.282488172743
 31
0.0
1001
ACME_LAYERS
1000
1
  0
LINE
  5
3536
330
1F
100
AcDbEntity
  8
P-0000
  6
Continuous
 62
     7
100
AcDbLine
 10
2630.271246518001
 20
1110.810542128207
 30
0.0
 11
2630.271246518001
 21
866.2824881727431
 31
0.0
1001
ACME_LAYERS
1000
1
  0
LINE
  5
3538
330
1F
100
AcDbEntity
  8
P-0000
  6
Continuous
 62
     7
100
AcDbLine
 10
2681.771246518001
 20
1116.282488172743
 30
0.0
 11
2681.771246518001
 21
866.2824881727431
 31
0.0
1001
ACME_LAYERS
1000
1
  0
LINE
  5
3539
330
1F
100
AcDbEntity
  8
P-0000
  6
Continuous
 62
     7
100
AcDbLine
 10
2515.771246518001
 20
1116.282488172743
 30
0.0
 11
2544.347615179831
 21
1116.282488172743
 31
0.0
1001
ACME_LAYERS
1000
1
  0
LINE
  5
356E
330
1F
100
AcDbEntity
  8
0
100
AcDbLine
 10
2503.771246518001
 20
866.2824881727431
 30
0.0
 11
2555.271246518001
 21
866.2824881727431
 31
0.0
  0
LINE
  5
356F
330
1F
100
AcDbEntity
  8
0
100
AcDbLine
 10
2646.587146452022
 20
866.2824881727429
 30
0.0
 11
2681.771246518001
 21
866.2824881727431
 31
0.0
  0
LINE
  5
368B
330
1F
100
AcDbEntity
  8
P-0000
  6
Continuous
 62
     7
100
AcDbLine
 10
2555.357586392864
 20
866.2824881727429
 30
0.0
 11
2555.357586392865
 21
1054.603190289062
 31
0.0
1001
ACME_LAYERS
1000
1
  0
LINE
  5
368C
330
1F
100
AcDbEntity
  8
P-0000
  6
Continuous
 62
     7
100
AcDbLine
 10
2641.303319271071
 20
718.9010345684627
 30
0.0
 11
2641.298345974021
 21
705.3944830390703
 31
0.0
1001
ACME_LAYERS
1000
1
  0
LINE
  5
368D
330
1F
100
AcDbEntity
  8
P-0000
  6
Continuous
 62
     7
100
AcDbLine
 10
2630.357586392864
 20
866.2824881727429
 30
0.0
 11
2630.30332001677
 21
718.9050849186757
 31
0.0
1001
ACME_LAYERS
1000
1
  0
LINE
  5
368E
330
1F
100
AcDbEntity
  8
P-0000
  6
Continuous
 62
     7
100
AcDbLine
 10
2634.303319745606
 20
718.9036120640516
 30
0.0
 11
2634.298256440426
 21
705.1526151647887
 31
0.0
1001
ACME_LAYERS
1000
1
  0
LINE
  5
368F
102
{ACAD_REACTORS
330
352F
102
}
330
1F
100
AcDbEntity
  8
P-0000
  6
STRICHLINIE
 62
     2
100
AcDbLine
 10
2633.34111736597
 20
1089.476308046743
 30
0.0
 11
2552.280568157558
 21
1089.156265837767
 31
0.0
  0
LINE
  5
3690
102
{ACAD_REACTORS
330
352F
102
}
330
1F
100
AcDbEntity
  8
P-0000
  6
STRICHLINIE
 62
     2
100
AcDbLine
 10
2633.554013115084
 20
1104.47726550988
 30
0.0
 11
2552.493463906671
 21
1104.157223300901
 31
0.0
  0
LINE
  5
3691
102
{ACAD_REACTORS
330
352F
102
}
330
1F
100
AcDbEntity
  8
P-0000
  6
STRICHLINIE
 62
     2
100
AcDbLine
 10
2552.493463906673
 20
1060.163089983338
 30
0.0
 11
2632.311288160847
 21
1060.163089983338
 31
0.0
  0
LINE
  5
3692
102
{ACAD_REACTORS
330
352F
102
}
330
1F
100
AcDbEntity
  8
P-0000
  6
STRICHLINIE
 62
     2
100
AcDbLine
 10
2552.493463906673
 20
1075.163089983338
 30
0.0
 11
2632.556428026463
 21
1075.163089983338
 31
0.0
  0
LINE
  5
3693
330
1F
100
AcDbEntity
  8
0
100
AcDbLine
 10
2645.303318999909
 20
718.8995617138409
 30
0.0
 11
2630.30332001677
 21
718.9050849186757
 31
0.0
  0
LINE
  5
3694
102
{ACAD_REACTORS
330
352F
102
}
330
1F
100
AcDbEntity
  8
0
100
AcDbLine
 10
2544.347615179831
 20
1116.282488172743
 30
0.0
 11
2544.347615179831
 21
1054.603190289062
 31
0.0
  0
LINE
  5
3695
102
{ACAD_REACTORS
330
352F
102
}
330
1F
100
AcDbEntity
  8
0
100
AcDbLine
 10
2544.306875240615
 20
1054.603190289062
 30
0.0
 11
2555.357586392865
 21
1054.603190289062
 31
0.0
  0
LINE
  5
3696
102
{ACAD_REACTORS
330
352F
102
}
330
1F
100
AcDbEntity
  8
0
100
AcDbLine
 10
2641.274070343698
 20
1116.282488172739
 30
0.0
 11
2641.274070343693
 21
1054.603190289057
 31
0.0
  0
LINE
  5
3697
102
{ACAD_REACTORS
330
352F
102
}
330
1F
100
AcDbEntity
  8
0
100
AcDbLine
 10
2641.274070343693
 20
1054.603190289057
 30
0.0
 11
2646.587146452022
 21
1054.603190289057
 31
0.0
  0
LINE
  5
3698
102
{ACAD_REACTORS
330
352F
102
}
330
1F
100
AcDbEntity
  8
0
100
AcDbLine
 10
2646.587146452022
 20
1054.603190289057
 30
0.0
 11
2646.587146452022
 21
866.2824881727429
 31
0.0
  0
ARC
  5
3699
102
{ACAD_REACTORS
330
352F
102
}
330
1F
100
AcDbEntity
  8
0
100
AcDbCircle
 10
2557.42561909103
 20
1096.585235988942
 30
0.0
 40
9.036655720733232
100
AcDbArc
 50
123.0789600468458
 51
235.2948492161819
  0
ARC
  5
369A
102
{ACAD_REACTORS
330
352F
102
}
330
1F
100
AcDbEntity
  8
0
100
AcDbCircle
 10
2557.532156117023
 20
1067.663089983338
 30
0.0
 40
9.035398120207583
100
AcDbArc
 50
123.8942175224573
 51
236.1057824775426
  0
ARC
  5
369B
102
{ACAD_REACTORS
330
352F
102
}
330
1F
100
AcDbEntity
  8
0
100
AcDbCircle
 10
2628.413427937594
 20
1097.048231980052
 30
0.0
 40
9.034165991077593
100
AcDbArc
 50
303.0554475754533
 51
55.31836168757093
  0
ARC
  5
369C
102
{ACAD_REACTORS
330
352F
102
}
330
1F
100
AcDbEntity
  8
0
100
AcDbCircle
 10
2629.325645106964
 20
1067.713886444263
 30
0.0
 40
8.119642334456827
100
AcDbArc
 50
291.5742237869574
 51
66.55321228548181
  0
LINE
  5
369D
330
1F
100
AcDbEntity
  8
P-0000
  6
Continuous
 62
     7
100
AcDbLine
 10
2645.423373121066
 20
1045.786641573005
 30
0.0
 11
2645.303318999909
 21
718.8995617138409
 31
0.0
1001
ACME_LAYERS
1000
1
  0
ARC
  5
369E
330
1F
100
AcDbEntity
  8
0
100
AcDbCircle
 10
2645.877596010111
 20
1060.223256031001
 30
0.0
 40
7.821351559527556
100
AcDbArc
 50
180.0
 51
234.0830337347477
1001
GENIUS_GENOREF_13
1005
3788
  0
LINE
  5
369F
330
1F
100
AcDbEntity
  8
0
100
AcDbLine
 10
2638.056244450583
 20
1060.223256031001
 30
0.0
 11
2637.444203351544
 21
1067.581207625791
 31
0.0
1001
GENIUS_GENOREF_13
1005
3788
  0
POINT
  5
3788
330
1F
100
AcDbEntity
  8
0
 60
     1
100
AcDbPoint
 10
0.0
 20
0.0
 30
0.0
1001
GENIUS_GENOLIS_13
1002
{
1000
ENT
1005
369F
1005
369E
1002
}
1001
GENIUS_GENODEF_13
1002
{
1000
HIER
1070
     1
1002
}
1002
{
1000
MANEDIT
1070
     0
1002
}
1002
{
1000
NOSEL
1070
     0
1002
}
1002
{
1000
BEHIND
1070
     0
1002
}
1002
{
1000
OTHER
1070
     0
1002
}
1002
{
1000
REACTOR
1002
}
1001
GENIUS_GENOBJ-N-FIL_13
1002
{
1000
OWNER
1000
GEN
1002
}
1001
GENIUS_GENOENT_13
1002
{
1000
MYREF
1005
3788
1002
}
1002
{
1000
GRP
1005
0
1002
}
  0
ARC
  5
378C
330
1F
100
AcDbEntity
  8
0
100
AcDbCircle
 10
2635.423373795483
 20
1045.790314220854
 30
0.0
 40
10.0
100
AcDbArc
 50
359.9789572773908
 51
54.08303373474797
1001
GENIUS_GENOREF_13
1005
3788
1001
GENIUS_GENODEF_13
1002
{
1000
HIER
1070
     0
1002
}
1002
{
1000
MANEDIT
1070
     0
1002
}
1002
{
1000
NOSEL
1070
     0
1002
}
1002
{
1000
BEHIND
1070
     0
1002
}
1002
{
1000
OTHER
1070
     0
1002
}
1002
{
1000
REACTOR
1002
}
1001
GENIUS_GENOBJ-N-FIL_13
1002
{
1000
OWNER
1000
GEN
1002
}
  0
ENDSEC
  0
SECTION
  2
OBJECTS
  0
DICTIONARY
  5
C
330
0
100
AcDbDictionary
281
     1
  3
ACAD_2007HEADERVARS_RT
350
3801
  3
ACAD_COLOR
350
BE
  3
ACAD_GROUP
350
D
  3
ACAD_LAYOUT
350
1A
  3
ACAD_MATERIAL
350
BD
  3
ACAD_MLEADERSTYLE
350
3EF
  3
ACAD_MLINESTYLE
350
17
  3
ACAD_PLOTSETTINGS
350
19
  3
ACAD_PLOTSTYLENAME
350
E
  3
ACAD_SCALELIST
350
3DD
  3
ACAD_TABLESTYLE
350
11A
  3
ACAD_VISUALSTYLE
350
3CC
  3
ACDB_RECOMPOSE_DATA
350
2212
  3
AcDbVariableDictionary
350
94
  3
AcmDictionary
350
5B
  3
AEC_PROPERTY_SET_DEFS
350
942
  3
AMG
350
41
  3
AMGSNAPSETTINGS
350
26B
  3
DWGPROPS
350
3800
  0
DICTIONARY
  5
468
330
2
100
AcDbDictionary
280
     1
281
     1
  3
ACAD_LAYERSTATES
360
469
  0
DICTIONARY
  5
20EC
330
10
100
AcDbDictionary
280
     1
281
     1
  3
ADSK_XREC_LAYER_RECONCILED
360
20ED
  0
DICTIONARY
  5
459
330
458
100
AcDbDictionary
280
     1
281
     1
  3
ADSK_XREC_LAYER_RECONCILED
360
20EE
  0
DICTIONARY
  5
45C
330
45B
100
AcDbDictionary
280
     1
281
     1
  3
ADSK_XREC_LAYER_RECONCILED
360
20EF
  0
DICTIONARY
  5
45F
330
45E
100
AcDbDictionary
280
     1
281
     1
  3
ADSK_XREC_LAYER_RECONCILED
360
20F2
  0
DICTIONARY
  5
461
330
460
100
AcDbDictionary
280
     1
281
     1
  3
ADSK_XREC_LAYER_RECONCILED
360
20F3
  0
DICTIONARY
  5
EAE
330
EAD
100
AcDbDictionary
280
     1
281
     1
  3
ADSK_XREC_LAYER_RECONCILED
360
20F5
  0
DICTIONARY
  5
8F
330
1F
100
AcDbDictionary
280
     1
281
     1
  3
ACAD_SORTENTS
360
1DD7
  0
DICTIONARY
  5
348A
330
347D
100
AcDbDictionary
280
     1
281
     1
  3
ACAD_DIMASSOC
360
348B
  0
DICTIONARY
  5
3801
102
{ACAD_REACTORS
330
C
102
}
330
C
100
AcDbDictionary
281
     1
  3
DIMJOGANG
350
3802
  3
DIMLTEX1
350
3804
  3
DIMLTEX2
350
3805
  3
DIMLTYPE
350
3803
  0
DICTIONARY
  5
BE
102
{ACAD_REACTORS
330
C
102
}
330
C
100
AcDbDictionary
281
     1
  0
DICTIONARY
  5
D
102
{ACAD_REACTORS
330
C
102
}
330
C
100
AcDbDictionary
281
     1
  0
DICTIONARY
  5
1A
102
{ACAD_REACTORS
330
C
102
}
330
C
100
AcDbDictionary
281
     1
  3
Layout1
350
1E
  3
Layout2
350
26
  3
Model
350
22
  0
DICTIONARY
  5
BD
102
{ACAD_REACTORS
330
C
102
}
330
C
100
AcDbDictionary
281
     1
  3
ByBlock
350
3BC
  3
ByLayer
350
3B4
  3
Global
350
3C4
  0
DICTIONARY
  5
3EF
102
{ACAD_REACTORS
330
C
102
}
330
C
100
AcDbDictionary
281
     1
  3
Standard
350
3F0
  0
DICTIONARY
  5
17
102
{ACAD_REACTORS
330
C
102
}
330
C
100
AcDbDictionary
281
     1
  3
Standard
350
18
  0
DICTIONARY
  5
19
102
{ACAD_REACTORS
330
C
102
}
330
C
100
AcDbDictionary
281
     1
  0
ACDBDICTIONARYWDFLT
  5
E
102
{ACAD_REACTORS
330
C
102
}
330
C
100
AcDbDictionary
281
     1
  3
Normal
350
F
100
AcDbDictionaryWithDefault
340
F
  0
DICTIONARY
  5
3DD
102
{ACAD_REACTORS
330
C
102
}
330
C
100
AcDbDictionary
281
     1
  3
A0
350
3DE
  3
A1
350
3DF
  3
A2
350
3E0
  3
A3
350
3E1
  3
A4
350
3E2
  3
A5
350
3E3
  3
A6
350
3E4
  3
A7
350
3E5
  3
A8
350
3E6
  3
A9
350
3E7
  3
B0
350
3E8
  3
B1
350
3E9
  3
B2
350
3EA
  3
B3
350
3EB
  3
B4
350
3EC
  3
B5
350
3ED
  3
B6
350
3EE
  0
DICTIONARY
  5
11A
102
{ACAD_REACTORS
330
C
102
}
330
C
100
AcDbDictionary
281
     1
  3
Standard
350
11B
  0
DICTIONARY
  5
3CC
102
{ACAD_REACTORS
330
C
102
}
330
C
100
AcDbDictionary
281
     1
  3
2dWireframe
350
3D2
  3
3D Hidden
350
3D4
  3
3dWireframe
350
3D3
  3
Basic
350
3D1
  3
Brighten
350
3D8
  3
ColorChange
350
3DC
  3
Conceptual
350
3D5
  3
Dim
350
3D7
  3
Facepattern
350
3DB
  3
Flat
350
3CD
  3
FlatWithEdges
350
3CE
  3
Gouraud
350
3CF
  3
GouraudWithEdges
350
3D0
  3
Linepattern
350
3DA
  3
Realistic
350
3D6
  3
Thicken
350
3D9
  0
XRECORD
  5
2212
102
{ACAD_REACTORS
330
C
102
}
330
C
100
AcDbXrecord
280
     1
 90
        1
330
11B
  0
DICTIONARY
  5
94
102
{ACAD_REACTORS
330
C
102
}
330
C
100
AcDbDictionary
281
     1
  3
CANNOSCALE
350
220E
  3
CMLEADERSTYLE
350
220D
  3
CTABLESTYLE
350
138
  3
DIMASSOC
350
96
  3
INDEXCTL
350
95
  3
SORTENTS
350
220F
  0
DICTIONARY
  5
5B
102
{ACAD_REACTORS
330
C
102
}
330
C
100
AcDbDictionary
281
     1
  3
AcmBOM
350
272
  3
AcmStdDictionary
350
61
  3
AMDTSECTSYM_ARROWCOLOR
350
123
  0
DICTIONARY
  5
942
102
{ACAD_REACTORS
330
C
102
}
330
C
100
AcDbDictionary
281
     1
  0
DICTIONARY
  5
41
102
{ACAD_REACTORS
330
C
102
}
330
C
100
AcDbDictionary
281
     1
  0
DICTIONARY
  5
26B
102
{ACAD_REACTORS
330
C
102
}
330
C
100
AcDbDictionary
281
     1
  0
XRECORD
  5
3800
102
{ACAD_REACTORS
330
C
102
}
330
C
100
AcDbXrecord
280
     1
  1
DWGPROPS COOKIE
  2

  3

  4

  6

  7

  8
jamoeller
  9

300
AmdtFileType=84
301
=
302
=
303
=
304
=
305
=
306
=
307
=
308
=
309
=
 40
0.2772095023148148
 41
2455477.292545521
 42
2455610.332966053
  1

 90
        1
  0
DICTIONARY
  5
469
102
{ACAD_REACTORS
330
468
102
}
330
468
100
AcDbDictionary
281
     1
  0
XRECORD
  5
20ED
102
{ACAD_REACTORS
330
20EC
102
}
330
20EC
100
AcDbXrecord
280
     1
290
     1
  0
XRECORD
  5
20EE
102
{ACAD_REACTORS
330
459
102
}
330
459
100
AcDbXrecord
280
     1
290
     1
  0
XRECORD
  5
20EF
102
{ACAD_REACTORS
330
45C
102
}
330
45C
100
AcDbXrecord
280
     1
290
     1
  0
XRECORD
  5
20F2
102
{ACAD_REACTORS
330
45F
102
}
330
45F
100
AcDbXrecord
280
     1
290
     1
  0
XRECORD
  5
20F3
102
{ACAD_REACTORS
330
461
102
}
330
461
100
AcDbXrecord
280
     1
290
     1
  0
XRECORD
  5
20F5
102
{ACAD_REACTORS
330
EAE
102
}
330
EAE
100
AcDbXrecord
280
     1
290
     1
  0
SORTENTSTABLE
  5
1DD7
102
{ACAD_REACTORS
330
8F
102
}
330
8F
100
AcDbSortentsTable
330
1F
331
3697
  5
3698
331
31E3
  5
31E5
331
321A
  5
321C
331
31A4
  5
31A6
331
3259
  5
325B
331
31AC
  5
31AE
331
3222
  5
3224
331
369F
  5
378C
331
30A2
  5
30A3
331
3118
  5
3119
331
2FD3
  5
2FD3
331
3006
  5
3007
331
3045
  5
3046
331
30E9
  5
30EA
331
30AA
  5
30AB
331
3087
  5
3088
331
2FDB
  5
2FDB
331
3120
  5
3121
331
308F
  5
3090
331
300E
  5
300F
331
30B2
  5
30B3
331
30F1
  5
30F2
331
3058
  5
3059
331
304D
  5
304E
331
315F
  5
3161
331
3167
  5
3169
331
3055
  5
3056
331
3097
  5
3098
331
3016
  5
3017
331
2FE3
  5
2FE3
331
3128
  5
3129
331
30BA
  5
30BB
331
3060
  5
3061
331
3130
  5
3131
331
316F
  5
3171
331
2FAC
  5
2FAC
331
301E
  5
301F
331
3261
  5
3263
331
31B4
  5
31B6
331
31EB
  5
31ED
331
3175
  5
3177
331
322A
  5
322C
331
3232
  5
3234
331
3269
  5
326B
331
317D
  5
317F
331
31BC
  5
31BE
331
31F3
  5
31F5
331
3538
  5
3539
331
31FB
  5
31FD
331
323A
  5
323C
331
3185
  5
3187
331
31C4
  5
31C6
331
3271
  5
3273
331
3279
  5
327B
331
3203
  5
3205
331
3242
  5
3244
331
318D
  5
318F
331
31CC
  5
31CE
331
30C2
  5
30C3
331
3026
  5
3027
331
3070
  5
3071
331
30CA
  5
30CB
331
30F9
  5
30FA
331
3101
  5
3102
331
2FBC
  5
2FBC
331
2FEF
  5
2FEF
331
302E
  5
302F
331
3528
  5
3529
331
99A
  5
99A
331
30D2
  5
30D3
331
2FC4
  5
2FC4
331
3109
  5
310A
331
2FF7
  5
2FF8
331
3036
  5
3037
331
3148
  5
314A
331
30DA
  5
30DB
331
309B
  5
309C
331
3078
  5
3079
331
2FCC
  5
2FCC
331
3111
  5
3112
331
2FFF
  5
3000
331
303E
  5
303F
331
3281
  5
3283
331
31D4
  5
31D6
331
320B
  5
320D
331
3195
  5
3197
331
324A
  5
324C
331
3252
  5
3254
331
319D
  5
319F
331
31DC
  5
31DE
331
3213
  5
3215
331
3690
  5
3691
331
3698
  5
3699
331
321B
  5
321D
331
325A
  5
325C
331
31A5
  5
31A7
331
31E4
  5
31E6
331
3223
  5
3225
331
31AD
  5
31AF
331
30A3
  5
30A4
331
30E2
  5
30E3
331
3158
  5
315A
331
3046
  5
3047
331
3088
  5
3089
331
30AB
  5
30AC
331
30EA
  5
30EB
331
3007
  5
3008
331
2FD4
  5
2FD4
331
3119
  5
311A
331
2FDC
  5
2FDC
331
3121
  5
3122
331
304E
  5
304F
331
3160
  5
3162
331
3059
  5
305A
331
3090
  5
3091
331
30B3
  5
30B4
331
30F2
  5
30F3
331
300F
  5
3010
331
3129
  5
312A
331
3168
  5
316A
331
2FE4
  5
2FE4
331
3017
  5
3018
331
3061
  5
3062
331
3056
  5
3057
331
30BB
  5
30BC
331
1962
  5
1962
331
2FAD
  5
2FAD
331
301F
  5
3020
331
3131
  5
3132
331
3521
  5
3522
331
31EC
  5
31EE
331
322B
  5
322D
331
3176
  5
3178
331
31B5
  5
31B7
331
3262
  5
3264
331
326A
  5
326C
331
3531
  5
3533
331
31BD
  5
31BF
331
31F4
  5
31F6
331
317E
  5
3180
331
3233
  5
3235
331
3272
  5
3274
331
3539
  5
356E
331
31C5
  5
31C7
331
31FC
  5
31FE
331
3186
  5
3188
331
323B
  5
323D
331
3243
  5
3245
331
327A
  5
327C
331
318E
  5
3190
331
31CD
  5
31CF
331
3204
  5
3206
331
30C3
  5
30C4
331
2FB5
  5
2FB5
331
30FA
  5
30FB
331
2FE8
  5
2FE8
331
3027
  5
3028
331
30CB
  5
30CC
331
3071
  5
3072
331
3141
  5
3142
331
2156
  5
2156
331
2FBD
  5
2FBD
331
3102
  5
3103
331
3529
  5
352A
331
2FF0
  5
2FF0
331
30D3
  5
30D4
331
302F
  5
3030
331
3149
  5
314B
331
3037
  5
3038
331
3079
  5
307A
331
309C
  5
309D
331
30DB
  5
30DC
331
2FF8
  5
2FF9
331
2FC5
  5
2FC5
331
310A
  5
310B
331
2FCD
  5
2FCD
331
3112
  5
3113
331
303F
  5
3040
331
26AE
  5
26AE
331
320C
  5
320E
331
324B
  5
324D
331
3196
  5
3198
331
31D5
  5
31D7
331
3282
  5
3287
331
3691
  5
3692
331
3214
  5
3216
331
3253
  5
3255
331
319E
  5
31A0
331
31DD
  5
31DF
331
3699
  5
369A
331
31E5
  5
31E7
331
321C
  5
321E
331
31A6
  5
31A8
331
325B
  5
325D
331
31AE
  5
31B0
331
3224
  5
3226
331
3000
  5
3001
331
30A4
  5
30A5
331
30E3
  5
30E4
331
2FD5
  5
2FD5
331
311A
  5
311B
331
3008
  5
3009
331
3047
  5
3048
331
3159
  5
315B
331
30EB
  5
30EC
331
30AC
  5
30AD
331
3089
  5
308A
331
2FDD
  5
2FDD
331
3122
  5
3123
331
3010
  5
3011
331
30B4
  5
30B5
331
30F3
  5
30F4
331
305A
  5
305B
331
304F
  5
3050
331
3161
  5
3163
331
3169
  5
316B
331
3057
  5
3058
331
3062
  5
3063
331
30BC
  5
30BD
331
3018
  5
3019
331
2FE5
  5
2FE5
331
312A
  5
312B
331
3132
  5
3133
331
2FAE
  5
2FAE
331
322C
  5
322E
331
3263
  5
3265
331
31B6
  5
31B8
331
31ED
  5
31EF
331
3522
  5
3523
331
3177
  5
3179
331
3234
  5
3236
331
326B
  5
326D
331
317F
  5
3181
331
31BE
  5
31C0
331
31F5
  5
31F7
331
31FD
  5
31FF
331
323C
  5
323E
331
3187
  5
3189
331
31C6
  5
31C8
331
3273
  5
3275
331
327B
  5
327D
331
31CE
  5
31D0
331
3205
  5
3207
331
318F
  5
3191
331
3244
  5
3246
331
30C4
  5
30C5
331
3020
  5
3021
331
3028
  5
3029
331
3072
  5
3073
331
30CC
  5
30CD
331
2FE9
  5
2FE9
331
2FB6
  5
2FB6
331
30FB
  5
30FC
331
2FBE
  5
2FBE
331
3103
  5
3104
331
3030
  5
3031
331
3142
  5
3143
331
30D4
  5
30D5
331
352A
  5
352B
331
2FC6
  5
2FC6
331
310B
  5
310C
331
2FF9
  5
2FFA
331
3038
  5
3039
331
314A
  5
314C
331
30DC
  5
30DD
331
309D
  5
309E
331
307A
  5
307B
331
26AF
  5
26AF
331
2FCE
  5
2FCE
331
3113
  5
3114
331
31D6
  5
31D8
331
320D
  5
320F
331
3197
  5
3199
331
324C
  5
324E
331
3254
  5
3256
331
319F
  5
31A1
331
31DE
  5
31E0
331
3215
  5
3217
331
3692
  5
3693
331
369A
  5
369B
331
321D
  5
321F
331
325C
  5
325E
331
31A7
  5
31A9
331
31E6
  5
31E8
331
3225
  5
3227
331
31AF
  5
31B1
331
30A5
  5
30A6
331
30E4
  5
30E5
331
3001
  5
3002
331
3040
  5
3041
331
315A
  5
315C
331
3048
  5
3049
331
308A
  5
308B
331
30AD
  5
30AE
331
30EC
  5
30ED
331
3009
  5
300A
331
2FD6
  5
2FD6
331
311B
  5
311C
331
2FDE
  5
2FDE
331
3123
  5
3124
331
3011
  5
3012
331
3050
  5
3051
331
3162
  5
3164
331
305B
  5
305C
331
3092
  5
3093
331
30B5
  5
30B6
331
30F4
  5
30F5
331
2FE6
  5
2FE6
331
312B
  5
312C
331
316A
  5
316C
331
3019
  5
301A
331
3063
  5
3064
331
30BD
  5
30BE
331
2FA7
  5
2FA7
331
3133
  5
3134
331
2FAF
  5
2FAF
331
995
  5
995
331
3170
  5
3172
331
3523
  5
3528
331
31EE
  5
31F0
331
322D
  5
322F
331
3178
  5
317A
331
31B7
  5
31B9
331
3264
  5
3266
331
326C
  5
326E
331
3533
  5
3534
331
31BF
  5
31C1
331
31F6
  5
31F8
331
3180
  5
3182
331
3235
  5
3237
331
323D
  5
323F
331
3274
  5
3276
331
31C7
  5
31C9
331
31FE
  5
3200
331
3188
  5
318A
331
3245
  5
3247
331
327C
  5
327E
331
31CF
  5
31D1
331
3206
  5
3208
331
3021
  5
3022
331
30C5
  5
30C6
331
306B
  5
306C
331
2FB7
  5
2FB7
331
30FC
  5
30FD
331
3073
  5
3074
331
30CD
  5
30CE
331
2FEA
  5
2FEA
331
3029
  5
302A
331
3143
  5
3144
331
2FBF
  5
2FBF
331
3104
  5
3105
331
352B
  5
352C
331
30D5
  5
30D6
331
3031
  5
3032
331
314B
  5
314D
331
3039
  5
303A
331
307B
  5
307C
331
309E
  5
309F
331
30DD
  5
30DE
331
2FFA
  5
2FFB
331
2FC7
  5
2FC7
331
310C
  5
310D
331
2FCF
  5
2FCF
331
3114
  5
3115
331
3190
  5
3192
331
368B
  5
368C
331
320E
  5
3210
331
324D
  5
324F
331
3198
  5
319A
331
31D7
  5
31D9
331
3294
  5
32A9
331
3693
  5
3694
331
31DF
  5
31E1
331
3216
  5
3218
331
31A0
  5
31A2
331
3255
  5
3257
331
369B
  5
369C
331
31E7
  5
31E9
331
321E
  5
3220
331
31A8
  5
31AA
331
325D
  5
325F
331
3226
  5
3228
331
30E5
  5
30E6
331
3002
  5
3003
331
3041
  5
3042
331
30A6
  5
30A7
331
2FD7
  5
2FD7
331
311C
  5
311D
331
300A
  5
300B
331
3049
  5
304A
331
315B
  5
315D
331
30ED
  5
30EE
331
30AE
  5
30AF
331
308B
  5
308C
331
3163
  5
3165
331
2FDF
  5
2FDF
331
3124
  5
3125
331
3093
  5
3094
331
3012
  5
3013
331
30B6
  5
30B7
331
30F5
  5
30F6
331
305C
  5
305D
331
3051
  5
3052
331
316B
  5
316D
331
2FA8
  5
2FA8
331
3064
  5
3065
331
30BE
  5
30BF
331
301A
  5
301B
331
2FE7
  5
2FE7
331
312C
  5
312D
331
3134
  5
3135
331
996
  5
996
331
31B0
  5
31B2
331
3171
  5
3173
331
322E
  5
3230
331
3265
  5
3267
331
3179
  5
317B
331
31B8
  5
31BA
331
31EF
  5
31F1
331
3534
  5
3535
331
3236
  5
3238
331
326D
  5
326F
331
3181
  5
3183
331
31C0
  5
31C2
331
31F7
  5
31F9
331
31FF
  5
3201
331
323E
  5
3240
331
3189
  5
318B
331
31C8
  5
31CA
331
3275
  5
3277
331
327D
  5
327F
331
3207
  5
3209
331
3246
  5
3248
331
3022
  5
3023
331
306C
  5
306D
331
30C6
  5
30C7
331
2FB0
  5
2FB0
331
30FD
  5
30FE
331
302A
  5
302B
331
3074
  5
3075
331
30CE
  5
30CF
331
2FEB
  5
2FEB
331
2FB8
  5
2FB8
331
2FC0
  5
2FC0
331
3105
  5
3106
331
2FF3
  5
2FF3
331
3032
  5
3033
331
3144
  5
3145
331
30D6
  5
30D7
331
352C
  5
352F
331
2FC8
  5
2FC8
331
310D
  5
310E
331
307C
  5
307D
331
2FFB
  5
2FFC
331
30DE
  5
30DF
331
347D
  5
3515
331
303A
  5
303B
331
314C
  5
314E
331
309F
  5
30A0
331
3115
  5
3116
331
31D0
  5
31D2
331
3191
  5
3193
331
324E
  5
3250
331
31D8
  5
31DA
331
320F
  5
3211
331
368C
  5
368D
331
3199
  5
319B
331
3256
  5
3258
331
3295
  5
3146
331
31A1
  5
31A3
331
31E0
  5
31E2
331
3217
  5
3219
331
3694
  5
3695
331
369C
  5
369D
331
321F
  5
3221
331
31A9
  5
31AB
331
325E
  5
3260
331
3515
  5
3516
331
3227
  5
3229
331
2FD0
  5
2FD0
331
3084
  5
3085
331
30A7
  5
30A8
331
30E6
  5
30E7
331
3003
  5
3004
331
3042
  5
3043
331
315C
  5
315E
331
304A
  5
304B
331
26B9
  5
26B9
331
308C
  5
308D
331
30AF
  5
30B0
331
30EE
  5
30EF
331
300B
  5
300C
331
2FD8
  5
2FD8
331
311D
  5
311E
331
3125
  5
3126
331
3164
  5
3166
331
2FE0
  5
2FE0
331
3013
  5
3014
331
3052
  5
3053
331
30F6
  5
30F7
331
305D
  5
305E
331
30B7
  5
30B8
331
3094
  5
3095
331
C2E
  5
C2E
331
301B
  5
301C
331
312D
  5
312E
331
316C
  5
316E
331
30BF
  5
30C0
331
3135
  5
3136
331
997
  5
997
331
31E8
  5
31EA
331
3172
  5
3174
331
31B1
  5
31B3
331
31F0
  5
31F2
331
322F
  5
3231
331
317A
  5
317C
331
31B9
  5
31BB
331
3266
  5
3268
331
326E
  5
3270
331
3535
  5
3536
331
31C1
  5
31C3
331
31F8
  5
31FA
331
3182
  5
3184
331
3237
  5
3239
331
323F
  5
3241
331
3276
  5
3278
331
318A
  5
318C
331
31C9
  5
31CB
331
3200
  5
3202
331
3247
  5
3249
331
327E
  5
3280
331
2FB1
  5
2FB1
331
3023
  5
3024
331
30C7
  5
30C8
331
2FB9
  5
2FB9
331
30FE
  5
30FF
331
3075
  5
3076
331
30CF
  5
30D0
331
2FEC
  5
2FEC
331
302B
  5
302C
331
3145
  5
3147
331
3033
  5
3034
331
235A
  5
235A
331
3098
  5
3099
331
30D7
  5
30D8
331
2FF4
  5
2FF5
331
2FC1
  5
2FC1
331
3106
  5
3107
331
310E
  5
310F
331
314D
  5
314F
331
303B
  5
303C
331
30DF
  5
30E0
331
2FFC
  5
2FFD
331
2FC9
  5
2FC9
331
3116
  5
3117
331
3192
  5
3194
331
31D1
  5
31D3
331
3208
  5
320A
331
368D
  5
368E
331
3210
  5
3212
331
324F
  5
3251
331
319A
  5
319C
331
31D9
  5
31DB
331
3286
  5
3294
331
3695
  5
3696
331
31E1
  5
31E3
331
3218
  5
321A
331
31A2
  5
31A4
331
3257
  5
3259
331
325F
  5
3261
331
3220
  5
3222
331
369D
  5
369E
331
31AA
  5
31AC
331
3516
  5
3517
331
30A0
  5
30A1
331
2FD1
  5
2FD1
331
3004
  5
3005
331
3043
  5
3044
331
30E7
  5
30E8
331
30A8
  5
30A9
331
3085
  5
3086
331
26B2
  5
26B2
331
2FD9
  5
2FD9
331
311E
  5
311F
331
308D
  5
308E
331
30EF
  5
30F0
331
300C
  5
300D
331
304B
  5
304C
331
315D
  5
315F
331
30B0
  5
30B1
331
3165
  5
3167
331
950
  5
950
331
2FE1
  5
2FE1
331
3126
  5
3127
331
3095
  5
3096
331
3014
  5
3015
331
30B8
  5
30B9
331
30F7
  5
30F8
331
305E
  5
305F
331
3053
  5
3054
331
316D
  5
316F
331
2FAA
  5
2FAA
331
301C
  5
301D
331
312E
  5
312F
331
3136
  5
3137
331
31B2
  5
31B4
331
31E9
  5
31EB
331
3173
  5
3175
331
3228
  5
322A
331
3230
  5
3232
331
3267
  5
3269
331
317B
  5
317D
331
31BA
  5
31BC
331
31F1
  5
31F3
331
3536
  5
3538
331
31F9
  5
31FB
331
3238
  5
323A
331
3183
  5
3185
331
31C2
  5
31C4
331
326F
  5
3271
331
3201
  5
3203
331
3240
  5
3242
331
318B
  5
318D
331
31CA
  5
31CC
331
3277
  5
3279
331
327F
  5
3281
331
356E
  5
356F
331
378C
  5
36A0
331
30C0
  5
30C1
331
3024
  5
3025
331
306E
  5
306F
331
30C8
  5
30C9
331
2FB2
  5
2FB2
331
30FF
  5
3100
331
313E
  5
313F
331
2FBA
  5
2FBA
331
302C
  5
302D
331
998
  5
998
331
3076
  5
3077
331
30D0
  5
30D1
331
2FED
  5
2FED
331
2FC2
  5
2FC2
331
3107
  5
3108
331
30D8
  5
30D9
331
2FF5
  5
2FF6
331
3034
  5
3035
331
3146
  5
3148
331
3099
  5
309A
331
B50
  5
B50
331
2FCA
  5
2FCA
331
310F
  5
3110
331
2FFD
  5
2FFE
331
303C
  5
303D
331
314E
  5
3150
331
3156
  5
3158
331
3117
  5
3118
331
31D2
  5
31D4
331
3209
  5
320B
331
3193
  5
3195
331
3248
  5
324A
331
3250
  5
3252
331
3287
  5
3295
331
319B
  5
319D
331
31DA
  5
31DC
331
3211
  5
3213
331
368E
  5
368F
331
3696
  5
3697
331
3258
  5
325A
331
31A3
  5
31A5
331
31E2
  5
31E4
331
3219
  5
321B
331
3221
  5
3223
331
369E
  5
369F
331
31AB
  5
31AD
331
3517
  5
3521
331
30A1
  5
30A2
331
30E0
  5
30E1
331
3044
  5
3045
331
30A9
  5
30AA
331
30E8
  5
30E9
331
2FD2
  5
2FD2
331
311F
  5
3120
331
315E
  5
3160
331
304C
  5
304D
331
308E
  5
308F
331
30B1
  5
30B2
331
30F0
  5
30F1
331
300D
  5
300E
331
2FDA
  5
2FDA
331
2FE2
  5
2FE2
331
3127
  5
3128
331
3015
  5
3016
331
3054
  5
3055
331
3166
  5
3168
331
305F
  5
3060
331
30B9
  5
30BA
331
3096
  5
3097
331
2FAB
  5
2FAB
331
301D
  5
301E
331
312F
  5
3130
331
316E
  5
3170
331
3137
  5
3138
331
31EA
  5
31EC
331
3229
  5
322B
331
3174
  5
3176
331
31B3
  5
31B5
331
3260
  5
3262
331
3268
  5
326A
331
31F2
  5
31F4
331
3231
  5
3233
331
317C
  5
317E
331
31BB
  5
31BD
331
3270
  5
3272
331
31C3
  5
31C5
331
31FA
  5
31FC
331
3184
  5
3186
331
3239
  5
323B
331
3241
  5
3243
331
3278
  5
327A
331
318C
  5
318E
331
31CB
  5
31CD
331
3202
  5
3204
331
356F
  5
368B
331
30C1
  5
30C2
331
2FB3
  5
2FB3
331
30F8
  5
30F9
331
3025
  5
3026
331
30C9
  5
30CA
331
306F
  5
3070
331
999
  5
999
331
2FBB
  5
2FBB
331
3100
  5
3101
331
3077
  5
3078
331
30D1
  5
30D2
331
2FEE
  5
2FEE
331
302D
  5
302E
331
313F
  5
3140
331
3147
  5
3149
331
3035
  5
3036
331
352F
  5
3531
331
309A
  5
309B
331
30D9
  5
30DA
331
2FF6
  5
2FF7
331
2FC3
  5
2FC3
331
3108
  5
3109
331
2FCB
  5
2FCB
331
3110
  5
3111
331
303D
  5
303E
331
314F
  5
3151
331
2FFE
  5
2FFF
331
3157
  5
3159
331
320A
  5
320C
331
3249
  5
324B
331
3194
  5
3196
331
31D3
  5
31D5
331
3280
  5
3282
331
368F
  5
3690
331
3212
  5
3214
331
3251
  5
3253
331
319C
  5
319E
331
31DB
  5
31DD
  0
DIMASSOC
  5
348B
102
{ACAD_REACTORS
330
348A
102
}
330
348A
100
AcDbDimAssoc
330
347D
 90
        3
 70
     0
 71
     0
  1
AcDbOsnapPointRef
 72
     2
331
997
 73
     0
 91
        0
 40
0.0
 10
0.0
 20
0.0
 30
0.0
 75
     0
  1
AcDbOsnapPointRef
 72
    13
331
2FB0
 73
     0
 91
        0
 40
0.0
 10
0.0
 20
0.0
 30
2.000000000000000E+50
 75
     0
  0
XRECORD
  5
3802
102
{ACAD_REACTORS
330
3801
102
}
330
3801
100
AcDbXrecord
280
     1
 40
1.570796326794896
  0
XRECORD
  5
3804
102
{ACAD_REACTORS
330
3801
102
}
330
3801
100
AcDbXrecord
280
     1
340
14
  0
XRECORD
  5
3805
102
{ACAD_REACTORS
330
3801
102
}
330
3801
100
AcDbXrecord
280
     1
340
14
  0
XRECORD
  5
3803
102
{ACAD_REACTORS
330
3801
102
}
330
3801
100
AcDbXrecord
280
     1
340
14
  0
LAYOUT
  5
1E
102
{ACAD_XDICTIONARY
360
3806
102
}
102
{ACAD_REACTORS
330
1A
102
}
330
1A
100
AcDbPlotSettings
  1

  2

  4

  6

 40
0.0
 41
0.0
 42
0.0
 43
0.0
 44
0.0
 45
0.0
 46
0.0
 47
0.0
 48
0.0
 49
0.0
140
0.0
141
0.0
142
1.0
143
1.0
 70
   688
 72
     0
 73
     0
 74
     5
  7

 75
    16
147
1.0
148
0.0
149
0.0
100
AcDbLayout
  1
Layout1
 70
     1
 71
     1
 10
0.0
 20
0.0
 11
420.0
 21
297.0
 12
0.0
 22
0.0
 32
0.0
 14
1.000000000000000E+20
 24
1.000000000000000E+20
 34
1.000000000000000E+20
 15
-1.000000000000000E+20
 25
-1.000000000000000E+20
 35
-1.000000000000000E+20
146
0.0
 13
0.0
 23
0.0
 33
0.0
 16
1.0
 26
0.0
 36
0.0
 17
0.0
 27
1.0
 37
0.0
 76
     0
330
1B
  0
LAYOUT
  5
26
102
{ACAD_XDICTIONARY
360
380A
102
}
102
{ACAD_REACTORS
330
1A
102
}
330
1A
100
AcDbPlotSettings
  1

  2

  4

  6

 40
0.0
 41
0.0
 42
0.0
 43
0.0
 44
0.0
 45
0.0
 46
0.0
 47
0.0
 48
0.0
 49
0.0
140
0.0
141
0.0
142
1.0
143
1.0
 70
   688
 72
     0
 73
     0
 74
     5
  7

 75
    16
147
1.0
148
0.0
149
0.0
100
AcDbLayout
  1
Layout2
 70
     1
 71
     2
 10
0.0
 20
0.0
 11
12.0
 21
9.0
 12
0.0
 22
0.0
 32
0.0
 14
0.0
 24
0.0
 34
0.0
 15
0.0
 25
0.0
 35
0.0
146
0.0
 13
0.0
 23
0.0
 33
0.0
 16
1.0
 26
0.0
 36
0.0
 17
0.0
 27
1.0
 37
0.0
 76
     0
330
23
  0
LAYOUT
  5
22
102
{ACAD_XDICTIONARY
360
3808
102
}
102
{ACAD_REACTORS
330
1A
102
}
330
1A
100
AcDbPlotSettings
  1

  2

  4

  6

 40
0.0
 41
0.0
 42
0.0
 43
0.0
 44
0.0
 45
0.0
 46
0.0
 47
0.0
 48
0.0
 49
0.0
140
0.0
141
0.0
142
1.0
143
1.0
 70
  1712
 72
     0
 73
     0
 74
     0
  7

 75
     0
147
1.0
148
0.0
149
0.0
100
AcDbLayout
  1
Model
 70
     1
 71
     0
 10
0.0
 20
0.0
 11
12.0
 21
9.0
 12
0.0
 22
0.0
 32
0.0
 14
0.0
 24
0.0
 34
0.0
 15
0.0
 25
0.0
 35
0.0
146
0.0
 13
0.0
 23
0.0
 33
0.0
 16
1.0
 26
0.0
 36
0.0
 17
0.0
 27
1.0
 37
0.0
 76
     0
330
1F
331
3B2
  0
MATERIAL
  5
3BC
102
{ACAD_XDICTIONARY
360
3BD
102
}
102
{ACAD_REACTORS
330
BD
102
}
330
BD
100
AcDbMaterial
  1
ByBlock
 72
     0
 43
0.0008202099737533
 43
0.0
 43
0.0
 43
0.0
 43
0.0
 43
0.0008202099737533
 43
0.0
 43
0.0
 43
0.0
 43
0.0
 43
1.0
 43
0.0
 43
0.0
 43
0.0
 43
0.0
 43
1.0
 77
     0
 47
0.0008202099737533
 47
0.0
 47
0.0
 47
0.0
 47
0.0
 47
0.0008202099737533
 47
0.0
 47
0.0
 47
0.0
 47
0.0
 47
1.0
 47
0.0
 47
0.0
 47
0.0
 47
0.0
 47
1.0
171
     0
 49
0.0008202099737533
 49
0.0
 49
0.0
 49
0.0
 49
0.0
 49
0.0008202099737533
 49
0.0
 49
0.0
 49
0.0
 49
0.0
 49
1.0
 49
0.0
 49
0.0
 49
0.0
 49
0.0
 49
1.0
175
     0
142
0.0008202099737533
142
0.0
142
0.0
142
0.0
142
0.0
142
0.0008202099737533
142
0.0
142
0.0
142
0.0
142
0.0
142
1.0
142
0.0
142
0.0
142
0.0
142
0.0
142
1.0
179
     0
144
0.0008202099737533
144
0.0
144
0.0
144
0.0
144
0.0
144
0.0008202099737533
144
0.0
144
0.0
144
0.0
144
0.0
144
1.0
144
0.0
144
0.0
144
0.0
144
0.0
144
1.0
147
0.0008202099737533
147
0.0
147
0.0
147
0.0
147
0.0
147
0.0008202099737533
147
0.0
147
0.0
147
0.0
147
0.0
147
1.0
147
0.0
147
0.0
147
0.0
147
0.0
147
1.0
  0
MATERIAL
  5
3B4
102
{ACAD_XDICTIONARY
360
3B5
102
}
102
{ACAD_REACTORS
330
BD
102
}
330
BD
100
AcDbMaterial
  1
ByLayer
 72
     0
 43
0.0008202099737533
 43
0.0
 43
0.0
 43
0.0
 43
0.0
 43
0.0008202099737533
 43
0.0
 43
0.0
 43
0.0
 43
0.0
 43
1.0
 43
0.0
 43
0.0
 43
0.0
 43
0.0
 43
1.0
 77
     0
 47
0.0008202099737533
 47
0.0
 47
0.0
 47
0.0
 47
0.0
 47
0.0008202099737533
 47
0.0
 47
0.0
 47
0.0
 47
0.0
 47
1.0
 47
0.0
 47
0.0
 47
0.0
 47
0.0
 47
1.0
171
     0
 49
0.0008202099737533
 49
0.0
 49
0.0
 49
0.0
 49
0.0
 49
0.0008202099737533
 49
0.0
 49
0.0
 49
0.0
 49
0.0
 49
1.0
 49
0.0
 49
0.0
 49
0.0
 49
0.0
 49
1.0
175
     0
142
0.0008202099737533
142
0.0
142
0.0
142
0.0
142
0.0
142
0.0008202099737533
142
0.0
142
0.0
142
0.0
142
0.0
142
1.0
142
0.0
142
0.0
142
0.0
142
0.0
142
1.0
179
     0
144
0.0008202099737533
144
0.0
144
0.0
144
0.0
144
0.0
144
0.0008202099737533
144
0.0
144
0.0
144
0.0
144
0.0
144
1.0
144
0.0
144
0.0
144
0.0
144
0.0
144
1.0
147
0.0008202099737533
147
0.0
147
0.0
147
0.0
147
0.0
147
0.0008202099737533
147
0.0
147
0.0
147
0.0
147
0.0
147
1.0
147
0.0
147
0.0
147
0.0
147
0.0
147
1.0
  0
MATERIAL
  5
3C4
102
{ACAD_XDICTIONARY
360
3C5
102
}
102
{ACAD_REACTORS
330
BD
102
}
330
BD
100
AcDbMaterial
  1
Global
 72
     0
 43
0.0008202099737533
 43
0.0
 43
0.0
 43
0.0
 43
0.0
 43
0.0008202099737533
 43
0.0
 43
0.0
 43
0.0
 43
0.0
 43
1.0
 43
0.0
 43
0.0
 43
0.0
 43
0.0
 43
1.0
 77
     0
 47
0.0008202099737533
 47
0.0
 47
0.0
 47
0.0
 47
0.0
 47
0.0008202099737533
 47
0.0
 47
0.0
 47
0.0
 47
0.0
 47
1.0
 47
0.0
 47
0.0
 47
0.0
 47
0.0
 47
1.0
171
     0
 49
0.0008202099737533
 49
0.0
 49
0.0
 49
0.0
 49
0.0
 49
0.0008202099737533
 49
0.0
 49
0.0
 49
0.0
 49
0.0
 49
1.0
 49
0.0
 49
0.0
 49
0.0
 49
0.0
 49
1.0
175
     0
142
0.0008202099737533
142
0.0
142
0.0
142
0.0
142
0.0
142
0.0008202099737533
142
0.0
142
0.0
142
0.0
142
0.0
142
1.0
142
0.0
142
0.0
142
0.0
142
0.0
142
1.0
179
     0
144
0.0008202099737533
144
0.0
144
0.0
144
0.0
144
0.0
144
0.0008202099737533
144
0.0
144
0.0
144
0.0
144
0.0
144
1.0
144
0.0
144
0.0
144
0.0
144
0.0
144
1.0
147
0.0008202099737533
147
0.0
147
0.0
147
0.0
147
0.0
147
0.0008202099737533
147
0.0
147
0.0
147
0.0
147
0.0
147
1.0
147
0.0
147
0.0
147
0.0
147
0.0
147
1.0
  0
MLEADERSTYLE
  5
3F0
102
{ACAD_REACTORS
330
3EF
102
}
330
3EF
100
AcDbMLeaderStyle
170
     2
171
     1
172
     0
 90
        2
 40
0.0
 41
0.0
173
     1
 91
-1056964608
340
14
 92
       -2
290
     1
 42
2.0
291
     1
 43
0.36
  3
Standard
 44
4.0
300

342
11
174
     1
178
     6
175
     1
176
     0
 93
-1056964608
 45
4.0
292
     0
297
     0
 46
4.0
 94
-1056964608
 47
1.0
 49
1.0
140
1.0
293
     1
141
0.0
294
     1
177
     0
142
1.0
295
     0
296
     0
143
0.125
1001
ACAD_MLEADERVER
1070
     2
  0
MLINESTYLE
  5
18
102
{ACAD_REACTORS
330
17
102
}
330
17
100
AcDbMlineStyle
  2
STANDARD
 70
     0
  3

 62
   256
 51
90.0
 52
90.0
 71
     2
 49
0.5
 62
   256
  6
BYLAYER
 49
-0.5
 62
   256
  6
BYLAYER
  0
ACDBPLACEHOLDER
  5
F
102
{ACAD_REACTORS
330
E
102
}
330
E
  0
SCALE
  5
3DE
102
{ACAD_REACTORS
330
3DD
102
}
330
3DD
100
AcDbScale
 70
     0
300
1:1
140
1.0
141
1.0
290
     1
  0
SCALE
  5
3DF
102
{ACAD_REACTORS
330
3DD
102
}
330
3DD
100
AcDbScale
 70
     0
300
1:2
140
1.0
141
2.0
290
     0
  0
SCALE
  5
3E0
102
{ACAD_REACTORS
330
3DD
102
}
330
3DD
100
AcDbScale
 70
     0
300
1:4
140
1.0
141
4.0
290
     0
  0
SCALE
  5
3E1
102
{ACAD_REACTORS
330
3DD
102
}
330
3DD
100
AcDbScale
 70
     0
300
1:5
140
1.0
141
5.0
290
     0
  0
SCALE
  5
3E2
102
{ACAD_REACTORS
330
3DD
102
}
330
3DD
100
AcDbScale
 70
     0
300
1:8
140
1.0
141
8.0
290
     0
  0
SCALE
  5
3E3
102
{ACAD_REACTORS
330
3DD
102
}
330
3DD
100
AcDbScale
 70
     0
300
1:10
140
1.0
141
10.0
290
     0
  0
SCALE
  5
3E4
102
{ACAD_REACTORS
330
3DD
102
}
330
3DD
100
AcDbScale
 70
     0
300
1:16
140
1.0
141
16.0
290
     0
  0
SCALE
  5
3E5
102
{ACAD_REACTORS
330
3DD
102
}
330
3DD
100
AcDbScale
 70
     0
300
1:20
140
1.0
141
20.0
290
     0
  0
SCALE
  5
3E6
102
{ACAD_REACTORS
330
3DD
102
}
330
3DD
100
AcDbScale
 70
     0
300
1:30
140
1.0
141
30.0
290
     0
  0
SCALE
  5
3E7
102
{ACAD_REACTORS
330
3DD
102
}
330
3DD
100
AcDbScale
 70
     0
300
1:40
140
1.0
141
40.0
290
     0
  0
SCALE
  5
3E8
102
{ACAD_REACTORS
330
3DD
102
}
330
3DD
100
AcDbScale
 70
     0
300
1:50
140
1.0
141
50.0
290
     0
  0
SCALE
  5
3E9
102
{ACAD_REACTORS
330
3DD
102
}
330
3DD
100
AcDbScale
 70
     0
300
1:100
140
1.0
141
100.0
290
     0
  0
SCALE
  5
3EA
102
{ACAD_REACTORS
330
3DD
102
}
330
3DD
100
AcDbScale
 70
     0
300
2:1
140
2.0
141
1.0
290
     0
  0
SCALE
  5
3EB
102
{ACAD_REACTORS
330
3DD
102
}
330
3DD
100
AcDbScale
 70
     0
300
4:1
140
4.0
141
1.0
290
     0
  0
SCALE
  5
3EC
102
{ACAD_REACTORS
330
3DD
102
}
330
3DD
100
AcDbScale
 70
     0
300
8:1
140
8.0
141
1.0
290
     0
  0
SCALE
  5
3ED
102
{ACAD_REACTORS
330
3DD
102
}
330
3DD
100
AcDbScale
 70
     0
300
10:1
140
10.0
141
1.0
290
     0
  0
SCALE
  5
3EE
102
{ACAD_REACTORS
330
3DD
102
}
330
3DD
100
AcDbScale
 70
     0
300
100:1
140
100.0
141
1.0
290
     0
  0
TABLESTYLE
  5
11B
102
{ACAD_XDICTIONARY
360
2210
102
}
102
{ACAD_REACTORS
330
11A
102
}
330
11A
100
AcDbTableStyle
  3
Standard
 70
     0
 71
     0
 40
1.5
 41
1.5
280
     0
281
     0
  7
STANDARD
140
4.5
170
     2
 62
     0
 63
     7
283
     0
274
    -2
284
     1
 64
     0
275
    -2
285
     1
 65
     0
276
    -2
286
     1
 66
     0
277
    -2
287
     1
 67
     0
278
    -2
288
     1
 68
     0
279
    -2
289
     1
 69
     0
  7
STANDARD
140
6.0
170
     5
 62
     0
 63
     7
283
     0
274
    -2
284
     1
 64
     0
275
    -2
285
     1
 65
     0
276
    -2
286
     1
 66
     0
277
    -2
287
     1
 67
     0
278
    -2
288
     1
 68
     0
279
    -2
289
     1
 69
     0
  7
STANDARD
140
4.5
170
     5
 62
     0
 63
     7
283
     0
274
    -2
284
     1
 64
     0
275
    -2
285
     1
 65
     0
276
    -2
286
     1
 66
     0
277
    -2
287
     1
 67
     0
278
    -2
288
     1
 68
     0
279
    -2
289
     1
 69
     0
  0
VISUALSTYLE
  5
3D2
102
{ACAD_REACTORS
330
3CC
102
}
330
3CC
100
AcDbVisualStyle
  2
2dWireframe
 70
     4
 71
     0
 72
     2
 73
     0
 90
        0
 40
-0.6
 41
-30.0
 62
     5
 63
     7
 74
     1
 91
        4
 64
     7
 65
   257
 75
     1
175
     1
 42
1.0
 92
        0
 66
   257
 43
1.0
 76
     1
 77
     6
 78
     2
 67
     7
 79
     5
170
     0
171
     0
290
     0
174
     0
 93
        1
 44
0.0
173
     0
291
     0
 45
0.0
1001
ACAD
1000
AcDbSavedByObjectVersion
1070
     0
1000
AcDbSavedByObjectVersion
1070
     0
1000
AcDbSavedByObjectVersion
1070
     0
1000
AcDbSavedByObjectVersion
1070
     0
1000
AcDbSavedByObjectVersion
1070
     0
1000
AcDbSavedByObjectVersion
1070
     0
1000
AcDbSavedByObjectVersion
1070
     0
1000
AcDbSavedByObjectVersion
1070
     0
1000
AcDbSavedByObjectVersion
1070
     0
1000
AcDbSavedByObjectVersion
1070
     0
1000
AcDbSavedByObjectVersion
1070
     0
  0
VISUALSTYLE
  5
3D4
102
{ACAD_REACTORS
330
3CC
102
}
330
3CC
100
AcDbVisualStyle
  2
3D Hidden
 70
     6
 71
     1
 72
     2
 73
     2
 90
        0
 40
-0.6
 41
-30.0
 62
     5
 63
     7
 74
     2
 91
        2
 64
     7
 65
   257
 75
     2
175
     1
 42
40.0
 92
        0
 66
   257
 43
1.0
 76
     1
 77
     6
 78
     2
 67
     7
 79
     3
170
     0
171
     0
290
     0
174
     0
 93
        1
 44
0.0
173
     0
291
     0
 45
0.0
1001
ACAD
1000
AcDbSavedByObjectVersion
1070
     0
1000
AcDbSavedByObjectVersion
1070
     0
1000
AcDbSavedByObjectVersion
1070
     0
1000
AcDbSavedByObjectVersion
1070
     0
1000
AcDbSavedByObjectVersion
1070
     0
1000
AcDbSavedByObjectVersion
1070
     0
1000
AcDbSavedByObjectVersion
1070
     0
1000
AcDbSavedByObjectVersion
1070
     0
1000
AcDbSavedByObjectVersion
1070
     0
1000
AcDbSavedByObjectVersion
1070
     0
1000
AcDbSavedByObjectVersion
1070
     0
  0
VISUALSTYLE
  5
3D3
102
{ACAD_REACTORS
330
3CC
102
}
330
3CC
100
AcDbVisualStyle
  2
3dWireframe
 70
     5
 71
     0
 72
     2
 73
     0
 90
        0
 40
-0.6
 41
-30.0
 62
     5
 63
     7
 74
     1
 91
        4
 64
     7
 65
   257
 75
     1
175
     1
 42
1.0
 92
        0
 66
   257
 43
1.0
 76
     1
 77
     6
 78
     2
 67
     7
 79
     5
170
     0
171
     0
290
     0
174
     0
 93
        1
 44
0.0
173
     0
291
     0
 45
0.0
1001
ACAD
1000
AcDbSavedByObjectVersion
1070
     0
1000
AcDbSavedByObjectVersion
1070
     0
1000
AcDbSavedByObjectVersion
1070
     0
1000
AcDbSavedByObjectVersion
1070
     0
1000
AcDbSavedByObjectVersion
1070
     0
1000
AcDbSavedByObjectVersion
1070
     0
1000
AcDbSavedByObjectVersion
1070
     0
1000
AcDbSavedByObjectVersion
1070
     0
1000
AcDbSavedByObjectVersion
1070
     0
1000
AcDbSavedByObjectVersion
1070
     0
1000
AcDbSavedByObjectVersion
1070
     0
  0
VISUALSTYLE
  5
3D1
102
{ACAD_REACTORS
330
3CC
102
}
330
3CC
100
AcDbVisualStyle
  2
Basic
 70
     7
 71
     1
 72
     0
 73
     1
 90
        0
 40
-0.6
 41
-30.0
 62
     5
 63
     7
 74
     0
 91
        4
 64
     7
 65
   257
 75
     1
175
     1
 42
1.0
 92
        8
 66
     7
 43
1.0
 76
     1
 77
     6
 78
     2
 67
     7
 79
     5
170
     0
171
     0
290
     0
174
     0
 93
        1
 44
0.0
173
     0
291
     1
 45
0.0
1001
ACAD
1000
AcDbSavedByObjectVersion
1070
     0
1000
AcDbSavedByObjectVersion
1070
     0
1000
AcDbSavedByObjectVersion
1070
     0
1000
AcDbSavedByObjectVersion
1070
     0
1000
AcDbSavedByObjectVersion
1070
     0
1000
AcDbSavedByObjectVersion
1070
     0
1000
AcDbSavedByObjectVersion
1070
     0
1000
AcDbSavedByObjectVersion
1070
     0
1000
AcDbSavedByObjectVersion
1070
     0
1000
AcDbSavedByObjectVersion
1070
     0
1000
AcDbSavedByObjectVersion
1070
     0
  0
VISUALSTYLE
  5
3D8
102
{ACAD_REACTORS
330
3CC
102
}
330
3CC
100
AcDbVisualStyle
  2
Brighten
 70
    12
 71
     2
 72
     2
 73
     0
 90
        0
 40
-0.6
 41
-30.0
 62
     5
 63
     7
 74
     1
 91
        4
 64
     7
 65
   257
 75
     1
175
     1
 42
1.0
 92
        8
 66
     7
 43
1.0
 76
     1
 77
     6
 78
     2
 67
     7
 79
     5
170
     0
171
     0
290
     0
174
     0
 93
        1
 44
50.0
173
     0
291
     1
 45
0.0
1001
ACAD
1000
AcDbSavedByObjectVersion
1070
     0
1000
AcDbSavedByObjectVersion
1070
     0
1000
AcDbSavedByObjectVersion
1070
     0
1000
AcDbSavedByObjectVersion
1070
     0
1000
AcDbSavedByObjectVersion
1070
     0
1000
AcDbSavedByObjectVersion
1070
     0
1000
AcDbSavedByObjectVersion
1070
     0
1000
AcDbSavedByObjectVersion
1070
     0
1000
AcDbSavedByObjectVersion
1070
     0
1000
AcDbSavedByObjectVersion
1070
     0
1000
AcDbSavedByObjectVersion
1070
     0
  0
VISUALSTYLE
  5
3DC
102
{ACAD_REACTORS
330
3CC
102
}
330
3CC
100
AcDbVisualStyle
  2
ColorChange
 70
    16
 71
     2
 72
     2
 73
     3
 90
        0
 40
-0.6
 41
-30.0
 62
     5
 63
     8
 74
     1
 91
        4
 64
     7
 65
   257
 75
     1
175
     1
 42
1.0
 92
        8
 66
     8
 43
1.0
 76
     1
 77
     6
 78
     2
 67
     7
 79
     5
170
     0
171
     0
290
     0
174
     0
 93
        1
 44
0.0
173
     0
291
     1
 45
0.0
1001
ACAD
1000
AcDbSavedByObjectVersion
1070
     0
1000
AcDbSavedByObjectVersion
1070
     0
1000
AcDbSavedByObjectVersion
1070
     0
1000
AcDbSavedByObjectVersion
1070
     0
1000
AcDbSavedByObjectVersion
1070
     0
1000
AcDbSavedByObjectVersion
1070
     0
1000
AcDbSavedByObjectVersion
1070
     0
1000
AcDbSavedByObjectVersion
1070
     0
1000
AcDbSavedByObjectVersion
1070
     0
1000
AcDbSavedByObjectVersion
1070
     0
1000
AcDbSavedByObjectVersion
1070
     0
  0
VISUALSTYLE
  5
3D5
102
{ACAD_REACTORS
330
3CC
102
}
330
3CC
100
AcDbVisualStyle
  2
Conceptual
 70
     9
 71
     3
 72
     2
 73
     0
 90
        0
 40
-0.6
 41
-30.0
 62
     5
 63
     7
 74
     2
 91
        2
 64
     7
 65
   257
 75
     1
175
     1
 42
40.0
 92
        8
 66
     7
 43
1.0
 76
     1
 77
     6
 78
     2
 67
     7
 79
     3
170
     0
171
     0
290
     0
174
     0
 93
        1
 44
0.0
173
     0
291
     0
 45
0.0
1001
ACAD
1000
AcDbSavedByObjectVersion
1070
     0
1000
AcDbSavedByObjectVersion
1070
     0
1000
AcDbSavedByObjectVersion
1070
     0
1000
AcDbSavedByObjectVersion
1070
     0
1000
AcDbSavedByObjectVersion
1070
     0
1000
AcDbSavedByObjectVersion
1070
     0
1000
AcDbSavedByObjectVersion
1070
     0
1000
AcDbSavedByObjectVersion
1070
     0
1000
AcDbSavedByObjectVersion
1070
     0
1000
AcDbSavedByObjectVersion
1070
     0
1000
AcDbSavedByObjectVersion
1070
     0
  0
VISUALSTYLE
  5
3D7
102
{ACAD_REACTORS
330
3CC
102
}
330
3CC
100
AcDbVisualStyle
  2
Dim
 70
    11
 71
     2
 72
     2
 73
     0
 90
        0
 40
-0.6
 41
-30.0
 62
     5
 63
     7
 74
     1
 91
        4
 64
     7
 65
   257
 75
     1
175
     1
 42
1.0
 92
        8
 66
     7
 43
1.0
 76
     1
 77
     6
 78
     2
 67
     7
 79
     5
170
     0
171
     0
290
     0
174
     0
 93
        1
 44
-50.0
173
     0
291
     1
 45
0.0
1001
ACAD
1000
AcDbSavedByObjectVersion
1070
     0
1000
AcDbSavedByObjectVersion
1070
     0
1000
AcDbSavedByObjectVersion
1070
     0
1000
AcDbSavedByObjectVersion
1070
     0
1000
AcDbSavedByObjectVersion
1070
     0
1000
AcDbSavedByObjectVersion
1070
     0
1000
AcDbSavedByObjectVersion
1070
     0
1000
AcDbSavedByObjectVersion
1070
     0
1000
AcDbSavedByObjectVersion
1070
     0
1000
AcDbSavedByObjectVersion
1070
     0
1000
AcDbSavedByObjectVersion
1070
     0
  0
VISUALSTYLE
  5
3DB
102
{ACAD_REACTORS
330
3CC
102
}
330
3CC
100
AcDbVisualStyle
  2
Facepattern
 70
    15
 71
     2
 72
     2
 73
     0
 90
        0
 40
-0.6
 41
-30.0
 62
     5
 63
     7
 74
     1
 91
        4
 64
     7
 65
   257
 75
     1
175
     1
 42
1.0
 92
        8
 66
     7
 43
1.0
 76
     1
 77
     6
 78
     2
 67
     7
 79
     5
170
     0
171
     0
290
     0
174
     0
 93
        1
 44
0.0
173
     0
291
     1
 45
0.0
1001
ACAD
1000
AcDbSavedByObjectVersion
1070
     0
1000
AcDbSavedByObjectVersion
1070
     0
1000
AcDbSavedByObjectVersion
1070
     0
1000
AcDbSavedByObjectVersion
1070
     0
1000
AcDbSavedByObjectVersion
1070
     0
1000
AcDbSavedByObjectVersion
1070
     0
1000
AcDbSavedByObjectVersion
1070
     0
1000
AcDbSavedByObjectVersion
1070
     0
1000
AcDbSavedByObjectVersion
1070
     0
1000
AcDbSavedByObjectVersion
1070
     0
1000
AcDbSavedByObjectVersion
1070
     0
  0
VISUALSTYLE
  5
3CD
102
{ACAD_REACTORS
330
3CC
102
}
330
3CC
100
AcDbVisualStyle
  2
Flat
 70
     0
 71
     2
 72
     1
 73
     1
 90
        2
 40
-0.6
 41
30.0
 62
     5
 63
     7
 74
     0
 91
        4
 64
     7
 65
   257
 75
     1
175
     1
 42
1.0
 92
        8
 66
     7
 43
1.0
 76
     1
 77
     6
 78
     2
 67
     7
 79
     5
170
     0
171
     0
290
     0
174
     0
 93
       13
 44
0.0
173
     0
291
     1
 45
0.0
1001
ACAD
1000
AcDbSavedByObjectVersion
1070
     0
1000
AcDbSavedByObjectVersion
1070
     0
1000
AcDbSavedByObjectVersion
1070
     0
1000
AcDbSavedByObjectVersion
1070
     0
1000
AcDbSavedByObjectVersion
1070
     0
1000
AcDbSavedByObjectVersion
1070
     0
1000
AcDbSavedByObjectVersion
1070
     0
1000
AcDbSavedByObjectVersion
1070
     0
1000
AcDbSavedByObjectVersion
1070
     0
1000
AcDbSavedByObjectVersion
1070
     0
1000
AcDbSavedByObjectVersion
1070
     0
  0
VISUALSTYLE
  5
3CE
102
{ACAD_REACTORS
330
3CC
102
}
330
3CC
100
AcDbVisualStyle
  2
FlatWithEdges
 70
     1
 71
     2
 72
     1
 73
     1
 90
        2
 40
-0.6
 41
30.0
 62
     5
 63
     7
 74
     1
 91
        4
 64
     7
 65
   257
 75
     1
175
     1
 42
1.0
 92
        0
 66
   257
 43
1.0
 76
     1
 77
     6
 78
     2
 67
     7
 79
     5
170
     0
171
     0
290
     0
174
     0
 93
       13
 44
0.0
173
     0
291
     1
 45
0.0
1001
ACAD
1000
AcDbSavedByObjectVersion
1070
     0
1000
AcDbSavedByObjectVersion
1070
     0
1000
AcDbSavedByObjectVersion
1070
     0
1000
AcDbSavedByObjectVersion
1070
     0
1000
AcDbSavedByObjectVersion
1070
     0
1000
AcDbSavedByObjectVersion
1070
     0
1000
AcDbSavedByObjectVersion
1070
     0
1000
AcDbSavedByObjectVersion
1070
     0
1000
AcDbSavedByObjectVersion
1070
     0
1000
AcDbSavedByObjectVersion
1070
     0
1000
AcDbSavedByObjectVersion
1070
     0
  0
VISUALSTYLE
  5
3CF
102
{ACAD_REACTORS
330
3CC
102
}
330
3CC
100
AcDbVisualStyle
  2
Gouraud
 70
     2
 71
     2
 72
     2
 73
     1
 90
        2
 40
-0.6
 41
30.0
 62
     5
 63
     7
 74
     0
 91
        4
 64
     7
 65
   257
 75
     1
175
     1
 42
1.0
 92
        0
 66
     7
 43
1.0
 76
     1
 77
     6
 78
     2
 67
     7
 79
     5
170
     0
171
     0
290
     0
174
     0
 93
       13
 44
0.0
173
     0
291
     1
 45
0.0
1001
ACAD
1000
AcDbSavedByObjectVersion
1070
     0
1000
AcDbSavedByObjectVersion
1070
     0
1000
AcDbSavedByObjectVersion
1070
     0
1000
AcDbSavedByObjectVersion
1070
     0
1000
AcDbSavedByObjectVersion
1070
     0
1000
AcDbSavedByObjectVersion
1070
     0
1000
AcDbSavedByObjectVersion
1070
     0
1000
AcDbSavedByObjectVersion
1070
     0
1000
AcDbSavedByObjectVersion
1070
     0
1000
AcDbSavedByObjectVersion
1070
     0
1000
AcDbSavedByObjectVersion
1070
     0
  0
VISUALSTYLE
  5
3D0
102
{ACAD_REACTORS
330
3CC
102
}
330
3CC
100
AcDbVisualStyle
  2
GouraudWithEdges
 70
     3
 71
     2
 72
     2
 73
     1
 90
        2
 40
-0.6
 41
30.0
 62
     5
 63
     7
 74
     1
 91
        4
 64
     7
 65
   257
 75
     1
175
     1
 42
1.0
 92
        0
 66
   257
 43
1.0
 76
     1
 77
     6
 78
     2
 67
     7
 79
     5
170
     0
171
     0
290
     0
174
     0
 93
       13
 44
0.0
173
     0
291
     1
 45
0.0
1001
ACAD
1000
AcDbSavedByObjectVersion
1070
     0
1000
AcDbSavedByObjectVersion
1070
     0
1000
AcDbSavedByObjectVersion
1070
     0
1000
AcDbSavedByObjectVersion
1070
     0
1000
AcDbSavedByObjectVersion
1070
     0
1000
AcDbSavedByObjectVersion
1070
     0
1000
AcDbSavedByObjectVersion
1070
     0
1000
AcDbSavedByObjectVersion
1070
     0
1000
AcDbSavedByObjectVersion
1070
     0
1000
AcDbSavedByObjectVersion
1070
     0
1000
AcDbSavedByObjectVersion
1070
     0
  0
VISUALSTYLE
  5
3DA
102
{ACAD_REACTORS
330
3CC
102
}
330
3CC
100
AcDbVisualStyle
  2
Linepattern
 70
    14
 71
     2
 72
     2
 73
     0
 90
        0
 40
-0.6
 41
-30.0
 62
     5
 63
     7
 74
     1
 91
        4
 64
     7
 65
   257
 75
     7
175
     7
 42
1.0
 92
        8
 66
     7
 43
1.0
 76
     1
 77
     6
 78
     2
 67
     7
 79
     5
170
     0
171
     0
290
     0
174
     0
 93
        1
 44
0.0
173
     0
291
     1
 45
0.0
1001
ACAD
1000
AcDbSavedByObjectVersion
1070
     0
1000
AcDbSavedByObjectVersion
1070
     0
1000
AcDbSavedByObjectVersion
1070
     0
1000
AcDbSavedByObjectVersion
1070
     0
1000
AcDbSavedByObjectVersion
1070
     0
1000
AcDbSavedByObjectVersion
1070
     0
1000
AcDbSavedByObjectVersion
1070
     0
1000
AcDbSavedByObjectVersion
1070
     0
1000
AcDbSavedByObjectVersion
1070
     0
1000
AcDbSavedByObjectVersion
1070
     0
1000
AcDbSavedByObjectVersion
1070
     0
  0
VISUALSTYLE
  5
3D6
102
{ACAD_REACTORS
330
3CC
102
}
330
3CC
100
AcDbVisualStyle
  2
Realistic
 70
     8
 71
     2
 72
     2
 73
     0
 90
        0
 40
-0.6
 41
-30.0
 62
     5
 63
     7
 74
     1
 91
        0
 64
     7
 65
   257
 75
     1
175
     1
 42
1.0
 92
        8
 66
     8
 43
1.0
 76
     1
 77
     6
 78
     2
 67
     7
 79
     5
170
     0
171
     0
290
     0
174
     0
 93
       13
 44
0.0
173
     0
291
     0
 45
0.0
1001
ACAD
1000
AcDbSavedByObjectVersion
1070
     0
1000
AcDbSavedByObjectVersion
1070
     0
1000
AcDbSavedByObjectVersion
1070
     0
1000
AcDbSavedByObjectVersion
1070
     0
1000
AcDbSavedByObjectVersion
1070
     0
1000
AcDbSavedByObjectVersion
1070
     0
1000
AcDbSavedByObjectVersion
1070
     0
1000
AcDbSavedByObjectVersion
1070
     0
1000
AcDbSavedByObjectVersion
1070
     0
1000
AcDbSavedByObjectVersion
1070
     0
1000
AcDbSavedByObjectVersion
1070
     0
  0
VISUALSTYLE
  5
3D9
102
{ACAD_REACTORS
330
3CC
102
}
330
3CC
100
AcDbVisualStyle
  2
Thicken
 70
    13
 71
     2
 72
     2
 73
     0
 90
        0
 40
-0.6
 41
-30.0
 62
     5
 63
     7
 74
     1
 91
        4
 64
     7
 65
   257
 75
     1
175
     1
 42
1.0
 92
       12
 66
     7
 43
1.0
 76
     1
 77
     6
 78
     2
 67
     7
 79
     5
170
     0
171
     0
290
     0
174
     0
 93
        1
 44
0.0
173
     0
291
     1
 45
0.0
1001
ACAD
1000
AcDbSavedByObjectVersion
1070
     0
1000
AcDbSavedByObjectVersion
1070
     0
1000
AcDbSavedByObjectVersion
1070
     0
1000
AcDbSavedByObjectVersion
1070
     0
1000
AcDbSavedByObjectVersion
1070
     0
1000
AcDbSavedByObjectVersion
1070
     0
1000
AcDbSavedByObjectVersion
1070
     0
1000
AcDbSavedByObjectVersion
1070
     0
1000
AcDbSavedByObjectVersion
1070
     0
1000
AcDbSavedByObjectVersion
1070
     0
1000
AcDbSavedByObjectVersion
1070
     0
  0
DICTIONARYVAR
  5
220E
102
{ACAD_REACTORS
330
94
102
}
330
94
100
DictionaryVariables
280
     0
  1
1:1
  0
DICTIONARYVAR
  5
220D
102
{ACAD_REACTORS
330
94
102
}
330
94
100
DictionaryVariables
280
     0
  1
STANDARD
  0
DICTIONARYVAR
  5
138
102
{ACAD_REACTORS
330
94
102
}
330
94
100
DictionaryVariables
280
     0
  1
STANDARD
  0
DICTIONARYVAR
  5
96
102
{ACAD_REACTORS
330
94
102
}
330
94
100
DictionaryVariables
280
     0
  1
2
  0
DICTIONARYVAR
  5
95
102
{ACAD_REACTORS
330
94
102
}
330
94
100
DictionaryVariables
280
     0
  1
0
  0
DICTIONARYVAR
  5
220F
102
{ACAD_REACTORS
330
94
102
}
330
94
100
DictionaryVariables
280
     0
  1
127
  0
DICTIONARY
  5
272
102
{ACAD_REACTORS
330
5B
102
}
330
5B
100
AcDbDictionary
281
     1
  0
DICTIONARY
  5
61
102
{ACAD_REACTORS
330
5B
102
}
330
5B
100
AcDbDictionary
281
     1
  0
XRECORD
  5
123
102
{ACAD_REACTORS
330
5B
102
}
330
5B
100
AcDbXrecord
280
     1
 90
-1023410169
  0
DICTIONARY
  5
3806
330
1E
100
AcDbDictionary
280
     1
281
     1
  3
ACAD_XREC_ROUNDTRIP
360
3807
  0
DICTIONARY
  5
380A
330
26
100
AcDbDictionary
280
     1
281
     1
  3
ACAD_XREC_ROUNDTRIP
360
380B
  0
DICTIONARY
  5
3808
330
22
100
AcDbDictionary
280
     1
281
     1
  3
ACAD_XREC_ROUNDTRIP
360
3809
  0
DICTIONARY
  5
3BD
330
3BC
100
AcDbDictionary
280
     1
281
     1
  3
ACAD_XREC_ROUNDTRIP
360
221E
  3
BUMPTILE
360
3BF
  3
DIFFUSETILE
360
3BE
  3
OPACITYTILE
360
3C2
  3
REFLECTIONTILE
360
3C1
  3
REFRACTIONTILE
360
3C3
  3
SPECULARTILE
360
3C0
  0
DICTIONARY
  5
3B5
330
3B4
100
AcDbDictionary
280
     1
281
     1
  3
ACAD_XREC_ROUNDTRIP
360
221D
  3
BUMPTILE
360
3B7
  3
DIFFUSETILE
360
3B6
  3
OPACITYTILE
360
3BA
  3
REFLECTIONTILE
360
3B9
  3
REFRACTIONTILE
360
3BB
  3
SPECULARTILE
360
3B8
  0
DICTIONARY
  5
3C5
330
3C4
100
AcDbDictionary
280
     1
281
     1
  3
ACAD_XREC_ROUNDTRIP
360
221F
  3
BUMPTILE
360
3C7
  3
DIFFUSETILE
360
3C6
  3
OPACITYTILE
360
3CA
  3
REFLECTIONTILE
360
3C9
  3
REFRACTIONTILE
360
3CB
  3
SPECULARTILE
360
3C8
  0
DICTIONARY
  5
2210
330
11B
100
AcDbDictionary
280
     1
281
     1
  3
ACAD_ROUNDTRIP_2008_TABLESTYLE_CELLSTYLEMAP
360
37FF
  3
ACAD_XREC_ROUNDTRIP
360
380C
  0
XRECORD
  5
3807
102
{ACAD_REACTORS
330
3806
102
}
330
3806
100
AcDbXrecord
280
     1
102
SHADEPLOT
 70
     0
102
SHADEPLOTRESLEVEL
 70
     2
102
SHADEPLOTCUSTOMDPI
 70
   300
  0
XRECORD
  5
380B
102
{ACAD_REACTORS
330
380A
102
}
330
380A
100
AcDbXrecord
280
     1
102
SHADEPLOT
 70
     0
102
SHADEPLOTRESLEVEL
 70
     2
102
SHADEPLOTCUSTOMDPI
 70
   300
  0
XRECORD
  5
3809
102
{ACAD_REACTORS
330
3808
102
}
330
3808
100
AcDbXrecord
280
     1
102
SHADEPLOT
 70
     0
102
SHADEPLOTRESLEVEL
 70
     2
102
SHADEPLOTCUSTOMDPI
 70
   300
  0
XRECORD
  5
221E
102
{ACAD_REACTORS
330
3BD
102
}
330
3BD
100
AcDbXrecord
280
     1
102
MATERIAL
148
0.0
149
0.0
149
0.0
 93
        0
 94
      127
282
     0
 72
     0
 77
     0
171
     0
175
     0
179
     0
273
     0
  0
XRECORD
  5
3BF
102
{ACAD_REACTORS
330
3BD
102
}
330
3BD
100
AcDbXrecord
280
     1
270
     1
271
     1
  0
XRECORD
  5
3BE
102
{ACAD_REACTORS
330
3BD
102
}
330
3BD
100
AcDbXrecord
280
     1
270
     1
271
     1
  0
XRECORD
  5
3C2
102
{ACAD_REACTORS
330
3BD
102
}
330
3BD
100
AcDbXrecord
280
     1
270
     1
271
     1
  0
XRECORD
  5
3C1
102
{ACAD_REACTORS
330
3BD
102
}
330
3BD
100
AcDbXrecord
280
     1
270
     1
271
     1
  0
XRECORD
  5
3C3
102
{ACAD_REACTORS
330
3BD
102
}
330
3BD
100
AcDbXrecord
280
     1
270
     1
271
     1
  0
XRECORD
  5
3C0
102
{ACAD_REACTORS
330
3BD
102
}
330
3BD
100
AcDbXrecord
280
     1
270
     1
271
     1
  0
XRECORD
  5
221D
102
{ACAD_REACTORS
330
3B5
102
}
330
3B5
100
AcDbXrecord
280
     1
102
MATERIAL
148
0.0
149
0.0
149
0.0
 93
        0
 94
      127
282
     0
 72
     0
 77
     0
171
     0
175
     0
179
     0
273
     0
  0
XRECORD
  5
3B7
102
{ACAD_REACTORS
330
3B5
102
}
330
3B5
100
AcDbXrecord
280
     1
270
     1
271
     1
  0
XRECORD
  5
3B6
102
{ACAD_REACTORS
330
3B5
102
}
330
3B5
100
AcDbXrecord
280
     1
270
     1
271
     1
  0
XRECORD
  5
3BA
102
{ACAD_REACTORS
330
3B5
102
}
330
3B5
100
AcDbXrecord
280
     1
270
     1
271
     1
  0
XRECORD
  5
3B9
102
{ACAD_REACTORS
330
3B5
102
}
330
3B5
100
AcDbXrecord
280
     1
270
     1
271
     1
  0
XRECORD
  5
3BB
102
{ACAD_REACTORS
330
3B5
102
}
330
3B5
100
AcDbXrecord
280
     1
270
     1
271
     1
  0
XRECORD
  5
3B8
102
{ACAD_REACTORS
330
3B5
102
}
330
3B5
100
AcDbXrecord
280
     1
270
     1
271
     1
  0
XRECORD
  5
221F
102
{ACAD_REACTORS
330
3C5
102
}
330
3C5
100
AcDbXrecord
280
     1
102
MATERIAL
148
0.0
149
0.0
149
0.0
 93
        0
 94
      127
282
     0
 72
     0
 77
     0
171
     0
175
     0
179
     0
273
     0
  0
XRECORD
  5
3C7
102
{ACAD_REACTORS
330
3C5
102
}
330
3C5
100
AcDbXrecord
280
     1
270
     1
271
     1
  0
XRECORD
  5
3C6
102
{ACAD_REACTORS
330
3C5
102
}
330
3C5
100
AcDbXrecord
280
     1
270
     1
271
     1
  0
XRECORD
  5
3CA
102
{ACAD_REACTORS
330
3C5
102
}
330
3C5
100
AcDbXrecord
280
     1
270
     1
271
     1
  0
XRECORD
  5
3C9
102
{ACAD_REACTORS
330
3C5
102
}
330
3C5
100
AcDbXrecord
280
     1
270
     1
271
     1
  0
XRECORD
  5
3CB
102
{ACAD_REACTORS
330
3C5
102
}
330
3C5
100
AcDbXrecord
280
     1
270
     1
271
     1
  0
XRECORD
  5
3C8
102
{ACAD_REACTORS
330
3C5
102
}
330
3C5
100
AcDbXrecord
280
     1
270
     1
271
     1
  0
CELLSTYLEMAP
  5
37FF
102
{ACAD_REACTORS
330
2210
102
}
330
2210
100
AcDbCellStyleMap
 90
        3
300
CELLSTYLE
  1
TABLEFORMAT_BEGIN
 90
        5
170
     1
 91
        0
 92
    32768
 62
   257
 93
        1
300
CONTENTFORMAT
  1
CONTENTFORMAT_BEGIN
 90
        0
 91
        0
 92
        4
 93
        0
300

 40
0.0
140
1.0
 94
        5
 62
     0
340
11
144
6.0
309
CONTENTFORMAT_END
171
     1
301
MARGIN
  1
CELLMARGIN_BEGIN
 40
1.5
 40
1.5
 40
1.5
 40
1.5
 40
0.18
 40
0.18
309
CELLMARGIN_END
 94
        6
 95
        1
302
GRIDFORMAT
  1
GRIDFORMAT_BEGIN
 90
        0
 91
        1
 62
     0
 92
       -2
340
0
 93
        0
 40
0.045
309
GRIDFORMAT_END
 95
        2
302
GRIDFORMAT
  1
GRIDFORMAT_BEGIN
 90
        0
 91
        1
 62
     0
 92
       -2
340
0
 93
        0
 40
0.045
309
GRIDFORMAT_END
 95
        4
302
GRIDFORMAT
  1
GRIDFORMAT_BEGIN
 90
        0
 91
        1
 62
     0
 92
       -2
340
0
 93
        0
 40
0.045
309
GRIDFORMAT_END
 95
        8
302
GRIDFORMAT
  1
GRIDFORMAT_BEGIN
 90
        0
 91
        1
 62
     0
 92
       -2
340
0
 93
        0
 40
0.045
309
GRIDFORMAT_END
 95
       16
302
GRIDFORMAT
  1
GRIDFORMAT_BEGIN
 90
        0
 91
        1
 62
     0
 92
       -2
340
0
 93
        0
 40
0.045
309
GRIDFORMAT_END
 95
       32
302
GRIDFORMAT
  1
GRIDFORMAT_BEGIN
 90
        0
 91
        1
 62
     0
 92
       -2
340
0
 93
        0
 40
0.045
309
GRIDFORMAT_END
309
TABLEFORMAT_END
  1
CELLSTYLE_BEGIN
 90
        1
 91
        1
300
_TITLE
309
CELLSTYLE_END
300
CELLSTYLE
  1
TABLEFORMAT_BEGIN
 90
        5
170
     1
 91
        0
 92
        0
 62
   257
 93
        1
300
CONTENTFORMAT
  1
CONTENTFORMAT_BEGIN
 90
        0
 91
        0
 92
        4
 93
        0
300

 40
0.0
140
1.0
 94
        5
 62
     0
340
11
144
4.5
309
CONTENTFORMAT_END
171
     1
301
MARGIN
  1
CELLMARGIN_BEGIN
 40
1.5
 40
1.5
 40
1.5
 40
1.5
 40
0.18
 40
0.18
309
CELLMARGIN_END
 94
        6
 95
        1
302
GRIDFORMAT
  1
GRIDFORMAT_BEGIN
 90
        0
 91
        1
 62
     0
 92
       -2
340
0
 93
        0
 40
0.045
309
GRIDFORMAT_END
 95
        2
302
GRIDFORMAT
  1
GRIDFORMAT_BEGIN
 90
        0
 91
        1
 62
     0
 92
       -2
340
0
 93
        0
 40
0.045
309
GRIDFORMAT_END
 95
        4
302
GRIDFORMAT
  1
GRIDFORMAT_BEGIN
 90
        0
 91
        1
 62
     0
 92
       -2
340
0
 93
        0
 40
0.045
309
GRIDFORMAT_END
 95
        8
302
GRIDFORMAT
  1
GRIDFORMAT_BEGIN
 90
        0
 91
        1
 62
     0
 92
       -2
340
0
 93
        0
 40
0.045
309
GRIDFORMAT_END
 95
       16
302
GRIDFORMAT
  1
GRIDFORMAT_BEGIN
 90
        0
 91
        1
 62
     0
 92
       -2
340
0
 93
        0
 40
0.045
309
GRIDFORMAT_END
 95
       32
302
GRIDFORMAT
  1
GRIDFORMAT_BEGIN
 90
        0
 91
        1
 62
     0
 92
       -2
340
0
 93
        0
 40
0.045
309
GRIDFORMAT_END
309
TABLEFORMAT_END
  1
CELLSTYLE_BEGIN
 90
        2
 91
        1
300
_HEADER
309
CELLSTYLE_END
300
CELLSTYLE
  1
TABLEFORMAT_BEGIN
 90
        5
170
     1
 91
        0
 92
        0
 62
   257
 93
        1
300
CONTENTFORMAT
  1
CONTENTFORMAT_BEGIN
 90
        0
 91
        0
 92
        4
 93
        0
300

 40
0.0
140
1.0
 94
        2
 62
     0
340
11
144
4.5
309
CONTENTFORMAT_END
171
     1
301
MARGIN
  1
CELLMARGIN_BEGIN
 40
1.5
 40
1.5
 40
1.5
 40
1.5
 40
0.18
 40
0.18
309
CELLMARGIN_END
 94
        6
 95
        1
302
GRIDFORMAT
  1
GRIDFORMAT_BEGIN
 90
        0
 91
        1
 62
     0
 92
       -2
340
0
 93
        0
 40
0.045
309
GRIDFORMAT_END
 95
        2
302
GRIDFORMAT
  1
GRIDFORMAT_BEGIN
 90
        0
 91
        1
 62
     0
 92
       -2
340
0
 93
        0
 40
0.045
309
GRIDFORMAT_END
 95
        4
302
GRIDFORMAT
  1
GRIDFORMAT_BEGIN
 90
        0
 91
        1
 62
     0
 92
       -2
340
0
 93
        0
 40
0.045
309
GRIDFORMAT_END
 95
        8
302
GRIDFORMAT
  1
GRIDFORMAT_BEGIN
 90
        0
 91
        1
 62
     0
 92
       -2
340
0
 93
        0
 40
0.045
309
GRIDFORMAT_END
 95
       16
302
GRIDFORMAT
  1
GRIDFORMAT_BEGIN
 90
        0
 91
        1
 62
     0
 92
       -2
340
0
 93
        0
 40
0.045
309
GRIDFORMAT_END
 95
       32
302
GRIDFORMAT
  1
GRIDFORMAT_BEGIN
 90
        0
 91
        1
 62
     0
 92
       -2
340
0
 93
        0
 40
0.045
309
GRIDFORMAT_END
309
TABLEFORMAT_END
  1
CELLSTYLE_BEGIN
 90
        3
 91
        2
300
_DATA
309
CELLSTYLE_END
  0
XRECORD
  5
380C
102
{ACAD_REACTORS
330
2210
102
}
330
2210
100
AcDbXrecord
280
     1
102
ACAD_ROUNDTRIP_PRE2007_TABLESTYLE
 90
        4
 91
        0
  1

 92
        4
 93
        0
  2

 94
        4
 95
        0
  3

  0
ENDSEC
  0
EOF
