  0
SECTION
  2
HEADER
  9
$ACADVER
  1
AC1015
  9
$ACADMAINTVER
 70
    20
  9
$DWGCODEPAGE
  3
ANSI_1252
  9
$INSBASE
 10
0.0
 20
0.0
 30
0.0
  9
$EXTMIN
 10
2411.922706626902
 20
741.603465272025
 30
-0.0000000000000058
  9
$EXTMAX
 10
2842.917559689217
 20
1243.737950827265
 30
0.0000000000000104
  9
$LIMMIN
 10
0.0
 20
0.0
  9
$LIMMAX
 10
420.0
 20
297.0
  9
$ORTHOMODE
 70
     0
  9
$REGENMODE
 70
     1
  9
$FILLMODE
 70
     1
  9
$QTEXTMODE
 70
     0
  9
$MIRRTEXT
 70
     1
  9
$LTSCALE
 40
1.0
  9
$ATTMODE
 70
     1
  9
$TEXTSIZE
 40
2.5
  9
$TRACEWID
 40
1.0
  9
$TEXTSTYLE
  7
STANDARD
  9
$CLAYER
  8
0
  9
$CELTYPE
  6
ByLayer
  9
$CECOLOR
 62
   256
  9
$CELTSCALE
 40
1.0
  9
$DISPSILH
 70
     0
  9
$DIMSCALE
 40
1.0
  9
$DIMASZ
 40
3.5
  9
$DIMEXO
 40
1.0
  9
$DIMDLI
 40
10.0
  9
$DIMRND
 40
0.0
  9
$DIMDLE
 40
0.0
  9
$DIMEXE
 40
1.0
  9
$DIMTP
 40
0.1
  9
$DIMTM
 40
0.1
  9
$DIMTXT
 40
3.5
  9
$DIMCEN
 40
0.0
  9
$DIMTSZ
 40
0.0
  9
$DIMTOL
 70
     0
  9
$DIMLIM
 70
     0
  9
$DIMTIH
 70
     0
  9
$DIMTOH
 70
     0
  9
$DIMSE1
 70
     0
  9
$DIMSE2
 70
     0
  9
$DIMTAD
 70
     1
  9
$DIMZIN
 70
     8
  9
$DIMBLK
  1

  9
$DIMASO
 70
     1
  9
$DIMSHO
 70
     1
  9
$DIMPOST
  1

  9
$DIMAPOST
  1
"
  9
$DIMALT
 70
     0
  9
$DIMALTD
 70
     2
  9
$DIMALTF
 40
0.0393701
  9
$DIMLFAC
 40
1.0
  9
$DIMTOFL
 70
     1
  9
$DIMTVP
 40
0.0
  9
$DIMTIX
 70
     0
  9
$DIMSOXD
 70
     0
  9
$DIMSAH
 70
     0
  9
$DIMBLK1
  1

  9
$DIMBLK2
  1

  9
$DIMSTYLE
  2
AM_DIN
  9
$DIMCLRD
 70
   256
  9
$DIMCLRE
 70
   256
  9
$DIMCLRT
 70
     2
  9
$DIMTFAC
 40
0.71
  9
$DIMGAP
 40
1.5
  9
$DIMJUST
 70
     0
  9
$DIMSD1
 70
     0
  9
$DIMSD2
 70
     0
  9
$DIMTOLJ
 70
     0
  9
$DIMTZIN
 70
     8
  9
$DIMALTZ
 70
     0
  9
$DIMALTTZ
 70
     0
  9
$DIMUPT
 70
     0
  9
$DIMDEC
 70
     2
  9
$DIMTDEC
 70
     3
  9
$DIMALTU
 70
     2
  9
$DIMALTTD
 70
     4
  9
$DIMTXSTY
  7
STANDARD
  9
$DIMAUNIT
 70
     0
  9
$DIMADEC
 70
     0
  9
$DIMALTRND
 40
0.0
  9
$DIMAZIN
 70
     2
  9
$DIMDSEP
 70
    46
  9
$DIMATFIT
 70
     3
  9
$DIMFRAC
 70
     0
  9
$DIMLDRBLK
  1

  9
$DIMLUNIT
 70
     2
  9
$DIMLWD
 70
    -1
  9
$DIMLWE
 70
    -1
  9
$DIMTMOVE
 70
     0
  9
$LUNITS
 70
     2
  9
$LUPREC
 70
     2
  9
$SKETCHINC
 40
1.0
  9
$FILLETRAD
 40
0.0
  9
$AUNITS
 70
     0
  9
$AUPREC
 70
     0
  9
$MENU
  1
.
  9
$ELEVATION
 40
0.0
  9
$PELEVATION
 40
0.0
  9
$THICKNESS
 40
0.0
  9
$LIMCHECK
 70
     0
  9
$CHAMFERA
 40
2.5
  9
$CHAMFERB
 40
2.5
  9
$CHAMFERC
 40
20.0
  9
$CHAMFERD
 40
0.0
  9
$SKPOLY
 70
     0
  9
$TDCREATE
 40
2455477.292545521
  9
$TDUCREATE
 40
2455477.250878854
  9
$TDUPDATE
 40
2455610.329040243
  9
$TDUUPDATE
 40
2455610.287373577
  9
$TDINDWG
 40
0.2559373148
  9
$TDUSRTIMER
 40
0.2559362384
  9
$USRTIMER
 70
     1
  9
$ANGBASE
 50
0.0
  9
$ANGDIR
 70
     0
  9
$PDMODE
 70
     0
  9
$PDSIZE
 40
0.0
  9
$PLINEWID
 40
0.0
  9
$SPLFRAME
 70
     0
  9
$SPLINETYPE
 70
     6
  9
$SPLINESEGS
 70
     8
  9
$HANDSEED
  5
384B
  9
$SURFTAB1
 70
     6
  9
$SURFTAB2
 70
     6
  9
$SURFTYPE
 70
     6
  9
$SURFU
 70
     6
  9
$SURFV
 70
     6
  9
$UCSBASE
  2

  9
$UCSNAME
  2

  9
$UCSORG
 10
0.0
 20
0.0
 30
0.0
  9
$UCSXDIR
 10
1.0
 20
0.0
 30
0.0
  9
$UCSYDIR
 10
0.0
 20
1.0
 30
0.0
  9
$UCSORTHOREF
  2

  9
$UCSORTHOVIEW
 70
     0
  9
$UCSORGTOP
 10
0.0
 20
0.0
 30
0.0
  9
$UCSORGBOTTOM
 10
0.0
 20
0.0
 30
0.0
  9
$UCSORGLEFT
 10
0.0
 20
0.0
 30
0.0
  9
$UCSORGRIGHT
 10
0.0
 20
0.0
 30
0.0
  9
$UCSORGFRONT
 10
0.0
 20
0.0
 30
0.0
  9
$UCSORGBACK
 10
0.0
 20
0.0
 30
0.0
  9
$PUCSBASE
  2

  9
$PUCSNAME
  2

  9
$PUCSORG
 10
0.0
 20
0.0
 30
0.0
  9
$PUCSXDIR
 10
1.0
 20
0.0
 30
0.0
  9
$PUCSYDIR
 10
0.0
 20
1.0
 30
0.0
  9
$PUCSORTHOREF
  2

  9
$PUCSORTHOVIEW
 70
     0
  9
$PUCSORGTOP
 10
0.0
 20
0.0
 30
0.0
  9
$PUCSORGBOTTOM
 10
0.0
 20
0.0
 30
0.0
  9
$PUCSORGLEFT
 10
0.0
 20
0.0
 30
0.0
  9
$PUCSORGRIGHT
 10
0.0
 20
0.0
 30
0.0
  9
$PUCSORGFRONT
 10
0.0
 20
0.0
 30
0.0
  9
$PUCSORGBACK
 10
0.0
 20
0.0
 30
0.0
  9
$USERI1
 70
     0
  9
$USERI2
 70
     0
  9
$USERI3
 70
     0
  9
$USERI4
 70
     0
  9
$USERI5
 70
     0
  9
$USERR1
 40
0.0
  9
$USERR2
 40
0.0
  9
$USERR3
 40
0.0
  9
$USERR4
 40
0.0
  9
$USERR5
 40
0.0
  9
$WORLDVIEW
 70
     1
  9
$SHADEDGE
 70
     3
  9
$SHADEDIF
 70
    70
  9
$TILEMODE
 70
     1
  9
$MAXACTVP
 70
    64
  9
$PINSBASE
 10
0.0
 20
0.0
 30
0.0
  9
$PLIMCHECK
 70
     0
  9
$PEXTMIN
 10
1.000000000000000E+20
 20
1.000000000000000E+20
 30
1.000000000000000E+20
  9
$PEXTMAX
 10
-1.000000000000000E+20
 20
-1.000000000000000E+20
 30
-1.000000000000000E+20
  9
$PLIMMIN
 10
0.0
 20
0.0
  9
$PLIMMAX
 10
420.0
 20
297.0
  9
$UNITMODE
 70
     0
  9
$VISRETAIN
 70
     1
  9
$PLINEGEN
 70
     0
  9
$PSLTSCALE
 70
     1
  9
$TREEDEPTH
 70
  3020
  9
$CMLSTYLE
  2
Standard
  9
$CMLJUST
 70
     0
  9
$CMLSCALE
 40
20.0
  9
$PROXYGRAPHICS
 70
     1
  9
$MEASUREMENT
 70
     1
  9
$CELWEIGHT
370
    -1
  9
$ENDCAPS
280
     0
  9
$JOINSTYLE
280
     0
  9
$LWDISPLAY
290
     0
  9
$INSUNITS
 70
     4
  9
$HYPERLINKBASE
  1

  9
$STYLESHEET
  1

  9
$XEDIT
290
     1
  9
$CEPSNTYPE
380
     0
  9
$PSTYLEMODE
290
     1
  9
$FINGERPRINTGUID
  2
{135D8A84-6883-4383-80F5-1B71993FAB95}
  9
$VERSIONGUID
  2
{83BBDE7D-76F6-4B0F-BB79-ECD0604FBE12}
  9
$EXTNAMES
290
     1
  9
$PSVPSCALE
 40
0.0
  9
$OLESTARTUP
290
     0
  0
ENDSEC
  0
SECTION
  2
CLASSES
  0
CLASS
  1
ACDBDICTIONARYWDFLT
  2
AcDbDictionaryWithDefault
  3
ObjectDBX Classes
 90
        0
280
     0
281
     0
  0
CLASS
  1
ACME_DOCUMENT
  2
AcMeDbDoc
  3
AcMeServices
 90
     1024
280
     0
281
     0
  0
CLASS
  1
AMGSETTINGSOBJ
  2
AmgSettingsObj
  3
"AcadM|Product Description: AutoCAD Mechanical|Company: Autodesk, Inc."
 90
     1024
280
     0
281
     0
  0
CLASS
  1
ACMESCOPE
  2
AcMeScope
  3
AcMeServices
 90
     1024
280
     0
281
     0
  0
CLASS
  1
ACMECOMMANDHISTORY
  2
AcMeCommandHistory
  3
AcMeServices
 90
     1024
280
     0
281
     0
  0
CLASS
  1
ACIMSYSVARMAN
  2
AcImSysVarManager
  3
AcMeServices
 90
     1024
280
     0
281
     0
  0
CLASS
  1
ACIMREALSYSVAR
  2
AcImRealSysVar
  3
AcMeServices
 90
     1024
280
     0
281
     0
  0
CLASS
  1
ACIMINTSYSVAR
  2
AcImIntSysVar
  3
AcMeServices
 90
     1024
280
     0
281
     0
  0
CLASS
  1
ACMEDRAWINGMAN
  2
AcMeDrawingMan
  3
AcMeServices
 90
     1024
280
     0
281
     0
  0
CLASS
  1
ACMEVIEW
  2
AcMeView
  3
AcMeServices
 90
     1024
280
     0
281
     0
  0
CLASS
  1
ACDBENTITYCACHE
  2
AcMeEntityCache
  3
AcMeServices
 90
     1024
280
     0
281
     0
  0
CLASS
  1
GSMANAGER
  2
AcMeGSManager
  3
AcMeServices
 90
     1024
280
     0
281
     0
  0
CLASS
  1
AMDTINTERNALREACTOR
  2
AmdtInternalReactor
  3
AcMeServices
 90
     1024
280
     0
281
     0
  0
CLASS
  1
ACMESTATEMGR
  2
AcMeStateMgr
  3
AcMeServices
 90
     1024
280
     0
281
     0
  0
CLASS
  1
ACGREFMASTER
  2
AcGrefMaster
  3
AcAttribServices
 90
     1024
280
     0
281
     0
  0
CLASS
  1
ACME_DATABASE
  2
AcMeDbDatabase
  3
AcMeServices
 90
     1024
280
     0
281
     0
  0
CLASS
  1
ACRFINSADJUSTERMGR
  2
AcRfInsAdjusterMgr
  3
AcMeServices
 90
     1024
280
     0
281
     0
  0
CLASS
  1
ACGREFACADMASTER
  2
AcGrefacadMaster
  3
AcGrefServices
 90
     1024
280
     0
281
     0
  0
CLASS
  1
AMIMASTER
  2
AmiMaster
  3
AmiServices
 90
     1024
280
     0
281
     0
  0
CLASS
  1
ACMDATADICTIONARY
  2
AcmDataDictionary
  3
"AcmSymBB|Product Description: AutoCAD Mechanical|Company: Autodesk, Inc."
 90
     1024
280
     0
281
     0
  0
CLASS
  1
ACMDATAENTRYBLOCK
  2
AcmDataEntryBlock
  3
AcmSymBB|Product Description: AutoCAD Mechanical|Company: Autodesk, Inc.
 90
    33792
280
     0
281
     0
  0
CLASS
  1
ACIMSTRSYSVAR
  2
AcImStrSysVar
  3
AcMeServices
 90
     1024
280
     0
281
     0
  0
CLASS
  1
ACMSTANDARDISO
  2
AcmStandardISO
  3
"Amdt_StdImp|Product Description: AutoCAD Mechanical|Company: Autodesk, Inc."
 90
    33792
280
     0
281
     0
  0
CLASS
  1
AMGOBJPROPCFG
  2
AmgObjPropCfg
  3
"AmgLay|Product Description: AutoCAD Mechanical|Company: Autodesk, Inc."
 90
     1025
280
     0
281
     0
  0
CLASS
  1
AMDTEDGESTANDARDISO
  2
AmdtEdgeStdISO
  3
"Amdt_StdImp|Product Description: AutoCAD Mechanical|Company: Autodesk, Inc."
 90
    33792
280
     0
281
     0
  0
CLASS
  1
ACMSURFSTANDARDISO
  2
AcmSurfTextStdISO
  3
"Amdt_StdImp|Product Description: AutoCAD Mechanical|Company: Autodesk, Inc."
 90
    33792
280
     0
281
     0
  0
CLASS
  1
ACMFCFSTANDARDISO
  2
AcmFCFStdISO
  3
"Amdt_StdImp|Product Description: AutoCAD Mechanical|Company: Autodesk, Inc."
 90
    33792
280
     0
281
     0
  0
CLASS
  1
ACMWELDSTANDARDISO
  2
AcmWeldingStdISO
  3
"Amdt_StdImp|Product Description: AutoCAD Mechanical|Company: Autodesk, Inc."
 90
    33792
280
     0
281
     0
  0
CLASS
  1
ACMIDSTANDARDISO
  2
AcmIdStdISO
  3
"Amdt_StdImp|Product Description: AutoCAD Mechanical|Company: Autodesk, Inc."
 90
    33792
280
     0
281
     0
  0
CLASS
  1
ACMDATUMSTANDARDISO
  2
AcmDatumStdISO
  3
"Amdt_StdImp|Product Description: AutoCAD Mechanical|Company: Autodesk, Inc."
 90
    33792
280
     0
281
     0
  0
CLASS
  1
ACMBOMSTANDARDISO
  2
AcmBOMStdISO
  3
"Amdt_StdImp|Product Description: AutoCAD Mechanical|Company: Autodesk, Inc."
 90
    33792
280
     0
281
     0
  0
CLASS
  1
ACMDETAILSTANDARDISO
  2
AmdtDetailSymStdISO
  3
"Amdt_StdImp|Product Description: AutoCAD Mechanical|Company: Autodesk, Inc."
 90
    33792
280
     0
281
     0
  0
CLASS
  1
ACMSECTIONSTANDARDISO
  2
AmdtSectionSymStdISO
  3
"Amdt_StdImp|Product Description: AutoCAD Mechanical|Company: Autodesk, Inc."
 90
    33792
280
     0
281
     0
  0
CLASS
  1
ACMCENTERLINESTANDARDISO
  2
AmdtCenterLineStdISO
  3
"Amdt_StdImp|Product Description: AutoCAD Mechanical|Company: Autodesk, Inc."
 90
    33792
280
     0
281
     0
  0
CLASS
  1
ACMNOTESTANDARDISO
  2
AmdtNoteStdISO
  3
"Amdt_StdImp|Product Description: AutoCAD Mechanical|Company: Autodesk, Inc."
 90
    33792
280
     0
281
     0
  0
CLASS
  1
ACAMGLAYSTD
  2
AcAmgLayStd
  3
"AmgLay|Product Description: AutoCAD Mechanical|Company: Autodesk, Inc."
 90
     1024
280
     0
281
     0
  0
CLASS
  1
ACAMGDIMSTD
  2
AcAmgDimStd
  3
"AmgDim|Product Description: AutoCAD Mechanical|Company: Autodesk, Inc."
 90
     1024
280
     0
281
     0
  0
CLASS
  1
ACAMGHOLECHARTSTDISO
  2
AcAmgHoleChartStdISO
  3
AmgDim|Product Description: AutoCAD Mechanical|Company: Autodesk, Inc.
 90
    33792
280
     0
281
     0
  0
CLASS
  1
ACAMGTITLESTD
  2
AcAmgTitleStd
  3
"AmgTitle|Product Description: AutoCAD Mechanical|Company: Autodesk, Inc."
 90
     4095
280
     0
281
     0
  0
CLASS
  1
LAYER_INDEX
  2
AcDbLayerIndex
  3
ObjectDBX Classes
 90
    32768
280
     0
281
     0
  0
CLASS
  1
IDBUFFER
  2
AcDbIdBuffer
  3
ObjectDBX Classes
 90
    32768
280
     0
281
     0
  0
CLASS
  1
DICTIONARYVAR
  2
AcDbDictionaryVar
  3
ObjectDBX Classes
 90
        0
280
     0
281
     0
  0
CLASS
  1
AM_DRAWING_MGR
  2
AcDmDwgMgr
  3
AcMechDwgViewMgmt
 90
     1024
280
     0
281
     0
  0
CLASS
  1
AM_DWG_DOCUMENT
  2
AcDmDwgDocument
  3
AcMechDwgViewMgmt
 90
     1024
280
     0
281
     0
  0
CLASS
  1
AM_DWG_SHEET
  2
AcDmSheet
  3
AcMechDwgViewMgmt
 90
     1024
280
     0
281
     0
  0
CLASS
  1
AM_VIEWDIMPARMAP
  2
AcDmViewDimParMap
  3
AcMechDwgViewMgmt
 90
     1024
280
     0
281
     0
  0
CLASS
  1
AM_DWGMGR_NAME
  2
AcDmDwgMgrName
  3
AcMechDwgViewMgmt
 90
     1024
280
     0
281
     0
  0
CLASS
  1
AMDTMENUSTATEMGR
  2
AmdtMenuStateMgr
  3
McadcomServices
 90
     1024
280
     0
281
     0
  0
CLASS
  1
AMDTMCOMMENUSTATE
  2
AmdtMcomMenuState
  3
McadcomServices
 90
     1024
280
     0
281
     0
  0
CLASS
  1
MAPIAMMOUDLE
  2
MApiAmModule
  3
MApiAmServices
 90
     1024
280
     0
281
     0
  0
CLASS
  1
AMDTADMENUSTATE
  2
AmdtAdMenuState
  3
DesignerServices
 90
     1024
280
     0
281
     0
  0
CLASS
  1
ADAPPL
  2
AcAdAppl
  3
DesignerServices
 90
     1024
280
     0
281
     0
  0
CLASS
  1
DEPMGR
  2
AcAdDepMgr
  3
DesignerServices
 90
     1024
280
     0
281
     0
  0
CLASS
  1
PARAMMGR
  2
AcAdParamMgr
  3
DesignerServices
 90
     1024
280
     0
281
     0
  0
CLASS
  1
PARAMSCOPE
  2
AcAdParamScope
  3
DesignerServices
 90
     1024
280
     0
281
     0
  0
CLASS
  1
NAMEDAPPL
  2
AcAdNamedAppl
  3
DesignerServices
 90
     1024
280
     0
281
     0
  0
CLASS
  1
AMDTDMMENUSTATE
  2
AmdtDmMenuState
  3
AcMechDwgViewMgmt
 90
     1024
280
     0
281
     0
  0
CLASS
  1
AMDTAMMENUSTATE
  2
AmdtAmMenuState
  3
DesignerAssemblies
 90
     1024
280
     0
281
     0
  0
CLASS
  1
ACAMPROJECT
  2
AcAmProject
  3
DesignerAssemblies
 90
     1024
280
     0
281
     0
  0
CLASS
  1
ACAMGRCOMPDEF
  2
AcAmGrCompDef
  3
DesignerAssemblies
 90
     1024
280
     0
281
     0
  0
CLASS
  1
ACCMCONTEXT
  2
AcCmContext
  3
DesignerAssemblies
 90
     1024
280
     0
281
     0
  0
CLASS
  1
ACAMCOMPDEF
  2
AcAmCompDef
  3
DesignerAssemblies
 90
     1024
280
     0
281
     0
  0
CLASS
  1
ACAMCOMPDEFMGR
  2
AcAmCompDefMgr
  3
DesignerAssemblies
 90
     1024
280
     0
281
     0
  0
CLASS
  1
AMCONTEXTMGR
  2
AcAmContextMgr
  3
DesignerAssemblies
 90
     1024
280
     0
281
     0
  0
CLASS
  1
ACAMCONTEXTMODELER
  2
AcAmContextModeler
  3
DesignerAssemblies
 90
     1024
280
     0
281
     0
  0
CLASS
  1
ACMTHREADLINESTANDARDISO
  2
AmdtThreadLineStdISO
  3
"Amdt_StdImp|Product Description: AutoCAD Mechanical|Company: Autodesk, Inc."
 90
    33792
280
     0
281
     0
  0
CLASS
  1
CATALOGSTATE
  2
AcAmCatalogState
  3
DesignerAssemblies
 90
     1024
280
     0
281
     0
  0
CLASS
  1
ACAMGRCOMPDEFSET
  2
AcAmGrCompDefSet
  3
DesignerAssemblies
 90
     1024
280
     0
281
     0
  0
CLASS
  1
AMDTBROWSERDBTAB
  2
AmdtBrowserDbTab
  3
McadcomServices
 90
     1024
280
     0
281
     0
  0
CLASS
  1
CBROWSERAPPOBJECT
  2
CBrowserAppObject
  3
McadcomServices
 90
     1024
280
     0
281
     0
  0
CLASS
  1
DM_PLACEHOLDER
  2
AcDmSelsetPlaceholder
  3
AcMechDwgViewMgmt
 90
     1024
280
     0
281
     0
  0
CLASS
  1
TABLESTYLE
  2
AcDbTableStyle
  3
ObjectDBX Classes
 90
     4095
280
     0
281
     0
  0
CLASS
  1
VAACXREFPANELOBJECT
  2
VaAcXREFPanelObject
  3
VAAC_ADDIN
 90
    32768
280
     0
281
     0
  0
CLASS
  1
VAACIMAGEINVENTORY
  2
VaAcImageInventory
  3
VAAC_ADDIN
 90
    32768
280
     0
281
     0
  0
CLASS
  1
AMDTNOTETEMPLATEDB
  2
AmdtNoteTemplateDB
  3
AcmSymBB|Product Description: AutoCAD Mechanical|Company: Autodesk, Inc.
 90
     1024
280
     0
281
     0
  0
CLASS
  1
ACAMGFILTERDAT
  2
AcAmgFilterDat
  3
"AcadM|Product Description: AutoCAD Mechanical|Company: Autodesk, Inc."
 90
    33792
280
     0
281
     0
  0
CLASS
  1
ACMBOM
  2
AcmBom
  3
"AcmSymBB|Product Description: AutoCAD Mechanical|Company: Autodesk, Inc."
 90
    33792
280
     0
281
     0
  0
CLASS
  1
AMDTFORMULAUPDATEDISPATCHER
  2
AmdtFormulaUpdateDispatcher
  3
AcMeServices
 90
    33792
280
     0
281
     0
  0
CLASS
  1
ACMSTANDARDDIN
  2
AcmStandardDIN
  3
"Amdt_StdImp|Product Description: AutoCAD Mechanical|Company: Autodesk, Inc."
 90
     1024
280
     0
281
     0
  0
CLASS
  1
AMDTEDGESTANDARDDIN13715
  2
AmdtEdgeStdDIN13715
  3
"Amdt_StdImp|Product Description: AutoCAD Mechanical|Company: Autodesk, Inc."
 90
     1024
280
     0
281
     0
  0
CLASS
  1
ACMSURFSTANDARDDIN
  2
AcmSurfTextStdDIN
  3
"Amdt_StdImp|Product Description: AutoCAD Mechanical|Company: Autodesk, Inc."
 90
    33792
280
     0
281
     0
  0
CLASS
  1
ACMFCFSTANDARDDIN
  2
AcmFCFStdDIN
  3
"Amdt_StdImp|Product Description: AutoCAD Mechanical|Company: Autodesk, Inc."
 90
     1024
280
     0
281
     0
  0
CLASS
  1
ACMWELDSTANDARDDIN
  2
AcmWeldingStdDIN
  3
"Amdt_StdImp|Product Description: AutoCAD Mechanical|Company: Autodesk, Inc."
 90
     1024
280
     0
281
     0
  0
CLASS
  1
ACMIDSTANDARDDIN
  2
AcmIdStdDIN
  3
"Amdt_StdImp|Product Description: AutoCAD Mechanical|Company: Autodesk, Inc."
 90
     1024
280
     0
281
     0
  0
CLASS
  1
ACMDATUMSTANDARDDIN
  2
AcmDatumStdDIN
  3
"Amdt_StdImp|Product Description: AutoCAD Mechanical|Company: Autodesk, Inc."
 90
     1024
280
     0
281
     0
  0
CLASS
  1
ACMBOMSTANDARDDIN
  2
AcmBOMStdDIN
  3
"Amdt_StdImp|Product Description: AutoCAD Mechanical|Company: Autodesk, Inc."
 90
     1024
280
     0
281
     0
  0
CLASS
  1
ACMDETAILSTANDARDDIN
  2
AmdtDetailSymStdDIN
  3
"Amdt_StdImp|Product Description: AutoCAD Mechanical|Company: Autodesk, Inc."
 90
     1024
280
     0
281
     0
  0
CLASS
  1
ACMSECTIONSTANDARDDIN
  2
AmdtSectionSymStdDIN
  3
"Amdt_StdImp|Product Description: AutoCAD Mechanical|Company: Autodesk, Inc."
 90
     1024
280
     0
281
     0
  0
CLASS
  1
ACMCENTERLINESTANDARDDIN
  2
AmdtCenterLineStdDIN
  3
"Amdt_StdImp|Product Description: AutoCAD Mechanical|Company: Autodesk, Inc."
 90
     1024
280
     0
281
     0
  0
CLASS
  1
ACMTHREADLINESTANDARDDIN
  2
AmdtThreadLineStdDIN
  3
"Amdt_StdImp|Product Description: AutoCAD Mechanical|Company: Autodesk, Inc."
 90
     1024
280
     0
281
     0
  0
CLASS
  1
ACMNOTESTANDARDDIN
  2
AmdtNoteStdDIN
  3
"Amdt_StdImp|Product Description: AutoCAD Mechanical|Company: Autodesk, Inc."
 90
     1024
280
     0
281
     0
  0
CLASS
  1
ACAMGHOLECHARTSTDDIN
  2
AcAmgHoleChartStdDIN
  3
AmgDim|Product Description: AutoCAD Mechanical|Company: Autodesk, Inc.
 90
     1024
280
     0
281
     0
  0
CLASS
  1
MATERIAL
  2
AcDbMaterial
  3
ObjectDBX Classes
 90
     1153
280
     0
281
     0
  0
CLASS
  1
VISUALSTYLE
  2
AcDbVisualStyle
  3
ObjectDBX Classes
 90
     4095
280
     0
281
     0
  0
CLASS
  1
SCALE
  2
AcDbScale
  3
ObjectDBX Classes
 90
     1153
280
     0
281
     0
  0
CLASS
  1
MLEADERSTYLE
  2
AcDbMLeaderStyle
  3
ACDB_MLEADERSTYLE_CLASS
 90
     4095
280
     0
281
     0
  0
CLASS
  1
ACRFATTGENMGR
  2
AcRfAttGeneralMgr
  3
AcAttribServices
 90
    33792
280
     0
281
     0
  0
CLASS
  1
ACRFOBJATTMGR
  2
AcRfObjAttGroupMgr
  3
AcAttribServices
 90
    33792
280
     0
281
     0
  0
CLASS
  1
ACRFMCADAPIATTHOLDER
  2
AcRfMCADAPIAttHolder
  3
AcAttribServices
 90
    33792
280
     0
281
     0
  0
CLASS
  1
AMDTSYSATTR
  2
AmdtSystemAttribute
  3
AcAttribServices
 90
    33792
280
     0
281
     0
  0
CLASS
  1
ACMTAPERSTANDARDISO
  2
AcmTaperStdISO
  3
"Amdt_StdImp|Product Description: AutoCAD Mechanical|Company: Autodesk, Inc."
 90
    33792
280
     0
281
     0
  0
CLASS
  1
ACMANOOTATIONVIEWSTANDARDISO
  2
AmdtAnViewStdISO
  3
"Amdt_StdImp|Product Description: AutoCAD Mechanical|Company: Autodesk, Inc."
 90
    33792
280
     0
281
     0
  0
CLASS
  1
ACMTAPERSTANDARDDIN
  2
AcmTaperStdDIN
  3
"Amdt_StdImp|Product Description: AutoCAD Mechanical|Company: Autodesk, Inc."
 90
     1024
280
     0
281
     0
  0
CLASS
  1
ACMANOOTATIONVIEWSTANDARDDIN
  2
AmdtAnViewStdDIN
  3
"Amdt_StdImp|Product Description: AutoCAD Mechanical|Company: Autodesk, Inc."
 90
     1024
280
     0
281
     0
  0
CLASS
  1
EXACXREFPANELOBJECT
  2
ExAcXREFPanelObject
  3
EXAC_ESW
 90
     1025
280
     0
281
     0
  0
CLASS
  1
NPOCOLLECTION
  2
AcDbImpNonPersistentObjectsCollection
  3
ObjectDBX Classes
 90
     1153
280
     0
281
     0
  0
CLASS
  1
SORTENTSTABLE
  2
AcDbSortentsTable
  3
ObjectDBX Classes
 90
        0
280
     0
281
     0
  0
CLASS
  1
AEC_REFEDIT_STATUS_TRACKER
  2
AecDbRefEditStatusTracker
  3
AecArchBase50|Product Desc: Autodesk Architectural Desktop 2007 |Company: Autodesk,Inc. |WEB Address: www.autodesk.com
 90
    32897
280
     0
281
     0
  0
CLASS
  1
CAMSSTRUCTBTNSTATE
  2
StructBtnState
  3
DesignerAssemblies
 90
    33792
280
     0
281
     0
  0
CLASS
  1
CELLSTYLEMAP
  2
AcDbCellStyleMap
  3
ObjectDBX Classes
 90
     1152
280
     0
281
     0
  0
CLASS
  1
DIMASSOC
  2
AcDbDimAssoc
  3
"AcDbDimAssoc|Product Desc:     AcDim ARX App For Dimension|Company:          Autodesk, Inc.|WEB Address:      www.autodesk.com"
 90
        0
280
     0
281
     0
  0
CLASS
  1
ACMSURFSTANDARDDIN2002
  2
AcmSurfTextStdDIN2002
  3
"Amdt_StdImp|Product Description: AutoCAD Mechanical|Company: Autodesk, Inc."
 90
     1024
280
     0
281
     0
  0
CLASS
  1
ACDBPLACEHOLDER
  2
AcDbPlaceHolder
  3
ObjectDBX Classes
 90
        0
280
     0
281
     0
  0
CLASS
  1
LAYOUT
  2
AcDbLayout
  3
ObjectDBX Classes
 90
        0
280
     0
281
     0
  0
ENDSEC
  0
SECTION
  2
TABLES
  0
TABLE
  2
VPORT
  5
8
330
0
100
AcDbSymbolTable
 70
     1
  0
VPORT
  5
3B2
330
8
100
AcDbSymbolTableRecord
100
AcDbViewportTableRecord
  2
*Active
 70
     0
 10
0.0
 20
0.0
 11
1.0
 21
1.0
 12
2627.420133158059
 22
992.6707080496449
 13
0.0
 23
0.0
 14
2.5
 24
2.5
 15
10.0
 25
10.0
 16
0.0
 26
0.0
 36
1.0
 17
0.0
 27
0.0
 37
0.0
 40
505.5542436861493
 41
1.752272727272727
 42
50.0
 43
0.0
 44
0.0
 50
0.0
 51
0.0
 71
     0
 72
   100
 73
     1
 74
     3
 75
     0
 76
     0
 77
     0
 78
     0
281
     0
 65
     0
110
0.0
120
0.0
130
0.0
111
1.0
121
0.0
131
0.0
112
0.0
122
1.0
132
0.0
 79
     0
146
0.0
  0
ENDTAB
  0
TABLE
  2
LTYPE
  5
5
330
0
100
AcDbSymbolTable
 70
    21
  0
LTYPE
  5
14
330
5
100
AcDbSymbolTableRecord
100
AcDbLinetypeTableRecord
  2
ByBlock
 70
     0
  3

 72
    65
 73
     0
 40
0.0
  0
LTYPE
  5
15
330
5
100
AcDbSymbolTableRecord
100
AcDbLinetypeTableRecord
  2
ByLayer
 70
     0
  3

 72
    65
 73
     0
 40
0.0
  0
LTYPE
  5
16
330
5
100
AcDbSymbolTableRecord
100
AcDbLinetypeTableRecord
  2
Continuous
 70
     0
  3
Solid line
 72
    65
 73
     0
 40
0.0
  0
LTYPE
  5
67
330
5
100
AcDbSymbolTableRecord
100
AcDbLinetypeTableRecord
  2
Amconstr
 70
     0
  3
_______________________
 72
    65
 73
     2
 40
9999.0
 49
9999.0
 74
     0
 49
0.0
 74
     0
  0
LTYPE
  5
6C
330
5
100
AcDbSymbolTableRecord
100
AcDbLinetypeTableRecord
  2
Amzigzag
 70
     0
  3
/\/-/\/-/\/-/\/-/\/-/\/
 72
    65
 73
     2
 40
11.0001
 49
0.0001
 74
     4
 75
   136
340
22C
 46
0.04
 50
0.0
 44
0.0
 45
0.0
 49
-11.0
 74
     0
  0
LTYPE
  5
7E
330
5
100
AcDbSymbolTableRecord
100
AcDbLinetypeTableRecord
  2
CENTER
 70
     0
  3
__ . __
 72
    65
 73
     4
 40
7.0
 49
4.0
 74
     0
 49
-1.0
 74
     0
 49
1.0
 74
     0
 49
-1.0
 74
     0
  0
LTYPE
  5
D8
330
5
100
AcDbSymbolTableRecord
100
AcDbLinetypeTableRecord
  2
HIDDEN
 70
     0
  3
Hidden __ __ __ __ __ __ __ __ __ __ __ __ __ _
 72
    65
 73
     2
 40
9.524999999999996
 49
6.349999999999997
 74
     0
 49
-3.174999999999998
 74
     0
  0
LTYPE
  5
D9
330
5
100
AcDbSymbolTableRecord
100
AcDbLinetypeTableRecord
  2
PHANTOM2
 70
     0
  3
Phantom (.5x) ___ _ _ ___ _ _ ___ _ _ ___ _ _
 72
    65
 73
     6
 40
31.75
 49
15.875
 74
     0
 49
-3.174999999999998
 74
     0
 49
3.174999999999998
 74
     0
 49
-3.174999999999998
 74
     0
 49
3.174999999999998
 74
     0
 49
-3.174999999999998
 74
     0
  0
LTYPE
  5
2E5
330
5
100
AcDbSymbolTableRecord
100
AcDbLinetypeTableRecord
  2
ACDINWELD
 70
     0
  3
_ _ _ _ _
 72
    65
 73
     2
 40
2.0
 49
2.0
 74
     0
 49
-1.0
 74
     0
  0
LTYPE
  5
2E6
330
5
100
AcDbSymbolTableRecord
100
AcDbLinetypeTableRecord
  2
ACDINTGB
 70
     0
  3
__ . . __ . .
 72
    65
 73
     6
 40
9.0
 49
4.0
 74
     0
 49
-1.0
 74
     0
 49
1.0
 74
     0
 49
-1.0
 74
     0
 49
1.0
 74
     0
 49
-1.0
 74
     0
  0
LTYPE
  5
2E7
330
5
100
AcDbSymbolTableRecord
100
AcDbLinetypeTableRecord
  2
ACDINTGL
 70
     0
  3
_ _ _ _ _
 72
    65
 73
     2
 40
3.0
 49
2.0
 74
     0
 49
-1.0
 74
     0
  0
LTYPE
  5
321
330
5
100
AcDbSymbolTableRecord
100
AcDbLinetypeTableRecord
  2
AM_DIN_F_W050
 70
     0
  3
__ __ __ __ __ __ __ __ __ __ __ __ __ __ __
 72
    65
 73
     2
 40
6.25
 49
4.75
 74
     0
 49
-1.5
 74
     0
  0
LTYPE
  5
322
330
5
100
AcDbSymbolTableRecord
100
AcDbLinetypeTableRecord
  2
AM_DIN_G_W050
 70
     0
  3
____ . ____ . ____ . ____ . ____ . ____ . ____
 72
    65
 73
     4
 40
13.75
 49
9.75
 74
     0
 49
-1.5
 74
     0
 49
1.0
 74
     0
 49
-1.5
 74
     0
  0
LTYPE
  5
323
330
5
100
AcDbSymbolTableRecord
100
AcDbLinetypeTableRecord
  2
AM_DIN_K_W050
 70
     0
  3
_____ . . _____ . . _____ . . ____ .. ____
 72
    65
 73
     6
 40
16.25
 49
9.75
 74
     0
 49
-1.5
 74
     0
 49
1.0
 74
     0
 49
-1.5
 74
     0
 49
1.0
 74
     0
 49
-1.5
 74
     0
  0
LTYPE
  5
324
330
5
100
AcDbSymbolTableRecord
100
AcDbLinetypeTableRecord
  2
AM_DIN_G_W050x2
 70
     0
  3
__ . __ . __ . __ . __ . __
 72
    65
 73
     4
 40
6.875
 49
4.75
 74
     0
 49
-0.875
 74
     0
 49
0.375
 74
     0
 49
-0.875
 74
     0
  0
LTYPE
  5
325
330
5
100
AcDbSymbolTableRecord
100
AcDbLinetypeTableRecord
  2
AM_DIN_F_W050x2
 70
     0
  3
 _ _ _ _ _ _ _ _ _ _ _ _
 72
    65
 73
     2
 40
3.125
 49
2.25
 74
     0
 49
-0.875
 74
     0
  0
LTYPE
  5
456
330
5
100
AcDbSymbolTableRecord
100
AcDbLinetypeTableRecord
  2
STRICHPUNKT
 70
     0
  3
Strichpunkt __ . __ . __ . __ . __ . __ . __ . 
 72
    65
 73
     4
 40
25.4
 49
12.7
 74
     0
 49
-6.349999999999997
 74
     0
 49
0.0
 74
     0
 49
-6.349999999999997
 74
     0
  0
LTYPE
  5
457
330
5
100
AcDbSymbolTableRecord
100
AcDbLinetypeTableRecord
  2
STRICHLINIE
 70
     0
  3
Strichlinie __ __ __ __ __ __ __ __ __ __ __ __
 72
    65
 73
     2
 40
19.05
 49
12.7
 74
     0
 49
-6.349999999999997
 74
     0
  0
LTYPE
  5
3782
330
5
100
AcDbSymbolTableRecord
100
AcDbLinetypeTableRecord
  2
AM_ISO02W050
 70
     0
  3
__ __ __ __ __ __ __ __ __ __ __ __ __ __ __
 72
    65
 73
     2
 40
7.5
 49
6.0
 74
     0
 49
-1.5
 74
     0
  0
LTYPE
  5
3783
330
5
100
AcDbSymbolTableRecord
100
AcDbLinetypeTableRecord
  2
AM_ISO08W050
 70
     0
  3
____ . ____ . ____ . ____ . ____ . ____ . ____
 72
    65
 73
     4
 40
18.0
 49
12.0
 74
     0
 49
-1.5
 74
     0
 49
3.0
 74
     0
 49
-1.5
 74
     0
  0
LTYPE
  5
3784
330
5
100
AcDbSymbolTableRecord
100
AcDbLinetypeTableRecord
  2
AM_ISO09W050
 70
     0
  3
_____ . . _____ . . _____ . . ____ .. ____
 72
    65
 73
     6
 40
22.5
 49
12.0
 74
     0
 49
-1.5
 74
     0
 49
3.0
 74
     0
 49
-1.5
 74
     0
 49
3.0
 74
     0
 49
-1.5
 74
     0
  0
LTYPE
  5
3785
330
5
100
AcDbSymbolTableRecord
100
AcDbLinetypeTableRecord
  2
AM_ISO08W050x2
 70
     0
  3
__ . __ . __ . __ . __ . __
 72
    65
 73
     4
 40
9.0
 49
6.0
 74
     0
 49
-0.75
 74
     0
 49
1.5
 74
     0
 49
-0.75
 74
     0
  0
LTYPE
  5
3786
330
5
100
AcDbSymbolTableRecord
100
AcDbLinetypeTableRecord
  2
AM_ISO02W050x2
 70
     0
  3
 _ _ _ _ _ _ _ _ _ _ _ _
 72
    65
 73
     2
 40
3.75
 49
3.0
 74
     0
 49
-0.75
 74
     0
  0
ENDTAB
  0
TABLE
  2
LAYER
  5
2
102
{ACAD_XDICTIONARY
360
468
102
}
330
0
100
AcDbSymbolTable
 70
     8
  0
LAYER
  5
10
102
{ACAD_XDICTIONARY
360
20EC
102
}
330
2
100
AcDbSymbolTableRecord
100
AcDbLayerTableRecord
  2
0
 70
     0
 62
     7
  6
Continuous
370
    -3
390
F
  0
LAYER
  5
458
102
{ACAD_XDICTIONARY
360
459
102
}
330
2
100
AcDbSymbolTableRecord
100
AcDbLayerTableRecord
  2
P-0000
 70
     0
 62
     7
  6
Continuous
370
    -3
390
F
  0
LAYER
  5
45A
330
2
100
AcDbSymbolTableRecord
100
AcDbLayerTableRecord
  2
Defpoints
 70
     0
 62
     7
  6
Continuous
290
     0
370
    -3
390
F
  0
LAYER
  5
45B
102
{ACAD_XDICTIONARY
360
45C
102
}
330
2
100
AcDbSymbolTableRecord
100
AcDbLayerTableRecord
  2
AM_5
 70
     0
 62
     3
  6
Continuous
370
    25
390
F
1001
AcAecLayerStandard
1000

1000

  0
LAYER
  5
45E
102
{ACAD_XDICTIONARY
360
45F
102
}
330
2
100
AcDbSymbolTableRecord
100
AcDbLayerTableRecord
  2
AM_8
 70
     0
 62
     1
  6
Continuous
370
    25
390
F
  0
LAYER
  5
460
102
{ACAD_XDICTIONARY
360
461
102
}
330
2
100
AcDbSymbolTableRecord
100
AcDbLayerTableRecord
  2
P-3FF0
 70
     0
 62
     7
  6
Continuous
370
    -3
390
F
  0
LAYER
  5
EAD
102
{ACAD_XDICTIONARY
360
EAE
102
}
330
2
100
AcDbSymbolTableRecord
100
AcDbLayerTableRecord
  2
AM_7
 70
     0
 62
     4
  6
AM_DIN_G_W050
370
    25
390
F
1001
AcAecLayerStandard
1000

1000

  0
LAYER
  5
3787
330
2
100
AcDbSymbolTableRecord
100
AcDbLayerTableRecord
  2
AM_CL
 70
     0
 62
     1
  6
Amconstr
370
    25
390
F
1001
AcAecLayerStandard
1000

1000

  0
ENDTAB
  0
TABLE
  2
STYLE
  5
3
330
0
100
AcDbSymbolTable
 70
     4
  0
STYLE
  5
11
330
3
100
AcDbSymbolTableRecord
100
AcDbTextStyleTableRecord
  2
STANDARD
 70
     0
 40
0.0
 41
1.0
 50
0.0
 71
     0
 42
2.5
  3
ISOCP.SHX
  4

  0
STYLE
  5
22C
330
3
100
AcDbSymbolTableRecord
100
AcDbTextStyleTableRecord
  2

 70
     1
 40
0.0
 41
1.0
 50
0.0
 71
     0
 42
2.5
  3
genltshp.shx
  4

  0
STYLE
  5
2E4
330
3
100
AcDbSymbolTableRecord
100
AcDbTextStyleTableRecord
  2
ACDINGDT
 70
     0
 40
0.0
 41
1.0
 50
0.0
 71
     0
 42
2.5
  3
amgdt.shx
  4

  0
STYLE
  5
3810
330
3
100
AcDbSymbolTableRecord
100
AcDbTextStyleTableRecord
  2
ACDINTS
 70
     0
 40
1.0
 41
1.0
 50
0.0
 71
     0
 42
2.5
  3
isocp.shx
  4

  0
ENDTAB
  0
TABLE
  2
VIEW
  5
6
330
0
100
AcDbSymbolTable
 70
     0
  0
ENDTAB
  0
TABLE
  2
UCS
  5
7
330
0
100
AcDbSymbolTable
 70
     0
  0
ENDTAB
  0
TABLE
  2
APPID
  5
9
330
0
100
AcDbSymbolTable
 70
    25
  0
APPID
  5
12
330
9
100
AcDbSymbolTableRecord
100
AcDbRegAppTableRecord
  2
ACAD
 70
     0
  0
APPID
  5
46
330
9
100
AcDbSymbolTableRecord
100
AcDbRegAppTableRecord
  2
MCAD_NO_VIS
 70
     0
  0
APPID
  5
47
330
9
100
AcDbSymbolTableRecord
100
AcDbRegAppTableRecord
  2
ACAD_TEMP_GRAPHIC
 70
     0
  0
APPID
  5
58
330
9
100
AcDbSymbolTableRecord
100
AcDbRegAppTableRecord
  2
ACATTRIBSERVICES
 70
     0
  0
APPID
  5
EE
330
9
100
AcDbSymbolTableRecord
100
AcDbRegAppTableRecord
  2
AD_DRAW
 70
     0
  0
APPID
  5
10C
330
9
100
AcDbSymbolTableRecord
100
AcDbRegAppTableRecord
  2
DESIGNERASSEMBLIES
 70
     0
  0
APPID
  5
111
330
9
100
AcDbSymbolTableRecord
100
AcDbRegAppTableRecord
  2
ACADM_DIM_EDIT
 70
     0
  0
APPID
  5
112
330
9
100
AcDbSymbolTableRecord
100
AcDbRegAppTableRecord
  2
AMDT_DM_ADJ
 70
     0
  0
APPID
  5
1A3
330
9
100
AcDbSymbolTableRecord
100
AcDbRegAppTableRecord
  2
ACAD_DSTYLE_DIMARC_LENGTH_SYMBOL
 70
     0
  0
APPID
  5
1A4
330
9
100
AcDbSymbolTableRecord
100
AcDbRegAppTableRecord
  2
ACAD_DSTYLE_DIMJOGGED_JOGANGLE_SYMBOL
 70
     0
  0
APPID
  5
3F1
330
9
100
AcDbSymbolTableRecord
100
AcDbRegAppTableRecord
  2
ACAD_MLEADERVER
 70
     0
  0
APPID
  5
464
330
9
100
AcDbSymbolTableRecord
100
AcDbRegAppTableRecord
  2
ACME_LAYERS
 70
     0
  0
APPID
  5
465
330
9
100
AcDbSymbolTableRecord
100
AcDbRegAppTableRecord
  2
AcAecLayerStandard
 70
     0
  0
APPID
  5
466
330
9
100
AcDbSymbolTableRecord
100
AcDbRegAppTableRecord
  2
ACAD_PSEXT
 70
     0
  0
APPID
  5
467
330
9
100
AcDbSymbolTableRecord
100
AcDbRegAppTableRecord
  2
ACAD_DSTYLE_DIMINSPECT
 70
     0
  0
APPID
  5
EB0
330
9
100
AcDbSymbolTableRecord
100
AcDbRegAppTableRecord
  2
GENIUS_GENODEF_13
 70
     0
  0
APPID
  5
EB1
330
9
100
AcDbSymbolTableRecord
100
AcDbRegAppTableRecord
  2
GENIUS_GENOBJ-N-CEN_13
 70
     0
  0
APPID
  5
EB2
330
9
100
AcDbSymbolTableRecord
100
AcDbRegAppTableRecord
  2
GENIUS_GENCEN_19
 70
     0
  0
APPID
  5
15A4
330
9
100
AcDbSymbolTableRecord
100
AcDbRegAppTableRecord
  2
GENIUS_GENOBJ-N-HTC_13
 70
     0
  0
APPID
  5
15A5
330
9
100
AcDbSymbolTableRecord
100
AcDbRegAppTableRecord
  2
GENIUS_GENHATCH_13
 70
     0
  0
APPID
  5
1DFF
330
9
100
AcDbSymbolTableRecord
100
AcDbRegAppTableRecord
  2
ACAD_EXEMPT_FROM_CAD_STANDARDS
 70
     0
  0
APPID
  5
2236
330
9
100
AcDbSymbolTableRecord
100
AcDbRegAppTableRecord
  2
ACAD_DSTYLE_DIM_LINETYPE
 70
     0
  0
APPID
  5
2237
330
9
100
AcDbSymbolTableRecord
100
AcDbRegAppTableRecord
  2
ACAD_DSTYLE_DIM_EXT1_LINETYPE
 70
     0
  0
APPID
  5
2238
330
9
100
AcDbSymbolTableRecord
100
AcDbRegAppTableRecord
  2
ACAD_DSTYLE_DIM_EXT2_LINETYPE
 70
     0
  0
APPID
  5
31A8
330
9
100
AcDbSymbolTableRecord
100
AcDbRegAppTableRecord
  2
GENIUS_GENDTOL_13
 70
     0
  0
ENDTAB
  0
TABLE
  2
DIMSTYLE
  5
A
330
0
100
AcDbSymbolTable
 70
     9
100
AcDbDimStyleTable
 71
     1
340
2F0
  0
DIMSTYLE
105
2F0
102
{ACAD_REACTORS
330
37FC
102
}
330
A
100
AcDbSymbolTableRecord
100
AcDbDimStyleTableRecord
  2
AM_DIN
 70
     0
  4
"
 41
3.5
 42
1.0
 43
10.0
 44
1.0
 47
0.1
 48
0.1
 73
     0
 74
     0
 77
     1
 78
     8
 79
     2
140
3.5
141
0.0
143
0.0393701
146
0.71
147
1.5
172
     1
176
   256
177
   256
178
     2
271
     2
272
     3
274
     4
283
     0
284
     8
340
11
371
    -1
372
    -1
1001
ACAD_DSTYLE_DIMJOGGED_JOGANGLE_SYMBOL
1070
   384
1040
1.570796326794896
1001
ACAD_DSTYLE_DIM_LINETYPE
1070
   380
1005
14
1001
ACAD_DSTYLE_DIM_EXT1_LINETYPE
1070
   381
1005
14
1001
ACAD_DSTYLE_DIM_EXT2_LINETYPE
1070
   382
1005
14
  0
DIMSTYLE
105
301
330
A
100
AcDbSymbolTableRecord
100
AcDbDimStyleTableRecord
  2
AM_DIN$3
 70
     0
  4
"
 41
3.5
 42
1.0
 43
10.0
 44
1.0
 47
0.1
 48
0.1
 73
     0
 77
     1
 78
     8
 79
     2
140
3.5
141
0.0
143
0.0393701
146
0.71
147
1.5
176
   256
177
   256
178
     2
271
     2
272
     3
274
     4
283
     0
284
     8
288
     1
289
     0
340
11
371
    -1
372
    -1
1001
ACAD_DSTYLE_DIMJOGGED_JOGANGLE_SYMBOL
1070
   384
1040
1.570796326794896
1001
ACAD_DSTYLE_DIM_LINETYPE
1070
   380
1005
14
1001
ACAD_DSTYLE_DIM_EXT1_LINETYPE
1070
   381
1005
14
1001
ACAD_DSTYLE_DIM_EXT2_LINETYPE
1070
   382
1005
14
  0
DIMSTYLE
105
306
330
A
100
AcDbSymbolTableRecord
100
AcDbDimStyleTableRecord
  2
AM_DIN$4
 70
     0
  4
"
 41
3.5
 42
1.0
 43
10.0
 44
1.0
 47
0.1
 48
0.1
 73
     0
 74
     0
 77
     1
 78
     8
 79
     2
140
3.5
141
0.0
143
0.0393701
146
0.71
147
1.5
172
     1
176
   256
177
   256
178
     2
271
     2
272
     3
274
     4
283
     0
284
     8
340
11
371
    -1
372
    -1
1001
ACAD_DSTYLE_DIMJOGGED_JOGANGLE_SYMBOL
1070
   384
1040
1.570796326794896
1001
ACAD_DSTYLE_DIM_LINETYPE
1070
   380
1005
14
1001
ACAD_DSTYLE_DIM_EXT1_LINETYPE
1070
   381
1005
14
1001
ACAD_DSTYLE_DIM_EXT2_LINETYPE
1070
   382
1005
14
  0
DIMSTYLE
105
30B
330
A
100
AcDbSymbolTableRecord
100
AcDbDimStyleTableRecord
  2
AM_DIN$6
 70
     0
  4
"
 41
3.5
 42
1.0
 43
10.0
 44
1.0
 47
0.1
 48
0.1
 73
     0
 74
     0
 78
     8
 79
     2
140
3.5
141
0.0
143
0.0393701
146
0.71
147
1.5
172
     1
176
   256
177
   256
178
     2
271
     2
272
     3
274
     4
283
     0
284
     8
340
11
371
    -1
372
    -1
1001
ACAD_DSTYLE_DIMJOGGED_JOGANGLE_SYMBOL
1070
   384
1040
1.570796326794896
1001
ACAD_DSTYLE_DIM_LINETYPE
1070
   380
1005
14
1001
ACAD_DSTYLE_DIM_EXT1_LINETYPE
1070
   381
1005
14
1001
ACAD_DSTYLE_DIM_EXT2_LINETYPE
1070
   382
1005
14
  0
DIMSTYLE
105
310
330
A
100
AcDbSymbolTableRecord
100
AcDbDimStyleTableRecord
  2
AM_DIN$7
 70
     0
  4
"
 41
3.5
 42
1.0
 43
10.0
 44
1.0
 47
0.1
 48
0.1
 73
     0
 74
     0
 77
     1
 78
     8
 79
     2
140
3.5
141
0.0
143
0.0393701
146
0.71
147
1.5
172
     1
176
   256
177
   256
178
     2
271
     2
272
     3
274
     4
283
     0
284
     8
340
11
371
    -1
372
    -1
1001
ACAD_DSTYLE_DIMJOGGED_JOGANGLE_SYMBOL
1070
   384
1040
1.570796326794896
1001
ACAD_DSTYLE_DIM_LINETYPE
1070
   380
1005
14
1001
ACAD_DSTYLE_DIM_EXT1_LINETYPE
1070
   381
1005
14
1001
ACAD_DSTYLE_DIM_EXT2_LINETYPE
1070
   382
1005
14
  0
DIMSTYLE
105
315
330
A
100
AcDbSymbolTableRecord
100
AcDbDimStyleTableRecord
  2
AM_DIN$SF
 70
     0
  4
"
 41
3.5
 42
1.0
 43
10.0
 44
1.0
 47
0.1
 48
0.1
 73
     0
 74
     0
 75
     1
 76
     1
 77
     1
 78
     8
 79
     2
140
3.5
141
0.0
143
0.0393701
146
0.71
147
1.5
172
     1
176
   256
177
   256
178
     2
271
     2
272
     3
274
     4
283
     0
284
     8
340
11
371
    -1
372
    -1
1001
ACAD_DSTYLE_DIMJOGGED_JOGANGLE_SYMBOL
1070
   384
1040
1.570796326794896
1001
ACAD_DSTYLE_DIM_LINETYPE
1070
   380
1005
14
1001
ACAD_DSTYLE_DIM_EXT1_LINETYPE
1070
   381
1005
14
1001
ACAD_DSTYLE_DIM_EXT2_LINETYPE
1070
   382
1005
14
  0
DIMSTYLE
105
31A
330
A
100
AcDbSymbolTableRecord
100
AcDbDimStyleTableRecord
  2
AM_DIN$SH
 70
     0
  4
"
 41
3.5
 42
1.0
 43
10.0
 44
1.0
 47
0.1
 48
0.1
 73
     0
 74
     0
 75
     1
 76
     1
 77
     1
 78
     8
 79
     2
140
3.5
141
0.0
143
0.0393701
144
2.0
146
0.71
147
1.5
172
     1
173
     1
176
   256
177
   256
178
     2
271
     2
272
     3
274
     4
283
     0
284
     8
340
11
343
87
371
    -1
372
    -1
1001
ACAD_DSTYLE_DIMJOGGED_JOGANGLE_SYMBOL
1070
   384
1040
1.570796326794896
1001
ACAD_DSTYLE_DIM_LINETYPE
1070
   380
1005
14
1001
ACAD_DSTYLE_DIM_EXT1_LINETYPE
1070
   381
1005
14
1001
ACAD_DSTYLE_DIM_EXT2_LINETYPE
1070
   382
1005
14
  0
DIMSTYLE
105
463
102
{ACAD_REACTORS
330
36E3
102
}
330
A
100
AcDbSymbolTableRecord
100
AcDbDimStyleTableRecord
  2
AM_DIN$0
 70
     0
  4
"
 41
3.5
 42
1.0
 43
10.0
 44
1.0
 47
0.1
 48
0.1
 73
     0
 74
     0
 77
     1
 78
     8
 79
     2
140
3.5
141
0.0
143
0.0393701
146
0.71
147
1.5
172
     1
176
   256
177
   256
178
     2
271
     2
272
     3
274
     4
283
     0
284
     8
340
11
371
    -1
372
    -1
1001
ACAD_DSTYLE_DIMJOGGED_JOGANGLE_SYMBOL
1070
   384
1040
1.570796326794896
1001
ACAD_DSTYLE_DIM_LINETYPE
1070
   380
1005
14
1001
ACAD_DSTYLE_DIM_EXT1_LINETYPE
1070
   381
1005
14
1001
ACAD_DSTYLE_DIM_EXT2_LINETYPE
1070
   382
1005
14
  0
DIMSTYLE
105
EAF
330
A
100
AcDbSymbolTableRecord
100
AcDbDimStyleTableRecord
  2
AM_DIN$2
 70
     0
  4
"
 41
3.5
 42
1.0
 43
10.0
 44
1.0
 47
0.1
 48
0.1
 73
     0
 74
     0
 77
     1
 78
     8
 79
     2
140
3.5
141
0.0
143
0.0393701
146
0.71
147
1.5
172
     1
176
   256
177
   256
178
     2
271
     2
272
     3
274
     4
283
     0
284
     8
340
11
371
    -1
372
    -1
1001
ACAD_DSTYLE_DIMJOGGED_JOGANGLE_SYMBOL
1070
   384
1040
1.570796326794896
1001
ACAD_DSTYLE_DIM_LINETYPE
1070
   380
1005
14
1001
ACAD_DSTYLE_DIM_EXT1_LINETYPE
1070
   381
1005
14
1001
ACAD_DSTYLE_DIM_EXT2_LINETYPE
1070
   382
1005
14
  0
ENDTAB
  0
TABLE
  2
BLOCK_RECORD
  5
1
330
0
100
AcDbSymbolTable
 70
     5
  0
BLOCK_RECORD
  5
1F
102
{ACAD_XDICTIONARY
360
8F
102
}
330
1
100
AcDbSymbolTableRecord
100
AcDbBlockTableRecord
  2
*Model_Space
340
22
  0
BLOCK_RECORD
  5
1B
330
1
100
AcDbSymbolTableRecord
100
AcDbBlockTableRecord
  2
*Paper_Space
340
1E
  0
BLOCK_RECORD
  5
23
330
1
100
AcDbSymbolTableRecord
100
AcDbBlockTableRecord
  2
*Paper_Space0
340
26
  0
BLOCK_RECORD
  5
87
330
1
100
AcDbSymbolTableRecord
100
AcDbBlockTableRecord
  2
GENAXEH
340
0
  0
BLOCK_RECORD
  5
E48
330
1
100
AcDbSymbolTableRecord
100
AcDbBlockTableRecord
  2
*D2
340
0
  0
BLOCK_RECORD
  5
36E4
330
1
100
AcDbSymbolTableRecord
100
AcDbBlockTableRecord
  2
*D3
340
0
  0
ENDTAB
  0
ENDSEC
  0
SECTION
  2
BLOCKS
  0
BLOCK
  5
20
330
1F
100
AcDbEntity
  8
0
100
AcDbBlockBegin
  2
*Model_Space
 70
     0
 10
0.0
 20
0.0
 30
0.0
  3
*Model_Space
  1

  0
ENDBLK
  5
21
330
1F
100
AcDbEntity
  8
0
100
AcDbBlockEnd
  0
BLOCK
  5
1C
330
1B
100
AcDbEntity
 67
     1
  8
0
100
AcDbBlockBegin
  2
*Paper_Space
 70
     0
 10
0.0
 20
0.0
 30
0.0
  3
*Paper_Space
  1

  0
ENDBLK
  5
1D
330
1B
100
AcDbEntity
 67
     1
  8
0
100
AcDbBlockEnd
  0
BLOCK
  5
24
330
23
100
AcDbEntity
 67
     1
  8
0
100
AcDbBlockBegin
  2
*Paper_Space0
 70
     0
 10
0.0
 20
0.0
 30
0.0
  3
*Paper_Space0
  1

  0
ENDBLK
  5
25
330
23
100
AcDbEntity
 67
     1
  8
0
100
AcDbBlockEnd
  0
BLOCK
  5
89
330
87
100
AcDbEntity
  8
0
100
AcDbBlockBegin
  2
GENAXEH
 70
     0
 10
0.0
 20
0.0
 30
0.0
  3
GENAXEH
  1

  0
LINE
  5
88
330
87
100
AcDbEntity
  8
0
100
AcDbLine
 10
-1.0
 20
0.0
 30
0.0
 11
1.0
 21
0.0
 31
0.0
  0
ENDBLK
  5
8A
330
87
100
AcDbEntity
  8
0
100
AcDbBlockEnd
  0
BLOCK
  5
E49
330
E48
100
AcDbEntity
  8
0
100
AcDbBlockBegin
  2
*D2
 70
     1
 10
0.0
 20
0.0
 30
0.0
  3
*D2
  1

  0
LINE
  5
3823
330
E48
100
AcDbEntity
  8
AM_5
  6
ByBlock
100
AcDbLine
 10
2342.767332719822
 20
1125.282488172726
 30
0.0
 11
2342.767332719822
 21
1275.440047195184
 31
0.0
  0
LINE
  5
3824
330
E48
100
AcDbEntity
  8
AM_5
  6
ByBlock
100
AcDbLine
 10
2842.854352803712
 20
1125.282488172726
 30
0.0
 11
2842.854352803712
 21
1275.440047195184
 31
0.0
  0
LINE
  5
3825
330
E48
100
AcDbEntity
  8
AM_5
  6
ByBlock
100
AcDbLine
 10
2347.767332719822
 20
1274.440047195184
 30
0.0
 11
2837.854352803712
 21
1274.440047195184
 31
0.0
  0
SOLID
  5
3826
330
E48
100
AcDbEntity
  8
AM_5
100
AcDbTrace
 10
2347.767332719822
 20
1275.273380528517
 30
0.0
 11
2347.767332719822
 21
1273.60671386185
 31
0.0
 12
2342.767332719822
 22
1274.440047195184
 32
0.0
 13
2342.767332719822
 23
1274.440047195184
 33
0.0
  0
SOLID
  5
3827
330
E48
100
AcDbEntity
  8
AM_5
100
AcDbTrace
 10
2837.854352803712
 20
1275.273380528517
 30
0.0
 11
2837.854352803712
 21
1273.60671386185
 31
0.0
 12
2842.854352803712
 22
1274.440047195184
 32
0.0
 13
2842.854352803712
 23
1274.440047195184
 33
0.0
  0
MTEXT
  5
3828
330
E48
100
AcDbEntity
  8
AM_5
 62
     2
100
AcDbMText
 10
2592.810842761767
 20
1279.940047195184
 30
0.0
 40
8.0
 41
0.0
 71
     5
 72
     1
  1
{\Famgdt;o} 500
 73
     1
 44
1.0
1001
ACAD
1000
MTEXTBEGIN
1070
    73
1070
     1
1070
    44
1040
1.0
1070
    74
1070
     0
1000
MTEXTEND
  0
POINT
  5
3829
330
E48
100
AcDbEntity
  8
Defpoints
 62
     0
100
AcDbPoint
 10
2342.767332719822
 20
1124.282488172726
 30
0.0
  0
POINT
  5
382A
330
E48
100
AcDbEntity
  8
Defpoints
 62
     0
100
AcDbPoint
 10
2842.854352803712
 20
1124.282488172726
 30
0.0
  0
POINT
  5
382B
330
E48
100
AcDbEntity
  8
Defpoints
 62
     0
100
AcDbPoint
 10
2842.854352803712
 20
1274.440047195184
 30
0.0
  0
ENDBLK
  5
E4A
330
E48
100
AcDbEntity
  8
0
100
AcDbBlockEnd
  0
BLOCK
  5
36E5
330
36E4
100
AcDbEntity
  8
0
100
AcDbBlockBegin
  2
*D3
 70
     1
 10
0.0
 20
0.0
 30
0.0
  3
*D3
  1

  0
LINE
  5
382C
330
36E4
100
AcDbEntity
  8
AM_5
  6
ByBlock
100
AcDbLine
 10
2591.828299999477
 20
746.2824881727257
 30
0.0
 11
2420.13279095971
 21
746.2824881727257
 31
0.0
  0
LINE
  5
382D
330
36E4
100
AcDbEntity
  8
AM_5
  6
ByBlock
100
AcDbLine
 10
2432.132790959709
 20
1117.070835855105
 30
0.0
 11
2420.132790959711
 21
1117.070835855105
 31
0.0
  0
LINE
  5
382E
330
36E4
100
AcDbEntity
  8
AM_5
  6
ByBlock
100
AcDbLine
 10
2421.13279095971
 20
751.2824881727257
 30
0.0
 11
2421.13279095971
 21
1112.070835855105
 31
0.0
  0
SOLID
  5
382F
330
36E4
100
AcDbEntity
  8
AM_5
100
AcDbTrace
 10
2420.299457626376
 20
751.2824881727257
 30
0.0
 11
2421.966124293044
 21
751.2824881727257
 31
0.0
 12
2421.13279095971
 22
746.2824881727257
 32
0.0
 13
2421.13279095971
 23
746.2824881727257
 33
0.0
  0
SOLID
  5
3830
330
36E4
100
AcDbEntity
  8
AM_5
100
AcDbTrace
 10
2420.299457626377
 20
1112.070835855105
 30
0.0
 11
2421.966124293044
 21
1112.070835855105
 31
0.0
 12
2421.13279095971
 22
1117.070835855105
 32
0.0
 13
2421.13279095971
 23
1117.070835855105
 33
0.0
  0
MTEXT
  5
3831
330
36E4
100
AcDbEntity
  8
AM_5
 62
     2
100
AcDbMText
 10
2415.63279095971
 20
931.6766620139159
 30
0.0
 40
8.0
 41
0.0
 71
     5
 72
     1
  1
371
 11
0.0000000000000001
 21
1.0
 31
0.0
 73
     1
 44
1.0
1001
ACAD
1000
MTEXTBEGIN
1070
    73
1070
     1
1070
    44
1040
1.0
1070
    74
1070
     0
1000
MTEXTEND
  0
POINT
  5
3832
330
36E4
100
AcDbEntity
  8
Defpoints
 62
     0
100
AcDbPoint
 10
2592.828299999477
 20
746.2824881727257
 30
0.0
  0
POINT
  5
3833
330
36E4
100
AcDbEntity
  8
Defpoints
 62
     0
100
AcDbPoint
 10
2433.132790959709
 20
1117.070835855105
 30
0.0
  0
POINT
  5
3834
330
36E4
100
AcDbEntity
  8
Defpoints
 62
     0
100
AcDbPoint
 10
2421.13279095971
 20
1117.070835855105
 30
0.0
  0
ENDBLK
  5
36E6
330
36E4
100
AcDbEntity
  8
0
100
AcDbBlockEnd
  0
ENDSEC
  0
SECTION
  2
ENTITIES
  0
LINE
  5
945
330
1F
100
AcDbEntity
  8
P-0000
  6
Continuous
 62
     7
100
AcDbLine
 10
2556.310842761766
 20
1055.74069921713
 30
0.0
 11
2556.310842761766
 21
751.2824881727257
 31
0.0
1001
ACME_LAYERS
1000
1
  0
LINE
  5
947
330
1F
100
AcDbEntity
  8
P-0000
  6
Continuous
 62
     7
100
AcDbLine
 10
2508.810842761767
 20
1116.282488172723
 30
0.0
 11
2528.810842761767
 21
1116.282488172741
 31
0.0
1001
ACME_LAYERS
1000
1
  0
LINE
  5
948
330
1F
100
AcDbEntity
  8
P-0000
  6
Continuous
 62
     7
100
AcDbLine
 10
2545.810842761766
 20
1120.282488172726
 30
0.0
 11
2510.373051292283
 21
1120.282488172726
 31
0.0
1001
ACME_LAYERS
1000
1
  0
LINE
  5
94A
330
1F
100
AcDbEntity
  8
P-0000
  6
Continuous
 62
     7
100
AcDbLine
 10
2508.489129489526
 20
1122.282488172726
 30
0.0
 11
2545.810842761766
 21
1122.282488172726
 31
0.0
1001
ACME_LAYERS
1000
1
  0
HATCH
  5
94B
330
1F
100
AcDbEntity
  8
P-0000
  6
Continuous
 62
     3
100
AcDbHatch
 10
0.0
 20
0.0
 30
0.0
210
0.0
220
0.0
230
1.0
  2
_U
 70
     0
 71
     0
 91
        1
 92
        1
 93
        9
 72
     1
 10
2427.767332719801
 20
1116.282488172726
 11
2426.767332719801
 21
1118.014538980296
 72
     1
 10
2426.767332719801
 20
1118.014538980296
 11
2431.13279095971
 21
1120.534937470241
 72
     2
 10
2433.132790959709
 20
1117.070835855105
 40
4.0
 50
239.9999999999895
 51
270.0
 73
     0
 72
     2
 10
2433.132790959709
 20
1117.070835855105
 40
4.000000000000613
 50
270.0
 51
315.0000000000009
 73
     0
 72
     1
 10
2435.961218084456
 20
1119.899262979852
 11
2436.663779329208
 21
1119.196701735099
 72
     1
 10
2436.663779329208
 20
1119.196701735099
 11
2435.249565766835
 21
1117.782488172726
 72
     1
 10
2435.249565766835
 20
1117.782488172726
 11
2434.547004522083
 21
1118.485049417478
 72
     2
 10
2433.132790959709
 20
1117.070835855105
 40
2.000000000000115
 50
44.99999999999594
 51
120.0000000000099
 73
     1
 72
     1
 10
2432.132790959709
 20
1118.802886662673
 11
2427.767332719801
 21
1116.282488172726
 97
        0
 75
     0
 76
     0
 52
44.99999999999999
 41
2.0
 77
     0
 78
     1
 53
45.0
 43
2744.571284263033
 44
982.3916231391619
 45
-1.414213562373094
 46
1.414213562373094
 79
     0
 98
        1
 10
2744.571284263033
 20
982.3916231391619
1001
ACME_LAYERS
1000
1
  0
LINE
  5
94C
330
1F
100
AcDbEntity
  8
P-0000
  6
Continuous
 62
     3
100
AcDbLine
 10
2426.767332719801
 20
1118.014538980296
 30
0.0
 11
2431.13279095971
 21
1120.534937470241
 31
0.0
1001
ACME_LAYERS
1000
1
  0
LINE
  5
94D
330
1F
100
AcDbEntity
  8
P-0000
  6
Continuous
 62
     7
100
AcDbLine
 10
2427.767332719801
 20
1116.282488172726
 30
0.0
 11
2432.132790959709
 21
1118.802886662673
 31
0.0
1001
ACME_LAYERS
1000
1
  0
LINE
  5
94E
330
1F
100
AcDbEntity
  8
P-0000
  6
Continuous
 62
     7
100
AcDbLine
 10
2427.767332719801
 20
1116.282488172726
 30
0.0
 11
2432.132790959709
 21
1118.802886662673
 31
0.0
1001
ACME_LAYERS
1000
1
  0
LINE
  5
94F
330
1F
100
AcDbEntity
  8
P-0000
  6
Continuous
 62
     7
100
AcDbLine
 10
2427.767332719801
 20
1116.282488172726
 30
0.0
 11
2452.339129489525
 21
1116.282488172726
 31
0.0
1001
ACME_LAYERS
1000
1
  0
LINE
  5
950
330
1F
100
AcDbEntity
  8
P-0000
  6
Continuous
 62
     7
100
AcDbLine
 10
2427.767332719801
 20
1116.282488172726
 30
0.0
 11
2426.767332719801
 21
1118.014538980296
 31
0.0
1001
ACME_LAYERS
1000
1
  0
LINE
  5
951
330
1F
100
AcDbEntity
  8
P-0000
  6
Continuous
 62
     7
100
AcDbLine
 10
2452.339129489525
 20
1116.282488172726
 30
0.0
 11
2490.310842761779
 21
1116.282488172723
 31
0.0
1001
ACME_LAYERS
1000
1
  0
LINE
  5
955
330
1F
100
AcDbEntity
  8
P-0000
  6
Continuous
 62
     7
100
AcDbLine
 10
2472.560842761759
 20
1118.282488172726
 30
0.0
 11
2480.517332719801
 21
1118.282488172726
 31
0.0
1001
ACME_LAYERS
1000
1
  0
ARC
  5
95C
330
1F
100
AcDbEntity
  8
P-0000
  6
Continuous
 62
     7
100
AcDbCircle
 10
2452.339129489525
 20
1120.282488172726
 30
0.0
 40
1.999999999999253
100
AcDbArc
 50
239.9999999999966
 51
270.0
1001
ACME_LAYERS
1000
1
  0
ARC
  5
95D
330
1F
100
AcDbEntity
  8
P-0000
  6
Continuous
 62
     7
100
AcDbCircle
 10
2452.339129489525
 20
1120.282488172726
 30
0.0
 40
4.000000000000131
100
AcDbArc
 50
239.9999999999991
 51
270.0
1001
ACME_LAYERS
1000
1
  0
LINE
  5
95E
330
1F
100
AcDbEntity
  8
P-0000
  6
Continuous
 62
     7
100
AcDbLine
 10
2452.617332719801
 20
1118.282488172726
 30
0.0
 11
2446.84938352737
 21
1121.612615191648
 31
0.0
1001
ACME_LAYERS
1000
1
  0
LINE
  5
95F
330
1F
100
AcDbEntity
  8
P-0000
  6
Continuous
 62
     7
100
AcDbLine
 10
2446.901874479892
 20
1118.802886662673
 30
0.0
 11
2450.339129489524
 21
1116.818386557588
 31
0.0
1001
ACME_LAYERS
1000
1
  0
LINE
  5
960
330
1F
100
AcDbEntity
  8
P-0000
  6
Continuous
 62
     7
100
AcDbLine
 10
2436.663779329208
 20
1119.196701735099
 30
0.0
 11
2442.370886110393
 21
1119.196701735099
 31
0.0
1001
ACME_LAYERS
1000
1
  0
LINE
  5
961
330
1F
100
AcDbEntity
  8
P-0000
  6
Continuous
 62
     7
100
AcDbLine
 10
2435.249565766835
 20
1117.782488172726
 30
0.0
 11
2443.785099672767
 21
1117.782488172726
 31
0.0
1001
ACME_LAYERS
1000
1
  0
LINE
  5
962
330
1F
100
AcDbEntity
  8
P-0000
  6
Continuous
 62
     7
100
AcDbLine
 10
2435.499383527371
 20
1122.282488172726
 30
0.0
 11
2444.34938352737
 21
1122.282488172726
 31
0.0
1001
ACME_LAYERS
1000
1
  0
LINE
  5
963
330
1F
100
AcDbEntity
  8
P-0000
  6
Continuous
 62
     7
100
AcDbLine
 10
2433.132790959709
 20
1121.070835855105
 30
0.0
 11
2445.901874479893
 21
1121.070835855105
 31
0.0
1001
ACME_LAYERS
1000
1
  0
ARC
  5
964
330
1F
100
AcDbEntity
  8
P-0000
  6
Continuous
 62
     7
100
AcDbCircle
 10
2435.499383527369
 20
1117.282488172726
 30
0.0
 40
5.0
100
AcDbArc
 50
89.99999999997395
 51
120.0000000000009
1001
ACME_LAYERS
1000
1
  0
ARC
  5
965
330
1F
100
AcDbEntity
  8
P-0000
  6
Continuous
 62
     7
100
AcDbCircle
 10
2433.132790959709
 20
1117.070835855105
 30
0.0
 40
4.000000000000613
100
AcDbArc
 50
44.99999999999568
 51
90.0
1001
ACME_LAYERS
1000
1
  0
LINE
  5
966
330
1F
100
AcDbEntity
  8
P-0000
  6
Continuous
 62
     7
100
AcDbLine
 10
2434.547004522083
 20
1118.485049417478
 30
0.0
 11
2435.249565766835
 21
1117.782488172726
 31
0.0
1001
ACME_LAYERS
1000
1
  0
ARC
  5
967
330
1F
100
AcDbEntity
  8
P-0000
  6
Continuous
 62
     7
100
AcDbCircle
 10
2433.132790959709
 20
1117.070835855105
 30
0.0
 40
4.0
100
AcDbArc
 50
90.0
 51
120.0000000000034
1001
ACME_LAYERS
1000
1
  0
LINE
  5
968
330
1F
100
AcDbEntity
  8
P-0000
  6
Continuous
 62
     7
100
AcDbLine
 10
2431.13279095971
 20
1120.534937470241
 30
0.0
 11
2432.999383527369
 21
1121.612615191648
 31
0.0
1001
ACME_LAYERS
1000
1
  0
ARC
  5
969
102
{ACAD_REACTORS
330
36F1
102
}
330
1F
100
AcDbEntity
  8
P-0000
  6
Continuous
 62
     7
100
AcDbCircle
 10
2433.132790959709
 20
1117.070835855105
 30
0.0
 40
2.000000000000115
100
AcDbArc
 50
44.99999999999568
 51
120.0000000000034
1001
ACME_LAYERS
1000
1
  0
LINE
  5
96A
330
1F
100
AcDbEntity
  8
P-0000
  6
Continuous
 62
     7
100
AcDbLine
 10
2436.663779329208
 20
1119.196701735099
 30
0.0
 11
2435.249565766835
 21
1117.782488172726
 31
0.0
1001
ACME_LAYERS
1000
1
  0
LINE
  5
96B
330
1F
100
AcDbEntity
  8
P-0000
  6
Continuous
 62
     7
100
AcDbLine
 10
2435.961218084456
 20
1119.899262979852
 30
0.0
 11
2436.663779329208
 21
1119.196701735099
 31
0.0
1001
ACME_LAYERS
1000
1
  0
ARC
  5
96C
330
1F
100
AcDbEntity
  8
P-0000
  6
Continuous
 62
     7
100
AcDbCircle
 10
2445.901874479893
 20
1117.070835855105
 30
0.0
 40
1.999999999999401
100
AcDbArc
 50
59.99999999999665
 51
135.0000000000043
1001
ACME_LAYERS
1000
1
  0
ARC
  5
96D
330
1F
100
AcDbEntity
  8
P-0000
  6
Continuous
 62
     7
100
AcDbCircle
 10
2444.34938352737
 20
1117.282488172726
 30
0.0
 40
5.000000000000164
100
AcDbArc
 50
59.99999999999912
 51
90.0
1001
ACME_LAYERS
1000
1
  0
ARC
  5
96E
330
1F
100
AcDbEntity
  8
P-0000
  6
Continuous
 62
     7
100
AcDbCircle
 10
2445.901874479893
 20
1117.070835855105
 30
0.0
 40
1.999999999999401
100
AcDbArc
 50
59.99999999999665
 51
135.0000000000043
1001
ACME_LAYERS
1000
1
  0
ARC
  5
96F
330
1F
100
AcDbEntity
  8
P-0000
  6
Continuous
 62
     7
100
AcDbCircle
 10
2445.901874479893
 20
1117.070835855105
 30
0.0
 40
3.999999999998728
100
AcDbArc
 50
59.99999999999665
 51
90.0
1001
ACME_LAYERS
1000
1
  0
ARC
  5
970
330
1F
100
AcDbEntity
  8
P-0000
  6
Continuous
 62
     7
100
AcDbCircle
 10
2445.901874479893
 20
1117.070835855105
 30
0.0
 40
4.0
100
AcDbArc
 50
90.0
 51
135.0000000000043
1001
ACME_LAYERS
1000
1
  0
LINE
  5
971
330
1F
100
AcDbEntity
  8
P-0000
  6
Continuous
 62
     7
100
AcDbLine
 10
2442.370886110393
 20
1119.196701735099
 30
0.0
 11
2443.073447355146
 21
1119.899262979852
 31
0.0
1001
ACME_LAYERS
1000
1
  0
LINE
  5
972
330
1F
100
AcDbEntity
  8
P-0000
  6
Continuous
 62
     7
100
AcDbLine
 10
2443.785099672767
 20
1117.782488172726
 30
0.0
 11
2444.487660917519
 21
1118.485049417478
 31
0.0
1001
ACME_LAYERS
1000
1
  0
LINE
  5
973
330
1F
100
AcDbEntity
  8
P-0000
  6
Continuous
 62
     7
100
AcDbLine
 10
2443.785099672767
 20
1117.782488172726
 30
0.0
 11
2442.370886110393
 21
1119.196701735099
 31
0.0
1001
ACME_LAYERS
1000
1
  0
LINE
  5
974
330
1F
100
AcDbEntity
  8
P-0000
  6
Continuous
 62
     7
100
AcDbLine
 10
2447.901874479893
 20
1120.534937470241
 30
0.0
 11
2451.339129489525
 21
1118.550437365158
 31
0.0
1001
ACME_LAYERS
1000
1
  0
LINE
  5
975
330
1F
100
AcDbEntity
  8
P-0000
  6
Continuous
 62
     7
100
AcDbLine
 10
2452.617332719801
 20
1118.282488172726
 30
0.0
 11
2472.560842761759
 21
1118.282488172726
 31
0.0
1001
ACME_LAYERS
1000
1
  0
LINE
  5
976
330
1F
100
AcDbEntity
  8
P-0000
  6
Continuous
 62
     7
100
AcDbLine
 10
2452.617332719801
 20
1118.282488172726
 30
0.0
 11
2452.339129489525
 21
1118.282488172726
 31
0.0
1001
ACME_LAYERS
1000
1
  0
LINE
  5
978
330
1F
100
AcDbEntity
  8
P-0000
  6
Continuous
 62
     7
100
AcDbLine
 10
2472.49557769882
 20
1131.488408077669
 30
0.0
 11
2472.49557769882
 21
1127.488408077669
 31
0.0
1001
ACME_LAYERS
1000
1
  0
LINE
  5
97B
330
1F
100
AcDbEntity
  8
P-0000
  6
STRICHPUNKT
 62
     3
100
AcDbLine
 10
2476.552114142911
 20
1121.051340815815
 30
0.0
 11
2476.552114142911
 21
1146.635689517384
 31
0.0
1001
ACME_LAYERS
1000
1
  0
LINE
  5
981
330
1F
100
AcDbEntity
  8
P-0000
  6
Continuous
 62
     7
100
AcDbLine
 10
2495.310842761764
 20
1116.282488172723
 30
0.0
 11
2508.810842761767
 21
1116.282488172723
 31
0.0
1001
ACME_LAYERS
1000
1
  0
LINE
  5
982
330
1F
100
AcDbEntity
  8
P-0000
  6
Continuous
 62
     7
100
AcDbLine
 10
2480.517332719801
 20
1118.282488172726
 30
0.0
 11
2499.953231104663
 21
1118.282488172726
 31
0.0
1001
ACME_LAYERS
1000
1
  0
LINE
  5
983
330
1F
100
AcDbEntity
  8
P-0000
  6
Continuous
 62
     7
100
AcDbLine
 10
2491.072045821855
 20
1116.282488172726
 30
0.0
 11
2499.953231104663
 21
1116.282488172726
 31
0.0
1001
ACME_LAYERS
1000
1
  0
LINE
  5
984
330
1F
100
AcDbEntity
  8
P-0000
  6
Continuous
 62
     7
100
AcDbLine
 10
2480.49557769882
 20
1131.488408077669
 30
0.0
 11
2480.49557769882
 21
1127.488408077669
 31
0.0
1001
ACME_LAYERS
1000
1
  0
LINE
  5
985
330
1F
100
AcDbEntity
  8
P-0000
  6
Continuous
 62
     7
100
AcDbLine
 10
2490.310842761779
 20
1116.282488172723
 30
0.0
 11
2491.072045821855
 21
1116.282488172726
 31
0.0
1001
ACME_LAYERS
1000
1
  0
LINE
  5
986
330
1F
100
AcDbEntity
  8
P-0000
  6
Continuous
 62
     7
100
AcDbLine
 10
2501.953231104663
 20
1116.818386557588
 30
0.0
 11
2507.489129489526
 21
1120.014538980296
 31
0.0
1001
ACME_LAYERS
1000
1
  0
LINE
  5
987
330
1F
100
AcDbEntity
  8
P-0000
  6
Continuous
 62
     7
100
AcDbLine
 10
2508.489129489526
 20
1120.282488172726
 30
0.0
 11
2510.373051292283
 21
1120.282488172726
 31
0.0
1001
ACME_LAYERS
1000
1
  0
LINE
  5
988
330
1F
100
AcDbEntity
  8
P-0000
  6
Continuous
 62
     7
100
AcDbLine
 10
2500.953231104662
 20
1118.550437365156
 30
0.0
 11
2506.489129489526
 21
1121.746589787864
 31
0.0
1001
ACME_LAYERS
1000
1
  0
ARC
  5
989
330
1F
100
AcDbEntity
  8
P-0000
  6
Continuous
 62
     7
100
AcDbCircle
 10
2499.953231104663
 20
1120.282488172726
 30
0.0
 40
2.0
100
AcDbArc
 50
270.0
 51
300.0000000000034
1001
ACME_LAYERS
1000
1
  0
ARC
  5
98A
330
1F
100
AcDbEntity
  8
P-0000
  6
Continuous
 62
     7
100
AcDbCircle
 10
2508.489129489526
 20
1118.282488172726
 30
0.0
 40
4.0
100
AcDbArc
 50
90.0
 51
120.0000000000009
1001
ACME_LAYERS
1000
1
  0
ARC
  5
98B
330
1F
100
AcDbEntity
  8
P-0000
  6
Continuous
 62
     7
100
AcDbCircle
 10
2508.489129489526
 20
1118.282488172726
 30
0.0
 40
2.0
100
AcDbArc
 50
90.0
 51
119.999999999971
1001
ACME_LAYERS
1000
1
  0
ARC
  5
98C
330
1F
100
AcDbEntity
  8
P-0000
  6
Continuous
 62
     7
100
AcDbCircle
 10
2499.953231104663
 20
1120.282488172726
 30
0.0
 40
4.0
100
AcDbArc
 50
270.0
 51
300.0000000000008
1001
ACME_LAYERS
1000
1
  0
LINE
  5
98D
330
1F
100
AcDbEntity
  8
P-0000
  6
Continuous
 62
     7
100
AcDbLine
 10
2553.440524575302
 20
1122.282488172726
 30
0.0
 11
2592.810842761767
 21
1122.282488172726
 31
0.0
1001
ACME_LAYERS
1000
1
  0
LINE
  5
98E
330
1F
100
AcDbEntity
  8
P-0000
  6
Continuous
 62
     7
100
AcDbLine
 10
2545.810842761766
 20
1122.282488172726
 30
0.0
 11
2592.810842761767
 21
1122.282488172726
 31
0.0
1001
ACME_LAYERS
1000
1
  0
LINE
  5
98F
330
1F
100
AcDbEntity
  8
P-0000
  6
Continuous
 62
     7
100
AcDbLine
 10
2528.810842761767
 20
1116.282488172741
 30
0.0
 11
2545.810842761766
 21
1116.282488172741
 31
0.0
1001
ACME_LAYERS
1000
1
  0
LINE
  5
990
330
1F
100
AcDbEntity
  8
P-0000
  6
Continuous
 62
     7
100
AcDbLine
 10
2526.306571445447
 20
1122.502020246857
 30
0.0
 11
2526.310842761759
 21
1122.485856494265
 31
0.0
1001
ACME_LAYERS
1000
1
  0
LINE
  5
991
330
1F
100
AcDbEntity
  8
P-0000
  6
Continuous
 62
     7
100
AcDbLine
 10
2548.810842761767
 20
1116.282488172743
 30
0.0
 11
2548.810842761767
 21
1117.282488172726
 31
0.0
1001
ACME_LAYERS
1000
1
  0
ARC
  5
992
330
1F
100
AcDbEntity
  8
P-0000
  6
Continuous
 62
     7
100
AcDbCircle
 10
2545.810842761766
 20
1117.282488172726
 30
0.0
 40
3.0
100
AcDbArc
 50
0.0
 51
90.0
1001
ACME_LAYERS
1000
1
  0
LINE
  5
993
330
1F
100
AcDbEntity
  8
P-0000
  6
Continuous
 62
     7
100
AcDbLine
 10
2545.810842761766
 20
1116.282488172741
 30
0.0
 11
2548.810842761767
 21
1116.282488172743
 31
0.0
1001
ACME_LAYERS
1000
1
  0
LINE
  5
994
330
1F
100
AcDbEntity
  8
P-0000
  6
STRICHPUNKT
 62
     3
100
AcDbLine
 10
2592.810842761766
 20
1094.42436540378
 30
0.0
 11
2592.810842761766
 21
1093.968552044946
 31
0.0
1001
ACME_LAYERS
1000
1
  0
LINE
  5
995
330
1F
100
AcDbEntity
  8
P-0000
  6
Continuous
 62
     7
100
AcDbLine
 10
2556.310842761764
 20
971.2824881727268
 30
0.0
 11
2556.310842761766
 21
866.2824881727257
 31
0.0
1001
ACME_LAYERS
1000
1
  0
LINE
  5
996
330
1F
100
AcDbEntity
  8
P-0000
  6
Continuous
 62
     7
100
AcDbLine
 10
2556.310842761766
 20
978.2824881727259
 30
0.0
 11
2556.310842761764
 21
971.2824881727268
 31
0.0
1001
ACME_LAYERS
1000
1
  0
LINE
  5
997
102
{ACAD_REACTORS
330
36F1
102
}
330
1F
100
AcDbEntity
  8
P-0000
  6
Continuous
 62
     7
100
AcDbLine
 10
2627.971096799611
 20
746.2824881727257
 30
0.0
 11
2557.650588723922
 21
746.2824881727257
 31
0.0
1001
ACME_LAYERS
1000
1
  0
LINE
  5
998
330
1F
100
AcDbEntity
  8
P-0000
  6
Continuous
 62
     3
100
AcDbLine
 10
2626.669278300296
 20
751.2824881727257
 30
0.0
 11
2558.669278300297
 21
751.2824881727257
 31
0.0
1001
ACME_LAYERS
1000
1
  0
LINE
  5
99A
330
1F
100
AcDbEntity
  8
P-0000
  6
Continuous
 62
     7
100
AcDbLine
 10
2629.310842761766
 20
751.2824881727257
 30
0.0
 11
2627.971096799611
 21
746.2824881727257
 31
0.0
1001
ACME_LAYERS
1000
1
  0
LINE
  5
99E
330
1F
100
AcDbEntity
  8
P-0000
  6
Continuous
 62
     7
100
AcDbLine
 10
2480.55211414291
 20
1133.488408077672
 30
0.0
 11
2480.55211414291
 21
1127.488408077669
 31
0.0
1001
ACME_LAYERS
1000
1
  0
LINE
  5
9A0
330
1F
100
AcDbEntity
  8
P-0000
  6
Continuous
 62
     7
100
AcDbLine
 10
2459.05211414292
 20
1132.98840807767
 30
0.0
 11
2472.55211414291
 21
1132.98840807767
 31
0.0
1001
ACME_LAYERS
1000
1
  0
LINE
  5
9A1
330
1F
100
AcDbEntity
  8
P-0000
  6
Continuous
 62
     7
100
AcDbLine
 10
2464.880541267655
 20
1131.488408077669
 30
0.0
 11
2467.318143980883
 21
1131.488408077669
 31
0.0
1001
ACME_LAYERS
1000
1
  0
LINE
  5
9A2
330
1F
100
AcDbEntity
  8
P-0000
  6
Continuous
 62
     7
100
AcDbLine
 10
2592.802114142903
 20
1132.98840807767
 30
0.0
 11
2505.55211414291
 21
1132.98840807767
 31
0.0
1001
ACME_LAYERS
1000
1
  0
LINE
  5
9A3
330
1F
100
AcDbEntity
  8
P-0000
  6
Continuous
 62
     7
100
AcDbLine
 10
2464.880541267655
 20
1131.488408077669
 30
0.0
 11
2467.318143980883
 21
1131.488408077669
 31
0.0
1001
ACME_LAYERS
1000
1
  0
LINE
  5
9A4
330
1F
100
AcDbEntity
  8
P-0000
  6
Continuous
 62
     7
100
AcDbLine
 10
2467.318143980883
 20
1131.488408077669
 30
0.0
 11
2468.728472509743
 21
1131.488408077669
 31
0.0
1001
ACME_LAYERS
1000
1
  0
LINE
  5
9A5
330
1F
100
AcDbEntity
  8
P-0000
  6
Continuous
 62
     7
100
AcDbLine
 10
2467.318143980883
 20
1131.488408077669
 30
0.0
 11
2468.728472509743
 21
1131.488408077669
 31
0.0
1001
ACME_LAYERS
1000
1
  0
LINE
  5
9A6
330
1F
100
AcDbEntity
  8
P-0000
  6
Continuous
 62
     7
100
AcDbLine
 10
2592.802114142908
 20
1131.256357270102
 30
0.0
 11
2506.552114142911
 21
1131.256357270102
 31
0.0
1001
ACME_LAYERS
1000
1
  0
LINE
  5
9A7
330
1F
100
AcDbEntity
  8
P-0000
  6
Continuous
 62
     7
100
AcDbLine
 10
2505.55211414291
 20
1132.98840807767
 30
0.0
 11
2499.954037931559
 21
1129.756357270102
 31
0.0
1001
ACME_LAYERS
1000
1
  0
LINE
  5
9A8
330
1F
100
AcDbEntity
  8
P-0000
  6
Continuous
 62
     7
100
AcDbLine
 10
2480.55211414291
 20
1132.98840807767
 30
0.0
 11
2505.55211414291
 21
1132.98840807767
 31
0.0
1001
ACME_LAYERS
1000
1
  0
LINE
  5
9A9
330
1F
100
AcDbEntity
  8
P-0000
  6
Continuous
 62
     7
100
AcDbLine
 10
2506.552114142911
 20
1131.256357270102
 30
0.0
 11
2505.55211414291
 21
1132.98840807767
 31
0.0
1001
ACME_LAYERS
1000
1
  0
LINE
  5
9AA
330
1F
100
AcDbEntity
  8
P-0000
  6
Continuous
 62
     7
100
AcDbLine
 10
2505.55211414291
 20
1132.98840807767
 30
0.0
 11
2505.48014798041
 21
1132.98840807767
 31
0.0
1001
ACME_LAYERS
1000
1
  0
LINE
  5
9AB
330
1F
100
AcDbEntity
  8
P-0000
  6
Continuous
 62
     7
100
AcDbLine
 10
2468.728472509743
 20
1131.488408077669
 30
0.0
 11
2471.552114142911
 21
1131.488408077669
 31
0.0
1001
ACME_LAYERS
1000
1
  0
LINE
  5
9AD
330
1F
100
AcDbEntity
  8
P-0000
  6
Continuous
 62
     3
100
AcDbLine
 10
2453.614291969403
 20
1129.48840807767
 30
0.0
 11
2454.150190354265
 21
1129.48840807767
 31
0.0
1001
ACME_LAYERS
1000
1
  0
LINE
  5
9AE
330
1F
100
AcDbEntity
  8
P-0000
  6
Continuous
 62
     3
100
AcDbLine
 10
2453.150190354266
 20
1129.756357270102
 30
0.0
 11
2453.614291969403
 21
1129.48840807767
 31
0.0
1001
ACME_LAYERS
1000
1
  0
LINE
  5
9AF
330
1F
100
AcDbEntity
  8
P-0000
  6
Continuous
 62
     7
100
AcDbLine
 10
2491.05211414291
 20
1130.316835202417
 30
0.0
 11
2491.294754830031
 21
1130.074194515297
 31
0.0
1001
ACME_LAYERS
1000
1
  0
LINE
  5
9B0
330
1F
100
AcDbEntity
  8
P-0000
  6
Continuous
 62
     7
100
AcDbLine
 10
2462.052114142911
 20
1130.316835202417
 30
0.0
 11
2461.809473455792
 21
1130.074194515297
 31
0.0
1001
ACME_LAYERS
1000
1
  0
LINE
  5
9B1
330
1F
100
AcDbEntity
  8
P-0000
  6
Continuous
 62
     7
100
AcDbLine
 10
2471.552114142911
 20
1131.488408077669
 30
0.0
 11
2471.552114142911
 21
1129.48840807767
 31
0.0
1001
ACME_LAYERS
1000
1
  0
LINE
  5
9B2
330
1F
100
AcDbEntity
  8
P-0000
  6
Continuous
 62
     7
100
AcDbLine
 10
2481.552114142911
 20
1131.488408077669
 30
0.0
 11
2481.552114142911
 21
1129.48840807767
 31
0.0
1001
ACME_LAYERS
1000
1
  0
LINE
  5
9B3
330
1F
100
AcDbEntity
  8
P-0000
  6
Continuous
 62
     7
100
AcDbLine
 10
2446.552114142912
 20
1131.256357270102
 30
0.0
 11
2447.552114142911
 21
1132.98840807767
 31
0.0
1001
ACME_LAYERS
1000
1
  0
LINE
  5
9B4
330
1F
100
AcDbEntity
  8
P-0000
  6
Continuous
 62
     7
100
AcDbLine
 10
2446.552114142912
 20
1131.256357270102
 30
0.0
 11
2452.150190354265
 21
1128.024306462532
 31
0.0
1001
ACME_LAYERS
1000
1
  0
LINE
  5
9B5
330
1F
100
AcDbEntity
  8
P-0000
  6
Continuous
 62
     7
100
AcDbLine
 10
2447.552114142911
 20
1132.98840807767
 30
0.0
 11
2453.150190354266
 21
1129.756357270102
 31
0.0
1001
ACME_LAYERS
1000
1
  0
LINE
  5
9B6
330
1F
100
AcDbEntity
  8
P-0000
  6
Continuous
 62
     7
100
AcDbLine
 10
2463.466327705284
 20
1128.902621640043
 30
0.0
 11
2463.223687018163
 21
1128.659980952925
 31
0.0
1001
ACME_LAYERS
1000
1
  0
LINE
  5
9B7
330
1F
100
AcDbEntity
  8
P-0000
  6
Continuous
 62
     7
100
AcDbLine
 10
2489.637900580537
 20
1128.902621640043
 30
0.0
 11
2489.880541267657
 21
1128.659980952925
 31
0.0
1001
ACME_LAYERS
1000
1
  0
LINE
  5
9B8
330
1F
100
AcDbEntity
  8
P-0000
  6
Continuous
 62
     7
100
AcDbLine
 10
2506.552114142911
 20
1131.256357270102
 30
0.0
 11
2500.954037931558
 21
1128.024306462532
 31
0.0
1001
ACME_LAYERS
1000
1
  0
LINE
  5
9B9
330
1F
100
AcDbEntity
  8
P-0000
  6
Continuous
 62
     7
100
AcDbLine
 10
2498.954037931558
 20
1127.488408077669
 30
0.0
 11
2592.802114142908
 21
1127.488408077669
 31
0.0
1001
ACME_LAYERS
1000
1
  0
LINE
  5
9BA
330
1F
100
AcDbEntity
  8
P-0000
  6
Continuous
 62
     7
100
AcDbLine
 10
2498.954037931558
 20
1129.48840807767
 30
0.0
 11
2492.708968392404
 21
1129.48840807767
 31
0.0
1001
ACME_LAYERS
1000
1
  0
LINE
  5
9BB
330
1F
100
AcDbEntity
  8
P-0000
  6
Continuous
 62
     7
100
AcDbLine
 10
2498.954037931558
 20
1127.488408077669
 30
0.0
 11
2492.708968392404
 21
1127.488408077669
 31
0.0
1001
ACME_LAYERS
1000
1
  0
LINE
  5
9BC
330
1F
100
AcDbEntity
  8
P-0000
  6
Continuous
 62
     7
100
AcDbLine
 10
2454.150190354265
 20
1127.488408077669
 30
0.0
 11
2460.395259893417
 21
1127.488408077669
 31
0.0
1001
ACME_LAYERS
1000
1
  0
LINE
  5
9BD
330
1F
100
AcDbEntity
  8
P-0000
  6
Continuous
 62
     7
100
AcDbLine
 10
2471.552114142911
 20
1131.488408077669
 30
0.0
 11
2472.55211414291
 21
1131.488408077669
 31
0.0
1001
ACME_LAYERS
1000
1
  0
LINE
  5
9BE
330
1F
100
AcDbEntity
  8
P-0000
  6
Continuous
 62
     7
100
AcDbLine
 10
2468.728472509743
 20
1131.488408077669
 30
0.0
 11
2471.552114142911
 21
1131.488408077669
 31
0.0
1001
ACME_LAYERS
1000
1
  0
LINE
  5
9BF
330
1F
100
AcDbEntity
  8
P-0000
  6
Continuous
 62
     7
100
AcDbLine
 10
2481.552114142911
 20
1131.488408077669
 30
0.0
 11
2488.223687018165
 21
1131.488408077669
 31
0.0
1001
ACME_LAYERS
1000
1
  0
LINE
  5
9C0
330
1F
100
AcDbEntity
  8
P-0000
  6
Continuous
 62
     7
100
AcDbLine
 10
2480.55211414291
 20
1129.48840807767
 30
0.0
 11
2488.223687018165
 21
1129.48840807767
 31
0.0
1001
ACME_LAYERS
1000
1
  0
LINE
  5
9C1
330
1F
100
AcDbEntity
  8
P-0000
  6
Continuous
 62
     7
100
AcDbLine
 10
2464.880541267657
 20
1129.48840807767
 30
0.0
 11
2472.49557769882
 21
1129.48840807767
 31
0.0
1001
ACME_LAYERS
1000
1
  0
LINE
  5
9C2
330
1F
100
AcDbEntity
  8
P-0000
  6
Continuous
 62
     7
100
AcDbLine
 10
2480.55211414291
 20
1131.488408077669
 30
0.0
 11
2481.552114142911
 21
1131.488408077669
 31
0.0
1001
ACME_LAYERS
1000
1
  0
LINE
  5
9C3
330
1F
100
AcDbEntity
  8
P-0000
  6
Continuous
 62
     7
100
AcDbLine
 10
2454.150190354265
 20
1129.48840807767
 30
0.0
 11
2460.395259893417
 21
1129.48840807767
 31
0.0
1001
ACME_LAYERS
1000
1
  0
LINE
  5
9C4
330
1F
100
AcDbEntity
  8
P-0000
  6
Continuous
 62
     7
100
AcDbLine
 10
2486.55211414291
 20
1131.488408077669
 30
0.0
 11
2481.552114142911
 21
1131.488408077669
 31
0.0
1001
ACME_LAYERS
1000
1
  0
LINE
  5
9C5
330
1F
100
AcDbEntity
  8
P-0000
  6
Continuous
 62
     7
100
AcDbLine
 10
2481.552114142911
 20
1131.488408077669
 30
0.0
 11
2480.55211414291
 21
1131.488408077669
 31
0.0
1001
ACME_LAYERS
1000
1
  0
LINE
  5
9C6
330
1F
100
AcDbEntity
  8
P-0000
  6
Continuous
 62
     7
100
AcDbLine
 10
2447.552114142911
 20
1132.98840807767
 30
0.0
 11
2459.05211414292
 21
1132.98840807767
 31
0.0
1001
ACME_LAYERS
1000
1
  0
LINE
  5
9C7
330
1F
100
AcDbEntity
  8
P-0000
  6
Continuous
 62
     7
100
AcDbLine
 10
2468.10641602949
 20
1131.488408077669
 30
0.0
 11
2472.55211414291
 21
1131.488408077669
 31
0.0
1001
ACME_LAYERS
1000
1
  0
LINE
  5
9C8
330
1F
100
AcDbEntity
  8
P-0000
  6
Continuous
 62
     7
100
AcDbLine
 10
2480.55211414291
 20
1131.488408077669
 30
0.0
 11
2481.552114142911
 21
1131.488408077669
 31
0.0
1001
ACME_LAYERS
1000
1
  0
LINE
  5
9DC
330
1F
100
AcDbEntity
  8
P-0000
  6
Continuous
 62
     7
100
AcDbLine
 10
2592.810842761767
 20
1132.98840807767
 30
0.0
 11
2592.802114142932
 21
1132.98840807767
 31
0.0
1001
ACME_LAYERS
1000
1
  0
LINE
  5
9DD
330
1F
100
AcDbEntity
  8
P-0000
  6
Continuous
 62
     7
100
AcDbLine
 10
2592.810842761767
 20
1131.256357270102
 30
0.0
 11
2592.802114142908
 21
1131.256357270102
 31
0.0
1001
ACME_LAYERS
1000
1
  0
LINE
  5
9DE
330
1F
100
AcDbEntity
  8
P-0000
  6
Continuous
 62
     7
100
AcDbLine
 10
2592.810842761767
 20
1127.488408077669
 30
0.0
 11
2592.802114142908
 21
1127.488408077669
 31
0.0
1001
ACME_LAYERS
1000
1
  0
LINE
  5
9DF
330
1F
100
AcDbEntity
  8
P-0000
  6
Continuous
 62
     7
100
AcDbLine
 10
2471.052114142912
 20
1131.488408077672
 30
0.0
 11
2466.052114142912
 21
1131.488408077672
 31
0.0
1001
ACME_LAYERS
1000
1
  0
LINE
  5
9E1
330
1F
100
AcDbEntity
  8
P-0000
  6
Continuous
 62
     7
100
AcDbLine
 10
2481.552114142911
 20
1131.488408077669
 30
0.0
 11
2485.10641602949
 21
1131.488408077669
 31
0.0
1001
ACME_LAYERS
1000
1
  0
LINE
  5
9E2
330
1F
100
AcDbEntity
  8
P-0000
  6
Continuous
 62
     7
100
AcDbLine
 10
2481.552114142911
 20
1131.488408077669
 30
0.0
 11
2481.052114142912
 21
1131.488408077672
 31
0.0
1001
ACME_LAYERS
1000
1
  0
LINE
  5
9E4
330
1F
100
AcDbEntity
  8
P-0000
  6
Continuous
 62
     7
100
AcDbLine
 10
2472.55211414291
 20
1131.488408077669
 30
0.0
 11
2471.552114142911
 21
1131.488408077669
 31
0.0
1001
ACME_LAYERS
1000
1
  0
LINE
  5
9E5
330
1F
100
AcDbEntity
  8
P-0000
  6
Continuous
 62
     7
100
AcDbLine
 10
2480.55211414291
 20
1133.488408077672
 30
0.0
 11
2481.052114142912
 21
1133.488408077672
 31
0.0
1001
ACME_LAYERS
1000
1
  0
LINE
  5
9E6
330
1F
100
AcDbEntity
  8
P-0000
  6
Continuous
 62
     7
100
AcDbLine
 10
2479.752114142911
 20
1133.488408077672
 30
0.0
 11
2480.55211414291
 21
1133.488408077672
 31
0.0
1001
ACME_LAYERS
1000
1
  0
LINE
  5
9E9
330
1F
100
AcDbEntity
  8
P-0000
  6
Continuous
 62
     7
100
AcDbLine
 10
2488.223687018165
 20
1131.488408077669
 30
0.0
 11
2481.552114142911
 21
1131.488408077669
 31
0.0
1001
ACME_LAYERS
1000
1
  0
ARC
  5
9EA
330
1F
100
AcDbEntity
  8
P-0000
  6
Continuous
 62
     7
100
AcDbCircle
 10
2460.395259893417
 20
1131.488408077669
 30
0.0
 40
4.0
100
AcDbArc
 50
270.0
 51
315.0000000000135
1001
ACME_LAYERS
1000
1
  0
ARC
  5
9EB
330
1F
100
AcDbEntity
  8
P-0000
  6
Continuous
 62
     7
100
AcDbCircle
 10
2488.223687018165
 20
1127.488408077669
 30
0.0
 40
4.000000000000613
100
AcDbArc
 50
44.99999999999568
 51
90.0
1001
ACME_LAYERS
1000
1
  0
ARC
  5
9EC
330
1F
100
AcDbEntity
  8
P-0000
  6
Continuous
 62
     7
100
AcDbCircle
 10
2492.708968392404
 20
1131.488408077669
 30
0.0
 40
3.999999999999423
100
AcDbArc
 50
224.9999999999864
 51
270.0
1001
ACME_LAYERS
1000
1
  0
ARC
  5
9ED
330
1F
100
AcDbEntity
  8
P-0000
  6
Continuous
 62
     7
100
AcDbCircle
 10
2498.954037931558
 20
1131.488408077669
 30
0.0
 40
4.0
100
AcDbArc
 50
270.0
 51
300.0000000000008
1001
ACME_LAYERS
1000
1
  0
ARC
  5
9F8
330
1F
100
AcDbEntity
  8
P-0000
  6
Continuous
 62
     7
100
AcDbCircle
 10
2498.954037931558
 20
1131.488408077669
 30
0.0
 40
2.0
100
AcDbArc
 50
270.0
 51
300.0000000000268
1001
ACME_LAYERS
1000
1
  0
ARC
  5
9F9
330
1F
100
AcDbEntity
  8
P-0000
  6
Continuous
 62
     7
100
AcDbCircle
 10
2492.708968392404
 20
1131.488408077669
 30
0.0
 40
2.000000000000397
100
AcDbArc
 50
224.9999999999957
 51
270.0
1001
ACME_LAYERS
1000
1
  0
ARC
  5
9FA
330
1F
100
AcDbEntity
  8
P-0000
  6
Continuous
 62
     7
100
AcDbCircle
 10
2488.223687018165
 20
1127.488408077669
 30
0.0
 40
2.000000000000311
100
AcDbArc
 50
44.99999999999568
 51
90.0
1001
ACME_LAYERS
1000
1
  0
ARC
  5
9FB
330
1F
100
AcDbEntity
  8
P-0000
  6
Continuous
 62
     7
100
AcDbCircle
 10
2464.880541267657
 20
1127.488408077669
 30
0.0
 40
2.0
100
AcDbArc
 50
90.0
 51
135.0000000000043
1001
ACME_LAYERS
1000
1
  0
ARC
  5
9FC
330
1F
100
AcDbEntity
  8
P-0000
  6
Continuous
 62
     7
100
AcDbCircle
 10
2460.395259893417
 20
1131.488408077669
 30
0.0
 40
2.0
100
AcDbArc
 50
270.0
 51
315.0000000000181
1001
ACME_LAYERS
1000
1
  0
ARC
  5
9FD
330
1F
100
AcDbEntity
  8
P-0000
  6
Continuous
 62
     7
100
AcDbCircle
 10
2454.150190354265
 20
1131.488408077669
 30
0.0
 40
1.999999999999425
100
AcDbArc
 50
239.9999999999732
 51
270.0
1001
ACME_LAYERS
1000
1
  0
ARC
  5
9FE
330
1F
100
AcDbEntity
  8
P-0000
  6
Continuous
 62
     7
100
AcDbCircle
 10
2454.150190354265
 20
1131.488408077669
 30
0.0
 40
4.000000000000401
100
AcDbArc
 50
239.9999999999991
 51
270.0
1001
ACME_LAYERS
1000
1
  0
ARC
  5
9FF
330
1F
100
AcDbEntity
  8
P-0000
  6
Continuous
 62
     7
100
AcDbCircle
 10
2464.880541267657
 20
1127.488408077669
 30
0.0
 40
4.0
100
AcDbArc
 50
90.00000000002605
 51
135.0000000000043
1001
ACME_LAYERS
1000
1
  0
HATCH
  5
A00
330
1F
100
AcDbEntity
  8
P-0000
  6
Continuous
 62
     3
100
AcDbHatch
 10
0.0
 20
0.0
 30
0.0
210
0.0
220
0.0
230
1.0
  2
_U
 70
     0
 71
     0
 91
        1
 92
        1
 93
       19
 72
     1
 10
2505.55211414291
 20
1132.98840807767
 11
2499.954037931559
 21
1129.756357270102
 72
     1
 10
2499.954037931559
 20
1129.756357270102
 11
2499.48993631642
 21
1129.48840807767
 72
     1
 10
2499.48993631642
 20
1129.48840807767
 11
2498.954037931558
 21
1129.48840807767
 72
     1
 10
2498.954037931558
 20
1129.48840807767
 11
2492.708968392404
 21
1129.48840807767
 72
     1
 10
2492.708968392404
 20
1129.48840807767
 11
2491.880541267657
 21
1129.48840807767
 72
     1
 10
2491.880541267657
 20
1129.48840807767
 11
2491.294754830031
 21
1130.074194515296
 72
     1
 10
2491.294754830031
 20
1130.074194515297
 11
2491.05211414291
 21
1130.316835202417
 72
     2
 10
2488.223687018165
 20
1127.488408077669
 40
4.000000000000613
 50
44.99999999999911
 51
89.99999999999998
 73
     1
 72
     1
 10
2488.223687018165
 20
1131.488408077669
 11
2481.552114142911
 21
1131.488408077669
 72
     1
 10
2481.552114142911
 20
1131.488408077669
 11
2481.552114142911
 21
1129.48840807767
 72
     1
 10
2481.552114142911
 20
1129.48840807767
 11
2488.223687018165
 21
1129.48840807767
 72
     1
 10
2488.223687018165
 20
1129.48840807767
 11
2489.052114142911
 21
1129.48840807767
 72
     1
 10
2489.052114142911
 20
1129.48840807767
 11
2489.637900580537
 21
1128.902621640043
 72
     1
 10
2489.637900580537
 20
1128.902621640043
 11
2489.880541267657
 21
1128.659980952925
 72
     2
 10
2492.708968392404
 20
1131.488408077669
 40
3.999999999999423
 50
224.9999999999822
 51
270.0
 73
     1
 72
     1
 10
2492.708968392404
 20
1127.488408077669
 11
2498.954037931558
 21
1127.488408077669
 72
     2
 10
2498.954037931558
 20
1131.488408077669
 40
4.0
 50
270.0
 51
299.9999999999967
 73
     1
 72
     1
 10
2500.954037931558
 20
1128.024306462532
 11
2506.552114142911
 21
1131.256357270102
 72
     1
 10
2506.552114142911
 20
1131.256357270102
 11
2505.55211414291
 21
1132.98840807767
 97
        0
 75
     0
 76
     0
 52
44.99999999999999
 41
3.0
 77
     0
 78
     1
 53
45.0
 43
2533.518986128016
 44
1268.114373572045
 45
-2.121320343559641
 46
2.121320343559641
 79
     0
 98
        1
 10
2533.518986128016
 20
1268.114373572045
1001
ACME_LAYERS
1000
1
  0
HATCH
  5
A01
330
1F
100
AcDbEntity
  8
P-0000
  6
Continuous
 62
     3
100
AcDbHatch
 10
0.0
 20
0.0
 30
0.0
210
0.0
220
0.0
230
1.0
  2
_U
 70
     0
 71
     0
 91
        1
 92
        1
 93
       19
 72
     2
 10
2460.395259893417
 20
1131.488408077669
 40
2.0
 50
270.0
 51
315.0000000000351
 73
     1
 72
     1
 10
2461.809473455792
 20
1130.074194515297
 11
2462.052114142911
 21
1130.316835202417
 72
     2
 10
2464.880541267657
 20
1127.488408077669
 40
4.0
 50
224.9999999999992
 51
269.9999999999739
 73
     0
 72
     1
 10
2464.880541267655
 20
1131.488408077669
 11
2467.318143980883
 21
1131.488408077669
 72
     1
 10
2467.318143980883
 20
1131.488408077669
 11
2468.728472509743
 21
1131.488408077669
 72
     1
 10
2468.728472509743
 20
1131.488408077669
 11
2471.552114142911
 21
1131.488408077669
 72
     1
 10
2471.552114142911
 20
1131.488408077669
 11
2471.552114142911
 21
1129.48840807767
 72
     1
 10
2471.552114142911
 20
1129.48840807767
 11
2464.880541267657
 21
1129.48840807767
 72
     1
 10
2464.880541267657
 20
1129.48840807767
 11
2464.052114142911
 21
1129.48840807767
 72
     1
 10
2464.052114142911
 20
1129.48840807767
 11
2463.466327705284
 21
1128.902621640043
 72
     1
 10
2463.466327705284
 20
1128.902621640043
 11
2463.223687018163
 21
1128.659980952925
 72
     2
 10
2460.395259893417
 20
1131.488408077669
 40
4.0
 50
44.99999999998212
 51
90.00000000000001
 73
     0
 72
     1
 10
2460.395259893417
 20
1127.488408077669
 11
2454.150190354265
 21
1127.488408077669
 72
     2
 10
2454.150190354265
 20
1131.488408077669
 40
4.000000000000401
 50
90.00000000000001
 51
119.9999999999967
 73
     0
 72
     1
 10
2452.150190354265
 20
1128.024306462532
 11
2446.552114142912
 21
1131.256357270102
 72
     1
 10
2446.552114142912
 20
1131.256357270102
 11
2447.552114142911
 21
1132.98840807767
 72
     1
 10
2447.552114142911
 20
1132.98840807767
 11
2453.150190354266
 21
1129.756357270102
 72
     2
 10
2454.150190354265
 20
1131.488408077669
 40
1.999999999999425
 50
239.9999999999905
 51
270.0
 73
     1
 72
     1
 10
2454.150190354265
 20
1129.48840807767
 11
2460.395259893417
 21
1129.48840807767
 97
        0
 75
     0
 76
     0
 52
44.99999999999999
 41
5.0
 77
     0
 78
     1
 53
45.0
 43
2533.518986128016
 44
1268.114373572045
 45
-3.535533905932736
 46
3.535533905932738
 79
     0
 98
        1
 10
2533.518986128016
 20
1268.114373572045
1001
ACME_LAYERS
1000
1
  0
LINE
  5
A02
330
1F
100
AcDbEntity
  8
0
100
AcDbLine
 10
2472.55211414291
 20
1127.488408077669
 30
0.0
 11
2472.55211414291
 21
1133.488408077672
 31
0.0
  0
LINE
  5
B34
330
1F
100
AcDbEntity
  8
P-0000
  6
Continuous
 62
     7
100
AcDbLine
 10
2498.919256508454
 20
1127.488408077669
 30
0.0
 11
2492.6741869693
 21
1127.488408077669
 31
0.0
1001
ACME_LAYERS
1000
1
  0
LINE
  5
B35
330
1F
100
AcDbEntity
  8
P-0000
  6
Continuous
 62
     7
100
AcDbLine
 10
2454.150190354265
 20
1127.488408077669
 30
0.0
 11
2460.395259893419
 21
1127.488408077669
 31
0.0
1001
ACME_LAYERS
1000
1
  0
LINE
  5
B36
330
1F
100
AcDbEntity
  8
P-0000
  6
Continuous
 62
     7
100
AcDbLine
 10
2498.95403793156
 20
1127.488408077669
 30
0.0
 11
2492.708968392406
 21
1127.488408077669
 31
0.0
1001
ACME_LAYERS
1000
1
  0
LINE
  5
B3E
330
1F
100
AcDbEntity
  8
0
100
AcDbLine
 10
2472.49557769882
 20
1131.488408077669
 30
0.0
 11
2472.49557769882
 21
1118.282488172726
 31
0.0
  0
LINE
  5
B3F
330
1F
100
AcDbEntity
  8
0
100
AcDbLine
 10
2480.49557769882
 20
1131.488408077669
 30
0.0
 11
2480.49557769882
 21
1118.282488172726
 31
0.0
  0
HATCH
  5
B41
330
1F
100
AcDbEntity
  8
P-3FF0
  6
Continuous
 62
     3
100
AcDbHatch
 10
0.0
 20
0.0
 30
0.0
210
0.0
220
0.0
230
1.0
  2
_U
 70
     0
 71
     0
 91
        1
 92
        1
 93
       37
 72
     1
 10
2443.828609714711
 20
1117.717314962584
 11
2442.414396152337
 21
1119.131528524958
 72
     1
 10
2442.414396152337
 20
1119.131528524958
 11
2443.116957397089
 21
1119.834089769709
 72
     2
 10
2445.945384521835
 20
1117.005662644963
 40
4.0
 50
224.9999999999994
 51
270.0
 73
     0
 72
     2
 10
2445.945384521835
 20
1117.005662644963
 40
3.999999999999721
 50
270.0
 51
299.9999999999985
 73
     0
 72
     1
 10
2447.945384521835
 20
1120.4697642601
 11
2451.382639531468
 21
1118.485264155015
 72
     2
 10
2452.382639531468
 20
1120.217314962584
 40
1.999999999999868
 50
239.9999999999979
 51
270.0
 73
     1
 72
     1
 10
2452.382639531468
 20
1118.217314962584
 11
2452.660842761744
 21
1118.217314962584
 72
     1
 10
2452.660842761744
 20
1118.217314962584
 11
2472.560842761744
 21
1118.217314962584
 72
     1
 10
2472.560842761744
 20
1118.217314962584
 11
2473.360842761744
 21
1118.217314962584
 72
     1
 10
2473.360842761744
 20
1118.217314962584
 11
2479.760842761745
 21
1118.217314962584
 72
     1
 10
2479.760842761745
 20
1118.217314962584
 11
2480.560842761744
 21
1118.217314962584
 72
     1
 10
2480.560842761744
 20
1118.217314962584
 11
2499.996741146607
 21
1118.217314962584
 72
     2
 10
2499.996741146607
 20
1120.217314962584
 40
2.0
 50
-90.00000000000001
 51
-59.99999999999786
 73
     1
 72
     1
 10
2500.996741146606
 20
1118.485264155015
 11
2506.44872112129
 21
1121.632966261014
 72
     2
 10
2508.246132941515
 20
1119.231027305018
 40
2.999999999970075
 50
233.1918656392357
 51
275.4802249851991
 73
     0
 72
     1
 10
2508.53263953147
 20
1122.217314962584
 11
2546.280975828524
 21
1122.217314962584
 72
     2
 10
2546.280975828524
 20
1116.217314962584
 40
6.000000000000177
 50
270.0
 51
322.9999999999994
 73
     0
 72
     1
 10
2551.072788888808
 20
1119.828205101496
 11
2556.804020312002
 21
1112.222604119838
 72
     2
 10
2552.810842761767
 20
1109.213529004078
 40
5.0
 50
322.9999999999976
 51
359.9999999999961
 73
     0
 72
     1
 10
2557.810842761766
 20
1109.213529004078
 11
2557.810842761766
 21
1105.217314962584
 72
     1
 10
2557.810842761766
 20
1105.217314962584
 11
2557.214312386941
 21
1105.217314962584
 72
     1
 10
2557.214312386941
 20
1105.217314962584
 11
2555.810842761767
 21
1106.620784587759
 72
     1
 10
2555.810842761767
 20
1106.620784587759
 11
2555.810842761767
 21
1109.213529004078
 72
     2
 10
2552.810842761767
 20
1109.213529004078
 40
3.0
 50
-0.0000000000000127
 51
37.00000000000023
 73
     1
 72
     1
 10
2555.206749291909
 20
1111.018974073534
 11
2551.289518461149
 21
1116.217314962584
 72
     1
 10
2551.289518461149
 20
1116.217314962584
 11
2549.475517868713
 21
1118.624575055192
 72
     2
 10
2546.280975828524
 20
1116.217314962584
 40
4.000000000000238
 50
37.00000000000207
 51
89.99999999999998
 73
     1
 72
     1
 10
2546.280975828524
 20
1120.217314962584
 11
2508.53263953147
 21
1120.217314962584
 72
     2
 10
2508.53263953147
 20
1118.217314962584
 40
2.0
 50
89.99999999999998
 51
119.9999999999928
 73
     1
 72
     1
 10
2507.53263953147
 20
1119.949365770153
 11
2501.996741146605
 21
1116.753213347446
 72
     2
 10
2499.996741146607
 20
1120.217314962584
 40
4.0
 50
420.0000000000091
 51
450.0
 73
     0
 72
     1
 10
2499.996741146607
 20
1116.217314962584
 11
2492.810842761744
 21
1116.217314962584
 72
     1
 10
2492.810842761744
 20
1116.217314962584
 11
2452.382639531468
 21
1116.217314962584
 72
     2
 10
2452.382639531468
 20
1120.217314962584
 40
3.999999999999785
 50
90.0000000000049
 51
120.0000000000017
 73
     0
 72
     1
 10
2450.382639531468
 20
1116.753213347446
 11
2446.945384521835
 21
1118.737713452531
 72
     2
 10
2445.945384521835
 20
1117.005662644963
 40
1.999999999999721
 50
59.99999999999537
 51
135.000000000001
 73
     1
 72
     1
 10
2444.531170959462
 20
1118.419876207336
 11
2443.828609714711
 21
1117.717314962584
 97
        0
 75
     0
 76
     0
 52
44.99999999999999
 41
2.0
 77
     0
 78
     1
 53
45.0
 43
3300.790286703112
 44
720.4333345552639
 45
-1.414213562373094
 46
1.414213562373094
 79
     0
 98
        1
 10
3300.790286703112
 20
720.4333345552639
1001
ACME_LAYERS
1000
1
  0
LINE
  5
B42
330
1F
100
AcDbEntity
  8
P-3FF0
  6
Continuous
 62
     7
100
AcDbLine
 10
2546.280975828524
 20
1120.217314962584
 30
0.0
 11
2508.53263953147
 21
1120.217314962584
 31
0.0
1001
ACME_LAYERS
1000
1
  0
HATCH
  5
B43
330
1F
100
AcDbEntity
  8
P-3FF0
  6
Continuous
 62
     3
100
AcDbHatch
 10
0.0
 20
0.0
 30
0.0
210
0.0
220
0.0
230
1.0
  2
_U
 70
     0
 71
     0
 91
        1
 92
        1
 93
        6
 72
     1
 10
2557.810842761757
 20
1049.219650557008
 11
2556.979339489266
 21
1050.141510091292
 72
     1
 10
2556.979339489266
 20
1050.141510091292
 11
2556.310842761766
 21
1051.217314962584
 72
     1
 10
2556.310842761766
 20
1051.217314962584
 11
2556.310842761766
 21
1103.652459668686
 72
     1
 10
2556.310842761766
 20
1103.652459668686
 11
2557.214312386941
 21
1105.217314962584
 72
     1
 10
2557.214312386941
 20
1105.217314962584
 11
2557.810842761766
 21
1105.217314962584
 72
     1
 10
2557.810842761766
 20
1105.217314962584
 11
2557.810842761766
 21
1049.219650556999
 97
        0
 75
     0
 76
     0
 52
-45.0
 41
2.0
 77
     0
 78
     1
 53
315.0
 43
3300.790286703112
 44
720.4333345552639
 45
1.414213562373094
 46
1.414213562373094
 79
     0
 98
        1
 10
3300.790286703112
 20
720.4333345552639
1001
ACME_LAYERS
1000
1
  0
LINE
  5
B44
330
1F
100
AcDbEntity
  8
P-3FF0
  6
Continuous
 62
     7
100
AcDbLine
 10
2556.310842761766
 20
1051.217314962584
 30
0.0
 11
2556.310842761766
 21
1103.652459668686
 31
0.0
1001
ACME_LAYERS
1000
1
  0
LINE
  5
B45
330
1F
100
AcDbEntity
  8
P-3FF0
  6
Continuous
 62
     7
100
AcDbLine
 10
2557.810842761766
 20
1105.217314962584
 30
0.0
 11
2557.810842761766
 21
1049.219650556999
 31
0.0
1001
ACME_LAYERS
1000
1
  0
LINE
  5
B46
330
1F
100
AcDbEntity
  8
P-3FF0
  6
Continuous
 62
     7
100
AcDbLine
 10
2557.810842761766
 20
1109.213529004078
 30
0.0
 11
2557.810842761766
 21
1105.217314962584
 31
0.0
1001
ACME_LAYERS
1000
1
  0
ARC
  5
B47
330
1F
100
AcDbEntity
  8
P-3FF0
  6
Continuous
 62
     7
100
AcDbCircle
 10
2546.280975828524
 20
1116.217314962584
 30
0.0
 40
6.000000000000177
100
AcDbArc
 50
36.99999999999497
 51
90.0
1001
ACME_LAYERS
1000
1
  0
LINE
  5
B48
330
1F
100
AcDbEntity
  8
P-3FF0
  6
Continuous
 62
     7
100
AcDbLine
 10
2551.289518461149
 20
1116.217314962584
 30
0.0
 11
2549.475517868713
 21
1118.624575055192
 31
0.0
1001
ACME_LAYERS
1000
1
  0
ARC
  5
B49
330
1F
100
AcDbEntity
  8
P-3FF0
  6
Continuous
 62
     7
100
AcDbCircle
 10
2546.280975828524
 20
1116.217314962584
 30
0.0
 40
4.000000000000238
100
AcDbArc
 50
36.99999999999497
 51
90.0
1001
ACME_LAYERS
1000
1
  0
LINE
  5
B4A
330
1F
100
AcDbEntity
  8
P-3FF0
  6
Continuous
 62
     7
100
AcDbLine
 10
2555.206749291909
 20
1111.018974073534
 30
0.0
 11
2551.289518461149
 21
1116.217314962584
 31
0.0
1001
ACME_LAYERS
1000
1
  0
LINE
  5
B4B
330
1F
100
AcDbEntity
  8
P-3FF0
  6
Continuous
 62
     7
100
AcDbLine
 10
2556.804020312002
 20
1112.222604119838
 30
0.0
 11
2551.072788888808
 21
1119.828205101496
 31
0.0
1001
ACME_LAYERS
1000
1
  0
ARC
  5
B4C
330
1F
100
AcDbEntity
  8
P-3FF0
  6
Continuous
 62
     7
100
AcDbCircle
 10
2552.810842761767
 20
1109.213529004078
 30
0.0
 40
3.0
100
AcDbArc
 50
0.0
 51
36.99999999999497
1001
ACME_LAYERS
1000
1
  0
ARC
  5
B4D
330
1F
100
AcDbEntity
  8
P-3FF0
  6
Continuous
 62
     7
100
AcDbCircle
 10
2552.810842761767
 20
1109.213529004078
 30
0.0
 40
5.0
100
AcDbArc
 50
0.0000000000065138
 51
36.99999999999497
1001
ACME_LAYERS
1000
1
  0
LINE
  5
B4E
330
1F
100
AcDbEntity
  8
P-3FF0
  6
Continuous
 62
     7
100
AcDbLine
 10
2555.810842761767
 20
1109.213529004078
 30
0.0
 11
2555.810842761767
 21
1106.620784587759
 31
0.0
1001
ACME_LAYERS
1000
1
  0
LINE
  5
B4F
330
1F
100
AcDbEntity
  8
0
100
AcDbLine
 10
2555.810842761767
 20
1106.620784587759
 30
0.0
 11
2556.310842761766
 21
1103.652459668686
 31
0.0
  0
LINE
  5
B50
330
1F
100
AcDbEntity
  8
0
100
AcDbLine
 10
2557.810842761766
 20
1049.219650556999
 30
0.0
 11
2556.310842761766
 21
1049.219650556999
 31
0.0
  0
LINE
  5
B58
330
1F
100
AcDbEntity
  8
P-0000
  6
Continuous
 62
     7
100
AcDbLine
 10
2629.310842761769
 20
1055.74069921713
 30
0.0
 11
2629.31084276177
 21
751.2824881727257
 31
0.0
1001
ACME_LAYERS
1000
1
  0
LINE
  5
B59
330
1F
100
AcDbEntity
  8
P-0000
  6
Continuous
 62
     7
100
AcDbLine
 10
2676.810842761769
 20
1116.282488172723
 30
0.0
 11
2656.810842761768
 21
1116.282488172741
 31
0.0
1001
ACME_LAYERS
1000
1
  0
LINE
  5
B5A
330
1F
100
AcDbEntity
  8
P-0000
  6
Continuous
 62
     7
100
AcDbLine
 10
2639.81084276177
 20
1120.282488172726
 30
0.0
 11
2675.248634231252
 21
1120.282488172726
 31
0.0
1001
ACME_LAYERS
1000
1
  0
LINE
  5
B5C
330
1F
100
AcDbEntity
  8
P-0000
  6
Continuous
 62
     7
100
AcDbLine
 10
2677.132556034009
 20
1122.282488172726
 30
0.0
 11
2639.81084276177
 21
1122.282488172726
 31
0.0
1001
ACME_LAYERS
1000
1
  0
HATCH
  5
B5D
330
1F
100
AcDbEntity
  8
P-0000
  6
Continuous
 62
     3
100
AcDbHatch
 10
0.0
 20
0.0
 30
0.0
210
0.0
220
0.0
230
1.0
  2
_U
 70
     0
 71
     0
 91
        1
 92
        1
 93
        9
 72
     1
 10
2757.854352803735
 20
1116.282488172726
 11
2758.854352803735
 21
1118.014538980296
 72
     1
 10
2758.854352803735
 20
1118.014538980296
 11
2754.488894563826
 21
1120.534937470241
 72
     2
 10
2752.488894563825
 20
1117.070835855105
 40
4.0
 50
419.9999999999893
 51
450.0
 73
     1
 72
     2
 10
2752.488894563825
 20
1117.070835855105
 40
4.000000000000613
 50
450.0
 51
495.0000000000009
 73
     1
 72
     1
 10
2749.660467439079
 20
1119.899262979852
 11
2748.957906194327
 21
1119.196701735099
 72
     1
 10
2748.957906194327
 20
1119.196701735099
 11
2750.3721197567
 21
1117.782488172726
 72
     1
 10
2750.3721197567
 20
1117.782488172726
 11
2751.074681001452
 21
1118.485049417478
 72
     2
 10
2752.488894563825
 20
1117.070835855105
 40
2.000000000000115
 50
-135.000000000004
 51
-59.99999999999011
 73
     0
 72
     1
 10
2753.488894563826
 20
1118.802886662673
 11
2757.854352803735
 21
1116.282488172726
 97
        0
 75
     0
 76
     0
 52
44.99999999999999
 41
2.0
 77
     0
 78
     1
 53
135.0
 43
2441.050401260503
 44
982.3916231391619
 45
1.414213562373094
 46
1.414213562373094
 79
     0
 98
        1
 10
2441.050401260503
 20
982.3916231391619
1001
ACME_LAYERS
1000
1
  0
LINE
  5
B5E
330
1F
100
AcDbEntity
  8
P-0000
  6
Continuous
 62
     3
100
AcDbLine
 10
2758.854352803735
 20
1118.014538980296
 30
0.0
 11
2754.488894563826
 21
1120.534937470241
 31
0.0
1001
ACME_LAYERS
1000
1
  0
LINE
  5
B5F
330
1F
100
AcDbEntity
  8
P-0000
  6
Continuous
 62
     7
100
AcDbLine
 10
2757.854352803735
 20
1116.282488172726
 30
0.0
 11
2753.488894563826
 21
1118.802886662673
 31
0.0
1001
ACME_LAYERS
1000
1
  0
LINE
  5
B60
330
1F
100
AcDbEntity
  8
P-0000
  6
Continuous
 62
     7
100
AcDbLine
 10
2757.854352803735
 20
1116.282488172726
 30
0.0
 11
2753.488894563826
 21
1118.802886662673
 31
0.0
1001
ACME_LAYERS
1000
1
  0
LINE
  5
B61
330
1F
100
AcDbEntity
  8
P-0000
  6
Continuous
 62
     7
100
AcDbLine
 10
2757.854352803735
 20
1116.282488172726
 30
0.0
 11
2733.28255603401
 21
1116.282488172726
 31
0.0
1001
ACME_LAYERS
1000
1
  0
LINE
  5
B62
330
1F
100
AcDbEntity
  8
P-0000
  6
Continuous
 62
     7
100
AcDbLine
 10
2757.854352803735
 20
1116.282488172726
 30
0.0
 11
2758.854352803735
 21
1118.014538980296
 31
0.0
1001
ACME_LAYERS
1000
1
  0
LINE
  5
B63
330
1F
100
AcDbEntity
  8
P-0000
  6
Continuous
 62
     7
100
AcDbLine
 10
2733.28255603401
 20
1116.282488172726
 30
0.0
 11
2695.310842761756
 21
1116.282488172723
 31
0.0
1001
ACME_LAYERS
1000
1
  0
LINE
  5
B67
330
1F
100
AcDbEntity
  8
P-0000
  6
Continuous
 62
     7
100
AcDbLine
 10
2713.060842761776
 20
1118.282488172726
 30
0.0
 11
2705.104352803735
 21
1118.282488172726
 31
0.0
1001
ACME_LAYERS
1000
1
  0
ARC
  5
B6D
330
1F
100
AcDbEntity
  8
P-0000
  6
Continuous
 62
     7
100
AcDbCircle
 10
2733.28255603401
 20
1120.282488172726
 30
0.0
 40
1.999999999999253
100
AcDbArc
 50
270.0
 51
300.0000000000268
1001
ACME_LAYERS
1000
1
  0
ARC
  5
B6E
330
1F
100
AcDbEntity
  8
P-0000
  6
Continuous
 62
     7
100
AcDbCircle
 10
2733.28255603401
 20
1120.282488172726
 30
0.0
 40
4.000000000000131
100
AcDbArc
 50
270.0
 51
300.0000000000008
1001
ACME_LAYERS
1000
1
  0
LINE
  5
B6F
330
1F
100
AcDbEntity
  8
P-0000
  6
Continuous
 62
     7
100
AcDbLine
 10
2733.004352803734
 20
1118.282488172726
 30
0.0
 11
2738.772301996166
 21
1121.612615191648
 31
0.0
1001
ACME_LAYERS
1000
1
  0
LINE
  5
B70
330
1F
100
AcDbEntity
  8
P-0000
  6
Continuous
 62
     7
100
AcDbLine
 10
2738.719811043643
 20
1118.802886662673
 30
0.0
 11
2735.282556034011
 21
1116.818386557588
 31
0.0
1001
ACME_LAYERS
1000
1
  0
LINE
  5
B71
330
1F
100
AcDbEntity
  8
P-0000
  6
Continuous
 62
     7
100
AcDbLine
 10
2748.957906194327
 20
1119.196701735099
 30
0.0
 11
2743.250799413142
 21
1119.196701735099
 31
0.0
1001
ACME_LAYERS
1000
1
  0
LINE
  5
B72
330
1F
100
AcDbEntity
  8
P-0000
  6
Continuous
 62
     7
100
AcDbLine
 10
2750.3721197567
 20
1117.782488172726
 30
0.0
 11
2741.836585850768
 21
1117.782488172726
 31
0.0
1001
ACME_LAYERS
1000
1
  0
LINE
  5
B73
330
1F
100
AcDbEntity
  8
P-0000
  6
Continuous
 62
     7
100
AcDbLine
 10
2750.122301996164
 20
1122.282488172726
 30
0.0
 11
2741.272301996166
 21
1122.282488172726
 31
0.0
1001
ACME_LAYERS
1000
1
  0
LINE
  5
B74
330
1F
100
AcDbEntity
  8
P-0000
  6
Continuous
 62
     7
100
AcDbLine
 10
2752.488894563825
 20
1121.070835855105
 30
0.0
 11
2739.719811043642
 21
1121.070835855105
 31
0.0
1001
ACME_LAYERS
1000
1
  0
ARC
  5
B75
330
1F
100
AcDbEntity
  8
P-0000
  6
Continuous
 62
     7
100
AcDbCircle
 10
2750.122301996166
 20
1117.282488172726
 30
0.0
 40
5.0
100
AcDbArc
 50
59.99999999999912
 51
90.00000000002605
1001
ACME_LAYERS
1000
1
  0
ARC
  5
B76
330
1F
100
AcDbEntity
  8
P-0000
  6
Continuous
 62
     7
100
AcDbCircle
 10
2752.488894563825
 20
1117.070835855105
 30
0.0
 40
4.000000000000613
100
AcDbArc
 50
90.0
 51
135.0000000000043
1001
ACME_LAYERS
1000
1
  0
LINE
  5
B77
330
1F
100
AcDbEntity
  8
P-0000
  6
Continuous
 62
     7
100
AcDbLine
 10
2751.074681001452
 20
1118.485049417478
 30
0.0
 11
2750.3721197567
 21
1117.782488172726
 31
0.0
1001
ACME_LAYERS
1000
1
  0
ARC
  5
B78
330
1F
100
AcDbEntity
  8
P-0000
  6
Continuous
 62
     7
100
AcDbCircle
 10
2752.488894563825
 20
1117.070835855105
 30
0.0
 40
4.0
100
AcDbArc
 50
59.99999999997321
 51
90.0
1001
ACME_LAYERS
1000
1
  0
LINE
  5
B79
330
1F
100
AcDbEntity
  8
P-0000
  6
Continuous
 62
     7
100
AcDbLine
 10
2754.488894563826
 20
1120.534937470241
 30
0.0
 11
2752.622301996166
 21
1121.612615191648
 31
0.0
1001
ACME_LAYERS
1000
1
  0
ARC
  5
B7A
330
1F
100
AcDbEntity
  8
P-0000
  6
Continuous
 62
     7
100
AcDbCircle
 10
2752.488894563825
 20
1117.070835855105
 30
0.0
 40
2.000000000000115
100
AcDbArc
 50
59.99999999997321
 51
135.0000000000089
1001
ACME_LAYERS
1000
1
  0
LINE
  5
B7B
330
1F
100
AcDbEntity
  8
P-0000
  6
Continuous
 62
     7
100
AcDbLine
 10
2748.957906194327
 20
1119.196701735099
 30
0.0
 11
2750.3721197567
 21
1117.782488172726
 31
0.0
1001
ACME_LAYERS
1000
1
  0
LINE
  5
B7C
330
1F
100
AcDbEntity
  8
P-0000
  6
Continuous
 62
     7
100
AcDbLine
 10
2749.660467439079
 20
1119.899262979852
 30
0.0
 11
2748.957906194327
 21
1119.196701735099
 31
0.0
1001
ACME_LAYERS
1000
1
  0
ARC
  5
B7D
330
1F
100
AcDbEntity
  8
P-0000
  6
Continuous
 62
     7
100
AcDbCircle
 10
2739.719811043642
 20
1117.070835855105
 30
0.0
 40
1.999999999999401
100
AcDbArc
 50
44.99999999999107
 51
120.0000000000268
1001
ACME_LAYERS
1000
1
  0
ARC
  5
B7E
330
1F
100
AcDbEntity
  8
P-0000
  6
Continuous
 62
     7
100
AcDbCircle
 10
2741.272301996166
 20
1117.282488172726
 30
0.0
 40
5.000000000000164
100
AcDbArc
 50
90.0
 51
120.0000000000009
1001
ACME_LAYERS
1000
1
  0
ARC
  5
B7F
330
1F
100
AcDbEntity
  8
P-0000
  6
Continuous
 62
     7
100
AcDbCircle
 10
2739.719811043642
 20
1117.070835855105
 30
0.0
 40
1.999999999999401
100
AcDbArc
 50
44.99999999999107
 51
120.0000000000268
1001
ACME_LAYERS
1000
1
  0
ARC
  5
B80
330
1F
100
AcDbEntity
  8
P-0000
  6
Continuous
 62
     7
100
AcDbCircle
 10
2739.719811043642
 20
1117.070835855105
 30
0.0
 40
3.999999999998728
100
AcDbArc
 50
90.0
 51
120.0000000000268
1001
ACME_LAYERS
1000
1
  0
ARC
  5
B81
330
1F
100
AcDbEntity
  8
P-0000
  6
Continuous
 62
     7
100
AcDbCircle
 10
2739.719811043642
 20
1117.070835855105
 30
0.0
 40
4.0
100
AcDbArc
 50
44.99999999999568
 51
90.0
1001
ACME_LAYERS
1000
1
  0
LINE
  5
B82
330
1F
100
AcDbEntity
  8
P-0000
  6
Continuous
 62
     7
100
AcDbLine
 10
2743.250799413142
 20
1119.196701735099
 30
0.0
 11
2742.548238168389
 21
1119.899262979852
 31
0.0
1001
ACME_LAYERS
1000
1
  0
LINE
  5
B83
330
1F
100
AcDbEntity
  8
P-0000
  6
Continuous
 62
     7
100
AcDbLine
 10
2741.836585850768
 20
1117.782488172726
 30
0.0
 11
2741.134024606016
 21
1118.485049417478
 31
0.0
1001
ACME_LAYERS
1000
1
  0
LINE
  5
B84
330
1F
100
AcDbEntity
  8
P-0000
  6
Continuous
 62
     7
100
AcDbLine
 10
2741.836585850768
 20
1117.782488172726
 30
0.0
 11
2743.250799413142
 21
1119.196701735099
 31
0.0
1001
ACME_LAYERS
1000
1
  0
LINE
  5
B85
330
1F
100
AcDbEntity
  8
P-0000
  6
Continuous
 62
     7
100
AcDbLine
 10
2737.719811043643
 20
1120.534937470241
 30
0.0
 11
2734.28255603401
 21
1118.550437365158
 31
0.0
1001
ACME_LAYERS
1000
1
  0
LINE
  5
B86
330
1F
100
AcDbEntity
  8
P-0000
  6
Continuous
 62
     7
100
AcDbLine
 10
2733.004352803734
 20
1118.282488172726
 30
0.0
 11
2713.060842761776
 21
1118.282488172726
 31
0.0
1001
ACME_LAYERS
1000
1
  0
LINE
  5
B87
330
1F
100
AcDbEntity
  8
P-0000
  6
Continuous
 62
     7
100
AcDbLine
 10
2733.004352803734
 20
1118.282488172726
 30
0.0
 11
2733.28255603401
 21
1118.282488172726
 31
0.0
1001
ACME_LAYERS
1000
1
  0
LINE
  5
B89
330
1F
100
AcDbEntity
  8
P-0000
  6
Continuous
 62
     7
100
AcDbLine
 10
2713.126107824715
 20
1131.488408077669
 30
0.0
 11
2713.126107824715
 21
1127.488408077669
 31
0.0
1001
ACME_LAYERS
1000
1
  0
LINE
  5
B92
330
1F
100
AcDbEntity
  8
P-0000
  6
Continuous
 62
     7
100
AcDbLine
 10
2690.310842761771
 20
1116.282488172723
 30
0.0
 11
2676.810842761769
 21
1116.282488172723
 31
0.0
1001
ACME_LAYERS
1000
1
  0
LINE
  5
B93
330
1F
100
AcDbEntity
  8
P-0000
  6
Continuous
 62
     7
100
AcDbLine
 10
2705.104352803735
 20
1118.282488172726
 30
0.0
 11
2685.668454418872
 21
1118.282488172726
 31
0.0
1001
ACME_LAYERS
1000
1
  0
LINE
  5
B94
330
1F
100
AcDbEntity
  8
P-0000
  6
Continuous
 62
     7
100
AcDbLine
 10
2694.54963970168
 20
1116.282488172726
 30
0.0
 11
2685.668454418872
 21
1116.282488172726
 31
0.0
1001
ACME_LAYERS
1000
1
  0
LINE
  5
B95
330
1F
100
AcDbEntity
  8
P-0000
  6
Continuous
 62
     7
100
AcDbLine
 10
2705.126107824716
 20
1131.488408077669
 30
0.0
 11
2705.126107824716
 21
1127.488408077669
 31
0.0
1001
ACME_LAYERS
1000
1
  0
LINE
  5
B96
330
1F
100
AcDbEntity
  8
P-0000
  6
Continuous
 62
     7
100
AcDbLine
 10
2695.310842761756
 20
1116.282488172723
 30
0.0
 11
2694.54963970168
 21
1116.282488172726
 31
0.0
1001
ACME_LAYERS
1000
1
  0
LINE
  5
B97
330
1F
100
AcDbEntity
  8
P-0000
  6
Continuous
 62
     7
100
AcDbLine
 10
2683.668454418873
 20
1116.818386557588
 30
0.0
 11
2678.13255603401
 21
1120.014538980296
 31
0.0
1001
ACME_LAYERS
1000
1
  0
LINE
  5
B98
330
1F
100
AcDbEntity
  8
P-0000
  6
Continuous
 62
     7
100
AcDbLine
 10
2677.132556034009
 20
1120.282488172726
 30
0.0
 11
2675.248634231252
 21
1120.282488172726
 31
0.0
1001
ACME_LAYERS
1000
1
  0
LINE
  5
B99
330
1F
100
AcDbEntity
  8
P-0000
  6
Continuous
 62
     7
100
AcDbLine
 10
2684.668454418873
 20
1118.550437365156
 30
0.0
 11
2679.132556034009
 21
1121.746589787864
 31
0.0
1001
ACME_LAYERS
1000
1
  0
ARC
  5
B9A
330
1F
100
AcDbEntity
  8
P-0000
  6
Continuous
 62
     7
100
AcDbCircle
 10
2685.668454418872
 20
1120.282488172726
 30
0.0
 40
2.0
100
AcDbArc
 50
239.9999999999732
 51
270.0
1001
ACME_LAYERS
1000
1
  0
ARC
  5
B9B
330
1F
100
AcDbEntity
  8
P-0000
  6
Continuous
 62
     7
100
AcDbCircle
 10
2677.132556034009
 20
1118.282488172726
 30
0.0
 40
4.0
100
AcDbArc
 50
59.99999999999912
 51
90.0
1001
ACME_LAYERS
1000
1
  0
ARC
  5
B9C
330
1F
100
AcDbEntity
  8
P-0000
  6
Continuous
 62
     7
100
AcDbCircle
 10
2677.132556034009
 20
1118.282488172726
 30
0.0
 40
2.0
100
AcDbArc
 50
60.00000000002501
 51
90.0
1001
ACME_LAYERS
1000
1
  0
ARC
  5
B9D
330
1F
100
AcDbEntity
  8
P-0000
  6
Continuous
 62
     7
100
AcDbCircle
 10
2685.668454418872
 20
1120.282488172726
 30
0.0
 40
4.0
100
AcDbArc
 50
239.9999999999991
 51
270.0
1001
ACME_LAYERS
1000
1
  0
LINE
  5
B9E
330
1F
100
AcDbEntity
  8
P-0000
  6
Continuous
 62
     7
100
AcDbLine
 10
2632.181160948233
 20
1122.282488172726
 30
0.0
 11
2592.810842761768
 21
1122.282488172726
 31
0.0
1001
ACME_LAYERS
1000
1
  0
LINE
  5
B9F
330
1F
100
AcDbEntity
  8
P-0000
  6
Continuous
 62
     7
100
AcDbLine
 10
2639.81084276177
 20
1122.282488172726
 30
0.0
 11
2592.810842761768
 21
1122.282488172726
 31
0.0
1001
ACME_LAYERS
1000
1
  0
LINE
  5
BA0
330
1F
100
AcDbEntity
  8
P-0000
  6
Continuous
 62
     7
100
AcDbLine
 10
2656.810842761768
 20
1116.282488172741
 30
0.0
 11
2639.81084276177
 21
1116.282488172741
 31
0.0
1001
ACME_LAYERS
1000
1
  0
LINE
  5
BA1
330
1F
100
AcDbEntity
  8
P-0000
  6
Continuous
 62
     7
100
AcDbLine
 10
2659.315114078089
 20
1122.502020246857
 30
0.0
 11
2659.310842761776
 21
1122.485856494265
 31
0.0
1001
ACME_LAYERS
1000
1
  0
LINE
  5
BA2
330
1F
100
AcDbEntity
  8
P-0000
  6
Continuous
 62
     7
100
AcDbLine
 10
2636.81084276177
 20
1116.282488172743
 30
0.0
 11
2636.81084276177
 21
1117.282488172726
 31
0.0
1001
ACME_LAYERS
1000
1
  0
ARC
  5
BA3
330
1F
100
AcDbEntity
  8
P-0000
  6
Continuous
 62
     7
100
AcDbCircle
 10
2639.81084276177
 20
1117.282488172726
 30
0.0
 40
3.0
100
AcDbArc
 50
90.0
 51
180.0
1001
ACME_LAYERS
1000
1
  0
LINE
  5
BA4
330
1F
100
AcDbEntity
  8
P-0000
  6
Continuous
 62
     7
100
AcDbLine
 10
2639.81084276177
 20
1116.282488172741
 30
0.0
 11
2636.81084276177
 21
1116.282488172743
 31
0.0
1001
ACME_LAYERS
1000
1
  0
LINE
  5
BA5
330
1F
100
AcDbEntity
  8
P-0000
  6
STRICHPUNKT
 62
     3
100
AcDbLine
 10
2592.810842761769
 20
1094.42436540378
 30
0.0
 11
2592.810842761769
 21
1093.968552044946
 31
0.0
1001
ACME_LAYERS
1000
1
  0
LINE
  5
BAB
330
1F
100
AcDbEntity
  8
P-0000
  6
Continuous
 62
     7
100
AcDbLine
 10
2726.569571380615
 20
1132.98840807767
 30
0.0
 11
2713.069571380625
 21
1132.98840807767
 31
0.0
1001
ACME_LAYERS
1000
1
  0
LINE
  5
BAC
330
1F
100
AcDbEntity
  8
P-0000
  6
Continuous
 62
     7
100
AcDbLine
 10
2720.74114425588
 20
1131.488408077669
 30
0.0
 11
2718.303541542652
 21
1131.488408077669
 31
0.0
1001
ACME_LAYERS
1000
1
  0
LINE
  5
BAD
330
1F
100
AcDbEntity
  8
P-0000
  6
Continuous
 62
     7
100
AcDbLine
 10
2592.819571380632
 20
1132.98840807767
 30
0.0
 11
2680.069571380625
 21
1132.98840807767
 31
0.0
1001
ACME_LAYERS
1000
1
  0
LINE
  5
BAE
330
1F
100
AcDbEntity
  8
P-0000
  6
Continuous
 62
     7
100
AcDbLine
 10
2720.74114425588
 20
1131.488408077669
 30
0.0
 11
2718.303541542652
 21
1131.488408077669
 31
0.0
1001
ACME_LAYERS
1000
1
  0
LINE
  5
BAF
330
1F
100
AcDbEntity
  8
P-0000
  6
Continuous
 62
     7
100
AcDbLine
 10
2718.303541542652
 20
1131.488408077669
 30
0.0
 11
2716.893213013793
 21
1131.488408077669
 31
0.0
1001
ACME_LAYERS
1000
1
  0
LINE
  5
BB0
330
1F
100
AcDbEntity
  8
P-0000
  6
Continuous
 62
     7
100
AcDbLine
 10
2718.303541542652
 20
1131.488408077669
 30
0.0
 11
2716.893213013793
 21
1131.488408077669
 31
0.0
1001
ACME_LAYERS
1000
1
  0
LINE
  5
BB1
330
1F
100
AcDbEntity
  8
P-0000
  6
Continuous
 62
     7
100
AcDbLine
 10
2592.819571380627
 20
1131.256357270102
 30
0.0
 11
2679.069571380625
 21
1131.256357270102
 31
0.0
1001
ACME_LAYERS
1000
1
  0
LINE
  5
BB2
330
1F
100
AcDbEntity
  8
P-0000
  6
Continuous
 62
     7
100
AcDbLine
 10
2680.069571380625
 20
1132.98840807767
 30
0.0
 11
2685.667647591977
 21
1129.756357270102
 31
0.0
1001
ACME_LAYERS
1000
1
  0
LINE
  5
BB3
330
1F
100
AcDbEntity
  8
P-0000
  6
Continuous
 62
     7
100
AcDbLine
 10
2705.069571380625
 20
1132.98840807767
 30
0.0
 11
2680.069571380625
 21
1132.98840807767
 31
0.0
1001
ACME_LAYERS
1000
1
  0
LINE
  5
BB4
330
1F
100
AcDbEntity
  8
P-0000
  6
Continuous
 62
     7
100
AcDbLine
 10
2679.069571380625
 20
1131.256357270102
 30
0.0
 11
2680.069571380625
 21
1132.98840807767
 31
0.0
1001
ACME_LAYERS
1000
1
  0
LINE
  5
BB5
330
1F
100
AcDbEntity
  8
P-0000
  6
Continuous
 62
     7
100
AcDbLine
 10
2680.069571380625
 20
1132.98840807767
 30
0.0
 11
2680.141537543125
 21
1132.98840807767
 31
0.0
1001
ACME_LAYERS
1000
1
  0
LINE
  5
BB6
330
1F
100
AcDbEntity
  8
P-0000
  6
Continuous
 62
     7
100
AcDbLine
 10
2716.893213013793
 20
1131.488408077669
 30
0.0
 11
2714.069571380625
 21
1131.488408077669
 31
0.0
1001
ACME_LAYERS
1000
1
  0
LINE
  5
BB8
330
1F
100
AcDbEntity
  8
P-0000
  6
Continuous
 62
     3
100
AcDbLine
 10
2732.007393554133
 20
1129.48840807767
 30
0.0
 11
2731.47149516927
 21
1129.48840807767
 31
0.0
1001
ACME_LAYERS
1000
1
  0
LINE
  5
BB9
330
1F
100
AcDbEntity
  8
P-0000
  6
Continuous
 62
     3
100
AcDbLine
 10
2732.471495169271
 20
1129.756357270102
 30
0.0
 11
2732.007393554133
 21
1129.48840807767
 31
0.0
1001
ACME_LAYERS
1000
1
  0
LINE
  5
BBA
330
1F
100
AcDbEntity
  8
P-0000
  6
Continuous
 62
     7
100
AcDbLine
 10
2694.569571380625
 20
1130.316835202417
 30
0.0
 11
2694.326930693505
 21
1130.074194515297
 31
0.0
1001
ACME_LAYERS
1000
1
  0
LINE
  5
BBB
330
1F
100
AcDbEntity
  8
P-0000
  6
Continuous
 62
     7
100
AcDbLine
 10
2723.569571380624
 20
1130.316835202417
 30
0.0
 11
2723.812212067743
 21
1130.074194515297
 31
0.0
1001
ACME_LAYERS
1000
1
  0
LINE
  5
BBC
330
1F
100
AcDbEntity
  8
P-0000
  6
Continuous
 62
     7
100
AcDbLine
 10
2714.069571380625
 20
1131.488408077669
 30
0.0
 11
2714.069571380625
 21
1129.48840807767
 31
0.0
1001
ACME_LAYERS
1000
1
  0
LINE
  5
BBD
330
1F
100
AcDbEntity
  8
P-0000
  6
Continuous
 62
     7
100
AcDbLine
 10
2704.069571380625
 20
1131.488408077669
 30
0.0
 11
2704.069571380625
 21
1129.48840807767
 31
0.0
1001
ACME_LAYERS
1000
1
  0
LINE
  5
BBE
330
1F
100
AcDbEntity
  8
P-0000
  6
Continuous
 62
     7
100
AcDbLine
 10
2739.069571380623
 20
1131.256357270102
 30
0.0
 11
2738.069571380625
 21
1132.98840807767
 31
0.0
1001
ACME_LAYERS
1000
1
  0
LINE
  5
BBF
330
1F
100
AcDbEntity
  8
P-0000
  6
Continuous
 62
     7
100
AcDbLine
 10
2739.069571380623
 20
1131.256357270102
 30
0.0
 11
2733.471495169271
 21
1128.024306462532
 31
0.0
1001
ACME_LAYERS
1000
1
  0
LINE
  5
BC0
330
1F
100
AcDbEntity
  8
P-0000
  6
Continuous
 62
     7
100
AcDbLine
 10
2738.069571380625
 20
1132.98840807767
 30
0.0
 11
2732.471495169271
 21
1129.756357270102
 31
0.0
1001
ACME_LAYERS
1000
1
  0
LINE
  5
BC1
330
1F
100
AcDbEntity
  8
P-0000
  6
Continuous
 62
     7
100
AcDbLine
 10
2722.155357818251
 20
1128.902621640043
 30
0.0
 11
2722.397998505372
 21
1128.659980952925
 31
0.0
1001
ACME_LAYERS
1000
1
  0
LINE
  5
BC2
330
1F
100
AcDbEntity
  8
P-0000
  6
Continuous
 62
     7
100
AcDbLine
 10
2695.983784942999
 20
1128.902621640043
 30
0.0
 11
2695.741144255878
 21
1128.659980952925
 31
0.0
1001
ACME_LAYERS
1000
1
  0
LINE
  5
BC3
330
1F
100
AcDbEntity
  8
P-0000
  6
Continuous
 62
     7
100
AcDbLine
 10
2679.069571380625
 20
1131.256357270102
 30
0.0
 11
2684.667647591977
 21
1128.024306462532
 31
0.0
1001
ACME_LAYERS
1000
1
  0
LINE
  5
BC4
330
1F
100
AcDbEntity
  8
P-0000
  6
Continuous
 62
     7
100
AcDbLine
 10
2686.667647591977
 20
1127.488408077669
 30
0.0
 11
2592.819571380627
 21
1127.488408077669
 31
0.0
1001
ACME_LAYERS
1000
1
  0
LINE
  5
BC5
330
1F
100
AcDbEntity
  8
P-0000
  6
Continuous
 62
     7
100
AcDbLine
 10
2686.667647591977
 20
1129.48840807767
 30
0.0
 11
2692.912717131131
 21
1129.48840807767
 31
0.0
1001
ACME_LAYERS
1000
1
  0
LINE
  5
BC6
330
1F
100
AcDbEntity
  8
P-0000
  6
Continuous
 62
     7
100
AcDbLine
 10
2686.667647591977
 20
1127.488408077669
 30
0.0
 11
2692.912717131131
 21
1127.488408077669
 31
0.0
1001
ACME_LAYERS
1000
1
  0
LINE
  5
BC7
330
1F
100
AcDbEntity
  8
P-0000
  6
Continuous
 62
     7
100
AcDbLine
 10
2731.47149516927
 20
1127.488408077669
 30
0.0
 11
2725.226425630118
 21
1127.488408077669
 31
0.0
1001
ACME_LAYERS
1000
1
  0
LINE
  5
BC8
330
1F
100
AcDbEntity
  8
P-0000
  6
Continuous
 62
     7
100
AcDbLine
 10
2714.069571380625
 20
1131.488408077669
 30
0.0
 11
2713.069571380625
 21
1131.488408077669
 31
0.0
1001
ACME_LAYERS
1000
1
  0
LINE
  5
BC9
330
1F
100
AcDbEntity
  8
P-0000
  6
Continuous
 62
     7
100
AcDbLine
 10
2716.893213013793
 20
1131.488408077669
 30
0.0
 11
2714.069571380625
 21
1131.488408077669
 31
0.0
1001
ACME_LAYERS
1000
1
  0
LINE
  5
BCA
330
1F
100
AcDbEntity
  8
P-0000
  6
Continuous
 62
     7
100
AcDbLine
 10
2704.069571380625
 20
1131.488408077669
 30
0.0
 11
2697.397998505371
 21
1131.488408077669
 31
0.0
1001
ACME_LAYERS
1000
1
  0
LINE
  5
BCB
330
1F
100
AcDbEntity
  8
P-0000
  6
Continuous
 62
     7
100
AcDbLine
 10
2705.069571380625
 20
1129.48840807767
 30
0.0
 11
2697.397998505371
 21
1129.48840807767
 31
0.0
1001
ACME_LAYERS
1000
1
  0
LINE
  5
BCC
330
1F
100
AcDbEntity
  8
P-0000
  6
Continuous
 62
     7
100
AcDbLine
 10
2720.741144255878
 20
1129.48840807767
 30
0.0
 11
2713.126107824715
 21
1129.48840807767
 31
0.0
1001
ACME_LAYERS
1000
1
  0
LINE
  5
BCD
330
1F
100
AcDbEntity
  8
P-0000
  6
Continuous
 62
     7
100
AcDbLine
 10
2705.069571380625
 20
1131.488408077669
 30
0.0
 11
2704.069571380625
 21
1131.488408077669
 31
0.0
1001
ACME_LAYERS
1000
1
  0
LINE
  5
BCE
330
1F
100
AcDbEntity
  8
P-0000
  6
Continuous
 62
     7
100
AcDbLine
 10
2731.47149516927
 20
1129.48840807767
 30
0.0
 11
2725.226425630118
 21
1129.48840807767
 31
0.0
1001
ACME_LAYERS
1000
1
  0
LINE
  5
BCF
330
1F
100
AcDbEntity
  8
P-0000
  6
Continuous
 62
     7
100
AcDbLine
 10
2699.069571380625
 20
1131.488408077669
 30
0.0
 11
2704.069571380625
 21
1131.488408077669
 31
0.0
1001
ACME_LAYERS
1000
1
  0
LINE
  5
BD0
330
1F
100
AcDbEntity
  8
P-0000
  6
Continuous
 62
     7
100
AcDbLine
 10
2704.069571380625
 20
1131.488408077669
 30
0.0
 11
2705.069571380625
 21
1131.488408077669
 31
0.0
1001
ACME_LAYERS
1000
1
  0
LINE
  5
BD1
330
1F
100
AcDbEntity
  8
P-0000
  6
Continuous
 62
     7
100
AcDbLine
 10
2738.069571380625
 20
1132.98840807767
 30
0.0
 11
2726.569571380615
 21
1132.98840807767
 31
0.0
1001
ACME_LAYERS
1000
1
  0
LINE
  5
BD2
330
1F
100
AcDbEntity
  8
P-0000
  6
Continuous
 62
     7
100
AcDbLine
 10
2717.515269494045
 20
1131.488408077669
 30
0.0
 11
2713.069571380625
 21
1131.488408077669
 31
0.0
1001
ACME_LAYERS
1000
1
  0
LINE
  5
BD3
330
1F
100
AcDbEntity
  8
P-0000
  6
Continuous
 62
     7
100
AcDbLine
 10
2705.069571380625
 20
1131.488408077669
 30
0.0
 11
2704.069571380625
 21
1131.488408077669
 31
0.0
1001
ACME_LAYERS
1000
1
  0
LINE
  5
BE4
330
1F
100
AcDbEntity
  8
P-0000
  6
Continuous
 62
     7
100
AcDbLine
 10
2592.810842761767
 20
1132.98840807767
 30
0.0
 11
2592.819571380603
 21
1132.98840807767
 31
0.0
1001
ACME_LAYERS
1000
1
  0
LINE
  5
BE5
330
1F
100
AcDbEntity
  8
P-0000
  6
Continuous
 62
     7
100
AcDbLine
 10
2592.810842761767
 20
1131.256357270102
 30
0.0
 11
2592.819571380627
 21
1131.256357270102
 31
0.0
1001
ACME_LAYERS
1000
1
  0
LINE
  5
BE6
330
1F
100
AcDbEntity
  8
P-0000
  6
Continuous
 62
     7
100
AcDbLine
 10
2592.810842761768
 20
1127.488408077669
 30
0.0
 11
2592.819571380627
 21
1127.488408077669
 31
0.0
1001
ACME_LAYERS
1000
1
  0
LINE
  5
BE7
330
1F
100
AcDbEntity
  8
P-0000
  6
Continuous
 62
     7
100
AcDbLine
 10
2714.569571380623
 20
1131.488408077672
 30
0.0
 11
2719.569571380623
 21
1131.488408077672
 31
0.0
1001
ACME_LAYERS
1000
1
  0
LINE
  5
BE9
330
1F
100
AcDbEntity
  8
P-0000
  6
Continuous
 62
     7
100
AcDbLine
 10
2704.069571380625
 20
1131.488408077669
 30
0.0
 11
2700.515269494045
 21
1131.488408077669
 31
0.0
1001
ACME_LAYERS
1000
1
  0
LINE
  5
BEA
330
1F
100
AcDbEntity
  8
P-0000
  6
Continuous
 62
     7
100
AcDbLine
 10
2704.069571380625
 20
1131.488408077669
 30
0.0
 11
2704.569571380623
 21
1131.488408077672
 31
0.0
1001
ACME_LAYERS
1000
1
  0
LINE
  5
BEC
330
1F
100
AcDbEntity
  8
P-0000
  6
Continuous
 62
     7
100
AcDbLine
 10
2713.069571380625
 20
1131.488408077669
 30
0.0
 11
2714.069571380625
 21
1131.488408077669
 31
0.0
1001
ACME_LAYERS
1000
1
  0
LINE
  5
BF1
330
1F
100
AcDbEntity
  8
P-0000
  6
Continuous
 62
     7
100
AcDbLine
 10
2697.397998505371
 20
1131.488408077669
 30
0.0
 11
2704.069571380625
 21
1131.488408077669
 31
0.0
1001
ACME_LAYERS
1000
1
  0
ARC
  5
BF2
330
1F
100
AcDbEntity
  8
P-0000
  6
Continuous
 62
     7
100
AcDbCircle
 10
2725.226425630118
 20
1131.488408077669
 30
0.0
 40
4.0
100
AcDbArc
 50
224.9999999999911
 51
270.0
1001
ACME_LAYERS
1000
1
  0
ARC
  5
BF3
330
1F
100
AcDbEntity
  8
P-0000
  6
Continuous
 62
     7
100
AcDbCircle
 10
2697.397998505371
 20
1127.488408077669
 30
0.0
 40
4.000000000000613
100
AcDbArc
 50
90.0
 51
134.9999999999997
1001
ACME_LAYERS
1000
1
  0
ARC
  5
BF4
330
1F
100
AcDbEntity
  8
P-0000
  6
Continuous
 62
     7
100
AcDbCircle
 10
2692.912717131131
 20
1131.488408077669
 30
0.0
 40
3.999999999999423
100
AcDbArc
 50
270.0
 51
315.0000000000089
1001
ACME_LAYERS
1000
1
  0
ARC
  5
BF5
330
1F
100
AcDbEntity
  8
P-0000
  6
Continuous
 62
     7
100
AcDbCircle
 10
2686.667647591977
 20
1131.488408077669
 30
0.0
 40
4.0
100
AcDbArc
 50
239.9999999999991
 51
270.0
1001
ACME_LAYERS
1000
1
  0
ARC
  5
C00
330
1F
100
AcDbEntity
  8
P-0000
  6
Continuous
 62
     7
100
AcDbCircle
 10
2686.667647591977
 20
1131.488408077669
 30
0.0
 40
2.0
100
AcDbArc
 50
239.9999999999732
 51
270.0
1001
ACME_LAYERS
1000
1
  0
ARC
  5
C01
330
1F
100
AcDbEntity
  8
P-0000
  6
Continuous
 62
     7
100
AcDbCircle
 10
2692.912717131131
 20
1131.488408077669
 30
0.0
 40
2.000000000000397
100
AcDbArc
 50
270.0
 51
314.9999999999997
1001
ACME_LAYERS
1000
1
  0
ARC
  5
C02
330
1F
100
AcDbEntity
  8
P-0000
  6
Continuous
 62
     7
100
AcDbCircle
 10
2697.397998505371
 20
1127.488408077669
 30
0.0
 40
2.000000000000311
100
AcDbArc
 50
90.0
 51
134.9999999999997
1001
ACME_LAYERS
1000
1
  0
ARC
  5
C03
330
1F
100
AcDbEntity
  8
P-0000
  6
Continuous
 62
     7
100
AcDbCircle
 10
2720.741144255878
 20
1127.488408077669
 30
0.0
 40
2.0
100
AcDbArc
 50
45.00000000000027
 51
90.0
1001
ACME_LAYERS
1000
1
  0
ARC
  5
C04
330
1F
100
AcDbEntity
  8
P-0000
  6
Continuous
 62
     7
100
AcDbCircle
 10
2725.226425630118
 20
1131.488408077669
 30
0.0
 40
2.0
100
AcDbArc
 50
224.9999999999819
 51
270.0
1001
ACME_LAYERS
1000
1
  0
ARC
  5
C05
330
1F
100
AcDbEntity
  8
P-0000
  6
Continuous
 62
     7
100
AcDbCircle
 10
2731.47149516927
 20
1131.488408077669
 30
0.0
 40
1.999999999999425
100
AcDbArc
 50
270.0
 51
300.0000000000268
1001
ACME_LAYERS
1000
1
  0
ARC
  5
C06
330
1F
100
AcDbEntity
  8
P-0000
  6
Continuous
 62
     7
100
AcDbCircle
 10
2731.47149516927
 20
1131.488408077669
 30
0.0
 40
4.000000000000401
100
AcDbArc
 50
270.0
 51
300.0000000000008
1001
ACME_LAYERS
1000
1
  0
ARC
  5
C07
330
1F
100
AcDbEntity
  8
P-0000
  6
Continuous
 62
     7
100
AcDbCircle
 10
2720.741144255878
 20
1127.488408077669
 30
0.0
 40
4.0
100
AcDbArc
 50
45.00000000000027
 51
89.99999999997395
1001
ACME_LAYERS
1000
1
  0
HATCH
  5
C08
330
1F
100
AcDbEntity
  8
P-0000
  6
Continuous
 62
     3
100
AcDbHatch
 10
0.0
 20
0.0
 30
0.0
210
0.0
220
0.0
230
1.0
  2
_U
 70
     0
 71
     0
 91
        1
 92
        1
 93
       19
 72
     1
 10
2680.069571380625
 20
1132.98840807767
 11
2685.667647591977
 21
1129.756357270102
 72
     1
 10
2685.667647591977
 20
1129.756357270102
 11
2686.131749207115
 21
1129.48840807767
 72
     1
 10
2686.131749207115
 20
1129.48840807767
 11
2686.667647591977
 21
1129.48840807767
 72
     1
 10
2686.667647591977
 20
1129.48840807767
 11
2692.912717131131
 21
1129.48840807767
 72
     1
 10
2692.912717131131
 20
1129.48840807767
 11
2693.741144255878
 21
1129.48840807767
 72
     1
 10
2693.741144255878
 20
1129.48840807767
 11
2694.326930693505
 21
1130.074194515296
 72
     1
 10
2694.326930693505
 20
1130.074194515297
 11
2694.569571380625
 21
1130.316835202417
 72
     2
 10
2697.397998505371
 20
1127.488408077669
 40
4.000000000000613
 50
-135.0000000000008
 51
-90.00000000000001
 73
     0
 72
     1
 10
2697.397998505371
 20
1131.488408077669
 11
2704.069571380625
 21
1131.488408077669
 72
     1
 10
2704.069571380625
 20
1131.488408077669
 11
2704.069571380625
 21
1129.48840807767
 72
     1
 10
2704.069571380625
 20
1129.48840807767
 11
2697.397998505372
 21
1129.48840807767
 72
     1
 10
2697.397998505371
 20
1129.48840807767
 11
2696.569571380625
 21
1129.48840807767
 72
     1
 10
2696.569571380625
 20
1129.48840807767
 11
2695.983784942999
 21
1128.902621640043
 72
     1
 10
2695.983784942999
 20
1128.902621640043
 11
2695.741144255878
 21
1128.659980952925
 72
     2
 10
2692.912717131131
 20
1131.488408077669
 40
3.999999999999423
 50
44.99999999998222
 51
90.0
 73
     0
 72
     1
 10
2692.912717131131
 20
1127.488408077669
 11
2686.667647591977
 21
1127.488408077669
 72
     2
 10
2686.667647591977
 20
1131.488408077669
 40
4.0
 50
90.0
 51
119.9999999999965
 73
     0
 72
     1
 10
2684.667647591977
 20
1128.024306462532
 11
2679.069571380625
 21
1131.256357270102
 72
     1
 10
2679.069571380625
 20
1131.256357270102
 11
2680.069571380625
 21
1132.98840807767
 97
        0
 75
     0
 76
     0
 52
44.99999999999999
 41
3.0
 77
     0
 78
     1
 53
135.0
 43
2652.102699395519
 44
1268.114373572045
 45
2.121320343559641
 46
2.121320343559641
 79
     0
 98
        1
 10
2652.102699395519
 20
1268.114373572045
1001
ACME_LAYERS
1000
1
  0
HATCH
  5
C09
330
1F
100
AcDbEntity
  8
P-0000
  6
Continuous
 62
     3
100
AcDbHatch
 10
0.0
 20
0.0
 30
0.0
210
0.0
220
0.0
230
1.0
  2
_U
 70
     0
 71
     0
 91
        1
 92
        1
 93
       19
 72
     2
 10
2725.226425630118
 20
1131.488408077669
 40
2.0
 50
90.0
 51
135.0000000000351
 73
     0
 72
     1
 10
2723.812212067743
 20
1130.074194515297
 11
2723.569571380624
 21
1130.316835202417
 72
     2
 10
2720.741144255878
 20
1127.488408077669
 40
4.0
 50
404.9999999999991
 51
449.9999999999738
 73
     1
 72
     1
 10
2720.74114425588
 20
1131.488408077669
 11
2718.303541542652
 21
1131.488408077669
 72
     1
 10
2718.303541542652
 20
1131.488408077669
 11
2716.893213013793
 21
1131.488408077669
 72
     1
 10
2716.893213013793
 20
1131.488408077669
 11
2714.069571380625
 21
1131.488408077669
 72
     1
 10
2714.069571380625
 20
1131.488408077669
 11
2714.069571380625
 21
1129.48840807767
 72
     1
 10
2714.069571380625
 20
1129.48840807767
 11
2720.741144255878
 21
1129.48840807767
 72
     1
 10
2720.741144255878
 20
1129.48840807767
 11
2721.569571380625
 21
1129.48840807767
 72
     1
 10
2721.569571380625
 20
1129.48840807767
 11
2722.155357818251
 21
1128.902621640043
 72
     1
 10
2722.155357818251
 20
1128.902621640043
 11
2722.397998505372
 21
1128.659980952925
 72
     2
 10
2725.226425630118
 20
1131.488408077669
 40
4.0
 50
224.9999999999821
 51
270.0
 73
     1
 72
     1
 10
2725.226425630118
 20
1127.488408077669
 11
2731.47149516927
 21
1127.488408077669
 72
     2
 10
2731.47149516927
 20
1131.488408077669
 40
4.000000000000401
 50
270.0
 51
299.9999999999967
 73
     1
 72
     1
 10
2733.471495169271
 20
1128.024306462532
 11
2739.069571380623
 21
1131.256357270102
 72
     1
 10
2739.069571380623
 20
1131.256357270102
 11
2738.069571380625
 21
1132.98840807767
 72
     1
 10
2738.069571380625
 20
1132.98840807767
 11
2732.471495169271
 21
1129.756357270102
 72
     2
 10
2731.47149516927
 20
1131.488408077669
 40
1.999999999999425
 50
59.99999999999046
 51
90.0
 73
     0
 72
     1
 10
2731.47149516927
 20
1129.48840807767
 11
2725.226425630118
 21
1129.48840807767
 97
        0
 75
     0
 76
     0
 52
44.99999999999999
 41
5.0
 77
     0
 78
     1
 53
135.0
 43
2652.102699395519
 44
1268.114373572045
 45
3.535533905932736
 46
3.535533905932738
 79
     0
 98
        1
 10
2652.102699395519
 20
1268.114373572045
1001
ACME_LAYERS
1000
1
  0
LINE
  5
C12
330
1F
100
AcDbEntity
  8
P-0000
  6
Continuous
 62
     7
100
AcDbLine
 10
2686.702429015082
 20
1127.488408077669
 30
0.0
 11
2692.947498554236
 21
1127.488408077669
 31
0.0
1001
ACME_LAYERS
1000
1
  0
LINE
  5
C13
330
1F
100
AcDbEntity
  8
P-0000
  6
Continuous
 62
     7
100
AcDbLine
 10
2731.47149516927
 20
1127.488408077669
 30
0.0
 11
2725.226425630116
 21
1127.488408077669
 31
0.0
1001
ACME_LAYERS
1000
1
  0
LINE
  5
C14
330
1F
100
AcDbEntity
  8
P-0000
  6
Continuous
 62
     7
100
AcDbLine
 10
2686.667647591975
 20
1127.488408077669
 30
0.0
 11
2692.912717131129
 21
1127.488408077669
 31
0.0
1001
ACME_LAYERS
1000
1
  0
LINE
  5
C1C
330
1F
100
AcDbEntity
  8
0
100
AcDbLine
 10
2713.126107824715
 20
1131.488408077669
 30
0.0
 11
2713.126107824715
 21
1118.282488172726
 31
0.0
  0
LINE
  5
C1D
330
1F
100
AcDbEntity
  8
0
100
AcDbLine
 10
2705.126107824716
 20
1131.488408077669
 30
0.0
 11
2705.126107824716
 21
1118.282488172726
 31
0.0
  0
HATCH
  5
C1F
330
1F
100
AcDbEntity
  8
P-3FF0
  6
Continuous
 62
     3
100
AcDbHatch
 10
0.0
 20
0.0
 30
0.0
210
0.0
220
0.0
230
1.0
  2
_U
 70
     0
 71
     0
 91
        1
 92
        1
 93
       37
 72
     1
 10
2741.793075808825
 20
1117.717314962584
 11
2743.207289371198
 21
1119.131528524958
 72
     1
 10
2743.207289371198
 20
1119.131528524958
 11
2742.504728126446
 21
1119.834089769709
 72
     2
 10
2739.676301001701
 20
1117.005662644963
 40
4.0
 50
404.9999999999993
 51
450.0
 73
     1
 72
     2
 10
2739.676301001701
 20
1117.005662644963
 40
3.999999999999721
 50
450.0
 51
479.9999999999984
 73
     1
 72
     1
 10
2737.6763010017
 20
1120.4697642601
 11
2734.239045992068
 21
1118.485264155015
 72
     2
 10
2733.239045992067
 20
1120.217314962584
 40
1.999999999999868
 50
59.99999999999786
 51
90.0
 73
     0
 72
     1
 10
2733.239045992067
 20
1118.217314962584
 11
2732.960842761791
 21
1118.217314962584
 72
     1
 10
2732.960842761791
 20
1118.217314962584
 11
2713.060842761791
 21
1118.217314962584
 72
     1
 10
2713.060842761791
 20
1118.217314962584
 11
2712.260842761792
 21
1118.217314962584
 72
     1
 10
2712.260842761792
 20
1118.217314962584
 11
2705.860842761791
 21
1118.217314962584
 72
     1
 10
2705.860842761791
 20
1118.217314962584
 11
2705.060842761791
 21
1118.217314962584
 72
     1
 10
2705.060842761791
 20
1118.217314962584
 11
2685.624944376929
 21
1118.217314962584
 72
     2
 10
2685.624944376929
 20
1120.217314962584
 40
2.0
 50
-270.0
 51
-239.9999999999979
 73
     0
 72
     1
 10
2684.624944376929
 20
1118.485264155015
 11
2679.172964402245
 21
1121.632966261014
 72
     2
 10
2677.375552582021
 20
1119.231027305018
 40
2.999999999970075
 50
413.1918656392357
 51
455.4802249851991
 73
     1
 72
     1
 10
2677.089045992065
 20
1122.217314962584
 11
2639.340709695011
 21
1122.217314962584
 72
     2
 10
2639.340709695011
 20
1116.217314962584
 40
6.000000000000177
 50
450.0
 51
502.9999999999994
 73
     1
 72
     1
 10
2634.548896634727
 20
1119.828205101496
 11
2628.817665211534
 21
1112.222604119838
 72
     2
 10
2632.810842761769
 20
1109.213529004078
 40
5.0
 50
502.9999999999976
 51
539.9999999999961
 73
     1
 72
     1
 10
2627.81084276177
 20
1109.213529004078
 11
2627.81084276177
 21
1105.217314962584
 72
     1
 10
2627.81084276177
 20
1105.217314962584
 11
2628.407373136595
 21
1105.217314962584
 72
     1
 10
2628.407373136595
 20
1105.217314962584
 11
2629.810842761769
 21
1106.620784587759
 72
     1
 10
2629.810842761769
 20
1106.620784587759
 11
2629.810842761769
 21
1109.213529004078
 72
     2
 10
2632.810842761769
 20
1109.213529004078
 40
3.0
 50
-180.0
 51
-142.9999999999997
 73
     0
 72
     1
 10
2630.414936231628
 20
1111.018974073534
 11
2634.332167062388
 21
1116.217314962584
 72
     1
 10
2634.332167062386
 20
1116.217314962584
 11
2636.146167654822
 21
1118.624575055192
 72
     2
 10
2639.340709695011
 20
1116.217314962584
 40
4.000000000000238
 50
-142.9999999999979
 51
-90.00000000000001
 73
     0
 72
     1
 10
2639.340709695011
 20
1120.217314962584
 11
2677.089045992065
 21
1120.217314962584
 72
     2
 10
2677.089045992065
 20
1118.217314962584
 40
2.0
 50
-90.00000000000001
 51
-60.00000000000715
 73
     0
 72
     1
 10
2678.089045992065
 20
1119.949365770153
 11
2683.624944376929
 21
1116.753213347446
 72
     2
 10
2685.624944376929
 20
1120.217314962584
 40
4.0
 50
600.0000000000092
 51
630.0
 73
     1
 72
     1
 10
2685.624944376929
 20
1116.217314962584
 11
2692.810842761792
 21
1116.217314962584
 72
     1
 10
2692.810842761792
 20
1116.217314962584
 11
2733.239045992067
 21
1116.217314962584
 72
     2
 10
2733.239045992067
 20
1120.217314962584
 40
3.999999999999785
 50
270.0000000000049
 51
300.0000000000018
 73
     1
 72
     1
 10
2735.239045992067
 20
1116.753213347446
 11
2738.6763010017
 21
1118.737713452531
 72
     2
 10
2739.676301001701
 20
1117.005662644963
 40
1.999999999999721
 50
-120.0000000000046
 51
-44.9999999999988
 73
     0
 72
     1
 10
2741.090514564073
 20
1118.419876207336
 11
2741.793075808825
 21
1117.717314962584
 97
        0
 75
     0
 76
     0
 52
44.99999999999999
 41
2.0
 77
     0
 78
     1
 53
135.0
 43
1884.831398820425
 44
720.4333345552639
 45
1.414213562373094
 46
1.414213562373094
 79
     0
 98
        1
 10
1884.831398820425
 20
720.4333345552639
1001
ACME_LAYERS
1000
1
  0
LINE
  5
C20
330
1F
100
AcDbEntity
  8
P-3FF0
  6
Continuous
 62
     7
100
AcDbLine
 10
2639.340709695011
 20
1120.217314962584
 30
0.0
 11
2677.089045992065
 21
1120.217314962584
 31
0.0
1001
ACME_LAYERS
1000
1
  0
HATCH
  5
C21
330
1F
100
AcDbEntity
  8
P-3FF0
  6
Continuous
 62
     3
100
AcDbHatch
 10
0.0
 20
0.0
 30
0.0
210
0.0
220
0.0
230
1.0
  2
_U
 70
     0
 71
     0
 91
        1
 92
        1
 93
        6
 72
     1
 10
2627.810842761779
 20
1049.219650557008
 11
2628.642346034269
 21
1050.141510091292
 72
     1
 10
2628.642346034269
 20
1050.141510091292
 11
2629.310842761769
 21
1051.217314962584
 72
     1
 10
2629.310842761769
 20
1051.217314962584
 11
2629.310842761769
 21
1103.652459668686
 72
     1
 10
2629.310842761769
 20
1103.652459668686
 11
2628.407373136595
 21
1105.217314962584
 72
     1
 10
2628.407373136595
 20
1105.217314962584
 11
2627.81084276177
 21
1105.217314962584
 72
     1
 10
2627.81084276177
 20
1105.217314962584
 11
2627.81084276177
 21
1049.219650556999
 97
        0
 75
     0
 76
     0
 52
-45.0
 41
2.0
 77
     0
 78
     1
 53
225.0
 43
1884.831398820425
 44
720.4333345552639
 45
-1.414213562373094
 46
1.414213562373094
 79
     0
 98
        1
 10
1884.831398820425
 20
720.4333345552639
1001
ACME_LAYERS
1000
1
  0
LINE
  5
C22
330
1F
100
AcDbEntity
  8
P-3FF0
  6
Continuous
 62
     7
100
AcDbLine
 10
2629.310842761769
 20
1051.217314962584
 30
0.0
 11
2629.310842761769
 21
1103.652459668686
 31
0.0
1001
ACME_LAYERS
1000
1
  0
LINE
  5
C23
330
1F
100
AcDbEntity
  8
P-3FF0
  6
Continuous
 62
     7
100
AcDbLine
 10
2627.81084276177
 20
1105.217314962584
 30
0.0
 11
2627.81084276177
 21
1049.219650556999
 31
0.0
1001
ACME_LAYERS
1000
1
  0
LINE
  5
C24
330
1F
100
AcDbEntity
  8
P-3FF0
  6
Continuous
 62
     7
100
AcDbLine
 10
2627.81084276177
 20
1109.213529004078
 30
0.0
 11
2627.81084276177
 21
1105.217314962584
 31
0.0
1001
ACME_LAYERS
1000
1
  0
ARC
  5
C25
330
1F
100
AcDbEntity
  8
P-3FF0
  6
Continuous
 62
     7
100
AcDbCircle
 10
2639.340709695011
 20
1116.217314962584
 30
0.0
 40
6.000000000000177
100
AcDbArc
 50
90.0
 51
143.000000000005
1001
ACME_LAYERS
1000
1
  0
LINE
  5
C26
330
1F
100
AcDbEntity
  8
P-3FF0
  6
Continuous
 62
     7
100
AcDbLine
 10
2634.332167062386
 20
1116.217314962584
 30
0.0
 11
2636.146167654822
 21
1118.624575055192
 31
0.0
1001
ACME_LAYERS
1000
1
  0
ARC
  5
C27
330
1F
100
AcDbEntity
  8
P-3FF0
  6
Continuous
 62
     7
100
AcDbCircle
 10
2639.340709695011
 20
1116.217314962584
 30
0.0
 40
4.000000000000238
100
AcDbArc
 50
90.0
 51
143.000000000005
1001
ACME_LAYERS
1000
1
  0
LINE
  5
C28
330
1F
100
AcDbEntity
  8
P-3FF0
  6
Continuous
 62
     7
100
AcDbLine
 10
2630.414936231628
 20
1111.018974073534
 30
0.0
 11
2634.332167062386
 21
1116.217314962584
 31
0.0
1001
ACME_LAYERS
1000
1
  0
LINE
  5
C29
330
1F
100
AcDbEntity
  8
P-3FF0
  6
Continuous
 62
     7
100
AcDbLine
 10
2628.817665211534
 20
1112.222604119838
 30
0.0
 11
2634.548896634727
 21
1119.828205101496
 31
0.0
1001
ACME_LAYERS
1000
1
  0
ARC
  5
C2A
330
1F
100
AcDbEntity
  8
P-3FF0
  6
Continuous
 62
     7
100
AcDbCircle
 10
2632.810842761769
 20
1109.213529004078
 30
0.0
 40
3.0
100
AcDbArc
 50
143.000000000005
 51
180.0
1001
ACME_LAYERS
1000
1
  0
ARC
  5
C2B
330
1F
100
AcDbEntity
  8
P-3FF0
  6
Continuous
 62
     7
100
AcDbCircle
 10
2632.810842761769
 20
1109.213529004078
 30
0.0
 40
5.0
100
AcDbArc
 50
143.000000000005
 51
179.9999999999935
1001
ACME_LAYERS
1000
1
  0
LINE
  5
C2C
330
1F
100
AcDbEntity
  8
P-3FF0
  6
Continuous
 62
     7
100
AcDbLine
 10
2629.810842761769
 20
1109.213529004078
 30
0.0
 11
2629.810842761769
 21
1106.620784587759
 31
0.0
1001
ACME_LAYERS
1000
1
  0
LINE
  5
C2D
330
1F
100
AcDbEntity
  8
0
100
AcDbLine
 10
2629.810842761769
 20
1106.620784587759
 30
0.0
 11
2629.310842761769
 21
1103.652459668686
 31
0.0
  0
LINE
  5
C2E
330
1F
100
AcDbEntity
  8
0
100
AcDbLine
 10
2627.81084276177
 20
1049.219650556999
 30
0.0
 11
2629.310842761769
 21
1049.219650556999
 31
0.0
  0
LINE
  5
C55
330
1F
100
AcDbEntity
  8
P-0000
  6
STRICHPUNKT
 62
     3
100
AcDbLine
 10
2476.569571380624
 20
1130.461296592917
 30
0.0
 11
2476.569571380624
 21
1137.461296592917
 31
0.0
1001
ACME_LAYERS
1000
1
  0
LINE
  5
C57
330
1F
100
AcDbEntity
  8
P-0000
  6
Continuous
 62
     7
100
AcDbLine
 10
2481.569571380624
 20
1133.488408077672
 30
0.0
 11
2486.980815782703
 21
1133.488408077672
 31
0.0
1001
ACME_LAYERS
1000
1
  0
LINE
  5
C5A
330
1F
100
AcDbEntity
  8
P-0000
  6
Continuous
 62
     7
100
AcDbLine
 10
2471.569571380624
 20
1133.488408077672
 30
0.0
 11
2481.569571380624
 21
1133.488408077672
 31
0.0
1001
ACME_LAYERS
1000
1
  0
LINE
  5
C5D
330
1F
100
AcDbEntity
  8
P-0000
  6
Continuous
 62
     7
100
AcDbLine
 10
2486.980815782703
 20
1133.488408077672
 30
0.0
 11
2488.980815782703
 21
1133.488408077672
 31
0.0
1001
ACME_LAYERS
1000
1
  0
LINE
  5
C61
330
1F
100
AcDbEntity
  8
P-0000
  6
Continuous
 62
     7
100
AcDbLine
 10
2462.569571380624
 20
1133.488408077672
 30
0.0
 11
2471.569571380624
 21
1133.488408077672
 31
0.0
1001
ACME_LAYERS
1000
1
  0
LINE
  5
D87
330
1F
100
AcDbEntity
  8
P-0000
  6
Continuous
 62
     7
100
AcDbLine
 10
2502.157809269826
 20
1132.98840807767
 30
0.0
 11
2506.603507383247
 21
1132.98840807767
 31
0.0
1001
ACME_LAYERS
1000
1
  0
LINE
  5
D88
330
1F
100
AcDbEntity
  8
P-0000
  6
Continuous
 62
     7
100
AcDbLine
 10
2519.157809269826
 20
1132.98840807767
 30
0.0
 11
2515.103507383249
 21
1132.98840807767
 31
0.0
1001
ACME_LAYERS
1000
1
  0
LINE
  5
D89
330
1F
100
AcDbEntity
  8
P-0000
  6
Continuous
 62
     7
100
AcDbLine
 10
2507.403507383248
 20
1132.98840807767
 30
0.0
 11
2515.103507383249
 21
1132.98840807767
 31
0.0
1001
ACME_LAYERS
1000
1
  0
LINE
  5
D8A
330
1F
100
AcDbEntity
  8
P-0000
  6
Continuous
 62
     7
100
AcDbLine
 10
2506.603507383247
 20
1132.98840807767
 30
0.0
 11
2507.403507383248
 21
1132.98840807767
 31
0.0
1001
ACME_LAYERS
1000
1
  0
LINE
  5
DC0
330
1F
100
AcDbEntity
  8
P-0000
  6
Continuous
 62
     7
100
AcDbLine
 10
2666.572480026867
 20
1132.98840807767
 30
0.0
 11
2671.018178140287
 21
1132.98840807767
 31
0.0
1001
ACME_LAYERS
1000
1
  0
LINE
  5
DC1
330
1F
100
AcDbEntity
  8
P-0000
  6
Continuous
 62
     7
100
AcDbLine
 10
2683.572480026866
 20
1132.98840807767
 30
0.0
 11
2679.518178140289
 21
1132.98840807767
 31
0.0
1001
ACME_LAYERS
1000
1
  0
LINE
  5
DC2
330
1F
100
AcDbEntity
  8
P-0000
  6
Continuous
 62
     7
100
AcDbLine
 10
2671.818178140288
 20
1132.98840807767
 30
0.0
 11
2679.518178140289
 21
1132.98840807767
 31
0.0
1001
ACME_LAYERS
1000
1
  0
LINE
  5
DC3
330
1F
100
AcDbEntity
  8
P-0000
  6
Continuous
 62
     7
100
AcDbLine
 10
2671.018178140287
 20
1132.98840807767
 30
0.0
 11
2671.818178140288
 21
1132.98840807767
 31
0.0
1001
ACME_LAYERS
1000
1
  0
LINE
  5
2025
330
1F
100
AcDbEntity
  8
P-0000
  6
Continuous
 62
     7
100
AcDbLine
 10
2592.30981114891
 20
1147.482756779241
 30
0.0
 11
2592.309811148914
 21
1147.482756779241
 31
0.0
1001
ACME_LAYERS
1000
1
  0
LINE
  5
2026
330
1F
100
AcDbEntity
  8
P-0000
  6
Continuous
 62
     7
100
AcDbLine
 10
2592.329331612367
 20
1147.482756779241
 30
0.0
 11
2592.32933161237
 21
1147.482756779241
 31
0.0
1001
ACME_LAYERS
1000
1
  0
LINE
  5
28ED
330
1F
100
AcDbEntity
  8
P-0000
  6
Continuous
 62
     3
100
AcDbLine
 10
2711.343565062446
 20
1135.488408077672
 30
0.0
 11
2711.343565062446
 21
1134.9040593761
 31
0.0
1001
ACME_LAYERS
1000
1
  0
LINE
  5
28F1
330
1F
100
AcDbEntity
  8
P-0000
  6
Continuous
 62
     3
100
AcDbLine
 10
2711.343565062446
 20
1134.9040593761
 30
0.0
 11
2711.343565062446
 21
1118.282488172726
 31
0.0
1001
ACME_LAYERS
1000
1
  0
LINE
  5
28F3
330
1F
100
AcDbEntity
  8
P-0000
  6
Continuous
 62
     3
100
AcDbLine
 10
2704.943565062445
 20
1135.488408077672
 30
0.0
 11
2704.943565062445
 21
1118.282488172726
 31
0.0
1001
ACME_LAYERS
1000
1
  0
LINE
  5
2E98
102
{ACAD_REACTORS
330
36F1
102
}
330
1F
100
AcDbEntity
  8
P-0000
  6
STRICHPUNKT
 62
     3
100
AcDbLine
 10
2592.828299999482
 20
1243.672490862644
 30
0.0
 11
2592.828299999477
 21
741.6362557665222
 31
0.0
1001
ACME_LAYERS
1000
1
  0
LINE
  5
2E99
330
1F
100
AcDbEntity
  8
P-0000
  6
STRICHPUNKT
 62
     3
100
AcDbLine
 10
2709.087028618337
 20
1130.461296592916
 30
0.0
 11
2709.087028618337
 21
1137.461296592916
 31
0.0
1001
ACME_LAYERS
1000
1
  0
LINE
  5
2E9A
330
1F
100
AcDbEntity
  8
P-0000
  6
Continuous
 62
     7
100
AcDbLine
 10
2714.087028618337
 20
1135.488408077671
 30
0.0
 11
2704.087028618337
 21
1135.488408077671
 31
0.0
1001
ACME_LAYERS
1000
1
  0
LINE
  5
2E9B
330
1F
100
AcDbEntity
  8
P-0000
  6
Continuous
 62
     7
100
AcDbLine
 10
2601.337028618337
 20
1133.488408077671
 30
0.0
 11
2597.837028618338
 21
1133.488408077671
 31
0.0
1001
ACME_LAYERS
1000
1
  0
LINE
  5
2E9D
330
1F
100
AcDbEntity
  8
P-0000
  6
Continuous
 62
     7
100
AcDbLine
 10
2597.837028618338
 20
1133.488408077671
 30
0.0
 11
2592.837028618337
 21
1133.488408077671
 31
0.0
1001
ACME_LAYERS
1000
1
  0
LINE
  5
2E9F
330
1F
100
AcDbEntity
  8
P-0000
  6
Continuous
 62
     7
100
AcDbLine
 10
2603.337028618338
 20
1133.488408077671
 30
0.0
 11
2601.337028618337
 21
1133.488408077671
 31
0.0
1001
ACME_LAYERS
1000
1
  0
LINE
  5
2EA0
330
1F
100
AcDbEntity
  8
P-0000
  6
Continuous
 62
     7
100
AcDbLine
 10
2603.337028618338
 20
1135.488408077671
 30
0.0
 11
2603.337028618338
 21
1133.488408077671
 31
0.0
1001
ACME_LAYERS
1000
1
  0
LINE
  5
2EA3
330
1F
100
AcDbEntity
  8
P-0000
  6
Continuous
 62
     7
100
AcDbLine
 10
2712.287028618339
 20
1146.635689517383
 30
0.0
 11
2709.087028618337
 21
1146.635689517383
 31
0.0
1001
ACME_LAYERS
1000
1
  0
LINE
  5
2EA4
330
1F
100
AcDbEntity
  8
P-0000
  6
Continuous
 62
     7
100
AcDbLine
 10
2705.887028618338
 20
1146.035689517383
 30
0.0
 11
2712.287028618339
 21
1146.035689517383
 31
0.0
1001
ACME_LAYERS
1000
1
  0
LINE
  5
2EA5
330
1F
100
AcDbEntity
  8
P-0000
  6
Continuous
 62
     7
100
AcDbLine
 10
2713.087028618338
 20
1146.035689517383
 30
0.0
 11
2713.087028618338
 21
1143.088408077669
 31
0.0
1001
ACME_LAYERS
1000
1
  0
LINE
  5
2EA6
330
1F
100
AcDbEntity
  8
P-0000
  6
Continuous
 62
     3
100
AcDbLine
 10
2712.287028618339
 20
1146.635689517383
 30
0.0
 11
2712.287028618339
 21
1143.088408077669
 31
0.0
1001
ACME_LAYERS
1000
1
  0
LINE
  5
2EA7
330
1F
100
AcDbEntity
  8
P-0000
  6
Continuous
 62
     7
100
AcDbLine
 10
2712.287028618339
 20
1146.035689517383
 30
0.0
 11
2713.087028618338
 21
1146.035689517383
 31
0.0
1001
ACME_LAYERS
1000
1
  0
LINE
  5
2EA8
330
1F
100
AcDbEntity
  8
P-0000
  6
Continuous
 62
     3
100
AcDbLine
 10
2712.287028618339
 20
1146.635689517383
 30
0.0
 11
2712.287028618339
 21
1146.035689517383
 31
0.0
1001
ACME_LAYERS
1000
1
  0
LINE
  5
2EA9
330
1F
100
AcDbEntity
  8
P-0000
  6
Continuous
 62
     7
100
AcDbLine
 10
2713.087028618338
 20
1146.035689517383
 30
0.0
 11
2712.287028618339
 21
1146.635689517383
 31
0.0
1001
ACME_LAYERS
1000
1
  0
LINE
  5
2EAA
330
1F
100
AcDbEntity
  8
P-0000
  6
Continuous
 62
     3
100
AcDbLine
 10
2712.343565062429
 20
1133.488408077671
 30
0.0
 11
2712.343565062429
 21
1118.282488172725
 31
0.0
1001
ACME_LAYERS
1000
1
  0
LINE
  5
2EAB
330
1F
100
AcDbEntity
  8
P-0000
  6
Continuous
 62
     7
100
AcDbLine
 10
2705.087028618337
 20
1146.035689517383
 30
0.0
 11
2705.087028618337
 21
1143.088408077669
 31
0.0
1001
ACME_LAYERS
1000
1
  0
LINE
  5
2EAC
330
1F
100
AcDbEntity
  8
P-0000
  6
Continuous
 62
     3
100
AcDbLine
 10
2705.943565062428
 20
1133.488408077671
 30
0.0
 11
2705.943565062428
 21
1118.282488172725
 31
0.0
1001
ACME_LAYERS
1000
1
  0
LINE
  5
2EAD
330
1F
100
AcDbEntity
  8
P-0000
  6
STRICHPUNKT
 62
     3
100
AcDbLine
 10
2709.087028618337
 20
1143.088408077669
 30
0.0
 11
2709.087028618337
 21
1146.635689517383
 31
0.0
1001
ACME_LAYERS
1000
1
  0
LINE
  5
2EAE
330
1F
100
AcDbEntity
  8
P-0000
  6
Continuous
 62
     3
100
AcDbLine
 10
2705.887028618338
 20
1146.635689517383
 30
0.0
 11
2705.887028618338
 21
1143.088408077669
 31
0.0
1001
ACME_LAYERS
1000
1
  0
LINE
  5
2EAF
330
1F
100
AcDbEntity
  8
P-0000
  6
Continuous
 62
     3
100
AcDbLine
 10
2705.887028618338
 20
1146.635689517383
 30
0.0
 11
2705.887028618338
 21
1146.035689517383
 31
0.0
1001
ACME_LAYERS
1000
1
  0
LINE
  5
2EB0
330
1F
100
AcDbEntity
  8
P-0000
  6
Continuous
 62
     7
100
AcDbLine
 10
2705.087028618337
 20
1146.035689517383
 30
0.0
 11
2705.887028618338
 21
1146.035689517383
 31
0.0
1001
ACME_LAYERS
1000
1
  0
LINE
  5
2EB1
330
1F
100
AcDbEntity
  8
P-0000
  6
Continuous
 62
     7
100
AcDbLine
 10
2705.887028618338
 20
1146.635689517383
 30
0.0
 11
2705.087028618337
 21
1146.035689517383
 31
0.0
1001
ACME_LAYERS
1000
1
  0
LINE
  5
2EB2
330
1F
100
AcDbEntity
  8
P-0000
  6
Continuous
 62
     7
100
AcDbLine
 10
2709.087028618337
 20
1146.635689517383
 30
0.0
 11
2705.887028618338
 21
1146.635689517383
 31
0.0
1001
ACME_LAYERS
1000
1
  0
LINE
  5
2EB3
330
1F
100
AcDbEntity
  8
P-0000
  6
Continuous
 62
     7
100
AcDbLine
 10
2705.087028618339
 20
1143.088408077669
 30
0.0
 11
2712.287028618339
 21
1143.088408077669
 31
0.0
1001
ACME_LAYERS
1000
1
  0
LINE
  5
2EB4
330
1F
100
AcDbEntity
  8
P-0000
  6
Continuous
 62
     7
100
AcDbLine
 10
2712.287028618339
 20
1143.088408077669
 30
0.0
 11
2713.087028618338
 21
1143.088408077669
 31
0.0
1001
ACME_LAYERS
1000
1
  0
LINE
  5
2EB5
330
1F
100
AcDbEntity
  8
P-0000
  6
Continuous
 62
     7
100
AcDbLine
 10
2717.532726731759
 20
1136.988408077668
 30
0.0
 11
2717.532726731759
 21
1135.488408077671
 31
0.0
1001
ACME_LAYERS
1000
1
  0
LINE
  5
2EB6
330
1F
100
AcDbEntity
  8
P-0000
  6
Continuous
 62
     7
100
AcDbLine
 10
2705.087028618339
 20
1133.488408077671
 30
0.0
 11
2705.087028618339
 21
1127.488408077668
 31
0.0
1001
ACME_LAYERS
1000
1
  0
LINE
  5
2EB7
330
1F
100
AcDbEntity
  8
P-0000
  6
Continuous
 62
     7
100
AcDbLine
 10
2700.532726731759
 20
1135.488408077671
 30
0.0
 11
2700.532726731759
 21
1136.988408077668
 31
0.0
1001
ACME_LAYERS
1000
1
  0
LINE
  5
2EB8
330
1F
100
AcDbEntity
  8
P-0000
  6
Continuous
 62
     7
100
AcDbLine
 10
2717.532726731759
 20
1137.088408077669
 30
0.0
 11
2717.532726731759
 21
1136.988408077668
 31
0.0
1001
ACME_LAYERS
1000
1
  0
LINE
  5
2EB9
330
1F
100
AcDbEntity
  8
P-0000
  6
Continuous
 62
     7
100
AcDbLine
 10
2700.532726731759
 20
1137.088408077669
 30
0.0
 11
2717.532726731759
 21
1137.088408077669
 31
0.0
1001
ACME_LAYERS
1000
1
  0
LINE
  5
2EBA
330
1F
100
AcDbEntity
  8
P-0000
  6
Continuous
 62
     7
100
AcDbLine
 10
2700.532726731759
 20
1136.988408077668
 30
0.0
 11
2700.532726731759
 21
1137.088408077669
 31
0.0
1001
ACME_LAYERS
1000
1
  0
LINE
  5
2EBB
330
1F
100
AcDbEntity
  8
P-0000
  6
Continuous
 62
     7
100
AcDbLine
 10
2701.581475118873
 20
1138.975347269576
 30
0.0
 11
2701.581475118873
 21
1137.668964661268
 31
0.0
1001
ACME_LAYERS
1000
1
  0
LINE
  5
2EBC
330
1F
100
AcDbEntity
  8
P-0000
  6
Continuous
 62
     7
100
AcDbLine
 10
2715.587028618339
 20
1137.088408077669
 30
0.0
 11
2702.587028618338
 21
1137.088408077669
 31
0.0
1001
ACME_LAYERS
1000
1
  0
LINE
  5
2EBD
330
1F
100
AcDbEntity
  8
P-0000
  6
Continuous
 62
     7
100
AcDbLine
 10
2716.592582117803
 20
1138.975347269576
 30
0.0
 11
2716.592582117803
 21
1137.668964661268
 31
0.0
1001
ACME_LAYERS
1000
1
  0
LINE
  5
2EBE
330
1F
100
AcDbEntity
  8
P-0000
  6
Continuous
 62
     7
100
AcDbLine
 10
2713.087028618338
 20
1143.088408077669
 30
0.0
 11
2715.587028618339
 21
1143.088408077669
 31
0.0
1001
ACME_LAYERS
1000
1
  0
LINE
  5
2EBF
330
1F
100
AcDbEntity
  8
P-0000
  6
Continuous
 62
     7
100
AcDbLine
 10
2701.828146707528
 20
1137.515551643303
 30
0.0
 11
2702.587028618338
 21
1137.088408077669
 31
0.0
1001
ACME_LAYERS
1000
1
  0
LINE
  5
2EC0
330
1F
100
AcDbEntity
  8
P-0000
  6
Continuous
 62
     7
100
AcDbLine
 10
2701.828146707528
 20
1142.661264512034
 30
0.0
 11
2702.587028618338
 21
1143.088408077669
 31
0.0
1001
ACME_LAYERS
1000
1
  0
LINE
  5
2EC1
330
1F
100
AcDbEntity
  8
P-0000
  6
Continuous
 62
     7
100
AcDbLine
 10
2716.345910529145
 20
1137.515551643303
 30
0.0
 11
2715.587028618339
 21
1137.088408077669
 31
0.0
1001
ACME_LAYERS
1000
1
  0
LINE
  5
2EC2
330
1F
100
AcDbEntity
  8
P-0000
  6
Continuous
 62
     7
100
AcDbLine
 10
2716.345910529145
 20
1142.661264512034
 30
0.0
 11
2715.587028618339
 21
1143.088408077669
 31
0.0
1001
ACME_LAYERS
1000
1
  0
LINE
  5
2EC3
330
1F
100
AcDbEntity
  8
P-0000
  6
Continuous
 62
     7
100
AcDbLine
 10
2702.587028618338
 20
1143.088408077669
 30
0.0
 11
2705.087028618339
 21
1143.088408077669
 31
0.0
1001
ACME_LAYERS
1000
1
  0
LINE
  5
2EC4
330
1F
100
AcDbEntity
  8
P-0000
  6
Continuous
 62
     7
100
AcDbLine
 10
2716.592582117803
 20
1142.507851494068
 30
0.0
 11
2716.592582117803
 21
1138.975347269576
 31
0.0
1001
ACME_LAYERS
1000
1
  0
LINE
  5
2EC5
330
1F
100
AcDbEntity
  8
P-0000
  6
Continuous
 62
     7
100
AcDbLine
 10
2712.839805368072
 20
1142.507851494068
 30
0.0
 11
2712.839805368072
 21
1137.088408077669
 31
0.0
1001
ACME_LAYERS
1000
1
  0
LINE
  5
2EC6
330
1F
100
AcDbEntity
  8
P-0000
  6
Continuous
 62
     7
100
AcDbLine
 10
2705.334251868606
 20
1142.507851494068
 30
0.0
 11
2705.334251868606
 21
1137.088408077669
 31
0.0
1001
ACME_LAYERS
1000
1
  0
LINE
  5
2EC7
330
1F
100
AcDbEntity
  8
P-0000
  6
Continuous
 62
     7
100
AcDbLine
 10
2701.581475118873
 20
1142.507851494068
 30
0.0
 11
2701.581475118873
 21
1138.975347269576
 31
0.0
1001
ACME_LAYERS
1000
1
  0
LINE
  5
2EC8
330
1F
100
AcDbEntity
  8
P-0000
  6
Continuous
 62
     7
100
AcDbLine
 10
2717.532726731759
 20
1135.488408077671
 30
0.0
 11
2713.087028618338
 21
1135.488408077671
 31
0.0
1001
ACME_LAYERS
1000
1
  0
LINE
  5
2EC9
330
1F
100
AcDbEntity
  8
P-0000
  6
Continuous
 62
     7
100
AcDbLine
 10
2700.532726731759
 20
1135.488408077671
 30
0.0
 11
2704.587028618336
 21
1135.488408077671
 31
0.0
1001
ACME_LAYERS
1000
1
  0
LINE
  5
2ECA
330
1F
100
AcDbEntity
  8
P-0000
  6
Continuous
 62
     7
100
AcDbLine
 10
2705.087028618339
 20
1133.488408077671
 30
0.0
 11
2704.587028618336
 21
1133.488408077671
 31
0.0
1001
ACME_LAYERS
1000
1
  0
LINE
  5
2ECB
330
1F
100
AcDbEntity
  8
P-0000
  6
Continuous
 62
     7
100
AcDbLine
 10
2705.887028618338
 20
1133.488408077671
 30
0.0
 11
2705.087028618339
 21
1133.488408077671
 31
0.0
1001
ACME_LAYERS
1000
1
  0
LINE
  5
2ECC
330
1F
100
AcDbEntity
  8
P-0000
  6
Continuous
 62
     7
100
AcDbLine
 10
2712.287028618339
 20
1133.488408077671
 30
0.0
 11
2705.887028618338
 21
1133.488408077671
 31
0.0
1001
ACME_LAYERS
1000
1
  0
LINE
  5
2ECD
330
1F
100
AcDbEntity
  8
P-0000
  6
Continuous
 62
     7
100
AcDbLine
 10
2713.087028618338
 20
1133.488408077671
 30
0.0
 11
2712.287028618339
 21
1133.488408077671
 31
0.0
1001
ACME_LAYERS
1000
1
  0
ARC
  5
2ECE
330
1F
100
AcDbEntity
  8
P-0000
  6
Continuous
 62
     7
100
AcDbCircle
 10
2709.087028618338
 20
1149.507851494067
 30
0.0
 40
12.41944341639904
100
AcDbArc
 50
252.4120462260089
 51
287.5879537739911
1001
ACME_LAYERS
1000
1
  0
ARC
  5
2ECF
330
1F
100
AcDbEntity
  8
P-0000
  6
Continuous
 62
     7
100
AcDbCircle
 10
2709.087028618338
 20
1130.668964661269
 30
0.0
 40
12.41944341639904
100
AcDbArc
 50
72.41204622600889
 51
107.5879537739911
1001
ACME_LAYERS
1000
1
  0
ARC
  5
2ED0
330
1F
100
AcDbEntity
  8
P-0000
  6
Continuous
 62
     7
100
AcDbCircle
 10
2703.457863493739
 20
1140.410977650618
 30
0.0
 40
3.322569572950221
100
AcDbArc
 50
240.626620605164
 51
304.3842474680539
1001
ACME_LAYERS
1000
1
  0
ARC
  5
2ED1
330
1F
100
AcDbEntity
  8
P-0000
  6
Continuous
 62
     7
100
AcDbCircle
 10
2703.457863493737
 20
1139.765838504718
 30
0.0
 40
3.322569572950149
100
AcDbArc
 50
119.3733793948359
 51
124.3842474680538
1001
ACME_LAYERS
1000
1
  0
ARC
  5
2ED2
330
1F
100
AcDbEntity
  8
P-0000
  6
Continuous
 62
     7
100
AcDbCircle
 10
2714.716193742936
 20
1140.410977650618
 30
0.0
 40
3.322569572950221
100
AcDbArc
 50
299.373379394836
 51
304.3842474680539
1001
ACME_LAYERS
1000
1
  0
ARC
  5
2ED3
330
1F
100
AcDbEntity
  8
P-0000
  6
Continuous
 62
     7
100
AcDbCircle
 10
2714.716193742936
 20
1139.765838504718
 30
0.0
 40
3.322569572949122
100
AcDbArc
 50
60.62662060516403
 51
124.3842474680231
1001
ACME_LAYERS
1000
1
  0
ARC
  5
2ED4
330
1F
100
AcDbEntity
  8
P-0000
  6
Continuous
 62
     7
100
AcDbCircle
 10
2703.457863493739
 20
1140.410977650618
 30
0.0
 40
3.322569572949876
100
AcDbArc
 50
235.6157525319462
 51
240.626620605164
1001
ACME_LAYERS
1000
1
  0
ARC
  5
2ED5
330
1F
100
AcDbEntity
  8
P-0000
  6
Continuous
 62
     7
100
AcDbCircle
 10
2703.457863493739
 20
1139.765838504718
 30
0.0
 40
3.322569572949888
100
AcDbArc
 50
55.61575253194617
 51
119.3733793948359
1001
ACME_LAYERS
1000
1
  0
ARC
  5
2ED6
330
1F
100
AcDbEntity
  8
P-0000
  6
Continuous
 62
     7
100
AcDbCircle
 10
2714.716193742936
 20
1140.410977650618
 30
0.0
 40
3.322569572949872
100
AcDbArc
 50
235.6157525319769
 51
299.373379394836
1001
ACME_LAYERS
1000
1
  0
ARC
  5
2ED7
330
1F
100
AcDbEntity
  8
P-0000
  6
Continuous
 62
     7
100
AcDbCircle
 10
2714.716193742936
 20
1139.765838504718
 30
0.0
 40
3.322569572949884
100
AcDbArc
 50
55.61575253194617
 51
60.62662060516403
1001
ACME_LAYERS
1000
1
  0
LINE
  5
2ED8
330
1F
100
AcDbEntity
  8
0
100
AcDbLine
 10
2713.087028618338
 20
1127.488408077668
 30
0.0
 11
2713.087028618338
 21
1133.488408077671
 31
0.0
  0
LINE
  5
2ED9
330
1F
100
AcDbEntity
  8
P-0000
  6
Continuous
 62
     7
100
AcDbLine
 10
2584.337028618336
 20
1133.488408077671
 30
0.0
 11
2587.837028618337
 21
1133.488408077671
 31
0.0
1001
ACME_LAYERS
1000
1
  0
LINE
  5
2EDB
330
1F
100
AcDbEntity
  8
P-0000
  6
Continuous
 62
     7
100
AcDbLine
 10
2587.837028618337
 20
1133.488408077671
 30
0.0
 11
2592.837028618337
 21
1133.488408077671
 31
0.0
1001
ACME_LAYERS
1000
1
  0
LINE
  5
2EDD
330
1F
100
AcDbEntity
  8
P-0000
  6
Continuous
 62
     7
100
AcDbLine
 10
2582.337028618338
 20
1133.488408077671
 30
0.0
 11
2584.337028618336
 21
1133.488408077671
 31
0.0
1001
ACME_LAYERS
1000
1
  0
LINE
  5
2EDE
330
1F
100
AcDbEntity
  8
P-0000
  6
Continuous
 62
     7
100
AcDbLine
 10
2582.337028618338
 20
1135.488408077671
 30
0.0
 11
2582.337028618338
 21
1133.488408077671
 31
0.0
1001
ACME_LAYERS
1000
1
  0
LINE
  5
2EE0
330
1F
100
AcDbEntity
  8
P-0000
  6
Continuous
 62
     7
100
AcDbLine
 10
2671.035635378002
 20
1143.47107577043
 30
0.0
 11
2671.035635378002
 21
1140.588408077667
 31
0.0
1001
ACME_LAYERS
1000
1
  0
LINE
  5
2EE1
330
1F
100
AcDbEntity
  8
P-0000
  6
Continuous
 62
     3
100
AcDbLine
 10
2671.835635378
 20
1143.009195555078
 30
0.0
 11
2671.835635378
 21
1140.588408077667
 31
0.0
1001
ACME_LAYERS
1000
1
  0
LINE
  5
2EE2
330
1F
100
AcDbEntity
  8
P-0000
  6
Continuous
 62
     7
100
AcDbLine
 10
2676.028562283202
 20
1140.588408077667
 30
0.0
 11
2671.835635378001
 21
1140.588408077667
 31
0.0
1001
ACME_LAYERS
1000
1
  0
LINE
  5
2EE3
330
1F
100
AcDbEntity
  8
P-0000
  6
Continuous
 62
     7
100
AcDbLine
 10
2671.835635378001
 20
1140.588408077667
 30
0.0
 11
2671.035635378002
 21
1140.588408077667
 31
0.0
1001
ACME_LAYERS
1000
1
  0
LINE
  5
2EE4
330
1F
100
AcDbEntity
  8
P-0000
  6
Continuous
 62
     7
100
AcDbLine
 10
2666.589937264581
 20
1134.488408077667
 30
0.0
 11
2666.589937264581
 21
1132.988408077669
 31
0.0
1001
ACME_LAYERS
1000
1
  0
LINE
  5
2EE5
330
1F
100
AcDbEntity
  8
P-0000
  6
Continuous
 62
     7
100
AcDbLine
 10
2683.58993726458
 20
1132.988408077669
 30
0.0
 11
2683.58993726458
 21
1134.488408077667
 31
0.0
1001
ACME_LAYERS
1000
1
  0
LINE
  5
2EE6
330
1F
100
AcDbEntity
  8
P-0000
  6
Continuous
 62
     7
100
AcDbLine
 10
2666.589937264581
 20
1134.588408077667
 30
0.0
 11
2666.589937264581
 21
1134.488408077667
 31
0.0
1001
ACME_LAYERS
1000
1
  0
LINE
  5
2EE7
330
1F
100
AcDbEntity
  8
P-0000
  6
Continuous
 62
     7
100
AcDbLine
 10
2683.58993726458
 20
1134.588408077667
 30
0.0
 11
2666.589937264581
 21
1134.588408077667
 31
0.0
1001
ACME_LAYERS
1000
1
  0
LINE
  5
2EE8
330
1F
100
AcDbEntity
  8
P-0000
  6
Continuous
 62
     7
100
AcDbLine
 10
2683.58993726458
 20
1134.488408077667
 30
0.0
 11
2683.58993726458
 21
1134.588408077667
 31
0.0
1001
ACME_LAYERS
1000
1
  0
LINE
  5
2EE9
330
1F
100
AcDbEntity
  8
P-0000
  6
Continuous
 62
     7
100
AcDbLine
 10
2682.541188877466
 20
1136.475347269574
 30
0.0
 11
2682.541188877466
 21
1135.168964661267
 31
0.0
1001
ACME_LAYERS
1000
1
  0
LINE
  5
2EEA
330
1F
100
AcDbEntity
  8
P-0000
  6
Continuous
 62
     7
100
AcDbLine
 10
2668.535635377999
 20
1134.588408077667
 30
0.0
 11
2681.535635378001
 21
1134.588408077667
 31
0.0
1001
ACME_LAYERS
1000
1
  0
LINE
  5
2EEB
330
1F
100
AcDbEntity
  8
P-0000
  6
Continuous
 62
     7
100
AcDbLine
 10
2667.530081878537
 20
1136.475347269574
 30
0.0
 11
2667.530081878537
 21
1135.168964661267
 31
0.0
1001
ACME_LAYERS
1000
1
  0
LINE
  5
2EEC
330
1F
100
AcDbEntity
  8
P-0000
  6
Continuous
 62
     7
100
AcDbLine
 10
2671.035635378002
 20
1140.588408077667
 30
0.0
 11
2668.535635377999
 21
1140.588408077667
 31
0.0
1001
ACME_LAYERS
1000
1
  0
LINE
  5
2EED
330
1F
100
AcDbEntity
  8
P-0000
  6
Continuous
 62
     7
100
AcDbLine
 10
2678.788412127732
 20
1136.475347269574
 30
0.0
 11
2678.788412127732
 21
1135.168964661267
 31
0.0
1001
ACME_LAYERS
1000
1
  0
LINE
  5
2EEE
330
1F
100
AcDbEntity
  8
P-0000
  6
Continuous
 62
     7
100
AcDbLine
 10
2671.282858628269
 20
1136.475347269574
 30
0.0
 11
2671.282858628269
 21
1135.168964661267
 31
0.0
1001
ACME_LAYERS
1000
1
  0
LINE
  5
2EEF
330
1F
100
AcDbEntity
  8
P-0000
  6
Continuous
 62
     7
100
AcDbLine
 10
2682.294517288811
 20
1135.0155516433
 30
0.0
 11
2681.535635378001
 21
1134.588408077667
 31
0.0
1001
ACME_LAYERS
1000
1
  0
LINE
  5
2EF0
330
1F
100
AcDbEntity
  8
P-0000
  6
Continuous
 62
     7
100
AcDbLine
 10
2667.776753467193
 20
1135.0155516433
 30
0.0
 11
2668.535635377999
 21
1134.588408077667
 31
0.0
1001
ACME_LAYERS
1000
1
  0
LINE
  5
2EF1
330
1F
100
AcDbEntity
  8
P-0000
  6
Continuous
 62
     7
100
AcDbLine
 10
2667.776753467193
 20
1140.161264512032
 30
0.0
 11
2668.535635377999
 21
1140.588408077667
 31
0.0
1001
ACME_LAYERS
1000
1
  0
LINE
  5
2EF2
330
1F
100
AcDbEntity
  8
P-0000
  6
Continuous
 62
     7
100
AcDbLine
 10
2667.530081878537
 20
1140.007851494066
 30
0.0
 11
2667.530081878537
 21
1136.475347269574
 31
0.0
1001
ACME_LAYERS
1000
1
  0
LINE
  5
2EF3
330
1F
100
AcDbEntity
  8
P-0000
  6
Continuous
 62
     7
100
AcDbLine
 10
2671.282858628269
 20
1140.007851494066
 30
0.0
 11
2671.282858628269
 21
1136.475347269574
 31
0.0
1001
ACME_LAYERS
1000
1
  0
LINE
  5
2EF4
330
1F
100
AcDbEntity
  8
P-0000
  6
Continuous
 62
     7
100
AcDbLine
 10
2678.788412127732
 20
1138.995008027005
 30
0.0
 11
2678.788412127732
 21
1136.475347269574
 31
0.0
1001
ACME_LAYERS
1000
1
  0
LINE
  5
2EF5
330
1F
100
AcDbEntity
  8
P-0000
  6
Continuous
 62
     7
100
AcDbLine
 10
2682.541188877466
 20
1136.828341360338
 30
0.0
 11
2682.541188877466
 21
1136.475347269574
 31
0.0
1001
ACME_LAYERS
1000
1
  0
ARC
  5
2EF6
330
1F
100
AcDbEntity
  8
P-0000
  6
Continuous
 62
     7
100
AcDbCircle
 10
2675.035635377999
 20
1147.007851494066
 30
0.0
 40
12.41944341639904
100
AcDbArc
 50
252.4120462260089
 51
287.5879537739911
1001
ACME_LAYERS
1000
1
  0
ARC
  5
2EF7
330
1F
100
AcDbEntity
  8
P-0000
  6
Continuous
 62
     7
100
AcDbCircle
 10
2675.035635377999
 20
1128.168964661267
 30
0.0
 40
12.41944341639904
100
AcDbArc
 50
85.04168193072988
 51
107.5879537739911
1001
ACME_LAYERS
1000
1
  0
ARC
  5
2EF8
330
1F
100
AcDbEntity
  8
P-0000
  6
Continuous
 62
     7
100
AcDbCircle
 10
2680.664800502599
 20
1137.910977650616
 30
0.0
 40
3.322569572950221
100
AcDbArc
 50
235.6157525319462
 51
299.373379394836
1001
ACME_LAYERS
1000
1
  0
ARC
  5
2EF9
330
1F
100
AcDbEntity
  8
P-0000
  6
Continuous
 62
     7
100
AcDbCircle
 10
2669.406470253403
 20
1137.910977650616
 30
0.0
 40
3.322569572950221
100
AcDbArc
 50
235.6157525319462
 51
240.626620605164
1001
ACME_LAYERS
1000
1
  0
ARC
  5
2EFA
330
1F
100
AcDbEntity
  8
P-0000
  6
Continuous
 62
     7
100
AcDbCircle
 10
2669.406470253403
 20
1137.265838504717
 30
0.0
 40
3.322569572949122
100
AcDbArc
 50
55.61575253197688
 51
119.3733793948359
1001
ACME_LAYERS
1000
1
  0
ARC
  5
2EFB
330
1F
100
AcDbEntity
  8
P-0000
  6
Continuous
 62
     7
100
AcDbCircle
 10
2680.664800502599
 20
1137.910977650616
 30
0.0
 40
3.322569572949876
100
AcDbArc
 50
299.373379394836
 51
304.3842474680539
1001
ACME_LAYERS
1000
1
  0
ARC
  5
2EFC
330
1F
100
AcDbEntity
  8
P-0000
  6
Continuous
 62
     7
100
AcDbCircle
 10
2669.406470253403
 20
1137.910977650616
 30
0.0
 40
3.322569572949872
100
AcDbArc
 50
240.626620605164
 51
304.3842474680232
1001
ACME_LAYERS
1000
1
  0
ARC
  5
2EFD
330
1F
100
AcDbEntity
  8
P-0000
  6
Continuous
 62
     7
100
AcDbCircle
 10
2669.406470253403
 20
1137.265838504717
 30
0.0
 40
3.322569572949884
100
AcDbArc
 50
119.3733793948359
 51
124.3842474680538
1001
ACME_LAYERS
1000
1
  0
LINE
  5
2EFE
330
1F
100
AcDbEntity
  8
0
100
AcDbLine
 10
2683.103375146254
 20
1134.856953996344
 30
0.0
 11
2683.103375146254
 21
1136.503762966718
 31
0.0
  0
LINE
  5
2EFF
330
1F
100
AcDbEntity
  8
0
100
AcDbLine
 10
2669.358375146253
 20
1144.43944241673
 30
0.0
 11
2669.358375146253
 21
1142.777953996344
 31
0.0
  0
LINE
  5
2F00
330
1F
100
AcDbEntity
  8
0
100
AcDbLine
 10
2669.358375146253
 20
1142.777953996344
 30
0.0
 11
2666.944375146253
 21
1142.777953996344
 31
0.0
  0
LINE
  5
2F01
330
1F
100
AcDbEntity
  8
0
100
AcDbLine
 10
2666.944375146253
 20
1142.777953996344
 30
0.0
 11
2666.944375146253
 21
1134.856953996344
 31
0.0
  0
HATCH
  5
2F2C
330
1F
100
AcDbEntity
  8
P-0000
  6
Continuous
 62
     1
100
AcDbHatch
 10
0.0
 20
0.0
 30
0.0
210
0.0
220
0.0
230
1.0
  2
_U
 70
     0
 71
     0
 91
        1
 92
        1
 93
       16
 72
     1
 10
2677.337028618345
 20
1152.48275677924
 11
2677.337028618345
 21
1152.433585196257
 72
     1
 10
2677.337028618345
 20
1152.433585196257
 11
2677.837028618345
 21
1152.433585196257
 72
     1
 10
2677.837028618345
 20
1152.433585196257
 11
2677.837028618345
 21
1150.48275677924
 72
     1
 10
2677.837028618345
 20
1150.48275677924
 11
2684.89791978666
 21
1150.48275677924
 72
     2
 10
2684.89791978666
 20
1149.98275677924
 40
0.5
 50
270.0
 51
360.0
 73
     0
 72
     1
 10
2685.397919786661
 20
1149.98275677924
 11
2685.397919786661
 21
1137.488408077671
 72
     2
 10
2689.397919786661
 20
1137.488408077671
 40
4.000000000000068
 50
180.0
 51
270.0
 73
     1
 72
     1
 10
2689.397919786661
 20
1133.488408077671
 11
2704.087028618337
 21
1133.488408077671
 72
     1
 10
2704.087028618337
 20
1133.488408077671
 11
2704.087028618337
 21
1135.488408077671
 72
     1
 10
2704.087028618337
 20
1135.488408077671
 11
2689.337028618346
 21
1135.488408077671
 72
     2
 10
2689.337028618346
 20
1137.488408077671
 40
1.999999999999999
 50
90.0
 51
180.0
 73
     0
 72
     1
 10
2687.337028618346
 20
1137.488408077671
 11
2687.337028618346
 21
1154.98275677924
 72
     1
 10
2687.337028618346
 20
1154.98275677924
 11
2685.337028618346
 21
1154.98275677924
 72
     1
 10
2685.337028618346
 20
1154.98275677924
 11
2685.337028618346
 21
1152.98275677924
 72
     2
 10
2684.837028618347
 20
1152.98275677924
 40
0.5
 50
360.0
 51
450.0
 73
     0
 72
     1
 10
2684.837028618347
 20
1152.48275677924
 11
2677.337028618345
 21
1152.48275677924
 97
        0
 75
     0
 76
     0
 52
44.99999999999999
 41
1.0
 77
     0
 78
     1
 53
45.0
 43
0.0174572377131881
 44
-0.0000000000011369
 45
-0.7071067811865475
 46
0.7071067811865476
 79
     0
 98
        1
 10
2718.27613745003
 20
644.0670884361419
1001
ACME_LAYERS
1000
1
1001
ACAD
1010
0.0
1020
0.0
1030
0.0
  0
LINE
  5
2F2D
330
1F
100
AcDbEntity
  8
P-0000
  6
Continuous
 62
     7
100
AcDbLine
 10
2657.337028618337
 20
1154.98275677924
 30
0.0
 11
2660.112731633209
 21
1154.98275677924
 31
0.0
1001
ACME_LAYERS
1000
1
  0
LINE
  5
2F2E
330
1F
100
AcDbEntity
  8
P-0000
  6
Continuous
 62
     7
100
AcDbLine
 10
2676.799308161464
 20
1154.98275677924
 30
0.0
 11
2685.337028618346
 21
1154.98275677924
 31
0.0
1001
ACME_LAYERS
1000
1
  0
LINE
  5
2F2F
330
1F
100
AcDbEntity
  8
P-0000
  6
Continuous
 62
     7
100
AcDbLine
 10
2658.891047624275
 20
1150.48275677924
 30
0.0
 11
2687.39791978666
 21
1134.024306462533
 31
0.0
1001
ACME_LAYERS
1000
1
  0
LINE
  5
2F30
330
1F
100
AcDbEntity
  8
P-0000
  6
Continuous
 62
     7
100
AcDbLine
 10
2684.89791978666
 20
1150.48275677924
 30
0.0
 11
2677.837028618345
 21
1150.48275677924
 31
0.0
1001
ACME_LAYERS
1000
1
  0
LINE
  5
2F31
330
1F
100
AcDbEntity
  8
P-0000
  6
Continuous
 62
     7
100
AcDbLine
 10
2677.337028618345
 20
1152.48275677924
 30
0.0
 11
2684.837028618347
 21
1152.48275677924
 31
0.0
1001
ACME_LAYERS
1000
1
  0
LINE
  5
2F32
330
1F
100
AcDbEntity
  8
P-0000
  6
Continuous
 62
     7
100
AcDbLine
 10
2597.337028618354
 20
1133.488408077671
 30
0.0
 11
2592.337028618345
 21
1133.488408077671
 31
0.0
1001
ACME_LAYERS
1000
1
  0
LINE
  5
2F33
330
1F
100
AcDbEntity
  8
P-0000
  6
Continuous
 62
     7
100
AcDbLine
 10
2592.346788850066
 20
1154.98275677924
 30
0.0
 11
2657.337028618337
 21
1154.98275677924
 31
0.0
1001
ACME_LAYERS
1000
1
  0
LINE
  5
2F34
330
1F
100
AcDbEntity
  8
P-0000
  6
Continuous
 62
     7
100
AcDbLine
 10
2592.346788850066
 20
1152.48275677924
 30
0.0
 11
2647.337028618347
 21
1152.48275677924
 31
0.0
1001
ACME_LAYERS
1000
1
  0
LINE
  5
2F35
330
1F
100
AcDbEntity
  8
P-0000
  6
Continuous
 62
     7
100
AcDbLine
 10
2602.337028618353
 20
1150.48275677924
 30
0.0
 11
2653.337028618337
 21
1150.48275677924
 31
0.0
1001
ACME_LAYERS
1000
1
  0
LINE
  5
2F36
330
1F
100
AcDbEntity
  8
P-0000
  6
Continuous
 62
     7
100
AcDbLine
 10
2603.337028618353
 20
1135.488408077671
 30
0.0
 11
2603.337028618353
 21
1150.48275677924
 31
0.0
1001
ACME_LAYERS
1000
1
  0
LINE
  5
2F37
330
1F
100
AcDbEntity
  8
P-0000
  6
Continuous
 62
     7
100
AcDbLine
 10
2593.837028618353
 20
1150.48275677924
 30
0.0
 11
2602.337028618353
 21
1150.48275677924
 31
0.0
1001
ACME_LAYERS
1000
1
  0
LINE
  5
2F38
330
1F
100
AcDbEntity
  8
P-0000
  6
Continuous
 62
     7
100
AcDbLine
 10
2593.346788850082
 20
1152.48275677924
 30
0.0
 11
2602.329044425883
 21
1152.48275677924
 31
0.0
1001
ACME_LAYERS
1000
1
  0
LINE
  5
2F3B
330
1F
100
AcDbEntity
  8
P-0000
  6
Continuous
 62
     7
100
AcDbLine
 10
2592.346788850083
 20
1152.48275677924
 30
0.0
 11
2593.346788850082
 21
1152.48275677924
 31
0.0
1001
ACME_LAYERS
1000
1
  0
LINE
  5
2F3C
330
1F
100
AcDbEntity
  8
P-0000
  6
Continuous
 62
     7
100
AcDbLine
 10
2592.346788850083
 20
1150.48275677924
 30
0.0
 11
2593.837028618353
 21
1150.48275677924
 31
0.0
1001
ACME_LAYERS
1000
1
  0
LINE
  5
2F3D
330
1F
100
AcDbEntity
  8
P-0000
  6
Continuous
 62
     7
100
AcDbLine
 10
2592.327268386624
 20
1147.48275677924
 30
0.0
 11
2592.327268386628
 21
1147.48275677924
 31
0.0
1001
ACME_LAYERS
1000
1
  0
LINE
  5
2F3E
330
1F
100
AcDbEntity
  8
P-0000
  6
Continuous
 62
     7
100
AcDbLine
 10
2592.34678885008
 20
1147.48275677924
 30
0.0
 11
2592.346788850083
 21
1147.48275677924
 31
0.0
1001
ACME_LAYERS
1000
1
  0
LINE
  5
2F3F
330
1F
100
AcDbEntity
  8
P-0000
  6
Continuous
 62
     7
100
AcDbLine
 10
2602.337028618353
 20
1133.488408077671
 30
0.0
 11
2597.337028618354
 21
1133.488408077671
 31
0.0
1001
ACME_LAYERS
1000
1
  0
HATCH
  5
2F42
330
1F
100
AcDbEntity
  8
P-0000
  6
Continuous
 62
     1
100
AcDbHatch
 10
0.0
 20
0.0
 30
0.0
210
0.0
220
0.0
230
1.0
  2
_U
 70
     0
 71
     0
 91
        1
 92
        1
 93
       11
 72
     1
 10
2657.837028618337
 20
1152.48275677924
 11
2669.337028618345
 21
1152.48275677924
 72
     1
 10
2669.337028618345
 20
1152.48275677924
 11
2669.337028618345
 21
1150.48275677924
 72
     1
 10
2669.337028618345
 20
1150.48275677924
 11
2658.891047624275
 21
1150.48275677924
 72
     1
 10
2658.891047624275
 20
1150.48275677924
 11
2653.337028618337
 21
1150.48275677924
 72
     1
 10
2653.337028618337
 20
1150.48275677924
 11
2653.337028618337
 21
1152.48275677924
 72
     1
 10
2653.337028618337
 20
1152.48275677924
 11
2654.837028618337
 21
1152.48275677924
 72
     2
 10
2654.837028618337
 20
1152.98275677924
 40
0.5
 50
-90.00000000000001
 51
-0.0000000000000127
 73
     1
 72
     1
 10
2655.337028618337
 20
1152.98275677924
 11
2655.337028618337
 21
1154.98275677924
 72
     1
 10
2655.337028618337
 20
1154.98275677924
 11
2657.337028618337
 21
1154.98275677924
 72
     1
 10
2657.337028618337
 20
1154.98275677924
 11
2657.337028618337
 21
1152.98275677924
 72
     2
 10
2657.837028618337
 20
1152.98275677924
 40
0.5
 50
180.0
 51
270.0
 73
     1
 97
        0
 75
     0
 76
     0
 52
44.99999999999999
 41
1.0
 77
     0
 78
     1
 53
45.0
 43
0.0174572377131881
 44
-0.0000000000011369
 45
-0.7071067811865475
 46
0.7071067811865476
 79
     0
 98
        1
 10
2718.27613745003
 20
644.0670884361419
1001
ACME_LAYERS
1000
1
1001
ACAD
1010
0.0
1020
0.0
1030
0.0
  0
LINE
  5
2F43
330
1F
100
AcDbEntity
  8
P-0000
  6
Continuous
 62
     7
100
AcDbLine
 10
2657.837028618337
 20
1152.48275677924
 30
0.0
 11
2669.337028618345
 21
1152.48275677924
 31
0.0
1001
ACME_LAYERS
1000
1
  0
LINE
  5
2F44
330
1F
100
AcDbEntity
  8
P-0000
  6
Continuous
 62
     7
100
AcDbLine
 10
2653.337028618337
 20
1150.48275677924
 30
0.0
 11
2658.891047624275
 21
1150.48275677924
 31
0.0
1001
ACME_LAYERS
1000
1
  0
LINE
  5
2F45
330
1F
100
AcDbEntity
  8
P-0000
  6
Continuous
 62
     7
100
AcDbLine
 10
2647.337028618347
 20
1152.48275677924
 30
0.0
 11
2653.337028618337
 21
1152.48275677924
 31
0.0
1001
ACME_LAYERS
1000
1
  0
LINE
  5
2F46
330
1F
100
AcDbEntity
  8
P-0000
  6
Continuous
 62
     7
100
AcDbLine
 10
2653.337028618337
 20
1150.48275677924
 30
0.0
 11
2653.337028618337
 21
1152.48275677924
 31
0.0
1001
ACME_LAYERS
1000
1
  0
LINE
  5
2F47
330
1F
100
AcDbEntity
  8
P-0000
  6
Continuous
 62
     7
100
AcDbLine
 10
2653.337028618337
 20
1152.48275677924
 30
0.0
 11
2654.837028618337
 21
1152.48275677924
 31
0.0
1001
ACME_LAYERS
1000
1
  0
LINE
  5
2F48
330
1F
100
AcDbEntity
  8
P-0000
  6
Continuous
 62
     7
100
AcDbLine
 10
2657.337028618337
 20
1152.98275677924
 30
0.0
 11
2657.337028618337
 21
1154.98275677924
 31
0.0
1001
ACME_LAYERS
1000
1
  0
LINE
  5
2F49
330
1F
100
AcDbEntity
  8
P-0000
  6
Continuous
 62
     7
100
AcDbLine
 10
2655.337028618337
 20
1152.98275677924
 30
0.0
 11
2655.337028618337
 21
1154.98275677924
 31
0.0
1001
ACME_LAYERS
1000
1
  0
LINE
  5
2F4A
330
1F
100
AcDbEntity
  8
P-0000
  6
Continuous
 62
     7
100
AcDbLine
 10
2657.337028618337
 20
1154.98275677924
 30
0.0
 11
2655.337028618337
 21
1154.98275677924
 31
0.0
1001
ACME_LAYERS
1000
1
  0
ARC
  5
2F4B
330
1F
100
AcDbEntity
  8
P-0000
  6
Continuous
 62
     7
100
AcDbCircle
 10
2657.837028618337
 20
1152.98275677924
 30
0.0
 40
0.5
100
AcDbArc
 50
180.0
 51
270.0
1001
ACME_LAYERS
1000
1
  0
ARC
  5
2F4C
330
1F
100
AcDbEntity
  8
P-0000
  6
Continuous
 62
     7
100
AcDbCircle
 10
2654.837028618337
 20
1152.98275677924
 30
0.0
 40
0.5
100
AcDbArc
 50
270.0
 51
0.0
1001
ACME_LAYERS
1000
1
  0
LINE
  5
2F4D
330
1F
100
AcDbEntity
  8
P-0000
  6
Continuous
 62
     7
100
AcDbLine
 10
2673.047859223407
 20
1150.48275677924
 30
0.0
 11
2669.337028618345
 21
1150.48275677924
 31
0.0
1001
ACME_LAYERS
1000
1
  0
LINE
  5
2F4E
330
1F
100
AcDbEntity
  8
P-0000
  6
Continuous
 62
     7
100
AcDbLine
 10
2669.337028618345
 20
1152.48275677924
 30
0.0
 11
2677.337028618345
 21
1152.48275677924
 31
0.0
1001
ACME_LAYERS
1000
1
  0
LINE
  5
2F4F
330
1F
100
AcDbEntity
  8
P-0000
  6
Continuous
 62
     7
100
AcDbLine
 10
2669.337028618345
 20
1150.48275677924
 30
0.0
 11
2658.891047624275
 21
1150.48275677924
 31
0.0
1001
ACME_LAYERS
1000
1
  0
LINE
  5
2F50
330
1F
100
AcDbEntity
  8
P-0000
  6
Continuous
 62
     7
100
AcDbLine
 10
2669.337028618345
 20
1152.48275677924
 30
0.0
 11
2669.337028618345
 21
1150.48275677924
 31
0.0
1001
ACME_LAYERS
1000
1
  0
LINE
  5
2F51
330
1F
100
AcDbEntity
  8
P-0000
  6
Continuous
 62
     7
100
AcDbLine
 10
2674.846788850067
 20
1152.48275677924
 30
0.0
 11
2675.846788850067
 21
1152.48275677924
 31
0.0
1001
ACME_LAYERS
1000
1
  0
LINE
  5
2F52
330
1F
100
AcDbEntity
  8
P-0000
  6
Continuous
 62
     7
100
AcDbLine
 10
2674.846788850067
 20
1152.48275677924
 30
0.0
 11
2675.846788850067
 21
1152.48275677924
 31
0.0
1001
ACME_LAYERS
1000
1
  0
LINE
  5
2F53
330
1F
100
AcDbEntity
  8
P-0000
  6
Continuous
 62
     7
100
AcDbLine
 10
2714.087028618337
 20
1135.488408077671
 30
0.0
 11
2704.087028618337
 21
1135.488408077671
 31
0.0
1001
ACME_LAYERS
1000
1
  0
LINE
  5
2F54
330
1F
100
AcDbEntity
  8
P-0000
  6
Continuous
 62
     7
100
AcDbLine
 10
2714.087028618337
 20
1133.488408077671
 30
0.0
 11
2704.087028618337
 21
1133.488408077671
 31
0.0
1001
ACME_LAYERS
1000
1
  0
LINE
  5
2F55
330
1F
100
AcDbEntity
  8
P-0000
  6
Continuous
 62
     7
100
AcDbLine
 10
2685.397919786661
 20
1137.488408077671
 30
0.0
 11
2685.397919786661
 21
1149.98275677924
 31
0.0
1001
ACME_LAYERS
1000
1
  0
LINE
  5
2F56
330
1F
100
AcDbEntity
  8
P-0000
  6
Continuous
 62
     7
100
AcDbLine
 10
2687.337028618346
 20
1137.488408077671
 30
0.0
 11
2687.337028618346
 21
1152.48275677924
 31
0.0
1001
ACME_LAYERS
1000
1
  0
LINE
  5
2F57
330
1F
100
AcDbEntity
  8
P-0000
  6
Continuous
 62
     7
100
AcDbLine
 10
2697.1487204159
 20
1135.488408077671
 30
0.0
 11
2687.337028618346
 21
1152.48275677924
 31
0.0
1001
ACME_LAYERS
1000
1
  0
LINE
  5
2F58
330
1F
100
AcDbEntity
  8
P-0000
  6
Continuous
 62
     7
100
AcDbLine
 10
2687.337028618346
 20
1154.98275677924
 30
0.0
 11
2685.337028618346
 21
1154.98275677924
 31
0.0
1001
ACME_LAYERS
1000
1
  0
LINE
  5
2F59
330
1F
100
AcDbEntity
  8
P-0000
  6
Continuous
 62
     7
100
AcDbLine
 10
2685.337028618346
 20
1154.98275677924
 30
0.0
 11
2685.337028618346
 21
1152.98275677924
 31
0.0
1001
ACME_LAYERS
1000
1
  0
ARC
  5
2F5A
330
1F
100
AcDbEntity
  8
P-0000
  6
Continuous
 62
     7
100
AcDbCircle
 10
2684.837028618347
 20
1152.98275677924
 30
0.0
 40
0.5
100
AcDbArc
 50
270.0
 51
0.0
1001
ACME_LAYERS
1000
1
  0
ARC
  5
2F5B
330
1F
100
AcDbEntity
  8
P-0000
  6
Continuous
 62
     7
100
AcDbCircle
 10
2684.89791978666
 20
1149.98275677924
 30
0.0
 40
0.5
100
AcDbArc
 50
0.0
 51
90.0
1001
ACME_LAYERS
1000
1
  0
LINE
  5
2F5C
330
1F
100
AcDbEntity
  8
P-0000
  6
Continuous
 62
     7
100
AcDbLine
 10
2687.337028618346
 20
1154.98275677924
 30
0.0
 11
2687.337028618346
 21
1152.48275677924
 31
0.0
1001
ACME_LAYERS
1000
1
  0
LINE
  5
2F5D
330
1F
100
AcDbEntity
  8
P-0000
  6
Continuous
 62
     7
100
AcDbLine
 10
2697.1487204159
 20
1135.488408077671
 30
0.0
 11
2689.337028618346
 21
1135.488408077671
 31
0.0
1001
ACME_LAYERS
1000
1
  0
LINE
  5
2F5E
330
1F
100
AcDbEntity
  8
P-0000
  6
Continuous
 62
     7
100
AcDbLine
 10
2704.087028618337
 20
1133.488408077671
 30
0.0
 11
2689.397919786661
 21
1133.488408077671
 31
0.0
1001
ACME_LAYERS
1000
1
  0
ARC
  5
2F5F
330
1F
100
AcDbEntity
  8
P-0000
  6
Continuous
 62
     7
100
AcDbCircle
 10
2689.337028618346
 20
1137.488408077671
 30
0.0
 40
2.0
100
AcDbArc
 50
180.0
 51
270.0
1001
ACME_LAYERS
1000
1
  0
ARC
  5
2F60
330
1F
100
AcDbEntity
  8
P-0000
  6
Continuous
 62
     7
100
AcDbCircle
 10
2689.397919786661
 20
1137.488408077671
 30
0.0
 40
4.0
100
AcDbArc
 50
180.0
 51
240.0000000000035
1001
ACME_LAYERS
1000
1
  0
LINE
  5
2F61
330
1F
100
AcDbEntity
  8
P-0000
  6
Continuous
 62
     7
100
AcDbLine
 10
2704.087028618337
 20
1135.488408077671
 30
0.0
 11
2697.1487204159
 21
1135.488408077671
 31
0.0
1001
ACME_LAYERS
1000
1
  0
LINE
  5
2F62
330
1F
100
AcDbEntity
  8
P-0000
  6
Continuous
 62
     7
100
AcDbLine
 10
2704.087028618337
 20
1133.488408077671
 30
0.0
 11
2704.087028618337
 21
1135.488408077671
 31
0.0
1001
ACME_LAYERS
1000
1
  0
LINE
  5
2F63
330
1F
100
AcDbEntity
  8
AM_7
  6
AM_DIN_G_W050x2
100
AcDbLine
 10
2709.087028618337
 20
1127.488408077671
 30
0.0
 11
2709.087028618337
 21
1141.488408077671
 31
0.0
1001
ACME_LAYERS
1000
1
  0
HATCH
  5
2F64
330
1F
100
AcDbEntity
  8
P-0000
  6
Continuous
 62
     1
100
AcDbHatch
 10
0.0
 20
0.0
 30
0.0
210
0.0
220
0.0
230
1.0
  2
_U
 70
     0
 71
     0
 91
        1
 92
        1
 93
        4
 72
     1
 10
2719.087028618337
 20
1133.488408077671
 11
2714.087028618337
 21
1133.488408077671
 72
     1
 10
2714.087028618337
 20
1133.488408077671
 11
2714.087028618337
 21
1135.488408077671
 72
     1
 10
2714.087028618337
 20
1135.488408077671
 11
2719.087028618337
 21
1135.488408077671
 72
     1
 10
2719.087028618337
 20
1135.488408077671
 11
2719.087028618337
 21
1133.488408077671
 97
        0
 75
     0
 76
     0
 52
-45.0
 41
2.0
 77
     0
 78
     1
 53
315.0
 43
2718.27613745003
 44
644.0670884361419
 45
1.414213562373094
 46
1.414213562373094
 79
     0
 98
        1
 10
2718.27613745003
 20
644.0670884361419
1001
ACME_LAYERS
1000
1
  0
LINE
  5
2F65
330
1F
100
AcDbEntity
  8
P-0000
  6
Continuous
 62
     7
100
AcDbLine
 10
2719.087028618337
 20
1135.488408077671
 30
0.0
 11
2714.087028618337
 21
1135.488408077671
 31
0.0
1001
ACME_LAYERS
1000
1
  0
LINE
  5
2F66
330
1F
100
AcDbEntity
  8
P-0000
  6
Continuous
 62
     7
100
AcDbLine
 10
2719.087028618337
 20
1133.488408077671
 30
0.0
 11
2714.087028618337
 21
1133.488408077671
 31
0.0
1001
ACME_LAYERS
1000
1
  0
LINE
  5
2F67
330
1F
100
AcDbEntity
  8
P-0000
  6
Continuous
 62
     7
100
AcDbLine
 10
2714.087028618337
 20
1133.488408077671
 30
0.0
 11
2714.087028618337
 21
1135.488408077671
 31
0.0
1001
ACME_LAYERS
1000
1
  0
LINE
  5
2F68
330
1F
100
AcDbEntity
  8
P-0000
  6
Continuous
 62
     7
100
AcDbLine
 10
2719.087028618337
 20
1133.488408077671
 30
0.0
 11
2719.087028618337
 21
1135.488408077671
 31
0.0
1001
ACME_LAYERS
1000
1
  0
LINE
  5
2F69
330
1F
100
AcDbEntity
  8
P-0000
  6
Continuous
 62
     7
100
AcDbLine
 10
2593.837028618346
 20
1194.433585196257
 30
0.0
 11
2593.837028618346
 21
1158.433585196258
 31
0.0
1001
ACME_LAYERS
1000
1
  0
LINE
  5
2F6A
330
1F
100
AcDbEntity
  8
P-0000
  6
Continuous
 62
     7
100
AcDbLine
 10
2668.784699029326
 20
1177.002714395547
 30
0.0
 11
2669.76348824561
 21
1174.313513125399
 31
0.0
1001
ACME_LAYERS
1000
1
  0
LINE
  5
2F6B
330
1F
100
AcDbEntity
  8
P-0000
  6
Continuous
 62
     7
100
AcDbLine
 10
2660.112731633211
 20
1158.433585196258
 30
0.0
 11
2647.009803199625
 21
1194.433585196257
 31
0.0
1001
ACME_LAYERS
1000
1
  0
LINE
  5
2F6C
330
1F
100
AcDbEntity
  8
P-0000
  6
Continuous
 62
     7
100
AcDbLine
 10
2593.837028618346
 20
1200.40323429589
 30
0.0
 11
2644.837028618346
 21
1200.40323429589
 31
0.0
1001
ACME_LAYERS
1000
1
  0
LINE
  5
2F6D
330
1F
100
AcDbEntity
  8
P-0000
  6
Continuous
 62
     7
100
AcDbLine
 10
2593.837028618346
 20
1200.40323429589
 30
0.0
 11
2644.837028618346
 21
1200.40323429589
 31
0.0
1001
ACME_LAYERS
1000
1
  0
LINE
  5
2F6E
330
1F
100
AcDbEntity
  8
P-0000
  6
Continuous
 62
     7
100
AcDbLine
 10
2640.207021539894
 20
1232.433585196258
 30
0.0
 11
2633.178934297508
 21
1232.433585196258
 31
0.0
1001
ACME_LAYERS
1000
1
  0
LINE
  5
2F6F
330
1F
100
AcDbEntity
  8
P-0000
  6
Continuous
 62
     7
100
AcDbLine
 10
2645.837028618345
 20
1194.433585196257
 30
0.0
 11
2593.837028618346
 21
1194.433585196257
 31
0.0
1001
ACME_LAYERS
1000
1
  0
LINE
  5
2F70
330
1F
100
AcDbEntity
  8
P-0000
  6
Continuous
 62
     7
100
AcDbLine
 10
2638.638487811503
 20
1217.433585196257
 30
0.0
 11
2596.441191674379
 21
1217.433585196257
 31
0.0
1001
ACME_LAYERS
1000
1
  0
LINE
  5
2F71
330
1F
100
AcDbEntity
  8
P-0000
  6
Continuous
 62
     7
100
AcDbLine
 10
2593.837028618346
 20
1217.433585196257
 30
0.0
 11
2593.837028618346
 21
1200.40323429589
 31
0.0
1001
ACME_LAYERS
1000
1
  0
LINE
  5
2F72
330
1F
100
AcDbEntity
  8
P-0000
  6
Continuous
 62
     7
100
AcDbLine
 10
2631.050578752557
 20
1232.433585196258
 30
0.0
 11
2596.441191674379
 21
1232.433585196258
 31
0.0
1001
ACME_LAYERS
1000
1
  0
LINE
  5
2F73
330
1F
100
AcDbEntity
  8
P-0000
  6
Continuous
 62
     7
100
AcDbLine
 10
2596.441191674379
 20
1232.433585196258
 30
0.0
 11
2596.441191674379
 21
1217.433585196257
 31
0.0
1001
ACME_LAYERS
1000
1
  0
LINE
  5
2F74
330
1F
100
AcDbEntity
  8
P-0000
  6
Continuous
 62
     7
100
AcDbLine
 10
2596.441191674379
 20
1232.433585196258
 30
0.0
 11
2592.337028618346
 21
1232.433585196258
 31
0.0
1001
ACME_LAYERS
1000
1
  0
LINE
  5
2F75
330
1F
100
AcDbEntity
  8
P-0000
  6
Continuous
 62
     7
100
AcDbLine
 10
2596.441191674379
 20
1217.433585196257
 30
0.0
 11
2593.837028618346
 21
1217.433585196257
 31
0.0
1001
ACME_LAYERS
1000
1
  0
LINE
  5
2F76
330
1F
100
AcDbEntity
  8
P-0000
  6
Continuous
 62
     7
100
AcDbLine
 10
2593.837028618346
 20
1217.433585196257
 30
0.0
 11
2592.337028618346
 21
1217.433585196257
 31
0.0
1001
ACME_LAYERS
1000
1
  0
LINE
  5
2F77
330
1F
100
AcDbEntity
  8
P-0000
  6
Continuous
 62
     7
100
AcDbLine
 10
2592.337028618346
 20
1217.433585196257
 30
0.0
 11
2590.837028618345
 21
1217.433585196257
 31
0.0
1001
ACME_LAYERS
1000
1
  0
HATCH
  5
2F78
330
1F
100
AcDbEntity
  8
P-0000
  6
Continuous
 62
     1
100
AcDbHatch
 10
0.0
 20
0.0
 30
0.0
210
0.0
220
0.0
230
1.0
  2
_U
 70
     0
 71
     0
 91
        1
 92
        1
 93
        5
 72
     1
 10
2634.634815234574
 20
1228.433585196258
 11
2633.178934297508
 21
1232.433585196258
 72
     1
 10
2633.178934297508
 20
1232.433585196258
 11
2631.050578752557
 21
1232.433585196258
 72
     1
 10
2631.050578752557
 20
1232.433585196258
 11
2632.266974607045
 21
1229.091565052932
 72
     2
 10
2633.206667227832
 20
1229.433585196258
 40
1.000000000000015
 50
200.0000000000031
 51
270.0
 73
     1
 72
     1
 10
2633.206667227832
 20
1228.433585196258
 11
2634.634815234574
 21
1228.433585196258
 97
        0
 75
     0
 76
     0
 52
44.99999999999999
 41
1.0
 77
     0
 78
     1
 53
45.0
 43
2419.746001382285
 44
1270.931668228237
 45
-0.7071067811865474
 46
0.7071067811865479
 79
     0
 98
        1
 10
2718.285897681751
 20
663.9547295279035
1001
ACME_LAYERS
1000
1
  0
LINE
  5
2F79
330
1F
100
AcDbEntity
  8
P-0000
  6
Continuous
 62
     7
100
AcDbLine
 10
2632.266974607045
 20
1229.091565052932
 30
0.0
 11
2631.050578752557
 21
1232.433585196258
 31
0.0
1001
ACME_LAYERS
1000
1
  0
LINE
  5
2F7A
330
1F
100
AcDbEntity
  8
P-0000
  6
Continuous
 62
     7
100
AcDbLine
 10
2634.634815234574
 20
1228.433585196258
 30
0.0
 11
2633.178934297508
 21
1232.433585196258
 31
0.0
1001
ACME_LAYERS
1000
1
  0
LINE
  5
2F7B
330
1F
100
AcDbEntity
  8
P-0000
  6
Continuous
 62
     7
100
AcDbLine
 10
2633.178934297508
 20
1232.433585196258
 30
0.0
 11
2631.050578752557
 21
1232.433585196258
 31
0.0
1001
ACME_LAYERS
1000
1
  0
ARC
  5
2F7C
330
1F
100
AcDbEntity
  8
P-0000
  6
Continuous
 62
     7
100
AcDbCircle
 10
2633.206667227832
 20
1229.433585196258
 30
0.0
 40
1.000000000000015
100
AcDbArc
 50
200.0000000000019
 51
270.0
1001
ACME_LAYERS
1000
1
  0
ARC
  5
2F7D
330
1F
100
AcDbEntity
  8
P-0000
  6
Continuous
 62
     7
100
AcDbCircle
 10
2633.206667227832
 20
1229.433585196258
 30
0.0
 40
1.000000000000015
100
AcDbArc
 50
200.0000000000019
 51
270.0
1001
ACME_LAYERS
1000
1
  0
LINE
  5
2F7E
330
1F
100
AcDbEntity
  8
P-0000
  6
Continuous
 62
     7
100
AcDbLine
 10
2634.634815234574
 20
1228.433585196258
 30
0.0
 11
2633.206667227832
 21
1228.433585196258
 31
0.0
1001
ACME_LAYERS
1000
1
  0
LINE
  5
2F7F
330
1F
100
AcDbEntity
  8
P-0000
  6
Continuous
 62
     7
100
AcDbLine
 10
2592.337028618346
 20
1200.40323429589
 30
0.0
 11
2593.837028618346
 21
1200.40323429589
 31
0.0
1001
ACME_LAYERS
1000
1
  0
LINE
  5
2F80
330
1F
100
AcDbEntity
  8
P-0000
  6
Continuous
 62
     7
100
AcDbLine
 10
2592.337028618346
 20
1200.40323429589
 30
0.0
 11
2593.837028618346
 21
1200.40323429589
 31
0.0
1001
ACME_LAYERS
1000
1
  0
LINE
  5
2F81
330
1F
100
AcDbEntity
  8
P-0000
  6
Continuous
 62
     7
100
AcDbLine
 10
2593.837028618346
 20
1194.433585196257
 30
0.0
 11
2592.337028618346
 21
1194.433585196257
 31
0.0
1001
ACME_LAYERS
1000
1
  0
LINE
  5
2F82
330
1F
100
AcDbEntity
  8
P-0000
  6
Continuous
 62
     7
100
AcDbLine
 10
2651.483332989325
 20
1224.537826916166
 30
0.0
 11
2668.784699029326
 21
1177.002714395547
 31
0.0
1001
ACME_LAYERS
1000
1
  0
LINE
  5
2F83
330
1F
100
AcDbEntity
  8
P-0000
  6
Continuous
 62
     7
100
AcDbLine
 10
2644.837028618346
 20
1200.40323429589
 30
0.0
 11
2638.638487811503
 21
1217.433585196257
 31
0.0
1001
ACME_LAYERS
1000
1
  0
ARC
  5
2F84
330
1F
100
AcDbEntity
  8
P-0000
  6
Continuous
 62
     7
100
AcDbCircle
 10
2640.207021539894
 20
1220.433585196258
 30
0.0
 40
11.99999999999995
100
AcDbArc
 50
19.99999999998886
 51
90.0
1001
ACME_LAYERS
1000
1
  0
HATCH
  5
2F85
330
1F
100
AcDbEntity
  8
P-0000
  6
Continuous
 62
     3
100
AcDbHatch
 10
0.0
 20
0.0
 30
0.0
210
0.0
220
0.0
230
1.0
  2
_U
 70
     0
 71
     0
 91
        1
 92
        1
 93
        4
 72
     1
 10
2647.009803199625
 20
1194.433585196257
 11
2644.837028618346
 21
1200.40323429589
 72
     1
 10
2644.837028618346
 20
1200.40323429589
 11
2644.837028618346
 21
1195.433585196258
 72
     2
 10
2645.837028618345
 20
1195.433585196258
 40
1.0
 50
180.0
 51
270.0
 73
     1
 72
     1
 10
2645.837028618345
 20
1194.433585196257
 11
2647.009803199625
 21
1194.433585196257
 97
        0
 75
     0
 76
     0
 52
44.99999999999999
 41
1.0
 77
     0
 78
     1
 53
45.0
 43
2718.285897681751
 44
663.9547295279035
 45
-0.7071067811865474
 46
0.7071067811865479
 79
     0
 98
        1
 10
2718.285897681751
 20
663.9547295279035
1001
ACME_LAYERS
1000
1
  0
LINE
  5
2F86
330
1F
100
AcDbEntity
  8
P-0000
  6
Continuous
 62
     7
100
AcDbLine
 10
2647.009803199625
 20
1194.433585196257
 30
0.0
 11
2645.837028618345
 21
1194.433585196257
 31
0.0
1001
ACME_LAYERS
1000
1
  0
LINE
  5
2F87
330
1F
100
AcDbEntity
  8
P-0000
  6
Continuous
 62
     7
100
AcDbLine
 10
2647.009803199625
 20
1194.433585196257
 30
0.0
 11
2644.837028618346
 21
1200.40323429589
 31
0.0
1001
ACME_LAYERS
1000
1
  0
LINE
  5
2F88
330
1F
100
AcDbEntity
  8
P-0000
  6
Continuous
 62
     7
100
AcDbLine
 10
2644.837028618346
 20
1195.433585196258
 30
0.0
 11
2644.837028618346
 21
1200.40323429589
 31
0.0
1001
ACME_LAYERS
1000
1
  0
LINE
  5
2F89
330
1F
100
AcDbEntity
  8
P-0000
  6
Continuous
 62
     7
100
AcDbLine
 10
2644.837028618346
 20
1195.433585196258
 30
0.0
 11
2644.837028618346
 21
1200.40323429589
 31
0.0
1001
ACME_LAYERS
1000
1
  0
ARC
  5
2F8A
330
1F
100
AcDbEntity
  8
P-0000
  6
Continuous
 62
     7
100
AcDbCircle
 10
2645.837028618345
 20
1195.433585196258
 30
0.0
 40
1.0
100
AcDbArc
 50
180.0
 51
270.0
1001
ACME_LAYERS
1000
1
  0
ARC
  5
2F8B
330
1F
100
AcDbEntity
  8
P-0000
  6
Continuous
 62
     7
100
AcDbCircle
 10
2645.837028618345
 20
1195.433585196258
 30
0.0
 40
1.0
100
AcDbArc
 50
180.0
 51
270.0
1001
ACME_LAYERS
1000
1
  0
LINE
  5
2F8C
330
1F
100
AcDbEntity
  8
P-0000
  6
Continuous
 62
     7
100
AcDbLine
 10
2593.837028618346
 20
1158.433585196258
 30
0.0
 11
2660.112731633211
 21
1158.433585196258
 31
0.0
1001
ACME_LAYERS
1000
1
  0
LINE
  5
2F8D
330
1F
100
AcDbEntity
  8
P-0000
  6
Continuous
 62
     7
100
AcDbLine
 10
2593.837028618346
 20
1158.433585196258
 30
0.0
 11
2660.112731633211
 21
1158.433585196258
 31
0.0
1001
ACME_LAYERS
1000
1
  0
LINE
  5
2F8E
330
1F
100
AcDbEntity
  8
P-0000
  6
Continuous
 62
     7
100
AcDbLine
 10
2593.837028618346
 20
1158.433585196258
 30
0.0
 11
2660.112731633211
 21
1158.433585196258
 31
0.0
1001
ACME_LAYERS
1000
1
  0
LINE
  5
2F8F
330
1F
100
AcDbEntity
  8
P-0000
  6
Continuous
 62
     7
100
AcDbLine
 10
2660.112731633211
 20
1152.433585196257
 30
0.0
 11
2593.837028618346
 21
1152.433585196257
 31
0.0
1001
ACME_LAYERS
1000
1
  0
LINE
  5
2F90
330
1F
100
AcDbEntity
  8
P-0000
  6
Continuous
 62
     7
100
AcDbLine
 10
2592.337028618346
 20
1158.433585196258
 30
0.0
 11
2593.837028618346
 21
1158.433585196258
 31
0.0
1001
ACME_LAYERS
1000
1
  0
LINE
  5
2F91
330
1F
100
AcDbEntity
  8
P-0000
  6
Continuous
 62
     7
100
AcDbLine
 10
2592.337028618346
 20
1158.433585196258
 30
0.0
 11
2593.837028618346
 21
1158.433585196258
 31
0.0
1001
ACME_LAYERS
1000
1
  0
LINE
  5
2F92
330
1F
100
AcDbEntity
  8
P-0000
  6
Continuous
 62
     7
100
AcDbLine
 10
2592.337028618346
 20
1158.433585196258
 30
0.0
 11
2593.837028618346
 21
1158.433585196258
 31
0.0
1001
ACME_LAYERS
1000
1
  0
LINE
  5
2F93
330
1F
100
AcDbEntity
  8
P-0000
  6
Continuous
 62
     7
100
AcDbLine
 10
2593.837028618346
 20
1152.433585196257
 30
0.0
 11
2592.337028618346
 21
1152.433585196257
 31
0.0
1001
ACME_LAYERS
1000
1
  0
LINE
  5
2F94
330
1F
100
AcDbEntity
  8
P-0000
  6
Continuous
 62
     7
100
AcDbLine
 10
2669.76348824561
 20
1174.313513125399
 30
0.0
 11
2677.337028618345
 21
1153.505381965982
 31
0.0
1001
ACME_LAYERS
1000
1
  0
LINE
  5
2F95
330
1F
100
AcDbEntity
  8
P-0000
  6
Continuous
 62
     7
100
AcDbLine
 10
2671.337028618346
 20
1152.433585196257
 30
0.0
 11
2663.112731633211
 21
1152.433585196257
 31
0.0
1001
ACME_LAYERS
1000
1
  0
LINE
  5
2F96
330
1F
100
AcDbEntity
  8
P-0000
  6
Continuous
 62
     7
100
AcDbLine
 10
2663.112731633211
 20
1152.433585196257
 30
0.0
 11
2663.112731633211
 21
1158.433585196258
 31
0.0
1001
ACME_LAYERS
1000
1
  0
LINE
  5
2F97
330
1F
100
AcDbEntity
  8
P-0000
  6
Continuous
 62
     7
100
AcDbLine
 10
2660.112731633211
 20
1152.433585196257
 30
0.0
 11
2660.112731633211
 21
1158.433585196258
 31
0.0
1001
ACME_LAYERS
1000
1
  0
LINE
  5
2F98
330
1F
100
AcDbEntity
  8
P-0000
  6
Continuous
 62
     7
100
AcDbLine
 10
2660.112731633211
 20
1158.433585196258
 30
0.0
 11
2663.112731633211
 21
1158.433585196258
 31
0.0
1001
ACME_LAYERS
1000
1
  0
LINE
  5
2F99
330
1F
100
AcDbEntity
  8
P-0000
  6
Continuous
 62
     7
100
AcDbLine
 10
2660.112731633211
 20
1158.433585196258
 30
0.0
 11
2663.112731633211
 21
1158.433585196258
 31
0.0
1001
ACME_LAYERS
1000
1
  0
LINE
  5
2F9A
330
1F
100
AcDbEntity
  8
P-0000
  6
Continuous
 62
     7
100
AcDbLine
 10
2663.112731633211
 20
1152.433585196257
 30
0.0
 11
2660.112731633211
 21
1152.433585196257
 31
0.0
1001
ACME_LAYERS
1000
1
  0
LINE
  5
2F9B
102
{ACAD_REACTORS
330
2F2C
102
}
330
1F
100
AcDbEntity
  8
P-0000
  6
Continuous
 62
     7
100
AcDbLine
 10
2677.837028618345
 20
1150.233585196257
 30
0.0
 11
2677.837028618345
 21
1152.433585196257
 31
0.0
1001
ACME_LAYERS
1000
1
  0
LINE
  5
2F9C
330
1F
100
AcDbEntity
  8
P-0000
  6
Continuous
 62
     7
100
AcDbLine
 10
2676.560798351796
 20
1146.477017427466
 30
0.0
 11
2671.337028618346
 21
1152.433585196257
 31
0.0
1001
ACME_LAYERS
1000
1
  0
LINE
  5
2F9D
330
1F
100
AcDbEntity
  8
P-0000
  6
Continuous
 62
     7
100
AcDbLine
 10
2677.337028618345
 20
1152.433585196257
 30
0.0
 11
2677.337028618345
 21
1153.505381965982
 31
0.0
1001
ACME_LAYERS
1000
1
  0
LINE
  5
2F9E
102
{ACAD_REACTORS
330
2F2C
102
}
330
1F
100
AcDbEntity
  8
P-0000
  6
Continuous
 62
     7
100
AcDbLine
 10
2677.837028618345
 20
1152.433585196257
 30
0.0
 11
2677.337028618345
 21
1152.433585196257
 31
0.0
1001
ACME_LAYERS
1000
1
  0
LINE
  5
2F9F
102
{ACAD_REACTORS
330
2F2C
102
}
330
1F
100
AcDbEntity
  8
P-0000
  6
Continuous
 62
     7
100
AcDbLine
 10
2677.337028618345
 20
1152.433585196257
 30
0.0
 11
2677.337028618345
 21
1153.505381965982
 31
0.0
1001
ACME_LAYERS
1000
1
  0
LINE
  5
2FA0
330
1F
100
AcDbEntity
  8
P-0000
  6
Continuous
 62
     7
100
AcDbLine
 10
2679.037028618346
 20
1148.733585196258
 30
0.0
 11
2677.478201426275
 21
1146.536043425058
 31
0.0
1001
ACME_LAYERS
1000
1
  0
LINE
  5
2FA1
330
1F
100
AcDbEntity
  8
P-0000
  6
Continuous
 62
     7
100
AcDbLine
 10
2677.837028618345
 20
1150.233585196257
 30
0.0
 11
2679.037028618346
 21
1150.233585196257
 31
0.0
1001
ACME_LAYERS
1000
1
  0
LINE
  5
2FA2
330
1F
100
AcDbEntity
  8
P-0000
  6
Continuous
 62
     7
100
AcDbLine
 10
2679.037028618346
 20
1150.233585196257
 30
0.0
 11
2679.037028618346
 21
1148.733585196258
 31
0.0
1001
ACME_LAYERS
1000
1
  0
ARC
  5
2FA3
330
1F
100
AcDbEntity
  8
P-0000
  6
Continuous
 62
     7
100
AcDbCircle
 10
2676.988821624191
 20
1146.883185196258
 30
0.0
 40
0.6000000000000229
100
AcDbArc
 50
270.0
 51
324.650000000002
1001
ACME_LAYERS
1000
1
  0
ARC
  5
2FA4
330
1F
100
AcDbEntity
  8
P-0000
  6
Continuous
 62
     7
100
AcDbCircle
 10
2676.988595202252
 20
1146.852185196258
 30
0.0
 40
0.5689999999999894
100
AcDbArc
 50
221.2500000000009
 51
270.0
1001
ACME_LAYERS
1000
1
  0
LINE
  5
2FA5
330
1F
100
AcDbEntity
  8
P-0000
  6
Continuous
 62
     7
100
AcDbLine
 10
2676.988821624191
 20
1146.283185196258
 30
0.0
 11
2676.988595202252
 21
1146.283185196258
 31
0.0
1001
ACME_LAYERS
1000
1
  0
HATCH
  5
2FA6
330
1F
100
AcDbEntity
  8
AM_8
100
AcDbHatch
 10
0.0
 20
0.0
 30
0.0
210
0.0
220
0.0
230
1.0
  2
_U
 70
     0
 71
     0
 91
        1
 92
        1
 93
        4
 72
     1
 10
2663.112731633211
 20
1158.433585196258
 11
2660.112731633211
 21
1158.433585196258
 72
     1
 10
2660.112731633211
 20
1158.433585196258
 11
2660.112731633211
 21
1152.433585196257
 72
     1
 10
2660.112731633211
 20
1152.433585196257
 11
2663.112731633211
 21
1152.433585196257
 72
     1
 10
2663.112731633211
 20
1152.433585196257
 11
2663.112731633211
 21
1158.433585196258
 97
        0
 75
     0
 76
     0
 52
44.99999999999999
 41
1.0
 77
     0
 78
     1
 53
45.0
 43
2419.746001382285
 44
1270.931668228237
 45
-0.7071067811865474
 46
0.7071067811865479
 79
     0
 98
        1
 10
2419.746001382285
 20
1270.931668228237
1001
GENIUS_GENODEF_13
1002
{
1000
HIER
1070
     0
1002
}
1002
{
1000
MANEDIT
1070
     0
1002
}
1002
{
1000
NOSEL
1070
     0
1002
}
1002
{
1000
BEHIND
1070
     0
1002
}
1002
{
1000
OTHER
1070
     0
1002
}
1002
{
1000
REACTOR
1002
}
1001
GENIUS_GENOBJ-N-HTC_13
1002
{
1000
OWNER
1000
GEN
1002
}
1001
GENIUS_GENHATCH_13
1002
{
1000
DATA
1040
135.0
1042
1.0
1000
_U
1070
     0
1011
2660.881708448658
1021
1152.892172242776
1031
0.0
1002
}
1002
{
1000
UCS
1010
0.0
1020
0.0
1030
0.0
1010
1.0
1020
0.0
1030
0.0
1010
0.0
1020
1.0
1030
0.0
1002
}
  0
LINE
  5
2FA7
330
1F
100
AcDbEntity
  8
P-0000
  6
STRICHPUNKT
 62
     3
100
AcDbLine
 10
2476.569571380625
 20
1130.461296592918
 30
0.0
 11
2476.569571380625
 21
1137.461296592918
 31
0.0
1001
ACME_LAYERS
1000
1
  0
LINE
  5
2FA8
330
1F
100
AcDbEntity
  8
P-0000
  6
Continuous
 62
     7
100
AcDbLine
 10
2471.569571380625
 20
1135.488408077673
 30
0.0
 11
2481.569571380625
 21
1135.488408077672
 31
0.0
1001
ACME_LAYERS
1000
1
  0
LINE
  5
2FA9
330
1F
100
AcDbEntity
  8
P-0000
  6
Continuous
 62
     7
100
AcDbLine
 10
2473.369571380624
 20
1146.635689517385
 30
0.0
 11
2476.569571380625
 21
1146.635689517385
 31
0.0
1001
ACME_LAYERS
1000
1
  0
LINE
  5
2FAA
330
1F
100
AcDbEntity
  8
P-0000
  6
Continuous
 62
     7
100
AcDbLine
 10
2479.769571380624
 20
1146.035689517383
 30
0.0
 11
2473.369571380624
 21
1146.035689517385
 31
0.0
1001
ACME_LAYERS
1000
1
  0
LINE
  5
2FAB
330
1F
100
AcDbEntity
  8
P-0000
  6
Continuous
 62
     7
100
AcDbLine
 10
2472.569571380625
 20
1146.035689517385
 30
0.0
 11
2472.569571380625
 21
1143.088408077671
 31
0.0
1001
ACME_LAYERS
1000
1
  0
LINE
  5
2FAC
330
1F
100
AcDbEntity
  8
P-0000
  6
Continuous
 62
     3
100
AcDbLine
 10
2473.369571380624
 20
1146.635689517385
 30
0.0
 11
2473.369571380624
 21
1143.088408077671
 31
0.0
1001
ACME_LAYERS
1000
1
  0
LINE
  5
2FAD
330
1F
100
AcDbEntity
  8
P-0000
  6
Continuous
 62
     7
100
AcDbLine
 10
2473.369571380624
 20
1146.035689517385
 30
0.0
 11
2472.569571380625
 21
1146.035689517385
 31
0.0
1001
ACME_LAYERS
1000
1
  0
LINE
  5
2FAE
330
1F
100
AcDbEntity
  8
P-0000
  6
Continuous
 62
     3
100
AcDbLine
 10
2473.369571380624
 20
1146.635689517385
 30
0.0
 11
2473.369571380624
 21
1146.035689517385
 31
0.0
1001
ACME_LAYERS
1000
1
  0
LINE
  5
2FAF
330
1F
100
AcDbEntity
  8
P-0000
  6
Continuous
 62
     7
100
AcDbLine
 10
2472.569571380625
 20
1146.035689517385
 30
0.0
 11
2473.369571380624
 21
1146.635689517385
 31
0.0
1001
ACME_LAYERS
1000
1
  0
LINE
  5
2FB0
330
1F
100
AcDbEntity
  8
P-0000
  6
Continuous
 62
     7
100
AcDbLine
 10
2480.569571380625
 20
1146.035689517383
 30
0.0
 11
2480.569571380625
 21
1143.08840807767
 31
0.0
1001
ACME_LAYERS
1000
1
  0
LINE
  5
2FB1
330
1F
100
AcDbEntity
  8
P-0000
  6
STRICHPUNKT
 62
     3
100
AcDbLine
 10
2476.569571380625
 20
1143.088408077671
 30
0.0
 11
2476.569571380625
 21
1146.635689517385
 31
0.0
1001
ACME_LAYERS
1000
1
  0
LINE
  5
2FB2
330
1F
100
AcDbEntity
  8
P-0000
  6
Continuous
 62
     3
100
AcDbLine
 10
2479.769571380624
 20
1146.635689517384
 30
0.0
 11
2479.769571380624
 21
1143.08840807767
 31
0.0
1001
ACME_LAYERS
1000
1
  0
LINE
  5
2FB3
330
1F
100
AcDbEntity
  8
P-0000
  6
Continuous
 62
     3
100
AcDbLine
 10
2479.769571380624
 20
1146.635689517384
 30
0.0
 11
2479.769571380624
 21
1146.035689517383
 31
0.0
1001
ACME_LAYERS
1000
1
  0
LINE
  5
2FB4
330
1F
100
AcDbEntity
  8
P-0000
  6
Continuous
 62
     7
100
AcDbLine
 10
2480.569571380625
 20
1146.035689517383
 30
0.0
 11
2479.769571380624
 21
1146.035689517383
 31
0.0
1001
ACME_LAYERS
1000
1
  0
LINE
  5
2FB5
330
1F
100
AcDbEntity
  8
P-0000
  6
Continuous
 62
     7
100
AcDbLine
 10
2479.769571380624
 20
1146.635689517384
 30
0.0
 11
2480.569571380625
 21
1146.035689517383
 31
0.0
1001
ACME_LAYERS
1000
1
  0
LINE
  5
2FB6
330
1F
100
AcDbEntity
  8
P-0000
  6
Continuous
 62
     7
100
AcDbLine
 10
2476.569571380625
 20
1146.635689517385
 30
0.0
 11
2479.769571380624
 21
1146.635689517384
 31
0.0
1001
ACME_LAYERS
1000
1
  0
LINE
  5
2FB7
330
1F
100
AcDbEntity
  8
P-0000
  6
Continuous
 62
     7
100
AcDbLine
 10
2480.569571380624
 20
1143.08840807767
 30
0.0
 11
2473.369571380624
 21
1143.088408077671
 31
0.0
1001
ACME_LAYERS
1000
1
  0
LINE
  5
2FB8
330
1F
100
AcDbEntity
  8
P-0000
  6
Continuous
 62
     7
100
AcDbLine
 10
2473.369571380624
 20
1143.088408077671
 30
0.0
 11
2472.569571380624
 21
1143.088408077671
 31
0.0
1001
ACME_LAYERS
1000
1
  0
LINE
  5
2FB9
330
1F
100
AcDbEntity
  8
P-0000
  6
Continuous
 62
     7
100
AcDbLine
 10
2468.123873267203
 20
1136.988408077669
 30
0.0
 11
2468.123873267203
 21
1135.488408077673
 31
0.0
1001
ACME_LAYERS
1000
1
  0
LINE
  5
2FBA
330
1F
100
AcDbEntity
  8
P-0000
  6
Continuous
 62
     7
100
AcDbLine
 10
2485.123873267204
 20
1135.488408077672
 30
0.0
 11
2485.123873267204
 21
1136.988408077668
 31
0.0
1001
ACME_LAYERS
1000
1
  0
LINE
  5
2FBB
330
1F
100
AcDbEntity
  8
P-0000
  6
Continuous
 62
     7
100
AcDbLine
 10
2468.123873267203
 20
1137.088408077671
 30
0.0
 11
2468.123873267203
 21
1136.988408077669
 31
0.0
1001
ACME_LAYERS
1000
1
  0
LINE
  5
2FBC
330
1F
100
AcDbEntity
  8
P-0000
  6
Continuous
 62
     7
100
AcDbLine
 10
2485.123873267204
 20
1137.08840807767
 30
0.0
 11
2468.123873267203
 21
1137.088408077671
 31
0.0
1001
ACME_LAYERS
1000
1
  0
LINE
  5
2FBD
330
1F
100
AcDbEntity
  8
P-0000
  6
Continuous
 62
     7
100
AcDbLine
 10
2485.123873267204
 20
1136.988408077668
 30
0.0
 11
2485.123873267204
 21
1137.08840807767
 31
0.0
1001
ACME_LAYERS
1000
1
  0
LINE
  5
2FBE
330
1F
100
AcDbEntity
  8
P-0000
  6
Continuous
 62
     7
100
AcDbLine
 10
2484.07512488009
 20
1138.975347269576
 30
0.0
 11
2484.07512488009
 21
1137.66896466127
 31
0.0
1001
ACME_LAYERS
1000
1
  0
LINE
  5
2FBF
330
1F
100
AcDbEntity
  8
P-0000
  6
Continuous
 62
     7
100
AcDbLine
 10
2470.069571380625
 20
1137.088408077671
 30
0.0
 11
2483.069571380624
 21
1137.08840807767
 31
0.0
1001
ACME_LAYERS
1000
1
  0
LINE
  5
2FC0
330
1F
100
AcDbEntity
  8
P-0000
  6
Continuous
 62
     7
100
AcDbLine
 10
2469.064017881158
 20
1138.975347269578
 30
0.0
 11
2469.064017881158
 21
1137.668964661271
 31
0.0
1001
ACME_LAYERS
1000
1
  0
LINE
  5
2FC1
330
1F
100
AcDbEntity
  8
P-0000
  6
Continuous
 62
     7
100
AcDbLine
 10
2472.569571380624
 20
1143.088408077671
 30
0.0
 11
2470.069571380625
 21
1143.088408077671
 31
0.0
1001
ACME_LAYERS
1000
1
  0
LINE
  5
2FC2
330
1F
100
AcDbEntity
  8
P-0000
  6
Continuous
 62
     7
100
AcDbLine
 10
2483.828453291434
 20
1137.515551643304
 30
0.0
 11
2483.069571380624
 21
1137.08840807767
 31
0.0
1001
ACME_LAYERS
1000
1
  0
LINE
  5
2FC3
330
1F
100
AcDbEntity
  8
P-0000
  6
Continuous
 62
     7
100
AcDbLine
 10
2483.828453291434
 20
1142.661264512035
 30
0.0
 11
2483.069571380624
 21
1143.08840807767
 31
0.0
1001
ACME_LAYERS
1000
1
  0
LINE
  5
2FC4
330
1F
100
AcDbEntity
  8
P-0000
  6
Continuous
 62
     7
100
AcDbLine
 10
2469.310689469816
 20
1137.515551643304
 30
0.0
 11
2470.069571380625
 21
1137.088408077671
 31
0.0
1001
ACME_LAYERS
1000
1
  0
LINE
  5
2FC5
330
1F
100
AcDbEntity
  8
P-0000
  6
Continuous
 62
     7
100
AcDbLine
 10
2469.310689469817
 20
1142.661264512035
 30
0.0
 11
2470.069571380625
 21
1143.088408077671
 31
0.0
1001
ACME_LAYERS
1000
1
  0
LINE
  5
2FC6
330
1F
100
AcDbEntity
  8
P-0000
  6
Continuous
 62
     7
100
AcDbLine
 10
2483.069571380624
 20
1143.08840807767
 30
0.0
 11
2480.569571380624
 21
1143.08840807767
 31
0.0
1001
ACME_LAYERS
1000
1
  0
LINE
  5
2FC7
330
1F
100
AcDbEntity
  8
P-0000
  6
Continuous
 62
     7
100
AcDbLine
 10
2469.064017881158
 20
1142.507851494069
 30
0.0
 11
2469.064017881158
 21
1138.975347269578
 31
0.0
1001
ACME_LAYERS
1000
1
  0
LINE
  5
2FC8
330
1F
100
AcDbEntity
  8
P-0000
  6
Continuous
 62
     7
100
AcDbLine
 10
2472.816794630892
 20
1142.507851494069
 30
0.0
 11
2472.816794630892
 21
1137.088408077671
 31
0.0
1001
ACME_LAYERS
1000
1
  0
LINE
  5
2FC9
330
1F
100
AcDbEntity
  8
P-0000
  6
Continuous
 62
     7
100
AcDbLine
 10
2480.322348130356
 20
1142.507851494069
 30
0.0
 11
2480.322348130356
 21
1137.08840807767
 31
0.0
1001
ACME_LAYERS
1000
1
  0
LINE
  5
2FCA
330
1F
100
AcDbEntity
  8
P-0000
  6
Continuous
 62
     7
100
AcDbLine
 10
2484.07512488009
 20
1142.507851494069
 30
0.0
 11
2484.07512488009
 21
1138.975347269576
 31
0.0
1001
ACME_LAYERS
1000
1
  0
LINE
  5
2FCB
330
1F
100
AcDbEntity
  8
P-0000
  6
Continuous
 62
     7
100
AcDbLine
 10
2468.123873267203
 20
1135.488408077673
 30
0.0
 11
2472.569571380624
 21
1135.488408077673
 31
0.0
1001
ACME_LAYERS
1000
1
  0
LINE
  5
2FCC
330
1F
100
AcDbEntity
  8
P-0000
  6
Continuous
 62
     7
100
AcDbLine
 10
2485.123873267204
 20
1135.488408077672
 30
0.0
 11
2481.069571380626
 21
1135.488408077672
 31
0.0
1001
ACME_LAYERS
1000
1
  0
LINE
  5
2FCD
330
1F
100
AcDbEntity
  8
P-0000
  6
Continuous
 62
     7
100
AcDbLine
 10
2473.369571380624
 20
1133.488408077672
 30
0.0
 11
2479.769571380624
 21
1133.488408077672
 31
0.0
1001
ACME_LAYERS
1000
1
  0
ARC
  5
2FCE
330
1F
100
AcDbEntity
  8
P-0000
  6
Continuous
 62
     7
100
AcDbCircle
 10
2476.569571380624
 20
1149.507851494068
 30
0.0
 40
12.41944341639904
100
AcDbArc
 50
252.4120462260364
 51
287.5879537739637
1001
ACME_LAYERS
1000
1
  0
ARC
  5
2FCF
330
1F
100
AcDbEntity
  8
P-0000
  6
Continuous
 62
     7
100
AcDbCircle
 10
2476.569571380624
 20
1130.66896466127
 30
0.0
 40
12.41944341639904
100
AcDbArc
 50
72.41204622603635
 51
107.5879537739636
1001
ACME_LAYERS
1000
1
  0
ARC
  5
2FD0
330
1F
100
AcDbEntity
  8
P-0000
  6
Continuous
 62
     7
100
AcDbCircle
 10
2482.198736505223
 20
1140.41097765062
 30
0.0
 40
3.322569572950221
100
AcDbArc
 50
235.6157525319769
 51
299.373379394836
1001
ACME_LAYERS
1000
1
  0
ARC
  5
2FD1
330
1F
100
AcDbEntity
  8
P-0000
  6
Continuous
 62
     7
100
AcDbCircle
 10
2482.198736505224
 20
1139.765838504718
 30
0.0
 40
3.322569572950149
100
AcDbArc
 50
55.61575253197688
 51
60.62662060516403
1001
ACME_LAYERS
1000
1
  0
ARC
  5
2FD2
330
1F
100
AcDbEntity
  8
P-0000
  6
Continuous
 62
     7
100
AcDbCircle
 10
2470.940406256026
 20
1140.41097765062
 30
0.0
 40
3.322569572950221
100
AcDbArc
 50
235.6157525319769
 51
240.626620605164
1001
ACME_LAYERS
1000
1
  0
ARC
  5
2FD3
330
1F
100
AcDbEntity
  8
P-0000
  6
Continuous
 62
     7
100
AcDbCircle
 10
2470.940406256026
 20
1139.765838504721
 30
0.0
 40
3.322569572949122
100
AcDbArc
 50
55.61575253197688
 51
119.3733793948359
1001
ACME_LAYERS
1000
1
  0
ARC
  5
2FD4
330
1F
100
AcDbEntity
  8
P-0000
  6
Continuous
 62
     7
100
AcDbCircle
 10
2482.198736505223
 20
1140.41097765062
 30
0.0
 40
3.322569572949876
100
AcDbArc
 50
299.373379394836
 51
304.3842474680232
1001
ACME_LAYERS
1000
1
  0
ARC
  5
2FD5
330
1F
100
AcDbEntity
  8
P-0000
  6
Continuous
 62
     7
100
AcDbCircle
 10
2482.198736505223
 20
1139.76583850472
 30
0.0
 40
3.322569572949888
100
AcDbArc
 50
60.62662060516403
 51
124.3842474680231
1001
ACME_LAYERS
1000
1
  0
ARC
  5
2FD6
330
1F
100
AcDbEntity
  8
P-0000
  6
Continuous
 62
     7
100
AcDbCircle
 10
2470.940406256026
 20
1140.41097765062
 30
0.0
 40
3.322569572949872
100
AcDbArc
 50
240.626620605164
 51
304.3842474680232
1001
ACME_LAYERS
1000
1
  0
ARC
  5
2FD7
330
1F
100
AcDbEntity
  8
P-0000
  6
Continuous
 62
     7
100
AcDbCircle
 10
2470.940406256026
 20
1139.765838504721
 30
0.0
 40
3.322569572949884
100
AcDbArc
 50
119.3733793948359
 51
124.3842474680231
1001
ACME_LAYERS
1000
1
  0
LINE
  5
2FD8
330
1F
100
AcDbEntity
  8
P-0000
  6
Continuous
 62
     7
100
AcDbLine
 10
2514.620964620962
 20
1143.471075770431
 30
0.0
 11
2514.620964620962
 21
1140.588408077668
 31
0.0
1001
ACME_LAYERS
1000
1
  0
LINE
  5
2FD9
330
1F
100
AcDbEntity
  8
P-0000
  6
Continuous
 62
     3
100
AcDbLine
 10
2513.820964620962
 20
1143.009195555079
 30
0.0
 11
2513.820964620962
 21
1140.588408077668
 31
0.0
1001
ACME_LAYERS
1000
1
  0
LINE
  5
2FDA
330
1F
100
AcDbEntity
  8
P-0000
  6
Continuous
 62
     7
100
AcDbLine
 10
2509.628037715759
 20
1140.588408077668
 30
0.0
 11
2513.82096462096
 21
1140.588408077668
 31
0.0
1001
ACME_LAYERS
1000
1
  0
LINE
  5
2FDB
330
1F
100
AcDbEntity
  8
P-0000
  6
Continuous
 62
     7
100
AcDbLine
 10
2513.82096462096
 20
1140.588408077668
 30
0.0
 11
2514.620964620962
 21
1140.588408077668
 31
0.0
1001
ACME_LAYERS
1000
1
  0
LINE
  5
2FDC
330
1F
100
AcDbEntity
  8
P-0000
  6
Continuous
 62
     7
100
AcDbLine
 10
2519.06666273438
 20
1134.488408077668
 30
0.0
 11
2519.06666273438
 21
1132.98840807767
 31
0.0
1001
ACME_LAYERS
1000
1
  0
LINE
  5
2FDD
330
1F
100
AcDbEntity
  8
P-0000
  6
Continuous
 62
     7
100
AcDbLine
 10
2502.066662734382
 20
1132.98840807767
 30
0.0
 11
2502.066662734382
 21
1134.488408077668
 31
0.0
1001
ACME_LAYERS
1000
1
  0
LINE
  5
2FDE
330
1F
100
AcDbEntity
  8
P-0000
  6
Continuous
 62
     7
100
AcDbLine
 10
2519.06666273438
 20
1134.588408077668
 30
0.0
 11
2519.06666273438
 21
1134.488408077668
 31
0.0
1001
ACME_LAYERS
1000
1
  0
LINE
  5
2FDF
330
1F
100
AcDbEntity
  8
P-0000
  6
Continuous
 62
     7
100
AcDbLine
 10
2502.066662734382
 20
1134.588408077668
 30
0.0
 11
2519.06666273438
 21
1134.588408077668
 31
0.0
1001
ACME_LAYERS
1000
1
  0
LINE
  5
2FE0
330
1F
100
AcDbEntity
  8
P-0000
  6
Continuous
 62
     7
100
AcDbLine
 10
2502.066662734382
 20
1134.488408077668
 30
0.0
 11
2502.066662734382
 21
1134.588408077668
 31
0.0
1001
ACME_LAYERS
1000
1
  0
LINE
  5
2FE1
330
1F
100
AcDbEntity
  8
P-0000
  6
Continuous
 62
     7
100
AcDbLine
 10
2503.115411121495
 20
1136.475347269574
 30
0.0
 11
2503.115411121495
 21
1135.168964661268
 31
0.0
1001
ACME_LAYERS
1000
1
  0
LINE
  5
2FE2
330
1F
100
AcDbEntity
  8
P-0000
  6
Continuous
 62
     7
100
AcDbLine
 10
2517.120964620962
 20
1134.588408077668
 30
0.0
 11
2504.120964620961
 21
1134.588408077668
 31
0.0
1001
ACME_LAYERS
1000
1
  0
LINE
  5
2FE3
330
1F
100
AcDbEntity
  8
P-0000
  6
Continuous
 62
     7
100
AcDbLine
 10
2518.126518120427
 20
1136.475347269574
 30
0.0
 11
2518.126518120427
 21
1135.168964661268
 31
0.0
1001
ACME_LAYERS
1000
1
  0
LINE
  5
2FE4
330
1F
100
AcDbEntity
  8
P-0000
  6
Continuous
 62
     7
100
AcDbLine
 10
2514.620964620962
 20
1140.588408077668
 30
0.0
 11
2517.120964620963
 21
1140.588408077668
 31
0.0
1001
ACME_LAYERS
1000
1
  0
LINE
  5
2FE5
330
1F
100
AcDbEntity
  8
P-0000
  6
Continuous
 62
     7
100
AcDbLine
 10
2506.868187871229
 20
1136.475347269574
 30
0.0
 11
2506.868187871229
 21
1135.168964661268
 31
0.0
1001
ACME_LAYERS
1000
1
  0
LINE
  5
2FE6
330
1F
100
AcDbEntity
  8
P-0000
  6
Continuous
 62
     7
100
AcDbLine
 10
2514.373741370693
 20
1136.475347269574
 30
0.0
 11
2514.373741370693
 21
1135.168964661268
 31
0.0
1001
ACME_LAYERS
1000
1
  0
LINE
  5
2FE7
330
1F
100
AcDbEntity
  8
P-0000
  6
Continuous
 62
     7
100
AcDbLine
 10
2503.362082710152
 20
1135.015551643302
 30
0.0
 11
2504.120964620961
 21
1134.588408077668
 31
0.0
1001
ACME_LAYERS
1000
1
  0
LINE
  5
2FE8
330
1F
100
AcDbEntity
  8
P-0000
  6
Continuous
 62
     7
100
AcDbLine
 10
2517.879846531769
 20
1135.015551643302
 30
0.0
 11
2517.120964620962
 21
1134.588408077668
 31
0.0
1001
ACME_LAYERS
1000
1
  0
LINE
  5
2FE9
330
1F
100
AcDbEntity
  8
P-0000
  6
Continuous
 62
     7
100
AcDbLine
 10
2517.87984653177
 20
1140.161264512033
 30
0.0
 11
2517.120964620963
 21
1140.588408077668
 31
0.0
1001
ACME_LAYERS
1000
1
  0
LINE
  5
2FEA
330
1F
100
AcDbEntity
  8
P-0000
  6
Continuous
 62
     7
100
AcDbLine
 10
2518.126518120427
 20
1140.007851494067
 30
0.0
 11
2518.126518120427
 21
1136.475347269574
 31
0.0
1001
ACME_LAYERS
1000
1
  0
LINE
  5
2FEB
330
1F
100
AcDbEntity
  8
P-0000
  6
Continuous
 62
     7
100
AcDbLine
 10
2514.373741370693
 20
1140.007851494067
 30
0.0
 11
2514.373741370693
 21
1136.475347269574
 31
0.0
1001
ACME_LAYERS
1000
1
  0
LINE
  5
2FEC
330
1F
100
AcDbEntity
  8
P-0000
  6
Continuous
 62
     7
100
AcDbLine
 10
2506.868187871229
 20
1138.995008027006
 30
0.0
 11
2506.868187871229
 21
1136.475347269574
 31
0.0
1001
ACME_LAYERS
1000
1
  0
LINE
  5
2FED
330
1F
100
AcDbEntity
  8
P-0000
  6
Continuous
 62
     7
100
AcDbLine
 10
2503.115411121495
 20
1136.828341360339
 30
0.0
 11
2503.115411121495
 21
1136.475347269574
 31
0.0
1001
ACME_LAYERS
1000
1
  0
ARC
  5
2FEE
330
1F
100
AcDbEntity
  8
P-0000
  6
Continuous
 62
     7
100
AcDbCircle
 10
2510.620964620963
 20
1147.007851494067
 30
0.0
 40
12.41944341639904
100
AcDbArc
 50
252.4120462260364
 51
287.5879537739637
1001
ACME_LAYERS
1000
1
  0
ARC
  5
2FEF
330
1F
100
AcDbEntity
  8
P-0000
  6
Continuous
 62
     7
100
AcDbCircle
 10
2510.620964620962
 20
1128.168964661268
 30
0.0
 40
12.41944341639904
100
AcDbArc
 50
72.41204622603635
 51
94.95831806929627
1001
ACME_LAYERS
1000
1
  0
ARC
  5
2FF0
330
1F
100
AcDbEntity
  8
P-0000
  6
Continuous
 62
     7
100
AcDbCircle
 10
2504.991799496362
 20
1137.910977650617
 30
0.0
 40
3.322569572950221
100
AcDbArc
 50
240.626620605164
 51
304.3842474680232
1001
ACME_LAYERS
1000
1
  0
ARC
  5
2FF1
330
1F
100
AcDbEntity
  8
P-0000
  6
Continuous
 62
     7
100
AcDbCircle
 10
2516.250129745559
 20
1137.910977650617
 30
0.0
 40
3.322569572950221
100
AcDbArc
 50
299.373379394836
 51
304.3842474680232
1001
ACME_LAYERS
1000
1
  0
ARC
  5
2FF2
330
1F
100
AcDbEntity
  8
P-0000
  6
Continuous
 62
     7
100
AcDbCircle
 10
2516.250129745559
 20
1137.265838504718
 30
0.0
 40
3.322569572949122
100
AcDbArc
 50
60.62662060516403
 51
124.3842474680231
1001
ACME_LAYERS
1000
1
  0
ARC
  5
2FF3
330
1F
100
AcDbEntity
  8
P-0000
  6
Continuous
 62
     7
100
AcDbCircle
 10
2504.991799496362
 20
1137.910977650617
 30
0.0
 40
3.322569572949876
100
AcDbArc
 50
235.6157525319769
 51
240.626620605164
1001
ACME_LAYERS
1000
1
  0
ARC
  5
2FF4
330
1F
100
AcDbEntity
  8
P-0000
  6
Continuous
 62
     7
100
AcDbCircle
 10
2516.250129745559
 20
1137.910977650617
 30
0.0
 40
3.322569572949872
100
AcDbArc
 50
235.6157525319769
 51
299.373379394836
1001
ACME_LAYERS
1000
1
  0
ARC
  5
2FF5
330
1F
100
AcDbEntity
  8
P-0000
  6
Continuous
 62
     7
100
AcDbCircle
 10
2516.250129745559
 20
1137.265838504718
 30
0.0
 40
3.322569572949884
100
AcDbArc
 50
55.61575253197688
 51
60.62662060516403
1001
ACME_LAYERS
1000
1
  0
HATCH
  5
2FFA
330
1F
100
AcDbEntity
  8
P-0000
  6
Continuous
 62
     1
100
AcDbHatch
 10
0.0
 20
0.0
 30
0.0
210
0.0
220
0.0
230
1.0
  2
_U
 70
     0
 71
     0
 91
        1
 92
        1
 93
       16
 72
     1
 10
2508.319571380618
 20
1152.482756779241
 11
2508.319571380618
 21
1152.433585196259
 72
     1
 10
2508.319571380618
 20
1152.433585196259
 11
2507.819571380617
 21
1152.433585196259
 72
     1
 10
2507.819571380617
 20
1152.433585196259
 11
2507.819571380617
 21
1150.482756779241
 72
     1
 10
2507.819571380617
 20
1150.482756779241
 11
2500.758680212303
 21
1150.482756779241
 72
     2
 10
2500.758680212303
 20
1149.982756779241
 40
0.5
 50
449.9999999999992
 51
539.9999999999992
 73
     1
 72
     1
 10
2500.258680212301
 20
1149.982756779241
 11
2500.258680212301
 21
1137.488408077672
 72
     2
 10
2496.258680212301
 20
1137.488408077672
 40
4.000000000000068
 50
0.0000000000008651
 51
90.00000000000088
 73
     0
 72
     1
 10
2496.258680212301
 20
1133.488408077672
 11
2481.569571380625
 21
1133.488408077672
 72
     1
 10
2481.569571380625
 20
1133.488408077672
 11
2481.569571380625
 21
1135.488408077672
 72
     1
 10
2481.569571380625
 20
1135.488408077672
 11
2496.319571380616
 21
1135.488408077672
 72
     2
 10
2496.319571380616
 20
1137.488408077672
 40
1.999999999999999
 50
269.9999999999992
 51
359.9999999999992
 73
     1
 72
     1
 10
2498.319571380616
 20
1137.488408077672
 11
2498.319571380616
 21
1154.982756779241
 72
     1
 10
2498.319571380616
 20
1154.982756779241
 11
2500.319571380617
 21
1154.982756779241
 72
     1
 10
2500.319571380617
 20
1154.982756779241
 11
2500.319571380617
 21
1152.982756779241
 72
     2
 10
2500.819571380615
 20
1152.982756779241
 40
0.5
 50
539.9999999999992
 51
629.999999999999
 73
     1
 72
     1
 10
2500.819571380615
 20
1152.482756779241
 11
2508.319571380618
 21
1152.482756779241
 97
        0
 75
     0
 76
     0
 52
44.99999999999999
 41
1.0
 77
     0
 78
     1
 53
45.0
 43
0.0174572377131881
 44
-0.0000000000011369
 45
-0.7071067811865475
 46
0.7071067811865476
 79
     0
 98
        1
 10
2467.380462548924
 20
644.0670884361435
1001
ACME_LAYERS
1000
1
1001
ACAD
1010
0.0
1020
0.0
1030
0.0
  0
LINE
  5
2FFB
330
1F
100
AcDbEntity
  8
P-0000
  6
Continuous
 62
     7
100
AcDbLine
 10
2528.319571380626
 20
1154.982756779241
 30
0.0
 11
2525.543868365752
 21
1154.982756779241
 31
0.0
1001
ACME_LAYERS
1000
1
  0
LINE
  5
2FFC
330
1F
100
AcDbEntity
  8
P-0000
  6
Continuous
 62
     7
100
AcDbLine
 10
2508.857291837498
 20
1154.982756779241
 30
0.0
 11
2500.319571380617
 21
1154.982756779241
 31
0.0
1001
ACME_LAYERS
1000
1
  0
LINE
  5
2FFD
330
1F
100
AcDbEntity
  8
P-0000
  6
Continuous
 62
     7
100
AcDbLine
 10
2526.765552374687
 20
1150.482756779241
 30
0.0
 11
2498.258680212301
 21
1134.024306462534
 31
0.0
1001
ACME_LAYERS
1000
1
  0
LINE
  5
2FFE
330
1F
100
AcDbEntity
  8
P-0000
  6
Continuous
 62
     7
100
AcDbLine
 10
2500.758680212303
 20
1150.482756779241
 30
0.0
 11
2507.819571380617
 21
1150.482756779241
 31
0.0
1001
ACME_LAYERS
1000
1
  0
LINE
  5
2FFF
330
1F
100
AcDbEntity
  8
P-0000
  6
Continuous
 62
     7
100
AcDbLine
 10
2508.319571380618
 20
1152.482756779241
 30
0.0
 11
2500.819571380615
 21
1152.482756779241
 31
0.0
1001
ACME_LAYERS
1000
1
  0
LINE
  5
3000
330
1F
100
AcDbEntity
  8
P-0000
  6
Continuous
 62
     7
100
AcDbLine
 10
2593.309811148897
 20
1154.98275677924
 30
0.0
 11
2528.319571380626
 21
1154.982756779241
 31
0.0
1001
ACME_LAYERS
1000
1
  0
LINE
  5
3001
330
1F
100
AcDbEntity
  8
P-0000
  6
Continuous
 62
     7
100
AcDbLine
 10
2593.309811148897
 20
1152.48275677924
 30
0.0
 11
2538.319571380615
 21
1152.48275677924
 31
0.0
1001
ACME_LAYERS
1000
1
  0
LINE
  5
3002
330
1F
100
AcDbEntity
  8
P-0000
  6
Continuous
 62
     7
100
AcDbLine
 10
2583.31957138061
 20
1150.48275677924
 30
0.0
 11
2532.319571380626
 21
1150.482756779241
 31
0.0
1001
ACME_LAYERS
1000
1
  0
LINE
  5
3003
330
1F
100
AcDbEntity
  8
P-0000
  6
Continuous
 62
     7
100
AcDbLine
 10
2582.319571380609
 20
1135.488408077671
 30
0.0
 11
2582.319571380609
 21
1150.48275677924
 31
0.0
1001
ACME_LAYERS
1000
1
  0
LINE
  5
3004
330
1F
100
AcDbEntity
  8
P-0000
  6
Continuous
 62
     7
100
AcDbLine
 10
2591.819571380608
 20
1150.48275677924
 30
0.0
 11
2583.31957138061
 21
1150.48275677924
 31
0.0
1001
ACME_LAYERS
1000
1
  0
LINE
  5
3005
330
1F
100
AcDbEntity
  8
P-0000
  6
Continuous
 62
     7
100
AcDbLine
 10
2592.30981114888
 20
1152.48275677924
 30
0.0
 11
2583.327555573081
 21
1152.48275677924
 31
0.0
1001
ACME_LAYERS
1000
1
  0
LINE
  5
3006
330
1F
100
AcDbEntity
  8
P-0000
  6
Continuous
 62
     7
100
AcDbLine
 10
2593.309811148879
 20
1152.48275677924
 30
0.0
 11
2592.30981114888
 21
1152.48275677924
 31
0.0
1001
ACME_LAYERS
1000
1
  0
LINE
  5
3007
330
1F
100
AcDbEntity
  8
P-0000
  6
Continuous
 62
     7
100
AcDbLine
 10
2593.309811148879
 20
1150.48275677924
 30
0.0
 11
2591.819571380608
 21
1150.48275677924
 31
0.0
1001
ACME_LAYERS
1000
1
  0
HATCH
  5
3008
330
1F
100
AcDbEntity
  8
P-0000
  6
Continuous
 62
     1
100
AcDbHatch
 10
0.0
 20
0.0
 30
0.0
210
0.0
220
0.0
230
1.0
  2
_U
 70
     0
 71
     0
 91
        1
 92
        1
 93
       11
 72
     1
 10
2527.819571380625
 20
1152.482756779241
 11
2516.319571380617
 21
1152.482756779241
 72
     1
 10
2516.319571380617
 20
1152.482756779241
 11
2516.319571380617
 21
1150.482756779241
 72
     1
 10
2516.319571380617
 20
1150.482756779241
 11
2526.765552374687
 21
1150.482756779241
 72
     1
 10
2526.765552374687
 20
1150.482756779241
 11
2532.319571380626
 21
1150.482756779241
 72
     1
 10
2532.319571380626
 20
1150.482756779241
 11
2532.319571380626
 21
1152.482756779241
 72
     1
 10
2532.319571380626
 20
1152.482756779241
 11
2530.819571380626
 21
1152.482756779241
 72
     2
 10
2530.819571380626
 20
1152.982756779241
 40
0.5
 50
-269.9999999999992
 51
-179.9999999999991
 73
     0
 72
     1
 10
2530.319571380625
 20
1152.982756779241
 11
2530.319571380625
 21
1154.982756779241
 72
     1
 10
2530.319571380625
 20
1154.982756779241
 11
2528.319571380626
 21
1154.982756779241
 72
     1
 10
2528.319571380626
 20
1154.982756779241
 11
2528.319571380626
 21
1152.982756779241
 72
     2
 10
2527.819571380625
 20
1152.982756779241
 40
0.5
 50
0.0000000000008651
 51
90.00000000000088
 73
     0
 97
        0
 75
     0
 76
     0
 52
44.99999999999999
 41
1.0
 77
     0
 78
     1
 53
45.0
 43
0.0174572377131881
 44
-0.0000000000011369
 45
-0.7071067811865475
 46
0.7071067811865476
 79
     0
 98
        1
 10
2467.380462548924
 20
644.0670884361435
1001
ACME_LAYERS
1000
1
1001
ACAD
1010
0.0
1020
0.0
1030
0.0
  0
LINE
  5
3009
330
1F
100
AcDbEntity
  8
P-0000
  6
Continuous
 62
     7
100
AcDbLine
 10
2527.819571380625
 20
1152.482756779241
 30
0.0
 11
2516.319571380617
 21
1152.482756779241
 31
0.0
1001
ACME_LAYERS
1000
1
  0
LINE
  5
300A
330
1F
100
AcDbEntity
  8
P-0000
  6
Continuous
 62
     7
100
AcDbLine
 10
2532.319571380626
 20
1150.482756779241
 30
0.0
 11
2526.765552374687
 21
1150.482756779241
 31
0.0
1001
ACME_LAYERS
1000
1
  0
LINE
  5
300B
330
1F
100
AcDbEntity
  8
P-0000
  6
Continuous
 62
     7
100
AcDbLine
 10
2538.319571380615
 20
1152.48275677924
 30
0.0
 11
2532.319571380626
 21
1152.482756779241
 31
0.0
1001
ACME_LAYERS
1000
1
  0
LINE
  5
300C
330
1F
100
AcDbEntity
  8
P-0000
  6
Continuous
 62
     7
100
AcDbLine
 10
2532.319571380626
 20
1150.482756779241
 30
0.0
 11
2532.319571380626
 21
1152.482756779241
 31
0.0
1001
ACME_LAYERS
1000
1
  0
LINE
  5
300D
330
1F
100
AcDbEntity
  8
P-0000
  6
Continuous
 62
     7
100
AcDbLine
 10
2532.319571380626
 20
1152.482756779241
 30
0.0
 11
2530.819571380626
 21
1152.482756779241
 31
0.0
1001
ACME_LAYERS
1000
1
  0
LINE
  5
300E
330
1F
100
AcDbEntity
  8
P-0000
  6
Continuous
 62
     7
100
AcDbLine
 10
2528.319571380626
 20
1152.982756779241
 30
0.0
 11
2528.319571380626
 21
1154.982756779241
 31
0.0
1001
ACME_LAYERS
1000
1
  0
LINE
  5
300F
330
1F
100
AcDbEntity
  8
P-0000
  6
Continuous
 62
     7
100
AcDbLine
 10
2530.319571380625
 20
1152.982756779241
 30
0.0
 11
2530.319571380625
 21
1154.982756779241
 31
0.0
1001
ACME_LAYERS
1000
1
  0
LINE
  5
3010
330
1F
100
AcDbEntity
  8
P-0000
  6
Continuous
 62
     7
100
AcDbLine
 10
2528.319571380626
 20
1154.982756779241
 30
0.0
 11
2530.319571380625
 21
1154.982756779241
 31
0.0
1001
ACME_LAYERS
1000
1
  0
ARC
  5
3011
330
1F
100
AcDbEntity
  8
P-0000
  6
Continuous
 62
     7
100
AcDbCircle
 10
2527.819571380625
 20
1152.982756779241
 30
0.0
 40
0.5
100
AcDbArc
 50
270.0
 51
0.0
1001
ACME_LAYERS
1000
1
  0
ARC
  5
3012
330
1F
100
AcDbEntity
  8
P-0000
  6
Continuous
 62
     7
100
AcDbCircle
 10
2530.819571380626
 20
1152.982756779241
 30
0.0
 40
0.5
100
AcDbArc
 50
180.0
 51
270.0
1001
ACME_LAYERS
1000
1
  0
LINE
  5
3013
330
1F
100
AcDbEntity
  8
P-0000
  6
Continuous
 62
     7
100
AcDbLine
 10
2512.608740775557
 20
1150.482756779241
 30
0.0
 11
2516.319571380617
 21
1150.482756779241
 31
0.0
1001
ACME_LAYERS
1000
1
  0
LINE
  5
3014
330
1F
100
AcDbEntity
  8
P-0000
  6
Continuous
 62
     7
100
AcDbLine
 10
2516.319571380617
 20
1152.482756779241
 30
0.0
 11
2508.319571380618
 21
1152.482756779241
 31
0.0
1001
ACME_LAYERS
1000
1
  0
LINE
  5
3015
330
1F
100
AcDbEntity
  8
P-0000
  6
Continuous
 62
     7
100
AcDbLine
 10
2516.319571380617
 20
1150.482756779241
 30
0.0
 11
2526.765552374687
 21
1150.482756779241
 31
0.0
1001
ACME_LAYERS
1000
1
  0
LINE
  5
3016
330
1F
100
AcDbEntity
  8
P-0000
  6
Continuous
 62
     7
100
AcDbLine
 10
2516.319571380617
 20
1152.482756779241
 30
0.0
 11
2516.319571380617
 21
1150.482756779241
 31
0.0
1001
ACME_LAYERS
1000
1
  0
LINE
  5
3017
330
1F
100
AcDbEntity
  8
P-0000
  6
Continuous
 62
     7
100
AcDbLine
 10
2510.809811148896
 20
1152.482756779241
 30
0.0
 11
2509.809811148894
 21
1152.482756779241
 31
0.0
1001
ACME_LAYERS
1000
1
  0
LINE
  5
3018
330
1F
100
AcDbEntity
  8
P-0000
  6
Continuous
 62
     7
100
AcDbLine
 10
2510.809811148896
 20
1152.482756779241
 30
0.0
 11
2509.809811148894
 21
1152.482756779241
 31
0.0
1001
ACME_LAYERS
1000
1
  0
LINE
  5
3019
330
1F
100
AcDbEntity
  8
P-0000
  6
Continuous
 62
     7
100
AcDbLine
 10
2471.569571380626
 20
1135.488408077673
 30
0.0
 11
2481.569571380625
 21
1135.488408077672
 31
0.0
1001
ACME_LAYERS
1000
1
  0
LINE
  5
301A
330
1F
100
AcDbEntity
  8
P-0000
  6
Continuous
 62
     7
100
AcDbLine
 10
2471.569571380626
 20
1133.488408077672
 30
0.0
 11
2481.569571380625
 21
1133.488408077672
 31
0.0
1001
ACME_LAYERS
1000
1
  0
LINE
  5
301B
330
1F
100
AcDbEntity
  8
P-0000
  6
Continuous
 62
     7
100
AcDbLine
 10
2500.258680212301
 20
1137.488408077672
 30
0.0
 11
2500.258680212301
 21
1149.982756779241
 31
0.0
1001
ACME_LAYERS
1000
1
  0
LINE
  5
301C
330
1F
100
AcDbEntity
  8
P-0000
  6
Continuous
 62
     7
100
AcDbLine
 10
2498.319571380616
 20
1137.488408077672
 30
0.0
 11
2498.319571380616
 21
1152.482756779241
 31
0.0
1001
ACME_LAYERS
1000
1
  0
LINE
  5
301D
330
1F
100
AcDbEntity
  8
P-0000
  6
Continuous
 62
     7
100
AcDbLine
 10
2488.507879583063
 20
1135.488408077672
 30
0.0
 11
2498.319571380616
 21
1152.482756779241
 31
0.0
1001
ACME_LAYERS
1000
1
  0
LINE
  5
301E
330
1F
100
AcDbEntity
  8
P-0000
  6
Continuous
 62
     7
100
AcDbLine
 10
2498.319571380616
 20
1154.982756779241
 30
0.0
 11
2500.319571380617
 21
1154.982756779241
 31
0.0
1001
ACME_LAYERS
1000
1
  0
LINE
  5
301F
330
1F
100
AcDbEntity
  8
P-0000
  6
Continuous
 62
     7
100
AcDbLine
 10
2500.319571380617
 20
1154.982756779241
 30
0.0
 11
2500.319571380617
 21
1152.982756779241
 31
0.0
1001
ACME_LAYERS
1000
1
  0
ARC
  5
3020
330
1F
100
AcDbEntity
  8
P-0000
  6
Continuous
 62
     7
100
AcDbCircle
 10
2500.819571380615
 20
1152.982756779241
 30
0.0
 40
0.5
100
AcDbArc
 50
180.0
 51
270.0
1001
ACME_LAYERS
1000
1
  0
ARC
  5
3021
330
1F
100
AcDbEntity
  8
P-0000
  6
Continuous
 62
     7
100
AcDbCircle
 10
2500.758680212303
 20
1149.982756779241
 30
0.0
 40
0.5
100
AcDbArc
 50
90.0
 51
180.0
1001
ACME_LAYERS
1000
1
  0
LINE
  5
3022
330
1F
100
AcDbEntity
  8
P-0000
  6
Continuous
 62
     7
100
AcDbLine
 10
2498.319571380616
 20
1154.982756779241
 30
0.0
 11
2498.319571380616
 21
1152.482756779241
 31
0.0
1001
ACME_LAYERS
1000
1
  0
LINE
  5
3023
330
1F
100
AcDbEntity
  8
P-0000
  6
Continuous
 62
     7
100
AcDbLine
 10
2488.507879583063
 20
1135.488408077672
 30
0.0
 11
2496.319571380616
 21
1135.488408077672
 31
0.0
1001
ACME_LAYERS
1000
1
  0
LINE
  5
3024
330
1F
100
AcDbEntity
  8
P-0000
  6
Continuous
 62
     7
100
AcDbLine
 10
2481.569571380625
 20
1133.488408077672
 30
0.0
 11
2496.258680212301
 21
1133.488408077672
 31
0.0
1001
ACME_LAYERS
1000
1
  0
ARC
  5
3025
330
1F
100
AcDbEntity
  8
P-0000
  6
Continuous
 62
     7
100
AcDbCircle
 10
2496.319571380616
 20
1137.488408077672
 30
0.0
 40
2.0
100
AcDbArc
 50
270.0
 51
0.0
1001
ACME_LAYERS
1000
1
  0
ARC
  5
3026
330
1F
100
AcDbEntity
  8
P-0000
  6
Continuous
 62
     7
100
AcDbCircle
 10
2496.258680212301
 20
1137.488408077672
 30
0.0
 40
4.0
100
AcDbArc
 50
299.9999999999965
 51
0.0
1001
ACME_LAYERS
1000
1
  0
ARC
  5
3027
330
1F
100
AcDbEntity
  8
P-0000
  6
Continuous
 62
     7
100
AcDbCircle
 10
2496.258680212301
 20
1137.488408077672
 30
0.0
 40
4.000000000000031
100
AcDbArc
 50
270.0
 51
299.9999999999965
1001
ACME_LAYERS
1000
1
  0
LINE
  5
3028
330
1F
100
AcDbEntity
  8
P-0000
  6
Continuous
 62
     7
100
AcDbLine
 10
2481.569571380625
 20
1135.488408077672
 30
0.0
 11
2488.507879583063
 21
1135.488408077672
 31
0.0
1001
ACME_LAYERS
1000
1
  0
LINE
  5
3029
330
1F
100
AcDbEntity
  8
P-0000
  6
Continuous
 62
     7
100
AcDbLine
 10
2481.569571380625
 20
1133.488408077672
 30
0.0
 11
2481.569571380625
 21
1135.488408077672
 31
0.0
1001
ACME_LAYERS
1000
1
  0
LINE
  5
302A
330
1F
100
AcDbEntity
  8
AM_7
  6
AM_DIN_G_W050x2
100
AcDbLine
 10
2476.569571380625
 20
1127.488408077673
 30
0.0
 11
2476.569571380625
 21
1141.488408077672
 31
0.0
1001
ACME_LAYERS
1000
1
  0
HATCH
  5
302B
330
1F
100
AcDbEntity
  8
P-0000
  6
Continuous
 62
     1
100
AcDbHatch
 10
0.0
 20
0.0
 30
0.0
210
0.0
220
0.0
230
1.0
  2
_U
 70
     0
 71
     0
 91
        1
 92
        1
 93
        4
 72
     1
 10
2466.569571380626
 20
1133.488408077672
 11
2471.569571380626
 21
1133.488408077672
 72
     1
 10
2471.569571380626
 20
1133.488408077672
 11
2471.569571380626
 21
1135.488408077673
 72
     1
 10
2471.569571380626
 20
1135.488408077673
 11
2466.569571380626
 21
1135.488408077673
 72
     1
 10
2466.569571380626
 20
1135.488408077673
 11
2466.569571380626
 21
1133.488408077672
 97
        0
 75
     0
 76
     0
 52
-45.0
 41
2.0
 77
     0
 78
     1
 53
224.9999999999992
 43
2467.380462548924
 44
644.0670884361435
 45
-1.41421356237307
 46
1.414213562373115
 79
     0
 98
        1
 10
2467.380462548924
 20
644.0670884361435
1001
ACME_LAYERS
1000
1
  0
LINE
  5
302C
330
1F
100
AcDbEntity
  8
P-0000
  6
Continuous
 62
     7
100
AcDbLine
 10
2466.569571380626
 20
1135.488408077673
 30
0.0
 11
2471.569571380626
 21
1135.488408077673
 31
0.0
1001
ACME_LAYERS
1000
1
  0
LINE
  5
302D
330
1F
100
AcDbEntity
  8
P-0000
  6
Continuous
 62
     7
100
AcDbLine
 10
2466.569571380626
 20
1133.488408077672
 30
0.0
 11
2471.569571380626
 21
1133.488408077672
 31
0.0
1001
ACME_LAYERS
1000
1
  0
LINE
  5
302E
330
1F
100
AcDbEntity
  8
P-0000
  6
Continuous
 62
     7
100
AcDbLine
 10
2471.569571380626
 20
1133.488408077672
 30
0.0
 11
2471.569571380626
 21
1135.488408077673
 31
0.0
1001
ACME_LAYERS
1000
1
  0
LINE
  5
302F
330
1F
100
AcDbEntity
  8
P-0000
  6
Continuous
 62
     7
100
AcDbLine
 10
2466.569571380626
 20
1133.488408077672
 30
0.0
 11
2466.569571380626
 21
1135.488408077673
 31
0.0
1001
ACME_LAYERS
1000
1
  0
LINE
  5
3030
330
1F
100
AcDbEntity
  8
P-0000
  6
Continuous
 62
     7
100
AcDbLine
 10
2591.819571380617
 20
1194.433585196257
 30
0.0
 11
2591.819571380617
 21
1158.433585196258
 31
0.0
1001
ACME_LAYERS
1000
1
  0
LINE
  5
3031
330
1F
100
AcDbEntity
  8
P-0000
  6
Continuous
 62
     7
100
AcDbLine
 10
2516.871900969638
 20
1177.002714395548
 30
0.0
 11
2515.893111753352
 21
1174.3135131254
 31
0.0
1001
ACME_LAYERS
1000
1
  0
LINE
  5
3032
330
1F
100
AcDbEntity
  8
P-0000
  6
Continuous
 62
     7
100
AcDbLine
 10
2525.543868365752
 20
1158.433585196259
 30
0.0
 11
2538.646796799338
 21
1194.433585196257
 31
0.0
1001
ACME_LAYERS
1000
1
  0
LINE
  5
3033
330
1F
100
AcDbEntity
  8
P-0000
  6
Continuous
 62
     7
100
AcDbLine
 10
2591.819571380617
 20
1200.40323429589
 30
0.0
 11
2540.819571380617
 21
1200.40323429589
 31
0.0
1001
ACME_LAYERS
1000
1
  0
LINE
  5
3034
330
1F
100
AcDbEntity
  8
P-0000
  6
Continuous
 62
     7
100
AcDbLine
 10
2591.819571380617
 20
1200.40323429589
 30
0.0
 11
2540.819571380617
 21
1200.40323429589
 31
0.0
1001
ACME_LAYERS
1000
1
  0
LINE
  5
3035
330
1F
100
AcDbEntity
  8
P-0000
  6
Continuous
 62
     7
100
AcDbLine
 10
2545.449578459068
 20
1232.433585196259
 30
0.0
 11
2552.477665701456
 21
1232.433585196259
 31
0.0
1001
ACME_LAYERS
1000
1
  0
LINE
  5
3036
330
1F
100
AcDbEntity
  8
P-0000
  6
Continuous
 62
     7
100
AcDbLine
 10
2539.819571380617
 20
1194.433585196257
 30
0.0
 11
2591.819571380617
 21
1194.433585196257
 31
0.0
1001
ACME_LAYERS
1000
1
  0
LINE
  5
3037
330
1F
100
AcDbEntity
  8
P-0000
  6
Continuous
 62
     7
100
AcDbLine
 10
2547.018112187461
 20
1217.433585196257
 30
0.0
 11
2589.215408324583
 21
1217.433585196257
 31
0.0
1001
ACME_LAYERS
1000
1
  0
LINE
  5
3038
330
1F
100
AcDbEntity
  8
P-0000
  6
Continuous
 62
     7
100
AcDbLine
 10
2591.819571380617
 20
1217.433585196257
 30
0.0
 11
2591.819571380617
 21
1200.40323429589
 31
0.0
1001
ACME_LAYERS
1000
1
  0
LINE
  5
3039
330
1F
100
AcDbEntity
  8
P-0000
  6
Continuous
 62
     7
100
AcDbLine
 10
2554.606021246407
 20
1232.433585196258
 30
0.0
 11
2589.215408324584
 21
1232.433585196258
 31
0.0
1001
ACME_LAYERS
1000
1
  0
LINE
  5
303A
330
1F
100
AcDbEntity
  8
P-0000
  6
Continuous
 62
     7
100
AcDbLine
 10
2589.215408324584
 20
1232.433585196258
 30
0.0
 11
2589.215408324583
 21
1217.433585196257
 31
0.0
1001
ACME_LAYERS
1000
1
  0
LINE
  5
303B
330
1F
100
AcDbEntity
  8
P-0000
  6
Continuous
 62
     7
100
AcDbLine
 10
2589.215408324584
 20
1232.433585196258
 30
0.0
 11
2593.319571380617
 21
1232.433585196258
 31
0.0
1001
ACME_LAYERS
1000
1
  0
LINE
  5
303C
330
1F
100
AcDbEntity
  8
P-0000
  6
Continuous
 62
     7
100
AcDbLine
 10
2589.215408324583
 20
1217.433585196257
 30
0.0
 11
2591.819571380617
 21
1217.433585196257
 31
0.0
1001
ACME_LAYERS
1000
1
  0
LINE
  5
303D
330
1F
100
AcDbEntity
  8
P-0000
  6
Continuous
 62
     7
100
AcDbLine
 10
2591.819571380617
 20
1217.433585196257
 30
0.0
 11
2593.319571380617
 21
1217.433585196257
 31
0.0
1001
ACME_LAYERS
1000
1
  0
HATCH
  5
303E
330
1F
100
AcDbEntity
  8
P-0000
  6
Continuous
 62
     1
100
AcDbHatch
 10
0.0
 20
0.0
 30
0.0
210
0.0
220
0.0
230
1.0
  2
_U
 70
     0
 71
     0
 91
        1
 92
        1
 93
        5
 72
     1
 10
2551.021784764389
 20
1228.433585196259
 11
2552.477665701456
 21
1232.433585196259
 72
     1
 10
2552.477665701456
 20
1232.433585196259
 11
2554.606021246407
 21
1232.433585196259
 72
     1
 10
2554.606021246407
 20
1232.433585196258
 11
2553.389625391919
 21
1229.091565052932
 72
     2
 10
2552.449932771132
 20
1229.433585196258
 40
1.000000000000015
 50
20.00000000000397
 51
90.00000000000088
 73
     0
 72
     1
 10
2552.449932771131
 20
1228.433585196259
 11
2551.021784764389
 21
1228.433585196259
 97
        0
 75
     0
 76
     0
 52
44.99999999999999
 41
1.0
 77
     0
 78
     1
 53
45.0
 43
0.0174572377131881
 44
-0.0000000000011369
 45
-0.7071067811865475
 46
0.7071067811865476
 79
     0
 98
        1
 10
2467.370702317203
 20
663.9547295279051
1001
ACME_LAYERS
1000
1
1001
ACAD
1010
0.0
1020
0.0
1030
0.0
  0
LINE
  5
303F
330
1F
100
AcDbEntity
  8
P-0000
  6
Continuous
 62
     7
100
AcDbLine
 10
2553.389625391919
 20
1229.091565052932
 30
0.0
 11
2554.606021246407
 21
1232.433585196258
 31
0.0
1001
ACME_LAYERS
1000
1
  0
LINE
  5
3040
330
1F
100
AcDbEntity
  8
P-0000
  6
Continuous
 62
     7
100
AcDbLine
 10
2551.021784764389
 20
1228.433585196259
 30
0.0
 11
2552.477665701456
 21
1232.433585196259
 31
0.0
1001
ACME_LAYERS
1000
1
  0
LINE
  5
3041
330
1F
100
AcDbEntity
  8
P-0000
  6
Continuous
 62
     7
100
AcDbLine
 10
2552.477665701456
 20
1232.433585196259
 30
0.0
 11
2554.606021246407
 21
1232.433585196258
 31
0.0
1001
ACME_LAYERS
1000
1
  0
ARC
  5
3042
330
1F
100
AcDbEntity
  8
P-0000
  6
Continuous
 62
     7
100
AcDbCircle
 10
2552.449932771132
 20
1229.433585196258
 30
0.0
 40
1.000000000000015
100
AcDbArc
 50
270.0
 51
339.999999999998
1001
ACME_LAYERS
1000
1
  0
ARC
  5
3043
330
1F
100
AcDbEntity
  8
P-0000
  6
Continuous
 62
     7
100
AcDbCircle
 10
2552.449932771132
 20
1229.433585196258
 30
0.0
 40
1.000000000000015
100
AcDbArc
 50
270.0
 51
339.999999999998
1001
ACME_LAYERS
1000
1
  0
LINE
  5
3044
330
1F
100
AcDbEntity
  8
P-0000
  6
Continuous
 62
     7
100
AcDbLine
 10
2551.021784764389
 20
1228.433585196259
 30
0.0
 11
2552.449932771131
 21
1228.433585196259
 31
0.0
1001
ACME_LAYERS
1000
1
  0
LINE
  5
3045
330
1F
100
AcDbEntity
  8
P-0000
  6
Continuous
 62
     7
100
AcDbLine
 10
2591.819571380617
 20
1194.433585196257
 30
0.0
 11
2593.319571380617
 21
1194.433585196257
 31
0.0
1001
ACME_LAYERS
1000
1
  0
LINE
  5
3046
330
1F
100
AcDbEntity
  8
P-0000
  6
Continuous
 62
     7
100
AcDbLine
 10
2534.173267009637
 20
1224.537826916167
 30
0.0
 11
2516.871900969638
 21
1177.002714395548
 31
0.0
1001
ACME_LAYERS
1000
1
  0
LINE
  5
3047
330
1F
100
AcDbEntity
  8
P-0000
  6
Continuous
 62
     7
100
AcDbLine
 10
2540.819571380617
 20
1200.40323429589
 30
0.0
 11
2547.018112187461
 21
1217.433585196257
 31
0.0
1001
ACME_LAYERS
1000
1
  0
ARC
  5
3048
330
1F
100
AcDbEntity
  8
P-0000
  6
Continuous
 62
     7
100
AcDbCircle
 10
2545.449578459068
 20
1220.433585196258
 30
0.0
 40
11.99999999999995
100
AcDbArc
 50
90.0
 51
159.9999999999981
1001
ACME_LAYERS
1000
1
  0
HATCH
  5
3049
330
1F
100
AcDbEntity
  8
P-0000
  6
Continuous
 62
     3
100
AcDbHatch
 10
0.0
 20
0.0
 30
0.0
210
0.0
220
0.0
230
1.0
  2
_U
 70
     0
 71
     0
 91
        1
 92
        1
 93
        4
 72
     1
 10
2538.646796799338
 20
1194.433585196257
 11
2540.819571380617
 21
1200.40323429589
 72
     1
 10
2540.819571380617
 20
1200.40323429589
 11
2540.819571380617
 21
1195.433585196258
 72
     2
 10
2539.819571380617
 20
1195.433585196258
 40
1.0
 50
0.0000000000008651
 51
90.00000000000088
 73
     0
 72
     1
 10
2539.819571380617
 20
1194.433585196257
 11
2538.646796799338
 21
1194.433585196257
 97
        0
 75
     0
 76
     0
 52
44.99999999999999
 41
1.0
 77
     0
 78
     1
 53
45.0
 43
0.0174572377131881
 44
-0.0000000000011369
 45
-0.7071067811865475
 46
0.7071067811865476
 79
     0
 98
        1
 10
2467.370702317203
 20
663.9547295279051
1001
ACME_LAYERS
1000
1
1001
ACAD
1010
0.0
1020
0.0
1030
0.0
  0
LINE
  5
304A
330
1F
100
AcDbEntity
  8
P-0000
  6
Continuous
 62
     7
100
AcDbLine
 10
2538.646796799338
 20
1194.433585196257
 30
0.0
 11
2539.819571380617
 21
1194.433585196257
 31
0.0
1001
ACME_LAYERS
1000
1
  0
LINE
  5
304B
330
1F
100
AcDbEntity
  8
P-0000
  6
Continuous
 62
     7
100
AcDbLine
 10
2538.646796799338
 20
1194.433585196257
 30
0.0
 11
2540.819571380617
 21
1200.40323429589
 31
0.0
1001
ACME_LAYERS
1000
1
  0
LINE
  5
304C
330
1F
100
AcDbEntity
  8
P-0000
  6
Continuous
 62
     7
100
AcDbLine
 10
2540.819571380617
 20
1195.433585196258
 30
0.0
 11
2540.819571380617
 21
1200.40323429589
 31
0.0
1001
ACME_LAYERS
1000
1
  0
LINE
  5
304D
330
1F
100
AcDbEntity
  8
P-0000
  6
Continuous
 62
     7
100
AcDbLine
 10
2540.819571380617
 20
1195.433585196258
 30
0.0
 11
2540.819571380617
 21
1200.40323429589
 31
0.0
1001
ACME_LAYERS
1000
1
  0
ARC
  5
304E
330
1F
100
AcDbEntity
  8
P-0000
  6
Continuous
 62
     7
100
AcDbCircle
 10
2539.819571380617
 20
1195.433585196258
 30
0.0
 40
1.0
100
AcDbArc
 50
270.0
 51
0.0
1001
ACME_LAYERS
1000
1
  0
ARC
  5
304F
330
1F
100
AcDbEntity
  8
P-0000
  6
Continuous
 62
     7
100
AcDbCircle
 10
2539.819571380617
 20
1195.433585196258
 30
0.0
 40
1.0
100
AcDbArc
 50
270.0
 51
0.0
1001
ACME_LAYERS
1000
1
  0
LINE
  5
3050
330
1F
100
AcDbEntity
  8
P-0000
  6
Continuous
 62
     7
100
AcDbLine
 10
2591.819571380617
 20
1158.433585196258
 30
0.0
 11
2525.543868365752
 21
1158.433585196259
 31
0.0
1001
ACME_LAYERS
1000
1
  0
LINE
  5
3051
330
1F
100
AcDbEntity
  8
P-0000
  6
Continuous
 62
     7
100
AcDbLine
 10
2591.819571380617
 20
1158.433585196258
 30
0.0
 11
2525.543868365752
 21
1158.433585196259
 31
0.0
1001
ACME_LAYERS
1000
1
  0
LINE
  5
3052
330
1F
100
AcDbEntity
  8
P-0000
  6
Continuous
 62
     7
100
AcDbLine
 10
2591.819571380617
 20
1158.433585196258
 30
0.0
 11
2525.543868365752
 21
1158.433585196259
 31
0.0
1001
ACME_LAYERS
1000
1
  0
LINE
  5
3053
330
1F
100
AcDbEntity
  8
P-0000
  6
Continuous
 62
     7
100
AcDbLine
 10
2525.543868365752
 20
1152.433585196259
 30
0.0
 11
2591.819571380617
 21
1152.433585196257
 31
0.0
1001
ACME_LAYERS
1000
1
  0
LINE
  5
3054
330
1F
100
AcDbEntity
  8
P-0000
  6
Continuous
 62
     7
100
AcDbLine
 10
2593.319571380617
 20
1158.433585196258
 30
0.0
 11
2591.819571380617
 21
1158.433585196258
 31
0.0
1001
ACME_LAYERS
1000
1
  0
LINE
  5
3055
330
1F
100
AcDbEntity
  8
P-0000
  6
Continuous
 62
     7
100
AcDbLine
 10
2593.319571380617
 20
1158.433585196258
 30
0.0
 11
2591.819571380617
 21
1158.433585196258
 31
0.0
1001
ACME_LAYERS
1000
1
  0
LINE
  5
3056
330
1F
100
AcDbEntity
  8
P-0000
  6
Continuous
 62
     7
100
AcDbLine
 10
2593.319571380617
 20
1158.433585196258
 30
0.0
 11
2591.819571380617
 21
1158.433585196258
 31
0.0
1001
ACME_LAYERS
1000
1
  0
LINE
  5
3057
330
1F
100
AcDbEntity
  8
P-0000
  6
Continuous
 62
     7
100
AcDbLine
 10
2591.819571380617
 20
1152.433585196257
 30
0.0
 11
2593.319571380617
 21
1152.433585196257
 31
0.0
1001
ACME_LAYERS
1000
1
  0
LINE
  5
3058
330
1F
100
AcDbEntity
  8
P-0000
  6
Continuous
 62
     7
100
AcDbLine
 10
2515.893111753352
 20
1174.3135131254
 30
0.0
 11
2508.319571380618
 21
1153.505381965983
 31
0.0
1001
ACME_LAYERS
1000
1
  0
LINE
  5
3059
330
1F
100
AcDbEntity
  8
P-0000
  6
Continuous
 62
     7
100
AcDbLine
 10
2514.319571380617
 20
1152.433585196259
 30
0.0
 11
2522.543868365751
 21
1152.433585196259
 31
0.0
1001
ACME_LAYERS
1000
1
  0
LINE
  5
305A
330
1F
100
AcDbEntity
  8
P-0000
  6
Continuous
 62
     7
100
AcDbLine
 10
2522.543868365751
 20
1152.433585196259
 30
0.0
 11
2522.543868365751
 21
1158.433585196259
 31
0.0
1001
ACME_LAYERS
1000
1
  0
LINE
  5
305B
330
1F
100
AcDbEntity
  8
P-0000
  6
Continuous
 62
     7
100
AcDbLine
 10
2525.543868365752
 20
1152.433585196259
 30
0.0
 11
2525.543868365752
 21
1158.433585196259
 31
0.0
1001
ACME_LAYERS
1000
1
  0
LINE
  5
305C
330
1F
100
AcDbEntity
  8
P-0000
  6
Continuous
 62
     7
100
AcDbLine
 10
2525.543868365752
 20
1158.433585196259
 30
0.0
 11
2522.543868365751
 21
1158.433585196259
 31
0.0
1001
ACME_LAYERS
1000
1
  0
LINE
  5
305D
330
1F
100
AcDbEntity
  8
P-0000
  6
Continuous
 62
     7
100
AcDbLine
 10
2525.543868365752
 20
1158.433585196259
 30
0.0
 11
2522.543868365751
 21
1158.433585196259
 31
0.0
1001
ACME_LAYERS
1000
1
  0
LINE
  5
305E
330
1F
100
AcDbEntity
  8
P-0000
  6
Continuous
 62
     7
100
AcDbLine
 10
2522.543868365751
 20
1152.433585196259
 30
0.0
 11
2525.543868365752
 21
1152.433585196259
 31
0.0
1001
ACME_LAYERS
1000
1
  0
LINE
  5
305F
330
1F
100
AcDbEntity
  8
P-0000
  6
Continuous
 62
     7
100
AcDbLine
 10
2507.819571380617
 20
1150.233585196258
 30
0.0
 11
2507.819571380617
 21
1152.433585196259
 31
0.0
1001
ACME_LAYERS
1000
1
  0
LINE
  5
3060
330
1F
100
AcDbEntity
  8
P-0000
  6
Continuous
 62
     7
100
AcDbLine
 10
2509.095801647168
 20
1146.477017427466
 30
0.0
 11
2514.319571380617
 21
1152.433585196259
 31
0.0
1001
ACME_LAYERS
1000
1
  0
LINE
  5
3061
330
1F
100
AcDbEntity
  8
P-0000
  6
Continuous
 62
     7
100
AcDbLine
 10
2508.319571380618
 20
1152.433585196259
 30
0.0
 11
2508.319571380618
 21
1153.505381965983
 31
0.0
1001
ACME_LAYERS
1000
1
  0
LINE
  5
3062
330
1F
100
AcDbEntity
  8
P-0000
  6
Continuous
 62
     7
100
AcDbLine
 10
2507.819571380617
 20
1152.433585196259
 30
0.0
 11
2508.319571380618
 21
1152.433585196259
 31
0.0
1001
ACME_LAYERS
1000
1
  0
LINE
  5
3063
330
1F
100
AcDbEntity
  8
P-0000
  6
Continuous
 62
     7
100
AcDbLine
 10
2508.319571380618
 20
1152.433585196259
 30
0.0
 11
2508.319571380618
 21
1153.505381965983
 31
0.0
1001
ACME_LAYERS
1000
1
  0
LINE
  5
3064
330
1F
100
AcDbEntity
  8
P-0000
  6
Continuous
 62
     7
100
AcDbLine
 10
2506.619571380618
 20
1148.733585196259
 30
0.0
 11
2508.178398572689
 21
1146.536043425059
 31
0.0
1001
ACME_LAYERS
1000
1
  0
LINE
  5
3065
330
1F
100
AcDbEntity
  8
P-0000
  6
Continuous
 62
     7
100
AcDbLine
 10
2507.819571380617
 20
1150.233585196258
 30
0.0
 11
2506.619571380618
 21
1150.233585196258
 31
0.0
1001
ACME_LAYERS
1000
1
  0
LINE
  5
3066
330
1F
100
AcDbEntity
  8
P-0000
  6
Continuous
 62
     7
100
AcDbLine
 10
2506.619571380618
 20
1150.233585196258
 30
0.0
 11
2506.619571380618
 21
1148.733585196259
 31
0.0
1001
ACME_LAYERS
1000
1
  0
ARC
  5
3067
330
1F
100
AcDbEntity
  8
P-0000
  6
Continuous
 62
     7
100
AcDbCircle
 10
2508.667778374772
 20
1146.883185196259
 30
0.0
 40
0.6000000000000229
100
AcDbArc
 50
215.3499999999979
 51
270.0
1001
ACME_LAYERS
1000
1
  0
ARC
  5
3068
330
1F
100
AcDbEntity
  8
P-0000
  6
Continuous
 62
     7
100
AcDbCircle
 10
2508.668004796711
 20
1146.852185196258
 30
0.0
 40
0.5689999999999894
100
AcDbArc
 50
270.0
 51
318.749999999999
1001
ACME_LAYERS
1000
1
  0
LINE
  5
3069
330
1F
100
AcDbEntity
  8
P-0000
  6
Continuous
 62
     7
100
AcDbLine
 10
2508.667778374772
 20
1146.283185196258
 30
0.0
 11
2508.668004796711
 21
1146.283185196258
 31
0.0
1001
ACME_LAYERS
1000
1
  0
HATCH
  5
306A
330
1F
100
AcDbEntity
  8
P-0000
  6
Continuous
 62
     1
100
AcDbHatch
 10
0.0
 20
0.0
 30
0.0
210
0.0
220
0.0
230
1.0
  2
_U
 70
     0
 71
     0
 91
        1
 92
        1
 93
        4
 72
     1
 10
2522.543868365751
 20
1158.433585196259
 11
2525.543868365752
 21
1158.433585196259
 72
     1
 10
2525.543868365752
 20
1158.433585196259
 11
2525.543868365752
 21
1152.433585196259
 72
     1
 10
2525.543868365752
 20
1152.433585196259
 11
2522.543868365751
 21
1152.433585196259
 72
     1
 10
2522.543868365751
 20
1152.433585196259
 11
2522.543868365751
 21
1158.433585196259
 97
        0
 75
     0
 76
     0
 52
44.99999999999999
 41
1.0
 77
     0
 78
     1
 53
45.0
 43
0.0174572377131881
 44
-0.0000000000011369
 45
-0.7071067811865475
 46
0.7071067811865476
 79
     0
 98
        1
 10
2765.91059861668
 20
1270.931668228234
1001
ACAD
1010
0.0
1020
0.0
1030
0.0
1001
GENIUS_GENODEF_13
1002
{
1000
HIER
1070
     0
1002
}
1002
{
1000
MANEDIT
1070
     0
1002
}
1002
{
1000
NOSEL
1070
     0
1002
}
1002
{
1000
BEHIND
1070
     0
1002
}
1002
{
1000
OTHER
1070
     0
1002
}
1002
{
1000
REACTOR
1002
}
1001
GENIUS_GENOBJ-N-HTC_13
1002
{
1000
OWNER
1000
GEN
1002
}
1001
GENIUS_GENHATCH_13
1002
{
1000
DATA
1040
135.0
1042
-1.0
1000
_U
1070
     0
1011
2524.774891550304
1021
1152.892172242777
1031
0.0
1002
}
1002
{
1000
UCS
1010
0.0
1020
0.0
1030
0.0
1010
1.0
1020
0.0
1030
0.0
1010
0.0
1020
1.0
1030
0.0
1002
}
  0
LWPOLYLINE
  5
306B
330
1F
100
AcDbEntity
  8
0
100
AcDbPolyline
 90
        5
 70
     0
 43
0.0
 10
2589.215408324584
 20
1232.433585196258
 10
2596.441191674379
 20
1232.433585196258
 10
2596.441191674379
 20
1217.433585196257
 10
2589.215408324583
 20
1217.433585196257
 10
2589.215408324584
 20
1232.433585196258
  0
HATCH
  5
306C
330
1F
100
AcDbEntity
  8
AM_8
100
AcDbHatch
 10
0.0
 20
0.0
 30
0.0
210
0.0
220
0.0
230
1.0
  2
_U
 70
     0
 71
     0
 91
        1
 92
        1
 93
        4
 72
     1
 10
2596.441191674379
 20
1217.433585196257
 11
2596.441191674379
 21
1232.433585196258
 72
     1
 10
2596.441191674379
 20
1232.433585196258
 11
2592.828299999482
 21
1232.433585196258
 72
     1
 10
2592.828299999482
 20
1232.433585196258
 11
2592.828299999482
 21
1217.433585196257
 72
     1
 10
2592.828299999482
 20
1217.433585196257
 11
2596.441191674379
 21
1217.433585196257
 97
        0
 75
     0
 76
     0
 52
45.0
 41
2.5
 77
     0
 78
     1
 53
45.0
 43
0.0174572377131881
 44
-0.0000000000011369
 45
-1.767766952966368
 46
1.767766952966368
 79
     0
 98
        1
 10
0.0174572377131881
 20
-0.0000000000011369
1001
GENIUS_GENOBJ-N-HTC_13
1002
{
1000
OWNER
1000
GEN
1002
}
1001
GENIUS_GENODEF_13
1002
{
1000
HIER
1070
     0
1002
}
1002
{
1000
MANEDIT
1070
     0
1002
}
1002
{
1000
NOSEL
1070
     0
1002
}
1002
{
1000
BEHIND
1070
     0
1002
}
1002
{
1000
OTHER
1070
     0
1002
}
1002
{
1000
REACTOR
1002
}
1001
GENIUS_GENHATCH_13
1002
{
1000
DATA
1040
45.0
1042
2.5
1000
_U
1070
     0
1011
2593.740014663139
1021
1223.89728218137
1031
0.0
1002
}
1002
{
1000
UCS
1010
0.0
1020
0.0
1030
0.0
1010
1.0
1020
0.0
1030
0.0
1010
0.0
1020
1.0
1030
0.0
1002
}
  0
HATCH
  5
306D
330
1F
100
AcDbEntity
  8
AM_8
100
AcDbHatch
 10
0.0
 20
0.0
 30
0.0
210
0.0
220
0.0
230
1.0
  2
_U
 70
     0
 71
     0
 91
        1
 92
        1
 93
        4
 72
     1
 10
2592.828299999482
 20
1217.433585196257
 11
2592.828299999482
 21
1232.433585196258
 72
     1
 10
2592.828299999482
 20
1232.433585196258
 11
2589.215408324584
 21
1232.433585196258
 72
     1
 10
2589.215408324584
 20
1232.433585196258
 11
2589.215408324583
 21
1217.433585196257
 72
     1
 10
2589.215408324583
 20
1217.433585196257
 11
2592.828299999482
 21
1217.433585196257
 97
        0
 75
     0
 76
     0
 52
45.0
 41
2.5
 77
     0
 78
     1
 53
45.0
 43
0.0174572377131881
 44
-0.0000000000011369
 45
-1.767766952966368
 46
1.767766952966368
 79
     0
 98
        1
 10
0.0174572377131881
 20
-0.0000000000011369
1001
GENIUS_GENOBJ-N-HTC_13
1002
{
1000
OWNER
1000
GEN
1002
}
1001
GENIUS_GENODEF_13
1002
{
1000
HIER
1070
     0
1002
}
1002
{
1000
MANEDIT
1070
     0
1002
}
1002
{
1000
NOSEL
1070
     0
1002
}
1002
{
1000
BEHIND
1070
     0
1002
}
1002
{
1000
OTHER
1070
     0
1002
}
1002
{
1000
REACTOR
1002
}
1001
GENIUS_GENHATCH_13
1002
{
1000
DATA
1040
45.0
1042
2.5
1000
_U
1070
     0
1011
2590.618625333168
1021
1225.63711676749
1031
0.0
1002
}
1002
{
1000
UCS
1010
0.0
1020
0.0
1030
0.0
1010
1.0
1020
0.0
1030
0.0
1010
0.0
1020
1.0
1030
0.0
1002
}
  0
LINE
  5
306E
330
1F
100
AcDbEntity
  8
0
100
AcDbLine
 10
2462.569571380624
 20
1133.488408077672
 30
0.0
 11
2462.569571380624
 21
1132.98840807767
 31
0.0
  0
ARC
  5
308A
330
1F
100
AcDbEntity
  8
0
100
AcDbCircle
 10
2689.23282641509
 20
1136.872271226975
 30
0.0
 40
3.387888078812326
100
AcDbArc
 50
237.2068436404848
 51
272.7931563595016
  0
LINE
  5
308C
330
1F
100
AcDbEntity
  8
P-0000
  6
STRICHPUNKT
 62
     3
100
AcDbLine
 10
2592.810842761767
 20
1121.051340815813
 30
0.0
 11
2592.810842761767
 21
1146.635689517382
 31
0.0
1001
ACME_LAYERS
1000
1
  0
LINE
  5
33EB
330
1F
100
AcDbEntity
  8
0
100
AcDbLine
 10
2591.328299999481
 20
1150.48275677924
 30
0.0
 11
2591.328299999481
 21
1133.488408077671
 31
0.0
  0
LINE
  5
33ED
330
1F
100
AcDbEntity
  8
0
100
AcDbLine
 10
2594.310842761768
 20
1150.48275677924
 30
0.0
 11
2594.310842761768
 21
1133.488408077671
 31
0.0
  0
LINE
  5
3583
330
1F
100
AcDbEntity
  8
0
100
AcDbLine
 10
2557.650588723922
 20
746.2824881727257
 30
0.0
 11
2556.310842761766
 21
751.2824881727257
 31
0.0
  0
LINE
  5
362C
330
1F
100
AcDbEntity
  8
P-0000
  6
Continuous
 62
     7
100
AcDbLine
 10
2629.328299999483
 20
1053.734713363776
 30
0.0
 11
2629.328299999483
 21
941.7347133637759
 31
0.0
1001
ACME_LAYERS
1000
1
  0
LINE
  5
362D
330
1F
100
AcDbEntity
  8
P-0000
  6
Continuous
 62
     7
100
AcDbLine
 10
2556.328299999481
 20
1046.734713363776
 30
0.0
 11
2556.328299999484
 21
941.7347133637759
 31
0.0
1001
ACME_LAYERS
1000
1
  0
LINE
  5
362E
330
1F
100
AcDbEntity
  8
P-0000
  6
Continuous
 62
     7
100
AcDbLine
 10
2556.328299999484
 20
1053.734713363776
 30
0.0
 11
2556.328299999481
 21
1046.734713363776
 31
0.0
1001
ACME_LAYERS
1000
1
  0
LINE
  5
362F
330
1F
100
AcDbEntity
  8
P-0000
  6
Continuous
 62
     7
100
AcDbLine
 10
2629.328299999483
 20
1078.449806075667
 30
0.0
 11
2629.328299999483
 21
1076.449806075669
 31
0.0
1001
ACME_LAYERS
1000
1
  0
LINE
  5
3630
330
1F
100
AcDbEntity
  8
P-0000
  6
Continuous
 62
     7
100
AcDbLine
 10
2629.328299999483
 20
1090.280450701069
 30
0.0
 11
2629.328299999483
 21
1082.619161450268
 31
0.0
1001
ACME_LAYERS
1000
1
  0
LINE
  5
3638
330
1F
100
AcDbEntity
  8
P-0000
  6
Continuous
 62
     7
100
AcDbLine
 10
2556.328299999478
 20
971.2824881727303
 30
0.0
 11
2517.828299999479
 21
971.2824881727303
 31
0.0
1001
ACME_LAYERS
1000
1
  0
HATCH
  5
363C
330
1F
100
AcDbEntity
  8
P-0000
  6
Continuous
 62
     3
100
AcDbHatch
 10
0.0
 20
0.0
 30
0.0
210
0.0
220
0.0
230
1.0
  2
_U
 70
     0
 71
     0
 91
        1
 92
        1
 93
       13
 72
     1
 10
2498.328299999493
 20
1077.282488172729
 11
2498.328299999493
 21
966.2824881727303
 72
     1
 10
2498.328299999493
 20
966.2824881727303
 11
2517.828299999479
 21
966.2824881727303
 72
     1
 10
2517.828299999479
 20
966.2824881727303
 11
2517.828299999479
 21
971.2824881727303
 72
     1
 10
2517.828299999479
 20
971.2824881727303
 11
2556.328299999478
 21
971.2824881727303
 72
     1
 10
2556.328299999478
 20
971.2824881727303
 11
2556.32829999948
 21
993.2824881727297
 72
     1
 10
2556.328299999479
 20
993.2824881727299
 11
2550.328299999479
 21
993.2824881727299
 72
     1
 10
2550.328299999479
 20
993.2824881727299
 11
2550.328299999479
 21
1099.282488172754
 72
     1
 10
2550.328299999479
 20
1099.282488172753
 11
2551.964581123324
 21
1099.282488172753
 72
     1
 10
2551.964581123324
 20
1099.282488172753
 11
2539.328299999481
 21
1099.282488172753
 72
     1
 10
2539.328299999481
 20
1099.282488172753
 11
2539.328299999481
 21
1116.282488172726
 72
     1
 10
2539.328299999481
 20
1116.282488172726
 11
2490.328299999492
 21
1116.282488172726
 72
     1
 10
2490.328299999492
 20
1116.282488172726
 11
2490.328299999492
 21
1077.282488172729
 72
     1
 10
2490.328299999492
 20
1077.282488172729
 11
2498.328299999493
 21
1077.282488172729
 97
        0
 75
     0
 76
     0
 52
-45.0
 41
5.0
 77
     0
 78
     1
 53
315.0
 43
2744.588741500745
 44
729.0326360614183
 45
3.535533905932738
 46
3.535533905932736
 79
     0
 98
        1
 10
2744.588741500745
 20
729.0326360614183
1001
ACME_LAYERS
1000
1
  0
HATCH
  5
363D
330
1F
100
AcDbEntity
  8
P-0000
  6
Continuous
 62
     3
100
AcDbHatch
 10
0.0
 20
0.0
 30
0.0
210
0.0
220
0.0
230
1.0
  2
_U
 70
     0
 71
     0
 91
        1
 92
        1
 93
       13
 72
     1
 10
2498.328299999493
 20
1077.282488172729
 11
2498.328299999493
 21
966.2824881727303
 72
     1
 10
2498.328299999493
 20
966.2824881727303
 11
2517.828299999479
 21
966.2824881727303
 72
     1
 10
2517.828299999479
 20
966.2824881727303
 11
2517.828299999479
 21
971.2824881727303
 72
     1
 10
2517.828299999479
 20
971.2824881727303
 11
2556.328299999478
 21
971.2824881727303
 72
     1
 10
2556.328299999478
 20
971.2824881727303
 11
2556.32829999948
 21
993.2824881727297
 72
     1
 10
2556.328299999479
 20
993.2824881727299
 11
2550.328299999479
 21
993.2824881727299
 72
     1
 10
2550.328299999479
 20
993.2824881727299
 11
2550.328299999479
 21
1099.282488172754
 72
     1
 10
2550.328299999479
 20
1099.282488172753
 11
2551.964581123324
 21
1099.282488172753
 72
     1
 10
2551.964581123324
 20
1099.282488172753
 11
2539.328299999481
 21
1099.282488172753
 72
     1
 10
2539.328299999481
 20
1099.282488172753
 11
2539.328299999481
 21
1116.282488172726
 72
     1
 10
2539.328299999481
 20
1116.282488172726
 11
2490.328299999492
 21
1116.282488172726
 72
     1
 10
2490.328299999492
 20
1116.282488172726
 11
2490.328299999492
 21
1077.282488172729
 72
     1
 10
2490.328299999492
 20
1077.282488172729
 11
2498.328299999493
 21
1077.282488172729
 97
        0
 75
     0
 76
     0
 52
44.99999999999999
 41
5.0
 77
     0
 78
     1
 53
45.0
 43
2744.588741500745
 44
729.0326360614183
 45
-3.535533905932736
 46
3.535533905932738
 79
     0
 98
        1
 10
2744.588741500745
 20
729.0326360614183
1001
ACME_LAYERS
1000
1
  0
LINE
  5
363E
330
1F
100
AcDbEntity
  8
P-0000
  6
Continuous
 62
     7
100
AcDbLine
 10
2498.328299999493
 20
1077.282488172729
 30
0.0
 11
2498.328299999493
 21
966.2824881727303
 31
0.0
1001
ACME_LAYERS
1000
1
  0
LINE
  5
363F
330
1F
100
AcDbEntity
  8
P-0000
  6
Continuous
 62
     7
100
AcDbLine
 10
2490.328299999492
 20
1077.282488172729
 30
0.0
 11
2490.328299999492
 21
966.2824881727303
 31
0.0
1001
ACME_LAYERS
1000
1
  0
LINE
  5
3640
330
1F
100
AcDbEntity
  8
P-0000
  6
Continuous
 62
     7
100
AcDbLine
 10
2490.328299999492
 20
1116.282488172726
 30
0.0
 11
2490.328299999492
 21
1077.282488172729
 31
0.0
1001
ACME_LAYERS
1000
1
  0
LINE
  5
3642
330
1F
100
AcDbEntity
  8
P-0000
  6
Continuous
 62
     7
100
AcDbLine
 10
2490.328299999492
 20
1109.213529004057
 30
0.0
 11
2491.089503059568
 21
1109.21352900406
 31
0.0
1001
ACME_LAYERS
1000
1
  0
LINE
  5
3645
330
1F
100
AcDbEntity
  8
P-0000
  6
Continuous
 62
     7
100
AcDbLine
 10
2498.328299999493
 20
1077.282488172729
 30
0.0
 11
2490.328299999492
 21
1077.282488172729
 31
0.0
1001
ACME_LAYERS
1000
1
  0
LINE
  5
3646
330
1F
100
AcDbEntity
  8
P-0000
  6
Continuous
 62
     7
100
AcDbLine
 10
2517.828299999479
 20
966.2824881727303
 30
0.0
 11
2498.328299999493
 21
966.2824881727303
 31
0.0
1001
ACME_LAYERS
1000
1
  0
LINE
  5
3647
330
1F
100
AcDbEntity
  8
P-0000
  6
Continuous
 62
     7
100
AcDbLine
 10
2498.328299999493
 20
966.2824881727303
 30
0.0
 11
2490.328299999492
 21
966.2824881727303
 31
0.0
1001
ACME_LAYERS
1000
1
  0
LINE
  5
3648
330
1F
100
AcDbEntity
  8
P-0000
  6
Continuous
 62
     7
100
AcDbLine
 10
2517.828299999479
 20
971.2824881727303
 30
0.0
 11
2517.828299999479
 21
966.2824881727303
 31
0.0
1001
ACME_LAYERS
1000
1
  0
HATCH
  5
3649
330
1F
100
AcDbEntity
  8
P-0000
  6
Continuous
 62
     3
100
AcDbHatch
 10
0.0
 20
0.0
 30
0.0
210
0.0
220
0.0
230
1.0
  2
_U
 70
     0
 71
     0
 91
        1
 92
        1
 93
        4
 72
     1
 10
2629.32829999948
 20
993.2824881727299
 11
2637.328299999478
 21
993.2824881727299
 72
     1
 10
2637.328299999477
 20
993.2824881727299
 11
2637.328299999477
 21
971.2824881727307
 72
     1
 10
2637.328299999477
 20
971.2824881727303
 11
2629.328299999479
 21
971.2824881727303
 72
     1
 10
2629.32829999948
 20
971.2824881727303
 11
2629.32829999948
 21
993.2824881727297
 97
        0
 75
     0
 76
     0
 52
-45.0
 41
5.0
 77
     0
 78
     1
 53
315.0
 43
2744.588741500745
 44
729.0326360614183
 45
3.535533905932738
 46
3.535533905932736
 79
     0
 98
        1
 10
2744.588741500745
 20
729.0326360614183
1001
ACME_LAYERS
1000
1
  0
HATCH
  5
364A
330
1F
100
AcDbEntity
  8
P-0000
  6
Continuous
 62
     3
100
AcDbHatch
 10
0.0
 20
0.0
 30
0.0
210
0.0
220
0.0
230
1.0
  2
_U
 70
     0
 71
     0
 91
        1
 92
        1
 93
        4
 72
     1
 10
2629.32829999948
 20
993.2824881727299
 11
2637.328299999478
 21
993.2824881727299
 72
     1
 10
2637.328299999477
 20
993.2824881727299
 11
2637.328299999477
 21
971.2824881727307
 72
     1
 10
2637.328299999477
 20
971.2824881727303
 11
2629.328299999479
 21
971.2824881727303
 72
     1
 10
2629.32829999948
 20
971.2824881727303
 11
2629.32829999948
 21
993.2824881727297
 97
        0
 75
     0
 76
     0
 52
44.99999999999999
 41
5.0
 77
     0
 78
     1
 53
45.0
 43
2744.588741500745
 44
729.0326360614183
 45
-3.535533905932736
 46
3.535533905932738
 79
     0
 98
        1
 10
2744.588741500745
 20
729.0326360614183
1001
ACME_LAYERS
1000
1
  0
HATCH
  5
364B
330
1F
100
AcDbEntity
  8
P-0000
  6
Continuous
 62
     3
100
AcDbHatch
 10
0.0
 20
0.0
 30
0.0
210
0.0
220
0.0
230
1.0
  2
_U
 70
     0
 71
     0
 91
        1
 92
        1
 93
        4
 72
     1
 10
2637.328299999477
 20
993.2824881727299
 11
2637.328299999477
 21
971.2824881727307
 72
     1
 10
2637.328299999477
 20
971.2824881727303
 11
2644.328299999477
 21
971.2824881727303
 72
     1
 10
2644.328299999477
 20
971.2824881727303
 11
2644.328299999478
 21
993.2824881727297
 72
     1
 10
2644.328299999478
 20
993.2824881727299
 11
2637.328299999477
 21
993.2824881727299
 97
        0
 75
     0
 76
     0
 52
-45.0
 41
5.0
 77
     0
 78
     1
 53
315.0
 43
2744.588741500745
 44
729.0326360614183
 45
3.535533905932738
 46
3.535533905932736
 79
     0
 98
        1
 10
2744.588741500745
 20
729.0326360614183
1001
ACME_LAYERS
1000
1
  0
HATCH
  5
364C
330
1F
100
AcDbEntity
  8
P-0000
  6
Continuous
 62
     3
100
AcDbHatch
 10
0.0
 20
0.0
 30
0.0
210
0.0
220
0.0
230
1.0
  2
_U
 70
     0
 71
     0
 91
        1
 92
        1
 93
        4
 72
     1
 10
2637.328299999477
 20
993.2824881727299
 11
2637.328299999477
 21
971.2824881727307
 72
     1
 10
2637.328299999477
 20
971.2824881727303
 11
2644.328299999477
 21
971.2824881727303
 72
     1
 10
2644.328299999477
 20
971.2824881727303
 11
2644.328299999478
 21
993.2824881727297
 72
     1
 10
2644.328299999478
 20
993.2824881727299
 11
2637.328299999477
 21
993.2824881727299
 97
        0
 75
     0
 76
     0
 52
44.99999999999999
 41
5.0
 77
     0
 78
     1
 53
45.0
 43
2744.588741500745
 44
729.0326360614183
 45
-3.535533905932736
 46
3.535533905932738
 79
     0
 98
        1
 10
2744.588741500745
 20
729.0326360614183
1001
ACME_LAYERS
1000
1
  0
LINE
  5
364D
330
1F
100
AcDbEntity
  8
P-0000
  6
STRICHLINIE
 62
     2
100
AcDbLine
 10
2637.328299999477
 20
993.2824881727299
 30
0.0
 11
2637.328299999477
 21
971.2824881727303
 31
0.0
1001
ACME_LAYERS
1000
1
  0
LINE
  5
364E
330
1F
100
AcDbEntity
  8
P-0000
  6
STRICHLINIE
 62
     2
100
AcDbLine
 10
2644.328299999478
 20
993.2824881727299
 30
0.0
 11
2644.328299999477
 21
978.2824881727298
 31
0.0
1001
ACME_LAYERS
1000
1
  0
LINE
  5
364F
330
1F
100
AcDbEntity
  8
P-0000
  6
Continuous
 62
     7
100
AcDbLine
 10
2629.32829999948
 20
964.2135290040611
 30
0.0
 11
2629.32829999948
 21
986.2135290040608
 31
0.0
1001
ACME_LAYERS
1000
1
  0
LINE
  5
3650
330
1F
100
AcDbEntity
  8
P-0000
  6
Continuous
 62
     7
100
AcDbLine
 10
2556.328299999484
 20
986.2135290040608
 30
0.0
 11
2556.328299999478
 21
964.2135290040611
 31
0.0
1001
ACME_LAYERS
1000
1
  0
LINE
  5
3651
330
1F
100
AcDbEntity
  8
P-0000
  6
STRICHPUNKT
 62
     3
100
AcDbLine
 10
2592.828299999481
 20
986.2135290040608
 30
0.0
 11
2592.828299999479
 21
946.8533047013901
 31
0.0
1001
ACME_LAYERS
1000
1
  0
HATCH
  5
3652
330
1F
100
AcDbEntity
  8
P-0000
  6
Continuous
 62
     3
100
AcDbHatch
 10
0.0
 20
0.0
 30
0.0
210
0.0
220
0.0
230
1.0
  2
_U
 70
     0
 71
     0
 91
        1
 92
        1
 93
       10
 72
     1
 10
2695.328299999466
 20
1077.282488172729
 11
2695.328299999474
 21
1116.28248817273
 72
     1
 10
2695.328299999474
 20
1116.28248817273
 11
2646.32829999948
 21
1116.282488172726
 72
     1
 10
2646.32829999948
 20
1116.282488172726
 11
2646.32829999948
 21
993.2824881727297
 72
     1
 10
2646.32829999948
 20
993.2824881727299
 11
2644.328299999477
 21
993.2824881727299
 72
     1
 10
2644.328299999478
 20
993.2824881727299
 11
2644.328299999477
 21
971.2824881727307
 72
     1
 10
2644.328299999477
 20
971.2824881727303
 11
2682.82829999948
 21
971.2824881727303
 72
     1
 10
2682.82829999948
 20
971.2824881727303
 11
2682.82829999948
 21
966.2824881727303
 72
     1
 10
2682.82829999948
 20
966.2824881727303
 11
2687.328299999466
 21
966.2824881727303
 72
     1
 10
2687.328299999466
 20
966.2824881727303
 11
2687.328299999466
 21
1077.282488172729
 72
     1
 10
2687.328299999466
 20
1077.282488172729
 11
2695.328299999466
 21
1077.282488172729
 97
        0
 75
     0
 76
     0
 52
-45.0
 41
5.0
 77
     0
 78
     1
 53
315.0
 43
2744.588741500745
 44
729.0326360614183
 45
3.535533905932738
 46
3.535533905932736
 79
     0
 98
        1
 10
2744.588741500745
 20
729.0326360614183
1001
ACME_LAYERS
1000
1
  0
HATCH
  5
3653
330
1F
100
AcDbEntity
  8
P-0000
  6
Continuous
 62
     3
100
AcDbHatch
 10
0.0
 20
0.0
 30
0.0
210
0.0
220
0.0
230
1.0
  2
_U
 70
     0
 71
     0
 91
        1
 92
        1
 93
       10
 72
     1
 10
2695.328299999466
 20
1077.282488172729
 11
2695.328299999474
 21
1116.28248817273
 72
     1
 10
2695.328299999474
 20
1116.28248817273
 11
2646.32829999948
 21
1116.282488172726
 72
     1
 10
2646.32829999948
 20
1116.282488172726
 11
2646.32829999948
 21
993.2824881727297
 72
     1
 10
2646.32829999948
 20
993.2824881727299
 11
2644.328299999477
 21
993.2824881727299
 72
     1
 10
2644.328299999478
 20
993.2824881727299
 11
2644.328299999477
 21
971.2824881727307
 72
     1
 10
2644.328299999477
 20
971.2824881727303
 11
2682.82829999948
 21
971.2824881727303
 72
     1
 10
2682.82829999948
 20
971.2824881727303
 11
2682.82829999948
 21
966.2824881727303
 72
     1
 10
2682.82829999948
 20
966.2824881727303
 11
2687.328299999466
 21
966.2824881727303
 72
     1
 10
2687.328299999466
 20
966.2824881727303
 11
2687.328299999466
 21
1077.282488172729
 72
     1
 10
2687.328299999466
 20
1077.282488172729
 11
2695.328299999466
 21
1077.282488172729
 97
        0
 75
     0
 76
     0
 52
44.99999999999999
 41
5.0
 77
     0
 78
     1
 53
45.0
 43
2744.588741500745
 44
729.0326360614183
 45
-3.535533905932736
 46
3.535533905932738
 79
     0
 98
        1
 10
2744.588741500745
 20
729.0326360614183
1001
ACME_LAYERS
1000
1
  0
LINE
  5
3654
330
1F
100
AcDbEntity
  8
P-0000
  6
Continuous
 62
     7
100
AcDbLine
 10
2695.328299999474
 20
1116.28248817273
 30
0.0
 11
2695.328299999466
 21
966.2824881727303
 31
0.0
1001
ACME_LAYERS
1000
1
  0
LINE
  5
3655
330
1F
100
AcDbEntity
  8
P-0000
  6
Continuous
 62
     7
100
AcDbLine
 10
2687.328299999466
 20
966.2824881727303
 30
0.0
 11
2687.328299999466
 21
1077.282488172729
 31
0.0
1001
ACME_LAYERS
1000
1
  0
LINE
  5
3656
330
1F
100
AcDbEntity
  8
P-0000
  6
Continuous
 62
     7
100
AcDbLine
 10
2687.328299999466
 20
966.2824881727303
 30
0.0
 11
2687.328299999466
 21
1077.282488172729
 31
0.0
1001
ACME_LAYERS
1000
1
  0
LINE
  5
3657
330
1F
100
AcDbEntity
  8
P-0000
  6
Continuous
 62
     7
100
AcDbLine
 10
2656.828299999481
 20
1116.282488172726
 30
0.0
 11
2675.266091468963
 21
1116.282488172726
 31
0.0
1001
ACME_LAYERS
1000
1
  0
LINE
  5
3658
330
1F
100
AcDbEntity
  8
P-0000
  6
Continuous
 62
     7
100
AcDbLine
 10
2550.328299999479
 20
1099.282488172753
 30
0.0
 11
2550.328299999479
 21
993.2824881727299
 31
0.0
1001
ACME_LAYERS
1000
1
  0
LINE
  5
3659
330
1F
100
AcDbEntity
  8
P-0000
  6
Continuous
 62
     7
100
AcDbLine
 10
2646.32829999948
 20
993.2824881727299
 30
0.0
 11
2646.32829999948
 21
1116.282488172726
 31
0.0
1001
ACME_LAYERS
1000
1
  0
LINE
  5
365A
330
1F
100
AcDbEntity
  8
P-0000
  6
Continuous
 62
     7
100
AcDbLine
 10
2592.828299999481
 20
1092.213529004084
 30
0.0
 11
2592.828299999481
 21
986.2135290040608
 31
0.0
1001
ACME_LAYERS
1000
1
  0
LINE
  5
365B
330
1F
100
AcDbEntity
  8
P-0000
  6
STRICHPUNKT
 62
     3
100
AcDbLine
 10
2592.828299999481
 20
1092.213529004084
 30
0.0
 11
2592.828299999481
 21
986.2135290040608
 31
0.0
1001
ACME_LAYERS
1000
1
  0
LINE
  5
365D
330
1F
100
AcDbEntity
  8
P-0000
  6
Continuous
 62
     7
100
AcDbLine
 10
2551.964581123324
 20
1099.282488172753
 30
0.0
 11
2556.328299999484
 21
1099.282488172754
 31
0.0
1001
ACME_LAYERS
1000
1
  0
LINE
  5
365F
330
1F
100
AcDbEntity
  8
P-0000
  6
Continuous
 62
     7
100
AcDbLine
 10
2539.328299999481
 20
1099.282488172753
 30
0.0
 11
2539.328299999481
 21
1116.282488172726
 31
0.0
1001
ACME_LAYERS
1000
1
  0
LINE
  5
3661
330
1F
100
AcDbEntity
  8
P-0000
  6
Continuous
 62
     7
100
AcDbLine
 10
2550.328299999479
 20
1099.282488172753
 30
0.0
 11
2551.964581123324
 21
1099.282488172753
 31
0.0
1001
ACME_LAYERS
1000
1
  0
LINE
  5
3662
330
1F
100
AcDbEntity
  8
P-0000
  6
Continuous
 62
     7
100
AcDbLine
 10
2539.328299999481
 20
1099.282488172753
 30
0.0
 11
2550.328299999479
 21
1099.282488172753
 31
0.0
1001
ACME_LAYERS
1000
1
  0
LINE
  5
3663
330
1F
100
AcDbEntity
  8
P-0000
  6
Continuous
 62
     7
100
AcDbLine
 10
2592.828299999481
 20
1109.213529004078
 30
0.0
 11
2592.828299999481
 21
1092.213529004084
 31
0.0
1001
ACME_LAYERS
1000
1
  0
LINE
  5
3664
330
1F
100
AcDbEntity
  8
P-0000
  6
STRICHPUNKT
 62
     3
100
AcDbLine
 10
2592.828299999481
 20
1109.213529004078
 30
0.0
 11
2592.828299999481
 21
1092.213529004084
 31
0.0
1001
ACME_LAYERS
1000
1
  0
LINE
  5
3665
330
1F
100
AcDbEntity
  8
P-0000
  6
STRICHPUNKT
 62
     3
100
AcDbLine
 10
2592.828299999481
 20
1116.877118770122
 30
0.0
 11
2592.828299999481
 21
1109.213529004078
 31
0.0
1001
ACME_LAYERS
1000
1
  0
LINE
  5
3666
330
1F
100
AcDbEntity
  8
P-0000
  6
STRICHPUNKT
 62
     3
100
AcDbLine
 10
2592.828299999479
 20
1087.355406235114
 30
0.0
 11
2592.828299999479
 21
1086.899592876281
 31
0.0
1001
ACME_LAYERS
1000
1
  0
LINE
  5
3668
330
1F
100
AcDbEntity
  8
P-0000
  6
Continuous
 62
     7
100
AcDbLine
 10
2556.328299999479
 20
993.2824881727299
 30
0.0
 11
2550.328299999479
 21
993.2824881727299
 31
0.0
1001
ACME_LAYERS
1000
1
  0
LINE
  5
3669
330
1F
100
AcDbEntity
  8
P-0000
  6
Continuous
 62
     7
100
AcDbLine
 10
2629.32829999948
 20
993.2824881727299
 30
0.0
 11
2637.328299999477
 21
993.2824881727299
 31
0.0
1001
ACME_LAYERS
1000
1
  0
LINE
  5
366A
330
1F
100
AcDbEntity
  8
P-0000
  6
Continuous
 62
     7
100
AcDbLine
 10
2644.328299999478
 20
993.2824881727299
 30
0.0
 11
2646.32829999948
 21
993.2824881727299
 31
0.0
1001
ACME_LAYERS
1000
1
  0
LINE
  5
366B
330
1F
100
AcDbEntity
  8
P-0000
  6
Continuous
 62
     7
100
AcDbLine
 10
2637.328299999477
 20
993.2824881727299
 30
0.0
 11
2644.328299999478
 21
993.2824881727299
 31
0.0
1001
ACME_LAYERS
1000
1
  0
LINE
  5
366C
330
1F
100
AcDbEntity
  8
P-0000
  6
Continuous
 62
     7
100
AcDbLine
 10
2676.828299999477
 20
1116.282488172726
 30
0.0
 11
2690.328299999477
 21
1116.28248817273
 31
0.0
1001
ACME_LAYERS
1000
1
  0
LINE
  5
366D
330
1F
100
AcDbEntity
  8
P-0000
  6
Continuous
 62
     7
100
AcDbLine
 10
2675.266091468963
 20
1116.282488172726
 30
0.0
 11
2676.828299999477
 21
1116.282488172726
 31
0.0
1001
ACME_LAYERS
1000
1
  0
LINE
  5
366E
330
1F
100
AcDbEntity
  8
P-0000
  6
Continuous
 62
     7
100
AcDbLine
 10
2685.685911656583
 20
1116.282488172729
 30
0.0
 11
2695.328299999474
 21
1116.28248817273
 31
0.0
1001
ACME_LAYERS
1000
1
  0
LINE
  5
366F
330
1F
100
AcDbEntity
  8
P-0000
  6
Continuous
 62
     7
100
AcDbLine
 10
2695.328299999466
 20
1077.282488172729
 30
0.0
 11
2687.328299999466
 21
1077.282488172729
 31
0.0
1001
ACME_LAYERS
1000
1
  0
LINE
  5
3670
330
1F
100
AcDbEntity
  8
P-0000
  6
Continuous
 62
     7
100
AcDbLine
 10
2674.328299999477
 20
971.2824881727303
 30
0.0
 11
2667.328299999477
 21
971.2824881727303
 31
0.0
1001
ACME_LAYERS
1000
1
  0
LINE
  5
3671
330
1F
100
AcDbEntity
  8
P-0000
  6
Continuous
 62
     7
100
AcDbLine
 10
2637.328299999477
 20
971.2824881727303
 30
0.0
 11
2629.32829999948
 21
971.2824881727303
 31
0.0
1001
ACME_LAYERS
1000
1
  0
LINE
  5
3672
330
1F
100
AcDbEntity
  8
P-0000
  6
Continuous
 62
     7
100
AcDbLine
 10
2659.328299999479
 20
971.2824881727303
 30
0.0
 11
2637.328299999477
 21
971.2824881727303
 31
0.0
1001
ACME_LAYERS
1000
1
  0
LINE
  5
3673
330
1F
100
AcDbEntity
  8
P-0000
  6
STRICHLINIE
 62
     2
100
AcDbLine
 10
2644.328299999477
 20
978.2824881727298
 30
0.0
 11
2644.328299999477
 21
971.2824881727303
 31
0.0
1001
ACME_LAYERS
1000
1
  0
LINE
  5
3674
330
1F
100
AcDbEntity
  8
P-0000
  6
Continuous
 62
     7
100
AcDbLine
 10
2667.328299999477
 20
971.2824881727303
 30
0.0
 11
2659.328299999479
 21
971.2824881727303
 31
0.0
1001
ACME_LAYERS
1000
1
  0
LINE
  5
3675
330
1F
100
AcDbEntity
  8
P-0000
  6
Continuous
 62
     7
100
AcDbLine
 10
2682.82829999948
 20
971.2824881727303
 30
0.0
 11
2682.82829999948
 21
966.2824881727303
 31
0.0
1001
ACME_LAYERS
1000
1
  0
LINE
  5
3676
330
1F
100
AcDbEntity
  8
P-0000
  6
Continuous
 62
     7
100
AcDbLine
 10
2682.82829999948
 20
971.2824881727303
 30
0.0
 11
2674.328299999477
 21
971.2824881727303
 31
0.0
1001
ACME_LAYERS
1000
1
  0
LINE
  5
3677
330
1F
100
AcDbEntity
  8
P-0000
  6
Continuous
 62
     7
100
AcDbLine
 10
2695.328299999466
 20
966.2824881727303
 30
0.0
 11
2682.82829999948
 21
966.2824881727303
 31
0.0
1001
ACME_LAYERS
1000
1
  0
HATCH
  5
3678
330
1F
100
AcDbEntity
  8
P-0000
  6
Continuous
 62
     3
100
AcDbHatch
 10
0.0
 20
0.0
 30
0.0
210
0.0
220
0.0
230
1.0
  2
_U
 70
     0
 71
     0
 91
        1
 92
        1
 93
        8
 72
     1
 10
2556.328299999478
 20
971.2824881727303
 11
2556.32829999948
 21
866.2824881727303
 72
     1
 10
2556.32829999948
 20
866.2824881727303
 11
2498.328299999493
 21
866.2824881727303
 72
     1
 10
2498.328299999493
 20
866.2824881727303
 11
2498.328299999493
 21
956.2824881727303
 72
     1
 10
2498.328299999493
 20
956.2824881727303
 11
2490.328299999494
 21
956.2824881727303
 72
     1
 10
2490.328299999494
 20
956.2824881727303
 11
2490.328299999494
 21
966.2824881727303
 72
     1
 10
2490.328299999494
 20
966.2824881727303
 11
2517.82829999948
 21
966.2824881727303
 72
     1
 10
2517.82829999948
 20
966.2824881727303
 11
2517.82829999948
 21
971.2824881727303
 72
     1
 10
2517.82829999948
 20
971.2824881727303
 11
2556.328299999478
 21
971.2824881727303
 97
        0
 75
     0
 76
     0
 52
-45.0
 41
5.0
 77
     0
 78
     1
 53
315.0
 43
2744.588741500745
 44
1201.572135908566
 45
3.535533905932738
 46
3.535533905932736
 79
     0
 98
        1
 10
2744.588741500745
 20
1201.572135908566
1001
ACME_LAYERS
1000
1
  0
HATCH
  5
3679
330
1F
100
AcDbEntity
  8
P-0000
  6
Continuous
 62
     3
100
AcDbHatch
 10
0.0
 20
0.0
 30
0.0
210
0.0
220
0.0
230
1.0
  2
_U
 70
     0
 71
     0
 91
        1
 92
        1
 93
        8
 72
     1
 10
2556.328299999478
 20
971.2824881727303
 11
2556.32829999948
 21
866.2824881727303
 72
     1
 10
2556.32829999948
 20
866.2824881727303
 11
2498.328299999493
 21
866.2824881727303
 72
     1
 10
2498.328299999493
 20
866.2824881727303
 11
2498.328299999493
 21
956.2824881727303
 72
     1
 10
2498.328299999493
 20
956.2824881727303
 11
2490.328299999494
 21
956.2824881727303
 72
     1
 10
2490.328299999494
 20
956.2824881727303
 11
2490.328299999494
 21
966.2824881727303
 72
     1
 10
2490.328299999494
 20
966.2824881727303
 11
2517.82829999948
 21
966.2824881727303
 72
     1
 10
2517.82829999948
 20
966.2824881727303
 11
2517.82829999948
 21
971.2824881727303
 72
     1
 10
2517.82829999948
 20
971.2824881727303
 11
2556.328299999478
 21
971.2824881727303
 97
        0
 75
     0
 76
     0
 52
44.99999999999999
 41
5.0
 77
     0
 78
     1
 53
45.0
 43
2744.588741500745
 44
1201.572135908566
 45
-3.535533905932736
 46
3.535533905932738
 79
     0
 98
        1
 10
2744.588741500745
 20
1201.572135908566
1001
ACME_LAYERS
1000
1
  0
LINE
  5
367A
330
1F
100
AcDbEntity
  8
P-0000
  6
Continuous
 62
     7
100
AcDbLine
 10
2556.328299999478
 20
971.2824881727303
 30
0.0
 11
2517.82829999948
 21
971.2824881727303
 31
0.0
1001
ACME_LAYERS
1000
1
  0
LINE
  5
367B
330
1F
100
AcDbEntity
  8
P-0000
  6
Continuous
 62
     7
100
AcDbLine
 10
2556.32829999948
 20
866.2824881727303
 30
0.0
 11
2498.328299999493
 21
866.2824881727303
 31
0.0
1001
ACME_LAYERS
1000
1
  0
LINE
  5
367C
330
1F
100
AcDbEntity
  8
P-0000
  6
Continuous
 62
     7
100
AcDbLine
 10
2490.328299999494
 20
956.2824881727303
 30
0.0
 11
2490.328299999494
 21
866.2824881727303
 31
0.0
1001
ACME_LAYERS
1000
1
  0
LINE
  5
367D
330
1F
100
AcDbEntity
  8
P-0000
  6
Continuous
 62
     7
100
AcDbLine
 10
2498.328299999493
 20
956.2824881727303
 30
0.0
 11
2498.328299999493
 21
866.2824881727303
 31
0.0
1001
ACME_LAYERS
1000
1
  0
LINE
  5
367E
330
1F
100
AcDbEntity
  8
P-0000
  6
Continuous
 62
     7
100
AcDbLine
 10
2517.82829999948
 20
966.2824881727303
 30
0.0
 11
2490.328299999494
 21
966.2824881727303
 31
0.0
1001
ACME_LAYERS
1000
1
  0
LINE
  5
367F
330
1F
100
AcDbEntity
  8
P-0000
  6
Continuous
 62
     7
100
AcDbLine
 10
2490.328299999494
 20
966.2824881727303
 30
0.0
 11
2490.328299999494
 21
956.2824881727303
 31
0.0
1001
ACME_LAYERS
1000
1
  0
LINE
  5
3680
330
1F
100
AcDbEntity
  8
P-0000
  6
Continuous
 62
     7
100
AcDbLine
 10
2498.328299999493
 20
956.2824881727303
 30
0.0
 11
2490.328299999494
 21
956.2824881727303
 31
0.0
1001
ACME_LAYERS
1000
1
  0
LINE
  5
3681
330
1F
100
AcDbEntity
  8
P-0000
  6
Continuous
 62
     7
100
AcDbLine
 10
2517.82829999948
 20
971.2824881727303
 30
0.0
 11
2517.82829999948
 21
966.2824881727303
 31
0.0
1001
ACME_LAYERS
1000
1
  0
LINE
  5
3682
330
1F
100
AcDbEntity
  8
P-0000
  6
Continuous
 62
     7
100
AcDbLine
 10
2498.328299999493
 20
866.2824881727303
 30
0.0
 11
2490.328299999494
 21
866.2824881727303
 31
0.0
1001
ACME_LAYERS
1000
1
  0
HATCH
  5
3683
330
1F
100
AcDbEntity
  8
P-0000
  6
Continuous
 62
     3
100
AcDbHatch
 10
0.0
 20
0.0
 30
0.0
210
0.0
220
0.0
230
1.0
  2
_U
 70
     0
 71
     0
 91
        1
 92
        1
 93
       12
 72
     1
 10
2687.328299999467
 20
866.2824881727303
 11
2687.328299999467
 21
956.2824881727303
 72
     1
 10
2687.328299999467
 20
956.2824881727303
 11
2695.328299999467
 21
956.2824881727303
 72
     1
 10
2695.328299999467
 20
956.2824881727303
 11
2695.328299999467
 21
966.2824881727303
 72
     1
 10
2695.328299999467
 20
966.2824881727303
 11
2682.82829999948
 21
966.2824881727303
 72
     1
 10
2682.82829999948
 20
966.2824881727303
 11
2682.82829999948
 21
971.2824881727303
 72
     1
 10
2682.82829999948
 20
971.2824881727303
 11
2674.328299999479
 21
971.2824881727303
 72
     1
 10
2674.328299999479
 20
971.2824881727303
 11
2667.328299999478
 21
971.2824881727303
 72
     1
 10
2667.328299999478
 20
971.2824881727303
 11
2659.32829999948
 21
971.2824881727303
 72
     1
 10
2659.32829999948
 20
971.2824881727303
 11
2637.328299999478
 21
971.2824881727303
 72
     1
 10
2637.328299999478
 20
971.2824881727303
 11
2637.328299999478
 21
866.2824881727303
 72
     1
 10
2637.328299999478
 20
866.2824881727303
 11
2644.328299999478
 21
866.2824881727303
 72
     1
 10
2644.328299999478
 20
866.2824881727303
 11
2687.328299999467
 21
866.2824881727303
 97
        0
 75
     0
 76
     0
 52
-45.0
 41
5.0
 77
     0
 78
     1
 53
315.0
 43
2744.588741500745
 44
1201.572135908566
 45
3.535533905932738
 46
3.535533905932736
 79
     0
 98
        1
 10
2744.588741500745
 20
1201.572135908566
1001
ACME_LAYERS
1000
1
  0
HATCH
  5
3684
330
1F
100
AcDbEntity
  8
P-0000
  6
Continuous
 62
     3
100
AcDbHatch
 10
0.0
 20
0.0
 30
0.0
210
0.0
220
0.0
230
1.0
  2
_U
 70
     0
 71
     0
 91
        1
 92
        1
 93
       12
 72
     1
 10
2687.328299999467
 20
866.2824881727303
 11
2687.328299999467
 21
956.2824881727303
 72
     1
 10
2687.328299999467
 20
956.2824881727303
 11
2695.328299999467
 21
956.2824881727303
 72
     1
 10
2695.328299999467
 20
956.2824881727303
 11
2695.328299999467
 21
966.2824881727303
 72
     1
 10
2695.328299999467
 20
966.2824881727303
 11
2682.82829999948
 21
966.2824881727303
 72
     1
 10
2682.82829999948
 20
966.2824881727303
 11
2682.82829999948
 21
971.2824881727303
 72
     1
 10
2682.82829999948
 20
971.2824881727303
 11
2674.328299999479
 21
971.2824881727303
 72
     1
 10
2674.328299999479
 20
971.2824881727303
 11
2667.328299999478
 21
971.2824881727303
 72
     1
 10
2667.328299999478
 20
971.2824881727303
 11
2659.32829999948
 21
971.2824881727303
 72
     1
 10
2659.32829999948
 20
971.2824881727303
 11
2637.328299999478
 21
971.2824881727303
 72
     1
 10
2637.328299999478
 20
971.2824881727303
 11
2637.328299999478
 21
866.2824881727303
 72
     1
 10
2637.328299999478
 20
866.2824881727303
 11
2644.328299999478
 21
866.2824881727303
 72
     1
 10
2644.328299999478
 20
866.2824881727303
 11
2687.328299999467
 21
866.2824881727303
 97
        0
 75
     0
 76
     0
 52
44.99999999999999
 41
5.0
 77
     0
 78
     1
 53
45.0
 43
2744.588741500745
 44
1201.572135908566
 45
-3.535533905932736
 46
3.535533905932738
 79
     0
 98
        1
 10
2744.588741500745
 20
1201.572135908566
1001
ACME_LAYERS
1000
1
  0
HATCH
  5
3685
330
1F
100
AcDbEntity
  8
P-0000
  6
Continuous
 62
     3
100
AcDbHatch
 10
0.0
 20
0.0
 30
0.0
210
0.0
220
0.0
230
1.0
  2
_U
 70
     0
 71
     0
 91
        1
 92
        1
 93
        4
 72
     1
 10
2637.328299999478
 20
971.2824881727303
 11
2637.328299999478
 21
866.2824881727303
 72
     1
 10
2637.328299999478
 20
866.2824881727303
 11
2629.32829999948
 21
866.2824881727303
 72
     1
 10
2629.32829999948
 20
866.2824881727303
 11
2629.32829999948
 21
971.2824881727303
 72
     1
 10
2629.32829999948
 20
971.2824881727303
 11
2637.328299999478
 21
971.2824881727303
 97
        0
 75
     0
 76
     0
 52
-45.0
 41
5.0
 77
     0
 78
     1
 53
315.0
 43
2744.588741500745
 44
1201.572135908566
 45
3.535533905932738
 46
3.535533905932736
 79
     0
 98
        1
 10
2744.588741500745
 20
1201.572135908566
1001
ACME_LAYERS
1000
1
  0
HATCH
  5
3686
330
1F
100
AcDbEntity
  8
P-0000
  6
Continuous
 62
     3
100
AcDbHatch
 10
0.0
 20
0.0
 30
0.0
210
0.0
220
0.0
230
1.0
  2
_U
 70
     0
 71
     0
 91
        1
 92
        1
 93
        4
 72
     1
 10
2637.328299999478
 20
971.2824881727303
 11
2637.328299999478
 21
866.2824881727303
 72
     1
 10
2637.328299999478
 20
866.2824881727303
 11
2629.32829999948
 21
866.2824881727303
 72
     1
 10
2629.32829999948
 20
866.2824881727303
 11
2629.32829999948
 21
971.2824881727303
 72
     1
 10
2629.32829999948
 20
971.2824881727303
 11
2637.328299999478
 21
971.2824881727303
 97
        0
 75
     0
 76
     0
 52
44.99999999999999
 41
5.0
 77
     0
 78
     1
 53
45.0
 43
2744.588741500745
 44
1201.572135908566
 45
-3.535533905932736
 46
3.535533905932738
 79
     0
 98
        1
 10
2744.588741500745
 20
1201.572135908566
1001
ACME_LAYERS
1000
1
  0
LINE
  5
3687
330
1F
100
AcDbEntity
  8
P-0000
  6
Continuous
 62
     7
100
AcDbLine
 10
2687.328299999467
 20
866.2824881727303
 30
0.0
 11
2687.328299999467
 21
956.2824881727303
 31
0.0
1001
ACME_LAYERS
1000
1
  0
LINE
  5
3688
330
1F
100
AcDbEntity
  8
P-0000
  6
Continuous
 62
     7
100
AcDbLine
 10
2629.32829999948
 20
964.2135290040611
 30
0.0
 11
2629.32829999948
 21
859.2135290040612
 31
0.0
1001
ACME_LAYERS
1000
1
  0
LINE
  5
3689
330
1F
100
AcDbEntity
  8
P-0000
  6
STRICHLINIE
 62
     2
100
AcDbLine
 10
2637.328299999478
 20
971.2824881727303
 30
0.0
 11
2637.328299999478
 21
866.2824881727303
 31
0.0
1001
ACME_LAYERS
1000
1
  0
LINE
  5
368A
330
1F
100
AcDbEntity
  8
P-0000
  6
STRICHLINIE
 62
     2
100
AcDbLine
 10
2644.328299999478
 20
866.2824881727303
 30
0.0
 11
2644.328299999478
 21
971.2824881727303
 31
0.0
1001
ACME_LAYERS
1000
1
  0
LINE
  5
368B
330
1F
100
AcDbEntity
  8
P-0000
  6
Continuous
 62
     7
100
AcDbLine
 10
2695.328299999467
 20
956.2824881727303
 30
0.0
 11
2695.328299999462
 21
866.2824881727303
 31
0.0
1001
ACME_LAYERS
1000
1
  0
LINE
  5
368C
330
1F
100
AcDbEntity
  8
P-0000
  6
Continuous
 62
     7
100
AcDbLine
 10
2556.328299999478
 20
964.2135290040611
 30
0.0
 11
2556.32829999948
 21
859.2135290040612
 31
0.0
1001
ACME_LAYERS
1000
1
  0
LINE
  5
368D
330
1F
100
AcDbEntity
  8
P-0000
  6
STRICHPUNKT
 62
     3
100
AcDbLine
 10
2592.82829999948
 20
964.2135290040611
 30
0.0
 11
2592.82829999948
 21
856.2135290040613
 31
0.0
1001
ACME_LAYERS
1000
1
  0
LINE
  5
368F
330
1F
100
AcDbEntity
  8
P-0000
  6
Continuous
 62
     7
100
AcDbLine
 10
2674.328299999479
 20
971.2824881727303
 30
0.0
 11
2667.328299999478
 21
971.2824881727303
 31
0.0
1001
ACME_LAYERS
1000
1
  0
LINE
  5
3690
330
1F
100
AcDbEntity
  8
P-0000
  6
STRICHPUNKT
 62
     3
100
AcDbLine
 10
2592.82829999948
 20
967.2135290040612
 30
0.0
 11
2592.82829999948
 21
964.2135290040611
 31
0.0
1001
ACME_LAYERS
1000
1
  0
LINE
  5
3691
330
1F
100
AcDbEntity
  8
P-0000
  6
Continuous
 62
     7
100
AcDbLine
 10
2637.328299999478
 20
971.2824881727303
 30
0.0
 11
2629.32829999948
 21
971.2824881727303
 31
0.0
1001
ACME_LAYERS
1000
1
  0
LINE
  5
3692
330
1F
100
AcDbEntity
  8
P-0000
  6
Continuous
 62
     7
100
AcDbLine
 10
2659.32829999948
 20
971.2824881727303
 30
0.0
 11
2637.328299999478
 21
971.2824881727303
 31
0.0
1001
ACME_LAYERS
1000
1
  0
LINE
  5
3693
330
1F
100
AcDbEntity
  8
P-0000
  6
Continuous
 62
     7
100
AcDbLine
 10
2667.328299999478
 20
971.2824881727303
 30
0.0
 11
2659.32829999948
 21
971.2824881727303
 31
0.0
1001
ACME_LAYERS
1000
1
  0
LINE
  5
3694
330
1F
100
AcDbEntity
  8
P-0000
  6
Continuous
 62
     7
100
AcDbLine
 10
2695.328299999467
 20
966.2824881727303
 30
0.0
 11
2682.82829999948
 21
966.2824881727303
 31
0.0
1001
ACME_LAYERS
1000
1
  0
LINE
  5
3695
330
1F
100
AcDbEntity
  8
P-0000
  6
Continuous
 62
     7
100
AcDbLine
 10
2682.82829999948
 20
971.2824881727303
 30
0.0
 11
2674.328299999479
 21
971.2824881727303
 31
0.0
1001
ACME_LAYERS
1000
1
  0
LINE
  5
3696
330
1F
100
AcDbEntity
  8
P-0000
  6
Continuous
 62
     7
100
AcDbLine
 10
2682.82829999948
 20
971.2824881727303
 30
0.0
 11
2682.82829999948
 21
966.2824881727303
 31
0.0
1001
ACME_LAYERS
1000
1
  0
LINE
  5
3697
330
1F
100
AcDbEntity
  8
P-0000
  6
Continuous
 62
     7
100
AcDbLine
 10
2695.328299999467
 20
966.2824881727303
 30
0.0
 11
2695.328299999467
 21
956.2824881727303
 31
0.0
1001
ACME_LAYERS
1000
1
  0
LINE
  5
3698
330
1F
100
AcDbEntity
  8
P-0000
  6
Continuous
 62
     7
100
AcDbLine
 10
2695.328299999467
 20
956.2824881727303
 30
0.0
 11
2687.328299999467
 21
956.2824881727303
 31
0.0
1001
ACME_LAYERS
1000
1
  0
LINE
  5
3699
330
1F
100
AcDbEntity
  8
P-0000
  6
Continuous
 62
     7
100
AcDbLine
 10
2644.328299999478
 20
866.2824881727303
 30
0.0
 11
2687.328299999467
 21
866.2824881727303
 31
0.0
1001
ACME_LAYERS
1000
1
  0
LINE
  5
369A
330
1F
100
AcDbEntity
  8
P-0000
  6
Continuous
 62
     7
100
AcDbLine
 10
2629.32829999948
 20
866.2824881727303
 30
0.0
 11
2637.328299999478
 21
866.2824881727303
 31
0.0
1001
ACME_LAYERS
1000
1
  0
LINE
  5
369B
330
1F
100
AcDbEntity
  8
P-0000
  6
Continuous
 62
     7
100
AcDbLine
 10
2637.328299999478
 20
866.2824881727303
 30
0.0
 11
2644.328299999478
 21
866.2824881727303
 31
0.0
1001
ACME_LAYERS
1000
1
  0
LINE
  5
369C
330
1F
100
AcDbEntity
  8
P-0000
  6
Continuous
 62
     7
100
AcDbLine
 10
2659.32829999948
 20
866.2824881727303
 30
0.0
 11
2667.328299999478
 21
866.2824881727303
 31
0.0
1001
ACME_LAYERS
1000
1
  0
LINE
  5
369D
330
1F
100
AcDbEntity
  8
P-0000
  6
Continuous
 62
     7
100
AcDbLine
 10
2687.328299999467
 20
866.2824881727303
 30
0.0
 11
2695.328299999462
 21
866.2824881727303
 31
0.0
1001
ACME_LAYERS
1000
1
  0
DIMENSION
  5
36E3
102
{ACAD_XDICTIONARY
360
36F0
102
}
102
{ACAD_REACTORS
330
36F1
102
}
330
1F
100
AcDbEntity
  8
AM_5
100
AcDbDimension
  2
*D3
 10
2421.13279095971
 20
1117.070835855105
 30
0.0
 11
2415.63279095971
 21
931.6766620139159
 31
0.0
 70
    32
 71
     5
 42
370.7883476823793
  3
AM_DIN$0
100
AcDbAlignedDimension
 13
2592.828299999477
 23
746.2824881727257
 33
0.0
 14
2433.132790959709
 24
1117.070835855105
 34
0.0
 50
90.0
100
AcDbRotatedDimension
1001
ACAD_DSTYLE_DIMINSPECT
1070
   396
1000
100%
1070
   395
1000

1070
   394
1070
    33
1070
   393
1070
     0
1001
ACAD
1000
DSTYLE
1002
{
1070
    41
1040
5.0
1070
   140
1040
8.0
1070
   271
1070
     0
1002
}
  0
ENDSEC
  0
SECTION
  2
OBJECTS
  0
DICTIONARY
  5
C
330
0
100
AcDbDictionary
281
     1
  3
ACAD_2007HEADERVARS_RT
350
383D
  3
ACAD_COLOR
350
BE
  3
ACAD_GROUP
350
D
  3
ACAD_LAYOUT
350
1A
  3
ACAD_MATERIAL
350
BD
  3
ACAD_MLEADERSTYLE
350
3EF
  3
ACAD_MLINESTYLE
350
17
  3
ACAD_PLOTSETTINGS
350
19
  3
ACAD_PLOTSTYLENAME
350
E
  3
ACAD_SCALELIST
350
3DD
  3
ACAD_TABLESTYLE
350
11A
  3
ACAD_VISUALSTYLE
350
3CC
  3
ACDB_RECOMPOSE_DATA
350
2228
  3
AcDbVariableDictionary
350
94
  3
AcmDictionary
350
5B
  3
AcmSystemVariableManager
350
3849
  3
AEC_PROPERTY_SET_DEFS
350
942
  3
AMG
350
41
  3
AMGSNAPSETTINGS
350
26B
  3
DWGPROPS
350
383C
  0
DICTIONARY
  5
468
330
2
100
AcDbDictionary
280
     1
281
     1
  3
ACAD_LAYERSTATES
360
469
  0
DICTIONARY
  5
20EC
330
10
100
AcDbDictionary
280
     1
281
     1
  3
ADSK_XREC_LAYER_RECONCILED
360
20ED
  0
DICTIONARY
  5
459
330
458
100
AcDbDictionary
280
     1
281
     1
  3
ADSK_XREC_LAYER_RECONCILED
360
20EE
  0
DICTIONARY
  5
45C
330
45B
100
AcDbDictionary
280
     1
281
     1
  3
ADSK_XREC_LAYER_RECONCILED
360
20EF
  0
DICTIONARY
  5
45F
330
45E
100
AcDbDictionary
280
     1
281
     1
  3
ADSK_XREC_LAYER_RECONCILED
360
20F2
  0
DICTIONARY
  5
461
330
460
100
AcDbDictionary
280
     1
281
     1
  3
ADSK_XREC_LAYER_RECONCILED
360
20F3
  0
DICTIONARY
  5
EAE
330
EAD
100
AcDbDictionary
280
     1
281
     1
  3
ADSK_XREC_LAYER_RECONCILED
360
20F5
  0
DICTIONARY
  5
8F
330
1F
100
AcDbDictionary
280
     1
281
     1
  3
ACAD_SORTENTS
360
1DD7
  0
DICTIONARY
  5
36F0
330
36E3
100
AcDbDictionary
280
     1
281
     1
  3
ACAD_DIMASSOC
360
36F1
  0
DICTIONARY
  5
383D
102
{ACAD_REACTORS
330
C
102
}
330
C
100
AcDbDictionary
281
     1
  3
DIMJOGANG
350
383E
  3
DIMLTEX1
350
3840
  3
DIMLTEX2
350
3841
  3
DIMLTYPE
350
383F
  0
DICTIONARY
  5
BE
102
{ACAD_REACTORS
330
C
102
}
330
C
100
AcDbDictionary
281
     1
  0
DICTIONARY
  5
D
102
{ACAD_REACTORS
330
C
102
}
330
C
100
AcDbDictionary
281
     1
  0
DICTIONARY
  5
1A
102
{ACAD_REACTORS
330
C
102
}
330
C
100
AcDbDictionary
281
     1
  3
Layout1
350
1E
  3
Layout2
350
26
  3
Model
350
22
  0
DICTIONARY
  5
BD
102
{ACAD_REACTORS
330
C
102
}
330
C
100
AcDbDictionary
281
     1
  3
ByBlock
350
3BC
  3
ByLayer
350
3B4
  3
Global
350
3C4
  0
DICTIONARY
  5
3EF
102
{ACAD_REACTORS
330
C
102
}
330
C
100
AcDbDictionary
281
     1
  3
Standard
350
3F0
  0
DICTIONARY
  5
17
102
{ACAD_REACTORS
330
C
102
}
330
C
100
AcDbDictionary
281
     1
  3
Standard
350
18
  0
DICTIONARY
  5
19
102
{ACAD_REACTORS
330
C
102
}
330
C
100
AcDbDictionary
281
     1
  0
ACDBDICTIONARYWDFLT
  5
E
102
{ACAD_REACTORS
330
C
102
}
330
C
100
AcDbDictionary
281
     1
  3
Normal
350
F
100
AcDbDictionaryWithDefault
340
F
  0
DICTIONARY
  5
3DD
102
{ACAD_REACTORS
330
C
102
}
330
C
100
AcDbDictionary
281
     1
  3
A0
350
3DE
  3
A1
350
3DF
  3
A2
350
3E0
  3
A3
350
3E1
  3
A4
350
3E2
  3
A5
350
3E3
  3
A6
350
3E4
  3
A7
350
3E5
  3
A8
350
3E6
  3
A9
350
3E7
  3
B0
350
3E8
  3
B1
350
3E9
  3
B2
350
3EA
  3
B3
350
3EB
  3
B4
350
3EC
  3
B5
350
3ED
  3
B6
350
3EE
  0
DICTIONARY
  5
11A
102
{ACAD_REACTORS
330
C
102
}
330
C
100
AcDbDictionary
281
     1
  3
Standard
350
11B
  0
DICTIONARY
  5
3CC
102
{ACAD_REACTORS
330
C
102
}
330
C
100
AcDbDictionary
281
     1
  3
2dWireframe
350
3D2
  3
3D Hidden
350
3D4
  3
3dWireframe
350
3D3
  3
Basic
350
3D1
  3
Brighten
350
3D8
  3
ColorChange
350
3DC
  3
Conceptual
350
3D5
  3
Dim
350
3D7
  3
Facepattern
350
3DB
  3
Flat
350
3CD
  3
FlatWithEdges
350
3CE
  3
Gouraud
350
3CF
  3
GouraudWithEdges
350
3D0
  3
Linepattern
350
3DA
  3
Realistic
350
3D6
  3
Thicken
350
3D9
  0
XRECORD
  5
2228
102
{ACAD_REACTORS
330
C
102
}
330
C
100
AcDbXrecord
280
     1
 90
        1
330
11B
  0
DICTIONARY
  5
94
102
{ACAD_REACTORS
330
C
102
}
330
C
100
AcDbDictionary
281
     1
  3
CANNOSCALE
350
2224
  3
CMLEADERSTYLE
350
2223
  3
CTABLESTYLE
350
138
  3
DIMASSOC
350
96
  3
INDEXCTL
350
95
  3
SORTENTS
350
2225
  0
DICTIONARY
  5
5B
102
{ACAD_REACTORS
330
C
102
}
330
C
100
AcDbDictionary
281
     1
  3
AcmBOM
350
272
  3
AcmStdDictionary
350
61
  3
AMDTSECTSYM_ARROWCOLOR
350
123
  0
DICTIONARY
  5
942
102
{ACAD_REACTORS
330
C
102
}
330
C
100
AcDbDictionary
281
     1
  0
DICTIONARY
  5
41
102
{ACAD_REACTORS
330
C
102
}
330
C
100
AcDbDictionary
281
     1
  0
DICTIONARY
  5
26B
102
{ACAD_REACTORS
330
C
102
}
330
C
100
AcDbDictionary
281
     1
  0
XRECORD
  5
383C
102
{ACAD_REACTORS
330
C
102
}
330
C
100
AcDbXrecord
280
     1
  1
DWGPROPS COOKIE
  2

  3

  4

  6

  7

  8
jamoeller
  9

300
AmdtFileType=84
301
=
302
=
303
=
304
=
305
=
306
=
307
=
308
=
309
=
 40
0.2559371296296296
 41
2455477.292545521
 42
2455610.329040243
  1

 90
        1
  0
DICTIONARY
  5
469
102
{ACAD_REACTORS
330
468
102
}
330
468
100
AcDbDictionary
281
     1
  0
XRECORD
  5
20ED
102
{ACAD_REACTORS
330
20EC
102
}
330
20EC
100
AcDbXrecord
280
     1
290
     1
  0
XRECORD
  5
20EE
102
{ACAD_REACTORS
330
459
102
}
330
459
100
AcDbXrecord
280
     1
290
     1
  0
XRECORD
  5
20EF
102
{ACAD_REACTORS
330
45C
102
}
330
45C
100
AcDbXrecord
280
     1
290
     1
  0
XRECORD
  5
20F2
102
{ACAD_REACTORS
330
45F
102
}
330
45F
100
AcDbXrecord
280
     1
290
     1
  0
XRECORD
  5
20F3
102
{ACAD_REACTORS
330
461
102
}
330
461
100
AcDbXrecord
280
     1
290
     1
  0
XRECORD
  5
20F5
102
{ACAD_REACTORS
330
EAE
102
}
330
EAE
100
AcDbXrecord
280
     1
290
     1
  0
SORTENTSTABLE
  5
1DD7
102
{ACAD_REACTORS
330
8F
102
}
330
8F
100
AcDbSortentsTable
330
1F
331
B63
  5
B63
331
B7E
  5
B7E
331
BBD
  5
BBD
331
99A
  5
99A
331
9E1
  5
9E1
331
9E9
  5
9E9
331
C06
  5
C06
331
C5D
  5
C5D
331
B86
  5
B86
331
BC5
  5
BC5
331
9A2
  5
9A2
331
9AA
  5
9AA
331
9F9
  5
9F9
331
BCD
  5
BCD
331
B34
  5
B34
331
B73
  5
B73
331
948
  5
948
331
9B2
  5
9B2
331
B96
  5
B96
331
950
  5
950
331
9BA
  5
9BA
331
B9E
  5
B9E
331
B44
  5
B44
331
C26
  5
C26
331
B4C
  5
B4C
331
983
  5
983
331
9C2
  5
9C2
331
BE7
  5
BE7
331
C2E
  5
C2E
331
BAE
  5
BAE
331
98B
  5
98B
331
960
  5
960
331
B5C
  5
B5C
331
BB6
  5
BB6
331
993
  5
993
331
968
  5
968
331
2025
  5
2026
331
BBE
  5
BBE
331
9E2
  5
9E2
331
B7F
  5
B7F
331
970
  5
970
331
BC6
  5
BC6
331
9A3
  5
9A3
331
9EA
  5
9EA
331
C07
  5
C07
331
B87
  5
B87
331
978
  5
978
331
B74
  5
B74
331
9AB
  5
9AB
331
BCE
  5
BCE
331
B35
  5
B35
331
9FA
  5
9FA
331
B97
  5
B97
331
9B3
  5
9B3
331
C1F
  5
C1F
331
BD0
  5
BD0
331
9BB
  5
9BB
331
B45
  5
B45
331
B9F
  5
B9F
331
951
  5
951
331
9C3
  5
9C3
331
C27
  5
C27
331
B4D
  5
B4D
331
984
  5
984
331
98C
  5
98C
331
961
  5
961
331
BAF
  5
BAF
331
B5D
  5
B5D
331
994
  5
994
331
969
  5
969
331
C57
  5
C57
331
2026
  5
2027
331
B78
  5
B78
331
C00
  5
C00
331
B80
  5
B80
331
BBF
  5
BBF
331
C08
  5
C08
331
9EB
  5
9EB
331
B6D
  5
B6D
331
BC7
  5
BC7
331
9A4
  5
9A4
331
971
  5
971
331
9FB
  5
9FB
331
BCF
  5
BCF
331
B36
  5
B36
331
B75
  5
B75
331
D87
  5
D87
331
94A
  5
94A
331
9B4
  5
9B4
331
B3E
  5
B3E
331
B98
  5
B98
331
C20
  5
C20
331
9BC
  5
9BC
331
BD1
  5
BD1
331
BA0
  5
BA0
331
B46
  5
B46
331
C28
  5
C28
331
B4E
  5
B4E
331
985
  5
985
331
9C4
  5
9C4
331
BE9
  5
BE9
331
BB0
  5
BB0
331
98D
  5
98D
331
962
  5
962
331
96A
  5
96A
331
9DC
  5
9DC
331
BF1
  5
BF1
331
B5E
  5
B5E
331
995
  5
995
331
B79
  5
B79
331
BB8
  5
BB8
331
9E4
  5
9E4
331
C01
  5
C01
331
BC0
  5
BC0
331
B81
  5
B81
331
972
  5
972
331
B6E
  5
B6E
331
B89
  5
B89
331
BC8
  5
BC8
331
9A5
  5
9A5
331
9EC
  5
9EC
331
C09
  5
C09
331
9FC
  5
9FC
331
B76
  5
B76
331
9AD
  5
9AD
331
94B
  5
94B
331
B3F
  5
B3F
331
9B5
  5
9B5
331
B99
  5
B99
331
9BD
  5
9BD
331
BD2
  5
BD2
331
B47
  5
B47
331
C21
  5
C21
331
BA1
  5
BA1
331
986
  5
986
331
9C5
  5
9C5
331
B4F
  5
B4F
331
C29
  5
C29
331
D88
  5
D88
331
DC0
  5
DC0
331
BB1
  5
BB1
331
98E
  5
98E
331
963
  5
963
331
BEA
  5
BEA
331
96B
  5
96B
331
B5F
  5
B5F
331
996
  5
996
331
9DD
  5
9DD
331
BF2
  5
BF2
331
B7A
  5
B7A
331
BB9
  5
BB9
331
9E5
  5
9E5
331
C02
  5
C02
331
A00
  5
A00
331
B67
  5
B67
331
B82
  5
B82
331
BC1
  5
BC1
331
99E
  5
99E
331
973
  5
973
331
9ED
  5
9ED
331
C61
  5
C61
331
B6F
  5
B6F
331
BC9
  5
BC9
331
9A6
  5
9A6
331
97B
  5
97B
331
9AE
  5
9AE
331
9FD
  5
9FD
331
C12
  5
C12
331
B92
  5
B92
331
B77
  5
B77
331
94C
  5
94C
331
9B6
  5
9B6
331
B9A
  5
B9A
331
C22
  5
C22
331
9BE
  5
9BE
331
BD3
  5
BD3
331
BA2
  5
BA2
331
B48
  5
B48
331
C2A
  5
C2A
331
D89
  5
D89
331
95C
  5
95C
331
B50
  5
B50
331
987
  5
987
331
9C6
  5
9C6
331
DC1
  5
DC1
331
B58
  5
B58
331
BB2
  5
BB2
331
98F
  5
98F
331
964
  5
964
331
96C
  5
96C
331
997
  5
997
331
9DE
  5
9DE
331
BF3
  5
BF3
331
B60
  5
B60
331
B7B
  5
B7B
331
BBA
  5
BBA
331
C5A
  5
C5A
331
BC2
  5
BC2
331
A01
  5
A01
331
9E6
  5
9E6
331
C03
  5
C03
331
B83
  5
B83
331
B70
  5
B70
331
BCA
  5
BCA
331
9A7
  5
9A7
331
974
  5
974
331
C13
  5
C13
331
9FE
  5
9FE
331
945
  5
945
331
B93
  5
B93
331
9AF
  5
9AF
331
94D
  5
94D
331
9B7
  5
9B7
331
B41
  5
B41
331
B9B
  5
B9B
331
C23
  5
C23
331
9BF
  5
9BF
331
B49
  5
B49
331
BA3
  5
BA3
331
955
  5
955
331
D8A
  5
D8A
331
95D
  5
95D
331
988
  5
988
331
9C7
  5
9C7
331
BE4
  5
BE4
331
BAB
  5
BAB
331
C2B
  5
C2B
331
DC2
  5
DC2
331
990
  5
990
331
965
  5
965
331
BEC
  5
BEC
331
BB3
  5
BB3
331
B59
  5
B59
331
96D
  5
96D
331
9DF
  5
9DF
331
BF4
  5
BF4
331
B61
  5
B61
331
B7C
  5
B7C
331
BBB
  5
BBB
331
998
  5
998
331
C04
  5
C04
331
A02
  5
A02
331
B84
  5
B84
331
BC3
  5
BC3
331
9A0
  5
9A0
331
9A8
  5
9A8
331
975
  5
975
331
B71
  5
B71
331
BCB
  5
BCB
331
9B0
  5
9B0
331
9FF
  5
9FF
331
C14
  5
C14
331
B94
  5
B94
331
94E
  5
94E
331
C1C
  5
C1C
331
9B8
  5
9B8
331
B9C
  5
B9C
331
B42
  5
B42
331
C24
  5
C24
331
B4A
  5
B4A
331
BA4
  5
BA4
331
981
  5
981
331
9C0
  5
9C0
331
BE5
  5
BE5
331
C2C
  5
C2C
331
95E
  5
95E
331
BAC
  5
BAC
331
989
  5
989
331
9C8
  5
9C8
331
DC3
  5
DC3
331
B5A
  5
B5A
331
BB4
  5
BB4
331
991
  5
991
331
966
  5
966
331
96E
  5
96E
331
BF5
  5
BF5
331
BBC
  5
BBC
331
B7D
  5
B7D
331
B62
  5
B62
331
BC4
  5
BC4
331
9A1
  5
9A1
331
C05
  5
C05
331
B85
  5
B85
331
976
  5
976
331
B72
  5
B72
331
BCC
  5
BCC
331
9A9
  5
9A9
331
9F8
  5
9F8
331
947
  5
947
331
B95
  5
B95
331
9B1
  5
9B1
331
C1D
  5
C1D
331
94F
  5
94F
331
9B9
  5
9B9
331
B43
  5
B43
331
B9D
  5
B9D
331
9C1
  5
9C1
331
C25
  5
C25
331
B4B
  5
B4B
331
BA5
  5
BA5
331
982
  5
982
331
98A
  5
98A
331
95F
  5
95F
331
BE6
  5
BE6
331
BAD
  5
BAD
331
C2D
  5
C2D
331
BB5
  5
BB5
331
992
  5
992
331
967
  5
967
331
C55
  5
C55
331
96F
  5
96F
  0
DIMASSOC
  5
36F1
102
{ACAD_REACTORS
330
36F0
102
}
330
36F0
100
AcDbDimAssoc
330
36E3
 90
        3
 70
     0
 71
     0
  1
AcDbOsnapPointRef
 72
     6
331
997
 73
     0
 91
        0
 40
0.4997517475600227
 10
0.0
 20
0.0
 30
0.0
332
2E98
 74
     0
 92
        0
 75
     0
  1
AcDbOsnapPointRef
 72
     3
331
969
 73
     0
 91
        0
 40
0.7853981633973729
 10
0.0
 20
0.0
 30
0.0
 75
     0
  0
XRECORD
  5
383E
102
{ACAD_REACTORS
330
383D
102
}
330
383D
100
AcDbXrecord
280
     1
 40
1.570796326794896
  0
XRECORD
  5
3840
102
{ACAD_REACTORS
330
383D
102
}
330
383D
100
AcDbXrecord
280
     1
340
14
  0
XRECORD
  5
3841
102
{ACAD_REACTORS
330
383D
102
}
330
383D
100
AcDbXrecord
280
     1
340
14
  0
XRECORD
  5
383F
102
{ACAD_REACTORS
330
383D
102
}
330
383D
100
AcDbXrecord
280
     1
340
14
  0
LAYOUT
  5
1E
102
{ACAD_XDICTIONARY
360
3842
102
}
102
{ACAD_REACTORS
330
1A
102
}
330
1A
100
AcDbPlotSettings
  1

  2

  4

  6

 40
0.0
 41
0.0
 42
0.0
 43
0.0
 44
0.0
 45
0.0
 46
0.0
 47
0.0
 48
0.0
 49
0.0
140
0.0
141
0.0
142
1.0
143
1.0
 70
   688
 72
     0
 73
     0
 74
     5
  7

 75
    16
147
1.0
148
0.0
149
0.0
100
AcDbLayout
  1
Layout1
 70
     1
 71
     1
 10
0.0
 20
0.0
 11
420.0
 21
297.0
 12
0.0
 22
0.0
 32
0.0
 14
1.000000000000000E+20
 24
1.000000000000000E+20
 34
1.000000000000000E+20
 15
-1.000000000000000E+20
 25
-1.000000000000000E+20
 35
-1.000000000000000E+20
146
0.0
 13
0.0
 23
0.0
 33
0.0
 16
1.0
 26
0.0
 36
0.0
 17
0.0
 27
1.0
 37
0.0
 76
     0
330
1B
  0
LAYOUT
  5
26
102
{ACAD_XDICTIONARY
360
3846
102
}
102
{ACAD_REACTORS
330
1A
102
}
330
1A
100
AcDbPlotSettings
  1

  2

  4

  6

 40
0.0
 41
0.0
 42
0.0
 43
0.0
 44
0.0
 45
0.0
 46
0.0
 47
0.0
 48
0.0
 49
0.0
140
0.0
141
0.0
142
1.0
143
1.0
 70
   688
 72
     0
 73
     0
 74
     5
  7

 75
    16
147
1.0
148
0.0
149
0.0
100
AcDbLayout
  1
Layout2
 70
     1
 71
     2
 10
0.0
 20
0.0
 11
12.0
 21
9.0
 12
0.0
 22
0.0
 32
0.0
 14
0.0
 24
0.0
 34
0.0
 15
0.0
 25
0.0
 35
0.0
146
0.0
 13
0.0
 23
0.0
 33
0.0
 16
1.0
 26
0.0
 36
0.0
 17
0.0
 27
1.0
 37
0.0
 76
     0
330
23
  0
LAYOUT
  5
22
102
{ACAD_XDICTIONARY
360
3844
102
}
102
{ACAD_REACTORS
330
1A
102
}
330
1A
100
AcDbPlotSettings
  1

  2
\\rd-sr-230\ST-PR-055
  4
A4
  6

 40
6.805083274841307
 41
5.619739055633544
 42
7.016738891601562
 43
7.14373779296875
 44
209.9733276367186
 45
296.9683227539062
 46
0.0
 47
0.0
 48
0.0
 49
0.0
140
0.0
141
0.0
142
1.0
143
1.414450568112764
 70
 11952
 72
     1
 73
     1
 74
     0
  7

 75
     0
147
0.7069882981730873
148
-2399.222989623186
149
-1003.885186403515
100
AcDbLayout
  1
Model
 70
     1
 71
     0
 10
0.0
 20
0.0
 11
12.0
 21
9.0
 12
0.0
 22
0.0
 32
0.0
 14
0.0
 24
0.0
 34
0.0
 15
0.0
 25
0.0
 35
0.0
146
0.0
 13
0.0
 23
0.0
 33
0.0
 16
1.0
 26
0.0
 36
0.0
 17
0.0
 27
1.0
 37
0.0
 76
     0
330
1F
331
3B2
1001
ACAD_PSEXT
1000
\\rd-sr-230\ST-PR-055
1000
Xerox Document Centre 440
1000
ST
1000
*** 
1070
     0
  0
MATERIAL
  5
3BC
102
{ACAD_XDICTIONARY
360
3BD
102
}
102
{ACAD_REACTORS
330
BD
102
}
330
BD
100
AcDbMaterial
  1
ByBlock
 72
     0
 43
0.0008202099737533
 43
0.0
 43
0.0
 43
0.0
 43
0.0
 43
0.0008202099737533
 43
0.0
 43
0.0
 43
0.0
 43
0.0
 43
1.0
 43
0.0
 43
0.0
 43
0.0
 43
0.0
 43
1.0
 77
     0
 47
0.0008202099737533
 47
0.0
 47
0.0
 47
0.0
 47
0.0
 47
0.0008202099737533
 47
0.0
 47
0.0
 47
0.0
 47
0.0
 47
1.0
 47
0.0
 47
0.0
 47
0.0
 47
0.0
 47
1.0
171
     0
 49
0.0008202099737533
 49
0.0
 49
0.0
 49
0.0
 49
0.0
 49
0.0008202099737533
 49
0.0
 49
0.0
 49
0.0
 49
0.0
 49
1.0
 49
0.0
 49
0.0
 49
0.0
 49
0.0
 49
1.0
175
     0
142
0.0008202099737533
142
0.0
142
0.0
142
0.0
142
0.0
142
0.0008202099737533
142
0.0
142
0.0
142
0.0
142
0.0
142
1.0
142
0.0
142
0.0
142
0.0
142
0.0
142
1.0
179
     0
144
0.0008202099737533
144
0.0
144
0.0
144
0.0
144
0.0
144
0.0008202099737533
144
0.0
144
0.0
144
0.0
144
0.0
144
1.0
144
0.0
144
0.0
144
0.0
144
0.0
144
1.0
147
0.0008202099737533
147
0.0
147
0.0
147
0.0
147
0.0
147
0.0008202099737533
147
0.0
147
0.0
147
0.0
147
0.0
147
1.0
147
0.0
147
0.0
147
0.0
147
0.0
147
1.0
  0
MATERIAL
  5
3B4
102
{ACAD_XDICTIONARY
360
3B5
102
}
102
{ACAD_REACTORS
330
BD
102
}
330
BD
100
AcDbMaterial
  1
ByLayer
 72
     0
 43
0.0008202099737533
 43
0.0
 43
0.0
 43
0.0
 43
0.0
 43
0.0008202099737533
 43
0.0
 43
0.0
 43
0.0
 43
0.0
 43
1.0
 43
0.0
 43
0.0
 43
0.0
 43
0.0
 43
1.0
 77
     0
 47
0.0008202099737533
 47
0.0
 47
0.0
 47
0.0
 47
0.0
 47
0.0008202099737533
 47
0.0
 47
0.0
 47
0.0
 47
0.0
 47
1.0
 47
0.0
 47
0.0
 47
0.0
 47
0.0
 47
1.0
171
     0
 49
0.0008202099737533
 49
0.0
 49
0.0
 49
0.0
 49
0.0
 49
0.0008202099737533
 49
0.0
 49
0.0
 49
0.0
 49
0.0
 49
1.0
 49
0.0
 49
0.0
 49
0.0
 49
0.0
 49
1.0
175
     0
142
0.0008202099737533
142
0.0
142
0.0
142
0.0
142
0.0
142
0.0008202099737533
142
0.0
142
0.0
142
0.0
142
0.0
142
1.0
142
0.0
142
0.0
142
0.0
142
0.0
142
1.0
179
     0
144
0.0008202099737533
144
0.0
144
0.0
144
0.0
144
0.0
144
0.0008202099737533
144
0.0
144
0.0
144
0.0
144
0.0
144
1.0
144
0.0
144
0.0
144
0.0
144
0.0
144
1.0
147
0.0008202099737533
147
0.0
147
0.0
147
0.0
147
0.0
147
0.0008202099737533
147
0.0
147
0.0
147
0.0
147
0.0
147
1.0
147
0.0
147
0.0
147
0.0
147
0.0
147
1.0
  0
MATERIAL
  5
3C4
102
{ACAD_XDICTIONARY
360
3C5
102
}
102
{ACAD_REACTORS
330
BD
102
}
330
BD
100
AcDbMaterial
  1
Global
 72
     0
 43
0.0008202099737533
 43
0.0
 43
0.0
 43
0.0
 43
0.0
 43
0.0008202099737533
 43
0.0
 43
0.0
 43
0.0
 43
0.0
 43
1.0
 43
0.0
 43
0.0
 43
0.0
 43
0.0
 43
1.0
 77
     0
 47
0.0008202099737533
 47
0.0
 47
0.0
 47
0.0
 47
0.0
 47
0.0008202099737533
 47
0.0
 47
0.0
 47
0.0
 47
0.0
 47
1.0
 47
0.0
 47
0.0
 47
0.0
 47
0.0
 47
1.0
171
     0
 49
0.0008202099737533
 49
0.0
 49
0.0
 49
0.0
 49
0.0
 49
0.0008202099737533
 49
0.0
 49
0.0
 49
0.0
 49
0.0
 49
1.0
 49
0.0
 49
0.0
 49
0.0
 49
0.0
 49
1.0
175
     0
142
0.0008202099737533
142
0.0
142
0.0
142
0.0
142
0.0
142
0.0008202099737533
142
0.0
142
0.0
142
0.0
142
0.0
142
1.0
142
0.0
142
0.0
142
0.0
142
0.0
142
1.0
179
     0
144
0.0008202099737533
144
0.0
144
0.0
144
0.0
144
0.0
144
0.0008202099737533
144
0.0
144
0.0
144
0.0
144
0.0
144
1.0
144
0.0
144
0.0
144
0.0
144
0.0
144
1.0
147
0.0008202099737533
147
0.0
147
0.0
147
0.0
147
0.0
147
0.0008202099737533
147
0.0
147
0.0
147
0.0
147
0.0
147
1.0
147
0.0
147
0.0
147
0.0
147
0.0
147
1.0
  0
MLEADERSTYLE
  5
3F0
102
{ACAD_REACTORS
330
3EF
102
}
330
3EF
100
AcDbMLeaderStyle
170
     2
171
     1
172
     0
 90
        2
 40
0.0
 41
0.0
173
     1
 91
-1056964608
340
14
 92
       -2
290
     1
 42
2.0
291
     1
 43
0.36
  3
Standard
 44
4.0
300

342
11
174
     1
178
     6
175
     1
176
     0
 93
-1056964608
 45
4.0
292
     0
297
     0
 46
4.0
 94
-1056964608
 47
1.0
 49
1.0
140
1.0
293
     1
141
0.0
294
     1
177
     0
142
1.0
295
     0
296
     0
143
0.125
1001
ACAD_MLEADERVER
1070
     2
  0
MLINESTYLE
  5
18
102
{ACAD_REACTORS
330
17
102
}
330
17
100
AcDbMlineStyle
  2
STANDARD
 70
     0
  3

 62
   256
 51
90.0
 52
90.0
 71
     2
 49
0.5
 62
   256
  6
BYLAYER
 49
-0.5
 62
   256
  6
BYLAYER
  0
ACDBPLACEHOLDER
  5
F
102
{ACAD_REACTORS
330
E
102
}
330
E
  0
SCALE
  5
3DE
102
{ACAD_REACTORS
330
3DD
102
}
330
3DD
100
AcDbScale
 70
     0
300
1:1
140
1.0
141
1.0
290
     1
  0
SCALE
  5
3DF
102
{ACAD_REACTORS
330
3DD
102
}
330
3DD
100
AcDbScale
 70
     0
300
1:2
140
1.0
141
2.0
290
     0
  0
SCALE
  5
3E0
102
{ACAD_REACTORS
330
3DD
102
}
330
3DD
100
AcDbScale
 70
     0
300
1:4
140
1.0
141
4.0
290
     0
  0
SCALE
  5
3E1
102
{ACAD_REACTORS
330
3DD
102
}
330
3DD
100
AcDbScale
 70
     0
300
1:5
140
1.0
141
5.0
290
     0
  0
SCALE
  5
3E2
102
{ACAD_REACTORS
330
3DD
102
}
330
3DD
100
AcDbScale
 70
     0
300
1:8
140
1.0
141
8.0
290
     0
  0
SCALE
  5
3E3
102
{ACAD_REACTORS
330
3DD
102
}
330
3DD
100
AcDbScale
 70
     0
300
1:10
140
1.0
141
10.0
290
     0
  0
SCALE
  5
3E4
102
{ACAD_REACTORS
330
3DD
102
}
330
3DD
100
AcDbScale
 70
     0
300
1:16
140
1.0
141
16.0
290
     0
  0
SCALE
  5
3E5
102
{ACAD_REACTORS
330
3DD
102
}
330
3DD
100
AcDbScale
 70
     0
300
1:20
140
1.0
141
20.0
290
     0
  0
SCALE
  5
3E6
102
{ACAD_REACTORS
330
3DD
102
}
330
3DD
100
AcDbScale
 70
     0
300
1:30
140
1.0
141
30.0
290
     0
  0
SCALE
  5
3E7
102
{ACAD_REACTORS
330
3DD
102
}
330
3DD
100
AcDbScale
 70
     0
300
1:40
140
1.0
141
40.0
290
     0
  0
SCALE
  5
3E8
102
{ACAD_REACTORS
330
3DD
102
}
330
3DD
100
AcDbScale
 70
     0
300
1:50
140
1.0
141
50.0
290
     0
  0
SCALE
  5
3E9
102
{ACAD_REACTORS
330
3DD
102
}
330
3DD
100
AcDbScale
 70
     0
300
1:100
140
1.0
141
100.0
290
     0
  0
SCALE
  5
3EA
102
{ACAD_REACTORS
330
3DD
102
}
330
3DD
100
AcDbScale
 70
     0
300
2:1
140
2.0
141
1.0
290
     0
  0
SCALE
  5
3EB
102
{ACAD_REACTORS
330
3DD
102
}
330
3DD
100
AcDbScale
 70
     0
300
4:1
140
4.0
141
1.0
290
     0
  0
SCALE
  5
3EC
102
{ACAD_REACTORS
330
3DD
102
}
330
3DD
100
AcDbScale
 70
     0
300
8:1
140
8.0
141
1.0
290
     0
  0
SCALE
  5
3ED
102
{ACAD_REACTORS
330
3DD
102
}
330
3DD
100
AcDbScale
 70
     0
300
10:1
140
10.0
141
1.0
290
     0
  0
SCALE
  5
3EE
102
{ACAD_REACTORS
330
3DD
102
}
330
3DD
100
AcDbScale
 70
     0
300
100:1
140
100.0
141
1.0
290
     0
  0
TABLESTYLE
  5
11B
102
{ACAD_XDICTIONARY
360
2226
102
}
102
{ACAD_REACTORS
330
11A
102
}
330
11A
100
AcDbTableStyle
  3
Standard
 70
     0
 71
     0
 40
1.5
 41
1.5
280
     0
281
     0
  7
STANDARD
140
4.5
170
     2
 62
     0
 63
     7
283
     0
274
    -2
284
     1
 64
     0
275
    -2
285
     1
 65
     0
276
    -2
286
     1
 66
     0
277
    -2
287
     1
 67
     0
278
    -2
288
     1
 68
     0
279
    -2
289
     1
 69
     0
  7
STANDARD
140
6.0
170
     5
 62
     0
 63
     7
283
     0
274
    -2
284
     1
 64
     0
275
    -2
285
     1
 65
     0
276
    -2
286
     1
 66
     0
277
    -2
287
     1
 67
     0
278
    -2
288
     1
 68
     0
279
    -2
289
     1
 69
     0
  7
STANDARD
140
4.5
170
     5
 62
     0
 63
     7
283
     0
274
    -2
284
     1
 64
     0
275
    -2
285
     1
 65
     0
276
    -2
286
     1
 66
     0
277
    -2
287
     1
 67
     0
278
    -2
288
     1
 68
     0
279
    -2
289
     1
 69
     0
  0
VISUALSTYLE
  5
3D2
102
{ACAD_REACTORS
330
3CC
102
}
330
3CC
100
AcDbVisualStyle
  2
2dWireframe
 70
     4
 71
     0
 72
     2
 73
     0
 90
        0
 40
-0.6
 41
-30.0
 62
     5
 63
     7
 74
     1
 91
        4
 64
     7
 65
   257
 75
     1
175
     1
 42
1.0
 92
        0
 66
   257
 43
1.0
 76
     1
 77
     6
 78
     2
 67
     7
 79
     5
170
     0
171
     0
290
     0
174
     0
 93
        1
 44
0.0
173
     0
291
     0
 45
0.0
1001
ACAD
1000
AcDbSavedByObjectVersion
1070
     0
1000
AcDbSavedByObjectVersion
1070
     0
1000
AcDbSavedByObjectVersion
1070
     0
1000
AcDbSavedByObjectVersion
1070
     0
1000
AcDbSavedByObjectVersion
1070
     0
1000
AcDbSavedByObjectVersion
1070
     0
1000
AcDbSavedByObjectVersion
1070
     0
1000
AcDbSavedByObjectVersion
1070
     0
1000
AcDbSavedByObjectVersion
1070
     0
1000
AcDbSavedByObjectVersion
1070
     0
1000
AcDbSavedByObjectVersion
1070
     0
1000
AcDbSavedByObjectVersion
1070
     0
  0
VISUALSTYLE
  5
3D4
102
{ACAD_REACTORS
330
3CC
102
}
330
3CC
100
AcDbVisualStyle
  2
3D Hidden
 70
     6
 71
     1
 72
     2
 73
     2
 90
        0
 40
-0.6
 41
-30.0
 62
     5
 63
     7
 74
     2
 91
        2
 64
     7
 65
   257
 75
     2
175
     1
 42
40.0
 92
        0
 66
   257
 43
1.0
 76
     1
 77
     6
 78
     2
 67
     7
 79
     3
170
     0
171
     0
290
     0
174
     0
 93
        1
 44
0.0
173
     0
291
     0
 45
0.0
1001
ACAD
1000
AcDbSavedByObjectVersion
1070
     0
1000
AcDbSavedByObjectVersion
1070
     0
1000
AcDbSavedByObjectVersion
1070
     0
1000
AcDbSavedByObjectVersion
1070
     0
1000
AcDbSavedByObjectVersion
1070
     0
1000
AcDbSavedByObjectVersion
1070
     0
1000
AcDbSavedByObjectVersion
1070
     0
1000
AcDbSavedByObjectVersion
1070
     0
1000
AcDbSavedByObjectVersion
1070
     0
1000
AcDbSavedByObjectVersion
1070
     0
1000
AcDbSavedByObjectVersion
1070
     0
1000
AcDbSavedByObjectVersion
1070
     0
  0
VISUALSTYLE
  5
3D3
102
{ACAD_REACTORS
330
3CC
102
}
330
3CC
100
AcDbVisualStyle
  2
3dWireframe
 70
     5
 71
     0
 72
     2
 73
     0
 90
        0
 40
-0.6
 41
-30.0
 62
     5
 63
     7
 74
     1
 91
        4
 64
     7
 65
   257
 75
     1
175
     1
 42
1.0
 92
        0
 66
   257
 43
1.0
 76
     1
 77
     6
 78
     2
 67
     7
 79
     5
170
     0
171
     0
290
     0
174
     0
 93
        1
 44
0.0
173
     0
291
     0
 45
0.0
1001
ACAD
1000
AcDbSavedByObjectVersion
1070
     0
1000
AcDbSavedByObjectVersion
1070
     0
1000
AcDbSavedByObjectVersion
1070
     0
1000
AcDbSavedByObjectVersion
1070
     0
1000
AcDbSavedByObjectVersion
1070
     0
1000
AcDbSavedByObjectVersion
1070
     0
1000
AcDbSavedByObjectVersion
1070
     0
1000
AcDbSavedByObjectVersion
1070
     0
1000
AcDbSavedByObjectVersion
1070
     0
1000
AcDbSavedByObjectVersion
1070
     0
1000
AcDbSavedByObjectVersion
1070
     0
1000
AcDbSavedByObjectVersion
1070
     0
  0
VISUALSTYLE
  5
3D1
102
{ACAD_REACTORS
330
3CC
102
}
330
3CC
100
AcDbVisualStyle
  2
Basic
 70
     7
 71
     1
 72
     0
 73
     1
 90
        0
 40
-0.6
 41
-30.0
 62
     5
 63
     7
 74
     0
 91
        4
 64
     7
 65
   257
 75
     1
175
     1
 42
1.0
 92
        8
 66
     7
 43
1.0
 76
     1
 77
     6
 78
     2
 67
     7
 79
     5
170
     0
171
     0
290
     0
174
     0
 93
        1
 44
0.0
173
     0
291
     1
 45
0.0
1001
ACAD
1000
AcDbSavedByObjectVersion
1070
     0
1000
AcDbSavedByObjectVersion
1070
     0
1000
AcDbSavedByObjectVersion
1070
     0
1000
AcDbSavedByObjectVersion
1070
     0
1000
AcDbSavedByObjectVersion
1070
     0
1000
AcDbSavedByObjectVersion
1070
     0
1000
AcDbSavedByObjectVersion
1070
     0
1000
AcDbSavedByObjectVersion
1070
     0
1000
AcDbSavedByObjectVersion
1070
     0
1000
AcDbSavedByObjectVersion
1070
     0
1000
AcDbSavedByObjectVersion
1070
     0
1000
AcDbSavedByObjectVersion
1070
     0
  0
VISUALSTYLE
  5
3D8
102
{ACAD_REACTORS
330
3CC
102
}
330
3CC
100
AcDbVisualStyle
  2
Brighten
 70
    12
 71
     2
 72
     2
 73
     0
 90
        0
 40
-0.6
 41
-30.0
 62
     5
 63
     7
 74
     1
 91
        4
 64
     7
 65
   257
 75
     1
175
     1
 42
1.0
 92
        8
 66
     7
 43
1.0
 76
     1
 77
     6
 78
     2
 67
     7
 79
     5
170
     0
171
     0
290
     0
174
     0
 93
        1
 44
50.0
173
     0
291
     1
 45
0.0
1001
ACAD
1000
AcDbSavedByObjectVersion
1070
     0
1000
AcDbSavedByObjectVersion
1070
     0
1000
AcDbSavedByObjectVersion
1070
     0
1000
AcDbSavedByObjectVersion
1070
     0
1000
AcDbSavedByObjectVersion
1070
     0
1000
AcDbSavedByObjectVersion
1070
     0
1000
AcDbSavedByObjectVersion
1070
     0
1000
AcDbSavedByObjectVersion
1070
     0
1000
AcDbSavedByObjectVersion
1070
     0
1000
AcDbSavedByObjectVersion
1070
     0
1000
AcDbSavedByObjectVersion
1070
     0
1000
AcDbSavedByObjectVersion
1070
     0
  0
VISUALSTYLE
  5
3DC
102
{ACAD_REACTORS
330
3CC
102
}
330
3CC
100
AcDbVisualStyle
  2
ColorChange
 70
    16
 71
     2
 72
     2
 73
     3
 90
        0
 40
-0.6
 41
-30.0
 62
     5
 63
     8
 74
     1
 91
        4
 64
     7
 65
   257
 75
     1
175
     1
 42
1.0
 92
        8
 66
     8
 43
1.0
 76
     1
 77
     6
 78
     2
 67
     7
 79
     5
170
     0
171
     0
290
     0
174
     0
 93
        1
 44
0.0
173
     0
291
     1
 45
0.0
1001
ACAD
1000
AcDbSavedByObjectVersion
1070
     0
1000
AcDbSavedByObjectVersion
1070
     0
1000
AcDbSavedByObjectVersion
1070
     0
1000
AcDbSavedByObjectVersion
1070
     0
1000
AcDbSavedByObjectVersion
1070
     0
1000
AcDbSavedByObjectVersion
1070
     0
1000
AcDbSavedByObjectVersion
1070
     0
1000
AcDbSavedByObjectVersion
1070
     0
1000
AcDbSavedByObjectVersion
1070
     0
1000
AcDbSavedByObjectVersion
1070
     0
1000
AcDbSavedByObjectVersion
1070
     0
1000
AcDbSavedByObjectVersion
1070
     0
  0
VISUALSTYLE
  5
3D5
102
{ACAD_REACTORS
330
3CC
102
}
330
3CC
100
AcDbVisualStyle
  2
Conceptual
 70
     9
 71
     3
 72
     2
 73
     0
 90
        0
 40
-0.6
 41
-30.0
 62
     5
 63
     7
 74
     2
 91
        2
 64
     7
 65
   257
 75
     1
175
     1
 42
40.0
 92
        8
 66
     7
 43
1.0
 76
     1
 77
     6
 78
     2
 67
     7
 79
     3
170
     0
171
     0
290
     0
174
     0
 93
        1
 44
0.0
173
     0
291
     0
 45
0.0
1001
ACAD
1000
AcDbSavedByObjectVersion
1070
     0
1000
AcDbSavedByObjectVersion
1070
     0
1000
AcDbSavedByObjectVersion
1070
     0
1000
AcDbSavedByObjectVersion
1070
     0
1000
AcDbSavedByObjectVersion
1070
     0
1000
AcDbSavedByObjectVersion
1070
     0
1000
AcDbSavedByObjectVersion
1070
     0
1000
AcDbSavedByObjectVersion
1070
     0
1000
AcDbSavedByObjectVersion
1070
     0
1000
AcDbSavedByObjectVersion
1070
     0
1000
AcDbSavedByObjectVersion
1070
     0
1000
AcDbSavedByObjectVersion
1070
     0
  0
VISUALSTYLE
  5
3D7
102
{ACAD_REACTORS
330
3CC
102
}
330
3CC
100
AcDbVisualStyle
  2
Dim
 70
    11
 71
     2
 72
     2
 73
     0
 90
        0
 40
-0.6
 41
-30.0
 62
     5
 63
     7
 74
     1
 91
        4
 64
     7
 65
   257
 75
     1
175
     1
 42
1.0
 92
        8
 66
     7
 43
1.0
 76
     1
 77
     6
 78
     2
 67
     7
 79
     5
170
     0
171
     0
290
     0
174
     0
 93
        1
 44
-50.0
173
     0
291
     1
 45
0.0
1001
ACAD
1000
AcDbSavedByObjectVersion
1070
     0
1000
AcDbSavedByObjectVersion
1070
     0
1000
AcDbSavedByObjectVersion
1070
     0
1000
AcDbSavedByObjectVersion
1070
     0
1000
AcDbSavedByObjectVersion
1070
     0
1000
AcDbSavedByObjectVersion
1070
     0
1000
AcDbSavedByObjectVersion
1070
     0
1000
AcDbSavedByObjectVersion
1070
     0
1000
AcDbSavedByObjectVersion
1070
     0
1000
AcDbSavedByObjectVersion
1070
     0
1000
AcDbSavedByObjectVersion
1070
     0
1000
AcDbSavedByObjectVersion
1070
     0
  0
VISUALSTYLE
  5
3DB
102
{ACAD_REACTORS
330
3CC
102
}
330
3CC
100
AcDbVisualStyle
  2
Facepattern
 70
    15
 71
     2
 72
     2
 73
     0
 90
        0
 40
-0.6
 41
-30.0
 62
     5
 63
     7
 74
     1
 91
        4
 64
     7
 65
   257
 75
     1
175
     1
 42
1.0
 92
        8
 66
     7
 43
1.0
 76
     1
 77
     6
 78
     2
 67
     7
 79
     5
170
     0
171
     0
290
     0
174
     0
 93
        1
 44
0.0
173
     0
291
     1
 45
0.0
1001
ACAD
1000
AcDbSavedByObjectVersion
1070
     0
1000
AcDbSavedByObjectVersion
1070
     0
1000
AcDbSavedByObjectVersion
1070
     0
1000
AcDbSavedByObjectVersion
1070
     0
1000
AcDbSavedByObjectVersion
1070
     0
1000
AcDbSavedByObjectVersion
1070
     0
1000
AcDbSavedByObjectVersion
1070
     0
1000
AcDbSavedByObjectVersion
1070
     0
1000
AcDbSavedByObjectVersion
1070
     0
1000
AcDbSavedByObjectVersion
1070
     0
1000
AcDbSavedByObjectVersion
1070
     0
1000
AcDbSavedByObjectVersion
1070
     0
  0
VISUALSTYLE
  5
3CD
102
{ACAD_REACTORS
330
3CC
102
}
330
3CC
100
AcDbVisualStyle
  2
Flat
 70
     0
 71
     2
 72
     1
 73
     1
 90
        2
 40
-0.6
 41
30.0
 62
     5
 63
     7
 74
     0
 91
        4
 64
     7
 65
   257
 75
     1
175
     1
 42
1.0
 92
        8
 66
     7
 43
1.0
 76
     1
 77
     6
 78
     2
 67
     7
 79
     5
170
     0
171
     0
290
     0
174
     0
 93
       13
 44
0.0
173
     0
291
     1
 45
0.0
1001
ACAD
1000
AcDbSavedByObjectVersion
1070
     0
1000
AcDbSavedByObjectVersion
1070
     0
1000
AcDbSavedByObjectVersion
1070
     0
1000
AcDbSavedByObjectVersion
1070
     0
1000
AcDbSavedByObjectVersion
1070
     0
1000
AcDbSavedByObjectVersion
1070
     0
1000
AcDbSavedByObjectVersion
1070
     0
1000
AcDbSavedByObjectVersion
1070
     0
1000
AcDbSavedByObjectVersion
1070
     0
1000
AcDbSavedByObjectVersion
1070
     0
1000
AcDbSavedByObjectVersion
1070
     0
1000
AcDbSavedByObjectVersion
1070
     0
  0
VISUALSTYLE
  5
3CE
102
{ACAD_REACTORS
330
3CC
102
}
330
3CC
100
AcDbVisualStyle
  2
FlatWithEdges
 70
     1
 71
     2
 72
     1
 73
     1
 90
        2
 40
-0.6
 41
30.0
 62
     5
 63
     7
 74
     1
 91
        4
 64
     7
 65
   257
 75
     1
175
     1
 42
1.0
 92
        0
 66
   257
 43
1.0
 76
     1
 77
     6
 78
     2
 67
     7
 79
     5
170
     0
171
     0
290
     0
174
     0
 93
       13
 44
0.0
173
     0
291
     1
 45
0.0
1001
ACAD
1000
AcDbSavedByObjectVersion
1070
     0
1000
AcDbSavedByObjectVersion
1070
     0
1000
AcDbSavedByObjectVersion
1070
     0
1000
AcDbSavedByObjectVersion
1070
     0
1000
AcDbSavedByObjectVersion
1070
     0
1000
AcDbSavedByObjectVersion
1070
     0
1000
AcDbSavedByObjectVersion
1070
     0
1000
AcDbSavedByObjectVersion
1070
     0
1000
AcDbSavedByObjectVersion
1070
     0
1000
AcDbSavedByObjectVersion
1070
     0
1000
AcDbSavedByObjectVersion
1070
     0
1000
AcDbSavedByObjectVersion
1070
     0
  0
VISUALSTYLE
  5
3CF
102
{ACAD_REACTORS
330
3CC
102
}
330
3CC
100
AcDbVisualStyle
  2
Gouraud
 70
     2
 71
     2
 72
     2
 73
     1
 90
        2
 40
-0.6
 41
30.0
 62
     5
 63
     7
 74
     0
 91
        4
 64
     7
 65
   257
 75
     1
175
     1
 42
1.0
 92
        0
 66
     7
 43
1.0
 76
     1
 77
     6
 78
     2
 67
     7
 79
     5
170
     0
171
     0
290
     0
174
     0
 93
       13
 44
0.0
173
     0
291
     1
 45
0.0
1001
ACAD
1000
AcDbSavedByObjectVersion
1070
     0
1000
AcDbSavedByObjectVersion
1070
     0
1000
AcDbSavedByObjectVersion
1070
     0
1000
AcDbSavedByObjectVersion
1070
     0
1000
AcDbSavedByObjectVersion
1070
     0
1000
AcDbSavedByObjectVersion
1070
     0
1000
AcDbSavedByObjectVersion
1070
     0
1000
AcDbSavedByObjectVersion
1070
     0
1000
AcDbSavedByObjectVersion
1070
     0
1000
AcDbSavedByObjectVersion
1070
     0
1000
AcDbSavedByObjectVersion
1070
     0
1000
AcDbSavedByObjectVersion
1070
     0
  0
VISUALSTYLE
  5
3D0
102
{ACAD_REACTORS
330
3CC
102
}
330
3CC
100
AcDbVisualStyle
  2
GouraudWithEdges
 70
     3
 71
     2
 72
     2
 73
     1
 90
        2
 40
-0.6
 41
30.0
 62
     5
 63
     7
 74
     1
 91
        4
 64
     7
 65
   257
 75
     1
175
     1
 42
1.0
 92
        0
 66
   257
 43
1.0
 76
     1
 77
     6
 78
     2
 67
     7
 79
     5
170
     0
171
     0
290
     0
174
     0
 93
       13
 44
0.0
173
     0
291
     1
 45
0.0
1001
ACAD
1000
AcDbSavedByObjectVersion
1070
     0
1000
AcDbSavedByObjectVersion
1070
     0
1000
AcDbSavedByObjectVersion
1070
     0
1000
AcDbSavedByObjectVersion
1070
     0
1000
AcDbSavedByObjectVersion
1070
     0
1000
AcDbSavedByObjectVersion
1070
     0
1000
AcDbSavedByObjectVersion
1070
     0
1000
AcDbSavedByObjectVersion
1070
     0
1000
AcDbSavedByObjectVersion
1070
     0
1000
AcDbSavedByObjectVersion
1070
     0
1000
AcDbSavedByObjectVersion
1070
     0
1000
AcDbSavedByObjectVersion
1070
     0
  0
VISUALSTYLE
  5
3DA
102
{ACAD_REACTORS
330
3CC
102
}
330
3CC
100
AcDbVisualStyle
  2
Linepattern
 70
    14
 71
     2
 72
     2
 73
     0
 90
        0
 40
-0.6
 41
-30.0
 62
     5
 63
     7
 74
     1
 91
        4
 64
     7
 65
   257
 75
     7
175
     7
 42
1.0
 92
        8
 66
     7
 43
1.0
 76
     1
 77
     6
 78
     2
 67
     7
 79
     5
170
     0
171
     0
290
     0
174
     0
 93
        1
 44
0.0
173
     0
291
     1
 45
0.0
1001
ACAD
1000
AcDbSavedByObjectVersion
1070
     0
1000
AcDbSavedByObjectVersion
1070
     0
1000
AcDbSavedByObjectVersion
1070
     0
1000
AcDbSavedByObjectVersion
1070
     0
1000
AcDbSavedByObjectVersion
1070
     0
1000
AcDbSavedByObjectVersion
1070
     0
1000
AcDbSavedByObjectVersion
1070
     0
1000
AcDbSavedByObjectVersion
1070
     0
1000
AcDbSavedByObjectVersion
1070
     0
1000
AcDbSavedByObjectVersion
1070
     0
1000
AcDbSavedByObjectVersion
1070
     0
1000
AcDbSavedByObjectVersion
1070
     0
  0
VISUALSTYLE
  5
3D6
102
{ACAD_REACTORS
330
3CC
102
}
330
3CC
100
AcDbVisualStyle
  2
Realistic
 70
     8
 71
     2
 72
     2
 73
     0
 90
        0
 40
-0.6
 41
-30.0
 62
     5
 63
     7
 74
     1
 91
        0
 64
     7
 65
   257
 75
     1
175
     1
 42
1.0
 92
        8
 66
     8
 43
1.0
 76
     1
 77
     6
 78
     2
 67
     7
 79
     5
170
     0
171
     0
290
     0
174
     0
 93
       13
 44
0.0
173
     0
291
     0
 45
0.0
1001
ACAD
1000
AcDbSavedByObjectVersion
1070
     0
1000
AcDbSavedByObjectVersion
1070
     0
1000
AcDbSavedByObjectVersion
1070
     0
1000
AcDbSavedByObjectVersion
1070
     0
1000
AcDbSavedByObjectVersion
1070
     0
1000
AcDbSavedByObjectVersion
1070
     0
1000
AcDbSavedByObjectVersion
1070
     0
1000
AcDbSavedByObjectVersion
1070
     0
1000
AcDbSavedByObjectVersion
1070
     0
1000
AcDbSavedByObjectVersion
1070
     0
1000
AcDbSavedByObjectVersion
1070
     0
1000
AcDbSavedByObjectVersion
1070
     0
  0
VISUALSTYLE
  5
3D9
102
{ACAD_REACTORS
330
3CC
102
}
330
3CC
100
AcDbVisualStyle
  2
Thicken
 70
    13
 71
     2
 72
     2
 73
     0
 90
        0
 40
-0.6
 41
-30.0
 62
     5
 63
     7
 74
     1
 91
        4
 64
     7
 65
   257
 75
     1
175
     1
 42
1.0
 92
       12
 66
     7
 43
1.0
 76
     1
 77
     6
 78
     2
 67
     7
 79
     5
170
     0
171
     0
290
     0
174
     0
 93
        1
 44
0.0
173
     0
291
     1
 45
0.0
1001
ACAD
1000
AcDbSavedByObjectVersion
1070
     0
1000
AcDbSavedByObjectVersion
1070
     0
1000
AcDbSavedByObjectVersion
1070
     0
1000
AcDbSavedByObjectVersion
1070
     0
1000
AcDbSavedByObjectVersion
1070
     0
1000
AcDbSavedByObjectVersion
1070
     0
1000
AcDbSavedByObjectVersion
1070
     0
1000
AcDbSavedByObjectVersion
1070
     0
1000
AcDbSavedByObjectVersion
1070
     0
1000
AcDbSavedByObjectVersion
1070
     0
1000
AcDbSavedByObjectVersion
1070
     0
1000
AcDbSavedByObjectVersion
1070
     0
  0
DICTIONARYVAR
  5
2224
102
{ACAD_REACTORS
330
94
102
}
330
94
100
DictionaryVariables
280
     0
  1
1:1
  0
DICTIONARYVAR
  5
2223
102
{ACAD_REACTORS
330
94
102
}
330
94
100
DictionaryVariables
280
     0
  1
STANDARD
  0
DICTIONARYVAR
  5
138
102
{ACAD_REACTORS
330
94
102
}
330
94
100
DictionaryVariables
280
     0
  1
STANDARD
  0
DICTIONARYVAR
  5
96
102
{ACAD_REACTORS
330
94
102
}
330
94
100
DictionaryVariables
280
     0
  1
2
  0
DICTIONARYVAR
  5
95
102
{ACAD_REACTORS
330
94
102
}
330
94
100
DictionaryVariables
280
     0
  1
0
  0
DICTIONARYVAR
  5
2225
102
{ACAD_REACTORS
330
94
102
}
330
94
100
DictionaryVariables
280
     0
  1
127
  0
DICTIONARY
  5
272
102
{ACAD_REACTORS
330
5B
102
}
330
5B
100
AcDbDictionary
281
     1
  0
DICTIONARY
  5
61
102
{ACAD_REACTORS
330
5B
102
}
330
5B
100
AcDbDictionary
281
     1
  0
XRECORD
  5
123
102
{ACAD_REACTORS
330
5B
102
}
330
5B
100
AcDbXrecord
280
     1
 90
-1023410169
  0
DICTIONARY
  5
3842
330
1E
100
AcDbDictionary
280
     1
281
     1
  3
ACAD_XREC_ROUNDTRIP
360
3843
  0
DICTIONARY
  5
3846
330
26
100
AcDbDictionary
280
     1
281
     1
  3
ACAD_XREC_ROUNDTRIP
360
3847
  0
DICTIONARY
  5
3844
330
22
100
AcDbDictionary
280
     1
281
     1
  3
ACAD_XREC_ROUNDTRIP
360
3845
  0
DICTIONARY
  5
3BD
330
3BC
100
AcDbDictionary
280
     1
281
     1
  3
ACAD_XREC_ROUNDTRIP
360
2234
  3
BUMPTILE
360
3BF
  3
DIFFUSETILE
360
3BE
  3
OPACITYTILE
360
3C2
  3
REFLECTIONTILE
360
3C1
  3
REFRACTIONTILE
360
3C3
  3
SPECULARTILE
360
3C0
  0
DICTIONARY
  5
3B5
330
3B4
100
AcDbDictionary
280
     1
281
     1
  3
ACAD_XREC_ROUNDTRIP
360
2233
  3
BUMPTILE
360
3B7
  3
DIFFUSETILE
360
3B6
  3
OPACITYTILE
360
3BA
  3
REFLECTIONTILE
360
3B9
  3
REFRACTIONTILE
360
3BB
  3
SPECULARTILE
360
3B8
  0
DICTIONARY
  5
3C5
330
3C4
100
AcDbDictionary
280
     1
281
     1
  3
ACAD_XREC_ROUNDTRIP
360
2235
  3
BUMPTILE
360
3C7
  3
DIFFUSETILE
360
3C6
  3
OPACITYTILE
360
3CA
  3
REFLECTIONTILE
360
3C9
  3
REFRACTIONTILE
360
3CB
  3
SPECULARTILE
360
3C8
  0
DICTIONARY
  5
2226
330
11B
100
AcDbDictionary
280
     1
281
     1
  3
ACAD_ROUNDTRIP_2008_TABLESTYLE_CELLSTYLEMAP
360
383B
  3
ACAD_XREC_ROUNDTRIP
360
3848
  0
XRECORD
  5
3843
102
{ACAD_REACTORS
330
3842
102
}
330
3842
100
AcDbXrecord
280
     1
102
SHADEPLOT
 70
     0
102
SHADEPLOTRESLEVEL
 70
     2
102
SHADEPLOTCUSTOMDPI
 70
   300
  0
XRECORD
  5
3847
102
{ACAD_REACTORS
330
3846
102
}
330
3846
100
AcDbXrecord
280
     1
102
SHADEPLOT
 70
     0
102
SHADEPLOTRESLEVEL
 70
     2
102
SHADEPLOTCUSTOMDPI
 70
   300
  0
XRECORD
  5
3845
102
{ACAD_REACTORS
330
3844
102
}
330
3844
100
AcDbXrecord
280
     1
102
SHADEPLOT
 70
     0
102
SHADEPLOTRESLEVEL
 70
     2
102
SHADEPLOTCUSTOMDPI
 70
   300
  0
XRECORD
  5
2234
102
{ACAD_REACTORS
330
3BD
102
}
330
3BD
100
AcDbXrecord
280
     1
102
MATERIAL
148
0.0
149
0.0
149
0.0
 93
        0
 94
      127
282
     0
 72
     0
 77
     0
171
     0
175
     0
179
     0
273
     0
  0
XRECORD
  5
3BF
102
{ACAD_REACTORS
330
3BD
102
}
330
3BD
100
AcDbXrecord
280
     1
270
     1
271
     1
  0
XRECORD
  5
3BE
102
{ACAD_REACTORS
330
3BD
102
}
330
3BD
100
AcDbXrecord
280
     1
270
     1
271
     1
  0
XRECORD
  5
3C2
102
{ACAD_REACTORS
330
3BD
102
}
330
3BD
100
AcDbXrecord
280
     1
270
     1
271
     1
  0
XRECORD
  5
3C1
102
{ACAD_REACTORS
330
3BD
102
}
330
3BD
100
AcDbXrecord
280
     1
270
     1
271
     1
  0
XRECORD
  5
3C3
102
{ACAD_REACTORS
330
3BD
102
}
330
3BD
100
AcDbXrecord
280
     1
270
     1
271
     1
  0
XRECORD
  5
3C0
102
{ACAD_REACTORS
330
3BD
102
}
330
3BD
100
AcDbXrecord
280
     1
270
     1
271
     1
  0
XRECORD
  5
2233
102
{ACAD_REACTORS
330
3B5
102
}
330
3B5
100
AcDbXrecord
280
     1
102
MATERIAL
148
0.0
149
0.0
149
0.0
 93
        0
 94
      127
282
     0
 72
     0
 77
     0
171
     0
175
     0
179
     0
273
     0
  0
XRECORD
  5
3B7
102
{ACAD_REACTORS
330
3B5
102
}
330
3B5
100
AcDbXrecord
280
     1
270
     1
271
     1
  0
XRECORD
  5
3B6
102
{ACAD_REACTORS
330
3B5
102
}
330
3B5
100
AcDbXrecord
280
     1
270
     1
271
     1
  0
XRECORD
  5
3BA
102
{ACAD_REACTORS
330
3B5
102
}
330
3B5
100
AcDbXrecord
280
     1
270
     1
271
     1
  0
XRECORD
  5
3B9
102
{ACAD_REACTORS
330
3B5
102
}
330
3B5
100
AcDbXrecord
280
     1
270
     1
271
     1
  0
XRECORD
  5
3BB
102
{ACAD_REACTORS
330
3B5
102
}
330
3B5
100
AcDbXrecord
280
     1
270
     1
271
     1
  0
XRECORD
  5
3B8
102
{ACAD_REACTORS
330
3B5
102
}
330
3B5
100
AcDbXrecord
280
     1
270
     1
271
     1
  0
XRECORD
  5
2235
102
{ACAD_REACTORS
330
3C5
102
}
330
3C5
100
AcDbXrecord
280
     1
102
MATERIAL
148
0.0
149
0.0
149
0.0
 93
        0
 94
      127
282
     0
 72
     0
 77
     0
171
     0
175
     0
179
     0
273
     0
  0
XRECORD
  5
3C7
102
{ACAD_REACTORS
330
3C5
102
}
330
3C5
100
AcDbXrecord
280
     1
270
     1
271
     1
  0
XRECORD
  5
3C6
102
{ACAD_REACTORS
330
3C5
102
}
330
3C5
100
AcDbXrecord
280
     1
270
     1
271
     1
  0
XRECORD
  5
3CA
102
{ACAD_REACTORS
330
3C5
102
}
330
3C5
100
AcDbXrecord
280
     1
270
     1
271
     1
  0
XRECORD
  5
3C9
102
{ACAD_REACTORS
330
3C5
102
}
330
3C5
100
AcDbXrecord
280
     1
270
     1
271
     1
  0
XRECORD
  5
3CB
102
{ACAD_REACTORS
330
3C5
102
}
330
3C5
100
AcDbXrecord
280
     1
270
     1
271
     1
  0
XRECORD
  5
3C8
102
{ACAD_REACTORS
330
3C5
102
}
330
3C5
100
AcDbXrecord
280
     1
270
     1
271
     1
  0
CELLSTYLEMAP
  5
383B
102
{ACAD_REACTORS
330
2226
102
}
330
2226
100
AcDbCellStyleMap
 90
        3
300
CELLSTYLE
  1
TABLEFORMAT_BEGIN
 90
        5
170
     1
 91
        0
 92
    32768
 62
   257
 93
        1
300
CONTENTFORMAT
  1
CONTENTFORMAT_BEGIN
 90
        0
 91
        0
 92
        4
 93
        0
300

 40
0.0
140
1.0
 94
        5
 62
     0
340
11
144
6.0
309
CONTENTFORMAT_END
171
     1
301
MARGIN
  1
CELLMARGIN_BEGIN
 40
1.5
 40
1.5
 40
1.5
 40
1.5
 40
0.18
 40
0.18
309
CELLMARGIN_END
 94
        6
 95
        1
302
GRIDFORMAT
  1
GRIDFORMAT_BEGIN
 90
        0
 91
        1
 62
     0
 92
       -2
340
0
 93
        0
 40
0.045
309
GRIDFORMAT_END
 95
        2
302
GRIDFORMAT
  1
GRIDFORMAT_BEGIN
 90
        0
 91
        1
 62
     0
 92
       -2
340
0
 93
        0
 40
0.045
309
GRIDFORMAT_END
 95
        4
302
GRIDFORMAT
  1
GRIDFORMAT_BEGIN
 90
        0
 91
        1
 62
     0
 92
       -2
340
0
 93
        0
 40
0.045
309
GRIDFORMAT_END
 95
        8
302
GRIDFORMAT
  1
GRIDFORMAT_BEGIN
 90
        0
 91
        1
 62
     0
 92
       -2
340
0
 93
        0
 40
0.045
309
GRIDFORMAT_END
 95
       16
302
GRIDFORMAT
  1
GRIDFORMAT_BEGIN
 90
        0
 91
        1
 62
     0
 92
       -2
340
0
 93
        0
 40
0.045
309
GRIDFORMAT_END
 95
       32
302
GRIDFORMAT
  1
GRIDFORMAT_BEGIN
 90
        0
 91
        1
 62
     0
 92
       -2
340
0
 93
        0
 40
0.045
309
GRIDFORMAT_END
309
TABLEFORMAT_END
  1
CELLSTYLE_BEGIN
 90
        1
 91
        1
300
_TITLE
309
CELLSTYLE_END
300
CELLSTYLE
  1
TABLEFORMAT_BEGIN
 90
        5
170
     1
 91
        0
 92
        0
 62
   257
 93
        1
300
CONTENTFORMAT
  1
CONTENTFORMAT_BEGIN
 90
        0
 91
        0
 92
        4
 93
        0
300

 40
0.0
140
1.0
 94
        5
 62
     0
340
11
144
4.5
309
CONTENTFORMAT_END
171
     1
301
MARGIN
  1
CELLMARGIN_BEGIN
 40
1.5
 40
1.5
 40
1.5
 40
1.5
 40
0.18
 40
0.18
309
CELLMARGIN_END
 94
        6
 95
        1
302
GRIDFORMAT
  1
GRIDFORMAT_BEGIN
 90
        0
 91
        1
 62
     0
 92
       -2
340
0
 93
        0
 40
0.045
309
GRIDFORMAT_END
 95
        2
302
GRIDFORMAT
  1
GRIDFORMAT_BEGIN
 90
        0
 91
        1
 62
     0
 92
       -2
340
0
 93
        0
 40
0.045
309
GRIDFORMAT_END
 95
        4
302
GRIDFORMAT
  1
GRIDFORMAT_BEGIN
 90
        0
 91
        1
 62
     0
 92
       -2
340
0
 93
        0
 40
0.045
309
GRIDFORMAT_END
 95
        8
302
GRIDFORMAT
  1
GRIDFORMAT_BEGIN
 90
        0
 91
        1
 62
     0
 92
       -2
340
0
 93
        0
 40
0.045
309
GRIDFORMAT_END
 95
       16
302
GRIDFORMAT
  1
GRIDFORMAT_BEGIN
 90
        0
 91
        1
 62
     0
 92
       -2
340
0
 93
        0
 40
0.045
309
GRIDFORMAT_END
 95
       32
302
GRIDFORMAT
  1
GRIDFORMAT_BEGIN
 90
        0
 91
        1
 62
     0
 92
       -2
340
0
 93
        0
 40
0.045
309
GRIDFORMAT_END
309
TABLEFORMAT_END
  1
CELLSTYLE_BEGIN
 90
        2
 91
        1
300
_HEADER
309
CELLSTYLE_END
300
CELLSTYLE
  1
TABLEFORMAT_BEGIN
 90
        5
170
     1
 91
        0
 92
        0
 62
   257
 93
        1
300
CONTENTFORMAT
  1
CONTENTFORMAT_BEGIN
 90
        0
 91
        0
 92
        4
 93
        0
300

 40
0.0
140
1.0
 94
        2
 62
     0
340
11
144
4.5
309
CONTENTFORMAT_END
171
     1
301
MARGIN
  1
CELLMARGIN_BEGIN
 40
1.5
 40
1.5
 40
1.5
 40
1.5
 40
0.18
 40
0.18
309
CELLMARGIN_END
 94
        6
 95
        1
302
GRIDFORMAT
  1
GRIDFORMAT_BEGIN
 90
        0
 91
        1
 62
     0
 92
       -2
340
0
 93
        0
 40
0.045
309
GRIDFORMAT_END
 95
        2
302
GRIDFORMAT
  1
GRIDFORMAT_BEGIN
 90
        0
 91
        1
 62
     0
 92
       -2
340
0
 93
        0
 40
0.045
309
GRIDFORMAT_END
 95
        4
302
GRIDFORMAT
  1
GRIDFORMAT_BEGIN
 90
        0
 91
        1
 62
     0
 92
       -2
340
0
 93
        0
 40
0.045
309
GRIDFORMAT_END
 95
        8
302
GRIDFORMAT
  1
GRIDFORMAT_BEGIN
 90
        0
 91
        1
 62
     0
 92
       -2
340
0
 93
        0
 40
0.045
309
GRIDFORMAT_END
 95
       16
302
GRIDFORMAT
  1
GRIDFORMAT_BEGIN
 90
        0
 91
        1
 62
     0
 92
       -2
340
0
 93
        0
 40
0.045
309
GRIDFORMAT_END
 95
       32
302
GRIDFORMAT
  1
GRIDFORMAT_BEGIN
 90
        0
 91
        1
 62
     0
 92
       -2
340
0
 93
        0
 40
0.045
309
GRIDFORMAT_END
309
TABLEFORMAT_END
  1
CELLSTYLE_BEGIN
 90
        3
 91
        2
300
_DATA
309
CELLSTYLE_END
  0
XRECORD
  5
3848
102
{ACAD_REACTORS
330
2226
102
}
330
2226
100
AcDbXrecord
280
     1
102
ACAD_ROUNDTRIP_PRE2007_TABLESTYLE
 90
        4
 91
        0
  1

 92
        4
 93
        0
  2

 94
        4
 95
        0
  3

  0
ENDSEC
  0
EOF
