  0
SECTION
  2
HEADER
  9
$ACADVER
  1
AC1015
  9
$ACADMAINTVER
 70
    20
  9
$DWGCODEPAGE
  3
ANSI_1252
  9
$INSBASE
 10
0.0
 20
0.0
 30
0.0
  9
$EXTMIN
 10
2384.085806848186
 20
741.6152802746942
 30
-0.0000000000112498
  9
$EXTMAX
 10
2792.29293225782
 20
1243.770041448084
 30
0.0000000000002956
  9
$LIMMIN
 10
0.0
 20
0.0
  9
$LIMMAX
 10
420.0
 20
297.0
  9
$ORTHOMODE
 70
     0
  9
$REGENMODE
 70
     1
  9
$FILLMODE
 70
     1
  9
$QTEXTMODE
 70
     0
  9
$MIRRTEXT
 70
     1
  9
$LTSCALE
 40
1.0
  9
$ATTMODE
 70
     1
  9
$TEXTSIZE
 40
2.5
  9
$TRACEWID
 40
1.0
  9
$TEXTSTYLE
  7
STANDARD
  9
$CLAYER
  8
0
  9
$CELTYPE
  6
ByLayer
  9
$CECOLOR
 62
   256
  9
$CELTSCALE
 40
1.0
  9
$DISPSILH
 70
     0
  9
$DIMSCALE
 40
1.0
  9
$DIMASZ
 40
3.5
  9
$DIMEXO
 40
1.0
  9
$DIMDLI
 40
10.0
  9
$DIMRND
 40
0.0
  9
$DIMDLE
 40
0.0
  9
$DIMEXE
 40
1.0
  9
$DIMTP
 40
0.1
  9
$DIMTM
 40
0.1
  9
$DIMTXT
 40
3.5
  9
$DIMCEN
 40
0.0
  9
$DIMTSZ
 40
0.0
  9
$DIMTOL
 70
     0
  9
$DIMLIM
 70
     0
  9
$DIMTIH
 70
     0
  9
$DIMTOH
 70
     0
  9
$DIMSE1
 70
     0
  9
$DIMSE2
 70
     0
  9
$DIMTAD
 70
     1
  9
$DIMZIN
 70
     8
  9
$DIMBLK
  1

  9
$DIMASO
 70
     1
  9
$DIMSHO
 70
     1
  9
$DIMPOST
  1

  9
$DIMAPOST
  1
"
  9
$DIMALT
 70
     0
  9
$DIMALTD
 70
     2
  9
$DIMALTF
 40
0.0393701
  9
$DIMLFAC
 40
1.0
  9
$DIMTOFL
 70
     1
  9
$DIMTVP
 40
0.0
  9
$DIMTIX
 70
     0
  9
$DIMSOXD
 70
     0
  9
$DIMSAH
 70
     0
  9
$DIMBLK1
  1

  9
$DIMBLK2
  1

  9
$DIMSTYLE
  2
AM_DIN
  9
$DIMCLRD
 70
   256
  9
$DIMCLRE
 70
   256
  9
$DIMCLRT
 70
     2
  9
$DIMTFAC
 40
0.71
  9
$DIMGAP
 40
1.5
  9
$DIMJUST
 70
     0
  9
$DIMSD1
 70
     0
  9
$DIMSD2
 70
     0
  9
$DIMTOLJ
 70
     0
  9
$DIMTZIN
 70
     8
  9
$DIMALTZ
 70
     0
  9
$DIMALTTZ
 70
     0
  9
$DIMUPT
 70
     0
  9
$DIMDEC
 70
     2
  9
$DIMTDEC
 70
     3
  9
$DIMALTU
 70
     2
  9
$DIMALTTD
 70
     4
  9
$DIMTXSTY
  7
STANDARD
  9
$DIMAUNIT
 70
     0
  9
$DIMADEC
 70
     0
  9
$DIMALTRND
 40
0.0
  9
$DIMAZIN
 70
     2
  9
$DIMDSEP
 70
    46
  9
$DIMATFIT
 70
     3
  9
$DIMFRAC
 70
     0
  9
$DIMLDRBLK
  1

  9
$DIMLUNIT
 70
     2
  9
$DIMLWD
 70
    -1
  9
$DIMLWE
 70
    -1
  9
$DIMTMOVE
 70
     0
  9
$LUNITS
 70
     2
  9
$LUPREC
 70
     2
  9
$SKETCHINC
 40
1.0
  9
$FILLETRAD
 40
0.0
  9
$AUNITS
 70
     0
  9
$AUPREC
 70
     0
  9
$MENU
  1
.
  9
$ELEVATION
 40
0.0
  9
$PELEVATION
 40
0.0
  9
$THICKNESS
 40
0.0
  9
$LIMCHECK
 70
     0
  9
$CHAMFERA
 40
2.5
  9
$CHAMFERB
 40
2.5
  9
$CHAMFERC
 40
20.0
  9
$CHAMFERD
 40
0.0
  9
$SKPOLY
 70
     0
  9
$TDCREATE
 40
2455477.292545521
  9
$TDUCREATE
 40
2455477.250878854
  9
$TDUPDATE
 40
2455610.328255382
  9
$TDUUPDATE
 40
2455610.286588715
  9
$TDINDWG
 40
0.4053925579
  9
$TDUSRTIMER
 40
0.4053894907
  9
$USRTIMER
 70
     1
  9
$ANGBASE
 50
0.0
  9
$ANGDIR
 70
     0
  9
$PDMODE
 70
     0
  9
$PDSIZE
 40
0.0
  9
$PLINEWID
 40
0.0
  9
$SPLFRAME
 70
     0
  9
$SPLINETYPE
 70
     6
  9
$SPLINESEGS
 70
     8
  9
$HANDSEED
  5
2D77
  9
$SURFTAB1
 70
     6
  9
$SURFTAB2
 70
     6
  9
$SURFTYPE
 70
     6
  9
$SURFU
 70
     6
  9
$SURFV
 70
     6
  9
$UCSBASE
  2

  9
$UCSNAME
  2

  9
$UCSORG
 10
0.0
 20
0.0
 30
0.0
  9
$UCSXDIR
 10
1.0
 20
0.0
 30
0.0
  9
$UCSYDIR
 10
0.0
 20
1.0
 30
0.0
  9
$UCSORTHOREF
  2

  9
$UCSORTHOVIEW
 70
     0
  9
$UCSORGTOP
 10
0.0
 20
0.0
 30
0.0
  9
$UCSORGBOTTOM
 10
0.0
 20
0.0
 30
0.0
  9
$UCSORGLEFT
 10
0.0
 20
0.0
 30
0.0
  9
$UCSORGRIGHT
 10
0.0
 20
0.0
 30
0.0
  9
$UCSORGFRONT
 10
0.0
 20
0.0
 30
0.0
  9
$UCSORGBACK
 10
0.0
 20
0.0
 30
0.0
  9
$PUCSBASE
  2

  9
$PUCSNAME
  2

  9
$PUCSORG
 10
0.0
 20
0.0
 30
0.0
  9
$PUCSXDIR
 10
1.0
 20
0.0
 30
0.0
  9
$PUCSYDIR
 10
0.0
 20
1.0
 30
0.0
  9
$PUCSORTHOREF
  2

  9
$PUCSORTHOVIEW
 70
     0
  9
$PUCSORGTOP
 10
0.0
 20
0.0
 30
0.0
  9
$PUCSORGBOTTOM
 10
0.0
 20
0.0
 30
0.0
  9
$PUCSORGLEFT
 10
0.0
 20
0.0
 30
0.0
  9
$PUCSORGRIGHT
 10
0.0
 20
0.0
 30
0.0
  9
$PUCSORGFRONT
 10
0.0
 20
0.0
 30
0.0
  9
$PUCSORGBACK
 10
0.0
 20
0.0
 30
0.0
  9
$USERI1
 70
     0
  9
$USERI2
 70
     0
  9
$USERI3
 70
     0
  9
$USERI4
 70
     0
  9
$USERI5
 70
     0
  9
$USERR1
 40
0.0
  9
$USERR2
 40
0.0
  9
$USERR3
 40
0.0
  9
$USERR4
 40
0.0
  9
$USERR5
 40
0.0
  9
$WORLDVIEW
 70
     1
  9
$SHADEDGE
 70
     3
  9
$SHADEDIF
 70
    70
  9
$TILEMODE
 70
     1
  9
$MAXACTVP
 70
    64
  9
$PINSBASE
 10
0.0
 20
0.0
 30
0.0
  9
$PLIMCHECK
 70
     0
  9
$PEXTMIN
 10
1.000000000000000E+20
 20
1.000000000000000E+20
 30
1.000000000000000E+20
  9
$PEXTMAX
 10
-1.000000000000000E+20
 20
-1.000000000000000E+20
 30
-1.000000000000000E+20
  9
$PLIMMIN
 10
0.0
 20
0.0
  9
$PLIMMAX
 10
420.0
 20
297.0
  9
$UNITMODE
 70
     0
  9
$VISRETAIN
 70
     1
  9
$PLINEGEN
 70
     0
  9
$PSLTSCALE
 70
     1
  9
$TREEDEPTH
 70
  3020
  9
$CMLSTYLE
  2
Standard
  9
$CMLJUST
 70
     0
  9
$CMLSCALE
 40
20.0
  9
$PROXYGRAPHICS
 70
     1
  9
$MEASUREMENT
 70
     1
  9
$CELWEIGHT
370
    -1
  9
$ENDCAPS
280
     0
  9
$JOINSTYLE
280
     0
  9
$LWDISPLAY
290
     0
  9
$INSUNITS
 70
     4
  9
$HYPERLINKBASE
  1

  9
$STYLESHEET
  1

  9
$XEDIT
290
     1
  9
$CEPSNTYPE
380
     0
  9
$PSTYLEMODE
290
     1
  9
$FINGERPRINTGUID
  2
{135D8A84-6883-4383-80F5-1B71993FAB95}
  9
$VERSIONGUID
  2
{5D35CDA4-1564-4F0B-9F7B-714317AAF11C}
  9
$EXTNAMES
290
     1
  9
$PSVPSCALE
 40
0.0
  9
$OLESTARTUP
290
     0
  0
ENDSEC
  0
SECTION
  2
CLASSES
  0
CLASS
  1
ACDBDICTIONARYWDFLT
  2
AcDbDictionaryWithDefault
  3
ObjectDBX Classes
 90
        0
280
     0
281
     0
  0
CLASS
  1
ACME_DOCUMENT
  2
AcMeDbDoc
  3
AcMeServices
 90
     1024
280
     0
281
     0
  0
CLASS
  1
AMGSETTINGSOBJ
  2
AmgSettingsObj
  3
"AcadM|Product Description: AutoCAD Mechanical|Company: Autodesk, Inc."
 90
     1024
280
     0
281
     0
  0
CLASS
  1
ACMESCOPE
  2
AcMeScope
  3
AcMeServices
 90
     1024
280
     0
281
     0
  0
CLASS
  1
ACMECOMMANDHISTORY
  2
AcMeCommandHistory
  3
AcMeServices
 90
     1024
280
     0
281
     0
  0
CLASS
  1
ACIMSYSVARMAN
  2
AcImSysVarManager
  3
AcMeServices
 90
     1024
280
     0
281
     0
  0
CLASS
  1
ACIMREALSYSVAR
  2
AcImRealSysVar
  3
AcMeServices
 90
     1024
280
     0
281
     0
  0
CLASS
  1
ACIMINTSYSVAR
  2
AcImIntSysVar
  3
AcMeServices
 90
     1024
280
     0
281
     0
  0
CLASS
  1
ACMEDRAWINGMAN
  2
AcMeDrawingMan
  3
AcMeServices
 90
     1024
280
     0
281
     0
  0
CLASS
  1
ACMEVIEW
  2
AcMeView
  3
AcMeServices
 90
     1024
280
     0
281
     0
  0
CLASS
  1
ACDBENTITYCACHE
  2
AcMeEntityCache
  3
AcMeServices
 90
     1024
280
     0
281
     0
  0
CLASS
  1
GSMANAGER
  2
AcMeGSManager
  3
AcMeServices
 90
     1024
280
     0
281
     0
  0
CLASS
  1
AMDTINTERNALREACTOR
  2
AmdtInternalReactor
  3
AcMeServices
 90
     1024
280
     0
281
     0
  0
CLASS
  1
ACMESTATEMGR
  2
AcMeStateMgr
  3
AcMeServices
 90
     1024
280
     0
281
     0
  0
CLASS
  1
ACGREFMASTER
  2
AcGrefMaster
  3
AcAttribServices
 90
     1024
280
     0
281
     0
  0
CLASS
  1
ACME_DATABASE
  2
AcMeDbDatabase
  3
AcMeServices
 90
     1024
280
     0
281
     0
  0
CLASS
  1
ACRFINSADJUSTERMGR
  2
AcRfInsAdjusterMgr
  3
AcMeServices
 90
     1024
280
     0
281
     0
  0
CLASS
  1
ACGREFACADMASTER
  2
AcGrefacadMaster
  3
AcGrefServices
 90
     1024
280
     0
281
     0
  0
CLASS
  1
AMIMASTER
  2
AmiMaster
  3
AmiServices
 90
     1024
280
     0
281
     0
  0
CLASS
  1
ACMDATADICTIONARY
  2
AcmDataDictionary
  3
"AcmSymBB|Product Description: AutoCAD Mechanical|Company: Autodesk, Inc."
 90
     1024
280
     0
281
     0
  0
CLASS
  1
ACMDATAENTRYBLOCK
  2
AcmDataEntryBlock
  3
AcmSymBB|Product Description: AutoCAD Mechanical|Company: Autodesk, Inc.
 90
    33792
280
     0
281
     0
  0
CLASS
  1
ACIMSTRSYSVAR
  2
AcImStrSysVar
  3
AcMeServices
 90
     1024
280
     0
281
     0
  0
CLASS
  1
ACMSTANDARDISO
  2
AcmStandardISO
  3
"Amdt_StdImp|Product Description: AutoCAD Mechanical|Company: Autodesk, Inc."
 90
    33792
280
     0
281
     0
  0
CLASS
  1
AMGOBJPROPCFG
  2
AmgObjPropCfg
  3
"AmgLay|Product Description: AutoCAD Mechanical|Company: Autodesk, Inc."
 90
     1025
280
     0
281
     0
  0
CLASS
  1
AMDTEDGESTANDARDISO
  2
AmdtEdgeStdISO
  3
"Amdt_StdImp|Product Description: AutoCAD Mechanical|Company: Autodesk, Inc."
 90
    33792
280
     0
281
     0
  0
CLASS
  1
ACMSURFSTANDARDISO
  2
AcmSurfTextStdISO
  3
"Amdt_StdImp|Product Description: AutoCAD Mechanical|Company: Autodesk, Inc."
 90
    33792
280
     0
281
     0
  0
CLASS
  1
ACMFCFSTANDARDISO
  2
AcmFCFStdISO
  3
"Amdt_StdImp|Product Description: AutoCAD Mechanical|Company: Autodesk, Inc."
 90
    33792
280
     0
281
     0
  0
CLASS
  1
ACMWELDSTANDARDISO
  2
AcmWeldingStdISO
  3
"Amdt_StdImp|Product Description: AutoCAD Mechanical|Company: Autodesk, Inc."
 90
    33792
280
     0
281
     0
  0
CLASS
  1
ACMIDSTANDARDISO
  2
AcmIdStdISO
  3
"Amdt_StdImp|Product Description: AutoCAD Mechanical|Company: Autodesk, Inc."
 90
    33792
280
     0
281
     0
  0
CLASS
  1
ACMDATUMSTANDARDISO
  2
AcmDatumStdISO
  3
"Amdt_StdImp|Product Description: AutoCAD Mechanical|Company: Autodesk, Inc."
 90
    33792
280
     0
281
     0
  0
CLASS
  1
ACMBOMSTANDARDISO
  2
AcmBOMStdISO
  3
"Amdt_StdImp|Product Description: AutoCAD Mechanical|Company: Autodesk, Inc."
 90
    33792
280
     0
281
     0
  0
CLASS
  1
ACMDETAILSTANDARDISO
  2
AmdtDetailSymStdISO
  3
"Amdt_StdImp|Product Description: AutoCAD Mechanical|Company: Autodesk, Inc."
 90
    33792
280
     0
281
     0
  0
CLASS
  1
ACMSECTIONSTANDARDISO
  2
AmdtSectionSymStdISO
  3
"Amdt_StdImp|Product Description: AutoCAD Mechanical|Company: Autodesk, Inc."
 90
    33792
280
     0
281
     0
  0
CLASS
  1
ACMCENTERLINESTANDARDISO
  2
AmdtCenterLineStdISO
  3
"Amdt_StdImp|Product Description: AutoCAD Mechanical|Company: Autodesk, Inc."
 90
    33792
280
     0
281
     0
  0
CLASS
  1
ACMNOTESTANDARDISO
  2
AmdtNoteStdISO
  3
"Amdt_StdImp|Product Description: AutoCAD Mechanical|Company: Autodesk, Inc."
 90
    33792
280
     0
281
     0
  0
CLASS
  1
ACAMGLAYSTD
  2
AcAmgLayStd
  3
"AmgLay|Product Description: AutoCAD Mechanical|Company: Autodesk, Inc."
 90
     1024
280
     0
281
     0
  0
CLASS
  1
ACAMGDIMSTD
  2
AcAmgDimStd
  3
"AmgDim|Product Description: AutoCAD Mechanical|Company: Autodesk, Inc."
 90
     1024
280
     0
281
     0
  0
CLASS
  1
ACAMGHOLECHARTSTDISO
  2
AcAmgHoleChartStdISO
  3
AmgDim|Product Description: AutoCAD Mechanical|Company: Autodesk, Inc.
 90
    33792
280
     0
281
     0
  0
CLASS
  1
ACAMGTITLESTD
  2
AcAmgTitleStd
  3
"AmgTitle|Product Description: AutoCAD Mechanical|Company: Autodesk, Inc."
 90
     4095
280
     0
281
     0
  0
CLASS
  1
LAYER_INDEX
  2
AcDbLayerIndex
  3
ObjectDBX Classes
 90
    32768
280
     0
281
     0
  0
CLASS
  1
IDBUFFER
  2
AcDbIdBuffer
  3
ObjectDBX Classes
 90
    32768
280
     0
281
     0
  0
CLASS
  1
DICTIONARYVAR
  2
AcDbDictionaryVar
  3
ObjectDBX Classes
 90
        0
280
     0
281
     0
  0
CLASS
  1
AM_DRAWING_MGR
  2
AcDmDwgMgr
  3
AcMechDwgViewMgmt
 90
     1024
280
     0
281
     0
  0
CLASS
  1
AM_DWG_DOCUMENT
  2
AcDmDwgDocument
  3
AcMechDwgViewMgmt
 90
     1024
280
     0
281
     0
  0
CLASS
  1
AM_DWG_SHEET
  2
AcDmSheet
  3
AcMechDwgViewMgmt
 90
     1024
280
     0
281
     0
  0
CLASS
  1
AM_VIEWDIMPARMAP
  2
AcDmViewDimParMap
  3
AcMechDwgViewMgmt
 90
     1024
280
     0
281
     0
  0
CLASS
  1
AM_DWGMGR_NAME
  2
AcDmDwgMgrName
  3
AcMechDwgViewMgmt
 90
     1024
280
     0
281
     0
  0
CLASS
  1
AMDTMENUSTATEMGR
  2
AmdtMenuStateMgr
  3
McadcomServices
 90
     1024
280
     0
281
     0
  0
CLASS
  1
AMDTMCOMMENUSTATE
  2
AmdtMcomMenuState
  3
McadcomServices
 90
     1024
280
     0
281
     0
  0
CLASS
  1
MAPIAMMOUDLE
  2
MApiAmModule
  3
MApiAmServices
 90
     1024
280
     0
281
     0
  0
CLASS
  1
AMDTADMENUSTATE
  2
AmdtAdMenuState
  3
DesignerServices
 90
     1024
280
     0
281
     0
  0
CLASS
  1
ADAPPL
  2
AcAdAppl
  3
DesignerServices
 90
     1024
280
     0
281
     0
  0
CLASS
  1
DEPMGR
  2
AcAdDepMgr
  3
DesignerServices
 90
     1024
280
     0
281
     0
  0
CLASS
  1
PARAMMGR
  2
AcAdParamMgr
  3
DesignerServices
 90
     1024
280
     0
281
     0
  0
CLASS
  1
PARAMSCOPE
  2
AcAdParamScope
  3
DesignerServices
 90
     1024
280
     0
281
     0
  0
CLASS
  1
NAMEDAPPL
  2
AcAdNamedAppl
  3
DesignerServices
 90
     1024
280
     0
281
     0
  0
CLASS
  1
AMDTDMMENUSTATE
  2
AmdtDmMenuState
  3
AcMechDwgViewMgmt
 90
     1024
280
     0
281
     0
  0
CLASS
  1
AMDTAMMENUSTATE
  2
AmdtAmMenuState
  3
DesignerAssemblies
 90
     1024
280
     0
281
     0
  0
CLASS
  1
ACAMPROJECT
  2
AcAmProject
  3
DesignerAssemblies
 90
     1024
280
     0
281
     0
  0
CLASS
  1
ACAMGRCOMPDEF
  2
AcAmGrCompDef
  3
DesignerAssemblies
 90
     1024
280
     0
281
     0
  0
CLASS
  1
ACCMCONTEXT
  2
AcCmContext
  3
DesignerAssemblies
 90
     1024
280
     0
281
     0
  0
CLASS
  1
ACAMCOMPDEF
  2
AcAmCompDef
  3
DesignerAssemblies
 90
     1024
280
     0
281
     0
  0
CLASS
  1
ACAMCOMPDEFMGR
  2
AcAmCompDefMgr
  3
DesignerAssemblies
 90
     1024
280
     0
281
     0
  0
CLASS
  1
AMCONTEXTMGR
  2
AcAmContextMgr
  3
DesignerAssemblies
 90
     1024
280
     0
281
     0
  0
CLASS
  1
ACAMCONTEXTMODELER
  2
AcAmContextModeler
  3
DesignerAssemblies
 90
     1024
280
     0
281
     0
  0
CLASS
  1
ACMTHREADLINESTANDARDISO
  2
AmdtThreadLineStdISO
  3
"Amdt_StdImp|Product Description: AutoCAD Mechanical|Company: Autodesk, Inc."
 90
    33792
280
     0
281
     0
  0
CLASS
  1
CATALOGSTATE
  2
AcAmCatalogState
  3
DesignerAssemblies
 90
     1024
280
     0
281
     0
  0
CLASS
  1
ACAMGRCOMPDEFSET
  2
AcAmGrCompDefSet
  3
DesignerAssemblies
 90
     1024
280
     0
281
     0
  0
CLASS
  1
AMDTBROWSERDBTAB
  2
AmdtBrowserDbTab
  3
McadcomServices
 90
     1024
280
     0
281
     0
  0
CLASS
  1
CBROWSERAPPOBJECT
  2
CBrowserAppObject
  3
McadcomServices
 90
     1024
280
     0
281
     0
  0
CLASS
  1
DM_PLACEHOLDER
  2
AcDmSelsetPlaceholder
  3
AcMechDwgViewMgmt
 90
     1024
280
     0
281
     0
  0
CLASS
  1
TABLESTYLE
  2
AcDbTableStyle
  3
ObjectDBX Classes
 90
     4095
280
     0
281
     0
  0
CLASS
  1
VAACXREFPANELOBJECT
  2
VaAcXREFPanelObject
  3
VAAC_ADDIN
 90
    32768
280
     0
281
     0
  0
CLASS
  1
VAACIMAGEINVENTORY
  2
VaAcImageInventory
  3
VAAC_ADDIN
 90
    32768
280
     0
281
     0
  0
CLASS
  1
AMDTNOTETEMPLATEDB
  2
AmdtNoteTemplateDB
  3
AcmSymBB|Product Description: AutoCAD Mechanical|Company: Autodesk, Inc.
 90
     1024
280
     0
281
     0
  0
CLASS
  1
ACAMGFILTERDAT
  2
AcAmgFilterDat
  3
"AcadM|Product Description: AutoCAD Mechanical|Company: Autodesk, Inc."
 90
    33792
280
     0
281
     0
  0
CLASS
  1
ACMBOM
  2
AcmBom
  3
"AcmSymBB|Product Description: AutoCAD Mechanical|Company: Autodesk, Inc."
 90
    33792
280
     0
281
     0
  0
CLASS
  1
AMDTFORMULAUPDATEDISPATCHER
  2
AmdtFormulaUpdateDispatcher
  3
AcMeServices
 90
    33792
280
     0
281
     0
  0
CLASS
  1
ACMSTANDARDDIN
  2
AcmStandardDIN
  3
"Amdt_StdImp|Product Description: AutoCAD Mechanical|Company: Autodesk, Inc."
 90
     1024
280
     0
281
     0
  0
CLASS
  1
AMDTEDGESTANDARDDIN13715
  2
AmdtEdgeStdDIN13715
  3
"Amdt_StdImp|Product Description: AutoCAD Mechanical|Company: Autodesk, Inc."
 90
     1024
280
     0
281
     0
  0
CLASS
  1
ACMSURFSTANDARDDIN
  2
AcmSurfTextStdDIN
  3
"Amdt_StdImp|Product Description: AutoCAD Mechanical|Company: Autodesk, Inc."
 90
    33792
280
     0
281
     0
  0
CLASS
  1
ACMFCFSTANDARDDIN
  2
AcmFCFStdDIN
  3
"Amdt_StdImp|Product Description: AutoCAD Mechanical|Company: Autodesk, Inc."
 90
     1024
280
     0
281
     0
  0
CLASS
  1
ACMWELDSTANDARDDIN
  2
AcmWeldingStdDIN
  3
"Amdt_StdImp|Product Description: AutoCAD Mechanical|Company: Autodesk, Inc."
 90
     1024
280
     0
281
     0
  0
CLASS
  1
ACMIDSTANDARDDIN
  2
AcmIdStdDIN
  3
"Amdt_StdImp|Product Description: AutoCAD Mechanical|Company: Autodesk, Inc."
 90
     1024
280
     0
281
     0
  0
CLASS
  1
ACMDATUMSTANDARDDIN
  2
AcmDatumStdDIN
  3
"Amdt_StdImp|Product Description: AutoCAD Mechanical|Company: Autodesk, Inc."
 90
     1024
280
     0
281
     0
  0
CLASS
  1
ACMBOMSTANDARDDIN
  2
AcmBOMStdDIN
  3
"Amdt_StdImp|Product Description: AutoCAD Mechanical|Company: Autodesk, Inc."
 90
     1024
280
     0
281
     0
  0
CLASS
  1
ACMDETAILSTANDARDDIN
  2
AmdtDetailSymStdDIN
  3
"Amdt_StdImp|Product Description: AutoCAD Mechanical|Company: Autodesk, Inc."
 90
     1024
280
     0
281
     0
  0
CLASS
  1
ACMSECTIONSTANDARDDIN
  2
AmdtSectionSymStdDIN
  3
"Amdt_StdImp|Product Description: AutoCAD Mechanical|Company: Autodesk, Inc."
 90
     1024
280
     0
281
     0
  0
CLASS
  1
ACMCENTERLINESTANDARDDIN
  2
AmdtCenterLineStdDIN
  3
"Amdt_StdImp|Product Description: AutoCAD Mechanical|Company: Autodesk, Inc."
 90
     1024
280
     0
281
     0
  0
CLASS
  1
ACMTHREADLINESTANDARDDIN
  2
AmdtThreadLineStdDIN
  3
"Amdt_StdImp|Product Description: AutoCAD Mechanical|Company: Autodesk, Inc."
 90
     1024
280
     0
281
     0
  0
CLASS
  1
ACMNOTESTANDARDDIN
  2
AmdtNoteStdDIN
  3
"Amdt_StdImp|Product Description: AutoCAD Mechanical|Company: Autodesk, Inc."
 90
     1024
280
     0
281
     0
  0
CLASS
  1
ACAMGHOLECHARTSTDDIN
  2
AcAmgHoleChartStdDIN
  3
AmgDim|Product Description: AutoCAD Mechanical|Company: Autodesk, Inc.
 90
     1024
280
     0
281
     0
  0
CLASS
  1
MATERIAL
  2
AcDbMaterial
  3
ObjectDBX Classes
 90
     1153
280
     0
281
     0
  0
CLASS
  1
VISUALSTYLE
  2
AcDbVisualStyle
  3
ObjectDBX Classes
 90
     4095
280
     0
281
     0
  0
CLASS
  1
SCALE
  2
AcDbScale
  3
ObjectDBX Classes
 90
     1153
280
     0
281
     0
  0
CLASS
  1
MLEADERSTYLE
  2
AcDbMLeaderStyle
  3
ACDB_MLEADERSTYLE_CLASS
 90
     4095
280
     0
281
     0
  0
CLASS
  1
ACRFATTGENMGR
  2
AcRfAttGeneralMgr
  3
AcAttribServices
 90
    33792
280
     0
281
     0
  0
CLASS
  1
ACRFOBJATTMGR
  2
AcRfObjAttGroupMgr
  3
AcAttribServices
 90
    33792
280
     0
281
     0
  0
CLASS
  1
ACRFMCADAPIATTHOLDER
  2
AcRfMCADAPIAttHolder
  3
AcAttribServices
 90
    33792
280
     0
281
     0
  0
CLASS
  1
AMDTSYSATTR
  2
AmdtSystemAttribute
  3
AcAttribServices
 90
    33792
280
     0
281
     0
  0
CLASS
  1
ACMTAPERSTANDARDISO
  2
AcmTaperStdISO
  3
"Amdt_StdImp|Product Description: AutoCAD Mechanical|Company: Autodesk, Inc."
 90
    33792
280
     0
281
     0
  0
CLASS
  1
ACMANOOTATIONVIEWSTANDARDISO
  2
AmdtAnViewStdISO
  3
"Amdt_StdImp|Product Description: AutoCAD Mechanical|Company: Autodesk, Inc."
 90
    33792
280
     0
281
     0
  0
CLASS
  1
ACMTAPERSTANDARDDIN
  2
AcmTaperStdDIN
  3
"Amdt_StdImp|Product Description: AutoCAD Mechanical|Company: Autodesk, Inc."
 90
     1024
280
     0
281
     0
  0
CLASS
  1
ACMANOOTATIONVIEWSTANDARDDIN
  2
AmdtAnViewStdDIN
  3
"Amdt_StdImp|Product Description: AutoCAD Mechanical|Company: Autodesk, Inc."
 90
     1024
280
     0
281
     0
  0
CLASS
  1
EXACXREFPANELOBJECT
  2
ExAcXREFPanelObject
  3
EXAC_ESW
 90
     1025
280
     0
281
     0
  0
CLASS
  1
NPOCOLLECTION
  2
AcDbImpNonPersistentObjectsCollection
  3
ObjectDBX Classes
 90
     1153
280
     0
281
     0
  0
CLASS
  1
SORTENTSTABLE
  2
AcDbSortentsTable
  3
ObjectDBX Classes
 90
        0
280
     0
281
     0
  0
CLASS
  1
AEC_REFEDIT_STATUS_TRACKER
  2
AecDbRefEditStatusTracker
  3
AecArchBase50|Product Desc: Autodesk Architectural Desktop 2007 |Company: Autodesk,Inc. |WEB Address: www.autodesk.com
 90
    32897
280
     0
281
     0
  0
CLASS
  1
CAMSSTRUCTBTNSTATE
  2
StructBtnState
  3
DesignerAssemblies
 90
    33792
280
     0
281
     0
  0
CLASS
  1
CELLSTYLEMAP
  2
AcDbCellStyleMap
  3
ObjectDBX Classes
 90
     1152
280
     0
281
     0
  0
CLASS
  1
DIMASSOC
  2
AcDbDimAssoc
  3
"AcDbDimAssoc|Product Desc:     AcDim ARX App For Dimension|Company:          Autodesk, Inc.|WEB Address:      www.autodesk.com"
 90
        0
280
     0
281
     0
  0
CLASS
  1
ACMSURFSTANDARDDIN2002
  2
AcmSurfTextStdDIN2002
  3
"Amdt_StdImp|Product Description: AutoCAD Mechanical|Company: Autodesk, Inc."
 90
     1024
280
     0
281
     0
  0
CLASS
  1
ACDBPLACEHOLDER
  2
AcDbPlaceHolder
  3
ObjectDBX Classes
 90
        0
280
     0
281
     0
  0
CLASS
  1
LAYOUT
  2
AcDbLayout
  3
ObjectDBX Classes
 90
        0
280
     0
281
     0
  0
ENDSEC
  0
SECTION
  2
TABLES
  0
TABLE
  2
VPORT
  5
8
330
0
100
AcDbSymbolTable
 70
     1
  0
VPORT
  5
3B2
330
8
100
AcDbSymbolTableRecord
100
AcDbViewportTableRecord
  2
*Active
 70
     0
 10
0.0
 20
0.0
 11
1.0
 21
1.0
 12
2588.189369553003
 22
992.6926608613891
 13
0.0
 23
0.0
 14
2.5
 24
2.5
 15
10.0
 25
10.0
 16
0.0
 26
0.0
 36
1.0
 17
0.0
 27
0.0
 37
0.0
 40
505.6050821179158
 41
1.752272727272727
 42
50.0
 43
0.0
 44
0.0
 50
0.0
 51
0.0
 71
     0
 72
   100
 73
     1
 74
     3
 75
     0
 76
     0
 77
     0
 78
     0
281
     0
 65
     0
110
0.0
120
0.0
130
0.0
111
1.0
121
0.0
131
0.0
112
0.0
122
1.0
132
0.0
 79
     0
146
0.0
  0
ENDTAB
  0
TABLE
  2
LTYPE
  5
5
330
0
100
AcDbSymbolTable
 70
    20
  0
LTYPE
  5
14
330
5
100
AcDbSymbolTableRecord
100
AcDbLinetypeTableRecord
  2
ByBlock
 70
     0
  3

 72
    65
 73
     0
 40
0.0
  0
LTYPE
  5
15
330
5
100
AcDbSymbolTableRecord
100
AcDbLinetypeTableRecord
  2
ByLayer
 70
     0
  3

 72
    65
 73
     0
 40
0.0
  0
LTYPE
  5
16
330
5
100
AcDbSymbolTableRecord
100
AcDbLinetypeTableRecord
  2
Continuous
 70
     0
  3
Solid line
 72
    65
 73
     0
 40
0.0
  0
LTYPE
  5
67
330
5
100
AcDbSymbolTableRecord
100
AcDbLinetypeTableRecord
  2
Amconstr
 70
     0
  3
_______________________
 72
    65
 73
     2
 40
9999.0
 49
9999.0
 74
     0
 49
0.0
 74
     0
  0
LTYPE
  5
6C
330
5
100
AcDbSymbolTableRecord
100
AcDbLinetypeTableRecord
  2
Amzigzag
 70
     0
  3
/\/-/\/-/\/-/\/-/\/-/\/
 72
    65
 73
     2
 40
11.0001
 49
0.0001
 74
     4
 75
   136
340
22C
 46
0.04
 50
0.0
 44
0.0
 45
0.0
 49
-11.0
 74
     0
  0
LTYPE
  5
7E
330
5
100
AcDbSymbolTableRecord
100
AcDbLinetypeTableRecord
  2
CENTER
 70
     0
  3
__ . __
 72
    65
 73
     4
 40
7.0
 49
4.0
 74
     0
 49
-1.0
 74
     0
 49
1.0
 74
     0
 49
-1.0
 74
     0
  0
LTYPE
  5
D8
330
5
100
AcDbSymbolTableRecord
100
AcDbLinetypeTableRecord
  2
HIDDEN
 70
     0
  3
Hidden __ __ __ __ __ __ __ __ __ __ __ __ __ _
 72
    65
 73
     2
 40
9.524999999999996
 49
6.349999999999997
 74
     0
 49
-3.174999999999998
 74
     0
  0
LTYPE
  5
D9
330
5
100
AcDbSymbolTableRecord
100
AcDbLinetypeTableRecord
  2
PHANTOM2
 70
     0
  3
Phantom (.5x) ___ _ _ ___ _ _ ___ _ _ ___ _ _
 72
    65
 73
     6
 40
31.75
 49
15.875
 74
     0
 49
-3.174999999999998
 74
     0
 49
3.174999999999998
 74
     0
 49
-3.174999999999998
 74
     0
 49
3.174999999999998
 74
     0
 49
-3.174999999999998
 74
     0
  0
LTYPE
  5
322
330
5
100
AcDbSymbolTableRecord
100
AcDbLinetypeTableRecord
  2
AM_DIN_G_W050
 70
     0
  3
____ . ____ . ____ . ____ . ____ . ____ . ____
 72
    65
 73
     4
 40
13.75
 49
9.75
 74
     0
 49
-1.5
 74
     0
 49
1.0
 74
     0
 49
-1.5
 74
     0
  0
LTYPE
  5
324
330
5
100
AcDbSymbolTableRecord
100
AcDbLinetypeTableRecord
  2
AM_DIN_G_W050x2
 70
     0
  3
__ . __ . __ . __ . __ . __
 72
    65
 73
     4
 40
6.875
 49
4.75
 74
     0
 49
-0.875
 74
     0
 49
0.375
 74
     0
 49
-0.875
 74
     0
  0
LTYPE
  5
456
330
5
100
AcDbSymbolTableRecord
100
AcDbLinetypeTableRecord
  2
STRICHPUNKT
 70
     0
  3
Strichpunkt __ . __ . __ . __ . __ . __ . __ . 
 72
    65
 73
     4
 40
25.4
 49
12.7
 74
     0
 49
-6.349999999999997
 74
     0
 49
0.0
 74
     0
 49
-6.349999999999997
 74
     0
  0
LTYPE
  5
2B6A
330
5
100
AcDbSymbolTableRecord
100
AcDbLinetypeTableRecord
  2
AM_DIN_F_W050
 70
     0
  3
__ __ __ __ __ __ __ __ __ __ __ __ __ __ __
 72
    65
 73
     2
 40
6.25
 49
4.75
 74
     0
 49
-1.5
 74
     0
  0
LTYPE
  5
2B6B
330
5
100
AcDbSymbolTableRecord
100
AcDbLinetypeTableRecord
  2
AM_DIN_K_W050
 70
     0
  3
_____ . . _____ . . _____ . . ____ .. ____
 72
    65
 73
     6
 40
16.25
 49
9.75
 74
     0
 49
-1.5
 74
     0
 49
1.0
 74
     0
 49
-1.5
 74
     0
 49
1.0
 74
     0
 49
-1.5
 74
     0
  0
LTYPE
  5
2B6C
330
5
100
AcDbSymbolTableRecord
100
AcDbLinetypeTableRecord
  2
AM_DIN_F_W050x2
 70
     0
  3
 _ _ _ _ _ _ _ _ _ _ _ _
 72
    65
 73
     2
 40
3.125
 49
2.25
 74
     0
 49
-0.875
 74
     0
  0
LTYPE
  5
2BE7
330
5
100
AcDbSymbolTableRecord
100
AcDbLinetypeTableRecord
  2
ACDINWELD
 70
     0
  3
_ _ _ _ _
 72
    65
 73
     2
 40
2.0
 49
2.0
 74
     0
 49
-1.0
 74
     0
  0
LTYPE
  5
2BE8
330
5
100
AcDbSymbolTableRecord
100
AcDbLinetypeTableRecord
  2
ACDINTGB
 70
     0
  3
__ . . __ . .
 72
    65
 73
     6
 40
9.0
 49
4.0
 74
     0
 49
-1.0
 74
     0
 49
1.0
 74
     0
 49
-1.0
 74
     0
 49
1.0
 74
     0
 49
-1.0
 74
     0
  0
LTYPE
  5
2BE9
330
5
100
AcDbSymbolTableRecord
100
AcDbLinetypeTableRecord
  2
ACDINTGL
 70
     0
  3
_ _ _ _ _
 72
    65
 73
     2
 40
3.0
 49
2.0
 74
     0
 49
-1.0
 74
     0
  0
LTYPE
  5
2C9B
330
5
100
AcDbSymbolTableRecord
100
AcDbLinetypeTableRecord
  2
AM_ISO02W050
 70
     0
  3
__ __ __ __ __ __ __ __ __ __ __ __ __ __ __
 72
    65
 73
     2
 40
7.5
 49
6.0
 74
     0
 49
-1.5
 74
     0
  0
LTYPE
  5
2C9C
330
5
100
AcDbSymbolTableRecord
100
AcDbLinetypeTableRecord
  2
AM_ISO08W050
 70
     0
  3
____ . ____ . ____ . ____ . ____ . ____ . ____
 72
    65
 73
     4
 40
18.0
 49
12.0
 74
     0
 49
-1.5
 74
     0
 49
3.0
 74
     0
 49
-1.5
 74
     0
  0
LTYPE
  5
2C9D
330
5
100
AcDbSymbolTableRecord
100
AcDbLinetypeTableRecord
  2
AM_ISO09W050
 70
     0
  3
_____ . . _____ . . _____ . . ____ .. ____
 72
    65
 73
     6
 40
22.5
 49
12.0
 74
     0
 49
-1.5
 74
     0
 49
3.0
 74
     0
 49
-1.5
 74
     0
 49
3.0
 74
     0
 49
-1.5
 74
     0
  0
LTYPE
  5
2C9E
330
5
100
AcDbSymbolTableRecord
100
AcDbLinetypeTableRecord
  2
AM_ISO08W050x2
 70
     0
  3
__ . __ . __ . __ . __ . __
 72
    65
 73
     4
 40
9.0
 49
6.0
 74
     0
 49
-0.75
 74
     0
 49
1.5
 74
     0
 49
-0.75
 74
     0
  0
LTYPE
  5
2C9F
330
5
100
AcDbSymbolTableRecord
100
AcDbLinetypeTableRecord
  2
AM_ISO02W050x2
 70
     0
  3
 _ _ _ _ _ _ _ _ _ _ _ _
 72
    65
 73
     2
 40
3.75
 49
3.0
 74
     0
 49
-0.75
 74
     0
  0
ENDTAB
  0
TABLE
  2
LAYER
  5
2
102
{ACAD_XDICTIONARY
360
468
102
}
330
0
100
AcDbSymbolTable
 70
     7
  0
LAYER
  5
10
102
{ACAD_XDICTIONARY
360
20EC
102
}
330
2
100
AcDbSymbolTableRecord
100
AcDbLayerTableRecord
  2
0
 70
     0
 62
     7
  6
Continuous
370
    -3
390
F
  0
LAYER
  5
458
102
{ACAD_XDICTIONARY
360
459
102
}
330
2
100
AcDbSymbolTableRecord
100
AcDbLayerTableRecord
  2
P-0000
 70
     0
 62
     7
  6
Continuous
370
    -3
390
F
  0
LAYER
  5
45A
330
2
100
AcDbSymbolTableRecord
100
AcDbLayerTableRecord
  2
Defpoints
 70
     0
 62
     7
  6
Continuous
290
     0
370
    -3
390
F
  0
LAYER
  5
45B
102
{ACAD_XDICTIONARY
360
45C
102
}
330
2
100
AcDbSymbolTableRecord
100
AcDbLayerTableRecord
  2
AM_5
 70
     0
 62
     3
  6
Continuous
370
    25
390
F
1001
AcAecLayerStandard
1000

1000

  0
LAYER
  5
45E
102
{ACAD_XDICTIONARY
360
45F
102
}
330
2
100
AcDbSymbolTableRecord
100
AcDbLayerTableRecord
  2
AM_8
 70
     0
 62
     1
  6
Continuous
370
    25
390
F
  0
LAYER
  5
460
102
{ACAD_XDICTIONARY
360
461
102
}
330
2
100
AcDbSymbolTableRecord
100
AcDbLayerTableRecord
  2
P-3FF0
 70
     0
 62
     7
  6
Continuous
370
    -3
390
F
  0
LAYER
  5
EAD
102
{ACAD_XDICTIONARY
360
EAE
102
}
330
2
100
AcDbSymbolTableRecord
100
AcDbLayerTableRecord
  2
AM_7
 70
     0
 62
     4
  6
AM_DIN_G_W050
370
    25
390
F
1001
AcAecLayerStandard
1000

1000

  0
ENDTAB
  0
TABLE
  2
STYLE
  5
3
330
0
100
AcDbSymbolTable
 70
     4
  0
STYLE
  5
11
330
3
100
AcDbSymbolTableRecord
100
AcDbTextStyleTableRecord
  2
STANDARD
 70
     0
 40
0.0
 41
1.0
 50
0.0
 71
     0
 42
2.5
  3
ISOCP.SHX
  4

  0
STYLE
  5
22C
330
3
100
AcDbSymbolTableRecord
100
AcDbTextStyleTableRecord
  2

 70
     1
 40
0.0
 41
1.0
 50
0.0
 71
     0
 42
2.5
  3
genltshp.shx
  4

  0
STYLE
  5
2BE6
330
3
100
AcDbSymbolTableRecord
100
AcDbTextStyleTableRecord
  2
ACDINGDT
 70
     0
 40
0.0
 41
1.0
 50
0.0
 71
     0
 42
2.5
  3
amgdt.shx
  4

  0
STYLE
  5
2D2A
330
3
100
AcDbSymbolTableRecord
100
AcDbTextStyleTableRecord
  2
ACDINTS
 70
     0
 40
1.0
 41
1.0
 50
0.0
 71
     0
 42
2.5
  3
isocp.shx
  4

  0
ENDTAB
  0
TABLE
  2
VIEW
  5
6
330
0
100
AcDbSymbolTable
 70
     0
  0
ENDTAB
  0
TABLE
  2
UCS
  5
7
330
0
100
AcDbSymbolTable
 70
     0
  0
ENDTAB
  0
TABLE
  2
APPID
  5
9
330
0
100
AcDbSymbolTable
 70
    25
  0
APPID
  5
12
330
9
100
AcDbSymbolTableRecord
100
AcDbRegAppTableRecord
  2
ACAD
 70
     0
  0
APPID
  5
46
330
9
100
AcDbSymbolTableRecord
100
AcDbRegAppTableRecord
  2
MCAD_NO_VIS
 70
     0
  0
APPID
  5
47
330
9
100
AcDbSymbolTableRecord
100
AcDbRegAppTableRecord
  2
ACAD_TEMP_GRAPHIC
 70
     0
  0
APPID
  5
58
330
9
100
AcDbSymbolTableRecord
100
AcDbRegAppTableRecord
  2
ACATTRIBSERVICES
 70
     0
  0
APPID
  5
EE
330
9
100
AcDbSymbolTableRecord
100
AcDbRegAppTableRecord
  2
AD_DRAW
 70
     0
  0
APPID
  5
10C
330
9
100
AcDbSymbolTableRecord
100
AcDbRegAppTableRecord
  2
DESIGNERASSEMBLIES
 70
     0
  0
APPID
  5
111
330
9
100
AcDbSymbolTableRecord
100
AcDbRegAppTableRecord
  2
ACADM_DIM_EDIT
 70
     0
  0
APPID
  5
112
330
9
100
AcDbSymbolTableRecord
100
AcDbRegAppTableRecord
  2
AMDT_DM_ADJ
 70
     0
  0
APPID
  5
1A3
330
9
100
AcDbSymbolTableRecord
100
AcDbRegAppTableRecord
  2
ACAD_DSTYLE_DIMARC_LENGTH_SYMBOL
 70
     0
  0
APPID
  5
1A4
330
9
100
AcDbSymbolTableRecord
100
AcDbRegAppTableRecord
  2
ACAD_DSTYLE_DIMJOGGED_JOGANGLE_SYMBOL
 70
     0
  0
APPID
  5
3F1
330
9
100
AcDbSymbolTableRecord
100
AcDbRegAppTableRecord
  2
ACAD_MLEADERVER
 70
     0
  0
APPID
  5
464
330
9
100
AcDbSymbolTableRecord
100
AcDbRegAppTableRecord
  2
ACME_LAYERS
 70
     0
  0
APPID
  5
465
330
9
100
AcDbSymbolTableRecord
100
AcDbRegAppTableRecord
  2
AcAecLayerStandard
 70
     0
  0
APPID
  5
466
330
9
100
AcDbSymbolTableRecord
100
AcDbRegAppTableRecord
  2
ACAD_PSEXT
 70
     0
  0
APPID
  5
467
330
9
100
AcDbSymbolTableRecord
100
AcDbRegAppTableRecord
  2
ACAD_DSTYLE_DIMINSPECT
 70
     0
  0
APPID
  5
EB0
330
9
100
AcDbSymbolTableRecord
100
AcDbRegAppTableRecord
  2
GENIUS_GENODEF_13
 70
     0
  0
APPID
  5
EB1
330
9
100
AcDbSymbolTableRecord
100
AcDbRegAppTableRecord
  2
GENIUS_GENOBJ-N-CEN_13
 70
     0
  0
APPID
  5
EB2
330
9
100
AcDbSymbolTableRecord
100
AcDbRegAppTableRecord
  2
GENIUS_GENCEN_19
 70
     0
  0
APPID
  5
15A4
330
9
100
AcDbSymbolTableRecord
100
AcDbRegAppTableRecord
  2
GENIUS_GENOBJ-N-HTC_13
 70
     0
  0
APPID
  5
15A5
330
9
100
AcDbSymbolTableRecord
100
AcDbRegAppTableRecord
  2
GENIUS_GENHATCH_13
 70
     0
  0
APPID
  5
1DFF
330
9
100
AcDbSymbolTableRecord
100
AcDbRegAppTableRecord
  2
ACAD_EXEMPT_FROM_CAD_STANDARDS
 70
     0
  0
APPID
  5
2220
330
9
100
AcDbSymbolTableRecord
100
AcDbRegAppTableRecord
  2
ACAD_DSTYLE_DIM_LINETYPE
 70
     0
  0
APPID
  5
2221
330
9
100
AcDbSymbolTableRecord
100
AcDbRegAppTableRecord
  2
ACAD_DSTYLE_DIM_EXT1_LINETYPE
 70
     0
  0
APPID
  5
2222
330
9
100
AcDbSymbolTableRecord
100
AcDbRegAppTableRecord
  2
ACAD_DSTYLE_DIM_EXT2_LINETYPE
 70
     0
  0
APPID
  5
26BB
330
9
100
AcDbSymbolTableRecord
100
AcDbRegAppTableRecord
  2
GENIUS_GENDTOL_13
 70
     0
  0
ENDTAB
  0
TABLE
  2
DIMSTYLE
  5
A
330
0
100
AcDbSymbolTable
 70
     9
100
AcDbDimStyleTable
 71
     1
340
2F0
  0
DIMSTYLE
105
2F0
102
{ACAD_REACTORS
330
2D16
102
}
330
A
100
AcDbSymbolTableRecord
100
AcDbDimStyleTableRecord
  2
AM_DIN
 70
     0
  4
"
 41
3.5
 42
1.0
 43
10.0
 44
1.0
 47
0.1
 48
0.1
 73
     0
 74
     0
 77
     1
 78
     8
 79
     2
140
3.5
141
0.0
143
0.0393701
146
0.71
147
1.5
172
     1
176
   256
177
   256
178
     2
271
     2
272
     3
274
     4
283
     0
284
     8
340
11
371
    -1
372
    -1
1001
ACAD_DSTYLE_DIMJOGGED_JOGANGLE_SYMBOL
1070
   384
1040
1.570796326794896
1001
ACAD_DSTYLE_DIM_LINETYPE
1070
   380
1005
14
1001
ACAD_DSTYLE_DIM_EXT1_LINETYPE
1070
   381
1005
14
1001
ACAD_DSTYLE_DIM_EXT2_LINETYPE
1070
   382
1005
14
  0
DIMSTYLE
105
463
102
{ACAD_REACTORS
330
2BFC
102
}
330
A
100
AcDbSymbolTableRecord
100
AcDbDimStyleTableRecord
  2
AM_DIN$0
 70
     0
  4
"
 41
3.5
 42
1.0
 43
10.0
 44
1.0
 47
0.1
 48
0.1
 73
     0
 74
     0
 77
     1
 78
     8
 79
     2
140
3.5
141
0.0
143
0.0393701
146
0.71
147
1.5
172
     1
176
   256
177
   256
178
     2
271
     2
272
     3
274
     4
283
     0
284
     8
340
11
371
    -1
372
    -1
1001
ACAD_DSTYLE_DIMJOGGED_JOGANGLE_SYMBOL
1070
   384
1040
1.570796326794896
1001
ACAD_DSTYLE_DIM_LINETYPE
1070
   380
1005
14
1001
ACAD_DSTYLE_DIM_EXT1_LINETYPE
1070
   381
1005
14
1001
ACAD_DSTYLE_DIM_EXT2_LINETYPE
1070
   382
1005
14
  0
DIMSTYLE
105
EAF
330
A
100
AcDbSymbolTableRecord
100
AcDbDimStyleTableRecord
  2
AM_DIN$2
 70
     0
  4
"
 41
3.5
 42
1.0
 43
10.0
 44
1.0
 47
0.1
 48
0.1
 73
     0
 74
     0
 77
     1
 78
     8
 79
     2
140
3.5
141
0.0
143
0.0393701
146
0.71
147
1.5
172
     1
176
   256
177
   256
178
     2
271
     2
272
     3
274
     4
283
     0
284
     8
340
11
371
    -1
372
    -1
1001
ACAD_DSTYLE_DIMJOGGED_JOGANGLE_SYMBOL
1070
   384
1040
1.570796326794896
1001
ACAD_DSTYLE_DIM_LINETYPE
1070
   380
1005
14
1001
ACAD_DSTYLE_DIM_EXT1_LINETYPE
1070
   381
1005
14
1001
ACAD_DSTYLE_DIM_EXT2_LINETYPE
1070
   382
1005
14
  0
DIMSTYLE
105
2B5E
330
A
100
AcDbSymbolTableRecord
100
AcDbDimStyleTableRecord
  2
AM_DIN$3
 70
     0
  4
"
 41
3.5
 42
1.0
 43
10.0
 44
1.0
 47
0.1
 48
0.1
 73
     0
 77
     1
 78
     8
 79
     2
140
3.5
141
0.0
143
0.0393701
146
0.71
147
1.5
176
   256
177
   256
178
     2
271
     2
272
     3
274
     4
283
     0
284
     8
288
     1
289
     0
340
11
371
    -1
372
    -1
1001
ACAD_DSTYLE_DIMJOGGED_JOGANGLE_SYMBOL
1070
   384
1040
1.570796326794896
1001
ACAD_DSTYLE_DIM_LINETYPE
1070
   380
1005
14
1001
ACAD_DSTYLE_DIM_EXT1_LINETYPE
1070
   381
1005
14
1001
ACAD_DSTYLE_DIM_EXT2_LINETYPE
1070
   382
1005
14
  0
DIMSTYLE
105
2B5F
330
A
100
AcDbSymbolTableRecord
100
AcDbDimStyleTableRecord
  2
AM_DIN$4
 70
     0
  4
"
 41
3.5
 42
1.0
 43
10.0
 44
1.0
 47
0.1
 48
0.1
 73
     0
 74
     0
 77
     1
 78
     8
 79
     2
140
3.5
141
0.0
143
0.0393701
146
0.71
147
1.5
172
     1
176
   256
177
   256
178
     2
271
     2
272
     3
274
     4
283
     0
284
     8
340
11
371
    -1
372
    -1
1001
ACAD_DSTYLE_DIMJOGGED_JOGANGLE_SYMBOL
1070
   384
1040
1.570796326794896
1001
ACAD_DSTYLE_DIM_LINETYPE
1070
   380
1005
14
1001
ACAD_DSTYLE_DIM_EXT1_LINETYPE
1070
   381
1005
14
1001
ACAD_DSTYLE_DIM_EXT2_LINETYPE
1070
   382
1005
14
  0
DIMSTYLE
105
2B60
330
A
100
AcDbSymbolTableRecord
100
AcDbDimStyleTableRecord
  2
AM_DIN$6
 70
     0
  4
"
 41
3.5
 42
1.0
 43
10.0
 44
1.0
 47
0.1
 48
0.1
 73
     0
 74
     0
 78
     8
 79
     2
140
3.5
141
0.0
143
0.0393701
146
0.71
147
1.5
172
     1
176
   256
177
   256
178
     2
271
     2
272
     3
274
     4
283
     0
284
     8
340
11
371
    -1
372
    -1
1001
ACAD_DSTYLE_DIMJOGGED_JOGANGLE_SYMBOL
1070
   384
1040
1.570796326794896
1001
ACAD_DSTYLE_DIM_LINETYPE
1070
   380
1005
14
1001
ACAD_DSTYLE_DIM_EXT1_LINETYPE
1070
   381
1005
14
1001
ACAD_DSTYLE_DIM_EXT2_LINETYPE
1070
   382
1005
14
  0
DIMSTYLE
105
2B61
330
A
100
AcDbSymbolTableRecord
100
AcDbDimStyleTableRecord
  2
AM_DIN$7
 70
     0
  4
"
 41
3.5
 42
1.0
 43
10.0
 44
1.0
 47
0.1
 48
0.1
 73
     0
 74
     0
 77
     1
 78
     8
 79
     2
140
3.5
141
0.0
143
0.0393701
146
0.71
147
1.5
172
     1
176
   256
177
   256
178
     2
271
     2
272
     3
274
     4
283
     0
284
     8
340
11
371
    -1
372
    -1
1001
ACAD_DSTYLE_DIMJOGGED_JOGANGLE_SYMBOL
1070
   384
1040
1.570796326794896
1001
ACAD_DSTYLE_DIM_LINETYPE
1070
   380
1005
14
1001
ACAD_DSTYLE_DIM_EXT1_LINETYPE
1070
   381
1005
14
1001
ACAD_DSTYLE_DIM_EXT2_LINETYPE
1070
   382
1005
14
  0
DIMSTYLE
105
2B62
330
A
100
AcDbSymbolTableRecord
100
AcDbDimStyleTableRecord
  2
AM_DIN$SF
 70
     0
  4
"
 41
3.5
 42
1.0
 43
10.0
 44
1.0
 47
0.1
 48
0.1
 73
     0
 74
     0
 75
     1
 76
     1
 77
     1
 78
     8
 79
     2
140
3.5
141
0.0
143
0.0393701
146
0.71
147
1.5
172
     1
176
   256
177
   256
178
     2
271
     2
272
     3
274
     4
283
     0
284
     8
340
11
371
    -1
372
    -1
1001
ACAD_DSTYLE_DIMJOGGED_JOGANGLE_SYMBOL
1070
   384
1040
1.570796326794896
1001
ACAD_DSTYLE_DIM_LINETYPE
1070
   380
1005
14
1001
ACAD_DSTYLE_DIM_EXT1_LINETYPE
1070
   381
1005
14
1001
ACAD_DSTYLE_DIM_EXT2_LINETYPE
1070
   382
1005
14
  0
DIMSTYLE
105
2B67
330
A
100
AcDbSymbolTableRecord
100
AcDbDimStyleTableRecord
  2
AM_DIN$SH
 70
     0
  4
"
 41
3.5
 42
1.0
 43
10.0
 44
1.0
 47
0.1
 48
0.1
 73
     0
 74
     0
 75
     1
 76
     1
 77
     1
 78
     8
 79
     2
140
3.5
141
0.0
143
0.0393701
144
2.0
146
0.71
147
1.5
172
     1
173
     1
176
   256
177
   256
178
     2
271
     2
272
     3
274
     4
283
     0
284
     8
340
11
343
2B63
371
    -1
372
    -1
1001
ACAD_DSTYLE_DIMJOGGED_JOGANGLE_SYMBOL
1070
   384
1040
1.570796326794896
1001
ACAD_DSTYLE_DIM_LINETYPE
1070
   380
1005
14
1001
ACAD_DSTYLE_DIM_EXT1_LINETYPE
1070
   381
1005
14
1001
ACAD_DSTYLE_DIM_EXT2_LINETYPE
1070
   382
1005
14
  0
ENDTAB
  0
TABLE
  2
BLOCK_RECORD
  5
1
330
0
100
AcDbSymbolTable
 70
     5
  0
BLOCK_RECORD
  5
1F
102
{ACAD_XDICTIONARY
360
8F
102
}
330
1
100
AcDbSymbolTableRecord
100
AcDbBlockTableRecord
  2
*Model_Space
340
22
  0
BLOCK_RECORD
  5
1B
330
1
100
AcDbSymbolTableRecord
100
AcDbBlockTableRecord
  2
*Paper_Space
340
1E
  0
BLOCK_RECORD
  5
23
330
1
100
AcDbSymbolTableRecord
100
AcDbBlockTableRecord
  2
*Paper_Space0
340
26
  0
BLOCK_RECORD
  5
E48
330
1
100
AcDbSymbolTableRecord
100
AcDbBlockTableRecord
  2
*D1
340
0
  0
BLOCK_RECORD
  5
2B63
330
1
100
AcDbSymbolTableRecord
100
AcDbBlockTableRecord
  2
GENAXEH
340
0
  0
BLOCK_RECORD
  5
2BFD
330
1
100
AcDbSymbolTableRecord
100
AcDbBlockTableRecord
  2
*D3
340
0
  0
ENDTAB
  0
ENDSEC
  0
SECTION
  2
BLOCKS
  0
BLOCK
  5
20
330
1F
100
AcDbEntity
  8
0
100
AcDbBlockBegin
  2
*Model_Space
 70
     0
 10
0.0
 20
0.0
 30
0.0
  3
*Model_Space
  1

  0
ENDBLK
  5
21
330
1F
100
AcDbEntity
  8
0
100
AcDbBlockEnd
  0
BLOCK
  5
1C
330
1B
100
AcDbEntity
 67
     1
  8
0
100
AcDbBlockBegin
  2
*Paper_Space
 70
     0
 10
0.0
 20
0.0
 30
0.0
  3
*Paper_Space
  1

  0
ENDBLK
  5
1D
330
1B
100
AcDbEntity
 67
     1
  8
0
100
AcDbBlockEnd
  0
BLOCK
  5
24
330
23
100
AcDbEntity
 67
     1
  8
0
100
AcDbBlockBegin
  2
*Paper_Space0
 70
     0
 10
0.0
 20
0.0
 30
0.0
  3
*Paper_Space0
  1

  0
ENDBLK
  5
25
330
23
100
AcDbEntity
 67
     1
  8
0
100
AcDbBlockEnd
  0
BLOCK
  5
E49
330
E48
100
AcDbEntity
  8
0
100
AcDbBlockBegin
  2
*D1
 70
     1
 10
0.0
 20
0.0
 30
0.0
  3
*D1
  1

  0
LINE
  5
2D3D
330
E48
100
AcDbEntity
  8
AM_5
  6
ByBlock
100
AcDbLine
 10
2342.767332719822
 20
1125.282488172726
 30
0.0
 11
2342.767332719822
 21
1275.440047195184
 31
0.0
  0
LINE
  5
2D3E
330
E48
100
AcDbEntity
  8
AM_5
  6
ByBlock
100
AcDbLine
 10
2842.854352803712
 20
1125.282488172726
 30
0.0
 11
2842.854352803712
 21
1275.440047195184
 31
0.0
  0
LINE
  5
2D3F
330
E48
100
AcDbEntity
  8
AM_5
  6
ByBlock
100
AcDbLine
 10
2347.767332719822
 20
1274.440047195184
 30
0.0
 11
2837.854352803712
 21
1274.440047195184
 31
0.0
  0
SOLID
  5
2D40
330
E48
100
AcDbEntity
  8
AM_5
100
AcDbTrace
 10
2347.767332719822
 20
1275.273380528517
 30
0.0
 11
2347.767332719822
 21
1273.60671386185
 31
0.0
 12
2342.767332719822
 22
1274.440047195184
 32
0.0
 13
2342.767332719822
 23
1274.440047195184
 33
0.0
  0
SOLID
  5
2D41
330
E48
100
AcDbEntity
  8
AM_5
100
AcDbTrace
 10
2837.854352803712
 20
1275.273380528517
 30
0.0
 11
2837.854352803712
 21
1273.60671386185
 31
0.0
 12
2842.854352803712
 22
1274.440047195184
 32
0.0
 13
2842.854352803712
 23
1274.440047195184
 33
0.0
  0
MTEXT
  5
2D42
330
E48
100
AcDbEntity
  8
AM_5
 62
     2
100
AcDbMText
 10
2592.810842761767
 20
1280.940047195184
 30
0.0
 40
10.0
 41
0.0
 71
     5
 72
     1
  1
{\Famgdt;o} 500
 73
     1
 44
1.0
1001
ACAD
1000
MTEXTBEGIN
1070
    73
1070
     1
1070
    44
1040
1.0
1070
    74
1070
     0
1000
MTEXTEND
  0
POINT
  5
2D43
330
E48
100
AcDbEntity
  8
Defpoints
 62
     0
100
AcDbPoint
 10
2342.767332719822
 20
1124.282488172726
 30
0.0
  0
POINT
  5
2D44
330
E48
100
AcDbEntity
  8
Defpoints
 62
     0
100
AcDbPoint
 10
2842.854352803712
 20
1124.282488172726
 30
0.0
  0
POINT
  5
2D45
330
E48
100
AcDbEntity
  8
Defpoints
 62
     0
100
AcDbPoint
 10
2842.854352803712
 20
1274.440047195184
 30
0.0
  0
ENDBLK
  5
E4A
330
E48
100
AcDbEntity
  8
0
100
AcDbBlockEnd
  0
BLOCK
  5
2B65
330
2B63
100
AcDbEntity
  8
0
100
AcDbBlockBegin
  2
GENAXEH
 70
     0
 10
0.0
 20
0.0
 30
0.0
  3
GENAXEH
  1

  0
LINE
  5
2B64
330
2B63
100
AcDbEntity
  8
0
100
AcDbLine
 10
-1.0
 20
0.0
 30
0.0
 11
1.0
 21
0.0
 31
0.0
  0
ENDBLK
  5
2B66
330
2B63
100
AcDbEntity
  8
0
100
AcDbBlockEnd
  0
BLOCK
  5
2BFE
330
2BFD
100
AcDbEntity
  8
0
100
AcDbBlockBegin
  2
*D3
 70
     1
 10
0.0
 20
0.0
 30
0.0
  3
*D3
  1

  0
LINE
  5
2D46
330
2BFD
100
AcDbEntity
  8
AM_5
  6
ByBlock
100
AcDbLine
 10
2591.810842761764
 20
746.2824881727257
 30
0.0
 11
2394.264984990136
 21
746.2824881727257
 31
0.0
  0
LINE
  5
2D47
330
2BFD
100
AcDbEntity
  8
AM_5
  6
ByBlock
100
AcDbLine
 10
2426.767332719801
 20
1116.282488172726
 30
0.0
 11
2394.264984990137
 21
1116.282488172726
 31
0.0
  0
LINE
  5
2D48
330
2BFD
100
AcDbEntity
  8
AM_5
  6
ByBlock
100
AcDbLine
 10
2395.264984990136
 20
751.2824881727257
 30
0.0
 11
2395.264984990136
 21
1111.282488172726
 31
0.0
  0
SOLID
  5
2D49
330
2BFD
100
AcDbEntity
  8
AM_5
100
AcDbTrace
 10
2394.431651656802
 20
751.2824881727257
 30
0.0
 11
2396.09831832347
 21
751.2824881727257
 31
0.0
 12
2395.264984990136
 22
746.2824881727257
 32
0.0
 13
2395.264984990136
 23
746.2824881727257
 33
0.0
  0
SOLID
  5
2D4A
330
2BFD
100
AcDbEntity
  8
AM_5
100
AcDbTrace
 10
2394.431651656803
 20
1111.282488172726
 30
0.0
 11
2396.09831832347
 21
1111.282488172726
 31
0.0
 12
2395.264984990136
 22
1116.282488172726
 32
0.0
 13
2395.264984990136
 23
1116.282488172726
 33
0.0
  0
MTEXT
  5
2D4B
330
2BFD
100
AcDbEntity
  8
AM_5
 62
     2
100
AcDbMText
 10
2388.764984990136
 20
931.2824881727262
 30
0.0
 40
10.0
 41
0.0
 71
     5
 72
     1
  1
370
 11
0.0000000000000001
 21
1.0
 31
0.0
 73
     1
 44
1.0
1001
ACAD
1000
MTEXTBEGIN
1070
    73
1070
     1
1070
    44
1040
1.0
1070
    74
1070
     0
1000
MTEXTEND
  0
POINT
  5
2D4C
330
2BFD
100
AcDbEntity
  8
Defpoints
 62
     0
100
AcDbPoint
 10
2592.810842761764
 20
746.2824881727257
 30
0.0
  0
POINT
  5
2D4D
330
2BFD
100
AcDbEntity
  8
Defpoints
 62
     0
100
AcDbPoint
 10
2427.767332719801
 20
1116.282488172726
 30
0.0
  0
POINT
  5
2D4E
330
2BFD
100
AcDbEntity
  8
Defpoints
 62
     0
100
AcDbPoint
 10
2395.264984990136
 20
1116.282488172726
 30
0.0
  0
ENDBLK
  5
2BFF
330
2BFD
100
AcDbEntity
  8
0
100
AcDbBlockEnd
  0
ENDSEC
  0
SECTION
  2
ENTITIES
  0
LINE
  5
945
330
1F
100
AcDbEntity
  8
P-0000
  6
Continuous
 62
     7
100
AcDbLine
 10
2556.310842761766
 20
1055.74069921713
 30
0.0
 11
2556.310842761766
 21
751.2824881727257
 31
0.0
1001
ACME_LAYERS
1000
1
  0
LINE
  5
946
102
{ACAD_REACTORS
330
2C0A
102
}
330
1F
100
AcDbEntity
  8
P-0000
  6
STRICHPUNKT
 62
     3
100
AcDbLine
 10
2592.810842761768
 20
1243.672490862645
 30
0.0
 11
2592.810842761764
 21
741.6362557665234
 31
0.0
1001
ACME_LAYERS
1000
1
  0
LINE
  5
947
330
1F
100
AcDbEntity
  8
P-0000
  6
Continuous
 62
     7
100
AcDbLine
 10
2508.810842761767
 20
1116.282488172723
 30
0.0
 11
2528.810842761767
 21
1116.282488172741
 31
0.0
1001
ACME_LAYERS
1000
1
  0
LINE
  5
948
330
1F
100
AcDbEntity
  8
P-0000
  6
Continuous
 62
     7
100
AcDbLine
 10
2545.810842761766
 20
1120.282488172726
 30
0.0
 11
2510.373051292283
 21
1120.282488172726
 31
0.0
1001
ACME_LAYERS
1000
1
  0
LINE
  5
94A
330
1F
100
AcDbEntity
  8
P-0000
  6
Continuous
 62
     7
100
AcDbLine
 10
2508.489129489526
 20
1122.282488172726
 30
0.0
 11
2545.810842761766
 21
1122.282488172726
 31
0.0
1001
ACME_LAYERS
1000
1
  0
HATCH
  5
94B
330
1F
100
AcDbEntity
  8
P-0000
  6
Continuous
 62
     3
100
AcDbHatch
 10
0.0
 20
0.0
 30
0.0
210
0.0
220
0.0
230
1.0
  2
_U
 70
     0
 71
     0
 91
        1
 92
        1
 93
        9
 72
     1
 10
2427.767332719801
 20
1116.282488172726
 11
2426.767332719801
 21
1118.014538980296
 72
     1
 10
2426.767332719801
 20
1118.014538980296
 11
2431.13279095971
 21
1120.534937470241
 72
     2
 10
2433.132790959709
 20
1117.070835855105
 40
4.0
 50
239.9999999999895
 51
270.0
 73
     0
 72
     2
 10
2433.132790959709
 20
1117.070835855105
 40
4.000000000000613
 50
270.0
 51
315.0000000000009
 73
     0
 72
     1
 10
2435.961218084456
 20
1119.899262979852
 11
2436.663779329208
 21
1119.196701735099
 72
     1
 10
2436.663779329208
 20
1119.196701735099
 11
2435.249565766835
 21
1117.782488172726
 72
     1
 10
2435.249565766835
 20
1117.782488172726
 11
2434.547004522083
 21
1118.485049417478
 72
     2
 10
2433.132790959709
 20
1117.070835855105
 40
2.000000000000115
 50
44.99999999999594
 51
120.0000000000099
 73
     1
 72
     1
 10
2432.132790959709
 20
1118.802886662673
 11
2427.767332719801
 21
1116.282488172726
 97
        0
 75
     0
 76
     0
 52
44.99999999999999
 41
2.0
 77
     0
 78
     1
 53
45.0
 43
2744.571284263033
 44
982.3916231391619
 45
-1.414213562373094
 46
1.414213562373094
 79
     0
 98
        1
 10
2744.571284263033
 20
982.3916231391619
1001
ACME_LAYERS
1000
1
  0
LINE
  5
94C
330
1F
100
AcDbEntity
  8
P-0000
  6
Continuous
 62
     3
100
AcDbLine
 10
2426.767332719801
 20
1118.014538980296
 30
0.0
 11
2431.13279095971
 21
1120.534937470241
 31
0.0
1001
ACME_LAYERS
1000
1
  0
LINE
  5
94D
330
1F
100
AcDbEntity
  8
P-0000
  6
Continuous
 62
     7
100
AcDbLine
 10
2427.767332719801
 20
1116.282488172726
 30
0.0
 11
2432.132790959709
 21
1118.802886662673
 31
0.0
1001
ACME_LAYERS
1000
1
  0
LINE
  5
94E
330
1F
100
AcDbEntity
  8
P-0000
  6
Continuous
 62
     7
100
AcDbLine
 10
2427.767332719801
 20
1116.282488172726
 30
0.0
 11
2432.132790959709
 21
1118.802886662673
 31
0.0
1001
ACME_LAYERS
1000
1
  0
LINE
  5
94F
330
1F
100
AcDbEntity
  8
P-0000
  6
Continuous
 62
     7
100
AcDbLine
 10
2427.767332719801
 20
1116.282488172726
 30
0.0
 11
2452.339129489525
 21
1116.282488172726
 31
0.0
1001
ACME_LAYERS
1000
1
  0
LINE
  5
950
102
{ACAD_REACTORS
330
2C0A
102
}
330
1F
100
AcDbEntity
  8
P-0000
  6
Continuous
 62
     7
100
AcDbLine
 10
2427.767332719801
 20
1116.282488172726
 30
0.0
 11
2426.767332719801
 21
1118.014538980296
 31
0.0
1001
ACME_LAYERS
1000
1
  0
LINE
  5
951
330
1F
100
AcDbEntity
  8
P-0000
  6
Continuous
 62
     7
100
AcDbLine
 10
2452.339129489525
 20
1116.282488172726
 30
0.0
 11
2490.310842761779
 21
1116.282488172723
 31
0.0
1001
ACME_LAYERS
1000
1
  0
LINE
  5
955
330
1F
100
AcDbEntity
  8
P-0000
  6
Continuous
 62
     7
100
AcDbLine
 10
2472.560842761759
 20
1118.282488172726
 30
0.0
 11
2480.517332719801
 21
1118.282488172726
 31
0.0
1001
ACME_LAYERS
1000
1
  0
ARC
  5
95C
330
1F
100
AcDbEntity
  8
P-0000
  6
Continuous
 62
     7
100
AcDbCircle
 10
2452.339129489525
 20
1120.282488172726
 30
0.0
 40
1.999999999999253
100
AcDbArc
 50
239.9999999999966
 51
270.0
1001
ACME_LAYERS
1000
1
  0
ARC
  5
95D
330
1F
100
AcDbEntity
  8
P-0000
  6
Continuous
 62
     7
100
AcDbCircle
 10
2452.339129489525
 20
1120.282488172726
 30
0.0
 40
4.000000000000131
100
AcDbArc
 50
239.9999999999991
 51
270.0
1001
ACME_LAYERS
1000
1
  0
LINE
  5
95E
330
1F
100
AcDbEntity
  8
P-0000
  6
Continuous
 62
     7
100
AcDbLine
 10
2452.617332719801
 20
1118.282488172726
 30
0.0
 11
2446.84938352737
 21
1121.612615191648
 31
0.0
1001
ACME_LAYERS
1000
1
  0
LINE
  5
95F
330
1F
100
AcDbEntity
  8
P-0000
  6
Continuous
 62
     7
100
AcDbLine
 10
2446.901874479892
 20
1118.802886662673
 30
0.0
 11
2450.339129489524
 21
1116.818386557588
 31
0.0
1001
ACME_LAYERS
1000
1
  0
LINE
  5
960
330
1F
100
AcDbEntity
  8
P-0000
  6
Continuous
 62
     7
100
AcDbLine
 10
2436.663779329208
 20
1119.196701735099
 30
0.0
 11
2442.370886110393
 21
1119.196701735099
 31
0.0
1001
ACME_LAYERS
1000
1
  0
LINE
  5
961
330
1F
100
AcDbEntity
  8
P-0000
  6
Continuous
 62
     7
100
AcDbLine
 10
2435.249565766835
 20
1117.782488172726
 30
0.0
 11
2443.785099672767
 21
1117.782488172726
 31
0.0
1001
ACME_LAYERS
1000
1
  0
LINE
  5
962
330
1F
100
AcDbEntity
  8
P-0000
  6
Continuous
 62
     7
100
AcDbLine
 10
2435.499383527371
 20
1122.282488172726
 30
0.0
 11
2444.34938352737
 21
1122.282488172726
 31
0.0
1001
ACME_LAYERS
1000
1
  0
LINE
  5
963
330
1F
100
AcDbEntity
  8
P-0000
  6
Continuous
 62
     7
100
AcDbLine
 10
2433.132790959709
 20
1121.070835855105
 30
0.0
 11
2445.901874479893
 21
1121.070835855105
 31
0.0
1001
ACME_LAYERS
1000
1
  0
ARC
  5
964
330
1F
100
AcDbEntity
  8
P-0000
  6
Continuous
 62
     7
100
AcDbCircle
 10
2435.499383527369
 20
1117.282488172726
 30
0.0
 40
5.0
100
AcDbArc
 50
89.99999999997395
 51
120.0000000000009
1001
ACME_LAYERS
1000
1
  0
ARC
  5
965
330
1F
100
AcDbEntity
  8
P-0000
  6
Continuous
 62
     7
100
AcDbCircle
 10
2433.132790959709
 20
1117.070835855105
 30
0.0
 40
4.000000000000613
100
AcDbArc
 50
44.99999999999568
 51
90.0
1001
ACME_LAYERS
1000
1
  0
LINE
  5
966
330
1F
100
AcDbEntity
  8
P-0000
  6
Continuous
 62
     7
100
AcDbLine
 10
2434.547004522083
 20
1118.485049417478
 30
0.0
 11
2435.249565766835
 21
1117.782488172726
 31
0.0
1001
ACME_LAYERS
1000
1
  0
ARC
  5
967
330
1F
100
AcDbEntity
  8
P-0000
  6
Continuous
 62
     7
100
AcDbCircle
 10
2433.132790959709
 20
1117.070835855105
 30
0.0
 40
4.0
100
AcDbArc
 50
90.0
 51
120.0000000000034
1001
ACME_LAYERS
1000
1
  0
LINE
  5
968
330
1F
100
AcDbEntity
  8
P-0000
  6
Continuous
 62
     7
100
AcDbLine
 10
2431.13279095971
 20
1120.534937470241
 30
0.0
 11
2432.999383527369
 21
1121.612615191648
 31
0.0
1001
ACME_LAYERS
1000
1
  0
ARC
  5
969
330
1F
100
AcDbEntity
  8
P-0000
  6
Continuous
 62
     7
100
AcDbCircle
 10
2433.132790959709
 20
1117.070835855105
 30
0.0
 40
2.000000000000115
100
AcDbArc
 50
44.99999999999568
 51
120.0000000000034
1001
ACME_LAYERS
1000
1
  0
LINE
  5
96A
330
1F
100
AcDbEntity
  8
P-0000
  6
Continuous
 62
     7
100
AcDbLine
 10
2436.663779329208
 20
1119.196701735099
 30
0.0
 11
2435.249565766835
 21
1117.782488172726
 31
0.0
1001
ACME_LAYERS
1000
1
  0
LINE
  5
96B
330
1F
100
AcDbEntity
  8
P-0000
  6
Continuous
 62
     7
100
AcDbLine
 10
2435.961218084456
 20
1119.899262979852
 30
0.0
 11
2436.663779329208
 21
1119.196701735099
 31
0.0
1001
ACME_LAYERS
1000
1
  0
ARC
  5
96C
330
1F
100
AcDbEntity
  8
P-0000
  6
Continuous
 62
     7
100
AcDbCircle
 10
2445.901874479893
 20
1117.070835855105
 30
0.0
 40
1.999999999999401
100
AcDbArc
 50
59.99999999999665
 51
135.0000000000043
1001
ACME_LAYERS
1000
1
  0
ARC
  5
96D
330
1F
100
AcDbEntity
  8
P-0000
  6
Continuous
 62
     7
100
AcDbCircle
 10
2444.34938352737
 20
1117.282488172726
 30
0.0
 40
5.000000000000164
100
AcDbArc
 50
59.99999999999912
 51
90.0
1001
ACME_LAYERS
1000
1
  0
ARC
  5
96E
330
1F
100
AcDbEntity
  8
P-0000
  6
Continuous
 62
     7
100
AcDbCircle
 10
2445.901874479893
 20
1117.070835855105
 30
0.0
 40
1.999999999999401
100
AcDbArc
 50
59.99999999999665
 51
135.0000000000043
1001
ACME_LAYERS
1000
1
  0
ARC
  5
96F
330
1F
100
AcDbEntity
  8
P-0000
  6
Continuous
 62
     7
100
AcDbCircle
 10
2445.901874479893
 20
1117.070835855105
 30
0.0
 40
3.999999999998728
100
AcDbArc
 50
59.99999999999665
 51
90.0
1001
ACME_LAYERS
1000
1
  0
ARC
  5
970
330
1F
100
AcDbEntity
  8
P-0000
  6
Continuous
 62
     7
100
AcDbCircle
 10
2445.901874479893
 20
1117.070835855105
 30
0.0
 40
4.0
100
AcDbArc
 50
90.0
 51
135.0000000000043
1001
ACME_LAYERS
1000
1
  0
LINE
  5
971
330
1F
100
AcDbEntity
  8
P-0000
  6
Continuous
 62
     7
100
AcDbLine
 10
2442.370886110393
 20
1119.196701735099
 30
0.0
 11
2443.073447355146
 21
1119.899262979852
 31
0.0
1001
ACME_LAYERS
1000
1
  0
LINE
  5
972
330
1F
100
AcDbEntity
  8
P-0000
  6
Continuous
 62
     7
100
AcDbLine
 10
2443.785099672767
 20
1117.782488172726
 30
0.0
 11
2444.487660917519
 21
1118.485049417478
 31
0.0
1001
ACME_LAYERS
1000
1
  0
LINE
  5
973
330
1F
100
AcDbEntity
  8
P-0000
  6
Continuous
 62
     7
100
AcDbLine
 10
2443.785099672767
 20
1117.782488172726
 30
0.0
 11
2442.370886110393
 21
1119.196701735099
 31
0.0
1001
ACME_LAYERS
1000
1
  0
LINE
  5
974
330
1F
100
AcDbEntity
  8
P-0000
  6
Continuous
 62
     7
100
AcDbLine
 10
2447.901874479893
 20
1120.534937470241
 30
0.0
 11
2451.339129489525
 21
1118.550437365158
 31
0.0
1001
ACME_LAYERS
1000
1
  0
LINE
  5
975
330
1F
100
AcDbEntity
  8
P-0000
  6
Continuous
 62
     7
100
AcDbLine
 10
2452.617332719801
 20
1118.282488172726
 30
0.0
 11
2472.560842761759
 21
1118.282488172726
 31
0.0
1001
ACME_LAYERS
1000
1
  0
LINE
  5
976
330
1F
100
AcDbEntity
  8
P-0000
  6
Continuous
 62
     7
100
AcDbLine
 10
2452.617332719801
 20
1118.282488172726
 30
0.0
 11
2452.339129489525
 21
1118.282488172726
 31
0.0
1001
ACME_LAYERS
1000
1
  0
LINE
  5
978
330
1F
100
AcDbEntity
  8
P-0000
  6
Continuous
 62
     7
100
AcDbLine
 10
2472.49557769882
 20
1131.488408077669
 30
0.0
 11
2472.49557769882
 21
1127.488408077669
 31
0.0
1001
ACME_LAYERS
1000
1
  0
LINE
  5
981
330
1F
100
AcDbEntity
  8
P-0000
  6
Continuous
 62
     7
100
AcDbLine
 10
2495.310842761764
 20
1116.282488172723
 30
0.0
 11
2508.810842761767
 21
1116.282488172723
 31
0.0
1001
ACME_LAYERS
1000
1
  0
LINE
  5
982
330
1F
100
AcDbEntity
  8
P-0000
  6
Continuous
 62
     7
100
AcDbLine
 10
2480.517332719801
 20
1118.282488172726
 30
0.0
 11
2499.953231104663
 21
1118.282488172726
 31
0.0
1001
ACME_LAYERS
1000
1
  0
LINE
  5
983
330
1F
100
AcDbEntity
  8
P-0000
  6
Continuous
 62
     7
100
AcDbLine
 10
2491.072045821855
 20
1116.282488172726
 30
0.0
 11
2499.953231104663
 21
1116.282488172726
 31
0.0
1001
ACME_LAYERS
1000
1
  0
LINE
  5
984
330
1F
100
AcDbEntity
  8
P-0000
  6
Continuous
 62
     7
100
AcDbLine
 10
2480.49557769882
 20
1131.488408077669
 30
0.0
 11
2480.49557769882
 21
1127.488408077669
 31
0.0
1001
ACME_LAYERS
1000
1
  0
LINE
  5
985
330
1F
100
AcDbEntity
  8
P-0000
  6
Continuous
 62
     7
100
AcDbLine
 10
2490.310842761779
 20
1116.282488172723
 30
0.0
 11
2491.072045821855
 21
1116.282488172726
 31
0.0
1001
ACME_LAYERS
1000
1
  0
LINE
  5
986
330
1F
100
AcDbEntity
  8
P-0000
  6
Continuous
 62
     7
100
AcDbLine
 10
2501.953231104663
 20
1116.818386557588
 30
0.0
 11
2507.489129489526
 21
1120.014538980296
 31
0.0
1001
ACME_LAYERS
1000
1
  0
LINE
  5
987
330
1F
100
AcDbEntity
  8
P-0000
  6
Continuous
 62
     7
100
AcDbLine
 10
2508.489129489526
 20
1120.282488172726
 30
0.0
 11
2510.373051292283
 21
1120.282488172726
 31
0.0
1001
ACME_LAYERS
1000
1
  0
LINE
  5
988
330
1F
100
AcDbEntity
  8
P-0000
  6
Continuous
 62
     7
100
AcDbLine
 10
2500.953231104662
 20
1118.550437365156
 30
0.0
 11
2506.489129489526
 21
1121.746589787864
 31
0.0
1001
ACME_LAYERS
1000
1
  0
ARC
  5
989
330
1F
100
AcDbEntity
  8
P-0000
  6
Continuous
 62
     7
100
AcDbCircle
 10
2499.953231104663
 20
1120.282488172726
 30
0.0
 40
2.0
100
AcDbArc
 50
270.0
 51
300.0000000000034
1001
ACME_LAYERS
1000
1
  0
ARC
  5
98A
330
1F
100
AcDbEntity
  8
P-0000
  6
Continuous
 62
     7
100
AcDbCircle
 10
2508.489129489526
 20
1118.282488172726
 30
0.0
 40
4.0
100
AcDbArc
 50
90.0
 51
120.0000000000009
1001
ACME_LAYERS
1000
1
  0
ARC
  5
98B
330
1F
100
AcDbEntity
  8
P-0000
  6
Continuous
 62
     7
100
AcDbCircle
 10
2508.489129489526
 20
1118.282488172726
 30
0.0
 40
2.0
100
AcDbArc
 50
90.0
 51
119.999999999971
1001
ACME_LAYERS
1000
1
  0
ARC
  5
98C
330
1F
100
AcDbEntity
  8
P-0000
  6
Continuous
 62
     7
100
AcDbCircle
 10
2499.953231104663
 20
1120.282488172726
 30
0.0
 40
4.0
100
AcDbArc
 50
270.0
 51
300.0000000000008
1001
ACME_LAYERS
1000
1
  0
LINE
  5
98D
330
1F
100
AcDbEntity
  8
P-0000
  6
Continuous
 62
     7
100
AcDbLine
 10
2553.440524575302
 20
1122.282488172726
 30
0.0
 11
2592.810842761767
 21
1122.282488172726
 31
0.0
1001
ACME_LAYERS
1000
1
  0
LINE
  5
98E
330
1F
100
AcDbEntity
  8
P-0000
  6
Continuous
 62
     7
100
AcDbLine
 10
2545.810842761766
 20
1122.282488172726
 30
0.0
 11
2592.810842761767
 21
1122.282488172726
 31
0.0
1001
ACME_LAYERS
1000
1
  0
LINE
  5
98F
330
1F
100
AcDbEntity
  8
P-0000
  6
Continuous
 62
     7
100
AcDbLine
 10
2528.810842761767
 20
1116.282488172741
 30
0.0
 11
2545.810842761766
 21
1116.282488172741
 31
0.0
1001
ACME_LAYERS
1000
1
  0
LINE
  5
990
330
1F
100
AcDbEntity
  8
P-0000
  6
Continuous
 62
     7
100
AcDbLine
 10
2526.306571445447
 20
1122.502020246857
 30
0.0
 11
2526.310842761759
 21
1122.485856494265
 31
0.0
1001
ACME_LAYERS
1000
1
  0
LINE
  5
991
330
1F
100
AcDbEntity
  8
P-0000
  6
Continuous
 62
     7
100
AcDbLine
 10
2548.810842761767
 20
1116.282488172743
 30
0.0
 11
2548.810842761767
 21
1117.282488172726
 31
0.0
1001
ACME_LAYERS
1000
1
  0
ARC
  5
992
330
1F
100
AcDbEntity
  8
P-0000
  6
Continuous
 62
     7
100
AcDbCircle
 10
2545.810842761766
 20
1117.282488172726
 30
0.0
 40
3.0
100
AcDbArc
 50
0.0
 51
90.0
1001
ACME_LAYERS
1000
1
  0
LINE
  5
993
330
1F
100
AcDbEntity
  8
P-0000
  6
Continuous
 62
     7
100
AcDbLine
 10
2545.810842761766
 20
1116.282488172741
 30
0.0
 11
2548.810842761767
 21
1116.282488172743
 31
0.0
1001
ACME_LAYERS
1000
1
  0
LINE
  5
994
330
1F
100
AcDbEntity
  8
P-0000
  6
STRICHPUNKT
 62
     3
100
AcDbLine
 10
2592.810842761766
 20
1094.42436540378
 30
0.0
 11
2592.810842761766
 21
1093.968552044946
 31
0.0
1001
ACME_LAYERS
1000
1
  0
LINE
  5
995
330
1F
100
AcDbEntity
  8
P-0000
  6
Continuous
 62
     7
100
AcDbLine
 10
2556.310842761764
 20
971.2824881727268
 30
0.0
 11
2556.310842761766
 21
866.2824881727257
 31
0.0
1001
ACME_LAYERS
1000
1
  0
LINE
  5
996
330
1F
100
AcDbEntity
  8
P-0000
  6
Continuous
 62
     7
100
AcDbLine
 10
2556.310842761766
 20
978.2824881727259
 30
0.0
 11
2556.310842761764
 21
971.2824881727268
 31
0.0
1001
ACME_LAYERS
1000
1
  0
LINE
  5
997
102
{ACAD_REACTORS
330
2C0A
102
}
330
1F
100
AcDbEntity
  8
P-0000
  6
Continuous
 62
     7
100
AcDbLine
 10
2627.971096799611
 20
746.2824881727257
 30
0.0
 11
2557.650588723922
 21
746.2824881727257
 31
0.0
1001
ACME_LAYERS
1000
1
  0
LINE
  5
998
330
1F
100
AcDbEntity
  8
P-0000
  6
Continuous
 62
     3
100
AcDbLine
 10
2626.669278300296
 20
751.2824881727257
 30
0.0
 11
2558.669278300297
 21
751.2824881727257
 31
0.0
1001
ACME_LAYERS
1000
1
  0
LINE
  5
999
330
1F
100
AcDbEntity
  8
P-0000
  6
Continuous
 62
     7
100
AcDbLine
 10
2556.310842761766
 20
751.2824881727257
 30
0.0
 11
2557.650588723922
 21
746.2824881727257
 31
0.0
1001
ACME_LAYERS
1000
1
  0
LINE
  5
99A
330
1F
100
AcDbEntity
  8
P-0000
  6
Continuous
 62
     7
100
AcDbLine
 10
2629.310842761766
 20
751.2824881727257
 30
0.0
 11
2627.971096799611
 21
746.2824881727257
 31
0.0
1001
ACME_LAYERS
1000
1
  0
LINE
  5
99E
330
1F
100
AcDbEntity
  8
P-0000
  6
Continuous
 62
     7
100
AcDbLine
 10
2480.55211414291
 20
1133.488408077672
 30
0.0
 11
2480.55211414291
 21
1127.488408077669
 31
0.0
1001
ACME_LAYERS
1000
1
  0
LINE
  5
9A0
330
1F
100
AcDbEntity
  8
P-0000
  6
Continuous
 62
     7
100
AcDbLine
 10
2459.05211414292
 20
1132.98840807767
 30
0.0
 11
2472.55211414291
 21
1132.98840807767
 31
0.0
1001
ACME_LAYERS
1000
1
  0
LINE
  5
9A1
330
1F
100
AcDbEntity
  8
P-0000
  6
Continuous
 62
     7
100
AcDbLine
 10
2464.880541267655
 20
1131.488408077669
 30
0.0
 11
2467.318143980883
 21
1131.488408077669
 31
0.0
1001
ACME_LAYERS
1000
1
  0
LINE
  5
9A2
330
1F
100
AcDbEntity
  8
P-0000
  6
Continuous
 62
     7
100
AcDbLine
 10
2592.802114142903
 20
1132.98840807767
 30
0.0
 11
2505.55211414291
 21
1132.98840807767
 31
0.0
1001
ACME_LAYERS
1000
1
  0
LINE
  5
9A3
330
1F
100
AcDbEntity
  8
P-0000
  6
Continuous
 62
     7
100
AcDbLine
 10
2464.880541267655
 20
1131.488408077669
 30
0.0
 11
2467.318143980883
 21
1131.488408077669
 31
0.0
1001
ACME_LAYERS
1000
1
  0
LINE
  5
9A4
330
1F
100
AcDbEntity
  8
P-0000
  6
Continuous
 62
     7
100
AcDbLine
 10
2467.318143980883
 20
1131.488408077669
 30
0.0
 11
2468.728472509743
 21
1131.488408077669
 31
0.0
1001
ACME_LAYERS
1000
1
  0
LINE
  5
9A5
330
1F
100
AcDbEntity
  8
P-0000
  6
Continuous
 62
     7
100
AcDbLine
 10
2467.318143980883
 20
1131.488408077669
 30
0.0
 11
2468.728472509743
 21
1131.488408077669
 31
0.0
1001
ACME_LAYERS
1000
1
  0
LINE
  5
9A6
330
1F
100
AcDbEntity
  8
P-0000
  6
Continuous
 62
     7
100
AcDbLine
 10
2592.802114142908
 20
1131.256357270102
 30
0.0
 11
2506.552114142911
 21
1131.256357270102
 31
0.0
1001
ACME_LAYERS
1000
1
  0
LINE
  5
9A7
330
1F
100
AcDbEntity
  8
P-0000
  6
Continuous
 62
     7
100
AcDbLine
 10
2505.55211414291
 20
1132.98840807767
 30
0.0
 11
2499.954037931559
 21
1129.756357270102
 31
0.0
1001
ACME_LAYERS
1000
1
  0
LINE
  5
9A8
330
1F
100
AcDbEntity
  8
P-0000
  6
Continuous
 62
     7
100
AcDbLine
 10
2480.55211414291
 20
1132.98840807767
 30
0.0
 11
2505.55211414291
 21
1132.98840807767
 31
0.0
1001
ACME_LAYERS
1000
1
  0
LINE
  5
9A9
330
1F
100
AcDbEntity
  8
P-0000
  6
Continuous
 62
     7
100
AcDbLine
 10
2506.552114142911
 20
1131.256357270102
 30
0.0
 11
2505.55211414291
 21
1132.98840807767
 31
0.0
1001
ACME_LAYERS
1000
1
  0
LINE
  5
9AA
330
1F
100
AcDbEntity
  8
P-0000
  6
Continuous
 62
     7
100
AcDbLine
 10
2505.55211414291
 20
1132.98840807767
 30
0.0
 11
2505.48014798041
 21
1132.98840807767
 31
0.0
1001
ACME_LAYERS
1000
1
  0
LINE
  5
9AB
330
1F
100
AcDbEntity
  8
P-0000
  6
Continuous
 62
     7
100
AcDbLine
 10
2468.728472509743
 20
1131.488408077669
 30
0.0
 11
2471.552114142911
 21
1131.488408077669
 31
0.0
1001
ACME_LAYERS
1000
1
  0
LINE
  5
9AD
330
1F
100
AcDbEntity
  8
P-0000
  6
Continuous
 62
     3
100
AcDbLine
 10
2453.614291969403
 20
1129.48840807767
 30
0.0
 11
2454.150190354265
 21
1129.48840807767
 31
0.0
1001
ACME_LAYERS
1000
1
  0
LINE
  5
9AE
330
1F
100
AcDbEntity
  8
P-0000
  6
Continuous
 62
     3
100
AcDbLine
 10
2453.150190354266
 20
1129.756357270102
 30
0.0
 11
2453.614291969403
 21
1129.48840807767
 31
0.0
1001
ACME_LAYERS
1000
1
  0
LINE
  5
9AF
330
1F
100
AcDbEntity
  8
P-0000
  6
Continuous
 62
     7
100
AcDbLine
 10
2491.05211414291
 20
1130.316835202417
 30
0.0
 11
2491.294754830031
 21
1130.074194515297
 31
0.0
1001
ACME_LAYERS
1000
1
  0
LINE
  5
9B0
330
1F
100
AcDbEntity
  8
P-0000
  6
Continuous
 62
     7
100
AcDbLine
 10
2462.052114142911
 20
1130.316835202417
 30
0.0
 11
2461.809473455792
 21
1130.074194515297
 31
0.0
1001
ACME_LAYERS
1000
1
  0
LINE
  5
9B1
330
1F
100
AcDbEntity
  8
P-0000
  6
Continuous
 62
     7
100
AcDbLine
 10
2471.552114142911
 20
1131.488408077669
 30
0.0
 11
2471.552114142911
 21
1129.48840807767
 31
0.0
1001
ACME_LAYERS
1000
1
  0
LINE
  5
9B2
330
1F
100
AcDbEntity
  8
P-0000
  6
Continuous
 62
     7
100
AcDbLine
 10
2481.552114142911
 20
1131.488408077669
 30
0.0
 11
2481.552114142911
 21
1129.48840807767
 31
0.0
1001
ACME_LAYERS
1000
1
  0
LINE
  5
9B3
330
1F
100
AcDbEntity
  8
P-0000
  6
Continuous
 62
     7
100
AcDbLine
 10
2446.552114142912
 20
1131.256357270102
 30
0.0
 11
2447.552114142911
 21
1132.98840807767
 31
0.0
1001
ACME_LAYERS
1000
1
  0
LINE
  5
9B4
330
1F
100
AcDbEntity
  8
P-0000
  6
Continuous
 62
     7
100
AcDbLine
 10
2446.552114142912
 20
1131.256357270102
 30
0.0
 11
2452.150190354265
 21
1128.024306462532
 31
0.0
1001
ACME_LAYERS
1000
1
  0
LINE
  5
9B5
330
1F
100
AcDbEntity
  8
P-0000
  6
Continuous
 62
     7
100
AcDbLine
 10
2447.552114142911
 20
1132.98840807767
 30
0.0
 11
2453.150190354266
 21
1129.756357270102
 31
0.0
1001
ACME_LAYERS
1000
1
  0
LINE
  5
9B6
330
1F
100
AcDbEntity
  8
P-0000
  6
Continuous
 62
     7
100
AcDbLine
 10
2463.466327705284
 20
1128.902621640043
 30
0.0
 11
2463.223687018163
 21
1128.659980952925
 31
0.0
1001
ACME_LAYERS
1000
1
  0
LINE
  5
9B7
330
1F
100
AcDbEntity
  8
P-0000
  6
Continuous
 62
     7
100
AcDbLine
 10
2489.637900580537
 20
1128.902621640043
 30
0.0
 11
2489.880541267657
 21
1128.659980952925
 31
0.0
1001
ACME_LAYERS
1000
1
  0
LINE
  5
9B8
330
1F
100
AcDbEntity
  8
P-0000
  6
Continuous
 62
     7
100
AcDbLine
 10
2506.552114142911
 20
1131.256357270102
 30
0.0
 11
2500.954037931558
 21
1128.024306462532
 31
0.0
1001
ACME_LAYERS
1000
1
  0
LINE
  5
9B9
330
1F
100
AcDbEntity
  8
P-0000
  6
Continuous
 62
     7
100
AcDbLine
 10
2498.954037931558
 20
1127.488408077669
 30
0.0
 11
2592.802114142908
 21
1127.488408077669
 31
0.0
1001
ACME_LAYERS
1000
1
  0
LINE
  5
9BA
330
1F
100
AcDbEntity
  8
P-0000
  6
Continuous
 62
     7
100
AcDbLine
 10
2498.954037931558
 20
1129.48840807767
 30
0.0
 11
2492.708968392404
 21
1129.48840807767
 31
0.0
1001
ACME_LAYERS
1000
1
  0
LINE
  5
9BB
330
1F
100
AcDbEntity
  8
P-0000
  6
Continuous
 62
     7
100
AcDbLine
 10
2498.954037931558
 20
1127.488408077669
 30
0.0
 11
2492.708968392404
 21
1127.488408077669
 31
0.0
1001
ACME_LAYERS
1000
1
  0
LINE
  5
9BC
330
1F
100
AcDbEntity
  8
P-0000
  6
Continuous
 62
     7
100
AcDbLine
 10
2454.150190354265
 20
1127.488408077669
 30
0.0
 11
2460.395259893417
 21
1127.488408077669
 31
0.0
1001
ACME_LAYERS
1000
1
  0
LINE
  5
9BD
330
1F
100
AcDbEntity
  8
P-0000
  6
Continuous
 62
     7
100
AcDbLine
 10
2471.552114142911
 20
1131.488408077669
 30
0.0
 11
2472.55211414291
 21
1131.488408077669
 31
0.0
1001
ACME_LAYERS
1000
1
  0
LINE
  5
9BE
330
1F
100
AcDbEntity
  8
P-0000
  6
Continuous
 62
     7
100
AcDbLine
 10
2468.728472509743
 20
1131.488408077669
 30
0.0
 11
2471.552114142911
 21
1131.488408077669
 31
0.0
1001
ACME_LAYERS
1000
1
  0
LINE
  5
9BF
330
1F
100
AcDbEntity
  8
P-0000
  6
Continuous
 62
     7
100
AcDbLine
 10
2481.552114142911
 20
1131.488408077669
 30
0.0
 11
2488.223687018165
 21
1131.488408077669
 31
0.0
1001
ACME_LAYERS
1000
1
  0
LINE
  5
9C0
330
1F
100
AcDbEntity
  8
P-0000
  6
Continuous
 62
     7
100
AcDbLine
 10
2480.55211414291
 20
1129.48840807767
 30
0.0
 11
2488.223687018165
 21
1129.48840807767
 31
0.0
1001
ACME_LAYERS
1000
1
  0
LINE
  5
9C1
330
1F
100
AcDbEntity
  8
P-0000
  6
Continuous
 62
     7
100
AcDbLine
 10
2464.880541267657
 20
1129.48840807767
 30
0.0
 11
2472.49557769882
 21
1129.48840807767
 31
0.0
1001
ACME_LAYERS
1000
1
  0
LINE
  5
9C2
330
1F
100
AcDbEntity
  8
P-0000
  6
Continuous
 62
     7
100
AcDbLine
 10
2480.55211414291
 20
1131.488408077669
 30
0.0
 11
2481.552114142911
 21
1131.488408077669
 31
0.0
1001
ACME_LAYERS
1000
1
  0
LINE
  5
9C3
330
1F
100
AcDbEntity
  8
P-0000
  6
Continuous
 62
     7
100
AcDbLine
 10
2454.150190354265
 20
1129.48840807767
 30
0.0
 11
2460.395259893417
 21
1129.48840807767
 31
0.0
1001
ACME_LAYERS
1000
1
  0
LINE
  5
9C4
330
1F
100
AcDbEntity
  8
P-0000
  6
Continuous
 62
     7
100
AcDbLine
 10
2486.55211414291
 20
1131.488408077669
 30
0.0
 11
2481.552114142911
 21
1131.488408077669
 31
0.0
1001
ACME_LAYERS
1000
1
  0
LINE
  5
9C5
330
1F
100
AcDbEntity
  8
P-0000
  6
Continuous
 62
     7
100
AcDbLine
 10
2481.552114142911
 20
1131.488408077669
 30
0.0
 11
2480.55211414291
 21
1131.488408077669
 31
0.0
1001
ACME_LAYERS
1000
1
  0
LINE
  5
9C6
330
1F
100
AcDbEntity
  8
P-0000
  6
Continuous
 62
     7
100
AcDbLine
 10
2447.552114142911
 20
1132.98840807767
 30
0.0
 11
2459.05211414292
 21
1132.98840807767
 31
0.0
1001
ACME_LAYERS
1000
1
  0
LINE
  5
9C7
330
1F
100
AcDbEntity
  8
P-0000
  6
Continuous
 62
     7
100
AcDbLine
 10
2468.10641602949
 20
1131.488408077669
 30
0.0
 11
2472.55211414291
 21
1131.488408077669
 31
0.0
1001
ACME_LAYERS
1000
1
  0
LINE
  5
9C8
330
1F
100
AcDbEntity
  8
P-0000
  6
Continuous
 62
     7
100
AcDbLine
 10
2480.55211414291
 20
1131.488408077669
 30
0.0
 11
2481.552114142911
 21
1131.488408077669
 31
0.0
1001
ACME_LAYERS
1000
1
  0
LINE
  5
9DC
330
1F
100
AcDbEntity
  8
P-0000
  6
Continuous
 62
     7
100
AcDbLine
 10
2592.810842761767
 20
1132.98840807767
 30
0.0
 11
2592.802114142932
 21
1132.98840807767
 31
0.0
1001
ACME_LAYERS
1000
1
  0
LINE
  5
9DD
330
1F
100
AcDbEntity
  8
P-0000
  6
Continuous
 62
     7
100
AcDbLine
 10
2592.810842761767
 20
1131.256357270102
 30
0.0
 11
2592.802114142908
 21
1131.256357270102
 31
0.0
1001
ACME_LAYERS
1000
1
  0
LINE
  5
9DE
330
1F
100
AcDbEntity
  8
P-0000
  6
Continuous
 62
     7
100
AcDbLine
 10
2592.810842761767
 20
1127.488408077669
 30
0.0
 11
2592.802114142908
 21
1127.488408077669
 31
0.0
1001
ACME_LAYERS
1000
1
  0
LINE
  5
9DF
330
1F
100
AcDbEntity
  8
P-0000
  6
Continuous
 62
     7
100
AcDbLine
 10
2471.052114142912
 20
1131.488408077672
 30
0.0
 11
2466.052114142912
 21
1131.488408077672
 31
0.0
1001
ACME_LAYERS
1000
1
  0
LINE
  5
9E1
330
1F
100
AcDbEntity
  8
P-0000
  6
Continuous
 62
     7
100
AcDbLine
 10
2481.552114142911
 20
1131.488408077669
 30
0.0
 11
2485.10641602949
 21
1131.488408077669
 31
0.0
1001
ACME_LAYERS
1000
1
  0
LINE
  5
9E2
330
1F
100
AcDbEntity
  8
P-0000
  6
Continuous
 62
     7
100
AcDbLine
 10
2481.552114142911
 20
1131.488408077669
 30
0.0
 11
2481.052114142912
 21
1131.488408077672
 31
0.0
1001
ACME_LAYERS
1000
1
  0
LINE
  5
9E4
330
1F
100
AcDbEntity
  8
P-0000
  6
Continuous
 62
     7
100
AcDbLine
 10
2472.55211414291
 20
1131.488408077669
 30
0.0
 11
2471.552114142911
 21
1131.488408077669
 31
0.0
1001
ACME_LAYERS
1000
1
  0
LINE
  5
9E5
330
1F
100
AcDbEntity
  8
P-0000
  6
Continuous
 62
     7
100
AcDbLine
 10
2480.55211414291
 20
1133.488408077672
 30
0.0
 11
2481.052114142912
 21
1133.488408077672
 31
0.0
1001
ACME_LAYERS
1000
1
  0
LINE
  5
9E6
330
1F
100
AcDbEntity
  8
P-0000
  6
Continuous
 62
     7
100
AcDbLine
 10
2479.752114142911
 20
1133.488408077672
 30
0.0
 11
2480.55211414291
 21
1133.488408077672
 31
0.0
1001
ACME_LAYERS
1000
1
  0
LINE
  5
9E9
330
1F
100
AcDbEntity
  8
P-0000
  6
Continuous
 62
     7
100
AcDbLine
 10
2488.223687018165
 20
1131.488408077669
 30
0.0
 11
2481.552114142911
 21
1131.488408077669
 31
0.0
1001
ACME_LAYERS
1000
1
  0
ARC
  5
9EA
330
1F
100
AcDbEntity
  8
P-0000
  6
Continuous
 62
     7
100
AcDbCircle
 10
2460.395259893417
 20
1131.488408077669
 30
0.0
 40
4.0
100
AcDbArc
 50
270.0
 51
315.0000000000135
1001
ACME_LAYERS
1000
1
  0
ARC
  5
9EB
330
1F
100
AcDbEntity
  8
P-0000
  6
Continuous
 62
     7
100
AcDbCircle
 10
2488.223687018165
 20
1127.488408077669
 30
0.0
 40
4.000000000000613
100
AcDbArc
 50
44.99999999999568
 51
90.0
1001
ACME_LAYERS
1000
1
  0
ARC
  5
9EC
330
1F
100
AcDbEntity
  8
P-0000
  6
Continuous
 62
     7
100
AcDbCircle
 10
2492.708968392404
 20
1131.488408077669
 30
0.0
 40
3.999999999999423
100
AcDbArc
 50
224.9999999999864
 51
270.0
1001
ACME_LAYERS
1000
1
  0
ARC
  5
9ED
330
1F
100
AcDbEntity
  8
P-0000
  6
Continuous
 62
     7
100
AcDbCircle
 10
2498.954037931558
 20
1131.488408077669
 30
0.0
 40
4.0
100
AcDbArc
 50
270.0
 51
300.0000000000008
1001
ACME_LAYERS
1000
1
  0
ARC
  5
9F8
330
1F
100
AcDbEntity
  8
P-0000
  6
Continuous
 62
     7
100
AcDbCircle
 10
2498.954037931558
 20
1131.488408077669
 30
0.0
 40
2.0
100
AcDbArc
 50
270.0
 51
300.0000000000268
1001
ACME_LAYERS
1000
1
  0
ARC
  5
9F9
330
1F
100
AcDbEntity
  8
P-0000
  6
Continuous
 62
     7
100
AcDbCircle
 10
2492.708968392404
 20
1131.488408077669
 30
0.0
 40
2.000000000000397
100
AcDbArc
 50
224.9999999999957
 51
270.0
1001
ACME_LAYERS
1000
1
  0
ARC
  5
9FA
330
1F
100
AcDbEntity
  8
P-0000
  6
Continuous
 62
     7
100
AcDbCircle
 10
2488.223687018165
 20
1127.488408077669
 30
0.0
 40
2.000000000000311
100
AcDbArc
 50
44.99999999999568
 51
90.0
1001
ACME_LAYERS
1000
1
  0
ARC
  5
9FB
330
1F
100
AcDbEntity
  8
P-0000
  6
Continuous
 62
     7
100
AcDbCircle
 10
2464.880541267657
 20
1127.488408077669
 30
0.0
 40
2.0
100
AcDbArc
 50
90.0
 51
135.0000000000043
1001
ACME_LAYERS
1000
1
  0
ARC
  5
9FC
330
1F
100
AcDbEntity
  8
P-0000
  6
Continuous
 62
     7
100
AcDbCircle
 10
2460.395259893417
 20
1131.488408077669
 30
0.0
 40
2.0
100
AcDbArc
 50
270.0
 51
315.0000000000181
1001
ACME_LAYERS
1000
1
  0
ARC
  5
9FD
330
1F
100
AcDbEntity
  8
P-0000
  6
Continuous
 62
     7
100
AcDbCircle
 10
2454.150190354265
 20
1131.488408077669
 30
0.0
 40
1.999999999999425
100
AcDbArc
 50
239.9999999999732
 51
270.0
1001
ACME_LAYERS
1000
1
  0
ARC
  5
9FE
330
1F
100
AcDbEntity
  8
P-0000
  6
Continuous
 62
     7
100
AcDbCircle
 10
2454.150190354265
 20
1131.488408077669
 30
0.0
 40
4.000000000000401
100
AcDbArc
 50
239.9999999999991
 51
270.0
1001
ACME_LAYERS
1000
1
  0
ARC
  5
9FF
330
1F
100
AcDbEntity
  8
P-0000
  6
Continuous
 62
     7
100
AcDbCircle
 10
2464.880541267657
 20
1127.488408077669
 30
0.0
 40
4.0
100
AcDbArc
 50
90.00000000002605
 51
135.0000000000043
1001
ACME_LAYERS
1000
1
  0
HATCH
  5
A00
330
1F
100
AcDbEntity
  8
P-0000
  6
Continuous
 62
     3
100
AcDbHatch
 10
0.0
 20
0.0
 30
0.0
210
0.0
220
0.0
230
1.0
  2
_U
 70
     0
 71
     0
 91
        1
 92
        1
 93
       19
 72
     1
 10
2505.55211414291
 20
1132.98840807767
 11
2499.954037931559
 21
1129.756357270102
 72
     1
 10
2499.954037931559
 20
1129.756357270102
 11
2499.48993631642
 21
1129.48840807767
 72
     1
 10
2499.48993631642
 20
1129.48840807767
 11
2498.954037931558
 21
1129.48840807767
 72
     1
 10
2498.954037931558
 20
1129.48840807767
 11
2492.708968392404
 21
1129.48840807767
 72
     1
 10
2492.708968392404
 20
1129.48840807767
 11
2491.880541267657
 21
1129.48840807767
 72
     1
 10
2491.880541267657
 20
1129.48840807767
 11
2491.294754830031
 21
1130.074194515296
 72
     1
 10
2491.294754830031
 20
1130.074194515297
 11
2491.05211414291
 21
1130.316835202417
 72
     2
 10
2488.223687018165
 20
1127.488408077669
 40
4.000000000000613
 50
44.99999999999911
 51
89.99999999999998
 73
     1
 72
     1
 10
2488.223687018165
 20
1131.488408077669
 11
2481.552114142911
 21
1131.488408077669
 72
     1
 10
2481.552114142911
 20
1131.488408077669
 11
2481.552114142911
 21
1129.48840807767
 72
     1
 10
2481.552114142911
 20
1129.48840807767
 11
2488.223687018165
 21
1129.48840807767
 72
     1
 10
2488.223687018165
 20
1129.48840807767
 11
2489.052114142911
 21
1129.48840807767
 72
     1
 10
2489.052114142911
 20
1129.48840807767
 11
2489.637900580537
 21
1128.902621640043
 72
     1
 10
2489.637900580537
 20
1128.902621640043
 11
2489.880541267657
 21
1128.659980952925
 72
     2
 10
2492.708968392404
 20
1131.488408077669
 40
3.999999999999423
 50
224.9999999999822
 51
270.0
 73
     1
 72
     1
 10
2492.708968392404
 20
1127.488408077669
 11
2498.954037931558
 21
1127.488408077669
 72
     2
 10
2498.954037931558
 20
1131.488408077669
 40
4.0
 50
270.0
 51
299.9999999999967
 73
     1
 72
     1
 10
2500.954037931558
 20
1128.024306462532
 11
2506.552114142911
 21
1131.256357270102
 72
     1
 10
2506.552114142911
 20
1131.256357270102
 11
2505.55211414291
 21
1132.98840807767
 97
        0
 75
     0
 76
     0
 52
44.99999999999999
 41
3.0
 77
     0
 78
     1
 53
45.0
 43
0.0
 44
0.0
 45
-2.121320343559641
 46
2.121320343559641
 79
     0
 98
        1
 10
2533.518986128016
 20
1268.114373572045
1001
ACME_LAYERS
1000
1
1001
ACAD
1010
0.0
1020
0.0
1030
0.0
  0
HATCH
  5
A01
330
1F
100
AcDbEntity
  8
P-0000
  6
Continuous
 62
     3
100
AcDbHatch
 10
0.0
 20
0.0
 30
0.0
210
0.0
220
0.0
230
1.0
  2
_U
 70
     0
 71
     0
 91
        1
 92
        1
 93
       19
 72
     2
 10
2460.395259893417
 20
1131.488408077669
 40
2.0
 50
270.0
 51
315.0000000000351
 73
     1
 72
     1
 10
2461.809473455792
 20
1130.074194515297
 11
2462.052114142911
 21
1130.316835202417
 72
     2
 10
2464.880541267657
 20
1127.488408077669
 40
4.0
 50
224.9999999999992
 51
269.9999999999739
 73
     0
 72
     1
 10
2464.880541267655
 20
1131.488408077669
 11
2467.318143980883
 21
1131.488408077669
 72
     1
 10
2467.318143980883
 20
1131.488408077669
 11
2468.728472509743
 21
1131.488408077669
 72
     1
 10
2468.728472509743
 20
1131.488408077669
 11
2471.552114142911
 21
1131.488408077669
 72
     1
 10
2471.552114142911
 20
1131.488408077669
 11
2471.552114142911
 21
1129.48840807767
 72
     1
 10
2471.552114142911
 20
1129.48840807767
 11
2464.880541267657
 21
1129.48840807767
 72
     1
 10
2464.880541267657
 20
1129.48840807767
 11
2464.052114142911
 21
1129.48840807767
 72
     1
 10
2464.052114142911
 20
1129.48840807767
 11
2463.466327705284
 21
1128.902621640043
 72
     1
 10
2463.466327705284
 20
1128.902621640043
 11
2463.223687018163
 21
1128.659980952925
 72
     2
 10
2460.395259893417
 20
1131.488408077669
 40
4.0
 50
44.99999999998212
 51
90.00000000000001
 73
     0
 72
     1
 10
2460.395259893417
 20
1127.488408077669
 11
2454.150190354265
 21
1127.488408077669
 72
     2
 10
2454.150190354265
 20
1131.488408077669
 40
4.000000000000401
 50
90.00000000000001
 51
119.9999999999967
 73
     0
 72
     1
 10
2452.150190354265
 20
1128.024306462532
 11
2446.552114142912
 21
1131.256357270102
 72
     1
 10
2446.552114142912
 20
1131.256357270102
 11
2447.552114142911
 21
1132.98840807767
 72
     1
 10
2447.552114142911
 20
1132.98840807767
 11
2453.150190354266
 21
1129.756357270102
 72
     2
 10
2454.150190354265
 20
1131.488408077669
 40
1.999999999999425
 50
239.9999999999905
 51
270.0
 73
     1
 72
     1
 10
2454.150190354265
 20
1129.48840807767
 11
2460.395259893417
 21
1129.48840807767
 97
        0
 75
     0
 76
     0
 52
44.99999999999999
 41
5.0
 77
     0
 78
     1
 53
45.0
 43
2533.518986128016
 44
1268.114373572045
 45
-3.535533905932736
 46
3.535533905932738
 79
     0
 98
        1
 10
2533.518986128016
 20
1268.114373572045
1001
ACME_LAYERS
1000
1
  0
LINE
  5
A02
330
1F
100
AcDbEntity
  8
0
100
AcDbLine
 10
2472.55211414291
 20
1127.488408077669
 30
0.0
 11
2472.55211414291
 21
1133.488408077672
 31
0.0
  0
LINE
  5
A29
330
1F
100
AcDbEntity
  8
P-0000
  6
STRICHPUNKT
 62
     3
100
AcDbLine
 10
2709.069571380624
 20
1130.461296592917
 30
0.0
 11
2709.069571380624
 21
1137.461296592917
 31
0.0
1001
ACME_LAYERS
1000
1
  0
LINE
  5
A2D
330
1F
100
AcDbEntity
  8
P-0000
  6
Continuous
 62
     7
100
AcDbLine
 10
2714.069571380624
 20
1135.488408077672
 30
0.0
 11
2704.069571380624
 21
1135.488408077672
 31
0.0
1001
ACME_LAYERS
1000
1
  0
LINE
  5
B34
330
1F
100
AcDbEntity
  8
P-0000
  6
Continuous
 62
     7
100
AcDbLine
 10
2498.919256508454
 20
1127.488408077669
 30
0.0
 11
2492.6741869693
 21
1127.488408077669
 31
0.0
1001
ACME_LAYERS
1000
1
  0
LINE
  5
B35
330
1F
100
AcDbEntity
  8
P-0000
  6
Continuous
 62
     7
100
AcDbLine
 10
2454.150190354265
 20
1127.488408077669
 30
0.0
 11
2460.395259893419
 21
1127.488408077669
 31
0.0
1001
ACME_LAYERS
1000
1
  0
LINE
  5
B36
330
1F
100
AcDbEntity
  8
P-0000
  6
Continuous
 62
     7
100
AcDbLine
 10
2498.95403793156
 20
1127.488408077669
 30
0.0
 11
2492.708968392406
 21
1127.488408077669
 31
0.0
1001
ACME_LAYERS
1000
1
  0
LINE
  5
B3E
330
1F
100
AcDbEntity
  8
0
100
AcDbLine
 10
2472.49557769882
 20
1131.488408077669
 30
0.0
 11
2472.49557769882
 21
1118.282488172726
 31
0.0
  0
LINE
  5
B3F
330
1F
100
AcDbEntity
  8
0
100
AcDbLine
 10
2480.49557769882
 20
1131.488408077669
 30
0.0
 11
2480.49557769882
 21
1118.282488172726
 31
0.0
  0
HATCH
  5
B41
330
1F
100
AcDbEntity
  8
P-3FF0
  6
Continuous
 62
     3
100
AcDbHatch
 10
0.0
 20
0.0
 30
0.0
210
0.0
220
0.0
230
1.0
  2
_U
 70
     0
 71
     0
 91
        1
 92
        1
 93
       37
 72
     1
 10
2443.828609714711
 20
1117.717314962584
 11
2442.414396152337
 21
1119.131528524958
 72
     1
 10
2442.414396152337
 20
1119.131528524958
 11
2443.116957397089
 21
1119.834089769709
 72
     2
 10
2445.945384521835
 20
1117.005662644963
 40
4.0
 50
224.9999999999994
 51
270.0
 73
     0
 72
     2
 10
2445.945384521835
 20
1117.005662644963
 40
3.999999999999721
 50
270.0
 51
299.9999999999985
 73
     0
 72
     1
 10
2447.945384521835
 20
1120.4697642601
 11
2451.382639531468
 21
1118.485264155015
 72
     2
 10
2452.382639531468
 20
1120.217314962584
 40
1.999999999999868
 50
239.9999999999979
 51
270.0
 73
     1
 72
     1
 10
2452.382639531468
 20
1118.217314962584
 11
2452.660842761744
 21
1118.217314962584
 72
     1
 10
2452.660842761744
 20
1118.217314962584
 11
2472.560842761744
 21
1118.217314962584
 72
     1
 10
2472.560842761744
 20
1118.217314962584
 11
2473.360842761744
 21
1118.217314962584
 72
     1
 10
2473.360842761744
 20
1118.217314962584
 11
2479.760842761745
 21
1118.217314962584
 72
     1
 10
2479.760842761745
 20
1118.217314962584
 11
2480.560842761744
 21
1118.217314962584
 72
     1
 10
2480.560842761744
 20
1118.217314962584
 11
2499.996741146607
 21
1118.217314962584
 72
     2
 10
2499.996741146607
 20
1120.217314962584
 40
2.0
 50
-90.00000000000001
 51
-59.99999999999786
 73
     1
 72
     1
 10
2500.996741146606
 20
1118.485264155015
 11
2506.44872112129
 21
1121.632966261014
 72
     2
 10
2508.246132941515
 20
1119.231027305018
 40
2.999999999970075
 50
233.1918656392357
 51
275.4802249851991
 73
     0
 72
     1
 10
2508.53263953147
 20
1122.217314962584
 11
2546.280975828524
 21
1122.217314962584
 72
     2
 10
2546.280975828524
 20
1116.217314962584
 40
6.000000000000177
 50
270.0
 51
322.9999999999994
 73
     0
 72
     1
 10
2551.072788888808
 20
1119.828205101496
 11
2556.804020312002
 21
1112.222604119838
 72
     2
 10
2552.810842761767
 20
1109.213529004078
 40
5.0
 50
322.9999999999976
 51
359.9999999999961
 73
     0
 72
     1
 10
2557.810842761766
 20
1109.213529004078
 11
2557.810842761766
 21
1105.217314962584
 72
     1
 10
2557.810842761766
 20
1105.217314962584
 11
2557.214312386941
 21
1105.217314962584
 72
     1
 10
2557.214312386941
 20
1105.217314962584
 11
2555.810842761767
 21
1106.620784587759
 72
     1
 10
2555.810842761767
 20
1106.620784587759
 11
2555.810842761767
 21
1109.213529004078
 72
     2
 10
2552.810842761767
 20
1109.213529004078
 40
3.0
 50
-0.0000000000000127
 51
37.00000000000023
 73
     1
 72
     1
 10
2555.206749291909
 20
1111.018974073534
 11
2551.289518461149
 21
1116.217314962584
 72
     1
 10
2551.289518461149
 20
1116.217314962584
 11
2549.475517868713
 21
1118.624575055192
 72
     2
 10
2546.280975828524
 20
1116.217314962584
 40
4.000000000000238
 50
37.00000000000207
 51
89.99999999999998
 73
     1
 72
     1
 10
2546.280975828524
 20
1120.217314962584
 11
2508.53263953147
 21
1120.217314962584
 72
     2
 10
2508.53263953147
 20
1118.217314962584
 40
2.0
 50
89.99999999999998
 51
119.9999999999928
 73
     1
 72
     1
 10
2507.53263953147
 20
1119.949365770153
 11
2501.996741146605
 21
1116.753213347446
 72
     2
 10
2499.996741146607
 20
1120.217314962584
 40
4.0
 50
420.0000000000091
 51
450.0
 73
     0
 72
     1
 10
2499.996741146607
 20
1116.217314962584
 11
2492.810842761744
 21
1116.217314962584
 72
     1
 10
2492.810842761744
 20
1116.217314962584
 11
2452.382639531468
 21
1116.217314962584
 72
     2
 10
2452.382639531468
 20
1120.217314962584
 40
3.999999999999785
 50
90.0000000000049
 51
120.0000000000017
 73
     0
 72
     1
 10
2450.382639531468
 20
1116.753213347446
 11
2446.945384521835
 21
1118.737713452531
 72
     2
 10
2445.945384521835
 20
1117.005662644963
 40
1.999999999999721
 50
59.99999999999537
 51
135.000000000001
 73
     1
 72
     1
 10
2444.531170959462
 20
1118.419876207336
 11
2443.828609714711
 21
1117.717314962584
 97
        0
 75
     0
 76
     0
 52
44.99999999999999
 41
2.0
 77
     0
 78
     1
 53
45.0
 43
3300.790286703112
 44
720.4333345552639
 45
-1.414213562373094
 46
1.414213562373094
 79
     0
 98
        1
 10
3300.790286703112
 20
720.4333345552639
1001
ACME_LAYERS
1000
1
  0
LINE
  5
B42
330
1F
100
AcDbEntity
  8
P-3FF0
  6
Continuous
 62
     7
100
AcDbLine
 10
2546.280975828524
 20
1120.217314962584
 30
0.0
 11
2508.53263953147
 21
1120.217314962584
 31
0.0
1001
ACME_LAYERS
1000
1
  0
HATCH
  5
B43
330
1F
100
AcDbEntity
  8
P-3FF0
  6
Continuous
 62
     3
100
AcDbHatch
 10
0.0
 20
0.0
 30
0.0
210
0.0
220
0.0
230
1.0
  2
_U
 70
     0
 71
     0
 91
        1
 92
        1
 93
        6
 72
     1
 10
2557.810842761757
 20
1049.219650557008
 11
2556.979339489266
 21
1050.141510091292
 72
     1
 10
2556.979339489266
 20
1050.141510091292
 11
2556.310842761766
 21
1051.217314962584
 72
     1
 10
2556.310842761766
 20
1051.217314962584
 11
2556.310842761766
 21
1103.652459668686
 72
     1
 10
2556.310842761766
 20
1103.652459668686
 11
2557.214312386941
 21
1105.217314962584
 72
     1
 10
2557.214312386941
 20
1105.217314962584
 11
2557.810842761766
 21
1105.217314962584
 72
     1
 10
2557.810842761766
 20
1105.217314962584
 11
2557.810842761766
 21
1049.219650556999
 97
        0
 75
     0
 76
     0
 52
-45.0
 41
2.0
 77
     0
 78
     1
 53
315.0
 43
3300.790286703112
 44
720.4333345552639
 45
1.414213562373094
 46
1.414213562373094
 79
     0
 98
        1
 10
3300.790286703112
 20
720.4333345552639
1001
ACME_LAYERS
1000
1
  0
LINE
  5
B44
330
1F
100
AcDbEntity
  8
P-3FF0
  6
Continuous
 62
     7
100
AcDbLine
 10
2556.310842761766
 20
1051.217314962584
 30
0.0
 11
2556.310842761766
 21
1103.652459668686
 31
0.0
1001
ACME_LAYERS
1000
1
  0
LINE
  5
B45
330
1F
100
AcDbEntity
  8
P-3FF0
  6
Continuous
 62
     7
100
AcDbLine
 10
2557.810842761766
 20
1105.217314962584
 30
0.0
 11
2557.810842761766
 21
1049.219650556999
 31
0.0
1001
ACME_LAYERS
1000
1
  0
LINE
  5
B46
330
1F
100
AcDbEntity
  8
P-3FF0
  6
Continuous
 62
     7
100
AcDbLine
 10
2557.810842761766
 20
1109.213529004078
 30
0.0
 11
2557.810842761766
 21
1105.217314962584
 31
0.0
1001
ACME_LAYERS
1000
1
  0
ARC
  5
B47
330
1F
100
AcDbEntity
  8
P-3FF0
  6
Continuous
 62
     7
100
AcDbCircle
 10
2546.280975828524
 20
1116.217314962584
 30
0.0
 40
6.000000000000177
100
AcDbArc
 50
36.99999999999497
 51
90.0
1001
ACME_LAYERS
1000
1
  0
LINE
  5
B48
330
1F
100
AcDbEntity
  8
P-3FF0
  6
Continuous
 62
     7
100
AcDbLine
 10
2551.289518461149
 20
1116.217314962584
 30
0.0
 11
2549.475517868713
 21
1118.624575055192
 31
0.0
1001
ACME_LAYERS
1000
1
  0
ARC
  5
B49
330
1F
100
AcDbEntity
  8
P-3FF0
  6
Continuous
 62
     7
100
AcDbCircle
 10
2546.280975828524
 20
1116.217314962584
 30
0.0
 40
4.000000000000238
100
AcDbArc
 50
36.99999999999497
 51
90.0
1001
ACME_LAYERS
1000
1
  0
LINE
  5
B4A
330
1F
100
AcDbEntity
  8
P-3FF0
  6
Continuous
 62
     7
100
AcDbLine
 10
2555.206749291909
 20
1111.018974073534
 30
0.0
 11
2551.289518461149
 21
1116.217314962584
 31
0.0
1001
ACME_LAYERS
1000
1
  0
LINE
  5
B4B
330
1F
100
AcDbEntity
  8
P-3FF0
  6
Continuous
 62
     7
100
AcDbLine
 10
2556.804020312002
 20
1112.222604119838
 30
0.0
 11
2551.072788888808
 21
1119.828205101496
 31
0.0
1001
ACME_LAYERS
1000
1
  0
ARC
  5
B4C
330
1F
100
AcDbEntity
  8
P-3FF0
  6
Continuous
 62
     7
100
AcDbCircle
 10
2552.810842761767
 20
1109.213529004078
 30
0.0
 40
3.0
100
AcDbArc
 50
0.0
 51
36.99999999999497
1001
ACME_LAYERS
1000
1
  0
ARC
  5
B4D
330
1F
100
AcDbEntity
  8
P-3FF0
  6
Continuous
 62
     7
100
AcDbCircle
 10
2552.810842761767
 20
1109.213529004078
 30
0.0
 40
5.0
100
AcDbArc
 50
0.0000000000065138
 51
36.99999999999497
1001
ACME_LAYERS
1000
1
  0
LINE
  5
B4E
330
1F
100
AcDbEntity
  8
P-3FF0
  6
Continuous
 62
     7
100
AcDbLine
 10
2555.810842761767
 20
1109.213529004078
 30
0.0
 11
2555.810842761767
 21
1106.620784587759
 31
0.0
1001
ACME_LAYERS
1000
1
  0
LINE
  5
B4F
330
1F
100
AcDbEntity
  8
0
100
AcDbLine
 10
2555.810842761767
 20
1106.620784587759
 30
0.0
 11
2556.310842761766
 21
1103.652459668686
 31
0.0
  0
LINE
  5
B50
330
1F
100
AcDbEntity
  8
0
100
AcDbLine
 10
2557.810842761766
 20
1049.219650556999
 30
0.0
 11
2556.310842761766
 21
1049.219650556999
 31
0.0
  0
LINE
  5
B58
330
1F
100
AcDbEntity
  8
P-0000
  6
Continuous
 62
     7
100
AcDbLine
 10
2629.310842761769
 20
1055.74069921713
 30
0.0
 11
2629.31084276177
 21
751.2824881727257
 31
0.0
1001
ACME_LAYERS
1000
1
  0
LINE
  5
B59
330
1F
100
AcDbEntity
  8
P-0000
  6
Continuous
 62
     7
100
AcDbLine
 10
2676.810842761769
 20
1116.282488172723
 30
0.0
 11
2656.810842761768
 21
1116.282488172741
 31
0.0
1001
ACME_LAYERS
1000
1
  0
LINE
  5
B5A
330
1F
100
AcDbEntity
  8
P-0000
  6
Continuous
 62
     7
100
AcDbLine
 10
2639.81084276177
 20
1120.282488172726
 30
0.0
 11
2675.248634231252
 21
1120.282488172726
 31
0.0
1001
ACME_LAYERS
1000
1
  0
LINE
  5
B5C
330
1F
100
AcDbEntity
  8
P-0000
  6
Continuous
 62
     7
100
AcDbLine
 10
2677.132556034009
 20
1122.282488172726
 30
0.0
 11
2639.81084276177
 21
1122.282488172726
 31
0.0
1001
ACME_LAYERS
1000
1
  0
HATCH
  5
B5D
330
1F
100
AcDbEntity
  8
P-0000
  6
Continuous
 62
     3
100
AcDbHatch
 10
0.0
 20
0.0
 30
0.0
210
0.0
220
0.0
230
1.0
  2
_U
 70
     0
 71
     0
 91
        1
 92
        1
 93
        9
 72
     1
 10
2757.854352803735
 20
1116.282488172726
 11
2758.854352803735
 21
1118.014538980296
 72
     1
 10
2758.854352803735
 20
1118.014538980296
 11
2754.488894563826
 21
1120.534937470241
 72
     2
 10
2752.488894563825
 20
1117.070835855105
 40
4.0
 50
419.9999999999893
 51
450.0
 73
     1
 72
     2
 10
2752.488894563825
 20
1117.070835855105
 40
4.000000000000613
 50
450.0
 51
495.0000000000009
 73
     1
 72
     1
 10
2749.660467439079
 20
1119.899262979852
 11
2748.957906194327
 21
1119.196701735099
 72
     1
 10
2748.957906194327
 20
1119.196701735099
 11
2750.3721197567
 21
1117.782488172726
 72
     1
 10
2750.3721197567
 20
1117.782488172726
 11
2751.074681001452
 21
1118.485049417478
 72
     2
 10
2752.488894563825
 20
1117.070835855105
 40
2.000000000000115
 50
-135.000000000004
 51
-59.99999999999011
 73
     0
 72
     1
 10
2753.488894563826
 20
1118.802886662673
 11
2757.854352803735
 21
1116.282488172726
 97
        0
 75
     0
 76
     0
 52
44.99999999999999
 41
2.0
 77
     0
 78
     1
 53
135.0
 43
2441.050401260503
 44
982.3916231391619
 45
1.414213562373094
 46
1.414213562373094
 79
     0
 98
        1
 10
2441.050401260503
 20
982.3916231391619
1001
ACME_LAYERS
1000
1
  0
LINE
  5
B5E
330
1F
100
AcDbEntity
  8
P-0000
  6
Continuous
 62
     3
100
AcDbLine
 10
2758.854352803735
 20
1118.014538980296
 30
0.0
 11
2754.488894563826
 21
1120.534937470241
 31
0.0
1001
ACME_LAYERS
1000
1
  0
LINE
  5
B5F
330
1F
100
AcDbEntity
  8
P-0000
  6
Continuous
 62
     7
100
AcDbLine
 10
2757.854352803735
 20
1116.282488172726
 30
0.0
 11
2753.488894563826
 21
1118.802886662673
 31
0.0
1001
ACME_LAYERS
1000
1
  0
LINE
  5
B60
330
1F
100
AcDbEntity
  8
P-0000
  6
Continuous
 62
     7
100
AcDbLine
 10
2757.854352803735
 20
1116.282488172726
 30
0.0
 11
2753.488894563826
 21
1118.802886662673
 31
0.0
1001
ACME_LAYERS
1000
1
  0
LINE
  5
B61
330
1F
100
AcDbEntity
  8
P-0000
  6
Continuous
 62
     7
100
AcDbLine
 10
2757.854352803735
 20
1116.282488172726
 30
0.0
 11
2733.28255603401
 21
1116.282488172726
 31
0.0
1001
ACME_LAYERS
1000
1
  0
LINE
  5
B62
330
1F
100
AcDbEntity
  8
P-0000
  6
Continuous
 62
     7
100
AcDbLine
 10
2757.854352803735
 20
1116.282488172726
 30
0.0
 11
2758.854352803735
 21
1118.014538980296
 31
0.0
1001
ACME_LAYERS
1000
1
  0
LINE
  5
B63
330
1F
100
AcDbEntity
  8
P-0000
  6
Continuous
 62
     7
100
AcDbLine
 10
2733.28255603401
 20
1116.282488172726
 30
0.0
 11
2695.310842761756
 21
1116.282488172723
 31
0.0
1001
ACME_LAYERS
1000
1
  0
LINE
  5
B64
330
1F
100
AcDbEntity
  8
P-0000
  6
Continuous
 62
     7
100
AcDbLine
 10
2712.269571380625
 20
1146.635689517384
 30
0.0
 11
2709.069571380624
 21
1146.635689517384
 31
0.0
1001
ACME_LAYERS
1000
1
  0
LINE
  5
B65
330
1F
100
AcDbEntity
  8
P-0000
  6
Continuous
 62
     7
100
AcDbLine
 10
2705.869571380624
 20
1146.035689517384
 30
0.0
 11
2712.269571380625
 21
1146.035689517384
 31
0.0
1001
ACME_LAYERS
1000
1
  0
LINE
  5
B67
330
1F
100
AcDbEntity
  8
P-0000
  6
Continuous
 62
     7
100
AcDbLine
 10
2713.060842761776
 20
1118.282488172726
 30
0.0
 11
2705.104352803735
 21
1118.282488172726
 31
0.0
1001
ACME_LAYERS
1000
1
  0
LINE
  5
B68
330
1F
100
AcDbEntity
  8
P-0000
  6
Continuous
 62
     7
100
AcDbLine
 10
2713.069571380624
 20
1146.035689517384
 30
0.0
 11
2713.069571380624
 21
1143.08840807767
 31
0.0
1001
ACME_LAYERS
1000
1
  0
LINE
  5
B69
330
1F
100
AcDbEntity
  8
P-0000
  6
Continuous
 62
     3
100
AcDbLine
 10
2712.269571380625
 20
1146.635689517384
 30
0.0
 11
2712.269571380625
 21
1143.08840807767
 31
0.0
1001
ACME_LAYERS
1000
1
  0
LINE
  5
B6A
330
1F
100
AcDbEntity
  8
P-0000
  6
Continuous
 62
     7
100
AcDbLine
 10
2712.269571380625
 20
1146.035689517384
 30
0.0
 11
2713.069571380624
 21
1146.035689517384
 31
0.0
1001
ACME_LAYERS
1000
1
  0
LINE
  5
B6B
330
1F
100
AcDbEntity
  8
P-0000
  6
Continuous
 62
     3
100
AcDbLine
 10
2712.269571380625
 20
1146.635689517384
 30
0.0
 11
2712.269571380625
 21
1146.035689517384
 31
0.0
1001
ACME_LAYERS
1000
1
  0
LINE
  5
B6C
330
1F
100
AcDbEntity
  8
P-0000
  6
Continuous
 62
     7
100
AcDbLine
 10
2713.069571380624
 20
1146.035689517384
 30
0.0
 11
2712.269571380625
 21
1146.635689517384
 31
0.0
1001
ACME_LAYERS
1000
1
  0
ARC
  5
B6D
330
1F
100
AcDbEntity
  8
P-0000
  6
Continuous
 62
     7
100
AcDbCircle
 10
2733.28255603401
 20
1120.282488172726
 30
0.0
 40
1.999999999999253
100
AcDbArc
 50
270.0
 51
300.0000000000268
1001
ACME_LAYERS
1000
1
  0
ARC
  5
B6E
330
1F
100
AcDbEntity
  8
P-0000
  6
Continuous
 62
     7
100
AcDbCircle
 10
2733.28255603401
 20
1120.282488172726
 30
0.0
 40
4.000000000000131
100
AcDbArc
 50
270.0
 51
300.0000000000008
1001
ACME_LAYERS
1000
1
  0
LINE
  5
B6F
330
1F
100
AcDbEntity
  8
P-0000
  6
Continuous
 62
     7
100
AcDbLine
 10
2733.004352803734
 20
1118.282488172726
 30
0.0
 11
2738.772301996166
 21
1121.612615191648
 31
0.0
1001
ACME_LAYERS
1000
1
  0
LINE
  5
B70
330
1F
100
AcDbEntity
  8
P-0000
  6
Continuous
 62
     7
100
AcDbLine
 10
2738.719811043643
 20
1118.802886662673
 30
0.0
 11
2735.282556034011
 21
1116.818386557588
 31
0.0
1001
ACME_LAYERS
1000
1
  0
LINE
  5
B71
330
1F
100
AcDbEntity
  8
P-0000
  6
Continuous
 62
     7
100
AcDbLine
 10
2748.957906194327
 20
1119.196701735099
 30
0.0
 11
2743.250799413142
 21
1119.196701735099
 31
0.0
1001
ACME_LAYERS
1000
1
  0
LINE
  5
B72
330
1F
100
AcDbEntity
  8
P-0000
  6
Continuous
 62
     7
100
AcDbLine
 10
2750.3721197567
 20
1117.782488172726
 30
0.0
 11
2741.836585850768
 21
1117.782488172726
 31
0.0
1001
ACME_LAYERS
1000
1
  0
LINE
  5
B73
330
1F
100
AcDbEntity
  8
P-0000
  6
Continuous
 62
     7
100
AcDbLine
 10
2750.122301996164
 20
1122.282488172726
 30
0.0
 11
2741.272301996166
 21
1122.282488172726
 31
0.0
1001
ACME_LAYERS
1000
1
  0
LINE
  5
B74
330
1F
100
AcDbEntity
  8
P-0000
  6
Continuous
 62
     7
100
AcDbLine
 10
2752.488894563825
 20
1121.070835855105
 30
0.0
 11
2739.719811043642
 21
1121.070835855105
 31
0.0
1001
ACME_LAYERS
1000
1
  0
ARC
  5
B75
330
1F
100
AcDbEntity
  8
P-0000
  6
Continuous
 62
     7
100
AcDbCircle
 10
2750.122301996166
 20
1117.282488172726
 30
0.0
 40
5.0
100
AcDbArc
 50
59.99999999999912
 51
90.00000000002605
1001
ACME_LAYERS
1000
1
  0
ARC
  5
B76
330
1F
100
AcDbEntity
  8
P-0000
  6
Continuous
 62
     7
100
AcDbCircle
 10
2752.488894563825
 20
1117.070835855105
 30
0.0
 40
4.000000000000613
100
AcDbArc
 50
90.0
 51
135.0000000000043
1001
ACME_LAYERS
1000
1
  0
LINE
  5
B77
330
1F
100
AcDbEntity
  8
P-0000
  6
Continuous
 62
     7
100
AcDbLine
 10
2751.074681001452
 20
1118.485049417478
 30
0.0
 11
2750.3721197567
 21
1117.782488172726
 31
0.0
1001
ACME_LAYERS
1000
1
  0
ARC
  5
B78
330
1F
100
AcDbEntity
  8
P-0000
  6
Continuous
 62
     7
100
AcDbCircle
 10
2752.488894563825
 20
1117.070835855105
 30
0.0
 40
4.0
100
AcDbArc
 50
59.99999999997321
 51
90.0
1001
ACME_LAYERS
1000
1
  0
LINE
  5
B79
330
1F
100
AcDbEntity
  8
P-0000
  6
Continuous
 62
     7
100
AcDbLine
 10
2754.488894563826
 20
1120.534937470241
 30
0.0
 11
2752.622301996166
 21
1121.612615191648
 31
0.0
1001
ACME_LAYERS
1000
1
  0
ARC
  5
B7A
330
1F
100
AcDbEntity
  8
P-0000
  6
Continuous
 62
     7
100
AcDbCircle
 10
2752.488894563825
 20
1117.070835855105
 30
0.0
 40
2.000000000000115
100
AcDbArc
 50
59.99999999997321
 51
135.0000000000089
1001
ACME_LAYERS
1000
1
  0
LINE
  5
B7B
330
1F
100
AcDbEntity
  8
P-0000
  6
Continuous
 62
     7
100
AcDbLine
 10
2748.957906194327
 20
1119.196701735099
 30
0.0
 11
2750.3721197567
 21
1117.782488172726
 31
0.0
1001
ACME_LAYERS
1000
1
  0
LINE
  5
B7C
330
1F
100
AcDbEntity
  8
P-0000
  6
Continuous
 62
     7
100
AcDbLine
 10
2749.660467439079
 20
1119.899262979852
 30
0.0
 11
2748.957906194327
 21
1119.196701735099
 31
0.0
1001
ACME_LAYERS
1000
1
  0
ARC
  5
B7D
330
1F
100
AcDbEntity
  8
P-0000
  6
Continuous
 62
     7
100
AcDbCircle
 10
2739.719811043642
 20
1117.070835855105
 30
0.0
 40
1.999999999999401
100
AcDbArc
 50
44.99999999999107
 51
120.0000000000268
1001
ACME_LAYERS
1000
1
  0
ARC
  5
B7E
330
1F
100
AcDbEntity
  8
P-0000
  6
Continuous
 62
     7
100
AcDbCircle
 10
2741.272301996166
 20
1117.282488172726
 30
0.0
 40
5.000000000000164
100
AcDbArc
 50
90.0
 51
120.0000000000009
1001
ACME_LAYERS
1000
1
  0
ARC
  5
B7F
330
1F
100
AcDbEntity
  8
P-0000
  6
Continuous
 62
     7
100
AcDbCircle
 10
2739.719811043642
 20
1117.070835855105
 30
0.0
 40
1.999999999999401
100
AcDbArc
 50
44.99999999999107
 51
120.0000000000268
1001
ACME_LAYERS
1000
1
  0
ARC
  5
B80
330
1F
100
AcDbEntity
  8
P-0000
  6
Continuous
 62
     7
100
AcDbCircle
 10
2739.719811043642
 20
1117.070835855105
 30
0.0
 40
3.999999999998728
100
AcDbArc
 50
90.0
 51
120.0000000000268
1001
ACME_LAYERS
1000
1
  0
ARC
  5
B81
330
1F
100
AcDbEntity
  8
P-0000
  6
Continuous
 62
     7
100
AcDbCircle
 10
2739.719811043642
 20
1117.070835855105
 30
0.0
 40
4.0
100
AcDbArc
 50
44.99999999999568
 51
90.0
1001
ACME_LAYERS
1000
1
  0
LINE
  5
B82
330
1F
100
AcDbEntity
  8
P-0000
  6
Continuous
 62
     7
100
AcDbLine
 10
2743.250799413142
 20
1119.196701735099
 30
0.0
 11
2742.548238168389
 21
1119.899262979852
 31
0.0
1001
ACME_LAYERS
1000
1
  0
LINE
  5
B83
330
1F
100
AcDbEntity
  8
P-0000
  6
Continuous
 62
     7
100
AcDbLine
 10
2741.836585850768
 20
1117.782488172726
 30
0.0
 11
2741.134024606016
 21
1118.485049417478
 31
0.0
1001
ACME_LAYERS
1000
1
  0
LINE
  5
B84
330
1F
100
AcDbEntity
  8
P-0000
  6
Continuous
 62
     7
100
AcDbLine
 10
2741.836585850768
 20
1117.782488172726
 30
0.0
 11
2743.250799413142
 21
1119.196701735099
 31
0.0
1001
ACME_LAYERS
1000
1
  0
LINE
  5
B85
330
1F
100
AcDbEntity
  8
P-0000
  6
Continuous
 62
     7
100
AcDbLine
 10
2737.719811043643
 20
1120.534937470241
 30
0.0
 11
2734.28255603401
 21
1118.550437365158
 31
0.0
1001
ACME_LAYERS
1000
1
  0
LINE
  5
B86
330
1F
100
AcDbEntity
  8
P-0000
  6
Continuous
 62
     7
100
AcDbLine
 10
2733.004352803734
 20
1118.282488172726
 30
0.0
 11
2713.060842761776
 21
1118.282488172726
 31
0.0
1001
ACME_LAYERS
1000
1
  0
LINE
  5
B87
330
1F
100
AcDbEntity
  8
P-0000
  6
Continuous
 62
     7
100
AcDbLine
 10
2733.004352803734
 20
1118.282488172726
 30
0.0
 11
2733.28255603401
 21
1118.282488172726
 31
0.0
1001
ACME_LAYERS
1000
1
  0
LINE
  5
B88
330
1F
100
AcDbEntity
  8
P-0000
  6
Continuous
 62
     3
100
AcDbLine
 10
2712.326107824715
 20
1133.488408077672
 30
0.0
 11
2712.326107824716
 21
1118.282488172726
 31
0.0
1001
ACME_LAYERS
1000
1
  0
LINE
  5
B89
330
1F
100
AcDbEntity
  8
P-0000
  6
Continuous
 62
     7
100
AcDbLine
 10
2713.126107824715
 20
1131.488408077669
 30
0.0
 11
2713.126107824715
 21
1127.488408077669
 31
0.0
1001
ACME_LAYERS
1000
1
  0
LINE
  5
B8A
330
1F
100
AcDbEntity
  8
P-0000
  6
Continuous
 62
     7
100
AcDbLine
 10
2705.069571380624
 20
1146.035689517384
 30
0.0
 11
2705.069571380624
 21
1143.08840807767
 31
0.0
1001
ACME_LAYERS
1000
1
  0
LINE
  5
B8B
330
1F
100
AcDbEntity
  8
P-0000
  6
Continuous
 62
     3
100
AcDbLine
 10
2705.926107824715
 20
1133.488408077672
 30
0.0
 11
2705.926107824715
 21
1118.282488172726
 31
0.0
1001
ACME_LAYERS
1000
1
  0
LINE
  5
B8C
330
1F
100
AcDbEntity
  8
P-0000
  6
STRICHPUNKT
 62
     3
100
AcDbLine
 10
2709.069571380624
 20
1143.08840807767
 30
0.0
 11
2709.069571380624
 21
1146.635689517384
 31
0.0
1001
ACME_LAYERS
1000
1
  0
LINE
  5
B8D
330
1F
100
AcDbEntity
  8
P-0000
  6
Continuous
 62
     3
100
AcDbLine
 10
2705.869571380624
 20
1146.635689517384
 30
0.0
 11
2705.869571380624
 21
1143.08840807767
 31
0.0
1001
ACME_LAYERS
1000
1
  0
LINE
  5
B8E
330
1F
100
AcDbEntity
  8
P-0000
  6
Continuous
 62
     3
100
AcDbLine
 10
2705.869571380624
 20
1146.635689517384
 30
0.0
 11
2705.869571380624
 21
1146.035689517384
 31
0.0
1001
ACME_LAYERS
1000
1
  0
LINE
  5
B8F
330
1F
100
AcDbEntity
  8
P-0000
  6
Continuous
 62
     7
100
AcDbLine
 10
2705.069571380624
 20
1146.035689517384
 30
0.0
 11
2705.869571380624
 21
1146.035689517384
 31
0.0
1001
ACME_LAYERS
1000
1
  0
LINE
  5
B90
330
1F
100
AcDbEntity
  8
P-0000
  6
Continuous
 62
     7
100
AcDbLine
 10
2705.869571380624
 20
1146.635689517384
 30
0.0
 11
2705.069571380624
 21
1146.035689517384
 31
0.0
1001
ACME_LAYERS
1000
1
  0
LINE
  5
B91
330
1F
100
AcDbEntity
  8
P-0000
  6
Continuous
 62
     7
100
AcDbLine
 10
2709.069571380624
 20
1146.635689517384
 30
0.0
 11
2705.869571380624
 21
1146.635689517384
 31
0.0
1001
ACME_LAYERS
1000
1
  0
LINE
  5
B92
330
1F
100
AcDbEntity
  8
P-0000
  6
Continuous
 62
     7
100
AcDbLine
 10
2690.310842761771
 20
1116.282488172723
 30
0.0
 11
2676.810842761769
 21
1116.282488172723
 31
0.0
1001
ACME_LAYERS
1000
1
  0
LINE
  5
B93
330
1F
100
AcDbEntity
  8
P-0000
  6
Continuous
 62
     7
100
AcDbLine
 10
2705.104352803735
 20
1118.282488172726
 30
0.0
 11
2685.668454418872
 21
1118.282488172726
 31
0.0
1001
ACME_LAYERS
1000
1
  0
LINE
  5
B94
330
1F
100
AcDbEntity
  8
P-0000
  6
Continuous
 62
     7
100
AcDbLine
 10
2694.54963970168
 20
1116.282488172726
 30
0.0
 11
2685.668454418872
 21
1116.282488172726
 31
0.0
1001
ACME_LAYERS
1000
1
  0
LINE
  5
B95
330
1F
100
AcDbEntity
  8
P-0000
  6
Continuous
 62
     7
100
AcDbLine
 10
2705.126107824716
 20
1131.488408077669
 30
0.0
 11
2705.126107824716
 21
1127.488408077669
 31
0.0
1001
ACME_LAYERS
1000
1
  0
LINE
  5
B96
330
1F
100
AcDbEntity
  8
P-0000
  6
Continuous
 62
     7
100
AcDbLine
 10
2695.310842761756
 20
1116.282488172723
 30
0.0
 11
2694.54963970168
 21
1116.282488172726
 31
0.0
1001
ACME_LAYERS
1000
1
  0
LINE
  5
B97
330
1F
100
AcDbEntity
  8
P-0000
  6
Continuous
 62
     7
100
AcDbLine
 10
2683.668454418873
 20
1116.818386557588
 30
0.0
 11
2678.13255603401
 21
1120.014538980296
 31
0.0
1001
ACME_LAYERS
1000
1
  0
LINE
  5
B98
330
1F
100
AcDbEntity
  8
P-0000
  6
Continuous
 62
     7
100
AcDbLine
 10
2677.132556034009
 20
1120.282488172726
 30
0.0
 11
2675.248634231252
 21
1120.282488172726
 31
0.0
1001
ACME_LAYERS
1000
1
  0
LINE
  5
B99
330
1F
100
AcDbEntity
  8
P-0000
  6
Continuous
 62
     7
100
AcDbLine
 10
2684.668454418873
 20
1118.550437365156
 30
0.0
 11
2679.132556034009
 21
1121.746589787864
 31
0.0
1001
ACME_LAYERS
1000
1
  0
ARC
  5
B9A
330
1F
100
AcDbEntity
  8
P-0000
  6
Continuous
 62
     7
100
AcDbCircle
 10
2685.668454418872
 20
1120.282488172726
 30
0.0
 40
2.0
100
AcDbArc
 50
239.9999999999732
 51
270.0
1001
ACME_LAYERS
1000
1
  0
ARC
  5
B9B
330
1F
100
AcDbEntity
  8
P-0000
  6
Continuous
 62
     7
100
AcDbCircle
 10
2677.132556034009
 20
1118.282488172726
 30
0.0
 40
4.0
100
AcDbArc
 50
59.99999999999912
 51
90.0
1001
ACME_LAYERS
1000
1
  0
ARC
  5
B9C
330
1F
100
AcDbEntity
  8
P-0000
  6
Continuous
 62
     7
100
AcDbCircle
 10
2677.132556034009
 20
1118.282488172726
 30
0.0
 40
2.0
100
AcDbArc
 50
60.00000000002501
 51
90.0
1001
ACME_LAYERS
1000
1
  0
ARC
  5
B9D
330
1F
100
AcDbEntity
  8
P-0000
  6
Continuous
 62
     7
100
AcDbCircle
 10
2685.668454418872
 20
1120.282488172726
 30
0.0
 40
4.0
100
AcDbArc
 50
239.9999999999991
 51
270.0
1001
ACME_LAYERS
1000
1
  0
LINE
  5
B9E
330
1F
100
AcDbEntity
  8
P-0000
  6
Continuous
 62
     7
100
AcDbLine
 10
2632.181160948233
 20
1122.282488172726
 30
0.0
 11
2592.810842761768
 21
1122.282488172726
 31
0.0
1001
ACME_LAYERS
1000
1
  0
LINE
  5
B9F
330
1F
100
AcDbEntity
  8
P-0000
  6
Continuous
 62
     7
100
AcDbLine
 10
2639.81084276177
 20
1122.282488172726
 30
0.0
 11
2592.810842761768
 21
1122.282488172726
 31
0.0
1001
ACME_LAYERS
1000
1
  0
LINE
  5
BA0
330
1F
100
AcDbEntity
  8
P-0000
  6
Continuous
 62
     7
100
AcDbLine
 10
2656.810842761768
 20
1116.282488172741
 30
0.0
 11
2639.81084276177
 21
1116.282488172741
 31
0.0
1001
ACME_LAYERS
1000
1
  0
LINE
  5
BA1
330
1F
100
AcDbEntity
  8
P-0000
  6
Continuous
 62
     7
100
AcDbLine
 10
2659.315114078089
 20
1122.502020246857
 30
0.0
 11
2659.310842761776
 21
1122.485856494265
 31
0.0
1001
ACME_LAYERS
1000
1
  0
LINE
  5
BA2
330
1F
100
AcDbEntity
  8
P-0000
  6
Continuous
 62
     7
100
AcDbLine
 10
2636.81084276177
 20
1116.282488172743
 30
0.0
 11
2636.81084276177
 21
1117.282488172726
 31
0.0
1001
ACME_LAYERS
1000
1
  0
ARC
  5
BA3
330
1F
100
AcDbEntity
  8
P-0000
  6
Continuous
 62
     7
100
AcDbCircle
 10
2639.81084276177
 20
1117.282488172726
 30
0.0
 40
3.0
100
AcDbArc
 50
90.0
 51
180.0
1001
ACME_LAYERS
1000
1
  0
LINE
  5
BA4
330
1F
100
AcDbEntity
  8
P-0000
  6
Continuous
 62
     7
100
AcDbLine
 10
2639.81084276177
 20
1116.282488172741
 30
0.0
 11
2636.81084276177
 21
1116.282488172743
 31
0.0
1001
ACME_LAYERS
1000
1
  0
LINE
  5
BA5
330
1F
100
AcDbEntity
  8
P-0000
  6
STRICHPUNKT
 62
     3
100
AcDbLine
 10
2592.810842761769
 20
1094.42436540378
 30
0.0
 11
2592.810842761769
 21
1093.968552044946
 31
0.0
1001
ACME_LAYERS
1000
1
  0
LINE
  5
BA6
330
1F
100
AcDbEntity
  8
P-0000
  6
Continuous
 62
     7
100
AcDbLine
 10
2705.069571380625
 20
1143.08840807767
 30
0.0
 11
2712.269571380625
 21
1143.08840807767
 31
0.0
1001
ACME_LAYERS
1000
1
  0
LINE
  5
BA7
330
1F
100
AcDbEntity
  8
P-0000
  6
Continuous
 62
     7
100
AcDbLine
 10
2712.269571380625
 20
1143.08840807767
 30
0.0
 11
2713.069571380625
 21
1143.08840807767
 31
0.0
1001
ACME_LAYERS
1000
1
  0
LINE
  5
BA8
330
1F
100
AcDbEntity
  8
P-0000
  6
Continuous
 62
     7
100
AcDbLine
 10
2717.515269494045
 20
1136.988408077669
 30
0.0
 11
2717.515269494045
 21
1135.488408077672
 31
0.0
1001
ACME_LAYERS
1000
1
  0
LINE
  5
BA9
330
1F
100
AcDbEntity
  8
P-0000
  6
Continuous
 62
     7
100
AcDbLine
 10
2705.069571380625
 20
1133.488408077672
 30
0.0
 11
2705.069571380625
 21
1127.488408077669
 31
0.0
1001
ACME_LAYERS
1000
1
  0
LINE
  5
BAA
330
1F
100
AcDbEntity
  8
P-0000
  6
Continuous
 62
     7
100
AcDbLine
 10
2700.515269494045
 20
1135.488408077672
 30
0.0
 11
2700.515269494045
 21
1136.988408077669
 31
0.0
1001
ACME_LAYERS
1000
1
  0
LINE
  5
BAB
330
1F
100
AcDbEntity
  8
P-0000
  6
Continuous
 62
     7
100
AcDbLine
 10
2726.569571380615
 20
1132.98840807767
 30
0.0
 11
2713.069571380625
 21
1132.98840807767
 31
0.0
1001
ACME_LAYERS
1000
1
  0
LINE
  5
BAC
330
1F
100
AcDbEntity
  8
P-0000
  6
Continuous
 62
     7
100
AcDbLine
 10
2720.74114425588
 20
1131.488408077669
 30
0.0
 11
2718.303541542652
 21
1131.488408077669
 31
0.0
1001
ACME_LAYERS
1000
1
  0
LINE
  5
BAD
330
1F
100
AcDbEntity
  8
P-0000
  6
Continuous
 62
     7
100
AcDbLine
 10
2592.819571380632
 20
1132.98840807767
 30
0.0
 11
2680.069571380625
 21
1132.98840807767
 31
0.0
1001
ACME_LAYERS
1000
1
  0
LINE
  5
BAE
330
1F
100
AcDbEntity
  8
P-0000
  6
Continuous
 62
     7
100
AcDbLine
 10
2720.74114425588
 20
1131.488408077669
 30
0.0
 11
2718.303541542652
 21
1131.488408077669
 31
0.0
1001
ACME_LAYERS
1000
1
  0
LINE
  5
BAF
330
1F
100
AcDbEntity
  8
P-0000
  6
Continuous
 62
     7
100
AcDbLine
 10
2718.303541542652
 20
1131.488408077669
 30
0.0
 11
2716.893213013793
 21
1131.488408077669
 31
0.0
1001
ACME_LAYERS
1000
1
  0
LINE
  5
BB0
330
1F
100
AcDbEntity
  8
P-0000
  6
Continuous
 62
     7
100
AcDbLine
 10
2718.303541542652
 20
1131.488408077669
 30
0.0
 11
2716.893213013793
 21
1131.488408077669
 31
0.0
1001
ACME_LAYERS
1000
1
  0
LINE
  5
BB1
330
1F
100
AcDbEntity
  8
P-0000
  6
Continuous
 62
     7
100
AcDbLine
 10
2592.819571380627
 20
1131.256357270102
 30
0.0
 11
2679.069571380625
 21
1131.256357270102
 31
0.0
1001
ACME_LAYERS
1000
1
  0
LINE
  5
BB2
330
1F
100
AcDbEntity
  8
P-0000
  6
Continuous
 62
     7
100
AcDbLine
 10
2680.069571380625
 20
1132.98840807767
 30
0.0
 11
2685.667647591977
 21
1129.756357270102
 31
0.0
1001
ACME_LAYERS
1000
1
  0
LINE
  5
BB3
330
1F
100
AcDbEntity
  8
P-0000
  6
Continuous
 62
     7
100
AcDbLine
 10
2705.069571380625
 20
1132.98840807767
 30
0.0
 11
2680.069571380625
 21
1132.98840807767
 31
0.0
1001
ACME_LAYERS
1000
1
  0
LINE
  5
BB4
330
1F
100
AcDbEntity
  8
P-0000
  6
Continuous
 62
     7
100
AcDbLine
 10
2679.069571380625
 20
1131.256357270102
 30
0.0
 11
2680.069571380625
 21
1132.98840807767
 31
0.0
1001
ACME_LAYERS
1000
1
  0
LINE
  5
BB5
330
1F
100
AcDbEntity
  8
P-0000
  6
Continuous
 62
     7
100
AcDbLine
 10
2680.069571380625
 20
1132.98840807767
 30
0.0
 11
2680.141537543125
 21
1132.98840807767
 31
0.0
1001
ACME_LAYERS
1000
1
  0
LINE
  5
BB6
330
1F
100
AcDbEntity
  8
P-0000
  6
Continuous
 62
     7
100
AcDbLine
 10
2716.893213013793
 20
1131.488408077669
 30
0.0
 11
2714.069571380625
 21
1131.488408077669
 31
0.0
1001
ACME_LAYERS
1000
1
  0
LINE
  5
BB8
330
1F
100
AcDbEntity
  8
P-0000
  6
Continuous
 62
     3
100
AcDbLine
 10
2732.007393554133
 20
1129.48840807767
 30
0.0
 11
2731.47149516927
 21
1129.48840807767
 31
0.0
1001
ACME_LAYERS
1000
1
  0
LINE
  5
BB9
330
1F
100
AcDbEntity
  8
P-0000
  6
Continuous
 62
     3
100
AcDbLine
 10
2732.471495169271
 20
1129.756357270102
 30
0.0
 11
2732.007393554133
 21
1129.48840807767
 31
0.0
1001
ACME_LAYERS
1000
1
  0
LINE
  5
BBA
330
1F
100
AcDbEntity
  8
P-0000
  6
Continuous
 62
     7
100
AcDbLine
 10
2694.569571380625
 20
1130.316835202417
 30
0.0
 11
2694.326930693505
 21
1130.074194515297
 31
0.0
1001
ACME_LAYERS
1000
1
  0
LINE
  5
BBB
330
1F
100
AcDbEntity
  8
P-0000
  6
Continuous
 62
     7
100
AcDbLine
 10
2723.569571380624
 20
1130.316835202417
 30
0.0
 11
2723.812212067743
 21
1130.074194515297
 31
0.0
1001
ACME_LAYERS
1000
1
  0
LINE
  5
BBC
330
1F
100
AcDbEntity
  8
P-0000
  6
Continuous
 62
     7
100
AcDbLine
 10
2714.069571380625
 20
1131.488408077669
 30
0.0
 11
2714.069571380625
 21
1129.48840807767
 31
0.0
1001
ACME_LAYERS
1000
1
  0
LINE
  5
BBD
330
1F
100
AcDbEntity
  8
P-0000
  6
Continuous
 62
     7
100
AcDbLine
 10
2704.069571380625
 20
1131.488408077669
 30
0.0
 11
2704.069571380625
 21
1129.48840807767
 31
0.0
1001
ACME_LAYERS
1000
1
  0
LINE
  5
BBE
330
1F
100
AcDbEntity
  8
P-0000
  6
Continuous
 62
     7
100
AcDbLine
 10
2739.069571380623
 20
1131.256357270102
 30
0.0
 11
2738.069571380625
 21
1132.98840807767
 31
0.0
1001
ACME_LAYERS
1000
1
  0
LINE
  5
BBF
330
1F
100
AcDbEntity
  8
P-0000
  6
Continuous
 62
     7
100
AcDbLine
 10
2739.069571380623
 20
1131.256357270102
 30
0.0
 11
2733.471495169271
 21
1128.024306462532
 31
0.0
1001
ACME_LAYERS
1000
1
  0
LINE
  5
BC0
330
1F
100
AcDbEntity
  8
P-0000
  6
Continuous
 62
     7
100
AcDbLine
 10
2738.069571380625
 20
1132.98840807767
 30
0.0
 11
2732.471495169271
 21
1129.756357270102
 31
0.0
1001
ACME_LAYERS
1000
1
  0
LINE
  5
BC1
330
1F
100
AcDbEntity
  8
P-0000
  6
Continuous
 62
     7
100
AcDbLine
 10
2722.155357818251
 20
1128.902621640043
 30
0.0
 11
2722.397998505372
 21
1128.659980952925
 31
0.0
1001
ACME_LAYERS
1000
1
  0
LINE
  5
BC2
330
1F
100
AcDbEntity
  8
P-0000
  6
Continuous
 62
     7
100
AcDbLine
 10
2695.983784942999
 20
1128.902621640043
 30
0.0
 11
2695.741144255878
 21
1128.659980952925
 31
0.0
1001
ACME_LAYERS
1000
1
  0
LINE
  5
BC3
330
1F
100
AcDbEntity
  8
P-0000
  6
Continuous
 62
     7
100
AcDbLine
 10
2679.069571380625
 20
1131.256357270102
 30
0.0
 11
2684.667647591977
 21
1128.024306462532
 31
0.0
1001
ACME_LAYERS
1000
1
  0
LINE
  5
BC4
330
1F
100
AcDbEntity
  8
P-0000
  6
Continuous
 62
     7
100
AcDbLine
 10
2686.667647591977
 20
1127.488408077669
 30
0.0
 11
2592.819571380627
 21
1127.488408077669
 31
0.0
1001
ACME_LAYERS
1000
1
  0
LINE
  5
BC5
330
1F
100
AcDbEntity
  8
P-0000
  6
Continuous
 62
     7
100
AcDbLine
 10
2686.667647591977
 20
1129.48840807767
 30
0.0
 11
2692.912717131131
 21
1129.48840807767
 31
0.0
1001
ACME_LAYERS
1000
1
  0
LINE
  5
BC6
330
1F
100
AcDbEntity
  8
P-0000
  6
Continuous
 62
     7
100
AcDbLine
 10
2686.667647591977
 20
1127.488408077669
 30
0.0
 11
2692.912717131131
 21
1127.488408077669
 31
0.0
1001
ACME_LAYERS
1000
1
  0
LINE
  5
BC7
330
1F
100
AcDbEntity
  8
P-0000
  6
Continuous
 62
     7
100
AcDbLine
 10
2731.47149516927
 20
1127.488408077669
 30
0.0
 11
2725.226425630118
 21
1127.488408077669
 31
0.0
1001
ACME_LAYERS
1000
1
  0
LINE
  5
BC8
330
1F
100
AcDbEntity
  8
P-0000
  6
Continuous
 62
     7
100
AcDbLine
 10
2714.069571380625
 20
1131.488408077669
 30
0.0
 11
2713.069571380625
 21
1131.488408077669
 31
0.0
1001
ACME_LAYERS
1000
1
  0
LINE
  5
BC9
330
1F
100
AcDbEntity
  8
P-0000
  6
Continuous
 62
     7
100
AcDbLine
 10
2716.893213013793
 20
1131.488408077669
 30
0.0
 11
2714.069571380625
 21
1131.488408077669
 31
0.0
1001
ACME_LAYERS
1000
1
  0
LINE
  5
BCA
330
1F
100
AcDbEntity
  8
P-0000
  6
Continuous
 62
     7
100
AcDbLine
 10
2704.069571380625
 20
1131.488408077669
 30
0.0
 11
2697.397998505371
 21
1131.488408077669
 31
0.0
1001
ACME_LAYERS
1000
1
  0
LINE
  5
BCB
330
1F
100
AcDbEntity
  8
P-0000
  6
Continuous
 62
     7
100
AcDbLine
 10
2705.069571380625
 20
1129.48840807767
 30
0.0
 11
2697.397998505371
 21
1129.48840807767
 31
0.0
1001
ACME_LAYERS
1000
1
  0
LINE
  5
BCC
330
1F
100
AcDbEntity
  8
P-0000
  6
Continuous
 62
     7
100
AcDbLine
 10
2720.741144255878
 20
1129.48840807767
 30
0.0
 11
2713.126107824715
 21
1129.48840807767
 31
0.0
1001
ACME_LAYERS
1000
1
  0
LINE
  5
BCD
330
1F
100
AcDbEntity
  8
P-0000
  6
Continuous
 62
     7
100
AcDbLine
 10
2705.069571380625
 20
1131.488408077669
 30
0.0
 11
2704.069571380625
 21
1131.488408077669
 31
0.0
1001
ACME_LAYERS
1000
1
  0
LINE
  5
BCE
330
1F
100
AcDbEntity
  8
P-0000
  6
Continuous
 62
     7
100
AcDbLine
 10
2731.47149516927
 20
1129.48840807767
 30
0.0
 11
2725.226425630118
 21
1129.48840807767
 31
0.0
1001
ACME_LAYERS
1000
1
  0
LINE
  5
BCF
330
1F
100
AcDbEntity
  8
P-0000
  6
Continuous
 62
     7
100
AcDbLine
 10
2699.069571380625
 20
1131.488408077669
 30
0.0
 11
2704.069571380625
 21
1131.488408077669
 31
0.0
1001
ACME_LAYERS
1000
1
  0
LINE
  5
BD0
330
1F
100
AcDbEntity
  8
P-0000
  6
Continuous
 62
     7
100
AcDbLine
 10
2704.069571380625
 20
1131.488408077669
 30
0.0
 11
2705.069571380625
 21
1131.488408077669
 31
0.0
1001
ACME_LAYERS
1000
1
  0
LINE
  5
BD1
330
1F
100
AcDbEntity
  8
P-0000
  6
Continuous
 62
     7
100
AcDbLine
 10
2738.069571380625
 20
1132.98840807767
 30
0.0
 11
2726.569571380615
 21
1132.98840807767
 31
0.0
1001
ACME_LAYERS
1000
1
  0
LINE
  5
BD2
330
1F
100
AcDbEntity
  8
P-0000
  6
Continuous
 62
     7
100
AcDbLine
 10
2717.515269494045
 20
1131.488408077669
 30
0.0
 11
2713.069571380625
 21
1131.488408077669
 31
0.0
1001
ACME_LAYERS
1000
1
  0
LINE
  5
BD3
330
1F
100
AcDbEntity
  8
P-0000
  6
Continuous
 62
     7
100
AcDbLine
 10
2705.069571380625
 20
1131.488408077669
 30
0.0
 11
2704.069571380625
 21
1131.488408077669
 31
0.0
1001
ACME_LAYERS
1000
1
  0
LINE
  5
BD4
330
1F
100
AcDbEntity
  8
P-0000
  6
Continuous
 62
     7
100
AcDbLine
 10
2717.515269494045
 20
1137.08840807767
 30
0.0
 11
2717.515269494045
 21
1136.988408077669
 31
0.0
1001
ACME_LAYERS
1000
1
  0
LINE
  5
BD5
330
1F
100
AcDbEntity
  8
P-0000
  6
Continuous
 62
     7
100
AcDbLine
 10
2700.515269494045
 20
1137.08840807767
 30
0.0
 11
2717.515269494045
 21
1137.08840807767
 31
0.0
1001
ACME_LAYERS
1000
1
  0
LINE
  5
BD6
330
1F
100
AcDbEntity
  8
P-0000
  6
Continuous
 62
     7
100
AcDbLine
 10
2700.515269494045
 20
1136.988408077669
 30
0.0
 11
2700.515269494045
 21
1137.08840807767
 31
0.0
1001
ACME_LAYERS
1000
1
  0
LINE
  5
BD7
330
1F
100
AcDbEntity
  8
P-0000
  6
Continuous
 62
     7
100
AcDbLine
 10
2701.564017881159
 20
1138.975347269577
 30
0.0
 11
2701.564017881159
 21
1137.66896466127
 31
0.0
1001
ACME_LAYERS
1000
1
  0
LINE
  5
BD8
330
1F
100
AcDbEntity
  8
P-0000
  6
Continuous
 62
     7
100
AcDbLine
 10
2715.569571380625
 20
1137.08840807767
 30
0.0
 11
2702.569571380625
 21
1137.08840807767
 31
0.0
1001
ACME_LAYERS
1000
1
  0
LINE
  5
BD9
330
1F
100
AcDbEntity
  8
P-0000
  6
Continuous
 62
     7
100
AcDbLine
 10
2716.57512488009
 20
1138.975347269577
 30
0.0
 11
2716.57512488009
 21
1137.66896466127
 31
0.0
1001
ACME_LAYERS
1000
1
  0
LINE
  5
BDA
330
1F
100
AcDbEntity
  8
P-0000
  6
Continuous
 62
     7
100
AcDbLine
 10
2713.069571380625
 20
1143.08840807767
 30
0.0
 11
2715.569571380625
 21
1143.08840807767
 31
0.0
1001
ACME_LAYERS
1000
1
  0
LINE
  5
BDB
330
1F
100
AcDbEntity
  8
P-0000
  6
Continuous
 62
     7
100
AcDbLine
 10
2701.810689469815
 20
1137.515551643304
 30
0.0
 11
2702.569571380625
 21
1137.08840807767
 31
0.0
1001
ACME_LAYERS
1000
1
  0
LINE
  5
BDC
330
1F
100
AcDbEntity
  8
P-0000
  6
Continuous
 62
     7
100
AcDbLine
 10
2701.810689469815
 20
1142.661264512035
 30
0.0
 11
2702.569571380625
 21
1143.08840807767
 31
0.0
1001
ACME_LAYERS
1000
1
  0
LINE
  5
BDD
330
1F
100
AcDbEntity
  8
P-0000
  6
Continuous
 62
     7
100
AcDbLine
 10
2716.328453291432
 20
1137.515551643304
 30
0.0
 11
2715.569571380625
 21
1137.08840807767
 31
0.0
1001
ACME_LAYERS
1000
1
  0
LINE
  5
BDE
330
1F
100
AcDbEntity
  8
P-0000
  6
Continuous
 62
     7
100
AcDbLine
 10
2716.328453291432
 20
1142.661264512035
 30
0.0
 11
2715.569571380625
 21
1143.08840807767
 31
0.0
1001
ACME_LAYERS
1000
1
  0
LINE
  5
BDF
330
1F
100
AcDbEntity
  8
P-0000
  6
Continuous
 62
     7
100
AcDbLine
 10
2702.569571380625
 20
1143.08840807767
 30
0.0
 11
2705.069571380625
 21
1143.08840807767
 31
0.0
1001
ACME_LAYERS
1000
1
  0
LINE
  5
BE0
330
1F
100
AcDbEntity
  8
P-0000
  6
Continuous
 62
     7
100
AcDbLine
 10
2716.57512488009
 20
1142.507851494069
 30
0.0
 11
2716.57512488009
 21
1138.975347269577
 31
0.0
1001
ACME_LAYERS
1000
1
  0
LINE
  5
BE1
330
1F
100
AcDbEntity
  8
P-0000
  6
Continuous
 62
     7
100
AcDbLine
 10
2712.822348130357
 20
1142.507851494069
 30
0.0
 11
2712.822348130357
 21
1137.08840807767
 31
0.0
1001
ACME_LAYERS
1000
1
  0
LINE
  5
BE2
330
1F
100
AcDbEntity
  8
P-0000
  6
Continuous
 62
     7
100
AcDbLine
 10
2705.316794630892
 20
1142.507851494069
 30
0.0
 11
2705.316794630892
 21
1137.08840807767
 31
0.0
1001
ACME_LAYERS
1000
1
  0
LINE
  5
BE3
330
1F
100
AcDbEntity
  8
P-0000
  6
Continuous
 62
     7
100
AcDbLine
 10
2701.564017881159
 20
1142.507851494069
 30
0.0
 11
2701.564017881159
 21
1138.975347269577
 31
0.0
1001
ACME_LAYERS
1000
1
  0
LINE
  5
BE4
330
1F
100
AcDbEntity
  8
P-0000
  6
Continuous
 62
     7
100
AcDbLine
 10
2592.810842761767
 20
1132.98840807767
 30
0.0
 11
2592.819571380603
 21
1132.98840807767
 31
0.0
1001
ACME_LAYERS
1000
1
  0
LINE
  5
BE5
330
1F
100
AcDbEntity
  8
P-0000
  6
Continuous
 62
     7
100
AcDbLine
 10
2592.810842761767
 20
1131.256357270102
 30
0.0
 11
2592.819571380627
 21
1131.256357270102
 31
0.0
1001
ACME_LAYERS
1000
1
  0
LINE
  5
BE6
330
1F
100
AcDbEntity
  8
P-0000
  6
Continuous
 62
     7
100
AcDbLine
 10
2592.810842761768
 20
1127.488408077669
 30
0.0
 11
2592.819571380627
 21
1127.488408077669
 31
0.0
1001
ACME_LAYERS
1000
1
  0
LINE
  5
BE7
330
1F
100
AcDbEntity
  8
P-0000
  6
Continuous
 62
     7
100
AcDbLine
 10
2714.569571380623
 20
1131.488408077672
 30
0.0
 11
2719.569571380623
 21
1131.488408077672
 31
0.0
1001
ACME_LAYERS
1000
1
  0
LINE
  5
BE8
330
1F
100
AcDbEntity
  8
P-0000
  6
Continuous
 62
     7
100
AcDbLine
 10
2717.515269494045
 20
1135.488408077672
 30
0.0
 11
2713.069571380625
 21
1135.488408077672
 31
0.0
1001
ACME_LAYERS
1000
1
  0
LINE
  5
BE9
330
1F
100
AcDbEntity
  8
P-0000
  6
Continuous
 62
     7
100
AcDbLine
 10
2704.069571380625
 20
1131.488408077669
 30
0.0
 11
2700.515269494045
 21
1131.488408077669
 31
0.0
1001
ACME_LAYERS
1000
1
  0
LINE
  5
BEA
330
1F
100
AcDbEntity
  8
P-0000
  6
Continuous
 62
     7
100
AcDbLine
 10
2704.069571380625
 20
1131.488408077669
 30
0.0
 11
2704.569571380623
 21
1131.488408077672
 31
0.0
1001
ACME_LAYERS
1000
1
  0
LINE
  5
BEB
330
1F
100
AcDbEntity
  8
P-0000
  6
Continuous
 62
     7
100
AcDbLine
 10
2700.515269494045
 20
1135.488408077672
 30
0.0
 11
2704.569571380623
 21
1135.488408077672
 31
0.0
1001
ACME_LAYERS
1000
1
  0
LINE
  5
BEC
330
1F
100
AcDbEntity
  8
P-0000
  6
Continuous
 62
     7
100
AcDbLine
 10
2713.069571380625
 20
1131.488408077669
 30
0.0
 11
2714.069571380625
 21
1131.488408077669
 31
0.0
1001
ACME_LAYERS
1000
1
  0
LINE
  5
BED
330
1F
100
AcDbEntity
  8
P-0000
  6
Continuous
 62
     7
100
AcDbLine
 10
2705.069571380625
 20
1133.488408077672
 30
0.0
 11
2704.569571380623
 21
1133.488408077672
 31
0.0
1001
ACME_LAYERS
1000
1
  0
LINE
  5
BEE
330
1F
100
AcDbEntity
  8
P-0000
  6
Continuous
 62
     7
100
AcDbLine
 10
2705.869571380624
 20
1133.488408077672
 30
0.0
 11
2705.069571380625
 21
1133.488408077672
 31
0.0
1001
ACME_LAYERS
1000
1
  0
LINE
  5
BEF
330
1F
100
AcDbEntity
  8
P-0000
  6
Continuous
 62
     7
100
AcDbLine
 10
2712.269571380625
 20
1133.488408077672
 30
0.0
 11
2705.869571380624
 21
1133.488408077672
 31
0.0
1001
ACME_LAYERS
1000
1
  0
LINE
  5
BF0
330
1F
100
AcDbEntity
  8
P-0000
  6
Continuous
 62
     7
100
AcDbLine
 10
2713.069571380625
 20
1133.488408077672
 30
0.0
 11
2712.269571380625
 21
1133.488408077672
 31
0.0
1001
ACME_LAYERS
1000
1
  0
LINE
  5
BF1
330
1F
100
AcDbEntity
  8
P-0000
  6
Continuous
 62
     7
100
AcDbLine
 10
2697.397998505371
 20
1131.488408077669
 30
0.0
 11
2704.069571380625
 21
1131.488408077669
 31
0.0
1001
ACME_LAYERS
1000
1
  0
ARC
  5
BF2
330
1F
100
AcDbEntity
  8
P-0000
  6
Continuous
 62
     7
100
AcDbCircle
 10
2725.226425630118
 20
1131.488408077669
 30
0.0
 40
4.0
100
AcDbArc
 50
224.9999999999911
 51
270.0
1001
ACME_LAYERS
1000
1
  0
ARC
  5
BF3
330
1F
100
AcDbEntity
  8
P-0000
  6
Continuous
 62
     7
100
AcDbCircle
 10
2697.397998505371
 20
1127.488408077669
 30
0.0
 40
4.000000000000613
100
AcDbArc
 50
90.0
 51
134.9999999999997
1001
ACME_LAYERS
1000
1
  0
ARC
  5
BF4
330
1F
100
AcDbEntity
  8
P-0000
  6
Continuous
 62
     7
100
AcDbCircle
 10
2692.912717131131
 20
1131.488408077669
 30
0.0
 40
3.999999999999423
100
AcDbArc
 50
270.0
 51
315.0000000000089
1001
ACME_LAYERS
1000
1
  0
ARC
  5
BF5
330
1F
100
AcDbEntity
  8
P-0000
  6
Continuous
 62
     7
100
AcDbCircle
 10
2686.667647591977
 20
1131.488408077669
 30
0.0
 40
4.0
100
AcDbArc
 50
239.9999999999991
 51
270.0
1001
ACME_LAYERS
1000
1
  0
ARC
  5
BF6
330
1F
100
AcDbEntity
  8
P-0000
  6
Continuous
 62
     7
100
AcDbCircle
 10
2709.069571380625
 20
1149.507851494068
 30
0.0
 40
12.41944341639904
100
AcDbArc
 50
252.4120462260099
 51
287.5879537739901
1001
ACME_LAYERS
1000
1
  0
ARC
  5
BF7
330
1F
100
AcDbEntity
  8
P-0000
  6
Continuous
 62
     7
100
AcDbCircle
 10
2709.069571380625
 20
1130.66896466127
 30
0.0
 40
12.41944341639904
100
AcDbArc
 50
72.41204622600992
 51
107.5879537739901
1001
ACME_LAYERS
1000
1
  0
ARC
  5
BF8
330
1F
100
AcDbEntity
  8
P-0000
  6
Continuous
 62
     7
100
AcDbCircle
 10
2703.440406256025
 20
1140.410977650619
 30
0.0
 40
3.322569572950221
100
AcDbArc
 50
240.6266206051651
 51
304.3842474680524
1001
ACME_LAYERS
1000
1
  0
ARC
  5
BF9
330
1F
100
AcDbEntity
  8
P-0000
  6
Continuous
 62
     7
100
AcDbCircle
 10
2703.440406256024
 20
1139.765838504719
 30
0.0
 40
3.322569572950149
100
AcDbArc
 50
119.3733793948348
 51
124.3842474680525
1001
ACME_LAYERS
1000
1
  0
ARC
  5
BFA
330
1F
100
AcDbEntity
  8
P-0000
  6
Continuous
 62
     7
100
AcDbCircle
 10
2714.698736505222
 20
1140.410977650619
 30
0.0
 40
3.322569572950221
100
AcDbArc
 50
299.3733793948349
 51
304.3842474680524
1001
ACME_LAYERS
1000
1
  0
ARC
  5
BFB
330
1F
100
AcDbEntity
  8
P-0000
  6
Continuous
 62
     7
100
AcDbCircle
 10
2714.698736505222
 20
1139.76583850472
 30
0.0
 40
3.322569572949122
100
AcDbArc
 50
60.62662060516513
 51
124.3842474680235
1001
ACME_LAYERS
1000
1
  0
ARC
  5
BFC
330
1F
100
AcDbEntity
  8
P-0000
  6
Continuous
 62
     7
100
AcDbCircle
 10
2703.440406256025
 20
1140.410977650619
 30
0.0
 40
3.322569572949876
100
AcDbArc
 50
235.6157525319475
 51
240.6266206051651
1001
ACME_LAYERS
1000
1
  0
ARC
  5
BFD
330
1F
100
AcDbEntity
  8
P-0000
  6
Continuous
 62
     7
100
AcDbCircle
 10
2703.440406256025
 20
1139.76583850472
 30
0.0
 40
3.322569572949888
100
AcDbArc
 50
55.61575253194753
 51
119.3733793948348
1001
ACME_LAYERS
1000
1
  0
ARC
  5
BFE
330
1F
100
AcDbEntity
  8
P-0000
  6
Continuous
 62
     7
100
AcDbCircle
 10
2714.698736505222
 20
1140.410977650619
 30
0.0
 40
3.322569572949872
100
AcDbArc
 50
235.6157525319764
 51
299.3733793948349
1001
ACME_LAYERS
1000
1
  0
ARC
  5
BFF
330
1F
100
AcDbEntity
  8
P-0000
  6
Continuous
 62
     7
100
AcDbCircle
 10
2714.698736505222
 20
1139.76583850472
 30
0.0
 40
3.322569572949884
100
AcDbArc
 50
55.61575253194753
 51
60.62662060516513
1001
ACME_LAYERS
1000
1
  0
ARC
  5
C00
330
1F
100
AcDbEntity
  8
P-0000
  6
Continuous
 62
     7
100
AcDbCircle
 10
2686.667647591977
 20
1131.488408077669
 30
0.0
 40
2.0
100
AcDbArc
 50
239.9999999999732
 51
270.0
1001
ACME_LAYERS
1000
1
  0
ARC
  5
C01
330
1F
100
AcDbEntity
  8
P-0000
  6
Continuous
 62
     7
100
AcDbCircle
 10
2692.912717131131
 20
1131.488408077669
 30
0.0
 40
2.000000000000397
100
AcDbArc
 50
270.0
 51
314.9999999999997
1001
ACME_LAYERS
1000
1
  0
ARC
  5
C02
330
1F
100
AcDbEntity
  8
P-0000
  6
Continuous
 62
     7
100
AcDbCircle
 10
2697.397998505371
 20
1127.488408077669
 30
0.0
 40
2.000000000000311
100
AcDbArc
 50
90.0
 51
134.9999999999997
1001
ACME_LAYERS
1000
1
  0
ARC
  5
C03
330
1F
100
AcDbEntity
  8
P-0000
  6
Continuous
 62
     7
100
AcDbCircle
 10
2720.741144255878
 20
1127.488408077669
 30
0.0
 40
2.0
100
AcDbArc
 50
45.00000000000027
 51
90.0
1001
ACME_LAYERS
1000
1
  0
ARC
  5
C04
330
1F
100
AcDbEntity
  8
P-0000
  6
Continuous
 62
     7
100
AcDbCircle
 10
2725.226425630118
 20
1131.488408077669
 30
0.0
 40
2.0
100
AcDbArc
 50
224.9999999999819
 51
270.0
1001
ACME_LAYERS
1000
1
  0
ARC
  5
C05
330
1F
100
AcDbEntity
  8
P-0000
  6
Continuous
 62
     7
100
AcDbCircle
 10
2731.47149516927
 20
1131.488408077669
 30
0.0
 40
1.999999999999425
100
AcDbArc
 50
270.0
 51
300.0000000000268
1001
ACME_LAYERS
1000
1
  0
ARC
  5
C06
330
1F
100
AcDbEntity
  8
P-0000
  6
Continuous
 62
     7
100
AcDbCircle
 10
2731.47149516927
 20
1131.488408077669
 30
0.0
 40
4.000000000000401
100
AcDbArc
 50
270.0
 51
300.0000000000008
1001
ACME_LAYERS
1000
1
  0
ARC
  5
C07
330
1F
100
AcDbEntity
  8
P-0000
  6
Continuous
 62
     7
100
AcDbCircle
 10
2720.741144255878
 20
1127.488408077669
 30
0.0
 40
4.0
100
AcDbArc
 50
45.00000000000027
 51
89.99999999997395
1001
ACME_LAYERS
1000
1
  0
HATCH
  5
C08
330
1F
100
AcDbEntity
  8
P-0000
  6
Continuous
 62
     3
100
AcDbHatch
 10
0.0
 20
0.0
 30
0.0
210
0.0
220
0.0
230
1.0
  2
_U
 70
     0
 71
     0
 91
        1
 92
        1
 93
       19
 72
     1
 10
2680.069571380625
 20
1132.98840807767
 11
2685.667647591977
 21
1129.756357270102
 72
     1
 10
2685.667647591977
 20
1129.756357270102
 11
2686.131749207115
 21
1129.48840807767
 72
     1
 10
2686.131749207115
 20
1129.48840807767
 11
2686.667647591977
 21
1129.48840807767
 72
     1
 10
2686.667647591977
 20
1129.48840807767
 11
2692.912717131131
 21
1129.48840807767
 72
     1
 10
2692.912717131131
 20
1129.48840807767
 11
2693.741144255878
 21
1129.48840807767
 72
     1
 10
2693.741144255878
 20
1129.48840807767
 11
2694.326930693505
 21
1130.074194515296
 72
     1
 10
2694.326930693505
 20
1130.074194515297
 11
2694.569571380625
 21
1130.316835202417
 72
     2
 10
2697.397998505371
 20
1127.488408077669
 40
4.000000000000613
 50
-135.0000000000008
 51
-90.00000000000001
 73
     0
 72
     1
 10
2697.397998505371
 20
1131.488408077669
 11
2704.069571380625
 21
1131.488408077669
 72
     1
 10
2704.069571380625
 20
1131.488408077669
 11
2704.069571380625
 21
1129.48840807767
 72
     1
 10
2704.069571380625
 20
1129.48840807767
 11
2697.397998505372
 21
1129.48840807767
 72
     1
 10
2697.397998505371
 20
1129.48840807767
 11
2696.569571380625
 21
1129.48840807767
 72
     1
 10
2696.569571380625
 20
1129.48840807767
 11
2695.983784942999
 21
1128.902621640043
 72
     1
 10
2695.983784942999
 20
1128.902621640043
 11
2695.741144255878
 21
1128.659980952925
 72
     2
 10
2692.912717131131
 20
1131.488408077669
 40
3.999999999999423
 50
44.99999999998222
 51
90.0
 73
     0
 72
     1
 10
2692.912717131131
 20
1127.488408077669
 11
2686.667647591977
 21
1127.488408077669
 72
     2
 10
2686.667647591977
 20
1131.488408077669
 40
4.0
 50
90.0
 51
119.9999999999965
 73
     0
 72
     1
 10
2684.667647591977
 20
1128.024306462532
 11
2679.069571380625
 21
1131.256357270102
 72
     1
 10
2679.069571380625
 20
1131.256357270102
 11
2680.069571380625
 21
1132.98840807767
 97
        0
 75
     0
 76
     0
 52
44.99999999999999
 41
3.0
 77
     0
 78
     1
 53
45.0
 43
0.0
 44
0.0
 45
-2.121320343559641
 46
2.121320343559641
 79
     0
 98
        1
 10
2652.102699395519
 20
1268.114373572045
1001
ACME_LAYERS
1000
1
1001
ACAD
1010
0.0
1020
0.0
1030
0.0
  0
HATCH
  5
C09
330
1F
100
AcDbEntity
  8
P-0000
  6
Continuous
 62
     3
100
AcDbHatch
 10
0.0
 20
0.0
 30
0.0
210
0.0
220
0.0
230
1.0
  2
_U
 70
     0
 71
     0
 91
        1
 92
        1
 93
       19
 72
     2
 10
2725.226425630118
 20
1131.488408077669
 40
2.0
 50
90.0
 51
135.0000000000351
 73
     0
 72
     1
 10
2723.812212067743
 20
1130.074194515297
 11
2723.569571380624
 21
1130.316835202417
 72
     2
 10
2720.741144255878
 20
1127.488408077669
 40
4.0
 50
404.9999999999991
 51
449.9999999999738
 73
     1
 72
     1
 10
2720.74114425588
 20
1131.488408077669
 11
2718.303541542652
 21
1131.488408077669
 72
     1
 10
2718.303541542652
 20
1131.488408077669
 11
2716.893213013793
 21
1131.488408077669
 72
     1
 10
2716.893213013793
 20
1131.488408077669
 11
2714.069571380625
 21
1131.488408077669
 72
     1
 10
2714.069571380625
 20
1131.488408077669
 11
2714.069571380625
 21
1129.48840807767
 72
     1
 10
2714.069571380625
 20
1129.48840807767
 11
2720.741144255878
 21
1129.48840807767
 72
     1
 10
2720.741144255878
 20
1129.48840807767
 11
2721.569571380625
 21
1129.48840807767
 72
     1
 10
2721.569571380625
 20
1129.48840807767
 11
2722.155357818251
 21
1128.902621640043
 72
     1
 10
2722.155357818251
 20
1128.902621640043
 11
2722.397998505372
 21
1128.659980952925
 72
     2
 10
2725.226425630118
 20
1131.488408077669
 40
4.0
 50
224.9999999999821
 51
270.0
 73
     1
 72
     1
 10
2725.226425630118
 20
1127.488408077669
 11
2731.47149516927
 21
1127.488408077669
 72
     2
 10
2731.47149516927
 20
1131.488408077669
 40
4.000000000000401
 50
270.0
 51
299.9999999999967
 73
     1
 72
     1
 10
2733.471495169271
 20
1128.024306462532
 11
2739.069571380623
 21
1131.256357270102
 72
     1
 10
2739.069571380623
 20
1131.256357270102
 11
2738.069571380625
 21
1132.98840807767
 72
     1
 10
2738.069571380625
 20
1132.98840807767
 11
2732.471495169271
 21
1129.756357270102
 72
     2
 10
2731.47149516927
 20
1131.488408077669
 40
1.999999999999425
 50
59.99999999999046
 51
90.0
 73
     0
 72
     1
 10
2731.47149516927
 20
1129.48840807767
 11
2725.226425630118
 21
1129.48840807767
 97
        0
 75
     0
 76
     0
 52
44.99999999999999
 41
5.0
 77
     0
 78
     1
 53
135.0
 43
2652.102699395519
 44
1268.114373572045
 45
3.535533905932736
 46
3.535533905932738
 79
     0
 98
        1
 10
2652.102699395519
 20
1268.114373572045
1001
ACME_LAYERS
1000
1
  0
LINE
  5
C0A
330
1F
100
AcDbEntity
  8
0
100
AcDbLine
 10
2713.069571380625
 20
1127.488408077669
 30
0.0
 11
2713.069571380625
 21
1133.488408077672
 31
0.0
  0
LINE
  5
C12
330
1F
100
AcDbEntity
  8
P-0000
  6
Continuous
 62
     7
100
AcDbLine
 10
2686.702429015082
 20
1127.488408077669
 30
0.0
 11
2692.947498554236
 21
1127.488408077669
 31
0.0
1001
ACME_LAYERS
1000
1
  0
LINE
  5
C13
330
1F
100
AcDbEntity
  8
P-0000
  6
Continuous
 62
     7
100
AcDbLine
 10
2731.47149516927
 20
1127.488408077669
 30
0.0
 11
2725.226425630116
 21
1127.488408077669
 31
0.0
1001
ACME_LAYERS
1000
1
  0
LINE
  5
C14
330
1F
100
AcDbEntity
  8
P-0000
  6
Continuous
 62
     7
100
AcDbLine
 10
2686.667647591975
 20
1127.488408077669
 30
0.0
 11
2692.912717131129
 21
1127.488408077669
 31
0.0
1001
ACME_LAYERS
1000
1
  0
LINE
  5
C1C
330
1F
100
AcDbEntity
  8
0
100
AcDbLine
 10
2713.126107824715
 20
1131.488408077669
 30
0.0
 11
2713.126107824715
 21
1118.282488172726
 31
0.0
  0
LINE
  5
C1D
330
1F
100
AcDbEntity
  8
0
100
AcDbLine
 10
2705.126107824716
 20
1131.488408077669
 30
0.0
 11
2705.126107824716
 21
1118.282488172726
 31
0.0
  0
HATCH
  5
C1F
330
1F
100
AcDbEntity
  8
P-3FF0
  6
Continuous
 62
     3
100
AcDbHatch
 10
0.0
 20
0.0
 30
0.0
210
0.0
220
0.0
230
1.0
  2
_U
 70
     0
 71
     0
 91
        1
 92
        1
 93
       37
 72
     1
 10
2741.793075808825
 20
1117.717314962584
 11
2743.207289371198
 21
1119.131528524958
 72
     1
 10
2743.207289371198
 20
1119.131528524958
 11
2742.504728126446
 21
1119.834089769709
 72
     2
 10
2739.676301001701
 20
1117.005662644963
 40
4.0
 50
404.9999999999993
 51
450.0
 73
     1
 72
     2
 10
2739.676301001701
 20
1117.005662644963
 40
3.999999999999721
 50
450.0
 51
479.9999999999984
 73
     1
 72
     1
 10
2737.6763010017
 20
1120.4697642601
 11
2734.239045992068
 21
1118.485264155015
 72
     2
 10
2733.239045992067
 20
1120.217314962584
 40
1.999999999999868
 50
59.99999999999786
 51
90.0
 73
     0
 72
     1
 10
2733.239045992067
 20
1118.217314962584
 11
2732.960842761791
 21
1118.217314962584
 72
     1
 10
2732.960842761791
 20
1118.217314962584
 11
2713.060842761791
 21
1118.217314962584
 72
     1
 10
2713.060842761791
 20
1118.217314962584
 11
2712.260842761792
 21
1118.217314962584
 72
     1
 10
2712.260842761792
 20
1118.217314962584
 11
2705.860842761791
 21
1118.217314962584
 72
     1
 10
2705.860842761791
 20
1118.217314962584
 11
2705.060842761791
 21
1118.217314962584
 72
     1
 10
2705.060842761791
 20
1118.217314962584
 11
2685.624944376929
 21
1118.217314962584
 72
     2
 10
2685.624944376929
 20
1120.217314962584
 40
2.0
 50
-270.0
 51
-239.9999999999979
 73
     0
 72
     1
 10
2684.624944376929
 20
1118.485264155015
 11
2679.172964402245
 21
1121.632966261014
 72
     2
 10
2677.375552582021
 20
1119.231027305018
 40
2.999999999970075
 50
413.1918656392357
 51
455.4802249851991
 73
     1
 72
     1
 10
2677.089045992065
 20
1122.217314962584
 11
2639.340709695011
 21
1122.217314962584
 72
     2
 10
2639.340709695011
 20
1116.217314962584
 40
6.000000000000177
 50
450.0
 51
502.9999999999994
 73
     1
 72
     1
 10
2634.548896634727
 20
1119.828205101496
 11
2628.817665211534
 21
1112.222604119838
 72
     2
 10
2632.810842761769
 20
1109.213529004078
 40
5.0
 50
502.9999999999976
 51
539.9999999999961
 73
     1
 72
     1
 10
2627.81084276177
 20
1109.213529004078
 11
2627.81084276177
 21
1105.217314962584
 72
     1
 10
2627.81084276177
 20
1105.217314962584
 11
2628.407373136595
 21
1105.217314962584
 72
     1
 10
2628.407373136595
 20
1105.217314962584
 11
2629.810842761769
 21
1106.620784587759
 72
     1
 10
2629.810842761769
 20
1106.620784587759
 11
2629.810842761769
 21
1109.213529004078
 72
     2
 10
2632.810842761769
 20
1109.213529004078
 40
3.0
 50
-180.0
 51
-142.9999999999997
 73
     0
 72
     1
 10
2630.414936231628
 20
1111.018974073534
 11
2634.332167062388
 21
1116.217314962584
 72
     1
 10
2634.332167062386
 20
1116.217314962584
 11
2636.146167654822
 21
1118.624575055192
 72
     2
 10
2639.340709695011
 20
1116.217314962584
 40
4.000000000000238
 50
-142.9999999999979
 51
-90.00000000000001
 73
     0
 72
     1
 10
2639.340709695011
 20
1120.217314962584
 11
2677.089045992065
 21
1120.217314962584
 72
     2
 10
2677.089045992065
 20
1118.217314962584
 40
2.0
 50
-90.00000000000001
 51
-60.00000000000715
 73
     0
 72
     1
 10
2678.089045992065
 20
1119.949365770153
 11
2683.624944376929
 21
1116.753213347446
 72
     2
 10
2685.624944376929
 20
1120.217314962584
 40
4.0
 50
600.0000000000092
 51
630.0
 73
     1
 72
     1
 10
2685.624944376929
 20
1116.217314962584
 11
2692.810842761792
 21
1116.217314962584
 72
     1
 10
2692.810842761792
 20
1116.217314962584
 11
2733.239045992067
 21
1116.217314962584
 72
     2
 10
2733.239045992067
 20
1120.217314962584
 40
3.999999999999785
 50
270.0000000000049
 51
300.0000000000018
 73
     1
 72
     1
 10
2735.239045992067
 20
1116.753213347446
 11
2738.6763010017
 21
1118.737713452531
 72
     2
 10
2739.676301001701
 20
1117.005662644963
 40
1.999999999999721
 50
-120.0000000000046
 51
-44.9999999999988
 73
     0
 72
     1
 10
2741.090514564073
 20
1118.419876207336
 11
2741.793075808825
 21
1117.717314962584
 97
        0
 75
     0
 76
     0
 52
44.99999999999999
 41
2.0
 77
     0
 78
     1
 53
135.0
 43
1884.831398820425
 44
720.4333345552639
 45
1.414213562373094
 46
1.414213562373094
 79
     0
 98
        1
 10
1884.831398820425
 20
720.4333345552639
1001
ACME_LAYERS
1000
1
  0
LINE
  5
C20
330
1F
100
AcDbEntity
  8
P-3FF0
  6
Continuous
 62
     7
100
AcDbLine
 10
2639.340709695011
 20
1120.217314962584
 30
0.0
 11
2677.089045992065
 21
1120.217314962584
 31
0.0
1001
ACME_LAYERS
1000
1
  0
HATCH
  5
C21
330
1F
100
AcDbEntity
  8
P-3FF0
  6
Continuous
 62
     3
100
AcDbHatch
 10
0.0
 20
0.0
 30
0.0
210
0.0
220
0.0
230
1.0
  2
_U
 70
     0
 71
     0
 91
        1
 92
        1
 93
        6
 72
     1
 10
2627.810842761779
 20
1049.219650557008
 11
2628.642346034269
 21
1050.141510091292
 72
     1
 10
2628.642346034269
 20
1050.141510091292
 11
2629.310842761769
 21
1051.217314962584
 72
     1
 10
2629.310842761769
 20
1051.217314962584
 11
2629.310842761769
 21
1103.652459668686
 72
     1
 10
2629.310842761769
 20
1103.652459668686
 11
2628.407373136595
 21
1105.217314962584
 72
     1
 10
2628.407373136595
 20
1105.217314962584
 11
2627.81084276177
 21
1105.217314962584
 72
     1
 10
2627.81084276177
 20
1105.217314962584
 11
2627.81084276177
 21
1049.219650556999
 97
        0
 75
     0
 76
     0
 52
-45.0
 41
2.0
 77
     0
 78
     1
 53
225.0
 43
1884.831398820425
 44
720.4333345552639
 45
-1.414213562373094
 46
1.414213562373094
 79
     0
 98
        1
 10
1884.831398820425
 20
720.4333345552639
1001
ACME_LAYERS
1000
1
  0
LINE
  5
C22
330
1F
100
AcDbEntity
  8
P-3FF0
  6
Continuous
 62
     7
100
AcDbLine
 10
2629.310842761769
 20
1051.217314962584
 30
0.0
 11
2629.310842761769
 21
1103.652459668686
 31
0.0
1001
ACME_LAYERS
1000
1
  0
LINE
  5
C23
330
1F
100
AcDbEntity
  8
P-3FF0
  6
Continuous
 62
     7
100
AcDbLine
 10
2627.81084276177
 20
1105.217314962584
 30
0.0
 11
2627.81084276177
 21
1049.219650556999
 31
0.0
1001
ACME_LAYERS
1000
1
  0
LINE
  5
C24
330
1F
100
AcDbEntity
  8
P-3FF0
  6
Continuous
 62
     7
100
AcDbLine
 10
2627.81084276177
 20
1109.213529004078
 30
0.0
 11
2627.81084276177
 21
1105.217314962584
 31
0.0
1001
ACME_LAYERS
1000
1
  0
ARC
  5
C25
330
1F
100
AcDbEntity
  8
P-3FF0
  6
Continuous
 62
     7
100
AcDbCircle
 10
2639.340709695011
 20
1116.217314962584
 30
0.0
 40
6.000000000000177
100
AcDbArc
 50
90.0
 51
143.000000000005
1001
ACME_LAYERS
1000
1
  0
LINE
  5
C26
330
1F
100
AcDbEntity
  8
P-3FF0
  6
Continuous
 62
     7
100
AcDbLine
 10
2634.332167062386
 20
1116.217314962584
 30
0.0
 11
2636.146167654822
 21
1118.624575055192
 31
0.0
1001
ACME_LAYERS
1000
1
  0
ARC
  5
C27
330
1F
100
AcDbEntity
  8
P-3FF0
  6
Continuous
 62
     7
100
AcDbCircle
 10
2639.340709695011
 20
1116.217314962584
 30
0.0
 40
4.000000000000238
100
AcDbArc
 50
90.0
 51
143.000000000005
1001
ACME_LAYERS
1000
1
  0
LINE
  5
C28
330
1F
100
AcDbEntity
  8
P-3FF0
  6
Continuous
 62
     7
100
AcDbLine
 10
2630.414936231628
 20
1111.018974073534
 30
0.0
 11
2634.332167062386
 21
1116.217314962584
 31
0.0
1001
ACME_LAYERS
1000
1
  0
LINE
  5
C29
330
1F
100
AcDbEntity
  8
P-3FF0
  6
Continuous
 62
     7
100
AcDbLine
 10
2628.817665211534
 20
1112.222604119838
 30
0.0
 11
2634.548896634727
 21
1119.828205101496
 31
0.0
1001
ACME_LAYERS
1000
1
  0
ARC
  5
C2A
330
1F
100
AcDbEntity
  8
P-3FF0
  6
Continuous
 62
     7
100
AcDbCircle
 10
2632.810842761769
 20
1109.213529004078
 30
0.0
 40
3.0
100
AcDbArc
 50
143.000000000005
 51
180.0
1001
ACME_LAYERS
1000
1
  0
ARC
  5
C2B
330
1F
100
AcDbEntity
  8
P-3FF0
  6
Continuous
 62
     7
100
AcDbCircle
 10
2632.810842761769
 20
1109.213529004078
 30
0.0
 40
5.0
100
AcDbArc
 50
143.000000000005
 51
179.9999999999935
1001
ACME_LAYERS
1000
1
  0
LINE
  5
C2C
330
1F
100
AcDbEntity
  8
P-3FF0
  6
Continuous
 62
     7
100
AcDbLine
 10
2629.810842761769
 20
1109.213529004078
 30
0.0
 11
2629.810842761769
 21
1106.620784587759
 31
0.0
1001
ACME_LAYERS
1000
1
  0
LINE
  5
C2D
330
1F
100
AcDbEntity
  8
0
100
AcDbLine
 10
2629.810842761769
 20
1106.620784587759
 30
0.0
 11
2629.310842761769
 21
1103.652459668686
 31
0.0
  0
LINE
  5
C2E
330
1F
100
AcDbEntity
  8
0
100
AcDbLine
 10
2627.81084276177
 20
1049.219650556999
 30
0.0
 11
2629.310842761769
 21
1049.219650556999
 31
0.0
  0
LINE
  5
C57
330
1F
100
AcDbEntity
  8
P-0000
  6
Continuous
 62
     7
100
AcDbLine
 10
2481.569571380624
 20
1133.488408077672
 30
0.0
 11
2486.980815782703
 21
1133.488408077672
 31
0.0
1001
ACME_LAYERS
1000
1
  0
LINE
  5
C5A
330
1F
100
AcDbEntity
  8
P-0000
  6
Continuous
 62
     7
100
AcDbLine
 10
2471.569571380624
 20
1133.488408077672
 30
0.0
 11
2481.569571380624
 21
1133.488408077672
 31
0.0
1001
ACME_LAYERS
1000
1
  0
LINE
  5
C5D
330
1F
100
AcDbEntity
  8
P-0000
  6
Continuous
 62
     7
100
AcDbLine
 10
2486.980815782703
 20
1133.488408077672
 30
0.0
 11
2488.980815782703
 21
1133.488408077672
 31
0.0
1001
ACME_LAYERS
1000
1
  0
LINE
  5
C61
330
1F
100
AcDbEntity
  8
P-0000
  6
Continuous
 62
     7
100
AcDbLine
 10
2462.569571380624
 20
1133.488408077672
 30
0.0
 11
2471.569571380624
 21
1133.488408077672
 31
0.0
1001
ACME_LAYERS
1000
1
  0
LINE
  5
D87
330
1F
100
AcDbEntity
  8
P-0000
  6
Continuous
 62
     7
100
AcDbLine
 10
2502.157809269826
 20
1132.98840807767
 30
0.0
 11
2506.603507383247
 21
1132.98840807767
 31
0.0
1001
ACME_LAYERS
1000
1
  0
LINE
  5
D88
330
1F
100
AcDbEntity
  8
P-0000
  6
Continuous
 62
     7
100
AcDbLine
 10
2519.157809269826
 20
1132.98840807767
 30
0.0
 11
2515.103507383249
 21
1132.98840807767
 31
0.0
1001
ACME_LAYERS
1000
1
  0
LINE
  5
D89
330
1F
100
AcDbEntity
  8
P-0000
  6
Continuous
 62
     7
100
AcDbLine
 10
2507.403507383248
 20
1132.98840807767
 30
0.0
 11
2515.103507383249
 21
1132.98840807767
 31
0.0
1001
ACME_LAYERS
1000
1
  0
LINE
  5
D8A
330
1F
100
AcDbEntity
  8
P-0000
  6
Continuous
 62
     7
100
AcDbLine
 10
2506.603507383247
 20
1132.98840807767
 30
0.0
 11
2507.403507383248
 21
1132.98840807767
 31
0.0
1001
ACME_LAYERS
1000
1
  0
LINE
  5
D9E
330
1F
100
AcDbEntity
  8
P-0000
  6
Continuous
 62
     7
100
AcDbLine
 10
2671.018178140287
 20
1143.471075770431
 30
0.0
 11
2671.018178140287
 21
1140.588408077668
 31
0.0
1001
ACME_LAYERS
1000
1
  0
LINE
  5
D9F
330
1F
100
AcDbEntity
  8
P-0000
  6
Continuous
 62
     3
100
AcDbLine
 10
2671.818178140287
 20
1143.009195555079
 30
0.0
 11
2671.818178140287
 21
1140.588408077668
 31
0.0
1001
ACME_LAYERS
1000
1
  0
LINE
  5
DA9
330
1F
100
AcDbEntity
  8
P-0000
  6
Continuous
 62
     7
100
AcDbLine
 10
2676.011105045489
 20
1140.588408077668
 30
0.0
 11
2671.818178140288
 21
1140.588408077668
 31
0.0
1001
ACME_LAYERS
1000
1
  0
LINE
  5
DAA
330
1F
100
AcDbEntity
  8
P-0000
  6
Continuous
 62
     7
100
AcDbLine
 10
2671.818178140288
 20
1140.588408077668
 30
0.0
 11
2671.018178140287
 21
1140.588408077668
 31
0.0
1001
ACME_LAYERS
1000
1
  0
LINE
  5
DAB
330
1F
100
AcDbEntity
  8
P-0000
  6
Continuous
 62
     7
100
AcDbLine
 10
2666.572480026867
 20
1134.488408077668
 30
0.0
 11
2666.572480026867
 21
1132.98840807767
 31
0.0
1001
ACME_LAYERS
1000
1
  0
LINE
  5
DAC
330
1F
100
AcDbEntity
  8
P-0000
  6
Continuous
 62
     7
100
AcDbLine
 10
2683.572480026866
 20
1132.98840807767
 30
0.0
 11
2683.572480026866
 21
1134.488408077668
 31
0.0
1001
ACME_LAYERS
1000
1
  0
LINE
  5
DAD
330
1F
100
AcDbEntity
  8
P-0000
  6
Continuous
 62
     7
100
AcDbLine
 10
2666.572480026867
 20
1134.588408077668
 30
0.0
 11
2666.572480026867
 21
1134.488408077668
 31
0.0
1001
ACME_LAYERS
1000
1
  0
LINE
  5
DAE
330
1F
100
AcDbEntity
  8
P-0000
  6
Continuous
 62
     7
100
AcDbLine
 10
2683.572480026866
 20
1134.588408077668
 30
0.0
 11
2666.572480026867
 21
1134.588408077668
 31
0.0
1001
ACME_LAYERS
1000
1
  0
LINE
  5
DAF
330
1F
100
AcDbEntity
  8
P-0000
  6
Continuous
 62
     7
100
AcDbLine
 10
2683.572480026866
 20
1134.488408077668
 30
0.0
 11
2683.572480026866
 21
1134.588408077668
 31
0.0
1001
ACME_LAYERS
1000
1
  0
LINE
  5
DB0
330
1F
100
AcDbEntity
  8
P-0000
  6
Continuous
 62
     7
100
AcDbLine
 10
2682.523731639753
 20
1136.475347269575
 30
0.0
 11
2682.523731639753
 21
1135.168964661268
 31
0.0
1001
ACME_LAYERS
1000
1
  0
LINE
  5
DB1
330
1F
100
AcDbEntity
  8
P-0000
  6
Continuous
 62
     7
100
AcDbLine
 10
2668.518178140286
 20
1134.588408077668
 30
0.0
 11
2681.518178140287
 21
1134.588408077668
 31
0.0
1001
ACME_LAYERS
1000
1
  0
LINE
  5
DB2
330
1F
100
AcDbEntity
  8
P-0000
  6
Continuous
 62
     7
100
AcDbLine
 10
2667.512624640822
 20
1136.475347269575
 30
0.0
 11
2667.512624640822
 21
1135.168964661268
 31
0.0
1001
ACME_LAYERS
1000
1
  0
LINE
  5
DB3
330
1F
100
AcDbEntity
  8
P-0000
  6
Continuous
 62
     7
100
AcDbLine
 10
2671.018178140287
 20
1140.588408077668
 30
0.0
 11
2668.518178140286
 21
1140.588408077668
 31
0.0
1001
ACME_LAYERS
1000
1
  0
LINE
  5
DB4
330
1F
100
AcDbEntity
  8
P-0000
  6
Continuous
 62
     7
100
AcDbLine
 10
2678.770954890019
 20
1136.475347269575
 30
0.0
 11
2678.770954890019
 21
1135.168964661268
 31
0.0
1001
ACME_LAYERS
1000
1
  0
LINE
  5
DB5
330
1F
100
AcDbEntity
  8
P-0000
  6
Continuous
 62
     7
100
AcDbLine
 10
2671.265401390555
 20
1136.475347269575
 30
0.0
 11
2671.265401390555
 21
1135.168964661268
 31
0.0
1001
ACME_LAYERS
1000
1
  0
LINE
  5
DB6
330
1F
100
AcDbEntity
  8
P-0000
  6
Continuous
 62
     7
100
AcDbLine
 10
2682.277060051097
 20
1135.015551643302
 30
0.0
 11
2681.518178140287
 21
1134.588408077668
 31
0.0
1001
ACME_LAYERS
1000
1
  0
LINE
  5
DB8
330
1F
100
AcDbEntity
  8
P-0000
  6
Continuous
 62
     7
100
AcDbLine
 10
2667.759296229479
 20
1135.015551643302
 30
0.0
 11
2668.518178140286
 21
1134.588408077668
 31
0.0
1001
ACME_LAYERS
1000
1
  0
LINE
  5
DB9
330
1F
100
AcDbEntity
  8
P-0000
  6
Continuous
 62
     7
100
AcDbLine
 10
2667.759296229479
 20
1140.161264512033
 30
0.0
 11
2668.518178140286
 21
1140.588408077668
 31
0.0
1001
ACME_LAYERS
1000
1
  0
LINE
  5
DBC
330
1F
100
AcDbEntity
  8
P-0000
  6
Continuous
 62
     7
100
AcDbLine
 10
2667.512624640822
 20
1140.007851494067
 30
0.0
 11
2667.512624640822
 21
1136.475347269575
 31
0.0
1001
ACME_LAYERS
1000
1
  0
LINE
  5
DBD
330
1F
100
AcDbEntity
  8
P-0000
  6
Continuous
 62
     7
100
AcDbLine
 10
2671.265401390555
 20
1140.007851494067
 30
0.0
 11
2671.265401390555
 21
1136.475347269575
 31
0.0
1001
ACME_LAYERS
1000
1
  0
LINE
  5
DBE
330
1F
100
AcDbEntity
  8
P-0000
  6
Continuous
 62
     7
100
AcDbLine
 10
2678.770954890019
 20
1138.995008027006
 30
0.0
 11
2678.770954890019
 21
1136.475347269575
 31
0.0
1001
ACME_LAYERS
1000
1
  0
LINE
  5
DBF
330
1F
100
AcDbEntity
  8
P-0000
  6
Continuous
 62
     7
100
AcDbLine
 10
2682.523731639753
 20
1136.828341360339
 30
0.0
 11
2682.523731639753
 21
1136.475347269575
 31
0.0
1001
ACME_LAYERS
1000
1
  0
LINE
  5
DC0
330
1F
100
AcDbEntity
  8
P-0000
  6
Continuous
 62
     7
100
AcDbLine
 10
2666.572480026867
 20
1132.98840807767
 30
0.0
 11
2671.018178140287
 21
1132.98840807767
 31
0.0
1001
ACME_LAYERS
1000
1
  0
LINE
  5
DC1
330
1F
100
AcDbEntity
  8
P-0000
  6
Continuous
 62
     7
100
AcDbLine
 10
2683.572480026866
 20
1132.98840807767
 30
0.0
 11
2679.518178140289
 21
1132.98840807767
 31
0.0
1001
ACME_LAYERS
1000
1
  0
LINE
  5
DC2
330
1F
100
AcDbEntity
  8
P-0000
  6
Continuous
 62
     7
100
AcDbLine
 10
2671.818178140288
 20
1132.98840807767
 30
0.0
 11
2679.518178140289
 21
1132.98840807767
 31
0.0
1001
ACME_LAYERS
1000
1
  0
LINE
  5
DC3
330
1F
100
AcDbEntity
  8
P-0000
  6
Continuous
 62
     7
100
AcDbLine
 10
2671.018178140287
 20
1132.98840807767
 30
0.0
 11
2671.818178140288
 21
1132.98840807767
 31
0.0
1001
ACME_LAYERS
1000
1
  0
ARC
  5
DC4
330
1F
100
AcDbEntity
  8
P-0000
  6
Continuous
 62
     7
100
AcDbCircle
 10
2675.018178140286
 20
1147.007851494067
 30
0.0
 40
12.41944341639904
100
AcDbArc
 50
252.4120462260099
 51
287.5879537739901
1001
ACME_LAYERS
1000
1
  0
ARC
  5
DC5
330
1F
100
AcDbEntity
  8
P-0000
  6
Continuous
 62
     7
100
AcDbCircle
 10
2675.018178140286
 20
1128.168964661268
 30
0.0
 40
12.41944341639904
100
AcDbArc
 50
85.04168193072656
 51
107.5879537739901
1001
ACME_LAYERS
1000
1
  0
ARC
  5
DC6
330
1F
100
AcDbEntity
  8
P-0000
  6
Continuous
 62
     7
100
AcDbCircle
 10
2680.647343264886
 20
1137.910977650617
 30
0.0
 40
3.322569572950221
100
AcDbArc
 50
235.6157525319475
 51
299.3733793948349
1001
ACME_LAYERS
1000
1
  0
ARC
  5
DC8
330
1F
100
AcDbEntity
  8
P-0000
  6
Continuous
 62
     7
100
AcDbCircle
 10
2669.389013015689
 20
1137.910977650617
 30
0.0
 40
3.322569572950221
100
AcDbArc
 50
235.6157525319475
 51
240.6266206051651
1001
ACME_LAYERS
1000
1
  0
ARC
  5
DC9
330
1F
100
AcDbEntity
  8
P-0000
  6
Continuous
 62
     7
100
AcDbCircle
 10
2669.389013015689
 20
1137.265838504718
 30
0.0
 40
3.322569572949122
100
AcDbArc
 50
55.6157525319764
 51
119.3733793948348
1001
ACME_LAYERS
1000
1
  0
ARC
  5
DCA
330
1F
100
AcDbEntity
  8
P-0000
  6
Continuous
 62
     7
100
AcDbCircle
 10
2680.647343264886
 20
1137.910977650617
 30
0.0
 40
3.322569572949876
100
AcDbArc
 50
299.3733793948349
 51
304.3842474680524
1001
ACME_LAYERS
1000
1
  0
ARC
  5
DCC
330
1F
100
AcDbEntity
  8
P-0000
  6
Continuous
 62
     7
100
AcDbCircle
 10
2669.389013015689
 20
1137.910977650617
 30
0.0
 40
3.322569572949872
100
AcDbArc
 50
240.6266206051651
 51
304.3842474680237
1001
ACME_LAYERS
1000
1
  0
ARC
  5
DCD
330
1F
100
AcDbEntity
  8
P-0000
  6
Continuous
 62
     7
100
AcDbCircle
 10
2669.389013015689
 20
1137.265838504718
 30
0.0
 40
3.322569572949884
100
AcDbArc
 50
119.3733793948348
 51
124.3842474680525
1001
ACME_LAYERS
1000
1
  0
LINE
  5
1962
330
1F
100
AcDbEntity
  8
P-0000
  6
Continuous
 62
     7
100
AcDbLine
 10
2592.810842761764
 20
803.9502261204678
 30
0.0
 11
2592.810842761767
 21
803.9502261204678
 31
0.0
1001
ACME_LAYERS
1000
1
  0
LINE
  5
1D9C
330
1F
100
AcDbEntity
  8
P-0000
  6
STRICHPUNKT
 62
     3
100
AcDbLine
 10
2592.810842761767
 20
811.9502261204678
 30
0.0
 11
2592.810842761767
 21
785.4502261204677
 31
0.0
1001
ACME_LAYERS
1000
1
  0
HATCH
  5
2012
330
1F
100
AcDbEntity
  8
P-0000
  6
Continuous
 62
     1
100
AcDbHatch
 10
0.0
 20
0.0
 30
0.0
210
0.0
220
0.0
230
1.0
  2
_U
 70
     0
 71
     0
 91
        1
 92
        1
 93
       16
 72
     1
 10
2677.319571380632
 20
1152.482756779241
 11
2677.319571380632
 21
1152.433585196259
 72
     1
 10
2677.319571380632
 20
1152.433585196259
 11
2677.819571380632
 21
1152.433585196259
 72
     1
 10
2677.819571380632
 20
1152.433585196259
 11
2677.819571380631
 21
1150.482756779241
 72
     1
 10
2677.819571380631
 20
1150.482756779241
 11
2684.880462548946
 21
1150.482756779241
 72
     2
 10
2684.880462548946
 20
1149.982756779241
 40
0.5
 50
270.0
 51
360.0
 73
     0
 72
     1
 10
2685.380462548947
 20
1149.982756779241
 11
2685.380462548947
 21
1137.488408077672
 72
     2
 10
2689.380462548947
 20
1137.488408077672
 40
4.000000000000068
 50
180.0
 51
270.0
 73
     1
 72
     1
 10
2689.380462548947
 20
1133.488408077672
 11
2704.069571380624
 21
1133.488408077672
 72
     1
 10
2704.069571380624
 20
1133.488408077672
 11
2704.069571380624
 21
1135.488408077672
 72
     1
 10
2704.069571380624
 20
1135.488408077672
 11
2689.319571380632
 21
1135.488408077672
 72
     2
 10
2689.319571380632
 20
1137.488408077672
 40
1.999999999999999
 50
90.0
 51
180.0
 73
     0
 72
     1
 10
2687.319571380632
 20
1137.488408077672
 11
2687.319571380632
 21
1154.982756779241
 72
     1
 10
2687.319571380632
 20
1154.982756779241
 11
2685.319571380632
 21
1154.982756779241
 72
     1
 10
2685.319571380632
 20
1154.982756779241
 11
2685.319571380632
 21
1152.982756779241
 72
     2
 10
2684.819571380633
 20
1152.982756779241
 40
0.5
 50
360.0
 51
450.0
 73
     0
 72
     1
 10
2684.819571380633
 20
1152.482756779241
 11
2677.319571380632
 21
1152.482756779241
 97
        0
 75
     0
 76
     0
 52
-45.0
 41
2.0
 77
     0
 78
     1
 53
315.0
 43
2718.258680212317
 44
644.0670884361431
 45
1.414213562373094
 46
1.414213562373094
 79
     0
 98
        1
 10
2718.258680212317
 20
644.0670884361431
1001
ACME_LAYERS
1000
1
  0
LINE
  5
2013
330
1F
100
AcDbEntity
  8
P-0000
  6
Continuous
 62
     7
100
AcDbLine
 10
2657.319571380624
 20
1154.982756779241
 30
0.0
 11
2660.095274395496
 21
1154.982756779241
 31
0.0
1001
ACME_LAYERS
1000
1
  0
LINE
  5
2014
330
1F
100
AcDbEntity
  8
P-0000
  6
Continuous
 62
     7
100
AcDbLine
 10
2658.873590386562
 20
1150.482756779241
 30
0.0
 11
2687.380462548947
 21
1134.024306462534
 31
0.0
1001
ACME_LAYERS
1000
1
  0
LINE
  5
2015
330
1F
100
AcDbEntity
  8
P-0000
  6
Continuous
 62
     7
100
AcDbLine
 10
2684.880462548946
 20
1150.482756779241
 30
0.0
 11
2677.819571380631
 21
1150.482756779241
 31
0.0
1001
ACME_LAYERS
1000
1
  0
LINE
  5
2016
330
1F
100
AcDbEntity
  8
P-0000
  6
Continuous
 62
     7
100
AcDbLine
 10
2677.319571380632
 20
1152.482756779241
 30
0.0
 11
2684.819571380633
 21
1152.482756779241
 31
0.0
1001
ACME_LAYERS
1000
1
  0
LINE
  5
2019
330
1F
100
AcDbEntity
  8
P-0000
  6
Continuous
 62
     7
100
AcDbLine
 10
2592.329331612353
 20
1154.982756779241
 30
0.0
 11
2657.319571380624
 21
1154.982756779241
 31
0.0
1001
ACME_LAYERS
1000
1
  0
LINE
  5
201A
330
1F
100
AcDbEntity
  8
P-0000
  6
Continuous
 62
     7
100
AcDbLine
 10
2592.329331612353
 20
1152.482756779241
 30
0.0
 11
2647.319571380633
 21
1152.482756779241
 31
0.0
1001
ACME_LAYERS
1000
1
  0
LINE
  5
201B
330
1F
100
AcDbEntity
  8
P-0000
  6
Continuous
 62
     7
100
AcDbLine
 10
2532.302114142912
 20
1150.482756779242
 30
0.0
 11
2653.319571380624
 21
1150.482756779241
 31
0.0
1001
ACME_LAYERS
1000
1
  0
LINE
  5
201D
330
1F
100
AcDbEntity
  8
P-0000
  6
Continuous
 62
     7
100
AcDbLine
 10
2602.31957138064
 20
1132.98840807767
 30
0.0
 11
2602.31957138064
 21
1150.482756779241
 31
0.0
1001
ACME_LAYERS
1000
1
  0
LINE
  5
2020
330
1F
100
AcDbEntity
  8
P-0000
  6
Continuous
 62
     7
100
AcDbLine
 10
2593.329331612369
 20
1152.482756779241
 30
0.0
 11
2602.311587188169
 21
1152.482756779241
 31
0.0
1001
ACME_LAYERS
1000
1
  0
LINE
  5
2023
330
1F
100
AcDbEntity
  8
P-0000
  6
Continuous
 62
     7
100
AcDbLine
 10
2592.329331612369
 20
1152.482756779241
 30
0.0
 11
2593.329331612369
 21
1152.482756779241
 31
0.0
1001
ACME_LAYERS
1000
1
  0
LINE
  5
2025
330
1F
100
AcDbEntity
  8
P-0000
  6
Continuous
 62
     7
100
AcDbLine
 10
2592.30981114891
 20
1147.482756779241
 30
0.0
 11
2592.309811148914
 21
1147.482756779241
 31
0.0
1001
ACME_LAYERS
1000
1
  0
LINE
  5
2026
330
1F
100
AcDbEntity
  8
P-0000
  6
Continuous
 62
     7
100
AcDbLine
 10
2592.329331612367
 20
1147.482756779241
 30
0.0
 11
2592.32933161237
 21
1147.482756779241
 31
0.0
1001
ACME_LAYERS
1000
1
  0
HATCH
  5
202D
330
1F
100
AcDbEntity
  8
P-0000
  6
Continuous
 62
     1
100
AcDbHatch
 10
0.0
 20
0.0
 30
0.0
210
0.0
220
0.0
230
1.0
  2
_U
 70
     0
 71
     0
 91
        1
 92
        1
 93
       11
 72
     1
 10
2657.819571380624
 20
1152.482756779241
 11
2669.319571380632
 21
1152.482756779241
 72
     1
 10
2669.319571380632
 20
1152.482756779241
 11
2669.319571380632
 21
1150.482756779241
 72
     1
 10
2669.319571380632
 20
1150.482756779241
 11
2658.873590386562
 21
1150.482756779241
 72
     1
 10
2658.873590386562
 20
1150.482756779241
 11
2653.319571380624
 21
1150.482756779241
 72
     1
 10
2653.319571380624
 20
1150.482756779241
 11
2653.319571380624
 21
1152.482756779241
 72
     1
 10
2653.319571380624
 20
1152.482756779241
 11
2654.819571380624
 21
1152.482756779241
 72
     2
 10
2654.819571380624
 20
1152.982756779241
 40
0.5
 50
-90.00000000000001
 51
-0.0000000000000127
 73
     1
 72
     1
 10
2655.319571380624
 20
1152.982756779241
 11
2655.319571380624
 21
1154.982756779241
 72
     1
 10
2655.319571380624
 20
1154.982756779241
 11
2657.319571380624
 21
1154.982756779241
 72
     1
 10
2657.319571380624
 20
1154.982756779241
 11
2657.319571380624
 21
1152.982756779241
 72
     2
 10
2657.819571380624
 20
1152.982756779241
 40
0.5
 50
180.0
 51
270.0
 73
     1
 97
        0
 75
     0
 76
     0
 52
-45.0
 41
2.0
 77
     0
 78
     1
 53
315.0
 43
2363.639976095535
 44
1213.027147651819
 45
1.414213562373094
 46
1.414213562373094
 79
     0
 98
        1
 10
2718.258680212317
 20
644.0670884361431
1001
ACME_LAYERS
1000
1
  0
LINE
  5
202E
330
1F
100
AcDbEntity
  8
P-0000
  6
Continuous
 62
     7
100
AcDbLine
 10
2657.819571380624
 20
1152.482756779241
 30
0.0
 11
2669.319571380632
 21
1152.482756779241
 31
0.0
1001
ACME_LAYERS
1000
1
  0
LINE
  5
202F
330
1F
100
AcDbEntity
  8
P-0000
  6
Continuous
 62
     7
100
AcDbLine
 10
2653.319571380624
 20
1150.482756779241
 30
0.0
 11
2658.873590386562
 21
1150.482756779241
 31
0.0
1001
ACME_LAYERS
1000
1
  0
LINE
  5
2030
330
1F
100
AcDbEntity
  8
P-0000
  6
Continuous
 62
     7
100
AcDbLine
 10
2647.319571380633
 20
1152.482756779241
 30
0.0
 11
2653.319571380624
 21
1152.482756779241
 31
0.0
1001
ACME_LAYERS
1000
1
  0
LINE
  5
2031
330
1F
100
AcDbEntity
  8
P-0000
  6
Continuous
 62
     7
100
AcDbLine
 10
2653.319571380624
 20
1150.482756779241
 30
0.0
 11
2653.319571380624
 21
1152.482756779241
 31
0.0
1001
ACME_LAYERS
1000
1
  0
LINE
  5
2032
330
1F
100
AcDbEntity
  8
P-0000
  6
Continuous
 62
     7
100
AcDbLine
 10
2653.319571380624
 20
1152.482756779241
 30
0.0
 11
2654.819571380624
 21
1152.482756779241
 31
0.0
1001
ACME_LAYERS
1000
1
  0
LINE
  5
2033
330
1F
100
AcDbEntity
  8
P-0000
  6
Continuous
 62
     7
100
AcDbLine
 10
2657.319571380624
 20
1152.982756779241
 30
0.0
 11
2657.319571380624
 21
1154.982756779241
 31
0.0
1001
ACME_LAYERS
1000
1
  0
LINE
  5
2034
330
1F
100
AcDbEntity
  8
P-0000
  6
Continuous
 62
     7
100
AcDbLine
 10
2655.319571380624
 20
1152.982756779241
 30
0.0
 11
2655.319571380624
 21
1154.982756779241
 31
0.0
1001
ACME_LAYERS
1000
1
  0
LINE
  5
2035
330
1F
100
AcDbEntity
  8
P-0000
  6
Continuous
 62
     7
100
AcDbLine
 10
2657.319571380624
 20
1154.982756779241
 30
0.0
 11
2655.319571380624
 21
1154.982756779241
 31
0.0
1001
ACME_LAYERS
1000
1
  0
ARC
  5
2036
330
1F
100
AcDbEntity
  8
P-0000
  6
Continuous
 62
     7
100
AcDbCircle
 10
2657.819571380624
 20
1152.982756779241
 30
0.0
 40
0.5
100
AcDbArc
 50
180.0
 51
270.0
1001
ACME_LAYERS
1000
1
  0
ARC
  5
2037
330
1F
100
AcDbEntity
  8
P-0000
  6
Continuous
 62
     7
100
AcDbCircle
 10
2654.819571380624
 20
1152.982756779241
 30
0.0
 40
0.5
100
AcDbArc
 50
270.0
 51
0.0
1001
ACME_LAYERS
1000
1
  0
LINE
  5
2038
330
1F
100
AcDbEntity
  8
P-0000
  6
Continuous
 62
     7
100
AcDbLine
 10
2673.030401985693
 20
1150.482756779241
 30
0.0
 11
2669.319571380632
 21
1150.482756779241
 31
0.0
1001
ACME_LAYERS
1000
1
  0
LINE
  5
2039
330
1F
100
AcDbEntity
  8
P-0000
  6
Continuous
 62
     7
100
AcDbLine
 10
2669.319571380632
 20
1152.482756779241
 30
0.0
 11
2677.319571380632
 21
1152.482756779241
 31
0.0
1001
ACME_LAYERS
1000
1
  0
LINE
  5
203A
330
1F
100
AcDbEntity
  8
P-0000
  6
Continuous
 62
     7
100
AcDbLine
 10
2669.319571380632
 20
1150.482756779241
 30
0.0
 11
2658.873590386562
 21
1150.482756779241
 31
0.0
1001
ACME_LAYERS
1000
1
  0
LINE
  5
203B
330
1F
100
AcDbEntity
  8
P-0000
  6
Continuous
 62
     7
100
AcDbLine
 10
2669.319571380632
 20
1152.482756779241
 30
0.0
 11
2669.319571380632
 21
1150.482756779241
 31
0.0
1001
ACME_LAYERS
1000
1
  0
LINE
  5
203C
330
1F
100
AcDbEntity
  8
P-0000
  6
Continuous
 62
     7
100
AcDbLine
 10
2674.829331612354
 20
1152.482756779241
 30
0.0
 11
2675.829331612354
 21
1152.482756779241
 31
0.0
1001
ACME_LAYERS
1000
1
  0
LINE
  5
203D
330
1F
100
AcDbEntity
  8
P-0000
  6
Continuous
 62
     7
100
AcDbLine
 10
2674.829331612354
 20
1152.482756779241
 30
0.0
 11
2675.829331612354
 21
1152.482756779241
 31
0.0
1001
ACME_LAYERS
1000
1
  0
LINE
  5
203F
330
1F
100
AcDbEntity
  8
P-0000
  6
Continuous
 62
     7
100
AcDbLine
 10
2714.069571380623
 20
1135.488408077672
 30
0.0
 11
2704.069571380624
 21
1135.488408077672
 31
0.0
1001
ACME_LAYERS
1000
1
  0
LINE
  5
2040
330
1F
100
AcDbEntity
  8
P-0000
  6
Continuous
 62
     7
100
AcDbLine
 10
2714.069571380623
 20
1133.488408077672
 30
0.0
 11
2704.069571380624
 21
1133.488408077672
 31
0.0
1001
ACME_LAYERS
1000
1
  0
LINE
  5
2041
330
1F
100
AcDbEntity
  8
P-0000
  6
Continuous
 62
     7
100
AcDbLine
 10
2685.380462548947
 20
1137.488408077672
 30
0.0
 11
2685.380462548947
 21
1149.982756779241
 31
0.0
1001
ACME_LAYERS
1000
1
  0
LINE
  5
2042
330
1F
100
AcDbEntity
  8
P-0000
  6
Continuous
 62
     7
100
AcDbLine
 10
2687.319571380632
 20
1137.488408077672
 30
0.0
 11
2687.319571380632
 21
1152.482756779241
 31
0.0
1001
ACME_LAYERS
1000
1
  0
LINE
  5
2043
330
1F
100
AcDbEntity
  8
P-0000
  6
Continuous
 62
     7
100
AcDbLine
 10
2697.131263178186
 20
1135.488408077672
 30
0.0
 11
2687.319571380632
 21
1152.482756779241
 31
0.0
1001
ACME_LAYERS
1000
1
  0
LINE
  5
2044
330
1F
100
AcDbEntity
  8
P-0000
  6
Continuous
 62
     7
100
AcDbLine
 10
2687.319571380632
 20
1154.982756779241
 30
0.0
 11
2685.319571380632
 21
1154.982756779241
 31
0.0
1001
ACME_LAYERS
1000
1
  0
LINE
  5
2045
330
1F
100
AcDbEntity
  8
P-0000
  6
Continuous
 62
     7
100
AcDbLine
 10
2685.319571380632
 20
1154.982756779241
 30
0.0
 11
2685.319571380632
 21
1152.982756779241
 31
0.0
1001
ACME_LAYERS
1000
1
  0
ARC
  5
2046
330
1F
100
AcDbEntity
  8
P-0000
  6
Continuous
 62
     7
100
AcDbCircle
 10
2684.819571380633
 20
1152.982756779241
 30
0.0
 40
0.5
100
AcDbArc
 50
270.0
 51
0.0
1001
ACME_LAYERS
1000
1
  0
ARC
  5
2047
330
1F
100
AcDbEntity
  8
P-0000
  6
Continuous
 62
     7
100
AcDbCircle
 10
2684.880462548946
 20
1149.982756779241
 30
0.0
 40
0.5
100
AcDbArc
 50
0.0
 51
90.0
1001
ACME_LAYERS
1000
1
  0
LINE
  5
2048
330
1F
100
AcDbEntity
  8
P-0000
  6
Continuous
 62
     7
100
AcDbLine
 10
2687.319571380632
 20
1154.982756779241
 30
0.0
 11
2687.319571380632
 21
1152.482756779241
 31
0.0
1001
ACME_LAYERS
1000
1
  0
LINE
  5
2049
330
1F
100
AcDbEntity
  8
P-0000
  6
Continuous
 62
     7
100
AcDbLine
 10
2697.131263178186
 20
1135.488408077672
 30
0.0
 11
2689.319571380632
 21
1135.488408077672
 31
0.0
1001
ACME_LAYERS
1000
1
  0
LINE
  5
204A
330
1F
100
AcDbEntity
  8
P-0000
  6
Continuous
 62
     7
100
AcDbLine
 10
2704.069571380624
 20
1133.488408077672
 30
0.0
 11
2689.380462548947
 21
1133.488408077672
 31
0.0
1001
ACME_LAYERS
1000
1
  0
ARC
  5
204B
330
1F
100
AcDbEntity
  8
P-0000
  6
Continuous
 62
     7
100
AcDbCircle
 10
2689.319571380632
 20
1137.488408077672
 30
0.0
 40
2.0
100
AcDbArc
 50
180.0
 51
270.0
1001
ACME_LAYERS
1000
1
  0
ARC
  5
204C
330
1F
100
AcDbEntity
  8
P-0000
  6
Continuous
 62
     7
100
AcDbCircle
 10
2689.380462548947
 20
1137.488408077672
 30
0.0
 40
4.0
100
AcDbArc
 50
180.0
 51
239.9999999999999
1001
ACME_LAYERS
1000
1
  0
ARC
  5
204D
330
1F
100
AcDbEntity
  8
P-0000
  6
Continuous
 62
     7
100
AcDbCircle
 10
2689.380462548947
 20
1137.488408077672
 30
0.0
 40
4.000000000000031
100
AcDbArc
 50
239.9999999999999
 51
270.0
1001
ACME_LAYERS
1000
1
  0
LINE
  5
204E
330
1F
100
AcDbEntity
  8
P-0000
  6
Continuous
 62
     7
100
AcDbLine
 10
2704.069571380624
 20
1135.488408077672
 30
0.0
 11
2697.131263178186
 21
1135.488408077672
 31
0.0
1001
ACME_LAYERS
1000
1
  0
LINE
  5
204F
330
1F
100
AcDbEntity
  8
P-0000
  6
Continuous
 62
     7
100
AcDbLine
 10
2704.069571380624
 20
1133.488408077672
 30
0.0
 11
2704.069571380624
 21
1135.488408077672
 31
0.0
1001
ACME_LAYERS
1000
1
  0
LINE
  5
2050
330
1F
100
AcDbEntity
  8
AM_7
  6
AM_DIN_G_W050x2
100
AcDbLine
 10
2709.069571380624
 20
1127.488408077672
 30
0.0
 11
2709.069571380624
 21
1141.488408077672
 31
0.0
1001
ACME_LAYERS
1000
1
  0
HATCH
  5
2051
330
1F
100
AcDbEntity
  8
P-0000
  6
Continuous
 62
     1
100
AcDbHatch
 10
0.0
 20
0.0
 30
0.0
210
0.0
220
0.0
230
1.0
  2
_U
 70
     0
 71
     0
 91
        1
 92
        1
 93
        4
 72
     1
 10
2719.069571380624
 20
1133.488408077672
 11
2714.069571380623
 21
1133.488408077672
 72
     1
 10
2714.069571380623
 20
1133.488408077672
 11
2714.069571380623
 21
1135.488408077672
 72
     1
 10
2714.069571380623
 20
1135.488408077672
 11
2719.069571380624
 21
1135.488408077672
 72
     1
 10
2719.069571380624
 20
1135.488408077672
 11
2719.069571380624
 21
1133.488408077672
 97
        0
 75
     0
 76
     0
 52
-45.0
 41
2.0
 77
     0
 78
     1
 53
315.0
 43
2718.258680212317
 44
644.0670884361431
 45
1.414213562373094
 46
1.414213562373094
 79
     0
 98
        1
 10
2718.258680212317
 20
644.0670884361431
1001
ACME_LAYERS
1000
1
  0
LINE
  5
2052
330
1F
100
AcDbEntity
  8
P-0000
  6
Continuous
 62
     7
100
AcDbLine
 10
2719.069571380624
 20
1135.488408077672
 30
0.0
 11
2714.069571380623
 21
1135.488408077672
 31
0.0
1001
ACME_LAYERS
1000
1
  0
LINE
  5
2053
330
1F
100
AcDbEntity
  8
P-0000
  6
Continuous
 62
     7
100
AcDbLine
 10
2719.069571380624
 20
1133.488408077672
 30
0.0
 11
2714.069571380623
 21
1133.488408077672
 31
0.0
1001
ACME_LAYERS
1000
1
  0
LINE
  5
2054
330
1F
100
AcDbEntity
  8
P-0000
  6
Continuous
 62
     7
100
AcDbLine
 10
2714.069571380623
 20
1133.488408077672
 30
0.0
 11
2714.069571380623
 21
1135.488408077672
 31
0.0
1001
ACME_LAYERS
1000
1
  0
LINE
  5
2055
330
1F
100
AcDbEntity
  8
P-0000
  6
Continuous
 62
     7
100
AcDbLine
 10
2719.069571380624
 20
1133.488408077672
 30
0.0
 11
2719.069571380624
 21
1135.488408077672
 31
0.0
1001
ACME_LAYERS
1000
1
  0
LINE
  5
2056
330
1F
100
AcDbEntity
  8
P-0000
  6
Continuous
 62
     7
100
AcDbLine
 10
2593.819571380632
 20
1194.433585196259
 30
0.0
 11
2593.819571380632
 21
1158.433585196259
 31
0.0
1001
ACME_LAYERS
1000
1
  0
LINE
  5
2057
330
1F
100
AcDbEntity
  8
P-0000
  6
Continuous
 62
     7
100
AcDbLine
 10
2668.767241791612
 20
1177.002714395548
 30
0.0
 11
2669.746031007897
 21
1174.3135131254
 31
0.0
1001
ACME_LAYERS
1000
1
  0
LINE
  5
2058
330
1F
100
AcDbEntity
  8
P-0000
  6
Continuous
 62
     7
100
AcDbLine
 10
2660.095274395497
 20
1158.433585196259
 30
0.0
 11
2646.992345961912
 21
1194.433585196259
 31
0.0
1001
ACME_LAYERS
1000
1
  0
LINE
  5
2059
330
1F
100
AcDbEntity
  8
P-0000
  6
Continuous
 62
     7
100
AcDbLine
 10
2593.819571380632
 20
1200.403234295891
 30
0.0
 11
2644.819571380632
 21
1200.403234295891
 31
0.0
1001
ACME_LAYERS
1000
1
  0
LINE
  5
205A
330
1F
100
AcDbEntity
  8
P-0000
  6
Continuous
 62
     7
100
AcDbLine
 10
2593.819571380632
 20
1200.403234295891
 30
0.0
 11
2644.819571380632
 21
1200.403234295891
 31
0.0
1001
ACME_LAYERS
1000
1
  0
LINE
  5
205B
330
1F
100
AcDbEntity
  8
P-0000
  6
Continuous
 62
     7
100
AcDbLine
 10
2640.189564302181
 20
1232.433585196259
 30
0.0
 11
2633.161477059795
 21
1232.433585196259
 31
0.0
1001
ACME_LAYERS
1000
1
  0
LINE
  5
205C
330
1F
100
AcDbEntity
  8
P-0000
  6
Continuous
 62
     7
100
AcDbLine
 10
2645.819571380632
 20
1194.433585196259
 30
0.0
 11
2593.819571380632
 21
1194.433585196259
 31
0.0
1001
ACME_LAYERS
1000
1
  0
LINE
  5
205D
330
1F
100
AcDbEntity
  8
P-0000
  6
Continuous
 62
     7
100
AcDbLine
 10
2638.621030573789
 20
1217.433585196258
 30
0.0
 11
2596.423734436666
 21
1217.433585196258
 31
0.0
1001
ACME_LAYERS
1000
1
  0
LINE
  5
205E
330
1F
100
AcDbEntity
  8
P-0000
  6
Continuous
 62
     7
100
AcDbLine
 10
2593.819571380632
 20
1217.433585196258
 30
0.0
 11
2593.819571380632
 21
1200.403234295891
 31
0.0
1001
ACME_LAYERS
1000
1
  0
LINE
  5
205F
330
1F
100
AcDbEntity
  8
P-0000
  6
Continuous
 62
     7
100
AcDbLine
 10
2631.033121514844
 20
1232.433585196259
 30
0.0
 11
2596.423734436666
 21
1232.433585196259
 31
0.0
1001
ACME_LAYERS
1000
1
  0
LINE
  5
2061
330
1F
100
AcDbEntity
  8
P-0000
  6
Continuous
 62
     7
100
AcDbLine
 10
2596.423734436666
 20
1232.433585196259
 30
0.0
 11
2596.423734436666
 21
1217.433585196258
 31
0.0
1001
ACME_LAYERS
1000
1
  0
LINE
  5
2062
330
1F
100
AcDbEntity
  8
P-0000
  6
Continuous
 62
     7
100
AcDbLine
 10
2596.423734436666
 20
1232.433585196259
 30
0.0
 11
2592.319571380632
 21
1232.433585196259
 31
0.0
1001
ACME_LAYERS
1000
1
  0
LINE
  5
2063
330
1F
100
AcDbEntity
  8
P-0000
  6
Continuous
 62
     7
100
AcDbLine
 10
2596.423734436666
 20
1217.433585196258
 30
0.0
 11
2593.819571380632
 21
1217.433585196258
 31
0.0
1001
ACME_LAYERS
1000
1
  0
LINE
  5
2064
330
1F
100
AcDbEntity
  8
P-0000
  6
Continuous
 62
     7
100
AcDbLine
 10
2593.819571380632
 20
1217.433585196258
 30
0.0
 11
2592.319571380632
 21
1217.433585196258
 31
0.0
1001
ACME_LAYERS
1000
1
  0
HATCH
  5
2066
330
1F
100
AcDbEntity
  8
P-0000
  6
Continuous
 62
     1
100
AcDbHatch
 10
0.0
 20
0.0
 30
0.0
210
0.0
220
0.0
230
1.0
  2
_U
 70
     0
 71
     0
 91
        1
 92
        1
 93
        5
 72
     1
 10
2634.617357996861
 20
1228.433585196259
 11
2633.161477059795
 21
1232.433585196259
 72
     1
 10
2633.161477059795
 20
1232.433585196259
 11
2631.033121514844
 21
1232.433585196259
 72
     1
 10
2631.033121514844
 20
1232.433585196259
 11
2632.249517369332
 21
1229.091565052933
 72
     2
 10
2633.189209990118
 20
1229.433585196259
 40
1.000000000000015
 50
200.0000000000031
 51
270.0
 73
     1
 72
     1
 10
2633.189209990118
 20
1228.433585196259
 11
2634.617357996861
 21
1228.433585196259
 97
        0
 75
     0
 76
     0
 52
44.99999999999999
 41
1.0
 77
     0
 78
     1
 53
44.99999999999999
 43
2419.728544144572
 44
1270.931668228238
 45
-0.7071067811865474
 46
0.7071067811865479
 79
     0
 98
        1
 10
2718.268440444038
 20
663.9547295279046
1001
ACME_LAYERS
1000
1
  0
LINE
  5
2067
330
1F
100
AcDbEntity
  8
P-0000
  6
Continuous
 62
     7
100
AcDbLine
 10
2632.249517369332
 20
1229.091565052933
 30
0.0
 11
2631.033121514844
 21
1232.433585196259
 31
0.0
1001
ACME_LAYERS
1000
1
  0
LINE
  5
2068
330
1F
100
AcDbEntity
  8
P-0000
  6
Continuous
 62
     7
100
AcDbLine
 10
2634.617357996861
 20
1228.433585196259
 30
0.0
 11
2633.161477059795
 21
1232.433585196259
 31
0.0
1001
ACME_LAYERS
1000
1
  0
LINE
  5
2069
330
1F
100
AcDbEntity
  8
P-0000
  6
Continuous
 62
     7
100
AcDbLine
 10
2633.161477059795
 20
1232.433585196259
 30
0.0
 11
2631.033121514844
 21
1232.433585196259
 31
0.0
1001
ACME_LAYERS
1000
1
  0
ARC
  5
206A
330
1F
100
AcDbEntity
  8
P-0000
  6
Continuous
 62
     7
100
AcDbCircle
 10
2633.189209990118
 20
1229.433585196259
 30
0.0
 40
1.000000000000015
100
AcDbArc
 50
200.0000000000022
 51
270.0
1001
ACME_LAYERS
1000
1
  0
ARC
  5
206B
330
1F
100
AcDbEntity
  8
P-0000
  6
Continuous
 62
     7
100
AcDbCircle
 10
2633.189209990118
 20
1229.433585196259
 30
0.0
 40
1.000000000000015
100
AcDbArc
 50
200.0000000000022
 51
270.0
1001
ACME_LAYERS
1000
1
  0
LINE
  5
206C
330
1F
100
AcDbEntity
  8
P-0000
  6
Continuous
 62
     7
100
AcDbLine
 10
2634.617357996861
 20
1228.433585196259
 30
0.0
 11
2633.189209990118
 21
1228.433585196259
 31
0.0
1001
ACME_LAYERS
1000
1
  0
LINE
  5
206D
330
1F
100
AcDbEntity
  8
P-0000
  6
Continuous
 62
     7
100
AcDbLine
 10
2592.319571380632
 20
1200.403234295891
 30
0.0
 11
2593.819571380632
 21
1200.403234295891
 31
0.0
1001
ACME_LAYERS
1000
1
  0
LINE
  5
206E
330
1F
100
AcDbEntity
  8
P-0000
  6
Continuous
 62
     7
100
AcDbLine
 10
2592.319571380632
 20
1200.403234295891
 30
0.0
 11
2593.819571380632
 21
1200.403234295891
 31
0.0
1001
ACME_LAYERS
1000
1
  0
LINE
  5
206F
330
1F
100
AcDbEntity
  8
P-0000
  6
Continuous
 62
     7
100
AcDbLine
 10
2593.819571380632
 20
1194.433585196259
 30
0.0
 11
2592.319571380632
 21
1194.433585196259
 31
0.0
1001
ACME_LAYERS
1000
1
  0
LINE
  5
2070
330
1F
100
AcDbEntity
  8
P-0000
  6
Continuous
 62
     7
100
AcDbLine
 10
2651.465875751612
 20
1224.537826916167
 30
0.0
 11
2668.767241791612
 21
1177.002714395548
 31
0.0
1001
ACME_LAYERS
1000
1
  0
LINE
  5
2071
330
1F
100
AcDbEntity
  8
P-0000
  6
Continuous
 62
     7
100
AcDbLine
 10
2644.819571380632
 20
1200.403234295891
 30
0.0
 11
2638.621030573789
 21
1217.433585196258
 31
0.0
1001
ACME_LAYERS
1000
1
  0
ARC
  5
2072
330
1F
100
AcDbEntity
  8
P-0000
  6
Continuous
 62
     7
100
AcDbCircle
 10
2640.189564302181
 20
1220.433585196259
 30
0.0
 40
11.99999999999995
100
AcDbArc
 50
19.99999999998924
 51
90.0
1001
ACME_LAYERS
1000
1
  0
HATCH
  5
2073
330
1F
100
AcDbEntity
  8
P-0000
  6
Continuous
 62
     3
100
AcDbHatch
 10
0.0
 20
0.0
 30
0.0
210
0.0
220
0.0
230
1.0
  2
_U
 70
     0
 71
     0
 91
        1
 92
        1
 93
        4
 72
     1
 10
2646.992345961912
 20
1194.433585196259
 11
2644.819571380632
 21
1200.403234295891
 72
     1
 10
2644.819571380632
 20
1200.403234295891
 11
2644.819571380632
 21
1195.433585196259
 72
     2
 10
2645.819571380632
 20
1195.433585196259
 40
1.0
 50
180.0
 51
270.0
 73
     1
 72
     1
 10
2645.819571380632
 20
1194.433585196259
 11
2646.992345961912
 21
1194.433585196259
 97
        0
 75
     0
 76
     0
 52
44.99999999999999
 41
1.0
 77
     0
 78
     1
 53
44.99999999999999
 43
2718.268440444038
 44
663.9547295279046
 45
-0.7071067811865474
 46
0.7071067811865479
 79
     0
 98
        1
 10
2718.268440444038
 20
663.9547295279046
1001
ACME_LAYERS
1000
1
  0
LINE
  5
2074
330
1F
100
AcDbEntity
  8
P-0000
  6
Continuous
 62
     7
100
AcDbLine
 10
2646.992345961912
 20
1194.433585196259
 30
0.0
 11
2645.819571380632
 21
1194.433585196259
 31
0.0
1001
ACME_LAYERS
1000
1
  0
LINE
  5
2075
330
1F
100
AcDbEntity
  8
P-0000
  6
Continuous
 62
     7
100
AcDbLine
 10
2646.992345961912
 20
1194.433585196259
 30
0.0
 11
2644.819571380632
 21
1200.403234295891
 31
0.0
1001
ACME_LAYERS
1000
1
  0
LINE
  5
2076
330
1F
100
AcDbEntity
  8
P-0000
  6
Continuous
 62
     7
100
AcDbLine
 10
2644.819571380632
 20
1195.433585196259
 30
0.0
 11
2644.819571380632
 21
1200.403234295891
 31
0.0
1001
ACME_LAYERS
1000
1
  0
LINE
  5
2077
330
1F
100
AcDbEntity
  8
P-0000
  6
Continuous
 62
     7
100
AcDbLine
 10
2644.819571380632
 20
1195.433585196259
 30
0.0
 11
2644.819571380632
 21
1200.403234295891
 31
0.0
1001
ACME_LAYERS
1000
1
  0
ARC
  5
2078
330
1F
100
AcDbEntity
  8
P-0000
  6
Continuous
 62
     7
100
AcDbCircle
 10
2645.819571380632
 20
1195.433585196259
 30
0.0
 40
1.0
100
AcDbArc
 50
180.0
 51
270.0
1001
ACME_LAYERS
1000
1
  0
ARC
  5
2079
330
1F
100
AcDbEntity
  8
P-0000
  6
Continuous
 62
     7
100
AcDbCircle
 10
2645.819571380632
 20
1195.433585196259
 30
0.0
 40
1.0
100
AcDbArc
 50
180.0
 51
270.0
1001
ACME_LAYERS
1000
1
  0
LINE
  5
207A
330
1F
100
AcDbEntity
  8
P-0000
  6
Continuous
 62
     7
100
AcDbLine
 10
2593.819571380632
 20
1158.433585196259
 30
0.0
 11
2660.095274395497
 21
1158.433585196259
 31
0.0
1001
ACME_LAYERS
1000
1
  0
LINE
  5
207B
330
1F
100
AcDbEntity
  8
P-0000
  6
Continuous
 62
     7
100
AcDbLine
 10
2593.819571380632
 20
1158.433585196259
 30
0.0
 11
2660.095274395497
 21
1158.433585196259
 31
0.0
1001
ACME_LAYERS
1000
1
  0
LINE
  5
207C
330
1F
100
AcDbEntity
  8
P-0000
  6
Continuous
 62
     7
100
AcDbLine
 10
2593.819571380632
 20
1158.433585196259
 30
0.0
 11
2660.095274395497
 21
1158.433585196259
 31
0.0
1001
ACME_LAYERS
1000
1
  0
LINE
  5
207D
330
1F
100
AcDbEntity
  8
P-0000
  6
Continuous
 62
     7
100
AcDbLine
 10
2660.095274395497
 20
1152.433585196259
 30
0.0
 11
2593.819571380632
 21
1152.433585196259
 31
0.0
1001
ACME_LAYERS
1000
1
  0
LINE
  5
207F
330
1F
100
AcDbEntity
  8
P-0000
  6
Continuous
 62
     7
100
AcDbLine
 10
2592.319571380632
 20
1158.433585196259
 30
0.0
 11
2593.819571380632
 21
1158.433585196259
 31
0.0
1001
ACME_LAYERS
1000
1
  0
LINE
  5
2080
330
1F
100
AcDbEntity
  8
P-0000
  6
Continuous
 62
     7
100
AcDbLine
 10
2592.319571380632
 20
1158.433585196259
 30
0.0
 11
2593.819571380632
 21
1158.433585196259
 31
0.0
1001
ACME_LAYERS
1000
1
  0
LINE
  5
2081
330
1F
100
AcDbEntity
  8
P-0000
  6
Continuous
 62
     7
100
AcDbLine
 10
2592.319571380632
 20
1158.433585196259
 30
0.0
 11
2593.819571380632
 21
1158.433585196259
 31
0.0
1001
ACME_LAYERS
1000
1
  0
LINE
  5
2082
330
1F
100
AcDbEntity
  8
P-0000
  6
Continuous
 62
     7
100
AcDbLine
 10
2593.819571380632
 20
1152.433585196259
 30
0.0
 11
2592.319571380632
 21
1152.433585196259
 31
0.0
1001
ACME_LAYERS
1000
1
  0
LINE
  5
2084
330
1F
100
AcDbEntity
  8
P-0000
  6
Continuous
 62
     7
100
AcDbLine
 10
2669.746031007897
 20
1174.3135131254
 30
0.0
 11
2677.319571380632
 21
1153.505381965983
 31
0.0
1001
ACME_LAYERS
1000
1
  0
LINE
  5
2085
330
1F
100
AcDbEntity
  8
P-0000
  6
Continuous
 62
     7
100
AcDbLine
 10
2671.319571380632
 20
1152.433585196259
 30
0.0
 11
2663.095274395497
 21
1152.433585196259
 31
0.0
1001
ACME_LAYERS
1000
1
  0
LINE
  5
2086
330
1F
100
AcDbEntity
  8
P-0000
  6
Continuous
 62
     7
100
AcDbLine
 10
2663.095274395497
 20
1152.433585196259
 30
0.0
 11
2663.095274395497
 21
1158.433585196259
 31
0.0
1001
ACME_LAYERS
1000
1
  0
LINE
  5
2087
330
1F
100
AcDbEntity
  8
P-0000
  6
Continuous
 62
     7
100
AcDbLine
 10
2660.095274395497
 20
1152.433585196259
 30
0.0
 11
2660.095274395497
 21
1158.433585196259
 31
0.0
1001
ACME_LAYERS
1000
1
  0
LINE
  5
2088
330
1F
100
AcDbEntity
  8
P-0000
  6
Continuous
 62
     7
100
AcDbLine
 10
2660.095274395497
 20
1158.433585196259
 30
0.0
 11
2663.095274395497
 21
1158.433585196259
 31
0.0
1001
ACME_LAYERS
1000
1
  0
LINE
  5
2089
330
1F
100
AcDbEntity
  8
P-0000
  6
Continuous
 62
     7
100
AcDbLine
 10
2660.095274395497
 20
1158.433585196259
 30
0.0
 11
2663.095274395497
 21
1158.433585196259
 31
0.0
1001
ACME_LAYERS
1000
1
  0
LINE
  5
208A
330
1F
100
AcDbEntity
  8
P-0000
  6
Continuous
 62
     7
100
AcDbLine
 10
2663.095274395497
 20
1152.433585196259
 30
0.0
 11
2660.095274395497
 21
1152.433585196259
 31
0.0
1001
ACME_LAYERS
1000
1
  0
LINE
  5
208B
102
{ACAD_REACTORS
330
2012
102
}
330
1F
100
AcDbEntity
  8
P-0000
  6
Continuous
 62
     7
100
AcDbLine
 10
2677.819571380632
 20
1150.233585196259
 30
0.0
 11
2677.819571380632
 21
1152.433585196259
 31
0.0
1001
ACME_LAYERS
1000
1
  0
LINE
  5
208C
330
1F
100
AcDbEntity
  8
P-0000
  6
Continuous
 62
     7
100
AcDbLine
 10
2676.543341114083
 20
1146.477017427467
 30
0.0
 11
2671.319571380632
 21
1152.433585196259
 31
0.0
1001
ACME_LAYERS
1000
1
  0
LINE
  5
208D
330
1F
100
AcDbEntity
  8
P-0000
  6
Continuous
 62
     7
100
AcDbLine
 10
2677.319571380632
 20
1152.433585196259
 30
0.0
 11
2677.319571380632
 21
1153.505381965983
 31
0.0
1001
ACME_LAYERS
1000
1
  0
LINE
  5
208E
102
{ACAD_REACTORS
330
2012
102
}
330
1F
100
AcDbEntity
  8
P-0000
  6
Continuous
 62
     7
100
AcDbLine
 10
2677.819571380632
 20
1152.433585196259
 30
0.0
 11
2677.319571380632
 21
1152.433585196259
 31
0.0
1001
ACME_LAYERS
1000
1
  0
LINE
  5
208F
102
{ACAD_REACTORS
330
2012
102
}
330
1F
100
AcDbEntity
  8
P-0000
  6
Continuous
 62
     7
100
AcDbLine
 10
2677.319571380632
 20
1152.433585196259
 30
0.0
 11
2677.319571380632
 21
1153.505381965983
 31
0.0
1001
ACME_LAYERS
1000
1
  0
LINE
  5
2090
330
1F
100
AcDbEntity
  8
P-0000
  6
Continuous
 62
     7
100
AcDbLine
 10
2679.019571380632
 20
1148.733585196259
 30
0.0
 11
2677.460744188562
 21
1146.536043425059
 31
0.0
1001
ACME_LAYERS
1000
1
  0
LINE
  5
2091
330
1F
100
AcDbEntity
  8
P-0000
  6
Continuous
 62
     7
100
AcDbLine
 10
2677.819571380632
 20
1150.233585196259
 30
0.0
 11
2679.019571380632
 21
1150.233585196259
 31
0.0
1001
ACME_LAYERS
1000
1
  0
LINE
  5
2092
330
1F
100
AcDbEntity
  8
P-0000
  6
Continuous
 62
     7
100
AcDbLine
 10
2679.019571380632
 20
1150.233585196259
 30
0.0
 11
2679.019571380632
 21
1148.733585196259
 31
0.0
1001
ACME_LAYERS
1000
1
  0
ARC
  5
2093
330
1F
100
AcDbEntity
  8
P-0000
  6
Continuous
 62
     7
100
AcDbCircle
 10
2676.971364386477
 20
1146.883185196259
 30
0.0
 40
0.6000000000000229
100
AcDbArc
 50
270.0
 51
324.650000000002
1001
ACME_LAYERS
1000
1
  0
ARC
  5
2094
330
1F
100
AcDbEntity
  8
P-0000
  6
Continuous
 62
     7
100
AcDbCircle
 10
2676.971137964539
 20
1146.852185196259
 30
0.0
 40
0.5689999999999894
100
AcDbArc
 50
221.2500000000007
 51
270.0
1001
ACME_LAYERS
1000
1
  0
LINE
  5
2095
330
1F
100
AcDbEntity
  8
P-0000
  6
Continuous
 62
     7
100
AcDbLine
 10
2676.971364386477
 20
1146.283185196259
 30
0.0
 11
2676.971137964539
 21
1146.283185196259
 31
0.0
1001
ACME_LAYERS
1000
1
  0
HATCH
  5
2097
330
1F
100
AcDbEntity
  8
AM_8
100
AcDbHatch
 10
0.0
 20
0.0
 30
0.0
210
0.0
220
0.0
230
1.0
  2
_U
 70
     0
 71
     0
 91
        1
 92
        1
 93
        4
 72
     1
 10
2663.095274395497
 20
1158.433585196259
 11
2660.095274395497
 21
1158.433585196259
 72
     1
 10
2660.095274395497
 20
1158.433585196259
 11
2660.095274395497
 21
1152.433585196259
 72
     1
 10
2660.095274395497
 20
1152.433585196259
 11
2663.095274395497
 21
1152.433585196259
 72
     1
 10
2663.095274395497
 20
1152.433585196259
 11
2663.095274395497
 21
1158.433585196259
 97
        0
 75
     0
 76
     0
 52
44.99999999999999
 41
1.0
 77
     0
 78
     1
 53
44.99999999999999
 43
2419.728544144572
 44
1270.931668228238
 45
-0.7071067811865474
 46
0.7071067811865479
 79
     0
 98
        1
 10
2419.728544144572
 20
1270.931668228238
1001
GENIUS_GENODEF_13
1002
{
1000
HIER
1070
     0
1002
}
1002
{
1000
MANEDIT
1070
     0
1002
}
1002
{
1000
NOSEL
1070
     0
1002
}
1002
{
1000
BEHIND
1070
     0
1002
}
1002
{
1000
OTHER
1070
     0
1002
}
1002
{
1000
REACTOR
1002
}
1001
GENIUS_GENOBJ-N-HTC_13
1002
{
1000
OWNER
1000
GEN
1002
}
1001
GENIUS_GENHATCH_13
1002
{
1000
DATA
1040
135.0
1042
1.0
1000
_U
1070
     0
1011
2660.864251210944
1021
1152.892172242777
1031
0.0
1002
}
1002
{
1000
UCS
1010
0.0
1020
0.0
1030
0.0
1010
1.0
1020
0.0
1030
0.0
1010
0.0
1020
1.0
1030
0.0
1002
}
  0
LINE
  5
2098
330
1F
100
AcDbEntity
  8
P-0000
  6
Continuous
 62
     7
100
AcDbLine
 10
2676.781850923751
 20
1154.982756779241
 30
0.0
 11
2685.319571380632
 21
1154.982756779241
 31
0.0
1001
ACME_LAYERS
1000
1
  0
LINE
  5
2156
330
1F
100
AcDbEntity
  8
P-0000
  6
STRICHPUNKT
 62
     3
100
AcDbLine
 10
2592.771246518001
 20
765.2547167345259
 30
0.0
 11
2592.771246518001
 21
794.2355774949906
 31
0.0
1001
ACME_LAYERS
1000
1
  0
LINE
  5
21DE
330
1F
100
AcDbEntity
  8
P-0000
  6
STRICHPUNKT
 62
     3
100
AcDbLine
 10
2592.771246518005
 20
768.6793187293391
 30
0.0
 11
2592.771246518005
 21
797.6601794898039
 31
0.0
1001
ACME_LAYERS
1000
1
  0
LINE
  5
2381
330
1F
100
AcDbEntity
  8
P-0000
  6
STRICHPUNKT
 62
     3
100
AcDbLine
 10
2476.552114142911
 20
1130.461296592919
 30
0.0
 11
2476.552114142911
 21
1137.461296592919
 31
0.0
1001
ACME_LAYERS
1000
1
  0
LINE
  5
2382
330
1F
100
AcDbEntity
  8
P-0000
  6
Continuous
 62
     7
100
AcDbLine
 10
2471.552114142911
 20
1135.488408077674
 30
0.0
 11
2481.552114142911
 21
1135.488408077673
 31
0.0
1001
ACME_LAYERS
1000
1
  0
LINE
  5
2383
330
1F
100
AcDbEntity
  8
P-0000
  6
Continuous
 62
     7
100
AcDbLine
 10
2473.35211414291
 20
1146.635689517386
 30
0.0
 11
2476.552114142911
 21
1146.635689517386
 31
0.0
1001
ACME_LAYERS
1000
1
  0
LINE
  5
2384
330
1F
100
AcDbEntity
  8
P-0000
  6
Continuous
 62
     7
100
AcDbLine
 10
2479.752114142911
 20
1146.035689517385
 30
0.0
 11
2473.35211414291
 21
1146.035689517386
 31
0.0
1001
ACME_LAYERS
1000
1
  0
LINE
  5
2385
330
1F
100
AcDbEntity
  8
P-0000
  6
Continuous
 62
     7
100
AcDbLine
 10
2472.552114142911
 20
1146.035689517386
 30
0.0
 11
2472.552114142911
 21
1143.088408077672
 31
0.0
1001
ACME_LAYERS
1000
1
  0
LINE
  5
2386
330
1F
100
AcDbEntity
  8
P-0000
  6
Continuous
 62
     3
100
AcDbLine
 10
2473.35211414291
 20
1146.635689517386
 30
0.0
 11
2473.35211414291
 21
1143.088408077672
 31
0.0
1001
ACME_LAYERS
1000
1
  0
LINE
  5
2387
330
1F
100
AcDbEntity
  8
P-0000
  6
Continuous
 62
     7
100
AcDbLine
 10
2473.35211414291
 20
1146.035689517386
 30
0.0
 11
2472.552114142911
 21
1146.035689517386
 31
0.0
1001
ACME_LAYERS
1000
1
  0
LINE
  5
2388
330
1F
100
AcDbEntity
  8
P-0000
  6
Continuous
 62
     3
100
AcDbLine
 10
2473.35211414291
 20
1146.635689517386
 30
0.0
 11
2473.35211414291
 21
1146.035689517386
 31
0.0
1001
ACME_LAYERS
1000
1
  0
LINE
  5
2389
330
1F
100
AcDbEntity
  8
P-0000
  6
Continuous
 62
     7
100
AcDbLine
 10
2472.552114142911
 20
1146.035689517386
 30
0.0
 11
2473.35211414291
 21
1146.635689517386
 31
0.0
1001
ACME_LAYERS
1000
1
  0
LINE
  5
238A
330
1F
100
AcDbEntity
  8
P-0000
  6
Continuous
 62
     3
100
AcDbLine
 10
2473.29557769882
 20
1133.488408077673
 30
0.0
 11
2473.295577698819
 21
1118.282488172728
 31
0.0
1001
ACME_LAYERS
1000
1
  0
LINE
  5
238B
330
1F
100
AcDbEntity
  8
P-0000
  6
Continuous
 62
     7
100
AcDbLine
 10
2480.552114142911
 20
1146.035689517385
 30
0.0
 11
2480.552114142911
 21
1143.088408077671
 31
0.0
1001
ACME_LAYERS
1000
1
  0
LINE
  5
238C
330
1F
100
AcDbEntity
  8
P-0000
  6
Continuous
 62
     3
100
AcDbLine
 10
2479.69557769882
 20
1133.488408077673
 30
0.0
 11
2479.69557769882
 21
1118.282488172727
 31
0.0
1001
ACME_LAYERS
1000
1
  0
LINE
  5
238D
330
1F
100
AcDbEntity
  8
P-0000
  6
STRICHPUNKT
 62
     3
100
AcDbLine
 10
2476.552114142911
 20
1143.088408077672
 30
0.0
 11
2476.552114142911
 21
1146.635689517386
 31
0.0
1001
ACME_LAYERS
1000
1
  0
LINE
  5
238E
330
1F
100
AcDbEntity
  8
P-0000
  6
Continuous
 62
     3
100
AcDbLine
 10
2479.752114142911
 20
1146.635689517385
 30
0.0
 11
2479.752114142911
 21
1143.088408077671
 31
0.0
1001
ACME_LAYERS
1000
1
  0
LINE
  5
238F
330
1F
100
AcDbEntity
  8
P-0000
  6
Continuous
 62
     3
100
AcDbLine
 10
2479.752114142911
 20
1146.635689517385
 30
0.0
 11
2479.752114142911
 21
1146.035689517385
 31
0.0
1001
ACME_LAYERS
1000
1
  0
LINE
  5
2390
330
1F
100
AcDbEntity
  8
P-0000
  6
Continuous
 62
     7
100
AcDbLine
 10
2480.552114142911
 20
1146.035689517385
 30
0.0
 11
2479.752114142911
 21
1146.035689517385
 31
0.0
1001
ACME_LAYERS
1000
1
  0
LINE
  5
2391
330
1F
100
AcDbEntity
  8
P-0000
  6
Continuous
 62
     7
100
AcDbLine
 10
2479.752114142911
 20
1146.635689517385
 30
0.0
 11
2480.552114142911
 21
1146.035689517385
 31
0.0
1001
ACME_LAYERS
1000
1
  0
LINE
  5
2392
330
1F
100
AcDbEntity
  8
P-0000
  6
Continuous
 62
     7
100
AcDbLine
 10
2476.552114142911
 20
1146.635689517386
 30
0.0
 11
2479.752114142911
 21
1146.635689517385
 31
0.0
1001
ACME_LAYERS
1000
1
  0
LINE
  5
2393
330
1F
100
AcDbEntity
  8
P-0000
  6
Continuous
 62
     7
100
AcDbLine
 10
2480.55211414291
 20
1143.088408077671
 30
0.0
 11
2473.35211414291
 21
1143.088408077672
 31
0.0
1001
ACME_LAYERS
1000
1
  0
LINE
  5
2394
330
1F
100
AcDbEntity
  8
P-0000
  6
Continuous
 62
     7
100
AcDbLine
 10
2473.35211414291
 20
1143.088408077672
 30
0.0
 11
2472.55211414291
 21
1143.088408077672
 31
0.0
1001
ACME_LAYERS
1000
1
  0
LINE
  5
2395
330
1F
100
AcDbEntity
  8
P-0000
  6
Continuous
 62
     7
100
AcDbLine
 10
2468.10641602949
 20
1136.988408077671
 30
0.0
 11
2468.10641602949
 21
1135.488408077674
 31
0.0
1001
ACME_LAYERS
1000
1
  0
LINE
  5
2396
330
1F
100
AcDbEntity
  8
P-0000
  6
Continuous
 62
     7
100
AcDbLine
 10
2480.55211414291
 20
1133.488408077673
 30
0.0
 11
2480.55211414291
 21
1127.48840807767
 31
0.0
1001
ACME_LAYERS
1000
1
  0
LINE
  5
2397
330
1F
100
AcDbEntity
  8
P-0000
  6
Continuous
 62
     7
100
AcDbLine
 10
2485.10641602949
 20
1135.488408077673
 30
0.0
 11
2485.10641602949
 21
1136.988408077669
 31
0.0
1001
ACME_LAYERS
1000
1
  0
LINE
  5
2398
330
1F
100
AcDbEntity
  8
P-0000
  6
Continuous
 62
     7
100
AcDbLine
 10
2468.10641602949
 20
1137.088408077672
 30
0.0
 11
2468.10641602949
 21
1136.988408077671
 31
0.0
1001
ACME_LAYERS
1000
1
  0
LINE
  5
2399
330
1F
100
AcDbEntity
  8
P-0000
  6
Continuous
 62
     7
100
AcDbLine
 10
2485.10641602949
 20
1137.088408077671
 30
0.0
 11
2468.10641602949
 21
1137.088408077672
 31
0.0
1001
ACME_LAYERS
1000
1
  0
LINE
  5
239A
330
1F
100
AcDbEntity
  8
P-0000
  6
Continuous
 62
     7
100
AcDbLine
 10
2485.10641602949
 20
1136.988408077669
 30
0.0
 11
2485.10641602949
 21
1137.088408077671
 31
0.0
1001
ACME_LAYERS
1000
1
  0
LINE
  5
239B
330
1F
100
AcDbEntity
  8
P-0000
  6
Continuous
 62
     7
100
AcDbLine
 10
2484.057667642376
 20
1138.975347269578
 30
0.0
 11
2484.057667642376
 21
1137.668964661271
 31
0.0
1001
ACME_LAYERS
1000
1
  0
LINE
  5
239C
330
1F
100
AcDbEntity
  8
P-0000
  6
Continuous
 62
     7
100
AcDbLine
 10
2470.052114142911
 20
1137.088408077672
 30
0.0
 11
2483.05211414291
 21
1137.088408077671
 31
0.0
1001
ACME_LAYERS
1000
1
  0
LINE
  5
239D
330
1F
100
AcDbEntity
  8
P-0000
  6
Continuous
 62
     7
100
AcDbLine
 10
2469.046560643445
 20
1138.975347269579
 30
0.0
 11
2469.046560643445
 21
1137.668964661272
 31
0.0
1001
ACME_LAYERS
1000
1
  0
LINE
  5
239E
330
1F
100
AcDbEntity
  8
P-0000
  6
Continuous
 62
     7
100
AcDbLine
 10
2472.55211414291
 20
1143.088408077672
 30
0.0
 11
2470.052114142911
 21
1143.088408077672
 31
0.0
1001
ACME_LAYERS
1000
1
  0
LINE
  5
239F
330
1F
100
AcDbEntity
  8
P-0000
  6
Continuous
 62
     7
100
AcDbLine
 10
2483.81099605372
 20
1137.515551643305
 30
0.0
 11
2483.05211414291
 21
1137.088408077671
 31
0.0
1001
ACME_LAYERS
1000
1
  0
LINE
  5
23A0
330
1F
100
AcDbEntity
  8
P-0000
  6
Continuous
 62
     7
100
AcDbLine
 10
2483.81099605372
 20
1142.661264512037
 30
0.0
 11
2483.05211414291
 21
1143.088408077671
 31
0.0
1001
ACME_LAYERS
1000
1
  0
LINE
  5
23A1
330
1F
100
AcDbEntity
  8
P-0000
  6
Continuous
 62
     7
100
AcDbLine
 10
2469.293232232103
 20
1137.515551643305
 30
0.0
 11
2470.052114142911
 21
1137.088408077672
 31
0.0
1001
ACME_LAYERS
1000
1
  0
LINE
  5
23A2
330
1F
100
AcDbEntity
  8
P-0000
  6
Continuous
 62
     7
100
AcDbLine
 10
2469.293232232104
 20
1142.661264512037
 30
0.0
 11
2470.052114142911
 21
1143.088408077672
 31
0.0
1001
ACME_LAYERS
1000
1
  0
LINE
  5
23A3
330
1F
100
AcDbEntity
  8
P-0000
  6
Continuous
 62
     7
100
AcDbLine
 10
2483.05211414291
 20
1143.088408077671
 30
0.0
 11
2480.55211414291
 21
1143.088408077671
 31
0.0
1001
ACME_LAYERS
1000
1
  0
LINE
  5
23A4
330
1F
100
AcDbEntity
  8
P-0000
  6
Continuous
 62
     7
100
AcDbLine
 10
2469.046560643445
 20
1142.50785149407
 30
0.0
 11
2469.046560643445
 21
1138.975347269579
 31
0.0
1001
ACME_LAYERS
1000
1
  0
LINE
  5
23A5
330
1F
100
AcDbEntity
  8
P-0000
  6
Continuous
 62
     7
100
AcDbLine
 10
2472.799337393178
 20
1142.50785149407
 30
0.0
 11
2472.799337393178
 21
1137.088408077672
 31
0.0
1001
ACME_LAYERS
1000
1
  0
LINE
  5
23A6
330
1F
100
AcDbEntity
  8
P-0000
  6
Continuous
 62
     7
100
AcDbLine
 10
2480.304890892643
 20
1142.50785149407
 30
0.0
 11
2480.304890892643
 21
1137.088408077671
 31
0.0
1001
ACME_LAYERS
1000
1
  0
LINE
  5
23A7
330
1F
100
AcDbEntity
  8
P-0000
  6
Continuous
 62
     7
100
AcDbLine
 10
2484.057667642376
 20
1142.50785149407
 30
0.0
 11
2484.057667642376
 21
1138.975347269578
 31
0.0
1001
ACME_LAYERS
1000
1
  0
LINE
  5
23A8
330
1F
100
AcDbEntity
  8
P-0000
  6
Continuous
 62
     7
100
AcDbLine
 10
2468.10641602949
 20
1135.488408077674
 30
0.0
 11
2472.55211414291
 21
1135.488408077674
 31
0.0
1001
ACME_LAYERS
1000
1
  0
LINE
  5
23A9
330
1F
100
AcDbEntity
  8
P-0000
  6
Continuous
 62
     7
100
AcDbLine
 10
2485.10641602949
 20
1135.488408077673
 30
0.0
 11
2481.052114142912
 21
1135.488408077673
 31
0.0
1001
ACME_LAYERS
1000
1
  0
LINE
  5
23AA
330
1F
100
AcDbEntity
  8
P-0000
  6
Continuous
 62
     7
100
AcDbLine
 10
2480.55211414291
 20
1133.488408077673
 30
0.0
 11
2481.052114142912
 21
1133.488408077673
 31
0.0
1001
ACME_LAYERS
1000
1
  0
LINE
  5
23AB
330
1F
100
AcDbEntity
  8
P-0000
  6
Continuous
 62
     7
100
AcDbLine
 10
2479.752114142911
 20
1133.488408077673
 30
0.0
 11
2480.55211414291
 21
1133.488408077673
 31
0.0
1001
ACME_LAYERS
1000
1
  0
LINE
  5
23AC
330
1F
100
AcDbEntity
  8
P-0000
  6
Continuous
 62
     7
100
AcDbLine
 10
2473.35211414291
 20
1133.488408077673
 30
0.0
 11
2479.752114142911
 21
1133.488408077673
 31
0.0
1001
ACME_LAYERS
1000
1
  0
LINE
  5
23AD
330
1F
100
AcDbEntity
  8
P-0000
  6
Continuous
 62
     7
100
AcDbLine
 10
2472.55211414291
 20
1133.488408077673
 30
0.0
 11
2473.35211414291
 21
1133.488408077673
 31
0.0
1001
ACME_LAYERS
1000
1
  0
ARC
  5
23AE
330
1F
100
AcDbEntity
  8
P-0000
  6
Continuous
 62
     7
100
AcDbCircle
 10
2476.55211414291
 20
1149.50785149407
 30
0.0
 40
12.41944341639904
100
AcDbArc
 50
252.4120462260338
 51
287.5879537739659
1001
ACME_LAYERS
1000
1
  0
ARC
  5
23AF
330
1F
100
AcDbEntity
  8
P-0000
  6
Continuous
 62
     7
100
AcDbCircle
 10
2476.55211414291
 20
1130.668964661271
 30
0.0
 40
12.41944341639904
100
AcDbArc
 50
72.41204622603388
 51
107.5879537739659
1001
ACME_LAYERS
1000
1
  0
ARC
  5
23B0
330
1F
100
AcDbEntity
  8
P-0000
  6
Continuous
 62
     7
100
AcDbCircle
 10
2482.18127926751
 20
1140.410977650621
 30
0.0
 40
3.322569572950221
100
AcDbArc
 50
235.6157525319677
 51
299.3733793948328
1001
ACME_LAYERS
1000
1
  0
ARC
  5
23B1
330
1F
100
AcDbEntity
  8
P-0000
  6
Continuous
 62
     7
100
AcDbCircle
 10
2482.181279267511
 20
1139.76583850472
 30
0.0
 40
3.322569572950149
100
AcDbArc
 50
55.61575253196763
 51
60.62662060516681
1001
ACME_LAYERS
1000
1
  0
ARC
  5
23B2
330
1F
100
AcDbEntity
  8
P-0000
  6
Continuous
 62
     7
100
AcDbCircle
 10
2470.922949018313
 20
1140.410977650621
 30
0.0
 40
3.322569572950221
100
AcDbArc
 50
235.6157525319677
 51
240.6266206051669
1001
ACME_LAYERS
1000
1
  0
ARC
  5
23B3
330
1F
100
AcDbEntity
  8
P-0000
  6
Continuous
 62
     7
100
AcDbCircle
 10
2470.922949018313
 20
1139.765838504722
 30
0.0
 40
3.322569572949122
100
AcDbArc
 50
55.61575253197688
 51
119.3733793948327
1001
ACME_LAYERS
1000
1
  0
ARC
  5
23B4
330
1F
100
AcDbEntity
  8
P-0000
  6
Continuous
 62
     7
100
AcDbCircle
 10
2482.18127926751
 20
1140.410977650621
 30
0.0
 40
3.322569572949876
100
AcDbArc
 50
299.3733793948328
 51
304.3842474680318
1001
ACME_LAYERS
1000
1
  0
ARC
  5
23B5
330
1F
100
AcDbEntity
  8
P-0000
  6
Continuous
 62
     7
100
AcDbCircle
 10
2482.18127926751
 20
1139.765838504721
 30
0.0
 40
3.322569572949888
100
AcDbArc
 50
60.62662060516681
 51
124.3842474680318
1001
ACME_LAYERS
1000
1
  0
ARC
  5
23B6
330
1F
100
AcDbEntity
  8
P-0000
  6
Continuous
 62
     7
100
AcDbCircle
 10
2470.922949018313
 20
1140.410977650621
 30
0.0
 40
3.322569572949872
100
AcDbArc
 50
240.6266206051669
 51
304.3842474680226
1001
ACME_LAYERS
1000
1
  0
ARC
  5
23B7
330
1F
100
AcDbEntity
  8
P-0000
  6
Continuous
 62
     7
100
AcDbCircle
 10
2470.922949018313
 20
1139.765838504722
 30
0.0
 40
3.322569572949884
100
AcDbArc
 50
119.3733793948327
 51
124.3842474680318
1001
ACME_LAYERS
1000
1
  0
LINE
  5
23B8
330
1F
100
AcDbEntity
  8
0
100
AcDbLine
 10
2472.55211414291
 20
1127.488408077671
 30
0.0
 11
2472.55211414291
 21
1133.488408077673
 31
0.0
  0
LINE
  5
23B9
330
1F
100
AcDbEntity
  8
P-0000
  6
Continuous
 62
     7
100
AcDbLine
 10
2514.603507383248
 20
1143.471075770432
 30
0.0
 11
2514.603507383248
 21
1140.588408077669
 31
0.0
1001
ACME_LAYERS
1000
1
  0
LINE
  5
23BA
330
1F
100
AcDbEntity
  8
P-0000
  6
Continuous
 62
     3
100
AcDbLine
 10
2513.803507383248
 20
1143.00919555508
 30
0.0
 11
2513.803507383248
 21
1140.588408077669
 31
0.0
1001
ACME_LAYERS
1000
1
  0
LINE
  5
23BB
330
1F
100
AcDbEntity
  8
P-0000
  6
Continuous
 62
     7
100
AcDbLine
 10
2509.610580478046
 20
1140.588408077669
 30
0.0
 11
2513.803507383247
 21
1140.588408077669
 31
0.0
1001
ACME_LAYERS
1000
1
  0
LINE
  5
23BC
330
1F
100
AcDbEntity
  8
P-0000
  6
Continuous
 62
     7
100
AcDbLine
 10
2513.803507383247
 20
1140.588408077669
 30
0.0
 11
2514.603507383248
 21
1140.588408077669
 31
0.0
1001
ACME_LAYERS
1000
1
  0
LINE
  5
23BD
330
1F
100
AcDbEntity
  8
P-0000
  6
Continuous
 62
     7
100
AcDbLine
 10
2519.049205496667
 20
1134.488408077669
 30
0.0
 11
2519.049205496667
 21
1132.988408077671
 31
0.0
1001
ACME_LAYERS
1000
1
  0
LINE
  5
23BE
330
1F
100
AcDbEntity
  8
P-0000
  6
Continuous
 62
     7
100
AcDbLine
 10
2502.049205496668
 20
1132.988408077671
 30
0.0
 11
2502.049205496668
 21
1134.488408077669
 31
0.0
1001
ACME_LAYERS
1000
1
  0
LINE
  5
23BF
330
1F
100
AcDbEntity
  8
P-0000
  6
Continuous
 62
     7
100
AcDbLine
 10
2519.049205496667
 20
1134.588408077669
 30
0.0
 11
2519.049205496667
 21
1134.488408077669
 31
0.0
1001
ACME_LAYERS
1000
1
  0
LINE
  5
23C0
330
1F
100
AcDbEntity
  8
P-0000
  6
Continuous
 62
     7
100
AcDbLine
 10
2502.049205496668
 20
1134.588408077669
 30
0.0
 11
2519.049205496667
 21
1134.588408077669
 31
0.0
1001
ACME_LAYERS
1000
1
  0
LINE
  5
23C1
330
1F
100
AcDbEntity
  8
P-0000
  6
Continuous
 62
     7
100
AcDbLine
 10
2502.049205496668
 20
1134.488408077669
 30
0.0
 11
2502.049205496668
 21
1134.588408077669
 31
0.0
1001
ACME_LAYERS
1000
1
  0
LINE
  5
23C2
330
1F
100
AcDbEntity
  8
P-0000
  6
Continuous
 62
     7
100
AcDbLine
 10
2503.097953883782
 20
1136.475347269576
 30
0.0
 11
2503.097953883782
 21
1135.168964661269
 31
0.0
1001
ACME_LAYERS
1000
1
  0
LINE
  5
23C3
330
1F
100
AcDbEntity
  8
P-0000
  6
Continuous
 62
     7
100
AcDbLine
 10
2517.103507383249
 20
1134.588408077669
 30
0.0
 11
2504.103507383248
 21
1134.588408077669
 31
0.0
1001
ACME_LAYERS
1000
1
  0
LINE
  5
23C4
330
1F
100
AcDbEntity
  8
P-0000
  6
Continuous
 62
     7
100
AcDbLine
 10
2518.109060882713
 20
1136.475347269576
 30
0.0
 11
2518.109060882713
 21
1135.168964661269
 31
0.0
1001
ACME_LAYERS
1000
1
  0
LINE
  5
23C5
330
1F
100
AcDbEntity
  8
P-0000
  6
Continuous
 62
     7
100
AcDbLine
 10
2514.603507383248
 20
1140.588408077669
 30
0.0
 11
2517.10350738325
 21
1140.588408077669
 31
0.0
1001
ACME_LAYERS
1000
1
  0
LINE
  5
23C6
330
1F
100
AcDbEntity
  8
P-0000
  6
Continuous
 62
     7
100
AcDbLine
 10
2506.850730633516
 20
1136.475347269576
 30
0.0
 11
2506.850730633516
 21
1135.168964661269
 31
0.0
1001
ACME_LAYERS
1000
1
  0
LINE
  5
23C7
330
1F
100
AcDbEntity
  8
P-0000
  6
Continuous
 62
     7
100
AcDbLine
 10
2514.35628413298
 20
1136.475347269576
 30
0.0
 11
2514.35628413298
 21
1135.168964661269
 31
0.0
1001
ACME_LAYERS
1000
1
  0
LINE
  5
23C8
330
1F
100
AcDbEntity
  8
P-0000
  6
Continuous
 62
     7
100
AcDbLine
 10
2503.344625472438
 20
1135.015551643303
 30
0.0
 11
2504.103507383248
 21
1134.588408077669
 31
0.0
1001
ACME_LAYERS
1000
1
  0
LINE
  5
23C9
330
1F
100
AcDbEntity
  8
P-0000
  6
Continuous
 62
     7
100
AcDbLine
 10
2517.862389294056
 20
1135.015551643303
 30
0.0
 11
2517.103507383249
 21
1134.588408077669
 31
0.0
1001
ACME_LAYERS
1000
1
  0
LINE
  5
23CA
330
1F
100
AcDbEntity
  8
P-0000
  6
Continuous
 62
     7
100
AcDbLine
 10
2517.862389294057
 20
1140.161264512034
 30
0.0
 11
2517.10350738325
 21
1140.588408077669
 31
0.0
1001
ACME_LAYERS
1000
1
  0
LINE
  5
23CB
330
1F
100
AcDbEntity
  8
P-0000
  6
Continuous
 62
     7
100
AcDbLine
 10
2518.109060882713
 20
1140.007851494068
 30
0.0
 11
2518.109060882713
 21
1136.475347269576
 31
0.0
1001
ACME_LAYERS
1000
1
  0
LINE
  5
23CC
330
1F
100
AcDbEntity
  8
P-0000
  6
Continuous
 62
     7
100
AcDbLine
 10
2514.35628413298
 20
1140.007851494068
 30
0.0
 11
2514.35628413298
 21
1136.475347269576
 31
0.0
1001
ACME_LAYERS
1000
1
  0
LINE
  5
23CD
330
1F
100
AcDbEntity
  8
P-0000
  6
Continuous
 62
     7
100
AcDbLine
 10
2506.850730633516
 20
1138.995008027007
 30
0.0
 11
2506.850730633516
 21
1136.475347269576
 31
0.0
1001
ACME_LAYERS
1000
1
  0
LINE
  5
23CE
330
1F
100
AcDbEntity
  8
P-0000
  6
Continuous
 62
     7
100
AcDbLine
 10
2503.097953883782
 20
1136.82834136034
 30
0.0
 11
2503.097953883782
 21
1136.475347269576
 31
0.0
1001
ACME_LAYERS
1000
1
  0
ARC
  5
23CF
330
1F
100
AcDbEntity
  8
P-0000
  6
Continuous
 62
     7
100
AcDbCircle
 10
2510.60350738325
 20
1147.007851494068
 30
0.0
 40
12.41944341639904
100
AcDbArc
 50
252.4120462260338
 51
287.5879537739659
1001
ACME_LAYERS
1000
1
  0
ARC
  5
23D0
330
1F
100
AcDbEntity
  8
P-0000
  6
Continuous
 62
     7
100
AcDbCircle
 10
2510.603507383249
 20
1128.168964661269
 30
0.0
 40
12.41944341639904
100
AcDbArc
 50
72.41204622603388
 51
94.9583180692961
1001
ACME_LAYERS
1000
1
  0
ARC
  5
23D1
330
1F
100
AcDbEntity
  8
P-0000
  6
Continuous
 62
     7
100
AcDbCircle
 10
2504.974342258649
 20
1137.910977650618
 30
0.0
 40
3.322569572950221
100
AcDbArc
 50
240.6266206051669
 51
304.3842474680318
1001
ACME_LAYERS
1000
1
  0
ARC
  5
23D2
330
1F
100
AcDbEntity
  8
P-0000
  6
Continuous
 62
     7
100
AcDbCircle
 10
2516.232672507846
 20
1137.910977650618
 30
0.0
 40
3.322569572950221
100
AcDbArc
 50
299.3733793948328
 51
304.3842474680318
1001
ACME_LAYERS
1000
1
  0
ARC
  5
23D3
330
1F
100
AcDbEntity
  8
P-0000
  6
Continuous
 62
     7
100
AcDbCircle
 10
2516.232672507846
 20
1137.265838504719
 30
0.0
 40
3.322569572949122
100
AcDbArc
 50
60.62662060516681
 51
124.3842474680226
1001
ACME_LAYERS
1000
1
  0
ARC
  5
23D4
330
1F
100
AcDbEntity
  8
P-0000
  6
Continuous
 62
     7
100
AcDbCircle
 10
2504.974342258649
 20
1137.910977650618
 30
0.0
 40
3.322569572949876
100
AcDbArc
 50
235.6157525319677
 51
240.6266206051669
1001
ACME_LAYERS
1000
1
  0
ARC
  5
23D5
330
1F
100
AcDbEntity
  8
P-0000
  6
Continuous
 62
     7
100
AcDbCircle
 10
2516.232672507846
 20
1137.910977650618
 30
0.0
 40
3.322569572949872
100
AcDbArc
 50
235.6157525319768
 51
299.3733793948328
1001
ACME_LAYERS
1000
1
  0
ARC
  5
23D6
330
1F
100
AcDbEntity
  8
P-0000
  6
Continuous
 62
     7
100
AcDbCircle
 10
2516.232672507846
 20
1137.265838504719
 30
0.0
 40
3.322569572949884
100
AcDbArc
 50
55.61575253196763
 51
60.62662060516681
1001
ACME_LAYERS
1000
1
  0
HATCH
  5
23D7
330
1F
100
AcDbEntity
  8
P-0000
  6
Continuous
 62
     1
100
AcDbHatch
 10
0.0
 20
0.0
 30
0.0
210
0.0
220
0.0
230
1.0
  2
_U
 70
     0
 71
     0
 91
        1
 92
        1
 93
       16
 72
     1
 10
2508.302114142904
 20
1152.482756779242
 11
2508.302114142904
 21
1152.43358519626
 72
     1
 10
2508.302114142904
 20
1152.43358519626
 11
2507.802114142903
 21
1152.43358519626
 72
     1
 10
2507.802114142903
 20
1152.43358519626
 11
2507.802114142904
 21
1150.482756779242
 72
     1
 10
2507.802114142904
 20
1150.482756779242
 11
2500.74122297459
 21
1150.482756779242
 72
     2
 10
2500.74122297459
 20
1149.982756779242
 40
0.5
 50
449.9999999999992
 51
539.9999999999992
 73
     1
 72
     1
 10
2500.241222974588
 20
1149.982756779242
 11
2500.241222974588
 21
1137.488408077673
 72
     2
 10
2496.241222974588
 20
1137.488408077673
 40
4.000000000000068
 50
0.0000000000008651
 51
90.00000000000088
 73
     0
 72
     1
 10
2496.241222974588
 20
1133.488408077673
 11
2481.552114142911
 21
1133.488408077673
 72
     1
 10
2481.552114142911
 20
1133.488408077673
 11
2481.552114142911
 21
1135.488408077673
 72
     1
 10
2481.552114142911
 20
1135.488408077673
 11
2496.302114142903
 21
1135.488408077673
 72
     2
 10
2496.302114142903
 20
1137.488408077673
 40
1.999999999999999
 50
269.9999999999992
 51
359.9999999999992
 73
     1
 72
     1
 10
2498.302114142903
 20
1137.488408077673
 11
2498.302114142903
 21
1154.982756779242
 72
     1
 10
2498.302114142903
 20
1154.982756779242
 11
2500.302114142903
 21
1154.982756779242
 72
     1
 10
2500.302114142903
 20
1154.982756779242
 11
2500.302114142903
 21
1152.982756779242
 72
     2
 10
2500.802114142902
 20
1152.982756779242
 40
0.5
 50
539.9999999999992
 51
629.999999999999
 73
     1
 72
     1
 10
2500.802114142902
 20
1152.482756779242
 11
2508.302114142904
 21
1152.482756779242
 97
        0
 75
     0
 76
     0
 52
-45.0
 41
2.0
 77
     0
 78
     1
 53
315.0
 43
0.0
 44
0.0
 45
1.414213562373094
 46
1.414213562373094
 79
     0
 98
        1
 10
2467.363005311211
 20
644.0670884361447
1001
ACME_LAYERS
1000
1
1001
ACAD
1010
0.0
1020
0.0
1030
0.0
  0
LINE
  5
23D8
330
1F
100
AcDbEntity
  8
P-0000
  6
Continuous
 62
     7
100
AcDbLine
 10
2528.302114142912
 20
1154.982756779242
 30
0.0
 11
2525.526411128039
 21
1154.982756779242
 31
0.0
1001
ACME_LAYERS
1000
1
  0
LINE
  5
23D9
330
1F
100
AcDbEntity
  8
P-0000
  6
Continuous
 62
     7
100
AcDbLine
 10
2508.839834599785
 20
1154.982756779242
 30
0.0
 11
2500.302114142903
 21
1154.982756779242
 31
0.0
1001
ACME_LAYERS
1000
1
  0
LINE
  5
23DA
330
1F
100
AcDbEntity
  8
P-0000
  6
Continuous
 62
     7
100
AcDbLine
 10
2526.748095136973
 20
1150.482756779242
 30
0.0
 11
2498.241222974588
 21
1134.024306462535
 31
0.0
1001
ACME_LAYERS
1000
1
  0
LINE
  5
23DB
330
1F
100
AcDbEntity
  8
P-0000
  6
Continuous
 62
     7
100
AcDbLine
 10
2500.74122297459
 20
1150.482756779242
 30
0.0
 11
2507.802114142904
 21
1150.482756779242
 31
0.0
1001
ACME_LAYERS
1000
1
  0
LINE
  5
23DC
330
1F
100
AcDbEntity
  8
P-0000
  6
Continuous
 62
     7
100
AcDbLine
 10
2508.302114142904
 20
1152.482756779242
 30
0.0
 11
2500.802114142902
 21
1152.482756779242
 31
0.0
1001
ACME_LAYERS
1000
1
  0
LINE
  5
23DD
330
1F
100
AcDbEntity
  8
P-0000
  6
Continuous
 62
     7
100
AcDbLine
 10
2593.292353911183
 20
1154.982756779241
 30
0.0
 11
2528.302114142912
 21
1154.982756779242
 31
0.0
1001
ACME_LAYERS
1000
1
  0
LINE
  5
23DE
330
1F
100
AcDbEntity
  8
P-0000
  6
Continuous
 62
     7
100
AcDbLine
 10
2593.292353911183
 20
1152.482756779241
 30
0.0
 11
2538.302114142902
 21
1152.482756779241
 31
0.0
1001
ACME_LAYERS
1000
1
  0
LINE
  5
23E0
330
1F
100
AcDbEntity
  8
P-0000
  6
Continuous
 62
     7
100
AcDbLine
 10
2583.302114142895
 20
1132.98840807767
 30
0.0
 11
2583.302114142896
 21
1150.482756779241
 31
0.0
1001
ACME_LAYERS
1000
1
  0
LINE
  5
23E2
330
1F
100
AcDbEntity
  8
P-0000
  6
Continuous
 62
     7
100
AcDbLine
 10
2592.292353911166
 20
1152.482756779241
 30
0.0
 11
2583.310098335366
 21
1152.482756779241
 31
0.0
1001
ACME_LAYERS
1000
1
  0
HATCH
  5
23E3
330
1F
100
AcDbEntity
  8
P-0000
  6
Continuous
 62
     1
100
AcDbHatch
 10
0.0
 20
0.0
 30
0.0
210
0.0
220
0.0
230
1.0
  2
_U
 70
     0
 71
     0
 91
        1
 92
        1
 93
       11
 72
     1
 10
2527.802114142911
 20
1152.482756779242
 11
2516.302114142903
 21
1152.482756779242
 72
     1
 10
2516.302114142903
 20
1152.482756779242
 11
2516.302114142903
 21
1150.482756779242
 72
     1
 10
2516.302114142903
 20
1150.482756779242
 11
2526.748095136973
 21
1150.482756779242
 72
     1
 10
2526.748095136973
 20
1150.482756779242
 11
2532.302114142912
 21
1150.482756779242
 72
     1
 10
2532.302114142912
 20
1150.482756779242
 11
2532.302114142912
 21
1152.482756779242
 72
     1
 10
2532.302114142912
 20
1152.482756779242
 11
2530.802114142912
 21
1152.482756779242
 72
     2
 10
2530.802114142912
 20
1152.982756779242
 40
0.5
 50
-269.9999999999992
 51
-179.9999999999991
 73
     0
 72
     1
 10
2530.302114142911
 20
1152.982756779242
 11
2530.302114142911
 21
1154.982756779242
 72
     1
 10
2530.302114142911
 20
1154.982756779242
 11
2528.302114142912
 21
1154.982756779242
 72
     1
 10
2528.302114142912
 20
1154.982756779242
 11
2528.302114142912
 21
1152.982756779242
 72
     2
 10
2527.802114142911
 20
1152.982756779242
 40
0.5
 50
0.0000000000008651
 51
90.00000000000088
 73
     0
 97
        0
 75
     0
 76
     0
 52
-45.0
 41
2.0
 77
     0
 78
     1
 53
315.0
 43
0.0
 44
0.0
 45
1.414213562373094
 46
1.414213562373094
 79
     0
 98
        1
 10
2467.363005311211
 20
644.0670884361447
1001
ACME_LAYERS
1000
1
1001
ACAD
1010
0.0
1020
0.0
1030
0.0
  0
LINE
  5
23E4
330
1F
100
AcDbEntity
  8
P-0000
  6
Continuous
 62
     7
100
AcDbLine
 10
2527.802114142911
 20
1152.482756779242
 30
0.0
 11
2516.302114142903
 21
1152.482756779242
 31
0.0
1001
ACME_LAYERS
1000
1
  0
LINE
  5
23E5
330
1F
100
AcDbEntity
  8
P-0000
  6
Continuous
 62
     7
100
AcDbLine
 10
2532.302114142912
 20
1150.482756779242
 30
0.0
 11
2526.748095136973
 21
1150.482756779242
 31
0.0
1001
ACME_LAYERS
1000
1
  0
LINE
  5
23E6
330
1F
100
AcDbEntity
  8
P-0000
  6
Continuous
 62
     7
100
AcDbLine
 10
2538.302114142902
 20
1152.482756779241
 30
0.0
 11
2532.302114142912
 21
1152.482756779242
 31
0.0
1001
ACME_LAYERS
1000
1
  0
LINE
  5
23E7
330
1F
100
AcDbEntity
  8
P-0000
  6
Continuous
 62
     7
100
AcDbLine
 10
2532.302114142912
 20
1150.482756779242
 30
0.0
 11
2532.302114142912
 21
1152.482756779242
 31
0.0
1001
ACME_LAYERS
1000
1
  0
LINE
  5
23E8
330
1F
100
AcDbEntity
  8
P-0000
  6
Continuous
 62
     7
100
AcDbLine
 10
2532.302114142912
 20
1152.482756779242
 30
0.0
 11
2530.802114142912
 21
1152.482756779242
 31
0.0
1001
ACME_LAYERS
1000
1
  0
LINE
  5
23E9
330
1F
100
AcDbEntity
  8
P-0000
  6
Continuous
 62
     7
100
AcDbLine
 10
2528.302114142912
 20
1152.982756779242
 30
0.0
 11
2528.302114142912
 21
1154.982756779242
 31
0.0
1001
ACME_LAYERS
1000
1
  0
LINE
  5
23EA
330
1F
100
AcDbEntity
  8
P-0000
  6
Continuous
 62
     7
100
AcDbLine
 10
2530.302114142911
 20
1152.982756779242
 30
0.0
 11
2530.302114142911
 21
1154.982756779242
 31
0.0
1001
ACME_LAYERS
1000
1
  0
LINE
  5
23EB
330
1F
100
AcDbEntity
  8
P-0000
  6
Continuous
 62
     7
100
AcDbLine
 10
2528.302114142912
 20
1154.982756779242
 30
0.0
 11
2530.302114142911
 21
1154.982756779242
 31
0.0
1001
ACME_LAYERS
1000
1
  0
ARC
  5
23EC
330
1F
100
AcDbEntity
  8
P-0000
  6
Continuous
 62
     7
100
AcDbCircle
 10
2527.802114142911
 20
1152.982756779242
 30
0.0
 40
0.5
100
AcDbArc
 50
270.0
 51
359.9999999999992
1001
ACME_LAYERS
1000
1
  0
ARC
  5
23ED
330
1F
100
AcDbEntity
  8
P-0000
  6
Continuous
 62
     7
100
AcDbCircle
 10
2530.802114142912
 20
1152.982756779242
 30
0.0
 40
0.5
100
AcDbArc
 50
179.9999999999991
 51
270.0
1001
ACME_LAYERS
1000
1
  0
LINE
  5
23EE
330
1F
100
AcDbEntity
  8
P-0000
  6
Continuous
 62
     7
100
AcDbLine
 10
2512.591283537843
 20
1150.482756779242
 30
0.0
 11
2516.302114142903
 21
1150.482756779242
 31
0.0
1001
ACME_LAYERS
1000
1
  0
LINE
  5
23EF
330
1F
100
AcDbEntity
  8
P-0000
  6
Continuous
 62
     7
100
AcDbLine
 10
2516.302114142903
 20
1152.482756779242
 30
0.0
 11
2508.302114142904
 21
1152.482756779242
 31
0.0
1001
ACME_LAYERS
1000
1
  0
LINE
  5
23F0
330
1F
100
AcDbEntity
  8
P-0000
  6
Continuous
 62
     7
100
AcDbLine
 10
2516.302114142903
 20
1150.482756779242
 30
0.0
 11
2526.748095136973
 21
1150.482756779242
 31
0.0
1001
ACME_LAYERS
1000
1
  0
LINE
  5
23F1
330
1F
100
AcDbEntity
  8
P-0000
  6
Continuous
 62
     7
100
AcDbLine
 10
2516.302114142903
 20
1152.482756779242
 30
0.0
 11
2516.302114142903
 21
1150.482756779242
 31
0.0
1001
ACME_LAYERS
1000
1
  0
LINE
  5
23F2
330
1F
100
AcDbEntity
  8
P-0000
  6
Continuous
 62
     7
100
AcDbLine
 10
2510.792353911182
 20
1152.482756779242
 30
0.0
 11
2509.792353911181
 21
1152.482756779242
 31
0.0
1001
ACME_LAYERS
1000
1
  0
LINE
  5
23F3
330
1F
100
AcDbEntity
  8
P-0000
  6
Continuous
 62
     7
100
AcDbLine
 10
2510.792353911182
 20
1152.482756779242
 30
0.0
 11
2509.792353911181
 21
1152.482756779242
 31
0.0
1001
ACME_LAYERS
1000
1
  0
LINE
  5
23F4
330
1F
100
AcDbEntity
  8
P-0000
  6
Continuous
 62
     7
100
AcDbLine
 10
2471.552114142912
 20
1135.488408077674
 30
0.0
 11
2481.552114142911
 21
1135.488408077673
 31
0.0
1001
ACME_LAYERS
1000
1
  0
LINE
  5
23F5
330
1F
100
AcDbEntity
  8
P-0000
  6
Continuous
 62
     7
100
AcDbLine
 10
2471.552114142912
 20
1133.488408077673
 30
0.0
 11
2481.552114142911
 21
1133.488408077673
 31
0.0
1001
ACME_LAYERS
1000
1
  0
LINE
  5
23F6
330
1F
100
AcDbEntity
  8
P-0000
  6
Continuous
 62
     7
100
AcDbLine
 10
2500.241222974588
 20
1137.488408077673
 30
0.0
 11
2500.241222974588
 21
1149.982756779242
 31
0.0
1001
ACME_LAYERS
1000
1
  0
LINE
  5
23F7
330
1F
100
AcDbEntity
  8
P-0000
  6
Continuous
 62
     7
100
AcDbLine
 10
2498.302114142903
 20
1137.488408077673
 30
0.0
 11
2498.302114142903
 21
1152.482756779242
 31
0.0
1001
ACME_LAYERS
1000
1
  0
LINE
  5
23F8
330
1F
100
AcDbEntity
  8
P-0000
  6
Continuous
 62
     7
100
AcDbLine
 10
2488.490422345349
 20
1135.488408077673
 30
0.0
 11
2498.302114142903
 21
1152.482756779242
 31
0.0
1001
ACME_LAYERS
1000
1
  0
LINE
  5
23F9
330
1F
100
AcDbEntity
  8
P-0000
  6
Continuous
 62
     7
100
AcDbLine
 10
2498.302114142903
 20
1154.982756779242
 30
0.0
 11
2500.302114142903
 21
1154.982756779242
 31
0.0
1001
ACME_LAYERS
1000
1
  0
LINE
  5
23FA
330
1F
100
AcDbEntity
  8
P-0000
  6
Continuous
 62
     7
100
AcDbLine
 10
2500.302114142903
 20
1154.982756779242
 30
0.0
 11
2500.302114142903
 21
1152.982756779242
 31
0.0
1001
ACME_LAYERS
1000
1
  0
ARC
  5
23FB
330
1F
100
AcDbEntity
  8
P-0000
  6
Continuous
 62
     7
100
AcDbCircle
 10
2500.802114142902
 20
1152.982756779242
 30
0.0
 40
0.5
100
AcDbArc
 50
179.9999999999991
 51
270.0
1001
ACME_LAYERS
1000
1
  0
ARC
  5
23FC
330
1F
100
AcDbEntity
  8
P-0000
  6
Continuous
 62
     7
100
AcDbCircle
 10
2500.74122297459
 20
1149.982756779242
 30
0.0
 40
0.5
100
AcDbArc
 50
90.0
 51
179.9999999999991
1001
ACME_LAYERS
1000
1
  0
LINE
  5
23FD
330
1F
100
AcDbEntity
  8
P-0000
  6
Continuous
 62
     7
100
AcDbLine
 10
2498.302114142903
 20
1154.982756779242
 30
0.0
 11
2498.302114142903
 21
1152.482756779242
 31
0.0
1001
ACME_LAYERS
1000
1
  0
LINE
  5
23FE
330
1F
100
AcDbEntity
  8
P-0000
  6
Continuous
 62
     7
100
AcDbLine
 10
2488.490422345349
 20
1135.488408077673
 30
0.0
 11
2496.302114142903
 21
1135.488408077673
 31
0.0
1001
ACME_LAYERS
1000
1
  0
LINE
  5
23FF
330
1F
100
AcDbEntity
  8
P-0000
  6
Continuous
 62
     7
100
AcDbLine
 10
2481.552114142911
 20
1133.488408077673
 30
0.0
 11
2496.241222974588
 21
1133.488408077673
 31
0.0
1001
ACME_LAYERS
1000
1
  0
ARC
  5
2400
330
1F
100
AcDbEntity
  8
P-0000
  6
Continuous
 62
     7
100
AcDbCircle
 10
2496.302114142903
 20
1137.488408077673
 30
0.0
 40
2.0
100
AcDbArc
 50
270.0
 51
359.9999999999992
1001
ACME_LAYERS
1000
1
  0
ARC
  5
2401
330
1F
100
AcDbEntity
  8
P-0000
  6
Continuous
 62
     7
100
AcDbCircle
 10
2496.241222974588
 20
1137.488408077673
 30
0.0
 40
4.0
100
AcDbArc
 50
299.9999999999998
 51
359.9999999999992
1001
ACME_LAYERS
1000
1
  0
ARC
  5
2402
330
1F
100
AcDbEntity
  8
P-0000
  6
Continuous
 62
     7
100
AcDbCircle
 10
2496.241222974588
 20
1137.488408077673
 30
0.0
 40
4.000000000000031
100
AcDbArc
 50
270.0
 51
299.9999999999998
1001
ACME_LAYERS
1000
1
  0
LINE
  5
2403
330
1F
100
AcDbEntity
  8
P-0000
  6
Continuous
 62
     7
100
AcDbLine
 10
2481.552114142911
 20
1135.488408077673
 30
0.0
 11
2488.490422345349
 21
1135.488408077673
 31
0.0
1001
ACME_LAYERS
1000
1
  0
LINE
  5
2404
330
1F
100
AcDbEntity
  8
P-0000
  6
Continuous
 62
     7
100
AcDbLine
 10
2481.552114142911
 20
1133.488408077673
 30
0.0
 11
2481.552114142911
 21
1135.488408077673
 31
0.0
1001
ACME_LAYERS
1000
1
  0
LINE
  5
2405
330
1F
100
AcDbEntity
  8
AM_7
  6
AM_DIN_G_W050x2
100
AcDbLine
 10
2476.552114142911
 20
1127.488408077674
 30
0.0
 11
2476.552114142911
 21
1141.488408077673
 31
0.0
1001
ACME_LAYERS
1000
1
  0
HATCH
  5
2406
330
1F
100
AcDbEntity
  8
P-0000
  6
Continuous
 62
     1
100
AcDbHatch
 10
0.0
 20
0.0
 30
0.0
210
0.0
220
0.0
230
1.0
  2
_U
 70
     0
 71
     0
 91
        1
 92
        1
 93
        4
 72
     1
 10
2466.552114142912
 20
1133.488408077673
 11
2471.552114142912
 21
1133.488408077673
 72
     1
 10
2471.552114142912
 20
1133.488408077673
 11
2471.552114142912
 21
1135.488408077674
 72
     1
 10
2471.552114142912
 20
1135.488408077674
 11
2466.552114142912
 21
1135.488408077674
 72
     1
 10
2466.552114142912
 20
1135.488408077674
 11
2466.552114142912
 21
1133.488408077673
 97
        0
 75
     0
 76
     0
 52
-45.0
 41
2.0
 77
     0
 78
     1
 53
224.9999999999992
 43
2467.363005311211
 44
644.0670884361447
 45
-1.41421356237307
 46
1.414213562373115
 79
     0
 98
        1
 10
2467.363005311211
 20
644.0670884361447
1001
ACME_LAYERS
1000
1
  0
LINE
  5
2407
330
1F
100
AcDbEntity
  8
P-0000
  6
Continuous
 62
     7
100
AcDbLine
 10
2466.552114142912
 20
1135.488408077674
 30
0.0
 11
2471.552114142912
 21
1135.488408077674
 31
0.0
1001
ACME_LAYERS
1000
1
  0
LINE
  5
2408
330
1F
100
AcDbEntity
  8
P-0000
  6
Continuous
 62
     7
100
AcDbLine
 10
2466.552114142912
 20
1133.488408077673
 30
0.0
 11
2471.552114142912
 21
1133.488408077673
 31
0.0
1001
ACME_LAYERS
1000
1
  0
LINE
  5
2409
330
1F
100
AcDbEntity
  8
P-0000
  6
Continuous
 62
     7
100
AcDbLine
 10
2471.552114142912
 20
1133.488408077673
 30
0.0
 11
2471.552114142912
 21
1135.488408077674
 31
0.0
1001
ACME_LAYERS
1000
1
  0
LINE
  5
240A
330
1F
100
AcDbEntity
  8
P-0000
  6
Continuous
 62
     7
100
AcDbLine
 10
2466.552114142912
 20
1133.488408077673
 30
0.0
 11
2466.552114142912
 21
1135.488408077674
 31
0.0
1001
ACME_LAYERS
1000
1
  0
LINE
  5
240B
330
1F
100
AcDbEntity
  8
P-0000
  6
Continuous
 62
     7
100
AcDbLine
 10
2591.802114142904
 20
1194.433585196259
 30
0.0
 11
2591.802114142903
 21
1158.433585196259
 31
0.0
1001
ACME_LAYERS
1000
1
  0
LINE
  5
240C
330
1F
100
AcDbEntity
  8
P-0000
  6
Continuous
 62
     7
100
AcDbLine
 10
2516.854443731924
 20
1177.002714395549
 30
0.0
 11
2515.875654515639
 21
1174.313513125401
 31
0.0
1001
ACME_LAYERS
1000
1
  0
LINE
  5
240D
330
1F
100
AcDbEntity
  8
P-0000
  6
Continuous
 62
     7
100
AcDbLine
 10
2525.526411128038
 20
1158.43358519626
 30
0.0
 11
2538.629339561624
 21
1194.433585196259
 31
0.0
1001
ACME_LAYERS
1000
1
  0
LINE
  5
240E
330
1F
100
AcDbEntity
  8
P-0000
  6
Continuous
 62
     7
100
AcDbLine
 10
2591.802114142904
 20
1200.403234295891
 30
0.0
 11
2540.802114142904
 21
1200.403234295891
 31
0.0
1001
ACME_LAYERS
1000
1
  0
LINE
  5
240F
330
1F
100
AcDbEntity
  8
P-0000
  6
Continuous
 62
     7
100
AcDbLine
 10
2591.802114142904
 20
1200.403234295891
 30
0.0
 11
2540.802114142904
 21
1200.403234295891
 31
0.0
1001
ACME_LAYERS
1000
1
  0
LINE
  5
2410
330
1F
100
AcDbEntity
  8
P-0000
  6
Continuous
 62
     7
100
AcDbLine
 10
2545.432121221355
 20
1232.43358519626
 30
0.0
 11
2552.460208463742
 21
1232.43358519626
 31
0.0
1001
ACME_LAYERS
1000
1
  0
LINE
  5
2411
330
1F
100
AcDbEntity
  8
P-0000
  6
Continuous
 62
     7
100
AcDbLine
 10
2539.802114142904
 20
1194.433585196259
 30
0.0
 11
2591.802114142904
 21
1194.433585196259
 31
0.0
1001
ACME_LAYERS
1000
1
  0
LINE
  5
2412
330
1F
100
AcDbEntity
  8
P-0000
  6
Continuous
 62
     7
100
AcDbLine
 10
2547.000654949747
 20
1217.433585196258
 30
0.0
 11
2589.19795108687
 21
1217.433585196258
 31
0.0
1001
ACME_LAYERS
1000
1
  0
LINE
  5
2413
330
1F
100
AcDbEntity
  8
P-0000
  6
Continuous
 62
     7
100
AcDbLine
 10
2591.802114142904
 20
1217.433585196258
 30
0.0
 11
2591.802114142904
 21
1200.403234295891
 31
0.0
1001
ACME_LAYERS
1000
1
  0
LINE
  5
2414
330
1F
100
AcDbEntity
  8
P-0000
  6
Continuous
 62
     7
100
AcDbLine
 10
2554.588564008693
 20
1232.433585196259
 30
0.0
 11
2589.197951086871
 21
1232.433585196259
 31
0.0
1001
ACME_LAYERS
1000
1
  0
LINE
  5
2416
330
1F
100
AcDbEntity
  8
P-0000
  6
Continuous
 62
     7
100
AcDbLine
 10
2589.197951086871
 20
1232.433585196259
 30
0.0
 11
2589.19795108687
 21
1217.433585196258
 31
0.0
1001
ACME_LAYERS
1000
1
  0
LINE
  5
2417
330
1F
100
AcDbEntity
  8
P-0000
  6
Continuous
 62
     7
100
AcDbLine
 10
2589.197951086871
 20
1232.433585196259
 30
0.0
 11
2593.302114142904
 21
1232.433585196259
 31
0.0
1001
ACME_LAYERS
1000
1
  0
LINE
  5
2418
330
1F
100
AcDbEntity
  8
P-0000
  6
Continuous
 62
     7
100
AcDbLine
 10
2589.19795108687
 20
1217.433585196258
 30
0.0
 11
2591.802114142904
 21
1217.433585196258
 31
0.0
1001
ACME_LAYERS
1000
1
  0
LINE
  5
2419
330
1F
100
AcDbEntity
  8
P-0000
  6
Continuous
 62
     7
100
AcDbLine
 10
2591.802114142904
 20
1217.433585196258
 30
0.0
 11
2593.302114142904
 21
1217.433585196258
 31
0.0
1001
ACME_LAYERS
1000
1
  0
HATCH
  5
241A
330
1F
100
AcDbEntity
  8
P-0000
  6
Continuous
 62
     1
100
AcDbHatch
 10
0.0
 20
0.0
 30
0.0
210
0.0
220
0.0
230
1.0
  2
_U
 70
     0
 71
     0
 91
        1
 92
        1
 93
        5
 72
     1
 10
2551.004327526675
 20
1228.43358519626
 11
2552.460208463742
 21
1232.43358519626
 72
     1
 10
2552.460208463742
 20
1232.43358519626
 11
2554.588564008693
 21
1232.43358519626
 72
     1
 10
2554.588564008693
 20
1232.433585196259
 11
2553.372168154205
 21
1229.091565052933
 72
     2
 10
2552.432475533419
 20
1229.433585196259
 40
1.000000000000015
 50
20.00000000000397
 51
90.00000000000088
 73
     0
 72
     1
 10
2552.432475533418
 20
1228.43358519626
 11
2551.004327526675
 21
1228.43358519626
 97
        0
 75
     0
 76
     0
 52
44.99999999999999
 41
1.0
 77
     0
 78
     1
 53
45.0
 43
0.0
 44
0.0
 45
-0.7071067811865475
 46
0.7071067811865476
 79
     0
 98
        1
 10
2467.35324507949
 20
663.9547295279062
1001
ACME_LAYERS
1000
1
1001
ACAD
1010
0.0
1020
0.0
1030
0.0
  0
LINE
  5
241B
330
1F
100
AcDbEntity
  8
P-0000
  6
Continuous
 62
     7
100
AcDbLine
 10
2553.372168154205
 20
1229.091565052933
 30
0.0
 11
2554.588564008693
 21
1232.433585196259
 31
0.0
1001
ACME_LAYERS
1000
1
  0
LINE
  5
241C
330
1F
100
AcDbEntity
  8
P-0000
  6
Continuous
 62
     7
100
AcDbLine
 10
2551.004327526675
 20
1228.43358519626
 30
0.0
 11
2552.460208463742
 21
1232.43358519626
 31
0.0
1001
ACME_LAYERS
1000
1
  0
LINE
  5
241D
330
1F
100
AcDbEntity
  8
P-0000
  6
Continuous
 62
     7
100
AcDbLine
 10
2552.460208463742
 20
1232.43358519626
 30
0.0
 11
2554.588564008693
 21
1232.433585196259
 31
0.0
1001
ACME_LAYERS
1000
1
  0
ARC
  5
241E
330
1F
100
AcDbEntity
  8
P-0000
  6
Continuous
 62
     7
100
AcDbCircle
 10
2552.432475533419
 20
1229.433585196259
 30
0.0
 40
1.000000000000015
100
AcDbArc
 50
270.0
 51
339.99999999999
1001
ACME_LAYERS
1000
1
  0
ARC
  5
241F
330
1F
100
AcDbEntity
  8
P-0000
  6
Continuous
 62
     7
100
AcDbCircle
 10
2552.432475533419
 20
1229.433585196259
 30
0.0
 40
1.000000000000015
100
AcDbArc
 50
270.0
 51
339.99999999999
1001
ACME_LAYERS
1000
1
  0
LINE
  5
2420
330
1F
100
AcDbEntity
  8
P-0000
  6
Continuous
 62
     7
100
AcDbLine
 10
2551.004327526675
 20
1228.43358519626
 30
0.0
 11
2552.432475533418
 21
1228.43358519626
 31
0.0
1001
ACME_LAYERS
1000
1
  0
LINE
  5
2421
330
1F
100
AcDbEntity
  8
P-0000
  6
Continuous
 62
     7
100
AcDbLine
 10
2593.302114142904
 20
1200.403234295891
 30
0.0
 11
2591.802114142904
 21
1200.403234295891
 31
0.0
1001
ACME_LAYERS
1000
1
  0
LINE
  5
2422
330
1F
100
AcDbEntity
  8
P-0000
  6
Continuous
 62
     7
100
AcDbLine
 10
2593.302114142904
 20
1200.403234295891
 30
0.0
 11
2591.802114142904
 21
1200.403234295891
 31
0.0
1001
ACME_LAYERS
1000
1
  0
LINE
  5
2423
330
1F
100
AcDbEntity
  8
P-0000
  6
Continuous
 62
     7
100
AcDbLine
 10
2591.802114142904
 20
1194.433585196259
 30
0.0
 11
2593.302114142904
 21
1194.433585196259
 31
0.0
1001
ACME_LAYERS
1000
1
  0
LINE
  5
2424
330
1F
100
AcDbEntity
  8
P-0000
  6
Continuous
 62
     7
100
AcDbLine
 10
2534.155809771924
 20
1224.537826916168
 30
0.0
 11
2516.854443731924
 21
1177.002714395549
 31
0.0
1001
ACME_LAYERS
1000
1
  0
LINE
  5
2425
330
1F
100
AcDbEntity
  8
P-0000
  6
Continuous
 62
     7
100
AcDbLine
 10
2540.802114142904
 20
1200.403234295891
 30
0.0
 11
2547.000654949747
 21
1217.433585196258
 31
0.0
1001
ACME_LAYERS
1000
1
  0
ARC
  5
2426
330
1F
100
AcDbEntity
  8
P-0000
  6
Continuous
 62
     7
100
AcDbCircle
 10
2545.432121221355
 20
1220.433585196259
 30
0.0
 40
11.99999999999995
100
AcDbArc
 50
90.0
 51
160.0000000000014
1001
ACME_LAYERS
1000
1
  0
HATCH
  5
2427
330
1F
100
AcDbEntity
  8
P-0000
  6
Continuous
 62
     3
100
AcDbHatch
 10
0.0
 20
0.0
 30
0.0
210
0.0
220
0.0
230
1.0
  2
_U
 70
     0
 71
     0
 91
        1
 92
        1
 93
        4
 72
     1
 10
2538.629339561624
 20
1194.433585196259
 11
2540.802114142904
 21
1200.403234295891
 72
     1
 10
2540.802114142904
 20
1200.403234295891
 11
2540.802114142904
 21
1195.433585196259
 72
     2
 10
2539.802114142904
 20
1195.433585196259
 40
1.0
 50
0.0000000000008651
 51
90.00000000000088
 73
     0
 72
     1
 10
2539.802114142904
 20
1194.433585196259
 11
2538.629339561624
 21
1194.433585196259
 97
        0
 75
     0
 76
     0
 52
44.99999999999999
 41
1.0
 77
     0
 78
     1
 53
45.0
 43
0.0
 44
0.0
 45
-0.7071067811865475
 46
0.7071067811865476
 79
     0
 98
        1
 10
2467.35324507949
 20
663.9547295279062
1001
ACME_LAYERS
1000
1
1001
ACAD
1010
0.0
1020
0.0
1030
0.0
  0
LINE
  5
2428
330
1F
100
AcDbEntity
  8
P-0000
  6
Continuous
 62
     7
100
AcDbLine
 10
2538.629339561624
 20
1194.433585196259
 30
0.0
 11
2539.802114142904
 21
1194.433585196259
 31
0.0
1001
ACME_LAYERS
1000
1
  0
LINE
  5
2429
330
1F
100
AcDbEntity
  8
P-0000
  6
Continuous
 62
     7
100
AcDbLine
 10
2538.629339561624
 20
1194.433585196259
 30
0.0
 11
2540.802114142904
 21
1200.403234295891
 31
0.0
1001
ACME_LAYERS
1000
1
  0
LINE
  5
242A
330
1F
100
AcDbEntity
  8
P-0000
  6
Continuous
 62
     7
100
AcDbLine
 10
2540.802114142904
 20
1195.433585196259
 30
0.0
 11
2540.802114142904
 21
1200.403234295891
 31
0.0
1001
ACME_LAYERS
1000
1
  0
LINE
  5
242B
330
1F
100
AcDbEntity
  8
P-0000
  6
Continuous
 62
     7
100
AcDbLine
 10
2540.802114142904
 20
1195.433585196259
 30
0.0
 11
2540.802114142904
 21
1200.403234295891
 31
0.0
1001
ACME_LAYERS
1000
1
  0
ARC
  5
242C
330
1F
100
AcDbEntity
  8
P-0000
  6
Continuous
 62
     7
100
AcDbCircle
 10
2539.802114142904
 20
1195.433585196259
 30
0.0
 40
1.0
100
AcDbArc
 50
270.0
 51
359.9999999999992
1001
ACME_LAYERS
1000
1
  0
ARC
  5
242D
330
1F
100
AcDbEntity
  8
P-0000
  6
Continuous
 62
     7
100
AcDbCircle
 10
2539.802114142904
 20
1195.433585196259
 30
0.0
 40
1.0
100
AcDbArc
 50
270.0
 51
359.9999999999992
1001
ACME_LAYERS
1000
1
  0
LINE
  5
242E
330
1F
100
AcDbEntity
  8
P-0000
  6
Continuous
 62
     7
100
AcDbLine
 10
2591.802114142903
 20
1158.433585196259
 30
0.0
 11
2525.526411128038
 21
1158.43358519626
 31
0.0
1001
ACME_LAYERS
1000
1
  0
LINE
  5
242F
330
1F
100
AcDbEntity
  8
P-0000
  6
Continuous
 62
     7
100
AcDbLine
 10
2591.802114142903
 20
1158.433585196259
 30
0.0
 11
2525.526411128038
 21
1158.43358519626
 31
0.0
1001
ACME_LAYERS
1000
1
  0
LINE
  5
2430
330
1F
100
AcDbEntity
  8
P-0000
  6
Continuous
 62
     7
100
AcDbLine
 10
2591.802114142903
 20
1158.433585196259
 30
0.0
 11
2525.526411128038
 21
1158.43358519626
 31
0.0
1001
ACME_LAYERS
1000
1
  0
LINE
  5
2431
330
1F
100
AcDbEntity
  8
P-0000
  6
Continuous
 62
     7
100
AcDbLine
 10
2525.526411128038
 20
1152.43358519626
 30
0.0
 11
2591.802114142903
 21
1152.433585196259
 31
0.0
1001
ACME_LAYERS
1000
1
  0
LINE
  5
2432
330
1F
100
AcDbEntity
  8
P-0000
  6
Continuous
 62
     7
100
AcDbLine
 10
2593.302114142903
 20
1158.433585196259
 30
0.0
 11
2591.802114142903
 21
1158.433585196259
 31
0.0
1001
ACME_LAYERS
1000
1
  0
LINE
  5
2433
330
1F
100
AcDbEntity
  8
P-0000
  6
Continuous
 62
     7
100
AcDbLine
 10
2593.302114142903
 20
1158.433585196259
 30
0.0
 11
2591.802114142903
 21
1158.433585196259
 31
0.0
1001
ACME_LAYERS
1000
1
  0
LINE
  5
2434
330
1F
100
AcDbEntity
  8
P-0000
  6
Continuous
 62
     7
100
AcDbLine
 10
2593.302114142903
 20
1158.433585196259
 30
0.0
 11
2591.802114142903
 21
1158.433585196259
 31
0.0
1001
ACME_LAYERS
1000
1
  0
LINE
  5
2435
330
1F
100
AcDbEntity
  8
P-0000
  6
Continuous
 62
     7
100
AcDbLine
 10
2515.875654515639
 20
1174.313513125401
 30
0.0
 11
2508.302114142904
 21
1153.505381965984
 31
0.0
1001
ACME_LAYERS
1000
1
  0
LINE
  5
2436
330
1F
100
AcDbEntity
  8
P-0000
  6
Continuous
 62
     7
100
AcDbLine
 10
2514.302114142903
 20
1152.43358519626
 30
0.0
 11
2522.526411128038
 21
1152.43358519626
 31
0.0
1001
ACME_LAYERS
1000
1
  0
LINE
  5
2437
330
1F
100
AcDbEntity
  8
P-0000
  6
Continuous
 62
     7
100
AcDbLine
 10
2522.526411128038
 20
1152.43358519626
 30
0.0
 11
2522.526411128038
 21
1158.43358519626
 31
0.0
1001
ACME_LAYERS
1000
1
  0
LINE
  5
2438
330
1F
100
AcDbEntity
  8
P-0000
  6
Continuous
 62
     7
100
AcDbLine
 10
2525.526411128038
 20
1152.43358519626
 30
0.0
 11
2525.526411128038
 21
1158.43358519626
 31
0.0
1001
ACME_LAYERS
1000
1
  0
LINE
  5
2439
330
1F
100
AcDbEntity
  8
P-0000
  6
Continuous
 62
     7
100
AcDbLine
 10
2525.526411128038
 20
1158.43358519626
 30
0.0
 11
2522.526411128038
 21
1158.43358519626
 31
0.0
1001
ACME_LAYERS
1000
1
  0
LINE
  5
243A
330
1F
100
AcDbEntity
  8
P-0000
  6
Continuous
 62
     7
100
AcDbLine
 10
2525.526411128038
 20
1158.43358519626
 30
0.0
 11
2522.526411128038
 21
1158.43358519626
 31
0.0
1001
ACME_LAYERS
1000
1
  0
LINE
  5
243B
330
1F
100
AcDbEntity
  8
P-0000
  6
Continuous
 62
     7
100
AcDbLine
 10
2522.526411128038
 20
1152.43358519626
 30
0.0
 11
2525.526411128038
 21
1152.43358519626
 31
0.0
1001
ACME_LAYERS
1000
1
  0
LINE
  5
243C
330
1F
100
AcDbEntity
  8
P-0000
  6
Continuous
 62
     7
100
AcDbLine
 10
2507.802114142903
 20
1150.23358519626
 30
0.0
 11
2507.802114142903
 21
1152.43358519626
 31
0.0
1001
ACME_LAYERS
1000
1
  0
LINE
  5
243D
330
1F
100
AcDbEntity
  8
P-0000
  6
Continuous
 62
     7
100
AcDbLine
 10
2509.078344409453
 20
1146.477017427468
 30
0.0
 11
2514.302114142903
 21
1152.43358519626
 31
0.0
1001
ACME_LAYERS
1000
1
  0
LINE
  5
243E
330
1F
100
AcDbEntity
  8
P-0000
  6
Continuous
 62
     7
100
AcDbLine
 10
2508.302114142904
 20
1152.43358519626
 30
0.0
 11
2508.302114142904
 21
1153.505381965984
 31
0.0
1001
ACME_LAYERS
1000
1
  0
LINE
  5
243F
330
1F
100
AcDbEntity
  8
P-0000
  6
Continuous
 62
     7
100
AcDbLine
 10
2507.802114142903
 20
1152.43358519626
 30
0.0
 11
2508.302114142904
 21
1152.43358519626
 31
0.0
1001
ACME_LAYERS
1000
1
  0
LINE
  5
2440
330
1F
100
AcDbEntity
  8
P-0000
  6
Continuous
 62
     7
100
AcDbLine
 10
2508.302114142904
 20
1152.43358519626
 30
0.0
 11
2508.302114142904
 21
1153.505381965984
 31
0.0
1001
ACME_LAYERS
1000
1
  0
LINE
  5
2441
330
1F
100
AcDbEntity
  8
P-0000
  6
Continuous
 62
     7
100
AcDbLine
 10
2506.602114142904
 20
1148.73358519626
 30
0.0
 11
2508.160941334975
 21
1146.53604342506
 31
0.0
1001
ACME_LAYERS
1000
1
  0
LINE
  5
2442
330
1F
100
AcDbEntity
  8
P-0000
  6
Continuous
 62
     7
100
AcDbLine
 10
2507.802114142903
 20
1150.23358519626
 30
0.0
 11
2506.602114142904
 21
1150.23358519626
 31
0.0
1001
ACME_LAYERS
1000
1
  0
LINE
  5
2443
330
1F
100
AcDbEntity
  8
P-0000
  6
Continuous
 62
     7
100
AcDbLine
 10
2506.602114142904
 20
1150.23358519626
 30
0.0
 11
2506.602114142904
 21
1148.73358519626
 31
0.0
1001
ACME_LAYERS
1000
1
  0
ARC
  5
2444
330
1F
100
AcDbEntity
  8
P-0000
  6
Continuous
 62
     7
100
AcDbCircle
 10
2508.650321137058
 20
1146.88318519626
 30
0.0
 40
0.6000000000000229
100
AcDbArc
 50
215.3499999999959
 51
270.0
1001
ACME_LAYERS
1000
1
  0
ARC
  5
2445
330
1F
100
AcDbEntity
  8
P-0000
  6
Continuous
 62
     7
100
AcDbCircle
 10
2508.650547558997
 20
1146.85218519626
 30
0.0
 40
0.5689999999999894
100
AcDbArc
 50
270.0
 51
318.749999999999
1001
ACME_LAYERS
1000
1
  0
LINE
  5
2446
330
1F
100
AcDbEntity
  8
P-0000
  6
Continuous
 62
     7
100
AcDbLine
 10
2508.650321137058
 20
1146.28318519626
 30
0.0
 11
2508.650547558997
 21
1146.28318519626
 31
0.0
1001
ACME_LAYERS
1000
1
  0
HATCH
  5
2447
330
1F
100
AcDbEntity
  8
AM_8
100
AcDbHatch
 10
0.0
 20
0.0
 30
0.0
210
0.0
220
0.0
230
1.0
  2
_U
 70
     0
 71
     0
 91
        1
 92
        1
 93
        4
 72
     1
 10
2522.526411128038
 20
1158.43358519626
 11
2525.526411128038
 21
1158.43358519626
 72
     1
 10
2525.526411128038
 20
1158.43358519626
 11
2525.526411128038
 21
1152.43358519626
 72
     1
 10
2525.526411128038
 20
1152.43358519626
 11
2522.526411128038
 21
1152.43358519626
 72
     1
 10
2522.526411128038
 20
1152.43358519626
 11
2522.526411128038
 21
1158.43358519626
 97
        0
 75
     0
 76
     0
 52
44.99999999999999
 41
1.0
 77
     0
 78
     1
 53
45.0
 43
0.0
 44
0.0
 45
-0.7071067811865475
 46
0.7071067811865476
 79
     0
 98
        1
 10
2765.893141378966
 20
1270.931668228235
1001
GENIUS_GENODEF_13
1002
{
1000
HIER
1070
     0
1002
}
1002
{
1000
MANEDIT
1070
     0
1002
}
1002
{
1000
NOSEL
1070
     0
1002
}
1002
{
1000
BEHIND
1070
     0
1002
}
1002
{
1000
OTHER
1070
     0
1002
}
1002
{
1000
REACTOR
1002
}
1001
GENIUS_GENOBJ-N-HTC_13
1002
{
1000
OWNER
1000
GEN
1002
}
1001
GENIUS_GENHATCH_13
1002
{
1000
DATA
1040
135.0
1042
-1.0
1000
_U
1070
     0
1011
2524.757434312591
1021
1152.892172242778
1031
0.0
1002
}
1002
{
1000
UCS
1010
0.0
1020
0.0
1030
0.0
1010
1.0
1020
0.0
1030
0.0
1010
0.0
1020
1.0
1030
0.0
1002
}
1001
ACAD
1010
0.0
1020
0.0
1030
0.0
  0
HATCH
  5
244E
330
1F
100
AcDbEntity
  8
AM_8
100
AcDbHatch
 10
0.0
 20
0.0
 30
0.0
210
0.0
220
0.0
230
1.0
  2
_U
 70
     0
 71
     0
 91
        1
 92
        1
 93
        4
 72
     1
 10
2592.810842761768
 20
1232.433585196259
 11
2592.810842761768
 21
1217.433585196258
 72
     1
 10
2592.810842761768
 20
1217.433585196258
 11
2596.423734436666
 21
1217.433585196258
 72
     1
 10
2596.423734436666
 20
1217.433585196258
 11
2596.423734436666
 21
1232.433585196259
 72
     1
 10
2596.423734436666
 20
1232.433585196259
 11
2592.810842761768
 21
1232.433585196259
 97
        0
 75
     0
 76
     0
 52
45.0
 41
2.5
 77
     0
 78
     1
 53
45.0
 43
0.0
 44
0.0
 45
-1.767766952966368
 46
1.767766952966368
 79
     0
 98
        1
 10
0.0
 20
0.0
1001
GENIUS_GENODEF_13
1002
{
1000
HIER
1070
     0
1002
}
1002
{
1000
MANEDIT
1070
     0
1002
}
1002
{
1000
NOSEL
1070
     0
1002
}
1002
{
1000
BEHIND
1070
     0
1002
}
1002
{
1000
OTHER
1070
     0
1002
}
1002
{
1000
REACTOR
1002
}
1001
GENIUS_GENOBJ-N-HTC_13
1002
{
1000
OWNER
1000
GEN
1002
}
1001
GENIUS_GENHATCH_13
1002
{
1000
DATA
1040
45.0
1042
2.5
1000
_U
1070
     0
1011
2595.70978480207
1021
1226.164508789832
1031
0.0
1002
}
1002
{
1000
UCS
1010
0.0
1020
0.0
1030
0.0
1010
1.0
1020
0.0
1030
0.0
1010
0.0
1020
1.0
1030
0.0
1002
}
  0
HATCH
  5
2450
330
1F
100
AcDbEntity
  8
AM_8
100
AcDbHatch
 10
0.0
 20
0.0
 30
0.0
210
0.0
220
0.0
230
1.0
  2
_U
 70
     0
 71
     0
 91
        1
 92
        1
 93
        4
 72
     1
 10
2592.810842761768
 20
1217.433585196258
 11
2592.810842761768
 21
1232.433585196259
 72
     1
 10
2592.810842761768
 20
1232.433585196259
 11
2589.197951086871
 21
1232.433585196259
 72
     1
 10
2589.197951086871
 20
1232.433585196259
 11
2589.19795108687
 21
1217.433585196258
 72
     1
 10
2589.19795108687
 20
1217.433585196258
 11
2592.810842761768
 21
1217.433585196258
 97
        0
 75
     0
 76
     0
 52
45.0
 41
2.5
 77
     0
 78
     1
 53
45.0
 43
0.0
 44
0.0
 45
-1.767766952966368
 46
1.767766952966368
 79
     0
 98
        1
 10
0.0
 20
0.0
1001
GENIUS_GENODEF_13
1002
{
1000
HIER
1070
     0
1002
}
1002
{
1000
MANEDIT
1070
     0
1002
}
1002
{
1000
NOSEL
1070
     0
1002
}
1002
{
1000
BEHIND
1070
     0
1002
}
1002
{
1000
OTHER
1070
     0
1002
}
1002
{
1000
REACTOR
1002
}
1001
GENIUS_GENOBJ-N-HTC_13
1002
{
1000
OWNER
1000
GEN
1002
}
1001
GENIUS_GENHATCH_13
1002
{
1000
DATA
1040
45.0
1042
2.5
1000
_U
1070
     0
1011
2589.871622923181
1021
1222.699971847614
1031
0.0
1002
}
1002
{
1000
UCS
1010
0.0
1020
0.0
1030
0.0
1010
1.0
1020
0.0
1030
0.0
1010
0.0
1020
1.0
1030
0.0
1002
}
  0
LINE
  5
28D6
330
1F
100
AcDbEntity
  8
0
100
AcDbLine
 10
2590.320602993496
 20
1150.482756779241
 30
0.0
 11
2590.320602993496
 21
1133.488408077672
 31
0.0
  0
LINE
  5
28D7
330
1F
100
AcDbEntity
  8
0
100
AcDbLine
 10
2594.338060231241
 20
1150.482756779241
 30
0.0
 11
2594.338060231237
 21
1133.488408077672
 31
0.0
  0
DIMENSION
  5
2BFC
102
{ACAD_XDICTIONARY
360
2C09
102
}
102
{ACAD_REACTORS
330
2C0A
102
}
330
1F
100
AcDbEntity
  8
AM_5
100
AcDbDimension
  2
*D3
 10
2395.264984990136
 20
1116.282488172726
 30
0.0
 11
2388.764984990136
 21
931.2824881727262
 31
0.0
 70
    32
 71
     5
 42
370.0000000000002
  3
AM_DIN$0
100
AcDbAlignedDimension
 13
2592.810842761764
 23
746.2824881727257
 33
0.0
 14
2427.767332719801
 24
1116.282488172726
 34
0.0
 50
90.00000000000005
100
AcDbRotatedDimension
1001
ACAD_DSTYLE_DIMINSPECT
1070
   396
1000
100%
1070
   395
1000

1070
   394
1070
    33
1070
   393
1070
     0
1001
ACAD
1000
DSTYLE
1002
{
1070
    41
1040
5.0
1070
   140
1040
10.0
1070
   271
1070
     0
1002
}
  0
ENDSEC
  0
SECTION
  2
OBJECTS
  0
DICTIONARY
  5
C
330
0
100
AcDbDictionary
281
     1
  3
ACAD_2007HEADERVARS_RT
350
2D69
  3
ACAD_COLOR
350
BE
  3
ACAD_GROUP
350
D
  3
ACAD_LAYOUT
350
1A
  3
ACAD_MATERIAL
350
BD
  3
ACAD_MLEADERSTYLE
350
3EF
  3
ACAD_MLINESTYLE
350
17
  3
ACAD_PLOTSETTINGS
350
19
  3
ACAD_PLOTSTYLENAME
350
E
  3
ACAD_SCALELIST
350
3DD
  3
ACAD_TABLESTYLE
350
11A
  3
ACAD_VISUALSTYLE
350
3CC
  3
ACDB_RECOMPOSE_DATA
350
2212
  3
AcDbVariableDictionary
350
94
  3
AcmDictionary
350
5B
  3
AcmSystemVariableManager
350
2D75
  3
AEC_PROPERTY_SET_DEFS
350
942
  3
AMG
350
41
  3
AMGSNAPSETTINGS
350
26B
  3
DWGPROPS
350
2D68
  0
DICTIONARY
  5
468
330
2
100
AcDbDictionary
280
     1
281
     1
  3
ACAD_LAYERSTATES
360
469
  3
AMLAYER_GROUPCOLORS
360
244B
  0
DICTIONARY
  5
20EC
330
10
100
AcDbDictionary
280
     1
281
     1
  3
ADSK_XREC_LAYER_RECONCILED
360
20ED
  0
DICTIONARY
  5
459
330
458
100
AcDbDictionary
280
     1
281
     1
  3
ADSK_XREC_LAYER_RECONCILED
360
20EE
  0
DICTIONARY
  5
45C
330
45B
100
AcDbDictionary
280
     1
281
     1
  3
ADSK_XREC_LAYER_RECONCILED
360
20EF
  0
DICTIONARY
  5
45F
330
45E
100
AcDbDictionary
280
     1
281
     1
  3
ADSK_XREC_LAYER_RECONCILED
360
20F2
  0
DICTIONARY
  5
461
330
460
100
AcDbDictionary
280
     1
281
     1
  3
ADSK_XREC_LAYER_RECONCILED
360
20F3
  0
DICTIONARY
  5
EAE
330
EAD
100
AcDbDictionary
280
     1
281
     1
  3
ADSK_XREC_LAYER_RECONCILED
360
20F5
  0
DICTIONARY
  5
8F
330
1F
100
AcDbDictionary
280
     1
281
     1
  3
ACAD_SORTENTS
360
1DD7
  0
DICTIONARY
  5
2C09
330
2BFC
100
AcDbDictionary
280
     1
281
     1
  3
ACAD_DIMASSOC
360
2C0A
  0
DICTIONARY
  5
2D69
102
{ACAD_REACTORS
330
C
102
}
330
C
100
AcDbDictionary
281
     1
  3
DIMJOGANG
350
2D6A
  3
DIMLTEX1
350
2D6C
  3
DIMLTEX2
350
2D6D
  3
DIMLTYPE
350
2D6B
  0
DICTIONARY
  5
BE
102
{ACAD_REACTORS
330
C
102
}
330
C
100
AcDbDictionary
281
     1
  0
DICTIONARY
  5
D
102
{ACAD_REACTORS
330
C
102
}
330
C
100
AcDbDictionary
281
     1
  0
DICTIONARY
  5
1A
102
{ACAD_REACTORS
330
C
102
}
330
C
100
AcDbDictionary
281
     1
  3
Layout1
350
1E
  3
Layout2
350
26
  3
Model
350
22
  0
DICTIONARY
  5
BD
102
{ACAD_REACTORS
330
C
102
}
330
C
100
AcDbDictionary
281
     1
  3
ByBlock
350
3BC
  3
ByLayer
350
3B4
  3
Global
350
3C4
  0
DICTIONARY
  5
3EF
102
{ACAD_REACTORS
330
C
102
}
330
C
100
AcDbDictionary
281
     1
  3
Standard
350
3F0
  0
DICTIONARY
  5
17
102
{ACAD_REACTORS
330
C
102
}
330
C
100
AcDbDictionary
281
     1
  3
Standard
350
18
  0
DICTIONARY
  5
19
102
{ACAD_REACTORS
330
C
102
}
330
C
100
AcDbDictionary
281
     1
  0
ACDBDICTIONARYWDFLT
  5
E
102
{ACAD_REACTORS
330
C
102
}
330
C
100
AcDbDictionary
281
     1
  3
Normal
350
F
100
AcDbDictionaryWithDefault
340
F
  0
DICTIONARY
  5
3DD
102
{ACAD_REACTORS
330
C
102
}
330
C
100
AcDbDictionary
281
     1
  3
A0
350
3DE
  3
A1
350
3DF
  3
A2
350
3E0
  3
A3
350
3E1
  3
A4
350
3E2
  3
A5
350
3E3
  3
A6
350
3E4
  3
A7
350
3E5
  3
A8
350
3E6
  3
A9
350
3E7
  3
B0
350
3E8
  3
B1
350
3E9
  3
B2
350
3EA
  3
B3
350
3EB
  3
B4
350
3EC
  3
B5
350
3ED
  3
B6
350
3EE
  0
DICTIONARY
  5
11A
102
{ACAD_REACTORS
330
C
102
}
330
C
100
AcDbDictionary
281
     1
  3
Standard
350
11B
  0
DICTIONARY
  5
3CC
102
{ACAD_REACTORS
330
C
102
}
330
C
100
AcDbDictionary
281
     1
  3
2dWireframe
350
3D2
  3
3D Hidden
350
3D4
  3
3dWireframe
350
3D3
  3
Basic
350
3D1
  3
Brighten
350
3D8
  3
ColorChange
350
3DC
  3
Conceptual
350
3D5
  3
Dim
350
3D7
  3
Facepattern
350
3DB
  3
Flat
350
3CD
  3
FlatWithEdges
350
3CE
  3
Gouraud
350
3CF
  3
GouraudWithEdges
350
3D0
  3
Linepattern
350
3DA
  3
Realistic
350
3D6
  3
Thicken
350
3D9
  0
XRECORD
  5
2212
102
{ACAD_REACTORS
330
C
102
}
330
C
100
AcDbXrecord
280
     1
 90
        1
330
11B
  0
DICTIONARY
  5
94
102
{ACAD_REACTORS
330
C
102
}
330
C
100
AcDbDictionary
281
     1
  3
CANNOSCALE
350
220E
  3
CMLEADERSTYLE
350
220D
  3
CTABLESTYLE
350
138
  3
DIMASSOC
350
96
  3
INDEXCTL
350
95
  3
SORTENTS
350
220F
  0
DICTIONARY
  5
5B
102
{ACAD_REACTORS
330
C
102
}
330
C
100
AcDbDictionary
281
     1
  3
AcmBOM
350
272
  3
AcmStdDictionary
350
61
  3
AMDTSECTSYM_ARROWCOLOR
350
123
  0
DICTIONARY
  5
942
102
{ACAD_REACTORS
330
C
102
}
330
C
100
AcDbDictionary
281
     1
  0
DICTIONARY
  5
41
102
{ACAD_REACTORS
330
C
102
}
330
C
100
AcDbDictionary
281
     1
  0
DICTIONARY
  5
26B
102
{ACAD_REACTORS
330
C
102
}
330
C
100
AcDbDictionary
281
     1
  0
XRECORD
  5
2D68
102
{ACAD_REACTORS
330
C
102
}
330
C
100
AcDbXrecord
280
     1
  1
DWGPROPS COOKIE
  2

  3

  4

  6

  7

  8
jamoeller
  9

300
AmdtFileType=84
301
=
302
=
303
=
304
=
305
=
306
=
307
=
308
=
309
=
 40
0.4053923842592593
 41
2455477.292545521
 42
2455610.328255382
  1

 90
        1
  0
DICTIONARY
  5
469
102
{ACAD_REACTORS
330
468
102
}
330
468
100
AcDbDictionary
281
     1
  0
DICTIONARY
  5
244B
102
{ACAD_REACTORS
330
468
102
}
330
468
100
AcDbDictionary
280
     1
281
     1
  0
XRECORD
  5
20ED
102
{ACAD_REACTORS
330
20EC
102
}
330
20EC
100
AcDbXrecord
280
     1
290
     1
  0
XRECORD
  5
20EE
102
{ACAD_REACTORS
330
459
102
}
330
459
100
AcDbXrecord
280
     1
290
     1
  0
XRECORD
  5
20EF
102
{ACAD_REACTORS
330
45C
102
}
330
45C
100
AcDbXrecord
280
     1
290
     1
  0
XRECORD
  5
20F2
102
{ACAD_REACTORS
330
45F
102
}
330
45F
100
AcDbXrecord
280
     1
290
     1
  0
XRECORD
  5
20F3
102
{ACAD_REACTORS
330
461
102
}
330
461
100
AcDbXrecord
280
     1
290
     1
  0
XRECORD
  5
20F5
102
{ACAD_REACTORS
330
EAE
102
}
330
EAE
100
AcDbXrecord
280
     1
290
     1
  0
SORTENTSTABLE
  5
1DD7
102
{ACAD_REACTORS
330
8F
102
}
330
8F
100
AcDbSortentsTable
330
1F
331
C08
  5
C08
331
9EB
  5
9EB
331
B46
  5
B46
331
B85
  5
B85
331
B98
  5
B98
331
BD7
  5
BD7
331
9A4
  5
9A4
331
971
  5
971
331
9FB
  5
9FB
331
B4E
  5
B4E
331
B8D
  5
B8D
331
BA0
  5
BA0
331
BDF
  5
BDF
331
9B4
  5
9B4
331
981
  5
981
331
BE7
  5
BE7
331
BA8
  5
BA8
331
B95
  5
B95
331
D87
  5
D87
331
2428
  5
242A
331
23B2
  5
23B4
331
DC6
  5
DC6
331
2035
  5
2038
331
94A
  5
94A
331
9BC
  5
9BC
331
B5E
  5
B5E
331
C20
  5
C20
331
206C
  5
206F
331
23F1
  5
23F3
331
23F9
  5
23FB
331
2430
  5
2432
331
2074
  5
2077
331
2383
  5
2385
331
203D
  5
2041
331
23BA
  5
23BC
331
23C2
  5
23C4
331
2401
  5
2403
331
2045
  5
2048
331
207C
  5
2080
331
238B
  5
238D
331
2438
  5
243A
331
2440
  5
2442
331
23CA
  5
23CC
331
2084
  5
2087
331
BB0
  5
BB0
331
C28
  5
C28
331
9C4
  5
9C4
331
BE9
  5
BE9
331
BB8
  5
BB8
331
B6E
  5
B6E
331
BC0
  5
BC0
331
98D
  5
98D
331
BF1
  5
BF1
331
BF9
  5
BF9
331
9DC
  5
9DC
331
B76
  5
B76
331
BC8
  5
BC8
331
995
  5
995
331
962
  5
962
331
2393
  5
2395
331
23D2
  5
23D4
331
2016
  5
201B
331
204D
  5
2050
331
96A
  5
96A
331
9E4
  5
9E4
331
C01
  5
C01
331
B3F
  5
B3F
331
B7E
  5
B7E
331
D9F
  5
D9F
331
208C
  5
208F
331
2409
  5
240B
331
2411
  5
2413
331
2450
  5
26C5
331
2094
  5
2098
331
239B
  5
239D
331
DAF
  5
DAF
331
2055
  5
2058
331
23DA
  5
23DC
331
23E2
  5
23E4
331
2419
  5
241B
331
23A3
  5
23A5
331
2026
  5
202F
331
205D
  5
2060
331
23EA
  5
23EC
331
2421
  5
2423
331
DBF
  5
DBF
331
202E
  5
2031
331
23AB
  5
23AD
331
BD0
  5
BD0
331
972
  5
972
331
9A5
  5
9A5
331
9EC
  5
9EC
331
C09
  5
C09
331
BD8
  5
BD8
331
B47
  5
B47
331
B99
  5
B99
331
B86
  5
B86
331
B8E
  5
B8E
331
9AD
  5
9AD
331
BA1
  5
BA1
331
BE0
  5
BE0
331
B4F
  5
B4F
331
9FC
  5
9FC
331
D88
  5
D88
331
BA9
  5
BA9
331
B96
  5
B96
331
9B5
  5
9B5
331
982
  5
982
331
23B3
  5
23B5
331
2036
  5
2039
331
C21
  5
C21
331
206D
  5
2070
331
23F2
  5
23F4
331
94B
  5
94B
331
2429
  5
242B
331
B5F
  5
B5F
331
9BD
  5
9BD
331
2431
  5
2433
331
2384
  5
2386
331
23BB
  5
23BD
331
2075
  5
2078
331
23FA
  5
23FC
331
2439
  5
243B
331
238C
  5
238E
331
23C3
  5
23C5
331
2046
  5
2049
331
207D
  5
2081
331
2402
  5
2404
331
2441
  5
2443
331
2085
  5
2088
331
23CB
  5
23CD
331
BB1
  5
BB1
331
9C5
  5
9C5
331
BEA
  5
BEA
331
B67
  5
B67
331
C29
  5
C29
331
BB9
  5
BB9
331
98E
  5
98E
331
BF2
  5
BF2
331
BC1
  5
BC1
331
B6F
  5
B6F
331
963
  5
963
331
996
  5
996
331
9DD
  5
9DD
331
BFA
  5
BFA
331
BC9
  5
BC9
331
B77
  5
B77
331
23D3
  5
23D5
331
240A
  5
240C
331
204E
  5
2051
331
208D
  5
2090
331
2394
  5
2396
331
96B
  5
96B
331
B7F
  5
B7F
331
99E
  5
99E
331
9E5
  5
9E5
331
C02
  5
C02
331
23DB
  5
23DD
331
2412
  5
2414
331
2056
  5
2059
331
DB0
  5
DB0
331
2095
  5
20B6
331
239C
  5
239E
331
23A4
  5
23A6
331
205E
  5
2062
331
23E3
  5
23E5
331
DB8
  5
DB8
331
241A
  5
241C
331
2422
  5
2424
331
23AC
  5
23AE
331
202F
  5
2032
331
2066
  5
2069
331
23EB
  5
23ED
331
BD1
  5
BD1
331
C0A
  5
C0A
331
C61
  5
C61
331
9ED
  5
9ED
331
B48
  5
B48
331
B87
  5
B87
331
B9A
  5
B9A
331
BD9
  5
BD9
331
9A6
  5
9A6
331
973
  5
973
331
9AE
  5
9AE
331
9FD
  5
9FD
331
C12
  5
C12
331
B50
  5
B50
331
B8F
  5
B8F
331
BA2
  5
BA2
331
BE1
  5
BE1
331
D89
  5
D89
331
DC0
  5
DC0
331
9B6
  5
9B6
331
983
  5
983
331
B58
  5
B58
331
BAA
  5
BAA
331
B97
  5
B97
331
23F3
  5
23F5
331
242A
  5
242C
331
23B4
  5
23B6
331
DC8
  5
DC8
331
2037
  5
203A
331
94C
  5
94C
331
9BE
  5
9BE
331
C22
  5
C22
331
206E
  5
2071
331
23FB
  5
23FD
331
2432
  5
2434
331
2076
  5
2079
331
2385
  5
2387
331
203F
  5
2042
331
23BC
  5
23BE
331
23C4
  5
23C6
331
2403
  5
2405
331
2047
  5
204A
331
238D
  5
238F
331
243A
  5
243C
331
2442
  5
2444
331
23CC
  5
23CE
331
2086
  5
2089
331
BB2
  5
BB2
331
B60
  5
B60
331
C2A
  5
C2A
331
B68
  5
B68
331
BBA
  5
BBA
331
A29
  5
A29
331
9C6
  5
9C6
331
BEB
  5
BEB
331
BF3
  5
BF3
331
B70
  5
B70
331
BC2
  5
BC2
331
98F
  5
98F
331
95C
  5
95C
331
BFB
  5
BFB
331
9DE
  5
9DE
331
B78
  5
B78
331
BCA
  5
BCA
331
997
  5
997
331
964
  5
964
331
2395
  5
2397
331
23D4
  5
23D6
331
204F
  5
2052
331
96C
  5
96C
331
9E6
  5
9E6
331
C03
  5
C03
331
C5A
  5
C5A
331
DA9
  5
DA9
331
208E
  5
2091
331
240B
  5
240D
331
2413
  5
2416
331
239D
  5
239F
331
DB1
  5
DB1
331
2020
  5
2026
331
2057
  5
205A
331
23DC
  5
23DE
331
23E4
  5
23E6
331
241B
  5
241D
331
205F
  5
2063
331
DB9
  5
DB9
331
23A5
  5
23A7
331
23EC
  5
23EE
331
2423
  5
2425
331
2067
  5
206A
331
2156
  5
21DE
331
23AD
  5
23AF
331
BD2
  5
BD2
331
B41
  5
B41
331
B80
  5
B80
331
9A7
  5
9A7
331
974
  5
974
331
BDA
  5
BDA
331
B49
  5
B49
331
B9B
  5
B9B
331
B88
  5
B88
331
945
  5
945
331
B90
  5
B90
331
9AF
  5
9AF
331
BA3
  5
BA3
331
BE2
  5
BE2
331
9FE
  5
9FE
331
C13
  5
C13
331
D8A
  5
D8A
331
DC1
  5
DC1
331
B59
  5
B59
331
BAB
  5
BAB
331
9B7
  5
9B7
331
984
  5
984
331
2030
  5
2033
331
23B5
  5
23B7
331
23F4
  5
23F6
331
2038
  5
203B
331
206F
  5
2072
331
C23
  5
C23
331
9BF
  5
9BF
331
94D
  5
94D
331
DC9
  5
DC9
331
21DE
  5
2382
331
242B
  5
242D
331
2433
  5
2435
331
2386
  5
2388
331
23BD
  5
23BF
331
2040
  5
2043
331
2077
  5
207A
331
23FC
  5
23FE
331
2404
  5
2406
331
243B
  5
243D
331
238E
  5
2390
331
23C5
  5
23C7
331
207F
  5
2082
331
2443
  5
2445
331
2087
  5
208A
331
23CD
  5
23CF
331
B61
  5
B61
331
BB3
  5
BB3
331
BEC
  5
BEC
331
C2B
  5
C2B
331
9C7
  5
9C7
331
B69
  5
B69
331
BBB
  5
BBB
331
988
  5
988
331
955
  5
955
331
990
  5
990
331
95D
  5
95D
331
BF4
  5
BF4
331
BC3
  5
BC3
331
B71
  5
B71
331
965
  5
965
331
B79
  5
B79
331
998
  5
998
331
BCB
  5
BCB
331
9DF
  5
9DF
331
BFC
  5
BFC
331
2048
  5
204B
331
23D5
  5
23D7
331
240C
  5
240E
331
2050
  5
2053
331
208F
  5
2092
331
C04
  5
C04
331
DAA
  5
DAA
331
96D
  5
96D
331
2019
  5
201C
331
2396
  5
2398
331
239E
  5
23A0
331
23DD
  5
23E0
331
2058
  5
205B
331
DB2
  5
DB2
331
2097
  5
20EB
331
2414
  5
2417
331
23A6
  5
23A8
331
23E5
  5
23E7
331
241C
  5
241E
331
2424
  5
2426
331
23AE
  5
23B0
331
23ED
  5
23EF
331
B81
  5
B81
331
9A0
  5
9A0
331
BD3
  5
BD3
331
B42
  5
B42
331
B4A
  5
B4A
331
B89
  5
B89
331
B9C
  5
B9C
331
BDB
  5
BDB
331
9A8
  5
9A8
331
975
  5
975
331
C14
  5
C14
331
9B0
  5
9B0
331
9FF
  5
9FF
331
BE3
  5
BE3
331
BA4
  5
BA4
331
B91
  5
B91
331
946
  5
946
331
DC2
  5
DC2
331
2031
  5
2034
331
9B8
  5
9B8
331
985
  5
985
331
B5A
  5
B5A
331
C1C
  5
C1C
331
2068
  5
206B
331
BAC
  5
BAC
331
23F5
  5
23F7
331
242C
  5
242E
331
2070
  5
2073
331
DCA
  5
DCA
331
2039
  5
203C
331
23B6
  5
23B8
331
94E
  5
94E
331
C24
  5
C24
331
23FD
  5
23FF
331
2434
  5
2436
331
2078
  5
207B
331
2387
  5
2389
331
1962
  5
1962
331
2041
  5
2044
331
23BE
  5
23C0
331
23C6
  5
23C8
331
2405
  5
2407
331
2080
  5
2083
331
238F
  5
2391
331
243C
  5
243E
331
2444
  5
2446
331
23CE
  5
23D0
331
9C0
  5
9C0
331
BB4
  5
BB4
331
B62
  5
B62
331
C2C
  5
C2C
331
B6A
  5
B6A
331
BBC
  5
BBC
331
989
  5
989
331
9C8
  5
9C8
331
BED
  5
BED
331
BF5
  5
BF5
331
B72
  5
B72
331
BC4
  5
BC4
331
991
  5
991
331
95E
  5
95E
331
2012
  5
2014
331
BFD
  5
BFD
331
2049
  5
204C
331
2088
  5
208B
331
B7A
  5
B7A
331
BCC
  5
BCC
331
999
  5
999
331
966
  5
966
331
240D
  5
240F
331
2397
  5
2399
331
23D6
  5
23D8
331
201A
  5
201E
331
2051
  5
2054
331
96E
  5
96E
331
C05
  5
C05
331
DAB
  5
DAB
331
2090
  5
2093
331
2098
  5
2016
331
239F
  5
23A1
331
DB3
  5
DB3
331
2059
  5
205C
331
23DE
  5
23E2
331
23E6
  5
23E8
331
241D
  5
241F
331
2061
  5
2064
331
23A7
  5
23A9
331
23AF
  5
23B1
331
23EE
  5
23F0
331
2425
  5
2427
331
9A1
  5
9A1
331
BD4
  5
BD4
331
B43
  5
B43
331
B82
  5
B82
331
976
  5
976
331
B8A
  5
B8A
331
9A9
  5
9A9
331
BDC
  5
BDC
331
B4B
  5
B4B
331
9F8
  5
9F8
331
B9D
  5
B9D
331
947
  5
947
331
B92
  5
B92
331
9B1
  5
9B1
331
BA5
  5
BA5
331
BE4
  5
BE4
331
A00
  5
A00
331
2069
  5
206C
331
C1D
  5
C1D
331
DC3
  5
DC3
331
BAD
  5
BAD
331
9B9
  5
9B9
331
986
  5
986
331
2032
  5
2035
331
23B7
  5
23B9
331
203A
  5
203D
331
C25
  5
C25
331
2071
  5
2074
331
23F6
  5
23F8
331
94F
  5
94F
331
242D
  5
242F
331
2435
  5
2437
331
2388
  5
238A
331
23BF
  5
23C1
331
2042
  5
2045
331
2079
  5
207C
331
23FE
  5
2400
331
2406
  5
2408
331
243D
  5
243F
331
2081
  5
2085
331
23C7
  5
23C9
331
2445
  5
2447
331
23CF
  5
23D1
331
9C1
  5
9C1
331
B63
  5
B63
331
BB5
  5
BB5
331
BEE
  5
BEE
331
C2D
  5
C2D
331
B6B
  5
B6B
331
BBD
  5
BBD
331
98A
  5
98A
331
992
  5
992
331
95F
  5
95F
331
BF6
  5
BF6
331
BC5
  5
BC5
331
B34
  5
B34
331
B73
  5
B73
331
2089
  5
208C
331
2390
  5
2392
331
2013
  5
2015
331
967
  5
967
331
B7B
  5
B7B
331
99A
  5
99A
331
BCD
  5
BCD
331
9E1
  5
9E1
331
BFE
  5
BFE
331
204A
  5
204D
331
23D7
  5
23D9
331
240E
  5
2410
331
2052
  5
2055
331
2091
  5
2094
331
C06
  5
C06
331
C5D
  5
C5D
331
DAC
  5
DAC
331
96F
  5
96F
331
201B
  5
2021
331
2398
  5
239A
331
23A0
  5
23A2
331
2023
  5
2027
331
205A
  5
205D
331
DB4
  5
DB4
331
2416
  5
2418
331
241E
  5
2420
331
23A8
  5
23AA
331
2062
  5
2065
331
23E7
  5
23E9
331
DBC
  5
DBC
331
2426
  5
2428
331
23EF
  5
23F1
331
9E9
  5
9E9
331
B83
  5
B83
331
9A2
  5
9A2
331
BD5
  5
BD5
331
B44
  5
B44
331
9F9
  5
9F9
331
B4C
  5
B4C
331
B8B
  5
B8B
331
B9E
  5
B9E
331
BDD
  5
BDD
331
9AA
  5
9AA
331
9B2
  5
9B2
331
A01
  5
A01
331
BE5
  5
BE5
331
BA6
  5
BA6
331
B93
  5
B93
331
23B0
  5
23B2
331
DC4
  5
DC4
331
2033
  5
2036
331
948
  5
948
331
9BA
  5
9BA
331
987
  5
987
331
B5C
  5
B5C
331
206A
  5
206D
331
BAE
  5
BAE
331
23F7
  5
23F9
331
242E
  5
2430
331
2072
  5
2075
331
2381
  5
2383
331
C26
  5
C26
331
DCC
  5
DCC
331
203B
  5
203E
331
23B8
  5
23BA
331
23C0
  5
23C2
331
23FF
  5
2401
331
207A
  5
207D
331
2389
  5
238B
331
2436
  5
2438
331
2043
  5
2046
331
23C8
  5
23CA
331
2082
  5
2086
331
2407
  5
2409
331
1D9C
  5
1DA1
331
243E
  5
2440
331
2446
  5
244C
331
950
  5
950
331
9C2
  5
9C2
331
BB6
  5
BB6
331
B64
  5
B64
331
C2E
  5
C2E
331
B6C
  5
B6C
331
98B
  5
98B
331
BBE
  5
BBE
331
A2D
  5
A2D
331
BEF
  5
BEF
331
BF7
  5
BF7
331
B35
  5
B35
331
B74
  5
B74
331
BC6
  5
BC6
331
993
  5
993
331
960
  5
960
331
2391
  5
2393
331
23D0
  5
23D2
331
2014
  5
2017
331
968
  5
968
331
9E2
  5
9E2
331
BFF
  5
BFF
331
204B
  5
204E
331
B7C
  5
B7C
331
208A
  5
208D
331
BCE
  5
BCE
331
240F
  5
2411
331
244E
  5
2691
331
2092
  5
2095
331
2399
  5
239B
331
2053
  5
2056
331
23D8
  5
23DA
331
C07
  5
C07
331
DAD
  5
DAD
331
2417
  5
2419
331
23A1
  5
23A3
331
DB5
  5
DB5
331
205B
  5
205E
331
23E0
  5
23E3
331
23E8
  5
23EA
331
241F
  5
2421
331
2063
  5
2067
331
DBD
  5
DBD
331
23A9
  5
23AB
331
28D6
  5
2956
331
2427
  5
2429
331
970
  5
970
331
9A3
  5
9A3
331
9EA
  5
9EA
331
BD6
  5
BD6
331
B45
  5
B45
331
B84
  5
B84
331
978
  5
978
331
B8C
  5
B8C
331
9AB
  5
9AB
331
B9F
  5
B9F
331
BDE
  5
BDE
331
B4D
  5
B4D
331
9FA
  5
9FA
331
A02
  5
A02
331
B94
  5
B94
331
9B3
  5
9B3
331
BA7
  5
BA7
331
BE6
  5
BE6
331
23B1
  5
23B3
331
2034
  5
2037
331
206B
  5
206E
331
23F0
  5
23F2
331
C1F
  5
C1F
331
DC5
  5
DC5
331
B5D
  5
B5D
331
BAF
  5
BAF
331
9BB
  5
9BB
331
242F
  5
2431
331
23B9
  5
23BB
331
23F8
  5
23FA
331
203C
  5
2040
331
2073
  5
2076
331
C27
  5
C27
331
DCD
  5
DCD
331
2382
  5
2384
331
2437
  5
2439
331
238A
  5
238C
331
23C1
  5
23C3
331
2044
  5
2047
331
207B
  5
207E
331
2400
  5
2402
331
243F
  5
2441
331
23C9
  5
23CB
331
2447
  5
244F
331
BE8
  5
BE8
331
9C3
  5
9C3
331
B65
  5
B65
331
951
  5
951
331
98C
  5
98C
331
BF0
  5
BF0
331
B6D
  5
B6D
331
BBF
  5
BBF
331
994
  5
994
331
961
  5
961
331
BF8
  5
BF8
331
BC7
  5
BC7
331
B36
  5
B36
331
B75
  5
B75
331
23D1
  5
23D3
331
2408
  5
240A
331
208B
  5
208E
331
2392
  5
2394
331
C57
  5
C57
331
D9E
  5
D9E
331
2015
  5
201A
331
B7D
  5
B7D
331
969
  5
969
331
BCF
  5
BCF
331
B3E
  5
B3E
331
C00
  5
C00
331
204C
  5
204F
331
23D9
  5
23DB
331
2410
  5
2412
331
2054
  5
2057
331
2093
  5
2096
331
DAE
  5
DAE
331
201D
  5
2024
331
239A
  5
239C
331
23A2
  5
23A4
331
2025
  5
202E
331
205C
  5
205F
331
DB6
  5
DB6
331
2418
  5
241A
331
2420
  5
2422
331
28D7
  5
2958
331
23AA
  5
23AC
331
202D
  5
2030
331
2064
  5
2068
331
23E9
  5
23EB
331
DBE
  5
DBE
  0
DIMASSOC
  5
2C0A
102
{ACAD_REACTORS
330
2C09
102
}
330
2C09
100
AcDbDimAssoc
330
2BFC
 90
        3
 70
     0
 71
     0
  1
AcDbOsnapPointRef
 72
     6
331
946
 73
     0
 91
        0
 40
0.9907452249829876
 10
0.0
 20
0.0
 30
0.0
332
997
 74
     0
 92
        0
 75
     0
  1
AcDbOsnapPointRef
 72
    13
331
950
 73
     0
 91
        0
 40
0.0
 10
0.0
 20
0.0
 30
2.000000000000000E+50
 75
     0
  0
XRECORD
  5
2D6A
102
{ACAD_REACTORS
330
2D69
102
}
330
2D69
100
AcDbXrecord
280
     1
 40
1.570796326794896
  0
XRECORD
  5
2D6C
102
{ACAD_REACTORS
330
2D69
102
}
330
2D69
100
AcDbXrecord
280
     1
340
14
  0
XRECORD
  5
2D6D
102
{ACAD_REACTORS
330
2D69
102
}
330
2D69
100
AcDbXrecord
280
     1
340
14
  0
XRECORD
  5
2D6B
102
{ACAD_REACTORS
330
2D69
102
}
330
2D69
100
AcDbXrecord
280
     1
340
14
  0
LAYOUT
  5
1E
102
{ACAD_XDICTIONARY
360
2D6E
102
}
102
{ACAD_REACTORS
330
1A
102
}
330
1A
100
AcDbPlotSettings
  1

  2

  4

  6

 40
0.0
 41
0.0
 42
0.0
 43
0.0
 44
0.0
 45
0.0
 46
0.0
 47
0.0
 48
0.0
 49
0.0
140
0.0
141
0.0
142
1.0
143
1.0
 70
   688
 72
     0
 73
     0
 74
     5
  7

 75
    16
147
1.0
148
0.0
149
0.0
100
AcDbLayout
  1
Layout1
 70
     1
 71
     1
 10
0.0
 20
0.0
 11
420.0
 21
297.0
 12
0.0
 22
0.0
 32
0.0
 14
1.000000000000000E+20
 24
1.000000000000000E+20
 34
1.000000000000000E+20
 15
-1.000000000000000E+20
 25
-1.000000000000000E+20
 35
-1.000000000000000E+20
146
0.0
 13
0.0
 23
0.0
 33
0.0
 16
1.0
 26
0.0
 36
0.0
 17
0.0
 27
1.0
 37
0.0
 76
     0
330
1B
  0
LAYOUT
  5
26
102
{ACAD_XDICTIONARY
360
2D72
102
}
102
{ACAD_REACTORS
330
1A
102
}
330
1A
100
AcDbPlotSettings
  1

  2

  4

  6

 40
0.0
 41
0.0
 42
0.0
 43
0.0
 44
0.0
 45
0.0
 46
0.0
 47
0.0
 48
0.0
 49
0.0
140
0.0
141
0.0
142
1.0
143
1.0
 70
   688
 72
     0
 73
     0
 74
     5
  7

 75
    16
147
1.0
148
0.0
149
0.0
100
AcDbLayout
  1
Layout2
 70
     1
 71
     2
 10
0.0
 20
0.0
 11
12.0
 21
9.0
 12
0.0
 22
0.0
 32
0.0
 14
0.0
 24
0.0
 34
0.0
 15
0.0
 25
0.0
 35
0.0
146
0.0
 13
0.0
 23
0.0
 33
0.0
 16
1.0
 26
0.0
 36
0.0
 17
0.0
 27
1.0
 37
0.0
 76
     0
330
23
  0
LAYOUT
  5
22
102
{ACAD_XDICTIONARY
360
2D70
102
}
102
{ACAD_REACTORS
330
1A
102
}
330
1A
100
AcDbPlotSettings
  1

  2

  4

  6

 40
0.0
 41
0.0
 42
0.0
 43
0.0
 44
0.0
 45
0.0
 46
0.0
 47
0.0
 48
0.0
 49
0.0
140
0.0
141
0.0
142
1.0
143
1.0
 70
  1712
 72
     0
 73
     0
 74
     0
  7

 75
     0
147
1.0
148
0.0
149
0.0
100
AcDbLayout
  1
Model
 70
     1
 71
     0
 10
0.0
 20
0.0
 11
12.0
 21
9.0
 12
0.0
 22
0.0
 32
0.0
 14
0.0
 24
0.0
 34
0.0
 15
0.0
 25
0.0
 35
0.0
146
0.0
 13
0.0
 23
0.0
 33
0.0
 16
1.0
 26
0.0
 36
0.0
 17
0.0
 27
1.0
 37
0.0
 76
     0
330
1F
331
3B2
  0
MATERIAL
  5
3BC
102
{ACAD_XDICTIONARY
360
3BD
102
}
102
{ACAD_REACTORS
330
BD
102
}
330
BD
100
AcDbMaterial
  1
ByBlock
 72
     0
 43
0.0008202099737533
 43
0.0
 43
0.0
 43
0.0
 43
0.0
 43
0.0008202099737533
 43
0.0
 43
0.0
 43
0.0
 43
0.0
 43
1.0
 43
0.0
 43
0.0
 43
0.0
 43
0.0
 43
1.0
 77
     0
 47
0.0008202099737533
 47
0.0
 47
0.0
 47
0.0
 47
0.0
 47
0.0008202099737533
 47
0.0
 47
0.0
 47
0.0
 47
0.0
 47
1.0
 47
0.0
 47
0.0
 47
0.0
 47
0.0
 47
1.0
171
     0
 49
0.0008202099737533
 49
0.0
 49
0.0
 49
0.0
 49
0.0
 49
0.0008202099737533
 49
0.0
 49
0.0
 49
0.0
 49
0.0
 49
1.0
 49
0.0
 49
0.0
 49
0.0
 49
0.0
 49
1.0
175
     0
142
0.0008202099737533
142
0.0
142
0.0
142
0.0
142
0.0
142
0.0008202099737533
142
0.0
142
0.0
142
0.0
142
0.0
142
1.0
142
0.0
142
0.0
142
0.0
142
0.0
142
1.0
179
     0
144
0.0008202099737533
144
0.0
144
0.0
144
0.0
144
0.0
144
0.0008202099737533
144
0.0
144
0.0
144
0.0
144
0.0
144
1.0
144
0.0
144
0.0
144
0.0
144
0.0
144
1.0
147
0.0008202099737533
147
0.0
147
0.0
147
0.0
147
0.0
147
0.0008202099737533
147
0.0
147
0.0
147
0.0
147
0.0
147
1.0
147
0.0
147
0.0
147
0.0
147
0.0
147
1.0
  0
MATERIAL
  5
3B4
102
{ACAD_XDICTIONARY
360
3B5
102
}
102
{ACAD_REACTORS
330
BD
102
}
330
BD
100
AcDbMaterial
  1
ByLayer
 72
     0
 43
0.0008202099737533
 43
0.0
 43
0.0
 43
0.0
 43
0.0
 43
0.0008202099737533
 43
0.0
 43
0.0
 43
0.0
 43
0.0
 43
1.0
 43
0.0
 43
0.0
 43
0.0
 43
0.0
 43
1.0
 77
     0
 47
0.0008202099737533
 47
0.0
 47
0.0
 47
0.0
 47
0.0
 47
0.0008202099737533
 47
0.0
 47
0.0
 47
0.0
 47
0.0
 47
1.0
 47
0.0
 47
0.0
 47
0.0
 47
0.0
 47
1.0
171
     0
 49
0.0008202099737533
 49
0.0
 49
0.0
 49
0.0
 49
0.0
 49
0.0008202099737533
 49
0.0
 49
0.0
 49
0.0
 49
0.0
 49
1.0
 49
0.0
 49
0.0
 49
0.0
 49
0.0
 49
1.0
175
     0
142
0.0008202099737533
142
0.0
142
0.0
142
0.0
142
0.0
142
0.0008202099737533
142
0.0
142
0.0
142
0.0
142
0.0
142
1.0
142
0.0
142
0.0
142
0.0
142
0.0
142
1.0
179
     0
144
0.0008202099737533
144
0.0
144
0.0
144
0.0
144
0.0
144
0.0008202099737533
144
0.0
144
0.0
144
0.0
144
0.0
144
1.0
144
0.0
144
0.0
144
0.0
144
0.0
144
1.0
147
0.0008202099737533
147
0.0
147
0.0
147
0.0
147
0.0
147
0.0008202099737533
147
0.0
147
0.0
147
0.0
147
0.0
147
1.0
147
0.0
147
0.0
147
0.0
147
0.0
147
1.0
  0
MATERIAL
  5
3C4
102
{ACAD_XDICTIONARY
360
3C5
102
}
102
{ACAD_REACTORS
330
BD
102
}
330
BD
100
AcDbMaterial
  1
Global
 72
     0
 43
0.0008202099737533
 43
0.0
 43
0.0
 43
0.0
 43
0.0
 43
0.0008202099737533
 43
0.0
 43
0.0
 43
0.0
 43
0.0
 43
1.0
 43
0.0
 43
0.0
 43
0.0
 43
0.0
 43
1.0
 77
     0
 47
0.0008202099737533
 47
0.0
 47
0.0
 47
0.0
 47
0.0
 47
0.0008202099737533
 47
0.0
 47
0.0
 47
0.0
 47
0.0
 47
1.0
 47
0.0
 47
0.0
 47
0.0
 47
0.0
 47
1.0
171
     0
 49
0.0008202099737533
 49
0.0
 49
0.0
 49
0.0
 49
0.0
 49
0.0008202099737533
 49
0.0
 49
0.0
 49
0.0
 49
0.0
 49
1.0
 49
0.0
 49
0.0
 49
0.0
 49
0.0
 49
1.0
175
     0
142
0.0008202099737533
142
0.0
142
0.0
142
0.0
142
0.0
142
0.0008202099737533
142
0.0
142
0.0
142
0.0
142
0.0
142
1.0
142
0.0
142
0.0
142
0.0
142
0.0
142
1.0
179
     0
144
0.0008202099737533
144
0.0
144
0.0
144
0.0
144
0.0
144
0.0008202099737533
144
0.0
144
0.0
144
0.0
144
0.0
144
1.0
144
0.0
144
0.0
144
0.0
144
0.0
144
1.0
147
0.0008202099737533
147
0.0
147
0.0
147
0.0
147
0.0
147
0.0008202099737533
147
0.0
147
0.0
147
0.0
147
0.0
147
1.0
147
0.0
147
0.0
147
0.0
147
0.0
147
1.0
  0
MLEADERSTYLE
  5
3F0
102
{ACAD_REACTORS
330
3EF
102
}
330
3EF
100
AcDbMLeaderStyle
170
     2
171
     1
172
     0
 90
        2
 40
0.0
 41
0.0
173
     1
 91
-1056964608
340
14
 92
       -2
290
     1
 42
2.0
291
     1
 43
0.36
  3
Standard
 44
4.0
300

342
11
174
     1
178
     6
175
     1
176
     0
 93
-1056964608
 45
4.0
292
     0
297
     0
 46
4.0
 94
-1056964608
 47
1.0
 49
1.0
140
1.0
293
     1
141
0.0
294
     1
177
     0
142
1.0
295
     0
296
     0
143
0.125
1001
ACAD_MLEADERVER
1070
     2
  0
MLINESTYLE
  5
18
102
{ACAD_REACTORS
330
17
102
}
330
17
100
AcDbMlineStyle
  2
STANDARD
 70
     0
  3

 62
   256
 51
90.0
 52
90.0
 71
     2
 49
0.5
 62
   256
  6
BYLAYER
 49
-0.5
 62
   256
  6
BYLAYER
  0
ACDBPLACEHOLDER
  5
F
102
{ACAD_REACTORS
330
E
102
}
330
E
  0
SCALE
  5
3DE
102
{ACAD_REACTORS
330
3DD
102
}
330
3DD
100
AcDbScale
 70
     0
300
1:1
140
1.0
141
1.0
290
     1
  0
SCALE
  5
3DF
102
{ACAD_REACTORS
330
3DD
102
}
330
3DD
100
AcDbScale
 70
     0
300
1:2
140
1.0
141
2.0
290
     0
  0
SCALE
  5
3E0
102
{ACAD_REACTORS
330
3DD
102
}
330
3DD
100
AcDbScale
 70
     0
300
1:4
140
1.0
141
4.0
290
     0
  0
SCALE
  5
3E1
102
{ACAD_REACTORS
330
3DD
102
}
330
3DD
100
AcDbScale
 70
     0
300
1:5
140
1.0
141
5.0
290
     0
  0
SCALE
  5
3E2
102
{ACAD_REACTORS
330
3DD
102
}
330
3DD
100
AcDbScale
 70
     0
300
1:8
140
1.0
141
8.0
290
     0
  0
SCALE
  5
3E3
102
{ACAD_REACTORS
330
3DD
102
}
330
3DD
100
AcDbScale
 70
     0
300
1:10
140
1.0
141
10.0
290
     0
  0
SCALE
  5
3E4
102
{ACAD_REACTORS
330
3DD
102
}
330
3DD
100
AcDbScale
 70
     0
300
1:16
140
1.0
141
16.0
290
     0
  0
SCALE
  5
3E5
102
{ACAD_REACTORS
330
3DD
102
}
330
3DD
100
AcDbScale
 70
     0
300
1:20
140
1.0
141
20.0
290
     0
  0
SCALE
  5
3E6
102
{ACAD_REACTORS
330
3DD
102
}
330
3DD
100
AcDbScale
 70
     0
300
1:30
140
1.0
141
30.0
290
     0
  0
SCALE
  5
3E7
102
{ACAD_REACTORS
330
3DD
102
}
330
3DD
100
AcDbScale
 70
     0
300
1:40
140
1.0
141
40.0
290
     0
  0
SCALE
  5
3E8
102
{ACAD_REACTORS
330
3DD
102
}
330
3DD
100
AcDbScale
 70
     0
300
1:50
140
1.0
141
50.0
290
     0
  0
SCALE
  5
3E9
102
{ACAD_REACTORS
330
3DD
102
}
330
3DD
100
AcDbScale
 70
     0
300
1:100
140
1.0
141
100.0
290
     0
  0
SCALE
  5
3EA
102
{ACAD_REACTORS
330
3DD
102
}
330
3DD
100
AcDbScale
 70
     0
300
2:1
140
2.0
141
1.0
290
     0
  0
SCALE
  5
3EB
102
{ACAD_REACTORS
330
3DD
102
}
330
3DD
100
AcDbScale
 70
     0
300
4:1
140
4.0
141
1.0
290
     0
  0
SCALE
  5
3EC
102
{ACAD_REACTORS
330
3DD
102
}
330
3DD
100
AcDbScale
 70
     0
300
8:1
140
8.0
141
1.0
290
     0
  0
SCALE
  5
3ED
102
{ACAD_REACTORS
330
3DD
102
}
330
3DD
100
AcDbScale
 70
     0
300
10:1
140
10.0
141
1.0
290
     0
  0
SCALE
  5
3EE
102
{ACAD_REACTORS
330
3DD
102
}
330
3DD
100
AcDbScale
 70
     0
300
100:1
140
100.0
141
1.0
290
     0
  0
TABLESTYLE
  5
11B
102
{ACAD_XDICTIONARY
360
2210
102
}
102
{ACAD_REACTORS
330
11A
102
}
330
11A
100
AcDbTableStyle
  3
Standard
 70
     0
 71
     0
 40
1.5
 41
1.5
280
     0
281
     0
  7
STANDARD
140
4.5
170
     2
 62
     0
 63
     7
283
     0
274
    -2
284
     1
 64
     0
275
    -2
285
     1
 65
     0
276
    -2
286
     1
 66
     0
277
    -2
287
     1
 67
     0
278
    -2
288
     1
 68
     0
279
    -2
289
     1
 69
     0
  7
STANDARD
140
6.0
170
     5
 62
     0
 63
     7
283
     0
274
    -2
284
     1
 64
     0
275
    -2
285
     1
 65
     0
276
    -2
286
     1
 66
     0
277
    -2
287
     1
 67
     0
278
    -2
288
     1
 68
     0
279
    -2
289
     1
 69
     0
  7
STANDARD
140
4.5
170
     5
 62
     0
 63
     7
283
     0
274
    -2
284
     1
 64
     0
275
    -2
285
     1
 65
     0
276
    -2
286
     1
 66
     0
277
    -2
287
     1
 67
     0
278
    -2
288
     1
 68
     0
279
    -2
289
     1
 69
     0
  0
VISUALSTYLE
  5
3D2
102
{ACAD_REACTORS
330
3CC
102
}
330
3CC
100
AcDbVisualStyle
  2
2dWireframe
 70
     4
 71
     0
 72
     2
 73
     0
 90
        0
 40
-0.6
 41
-30.0
 62
     5
 63
     7
 74
     1
 91
        4
 64
     7
 65
   257
 75
     1
175
     1
 42
1.0
 92
        0
 66
   257
 43
1.0
 76
     1
 77
     6
 78
     2
 67
     7
 79
     5
170
     0
171
     0
290
     0
174
     0
 93
        1
 44
0.0
173
     0
291
     0
 45
0.0
1001
ACAD
1000
AcDbSavedByObjectVersion
1070
     0
1000
AcDbSavedByObjectVersion
1070
     0
1000
AcDbSavedByObjectVersion
1070
     0
1000
AcDbSavedByObjectVersion
1070
     0
1000
AcDbSavedByObjectVersion
1070
     0
1000
AcDbSavedByObjectVersion
1070
     0
1000
AcDbSavedByObjectVersion
1070
     0
1000
AcDbSavedByObjectVersion
1070
     0
1000
AcDbSavedByObjectVersion
1070
     0
1000
AcDbSavedByObjectVersion
1070
     0
1000
AcDbSavedByObjectVersion
1070
     0
1000
AcDbSavedByObjectVersion
1070
     0
1000
AcDbSavedByObjectVersion
1070
     0
1000
AcDbSavedByObjectVersion
1070
     0
  0
VISUALSTYLE
  5
3D4
102
{ACAD_REACTORS
330
3CC
102
}
330
3CC
100
AcDbVisualStyle
  2
3D Hidden
 70
     6
 71
     1
 72
     2
 73
     2
 90
        0
 40
-0.6
 41
-30.0
 62
     5
 63
     7
 74
     2
 91
        2
 64
     7
 65
   257
 75
     2
175
     1
 42
40.0
 92
        0
 66
   257
 43
1.0
 76
     1
 77
     6
 78
     2
 67
     7
 79
     3
170
     0
171
     0
290
     0
174
     0
 93
        1
 44
0.0
173
     0
291
     0
 45
0.0
1001
ACAD
1000
AcDbSavedByObjectVersion
1070
     0
1000
AcDbSavedByObjectVersion
1070
     0
1000
AcDbSavedByObjectVersion
1070
     0
1000
AcDbSavedByObjectVersion
1070
     0
1000
AcDbSavedByObjectVersion
1070
     0
1000
AcDbSavedByObjectVersion
1070
     0
1000
AcDbSavedByObjectVersion
1070
     0
1000
AcDbSavedByObjectVersion
1070
     0
1000
AcDbSavedByObjectVersion
1070
     0
1000
AcDbSavedByObjectVersion
1070
     0
1000
AcDbSavedByObjectVersion
1070
     0
1000
AcDbSavedByObjectVersion
1070
     0
1000
AcDbSavedByObjectVersion
1070
     0
1000
AcDbSavedByObjectVersion
1070
     0
  0
VISUALSTYLE
  5
3D3
102
{ACAD_REACTORS
330
3CC
102
}
330
3CC
100
AcDbVisualStyle
  2
3dWireframe
 70
     5
 71
     0
 72
     2
 73
     0
 90
        0
 40
-0.6
 41
-30.0
 62
     5
 63
     7
 74
     1
 91
        4
 64
     7
 65
   257
 75
     1
175
     1
 42
1.0
 92
        0
 66
   257
 43
1.0
 76
     1
 77
     6
 78
     2
 67
     7
 79
     5
170
     0
171
     0
290
     0
174
     0
 93
        1
 44
0.0
173
     0
291
     0
 45
0.0
1001
ACAD
1000
AcDbSavedByObjectVersion
1070
     0
1000
AcDbSavedByObjectVersion
1070
     0
1000
AcDbSavedByObjectVersion
1070
     0
1000
AcDbSavedByObjectVersion
1070
     0
1000
AcDbSavedByObjectVersion
1070
     0
1000
AcDbSavedByObjectVersion
1070
     0
1000
AcDbSavedByObjectVersion
1070
     0
1000
AcDbSavedByObjectVersion
1070
     0
1000
AcDbSavedByObjectVersion
1070
     0
1000
AcDbSavedByObjectVersion
1070
     0
1000
AcDbSavedByObjectVersion
1070
     0
1000
AcDbSavedByObjectVersion
1070
     0
1000
AcDbSavedByObjectVersion
1070
     0
1000
AcDbSavedByObjectVersion
1070
     0
  0
VISUALSTYLE
  5
3D1
102
{ACAD_REACTORS
330
3CC
102
}
330
3CC
100
AcDbVisualStyle
  2
Basic
 70
     7
 71
     1
 72
     0
 73
     1
 90
        0
 40
-0.6
 41
-30.0
 62
     5
 63
     7
 74
     0
 91
        4
 64
     7
 65
   257
 75
     1
175
     1
 42
1.0
 92
        8
 66
     7
 43
1.0
 76
     1
 77
     6
 78
     2
 67
     7
 79
     5
170
     0
171
     0
290
     0
174
     0
 93
        1
 44
0.0
173
     0
291
     1
 45
0.0
1001
ACAD
1000
AcDbSavedByObjectVersion
1070
     0
1000
AcDbSavedByObjectVersion
1070
     0
1000
AcDbSavedByObjectVersion
1070
     0
1000
AcDbSavedByObjectVersion
1070
     0
1000
AcDbSavedByObjectVersion
1070
     0
1000
AcDbSavedByObjectVersion
1070
     0
1000
AcDbSavedByObjectVersion
1070
     0
1000
AcDbSavedByObjectVersion
1070
     0
1000
AcDbSavedByObjectVersion
1070
     0
1000
AcDbSavedByObjectVersion
1070
     0
1000
AcDbSavedByObjectVersion
1070
     0
1000
AcDbSavedByObjectVersion
1070
     0
1000
AcDbSavedByObjectVersion
1070
     0
1000
AcDbSavedByObjectVersion
1070
     0
  0
VISUALSTYLE
  5
3D8
102
{ACAD_REACTORS
330
3CC
102
}
330
3CC
100
AcDbVisualStyle
  2
Brighten
 70
    12
 71
     2
 72
     2
 73
     0
 90
        0
 40
-0.6
 41
-30.0
 62
     5
 63
     7
 74
     1
 91
        4
 64
     7
 65
   257
 75
     1
175
     1
 42
1.0
 92
        8
 66
     7
 43
1.0
 76
     1
 77
     6
 78
     2
 67
     7
 79
     5
170
     0
171
     0
290
     0
174
     0
 93
        1
 44
50.0
173
     0
291
     1
 45
0.0
1001
ACAD
1000
AcDbSavedByObjectVersion
1070
     0
1000
AcDbSavedByObjectVersion
1070
     0
1000
AcDbSavedByObjectVersion
1070
     0
1000
AcDbSavedByObjectVersion
1070
     0
1000
AcDbSavedByObjectVersion
1070
     0
1000
AcDbSavedByObjectVersion
1070
     0
1000
AcDbSavedByObjectVersion
1070
     0
1000
AcDbSavedByObjectVersion
1070
     0
1000
AcDbSavedByObjectVersion
1070
     0
1000
AcDbSavedByObjectVersion
1070
     0
1000
AcDbSavedByObjectVersion
1070
     0
1000
AcDbSavedByObjectVersion
1070
     0
1000
AcDbSavedByObjectVersion
1070
     0
1000
AcDbSavedByObjectVersion
1070
     0
  0
VISUALSTYLE
  5
3DC
102
{ACAD_REACTORS
330
3CC
102
}
330
3CC
100
AcDbVisualStyle
  2
ColorChange
 70
    16
 71
     2
 72
     2
 73
     3
 90
        0
 40
-0.6
 41
-30.0
 62
     5
 63
     8
 74
     1
 91
        4
 64
     7
 65
   257
 75
     1
175
     1
 42
1.0
 92
        8
 66
     8
 43
1.0
 76
     1
 77
     6
 78
     2
 67
     7
 79
     5
170
     0
171
     0
290
     0
174
     0
 93
        1
 44
0.0
173
     0
291
     1
 45
0.0
1001
ACAD
1000
AcDbSavedByObjectVersion
1070
     0
1000
AcDbSavedByObjectVersion
1070
     0
1000
AcDbSavedByObjectVersion
1070
     0
1000
AcDbSavedByObjectVersion
1070
     0
1000
AcDbSavedByObjectVersion
1070
     0
1000
AcDbSavedByObjectVersion
1070
     0
1000
AcDbSavedByObjectVersion
1070
     0
1000
AcDbSavedByObjectVersion
1070
     0
1000
AcDbSavedByObjectVersion
1070
     0
1000
AcDbSavedByObjectVersion
1070
     0
1000
AcDbSavedByObjectVersion
1070
     0
1000
AcDbSavedByObjectVersion
1070
     0
1000
AcDbSavedByObjectVersion
1070
     0
1000
AcDbSavedByObjectVersion
1070
     0
  0
VISUALSTYLE
  5
3D5
102
{ACAD_REACTORS
330
3CC
102
}
330
3CC
100
AcDbVisualStyle
  2
Conceptual
 70
     9
 71
     3
 72
     2
 73
     0
 90
        0
 40
-0.6
 41
-30.0
 62
     5
 63
     7
 74
     2
 91
        2
 64
     7
 65
   257
 75
     1
175
     1
 42
40.0
 92
        8
 66
     7
 43
1.0
 76
     1
 77
     6
 78
     2
 67
     7
 79
     3
170
     0
171
     0
290
     0
174
     0
 93
        1
 44
0.0
173
     0
291
     0
 45
0.0
1001
ACAD
1000
AcDbSavedByObjectVersion
1070
     0
1000
AcDbSavedByObjectVersion
1070
     0
1000
AcDbSavedByObjectVersion
1070
     0
1000
AcDbSavedByObjectVersion
1070
     0
1000
AcDbSavedByObjectVersion
1070
     0
1000
AcDbSavedByObjectVersion
1070
     0
1000
AcDbSavedByObjectVersion
1070
     0
1000
AcDbSavedByObjectVersion
1070
     0
1000
AcDbSavedByObjectVersion
1070
     0
1000
AcDbSavedByObjectVersion
1070
     0
1000
AcDbSavedByObjectVersion
1070
     0
1000
AcDbSavedByObjectVersion
1070
     0
1000
AcDbSavedByObjectVersion
1070
     0
1000
AcDbSavedByObjectVersion
1070
     0
  0
VISUALSTYLE
  5
3D7
102
{ACAD_REACTORS
330
3CC
102
}
330
3CC
100
AcDbVisualStyle
  2
Dim
 70
    11
 71
     2
 72
     2
 73
     0
 90
        0
 40
-0.6
 41
-30.0
 62
     5
 63
     7
 74
     1
 91
        4
 64
     7
 65
   257
 75
     1
175
     1
 42
1.0
 92
        8
 66
     7
 43
1.0
 76
     1
 77
     6
 78
     2
 67
     7
 79
     5
170
     0
171
     0
290
     0
174
     0
 93
        1
 44
-50.0
173
     0
291
     1
 45
0.0
1001
ACAD
1000
AcDbSavedByObjectVersion
1070
     0
1000
AcDbSavedByObjectVersion
1070
     0
1000
AcDbSavedByObjectVersion
1070
     0
1000
AcDbSavedByObjectVersion
1070
     0
1000
AcDbSavedByObjectVersion
1070
     0
1000
AcDbSavedByObjectVersion
1070
     0
1000
AcDbSavedByObjectVersion
1070
     0
1000
AcDbSavedByObjectVersion
1070
     0
1000
AcDbSavedByObjectVersion
1070
     0
1000
AcDbSavedByObjectVersion
1070
     0
1000
AcDbSavedByObjectVersion
1070
     0
1000
AcDbSavedByObjectVersion
1070
     0
1000
AcDbSavedByObjectVersion
1070
     0
1000
AcDbSavedByObjectVersion
1070
     0
  0
VISUALSTYLE
  5
3DB
102
{ACAD_REACTORS
330
3CC
102
}
330
3CC
100
AcDbVisualStyle
  2
Facepattern
 70
    15
 71
     2
 72
     2
 73
     0
 90
        0
 40
-0.6
 41
-30.0
 62
     5
 63
     7
 74
     1
 91
        4
 64
     7
 65
   257
 75
     1
175
     1
 42
1.0
 92
        8
 66
     7
 43
1.0
 76
     1
 77
     6
 78
     2
 67
     7
 79
     5
170
     0
171
     0
290
     0
174
     0
 93
        1
 44
0.0
173
     0
291
     1
 45
0.0
1001
ACAD
1000
AcDbSavedByObjectVersion
1070
     0
1000
AcDbSavedByObjectVersion
1070
     0
1000
AcDbSavedByObjectVersion
1070
     0
1000
AcDbSavedByObjectVersion
1070
     0
1000
AcDbSavedByObjectVersion
1070
     0
1000
AcDbSavedByObjectVersion
1070
     0
1000
AcDbSavedByObjectVersion
1070
     0
1000
AcDbSavedByObjectVersion
1070
     0
1000
AcDbSavedByObjectVersion
1070
     0
1000
AcDbSavedByObjectVersion
1070
     0
1000
AcDbSavedByObjectVersion
1070
     0
1000
AcDbSavedByObjectVersion
1070
     0
1000
AcDbSavedByObjectVersion
1070
     0
1000
AcDbSavedByObjectVersion
1070
     0
  0
VISUALSTYLE
  5
3CD
102
{ACAD_REACTORS
330
3CC
102
}
330
3CC
100
AcDbVisualStyle
  2
Flat
 70
     0
 71
     2
 72
     1
 73
     1
 90
        2
 40
-0.6
 41
30.0
 62
     5
 63
     7
 74
     0
 91
        4
 64
     7
 65
   257
 75
     1
175
     1
 42
1.0
 92
        8
 66
     7
 43
1.0
 76
     1
 77
     6
 78
     2
 67
     7
 79
     5
170
     0
171
     0
290
     0
174
     0
 93
       13
 44
0.0
173
     0
291
     1
 45
0.0
1001
ACAD
1000
AcDbSavedByObjectVersion
1070
     0
1000
AcDbSavedByObjectVersion
1070
     0
1000
AcDbSavedByObjectVersion
1070
     0
1000
AcDbSavedByObjectVersion
1070
     0
1000
AcDbSavedByObjectVersion
1070
     0
1000
AcDbSavedByObjectVersion
1070
     0
1000
AcDbSavedByObjectVersion
1070
     0
1000
AcDbSavedByObjectVersion
1070
     0
1000
AcDbSavedByObjectVersion
1070
     0
1000
AcDbSavedByObjectVersion
1070
     0
1000
AcDbSavedByObjectVersion
1070
     0
1000
AcDbSavedByObjectVersion
1070
     0
1000
AcDbSavedByObjectVersion
1070
     0
1000
AcDbSavedByObjectVersion
1070
     0
  0
VISUALSTYLE
  5
3CE
102
{ACAD_REACTORS
330
3CC
102
}
330
3CC
100
AcDbVisualStyle
  2
FlatWithEdges
 70
     1
 71
     2
 72
     1
 73
     1
 90
        2
 40
-0.6
 41
30.0
 62
     5
 63
     7
 74
     1
 91
        4
 64
     7
 65
   257
 75
     1
175
     1
 42
1.0
 92
        0
 66
   257
 43
1.0
 76
     1
 77
     6
 78
     2
 67
     7
 79
     5
170
     0
171
     0
290
     0
174
     0
 93
       13
 44
0.0
173
     0
291
     1
 45
0.0
1001
ACAD
1000
AcDbSavedByObjectVersion
1070
     0
1000
AcDbSavedByObjectVersion
1070
     0
1000
AcDbSavedByObjectVersion
1070
     0
1000
AcDbSavedByObjectVersion
1070
     0
1000
AcDbSavedByObjectVersion
1070
     0
1000
AcDbSavedByObjectVersion
1070
     0
1000
AcDbSavedByObjectVersion
1070
     0
1000
AcDbSavedByObjectVersion
1070
     0
1000
AcDbSavedByObjectVersion
1070
     0
1000
AcDbSavedByObjectVersion
1070
     0
1000
AcDbSavedByObjectVersion
1070
     0
1000
AcDbSavedByObjectVersion
1070
     0
1000
AcDbSavedByObjectVersion
1070
     0
1000
AcDbSavedByObjectVersion
1070
     0
  0
VISUALSTYLE
  5
3CF
102
{ACAD_REACTORS
330
3CC
102
}
330
3CC
100
AcDbVisualStyle
  2
Gouraud
 70
     2
 71
     2
 72
     2
 73
     1
 90
        2
 40
-0.6
 41
30.0
 62
     5
 63
     7
 74
     0
 91
        4
 64
     7
 65
   257
 75
     1
175
     1
 42
1.0
 92
        0
 66
     7
 43
1.0
 76
     1
 77
     6
 78
     2
 67
     7
 79
     5
170
     0
171
     0
290
     0
174
     0
 93
       13
 44
0.0
173
     0
291
     1
 45
0.0
1001
ACAD
1000
AcDbSavedByObjectVersion
1070
     0
1000
AcDbSavedByObjectVersion
1070
     0
1000
AcDbSavedByObjectVersion
1070
     0
1000
AcDbSavedByObjectVersion
1070
     0
1000
AcDbSavedByObjectVersion
1070
     0
1000
AcDbSavedByObjectVersion
1070
     0
1000
AcDbSavedByObjectVersion
1070
     0
1000
AcDbSavedByObjectVersion
1070
     0
1000
AcDbSavedByObjectVersion
1070
     0
1000
AcDbSavedByObjectVersion
1070
     0
1000
AcDbSavedByObjectVersion
1070
     0
1000
AcDbSavedByObjectVersion
1070
     0
1000
AcDbSavedByObjectVersion
1070
     0
1000
AcDbSavedByObjectVersion
1070
     0
  0
VISUALSTYLE
  5
3D0
102
{ACAD_REACTORS
330
3CC
102
}
330
3CC
100
AcDbVisualStyle
  2
GouraudWithEdges
 70
     3
 71
     2
 72
     2
 73
     1
 90
        2
 40
-0.6
 41
30.0
 62
     5
 63
     7
 74
     1
 91
        4
 64
     7
 65
   257
 75
     1
175
     1
 42
1.0
 92
        0
 66
   257
 43
1.0
 76
     1
 77
     6
 78
     2
 67
     7
 79
     5
170
     0
171
     0
290
     0
174
     0
 93
       13
 44
0.0
173
     0
291
     1
 45
0.0
1001
ACAD
1000
AcDbSavedByObjectVersion
1070
     0
1000
AcDbSavedByObjectVersion
1070
     0
1000
AcDbSavedByObjectVersion
1070
     0
1000
AcDbSavedByObjectVersion
1070
     0
1000
AcDbSavedByObjectVersion
1070
     0
1000
AcDbSavedByObjectVersion
1070
     0
1000
AcDbSavedByObjectVersion
1070
     0
1000
AcDbSavedByObjectVersion
1070
     0
1000
AcDbSavedByObjectVersion
1070
     0
1000
AcDbSavedByObjectVersion
1070
     0
1000
AcDbSavedByObjectVersion
1070
     0
1000
AcDbSavedByObjectVersion
1070
     0
1000
AcDbSavedByObjectVersion
1070
     0
1000
AcDbSavedByObjectVersion
1070
     0
  0
VISUALSTYLE
  5
3DA
102
{ACAD_REACTORS
330
3CC
102
}
330
3CC
100
AcDbVisualStyle
  2
Linepattern
 70
    14
 71
     2
 72
     2
 73
     0
 90
        0
 40
-0.6
 41
-30.0
 62
     5
 63
     7
 74
     1
 91
        4
 64
     7
 65
   257
 75
     7
175
     7
 42
1.0
 92
        8
 66
     7
 43
1.0
 76
     1
 77
     6
 78
     2
 67
     7
 79
     5
170
     0
171
     0
290
     0
174
     0
 93
        1
 44
0.0
173
     0
291
     1
 45
0.0
1001
ACAD
1000
AcDbSavedByObjectVersion
1070
     0
1000
AcDbSavedByObjectVersion
1070
     0
1000
AcDbSavedByObjectVersion
1070
     0
1000
AcDbSavedByObjectVersion
1070
     0
1000
AcDbSavedByObjectVersion
1070
     0
1000
AcDbSavedByObjectVersion
1070
     0
1000
AcDbSavedByObjectVersion
1070
     0
1000
AcDbSavedByObjectVersion
1070
     0
1000
AcDbSavedByObjectVersion
1070
     0
1000
AcDbSavedByObjectVersion
1070
     0
1000
AcDbSavedByObjectVersion
1070
     0
1000
AcDbSavedByObjectVersion
1070
     0
1000
AcDbSavedByObjectVersion
1070
     0
1000
AcDbSavedByObjectVersion
1070
     0
  0
VISUALSTYLE
  5
3D6
102
{ACAD_REACTORS
330
3CC
102
}
330
3CC
100
AcDbVisualStyle
  2
Realistic
 70
     8
 71
     2
 72
     2
 73
     0
 90
        0
 40
-0.6
 41
-30.0
 62
     5
 63
     7
 74
     1
 91
        0
 64
     7
 65
   257
 75
     1
175
     1
 42
1.0
 92
        8
 66
     8
 43
1.0
 76
     1
 77
     6
 78
     2
 67
     7
 79
     5
170
     0
171
     0
290
     0
174
     0
 93
       13
 44
0.0
173
     0
291
     0
 45
0.0
1001
ACAD
1000
AcDbSavedByObjectVersion
1070
     0
1000
AcDbSavedByObjectVersion
1070
     0
1000
AcDbSavedByObjectVersion
1070
     0
1000
AcDbSavedByObjectVersion
1070
     0
1000
AcDbSavedByObjectVersion
1070
     0
1000
AcDbSavedByObjectVersion
1070
     0
1000
AcDbSavedByObjectVersion
1070
     0
1000
AcDbSavedByObjectVersion
1070
     0
1000
AcDbSavedByObjectVersion
1070
     0
1000
AcDbSavedByObjectVersion
1070
     0
1000
AcDbSavedByObjectVersion
1070
     0
1000
AcDbSavedByObjectVersion
1070
     0
1000
AcDbSavedByObjectVersion
1070
     0
1000
AcDbSavedByObjectVersion
1070
     0
  0
VISUALSTYLE
  5
3D9
102
{ACAD_REACTORS
330
3CC
102
}
330
3CC
100
AcDbVisualStyle
  2
Thicken
 70
    13
 71
     2
 72
     2
 73
     0
 90
        0
 40
-0.6
 41
-30.0
 62
     5
 63
     7
 74
     1
 91
        4
 64
     7
 65
   257
 75
     1
175
     1
 42
1.0
 92
       12
 66
     7
 43
1.0
 76
     1
 77
     6
 78
     2
 67
     7
 79
     5
170
     0
171
     0
290
     0
174
     0
 93
        1
 44
0.0
173
     0
291
     1
 45
0.0
1001
ACAD
1000
AcDbSavedByObjectVersion
1070
     0
1000
AcDbSavedByObjectVersion
1070
     0
1000
AcDbSavedByObjectVersion
1070
     0
1000
AcDbSavedByObjectVersion
1070
     0
1000
AcDbSavedByObjectVersion
1070
     0
1000
AcDbSavedByObjectVersion
1070
     0
1000
AcDbSavedByObjectVersion
1070
     0
1000
AcDbSavedByObjectVersion
1070
     0
1000
AcDbSavedByObjectVersion
1070
     0
1000
AcDbSavedByObjectVersion
1070
     0
1000
AcDbSavedByObjectVersion
1070
     0
1000
AcDbSavedByObjectVersion
1070
     0
1000
AcDbSavedByObjectVersion
1070
     0
1000
AcDbSavedByObjectVersion
1070
     0
  0
DICTIONARYVAR
  5
220E
102
{ACAD_REACTORS
330
94
102
}
330
94
100
DictionaryVariables
280
     0
  1
1:1
  0
DICTIONARYVAR
  5
220D
102
{ACAD_REACTORS
330
94
102
}
330
94
100
DictionaryVariables
280
     0
  1
STANDARD
  0
DICTIONARYVAR
  5
138
102
{ACAD_REACTORS
330
94
102
}
330
94
100
DictionaryVariables
280
     0
  1
STANDARD
  0
DICTIONARYVAR
  5
96
102
{ACAD_REACTORS
330
94
102
}
330
94
100
DictionaryVariables
280
     0
  1
2
  0
DICTIONARYVAR
  5
95
102
{ACAD_REACTORS
330
94
102
}
330
94
100
DictionaryVariables
280
     0
  1
0
  0
DICTIONARYVAR
  5
220F
102
{ACAD_REACTORS
330
94
102
}
330
94
100
DictionaryVariables
280
     0
  1
127
  0
DICTIONARY
  5
272
102
{ACAD_REACTORS
330
5B
102
}
330
5B
100
AcDbDictionary
281
     1
  0
DICTIONARY
  5
61
102
{ACAD_REACTORS
330
5B
102
}
330
5B
100
AcDbDictionary
281
     1
  0
XRECORD
  5
123
102
{ACAD_REACTORS
330
5B
102
}
330
5B
100
AcDbXrecord
280
     1
 90
-1023410169
  0
DICTIONARY
  5
2D6E
330
1E
100
AcDbDictionary
280
     1
281
     1
  3
ACAD_XREC_ROUNDTRIP
360
2D6F
  0
DICTIONARY
  5
2D72
330
26
100
AcDbDictionary
280
     1
281
     1
  3
ACAD_XREC_ROUNDTRIP
360
2D73
  0
DICTIONARY
  5
2D70
330
22
100
AcDbDictionary
280
     1
281
     1
  3
ACAD_XREC_ROUNDTRIP
360
2D71
  0
DICTIONARY
  5
3BD
330
3BC
100
AcDbDictionary
280
     1
281
     1
  3
ACAD_XREC_ROUNDTRIP
360
221E
  3
BUMPTILE
360
3BF
  3
DIFFUSETILE
360
3BE
  3
OPACITYTILE
360
3C2
  3
REFLECTIONTILE
360
3C1
  3
REFRACTIONTILE
360
3C3
  3
SPECULARTILE
360
3C0
  0
DICTIONARY
  5
3B5
330
3B4
100
AcDbDictionary
280
     1
281
     1
  3
ACAD_XREC_ROUNDTRIP
360
221D
  3
BUMPTILE
360
3B7
  3
DIFFUSETILE
360
3B6
  3
OPACITYTILE
360
3BA
  3
REFLECTIONTILE
360
3B9
  3
REFRACTIONTILE
360
3BB
  3
SPECULARTILE
360
3B8
  0
DICTIONARY
  5
3C5
330
3C4
100
AcDbDictionary
280
     1
281
     1
  3
ACAD_XREC_ROUNDTRIP
360
221F
  3
BUMPTILE
360
3C7
  3
DIFFUSETILE
360
3C6
  3
OPACITYTILE
360
3CA
  3
REFLECTIONTILE
360
3C9
  3
REFRACTIONTILE
360
3CB
  3
SPECULARTILE
360
3C8
  0
DICTIONARY
  5
2210
330
11B
100
AcDbDictionary
280
     1
281
     1
  3
ACAD_ROUNDTRIP_2008_TABLESTYLE_CELLSTYLEMAP
360
2D67
  3
ACAD_XREC_ROUNDTRIP
360
2D74
  0
XRECORD
  5
2D6F
102
{ACAD_REACTORS
330
2D6E
102
}
330
2D6E
100
AcDbXrecord
280
     1
102
SHADEPLOT
 70
     0
102
SHADEPLOTRESLEVEL
 70
     2
102
SHADEPLOTCUSTOMDPI
 70
   300
  0
XRECORD
  5
2D73
102
{ACAD_REACTORS
330
2D72
102
}
330
2D72
100
AcDbXrecord
280
     1
102
SHADEPLOT
 70
     0
102
SHADEPLOTRESLEVEL
 70
     2
102
SHADEPLOTCUSTOMDPI
 70
   300
  0
XRECORD
  5
2D71
102
{ACAD_REACTORS
330
2D70
102
}
330
2D70
100
AcDbXrecord
280
     1
102
SHADEPLOT
 70
     0
102
SHADEPLOTRESLEVEL
 70
     2
102
SHADEPLOTCUSTOMDPI
 70
   300
  0
XRECORD
  5
221E
102
{ACAD_REACTORS
330
3BD
102
}
330
3BD
100
AcDbXrecord
280
     1
102
MATERIAL
148
0.0
149
0.0
149
0.0
 93
        0
 94
      127
282
     0
 72
     0
 77
     0
171
     0
175
     0
179
     0
273
     0
  0
XRECORD
  5
3BF
102
{ACAD_REACTORS
330
3BD
102
}
330
3BD
100
AcDbXrecord
280
     1
270
     1
271
     1
  0
XRECORD
  5
3BE
102
{ACAD_REACTORS
330
3BD
102
}
330
3BD
100
AcDbXrecord
280
     1
270
     1
271
     1
  0
XRECORD
  5
3C2
102
{ACAD_REACTORS
330
3BD
102
}
330
3BD
100
AcDbXrecord
280
     1
270
     1
271
     1
  0
XRECORD
  5
3C1
102
{ACAD_REACTORS
330
3BD
102
}
330
3BD
100
AcDbXrecord
280
     1
270
     1
271
     1
  0
XRECORD
  5
3C3
102
{ACAD_REACTORS
330
3BD
102
}
330
3BD
100
AcDbXrecord
280
     1
270
     1
271
     1
  0
XRECORD
  5
3C0
102
{ACAD_REACTORS
330
3BD
102
}
330
3BD
100
AcDbXrecord
280
     1
270
     1
271
     1
  0
XRECORD
  5
221D
102
{ACAD_REACTORS
330
3B5
102
}
330
3B5
100
AcDbXrecord
280
     1
102
MATERIAL
148
0.0
149
0.0
149
0.0
 93
        0
 94
      127
282
     0
 72
     0
 77
     0
171
     0
175
     0
179
     0
273
     0
  0
XRECORD
  5
3B7
102
{ACAD_REACTORS
330
3B5
102
}
330
3B5
100
AcDbXrecord
280
     1
270
     1
271
     1
  0
XRECORD
  5
3B6
102
{ACAD_REACTORS
330
3B5
102
}
330
3B5
100
AcDbXrecord
280
     1
270
     1
271
     1
  0
XRECORD
  5
3BA
102
{ACAD_REACTORS
330
3B5
102
}
330
3B5
100
AcDbXrecord
280
     1
270
     1
271
     1
  0
XRECORD
  5
3B9
102
{ACAD_REACTORS
330
3B5
102
}
330
3B5
100
AcDbXrecord
280
     1
270
     1
271
     1
  0
XRECORD
  5
3BB
102
{ACAD_REACTORS
330
3B5
102
}
330
3B5
100
AcDbXrecord
280
     1
270
     1
271
     1
  0
XRECORD
  5
3B8
102
{ACAD_REACTORS
330
3B5
102
}
330
3B5
100
AcDbXrecord
280
     1
270
     1
271
     1
  0
XRECORD
  5
221F
102
{ACAD_REACTORS
330
3C5
102
}
330
3C5
100
AcDbXrecord
280
     1
102
MATERIAL
148
0.0
149
0.0
149
0.0
 93
        0
 94
      127
282
     0
 72
     0
 77
     0
171
     0
175
     0
179
     0
273
     0
  0
XRECORD
  5
3C7
102
{ACAD_REACTORS
330
3C5
102
}
330
3C5
100
AcDbXrecord
280
     1
270
     1
271
     1
  0
XRECORD
  5
3C6
102
{ACAD_REACTORS
330
3C5
102
}
330
3C5
100
AcDbXrecord
280
     1
270
     1
271
     1
  0
XRECORD
  5
3CA
102
{ACAD_REACTORS
330
3C5
102
}
330
3C5
100
AcDbXrecord
280
     1
270
     1
271
     1
  0
XRECORD
  5
3C9
102
{ACAD_REACTORS
330
3C5
102
}
330
3C5
100
AcDbXrecord
280
     1
270
     1
271
     1
  0
XRECORD
  5
3CB
102
{ACAD_REACTORS
330
3C5
102
}
330
3C5
100
AcDbXrecord
280
     1
270
     1
271
     1
  0
XRECORD
  5
3C8
102
{ACAD_REACTORS
330
3C5
102
}
330
3C5
100
AcDbXrecord
280
     1
270
     1
271
     1
  0
CELLSTYLEMAP
  5
2D67
102
{ACAD_REACTORS
330
2210
102
}
330
2210
100
AcDbCellStyleMap
 90
        3
300
CELLSTYLE
  1
TABLEFORMAT_BEGIN
 90
        5
170
     1
 91
        0
 92
    32768
 62
   257
 93
        1
300
CONTENTFORMAT
  1
CONTENTFORMAT_BEGIN
 90
        0
 91
        0
 92
        4
 93
        0
300

 40
0.0
140
1.0
 94
        5
 62
     0
340
11
144
6.0
309
CONTENTFORMAT_END
171
     1
301
MARGIN
  1
CELLMARGIN_BEGIN
 40
1.5
 40
1.5
 40
1.5
 40
1.5
 40
0.18
 40
0.18
309
CELLMARGIN_END
 94
        6
 95
        1
302
GRIDFORMAT
  1
GRIDFORMAT_BEGIN
 90
        0
 91
        1
 62
     0
 92
       -2
340
0
 93
        0
 40
0.045
309
GRIDFORMAT_END
 95
        2
302
GRIDFORMAT
  1
GRIDFORMAT_BEGIN
 90
        0
 91
        1
 62
     0
 92
       -2
340
0
 93
        0
 40
0.045
309
GRIDFORMAT_END
 95
        4
302
GRIDFORMAT
  1
GRIDFORMAT_BEGIN
 90
        0
 91
        1
 62
     0
 92
       -2
340
0
 93
        0
 40
0.045
309
GRIDFORMAT_END
 95
        8
302
GRIDFORMAT
  1
GRIDFORMAT_BEGIN
 90
        0
 91
        1
 62
     0
 92
       -2
340
0
 93
        0
 40
0.045
309
GRIDFORMAT_END
 95
       16
302
GRIDFORMAT
  1
GRIDFORMAT_BEGIN
 90
        0
 91
        1
 62
     0
 92
       -2
340
0
 93
        0
 40
0.045
309
GRIDFORMAT_END
 95
       32
302
GRIDFORMAT
  1
GRIDFORMAT_BEGIN
 90
        0
 91
        1
 62
     0
 92
       -2
340
0
 93
        0
 40
0.045
309
GRIDFORMAT_END
309
TABLEFORMAT_END
  1
CELLSTYLE_BEGIN
 90
        1
 91
        1
300
_TITLE
309
CELLSTYLE_END
300
CELLSTYLE
  1
TABLEFORMAT_BEGIN
 90
        5
170
     1
 91
        0
 92
        0
 62
   257
 93
        1
300
CONTENTFORMAT
  1
CONTENTFORMAT_BEGIN
 90
        0
 91
        0
 92
        4
 93
        0
300

 40
0.0
140
1.0
 94
        5
 62
     0
340
11
144
4.5
309
CONTENTFORMAT_END
171
     1
301
MARGIN
  1
CELLMARGIN_BEGIN
 40
1.5
 40
1.5
 40
1.5
 40
1.5
 40
0.18
 40
0.18
309
CELLMARGIN_END
 94
        6
 95
        1
302
GRIDFORMAT
  1
GRIDFORMAT_BEGIN
 90
        0
 91
        1
 62
     0
 92
       -2
340
0
 93
        0
 40
0.045
309
GRIDFORMAT_END
 95
        2
302
GRIDFORMAT
  1
GRIDFORMAT_BEGIN
 90
        0
 91
        1
 62
     0
 92
       -2
340
0
 93
        0
 40
0.045
309
GRIDFORMAT_END
 95
        4
302
GRIDFORMAT
  1
GRIDFORMAT_BEGIN
 90
        0
 91
        1
 62
     0
 92
       -2
340
0
 93
        0
 40
0.045
309
GRIDFORMAT_END
 95
        8
302
GRIDFORMAT
  1
GRIDFORMAT_BEGIN
 90
        0
 91
        1
 62
     0
 92
       -2
340
0
 93
        0
 40
0.045
309
GRIDFORMAT_END
 95
       16
302
GRIDFORMAT
  1
GRIDFORMAT_BEGIN
 90
        0
 91
        1
 62
     0
 92
       -2
340
0
 93
        0
 40
0.045
309
GRIDFORMAT_END
 95
       32
302
GRIDFORMAT
  1
GRIDFORMAT_BEGIN
 90
        0
 91
        1
 62
     0
 92
       -2
340
0
 93
        0
 40
0.045
309
GRIDFORMAT_END
309
TABLEFORMAT_END
  1
CELLSTYLE_BEGIN
 90
        2
 91
        1
300
_HEADER
309
CELLSTYLE_END
300
CELLSTYLE
  1
TABLEFORMAT_BEGIN
 90
        5
170
     1
 91
        0
 92
        0
 62
   257
 93
        1
300
CONTENTFORMAT
  1
CONTENTFORMAT_BEGIN
 90
        0
 91
        0
 92
        4
 93
        0
300

 40
0.0
140
1.0
 94
        2
 62
     0
340
11
144
4.5
309
CONTENTFORMAT_END
171
     1
301
MARGIN
  1
CELLMARGIN_BEGIN
 40
1.5
 40
1.5
 40
1.5
 40
1.5
 40
0.18
 40
0.18
309
CELLMARGIN_END
 94
        6
 95
        1
302
GRIDFORMAT
  1
GRIDFORMAT_BEGIN
 90
        0
 91
        1
 62
     0
 92
       -2
340
0
 93
        0
 40
0.045
309
GRIDFORMAT_END
 95
        2
302
GRIDFORMAT
  1
GRIDFORMAT_BEGIN
 90
        0
 91
        1
 62
     0
 92
       -2
340
0
 93
        0
 40
0.045
309
GRIDFORMAT_END
 95
        4
302
GRIDFORMAT
  1
GRIDFORMAT_BEGIN
 90
        0
 91
        1
 62
     0
 92
       -2
340
0
 93
        0
 40
0.045
309
GRIDFORMAT_END
 95
        8
302
GRIDFORMAT
  1
GRIDFORMAT_BEGIN
 90
        0
 91
        1
 62
     0
 92
       -2
340
0
 93
        0
 40
0.045
309
GRIDFORMAT_END
 95
       16
302
GRIDFORMAT
  1
GRIDFORMAT_BEGIN
 90
        0
 91
        1
 62
     0
 92
       -2
340
0
 93
        0
 40
0.045
309
GRIDFORMAT_END
 95
       32
302
GRIDFORMAT
  1
GRIDFORMAT_BEGIN
 90
        0
 91
        1
 62
     0
 92
       -2
340
0
 93
        0
 40
0.045
309
GRIDFORMAT_END
309
TABLEFORMAT_END
  1
CELLSTYLE_BEGIN
 90
        3
 91
        2
300
_DATA
309
CELLSTYLE_END
  0
XRECORD
  5
2D74
102
{ACAD_REACTORS
330
2210
102
}
330
2210
100
AcDbXrecord
280
     1
102
ACAD_ROUNDTRIP_PRE2007_TABLESTYLE
 90
        4
 91
        0
  1

 92
        4
 93
        0
  2

 94
        4
 95
        0
  3

  0
ENDSEC
  0
EOF
