  0
SECTION
  2
HEADER
  9
$ACADVER
  1
AC1015
  9
$ACADMAINTVER
 70
    20
  9
$DWGCODEPAGE
  3
ANSI_1252
  9
$INSBASE
 10
0.0
 20
0.0
 30
0.0
  9
$EXTMIN
 10
61.98435770789012
 20
-0.0162312453735467
 30
-0.0015258207003583
  9
$EXTMAX
 10
416.0880282989436
 20
486.1578299363072
 30
0.0000000349246037
  9
$LIMMIN
 10
0.0
 20
0.0
  9
$LIMMAX
 10
420.0
 20
297.0
  9
$ORTHOMODE
 70
     0
  9
$REGENMODE
 70
     1
  9
$FILLMODE
 70
     1
  9
$QTEXTMODE
 70
     0
  9
$MIRRTEXT
 70
     1
  9
$LTSCALE
 40
1.0
  9
$ATTMODE
 70
     1
  9
$TEXTSIZE
 40
2.5
  9
$TRACEWID
 40
1.0
  9
$TEXTSTYLE
  7
STANDARD
  9
$CLAYER
  8
0
  9
$CELTYPE
  6
ByLayer
  9
$CECOLOR
 62
   256
  9
$CELTSCALE
 40
1.0
  9
$DISPSILH
 70
     0
  9
$DIMSCALE
 40
1.0
  9
$DIMASZ
 40
3.5
  9
$DIMEXO
 40
1.0
  9
$DIMDLI
 40
10.0
  9
$DIMRND
 40
0.0
  9
$DIMDLE
 40
0.0
  9
$DIMEXE
 40
1.0
  9
$DIMTP
 40
0.1
  9
$DIMTM
 40
0.1
  9
$DIMTXT
 40
3.5
  9
$DIMCEN
 40
0.0
  9
$DIMTSZ
 40
0.0
  9
$DIMTOL
 70
     0
  9
$DIMLIM
 70
     0
  9
$DIMTIH
 70
     0
  9
$DIMTOH
 70
     0
  9
$DIMSE1
 70
     0
  9
$DIMSE2
 70
     0
  9
$DIMTAD
 70
     1
  9
$DIMZIN
 70
     8
  9
$DIMBLK
  1

  9
$DIMASO
 70
     1
  9
$DIMSHO
 70
     1
  9
$DIMPOST
  1

  9
$DIMAPOST
  1
"
  9
$DIMALT
 70
     0
  9
$DIMALTD
 70
     2
  9
$DIMALTF
 40
0.0393701
  9
$DIMLFAC
 40
1.0
  9
$DIMTOFL
 70
     1
  9
$DIMTVP
 40
0.0
  9
$DIMTIX
 70
     0
  9
$DIMSOXD
 70
     0
  9
$DIMSAH
 70
     0
  9
$DIMBLK1
  1

  9
$DIMBLK2
  1

  9
$DIMSTYLE
  2
AM_DIN
  9
$DIMCLRD
 70
   256
  9
$DIMCLRE
 70
   256
  9
$DIMCLRT
 70
     2
  9
$DIMTFAC
 40
0.71
  9
$DIMGAP
 40
1.5
  9
$DIMJUST
 70
     0
  9
$DIMSD1
 70
     0
  9
$DIMSD2
 70
     0
  9
$DIMTOLJ
 70
     0
  9
$DIMTZIN
 70
     8
  9
$DIMALTZ
 70
     0
  9
$DIMALTTZ
 70
     0
  9
$DIMUPT
 70
     0
  9
$DIMDEC
 70
     2
  9
$DIMTDEC
 70
     3
  9
$DIMALTU
 70
     2
  9
$DIMALTTD
 70
     4
  9
$DIMTXSTY
  7
STANDARD
  9
$DIMAUNIT
 70
     0
  9
$DIMADEC
 70
     0
  9
$DIMALTRND
 40
0.0
  9
$DIMAZIN
 70
     2
  9
$DIMDSEP
 70
    46
  9
$DIMATFIT
 70
     3
  9
$DIMFRAC
 70
     0
  9
$DIMLDRBLK
  1

  9
$DIMLUNIT
 70
     2
  9
$DIMLWD
 70
    -1
  9
$DIMLWE
 70
    -1
  9
$DIMTMOVE
 70
     0
  9
$LUNITS
 70
     2
  9
$LUPREC
 70
     2
  9
$SKETCHINC
 40
1.0
  9
$FILLETRAD
 40
0.0
  9
$AUNITS
 70
     0
  9
$AUPREC
 70
     0
  9
$MENU
  1
.
  9
$ELEVATION
 40
0.0
  9
$PELEVATION
 40
0.0
  9
$THICKNESS
 40
0.0
  9
$LIMCHECK
 70
     0
  9
$CHAMFERA
 40
2.5
  9
$CHAMFERB
 40
2.5
  9
$CHAMFERC
 40
20.0
  9
$CHAMFERD
 40
0.0
  9
$SKPOLY
 70
     0
  9
$TDCREATE
 40
2455478.316582292
  9
$TDUCREATE
 40
2455478.274915625
  9
$TDUPDATE
 40
2455610.348510382
  9
$TDUUPDATE
 40
2455610.306843715
  9
$TDINDWG
 40
0.0614879514
  9
$TDUSRTIMER
 40
0.0613644329
  9
$USRTIMER
 70
     1
  9
$ANGBASE
 50
0.0
  9
$ANGDIR
 70
     0
  9
$PDMODE
 70
     0
  9
$PDSIZE
 40
0.0
  9
$PLINEWID
 40
0.0
  9
$SPLFRAME
 70
     0
  9
$SPLINETYPE
 70
     6
  9
$SPLINESEGS
 70
     8
  9
$HANDSEED
  5
4450
  9
$SURFTAB1
 70
     6
  9
$SURFTAB2
 70
     6
  9
$SURFTYPE
 70
     6
  9
$SURFU
 70
     6
  9
$SURFV
 70
     6
  9
$UCSBASE
  2

  9
$UCSNAME
  2

  9
$UCSORG
 10
0.0
 20
0.0
 30
0.0
  9
$UCSXDIR
 10
1.0
 20
0.0
 30
0.0
  9
$UCSYDIR
 10
0.0
 20
1.0
 30
0.0
  9
$UCSORTHOREF
  2

  9
$UCSORTHOVIEW
 70
     0
  9
$UCSORGTOP
 10
0.0
 20
0.0
 30
0.0
  9
$UCSORGBOTTOM
 10
0.0
 20
0.0
 30
0.0
  9
$UCSORGLEFT
 10
0.0
 20
0.0
 30
0.0
  9
$UCSORGRIGHT
 10
0.0
 20
0.0
 30
0.0
  9
$UCSORGFRONT
 10
0.0
 20
0.0
 30
0.0
  9
$UCSORGBACK
 10
0.0
 20
0.0
 30
0.0
  9
$PUCSBASE
  2

  9
$PUCSNAME
  2

  9
$PUCSORG
 10
0.0
 20
0.0
 30
0.0
  9
$PUCSXDIR
 10
1.0
 20
0.0
 30
0.0
  9
$PUCSYDIR
 10
0.0
 20
1.0
 30
0.0
  9
$PUCSORTHOREF
  2

  9
$PUCSORTHOVIEW
 70
     0
  9
$PUCSORGTOP
 10
0.0
 20
0.0
 30
0.0
  9
$PUCSORGBOTTOM
 10
0.0
 20
0.0
 30
0.0
  9
$PUCSORGLEFT
 10
0.0
 20
0.0
 30
0.0
  9
$PUCSORGRIGHT
 10
0.0
 20
0.0
 30
0.0
  9
$PUCSORGFRONT
 10
0.0
 20
0.0
 30
0.0
  9
$PUCSORGBACK
 10
0.0
 20
0.0
 30
0.0
  9
$USERI1
 70
     0
  9
$USERI2
 70
     0
  9
$USERI3
 70
     0
  9
$USERI4
 70
     0
  9
$USERI5
 70
     0
  9
$USERR1
 40
0.0
  9
$USERR2
 40
0.0
  9
$USERR3
 40
0.0
  9
$USERR4
 40
0.0
  9
$USERR5
 40
0.0
  9
$WORLDVIEW
 70
     1
  9
$SHADEDGE
 70
     3
  9
$SHADEDIF
 70
    70
  9
$TILEMODE
 70
     1
  9
$MAXACTVP
 70
    64
  9
$PINSBASE
 10
0.0
 20
0.0
 30
0.0
  9
$PLIMCHECK
 70
     0
  9
$PEXTMIN
 10
1.000000000000000E+20
 20
1.000000000000000E+20
 30
1.000000000000000E+20
  9
$PEXTMAX
 10
-1.000000000000000E+20
 20
-1.000000000000000E+20
 30
-1.000000000000000E+20
  9
$PLIMMIN
 10
0.0
 20
0.0
  9
$PLIMMAX
 10
420.0
 20
297.0
  9
$UNITMODE
 70
     0
  9
$VISRETAIN
 70
     1
  9
$PLINEGEN
 70
     0
  9
$PSLTSCALE
 70
     1
  9
$TREEDEPTH
 70
  3020
  9
$CMLSTYLE
  2
Standard
  9
$CMLJUST
 70
     0
  9
$CMLSCALE
 40
20.0
  9
$PROXYGRAPHICS
 70
     1
  9
$MEASUREMENT
 70
     1
  9
$CELWEIGHT
370
    -1
  9
$ENDCAPS
280
     0
  9
$JOINSTYLE
280
     0
  9
$LWDISPLAY
290
     0
  9
$INSUNITS
 70
     4
  9
$HYPERLINKBASE
  1

  9
$STYLESHEET
  1

  9
$XEDIT
290
     1
  9
$CEPSNTYPE
380
     0
  9
$PSTYLEMODE
290
     1
  9
$FINGERPRINTGUID
  2
{D9B534CB-CCF6-4FA9-B884-DC7466432EF9}
  9
$VERSIONGUID
  2
{31713F5B-895A-4BD5-8F01-C7F93C6E23CB}
  9
$EXTNAMES
290
     1
  9
$PSVPSCALE
 40
0.0
  9
$OLESTARTUP
290
     0
  0
ENDSEC
  0
SECTION
  2
CLASSES
  0
CLASS
  1
ACDBDICTIONARYWDFLT
  2
AcDbDictionaryWithDefault
  3
ObjectDBX Classes
 90
        0
280
     0
281
     0
  0
CLASS
  1
ACME_DOCUMENT
  2
AcMeDbDoc
  3
AcMeServices
 90
     1024
280
     0
281
     0
  0
CLASS
  1
AMGSETTINGSOBJ
  2
AmgSettingsObj
  3
"AcadM|Product Description: AutoCAD Mechanical|Company: Autodesk, Inc."
 90
     1024
280
     0
281
     0
  0
CLASS
  1
ACMESCOPE
  2
AcMeScope
  3
AcMeServices
 90
     1024
280
     0
281
     0
  0
CLASS
  1
ACMECOMMANDHISTORY
  2
AcMeCommandHistory
  3
AcMeServices
 90
     1024
280
     0
281
     0
  0
CLASS
  1
ACIMSYSVARMAN
  2
AcImSysVarManager
  3
AcMeServices
 90
     1024
280
     0
281
     0
  0
CLASS
  1
ACIMREALSYSVAR
  2
AcImRealSysVar
  3
AcMeServices
 90
     1024
280
     0
281
     0
  0
CLASS
  1
ACIMINTSYSVAR
  2
AcImIntSysVar
  3
AcMeServices
 90
     1024
280
     0
281
     0
  0
CLASS
  1
ACMEDRAWINGMAN
  2
AcMeDrawingMan
  3
AcMeServices
 90
     1024
280
     0
281
     0
  0
CLASS
  1
ACMEVIEW
  2
AcMeView
  3
AcMeServices
 90
     1024
280
     0
281
     0
  0
CLASS
  1
ACDBENTITYCACHE
  2
AcMeEntityCache
  3
AcMeServices
 90
     1024
280
     0
281
     0
  0
CLASS
  1
GSMANAGER
  2
AcMeGSManager
  3
AcMeServices
 90
     1024
280
     0
281
     0
  0
CLASS
  1
AMDTINTERNALREACTOR
  2
AmdtInternalReactor
  3
AcMeServices
 90
     1024
280
     0
281
     0
  0
CLASS
  1
ACMESTATEMGR
  2
AcMeStateMgr
  3
AcMeServices
 90
     1024
280
     0
281
     0
  0
CLASS
  1
ACGREFMASTER
  2
AcGrefMaster
  3
AcAttribServices
 90
     1024
280
     0
281
     0
  0
CLASS
  1
ACME_DATABASE
  2
AcMeDbDatabase
  3
AcMeServices
 90
     1024
280
     0
281
     0
  0
CLASS
  1
ACRFINSADJUSTERMGR
  2
AcRfInsAdjusterMgr
  3
AcMeServices
 90
     1024
280
     0
281
     0
  0
CLASS
  1
ACGREFACADMASTER
  2
AcGrefacadMaster
  3
AcGrefServices
 90
     1024
280
     0
281
     0
  0
CLASS
  1
AMIMASTER
  2
AmiMaster
  3
AmiServices
 90
     1024
280
     0
281
     0
  0
CLASS
  1
ACMDATADICTIONARY
  2
AcmDataDictionary
  3
"AcmSymBB|Product Description: AutoCAD Mechanical|Company: Autodesk, Inc."
 90
     1024
280
     0
281
     0
  0
CLASS
  1
ACMDATAENTRYBLOCK
  2
AcmDataEntryBlock
  3
AcmSymBB|Product Description: AutoCAD Mechanical|Company: Autodesk, Inc.
 90
    33792
280
     0
281
     0
  0
CLASS
  1
ACIMSTRSYSVAR
  2
AcImStrSysVar
  3
AcMeServices
 90
     1024
280
     0
281
     0
  0
CLASS
  1
ACMSTANDARDISO
  2
AcmStandardISO
  3
"Amdt_StdImp|Product Description: AutoCAD Mechanical|Company: Autodesk, Inc."
 90
    33792
280
     0
281
     0
  0
CLASS
  1
AMGOBJPROPCFG
  2
AmgObjPropCfg
  3
"AmgLay|Product Description: AutoCAD Mechanical|Company: Autodesk, Inc."
 90
     1025
280
     0
281
     0
  0
CLASS
  1
AMDTEDGESTANDARDISO
  2
AmdtEdgeStdISO
  3
"Amdt_StdImp|Product Description: AutoCAD Mechanical|Company: Autodesk, Inc."
 90
    33792
280
     0
281
     0
  0
CLASS
  1
ACMSURFSTANDARDISO
  2
AcmSurfTextStdISO
  3
"Amdt_StdImp|Product Description: AutoCAD Mechanical|Company: Autodesk, Inc."
 90
    33792
280
     0
281
     0
  0
CLASS
  1
ACMFCFSTANDARDISO
  2
AcmFCFStdISO
  3
"Amdt_StdImp|Product Description: AutoCAD Mechanical|Company: Autodesk, Inc."
 90
    33792
280
     0
281
     0
  0
CLASS
  1
ACMWELDSTANDARDISO
  2
AcmWeldingStdISO
  3
"Amdt_StdImp|Product Description: AutoCAD Mechanical|Company: Autodesk, Inc."
 90
    33792
280
     0
281
     0
  0
CLASS
  1
ACMIDSTANDARDISO
  2
AcmIdStdISO
  3
"Amdt_StdImp|Product Description: AutoCAD Mechanical|Company: Autodesk, Inc."
 90
    33792
280
     0
281
     0
  0
CLASS
  1
ACMDATUMSTANDARDISO
  2
AcmDatumStdISO
  3
"Amdt_StdImp|Product Description: AutoCAD Mechanical|Company: Autodesk, Inc."
 90
    33792
280
     0
281
     0
  0
CLASS
  1
ACMBOMSTANDARDISO
  2
AcmBOMStdISO
  3
"Amdt_StdImp|Product Description: AutoCAD Mechanical|Company: Autodesk, Inc."
 90
    33792
280
     0
281
     0
  0
CLASS
  1
ACMDETAILSTANDARDISO
  2
AmdtDetailSymStdISO
  3
"Amdt_StdImp|Product Description: AutoCAD Mechanical|Company: Autodesk, Inc."
 90
    33792
280
     0
281
     0
  0
CLASS
  1
ACMSECTIONSTANDARDISO
  2
AmdtSectionSymStdISO
  3
"Amdt_StdImp|Product Description: AutoCAD Mechanical|Company: Autodesk, Inc."
 90
    33792
280
     0
281
     0
  0
CLASS
  1
ACMCENTERLINESTANDARDISO
  2
AmdtCenterLineStdISO
  3
"Amdt_StdImp|Product Description: AutoCAD Mechanical|Company: Autodesk, Inc."
 90
    33792
280
     0
281
     0
  0
CLASS
  1
ACMNOTESTANDARDISO
  2
AmdtNoteStdISO
  3
"Amdt_StdImp|Product Description: AutoCAD Mechanical|Company: Autodesk, Inc."
 90
    33792
280
     0
281
     0
  0
CLASS
  1
ACAMGLAYSTD
  2
AcAmgLayStd
  3
"AmgLay|Product Description: AutoCAD Mechanical|Company: Autodesk, Inc."
 90
    33792
280
     0
281
     0
  0
CLASS
  1
ACAMGDIMSTD
  2
AcAmgDimStd
  3
"AmgDim|Product Description: AutoCAD Mechanical|Company: Autodesk, Inc."
 90
    33792
280
     0
281
     0
  0
CLASS
  1
ACAMGHOLECHARTSTDISO
  2
AcAmgHoleChartStdISO
  3
AmgDim|Product Description: AutoCAD Mechanical|Company: Autodesk, Inc.
 90
    33792
280
     0
281
     0
  0
CLASS
  1
ACAMGTITLESTD
  2
AcAmgTitleStd
  3
"AmgTitle|Product Description: AutoCAD Mechanical|Company: Autodesk, Inc."
 90
    36863
280
     0
281
     0
  0
CLASS
  1
LAYER_INDEX
  2
AcDbLayerIndex
  3
ObjectDBX Classes
 90
    32768
280
     0
281
     0
  0
CLASS
  1
IDBUFFER
  2
AcDbIdBuffer
  3
ObjectDBX Classes
 90
    32768
280
     0
281
     0
  0
CLASS
  1
DICTIONARYVAR
  2
AcDbDictionaryVar
  3
ObjectDBX Classes
 90
        0
280
     0
281
     0
  0
CLASS
  1
AM_DRAWING_MGR
  2
AcDmDwgMgr
  3
AcMechDwgViewMgmt
 90
     1024
280
     0
281
     0
  0
CLASS
  1
AM_DWG_DOCUMENT
  2
AcDmDwgDocument
  3
AcMechDwgViewMgmt
 90
     1024
280
     0
281
     0
  0
CLASS
  1
AM_DWG_SHEET
  2
AcDmSheet
  3
AcMechDwgViewMgmt
 90
     1024
280
     0
281
     0
  0
CLASS
  1
AM_VIEWDIMPARMAP
  2
AcDmViewDimParMap
  3
AcMechDwgViewMgmt
 90
     1024
280
     0
281
     0
  0
CLASS
  1
AM_DWGMGR_NAME
  2
AcDmDwgMgrName
  3
AcMechDwgViewMgmt
 90
     1024
280
     0
281
     0
  0
CLASS
  1
AMDTMENUSTATEMGR
  2
AmdtMenuStateMgr
  3
McadcomServices
 90
     1024
280
     0
281
     0
  0
CLASS
  1
AMDTMCOMMENUSTATE
  2
AmdtMcomMenuState
  3
McadcomServices
 90
     1024
280
     0
281
     0
  0
CLASS
  1
MAPIAMMOUDLE
  2
MApiAmModule
  3
MApiAmServices
 90
     1024
280
     0
281
     0
  0
CLASS
  1
AMDTADMENUSTATE
  2
AmdtAdMenuState
  3
DesignerServices
 90
     1024
280
     0
281
     0
  0
CLASS
  1
ADAPPL
  2
AcAdAppl
  3
DesignerServices
 90
     1024
280
     0
281
     0
  0
CLASS
  1
DEPMGR
  2
AcAdDepMgr
  3
DesignerServices
 90
     1024
280
     0
281
     0
  0
CLASS
  1
PARAMMGR
  2
AcAdParamMgr
  3
DesignerServices
 90
     1024
280
     0
281
     0
  0
CLASS
  1
PARAMSCOPE
  2
AcAdParamScope
  3
DesignerServices
 90
     1024
280
     0
281
     0
  0
CLASS
  1
NAMEDAPPL
  2
AcAdNamedAppl
  3
DesignerServices
 90
     1024
280
     0
281
     0
  0
CLASS
  1
AMDTDMMENUSTATE
  2
AmdtDmMenuState
  3
AcMechDwgViewMgmt
 90
     1024
280
     0
281
     0
  0
CLASS
  1
AMDTAMMENUSTATE
  2
AmdtAmMenuState
  3
DesignerAssemblies
 90
     1024
280
     0
281
     0
  0
CLASS
  1
ACAMPROJECT
  2
AcAmProject
  3
DesignerAssemblies
 90
     1024
280
     0
281
     0
  0
CLASS
  1
ACAMGRCOMPDEF
  2
AcAmGrCompDef
  3
DesignerAssemblies
 90
     1024
280
     0
281
     0
  0
CLASS
  1
ACCMCONTEXT
  2
AcCmContext
  3
DesignerAssemblies
 90
     1024
280
     0
281
     0
  0
CLASS
  1
ACAMCOMPDEF
  2
AcAmCompDef
  3
DesignerAssemblies
 90
     1024
280
     0
281
     0
  0
CLASS
  1
ACAMCOMPDEFMGR
  2
AcAmCompDefMgr
  3
DesignerAssemblies
 90
     1024
280
     0
281
     0
  0
CLASS
  1
AMCONTEXTMGR
  2
AcAmContextMgr
  3
DesignerAssemblies
 90
     1024
280
     0
281
     0
  0
CLASS
  1
ACAMCONTEXTMODELER
  2
AcAmContextModeler
  3
DesignerAssemblies
 90
     1024
280
     0
281
     0
  0
CLASS
  1
ACMTHREADLINESTANDARDISO
  2
AmdtThreadLineStdISO
  3
"Amdt_StdImp|Product Description: AutoCAD Mechanical|Company: Autodesk, Inc."
 90
    33792
280
     0
281
     0
  0
CLASS
  1
CATALOGSTATE
  2
AcAmCatalogState
  3
DesignerAssemblies
 90
     1024
280
     0
281
     0
  0
CLASS
  1
ACAMGRCOMPDEFSET
  2
AcAmGrCompDefSet
  3
DesignerAssemblies
 90
     1024
280
     0
281
     0
  0
CLASS
  1
AMDTBROWSERDBTAB
  2
AmdtBrowserDbTab
  3
McadcomServices
 90
     1024
280
     0
281
     0
  0
CLASS
  1
CBROWSERAPPOBJECT
  2
CBrowserAppObject
  3
McadcomServices
 90
     1024
280
     0
281
     0
  0
CLASS
  1
DM_PLACEHOLDER
  2
AcDmSelsetPlaceholder
  3
AcMechDwgViewMgmt
 90
     1024
280
     0
281
     0
  0
CLASS
  1
TABLESTYLE
  2
AcDbTableStyle
  3
ObjectDBX Classes
 90
     4095
280
     0
281
     0
  0
CLASS
  1
VAACXREFPANELOBJECT
  2
VaAcXREFPanelObject
  3
VAAC_ADDIN
 90
    32768
280
     0
281
     0
  0
CLASS
  1
VAACIMAGEINVENTORY
  2
VaAcImageInventory
  3
VAAC_ADDIN
 90
    32768
280
     0
281
     0
  0
CLASS
  1
AMDTNOTETEMPLATEDB
  2
AmdtNoteTemplateDB
  3
AcmSymBB|Product Description: AutoCAD Mechanical|Company: Autodesk, Inc.
 90
    33792
280
     0
281
     0
  0
CLASS
  1
ACAMGFILTERDAT
  2
AcAmgFilterDat
  3
"AcadM|Product Description: AutoCAD Mechanical|Company: Autodesk, Inc."
 90
    33792
280
     0
281
     0
  0
CLASS
  1
ACMBOM
  2
AcmBom
  3
"AcmSymBB|Product Description: AutoCAD Mechanical|Company: Autodesk, Inc."
 90
    33792
280
     0
281
     0
  0
CLASS
  1
AMDTFORMULAUPDATEDISPATCHER
  2
AmdtFormulaUpdateDispatcher
  3
AcMeServices
 90
    33792
280
     0
281
     0
  0
CLASS
  1
ACMSTANDARDDIN
  2
AcmStandardDIN
  3
"Amdt_StdImp|Product Description: AutoCAD Mechanical|Company: Autodesk, Inc."
 90
    33792
280
     0
281
     0
  0
CLASS
  1
AMDTEDGESTANDARDDIN13715
  2
AmdtEdgeStdDIN13715
  3
"Amdt_StdImp|Product Description: AutoCAD Mechanical|Company: Autodesk, Inc."
 90
    33792
280
     0
281
     0
  0
CLASS
  1
ACMSURFSTANDARDDIN
  2
AcmSurfTextStdDIN
  3
"Amdt_StdImp|Product Description: AutoCAD Mechanical|Company: Autodesk, Inc."
 90
    33792
280
     0
281
     0
  0
CLASS
  1
ACMFCFSTANDARDDIN
  2
AcmFCFStdDIN
  3
"Amdt_StdImp|Product Description: AutoCAD Mechanical|Company: Autodesk, Inc."
 90
    33792
280
     0
281
     0
  0
CLASS
  1
ACMWELDSTANDARDDIN
  2
AcmWeldingStdDIN
  3
"Amdt_StdImp|Product Description: AutoCAD Mechanical|Company: Autodesk, Inc."
 90
    33792
280
     0
281
     0
  0
CLASS
  1
ACMIDSTANDARDDIN
  2
AcmIdStdDIN
  3
"Amdt_StdImp|Product Description: AutoCAD Mechanical|Company: Autodesk, Inc."
 90
    33792
280
     0
281
     0
  0
CLASS
  1
ACMDATUMSTANDARDDIN
  2
AcmDatumStdDIN
  3
"Amdt_StdImp|Product Description: AutoCAD Mechanical|Company: Autodesk, Inc."
 90
    33792
280
     0
281
     0
  0
CLASS
  1
ACMBOMSTANDARDDIN
  2
AcmBOMStdDIN
  3
"Amdt_StdImp|Product Description: AutoCAD Mechanical|Company: Autodesk, Inc."
 90
    33792
280
     0
281
     0
  0
CLASS
  1
ACMDETAILSTANDARDDIN
  2
AmdtDetailSymStdDIN
  3
"Amdt_StdImp|Product Description: AutoCAD Mechanical|Company: Autodesk, Inc."
 90
    33792
280
     0
281
     0
  0
CLASS
  1
ACMSECTIONSTANDARDDIN
  2
AmdtSectionSymStdDIN
  3
"Amdt_StdImp|Product Description: AutoCAD Mechanical|Company: Autodesk, Inc."
 90
    33792
280
     0
281
     0
  0
CLASS
  1
ACMCENTERLINESTANDARDDIN
  2
AmdtCenterLineStdDIN
  3
"Amdt_StdImp|Product Description: AutoCAD Mechanical|Company: Autodesk, Inc."
 90
    33792
280
     0
281
     0
  0
CLASS
  1
ACMTHREADLINESTANDARDDIN
  2
AmdtThreadLineStdDIN
  3
"Amdt_StdImp|Product Description: AutoCAD Mechanical|Company: Autodesk, Inc."
 90
    33792
280
     0
281
     0
  0
CLASS
  1
ACMNOTESTANDARDDIN
  2
AmdtNoteStdDIN
  3
"Amdt_StdImp|Product Description: AutoCAD Mechanical|Company: Autodesk, Inc."
 90
    33792
280
     0
281
     0
  0
CLASS
  1
ACAMGHOLECHARTSTDDIN
  2
AcAmgHoleChartStdDIN
  3
AmgDim|Product Description: AutoCAD Mechanical|Company: Autodesk, Inc.
 90
    33792
280
     0
281
     0
  0
CLASS
  1
MATERIAL
  2
AcDbMaterial
  3
ObjectDBX Classes
 90
     1153
280
     0
281
     0
  0
CLASS
  1
VISUALSTYLE
  2
AcDbVisualStyle
  3
ObjectDBX Classes
 90
     4095
280
     0
281
     0
  0
CLASS
  1
SCALE
  2
AcDbScale
  3
ObjectDBX Classes
 90
     1153
280
     0
281
     0
  0
CLASS
  1
MLEADERSTYLE
  2
AcDbMLeaderStyle
  3
ACDB_MLEADERSTYLE_CLASS
 90
     4095
280
     0
281
     0
  0
CLASS
  1
ACRFATTGENMGR
  2
AcRfAttGeneralMgr
  3
AcAttribServices
 90
    33792
280
     0
281
     0
  0
CLASS
  1
ACRFOBJATTMGR
  2
AcRfObjAttGroupMgr
  3
AcAttribServices
 90
    33792
280
     0
281
     0
  0
CLASS
  1
ACRFMCADAPIATTHOLDER
  2
AcRfMCADAPIAttHolder
  3
AcAttribServices
 90
    33792
280
     0
281
     0
  0
CLASS
  1
AMDTSYSATTR
  2
AmdtSystemAttribute
  3
AcAttribServices
 90
    33792
280
     0
281
     0
  0
CLASS
  1
ACMTAPERSTANDARDISO
  2
AcmTaperStdISO
  3
"Amdt_StdImp|Product Description: AutoCAD Mechanical|Company: Autodesk, Inc."
 90
    33792
280
     0
281
     0
  0
CLASS
  1
ACMANOOTATIONVIEWSTANDARDISO
  2
AmdtAnViewStdISO
  3
"Amdt_StdImp|Product Description: AutoCAD Mechanical|Company: Autodesk, Inc."
 90
    33792
280
     0
281
     0
  0
CLASS
  1
ACMTAPERSTANDARDDIN
  2
AcmTaperStdDIN
  3
"Amdt_StdImp|Product Description: AutoCAD Mechanical|Company: Autodesk, Inc."
 90
    33792
280
     0
281
     0
  0
CLASS
  1
ACMANOOTATIONVIEWSTANDARDDIN
  2
AmdtAnViewStdDIN
  3
"Amdt_StdImp|Product Description: AutoCAD Mechanical|Company: Autodesk, Inc."
 90
    33792
280
     0
281
     0
  0
CLASS
  1
EXACXREFPANELOBJECT
  2
ExAcXREFPanelObject
  3
EXAC_ESW
 90
     1025
280
     0
281
     0
  0
CLASS
  1
NPOCOLLECTION
  2
AcDbImpNonPersistentObjectsCollection
  3
ObjectDBX Classes
 90
     1153
280
     0
281
     0
  0
CLASS
  1
DIMASSOC
  2
AcDbDimAssoc
  3
"AcDbDimAssoc|Product Desc:     AcDim ARX App For Dimension|Company:          Autodesk, Inc.|WEB Address:      www.autodesk.com"
 90
        0
280
     0
281
     0
  0
CLASS
  1
AEC_REFEDIT_STATUS_TRACKER
  2
AecDbRefEditStatusTracker
  3
AecArchBase50|Product Desc: Autodesk Architectural Desktop 2007 |Company: Autodesk,Inc. |WEB Address: www.autodesk.com
 90
    32897
280
     0
281
     0
  0
CLASS
  1
CAMSSTRUCTBTNSTATE
  2
StructBtnState
  3
DesignerAssemblies
 90
    33792
280
     0
281
     0
  0
CLASS
  1
CELLSTYLEMAP
  2
AcDbCellStyleMap
  3
ObjectDBX Classes
 90
     1152
280
     0
281
     0
  0
CLASS
  1
SORTENTSTABLE
  2
AcDbSortentsTable
  3
ObjectDBX Classes
 90
        0
280
     0
281
     0
  0
CLASS
  1
AMDTNOTE
  2
AmdtNote
  3
"AcmSymBB|Product Description: AutoCAD Mechanical|Company: Autodesk, Inc."
 90
    36863
280
     0
281
     1
  0
CLASS
  1
ACMDIMBREAKPERSREACTOR
  2
AcmDimBreakPersReactor
  3
AmgDim|Product Description: AutoCAD Mechanical|Company: Autodesk, Inc.
 90
    36863
280
     0
281
     0
  0
CLASS
  1
ACMSURFSTANDARDDIN2002
  2
AcmSurfTextStdDIN2002
  3
"Amdt_StdImp|Product Description: AutoCAD Mechanical|Company: Autodesk, Inc."
 90
    33792
280
     0
281
     0
  0
CLASS
  1
ACDBPLACEHOLDER
  2
AcDbPlaceHolder
  3
ObjectDBX Classes
 90
        0
280
     0
281
     0
  0
CLASS
  1
LAYOUT
  2
AcDbLayout
  3
ObjectDBX Classes
 90
        0
280
     0
281
     0
  0
ENDSEC
  0
SECTION
  2
TABLES
  0
TABLE
  2
VPORT
  5
8
330
0
100
AcDbSymbolTable
 70
     1
  0
VPORT
  5
3B2
330
8
100
AcDbSymbolTableRecord
100
AcDbViewportTableRecord
  2
*Active
 70
     0
 10
0.0
 20
0.0
 11
1.0
 21
1.0
 12
239.0361930034169
 22
243.0707993454669
 13
0.0
 23
0.0
 14
2.5
 24
2.5
 15
10.0
 25
10.0
 16
0.0
 26
0.0
 36
1.0
 17
0.0
 27
0.0
 37
0.0
 40
489.4851217572655
 41
1.752272727272727
 42
50.0
 43
0.0
 44
0.0
 50
0.0
 51
0.0
 71
     0
 72
   100
 73
     1
 74
     3
 75
     0
 76
     0
 77
     0
 78
     0
281
     0
 65
     0
110
0.0
120
0.0
130
0.0
111
1.0
121
0.0
131
0.0
112
0.0
122
1.0
132
0.0
 79
     0
146
0.0
  0
ENDTAB
  0
TABLE
  2
LTYPE
  5
5
330
0
100
AcDbSymbolTable
 70
    20
  0
LTYPE
  5
14
330
5
100
AcDbSymbolTableRecord
100
AcDbLinetypeTableRecord
  2
ByBlock
 70
     0
  3

 72
    65
 73
     0
 40
0.0
  0
LTYPE
  5
15
330
5
100
AcDbSymbolTableRecord
100
AcDbLinetypeTableRecord
  2
ByLayer
 70
     0
  3

 72
    65
 73
     0
 40
0.0
  0
LTYPE
  5
16
330
5
100
AcDbSymbolTableRecord
100
AcDbLinetypeTableRecord
  2
Continuous
 70
     0
  3
Solid line
 72
    65
 73
     0
 40
0.0
  0
LTYPE
  5
67
330
5
100
AcDbSymbolTableRecord
100
AcDbLinetypeTableRecord
  2
Amconstr
 70
     0
  3
_______________________
 72
    65
 73
     2
 40
9999.0
 49
9999.0
 74
     0
 49
0.0
 74
     0
  0
LTYPE
  5
6C
330
5
100
AcDbSymbolTableRecord
100
AcDbLinetypeTableRecord
  2
Amzigzag
 70
     0
  3
/\/-/\/-/\/-/\/-/\/-/\/
 72
    65
 73
     2
 40
11.0001
 49
0.0001
 74
     4
 75
   136
340
22C
 46
0.04
 50
0.0
 44
0.0
 45
0.0
 49
-11.0
 74
     0
  0
LTYPE
  5
7E
330
5
100
AcDbSymbolTableRecord
100
AcDbLinetypeTableRecord
  2
CENTER
 70
     0
  3
__ . __
 72
    65
 73
     4
 40
7.0
 49
4.0
 74
     0
 49
-1.0
 74
     0
 49
1.0
 74
     0
 49
-1.0
 74
     0
  0
LTYPE
  5
D8
330
5
100
AcDbSymbolTableRecord
100
AcDbLinetypeTableRecord
  2
HIDDEN
 70
     0
  3
Hidden __ __ __ __ __ __ __ __ __ __ __ __ __ _
 72
    65
 73
     2
 40
9.524999999999996
 49
6.349999999999997
 74
     0
 49
-3.174999999999998
 74
     0
  0
LTYPE
  5
D9
330
5
100
AcDbSymbolTableRecord
100
AcDbLinetypeTableRecord
  2
PHANTOM2
 70
     0
  3
Phantom (.5x) ___ _ _ ___ _ _ ___ _ _ ___ _ _
 72
    65
 73
     6
 40
31.75
 49
15.875
 74
     0
 49
-3.174999999999998
 74
     0
 49
3.174999999999998
 74
     0
 49
-3.174999999999998
 74
     0
 49
3.174999999999998
 74
     0
 49
-3.174999999999998
 74
     0
  0
LTYPE
  5
322
330
5
100
AcDbSymbolTableRecord
100
AcDbLinetypeTableRecord
  2
AM_DIN_G_W050
 70
     0
  3
____ . ____ . ____ . ____ . ____ . ____ . ____
 72
    65
 73
     4
 40
13.75
 49
9.75
 74
     0
 49
-1.5
 74
     0
 49
1.0
 74
     0
 49
-1.5
 74
     0
  0
LTYPE
  5
324
330
5
100
AcDbSymbolTableRecord
100
AcDbLinetypeTableRecord
  2
AM_DIN_G_W050x2
 70
     0
  3
__ . __ . __ . __ . __ . __
 72
    65
 73
     4
 40
6.875
 49
4.75
 74
     0
 49
-0.875
 74
     0
 49
0.375
 74
     0
 49
-0.875
 74
     0
  0
LTYPE
  5
471
330
5
100
AcDbSymbolTableRecord
100
AcDbLinetypeTableRecord
  2
STRICHPUNKT
 70
     0
  3
Strichpunkt __ . __ . __ . __ . __ . __ . __ . 
 72
    65
 73
     4
 40
25.4
 49
12.7
 74
     0
 49
-6.349999999999997
 74
     0
 49
0.0
 74
     0
 49
-6.349999999999997
 74
     0
  0
LTYPE
  5
3A9D
330
5
100
AcDbSymbolTableRecord
100
AcDbLinetypeTableRecord
  2
AM_ISO02W050
 70
     0
  3
__ __ __ __ __ __ __ __ __ __ __ __ __ __ __
 72
    65
 73
     2
 40
7.5
 49
6.0
 74
     0
 49
-1.5
 74
     0
  0
LTYPE
  5
3A9E
330
5
100
AcDbSymbolTableRecord
100
AcDbLinetypeTableRecord
  2
AM_ISO08W050
 70
     0
  3
____ . ____ . ____ . ____ . ____ . ____ . ____
 72
    65
 73
     4
 40
18.0
 49
12.0
 74
     0
 49
-1.5
 74
     0
 49
3.0
 74
     0
 49
-1.5
 74
     0
  0
LTYPE
  5
3A9F
330
5
100
AcDbSymbolTableRecord
100
AcDbLinetypeTableRecord
  2
AM_ISO09W050
 70
     0
  3
_____ . . _____ . . _____ . . ____ .. ____
 72
    65
 73
     6
 40
22.5
 49
12.0
 74
     0
 49
-1.5
 74
     0
 49
3.0
 74
     0
 49
-1.5
 74
     0
 49
3.0
 74
     0
 49
-1.5
 74
     0
  0
LTYPE
  5
3AA0
330
5
100
AcDbSymbolTableRecord
100
AcDbLinetypeTableRecord
  2
AM_ISO08W050x2
 70
     0
  3
__ . __ . __ . __ . __ . __
 72
    65
 73
     4
 40
9.0
 49
6.0
 74
     0
 49
-0.75
 74
     0
 49
1.5
 74
     0
 49
-0.75
 74
     0
  0
LTYPE
  5
3AA1
330
5
100
AcDbSymbolTableRecord
100
AcDbLinetypeTableRecord
  2
AM_ISO02W050x2
 70
     0
  3
 _ _ _ _ _ _ _ _ _ _ _ _
 72
    65
 73
     2
 40
3.75
 49
3.0
 74
     0
 49
-0.75
 74
     0
  0
LTYPE
  5
3BC1
330
5
100
AcDbSymbolTableRecord
100
AcDbLinetypeTableRecord
  2
ACDINWELD
 70
     0
  3
_ _ _ _ _
 72
    65
 73
     2
 40
2.0
 49
2.0
 74
     0
 49
-1.0
 74
     0
  0
LTYPE
  5
3BC2
330
5
100
AcDbSymbolTableRecord
100
AcDbLinetypeTableRecord
  2
ACDINTGB
 70
     0
  3
__ . . __ . .
 72
    65
 73
     6
 40
9.0
 49
4.0
 74
     0
 49
-1.0
 74
     0
 49
1.0
 74
     0
 49
-1.0
 74
     0
 49
1.0
 74
     0
 49
-1.0
 74
     0
  0
LTYPE
  5
3BC3
330
5
100
AcDbSymbolTableRecord
100
AcDbLinetypeTableRecord
  2
ACDINTGL
 70
     0
  3
_ _ _ _ _
 72
    65
 73
     2
 40
3.0
 49
2.0
 74
     0
 49
-1.0
 74
     0
  0
LTYPE
  5
439A
330
5
100
AcDbSymbolTableRecord
100
AcDbLinetypeTableRecord
  2
AM_DIN_F_W050
 70
     0
  3
__ __ __ __ __ __ __ __ __ __ __ __ __ __ __
 72
    65
 73
     2
 40
6.25
 49
4.75
 74
     0
 49
-1.5
 74
     0
  0
LTYPE
  5
439B
330
5
100
AcDbSymbolTableRecord
100
AcDbLinetypeTableRecord
  2
AM_DIN_K_W050
 70
     0
  3
_____ . . _____ . . _____ . . ____ .. ____
 72
    65
 73
     6
 40
16.25
 49
9.75
 74
     0
 49
-1.5
 74
     0
 49
1.0
 74
     0
 49
-1.5
 74
     0
 49
1.0
 74
     0
 49
-1.5
 74
     0
  0
LTYPE
  5
439C
330
5
100
AcDbSymbolTableRecord
100
AcDbLinetypeTableRecord
  2
AM_DIN_F_W050x2
 70
     0
  3
 _ _ _ _ _ _ _ _ _ _ _ _
 72
    65
 73
     2
 40
3.125
 49
2.25
 74
     0
 49
-0.875
 74
     0
  0
ENDTAB
  0
TABLE
  2
LAYER
  5
2
102
{ACAD_XDICTIONARY
360
48A
102
}
330
0
100
AcDbSymbolTable
 70
     8
  0
LAYER
  5
10
102
{ACAD_XDICTIONARY
360
3251
102
}
330
2
100
AcDbSymbolTableRecord
100
AcDbLayerTableRecord
  2
0
 70
     0
 62
     7
  6
Continuous
370
    -3
390
F
  0
LAYER
  5
473
102
{ACAD_XDICTIONARY
360
474
102
}
330
2
100
AcDbSymbolTableRecord
100
AcDbLayerTableRecord
  2
P-0000
 70
     0
 62
     7
  6
Continuous
370
    -3
390
F
  0
LAYER
  5
475
330
2
100
AcDbSymbolTableRecord
100
AcDbLayerTableRecord
  2
Defpoints
 70
     0
 62
     7
  6
Continuous
290
     0
370
    -3
390
F
  0
LAYER
  5
476
102
{ACAD_XDICTIONARY
360
477
102
}
330
2
100
AcDbSymbolTableRecord
100
AcDbLayerTableRecord
  2
AM_5
 70
     0
 62
     3
  6
Continuous
370
    25
390
F
1001
AcAecLayerStandard
1000

1000

  0
LAYER
  5
478
102
{ACAD_XDICTIONARY
360
479
102
}
330
2
100
AcDbSymbolTableRecord
100
AcDbLayerTableRecord
  2
AM_8
 70
     0
 62
     1
  6
Continuous
370
    25
390
F
  0
LAYER
  5
47A
102
{ACAD_XDICTIONARY
360
47B
102
}
330
2
100
AcDbSymbolTableRecord
100
AcDbLayerTableRecord
  2
AM_CL
 70
     0
 62
     1
  6
Amconstr
370
    25
390
F
1001
AcAecLayerStandard
1000

1000

  0
LAYER
  5
47C
102
{ACAD_XDICTIONARY
360
47D
102
}
330
2
100
AcDbSymbolTableRecord
100
AcDbLayerTableRecord
  2
AM_7
 70
     0
 62
     4
  6
AM_DIN_G_W050
370
    25
390
F
1001
AcAecLayerStandard
1000

1000

  0
LAYER
  5
252A
102
{ACAD_XDICTIONARY
360
252B
102
}
330
2
100
AcDbSymbolTableRecord
100
AcDbLayerTableRecord
  2
P-3FF0
 70
     0
 62
     7
  6
Continuous
370
    -3
390
F
  0
ENDTAB
  0
TABLE
  2
STYLE
  5
3
330
0
100
AcDbSymbolTable
 70
     4
  0
STYLE
  5
11
330
3
100
AcDbSymbolTableRecord
100
AcDbTextStyleTableRecord
  2
STANDARD
 70
     0
 40
0.0
 41
1.0
 50
0.0
 71
     0
 42
2.5
  3
ISOCP.SHX
  4

  0
STYLE
  5
22C
330
3
100
AcDbSymbolTableRecord
100
AcDbTextStyleTableRecord
  2

 70
     1
 40
0.0
 41
1.0
 50
0.0
 71
     0
 42
2.5
  3
genltshp.shx
  4

  0
STYLE
  5
3B34
330
3
100
AcDbSymbolTableRecord
100
AcDbTextStyleTableRecord
  2
ACDINTS
 70
     0
 40
1.0
 41
1.0
 50
0.0
 71
     0
 42
2.5
  3
isocp.shx
  4

  0
STYLE
  5
3BC0
330
3
100
AcDbSymbolTableRecord
100
AcDbTextStyleTableRecord
  2
ACDINGDT
 70
     0
 40
0.0
 41
1.0
 50
0.0
 71
     0
 42
2.5
  3
amgdt.shx
  4

  0
ENDTAB
  0
TABLE
  2
VIEW
  5
6
330
0
100
AcDbSymbolTable
 70
     0
  0
ENDTAB
  0
TABLE
  2
UCS
  5
7
330
0
100
AcDbSymbolTable
 70
     0
  0
ENDTAB
  0
TABLE
  2
APPID
  5
9
330
0
100
AcDbSymbolTable
 70
    25
  0
APPID
  5
12
330
9
100
AcDbSymbolTableRecord
100
AcDbRegAppTableRecord
  2
ACAD
 70
     0
  0
APPID
  5
46
330
9
100
AcDbSymbolTableRecord
100
AcDbRegAppTableRecord
  2
MCAD_NO_VIS
 70
     0
  0
APPID
  5
47
330
9
100
AcDbSymbolTableRecord
100
AcDbRegAppTableRecord
  2
ACAD_TEMP_GRAPHIC
 70
     0
  0
APPID
  5
58
330
9
100
AcDbSymbolTableRecord
100
AcDbRegAppTableRecord
  2
ACATTRIBSERVICES
 70
     0
  0
APPID
  5
EE
330
9
100
AcDbSymbolTableRecord
100
AcDbRegAppTableRecord
  2
AD_DRAW
 70
     0
  0
APPID
  5
10C
330
9
100
AcDbSymbolTableRecord
100
AcDbRegAppTableRecord
  2
DESIGNERASSEMBLIES
 70
     0
  0
APPID
  5
111
330
9
100
AcDbSymbolTableRecord
100
AcDbRegAppTableRecord
  2
ACADM_DIM_EDIT
 70
     0
  0
APPID
  5
112
330
9
100
AcDbSymbolTableRecord
100
AcDbRegAppTableRecord
  2
AMDT_DM_ADJ
 70
     0
  0
APPID
  5
1A3
330
9
100
AcDbSymbolTableRecord
100
AcDbRegAppTableRecord
  2
ACAD_DSTYLE_DIMARC_LENGTH_SYMBOL
 70
     0
  0
APPID
  5
1A4
330
9
100
AcDbSymbolTableRecord
100
AcDbRegAppTableRecord
  2
ACAD_DSTYLE_DIMJOGGED_JOGANGLE_SYMBOL
 70
     0
  0
APPID
  5
3F1
330
9
100
AcDbSymbolTableRecord
100
AcDbRegAppTableRecord
  2
ACAD_MLEADERVER
 70
     0
  0
APPID
  5
482
330
9
100
AcDbSymbolTableRecord
100
AcDbRegAppTableRecord
  2
ACME_LAYERS
 70
     0
  0
APPID
  5
483
330
9
100
AcDbSymbolTableRecord
100
AcDbRegAppTableRecord
  2
AcAecLayerStandard
 70
     0
  0
APPID
  5
484
330
9
100
AcDbSymbolTableRecord
100
AcDbRegAppTableRecord
  2
ACAD_DSTYLE_DIMINSPECT
 70
     0
  0
APPID
  5
485
330
9
100
AcDbSymbolTableRecord
100
AcDbRegAppTableRecord
  2
GENIUS_GENODEF_13
 70
     0
  0
APPID
  5
486
330
9
100
AcDbSymbolTableRecord
100
AcDbRegAppTableRecord
  2
GENIUS_GENOBJ-N-HTC_13
 70
     0
  0
APPID
  5
487
330
9
100
AcDbSymbolTableRecord
100
AcDbRegAppTableRecord
  2
GENIUS_GENHATCH_13
 70
     0
  0
APPID
  5
488
330
9
100
AcDbSymbolTableRecord
100
AcDbRegAppTableRecord
  2
GENIUS_GENOBJ-N-CEN_13
 70
     0
  0
APPID
  5
489
330
9
100
AcDbSymbolTableRecord
100
AcDbRegAppTableRecord
  2
GENIUS_GENCEN_19
 70
     0
  0
APPID
  5
14D0
330
9
100
AcDbSymbolTableRecord
100
AcDbRegAppTableRecord
  2
ACAD_PSEXT
 70
     0
  0
APPID
  5
1743
330
9
100
AcDbSymbolTableRecord
100
AcDbRegAppTableRecord
  2
ACAD_EXEMPT_FROM_CAD_STANDARDS
 70
     0
  0
APPID
  5
3235
330
9
100
AcDbSymbolTableRecord
100
AcDbRegAppTableRecord
  2
GENIUS_GENDTOL_13
 70
     0
  0
APPID
  5
3270
330
9
100
AcDbSymbolTableRecord
100
AcDbRegAppTableRecord
  2
ACAD_DSTYLE_DIM_LINETYPE
 70
     0
  0
APPID
  5
3271
330
9
100
AcDbSymbolTableRecord
100
AcDbRegAppTableRecord
  2
ACAD_DSTYLE_DIM_EXT1_LINETYPE
 70
     0
  0
APPID
  5
3272
330
9
100
AcDbSymbolTableRecord
100
AcDbRegAppTableRecord
  2
ACAD_DSTYLE_DIM_EXT2_LINETYPE
 70
     0
  0
ENDTAB
  0
TABLE
  2
DIMSTYLE
  5
A
330
0
100
AcDbSymbolTable
 70
     8
100
AcDbDimStyleTable
 71
     1
340
2F0
  0
DIMSTYLE
105
2F0
330
A
100
AcDbSymbolTableRecord
100
AcDbDimStyleTableRecord
  2
AM_DIN
 70
     0
  4
"
 41
3.5
 42
1.0
 43
10.0
 44
1.0
 47
0.1
 48
0.1
 73
     0
 74
     0
 77
     1
 78
     8
 79
     2
140
3.5
141
0.0
143
0.0393701
146
0.71
147
1.5
172
     1
176
   256
177
   256
178
     2
271
     2
272
     3
274
     4
283
     0
284
     8
340
11
371
    -1
372
    -1
1001
ACAD_DSTYLE_DIMJOGGED_JOGANGLE_SYMBOL
1070
   384
1040
1.570796326794896
1001
ACAD_DSTYLE_DIM_LINETYPE
1070
   380
1005
14
1001
ACAD_DSTYLE_DIM_EXT1_LINETYPE
1070
   381
1005
14
1001
ACAD_DSTYLE_DIM_EXT2_LINETYPE
1070
   382
1005
14
  0
DIMSTYLE
105
480
102
{ACAD_REACTORS
330
42C2
102
}
330
A
100
AcDbSymbolTableRecord
100
AcDbDimStyleTableRecord
  2
AM_DIN$0
 70
     0
  4
"
 41
3.5
 42
1.0
 43
10.0
 44
1.0
 47
0.1
 48
0.1
 73
     0
 74
     0
 77
     1
 78
     8
 79
     2
140
3.5
141
0.0
143
0.0393701
146
0.71
147
1.5
172
     1
176
   256
177
   256
178
     2
271
     2
272
     3
274
     4
283
     0
284
     8
340
11
371
    -1
372
    -1
1001
ACAD_DSTYLE_DIMJOGGED_JOGANGLE_SYMBOL
1070
   384
1040
1.570796326794896
1001
ACAD_DSTYLE_DIM_LINETYPE
1070
   380
1005
14
1001
ACAD_DSTYLE_DIM_EXT1_LINETYPE
1070
   381
1005
14
1001
ACAD_DSTYLE_DIM_EXT2_LINETYPE
1070
   382
1005
14
  0
DIMSTYLE
105
3B24
330
A
100
AcDbSymbolTableRecord
100
AcDbDimStyleTableRecord
  2
AM_DIN$3
 70
     0
  4
"
 41
3.5
 42
1.0
 43
10.0
 44
1.0
 47
0.1
 48
0.1
 73
     0
 77
     1
 78
     8
 79
     2
140
3.5
141
0.0
143
0.0393701
146
0.71
147
1.5
176
   256
177
   256
178
     2
271
     2
272
     3
274
     4
283
     0
284
     8
288
     1
289
     0
340
11
371
    -1
372
    -1
1001
ACAD_DSTYLE_DIMJOGGED_JOGANGLE_SYMBOL
1070
   384
1040
1.570796326794896
1001
ACAD_DSTYLE_DIM_LINETYPE
1070
   380
1005
14
1001
ACAD_DSTYLE_DIM_EXT1_LINETYPE
1070
   381
1005
14
1001
ACAD_DSTYLE_DIM_EXT2_LINETYPE
1070
   382
1005
14
  0
DIMSTYLE
105
3B25
330
A
100
AcDbSymbolTableRecord
100
AcDbDimStyleTableRecord
  2
AM_DIN$4
 70
     0
  4
"
 41
3.5
 42
1.0
 43
10.0
 44
1.0
 47
0.1
 48
0.1
 73
     0
 74
     0
 77
     1
 78
     8
 79
     2
140
3.5
141
0.0
143
0.0393701
146
0.71
147
1.5
172
     1
176
   256
177
   256
178
     2
271
     2
272
     3
274
     4
283
     0
284
     8
340
11
371
    -1
372
    -1
1001
ACAD_DSTYLE_DIMJOGGED_JOGANGLE_SYMBOL
1070
   384
1040
1.570796326794896
1001
ACAD_DSTYLE_DIM_LINETYPE
1070
   380
1005
14
1001
ACAD_DSTYLE_DIM_EXT1_LINETYPE
1070
   381
1005
14
1001
ACAD_DSTYLE_DIM_EXT2_LINETYPE
1070
   382
1005
14
  0
DIMSTYLE
105
3B26
330
A
100
AcDbSymbolTableRecord
100
AcDbDimStyleTableRecord
  2
AM_DIN$6
 70
     0
  4
"
 41
3.5
 42
1.0
 43
10.0
 44
1.0
 47
0.1
 48
0.1
 73
     0
 74
     0
 78
     8
 79
     2
140
3.5
141
0.0
143
0.0393701
146
0.71
147
1.5
172
     1
176
   256
177
   256
178
     2
271
     2
272
     3
274
     4
283
     0
284
     8
340
11
371
    -1
372
    -1
1001
ACAD_DSTYLE_DIMJOGGED_JOGANGLE_SYMBOL
1070
   384
1040
1.570796326794896
1001
ACAD_DSTYLE_DIM_LINETYPE
1070
   380
1005
14
1001
ACAD_DSTYLE_DIM_EXT1_LINETYPE
1070
   381
1005
14
1001
ACAD_DSTYLE_DIM_EXT2_LINETYPE
1070
   382
1005
14
  0
DIMSTYLE
105
3B27
330
A
100
AcDbSymbolTableRecord
100
AcDbDimStyleTableRecord
  2
AM_DIN$7
 70
     0
  4
"
 41
3.5
 42
1.0
 43
10.0
 44
1.0
 47
0.1
 48
0.1
 73
     0
 74
     0
 77
     1
 78
     8
 79
     2
140
3.5
141
0.0
143
0.0393701
146
0.71
147
1.5
172
     1
176
   256
177
   256
178
     2
271
     2
272
     3
274
     4
283
     0
284
     8
340
11
371
    -1
372
    -1
1001
ACAD_DSTYLE_DIMJOGGED_JOGANGLE_SYMBOL
1070
   384
1040
1.570796326794896
1001
ACAD_DSTYLE_DIM_LINETYPE
1070
   380
1005
14
1001
ACAD_DSTYLE_DIM_EXT1_LINETYPE
1070
   381
1005
14
1001
ACAD_DSTYLE_DIM_EXT2_LINETYPE
1070
   382
1005
14
  0
DIMSTYLE
105
3B28
330
A
100
AcDbSymbolTableRecord
100
AcDbDimStyleTableRecord
  2
AM_DIN$SF
 70
     0
  4
"
 41
3.5
 42
1.0
 43
10.0
 44
1.0
 47
0.1
 48
0.1
 73
     0
 74
     0
 75
     1
 76
     1
 77
     1
 78
     8
 79
     2
140
3.5
141
0.0
143
0.0393701
146
0.71
147
1.5
172
     1
176
   256
177
   256
178
     2
271
     2
272
     3
274
     4
283
     0
284
     8
340
11
371
    -1
372
    -1
1001
ACAD_DSTYLE_DIMJOGGED_JOGANGLE_SYMBOL
1070
   384
1040
1.570796326794896
1001
ACAD_DSTYLE_DIM_LINETYPE
1070
   380
1005
14
1001
ACAD_DSTYLE_DIM_EXT1_LINETYPE
1070
   381
1005
14
1001
ACAD_DSTYLE_DIM_EXT2_LINETYPE
1070
   382
1005
14
  0
DIMSTYLE
105
3B2D
330
A
100
AcDbSymbolTableRecord
100
AcDbDimStyleTableRecord
  2
AM_DIN$SH
 70
     0
  4
"
 41
3.5
 42
1.0
 43
10.0
 44
1.0
 47
0.1
 48
0.1
 73
     0
 74
     0
 75
     1
 76
     1
 77
     1
 78
     8
 79
     2
140
3.5
141
0.0
143
0.0393701
144
2.0
146
0.71
147
1.5
172
     1
173
     1
176
   256
177
   256
178
     2
271
     2
272
     3
274
     4
283
     0
284
     8
340
11
343
3B29
371
    -1
372
    -1
1001
ACAD_DSTYLE_DIMJOGGED_JOGANGLE_SYMBOL
1070
   384
1040
1.570796326794896
1001
ACAD_DSTYLE_DIM_LINETYPE
1070
   380
1005
14
1001
ACAD_DSTYLE_DIM_EXT1_LINETYPE
1070
   381
1005
14
1001
ACAD_DSTYLE_DIM_EXT2_LINETYPE
1070
   382
1005
14
  0
ENDTAB
  0
TABLE
  2
BLOCK_RECORD
  5
1
330
0
100
AcDbSymbolTable
 70
     5
  0
BLOCK_RECORD
  5
1F
102
{ACAD_XDICTIONARY
360
8F
102
}
330
1
100
AcDbSymbolTableRecord
100
AcDbBlockTableRecord
  2
*Model_Space
340
22
  0
BLOCK_RECORD
  5
1B
330
1
100
AcDbSymbolTableRecord
100
AcDbBlockTableRecord
  2
*Paper_Space
340
1E
  0
BLOCK_RECORD
  5
23
330
1
100
AcDbSymbolTableRecord
100
AcDbBlockTableRecord
  2
*Paper_Space0
340
26
  0
BLOCK_RECORD
  5
3B29
330
1
100
AcDbSymbolTableRecord
100
AcDbBlockTableRecord
  2
GENAXEH
340
0
  0
BLOCK_RECORD
  5
42C5
330
1
100
AcDbSymbolTableRecord
100
AcDbBlockTableRecord
  2
*D2
340
0
  0
BLOCK_RECORD
  5
42D1
330
1
100
AcDbSymbolTableRecord
100
AcDbBlockTableRecord
  2
*D3
340
0
  0
ENDTAB
  0
ENDSEC
  0
SECTION
  2
BLOCKS
  0
BLOCK
  5
20
330
1F
100
AcDbEntity
  8
0
100
AcDbBlockBegin
  2
*Model_Space
 70
     0
 10
0.0
 20
0.0
 30
0.0
  3
*Model_Space
  1

  0
ENDBLK
  5
21
330
1F
100
AcDbEntity
  8
0
100
AcDbBlockEnd
  0
BLOCK
  5
1C
330
1B
100
AcDbEntity
 67
     1
  8
0
100
AcDbBlockBegin
  2
*Paper_Space
 70
     0
 10
0.0
 20
0.0
 30
0.0
  3
*Paper_Space
  1

  0
ENDBLK
  5
1D
330
1B
100
AcDbEntity
 67
     1
  8
0
100
AcDbBlockEnd
  0
BLOCK
  5
24
330
23
100
AcDbEntity
 67
     1
  8
0
100
AcDbBlockBegin
  2
*Paper_Space0
 70
     0
 10
0.0
 20
0.0
 30
0.0
  3
*Paper_Space0
  1

  0
ENDBLK
  5
25
330
23
100
AcDbEntity
 67
     1
  8
0
100
AcDbBlockEnd
  0
BLOCK
  5
3B2B
330
3B29
100
AcDbEntity
  8
0
100
AcDbBlockBegin
  2
GENAXEH
 70
     0
 10
0.0
 20
0.0
 30
0.0
  3
GENAXEH
  1

  0
LINE
  5
3B2A
330
3B29
100
AcDbEntity
  8
0
100
AcDbLine
 10
-1.0
 20
0.0
 30
0.0
 11
1.0
 21
0.0
 31
0.0
  0
ENDBLK
  5
3B2C
330
3B29
100
AcDbEntity
  8
0
100
AcDbBlockEnd
  0
BLOCK
  5
42C6
330
42C5
100
AcDbEntity
  8
0
100
AcDbBlockBegin
  2
*D2
 70
     1
 10
0.0
 20
0.0
 30
0.0
  3
*D2
  1

  0
LINE
  5
43B9
330
42C5
100
AcDbEntity
  8
AM_5
  6
ByBlock
100
AcDbLine
 10
248.3666631474807
 20
-0.0000009818008945
 30
0.0
 11
71.99999880317945
 21
-0.0000009818008446
 31
0.0
  0
LINE
  5
43BA
330
42C5
100
AcDbEntity
  8
AM_5
  6
ByBlock
100
AcDbLine
 10
83.99999880317956
 20
369.9999990181823
 30
0.0
 11
71.99999880317955
 21
369.9999990181823
 31
0.0
  0
LINE
  5
43BB
330
42C5
100
AcDbEntity
  8
AM_5
  6
ByBlock
100
AcDbLine
 10
72.99999880317947
 20
4.999999018199154
 30
0.0
 11
72.99999880317955
 21
364.9999990181823
 31
0.0
  0
SOLID
  5
43BC
330
42C5
100
AcDbEntity
  8
AM_5
100
AcDbTrace
 10
72.16666546984614
 20
4.999999018199154
 30
0.0
 11
73.8333321365128
 21
4.999999018199154
 31
0.0
 12
72.99999880317947
 22
-0.0000009818008448
 32
0.0
 13
72.99999880317947
 23
-0.0000009818008448
 33
0.0
  0
SOLID
  5
43BD
330
42C5
100
AcDbEntity
  8
AM_5
100
AcDbTrace
 10
72.16666546984622
 20
364.9999990181823
 30
0.0
 11
73.83333213651287
 21
364.9999990181823
 31
0.0
 12
72.99999880317955
 22
369.9999990181823
 32
0.0
 13
72.99999880317955
 23
369.9999990181823
 33
0.0
  0
MTEXT
  5
43BE
330
42C5
100
AcDbEntity
  8
AM_5
 62
     2
100
AcDbMText
 10
66.49999880317948
 20
184.9999990181906
 30
0.0
 40
10.0
 41
0.0
 71
     5
 72
     1
  1
370
 11
0.0000000000000001
 21
1.0
 31
0.0
 73
     1
 44
1.0
1001
ACAD
1000
MTEXTBEGIN
1070
    73
1070
     1
1070
    44
1040
1.0
1070
    74
1070
     0
1000
MTEXTEND
  0
POINT
  5
43BF
330
42C5
100
AcDbEntity
  8
Defpoints
 62
     0
100
AcDbPoint
 10
249.3666631474807
 20
-0.0000009818008948
 30
0.0
  0
POINT
  5
43C0
330
42C5
100
AcDbEntity
  8
Defpoints
 62
     0
100
AcDbPoint
 10
84.99999880317956
 20
369.9999990181823
 30
0.0
  0
POINT
  5
43C1
330
42C5
100
AcDbEntity
  8
Defpoints
 62
     0
100
AcDbPoint
 10
72.99999880317955
 20
369.9999990181823
 30
0.0
  0
ENDBLK
  5
42C7
330
42C5
100
AcDbEntity
  8
0
100
AcDbBlockEnd
  0
BLOCK
  5
42D2
330
42D1
100
AcDbEntity
  8
0
100
AcDbBlockBegin
  2
*D3
 70
     1
 10
0.0
 20
0.0
 30
0.0
  3
*D3
  1

  0
LINE
  5
43B0
330
42D1
100
AcDbEntity
  8
AM_5
  6
ByBlock
100
AcDbLine
 10
-0.000001196798621
 20
377.9999990181827
 30
0.0
 11
-0.0000011967986123
 21
521.3738539065933
 31
0.0
  0
LINE
  5
43B1
330
42D1
100
AcDbEntity
  8
AM_5
  6
ByBlock
100
AcDbLine
 10
500.0870188870917
 20
377.9999990181827
 30
0.0
 11
500.0870188870917
 21
521.3738539065933
 31
0.0
  0
LINE
  5
43B2
330
42D1
100
AcDbEntity
  8
AM_5
  6
ByBlock
100
AcDbLine
 10
4.999998803201386
 20
520.3738539065933
 30
0.0
 11
495.0870188870917
 21
520.3738539065933
 31
0.0
  0
SOLID
  5
43B3
330
42D1
100
AcDbEntity
  8
AM_5
100
AcDbTrace
 10
4.999998803201386
 20
521.2071872399267
 30
0.0
 11
4.999998803201386
 21
519.5405205732599
 31
0.0
 12
-0.0000011967986123
 22
520.3738539065933
 32
0.0
 13
-0.0000011967986123
 23
520.3738539065933
 33
0.0
  0
SOLID
  5
43B4
330
42D1
100
AcDbEntity
  8
AM_5
100
AcDbTrace
 10
495.0870188870917
 20
521.2071872399267
 30
0.0
 11
495.0870188870917
 21
519.5405205732599
 31
0.0
 12
500.0870188870917
 22
520.3738539065933
 32
0.0
 13
500.0870188870917
 23
520.3738539065933
 33
0.0
  0
MTEXT
  5
43B5
330
42D1
100
AcDbEntity
  8
AM_5
 62
     2
100
AcDbMText
 10
243.9727545030896
 20
526.8738539065934
 30
0.0
 40
10.0
 41
0.0
 71
     5
 72
     1
  1
{\Famgdt;o}500
 73
     1
 44
1.0
1001
ACAD
1000
MTEXTBEGIN
1070
    73
1070
     1
1070
    44
1040
1.0
1070
    74
1070
     0
1000
MTEXTEND
  0
POINT
  5
43B6
330
42D1
100
AcDbEntity
  8
Defpoints
 62
     0
100
AcDbPoint
 10
-0.0000011967986211
 20
376.9999990181827
 30
0.0
  0
POINT
  5
43B7
330
42D1
100
AcDbEntity
  8
Defpoints
 62
     0
100
AcDbPoint
 10
500.0870188870917
 20
376.9999990181827
 30
0.0
  0
POINT
  5
43B8
330
42D1
100
AcDbEntity
  8
Defpoints
 62
     0
100
AcDbPoint
 10
500.0870188870917
 20
520.3738539065933
 30
0.0
  0
ENDBLK
  5
42D3
330
42D1
100
AcDbEntity
  8
0
100
AcDbBlockEnd
  0
ENDSEC
  0
SECTION
  2
ENTITIES
  0
LINE
  5
3FA7
330
1F
100
AcDbEntity
  8
P-0000
  6
STRICHPUNKT
 62
     3
100
AcDbLine
 10
250.0435088451423
 20
485.4123463897681
 30
0.0
 11
250.0435088451423
 21
8.282063314411971
 31
0.0
1001
ACME_LAYERS
1000
1
  0
LINE
  5
3FA9
330
1F
100
AcDbEntity
  8
P-0000
  6
Continuous
 62
     7
100
AcDbLine
 10
165.7217955729051
 20
375.9999990181832
 30
0.0
 11
203.0435088451445
 21
375.9999990181832
 31
0.0
1001
ACME_LAYERS
1000
1
  0
HATCH
  5
3FAA
330
1F
100
AcDbEntity
  8
P-0000
  6
Continuous
 62
     3
100
AcDbHatch
 10
0.0
 20
0.0
 30
0.0
210
0.0
220
0.0
230
1.0
  2
_U
 70
     0
 71
     0
 91
        1
 92
        1
 93
        9
 72
     1
 10
84.99999880317956
 20
369.9999990181823
 11
83.99999880317954
 21
371.7320498257532
 72
     1
 10
83.99999880317954
 20
371.7320498257518
 11
88.36545704308855
 21
374.2524483156972
 72
     2
 10
90.36545704308856
 20
370.7883467005609
 40
4.0
 50
239.9999999999895
 51
270.0
 73
     0
 72
     2
 10
90.36545704308856
 20
370.7883467005609
 40
4.000000000000613
 50
270.0
 51
315.0000000000009
 73
     0
 72
     1
 10
93.19388416783569
 20
373.616773825308
 11
93.89644541258713
 21
372.9142125805552
 72
     1
 10
93.89644541258713
 20
372.9142125805561
 11
92.48223185021423
 21
371.4999990181823
 72
     1
 10
92.48223185021423
 20
371.4999990181823
 11
91.77967060546142
 21
372.2025602629342
 72
     2
 10
90.36545704308856
 20
370.7883467005609
 40
2.000000000000115
 50
44.99999999999594
 51
120.0000000000099
 73
     1
 72
     1
 10
89.36545704308718
 20
372.5203975081299
 11
84.99999880317956
 21
369.9999990181823
 97
        0
 75
     0
 76
     0
 52
44.99999999999999
 41
2.0
 77
     0
 78
     1
 53
45.0
 43
401.803950346411
 44
236.109133984618
 45
-1.414213562373094
 46
1.414213562373094
 79
     0
 98
        1
 10
401.803950346411
 20
236.109133984618
1001
ACME_LAYERS
1000
1
  0
LINE
  5
3FAB
330
1F
100
AcDbEntity
  8
P-0000
  6
Continuous
 62
     3
100
AcDbLine
 10
83.99999880317954
 20
371.7320498257518
 30
0.0
 11
88.36545704308855
 21
374.2524483156972
 31
0.0
1001
ACME_LAYERS
1000
1
  0
LINE
  5
3FAC
330
1F
100
AcDbEntity
  8
P-0000
  6
Continuous
 62
     7
100
AcDbLine
 10
84.99999880317956
 20
369.9999990181823
 30
0.0
 11
89.36545704308718
 21
372.5203975081299
 31
0.0
1001
ACME_LAYERS
1000
1
  0
LINE
  5
3FAD
330
1F
100
AcDbEntity
  8
P-0000
  6
Continuous
 62
     7
100
AcDbLine
 10
84.99999880317956
 20
369.9999990181823
 30
0.0
 11
89.36545704308718
 21
372.5203975081299
 31
0.0
1001
ACME_LAYERS
1000
1
  0
LINE
  5
3FAE
330
1F
100
AcDbEntity
  8
P-0000
  6
Continuous
 62
     7
100
AcDbLine
 10
84.99999880317956
 20
369.9999990181823
 30
0.0
 11
109.5717955729033
 21
369.9999990181823
 31
0.0
1001
ACME_LAYERS
1000
1
  0
LINE
  5
3FAF
102
{ACAD_REACTORS
330
42C4
102
}
330
1F
100
AcDbEntity
  8
P-0000
  6
Continuous
 62
     7
100
AcDbLine
 10
84.99999880317956
 20
369.9999990181823
 30
0.0
 11
83.99999880317954
 21
371.7320498257518
 31
0.0
1001
ACME_LAYERS
1000
1
  0
LINE
  5
3FB0
330
1F
100
AcDbEntity
  8
P-0000
  6
Continuous
 62
     7
100
AcDbLine
 10
109.5717955729033
 20
369.9999990181823
 30
0.0
 11
147.5435088451586
 21
369.9999990181791
 31
0.0
1001
ACME_LAYERS
1000
1
  0
LINE
  5
3FB1
330
1F
100
AcDbEntity
  8
P-0000
  6
Continuous
 62
     7
100
AcDbLine
 10
129.7935088451386
 20
371.9999990181823
 30
0.0
 11
137.7499988031795
 21
371.9999990181823
 31
0.0
1001
ACME_LAYERS
1000
1
  0
LINE
  5
3FB2
330
1F
100
AcDbEntity
  8
P-0000
  6
Continuous
 62
     3
100
AcDbLine
 10
130.5282437821984
 20
387.1964718080822
 30
0.0
 11
130.5282437821984
 21
386.6121231065108
 31
0.0
1001
ACME_LAYERS
1000
1
  0
ARC
  5
3FB3
330
1F
100
AcDbEntity
  8
P-0000
  6
Continuous
 62
     7
100
AcDbCircle
 10
109.5717955729033
 20
373.9999990181823
 30
0.0
 40
1.999999999999253
100
AcDbArc
 50
239.9999999999962
 51
270.0
1001
ACME_LAYERS
1000
1
  0
ARC
  5
3FB4
330
1F
100
AcDbEntity
  8
P-0000
  6
Continuous
 62
     7
100
AcDbCircle
 10
109.5717955729033
 20
373.9999990181823
 30
0.0
 40
4.000000000000131
100
AcDbArc
 50
240.0000000000027
 51
270.0
1001
ACME_LAYERS
1000
1
  0
LINE
  5
3FB5
330
1F
100
AcDbEntity
  8
P-0000
  6
Continuous
 62
     7
100
AcDbLine
 10
109.8499988031804
 20
371.9999990181823
 30
0.0
 11
104.0820496107494
 21
375.330126037104
 31
0.0
1001
ACME_LAYERS
1000
1
  0
LINE
  5
3FB6
330
1F
100
AcDbEntity
  8
P-0000
  6
Continuous
 62
     7
100
AcDbLine
 10
104.1345405632714
 20
372.5203975081299
 30
0.0
 11
107.5717955729033
 21
370.5358974030442
 31
0.0
1001
ACME_LAYERS
1000
1
  0
LINE
  5
3FB7
330
1F
100
AcDbEntity
  8
P-0000
  6
Continuous
 62
     7
100
AcDbLine
 10
93.89644541258713
 20
372.9142125805561
 30
0.0
 11
99.60355219377152
 21
372.9142125805561
 31
0.0
1001
ACME_LAYERS
1000
1
  0
LINE
  5
3FB8
330
1F
100
AcDbEntity
  8
P-0000
  6
Continuous
 62
     7
100
AcDbLine
 10
92.48223185021423
 20
371.4999990181823
 30
0.0
 11
101.0177657561457
 21
371.4999990181823
 31
0.0
1001
ACME_LAYERS
1000
1
  0
LINE
  5
3FB9
330
1F
100
AcDbEntity
  8
P-0000
  6
Continuous
 62
     7
100
AcDbLine
 10
92.7320496107495
 20
375.9999990181832
 30
0.0
 11
101.5820496107485
 21
375.9999990181832
 31
0.0
1001
ACME_LAYERS
1000
1
  0
LINE
  5
3FBA
330
1F
100
AcDbEntity
  8
P-0000
  6
Continuous
 62
     7
100
AcDbLine
 10
90.36545704308856
 20
374.7883467005609
 30
0.0
 11
103.1345405632732
 21
374.7883467005609
 31
0.0
1001
ACME_LAYERS
1000
1
  0
ARC
  5
3FBB
330
1F
100
AcDbEntity
  8
P-0000
  6
Continuous
 62
     7
100
AcDbCircle
 10
92.73204961074815
 20
370.9999990181823
 30
0.0
 40
5.0
100
AcDbArc
 50
89.99999999997395
 51
119.9999999999972
1001
ACME_LAYERS
1000
1
  0
ARC
  5
3FBC
330
1F
100
AcDbEntity
  8
P-0000
  6
Continuous
 62
     7
100
AcDbCircle
 10
90.36545704308856
 20
370.7883467005609
 30
0.0
 40
4.000000000000613
100
AcDbArc
 50
44.99999999999078
 51
90.0
1001
ACME_LAYERS
1000
1
  0
LINE
  5
3FBD
330
1F
100
AcDbEntity
  8
P-0000
  6
Continuous
 62
     7
100
AcDbLine
 10
91.77967060546142
 20
372.2025602629342
 30
0.0
 11
92.48223185021423
 21
371.4999990181823
 31
0.0
1001
ACME_LAYERS
1000
1
  0
ARC
  5
3FBE
330
1F
100
AcDbEntity
  8
P-0000
  6
Continuous
 62
     7
100
AcDbCircle
 10
90.36545704308856
 20
370.7883467005609
 30
0.0
 40
4.0
100
AcDbArc
 50
90.0
 51
120.0000000000038
1001
ACME_LAYERS
1000
1
  0
LINE
  5
3FBF
330
1F
100
AcDbEntity
  8
P-0000
  6
Continuous
 62
     7
100
AcDbLine
 10
88.36545704308855
 20
374.2524483156972
 30
0.0
 11
90.23204961074773
 21
375.330126037104
 31
0.0
1001
ACME_LAYERS
1000
1
  0
ARC
  5
3FC0
330
1F
100
AcDbEntity
  8
P-0000
  6
Continuous
 62
     7
100
AcDbCircle
 10
90.36545704308856
 20
370.7883467005609
 30
0.0
 40
2.000000000000115
100
AcDbArc
 50
44.99999999999078
 51
120.0000000000038
1001
ACME_LAYERS
1000
1
  0
LINE
  5
3FC1
330
1F
100
AcDbEntity
  8
P-0000
  6
Continuous
 62
     7
100
AcDbLine
 10
93.89644541258713
 20
372.9142125805561
 30
0.0
 11
92.48223185021423
 21
371.4999990181823
 31
0.0
1001
ACME_LAYERS
1000
1
  0
LINE
  5
3FC2
330
1F
100
AcDbEntity
  8
P-0000
  6
Continuous
 62
     7
100
AcDbLine
 10
93.19388416783569
 20
373.616773825308
 30
0.0
 11
93.89644541258713
 21
372.9142125805561
 31
0.0
1001
ACME_LAYERS
1000
1
  0
ARC
  5
3FC3
330
1F
100
AcDbEntity
  8
P-0000
  6
Continuous
 62
     7
100
AcDbCircle
 10
103.1345405632732
 20
370.7883467005609
 30
0.0
 40
1.999999999999401
100
AcDbArc
 50
59.9999999999962
 51
135.0000000000092
1001
ACME_LAYERS
1000
1
  0
ARC
  5
3FC4
330
1F
100
AcDbEntity
  8
P-0000
  6
Continuous
 62
     7
100
AcDbCircle
 10
101.5820496107485
 20
370.9999990181823
 30
0.0
 40
5.000000000000164
100
AcDbArc
 50
60.00000000000272
 51
90.0
1001
ACME_LAYERS
1000
1
  0
ARC
  5
3FC5
330
1F
100
AcDbEntity
  8
P-0000
  6
Continuous
 62
     7
100
AcDbCircle
 10
103.1345405632732
 20
370.7883467005609
 30
0.0
 40
1.999999999999401
100
AcDbArc
 50
59.9999999999962
 51
135.0000000000092
1001
ACME_LAYERS
1000
1
  0
ARC
  5
3FC6
330
1F
100
AcDbEntity
  8
P-0000
  6
Continuous
 62
     7
100
AcDbCircle
 10
103.1345405632732
 20
370.7883467005609
 30
0.0
 40
3.999999999998728
100
AcDbArc
 50
59.9999999999962
 51
90.0
1001
ACME_LAYERS
1000
1
  0
ARC
  5
3FC7
330
1F
100
AcDbEntity
  8
P-0000
  6
Continuous
 62
     7
100
AcDbCircle
 10
103.1345405632732
 20
370.7883467005609
 30
0.0
 40
4.0
100
AcDbArc
 50
90.0
 51
135.0000000000092
1001
ACME_LAYERS
1000
1
  0
LINE
  5
3FC8
330
1F
100
AcDbEntity
  8
P-0000
  6
Continuous
 62
     7
100
AcDbLine
 10
99.60355219377152
 20
372.9142125805561
 30
0.0
 11
100.3061134385243
 21
373.616773825308
 31
0.0
1001
ACME_LAYERS
1000
1
  0
LINE
  5
3FC9
330
1F
100
AcDbEntity
  8
P-0000
  6
Continuous
 62
     7
100
AcDbLine
 10
101.0177657561457
 20
371.4999990181823
 30
0.0
 11
101.7203270008985
 21
372.2025602629342
 31
0.0
1001
ACME_LAYERS
1000
1
  0
LINE
  5
3FCA
330
1F
100
AcDbEntity
  8
P-0000
  6
Continuous
 62
     7
100
AcDbLine
 10
101.0177657561457
 20
371.4999990181823
 30
0.0
 11
99.60355219377152
 21
372.9142125805561
 31
0.0
1001
ACME_LAYERS
1000
1
  0
LINE
  5
3FCB
330
1F
100
AcDbEntity
  8
P-0000
  6
Continuous
 62
     7
100
AcDbLine
 10
105.1345405632714
 20
374.2524483156972
 30
0.0
 11
108.5717955729033
 21
372.2679482106141
 31
0.0
1001
ACME_LAYERS
1000
1
  0
LINE
  5
3FCC
330
1F
100
AcDbEntity
  8
P-0000
  6
Continuous
 62
     7
100
AcDbLine
 10
109.8499988031804
 20
371.9999990181823
 30
0.0
 11
129.7935088451386
 21
371.9999990181823
 31
0.0
1001
ACME_LAYERS
1000
1
  0
LINE
  5
3FCD
330
1F
100
AcDbEntity
  8
P-0000
  6
Continuous
 62
     7
100
AcDbLine
 10
109.8499988031804
 20
371.9999990181823
 30
0.0
 11
109.5717955729033
 21
371.9999990181823
 31
0.0
1001
ACME_LAYERS
1000
1
  0
LINE
  5
3FCE
330
1F
100
AcDbEntity
  8
P-0000
  6
Continuous
 62
     3
100
AcDbLine
 10
130.5282437821984
 20
387.1964718080822
 30
0.0
 11
130.5282437821984
 21
371.9999990181823
 31
0.0
1001
ACME_LAYERS
1000
1
  0
LINE
  5
3FCF
330
1F
100
AcDbEntity
  8
P-0000
  6
Continuous
 62
     7
100
AcDbLine
 10
129.7282437821986
 20
385.2059189231259
 30
0.0
 11
129.7282437821986
 21
381.2059189231259
 31
0.0
1001
ACME_LAYERS
1000
1
  0
LINE
  5
3FD0
330
1F
100
AcDbEntity
  8
P-0000
  6
Continuous
 62
     3
100
AcDbLine
 10
136.9282437821984
 20
387.1964718080822
 30
0.0
 11
136.9282437821984
 21
371.9999990181823
 31
0.0
1001
ACME_LAYERS
1000
1
  0
LINE
  5
3FD1
330
1F
100
AcDbEntity
  8
P-0000
  6
Continuous
 62
     7
100
AcDbLine
 10
137.7499988031795
 20
371.9999990181823
 30
0.0
 11
157.1858971880415
 21
371.9999990181823
 31
0.0
1001
ACME_LAYERS
1000
1
  0
LINE
  5
3FD2
330
1F
100
AcDbEntity
  8
P-0000
  6
Continuous
 62
     7
100
AcDbLine
 10
148.304711905233
 20
369.9999990181823
 30
0.0
 11
157.1858971880415
 21
369.9999990181823
 31
0.0
1001
ACME_LAYERS
1000
1
  0
LINE
  5
3FD3
330
1F
100
AcDbEntity
  8
P-0000
  6
Continuous
 62
     7
100
AcDbLine
 10
137.7282437821986
 20
385.2059189231259
 30
0.0
 11
137.7282437821986
 21
381.2059189231259
 31
0.0
1001
ACME_LAYERS
1000
1
  0
LINE
  5
3FD4
330
1F
100
AcDbEntity
  8
P-0000
  6
Continuous
 62
     7
100
AcDbLine
 10
147.5435088451586
 20
369.9999990181791
 30
0.0
 11
148.304711905233
 21
369.9999990181823
 31
0.0
1001
ACME_LAYERS
1000
1
  0
LINE
  5
3FD5
330
1F
100
AcDbEntity
  8
P-0000
  6
Continuous
 62
     7
100
AcDbLine
 10
159.1858971880401
 20
370.5358974030442
 30
0.0
 11
164.7217955729051
 21
373.7320498257518
 31
0.0
1001
ACME_LAYERS
1000
1
  0
LINE
  5
3FD6
330
1F
100
AcDbEntity
  8
P-0000
  6
Continuous
 62
     7
100
AcDbLine
 10
158.1858971880415
 20
372.2679482106124
 30
0.0
 11
163.7217955729047
 21
375.4641006333204
 31
0.0
1001
ACME_LAYERS
1000
1
  0
ARC
  5
3FD7
330
1F
100
AcDbEntity
  8
P-0000
  6
Continuous
 62
     7
100
AcDbCircle
 10
157.1858971880415
 20
373.9999990181823
 30
0.0
 40
2.0
100
AcDbArc
 50
270.0
 51
300.0000000000038
1001
ACME_LAYERS
1000
1
  0
ARC
  5
3FD8
330
1F
100
AcDbEntity
  8
P-0000
  6
Continuous
 62
     7
100
AcDbCircle
 10
165.7217955729051
 20
371.9999990181823
 30
0.0
 40
4.0
100
AcDbArc
 50
90.0
 51
119.9999999999972
1001
ACME_LAYERS
1000
1
  0
ARC
  5
3FD9
330
1F
100
AcDbEntity
  8
P-0000
  6
Continuous
 62
     7
100
AcDbCircle
 10
165.4920410462873
 20
372.5546755123602
 30
0.0
 40
1.406942913943622
100
AcDbArc
 50
78.80050130597068
 51
123.1929568710492
1001
ACME_LAYERS
1000
1
  0
ARC
  5
3FDA
330
1F
100
AcDbEntity
  8
P-0000
  6
Continuous
 62
     7
100
AcDbCircle
 10
157.1858971880415
 20
373.9999990181823
 30
0.0
 40
4.0
100
AcDbArc
 50
270.0
 51
299.9999999999973
1001
ACME_LAYERS
1000
1
  0
LINE
  5
3FDB
330
1F
100
AcDbEntity
  8
P-0000
  6
Continuous
 62
     7
100
AcDbLine
 10
210.6731906586806
 20
375.9999990181832
 30
0.0
 11
250.0435088451463
 21
375.9999990181832
 31
0.0
1001
ACME_LAYERS
1000
1
  0
LINE
  5
3FDC
330
1F
100
AcDbEntity
  8
P-0000
  6
Continuous
 62
     7
100
AcDbLine
 10
203.0435088451445
 20
375.9999990181832
 30
0.0
 11
250.0435088451463
 21
375.9999990181832
 31
0.0
1001
ACME_LAYERS
1000
1
  0
LINE
  5
3FDD
330
1F
100
AcDbEntity
  8
P-0000
  6
Continuous
 62
     7
100
AcDbLine
 10
183.5392375288256
 20
376.219531092313
 30
0.0
 11
183.5435088451385
 21
376.2033673397218
 31
0.0
1001
ACME_LAYERS
1000
1
  0
LINE
  5
3FDE
330
1F
100
AcDbEntity
  8
P-0000
  6
Continuous
 62
     7
100
AcDbLine
 10
137.7847802262895
 20
387.1964718080822
 30
0.0
 11
137.7847802262895
 21
381.2059189231259
 31
0.0
1001
ACME_LAYERS
1000
1
  0
LINE
  5
3FDF
330
1F
100
AcDbEntity
  8
P-0000
  6
Continuous
 62
     7
100
AcDbLine
 10
116.2847802262981
 20
386.7059189231259
 30
0.0
 11
129.7847802262895
 21
386.7059189231259
 31
0.0
1001
ACME_LAYERS
1000
1
  0
LINE
  5
3FE0
330
1F
100
AcDbEntity
  8
P-0000
  6
Continuous
 62
     7
100
AcDbLine
 10
122.1132073510334
 20
385.2059189231259
 30
0.0
 11
124.5508100642614
 21
385.2059189231259
 31
0.0
1001
ACME_LAYERS
1000
1
  0
LINE
  5
3FE1
330
1F
100
AcDbEntity
  8
P-0000
  6
Continuous
 62
     7
100
AcDbLine
 10
250.0347802262813
 20
386.7059189231259
 30
0.0
 11
162.7847802262885
 21
386.7059189231259
 31
0.0
1001
ACME_LAYERS
1000
1
  0
LINE
  5
3FE2
330
1F
100
AcDbEntity
  8
P-0000
  6
Continuous
 62
     7
100
AcDbLine
 10
122.1132073510334
 20
385.2059189231259
 30
0.0
 11
124.5508100642614
 21
385.2059189231259
 31
0.0
1001
ACME_LAYERS
1000
1
  0
LINE
  5
3FE3
330
1F
100
AcDbEntity
  8
P-0000
  6
Continuous
 62
     7
100
AcDbLine
 10
124.5508100642614
 20
385.2059189231259
 30
0.0
 11
125.9611385931211
 21
385.2059189231259
 31
0.0
1001
ACME_LAYERS
1000
1
  0
LINE
  5
3FE4
330
1F
100
AcDbEntity
  8
P-0000
  6
Continuous
 62
     7
100
AcDbLine
 10
124.5508100642614
 20
385.2059189231259
 30
0.0
 11
125.9611385931211
 21
385.2059189231259
 31
0.0
1001
ACME_LAYERS
1000
1
  0
LINE
  5
3FE5
330
1F
100
AcDbEntity
  8
P-0000
  6
Continuous
 62
     7
100
AcDbLine
 10
250.0347802262872
 20
384.9738681155582
 30
0.0
 11
163.7847802262895
 21
384.9738681155582
 31
0.0
1001
ACME_LAYERS
1000
1
  0
LINE
  5
3FE6
330
1F
100
AcDbEntity
  8
P-0000
  6
Continuous
 62
     7
100
AcDbLine
 10
162.7847802262885
 20
386.7059189231259
 30
0.0
 11
157.1867040149373
 21
383.4738681155581
 31
0.0
1001
ACME_LAYERS
1000
1
  0
LINE
  5
3FE7
330
1F
100
AcDbEntity
  8
P-0000
  6
Continuous
 62
     7
100
AcDbLine
 10
137.7847802262895
 20
386.7059189231259
 30
0.0
 11
162.7847802262885
 21
386.7059189231259
 31
0.0
1001
ACME_LAYERS
1000
1
  0
LINE
  5
3FE8
330
1F
100
AcDbEntity
  8
P-0000
  6
Continuous
 62
     7
100
AcDbLine
 10
163.7847802262895
 20
384.9738681155582
 30
0.0
 11
162.7847802262885
 21
386.7059189231259
 31
0.0
1001
ACME_LAYERS
1000
1
  0
LINE
  5
3FE9
330
1F
100
AcDbEntity
  8
P-0000
  6
Continuous
 62
     7
100
AcDbLine
 10
162.7847802262885
 20
386.7059189231259
 30
0.0
 11
162.7128140637883
 21
386.7059189231259
 31
0.0
1001
ACME_LAYERS
1000
1
  0
LINE
  5
3FEA
330
1F
100
AcDbEntity
  8
P-0000
  6
Continuous
 62
     7
100
AcDbLine
 10
125.9611385931211
 20
385.2059189231259
 30
0.0
 11
128.7847802262904
 21
385.2059189231259
 31
0.0
1001
ACME_LAYERS
1000
1
  0
LINE
  5
3FEC
330
1F
100
AcDbEntity
  8
P-0000
  6
Continuous
 62
     3
100
AcDbLine
 10
110.8469580527812
 20
383.2059189231259
 30
0.0
 11
111.3828564376444
 21
383.2059189231259
 31
0.0
1001
ACME_LAYERS
1000
1
  0
LINE
  5
3FED
330
1F
100
AcDbEntity
  8
P-0000
  6
Continuous
 62
     3
100
AcDbLine
 10
110.3828564376444
 20
383.4738681155581
 30
0.0
 11
110.8469580527812
 21
383.2059189231259
 31
0.0
1001
ACME_LAYERS
1000
1
  0
LINE
  5
3FEE
330
1F
100
AcDbEntity
  8
P-0000
  6
Continuous
 62
     7
100
AcDbLine
 10
148.2847802262895
 20
384.0343460478721
 30
0.0
 11
148.5274209134095
 21
383.791705360753
 31
0.0
1001
ACME_LAYERS
1000
1
  0
LINE
  5
3FEF
330
1F
100
AcDbEntity
  8
P-0000
  6
Continuous
 62
     7
100
AcDbLine
 10
119.2847802262895
 20
384.0343460478721
 30
0.0
 11
119.0421395391713
 21
383.791705360753
 31
0.0
1001
ACME_LAYERS
1000
1
  0
LINE
  5
3FF0
330
1F
100
AcDbEntity
  8
P-0000
  6
Continuous
 62
     7
100
AcDbLine
 10
128.7847802262904
 20
385.2059189231259
 30
0.0
 11
128.7847802262904
 21
383.2059189231259
 31
0.0
1001
ACME_LAYERS
1000
1
  0
LINE
  5
3FF1
330
1F
100
AcDbEntity
  8
P-0000
  6
Continuous
 62
     7
100
AcDbLine
 10
138.7847802262895
 20
385.2059189231259
 30
0.0
 11
138.7847802262895
 21
383.2059189231259
 31
0.0
1001
ACME_LAYERS
1000
1
  0
LINE
  5
3FF2
330
1F
100
AcDbEntity
  8
P-0000
  6
Continuous
 62
     7
100
AcDbLine
 10
103.7847802262904
 20
384.9738681155582
 30
0.0
 11
104.7847802262904
 21
386.7059189231259
 31
0.0
1001
ACME_LAYERS
1000
1
  0
LINE
  5
3FF3
330
1F
100
AcDbEntity
  8
P-0000
  6
Continuous
 62
     7
100
AcDbLine
 10
103.7847802262904
 20
384.9738681155582
 30
0.0
 11
109.3828564376435
 21
381.7418173079882
 31
0.0
1001
ACME_LAYERS
1000
1
  0
LINE
  5
3FF4
330
1F
100
AcDbEntity
  8
P-0000
  6
Continuous
 62
     7
100
AcDbLine
 10
104.7847802262904
 20
386.7059189231259
 30
0.0
 11
110.3828564376444
 21
383.4738681155581
 31
0.0
1001
ACME_LAYERS
1000
1
  0
LINE
  5
3FF5
330
1F
100
AcDbEntity
  8
P-0000
  6
Continuous
 62
     7
100
AcDbLine
 10
120.6989937886619
 20
382.6201324854992
 30
0.0
 11
120.4563531015424
 21
382.377491798381
 31
0.0
1001
ACME_LAYERS
1000
1
  0
LINE
  5
3FF6
330
1F
100
AcDbEntity
  8
P-0000
  6
Continuous
 62
     7
100
AcDbLine
 10
146.8705666639151
 20
382.6201324854992
 30
0.0
 11
147.1132073510353
 21
382.377491798381
 31
0.0
1001
ACME_LAYERS
1000
1
  0
LINE
  5
3FF7
330
1F
100
AcDbEntity
  8
P-0000
  6
Continuous
 62
     7
100
AcDbLine
 10
163.7847802262895
 20
384.9738681155582
 30
0.0
 11
158.1867040149363
 21
381.7418173079882
 31
0.0
1001
ACME_LAYERS
1000
1
  0
LINE
  5
3FF8
330
1F
100
AcDbEntity
  8
P-0000
  6
Continuous
 62
     7
100
AcDbLine
 10
156.1867040149373
 20
381.2059189231259
 30
0.0
 11
250.0347802262872
 21
381.2059189231259
 31
0.0
1001
ACME_LAYERS
1000
1
  0
LINE
  5
3FF9
330
1F
100
AcDbEntity
  8
P-0000
  6
Continuous
 62
     7
100
AcDbLine
 10
156.1867040149373
 20
383.2059189231259
 30
0.0
 11
149.9416344757824
 21
383.2059189231259
 31
0.0
1001
ACME_LAYERS
1000
1
  0
LINE
  5
3FFA
330
1F
100
AcDbEntity
  8
P-0000
  6
Continuous
 62
     7
100
AcDbLine
 10
156.1867040149373
 20
381.2059189231259
 30
0.0
 11
149.9416344757824
 21
381.2059189231259
 31
0.0
1001
ACME_LAYERS
1000
1
  0
LINE
  5
3FFB
330
1F
100
AcDbEntity
  8
P-0000
  6
Continuous
 62
     7
100
AcDbLine
 10
111.3828564376444
 20
381.2059189231258
 30
0.0
 11
117.6279259767957
 21
381.2059189231259
 31
0.0
1001
ACME_LAYERS
1000
1
  0
LINE
  5
3FFC
330
1F
100
AcDbEntity
  8
P-0000
  6
Continuous
 62
     7
100
AcDbLine
 10
128.7847802262904
 20
385.2059189231259
 30
0.0
 11
129.7847802262895
 21
385.2059189231259
 31
0.0
1001
ACME_LAYERS
1000
1
  0
LINE
  5
3FFD
330
1F
100
AcDbEntity
  8
P-0000
  6
Continuous
 62
     7
100
AcDbLine
 10
125.9611385931211
 20
385.2059189231259
 30
0.0
 11
128.7847802262904
 21
385.2059189231259
 31
0.0
1001
ACME_LAYERS
1000
1
  0
LINE
  5
3FFE
330
1F
100
AcDbEntity
  8
P-0000
  6
Continuous
 62
     7
100
AcDbLine
 10
138.7847802262895
 20
385.2059189231259
 30
0.0
 11
145.4563531015424
 21
385.2059189231259
 31
0.0
1001
ACME_LAYERS
1000
1
  0
LINE
  5
3FFF
330
1F
100
AcDbEntity
  8
P-0000
  6
Continuous
 62
     7
100
AcDbLine
 10
137.7847802262895
 20
383.2059189231259
 30
0.0
 11
145.4563531015424
 21
383.2059189231259
 31
0.0
1001
ACME_LAYERS
1000
1
  0
LINE
  5
4000
330
1F
100
AcDbEntity
  8
P-0000
  6
Continuous
 62
     7
100
AcDbLine
 10
122.1132073510353
 20
383.2059189231259
 30
0.0
 11
129.7282437821986
 21
383.2059189231259
 31
0.0
1001
ACME_LAYERS
1000
1
  0
LINE
  5
4001
330
1F
100
AcDbEntity
  8
P-0000
  6
Continuous
 62
     7
100
AcDbLine
 10
137.7847802262895
 20
385.2059189231259
 30
0.0
 11
138.7847802262895
 21
385.2059189231259
 31
0.0
1001
ACME_LAYERS
1000
1
  0
LINE
  5
4002
330
1F
100
AcDbEntity
  8
P-0000
  6
Continuous
 62
     7
100
AcDbLine
 10
111.3828564376444
 20
383.2059189231259
 30
0.0
 11
117.6279259767957
 21
383.2059189231259
 31
0.0
1001
ACME_LAYERS
1000
1
  0
LINE
  5
4003
330
1F
100
AcDbEntity
  8
P-0000
  6
Continuous
 62
     7
100
AcDbLine
 10
143.7847802262895
 20
385.2059189231259
 30
0.0
 11
138.7847802262895
 21
385.2059189231259
 31
0.0
1001
ACME_LAYERS
1000
1
  0
LINE
  5
4004
330
1F
100
AcDbEntity
  8
P-0000
  6
Continuous
 62
     7
100
AcDbLine
 10
138.7847802262895
 20
385.2059189231259
 30
0.0
 11
137.7847802262895
 21
385.2059189231259
 31
0.0
1001
ACME_LAYERS
1000
1
  0
LINE
  5
4005
330
1F
100
AcDbEntity
  8
P-0000
  6
Continuous
 62
     7
100
AcDbLine
 10
104.7847802262904
 20
386.7059189231259
 30
0.0
 11
116.2847802262981
 21
386.7059189231259
 31
0.0
1001
ACME_LAYERS
1000
1
  0
LINE
  5
4006
330
1F
100
AcDbEntity
  8
P-0000
  6
Continuous
 62
     7
100
AcDbLine
 10
125.3390821128687
 20
385.2059189231259
 30
0.0
 11
129.7847802262895
 21
385.2059189231259
 31
0.0
1001
ACME_LAYERS
1000
1
  0
LINE
  5
4007
330
1F
100
AcDbEntity
  8
P-0000
  6
Continuous
 62
     7
100
AcDbLine
 10
137.7847802262895
 20
385.2059189231259
 30
0.0
 11
138.7847802262895
 21
385.2059189231259
 31
0.0
1001
ACME_LAYERS
1000
1
  0
LINE
  5
4008
330
1F
100
AcDbEntity
  8
P-0000
  6
Continuous
 62
     7
100
AcDbLine
 10
250.0435088451463
 20
381.2059189231259
 30
0.0
 11
250.0347802262872
 21
381.2059189231259
 31
0.0
1001
ACME_LAYERS
1000
1
  0
LINE
  5
4009
330
1F
100
AcDbEntity
  8
P-0000
  6
Continuous
 62
     7
100
AcDbLine
 10
128.2847802262913
 20
385.2059189231272
 30
0.0
 11
123.2847802262904
 21
385.2059189231272
 31
0.0
1001
ACME_LAYERS
1000
1
  0
LINE
  5
400A
330
1F
100
AcDbEntity
  8
P-0000
  6
Continuous
 62
     7
100
AcDbLine
 10
125.3390821128687
 20
387.1964718080822
 30
0.0
 11
129.7847802262895
 21
387.1964718080822
 31
0.0
1001
ACME_LAYERS
1000
1
  0
LINE
  5
400B
330
1F
100
AcDbEntity
  8
P-0000
  6
Continuous
 62
     7
100
AcDbLine
 10
138.7847802262895
 20
385.2059189231259
 30
0.0
 11
142.3390821128687
 21
385.2059189231259
 31
0.0
1001
ACME_LAYERS
1000
1
  0
LINE
  5
400C
330
1F
100
AcDbEntity
  8
P-0000
  6
Continuous
 62
     7
100
AcDbLine
 10
138.7847802262895
 20
385.2059189231259
 30
0.0
 11
138.2847802262913
 21
385.2059189231272
 31
0.0
1001
ACME_LAYERS
1000
1
  0
LINE
  5
400D
330
1F
100
AcDbEntity
  8
P-0000
  6
Continuous
 62
     7
100
AcDbLine
 10
142.3390821128687
 20
387.1964718080822
 30
0.0
 11
138.2847802262913
 21
387.1964718080822
 31
0.0
1001
ACME_LAYERS
1000
1
  0
LINE
  5
400E
330
1F
100
AcDbEntity
  8
P-0000
  6
Continuous
 62
     7
100
AcDbLine
 10
129.7847802262895
 20
385.2059189231259
 30
0.0
 11
128.7847802262904
 21
385.2059189231259
 31
0.0
1001
ACME_LAYERS
1000
1
  0
LINE
  5
400F
330
1F
100
AcDbEntity
  8
P-0000
  6
Continuous
 62
     7
100
AcDbLine
 10
130.5847802262901
 20
387.1964718080822
 30
0.0
 11
138.2847802262913
 21
387.1964718080822
 31
0.0
1001
ACME_LAYERS
1000
1
  0
LINE
  5
4010
330
1F
100
AcDbEntity
  8
P-0000
  6
Continuous
 62
     7
100
AcDbLine
 10
129.7847802262895
 20
387.1964718080822
 30
0.0
 11
130.5847802262901
 21
387.1964718080822
 31
0.0
1001
ACME_LAYERS
1000
1
  0
LINE
  5
4011
330
1F
100
AcDbEntity
  8
P-0000
  6
Continuous
 62
     7
100
AcDbLine
 10
145.4563531015424
 20
385.2059189231259
 30
0.0
 11
138.7847802262895
 21
385.2059189231259
 31
0.0
1001
ACME_LAYERS
1000
1
  0
ARC
  5
4012
330
1F
100
AcDbEntity
  8
P-0000
  6
Continuous
 62
     7
100
AcDbCircle
 10
117.6279259767957
 20
385.2059189231259
 30
0.0
 40
4.0
100
AcDbArc
 50
270.0
 51
315.0000000000092
1001
ACME_LAYERS
1000
1
  0
ARC
  5
4013
330
1F
100
AcDbEntity
  8
P-0000
  6
Continuous
 62
     7
100
AcDbCircle
 10
145.4563531015424
 20
381.2059189231259
 30
0.0
 40
4.000000000000613
100
AcDbArc
 50
44.99999999999078
 51
90.0
1001
ACME_LAYERS
1000
1
  0
ARC
  5
4014
330
1F
100
AcDbEntity
  8
P-0000
  6
Continuous
 62
     7
100
AcDbCircle
 10
149.9416344757824
 20
385.2059189231259
 30
0.0
 40
3.999999999999423
100
AcDbArc
 50
224.9999999999908
 51
270.0
1001
ACME_LAYERS
1000
1
  0
ARC
  5
4015
330
1F
100
AcDbEntity
  8
P-0000
  6
Continuous
 62
     7
100
AcDbCircle
 10
156.1867040149373
 20
385.2059189231259
 30
0.0
 40
4.0
100
AcDbArc
 50
270.0
 51
299.9999999999973
1001
ACME_LAYERS
1000
1
  0
ARC
  5
4016
330
1F
100
AcDbEntity
  8
P-0000
  6
Continuous
 62
     7
100
AcDbCircle
 10
156.1867040149373
 20
385.2059189231259
 30
0.0
 40
2.0
100
AcDbArc
 50
270.0
 51
300.0000000000264
1001
ACME_LAYERS
1000
1
  0
ARC
  5
4017
330
1F
100
AcDbEntity
  8
P-0000
  6
Continuous
 62
     7
100
AcDbCircle
 10
149.9416344757824
 20
385.2059189231259
 30
0.0
 40
2.000000000000397
100
AcDbArc
 50
224.9999999999908
 51
270.0
1001
ACME_LAYERS
1000
1
  0
ARC
  5
4018
330
1F
100
AcDbEntity
  8
P-0000
  6
Continuous
 62
     7
100
AcDbCircle
 10
145.4563531015424
 20
381.2059189231259
 30
0.0
 40
2.000000000000311
100
AcDbArc
 50
44.99999999999078
 51
90.0
1001
ACME_LAYERS
1000
1
  0
ARC
  5
4019
330
1F
100
AcDbEntity
  8
P-0000
  6
Continuous
 62
     7
100
AcDbCircle
 10
122.1132073510353
 20
381.2059189231259
 30
0.0
 40
2.0
100
AcDbArc
 50
90.0
 51
135.0000000000092
1001
ACME_LAYERS
1000
1
  0
ARC
  5
401A
330
1F
100
AcDbEntity
  8
P-0000
  6
Continuous
 62
     7
100
AcDbCircle
 10
117.6279259767957
 20
385.2059189231259
 30
0.0
 40
2.0
100
AcDbArc
 50
270.0
 51
315.0000000000184
1001
ACME_LAYERS
1000
1
  0
ARC
  5
401B
330
1F
100
AcDbEntity
  8
P-0000
  6
Continuous
 62
     7
100
AcDbCircle
 10
111.3828564376444
 20
385.2059189231259
 30
0.0
 40
1.999999999999425
100
AcDbArc
 50
239.9999999999736
 51
270.0
1001
ACME_LAYERS
1000
1
  0
ARC
  5
401C
330
1F
100
AcDbEntity
  8
P-0000
  6
Continuous
 62
     7
100
AcDbCircle
 10
111.3828564376444
 20
385.2059189231259
 30
0.0
 40
4.000000000000401
100
AcDbArc
 50
240.0000000000027
 51
270.0
1001
ACME_LAYERS
1000
1
  0
ARC
  5
401D
330
1F
100
AcDbEntity
  8
P-0000
  6
Continuous
 62
     7
100
AcDbCircle
 10
122.1132073510353
 20
381.2059189231259
 30
0.0
 40
4.0
100
AcDbArc
 50
90.00000000002605
 51
135.0000000000092
1001
ACME_LAYERS
1000
1
  0
HATCH
  5
401E
330
1F
100
AcDbEntity
  8
P-0000
  6
Continuous
 62
     3
100
AcDbHatch
 10
0.0
 20
0.0
 30
0.0
210
0.0
220
0.0
230
1.0
  2
_U
 70
     0
 71
     0
 91
        1
 92
        1
 93
       19
 72
     1
 10
162.7847802262885
 20
386.7059189231259
 11
157.1867040149373
 21
383.4738681155581
 72
     1
 10
157.1867040149373
 20
383.4738681155581
 11
156.7226023997987
 21
383.2059189231259
 72
     1
 10
156.7226023997987
 20
383.2059189231259
 11
156.1867040149373
 21
383.2059189231259
 72
     1
 10
156.1867040149373
 20
383.2059189231259
 11
149.9416344757824
 21
383.2059189231259
 72
     1
 10
149.9416344757824
 20
383.2059189231259
 11
149.1132073510366
 21
383.2059189231259
 72
     1
 10
149.1132073510366
 20
383.2059189231259
 11
148.5274209134095
 21
383.791705360753
 72
     1
 10
148.5274209134095
 20
383.791705360753
 11
148.2847802262895
 21
384.0343460478721
 72
     2
 10
145.4563531015424
 20
381.2059189231259
 40
4.000000000000613
 50
44.99999999999911
 51
89.99999999999998
 73
     1
 72
     1
 10
145.4563531015424
 20
385.2059189231259
 11
138.7847802262895
 21
385.2059189231259
 72
     1
 10
138.7847802262895
 20
385.2059189231259
 11
138.7847802262895
 21
383.2059189231259
 72
     1
 10
138.7847802262895
 20
383.2059189231259
 11
145.4563531015424
 21
383.2059189231259
 72
     1
 10
145.4563531015424
 20
383.2059189231259
 11
146.2847802262895
 21
383.2059189231259
 72
     1
 10
146.2847802262895
 20
383.2059189231259
 11
146.8705666639151
 21
382.6201324854992
 72
     1
 10
146.8705666639151
 20
382.6201324854992
 11
147.1132073510353
 21
382.377491798381
 72
     2
 10
149.9416344757824
 20
385.2059189231259
 40
3.999999999999423
 50
224.9999999999822
 51
270.0
 73
     1
 72
     1
 10
149.9416344757824
 20
381.2059189231259
 11
156.1867040149373
 21
381.2059189231259
 72
     2
 10
156.1867040149373
 20
385.2059189231259
 40
4.0
 50
270.0
 51
299.9999999999967
 73
     1
 72
     1
 10
158.1867040149363
 20
381.7418173079882
 11
163.7847802262895
 21
384.9738681155582
 72
     1
 10
163.7847802262895
 20
384.9738681155582
 11
162.7847802262885
 21
386.7059189231259
 97
        0
 75
     0
 76
     0
 52
44.99999999999999
 41
3.0
 77
     0
 78
     1
 53
45.0
 43
190.7516522113951
 44
521.8318844175009
 45
-2.121320343559641
 46
2.121320343559641
 79
     0
 98
        1
 10
190.7516522113951
 20
521.8318844175009
1001
ACME_LAYERS
1000
1
  0
HATCH
  5
401F
330
1F
100
AcDbEntity
  8
P-0000
  6
Continuous
 62
     3
100
AcDbHatch
 10
0.0
 20
0.0
 30
0.0
210
0.0
220
0.0
230
1.0
  2
_U
 70
     0
 71
     0
 91
        1
 92
        1
 93
       19
 72
     2
 10
117.6279259767957
 20
385.2059189231259
 40
2.0
 50
270.0
 51
315.0000000000351
 73
     1
 72
     1
 10
119.0421395391713
 20
383.791705360753
 11
119.2847802262895
 21
384.0343460478721
 72
     2
 10
122.1132073510353
 20
381.2059189231259
 40
4.0
 50
224.9999999999992
 51
269.9999999999739
 73
     0
 72
     1
 10
122.1132073510334
 20
385.2059189231259
 11
124.5508100642614
 21
385.2059189231259
 72
     1
 10
124.5508100642614
 20
385.2059189231259
 11
125.9611385931211
 21
385.2059189231259
 72
     1
 10
125.9611385931211
 20
385.2059189231259
 11
128.7847802262904
 21
385.2059189231259
 72
     1
 10
128.7847802262904
 20
385.2059189231259
 11
128.7847802262904
 21
383.2059189231259
 72
     1
 10
128.7847802262904
 20
383.2059189231259
 11
122.1132073510353
 21
383.2059189231259
 72
     1
 10
122.1132073510353
 20
383.2059189231259
 11
121.2847802262886
 21
383.2059189231259
 72
     1
 10
121.2847802262886
 20
383.2059189231259
 11
120.6989937886619
 21
382.6201324854992
 72
     1
 10
120.6989937886619
 20
382.6201324854992
 11
120.4563531015424
 21
382.377491798381
 72
     2
 10
117.6279259767957
 20
385.2059189231259
 40
4.0
 50
44.99999999998212
 51
90.00000000000001
 73
     0
 72
     1
 10
117.6279259767957
 20
381.2059189231259
 11
111.3828564376444
 21
381.2059189231259
 72
     2
 10
111.3828564376444
 20
385.2059189231259
 40
4.000000000000401
 50
90.00000000000001
 51
119.9999999999967
 73
     0
 72
     1
 10
109.3828564376435
 20
381.7418173079882
 11
103.7847802262904
 21
384.9738681155582
 72
     1
 10
103.7847802262904
 20
384.9738681155582
 11
104.7847802262904
 21
386.7059189231259
 72
     1
 10
104.7847802262904
 20
386.7059189231259
 11
110.3828564376444
 21
383.4738681155581
 72
     2
 10
111.3828564376444
 20
385.2059189231259
 40
1.999999999999425
 50
239.9999999999905
 51
270.0
 73
     1
 72
     1
 10
111.3828564376444
 20
383.2059189231259
 11
117.6279259767957
 21
383.2059189231259
 97
        0
 75
     0
 76
     0
 52
44.99999999999999
 41
5.0
 77
     0
 78
     1
 53
45.0
 43
190.7516522113951
 44
521.8318844175009
 45
-3.535533905932736
 46
3.535533905932738
 79
     0
 98
        1
 10
190.7516522113951
 20
521.8318844175009
1001
ACME_LAYERS
1000
1
  0
LINE
  5
4020
330
1F
100
AcDbEntity
  8
0
100
AcDbLine
 10
129.7847802262895
 20
381.2059189231259
 30
0.0
 11
129.7847802262895
 21
387.1964718080822
 31
0.0
  0
LINE
  5
4021
330
1F
100
AcDbEntity
  8
P-0000
  6
Continuous
 62
     7
100
AcDbLine
 10
371.3022374640027
 20
386.7059189231259
 30
0.0
 11
361.3022374640032
 21
386.7059189231259
 31
0.0
1001
ACME_LAYERS
1000
1
  0
LINE
  5
4022
330
1F
100
AcDbEntity
  8
P-0000
  6
Continuous
 62
     7
100
AcDbLine
 10
156.1519225918323
 20
381.2059189231259
 30
0.0
 11
149.9068530526783
 21
381.2059189231259
 31
0.0
1001
ACME_LAYERS
1000
1
  0
LINE
  5
4023
330
1F
100
AcDbEntity
  8
P-0000
  6
Continuous
 62
     7
100
AcDbLine
 10
111.3828564376444
 20
381.2059189231259
 30
0.0
 11
117.6279259767975
 21
381.2059189231259
 31
0.0
1001
ACME_LAYERS
1000
1
  0
LINE
  5
4024
330
1F
100
AcDbEntity
  8
P-0000
  6
Continuous
 62
     7
100
AcDbLine
 10
156.1867040149382
 20
381.2059189231259
 30
0.0
 11
149.9416344757842
 21
381.2059189231259
 31
0.0
1001
ACME_LAYERS
1000
1
  0
LINE
  5
402C
330
1F
100
AcDbEntity
  8
0
100
AcDbLine
 10
129.7282437821986
 20
385.2059189231259
 30
0.0
 11
129.7282437821986
 21
371.9999990181823
 31
0.0
  0
LINE
  5
402D
330
1F
100
AcDbEntity
  8
0
100
AcDbLine
 10
137.7282437821986
 20
385.2059189231259
 30
0.0
 11
137.7282437821986
 21
371.9999990181823
 31
0.0
  0
LINE
  5
4036
330
1F
100
AcDbEntity
  8
P-0000
  6
Continuous
 62
     7
100
AcDbLine
 10
334.3652221173884
 20
375.9999990181832
 30
0.0
 11
297.0435088451481
 21
375.9999990181832
 31
0.0
1001
ACME_LAYERS
1000
1
  0
HATCH
  5
4037
330
1F
100
AcDbEntity
  8
P-0000
  6
Continuous
 62
     3
100
AcDbHatch
 10
0.0
 20
0.0
 30
0.0
210
0.0
220
0.0
230
1.0
  2
_U
 70
     0
 71
     0
 91
        1
 92
        1
 93
        9
 72
     1
 10
415.0870188871135
 20
369.9999990181823
 11
416.0870188871133
 21
371.7320498257532
 72
     1
 10
416.0870188871133
 20
371.7320498257518
 11
411.7215606472043
 21
374.2524483156972
 72
     2
 10
409.7215606472046
 20
370.7883467005609
 40
4.0
 50
419.9999999999893
 51
450.0
 73
     1
 72
     2
 10
409.7215606472046
 20
370.7883467005609
 40
4.000000000000613
 50
450.0
 51
495.0000000000009
 73
     1
 72
     1
 10
406.8931335224572
 20
373.616773825308
 11
406.1905722777055
 21
372.9142125805552
 72
     1
 10
406.1905722777055
 20
372.9142125805561
 11
407.6047858400793
 21
371.4999990181823
 72
     1
 10
407.6047858400793
 20
371.4999990181823
 11
408.3073470848317
 21
372.2025602629342
 72
     2
 10
409.7215606472046
 20
370.7883467005609
 40
2.000000000000115
 50
-135.000000000004
 51
-59.99999999999011
 73
     0
 72
     1
 10
410.7215606472049
 20
372.5203975081299
 11
415.0870188871127
 21
369.9999990181823
 97
        0
 75
     0
 76
     0
 52
44.99999999999999
 41
2.0
 77
     0
 78
     1
 53
135.0
 43
98.28306734388114
 44
236.109133984618
 45
1.414213562373094
 46
1.414213562373094
 79
     0
 98
        1
 10
98.28306734388114
 20
236.109133984618
1001
ACME_LAYERS
1000
1
  0
LINE
  5
4038
330
1F
100
AcDbEntity
  8
P-0000
  6
Continuous
 62
     3
100
AcDbLine
 10
416.0870188871133
 20
371.7320498257518
 30
0.0
 11
411.7215606472043
 21
374.2524483156972
 31
0.0
1001
ACME_LAYERS
1000
1
  0
LINE
  5
4039
330
1F
100
AcDbEntity
  8
P-0000
  6
Continuous
 62
     7
100
AcDbLine
 10
415.0870188871135
 20
369.9999990181823
 30
0.0
 11
410.7215606472049
 21
372.5203975081299
 31
0.0
1001
ACME_LAYERS
1000
1
  0
LINE
  5
403A
330
1F
100
AcDbEntity
  8
P-0000
  6
Continuous
 62
     7
100
AcDbLine
 10
415.0870188871135
 20
369.9999990181823
 30
0.0
 11
410.7215606472049
 21
372.5203975081299
 31
0.0
1001
ACME_LAYERS
1000
1
  0
LINE
  5
403B
330
1F
100
AcDbEntity
  8
P-0000
  6
Continuous
 62
     7
100
AcDbLine
 10
415.0870188871135
 20
369.9999990181823
 30
0.0
 11
390.5152221173885
 21
369.9999990181823
 31
0.0
1001
ACME_LAYERS
1000
1
  0
LINE
  5
403C
330
1F
100
AcDbEntity
  8
P-0000
  6
Continuous
 62
     7
100
AcDbLine
 10
415.0870188871135
 20
369.9999990181823
 30
0.0
 11
416.0870188871133
 21
371.7320498257518
 31
0.0
1001
ACME_LAYERS
1000
1
  0
LINE
  5
403D
330
1F
100
AcDbEntity
  8
P-0000
  6
Continuous
 62
     7
100
AcDbLine
 10
390.5152221173885
 20
369.9999990181823
 30
0.0
 11
352.5435088451345
 21
369.9999990181791
 31
0.0
1001
ACME_LAYERS
1000
1
  0
LINE
  5
403F
330
1F
100
AcDbEntity
  8
P-0000
  6
Continuous
 62
     7
100
AcDbLine
 10
370.2935088451545
 20
371.9999990181823
 30
0.0
 11
362.3370188871145
 21
371.9999990181823
 31
0.0
1001
ACME_LAYERS
1000
1
  0
ARC
  5
4040
330
1F
100
AcDbEntity
  8
P-0000
  6
Continuous
 62
     7
100
AcDbCircle
 10
390.5152221173885
 20
373.9999990181823
 30
0.0
 40
1.999999999999253
100
AcDbArc
 50
270.0
 51
300.0000000000264
1001
ACME_LAYERS
1000
1
  0
ARC
  5
4041
330
1F
100
AcDbEntity
  8
P-0000
  6
Continuous
 62
     7
100
AcDbCircle
 10
390.5152221173885
 20
373.9999990181823
 30
0.0
 40
4.000000000000131
100
AcDbArc
 50
270.0
 51
299.9999999999973
1001
ACME_LAYERS
1000
1
  0
LINE
  5
4042
330
1F
100
AcDbEntity
  8
P-0000
  6
Continuous
 62
     7
100
AcDbLine
 10
390.2370188871124
 20
371.9999990181823
 30
0.0
 11
396.0049680795437
 21
375.330126037104
 31
0.0
1001
ACME_LAYERS
1000
1
  0
LINE
  5
4043
330
1F
100
AcDbEntity
  8
P-0000
  6
Continuous
 62
     7
100
AcDbLine
 10
395.9524771270226
 20
372.5203975081299
 30
0.0
 11
392.5152221173894
 21
370.5358974030442
 31
0.0
1001
ACME_LAYERS
1000
1
  0
LINE
  5
4044
330
1F
100
AcDbEntity
  8
P-0000
  6
Continuous
 62
     7
100
AcDbLine
 10
406.1905722777055
 20
372.9142125805561
 30
0.0
 11
400.4834654965201
 21
372.9142125805561
 31
0.0
1001
ACME_LAYERS
1000
1
  0
LINE
  5
4045
330
1F
100
AcDbEntity
  8
P-0000
  6
Continuous
 62
     7
100
AcDbLine
 10
407.6047858400793
 20
371.4999990181823
 30
0.0
 11
399.0692519341473
 21
371.4999990181823
 31
0.0
1001
ACME_LAYERS
1000
1
  0
LINE
  5
4046
330
1F
100
AcDbEntity
  8
P-0000
  6
Continuous
 62
     7
100
AcDbLine
 10
407.3549680795421
 20
375.9999990181832
 30
0.0
 11
398.5049680795446
 21
375.9999990181832
 31
0.0
1001
ACME_LAYERS
1000
1
  0
LINE
  5
4047
330
1F
100
AcDbEntity
  8
P-0000
  6
Continuous
 62
     7
100
AcDbLine
 10
409.7215606472046
 20
374.7883467005609
 30
0.0
 11
396.9524771270217
 21
374.7883467005609
 31
0.0
1001
ACME_LAYERS
1000
1
  0
ARC
  5
4048
330
1F
100
AcDbEntity
  8
P-0000
  6
Continuous
 62
     7
100
AcDbCircle
 10
407.3549680795442
 20
370.9999990181823
 30
0.0
 40
5.0
100
AcDbArc
 50
60.00000000000272
 51
90.00000000002605
1001
ACME_LAYERS
1000
1
  0
ARC
  5
4049
330
1F
100
AcDbEntity
  8
P-0000
  6
Continuous
 62
     7
100
AcDbCircle
 10
409.7215606472046
 20
370.7883467005609
 30
0.0
 40
4.000000000000613
100
AcDbArc
 50
90.0
 51
135.0000000000092
1001
ACME_LAYERS
1000
1
  0
LINE
  5
404A
330
1F
100
AcDbEntity
  8
P-0000
  6
Continuous
 62
     7
100
AcDbLine
 10
408.3073470848317
 20
372.2025602629342
 30
0.0
 11
407.6047858400793
 21
371.4999990181823
 31
0.0
1001
ACME_LAYERS
1000
1
  0
ARC
  5
404B
330
1F
100
AcDbEntity
  8
P-0000
  6
Continuous
 62
     7
100
AcDbCircle
 10
409.7215606472046
 20
370.7883467005609
 30
0.0
 40
4.0
100
AcDbArc
 50
59.99999999997363
 51
90.0
1001
ACME_LAYERS
1000
1
  0
LINE
  5
404C
330
1F
100
AcDbEntity
  8
P-0000
  6
Continuous
 62
     7
100
AcDbLine
 10
411.7215606472043
 20
374.2524483156972
 30
0.0
 11
409.8549680795454
 21
375.330126037104
 31
0.0
1001
ACME_LAYERS
1000
1
  0
ARC
  5
404D
330
1F
100
AcDbEntity
  8
P-0000
  6
Continuous
 62
     7
100
AcDbCircle
 10
409.7215606472046
 20
370.7883467005609
 30
0.0
 40
2.000000000000115
100
AcDbArc
 50
59.99999999997363
 51
135.0000000000092
1001
ACME_LAYERS
1000
1
  0
LINE
  5
404E
330
1F
100
AcDbEntity
  8
P-0000
  6
Continuous
 62
     7
100
AcDbLine
 10
406.1905722777055
 20
372.9142125805561
 30
0.0
 11
407.6047858400793
 21
371.4999990181823
 31
0.0
1001
ACME_LAYERS
1000
1
  0
LINE
  5
404F
330
1F
100
AcDbEntity
  8
P-0000
  6
Continuous
 62
     7
100
AcDbLine
 10
406.8931335224572
 20
373.616773825308
 30
0.0
 11
406.1905722777055
 21
372.9142125805561
 31
0.0
1001
ACME_LAYERS
1000
1
  0
ARC
  5
4050
330
1F
100
AcDbEntity
  8
P-0000
  6
Continuous
 62
     7
100
AcDbCircle
 10
396.9524771270217
 20
370.7883467005609
 30
0.0
 40
1.999999999999401
100
AcDbArc
 50
44.99999999999078
 51
120.0000000000263
1001
ACME_LAYERS
1000
1
  0
ARC
  5
4051
330
1F
100
AcDbEntity
  8
P-0000
  6
Continuous
 62
     7
100
AcDbCircle
 10
398.5049680795446
 20
370.9999990181823
 30
0.0
 40
5.000000000000164
100
AcDbArc
 50
90.0
 51
119.9999999999972
1001
ACME_LAYERS
1000
1
  0
ARC
  5
4052
330
1F
100
AcDbEntity
  8
P-0000
  6
Continuous
 62
     7
100
AcDbCircle
 10
396.9524771270217
 20
370.7883467005609
 30
0.0
 40
1.999999999999401
100
AcDbArc
 50
44.99999999999078
 51
120.0000000000263
1001
ACME_LAYERS
1000
1
  0
ARC
  5
4053
330
1F
100
AcDbEntity
  8
P-0000
  6
Continuous
 62
     7
100
AcDbCircle
 10
396.9524771270217
 20
370.7883467005609
 30
0.0
 40
3.999999999998728
100
AcDbArc
 50
90.0
 51
120.0000000000263
1001
ACME_LAYERS
1000
1
  0
ARC
  5
4054
330
1F
100
AcDbEntity
  8
P-0000
  6
Continuous
 62
     7
100
AcDbCircle
 10
396.9524771270217
 20
370.7883467005609
 30
0.0
 40
4.0
100
AcDbArc
 50
44.99999999999078
 51
90.0
1001
ACME_LAYERS
1000
1
  0
LINE
  5
4055
330
1F
100
AcDbEntity
  8
P-0000
  6
Continuous
 62
     7
100
AcDbLine
 10
400.4834654965201
 20
372.9142125805561
 30
0.0
 11
399.7809042517673
 21
373.616773825308
 31
0.0
1001
ACME_LAYERS
1000
1
  0
LINE
  5
4056
330
1F
100
AcDbEntity
  8
P-0000
  6
Continuous
 62
     7
100
AcDbLine
 10
399.0692519341473
 20
371.4999990181823
 30
0.0
 11
398.366690689395
 21
372.2025602629342
 31
0.0
1001
ACME_LAYERS
1000
1
  0
LINE
  5
4057
330
1F
100
AcDbEntity
  8
P-0000
  6
Continuous
 62
     7
100
AcDbLine
 10
399.0692519341473
 20
371.4999990181823
 30
0.0
 11
400.4834654965201
 21
372.9142125805561
 31
0.0
1001
ACME_LAYERS
1000
1
  0
LINE
  5
4058
330
1F
100
AcDbEntity
  8
P-0000
  6
Continuous
 62
     7
100
AcDbLine
 10
394.9524771270217
 20
374.2524483156972
 30
0.0
 11
391.5152221173885
 21
372.2679482106141
 31
0.0
1001
ACME_LAYERS
1000
1
  0
LINE
  5
4059
330
1F
100
AcDbEntity
  8
P-0000
  6
Continuous
 62
     7
100
AcDbLine
 10
390.2370188871124
 20
371.9999990181823
 30
0.0
 11
370.2935088451545
 21
371.9999990181823
 31
0.0
1001
ACME_LAYERS
1000
1
  0
LINE
  5
405A
330
1F
100
AcDbEntity
  8
P-0000
  6
Continuous
 62
     7
100
AcDbLine
 10
390.2370188871124
 20
371.9999990181823
 30
0.0
 11
390.5152221173885
 21
371.9999990181823
 31
0.0
1001
ACME_LAYERS
1000
1
  0
LINE
  5
405B
330
1F
100
AcDbEntity
  8
P-0000
  6
Continuous
 62
     3
100
AcDbLine
 10
369.5587739080933
 20
386.7059189231259
 30
0.0
 11
369.5587739080947
 21
371.9999990181823
 31
0.0
1001
ACME_LAYERS
1000
1
  0
LINE
  5
405C
330
1F
100
AcDbEntity
  8
P-0000
  6
Continuous
 62
     7
100
AcDbLine
 10
370.3587739080963
 20
385.2059189231259
 30
0.0
 11
370.3587739080963
 21
381.2059189231259
 31
0.0
1001
ACME_LAYERS
1000
1
  0
LINE
  5
405D
330
1F
100
AcDbEntity
  8
P-0000
  6
Continuous
 62
     3
100
AcDbLine
 10
363.1587739080933
 20
386.7059189231259
 30
0.0
 11
363.1587739080946
 21
371.9999990181823
 31
0.0
1001
ACME_LAYERS
1000
1
  0
LINE
  5
405E
330
1F
100
AcDbEntity
  8
P-0000
  6
Continuous
 62
     7
100
AcDbLine
 10
362.3370188871145
 20
371.9999990181823
 30
0.0
 11
342.9011205022516
 21
371.9999990181823
 31
0.0
1001
ACME_LAYERS
1000
1
  0
LINE
  5
405F
330
1F
100
AcDbEntity
  8
P-0000
  6
Continuous
 62
     7
100
AcDbLine
 10
351.7823057850592
 20
369.9999990181823
 30
0.0
 11
320.3922587644042
 21
369.9999990181823
 31
0.0
1001
ACME_LAYERS
1000
1
  0
LINE
  5
4060
330
1F
100
AcDbEntity
  8
P-0000
  6
Continuous
 62
     7
100
AcDbLine
 10
362.3587739080945
 20
385.2059189231259
 30
0.0
 11
362.3587739080945
 21
381.2059189231259
 31
0.0
1001
ACME_LAYERS
1000
1
  0
LINE
  5
4061
330
1F
100
AcDbEntity
  8
P-0000
  6
Continuous
 62
     7
100
AcDbLine
 10
352.5435088451345
 20
369.9999990181791
 30
0.0
 11
351.7823057850592
 21
369.9999990181823
 31
0.0
1001
ACME_LAYERS
1000
1
  0
LINE
  5
4062
330
1F
100
AcDbEntity
  8
P-0000
  6
Continuous
 62
     7
100
AcDbLine
 10
340.9011205022521
 20
370.5358974030442
 30
0.0
 11
335.3652221173879
 21
373.7320498257518
 31
0.0
1001
ACME_LAYERS
1000
1
  0
LINE
  5
4063
330
1F
100
AcDbEntity
  8
P-0000
  6
Continuous
 62
     7
100
AcDbLine
 10
334.3652221173884
 20
373.9999990181823
 30
0.0
 11
332.4813003146314
 21
373.9999990181823
 31
0.0
1001
ACME_LAYERS
1000
1
  0
LINE
  5
4064
330
1F
100
AcDbEntity
  8
P-0000
  6
Continuous
 62
     7
100
AcDbLine
 10
341.9011205022516
 20
372.2679482106124
 30
0.0
 11
336.3652221173884
 21
375.4641006333204
 31
0.0
1001
ACME_LAYERS
1000
1
  0
ARC
  5
4065
330
1F
100
AcDbEntity
  8
P-0000
  6
Continuous
 62
     7
100
AcDbCircle
 10
342.9011205022516
 20
373.9999990181823
 30
0.0
 40
2.0
100
AcDbArc
 50
239.9999999999736
 51
270.0
1001
ACME_LAYERS
1000
1
  0
ARC
  5
4066
330
1F
100
AcDbEntity
  8
P-0000
  6
Continuous
 62
     7
100
AcDbCircle
 10
334.3652221173884
 20
371.9999990181823
 30
0.0
 40
4.0
100
AcDbArc
 50
60.00000000000272
 51
90.0
1001
ACME_LAYERS
1000
1
  0
ARC
  5
4067
330
1F
100
AcDbEntity
  8
P-0000
  6
Continuous
 62
     7
100
AcDbCircle
 10
334.3652221173884
 20
371.9999990181823
 30
0.0
 40
2.0
100
AcDbArc
 50
60.00000000003179
 51
90.0
1001
ACME_LAYERS
1000
1
  0
ARC
  5
4068
330
1F
100
AcDbEntity
  8
P-0000
  6
Continuous
 62
     7
100
AcDbCircle
 10
342.9011205022516
 20
373.9999990181823
 30
0.0
 40
4.0
100
AcDbArc
 50
240.0000000000027
 51
270.0
1001
ACME_LAYERS
1000
1
  0
LINE
  5
4069
330
1F
100
AcDbEntity
  8
P-0000
  6
Continuous
 62
     7
100
AcDbLine
 10
289.4138270316112
 20
375.9999990181832
 30
0.0
 11
250.0435088451463
 21
375.9999990181832
 31
0.0
1001
ACME_LAYERS
1000
1
  0
LINE
  5
406A
330
1F
100
AcDbEntity
  8
P-0000
  6
Continuous
 62
     7
100
AcDbLine
 10
297.0435088451481
 20
375.9999990181832
 30
0.0
 11
250.0435088451463
 21
375.9999990181832
 31
0.0
1001
ACME_LAYERS
1000
1
  0
LINE
  5
406B
330
1F
100
AcDbEntity
  8
P-0000
  6
Continuous
 62
     7
100
AcDbLine
 10
316.5477801614675
 20
376.219531092313
 30
0.0
 11
316.5435088451545
 21
376.2033673397218
 31
0.0
1001
ACME_LAYERS
1000
1
  0
LINE
  5
406C
330
1F
100
AcDbEntity
  8
P-0000
  6
Continuous
 62
     7
100
AcDbLine
 10
362.3022374640045
 20
386.7059189231259
 30
0.0
 11
362.3022374640045
 21
381.2059189231259
 31
0.0
1001
ACME_LAYERS
1000
1
  0
LINE
  5
406D
330
1F
100
AcDbEntity
  8
P-0000
  6
Continuous
 62
     7
100
AcDbLine
 10
383.8022374639941
 20
386.7059189231259
 30
0.0
 11
370.3022374640032
 21
386.7059189231259
 31
0.0
1001
ACME_LAYERS
1000
1
  0
LINE
  5
406E
330
1F
100
AcDbEntity
  8
P-0000
  6
Continuous
 62
     7
100
AcDbLine
 10
377.9738103392584
 20
385.2059189231259
 30
0.0
 11
375.5362076260317
 21
385.2059189231259
 31
0.0
1001
ACME_LAYERS
1000
1
  0
LINE
  5
406F
330
1F
100
AcDbEntity
  8
P-0000
  6
Continuous
 62
     7
100
AcDbLine
 10
250.05223746401
 20
386.7059189231259
 30
0.0
 11
337.3022374640032
 21
386.7059189231259
 31
0.0
1001
ACME_LAYERS
1000
1
  0
LINE
  5
4070
330
1F
100
AcDbEntity
  8
P-0000
  6
Continuous
 62
     7
100
AcDbLine
 10
377.9738103392584
 20
385.2059189231259
 30
0.0
 11
375.5362076260317
 21
385.2059189231259
 31
0.0
1001
ACME_LAYERS
1000
1
  0
LINE
  5
4071
330
1F
100
AcDbEntity
  8
P-0000
  6
Continuous
 62
     7
100
AcDbLine
 10
375.5362076260317
 20
385.2059189231259
 30
0.0
 11
374.1258790971724
 21
385.2059189231259
 31
0.0
1001
ACME_LAYERS
1000
1
  0
LINE
  5
4072
330
1F
100
AcDbEntity
  8
P-0000
  6
Continuous
 62
     7
100
AcDbLine
 10
375.5362076260317
 20
385.2059189231259
 30
0.0
 11
374.1258790971724
 21
385.2059189231259
 31
0.0
1001
ACME_LAYERS
1000
1
  0
LINE
  5
4073
330
1F
100
AcDbEntity
  8
P-0000
  6
Continuous
 62
     7
100
AcDbLine
 10
250.0522374640063
 20
384.9738681155582
 30
0.0
 11
336.3022374640032
 21
384.9738681155582
 31
0.0
1001
ACME_LAYERS
1000
1
  0
LINE
  5
4074
330
1F
100
AcDbEntity
  8
P-0000
  6
Continuous
 62
     7
100
AcDbLine
 10
337.3022374640032
 20
386.7059189231259
 30
0.0
 11
342.9003136753554
 21
383.4738681155581
 31
0.0
1001
ACME_LAYERS
1000
1
  0
LINE
  5
4075
330
1F
100
AcDbEntity
  8
P-0000
  6
Continuous
 62
     7
100
AcDbLine
 10
362.3022374640045
 20
386.7059189231259
 30
0.0
 11
337.3022374640032
 21
386.7059189231259
 31
0.0
1001
ACME_LAYERS
1000
1
  0
LINE
  5
4076
330
1F
100
AcDbEntity
  8
P-0000
  6
Continuous
 62
     7
100
AcDbLine
 10
336.3022374640032
 20
384.9738681155582
 30
0.0
 11
337.3022374640032
 21
386.7059189231259
 31
0.0
1001
ACME_LAYERS
1000
1
  0
LINE
  5
4077
330
1F
100
AcDbEntity
  8
P-0000
  6
Continuous
 62
     7
100
AcDbLine
 10
337.3022374640032
 20
386.7059189231259
 30
0.0
 11
337.3742036265034
 21
386.7059189231259
 31
0.0
1001
ACME_LAYERS
1000
1
  0
LINE
  5
4078
330
1F
100
AcDbEntity
  8
P-0000
  6
Continuous
 62
     7
100
AcDbLine
 10
374.1258790971724
 20
385.2059189231259
 30
0.0
 11
371.3022374640027
 21
385.2059189231259
 31
0.0
1001
ACME_LAYERS
1000
1
  0
LINE
  5
407A
330
1F
100
AcDbEntity
  8
P-0000
  6
Continuous
 62
     3
100
AcDbLine
 10
389.2400596375105
 20
383.2059189231259
 30
0.0
 11
388.7041612526496
 21
383.2059189231259
 31
0.0
1001
ACME_LAYERS
1000
1
  0
LINE
  5
407B
330
1F
100
AcDbEntity
  8
P-0000
  6
Continuous
 62
     3
100
AcDbLine
 10
389.7041612526495
 20
383.4738681155581
 30
0.0
 11
389.2400596375105
 21
383.2059189231259
 31
0.0
1001
ACME_LAYERS
1000
1
  0
LINE
  5
407C
330
1F
100
AcDbEntity
  8
P-0000
  6
Continuous
 62
     7
100
AcDbLine
 10
351.8022374640032
 20
384.0343460478721
 30
0.0
 11
351.5595967768836
 21
383.791705360753
 31
0.0
1001
ACME_LAYERS
1000
1
  0
LINE
  5
407D
330
1F
100
AcDbEntity
  8
P-0000
  6
Continuous
 62
     7
100
AcDbLine
 10
380.8022374640032
 20
384.0343460478721
 30
0.0
 11
381.0448781511214
 21
383.791705360753
 31
0.0
1001
ACME_LAYERS
1000
1
  0
LINE
  5
407E
330
1F
100
AcDbEntity
  8
P-0000
  6
Continuous
 62
     7
100
AcDbLine
 10
371.3022374640027
 20
385.2059189231259
 30
0.0
 11
371.3022374640027
 21
383.2059189231259
 31
0.0
1001
ACME_LAYERS
1000
1
  0
LINE
  5
407F
330
1F
100
AcDbEntity
  8
P-0000
  6
Continuous
 62
     7
100
AcDbLine
 10
361.3022374640032
 20
385.2059189231259
 30
0.0
 11
361.3022374640032
 21
383.2059189231259
 31
0.0
1001
ACME_LAYERS
1000
1
  0
LINE
  5
4080
330
1F
100
AcDbEntity
  8
P-0000
  6
Continuous
 62
     7
100
AcDbLine
 10
396.3022374640013
 20
384.9738681155582
 30
0.0
 11
395.3022374640032
 21
386.7059189231259
 31
0.0
1001
ACME_LAYERS
1000
1
  0
LINE
  5
4081
330
1F
100
AcDbEntity
  8
P-0000
  6
Continuous
 62
     7
100
AcDbLine
 10
396.3022374640013
 20
384.9738681155582
 30
0.0
 11
390.7041612526496
 21
381.7418173079882
 31
0.0
1001
ACME_LAYERS
1000
1
  0
LINE
  5
4082
330
1F
100
AcDbEntity
  8
P-0000
  6
Continuous
 62
     7
100
AcDbLine
 10
395.3022374640032
 20
386.7059189231259
 30
0.0
 11
389.7041612526495
 21
383.4738681155581
 31
0.0
1001
ACME_LAYERS
1000
1
  0
LINE
  5
4083
330
1F
100
AcDbEntity
  8
P-0000
  6
Continuous
 62
     7
100
AcDbLine
 10
379.3880239016307
 20
382.6201324854992
 30
0.0
 11
379.6306645887498
 21
382.377491798381
 31
0.0
1001
ACME_LAYERS
1000
1
  0
LINE
  5
4084
330
1F
100
AcDbEntity
  8
P-0000
  6
Continuous
 62
     7
100
AcDbLine
 10
353.2164510263765
 20
382.6201324854992
 30
0.0
 11
352.9738103392565
 21
382.377491798381
 31
0.0
1001
ACME_LAYERS
1000
1
  0
LINE
  5
4085
330
1F
100
AcDbEntity
  8
P-0000
  6
Continuous
 62
     7
100
AcDbLine
 10
336.3022374640032
 20
384.9738681155582
 30
0.0
 11
341.9003136753554
 21
381.7418173079882
 31
0.0
1001
ACME_LAYERS
1000
1
  0
LINE
  5
4086
330
1F
100
AcDbEntity
  8
P-0000
  6
Continuous
 62
     7
100
AcDbLine
 10
343.9003136753554
 20
381.2059189231259
 30
0.0
 11
250.0522374640063
 21
381.2059189231259
 31
0.0
1001
ACME_LAYERS
1000
1
  0
LINE
  5
4087
330
1F
100
AcDbEntity
  8
P-0000
  6
Continuous
 62
     7
100
AcDbLine
 10
343.9003136753554
 20
383.2059189231259
 30
0.0
 11
350.1453832145107
 21
383.2059189231259
 31
0.0
1001
ACME_LAYERS
1000
1
  0
LINE
  5
4088
330
1F
100
AcDbEntity
  8
P-0000
  6
Continuous
 62
     7
100
AcDbLine
 10
343.9003136753554
 20
381.2059189231259
 30
0.0
 11
350.1453832145107
 21
381.2059189231259
 31
0.0
1001
ACME_LAYERS
1000
1
  0
LINE
  5
4089
330
1F
100
AcDbEntity
  8
P-0000
  6
Continuous
 62
     7
100
AcDbLine
 10
388.7041612526496
 20
381.2059189231259
 30
0.0
 11
382.4590917134974
 21
381.2059189231259
 31
0.0
1001
ACME_LAYERS
1000
1
  0
LINE
  5
408A
330
1F
100
AcDbEntity
  8
P-0000
  6
Continuous
 62
     7
100
AcDbLine
 10
371.3022374640027
 20
385.2059189231259
 30
0.0
 11
370.3022374640032
 21
385.2059189231259
 31
0.0
1001
ACME_LAYERS
1000
1
  0
LINE
  5
408B
330
1F
100
AcDbEntity
  8
P-0000
  6
Continuous
 62
     7
100
AcDbLine
 10
374.1258790971724
 20
385.2059189231259
 30
0.0
 11
371.3022374640027
 21
385.2059189231259
 31
0.0
1001
ACME_LAYERS
1000
1
  0
LINE
  5
408C
330
1F
100
AcDbEntity
  8
P-0000
  6
Continuous
 62
     7
100
AcDbLine
 10
361.3022374640032
 20
385.2059189231259
 30
0.0
 11
354.6306645887498
 21
385.2059189231259
 31
0.0
1001
ACME_LAYERS
1000
1
  0
LINE
  5
408D
330
1F
100
AcDbEntity
  8
P-0000
  6
Continuous
 62
     7
100
AcDbLine
 10
362.3022374640045
 20
383.2059189231259
 30
0.0
 11
354.6306645887498
 21
383.2059189231259
 31
0.0
1001
ACME_LAYERS
1000
1
  0
LINE
  5
408E
330
1F
100
AcDbEntity
  8
P-0000
  6
Continuous
 62
     7
100
AcDbLine
 10
377.9738103392565
 20
383.2059189231259
 30
0.0
 11
370.3587739080963
 21
383.2059189231259
 31
0.0
1001
ACME_LAYERS
1000
1
  0
LINE
  5
408F
330
1F
100
AcDbEntity
  8
P-0000
  6
Continuous
 62
     7
100
AcDbLine
 10
362.3022374640045
 20
385.2059189231259
 30
0.0
 11
361.3022374640032
 21
385.2059189231259
 31
0.0
1001
ACME_LAYERS
1000
1
  0
LINE
  5
4090
330
1F
100
AcDbEntity
  8
P-0000
  6
Continuous
 62
     7
100
AcDbLine
 10
388.7041612526496
 20
383.2059189231259
 30
0.0
 11
382.4590917134974
 21
383.2059189231259
 31
0.0
1001
ACME_LAYERS
1000
1
  0
LINE
  5
4091
330
1F
100
AcDbEntity
  8
P-0000
  6
Continuous
 62
     7
100
AcDbLine
 10
356.3022374640032
 20
385.2059189231259
 30
0.0
 11
361.3022374640032
 21
385.2059189231259
 31
0.0
1001
ACME_LAYERS
1000
1
  0
LINE
  5
4092
330
1F
100
AcDbEntity
  8
P-0000
  6
Continuous
 62
     7
100
AcDbLine
 10
361.3022374640032
 20
385.2059189231259
 30
0.0
 11
362.3022374640045
 21
385.2059189231259
 31
0.0
1001
ACME_LAYERS
1000
1
  0
LINE
  5
4093
330
1F
100
AcDbEntity
  8
P-0000
  6
Continuous
 62
     7
100
AcDbLine
 10
395.3022374640032
 20
386.7059189231259
 30
0.0
 11
383.8022374639941
 21
386.7059189231259
 31
0.0
1001
ACME_LAYERS
1000
1
  0
LINE
  5
4094
330
1F
100
AcDbEntity
  8
P-0000
  6
Continuous
 62
     7
100
AcDbLine
 10
374.7479355774244
 20
385.2059189231259
 30
0.0
 11
370.3022374640032
 21
385.2059189231259
 31
0.0
1001
ACME_LAYERS
1000
1
  0
LINE
  5
4095
330
1F
100
AcDbEntity
  8
P-0000
  6
Continuous
 62
     7
100
AcDbLine
 10
362.3022374640045
 20
385.2059189231259
 30
0.0
 11
361.3022374640032
 21
385.2059189231259
 31
0.0
1001
ACME_LAYERS
1000
1
  0
LINE
  5
4096
330
1F
100
AcDbEntity
  8
P-0000
  6
Continuous
 62
     7
100
AcDbLine
 10
250.0435088451463
 20
381.2059189231259
 30
0.0
 11
250.0522374640063
 21
381.2059189231259
 31
0.0
1001
ACME_LAYERS
1000
1
  0
LINE
  5
4097
330
1F
100
AcDbEntity
  8
P-0000
  6
Continuous
 62
     7
100
AcDbLine
 10
371.8022374640014
 20
385.2059189231272
 30
0.0
 11
376.8022374640032
 21
385.2059189231272
 31
0.0
1001
ACME_LAYERS
1000
1
  0
LINE
  5
4098
330
1F
100
AcDbEntity
  8
P-0000
  6
Continuous
 62
     7
100
AcDbLine
 10
374.7479355774244
 20
386.7059189231259
 30
0.0
 11
370.3022374640032
 21
386.7059189231259
 31
0.0
1001
ACME_LAYERS
1000
1
  0
LINE
  5
4099
330
1F
100
AcDbEntity
  8
P-0000
  6
Continuous
 62
     7
100
AcDbLine
 10
361.3022374640032
 20
385.2059189231259
 30
0.0
 11
357.7479355774244
 21
385.2059189231259
 31
0.0
1001
ACME_LAYERS
1000
1
  0
LINE
  5
409A
330
1F
100
AcDbEntity
  8
P-0000
  6
Continuous
 62
     7
100
AcDbLine
 10
361.3022374640032
 20
385.2059189231259
 30
0.0
 11
361.8022374640013
 21
385.2059189231272
 31
0.0
1001
ACME_LAYERS
1000
1
  0
LINE
  5
409B
330
1F
100
AcDbEntity
  8
P-0000
  6
Continuous
 62
     7
100
AcDbLine
 10
357.7479355774244
 20
386.7059189231259
 30
0.0
 11
361.8022374640013
 21
386.7059189231259
 31
0.0
1001
ACME_LAYERS
1000
1
  0
LINE
  5
409C
330
1F
100
AcDbEntity
  8
P-0000
  6
Continuous
 62
     7
100
AcDbLine
 10
370.3022374640032
 20
385.2059189231259
 30
0.0
 11
371.3022374640027
 21
385.2059189231259
 31
0.0
1001
ACME_LAYERS
1000
1
  0
LINE
  5
409D
330
1F
100
AcDbEntity
  8
P-0000
  6
Continuous
 62
     7
100
AcDbLine
 10
354.6306645887498
 20
385.2059189231259
 30
0.0
 11
361.3022374640032
 21
385.2059189231259
 31
0.0
1001
ACME_LAYERS
1000
1
  0
ARC
  5
409E
330
1F
100
AcDbEntity
  8
P-0000
  6
Continuous
 62
     7
100
AcDbCircle
 10
382.4590917134974
 20
385.2059189231259
 30
0.0
 40
4.0
100
AcDbArc
 50
224.9999999999908
 51
270.0
1001
ACME_LAYERS
1000
1
  0
ARC
  5
409F
330
1F
100
AcDbEntity
  8
P-0000
  6
Continuous
 62
     7
100
AcDbCircle
 10
354.6306645887498
 20
381.2059189231259
 30
0.0
 40
4.000000000000613
100
AcDbArc
 50
90.0
 51
134.9999999999816
1001
ACME_LAYERS
1000
1
  0
ARC
  5
40A0
330
1F
100
AcDbEntity
  8
P-0000
  6
Continuous
 62
     7
100
AcDbCircle
 10
350.1453832145107
 20
385.2059189231259
 30
0.0
 40
3.999999999999423
100
AcDbArc
 50
270.0
 51
315.0000000000092
1001
ACME_LAYERS
1000
1
  0
ARC
  5
40A1
330
1F
100
AcDbEntity
  8
P-0000
  6
Continuous
 62
     7
100
AcDbCircle
 10
343.9003136753554
 20
385.2059189231259
 30
0.0
 40
4.0
100
AcDbArc
 50
240.0000000000027
 51
270.0
1001
ACME_LAYERS
1000
1
  0
ARC
  5
40A2
330
1F
100
AcDbEntity
  8
P-0000
  6
Continuous
 62
     7
100
AcDbCircle
 10
343.9003136753554
 20
385.2059189231259
 30
0.0
 40
2.0
100
AcDbArc
 50
239.9999999999736
 51
270.0
1001
ACME_LAYERS
1000
1
  0
ARC
  5
40A3
330
1F
100
AcDbEntity
  8
P-0000
  6
Continuous
 62
     7
100
AcDbCircle
 10
350.1453832145107
 20
385.2059189231259
 30
0.0
 40
2.000000000000397
100
AcDbArc
 50
270.0
 51
314.9999999999816
1001
ACME_LAYERS
1000
1
  0
ARC
  5
40A4
330
1F
100
AcDbEntity
  8
P-0000
  6
Continuous
 62
     7
100
AcDbCircle
 10
354.6306645887498
 20
381.2059189231259
 30
0.0
 40
2.000000000000311
100
AcDbArc
 50
90.0
 51
134.9999999999816
1001
ACME_LAYERS
1000
1
  0
ARC
  5
40A5
330
1F
100
AcDbEntity
  8
P-0000
  6
Continuous
 62
     7
100
AcDbCircle
 10
377.9738103392565
 20
381.2059189231259
 30
0.0
 40
2.0
100
AcDbArc
 50
45.00000000001842
 51
90.0
1001
ACME_LAYERS
1000
1
  0
ARC
  5
40A6
330
1F
100
AcDbEntity
  8
P-0000
  6
Continuous
 62
     7
100
AcDbCircle
 10
382.4590917134974
 20
385.2059189231259
 30
0.0
 40
2.0
100
AcDbArc
 50
224.9999999999816
 51
270.0
1001
ACME_LAYERS
1000
1
  0
ARC
  5
40A7
330
1F
100
AcDbEntity
  8
P-0000
  6
Continuous
 62
     7
100
AcDbCircle
 10
388.7041612526496
 20
385.2059189231259
 30
0.0
 40
1.999999999999425
100
AcDbArc
 50
270.0
 51
300.0000000000264
1001
ACME_LAYERS
1000
1
  0
ARC
  5
40A8
330
1F
100
AcDbEntity
  8
P-0000
  6
Continuous
 62
     7
100
AcDbCircle
 10
388.7041612526496
 20
385.2059189231259
 30
0.0
 40
4.000000000000401
100
AcDbArc
 50
270.0
 51
299.9999999999973
1001
ACME_LAYERS
1000
1
  0
ARC
  5
40A9
330
1F
100
AcDbEntity
  8
P-0000
  6
Continuous
 62
     7
100
AcDbCircle
 10
377.9738103392565
 20
381.2059189231259
 30
0.0
 40
4.0
100
AcDbArc
 50
45.00000000001842
 51
89.99999999997395
1001
ACME_LAYERS
1000
1
  0
HATCH
  5
40AA
330
1F
100
AcDbEntity
  8
P-0000
  6
Continuous
 62
     3
100
AcDbHatch
 10
0.0
 20
0.0
 30
0.0
210
0.0
220
0.0
230
1.0
  2
_U
 70
     0
 71
     0
 91
        1
 92
        1
 93
       19
 72
     1
 10
337.3022374640032
 20
386.7059189231259
 11
342.9003136753554
 21
383.4738681155581
 72
     1
 10
342.9003136753554
 20
383.4738681155581
 11
343.3644152904931
 21
383.2059189231259
 72
     1
 10
343.3644152904931
 20
383.2059189231259
 11
343.9003136753554
 21
383.2059189231259
 72
     1
 10
343.9003136753554
 20
383.2059189231259
 11
350.1453832145107
 21
383.2059189231259
 72
     1
 10
350.1453832145107
 20
383.2059189231259
 11
350.9738103392574
 21
383.2059189231259
 72
     1
 10
350.9738103392574
 20
383.2059189231259
 11
351.5595967768836
 21
383.791705360753
 72
     1
 10
351.5595967768836
 20
383.791705360753
 11
351.8022374640032
 21
384.0343460478721
 72
     2
 10
354.6306645887498
 20
381.2059189231259
 40
4.000000000000613
 50
-135.0000000000008
 51
-90.00000000000001
 73
     0
 72
     1
 10
354.6306645887498
 20
385.2059189231259
 11
361.3022374640032
 21
385.2059189231259
 72
     1
 10
361.3022374640032
 20
385.2059189231259
 11
361.3022374640032
 21
383.2059189231259
 72
     1
 10
361.3022374640032
 20
383.2059189231259
 11
354.6306645887498
 21
383.2059189231259
 72
     1
 10
354.6306645887498
 20
383.2059189231259
 11
353.8022374640032
 21
383.2059189231259
 72
     1
 10
353.8022374640032
 20
383.2059189231259
 11
353.2164510263765
 21
382.6201324854992
 72
     1
 10
353.2164510263765
 20
382.6201324854992
 11
352.9738103392565
 21
382.377491798381
 72
     2
 10
350.1453832145107
 20
385.2059189231259
 40
3.999999999999423
 50
44.99999999998222
 51
90.0
 73
     0
 72
     1
 10
350.1453832145107
 20
381.2059189231259
 11
343.9003136753554
 21
381.2059189231259
 72
     2
 10
343.9003136753554
 20
385.2059189231259
 40
4.0
 50
90.0
 51
119.9999999999965
 73
     0
 72
     1
 10
341.9003136753554
 20
381.7418173079882
 11
336.3022374640032
 21
384.9738681155582
 72
     1
 10
336.3022374640032
 20
384.9738681155582
 11
337.3022374640032
 21
386.7059189231259
 97
        0
 75
     0
 76
     0
 52
44.99999999999999
 41
3.0
 77
     0
 78
     1
 53
135.0
 43
309.3353654788984
 44
521.8318844175009
 45
2.121320343559641
 46
2.121320343559641
 79
     0
 98
        1
 10
309.3353654788984
 20
521.8318844175009
1001
ACME_LAYERS
1000
1
  0
HATCH
  5
40AB
330
1F
100
AcDbEntity
  8
P-0000
  6
Continuous
 62
     3
100
AcDbHatch
 10
0.0
 20
0.0
 30
0.0
210
0.0
220
0.0
230
1.0
  2
_U
 70
     0
 71
     0
 91
        1
 92
        1
 93
       19
 72
     2
 10
382.4590917134974
 20
385.2059189231259
 40
2.0
 50
90.0
 51
135.0000000000351
 73
     0
 72
     1
 10
381.0448781511214
 20
383.791705360753
 11
380.8022374640032
 21
384.0343460478721
 72
     2
 10
377.9738103392565
 20
381.2059189231259
 40
4.0
 50
404.9999999999991
 51
449.9999999999738
 73
     1
 72
     1
 10
377.9738103392584
 20
385.2059189231259
 11
375.5362076260317
 21
385.2059189231259
 72
     1
 10
375.5362076260317
 20
385.2059189231259
 11
374.1258790971724
 21
385.2059189231259
 72
     1
 10
374.1258790971724
 20
385.2059189231259
 11
371.3022374640027
 21
385.2059189231259
 72
     1
 10
371.3022374640027
 20
385.2059189231259
 11
371.3022374640027
 21
383.2059189231259
 72
     1
 10
371.3022374640027
 20
383.2059189231259
 11
377.9738103392584
 21
383.2059189231259
 72
     1
 10
377.9738103392565
 20
383.2059189231259
 11
378.802237464005
 21
383.2059189231259
 72
     1
 10
378.802237464005
 20
383.2059189231259
 11
379.3880239016307
 21
382.6201324854992
 72
     1
 10
379.3880239016307
 20
382.6201324854992
 11
379.6306645887498
 21
382.377491798381
 72
     2
 10
382.4590917134974
 20
385.2059189231259
 40
4.0
 50
224.9999999999821
 51
270.0
 73
     1
 72
     1
 10
382.4590917134974
 20
381.2059189231259
 11
388.7041612526496
 21
381.2059189231259
 72
     2
 10
388.7041612526496
 20
385.2059189231259
 40
4.000000000000401
 50
270.0
 51
299.9999999999967
 73
     1
 72
     1
 10
390.7041612526496
 20
381.7418173079882
 11
396.3022374640013
 21
384.9738681155582
 72
     1
 10
396.3022374640013
 20
384.9738681155582
 11
395.3022374640032
 21
386.7059189231259
 72
     1
 10
395.3022374640032
 20
386.7059189231259
 11
389.7041612526495
 21
383.4738681155581
 72
     2
 10
388.7041612526496
 20
385.2059189231259
 40
1.999999999999425
 50
59.99999999999046
 51
90.0
 73
     0
 72
     1
 10
388.7041612526496
 20
383.2059189231259
 11
382.4590917134974
 21
383.2059189231259
 97
        0
 75
     0
 76
     0
 52
44.99999999999999
 41
5.0
 77
     0
 78
     1
 53
135.0
 43
309.3353654788984
 44
521.8318844175009
 45
3.535533905932736
 46
3.535533905932738
 79
     0
 98
        1
 10
309.3353654788984
 20
521.8318844175009
1001
ACME_LAYERS
1000
1
  0
LINE
  5
40AC
330
1F
100
AcDbEntity
  8
0
100
AcDbLine
 10
370.3022374640032
 20
381.2059189231259
 30
0.0
 11
370.3022374640032
 21
386.7059189231259
 31
0.0
  0
LINE
  5
40AD
330
1F
100
AcDbEntity
  8
P-0000
  6
Continuous
 62
     7
100
AcDbLine
 10
343.9350950984612
 20
381.2059189231259
 30
0.0
 11
350.1801646376143
 21
381.2059189231259
 31
0.0
1001
ACME_LAYERS
1000
1
  0
LINE
  5
40AE
330
1F
100
AcDbEntity
  8
P-0000
  6
Continuous
 62
     7
100
AcDbLine
 10
388.7041612526496
 20
381.2059189231259
 30
0.0
 11
382.4590917134941
 21
381.2059189231259
 31
0.0
1001
ACME_LAYERS
1000
1
  0
LINE
  5
40AF
330
1F
100
AcDbEntity
  8
P-0000
  6
Continuous
 62
     7
100
AcDbLine
 10
343.9003136753545
 20
381.2059189231259
 30
0.0
 11
350.1453832145076
 21
381.2059189231259
 31
0.0
1001
ACME_LAYERS
1000
1
  0
LINE
  5
40B7
330
1F
100
AcDbEntity
  8
0
100
AcDbLine
 10
370.3587739080963
 20
385.2059189231259
 30
0.0
 11
370.3587739080963
 21
371.9999990181823
 31
0.0
  0
LINE
  5
40B8
330
1F
100
AcDbEntity
  8
0
100
AcDbLine
 10
362.3587739080945
 20
385.2059189231259
 30
0.0
 11
362.3587739080945
 21
371.9999990181823
 31
0.0
  0
LINE
  5
40BA
330
1F
100
AcDbEntity
  8
P-3FF0
  6
Continuous
 62
     7
100
AcDbLine
 10
323.3573634283544
 20
373.9348258080404
 30
0.0
 11
334.3217120754443
 21
373.9348258080404
 31
0.0
1001
ACME_LAYERS
1000
1
  0
LINE
  5
40C0
330
1F
100
AcDbEntity
  8
P-0000
  6
Continuous
 62
     7
100
AcDbLine
 10
128.8022374640027
 20
387.1964718080822
 30
0.0
 11
138.8022374640031
 21
387.1964718080822
 31
0.0
1001
ACME_LAYERS
1000
1
  0
LINE
  5
40C1
330
1F
100
AcDbEntity
  8
P-0000
  6
Continuous
 62
     7
100
AcDbLine
 10
159.3904753532042
 20
386.7059189231259
 30
0.0
 11
163.8361734666264
 21
386.7059189231259
 31
0.0
1001
ACME_LAYERS
1000
1
  0
LINE
  5
40C2
330
1F
100
AcDbEntity
  8
P-0000
  6
Continuous
 62
     7
100
AcDbLine
 10
176.3904753532056
 20
386.7059189231259
 30
0.0
 11
172.3361734666273
 21
386.7059189231259
 31
0.0
1001
ACME_LAYERS
1000
1
  0
LINE
  5
40C3
330
1F
100
AcDbEntity
  8
P-0000
  6
Continuous
 62
     7
100
AcDbLine
 10
164.6361734666266
 20
386.7059189231259
 30
0.0
 11
172.3361734666273
 21
386.7059189231259
 31
0.0
1001
ACME_LAYERS
1000
1
  0
LINE
  5
40C4
330
1F
100
AcDbEntity
  8
P-0000
  6
Continuous
 62
     7
100
AcDbLine
 10
163.8361734666264
 20
386.7059189231259
 30
0.0
 11
164.6361734666266
 21
386.7059189231259
 31
0.0
1001
ACME_LAYERS
1000
1
  0
LINE
  5
40C5
330
1F
100
AcDbEntity
  8
P-0000
  6
Continuous
 62
     7
100
AcDbLine
 10
323.8051461102442
 20
386.7059189231259
 30
0.0
 11
328.2508442236663
 21
386.7059189231259
 31
0.0
1001
ACME_LAYERS
1000
1
  0
LINE
  5
40C6
330
1F
100
AcDbEntity
  8
P-0000
  6
Continuous
 62
     7
100
AcDbLine
 10
340.8051461102441
 20
386.7059189231259
 30
0.0
 11
336.7508442236677
 21
386.7059189231259
 31
0.0
1001
ACME_LAYERS
1000
1
  0
LINE
  5
40C7
330
1F
100
AcDbEntity
  8
P-0000
  6
Continuous
 62
     7
100
AcDbLine
 10
329.0508442236665
 20
386.7059189231259
 30
0.0
 11
336.7508442236677
 21
386.7059189231259
 31
0.0
1001
ACME_LAYERS
1000
1
  0
LINE
  5
40C8
330
1F
100
AcDbEntity
  8
P-0000
  6
Continuous
 62
     7
100
AcDbLine
 10
328.2508442236663
 20
386.7059189231259
 30
0.0
 11
329.0508442236665
 21
386.7059189231259
 31
0.0
1001
ACME_LAYERS
1000
1
  0
HATCH
  5
40CD
330
1F
100
AcDbEntity
  8
P-0000
  6
Continuous
 62
     3
100
AcDbHatch
 10
0.0
 20
0.0
 30
0.0
210
0.0
220
0.0
230
1.0
  2
_U
 70
     0
 71
     0
 91
        1
 92
        1
 93
       34
 72
     1
 10
100.3844301004401
 20
371.4999990181996
 11
98.97021653806632
 21
372.9142125805733
 72
     1
 10
98.97021653806632
 20
372.9142125805733
 11
99.67277778281868
 21
373.6167738253239
 72
     2
 10
102.5012049075653
 20
370.7883467005781
 40
4.0
 50
224.9999999999994
 51
270.0
 73
     0
 72
     2
 10
102.5012049075653
 20
370.7883467005781
 40
3.999999999999721
 50
270.0
 51
299.9999999999985
 73
     0
 72
     1
 10
104.5012049075649
 20
374.2524483157158
 11
107.9384599171985
 21
372.26794821063
 72
     2
 10
108.9384599171985
 20
373.9999990181996
 40
1.999999999999868
 50
239.9999999999979
 51
270.0
 73
     1
 72
     1
 10
108.9384599171985
 20
371.9999990181996
 11
137.116663147473
 21
371.9999990181996
 72
     1
 10
137.116663147473
 20
371.9999990181996
 11
156.5525615323363
 21
371.9999990181996
 72
     2
 10
156.5525615323363
 20
373.9999990181996
 40
2.0
 50
-90.00000000000001
 51
-59.99999999999786
 73
     1
 72
     1
 10
157.5525615323363
 20
372.26794821063
 11
158.4122723065466
 21
372.764302457545
 72
     1
 10
158.4122723065466
 20
372.764302457545
 11
163.0884599171995
 21
375.4641006333372
 72
     2
 10
165.0884599172004
 20
371.9999990181996
 40
4.0
 50
240.0000000000021
 51
270.0
 73
     0
 72
     1
 10
165.0884599172004
 20
375.9999990181996
 11
173.3325248978358
 21
375.9999990181996
 72
     2
 10
173.3325248978358
 20
369.9999990181995
 40
6.000000000000177
 50
270.0
 51
322.9999999999994
 73
     0
 72
     1
 10
178.1243379581196
 20
373.6108891571121
 11
183.8555693813136
 21
366.0052881754532
 72
     2
 10
179.8623918310773
 20
362.9962130596932
 40
5.0
 50
322.9999999999976
 51
359.9999999999961
 73
     0
 72
     1
 10
184.8623918310773
 20
362.9962130596932
 11
184.8623918310773
 21
358.9999990181992
 72
     1
 10
184.8623918310773
 20
358.9999990181996
 11
184.2658614562524
 21
358.9999990181996
 72
     1
 10
184.265861456251
 20
358.9999990181996
 11
182.8623918310773
 21
360.4034686433752
 72
     1
 10
182.8623918310773
 20
360.4034686433743
 11
182.8623918310773
 21
362.9962130596932
 72
     2
 10
179.8623918310773
 20
362.9962130596932
 40
3.0
 50
-0.0000000000000127
 51
37.00000000000023
 73
     1
 72
     1
 10
182.2582983612183
 20
364.801658129149
 11
178.3410675304594
 21
369.9999990181991
 72
     1
 10
178.3410675304594
 20
369.9999990181995
 11
177.5348711350993
 21
371.0698577698709
 72
     1
 10
177.5348711350993
 20
371.0698577698709
 11
176.5270669380243
 21
372.4072591108079
 72
     2
 10
173.3325248978358
 20
369.9999990181995
 40
4.000000000000238
 50
37.00000000000207
 51
89.99999999999998
 73
     1
 72
     1
 10
173.3325248978358
 20
373.9999990181996
 11
165.0884599172004
 21
373.9999990181996
 72
     2
 10
165.0884599172004
 20
371.9999990181996
 40
2.0
 50
89.99999999999998
 51
119.9999999999928
 73
     1
 72
     1
 10
164.0884599171995
 20
373.7320498257691
 11
158.5525615323354
 21
370.5358974030624
 72
     2
 10
156.5525615323363
 20
373.9999990181996
 40
4.0
 50
420.0000000000091
 51
450.0
 73
     0
 72
     1
 10
156.5525615323363
 20
369.9999990181995
 11
108.9384599171985
 21
369.9999990181995
 72
     2
 10
108.9384599171985
 20
373.9999990181996
 40
3.999999999999785
 50
90.0000000000049
 51
120.0000000000017
 73
     0
 72
     1
 10
106.9384599171971
 20
370.5358974030624
 11
103.5012049075649
 21
372.5203975081463
 72
     2
 10
102.5012049075653
 20
370.7883467005781
 40
1.999999999999721
 50
59.99999999999537
 51
135.000000000001
 73
     1
 72
     1
 10
101.0869913451925
 20
372.202560262951
 11
100.3844301004401
 21
371.4999990181992
 97
        0
 75
     0
 76
     0
 52
44.99999999999999
 41
2.0
 77
     0
 78
     1
 53
45.0
 43
957.3461070888393
 44
-25.78398138912189
 45
-1.414213562373094
 46
1.414213562373094
 79
     0
 98
        1
 10
957.3461070888393
 20
-25.78398138912189
1001
ACME_LAYERS
1000
1
  0
HATCH
  5
40CE
330
1F
100
AcDbEntity
  8
P-0000
  6
Continuous
 62
     3
100
AcDbHatch
 10
0.0
 20
0.0
 30
0.0
210
0.0
220
0.0
230
1.0
  2
_U
 70
     0
 71
     0
 91
        1
 92
        1
 93
       40
 72
     1
 10
397.6463349497704
 20
372.202560262951
 11
398.3488961945213
 21
371.4999990181992
 72
     1
 10
398.3488961945213
 20
371.4999990181996
 11
399.7631097568947
 21
372.9142125805733
 72
     1
 10
399.7631097568947
 20
372.9142125805733
 11
399.0605485121437
 21
373.6167738253239
 72
     2
 10
396.2321213873961
 20
370.7883467005781
 40
3.999999999999991
 50
44.99999999999938
 51
89.99999999999998
 73
     1
 72
     2
 10
396.2321213873961
 20
370.7883467005781
 40
4.0
 50
89.99999999999998
 51
119.9999999999971
 73
     1
 72
     1
 10
394.2321213873975
 20
374.2524483157158
 11
390.7948663777643
 21
372.26794821063
 72
     2
 10
389.7948663777638
 20
373.9999990181996
 40
2.0
 50
419.9999999999977
 51
450.0
 73
     0
 72
     1
 10
389.7948663777638
 20
371.9999990181996
 11
389.5166631474917
 21
371.9999990181996
 72
     1
 10
389.5166631474917
 20
371.9999990181996
 11
369.6166631474885
 21
371.9999990181996
 72
     1
 10
369.6166631474871
 20
371.9999990181996
 11
342.1807647626247
 21
371.9999990181996
 72
     2
 10
342.1807647626247
 20
373.9999990181996
 40
1.999999999999868
 50
450.0
 51
480.0000000000022
 73
     0
 72
     1
 10
341.1807647626251
 20
372.26794821063
 11
341.0759211127247
 21
372.3284797201241
 72
     1
 10
341.0759211127247
 20
372.3284797201241
 11
340.9443269701657
 21
372.4044556337531
 72
     1
 10
340.9443269701657
 20
372.4044556337531
 11
340.3210539884176
 21
372.764302457545
 72
     1
 10
340.3210539884162
 20
372.764302457545
 11
335.6448663777623
 21
375.4641006333372
 72
     2
 10
333.6448663777624
 20
371.9999990181996
 40
4.000000000000023
 50
60.00000000000208
 51
89.99999999999998
 73
     1
 72
     1
 10
333.6448663777624
 20
375.9999990181996
 11
328.2268521760852
 21
375.9999990181996
 72
     1
 10
328.2268521760866
 20
375.9999990181996
 11
325.4008013970424
 21
375.9999990181996
 72
     2
 10
325.4008013970424
 20
369.9999990181995
 40
6.0
 50
89.99999999999998
 51
142.9999999999993
 73
     1
 72
     1
 10
320.6089883367586
 20
373.6108891571121
 11
314.8777569135658
 21
366.0052881754541
 72
     2
 10
318.8709344638014
 20
362.9962130596932
 40
5.000000000000214
 50
142.9999999999976
 51
179.999999999996
 73
     1
 72
     1
 10
313.8709344638014
 20
362.9962130596932
 11
313.8709344638014
 21
358.9999990181992
 72
     1
 10
313.8709344638014
 20
358.9999990181996
 11
314.1021132952706
 21
358.9999990181996
 72
     1
 10
314.1021132952706
 20
358.9999990181996
 11
314.4674648386267
 21
358.9999990181996
 72
     1
 10
314.4674648386267
 20
358.9999990181996
 11
315.8709344638014
 21
360.4034686433743
 72
     1
 10
315.8709344638014
 20
360.4034686433743
 11
315.8709344638014
 21
362.9962130596932
 72
     2
 10
318.8709344638014
 20
362.9962130596932
 40
3.000000000000071
 50
180.0
 51
217.0000000000003
 73
     0
 72
     1
 10
316.4750279336586
 20
364.801658129149
 11
320.3922587644165
 21
369.9999990181991
 72
     1
 10
320.3922587644165
 20
369.9999990181995
 11
321.198455159777
 21
371.0698577698709
 72
     1
 10
321.198455159777
 20
371.0698577698709
 11
322.2062593568535
 21
372.4072591108079
 72
     2
 10
325.4008013970424
 20
369.9999990181995
 40
4.0
 50
217.0000000000021
 51
270.0
 73
     0
 72
     1
 10
325.4008013970424
 20
373.9999990181996
 11
333.6448663777624
 21
373.9999990181996
 72
     2
 10
333.6448663777624
 20
371.9999990181996
 40
2.000000000000205
 50
270.0
 51
299.9999999999928
 73
     0
 72
     1
 10
334.6448663777624
 20
373.7320498257691
 11
340.1807647626265
 21
370.5358974030624
 72
     2
 10
342.1807647626247
 20
373.9999990181996
 40
3.999999999999741
 50
240.0000000000091
 51
270.0
 73
     1
 72
     1
 10
342.1807647626247
 20
369.9999990181995
 11
342.8930542819594
 21
369.9999990181995
 72
     1
 10
342.8930542819594
 20
369.9999990181995
 11
389.7948663777638
 21
369.9999990181995
 72
     2
 10
389.7948663777638
 20
373.9999990181996
 40
4.0
 50
-89.99999999999511
 51
-59.99999999999824
 73
     1
 72
     1
 10
391.7948663777638
 20
370.5358974030624
 11
395.2321213873961
 21
372.5203975081463
 72
     2
 10
396.2321213873961
 20
370.7883467005781
 40
1.999999999999974
 50
239.9999999999954
 51
315.0000000000012
 73
     0
 97
        0
 75
     0
 76
     0
 52
44.99999999999999
 41
2.0
 77
     0
 78
     1
 53
45.0
 43
957.3461070888393
 44
-25.78398138912189
 45
-1.414213562373094
 46
1.414213562373094
 79
     0
 98
        1
 10
957.3461070888393
 20
-25.78398138912189
1001
ACME_LAYERS
1000
1
  0
HATCH
  5
40CF
330
1F
100
AcDbEntity
  8
P-0000
  6
Continuous
 62
     3
100
AcDbHatch
 10
0.0
 20
0.0
 30
0.0
210
0.0
220
0.0
230
1.0
  2
_U
 70
     0
 71
     0
 91
        1
 92
        1
 93
        7
 72
     1
 10
182.8623918310773
 20
357.596529393024
 11
182.8623918311623
 21
356.0884081398399
 72
     1
 10
182.8623918311623
 20
356.0884081398408
 11
182.8666631474743
 21
273.0955584407811
 72
     1
 10
182.8666631474725
 20
273.0955584407811
 11
184.8623918311614
 21
272.9188936052369
 72
     1
 10
184.8623918311614
 20
272.9188936052369
 11
184.8623918311614
 21
313.9188936052369
 72
     1
 10
184.8623918311614
 20
313.9188936052369
 11
184.8623918311614
 21
358.9999990181992
 72
     1
 10
184.8623918311614
 20
358.9999990181996
 11
184.2658614562524
 21
358.9999990181996
 72
     1
 10
184.265861456251
 20
358.9999990181996
 11
182.8623918310773
 21
357.5965293930249
 97
        0
 75
     0
 76
     0
 52
-45.0
 41
2.0
 77
     0
 78
     1
 53
315.0
 43
957.3461070888393
 44
-25.78398138912189
 45
1.414213562373094
 46
1.414213562373094
 79
     0
 98
        1
 10
957.3461070888393
 20
-25.78398138912189
1001
ACME_LAYERS
1000
1
  0
HATCH
  5
40D0
330
1F
100
AcDbEntity
  8
P-0000
  6
Continuous
 62
     3
100
AcDbHatch
 10
0.0
 20
0.0
 30
0.0
210
0.0
220
0.0
230
1.0
  2
_U
 70
     0
 71
     0
 91
        1
 92
        1
 93
        6
 72
     1
 10
313.8709344638014
 20
358.9999990181996
 11
313.8709344638014
 21
272.9188936052378
 72
     1
 10
313.8709344638005
 20
272.9188936052369
 11
315.8666631474885
 21
273.0955584407811
 72
     1
 10
315.8666631474885
 20
273.0955584407811
 11
315.8709344638014
 21
285.5220564014171
 72
     1
 10
315.8709344638014
 20
285.5220564014171
 11
315.8709344638014
 21
357.596529393024
 72
     1
 10
315.8709344638014
 20
357.596529393024
 11
314.4674648386267
 21
358.9999990181992
 72
     1
 10
314.4674648386267
 20
358.9999990181996
 11
313.8709344638005
 21
358.9999990181996
 97
        0
 75
     0
 76
     0
 52
-45.0
 41
2.0
 77
     0
 78
     1
 53
315.0
 43
957.3461070888393
 44
-25.78398138912189
 45
1.414213562373094
 46
1.414213562373094
 79
     0
 98
        1
 10
957.3461070888393
 20
-25.78398138912189
1001
ACME_LAYERS
1000
1
  0
ARC
  5
40D1
330
1F
100
AcDbEntity
  8
P-0000
  6
Continuous
 62
     7
100
AcDbCircle
 10
318.8709344638014
 20
362.9962130596932
 30
0.0
 40
3.000000000000071
100
AcDbArc
 50
143.0000000000041
 51
180.0
1001
ACME_LAYERS
1000
1
  0
ARC
  5
40D2
330
1F
100
AcDbEntity
  8
P-0000
  6
Continuous
 62
     7
100
AcDbCircle
 10
318.8709344638014
 20
362.9962130596932
 30
0.0
 40
5.000000000000214
100
AcDbArc
 50
143.0000000000041
 51
179.9999999999739
1001
ACME_LAYERS
1000
1
  0
ARC
  5
40D3
330
1F
100
AcDbEntity
  8
P-0000
  6
Continuous
 62
     7
100
AcDbCircle
 10
179.8623918310773
 20
362.9962130596932
 30
0.0
 40
3.0
100
AcDbArc
 50
0.0
 51
36.99999999999587
1001
ACME_LAYERS
1000
1
  0
ARC
  5
40D4
330
1F
100
AcDbEntity
  8
P-0000
  6
Continuous
 62
     7
100
AcDbCircle
 10
179.8623918310773
 20
362.9962130596932
 30
0.0
 40
5.0
100
AcDbArc
 50
0.0
 51
36.99999999999587
1001
ACME_LAYERS
1000
1
  0
SPLINE
  5
40D5
330
1F
100
AcDbEntity
  8
P-0000
  6
Continuous
 62
     3
100
AcDbSpline
210
0.0
220
0.0
230
1.0
 70
     8
 71
     3
 72
     8
 73
     4
 74
     0
 42
0.0000000001
 43
0.0000000001
 40
0.0
 40
0.0
 40
0.0
 40
0.0
 40
2.003532740689506
 40
2.003532740689506
 40
2.003532740689506
 40
2.003532740689506
 10
182.8666631474725
 20
273.0955584407811
 30
0.0
 10
183.5312197522444
 20
273.0294870344533
 30
0.0
 10
184.1965067912215
 20
272.970608726805
 30
0.0
 10
184.8623918311614
 20
272.9188936052369
 30
0.0
  0
SPLINE
  5
40D6
330
1F
100
AcDbEntity
  8
P-0000
  6
Continuous
 62
     3
100
AcDbSpline
210
0.0
220
0.0
230
1.0
 70
     8
 71
     3
 72
     8
 73
     4
 74
     0
 42
0.0000000001
 43
0.0000000001
 40
0.0
 40
0.0
 40
0.0
 40
0.0
 40
2.003532740689506
 40
2.003532740689506
 40
2.003532740689506
 40
2.003532740689506
 10
315.8666631474885
 20
273.0955584407811
 30
0.0
 10
315.2021065427193
 20
273.0294870344533
 30
0.0
 10
314.5368195037413
 20
272.970608726805
 30
0.0
 10
313.8709344638005
 20
272.9188936052369
 30
0.0
  0
LINE
  5
40D7
330
1F
100
AcDbEntity
  8
P-0000
  6
Continuous
 62
     7
100
AcDbLine
 10
315.8666631474807
 20
319.453420172058
 30
0.0
 11
315.8666631474807
 21
304.7383274601652
 31
0.0
1001
ACME_LAYERS
1000
1
  0
LINE
  5
40D8
330
1F
100
AcDbEntity
  8
P-0000
  6
Continuous
 62
     7
100
AcDbLine
 10
315.8666631474807
 20
314.4534201720558
 30
0.0
 11
315.8666631474807
 21
312.453420172058
 31
0.0
1001
ACME_LAYERS
1000
1
  0
LINE
  5
40D9
330
1F
100
AcDbEntity
  8
P-0000
  6
Continuous
 62
     3
100
AcDbLine
 10
249.3666631474807
 20
4.059870623165806
 30
0.0
 11
184.2959287827716
 21
4.059870623165806
 31
0.0
1001
ACME_LAYERS
1000
1
  0
LINE
  5
40DA
330
1F
100
AcDbEntity
  8
P-0000
  6
Continuous
 62
     7
100
AcDbLine
 10
249.3666631474807
 20
-0.0000009818008948
 30
0.0
 11
183.9545024653994
 21
-0.0000009818008948
 31
0.0
1001
ACME_LAYERS
1000
1
  0
LINE
  5
40DB
330
1F
100
AcDbEntity
  8
P-0000
  6
Continuous
 62
     7
100
AcDbLine
 10
182.8666631474725
 20
236.6860628904203
 30
0.0
 11
182.8666631474725
 21
254.4348370752691
 31
0.0
1001
ACME_LAYERS
1000
1
  0
LINE
  5
40DC
330
1F
100
AcDbEntity
  8
P-0000
  6
Continuous
 62
     7
100
AcDbLine
 10
149.3666631474743
 20
369.9999990181995
 30
0.0
 11
178.3410675304594
 21
369.9999990181995
 31
0.0
1001
ACME_LAYERS
1000
1
  0
LINE
  5
40DD
330
1F
100
AcDbEntity
  8
P-0000
  6
Continuous
 62
     7
100
AcDbLine
 10
108.9384599171985
 20
369.9999990181995
 30
0.0
 11
149.3666631474743
 21
369.9999990181995
 31
0.0
1001
ACME_LAYERS
1000
1
  0
LINE
  5
40DE
330
1F
100
AcDbEntity
  8
P-0000
  6
Continuous
 62
     7
100
AcDbLine
 10
184.8623918311614
 20
313.9188936052369
 30
0.0
 11
184.8623918311614
 21
358.9999990181996
 31
0.0
1001
ACME_LAYERS
1000
1
  0
LINE
  5
40DF
330
1F
100
AcDbEntity
  8
P-0000
  6
Continuous
 62
     7
100
AcDbLine
 10
182.8666631474725
 20
265.2033673397382
 30
0.0
 11
182.8666631474807
 21
185.216018610879
 31
0.0
1001
ACME_LAYERS
1000
1
  0
LINE
  5
40E0
330
1F
100
AcDbEntity
  8
P-0000
  6
Continuous
 62
     7
100
AcDbLine
 10
182.8623918311623
 20
265.21953109233
 30
0.0
 11
182.8666631474725
 21
265.2033673397382
 31
0.0
1001
ACME_LAYERS
1000
1
  0
LINE
  5
40E1
330
1F
100
AcDbEntity
  8
P-0000
  6
Continuous
 62
     7
100
AcDbLine
 10
182.8666631474725
 20
273.0955584407811
 30
0.0
 11
182.8666631474762
 21
285.5220564014171
 31
0.0
1001
ACME_LAYERS
1000
1
  0
LINE
  5
40E2
330
1F
100
AcDbEntity
  8
P-0000
  6
Continuous
 62
     7
100
AcDbLine
 10
184.8623918311614
 20
272.9188936052369
 30
0.0
 11
184.8623918311614
 21
313.9188936052369
 31
0.0
1001
ACME_LAYERS
1000
1
  0
LINE
  5
40E3
330
1F
100
AcDbEntity
  8
P-0000
  6
Continuous
 62
     7
100
AcDbLine
 10
182.8623918311623
 20
310.538220154006
 30
0.0
 11
182.8623918311623
 21
358.9999990181996
 31
0.0
1001
ACME_LAYERS
1000
1
  0
LINE
  5
40E4
330
1F
100
AcDbEntity
  8
P-0000
  6
Continuous
 62
     7
100
AcDbLine
 10
182.8666631474725
 20
255.4348370752691
 30
0.0
 11
182.8666631474725
 21
273.0955584407811
 31
0.0
1001
ACME_LAYERS
1000
1
  0
LINE
  5
40E5
330
1F
100
AcDbEntity
  8
P-0000
  6
Continuous
 62
     3
100
AcDbLine
 10
314.4373975121912
 20
4.059870623165806
 30
0.0
 11
249.3666631474807
 21
4.059870623165806
 31
0.0
1001
ACME_LAYERS
1000
1
  0
LINE
  5
40E6
330
1F
100
AcDbEntity
  8
P-0000
  6
Continuous
 62
     7
100
AcDbLine
 10
314.7788238295643
 20
-0.0000009818008948
 30
0.0
 11
315.8666631474871
 21
4.059870623163988
 31
0.0
1001
ACME_LAYERS
1000
1
  0
LINE
  5
40E7
102
{ACAD_REACTORS
330
42C4
102
}
330
1F
100
AcDbEntity
  8
P-0000
  6
Continuous
 62
     7
100
AcDbLine
 10
314.7788238295643
 20
-0.0000009818008948
 30
0.0
 11
249.3666631474807
 21
-0.0000009818008948
 31
0.0
1001
ACME_LAYERS
1000
1
  0
LINE
  5
40E8
102
{ACAD_REACTORS
330
42F3
102
}
330
1F
100
AcDbEntity
  8
P-0000
  6
Continuous
 62
     7
100
AcDbLine
 10
320.3922587644165
 20
369.9999990181995
 30
0.0
 11
316.4750279336586
 21
364.801658129149
 31
0.0
1001
ACME_LAYERS
1000
1
  0
LINE
  5
40E9
330
1F
100
AcDbEntity
  8
P-0000
  6
Continuous
 62
     7
100
AcDbLine
 10
323.3573634283544
 20
373.9348258080404
 30
0.0
 11
320.3922587644115
 21
369.9999990181908
 31
0.0
1001
ACME_LAYERS
1000
1
  0
LINE
  5
40EA
102
{ACAD_REACTORS
330
42F3
102
}
330
1F
100
AcDbEntity
  8
P-0000
  6
Continuous
 62
     7
100
AcDbLine
 10
322.4093117487091
 20
375.9999990181832
 30
0.0
 11
314.8777569135658
 21
366.0052881754541
 31
0.0
1001
ACME_LAYERS
1000
1
  0
LINE
  5
40EB
330
1F
100
AcDbEntity
  8
P-0000
  6
Continuous
 62
     7
100
AcDbLine
 10
321.198455159777
 20
371.0698577698709
 30
0.0
 11
320.3922587644165
 21
369.9999990181995
 31
0.0
1001
ACME_LAYERS
1000
1
  0
LINE
  5
40EC
330
1F
100
AcDbEntity
  8
P-0000
  6
Continuous
 62
     7
100
AcDbLine
 10
315.8666631474871
 20
240.2033673397409
 30
0.0
 11
315.8666631474885
 21
265.2033673397382
 31
0.0
1001
ACME_LAYERS
1000
1
  0
LINE
  5
40ED
330
1F
100
AcDbEntity
  8
P-0000
  6
Continuous
 62
     7
100
AcDbLine
 10
315.8666631474885
 20
265.2033673397382
 30
0.0
 11
315.8709344638014
 21
265.21953109233
 31
0.0
1001
ACME_LAYERS
1000
1
  0
LINE
  5
40EE
330
1F
100
AcDbEntity
  8
P-0000
  6
Continuous
 62
     7
100
AcDbLine
 10
315.8666631474871
 20
285.5220564014171
 30
0.0
 11
315.8666631474885
 21
273.0955584407811
 31
0.0
1001
ACME_LAYERS
1000
1
  0
LINE
  5
40EF
330
1F
100
AcDbEntity
  8
P-0000
  6
Continuous
 62
     7
100
AcDbLine
 10
315.8709344638014
 20
358.9188936052369
 30
0.0
 11
315.8709344638014
 21
357.596529393024
 31
0.0
1001
ACME_LAYERS
1000
1
  0
LINE
  5
40F0
330
1F
100
AcDbEntity
  8
P-0000
  6
Continuous
 62
     7
100
AcDbLine
 10
315.8666631474885
 20
273.0955584407811
 30
0.0
 11
315.8666631474885
 21
255.4348370752691
 31
0.0
1001
ACME_LAYERS
1000
1
  0
LINE
  5
40F1
330
1F
100
AcDbEntity
  8
P-0000
  6
Continuous
 62
     7
100
AcDbLine
 10
182.8666631474762
 20
310.538220154006
 30
0.0
 11
182.8666631474762
 21
285.5220564014171
 31
0.0
1001
ACME_LAYERS
1000
1
  0
LINE
  5
40F2
330
1F
100
AcDbEntity
  8
P-0000
  6
Continuous
 62
     7
100
AcDbLine
 10
315.8666631474885
 20
254.4348370752691
 30
0.0
 11
315.8666631474885
 21
185.216018610879
 31
0.0
1001
ACME_LAYERS
1000
1
  0
LINE
  5
40F3
330
1F
100
AcDbEntity
  8
P-0000
  6
Continuous
 62
     7
100
AcDbLine
 10
315.8666631474885
 20
4.059870623165806
 30
0.0
 11
315.8666631474871
 21
4.059870623163988
 31
0.0
1001
ACME_LAYERS
1000
1
  0
LINE
  5
40F4
330
1F
100
AcDbEntity
  8
P-0000
  6
Continuous
 62
     7
100
AcDbLine
 10
315.8666631474871
 20
4.059870623163988
 30
0.0
 11
315.8666631474885
 21
4.059870623165806
 31
0.0
1001
ACME_LAYERS
1000
1
  0
LINE
  5
40F5
330
1F
100
AcDbEntity
  8
P-0000
  6
Continuous
 62
     7
100
AcDbLine
 10
182.8666631474834
 20
4.059870623134202
 30
0.0
 11
183.9545024653994
 21
-0.0000009818008948
 31
0.0
1001
ACME_LAYERS
1000
1
  0
LINE
  5
40F6
330
1F
100
AcDbEntity
  8
P-0000
  6
Continuous
 62
     7
100
AcDbLine
 10
313.8709344638014
 20
358.9999990181996
 30
0.0
 11
313.8709344638005
 21
272.9188936052369
 31
0.0
1001
ACME_LAYERS
1000
1
  0
LINE
  5
40F7
330
1F
100
AcDbEntity
  8
P-0000
  6
Continuous
 62
     7
100
AcDbLine
 10
315.8709344638014
 20
358.9188936052369
 30
0.0
 11
315.8709344638014
 21
360.4034686433743
 31
0.0
1001
ACME_LAYERS
1000
1
  0
LINE
  5
40F8
330
1F
100
AcDbEntity
  8
P-0000
  6
Continuous
 62
     7
100
AcDbLine
 10
313.8709344638014
 20
358.9999990181996
 30
0.0
 11
313.8709344638014
 21
362.9962130596932
 31
0.0
1001
ACME_LAYERS
1000
1
  0
LINE
  5
40F9
330
1F
100
AcDbEntity
  8
P-0000
  6
Continuous
 62
     7
100
AcDbLine
 10
315.8709344638014
 20
358.9999990181996
 30
0.0
 11
314.4674648386267
 21
358.9999990181996
 31
0.0
1001
ACME_LAYERS
1000
1
  0
LINE
  5
40FA
330
1F
100
AcDbEntity
  8
P-0000
  6
Continuous
 62
     7
100
AcDbLine
 10
315.8709344638014
 20
357.596529393024
 30
0.0
 11
315.8709344638014
 21
285.5220564014171
 31
0.0
1001
ACME_LAYERS
1000
1
  0
LINE
  5
40FB
330
1F
100
AcDbEntity
  8
P-0000
  6
Continuous
 62
     7
100
AcDbLine
 10
314.4674648386267
 20
358.9999990181996
 30
0.0
 11
313.8709344638014
 21
358.9999990181996
 31
0.0
1001
ACME_LAYERS
1000
1
  0
LINE
  5
40FC
330
1F
100
AcDbEntity
  8
P-0000
  6
Continuous
 62
     7
100
AcDbLine
 10
315.8709344638014
 20
360.4034686433743
 30
0.0
 11
315.8709344638014
 21
362.9962130596932
 31
0.0
1001
ACME_LAYERS
1000
1
  0
LINE
  5
40FD
330
1F
100
AcDbEntity
  8
P-0000
  6
Continuous
 62
     7
100
AcDbLine
 10
182.2582983612183
 20
364.801658129149
 30
0.0
 11
178.3410675304594
 21
369.9999990181995
 31
0.0
1001
ACME_LAYERS
1000
1
  0
LINE
  5
40FE
330
1F
100
AcDbEntity
  8
P-0000
  6
Continuous
 62
     7
100
AcDbLine
 10
178.7672575147766
 20
369.4344258064849
 30
0.0
 11
175.375962866522
 21
373.9348258080404
 31
0.0
1001
ACME_LAYERS
1000
1
  0
LINE
  5
40FF
330
1F
100
AcDbEntity
  8
P-0000
  6
Continuous
 62
     7
100
AcDbLine
 10
183.8555693813136
 20
366.0052881754541
 30
0.0
 11
176.3240145461695
 21
375.9999990181832
 31
0.0
1001
ACME_LAYERS
1000
1
  0
LINE
  5
4100
330
1F
100
AcDbEntity
  8
P-0000
  6
Continuous
 62
     7
100
AcDbLine
 10
178.3410675304594
 20
369.9999990181995
 30
0.0
 11
175.375962866522
 21
373.9348258080404
 31
0.0
1001
ACME_LAYERS
1000
1
  0
LINE
  5
4101
330
1F
100
AcDbEntity
  8
P-0000
  6
Continuous
 62
     7
100
AcDbLine
 10
182.8623918310773
 20
357.596529393024
 30
0.0
 11
182.8623918310773
 21
358.9188936052369
 31
0.0
1001
ACME_LAYERS
1000
1
  0
LINE
  5
4102
330
1F
100
AcDbEntity
  8
P-0000
  6
Continuous
 62
     7
100
AcDbLine
 10
182.8623918310773
 20
360.4034686433743
 30
0.0
 11
182.8623918310773
 21
358.9188936052369
 31
0.0
1001
ACME_LAYERS
1000
1
  0
LINE
  5
4103
330
1F
100
AcDbEntity
  8
P-0000
  6
Continuous
 62
     7
100
AcDbLine
 10
184.8623918310773
 20
362.9962130596932
 30
0.0
 11
184.8623918310773
 21
358.9999990181996
 31
0.0
1001
ACME_LAYERS
1000
1
  0
LINE
  5
4104
330
1F
100
AcDbEntity
  8
P-0000
  6
Continuous
 62
     7
100
AcDbLine
 10
184.265861456251
 20
358.9999990181996
 30
0.0
 11
182.8623918310773
 21
358.9999990181996
 31
0.0
1001
ACME_LAYERS
1000
1
  0
LINE
  5
4105
330
1F
100
AcDbEntity
  8
P-0000
  6
Continuous
 62
     7
100
AcDbLine
 10
182.8623918310773
 20
362.9962130596932
 30
0.0
 11
182.8623918310773
 21
360.4034686433743
 31
0.0
1001
ACME_LAYERS
1000
1
  0
LINE
  5
4106
330
1F
100
AcDbEntity
  8
P-0000
  6
Continuous
 62
     7
100
AcDbLine
 10
184.8623918310773
 20
358.9999990181996
 30
0.0
 11
184.265861456251
 21
358.9999990181996
 31
0.0
1001
ACME_LAYERS
1000
1
  0
LINE
  5
4108
330
1F
100
AcDbEntity
  8
P-0000
  6
Continuous
 62
     7
100
AcDbLine
 10
315.8666631474885
 20
170.216018610879
 30
0.0
 11
315.8666631474885
 21
4.059870623167171
 31
0.0
1001
ACME_LAYERS
1000
1
  0
LINE
  5
4109
330
1F
100
AcDbEntity
  8
P-0000
  6
Continuous
 62
     7
100
AcDbLine
 10
182.8666631474807
 20
170.216018610879
 30
0.0
 11
182.8666631474925
 21
4.059870623100096
 31
0.0
1001
ACME_LAYERS
1000
1
  0
LINE
  5
410A
330
1F
100
AcDbEntity
  8
P-0000
  6
Continuous
 62
     7
100
AcDbLine
 10
315.8666631474885
 20
185.216018610879
 30
0.0
 11
315.8666631474885
 21
170.216018610879
 31
0.0
1001
ACME_LAYERS
1000
1
  0
LINE
  5
410B
330
1F
100
AcDbEntity
  8
P-0000
  6
Continuous
 62
     7
100
AcDbLine
 10
182.8666631474807
 20
185.216018610879
 30
0.0
 11
182.8666631474807
 21
170.216018610879
 31
0.0
1001
ACME_LAYERS
1000
1
  0
LINE
  5
410C
330
1F
100
AcDbEntity
  8
0
100
AcDbLine
 10
165.7653056148488
 20
373.9348258080404
 30
0.0
 11
175.375962866522
 21
373.9348258080404
 31
0.0
  0
LINE
  5
410D
330
1F
100
AcDbEntity
  8
P-0000
  6
Continuous
 62
     7
100
AcDbLine
 10
162.7673229885772
 20
386.6964718080812
 30
0.0
 11
162.6953568260796
 21
386.6964718080812
 31
0.0
1001
ACME_LAYERS
1000
1
  0
LINE
  5
410E
330
1F
100
AcDbEntity
  8
P-0000
  6
Continuous
 62
     7
100
AcDbLine
 10
137.7673229885772
 20
387.1964718080822
 30
0.0
 11
138.2673229885772
 21
387.1964718080822
 31
0.0
1001
ACME_LAYERS
1000
1
  0
LINE
  5
410F
330
1F
100
AcDbEntity
  8
P-0000
  6
Continuous
 62
     7
100
AcDbLine
 10
136.9673229885766
 20
387.1964718080822
 30
0.0
 11
137.7673229885772
 21
387.1964718080822
 31
0.0
1001
ACME_LAYERS
1000
1
  0
LINE
  5
4110
330
1F
100
AcDbEntity
  8
P-0000
  6
Continuous
 62
     7
100
AcDbLine
 10
337.2847802262909
 20
386.6964718080812
 30
0.0
 11
337.3567463887921
 21
386.6964718080812
 31
0.0
1001
ACME_LAYERS
1000
1
  0
LINE
  5
4111
330
1F
100
AcDbEntity
  8
P-0000
  6
Continuous
 62
     7
100
AcDbLine
 10
138.7847802262895
 20
387.1964718080822
 30
0.0
 11
144.1960246283684
 21
387.1964718080822
 31
0.0
1001
ACME_LAYERS
1000
1
  0
LINE
  5
4112
330
1F
100
AcDbEntity
  8
P-0000
  6
Continuous
 62
     7
100
AcDbLine
 10
128.7847802262904
 20
387.1964718080822
 30
0.0
 11
138.7847802262895
 21
387.1964718080822
 31
0.0
1001
ACME_LAYERS
1000
1
  0
LINE
  5
4113
330
1F
100
AcDbEntity
  8
P-0000
  6
Continuous
 62
     7
100
AcDbLine
 10
144.1960246283684
 20
387.1964718080822
 30
0.0
 11
146.1960246283693
 21
387.1964718080822
 31
0.0
1001
ACME_LAYERS
1000
1
  0
LINE
  5
4114
330
1F
100
AcDbEntity
  8
P-0000
  6
Continuous
 62
     7
100
AcDbLine
 10
159.3730181154915
 20
386.6964718080812
 30
0.0
 11
163.8187162289141
 21
386.6964718080812
 31
0.0
1001
ACME_LAYERS
1000
1
  0
LINE
  5
4115
330
1F
100
AcDbEntity
  8
P-0000
  6
Continuous
 62
     7
100
AcDbLine
 10
176.3730181154915
 20
386.6964718080812
 30
0.0
 11
172.3187162289155
 21
386.6964718080812
 31
0.0
1001
ACME_LAYERS
1000
1
  0
LINE
  5
4116
330
1F
100
AcDbEntity
  8
P-0000
  6
Continuous
 62
     7
100
AcDbLine
 10
164.6187162289134
 20
386.6964718080812
 30
0.0
 11
172.3187162289155
 21
386.6964718080812
 31
0.0
1001
ACME_LAYERS
1000
1
  0
LINE
  5
4117
330
1F
100
AcDbEntity
  8
P-0000
  6
Continuous
 62
     7
100
AcDbLine
 10
163.8187162289141
 20
386.6964718080812
 30
0.0
 11
164.6187162289134
 21
386.6964718080812
 31
0.0
1001
ACME_LAYERS
1000
1
  0
LINE
  5
4118
330
1F
100
AcDbEntity
  8
P-0000
  6
Continuous
 62
     7
100
AcDbLine
 10
323.7876888725336
 20
386.6964718080812
 30
0.0
 11
328.2333869859544
 21
386.6964718080812
 31
0.0
1001
ACME_LAYERS
1000
1
  0
LINE
  5
4119
330
1F
100
AcDbEntity
  8
P-0000
  6
Continuous
 62
     7
100
AcDbLine
 10
340.7876888725323
 20
386.6964718080812
 30
0.0
 11
336.7333869859544
 21
386.6964718080812
 31
0.0
1001
ACME_LAYERS
1000
1
  0
LINE
  5
411A
330
1F
100
AcDbEntity
  8
P-0000
  6
Continuous
 62
     7
100
AcDbLine
 10
329.0333869859546
 20
386.6964718080812
 30
0.0
 11
336.7333869859544
 21
386.6964718080812
 31
0.0
1001
ACME_LAYERS
1000
1
  0
LINE
  5
411B
330
1F
100
AcDbEntity
  8
P-0000
  6
Continuous
 62
     7
100
AcDbLine
 10
328.2333869859544
 20
386.6964718080812
 30
0.0
 11
329.0333869859546
 21
386.6964718080812
 31
0.0
1001
ACME_LAYERS
1000
1
  0
LINE
  5
411C
330
1F
100
AcDbEntity
  8
AM_7
  6
AM_DIN_G_W050x2
100
AcDbLine
 10
133.7282437821986
 20
388.2059189231259
 30
0.0
 11
133.7282437821986
 21
368.9999990181832
 31
0.0
1001
GENIUS_GENOBJ-N-CEN_13
1002
{
1000
OWNER
1000
GEN
1002
}
1001
GENIUS_GENODEF_13
1002
{
1000
HIER
1070
     0
1002
}
1002
{
1000
MANEDIT
1070
     0
1002
}
1002
{
1000
NOSEL
1070
     0
1002
}
1002
{
1000
BEHIND
1070
     0
1002
}
1002
{
1000
OTHER
1070
     0
1002
}
1002
{
1000
REACTOR
1002
}
1001
GENIUS_GENCEN_19
1002
{
1040
3.0
1002
}
  0
LINE
  5
411D
330
1F
100
AcDbEntity
  8
P-0000
  6
Continuous
 62
     7
100
AcDbLine
 10
162.7107865444854
 20
386.6964718079753
 30
0.0
 11
162.6388203819842
 21
386.6964718079753
 31
0.0
1001
ACME_LAYERS
1000
1
  0
LINE
  5
411E
330
1F
100
AcDbEntity
  8
P-0000
  6
Continuous
 62
     7
100
AcDbLine
 10
137.7107865444854
 20
387.1964718079772
 30
0.0
 11
138.2107865444873
 21
387.1964718079772
 31
0.0
1001
ACME_LAYERS
1000
1
  0
LINE
  5
411F
330
1F
100
AcDbEntity
  8
P-0000
  6
Continuous
 62
     7
100
AcDbLine
 10
136.9107865444866
 20
387.1964718079772
 30
0.0
 11
137.7107865444854
 21
387.1964718079772
 31
0.0
1001
ACME_LAYERS
1000
1
  0
LINE
  5
4120
330
1F
100
AcDbEntity
  8
P-0000
  6
Continuous
 62
     7
100
AcDbLine
 10
371.2282437821996
 20
389.1964718079762
 30
0.0
 11
361.2282437822005
 21
389.1964718079762
 31
0.0
1001
ACME_LAYERS
1000
1
  0
LINE
  5
4121
330
1F
100
AcDbEntity
  8
P-0000
  6
Continuous
 62
     7
100
AcDbLine
 10
369.4282437822003
 20
400.3437532476885
 30
0.0
 11
366.2282437821996
 21
400.3437532476885
 31
0.0
1001
ACME_LAYERS
1000
1
  0
LINE
  5
4122
330
1F
100
AcDbEntity
  8
P-0000
  6
Continuous
 62
     7
100
AcDbLine
 10
363.0282437822001
 20
399.7437532476888
 30
0.0
 11
369.4282437822003
 21
399.7437532476888
 31
0.0
1001
ACME_LAYERS
1000
1
  0
LINE
  5
4123
330
1F
100
AcDbEntity
  8
P-0000
  6
Continuous
 62
     7
100
AcDbLine
 10
370.2282437821996
 20
399.7437532476888
 30
0.0
 11
370.2282437821996
 21
396.7964718079752
 31
0.0
1001
ACME_LAYERS
1000
1
  0
LINE
  5
4124
330
1F
100
AcDbEntity
  8
P-0000
  6
Continuous
 62
     3
100
AcDbLine
 10
369.4282437822003
 20
400.3437532476885
 30
0.0
 11
369.4282437822003
 21
396.7964718079752
 31
0.0
1001
ACME_LAYERS
1000
1
  0
LINE
  5
4125
330
1F
100
AcDbEntity
  8
P-0000
  6
Continuous
 62
     7
100
AcDbLine
 10
369.4282437822003
 20
399.7437532476888
 30
0.0
 11
370.2282437821996
 21
399.7437532476888
 31
0.0
1001
ACME_LAYERS
1000
1
  0
LINE
  5
4126
330
1F
100
AcDbEntity
  8
P-0000
  6
Continuous
 62
     3
100
AcDbLine
 10
369.4282437822003
 20
400.3437532476885
 30
0.0
 11
369.4282437822003
 21
399.7437532476888
 31
0.0
1001
ACME_LAYERS
1000
1
  0
LINE
  5
4127
330
1F
100
AcDbEntity
  8
P-0000
  6
Continuous
 62
     7
100
AcDbLine
 10
370.2282437821996
 20
399.7437532476888
 30
0.0
 11
369.4282437822003
 21
400.3437532476885
 31
0.0
1001
ACME_LAYERS
1000
1
  0
LINE
  5
4128
330
1F
100
AcDbEntity
  8
P-0000
  6
Continuous
 62
     7
100
AcDbLine
 10
362.2282437821996
 20
399.7437532476888
 30
0.0
 11
362.2282437821996
 21
396.7964718079752
 31
0.0
1001
ACME_LAYERS
1000
1
  0
LINE
  5
4129
330
1F
100
AcDbEntity
  8
P-0000
  6
STRICHPUNKT
 62
     3
100
AcDbLine
 10
366.2282437821996
 20
396.7964718079752
 30
0.0
 11
366.2282437821996
 21
400.3437532476885
 31
0.0
1001
ACME_LAYERS
1000
1
  0
LINE
  5
412A
330
1F
100
AcDbEntity
  8
P-0000
  6
Continuous
 62
     3
100
AcDbLine
 10
363.0282437822001
 20
400.3437532476885
 30
0.0
 11
363.0282437822001
 21
396.7964718079752
 31
0.0
1001
ACME_LAYERS
1000
1
  0
LINE
  5
412B
330
1F
100
AcDbEntity
  8
P-0000
  6
Continuous
 62
     3
100
AcDbLine
 10
363.0282437822001
 20
400.3437532476885
 30
0.0
 11
363.0282437822001
 21
399.7437532476888
 31
0.0
1001
ACME_LAYERS
1000
1
  0
LINE
  5
412C
330
1F
100
AcDbEntity
  8
P-0000
  6
Continuous
 62
     7
100
AcDbLine
 10
362.2282437821996
 20
399.7437532476888
 30
0.0
 11
363.0282437822001
 21
399.7437532476888
 31
0.0
1001
ACME_LAYERS
1000
1
  0
LINE
  5
412D
330
1F
100
AcDbEntity
  8
P-0000
  6
Continuous
 62
     7
100
AcDbLine
 10
363.0282437822001
 20
400.3437532476885
 30
0.0
 11
362.2282437821996
 21
399.7437532476888
 31
0.0
1001
ACME_LAYERS
1000
1
  0
LINE
  5
412E
330
1F
100
AcDbEntity
  8
P-0000
  6
Continuous
 62
     7
100
AcDbLine
 10
366.2282437821996
 20
400.3437532476885
 30
0.0
 11
363.0282437822001
 21
400.3437532476885
 31
0.0
1001
ACME_LAYERS
1000
1
  0
LINE
  5
412F
330
1F
100
AcDbEntity
  8
P-0000
  6
Continuous
 62
     7
100
AcDbLine
 10
362.2282437822005
 20
396.7964718079752
 30
0.0
 11
369.4282437822003
 21
396.7964718079752
 31
0.0
1001
ACME_LAYERS
1000
1
  0
LINE
  5
4130
330
1F
100
AcDbEntity
  8
P-0000
  6
Continuous
 62
     7
100
AcDbLine
 10
369.4282437822003
 20
396.7964718079752
 30
0.0
 11
370.2282437822005
 21
396.7964718079752
 31
0.0
1001
ACME_LAYERS
1000
1
  0
LINE
  5
4131
330
1F
100
AcDbEntity
  8
P-0000
  6
Continuous
 62
     7
100
AcDbLine
 10
374.6739418956195
 20
390.696471807973
 30
0.0
 11
374.6739418956195
 21
389.1964718079762
 31
0.0
1001
ACME_LAYERS
1000
1
  0
LINE
  5
4132
330
1F
100
AcDbEntity
  8
P-0000
  6
Continuous
 62
     7
100
AcDbLine
 10
357.6739418956204
 20
389.1964718079762
 30
0.0
 11
357.6739418956204
 21
390.696471807973
 31
0.0
1001
ACME_LAYERS
1000
1
  0
LINE
  5
4133
330
1F
100
AcDbEntity
  8
P-0000
  6
Continuous
 62
     7
100
AcDbLine
 10
337.2282437822005
 20
386.6964718079753
 30
0.0
 11
337.3002099447003
 21
386.6964718079753
 31
0.0
1001
ACME_LAYERS
1000
1
  0
LINE
  5
4134
330
1F
100
AcDbEntity
  8
P-0000
  6
Continuous
 62
     7
100
AcDbLine
 10
374.6739418956195
 20
390.7964718079739
 30
0.0
 11
374.6739418956195
 21
390.696471807973
 31
0.0
1001
ACME_LAYERS
1000
1
  0
LINE
  5
4135
330
1F
100
AcDbEntity
  8
P-0000
  6
Continuous
 62
     7
100
AcDbLine
 10
357.6739418956204
 20
390.7964718079739
 30
0.0
 11
374.6739418956195
 21
390.7964718079739
 31
0.0
1001
ACME_LAYERS
1000
1
  0
LINE
  5
4136
330
1F
100
AcDbEntity
  8
P-0000
  6
Continuous
 62
     7
100
AcDbLine
 10
357.6739418956204
 20
390.696471807973
 30
0.0
 11
357.6739418956204
 21
390.7964718079739
 31
0.0
1001
ACME_LAYERS
1000
1
  0
LINE
  5
4137
330
1F
100
AcDbEntity
  8
P-0000
  6
Continuous
 62
     7
100
AcDbLine
 10
358.7226902827333
 20
392.6834109998818
 30
0.0
 11
358.7226902827333
 21
391.3770283915742
 31
0.0
1001
ACME_LAYERS
1000
1
  0
LINE
  5
4138
330
1F
100
AcDbEntity
  8
P-0000
  6
Continuous
 62
     7
100
AcDbLine
 10
372.7282437822005
 20
390.7964718079739
 30
0.0
 11
359.7282437822005
 21
390.7964718079739
 31
0.0
1001
ACME_LAYERS
1000
1
  0
LINE
  5
4139
330
1F
100
AcDbEntity
  8
P-0000
  6
Continuous
 62
     7
100
AcDbLine
 10
373.7337972816645
 20
392.6834109998818
 30
0.0
 11
373.7337972816645
 21
391.3770283915742
 31
0.0
1001
ACME_LAYERS
1000
1
  0
LINE
  5
413A
330
1F
100
AcDbEntity
  8
P-0000
  6
Continuous
 62
     7
100
AcDbLine
 10
370.2282437822005
 20
396.7964718079752
 30
0.0
 11
372.7282437822005
 21
396.7964718079752
 31
0.0
1001
ACME_LAYERS
1000
1
  0
LINE
  5
413B
330
1F
100
AcDbEntity
  8
P-0000
  6
Continuous
 62
     7
100
AcDbLine
 10
358.9693618713923
 20
391.2236153736089
 30
0.0
 11
359.7282437822005
 21
390.7964718079739
 31
0.0
1001
ACME_LAYERS
1000
1
  0
LINE
  5
413C
330
1F
100
AcDbEntity
  8
P-0000
  6
Continuous
 62
     7
100
AcDbLine
 10
358.9693618713923
 20
396.3693282423401
 30
0.0
 11
359.7282437822005
 21
396.7964718079752
 31
0.0
1001
ACME_LAYERS
1000
1
  0
LINE
  5
413D
330
1F
100
AcDbEntity
  8
P-0000
  6
Continuous
 62
     7
100
AcDbLine
 10
373.4871256930063
 20
391.2236153736089
 30
0.0
 11
372.7282437822005
 21
390.7964718079739
 31
0.0
1001
ACME_LAYERS
1000
1
  0
LINE
  5
413E
330
1F
100
AcDbEntity
  8
P-0000
  6
Continuous
 62
     7
100
AcDbLine
 10
373.4871256930063
 20
396.3693282423401
 30
0.0
 11
372.7282437822005
 21
396.7964718079752
 31
0.0
1001
ACME_LAYERS
1000
1
  0
LINE
  5
413F
330
1F
100
AcDbEntity
  8
P-0000
  6
Continuous
 62
     7
100
AcDbLine
 10
359.7282437822005
 20
396.7964718079752
 30
0.0
 11
362.2282437822005
 21
396.7964718079752
 31
0.0
1001
ACME_LAYERS
1000
1
  0
LINE
  5
4140
330
1F
100
AcDbEntity
  8
P-0000
  6
Continuous
 62
     7
100
AcDbLine
 10
373.7337972816645
 20
396.215915224373
 30
0.0
 11
373.7337972816645
 21
392.6834109998818
 31
0.0
1001
ACME_LAYERS
1000
1
  0
LINE
  5
4141
330
1F
100
AcDbEntity
  8
P-0000
  6
Continuous
 62
     7
100
AcDbLine
 10
369.9810205319323
 20
396.215915224373
 30
0.0
 11
369.9810205319323
 21
390.7964718079739
 31
0.0
1001
ACME_LAYERS
1000
1
  0
LINE
  5
4142
330
1F
100
AcDbEntity
  8
P-0000
  6
Continuous
 62
     7
100
AcDbLine
 10
362.4754670324683
 20
396.215915224373
 30
0.0
 11
362.4754670324683
 21
390.7964718079739
 31
0.0
1001
ACME_LAYERS
1000
1
  0
LINE
  5
4143
330
1F
100
AcDbEntity
  8
P-0000
  6
Continuous
 62
     7
100
AcDbLine
 10
358.7226902827333
 20
396.215915224373
 30
0.0
 11
358.7226902827333
 21
392.6834109998818
 31
0.0
1001
ACME_LAYERS
1000
1
  0
LINE
  5
4144
330
1F
100
AcDbEntity
  8
P-0000
  6
Continuous
 62
     7
100
AcDbLine
 10
374.6739418956195
 20
389.1964718079762
 30
0.0
 11
370.2282437822005
 21
389.1964718079762
 31
0.0
1001
ACME_LAYERS
1000
1
  0
LINE
  5
4145
330
1F
100
AcDbEntity
  8
P-0000
  6
Continuous
 62
     7
100
AcDbLine
 10
357.6739418956204
 20
389.1964718079762
 30
0.0
 11
361.7282437821986
 21
389.1964718079762
 31
0.0
1001
ACME_LAYERS
1000
1
  0
LINE
  5
4146
330
1F
100
AcDbEntity
  8
P-0000
  6
Continuous
 62
     7
100
AcDbLine
 10
362.2282437822005
 20
387.1964718079772
 30
0.0
 11
361.7282437821986
 21
387.1964718079772
 31
0.0
1001
ACME_LAYERS
1000
1
  0
LINE
  5
4147
330
1F
100
AcDbEntity
  8
P-0000
  6
Continuous
 62
     7
100
AcDbLine
 10
363.0282437822001
 20
387.1964718079772
 30
0.0
 11
362.2282437822005
 21
387.1964718079772
 31
0.0
1001
ACME_LAYERS
1000
1
  0
LINE
  5
4148
330
1F
100
AcDbEntity
  8
P-0000
  6
Continuous
 62
     7
100
AcDbLine
 10
369.4282437822003
 20
387.1964718079772
 30
0.0
 11
363.0282437822001
 21
387.1964718079772
 31
0.0
1001
ACME_LAYERS
1000
1
  0
LINE
  5
4149
330
1F
100
AcDbEntity
  8
P-0000
  6
Continuous
 62
     7
100
AcDbLine
 10
370.2282437822005
 20
387.1964718079772
 30
0.0
 11
369.4282437822003
 21
387.1964718079772
 31
0.0
1001
ACME_LAYERS
1000
1
  0
ARC
  5
414A
330
1F
100
AcDbEntity
  8
P-0000
  6
Continuous
 62
     7
100
AcDbCircle
 10
366.2282437822005
 20
403.215915224373
 30
0.0
 40
12.41944341639904
100
AcDbArc
 50
252.4120462260076
 51
287.5879537739924
1001
ACME_LAYERS
1000
1
  0
ARC
  5
414B
330
1F
100
AcDbEntity
  8
P-0000
  6
Continuous
 62
     7
100
AcDbCircle
 10
366.2282437822005
 20
384.3770283915751
 30
0.0
 40
12.41944341639904
100
AcDbArc
 50
72.41204622600756
 51
107.5879537739924
1001
ACME_LAYERS
1000
1
  0
ARC
  5
414C
330
1F
100
AcDbEntity
  8
P-0000
  6
Continuous
 62
     7
100
AcDbCircle
 10
360.5990786575994
 20
394.119041380924
 30
0.0
 40
3.322569572950221
100
AcDbArc
 50
240.6266206051644
 51
304.3842474680531
1001
ACME_LAYERS
1000
1
  0
ARC
  5
414D
330
1F
100
AcDbEntity
  8
P-0000
  6
Continuous
 62
     7
100
AcDbCircle
 10
360.5990786575994
 20
393.4739022350226
 30
0.0
 40
3.322569572950149
100
AcDbArc
 50
119.3733793948355
 51
124.3842474680531
1001
ACME_LAYERS
1000
1
  0
ARC
  5
414E
330
1F
100
AcDbEntity
  8
P-0000
  6
Continuous
 62
     7
100
AcDbCircle
 10
371.8574089067965
 20
394.119041380924
 30
0.0
 40
3.322569572950221
100
AcDbArc
 50
299.3733793948356
 51
304.3842474680531
1001
ACME_LAYERS
1000
1
  0
ARC
  5
414F
330
1F
100
AcDbEntity
  8
P-0000
  6
Continuous
 62
     7
100
AcDbCircle
 10
371.8574089067965
 20
393.473902235025
 30
0.0
 40
3.322569572949122
100
AcDbArc
 50
60.62662060516443
 51
124.3842474680243
1001
ACME_LAYERS
1000
1
  0
ARC
  5
4150
330
1F
100
AcDbEntity
  8
P-0000
  6
Continuous
 62
     7
100
AcDbCircle
 10
360.5990786575994
 20
394.119041380924
 30
0.0
 40
3.322569572949876
100
AcDbArc
 50
235.6157525319468
 51
240.6266206051644
1001
ACME_LAYERS
1000
1
  0
ARC
  5
4151
330
1F
100
AcDbEntity
  8
P-0000
  6
Continuous
 62
     7
100
AcDbCircle
 10
360.5990786575994
 20
393.473902235025
 30
0.0
 40
3.322569572949888
100
AcDbArc
 50
55.61575253194686
 51
119.3733793948355
1001
ACME_LAYERS
1000
1
  0
ARC
  5
4152
330
1F
100
AcDbEntity
  8
P-0000
  6
Continuous
 62
     7
100
AcDbCircle
 10
371.8574089067965
 20
394.119041380924
 30
0.0
 40
3.322569572949872
100
AcDbArc
 50
235.6157525319757
 51
299.3733793948356
1001
ACME_LAYERS
1000
1
  0
ARC
  5
4153
330
1F
100
AcDbEntity
  8
P-0000
  6
Continuous
 62
     7
100
AcDbCircle
 10
371.8574089067965
 20
393.473902235025
 30
0.0
 40
3.322569572949884
100
AcDbArc
 50
55.61575253194686
 51
60.62662060516443
1001
ACME_LAYERS
1000
1
  0
LINE
  5
4154
330
1F
100
AcDbEntity
  8
P-0000
  6
Continuous
 62
     7
100
AcDbLine
 10
138.7282437821995
 20
387.1964718079772
 30
0.0
 11
144.1394881842784
 21
387.1964718079772
 31
0.0
1001
ACME_LAYERS
1000
1
  0
LINE
  5
4155
330
1F
100
AcDbEntity
  8
P-0000
  6
Continuous
 62
     7
100
AcDbLine
 10
128.7282437821996
 20
387.1964718079772
 30
0.0
 11
138.7282437821995
 21
387.1964718079772
 31
0.0
1001
ACME_LAYERS
1000
1
  0
LINE
  5
4156
330
1F
100
AcDbEntity
  8
P-0000
  6
Continuous
 62
     7
100
AcDbLine
 10
144.1394881842784
 20
387.1964718079772
 30
0.0
 11
146.1394881842775
 21
387.1964718079772
 31
0.0
1001
ACME_LAYERS
1000
1
  0
LINE
  5
4157
330
1F
100
AcDbEntity
  8
P-0000
  6
Continuous
 62
     7
100
AcDbLine
 10
159.3164816714024
 20
386.6964718079753
 30
0.0
 11
163.7621797848223
 21
386.6964718079753
 31
0.0
1001
ACME_LAYERS
1000
1
  0
LINE
  5
4158
330
1F
100
AcDbEntity
  8
P-0000
  6
Continuous
 62
     7
100
AcDbLine
 10
176.3164816714015
 20
386.6964718079753
 30
0.0
 11
172.2621797848242
 21
386.6964718079753
 31
0.0
1001
ACME_LAYERS
1000
1
  0
LINE
  5
4159
330
1F
100
AcDbEntity
  8
P-0000
  6
Continuous
 62
     7
100
AcDbLine
 10
164.5621797848234
 20
386.6964718079753
 30
0.0
 11
172.2621797848242
 21
386.6964718079753
 31
0.0
1001
ACME_LAYERS
1000
1
  0
LINE
  5
415A
330
1F
100
AcDbEntity
  8
P-0000
  6
Continuous
 62
     7
100
AcDbLine
 10
163.7621797848223
 20
386.6964718079753
 30
0.0
 11
164.5621797848234
 21
386.6964718079753
 31
0.0
1001
ACME_LAYERS
1000
1
  0
LINE
  5
415B
330
1F
100
AcDbEntity
  8
P-0000
  6
Continuous
 62
     7
100
AcDbLine
 10
328.1768505418622
 20
397.1791395007361
 30
0.0
 11
328.1768505418622
 21
394.296471807972
 31
0.0
1001
ACME_LAYERS
1000
1
  0
LINE
  5
415C
330
1F
100
AcDbEntity
  8
P-0000
  6
Continuous
 62
     3
100
AcDbLine
 10
328.9768505418623
 20
396.717259285384
 30
0.0
 11
328.9768505418623
 21
394.296471807972
 31
0.0
1001
ACME_LAYERS
1000
1
  0
LINE
  5
415D
330
1F
100
AcDbEntity
  8
P-0000
  6
Continuous
 62
     7
100
AcDbLine
 10
333.1697774470636
 20
394.296471807972
 30
0.0
 11
328.9768505418633
 21
394.296471807972
 31
0.0
1001
ACME_LAYERS
1000
1
  0
LINE
  5
415E
330
1F
100
AcDbEntity
  8
P-0000
  6
Continuous
 62
     7
100
AcDbLine
 10
328.9768505418633
 20
394.296471807972
 30
0.0
 11
328.1768505418622
 21
394.296471807972
 31
0.0
1001
ACME_LAYERS
1000
1
  0
LINE
  5
415F
330
1F
100
AcDbEntity
  8
P-0000
  6
Continuous
 62
     7
100
AcDbLine
 10
323.7311524284423
 20
388.196471807973
 30
0.0
 11
323.7311524284423
 21
386.6964718079753
 31
0.0
1001
ACME_LAYERS
1000
1
  0
LINE
  5
4160
330
1F
100
AcDbEntity
  8
P-0000
  6
Continuous
 62
     7
100
AcDbLine
 10
340.7311524284414
 20
386.6964718079753
 30
0.0
 11
340.7311524284414
 21
388.196471807973
 31
0.0
1001
ACME_LAYERS
1000
1
  0
LINE
  5
4161
330
1F
100
AcDbEntity
  8
P-0000
  6
Continuous
 62
     7
100
AcDbLine
 10
323.7311524284423
 20
388.2964718079729
 30
0.0
 11
323.7311524284423
 21
388.196471807973
 31
0.0
1001
ACME_LAYERS
1000
1
  0
LINE
  5
4162
330
1F
100
AcDbEntity
  8
P-0000
  6
Continuous
 62
     7
100
AcDbLine
 10
340.7311524284414
 20
388.2964718079729
 30
0.0
 11
323.7311524284423
 21
388.2964718079729
 31
0.0
1001
ACME_LAYERS
1000
1
  0
LINE
  5
4163
330
1F
100
AcDbEntity
  8
P-0000
  6
Continuous
 62
     7
100
AcDbLine
 10
340.7311524284414
 20
388.196471807973
 30
0.0
 11
340.7311524284414
 21
388.2964718079729
 31
0.0
1001
ACME_LAYERS
1000
1
  0
LINE
  5
4164
330
1F
100
AcDbEntity
  8
P-0000
  6
Continuous
 62
     7
100
AcDbLine
 10
339.682404041328
 20
390.183410999879
 30
0.0
 11
339.682404041328
 21
388.8770283915733
 31
0.0
1001
ACME_LAYERS
1000
1
  0
LINE
  5
4165
330
1F
100
AcDbEntity
  8
P-0000
  6
Continuous
 62
     7
100
AcDbLine
 10
325.6768505418618
 20
388.2964718079729
 30
0.0
 11
338.6768505418622
 21
388.2964718079729
 31
0.0
1001
ACME_LAYERS
1000
1
  0
LINE
  5
4166
330
1F
100
AcDbEntity
  8
P-0000
  6
Continuous
 62
     7
100
AcDbLine
 10
324.6712970423973
 20
390.183410999879
 30
0.0
 11
324.6712970423973
 21
388.8770283915733
 31
0.0
1001
ACME_LAYERS
1000
1
  0
LINE
  5
4167
330
1F
100
AcDbEntity
  8
P-0000
  6
Continuous
 62
     7
100
AcDbLine
 10
328.1768505418622
 20
394.296471807972
 30
0.0
 11
325.6768505418618
 21
394.296471807972
 31
0.0
1001
ACME_LAYERS
1000
1
  0
LINE
  5
4168
330
1F
100
AcDbEntity
  8
P-0000
  6
Continuous
 62
     7
100
AcDbLine
 10
335.9296272915935
 20
390.183410999879
 30
0.0
 11
335.9296272915935
 21
388.8770283915733
 31
0.0
1001
ACME_LAYERS
1000
1
  0
LINE
  5
4169
330
1F
100
AcDbEntity
  8
P-0000
  6
Continuous
 62
     7
100
AcDbLine
 10
328.4240737921314
 20
390.183410999879
 30
0.0
 11
328.4240737921314
 21
388.8770283915733
 31
0.0
1001
ACME_LAYERS
1000
1
  0
LINE
  5
416A
330
1F
100
AcDbEntity
  8
P-0000
  6
Continuous
 62
     7
100
AcDbLine
 10
339.4357324526723
 20
388.7236153736071
 30
0.0
 11
338.6768505418622
 21
388.2964718079729
 31
0.0
1001
ACME_LAYERS
1000
1
  0
LINE
  5
416B
330
1F
100
AcDbEntity
  8
P-0000
  6
Continuous
 62
     7
100
AcDbLine
 10
324.9179686310554
 20
388.7236153736071
 30
0.0
 11
325.6768505418618
 21
388.2964718079729
 31
0.0
1001
ACME_LAYERS
1000
1
  0
LINE
  5
416C
330
1F
100
AcDbEntity
  8
P-0000
  6
Continuous
 62
     7
100
AcDbLine
 10
324.9179686310554
 20
393.8693282423369
 30
0.0
 11
325.6768505418618
 21
394.296471807972
 31
0.0
1001
ACME_LAYERS
1000
1
  0
LINE
  5
416D
330
1F
100
AcDbEntity
  8
P-0000
  6
Continuous
 62
     7
100
AcDbLine
 10
324.6712970423973
 20
393.7159152243721
 30
0.0
 11
324.6712970423973
 21
390.183410999879
 31
0.0
1001
ACME_LAYERS
1000
1
  0
LINE
  5
416E
330
1F
100
AcDbEntity
  8
P-0000
  6
Continuous
 62
     7
100
AcDbLine
 10
328.4240737921314
 20
393.7159152243721
 30
0.0
 11
328.4240737921314
 21
390.183410999879
 31
0.0
1001
ACME_LAYERS
1000
1
  0
LINE
  5
416F
330
1F
100
AcDbEntity
  8
P-0000
  6
Continuous
 62
     7
100
AcDbLine
 10
335.9296272915935
 20
392.7030717573111
 30
0.0
 11
335.9296272915935
 21
390.183410999879
 31
0.0
1001
ACME_LAYERS
1000
1
  0
LINE
  5
4170
330
1F
100
AcDbEntity
  8
P-0000
  6
Continuous
 62
     7
100
AcDbLine
 10
339.682404041328
 20
390.5364050906437
 30
0.0
 11
339.682404041328
 21
390.183410999879
 31
0.0
1001
ACME_LAYERS
1000
1
  0
LINE
  5
4171
330
1F
100
AcDbEntity
  8
P-0000
  6
Continuous
 62
     7
100
AcDbLine
 10
323.7311524284423
 20
386.6964718079753
 30
0.0
 11
328.1768505418622
 21
386.6964718079753
 31
0.0
1001
ACME_LAYERS
1000
1
  0
LINE
  5
4172
330
1F
100
AcDbEntity
  8
P-0000
  6
Continuous
 62
     7
100
AcDbLine
 10
340.7311524284414
 20
386.6964718079753
 30
0.0
 11
336.6768505418645
 21
386.6964718079753
 31
0.0
1001
ACME_LAYERS
1000
1
  0
LINE
  5
4173
330
1F
100
AcDbEntity
  8
P-0000
  6
Continuous
 62
     7
100
AcDbLine
 10
328.9768505418633
 20
386.6964718079753
 30
0.0
 11
336.6768505418645
 21
386.6964718079753
 31
0.0
1001
ACME_LAYERS
1000
1
  0
LINE
  5
4174
330
1F
100
AcDbEntity
  8
P-0000
  6
Continuous
 62
     7
100
AcDbLine
 10
328.1768505418622
 20
386.6964718079753
 30
0.0
 11
328.9768505418633
 21
386.6964718079753
 31
0.0
1001
ACME_LAYERS
1000
1
  0
ARC
  5
4175
330
1F
100
AcDbEntity
  8
P-0000
  6
Continuous
 62
     7
100
AcDbCircle
 10
332.1768505418604
 20
400.7159152243712
 30
0.0
 40
12.41944341639904
100
AcDbArc
 50
252.4120462260076
 51
287.5879537739924
1001
ACME_LAYERS
1000
1
  0
ARC
  5
4176
330
1F
100
AcDbEntity
  8
P-0000
  6
Continuous
 62
     7
100
AcDbCircle
 10
332.1768505418604
 20
381.8770283915733
 30
0.0
 40
12.41944341639904
100
AcDbArc
 50
85.04168193073009
 51
107.5879537739924
1001
ACME_LAYERS
1000
1
  0
ARC
  5
4177
330
1F
100
AcDbEntity
  8
P-0000
  6
Continuous
 62
     7
100
AcDbCircle
 10
337.806015666461
 20
391.6190413809218
 30
0.0
 40
3.322569572950221
100
AcDbArc
 50
235.6157525319468
 51
299.3733793948356
1001
ACME_LAYERS
1000
1
  0
ARC
  5
4178
330
1F
100
AcDbEntity
  8
P-0000
  6
Continuous
 62
     7
100
AcDbCircle
 10
326.5476854172643
 20
391.6190413809218
 30
0.0
 40
3.322569572950221
100
AcDbArc
 50
235.6157525319468
 51
240.6266206051644
1001
ACME_LAYERS
1000
1
  0
ARC
  5
4179
330
1F
100
AcDbEntity
  8
P-0000
  6
Continuous
 62
     7
100
AcDbCircle
 10
326.5476854172643
 20
390.9739022350226
 30
0.0
 40
3.322569572949122
100
AcDbArc
 50
55.61575253197573
 51
119.3733793948355
1001
ACME_LAYERS
1000
1
  0
ARC
  5
417A
330
1F
100
AcDbEntity
  8
P-0000
  6
Continuous
 62
     7
100
AcDbCircle
 10
337.806015666461
 20
391.6190413809218
 30
0.0
 40
3.322569572949876
100
AcDbArc
 50
299.3733793948356
 51
304.3842474680531
1001
ACME_LAYERS
1000
1
  0
ARC
  5
417B
330
1F
100
AcDbEntity
  8
P-0000
  6
Continuous
 62
     7
100
AcDbCircle
 10
326.5476854172643
 20
391.6190413809218
 30
0.0
 40
3.322569572949872
100
AcDbArc
 50
240.6266206051644
 51
304.3842474680243
1001
ACME_LAYERS
1000
1
  0
ARC
  5
417C
330
1F
100
AcDbEntity
  8
P-0000
  6
Continuous
 62
     7
100
AcDbCircle
 10
326.5476854172643
 20
390.9739022350226
 30
0.0
 40
3.322569572949884
100
AcDbArc
 50
119.3733793948355
 51
124.3842474680531
1001
ACME_LAYERS
1000
1
  0
HATCH
  5
417D
330
1F
100
AcDbEntity
  8
P-0000
  6
Continuous
 62
     1
100
AcDbHatch
 10
0.0
 20
0.0
 30
0.0
210
0.0
220
0.0
230
1.0
  2
_U
 70
     0
 71
     0
 91
        1
 92
        1
 93
       16
 72
     1
 10
334.4782437822082
 20
406.1908205095459
 11
334.4782437822082
 21
406.1416489265638
 72
     1
 10
334.4782437822082
 20
406.1416489265638
 11
334.9782437822081
 21
406.1416489265638
 72
     1
 10
334.9782437822081
 20
406.1416489265638
 11
334.9782437822081
 21
404.190820509546
 72
     1
 10
334.9782437822081
 20
404.190820509546
 11
342.0391349505212
 21
404.190820509546
 72
     2
 10
342.0391349505212
 20
403.690820509546
 40
0.5
 50
270.0
 51
360.0
 73
     0
 72
     1
 10
342.5391349505226
 20
403.690820509546
 11
342.5391349505226
 21
391.1964718079762
 72
     2
 10
346.5391349505225
 20
391.1964718079772
 40
4.000000000000068
 50
180.0
 51
270.0
 73
     1
 72
     1
 10
346.5391349505225
 20
387.1964718079772
 11
361.2282437822005
 21
387.1964718079772
 72
     1
 10
361.2282437822005
 20
387.1964718079772
 11
361.2282437822005
 21
389.1964718079762
 72
     1
 10
361.2282437822005
 20
389.1964718079762
 11
346.4782437822078
 21
389.1964718079762
 72
     2
 10
346.4782437822078
 20
391.1964718079772
 40
1.999999999999999
 50
90.0
 51
180.0
 73
     0
 72
     1
 10
344.4782437822082
 20
391.1964718079772
 11
344.4782437822082
 21
408.6908205095459
 72
     1
 10
344.4782437822082
 20
408.6908205095459
 11
342.4782437822078
 21
408.6908205095459
 72
     1
 10
342.4782437822078
 20
408.6908205095459
 11
342.4782437822078
 21
406.6908205095451
 72
     2
 10
341.9782437822082
 20
406.6908205095451
 40
0.5
 50
360.0
 51
450.0
 73
     0
 72
     1
 10
341.9782437822082
 20
406.1908205095459
 11
334.4782437822082
 21
406.1908205095459
 97
        0
 75
     0
 76
     0
 52
-45.0
 41
2.0
 77
     0
 78
     1
 53
315.0
 43
375.4173526138916
 44
-102.2248478335527
 45
1.414213562373094
 46
1.414213562373094
 79
     0
 98
        1
 10
375.4173526138916
 20
-102.2248478335527
1001
ACME_LAYERS
1000
1
  0
LINE
  5
417E
330
1F
100
AcDbEntity
  8
P-0000
  6
Continuous
 62
     7
100
AcDbLine
 10
314.4782437821996
 20
408.6908205095459
 30
0.0
 11
317.2539467970705
 21
408.6908205095459
 31
0.0
1001
ACME_LAYERS
1000
1
  0
LINE
  5
417F
330
1F
100
AcDbEntity
  8
P-0000
  6
Continuous
 62
     7
100
AcDbLine
 10
333.9405233253265
 20
408.6908205095459
 30
0.0
 11
342.4782437822078
 21
408.6908205095459
 31
0.0
1001
ACME_LAYERS
1000
1
  0
LINE
  5
4180
330
1F
100
AcDbEntity
  8
P-0000
  6
Continuous
 62
     7
100
AcDbLine
 10
316.0322627881364
 20
404.190820509546
 30
0.0
 11
344.5391349505225
 21
387.7323701928381
 31
0.0
1001
ACME_LAYERS
1000
1
  0
LINE
  5
4181
330
1F
100
AcDbEntity
  8
P-0000
  6
Continuous
 62
     7
100
AcDbLine
 10
342.0391349505212
 20
404.190820509546
 30
0.0
 11
334.9782437822081
 21
404.190820509546
 31
0.0
1001
ACME_LAYERS
1000
1
  0
LINE
  5
4182
330
1F
100
AcDbEntity
  8
P-0000
  6
Continuous
 62
     7
100
AcDbLine
 10
334.4782437822082
 20
406.1908205095459
 30
0.0
 11
341.9782437822082
 21
406.1908205095459
 31
0.0
1001
ACME_LAYERS
1000
1
  0
LINE
  5
4183
330
1F
100
AcDbEntity
  8
P-0000
  6
Continuous
 62
     7
100
AcDbLine
 10
249.4880040139283
 20
408.6908205095459
 30
0.0
 11
314.4782437821996
 21
408.6908205095459
 31
0.0
1001
ACME_LAYERS
1000
1
  0
LINE
  5
4184
330
1F
100
AcDbEntity
  8
P-0000
  6
Continuous
 62
     7
100
AcDbLine
 10
249.4880040139283
 20
406.1908205095459
 30
0.0
 11
304.4782437822082
 21
406.1908205095459
 31
0.0
1001
ACME_LAYERS
1000
1
  0
LINE
  5
4185
330
1F
100
AcDbEntity
  8
P-0000
  6
Continuous
 62
     7
100
AcDbLine
 10
259.4782437822146
 20
404.190820509546
 30
0.0
 11
310.4782437822005
 21
404.190820509546
 31
0.0
1001
ACME_LAYERS
1000
1
  0
LINE
  5
4186
330
1F
100
AcDbEntity
  8
P-0000
  6
Continuous
 62
     7
100
AcDbLine
 10
250.4880040139437
 20
406.1908205095459
 30
0.0
 11
259.4702595897443
 21
406.1908205095459
 31
0.0
1001
ACME_LAYERS
1000
1
  0
LINE
  5
4187
330
1F
100
AcDbEntity
  8
P-0000
  6
Continuous
 62
     7
100
AcDbLine
 10
249.4880040139447
 20
406.1908205095459
 30
0.0
 11
250.4880040139437
 21
406.1908205095459
 31
0.0
1001
ACME_LAYERS
1000
1
  0
HATCH
  5
4188
330
1F
100
AcDbEntity
  8
P-0000
  6
Continuous
 62
     1
100
AcDbHatch
 10
0.0
 20
0.0
 30
0.0
210
0.0
220
0.0
230
1.0
  2
_U
 70
     0
 71
     0
 91
        1
 92
        1
 93
       11
 72
     1
 10
314.9782437821996
 20
406.1908205095459
 11
326.4782437822081
 21
406.1908205095459
 72
     1
 10
326.4782437822081
 20
406.1908205095459
 11
326.4782437822081
 21
404.190820509546
 72
     1
 10
326.4782437822081
 20
404.190820509546
 11
316.0322627881364
 21
404.190820509546
 72
     1
 10
316.0322627881364
 20
404.190820509546
 11
310.4782437821987
 21
404.190820509546
 72
     1
 10
310.4782437822005
 20
404.190820509546
 11
310.4782437822005
 21
406.1908205095459
 72
     1
 10
310.4782437822005
 20
406.1908205095459
 11
311.9782437822006
 21
406.1908205095459
 72
     2
 10
311.9782437822006
 20
406.6908205095451
 40
0.5
 50
-90.00000000000001
 51
-0.0000000000000127
 73
     1
 72
     1
 10
312.4782437821996
 20
406.6908205095451
 11
312.4782437821996
 21
408.6908205095459
 72
     1
 10
312.4782437821996
 20
408.6908205095459
 11
314.4782437821996
 21
408.6908205095459
 72
     1
 10
314.4782437821996
 20
408.6908205095459
 11
314.4782437821996
 21
406.6908205095451
 72
     2
 10
314.9782437821996
 20
406.6908205095451
 40
0.5
 50
180.0
 51
270.0
 73
     1
 97
        0
 75
     0
 76
     0
 52
-45.0
 41
2.0
 77
     0
 78
     1
 53
315.0
 43
20.79864849711021
 44
466.7352113821229
 45
1.414213562373094
 46
1.414213562373094
 79
     0
 98
        1
 10
375.4173526138916
 20
-102.2248478335527
1001
ACME_LAYERS
1000
1
  0
LINE
  5
4189
330
1F
100
AcDbEntity
  8
P-0000
  6
Continuous
 62
     7
100
AcDbLine
 10
314.9782437821996
 20
406.1908205095459
 30
0.0
 11
326.4782437822081
 21
406.1908205095459
 31
0.0
1001
ACME_LAYERS
1000
1
  0
LINE
  5
418A
330
1F
100
AcDbEntity
  8
P-0000
  6
Continuous
 62
     7
100
AcDbLine
 10
310.4782437822005
 20
404.190820509546
 30
0.0
 11
316.0322627881364
 21
404.190820509546
 31
0.0
1001
ACME_LAYERS
1000
1
  0
LINE
  5
418B
330
1F
100
AcDbEntity
  8
P-0000
  6
Continuous
 62
     7
100
AcDbLine
 10
304.4782437822082
 20
406.1908205095459
 30
0.0
 11
310.4782437822005
 21
406.1908205095459
 31
0.0
1001
ACME_LAYERS
1000
1
  0
LINE
  5
418C
330
1F
100
AcDbEntity
  8
P-0000
  6
Continuous
 62
     7
100
AcDbLine
 10
310.4782437822005
 20
404.190820509546
 30
0.0
 11
310.4782437822005
 21
406.1908205095459
 31
0.0
1001
ACME_LAYERS
1000
1
  0
LINE
  5
418D
330
1F
100
AcDbEntity
  8
P-0000
  6
Continuous
 62
     7
100
AcDbLine
 10
310.4782437822005
 20
406.1908205095459
 30
0.0
 11
311.9782437822006
 21
406.1908205095459
 31
0.0
1001
ACME_LAYERS
1000
1
  0
LINE
  5
418E
330
1F
100
AcDbEntity
  8
P-0000
  6
Continuous
 62
     7
100
AcDbLine
 10
314.4782437821996
 20
406.6908205095451
 30
0.0
 11
314.4782437821996
 21
408.6908205095459
 31
0.0
1001
ACME_LAYERS
1000
1
  0
LINE
  5
418F
330
1F
100
AcDbEntity
  8
P-0000
  6
Continuous
 62
     7
100
AcDbLine
 10
312.4782437821996
 20
406.6908205095451
 30
0.0
 11
312.4782437821996
 21
408.6908205095459
 31
0.0
1001
ACME_LAYERS
1000
1
  0
LINE
  5
4190
330
1F
100
AcDbEntity
  8
P-0000
  6
Continuous
 62
     7
100
AcDbLine
 10
314.4782437821996
 20
408.6908205095459
 30
0.0
 11
312.4782437821996
 21
408.6908205095459
 31
0.0
1001
ACME_LAYERS
1000
1
  0
ARC
  5
4191
330
1F
100
AcDbEntity
  8
P-0000
  6
Continuous
 62
     7
100
AcDbCircle
 10
314.9782437821996
 20
406.6908205095451
 30
0.0
 40
0.5
100
AcDbArc
 50
180.0
 51
270.0
1001
ACME_LAYERS
1000
1
  0
ARC
  5
4192
330
1F
100
AcDbEntity
  8
P-0000
  6
Continuous
 62
     7
100
AcDbCircle
 10
311.9782437822006
 20
406.6908205095451
 30
0.0
 40
0.5
100
AcDbArc
 50
270.0
 51
0.0
1001
ACME_LAYERS
1000
1
  0
LINE
  5
4193
330
1F
100
AcDbEntity
  8
P-0000
  6
Continuous
 62
     7
100
AcDbLine
 10
330.1890743872673
 20
404.190820509546
 30
0.0
 11
326.4782437822081
 21
404.190820509546
 31
0.0
1001
ACME_LAYERS
1000
1
  0
LINE
  5
4194
330
1F
100
AcDbEntity
  8
P-0000
  6
Continuous
 62
     7
100
AcDbLine
 10
326.4782437822081
 20
406.1908205095459
 30
0.0
 11
334.4782437822082
 21
406.1908205095459
 31
0.0
1001
ACME_LAYERS
1000
1
  0
LINE
  5
4195
330
1F
100
AcDbEntity
  8
P-0000
  6
Continuous
 62
     7
100
AcDbLine
 10
326.4782437822081
 20
404.190820509546
 30
0.0
 11
316.0322627881364
 21
404.190820509546
 31
0.0
1001
ACME_LAYERS
1000
1
  0
LINE
  5
4196
330
1F
100
AcDbEntity
  8
P-0000
  6
Continuous
 62
     7
100
AcDbLine
 10
326.4782437822081
 20
406.1908205095459
 30
0.0
 11
326.4782437822081
 21
404.190820509546
 31
0.0
1001
ACME_LAYERS
1000
1
  0
LINE
  5
4197
330
1F
100
AcDbEntity
  8
P-0000
  6
Continuous
 62
     7
100
AcDbLine
 10
331.9880040139306
 20
406.1908205095459
 30
0.0
 11
332.9880040139296
 21
406.1908205095459
 31
0.0
1001
ACME_LAYERS
1000
1
  0
LINE
  5
4198
330
1F
100
AcDbEntity
  8
P-0000
  6
Continuous
 62
     7
100
AcDbLine
 10
331.9880040139306
 20
406.1908205095459
 30
0.0
 11
332.9880040139296
 21
406.1908205095459
 31
0.0
1001
ACME_LAYERS
1000
1
  0
LINE
  5
4199
330
1F
100
AcDbEntity
  8
P-0000
  6
Continuous
 62
     7
100
AcDbLine
 10
371.2282437821996
 20
389.1964718079762
 30
0.0
 11
361.2282437822005
 21
389.1964718079762
 31
0.0
1001
ACME_LAYERS
1000
1
  0
LINE
  5
419A
330
1F
100
AcDbEntity
  8
P-0000
  6
Continuous
 62
     7
100
AcDbLine
 10
371.2282437821996
 20
387.1964718079772
 30
0.0
 11
361.2282437822005
 21
387.1964718079772
 31
0.0
1001
ACME_LAYERS
1000
1
  0
LINE
  5
419B
330
1F
100
AcDbEntity
  8
P-0000
  6
Continuous
 62
     7
100
AcDbLine
 10
342.5391349505226
 20
391.1964718079772
 30
0.0
 11
342.5391349505226
 21
403.690820509546
 31
0.0
1001
ACME_LAYERS
1000
1
  0
LINE
  5
419C
330
1F
100
AcDbEntity
  8
P-0000
  6
Continuous
 62
     7
100
AcDbLine
 10
344.4782437822082
 20
391.1964718079772
 30
0.0
 11
344.4782437822082
 21
406.1908205095459
 31
0.0
1001
ACME_LAYERS
1000
1
  0
LINE
  5
419D
330
1F
100
AcDbEntity
  8
P-0000
  6
Continuous
 62
     7
100
AcDbLine
 10
354.2899355797613
 20
389.1964718079762
 30
0.0
 11
344.4782437822082
 21
406.1908205095459
 31
0.0
1001
ACME_LAYERS
1000
1
  0
LINE
  5
419E
330
1F
100
AcDbEntity
  8
P-0000
  6
Continuous
 62
     7
100
AcDbLine
 10
344.4782437822082
 20
408.6908205095459
 30
0.0
 11
342.4782437822078
 21
408.6908205095459
 31
0.0
1001
ACME_LAYERS
1000
1
  0
LINE
  5
419F
330
1F
100
AcDbEntity
  8
P-0000
  6
Continuous
 62
     7
100
AcDbLine
 10
342.4782437822078
 20
408.6908205095459
 30
0.0
 11
342.4782437822078
 21
406.6908205095451
 31
0.0
1001
ACME_LAYERS
1000
1
  0
ARC
  5
41A0
330
1F
100
AcDbEntity
  8
P-0000
  6
Continuous
 62
     7
100
AcDbCircle
 10
341.9782437822082
 20
406.6908205095451
 30
0.0
 40
0.5
100
AcDbArc
 50
270.0
 51
0.0
1001
ACME_LAYERS
1000
1
  0
ARC
  5
41A1
330
1F
100
AcDbEntity
  8
P-0000
  6
Continuous
 62
     7
100
AcDbCircle
 10
342.0391349505212
 20
403.690820509546
 30
0.0
 40
0.5
100
AcDbArc
 50
0.0
 51
90.0
1001
ACME_LAYERS
1000
1
  0
LINE
  5
41A2
330
1F
100
AcDbEntity
  8
P-0000
  6
Continuous
 62
     7
100
AcDbLine
 10
344.4782437822082
 20
408.6908205095459
 30
0.0
 11
344.4782437822082
 21
406.1908205095459
 31
0.0
1001
ACME_LAYERS
1000
1
  0
LINE
  5
41A3
330
1F
100
AcDbEntity
  8
P-0000
  6
Continuous
 62
     7
100
AcDbLine
 10
354.2899355797613
 20
389.1964718079762
 30
0.0
 11
346.4782437822078
 21
389.1964718079762
 31
0.0
1001
ACME_LAYERS
1000
1
  0
LINE
  5
41A4
330
1F
100
AcDbEntity
  8
P-0000
  6
Continuous
 62
     7
100
AcDbLine
 10
361.2282437822005
 20
387.1964718079772
 30
0.0
 11
346.5391349505225
 21
387.1964718079772
 31
0.0
1001
ACME_LAYERS
1000
1
  0
ARC
  5
41A5
330
1F
100
AcDbEntity
  8
P-0000
  6
Continuous
 62
     7
100
AcDbCircle
 10
346.4782437822078
 20
391.1964718079772
 30
0.0
 40
2.0
100
AcDbArc
 50
180.0
 51
270.0
1001
ACME_LAYERS
1000
1
  0
ARC
  5
41A6
330
1F
100
AcDbEntity
  8
P-0000
  6
Continuous
 62
     7
100
AcDbCircle
 10
346.5391349505225
 20
391.1964718079772
 30
0.0
 40
4.0
100
AcDbArc
 50
180.0
 51
240.0000000000027
1001
ACME_LAYERS
1000
1
  0
ARC
  5
41A7
330
1F
100
AcDbEntity
  8
P-0000
  6
Continuous
 62
     7
100
AcDbCircle
 10
346.5391349505225
 20
391.1964718079772
 30
0.0
 40
4.000000000000031
100
AcDbArc
 50
240.0000000000027
 51
270.0
1001
ACME_LAYERS
1000
1
  0
LINE
  5
41A8
330
1F
100
AcDbEntity
  8
P-0000
  6
Continuous
 62
     7
100
AcDbLine
 10
361.2282437822005
 20
389.1964718079762
 30
0.0
 11
354.2899355797613
 21
389.1964718079762
 31
0.0
1001
ACME_LAYERS
1000
1
  0
LINE
  5
41A9
330
1F
100
AcDbEntity
  8
P-0000
  6
Continuous
 62
     7
100
AcDbLine
 10
361.2282437822005
 20
387.1964718079772
 30
0.0
 11
361.2282437822005
 21
389.1964718079762
 31
0.0
1001
ACME_LAYERS
1000
1
  0
HATCH
  5
41AA
330
1F
100
AcDbEntity
  8
P-0000
  6
Continuous
 62
     1
100
AcDbHatch
 10
0.0
 20
0.0
 30
0.0
210
0.0
220
0.0
230
1.0
  2
_U
 70
     0
 71
     0
 91
        1
 92
        1
 93
        4
 72
     1
 10
376.2282437821996
 20
387.1964718079772
 11
371.2282437821996
 21
387.1964718079772
 72
     1
 10
371.2282437821996
 20
387.1964718079772
 11
371.2282437821996
 21
389.1964718079762
 72
     1
 10
371.2282437821996
 20
389.1964718079762
 11
376.2282437821996
 21
389.1964718079762
 72
     1
 10
376.2282437821996
 20
389.1964718079762
 11
376.2282437821996
 21
387.1964718079772
 97
        0
 75
     0
 76
     0
 52
-45.0
 41
2.0
 77
     0
 78
     1
 53
315.0
 43
375.4173526138916
 44
-102.2248478335527
 45
1.414213562373094
 46
1.414213562373094
 79
     0
 98
        1
 10
375.4173526138916
 20
-102.2248478335527
1001
ACME_LAYERS
1000
1
  0
LINE
  5
41AB
330
1F
100
AcDbEntity
  8
P-0000
  6
Continuous
 62
     7
100
AcDbLine
 10
376.2282437821996
 20
389.1964718079762
 30
0.0
 11
371.2282437821996
 21
389.1964718079762
 31
0.0
1001
ACME_LAYERS
1000
1
  0
LINE
  5
41AC
330
1F
100
AcDbEntity
  8
P-0000
  6
Continuous
 62
     7
100
AcDbLine
 10
376.2282437821996
 20
387.1964718079772
 30
0.0
 11
371.2282437821996
 21
387.1964718079772
 31
0.0
1001
ACME_LAYERS
1000
1
  0
LINE
  5
41AD
330
1F
100
AcDbEntity
  8
P-0000
  6
Continuous
 62
     7
100
AcDbLine
 10
371.2282437821996
 20
387.1964718079772
 30
0.0
 11
371.2282437821996
 21
389.1964718079762
 31
0.0
1001
ACME_LAYERS
1000
1
  0
LINE
  5
41AE
330
1F
100
AcDbEntity
  8
P-0000
  6
Continuous
 62
     7
100
AcDbLine
 10
376.2282437821996
 20
387.1964718079772
 30
0.0
 11
376.2282437821996
 21
389.1964718079762
 31
0.0
1001
ACME_LAYERS
1000
1
  0
LINE
  5
41AF
330
1F
100
AcDbEntity
  8
P-0000
  6
Continuous
 62
     7
100
AcDbLine
 10
250.9782437822078
 20
448.141648926563
 30
0.0
 11
250.9782437822078
 21
412.1416489265627
 31
0.0
1001
ACME_LAYERS
1000
1
  0
LINE
  5
41B0
330
1F
100
AcDbEntity
  8
P-0000
  6
Continuous
 62
     7
100
AcDbLine
 10
325.9259141931866
 20
430.7107781258519
 30
0.0
 11
326.9047034094715
 21
428.0215768557041
 31
0.0
1001
ACME_LAYERS
1000
1
  0
LINE
  5
41B1
330
1F
100
AcDbEntity
  8
P-0000
  6
Continuous
 62
     7
100
AcDbLine
 10
317.2539467970723
 20
412.1416489265627
 30
0.0
 11
304.1510183634863
 21
448.141648926563
 31
0.0
1001
ACME_LAYERS
1000
1
  0
LINE
  5
41B2
330
1F
100
AcDbEntity
  8
P-0000
  6
Continuous
 62
     7
100
AcDbLine
 10
250.9782437822078
 20
454.1112980261948
 30
0.0
 11
301.9782437822077
 21
454.1112980261948
 31
0.0
1001
ACME_LAYERS
1000
1
  0
LINE
  5
41B3
330
1F
100
AcDbEntity
  8
P-0000
  6
Continuous
 62
     7
100
AcDbLine
 10
250.9782437822078
 20
454.1112980261948
 30
0.0
 11
301.9782437822077
 21
454.1112980261948
 31
0.0
1001
ACME_LAYERS
1000
1
  0
LINE
  5
41B4
330
1F
100
AcDbEntity
  8
P-0000
  6
Continuous
 62
     7
100
AcDbLine
 10
297.3482367037572
 20
486.1416489265637
 30
0.0
 11
290.3201494613704
 21
486.1416489265637
 31
0.0
1001
ACME_LAYERS
1000
1
  0
LINE
  5
41B5
330
1F
100
AcDbEntity
  8
P-0000
  6
Continuous
 62
     7
100
AcDbLine
 10
302.9782437822082
 20
448.141648926563
 30
0.0
 11
250.9782437822078
 21
448.141648926563
 31
0.0
1001
ACME_LAYERS
1000
1
  0
LINE
  5
41B6
330
1F
100
AcDbEntity
  8
P-0000
  6
Continuous
 62
     7
100
AcDbLine
 10
295.7797029753642
 20
471.1416489265628
 30
0.0
 11
253.5824068382421
 21
471.1416489265628
 31
0.0
1001
ACME_LAYERS
1000
1
  0
LINE
  5
41B7
330
1F
100
AcDbEntity
  8
P-0000
  6
Continuous
 62
     7
100
AcDbLine
 10
250.9782437822078
 20
471.1416489265628
 30
0.0
 11
250.9782437822078
 21
454.1112980261948
 31
0.0
1001
ACME_LAYERS
1000
1
  0
LINE
  5
41B8
330
1F
100
AcDbEntity
  8
P-0000
  6
Continuous
 62
     7
100
AcDbLine
 10
288.1917939164196
 20
486.1416489265637
 30
0.0
 11
253.5824068382421
 21
486.1416489265637
 31
0.0
1001
ACME_LAYERS
1000
1
  0
LINE
  5
41B9
330
1F
100
AcDbEntity
  8
P-0000
  6
Continuous
 62
     7
100
AcDbLine
 10
253.5824068382421
 20
486.1416489265637
 30
0.0
 11
253.5824068382421
 21
471.1416489265628
 31
0.0
1001
ACME_LAYERS
1000
1
  0
LINE
  5
41BA
330
1F
100
AcDbEntity
  8
P-0000
  6
Continuous
 62
     7
100
AcDbLine
 10
253.5824068382421
 20
486.1416489265637
 30
0.0
 11
249.4782437822077
 21
486.1416489265637
 31
0.0
1001
ACME_LAYERS
1000
1
  0
LINE
  5
41BB
330
1F
100
AcDbEntity
  8
P-0000
  6
Continuous
 62
     7
100
AcDbLine
 10
253.5824068382421
 20
471.1416489265628
 30
0.0
 11
250.9782437822078
 21
471.1416489265628
 31
0.0
1001
ACME_LAYERS
1000
1
  0
LINE
  5
41BC
330
1F
100
AcDbEntity
  8
P-0000
  6
Continuous
 62
     7
100
AcDbLine
 10
250.9782437822078
 20
471.1416489265628
 30
0.0
 11
249.4782437822077
 21
471.1416489265628
 31
0.0
1001
ACME_LAYERS
1000
1
  0
LINE
  5
41BD
330
1F
100
AcDbEntity
  8
P-0000
  6
Continuous
 62
     7
100
AcDbLine
 10
249.4782437822077
 20
471.1416489265628
 30
0.0
 11
247.9782437822077
 21
471.1416489265628
 31
0.0
1001
ACME_LAYERS
1000
1
  0
HATCH
  5
41BE
330
1F
100
AcDbEntity
  8
P-0000
  6
Continuous
 62
     1
100
AcDbHatch
 10
0.0
 20
0.0
 30
0.0
210
0.0
220
0.0
230
1.0
  2
_U
 70
     0
 71
     0
 91
        1
 92
        1
 93
        5
 72
     1
 10
291.7760303984355
 20
482.1416489265629
 11
290.3201494613695
 21
486.1416489265637
 72
     1
 10
290.3201494613704
 20
486.1416489265637
 11
288.1917939164196
 21
486.1416489265637
 72
     1
 10
288.1917939164196
 20
486.1416489265637
 11
289.4081897709075
 21
482.7996287832378
 72
     2
 10
290.3478823916925
 20
483.1416489265627
 40
1.000000000000015
 50
200.0000000000031
 51
270.0
 73
     1
 72
     1
 10
290.3478823916925
 20
482.1416489265629
 11
291.7760303984355
 21
482.1416489265629
 97
        0
 75
     0
 76
     0
 52
44.99999999999999
 41
1.0
 77
     0
 78
     1
 53
45.0
 43
76.88721654614937
 44
524.639731958543
 45
-0.7071067811865474
 46
0.7071067811865479
 79
     0
 98
        1
 10
375.4271128456121
 20
-82.33720674179108
1001
ACME_LAYERS
1000
1
  0
LINE
  5
41BF
330
1F
100
AcDbEntity
  8
P-0000
  6
Continuous
 62
     7
100
AcDbLine
 10
289.4081897709075
 20
482.7996287832378
 30
0.0
 11
288.1917939164196
 21
486.1416489265637
 31
0.0
1001
ACME_LAYERS
1000
1
  0
LINE
  5
41C0
330
1F
100
AcDbEntity
  8
P-0000
  6
Continuous
 62
     7
100
AcDbLine
 10
291.7760303984355
 20
482.1416489265629
 30
0.0
 11
290.3201494613704
 21
486.1416489265637
 31
0.0
1001
ACME_LAYERS
1000
1
  0
LINE
  5
41C1
330
1F
100
AcDbEntity
  8
P-0000
  6
Continuous
 62
     7
100
AcDbLine
 10
290.3201494613704
 20
486.1416489265637
 30
0.0
 11
288.1917939164196
 21
486.1416489265637
 31
0.0
1001
ACME_LAYERS
1000
1
  0
ARC
  5
41C2
330
1F
100
AcDbEntity
  8
P-0000
  6
Continuous
 62
     7
100
AcDbCircle
 10
290.3478823916925
 20
483.1416489265627
 30
0.0
 40
1.000000000000015
100
AcDbArc
 50
199.9999999999892
 51
270.0
1001
ACME_LAYERS
1000
1
  0
ARC
  5
41C3
330
1F
100
AcDbEntity
  8
P-0000
  6
Continuous
 62
     7
100
AcDbCircle
 10
290.3478823916925
 20
483.1416489265627
 30
0.0
 40
1.000000000000015
100
AcDbArc
 50
199.9999999999892
 51
270.0
1001
ACME_LAYERS
1000
1
  0
LINE
  5
41C4
330
1F
100
AcDbEntity
  8
P-0000
  6
Continuous
 62
     7
100
AcDbLine
 10
291.7760303984355
 20
482.1416489265629
 30
0.0
 11
290.3478823916925
 21
482.1416489265629
 31
0.0
1001
ACME_LAYERS
1000
1
  0
LINE
  5
41C5
330
1F
100
AcDbEntity
  8
P-0000
  6
Continuous
 62
     7
100
AcDbLine
 10
249.4782437822077
 20
454.1112980261948
 30
0.0
 11
250.9782437822078
 21
454.1112980261948
 31
0.0
1001
ACME_LAYERS
1000
1
  0
LINE
  5
41C6
330
1F
100
AcDbEntity
  8
P-0000
  6
Continuous
 62
     7
100
AcDbLine
 10
249.4782437822077
 20
454.1112980261948
 30
0.0
 11
250.9782437822078
 21
454.1112980261948
 31
0.0
1001
ACME_LAYERS
1000
1
  0
LINE
  5
41C7
330
1F
100
AcDbEntity
  8
P-0000
  6
Continuous
 62
     7
100
AcDbLine
 10
250.9782437822078
 20
448.141648926563
 30
0.0
 11
249.4782437822077
 21
448.141648926563
 31
0.0
1001
ACME_LAYERS
1000
1
  0
LINE
  5
41C8
330
1F
100
AcDbEntity
  8
P-0000
  6
Continuous
 62
     7
100
AcDbLine
 10
308.6245481531873
 20
478.2458906464722
 30
0.0
 11
325.9259141931866
 21
430.7107781258519
 31
0.0
1001
ACME_LAYERS
1000
1
  0
LINE
  5
41C9
330
1F
100
AcDbEntity
  8
P-0000
  6
Continuous
 62
     7
100
AcDbLine
 10
301.9782437822077
 20
454.1112980261948
 30
0.0
 11
295.7797029753642
 21
471.1416489265628
 31
0.0
1001
ACME_LAYERS
1000
1
  0
ARC
  5
41CA
330
1F
100
AcDbEntity
  8
P-0000
  6
Continuous
 62
     7
100
AcDbCircle
 10
297.3482367037572
 20
474.1416489265637
 30
0.0
 40
11.99999999999995
100
AcDbArc
 50
19.99999999998924
 51
90.0
1001
ACME_LAYERS
1000
1
  0
HATCH
  5
41CB
330
1F
100
AcDbEntity
  8
P-0000
  6
Continuous
 62
     3
100
AcDbHatch
 10
0.0
 20
0.0
 30
0.0
210
0.0
220
0.0
230
1.0
  2
_U
 70
     0
 71
     0
 91
        1
 92
        1
 93
        4
 72
     1
 10
304.1510183634863
 20
448.141648926563
 11
301.9782437822077
 21
454.1112980261948
 72
     1
 10
301.9782437822077
 20
454.1112980261948
 11
301.9782437822077
 21
449.1416489265637
 72
     2
 10
302.9782437822082
 20
449.1416489265637
 40
1.0
 50
180.0
 51
270.0
 73
     1
 72
     1
 10
302.9782437822082
 20
448.141648926563
 11
304.1510183634863
 21
448.141648926563
 97
        0
 75
     0
 76
     0
 52
44.99999999999999
 41
1.0
 77
     0
 78
     1
 53
45.0
 43
375.4271128456121
 44
-82.33720674179108
 45
-0.7071067811865474
 46
0.7071067811865479
 79
     0
 98
        1
 10
375.4271128456121
 20
-82.33720674179108
1001
ACME_LAYERS
1000
1
  0
LINE
  5
41CC
330
1F
100
AcDbEntity
  8
P-0000
  6
Continuous
 62
     7
100
AcDbLine
 10
304.1510183634863
 20
448.141648926563
 30
0.0
 11
302.9782437822082
 21
448.141648926563
 31
0.0
1001
ACME_LAYERS
1000
1
  0
LINE
  5
41CD
330
1F
100
AcDbEntity
  8
P-0000
  6
Continuous
 62
     7
100
AcDbLine
 10
304.1510183634863
 20
448.141648926563
 30
0.0
 11
301.9782437822077
 21
454.1112980261948
 31
0.0
1001
ACME_LAYERS
1000
1
  0
LINE
  5
41CE
330
1F
100
AcDbEntity
  8
P-0000
  6
Continuous
 62
     7
100
AcDbLine
 10
301.9782437822077
 20
449.1416489265637
 30
0.0
 11
301.9782437822077
 21
454.1112980261948
 31
0.0
1001
ACME_LAYERS
1000
1
  0
LINE
  5
41CF
330
1F
100
AcDbEntity
  8
P-0000
  6
Continuous
 62
     7
100
AcDbLine
 10
301.9782437822077
 20
449.1416489265637
 30
0.0
 11
301.9782437822077
 21
454.1112980261948
 31
0.0
1001
ACME_LAYERS
1000
1
  0
ARC
  5
41D0
330
1F
100
AcDbEntity
  8
P-0000
  6
Continuous
 62
     7
100
AcDbCircle
 10
302.9782437822082
 20
449.1416489265637
 30
0.0
 40
1.0
100
AcDbArc
 50
180.0
 51
270.0
1001
ACME_LAYERS
1000
1
  0
ARC
  5
41D1
330
1F
100
AcDbEntity
  8
P-0000
  6
Continuous
 62
     7
100
AcDbCircle
 10
302.9782437822082
 20
449.1416489265637
 30
0.0
 40
1.0
100
AcDbArc
 50
180.0
 51
270.0
1001
ACME_LAYERS
1000
1
  0
LINE
  5
41D2
330
1F
100
AcDbEntity
  8
P-0000
  6
Continuous
 62
     7
100
AcDbLine
 10
250.9782437822078
 20
412.1416489265627
 30
0.0
 11
317.2539467970723
 21
412.1416489265627
 31
0.0
1001
ACME_LAYERS
1000
1
  0
LINE
  5
41D3
330
1F
100
AcDbEntity
  8
P-0000
  6
Continuous
 62
     7
100
AcDbLine
 10
250.9782437822078
 20
412.1416489265627
 30
0.0
 11
317.2539467970723
 21
412.1416489265627
 31
0.0
1001
ACME_LAYERS
1000
1
  0
LINE
  5
41D4
330
1F
100
AcDbEntity
  8
P-0000
  6
Continuous
 62
     7
100
AcDbLine
 10
250.9782437822078
 20
412.1416489265627
 30
0.0
 11
317.2539467970723
 21
412.1416489265627
 31
0.0
1001
ACME_LAYERS
1000
1
  0
LINE
  5
41D5
330
1F
100
AcDbEntity
  8
P-0000
  6
Continuous
 62
     7
100
AcDbLine
 10
317.2539467970723
 20
406.1416489265638
 30
0.0
 11
250.9782437822078
 21
406.1416489265638
 31
0.0
1001
ACME_LAYERS
1000
1
  0
LINE
  5
41D6
330
1F
100
AcDbEntity
  8
P-0000
  6
Continuous
 62
     7
100
AcDbLine
 10
249.4782437822077
 20
412.1416489265627
 30
0.0
 11
250.9782437822078
 21
412.1416489265627
 31
0.0
1001
ACME_LAYERS
1000
1
  0
LINE
  5
41D7
330
1F
100
AcDbEntity
  8
P-0000
  6
Continuous
 62
     7
100
AcDbLine
 10
249.4782437822077
 20
412.1416489265627
 30
0.0
 11
250.9782437822078
 21
412.1416489265627
 31
0.0
1001
ACME_LAYERS
1000
1
  0
LINE
  5
41D8
330
1F
100
AcDbEntity
  8
P-0000
  6
Continuous
 62
     7
100
AcDbLine
 10
249.4782437822077
 20
412.1416489265627
 30
0.0
 11
250.9782437822078
 21
412.1416489265627
 31
0.0
1001
ACME_LAYERS
1000
1
  0
LINE
  5
41D9
330
1F
100
AcDbEntity
  8
P-0000
  6
Continuous
 62
     7
100
AcDbLine
 10
250.9782437822078
 20
406.1416489265638
 30
0.0
 11
249.4782437822077
 21
406.1416489265638
 31
0.0
1001
ACME_LAYERS
1000
1
  0
LINE
  5
41DA
330
1F
100
AcDbEntity
  8
P-0000
  6
Continuous
 62
     7
100
AcDbLine
 10
326.9047034094715
 20
428.0215768557041
 30
0.0
 11
334.4782437822082
 21
407.2134456962881
 31
0.0
1001
ACME_LAYERS
1000
1
  0
LINE
  5
41DB
330
1F
100
AcDbEntity
  8
P-0000
  6
Continuous
 62
     7
100
AcDbLine
 10
328.4782437822082
 20
406.1416489265638
 30
0.0
 11
320.2539467970723
 21
406.1416489265638
 31
0.0
1001
ACME_LAYERS
1000
1
  0
LINE
  5
41DC
330
1F
100
AcDbEntity
  8
P-0000
  6
Continuous
 62
     7
100
AcDbLine
 10
320.2539467970723
 20
406.1416489265638
 30
0.0
 11
320.2539467970723
 21
412.1416489265627
 31
0.0
1001
ACME_LAYERS
1000
1
  0
LINE
  5
41DD
330
1F
100
AcDbEntity
  8
P-0000
  6
Continuous
 62
     7
100
AcDbLine
 10
317.2539467970723
 20
406.1416489265638
 30
0.0
 11
317.2539467970723
 21
412.1416489265627
 31
0.0
1001
ACME_LAYERS
1000
1
  0
LINE
  5
41DE
330
1F
100
AcDbEntity
  8
P-0000
  6
Continuous
 62
     7
100
AcDbLine
 10
317.2539467970723
 20
412.1416489265627
 30
0.0
 11
320.2539467970723
 21
412.1416489265627
 31
0.0
1001
ACME_LAYERS
1000
1
  0
LINE
  5
41DF
330
1F
100
AcDbEntity
  8
P-0000
  6
Continuous
 62
     7
100
AcDbLine
 10
317.2539467970723
 20
412.1416489265627
 30
0.0
 11
320.2539467970723
 21
412.1416489265627
 31
0.0
1001
ACME_LAYERS
1000
1
  0
LINE
  5
41E0
330
1F
100
AcDbEntity
  8
P-0000
  6
Continuous
 62
     7
100
AcDbLine
 10
320.2539467970723
 20
406.1416489265638
 30
0.0
 11
317.2539467970723
 21
406.1416489265638
 31
0.0
1001
ACME_LAYERS
1000
1
  0
LINE
  5
41E1
102
{ACAD_REACTORS
330
417D
102
}
330
1F
100
AcDbEntity
  8
P-0000
  6
Continuous
 62
     7
100
AcDbLine
 10
334.9782437822081
 20
403.941648926564
 30
0.0
 11
334.9782437822081
 21
406.1416489265638
 31
0.0
1001
ACME_LAYERS
1000
1
  0
LINE
  5
41E2
330
1F
100
AcDbEntity
  8
P-0000
  6
Continuous
 62
     7
100
AcDbLine
 10
333.7020135156572
 20
400.185081157771
 30
0.0
 11
328.4782437822082
 21
406.1416489265638
 31
0.0
1001
ACME_LAYERS
1000
1
  0
LINE
  5
41E3
330
1F
100
AcDbEntity
  8
P-0000
  6
Continuous
 62
     7
100
AcDbLine
 10
334.4782437822082
 20
406.1416489265638
 30
0.0
 11
334.4782437822082
 21
407.2134456962881
 31
0.0
1001
ACME_LAYERS
1000
1
  0
LINE
  5
41E4
102
{ACAD_REACTORS
330
417D
102
}
330
1F
100
AcDbEntity
  8
P-0000
  6
Continuous
 62
     7
100
AcDbLine
 10
334.9782437822081
 20
406.1416489265638
 30
0.0
 11
334.4782437822082
 21
406.1416489265638
 31
0.0
1001
ACME_LAYERS
1000
1
  0
LINE
  5
41E5
102
{ACAD_REACTORS
330
417D
102
}
330
1F
100
AcDbEntity
  8
P-0000
  6
Continuous
 62
     7
100
AcDbLine
 10
334.4782437822082
 20
406.1416489265638
 30
0.0
 11
334.4782437822082
 21
407.2134456962881
 31
0.0
1001
ACME_LAYERS
1000
1
  0
LINE
  5
41E6
330
1F
100
AcDbEntity
  8
P-0000
  6
Continuous
 62
     7
100
AcDbLine
 10
336.1782437822076
 20
402.4416489265638
 30
0.0
 11
334.6194165901374
 21
400.2441071553638
 31
0.0
1001
ACME_LAYERS
1000
1
  0
LINE
  5
41E7
330
1F
100
AcDbEntity
  8
P-0000
  6
Continuous
 62
     7
100
AcDbLine
 10
334.9782437822081
 20
403.941648926564
 30
0.0
 11
336.1782437822076
 21
403.941648926564
 31
0.0
1001
ACME_LAYERS
1000
1
  0
LINE
  5
41E8
330
1F
100
AcDbEntity
  8
P-0000
  6
Continuous
 62
     7
100
AcDbLine
 10
336.1782437822076
 20
403.941648926564
 30
0.0
 11
336.1782437822076
 21
402.4416489265638
 31
0.0
1001
ACME_LAYERS
1000
1
  0
ARC
  5
41E9
330
1F
100
AcDbEntity
  8
P-0000
  6
Continuous
 62
     7
100
AcDbCircle
 10
334.1300367880513
 20
400.5912489265638
 30
0.0
 40
0.6000000000000229
100
AcDbArc
 50
270.0
 51
324.6500000000132
1001
ACME_LAYERS
1000
1
  0
ARC
  5
41EA
330
1F
100
AcDbEntity
  8
P-0000
  6
Continuous
 62
     7
100
AcDbCircle
 10
334.1298103661134
 20
400.5602489265629
 30
0.0
 40
0.5689999999999894
100
AcDbArc
 50
221.2500000000013
 51
270.0
1001
ACME_LAYERS
1000
1
  0
LINE
  5
41EB
330
1F
100
AcDbEntity
  8
P-0000
  6
Continuous
 62
     7
100
AcDbLine
 10
334.1300367880513
 20
399.9912489265631
 30
0.0
 11
334.1298103661134
 21
399.9912489265631
 31
0.0
1001
ACME_LAYERS
1000
1
  0
HATCH
  5
41EC
330
1F
100
AcDbEntity
  8
P-0000
  6
Continuous
 62
     1
100
AcDbHatch
 10
0.0
 20
0.0
 30
0.0
210
0.0
220
0.0
230
1.0
  2
_U
 70
     0
 71
     0
 91
        1
 92
        1
 93
        4
 72
     1
 10
320.2539467970723
 20
412.1416489265627
 11
317.2539467970723
 21
412.1416489265627
 72
     1
 10
317.2539467970723
 20
412.1416489265627
 11
317.2539467970723
 21
406.1416489265638
 72
     1
 10
317.2539467970723
 20
406.1416489265638
 11
320.2539467970723
 21
406.1416489265638
 72
     1
 10
320.2539467970723
 20
406.1416489265638
 11
320.2539467970723
 21
412.1416489265627
 97
        0
 75
     0
 76
     0
 52
44.99999999999999
 41
1.0
 77
     0
 78
     1
 53
45.0
 43
-2342.841327598425
 44
-746.2919362696957
 45
-0.7071067811865475
 46
0.7071067811865476
 79
     0
 98
        1
 10
76.88721654614937
 20
524.639731958543
1001
GENIUS_GENODEF_13
1002
{
1000
HIER
1070
     0
1002
}
1002
{
1000
MANEDIT
1070
     0
1002
}
1002
{
1000
NOSEL
1070
     0
1002
}
1002
{
1000
BEHIND
1070
     0
1002
}
1002
{
1000
OTHER
1070
     0
1002
}
1002
{
1000
REACTOR
1002
}
1001
GENIUS_GENOBJ-N-HTC_13
1002
{
1000
OWNER
1000
GEN
1002
}
1001
GENIUS_GENHATCH_13
1002
{
1000
DATA
1040
135.0
1042
1.0
1000
_U
1070
     0
1011
318.0229236125196
1021
406.6002359730819
1031
0.0
1002
}
1002
{
1000
UCS
1010
0.0
1020
0.0
1030
0.0
1010
1.0
1020
0.0
1030
0.0
1010
0.0
1020
1.0
1030
0.0
1002
}
1001
ACAD
1010
0.0
1020
0.0
1030
0.0
  0
LINE
  5
41ED
330
1F
100
AcDbEntity
  8
P-0000
  6
Continuous
 62
     7
100
AcDbLine
 10
128.7107865444982
 20
389.1964718080871
 30
0.0
 11
138.7107865444982
 21
389.1964718080782
 31
0.0
1001
ACME_LAYERS
1000
1
  0
LINE
  5
41EE
330
1F
100
AcDbEntity
  8
P-0000
  6
Continuous
 62
     7
100
AcDbLine
 10
130.5107865445093
 20
400.3437532477969
 30
0.0
 11
133.7107865445091
 21
400.3437532477951
 31
0.0
1001
ACME_LAYERS
1000
1
  0
LINE
  5
41EF
330
1F
100
AcDbEntity
  8
P-0000
  6
Continuous
 62
     7
100
AcDbLine
 10
136.9107865445062
 20
399.743753247792
 30
0.0
 11
130.5107865445056
 21
399.743753247797
 31
0.0
1001
ACME_LAYERS
1000
1
  0
LINE
  5
41F0
330
1F
100
AcDbEntity
  8
P-0000
  6
Continuous
 62
     7
100
AcDbLine
 10
129.7107865445073
 20
399.743753247797
 30
0.0
 11
129.7107865445045
 21
396.796471808083
 31
0.0
1001
ACME_LAYERS
1000
1
  0
LINE
  5
41F1
330
1F
100
AcDbEntity
  8
P-0000
  6
Continuous
 62
     3
100
AcDbLine
 10
130.5107865445093
 20
400.3437532477969
 30
0.0
 11
130.5107865445024
 21
396.796471808083
 31
0.0
1001
ACME_LAYERS
1000
1
  0
LINE
  5
41F2
330
1F
100
AcDbEntity
  8
P-0000
  6
Continuous
 62
     7
100
AcDbLine
 10
130.5107865445056
 20
399.743753247797
 30
0.0
 11
129.7107865445073
 21
399.743753247797
 31
0.0
1001
ACME_LAYERS
1000
1
  0
LINE
  5
41F3
330
1F
100
AcDbEntity
  8
P-0000
  6
Continuous
 62
     3
100
AcDbLine
 10
130.5107865445093
 20
400.3437532477969
 30
0.0
 11
130.5107865445056
 21
399.743753247797
 31
0.0
1001
ACME_LAYERS
1000
1
  0
LINE
  5
41F4
330
1F
100
AcDbEntity
  8
P-0000
  6
Continuous
 62
     7
100
AcDbLine
 10
129.7107865445073
 20
399.743753247797
 30
0.0
 11
130.5107865445093
 21
400.3437532477969
 31
0.0
1001
ACME_LAYERS
1000
1
  0
LINE
  5
41F5
330
1F
100
AcDbEntity
  8
P-0000
  6
Continuous
 62
     7
100
AcDbLine
 10
137.7107865445086
 20
399.7437532477911
 30
0.0
 11
137.7107865445045
 21
396.7964718080771
 31
0.0
1001
ACME_LAYERS
1000
1
  0
LINE
  5
41F6
330
1F
100
AcDbEntity
  8
P-0000
  6
STRICHPUNKT
 62
     3
100
AcDbLine
 10
133.7107865445045
 20
396.7964718080788
 30
0.0
 11
133.7107865445091
 21
400.3437532477951
 31
0.0
1001
ACME_LAYERS
1000
1
  0
LINE
  5
41F7
330
1F
100
AcDbEntity
  8
P-0000
  6
Continuous
 62
     3
100
AcDbLine
 10
136.9107865445094
 20
400.3437532477908
 30
0.0
 11
136.9107865445044
 21
396.7964718080779
 31
0.0
1001
ACME_LAYERS
1000
1
  0
LINE
  5
41F8
330
1F
100
AcDbEntity
  8
P-0000
  6
Continuous
 62
     3
100
AcDbLine
 10
136.9107865445094
 20
400.3437532477908
 30
0.0
 11
136.9107865445062
 21
399.743753247792
 31
0.0
1001
ACME_LAYERS
1000
1
  0
LINE
  5
41F9
330
1F
100
AcDbEntity
  8
P-0000
  6
Continuous
 62
     7
100
AcDbLine
 10
137.7107865445086
 20
399.7437532477911
 30
0.0
 11
136.9107865445062
 21
399.743753247792
 31
0.0
1001
ACME_LAYERS
1000
1
  0
LINE
  5
41FA
330
1F
100
AcDbEntity
  8
P-0000
  6
Continuous
 62
     7
100
AcDbLine
 10
136.9107865445094
 20
400.3437532477908
 30
0.0
 11
137.7107865445086
 21
399.7437532477911
 31
0.0
1001
ACME_LAYERS
1000
1
  0
LINE
  5
41FB
330
1F
100
AcDbEntity
  8
P-0000
  6
Continuous
 62
     7
100
AcDbLine
 10
133.7107865445091
 20
400.3437532477951
 30
0.0
 11
136.9107865445094
 21
400.3437532477908
 31
0.0
1001
ACME_LAYERS
1000
1
  0
LINE
  5
41FC
330
1F
100
AcDbEntity
  8
P-0000
  6
Continuous
 62
     7
100
AcDbLine
 10
137.7107865445032
 20
396.7964718080771
 30
0.0
 11
130.5107865445024
 21
396.796471808083
 31
0.0
1001
ACME_LAYERS
1000
1
  0
LINE
  5
41FD
330
1F
100
AcDbEntity
  8
P-0000
  6
Continuous
 62
     7
100
AcDbLine
 10
130.5107865445024
 20
396.796471808083
 30
0.0
 11
129.7107865445045
 21
396.796471808083
 31
0.0
1001
ACME_LAYERS
1000
1
  0
LINE
  5
41FE
330
1F
100
AcDbEntity
  8
P-0000
  6
Continuous
 62
     7
100
AcDbLine
 10
125.2650884310774
 20
390.6964718080871
 30
0.0
 11
125.2650884310765
 21
389.1964718080903
 31
0.0
1001
ACME_LAYERS
1000
1
  0
LINE
  5
41FF
330
1F
100
AcDbEntity
  8
P-0000
  6
Continuous
 62
     7
100
AcDbLine
 10
142.2650884310765
 20
389.1964718080749
 30
0.0
 11
142.2650884310774
 21
390.6964718080717
 31
0.0
1001
ACME_LAYERS
1000
1
  0
LINE
  5
4200
330
1F
100
AcDbEntity
  8
P-0000
  6
Continuous
 62
     7
100
AcDbLine
 10
125.2650884310774
 20
390.796471808088
 30
0.0
 11
125.2650884310774
 21
390.6964718080871
 31
0.0
1001
ACME_LAYERS
1000
1
  0
LINE
  5
4201
330
1F
100
AcDbEntity
  8
P-0000
  6
Continuous
 62
     7
100
AcDbLine
 10
142.2650884310774
 20
390.796471808073
 30
0.0
 11
125.2650884310774
 21
390.796471808088
 31
0.0
1001
ACME_LAYERS
1000
1
  0
LINE
  5
4202
330
1F
100
AcDbEntity
  8
P-0000
  6
Continuous
 62
     7
100
AcDbLine
 10
142.2650884310774
 20
390.6964718080717
 30
0.0
 11
142.2650884310774
 21
390.796471808073
 31
0.0
1001
ACME_LAYERS
1000
1
  0
LINE
  5
4203
330
1F
100
AcDbEntity
  8
P-0000
  6
Continuous
 62
     7
100
AcDbLine
 10
141.2163400439672
 20
392.6834109999808
 30
0.0
 11
141.2163400439635
 21
391.3770283916738
 31
0.0
1001
ACME_LAYERS
1000
1
  0
LINE
  5
4204
330
1F
100
AcDbEntity
  8
P-0000
  6
Continuous
 62
     7
100
AcDbLine
 10
127.2107865444982
 20
390.7964718080862
 30
0.0
 11
140.2107865444982
 21
390.7964718080739
 31
0.0
1001
ACME_LAYERS
1000
1
  0
LINE
  5
4205
330
1F
100
AcDbEntity
  8
P-0000
  6
Continuous
 62
     7
100
AcDbLine
 10
126.2052330450356
 20
392.6834109999941
 30
0.0
 11
126.2052330450342
 21
391.3770283916861
 31
0.0
1001
ACME_LAYERS
1000
1
  0
LINE
  5
4206
330
1F
100
AcDbEntity
  8
P-0000
  6
Continuous
 62
     7
100
AcDbLine
 10
129.7107865445045
 20
396.796471808083
 30
0.0
 11
127.2107865445045
 21
396.7964718080862
 31
0.0
1001
ACME_LAYERS
1000
1
  0
LINE
  5
4207
330
1F
100
AcDbEntity
  8
P-0000
  6
Continuous
 62
     7
100
AcDbLine
 10
140.9696684553082
 20
391.2236153737081
 30
0.0
 11
140.2107865444982
 21
390.7964718080739
 31
0.0
1001
ACME_LAYERS
1000
1
  0
LINE
  5
4208
330
1F
100
AcDbEntity
  8
P-0000
  6
Continuous
 62
     7
100
AcDbLine
 10
140.9696684553131
 20
396.3693282424388
 30
0.0
 11
140.2107865445032
 21
396.7964718080739
 31
0.0
1001
ACME_LAYERS
1000
1
  0
LINE
  5
4209
330
1F
100
AcDbEntity
  8
P-0000
  6
Continuous
 62
     7
100
AcDbLine
 10
126.4519046336927
 20
391.2236153737208
 30
0.0
 11
127.2107865444982
 21
390.7964718080862
 31
0.0
1001
ACME_LAYERS
1000
1
  0
LINE
  5
420A
330
1F
100
AcDbEntity
  8
P-0000
  6
Continuous
 62
     7
100
AcDbLine
 10
126.4519046336963
 20
396.3693282424511
 30
0.0
 11
127.2107865445045
 21
396.7964718080862
 31
0.0
1001
ACME_LAYERS
1000
1
  0
LINE
  5
420B
330
1F
100
AcDbEntity
  8
P-0000
  6
Continuous
 62
     7
100
AcDbLine
 10
140.2107865445032
 20
396.7964718080739
 30
0.0
 11
137.7107865445032
 21
396.7964718080771
 31
0.0
1001
ACME_LAYERS
1000
1
  0
LINE
  5
420C
330
1F
100
AcDbEntity
  8
P-0000
  6
Continuous
 62
     7
100
AcDbLine
 10
126.2052330450383
 20
396.2159152244863
 30
0.0
 11
126.2052330450356
 21
392.6834109999941
 31
0.0
1001
ACME_LAYERS
1000
1
  0
LINE
  5
420D
330
1F
100
AcDbEntity
  8
P-0000
  6
Continuous
 62
     7
100
AcDbLine
 10
129.9580097947705
 20
396.2159152244831
 30
0.0
 11
129.9580097947655
 21
390.796471808083
 31
0.0
1001
ACME_LAYERS
1000
1
  0
LINE
  5
420E
330
1F
100
AcDbEntity
  8
P-0000
  6
Continuous
 62
     7
100
AcDbLine
 10
137.4635632942363
 20
396.2159152244763
 30
0.0
 11
137.4635632942304
 21
390.7964718080771
 31
0.0
1001
ACME_LAYERS
1000
1
  0
LINE
  5
420F
330
1F
100
AcDbEntity
  8
P-0000
  6
Continuous
 62
     7
100
AcDbLine
 10
141.216340043969
 20
396.2159152244721
 30
0.0
 11
141.2163400439672
 21
392.6834109999808
 31
0.0
1001
ACME_LAYERS
1000
1
  0
LINE
  5
4210
330
1F
100
AcDbEntity
  8
P-0000
  6
Continuous
 62
     7
100
AcDbLine
 10
125.2650884310765
 20
389.1964718080903
 30
0.0
 11
129.7107865444977
 21
389.1964718080858
 31
0.0
1001
ACME_LAYERS
1000
1
  0
LINE
  5
4211
330
1F
100
AcDbEntity
  8
P-0000
  6
Continuous
 62
     7
100
AcDbLine
 10
142.2650884310765
 20
389.1964718080749
 30
0.0
 11
138.2107865444995
 21
389.1964718080782
 31
0.0
1001
ACME_LAYERS
1000
1
  0
LINE
  5
4212
330
1F
100
AcDbEntity
  8
P-0000
  6
Continuous
 62
     7
100
AcDbLine
 10
137.7107865444946
 20
387.196471808079
 30
0.0
 11
138.2107865444982
 21
387.1964718080771
 31
0.0
1001
ACME_LAYERS
1000
1
  0
LINE
  5
4213
330
1F
100
AcDbEntity
  8
P-0000
  6
Continuous
 62
     7
100
AcDbLine
 10
136.9107865444985
 20
387.196471808079
 30
0.0
 11
137.7107865444946
 21
387.196471808079
 31
0.0
1001
ACME_LAYERS
1000
1
  0
LINE
  5
4214
330
1F
100
AcDbEntity
  8
P-0000
  6
Continuous
 62
     7
100
AcDbLine
 10
130.5107865444952
 20
387.1964718080849
 30
0.0
 11
136.9107865444985
 21
387.196471808079
 31
0.0
1001
ACME_LAYERS
1000
1
  0
LINE
  5
4215
330
1F
100
AcDbEntity
  8
P-0000
  6
Continuous
 62
     7
100
AcDbLine
 10
129.7107865444945
 20
387.1964718080858
 30
0.0
 11
130.5107865444952
 21
387.1964718080849
 31
0.0
1001
ACME_LAYERS
1000
1
  0
ARC
  5
4216
330
1F
100
AcDbEntity
  8
P-0000
  6
Continuous
 62
     7
100
AcDbCircle
 10
133.7107865445105
 20
403.215915224479
 30
0.0
 40
12.41944341639904
100
AcDbArc
 50
252.4120462259827
 51
287.5879537739637
1001
ACME_LAYERS
1000
1
  0
ARC
  5
4217
330
1F
100
AcDbEntity
  8
P-0000
  6
Continuous
 62
     7
100
AcDbCircle
 10
133.7107865444918
 20
384.3770283916792
 30
0.0
 40
12.41944341639904
100
AcDbArc
 50
72.41204622598274
 51
107.5879537739636
1001
ACME_LAYERS
1000
1
  0
ARC
  5
4218
330
1F
100
AcDbEntity
  8
P-0000
  6
Continuous
 62
     7
100
AcDbCircle
 10
139.3399516691015
 20
394.119041381025
 30
0.0
 40
3.322569572950221
100
AcDbArc
 50
235.6157525319106
 51
299.3733793947709
1001
ACME_LAYERS
1000
1
  0
ARC
  5
4219
330
1F
100
AcDbEntity
  8
P-0000
  6
Continuous
 62
     7
100
AcDbCircle
 10
139.339951669102
 20
393.4739022351241
 30
0.0
 40
3.322569572950149
100
AcDbArc
 50
55.61575253191065
 51
60.62662060510624
1001
ACME_LAYERS
1000
1
  0
ARC
  5
421A
330
1F
100
AcDbEntity
  8
P-0000
  6
Continuous
 62
     7
100
AcDbCircle
 10
128.0816214199044
 20
394.119041381035
 30
0.0
 40
3.322569572950221
100
AcDbArc
 50
235.6157525319106
 51
240.6266206051062
1001
ACME_LAYERS
1000
1
  0
ARC
  5
421B
330
1F
100
AcDbEntity
  8
P-0000
  6
Continuous
 62
     7
100
AcDbCircle
 10
128.0816214199044
 20
393.4739022351351
 30
0.0
 40
3.322569572949122
100
AcDbArc
 50
55.61575253191065
 51
119.3733793947709
1001
ACME_LAYERS
1000
1
  0
ARC
  5
421C
330
1F
100
AcDbEntity
  8
P-0000
  6
Continuous
 62
     7
100
AcDbCircle
 10
139.3399516691015
 20
394.119041381025
 30
0.0
 40
3.322569572949876
100
AcDbArc
 50
299.3733793947709
 51
304.3842474680243
1001
ACME_LAYERS
1000
1
  0
ARC
  5
421D
330
1F
100
AcDbEntity
  8
P-0000
  6
Continuous
 62
     7
100
AcDbCircle
 10
139.3399516691015
 20
393.473902235125
 30
0.0
 40
3.322569572949888
100
AcDbArc
 50
60.62662060510624
 51
124.3842474680243
1001
ACME_LAYERS
1000
1
  0
ARC
  5
421E
330
1F
100
AcDbEntity
  8
P-0000
  6
Continuous
 62
     7
100
AcDbCircle
 10
128.0816214199044
 20
394.119041381035
 30
0.0
 40
3.322569572949872
100
AcDbArc
 50
240.6266206051062
 51
304.3842474679592
1001
ACME_LAYERS
1000
1
  0
ARC
  5
421F
330
1F
100
AcDbEntity
  8
P-0000
  6
Continuous
 62
     7
100
AcDbCircle
 10
128.0816214199044
 20
393.4739022351351
 30
0.0
 40
3.322569572949884
100
AcDbArc
 50
119.3733793947709
 51
124.3842474680243
1001
ACME_LAYERS
1000
1
  0
LINE
  5
4220
330
1F
100
AcDbEntity
  8
P-0000
  6
Continuous
 62
     7
100
AcDbLine
 10
171.7621797848433
 20
397.1791395008068
 30
0.0
 11
171.7621797848396
 21
394.2964718080443
 31
0.0
1001
ACME_LAYERS
1000
1
  0
LINE
  5
4221
330
1F
100
AcDbEntity
  8
P-0000
  6
Continuous
 62
     3
100
AcDbLine
 10
170.9621797848413
 20
396.7172592854558
 30
0.0
 11
170.9621797848394
 21
394.2964718080443
 31
0.0
1001
ACME_LAYERS
1000
1
  0
LINE
  5
4222
330
1F
100
AcDbEntity
  8
P-0000
  6
Continuous
 62
     7
100
AcDbLine
 10
166.7692528796374
 20
394.2964718080478
 30
0.0
 11
170.9621797848381
 21
394.2964718080443
 31
0.0
1001
ACME_LAYERS
1000
1
  0
LINE
  5
4223
330
1F
100
AcDbEntity
  8
P-0000
  6
Continuous
 62
     7
100
AcDbLine
 10
170.9621797848381
 20
394.2964718080443
 30
0.0
 11
171.7621797848396
 21
394.2964718080443
 31
0.0
1001
ACME_LAYERS
1000
1
  0
LINE
  5
4224
330
1F
100
AcDbEntity
  8
P-0000
  6
Continuous
 62
     7
100
AcDbLine
 10
176.2078778982545
 20
388.196471808039
 30
0.0
 11
176.2078778982513
 21
386.6964718080422
 31
0.0
1001
ACME_LAYERS
1000
1
  0
LINE
  5
4225
330
1F
100
AcDbEntity
  8
P-0000
  6
Continuous
 62
     7
100
AcDbLine
 10
159.2078778982527
 20
386.6964718080571
 30
0.0
 11
159.2078778982545
 21
388.1964718080553
 31
0.0
1001
ACME_LAYERS
1000
1
  0
LINE
  5
4226
330
1F
100
AcDbEntity
  8
P-0000
  6
Continuous
 62
     7
100
AcDbLine
 10
176.2078778982545
 20
388.2964718080402
 30
0.0
 11
176.2078778982545
 21
388.196471808039
 31
0.0
1001
ACME_LAYERS
1000
1
  0
LINE
  5
4227
330
1F
100
AcDbEntity
  8
P-0000
  6
Continuous
 62
     7
100
AcDbLine
 10
159.2078778982545
 20
388.2964718080552
 30
0.0
 11
176.2078778982545
 21
388.2964718080402
 31
0.0
1001
ACME_LAYERS
1000
1
  0
LINE
  5
4228
330
1F
100
AcDbEntity
  8
P-0000
  6
Continuous
 62
     7
100
AcDbLine
 10
159.2078778982545
 20
388.1964718080553
 30
0.0
 11
159.2078778982545
 21
388.2964718080552
 31
0.0
1001
ACME_LAYERS
1000
1
  0
LINE
  5
4229
330
1F
100
AcDbEntity
  8
P-0000
  6
Continuous
 62
     7
100
AcDbLine
 10
160.2566262853715
 20
390.1834109999609
 30
0.0
 11
160.2566262853693
 21
388.8770283916551
 31
0.0
1001
ACME_LAYERS
1000
1
  0
LINE
  5
422A
330
1F
100
AcDbEntity
  8
P-0000
  6
Continuous
 62
     7
100
AcDbLine
 10
174.2621797848346
 20
388.296471808042
 30
0.0
 11
161.2621797848346
 21
388.2964718080539
 31
0.0
1001
ACME_LAYERS
1000
1
  0
LINE
  5
422B
330
1F
100
AcDbEntity
  8
P-0000
  6
Continuous
 62
     7
100
AcDbLine
 10
175.2677332843004
 20
390.1834109999482
 30
0.0
 11
175.2677332842995
 21
388.877028391641
 31
0.0
1001
ACME_LAYERS
1000
1
  0
LINE
  5
422C
330
1F
100
AcDbEntity
  8
P-0000
  6
Continuous
 62
     7
100
AcDbLine
 10
171.7621797848396
 20
394.2964718080443
 30
0.0
 11
174.2621797848423
 21
394.296471808042
 31
0.0
1001
ACME_LAYERS
1000
1
  0
LINE
  5
422D
330
1F
100
AcDbEntity
  8
P-0000
  6
Continuous
 62
     7
100
AcDbLine
 10
164.0094030351042
 20
390.1834109999576
 30
0.0
 11
164.0094030351024
 21
388.877028391651
 31
0.0
1001
ACME_LAYERS
1000
1
  0
LINE
  5
422E
330
1F
100
AcDbEntity
  8
P-0000
  6
Continuous
 62
     7
100
AcDbLine
 10
171.5149565345673
 20
390.1834109999513
 30
0.0
 11
171.5149565345673
 21
388.8770283916442
 31
0.0
1001
ACME_LAYERS
1000
1
  0
LINE
  5
422F
330
1F
100
AcDbEntity
  8
P-0000
  6
Continuous
 62
     7
100
AcDbLine
 10
160.5032978740246
 20
388.7236153736872
 30
0.0
 11
161.2621797848346
 21
388.2964718080539
 31
0.0
1001
ACME_LAYERS
1000
1
  0
LINE
  5
4230
330
1F
100
AcDbEntity
  8
P-0000
  6
Continuous
 62
     7
100
AcDbLine
 10
175.0210616956433
 20
388.723615373674
 30
0.0
 11
174.2621797848346
 21
388.296471808042
 31
0.0
1001
ACME_LAYERS
1000
1
  0
LINE
  5
4231
330
1F
100
AcDbEntity
  8
P-0000
  6
Continuous
 62
     7
100
AcDbLine
 10
175.0210616956474
 20
393.869328242406
 30
0.0
 11
174.2621797848423
 21
394.296471808042
 31
0.0
1001
ACME_LAYERS
1000
1
  0
LINE
  5
4232
330
1F
100
AcDbEntity
  8
P-0000
  6
Continuous
 62
     7
100
AcDbLine
 10
175.2677332843041
 20
393.715915224439
 30
0.0
 11
175.2677332843004
 21
390.1834109999482
 31
0.0
1001
ACME_LAYERS
1000
1
  0
LINE
  5
4233
330
1F
100
AcDbEntity
  8
P-0000
  6
Continuous
 62
     7
100
AcDbLine
 10
171.5149565345714
 20
393.7159152244431
 30
0.0
 11
171.5149565345673
 21
390.1834109999513
 31
0.0
1001
ACME_LAYERS
1000
1
  0
LINE
  5
4234
330
1F
100
AcDbEntity
  8
P-0000
  6
Continuous
 62
     7
100
AcDbLine
 10
164.009403035106
 20
392.7030717573888
 30
0.0
 11
164.0094030351042
 21
390.1834109999576
 31
0.0
1001
ACME_LAYERS
1000
1
  0
LINE
  5
4235
330
1F
100
AcDbEntity
  8
P-0000
  6
Continuous
 62
     7
100
AcDbLine
 10
160.2566262853715
 20
390.5364050907251
 30
0.0
 11
160.2566262853715
 21
390.1834109999609
 31
0.0
1001
ACME_LAYERS
1000
1
  0
ARC
  5
4236
330
1F
100
AcDbEntity
  8
P-0000
  6
Continuous
 62
     7
100
AcDbCircle
 10
167.7621797848455
 20
400.715915224447
 30
0.0
 40
12.41944341639904
100
AcDbArc
 50
252.4120462259827
 51
287.5879537739637
1001
ACME_LAYERS
1000
1
  0
ARC
  5
4237
330
1F
100
AcDbEntity
  8
P-0000
  6
Continuous
 62
     7
100
AcDbCircle
 10
167.7621797848314
 20
381.8770283916478
 30
0.0
 40
12.41944341639904
100
AcDbArc
 50
72.41204622598274
 51
94.95831806924392
1001
ACME_LAYERS
1000
1
  0
ARC
  5
4238
330
1F
100
AcDbEntity
  8
P-0000
  6
Continuous
 62
     7
100
AcDbCircle
 10
162.1330146602386
 20
391.6190413810018
 30
0.0
 40
3.322569572950221
100
AcDbArc
 50
240.6266206051062
 51
304.3842474680243
1001
ACME_LAYERS
1000
1
  0
ARC
  5
4239
330
1F
100
AcDbEntity
  8
P-0000
  6
Continuous
 62
     7
100
AcDbCircle
 10
173.3913449094352
 20
391.6190413809923
 30
0.0
 40
3.322569572950221
100
AcDbArc
 50
299.3733793947709
 51
304.3842474680243
1001
ACME_LAYERS
1000
1
  0
ARC
  5
423A
330
1F
100
AcDbEntity
  8
P-0000
  6
Continuous
 62
     7
100
AcDbCircle
 10
173.3913449094352
 20
390.9739022350931
 30
0.0
 40
3.322569572949122
100
AcDbArc
 50
60.62662060510624
 51
124.3842474679592
1001
ACME_LAYERS
1000
1
  0
ARC
  5
423B
330
1F
100
AcDbEntity
  8
P-0000
  6
Continuous
 62
     7
100
AcDbCircle
 10
162.1330146602386
 20
391.6190413810018
 30
0.0
 40
3.322569572949876
100
AcDbArc
 50
235.6157525319106
 51
240.6266206051062
1001
ACME_LAYERS
1000
1
  0
ARC
  5
423C
330
1F
100
AcDbEntity
  8
P-0000
  6
Continuous
 62
     7
100
AcDbCircle
 10
173.3913449094352
 20
391.6190413809923
 30
0.0
 40
3.322569572949872
100
AcDbArc
 50
235.6157525319106
 51
299.3733793947709
1001
ACME_LAYERS
1000
1
  0
ARC
  5
423D
330
1F
100
AcDbEntity
  8
P-0000
  6
Continuous
 62
     7
100
AcDbCircle
 10
173.3913449094352
 20
390.9739022350931
 30
0.0
 40
3.322569572949884
100
AcDbArc
 50
55.61575253191065
 51
60.62662060510624
1001
ACME_LAYERS
1000
1
  0
HATCH
  5
423E
330
1F
100
AcDbEntity
  8
P-0000
  6
Continuous
 62
     1
100
AcDbHatch
 10
0.0
 20
0.0
 30
0.0
210
0.0
220
0.0
230
1.0
  2
_U
 70
     0
 71
     0
 91
        1
 92
        1
 93
       16
 72
     1
 10
165.4607865445045
 20
406.1908205096218
 11
165.4607865445045
 21
406.1416489266397
 72
     1
 10
165.4607865445045
 20
406.1416489266407
 11
164.9607865445045
 21
406.1416489266407
 72
     1
 10
164.9607865445045
 20
406.1416489266407
 11
164.9607865445032
 21
404.1908205096219
 72
     1
 10
164.9607865445032
 20
404.1908205096219
 11
157.8998953761884
 21
404.1908205096286
 72
     2
 10
157.8998953761884
 20
403.6908205096294
 40
0.5
 50
449.9999999999478
 51
539.9999999999478
 73
     1
 72
     1
 10
157.3998953761884
 20
403.6908205096294
 11
157.3998953761761
 21
391.1964718080609
 72
     2
 10
153.3998953761775
 20
391.1964718080639
 40
4.000000000000068
 50
0.0000000000521102
 51
90.00000000005211
 73
     0
 72
     1
 10
153.3998953761743
 20
387.1964718080653
 11
138.7107865444964
 21
387.1964718080771
 72
     1
 10
138.7107865444964
 20
387.1964718080771
 11
138.7107865444982
 21
389.1964718080782
 72
     1
 10
138.7107865444982
 20
389.1964718080782
 11
153.4607865444923
 21
389.1964718080631
 72
     2
 10
153.4607865444923
 20
391.1964718080639
 40
1.999999999999999
 50
269.9999999999479
 51
359.9999999999479
 73
     1
 72
     1
 10
155.4607865444923
 20
391.1964718080621
 11
155.4607865445073
 21
408.6908205096309
 72
     1
 10
155.4607865445073
 20
408.6908205096309
 11
157.4607865445073
 21
408.6908205096295
 72
     1
 10
157.4607865445073
 20
408.6908205096295
 11
157.4607865445064
 21
406.6908205096296
 72
     2
 10
157.9607865445046
 20
406.6908205096296
 40
0.5
 50
539.9999999999478
 51
629.9999999999479
 73
     1
 72
     1
 10
157.9607865445046
 20
406.1908205096288
 11
165.4607865445045
 21
406.1908205096218
 97
        0
 75
     0
 76
     0
 52
-45.0
 41
2.0
 77
     0
 78
     1
 53
315.0
 43
-2342.841327598425
 44
-746.2919362696957
 45
1.414213562373094
 46
1.414213562373094
 79
     0
 98
        1
 10
124.5216777123596
 20
-102.2248478334381
1001
ACME_LAYERS
1000
1
1001
ACAD
1010
0.0
1020
0.0
1030
0.0
  0
LINE
  5
423F
330
1F
100
AcDbEntity
  8
P-0000
  6
Continuous
 62
     7
100
AcDbLine
 10
185.4607865445155
 20
408.690820509605
 30
0.0
 11
182.6850835296441
 21
408.690820509607
 31
0.0
1001
ACME_LAYERS
1000
1
  0
LINE
  5
4240
330
1F
100
AcDbEntity
  8
P-0000
  6
Continuous
 62
     7
100
AcDbLine
 10
165.9985070013904
 20
408.690820509622
 30
0.0
 11
157.4607865445073
 21
408.6908205096295
 31
0.0
1001
ACME_LAYERS
1000
1
  0
LINE
  5
4241
330
1F
100
AcDbEntity
  8
P-0000
  6
Continuous
 62
     7
100
AcDbLine
 10
183.906767538574
 20
404.190820509605
 30
0.0
 11
155.3998953761738
 21
387.7323701929249
 31
0.0
1001
ACME_LAYERS
1000
1
  0
LINE
  5
4242
330
1F
100
AcDbEntity
  8
P-0000
  6
Continuous
 62
     7
100
AcDbLine
 10
157.8998953761884
 20
404.1908205096295
 30
0.0
 11
164.9607865445032
 21
404.1908205096219
 31
0.0
1001
ACME_LAYERS
1000
1
  0
LINE
  5
4243
330
1F
100
AcDbEntity
  8
P-0000
  6
Continuous
 62
     7
100
AcDbLine
 10
165.4607865445045
 20
406.1908205096218
 30
0.0
 11
157.9607865445046
 21
406.1908205096288
 31
0.0
1001
ACME_LAYERS
1000
1
  0
LINE
  5
4244
330
1F
100
AcDbEntity
  8
P-0000
  6
Continuous
 62
     7
100
AcDbLine
 10
250.4510263127863
 20
408.6908205095451
 30
0.0
 11
185.4607865445155
 21
408.690820509605
 31
0.0
1001
ACME_LAYERS
1000
1
  0
LINE
  5
4245
330
1F
100
AcDbEntity
  8
P-0000
  6
Continuous
 62
     7
100
AcDbLine
 10
250.4510263127845
 20
406.1908205095459
 30
0.0
 11
195.4607865445032
 21
406.190820509595
 31
0.0
1001
ACME_LAYERS
1000
1
  0
LINE
  5
4246
330
1F
100
AcDbEntity
  8
P-0000
  6
Continuous
 62
     7
100
AcDbLine
 10
240.4607865444964
 20
404.1908205095551
 30
0.0
 11
189.4607865445109
 21
404.1908205096008
 31
0.0
1001
ACME_LAYERS
1000
1
  0
HATCH
  5
4247
330
1F
100
AcDbEntity
  8
P-0000
  6
Continuous
 62
     1
100
AcDbHatch
 10
0.0
 20
0.0
 30
0.0
210
0.0
220
0.0
230
1.0
  2
_U
 70
     0
 71
     0
 91
        1
 92
        1
 93
       11
 72
     1
 10
184.9607865445123
 20
406.1908205096051
 11
173.4607865445046
 21
406.190820509616
 72
     1
 10
173.4607865445046
 20
406.190820509615
 11
173.4607865445032
 21
404.1908205096137
 72
     1
 10
173.4607865445032
 20
404.1908205096151
 11
183.906767538574
 21
404.190820509606
 72
     1
 10
183.906767538574
 20
404.190820509605
 11
189.4607865445109
 21
404.1908205096008
 72
     1
 10
189.4607865445109
 20
404.1908205096008
 11
189.4607865445123
 21
406.190820509601
 72
     1
 10
189.4607865445123
 20
406.190820509601
 11
187.9607865445123
 21
406.190820509602
 72
     2
 10
187.9607865445136
 20
406.6908205096011
 40
0.5
 50
-269.9999999999479
 51
-179.9999999999479
 73
     0
 72
     1
 10
187.4607865445137
 20
406.6908205096019
 11
187.4607865445154
 21
408.6908205096028
 72
     1
 10
187.4607865445154
 20
408.6908205096028
 11
185.4607865445155
 21
408.6908205096038
 72
     1
 10
185.4607865445155
 20
408.690820509605
 11
185.4607865445137
 21
406.690820509605
 72
     2
 10
184.9607865445123
 20
406.690820509605
 40
0.5
 50
0.0000000000521102
 51
90.00000000005211
 73
     0
 97
        0
 75
     0
 76
     0
 52
-45.0
 41
2.0
 77
     0
 78
     1
 53
315.0
 43
-2342.841327598425
 44
-746.2919362696957
 45
1.414213562373094
 46
1.414213562373094
 79
     0
 98
        1
 10
124.5216777123596
 20
-102.2248478334381
1001
ACME_LAYERS
1000
1
1001
ACAD
1010
0.0
1020
0.0
1030
0.0
  0
LINE
  5
4248
330
1F
100
AcDbEntity
  8
P-0000
  6
Continuous
 62
     7
100
AcDbLine
 10
184.9607865445123
 20
406.1908205096051
 30
0.0
 11
173.4607865445046
 21
406.190820509615
 31
0.0
1001
ACME_LAYERS
1000
1
  0
LINE
  5
4249
330
1F
100
AcDbEntity
  8
P-0000
  6
Continuous
 62
     7
100
AcDbLine
 10
189.4607865445109
 20
404.1908205096008
 30
0.0
 11
183.906767538574
 21
404.190820509605
 31
0.0
1001
ACME_LAYERS
1000
1
  0
LINE
  5
424A
330
1F
100
AcDbEntity
  8
P-0000
  6
Continuous
 62
     7
100
AcDbLine
 10
195.4607865445032
 20
406.190820509595
 30
0.0
 11
189.4607865445123
 21
406.190820509601
 31
0.0
1001
ACME_LAYERS
1000
1
  0
LINE
  5
424B
330
1F
100
AcDbEntity
  8
P-0000
  6
Continuous
 62
     7
100
AcDbLine
 10
189.4607865445109
 20
404.1908205096008
 30
0.0
 11
189.4607865445123
 21
406.190820509601
 31
0.0
1001
ACME_LAYERS
1000
1
  0
LINE
  5
424C
330
1F
100
AcDbEntity
  8
P-0000
  6
Continuous
 62
     7
100
AcDbLine
 10
189.4607865445123
 20
406.190820509601
 30
0.0
 11
187.9607865445123
 21
406.190820509602
 31
0.0
1001
ACME_LAYERS
1000
1
  0
LINE
  5
424D
330
1F
100
AcDbEntity
  8
P-0000
  6
Continuous
 62
     7
100
AcDbLine
 10
185.4607865445137
 20
406.690820509605
 30
0.0
 11
185.4607865445155
 21
408.690820509605
 31
0.0
1001
ACME_LAYERS
1000
1
  0
LINE
  5
424E
330
1F
100
AcDbEntity
  8
P-0000
  6
Continuous
 62
     7
100
AcDbLine
 10
187.4607865445137
 20
406.6908205096019
 30
0.0
 11
187.4607865445154
 21
408.6908205096028
 31
0.0
1001
ACME_LAYERS
1000
1
  0
LINE
  5
424F
330
1F
100
AcDbEntity
  8
P-0000
  6
Continuous
 62
     7
100
AcDbLine
 10
185.4607865445155
 20
408.690820509605
 30
0.0
 11
187.4607865445154
 21
408.6908205096028
 31
0.0
1001
ACME_LAYERS
1000
1
  0
ARC
  5
4250
330
1F
100
AcDbEntity
  8
P-0000
  6
Continuous
 62
     7
100
AcDbCircle
 10
184.9607865445123
 20
406.690820509605
 30
0.0
 40
0.5
100
AcDbArc
 50
269.9999999999479
 51
359.9999999999479
1001
ACME_LAYERS
1000
1
  0
ARC
  5
4251
330
1F
100
AcDbEntity
  8
P-0000
  6
Continuous
 62
     7
100
AcDbCircle
 10
187.9607865445136
 20
406.6908205096011
 30
0.0
 40
0.5
100
AcDbArc
 50
179.9999999999479
 51
269.9999999999479
1001
ACME_LAYERS
1000
1
  0
LINE
  5
4252
330
1F
100
AcDbEntity
  8
P-0000
  6
Continuous
 62
     7
100
AcDbLine
 10
169.7499559394423
 20
404.1908205096192
 30
0.0
 11
173.4607865445032
 21
404.1908205096151
 31
0.0
1001
ACME_LAYERS
1000
1
  0
LINE
  5
4253
330
1F
100
AcDbEntity
  8
P-0000
  6
Continuous
 62
     7
100
AcDbLine
 10
173.4607865445046
 20
406.190820509615
 30
0.0
 11
165.4607865445045
 21
406.1908205096218
 31
0.0
1001
ACME_LAYERS
1000
1
  0
LINE
  5
4254
330
1F
100
AcDbEntity
  8
P-0000
  6
Continuous
 62
     7
100
AcDbLine
 10
173.4607865445032
 20
404.1908205096151
 30
0.0
 11
183.906767538574
 21
404.190820509605
 31
0.0
1001
ACME_LAYERS
1000
1
  0
LINE
  5
4255
330
1F
100
AcDbEntity
  8
P-0000
  6
Continuous
 62
     7
100
AcDbLine
 10
173.4607865445046
 20
406.190820509615
 30
0.0
 11
173.4607865445032
 21
404.1908205096151
 31
0.0
1001
ACME_LAYERS
1000
1
  0
LINE
  5
4256
330
1F
100
AcDbEntity
  8
P-0000
  6
Continuous
 62
     7
100
AcDbLine
 10
167.9510263127827
 20
406.1908205096201
 30
0.0
 11
166.9510263127827
 21
406.1908205096201
 31
0.0
1001
ACME_LAYERS
1000
1
  0
LINE
  5
4257
330
1F
100
AcDbEntity
  8
P-0000
  6
Continuous
 62
     7
100
AcDbLine
 10
167.9510263127827
 20
406.1908205096201
 30
0.0
 11
166.9510263127827
 21
406.1908205096201
 31
0.0
1001
ACME_LAYERS
1000
1
  0
LINE
  5
4258
330
1F
100
AcDbEntity
  8
P-0000
  6
Continuous
 62
     7
100
AcDbLine
 10
128.7107865444982
 20
389.1964718080871
 30
0.0
 11
138.7107865444982
 21
389.1964718080782
 31
0.0
1001
ACME_LAYERS
1000
1
  0
LINE
  5
4259
330
1F
100
AcDbEntity
  8
P-0000
  6
Continuous
 62
     7
100
AcDbLine
 10
128.7107865444977
 20
387.1964718080872
 30
0.0
 11
138.7107865444964
 21
387.1964718080771
 31
0.0
1001
ACME_LAYERS
1000
1
  0
LINE
  5
425A
330
1F
100
AcDbEntity
  8
P-0000
  6
Continuous
 62
     7
100
AcDbLine
 10
157.3998953761761
 20
391.1964718080609
 30
0.0
 11
157.3998953761884
 21
403.6908205096294
 31
0.0
1001
ACME_LAYERS
1000
1
  0
LINE
  5
425B
330
1F
100
AcDbEntity
  8
P-0000
  6
Continuous
 62
     7
100
AcDbLine
 10
155.4607865444923
 20
391.1964718080621
 30
0.0
 11
155.4607865445045
 21
406.1908205096308
 31
0.0
1001
ACME_LAYERS
1000
1
  0
LINE
  5
425C
330
1F
100
AcDbEntity
  8
P-0000
  6
Continuous
 62
     7
100
AcDbLine
 10
145.6490947469365
 20
389.1964718080717
 30
0.0
 11
155.4607865445045
 21
406.1908205096308
 31
0.0
1001
ACME_LAYERS
1000
1
  0
LINE
  5
425D
330
1F
100
AcDbEntity
  8
P-0000
  6
Continuous
 62
     7
100
AcDbLine
 10
155.4607865445073
 20
408.6908205096309
 30
0.0
 11
157.4607865445073
 21
408.6908205096295
 31
0.0
1001
ACME_LAYERS
1000
1
  0
LINE
  5
425E
330
1F
100
AcDbEntity
  8
P-0000
  6
Continuous
 62
     7
100
AcDbLine
 10
157.4607865445073
 20
408.6908205096295
 30
0.0
 11
157.4607865445055
 21
406.6908205096296
 31
0.0
1001
ACME_LAYERS
1000
1
  0
ARC
  5
425F
330
1F
100
AcDbEntity
  8
P-0000
  6
Continuous
 62
     7
100
AcDbCircle
 10
157.9607865445046
 20
406.6908205096296
 30
0.0
 40
0.5
100
AcDbArc
 50
179.9999999999479
 51
269.9999999999479
1001
ACME_LAYERS
1000
1
  0
ARC
  5
4260
330
1F
100
AcDbEntity
  8
P-0000
  6
Continuous
 62
     7
100
AcDbCircle
 10
157.8998953761884
 20
403.6908205096294
 30
0.0
 40
0.5
100
AcDbArc
 50
89.99999999994789
 51
179.9999999999479
1001
ACME_LAYERS
1000
1
  0
LINE
  5
4261
330
1F
100
AcDbEntity
  8
P-0000
  6
Continuous
 62
     7
100
AcDbLine
 10
155.4607865445073
 20
408.6908205096309
 30
0.0
 11
155.4607865445045
 21
406.1908205096308
 31
0.0
1001
ACME_LAYERS
1000
1
  0
LINE
  5
4262
330
1F
100
AcDbEntity
  8
P-0000
  6
Continuous
 62
     7
100
AcDbLine
 10
145.6490947469365
 20
389.1964718080717
 30
0.0
 11
153.4607865444923
 21
389.1964718080631
 31
0.0
1001
ACME_LAYERS
1000
1
  0
LINE
  5
4263
330
1F
100
AcDbEntity
  8
P-0000
  6
Continuous
 62
     7
100
AcDbLine
 10
138.7107865444964
 20
387.1964718080771
 30
0.0
 11
153.3998953761743
 21
387.1964718080653
 31
0.0
1001
ACME_LAYERS
1000
1
  0
ARC
  5
4264
330
1F
100
AcDbEntity
  8
P-0000
  6
Continuous
 62
     7
100
AcDbCircle
 10
153.4607865444923
 20
391.1964718080639
 30
0.0
 40
2.0
100
AcDbArc
 50
269.9999999999479
 51
359.9999999999479
1001
ACME_LAYERS
1000
1
  0
ARC
  5
4265
330
1F
100
AcDbEntity
  8
P-0000
  6
Continuous
 62
     7
100
AcDbCircle
 10
153.3998953761775
 20
391.1964718080639
 30
0.0
 40
4.0
100
AcDbArc
 50
299.9999999999391
 51
359.9999999999479
1001
ACME_LAYERS
1000
1
  0
ARC
  5
4266
330
1F
100
AcDbEntity
  8
P-0000
  6
Continuous
 62
     7
100
AcDbCircle
 10
153.3998953761775
 20
391.1964718080639
 30
0.0
 40
4.000000000000031
100
AcDbArc
 50
269.9999999999479
 51
299.9999999999391
1001
ACME_LAYERS
1000
1
  0
LINE
  5
4267
330
1F
100
AcDbEntity
  8
P-0000
  6
Continuous
 62
     7
100
AcDbLine
 10
138.7107865444982
 20
389.1964718080782
 30
0.0
 11
145.6490947469365
 21
389.1964718080717
 31
0.0
1001
ACME_LAYERS
1000
1
  0
LINE
  5
4268
330
1F
100
AcDbEntity
  8
P-0000
  6
Continuous
 62
     7
100
AcDbLine
 10
138.7107865444964
 20
387.1964718080771
 30
0.0
 11
138.7107865444982
 21
389.1964718080782
 31
0.0
1001
ACME_LAYERS
1000
1
  0
HATCH
  5
4269
330
1F
100
AcDbEntity
  8
P-0000
  6
Continuous
 62
     1
100
AcDbHatch
 10
0.0
 20
0.0
 30
0.0
210
0.0
220
0.0
230
1.0
  2
_U
 70
     0
 71
     0
 91
        1
 92
        1
 93
        4
 72
     1
 10
123.7107865444964
 20
387.1964718080913
 11
128.7107865444977
 21
387.1964718080872
 72
     1
 10
128.7107865444977
 20
387.1964718080872
 11
128.7107865444982
 21
389.1964718080871
 72
     1
 10
128.7107865444982
 20
389.1964718080871
 11
123.7107865444982
 21
389.1964718080922
 72
     1
 10
123.7107865444982
 20
389.1964718080922
 11
123.7107865444964
 21
387.1964718080913
 97
        0
 75
     0
 76
     0
 52
-45.0
 41
2.0
 77
     0
 78
     1
 53
315.0
 43
-2342.841327598425
 44
-746.2919362696957
 45
1.414213562373094
 46
1.414213562373094
 79
     0
 98
        1
 10
124.5216777123596
 20
-102.2248478334381
1001
ACME_LAYERS
1000
1
1001
ACAD
1010
0.0
1020
0.0
1030
0.0
  0
LINE
  5
426A
330
1F
100
AcDbEntity
  8
P-0000
  6
Continuous
 62
     7
100
AcDbLine
 10
123.7107865444982
 20
389.1964718080922
 30
0.0
 11
128.7107865444982
 21
389.1964718080871
 31
0.0
1001
ACME_LAYERS
1000
1
  0
LINE
  5
426B
330
1F
100
AcDbEntity
  8
P-0000
  6
Continuous
 62
     7
100
AcDbLine
 10
123.7107865444964
 20
387.1964718080913
 30
0.0
 11
128.7107865444977
 21
387.1964718080872
 31
0.0
1001
ACME_LAYERS
1000
1
  0
LINE
  5
426C
330
1F
100
AcDbEntity
  8
P-0000
  6
Continuous
 62
     7
100
AcDbLine
 10
128.7107865444977
 20
387.1964718080872
 30
0.0
 11
128.7107865444982
 21
389.1964718080871
 31
0.0
1001
ACME_LAYERS
1000
1
  0
LINE
  5
426D
330
1F
100
AcDbEntity
  8
P-0000
  6
Continuous
 62
     7
100
AcDbLine
 10
123.7107865444964
 20
387.1964718080913
 30
0.0
 11
123.7107865444982
 21
389.1964718080922
 31
0.0
1001
ACME_LAYERS
1000
1
  0
LINE
  5
426E
330
1F
100
AcDbEntity
  8
P-0000
  6
Continuous
 62
     7
100
AcDbLine
 10
248.9607865445446
 20
448.1416489265638
 30
0.0
 11
248.9607865445105
 21
412.1416489265648
 31
0.0
1001
ACME_LAYERS
1000
1
  0
LINE
  5
426F
330
1F
100
AcDbEntity
  8
P-0000
  6
Continuous
 62
     7
100
AcDbLine
 10
174.0131161335475
 20
430.710778125921
 30
0.0
 11
173.0343269172604
 21
428.0215768557749
 31
0.0
1001
ACME_LAYERS
1000
1
  0
LINE
  5
4270
330
1F
100
AcDbEntity
  8
P-0000
  6
Continuous
 62
     7
100
AcDbLine
 10
182.6850835296454
 20
412.1416489266253
 30
0.0
 11
195.7880119632641
 21
448.141648926613
 31
0.0
1001
ACME_LAYERS
1000
1
  0
LINE
  5
4271
330
1F
100
AcDbEntity
  8
P-0000
  6
Continuous
 62
     7
100
AcDbLine
 10
248.9607865445496
 20
454.1112980261959
 30
0.0
 11
197.9607865445482
 21
454.1112980262428
 31
0.0
1001
ACME_LAYERS
1000
1
  0
LINE
  5
4272
330
1F
100
AcDbEntity
  8
P-0000
  6
Continuous
 62
     7
100
AcDbLine
 10
248.9607865445496
 20
454.1112980261959
 30
0.0
 11
197.9607865445482
 21
454.1112980262428
 31
0.0
1001
ACME_LAYERS
1000
1
  0
LINE
  5
4273
330
1F
100
AcDbEntity
  8
P-0000
  6
Continuous
 62
     7
100
AcDbLine
 10
202.5907936230292
 20
486.1416489266071
 30
0.0
 11
209.6188808654147
 21
486.1416489266007
 31
0.0
1001
ACME_LAYERS
1000
1
  0
LINE
  5
4274
330
1F
100
AcDbEntity
  8
P-0000
  6
Continuous
 62
     7
100
AcDbLine
 10
196.9607865445423
 20
448.1416489266121
 30
0.0
 11
248.9607865445446
 21
448.1416489265638
 31
0.0
1001
ACME_LAYERS
1000
1
  0
LINE
  5
4275
330
1F
100
AcDbEntity
  8
P-0000
  6
Continuous
 62
     7
100
AcDbLine
 10
204.1593273514077
 20
471.1416489266048
 30
0.0
 11
246.3566234885298
 21
471.1416489265661
 31
0.0
1001
ACME_LAYERS
1000
1
  0
LINE
  5
4276
330
1F
100
AcDbEntity
  8
P-0000
  6
Continuous
 62
     7
100
AcDbLine
 10
248.9607865445637
 20
471.1416489265628
 30
0.0
 11
248.9607865445496
 21
454.1112980261959
 31
0.0
1001
ACME_LAYERS
1000
1
  0
LINE
  5
4277
330
1F
100
AcDbEntity
  8
P-0000
  6
Continuous
 62
     7
100
AcDbLine
 10
211.7472364103664
 20
486.1416489265979
 30
0.0
 11
246.3566234885457
 21
486.141648926567
 31
0.0
1001
ACME_LAYERS
1000
1
  0
LINE
  5
4278
330
1F
100
AcDbEntity
  8
P-0000
  6
Continuous
 62
     7
100
AcDbLine
 10
246.3566234885457
 20
486.141648926567
 30
0.0
 11
246.3566234885298
 21
471.1416489265661
 31
0.0
1001
ACME_LAYERS
1000
1
  0
LINE
  5
4279
330
1F
100
AcDbEntity
  8
P-0000
  6
Continuous
 62
     7
100
AcDbLine
 10
246.3566234885457
 20
486.141648926567
 30
0.0
 11
250.4607865445783
 21
486.1416489265629
 31
0.0
1001
ACME_LAYERS
1000
1
  0
LINE
  5
427A
330
1F
100
AcDbEntity
  8
P-0000
  6
Continuous
 62
     7
100
AcDbLine
 10
246.3566234885298
 20
471.1416489265661
 30
0.0
 11
248.9607865445637
 21
471.1416489265628
 31
0.0
1001
ACME_LAYERS
1000
1
  0
HATCH
  5
427B
330
1F
100
AcDbEntity
  8
P-0000
  6
Continuous
 62
     1
100
AcDbHatch
 10
0.0
 20
0.0
 30
0.0
210
0.0
220
0.0
230
1.0
  2
_U
 70
     0
 71
     0
 91
        1
 92
        1
 93
        5
 72
     1
 10
208.1629999283455
 20
482.141648926602
 11
209.6188808654147
 21
486.1416489265998
 72
     1
 10
209.6188808654147
 20
486.1416489266007
 11
211.7472364103664
 21
486.1416489265979
 72
     1
 10
211.7472364103664
 20
486.1416489265979
 11
210.5308405558749
 21
482.7996287832738
 72
     2
 10
209.5911479350893
 20
483.1416489266007
 40
1.000000000000015
 50
20.00000000005522
 51
90.00000000005211
 73
     0
 72
     1
 10
209.5911479350884
 20
482.1416489265998
 11
208.1629999283455
 21
482.141648926602
 97
        0
 75
     0
 76
     0
 52
44.99999999999999
 41
1.0
 77
     0
 78
     1
 53
45.0
 43
-2342.841327598425
 44
-746.2919362696957
 45
-0.7071067811865475
 46
0.7071067811865476
 79
     0
 98
        1
 10
124.5119174806564
 20
-82.33720674167694
1001
ACME_LAYERS
1000
1
1001
ACAD
1010
0.0
1020
0.0
1030
0.0
  0
LINE
  5
427C
330
1F
100
AcDbEntity
  8
P-0000
  6
Continuous
 62
     7
100
AcDbLine
 10
210.5308405558749
 20
482.7996287832738
 30
0.0
 11
211.7472364103664
 21
486.1416489265979
 31
0.0
1001
ACME_LAYERS
1000
1
  0
LINE
  5
427D
330
1F
100
AcDbEntity
  8
P-0000
  6
Continuous
 62
     7
100
AcDbLine
 10
208.1629999283455
 20
482.141648926602
 30
0.0
 11
209.6188808654147
 21
486.1416489266007
 31
0.0
1001
ACME_LAYERS
1000
1
  0
LINE
  5
427E
330
1F
100
AcDbEntity
  8
P-0000
  6
Continuous
 62
     7
100
AcDbLine
 10
209.6188808654147
 20
486.1416489266007
 30
0.0
 11
211.7472364103664
 21
486.1416489265979
 31
0.0
1001
ACME_LAYERS
1000
1
  0
ARC
  5
427F
330
1F
100
AcDbEntity
  8
P-0000
  6
Continuous
 62
     7
100
AcDbCircle
 10
209.5911479350893
 20
483.1416489266007
 30
0.0
 40
1.000000000000015
100
AcDbArc
 50
269.9999999999479
 51
339.9999999999284
1001
ACME_LAYERS
1000
1
  0
ARC
  5
4280
330
1F
100
AcDbEntity
  8
P-0000
  6
Continuous
 62
     7
100
AcDbCircle
 10
209.5911479350893
 20
483.1416489266007
 30
0.0
 40
1.000000000000015
100
AcDbArc
 50
269.9999999999479
 51
339.9999999999284
1001
ACME_LAYERS
1000
1
  0
LINE
  5
4281
330
1F
100
AcDbEntity
  8
P-0000
  6
Continuous
 62
     7
100
AcDbLine
 10
208.1629999283455
 20
482.141648926602
 30
0.0
 11
209.5911479350884
 21
482.1416489265998
 31
0.0
1001
ACME_LAYERS
1000
1
  0
LINE
  5
4282
330
1F
100
AcDbEntity
  8
P-0000
  6
Continuous
 62
     7
100
AcDbLine
 10
250.4607865445496
 20
454.1112980261948
 30
0.0
 11
248.9607865445496
 21
454.1112980261959
 31
0.0
1001
ACME_LAYERS
1000
1
  0
LINE
  5
4283
330
1F
100
AcDbEntity
  8
P-0000
  6
Continuous
 62
     7
100
AcDbLine
 10
250.4607865445496
 20
454.1112980261948
 30
0.0
 11
248.9607865445496
 21
454.1112980261959
 31
0.0
1001
ACME_LAYERS
1000
1
  0
LINE
  5
4284
330
1F
100
AcDbEntity
  8
P-0000
  6
Continuous
 62
     7
100
AcDbLine
 10
248.9607865445446
 20
448.1416489265638
 30
0.0
 11
250.4607865445423
 21
448.1416489265621
 31
0.0
1001
ACME_LAYERS
1000
1
  0
LINE
  5
4285
330
1F
100
AcDbEntity
  8
P-0000
  6
Continuous
 62
     7
100
AcDbLine
 10
191.3144821735899
 20
478.2458906465238
 30
0.0
 11
174.0131161335475
 21
430.710778125921
 31
0.0
1001
ACME_LAYERS
1000
1
  0
LINE
  5
4286
330
1F
100
AcDbEntity
  8
P-0000
  6
Continuous
 62
     7
100
AcDbLine
 10
197.9607865445482
 20
454.1112980262428
 30
0.0
 11
204.1593273514077
 21
471.1416489266048
 31
0.0
1001
ACME_LAYERS
1000
1
  0
ARC
  5
4287
330
1F
100
AcDbEntity
  8
P-0000
  6
Continuous
 62
     7
100
AcDbCircle
 10
202.5907936230183
 20
474.1416489266071
 30
0.0
 40
11.99999999999995
100
AcDbArc
 50
89.99999999994789
 51
159.9999999999529
1001
ACME_LAYERS
1000
1
  0
HATCH
  5
4288
330
1F
100
AcDbEntity
  8
P-0000
  6
Continuous
 62
     3
100
AcDbHatch
 10
0.0
 20
0.0
 30
0.0
210
0.0
220
0.0
230
1.0
  2
_U
 70
     0
 71
     0
 91
        1
 92
        1
 93
        4
 72
     1
 10
195.7880119632641
 20
448.141648926613
 11
197.9607865445482
 21
454.1112980262428
 72
     1
 10
197.9607865445482
 20
454.1112980262428
 11
197.9607865445446
 21
449.1416489266103
 72
     2
 10
196.9607865445436
 20
449.1416489266121
 40
1.0
 50
0.0000000000521102
 51
90.00000000005211
 73
     0
 72
     1
 10
196.9607865445423
 20
448.1416489266121
 11
195.7880119632637
 21
448.141648926613
 97
        0
 75
     0
 76
     0
 52
44.99999999999999
 41
1.0
 77
     0
 78
     1
 53
45.0
 43
-2342.841327598425
 44
-746.2919362696957
 45
-0.7071067811865475
 46
0.7071067811865476
 79
     0
 98
        1
 10
124.5119174806564
 20
-82.33720674167694
1001
ACME_LAYERS
1000
1
1001
ACAD
1010
0.0
1020
0.0
1030
0.0
  0
LINE
  5
4289
330
1F
100
AcDbEntity
  8
P-0000
  6
Continuous
 62
     7
100
AcDbLine
 10
195.7880119632641
 20
448.141648926613
 30
0.0
 11
196.9607865445423
 21
448.1416489266121
 31
0.0
1001
ACME_LAYERS
1000
1
  0
LINE
  5
428A
330
1F
100
AcDbEntity
  8
P-0000
  6
Continuous
 62
     7
100
AcDbLine
 10
195.7880119632641
 20
448.141648926613
 30
0.0
 11
197.9607865445482
 21
454.1112980262428
 31
0.0
1001
ACME_LAYERS
1000
1
  0
LINE
  5
428B
330
1F
100
AcDbEntity
  8
P-0000
  6
Continuous
 62
     7
100
AcDbLine
 10
197.9607865445436
 20
449.1416489266112
 30
0.0
 11
197.9607865445482
 21
454.1112980262428
 31
0.0
1001
ACME_LAYERS
1000
1
  0
LINE
  5
428C
330
1F
100
AcDbEntity
  8
P-0000
  6
Continuous
 62
     7
100
AcDbLine
 10
197.9607865445436
 20
449.1416489266112
 30
0.0
 11
197.9607865445482
 21
454.1112980262428
 31
0.0
1001
ACME_LAYERS
1000
1
  0
ARC
  5
428D
330
1F
100
AcDbEntity
  8
P-0000
  6
Continuous
 62
     7
100
AcDbCircle
 10
196.9607865445436
 20
449.1416489266121
 30
0.0
 40
1.0
100
AcDbArc
 50
269.9999999999479
 51
359.9999999999479
1001
ACME_LAYERS
1000
1
  0
ARC
  5
428E
330
1F
100
AcDbEntity
  8
P-0000
  6
Continuous
 62
     3
100
AcDbCircle
 10
196.9607865445436
 20
449.1416489266121
 30
0.0
 40
1.0
100
AcDbArc
 50
269.9999999999479
 51
359.9999999999479
1001
ACME_LAYERS
1000
1
  0
LINE
  5
428F
330
1F
100
AcDbEntity
  8
P-0000
  6
Continuous
 62
     7
100
AcDbLine
 10
248.9607865445105
 20
412.1416489265648
 30
0.0
 11
182.6850835296454
 21
412.1416489266253
 31
0.0
1001
ACME_LAYERS
1000
1
  0
LINE
  5
4290
330
1F
100
AcDbEntity
  8
P-0000
  6
Continuous
 62
     7
100
AcDbLine
 10
248.9607865445105
 20
412.1416489265648
 30
0.0
 11
182.6850835296454
 21
412.1416489266253
 31
0.0
1001
ACME_LAYERS
1000
1
  0
LINE
  5
4291
330
1F
100
AcDbEntity
  8
P-0000
  6
Continuous
 62
     7
100
AcDbLine
 10
248.9607865445105
 20
412.1416489265648
 30
0.0
 11
182.6850835296454
 21
412.1416489266253
 31
0.0
1001
ACME_LAYERS
1000
1
  0
LINE
  5
4292
330
1F
100
AcDbEntity
  8
P-0000
  6
Continuous
 62
     7
100
AcDbLine
 10
182.6850835296395
 20
406.1416489266238
 30
0.0
 11
248.9607865445055
 21
406.1416489265638
 31
0.0
1001
ACME_LAYERS
1000
1
  0
LINE
  5
4293
330
1F
100
AcDbEntity
  8
P-0000
  6
Continuous
 62
     7
100
AcDbLine
 10
173.0343269172604
 20
428.0215768557749
 30
0.0
 11
165.4607865445055
 21
407.2134456963639
 31
0.0
1001
ACME_LAYERS
1000
1
  0
LINE
  5
4294
330
1F
100
AcDbEntity
  8
P-0000
  6
Continuous
 62
     7
100
AcDbLine
 10
171.4607865445055
 20
406.1416489266353
 30
0.0
 11
179.6850835296395
 21
406.1416489266271
 31
0.0
1001
ACME_LAYERS
1000
1
  0
LINE
  5
4295
330
1F
100
AcDbEntity
  8
P-0000
  6
Continuous
 62
     7
100
AcDbLine
 10
179.6850835296395
 20
406.1416489266271
 30
0.0
 11
179.6850835296454
 21
412.1416489266279
 31
0.0
1001
ACME_LAYERS
1000
1
  0
LINE
  5
4296
330
1F
100
AcDbEntity
  8
P-0000
  6
Continuous
 62
     7
100
AcDbLine
 10
182.6850835296395
 20
406.1416489266238
 30
0.0
 11
182.6850835296454
 21
412.1416489266253
 31
0.0
1001
ACME_LAYERS
1000
1
  0
LINE
  5
4297
330
1F
100
AcDbEntity
  8
P-0000
  6
Continuous
 62
     7
100
AcDbLine
 10
182.6850835296454
 20
412.1416489266253
 30
0.0
 11
179.6850835296454
 21
412.1416489266279
 31
0.0
1001
ACME_LAYERS
1000
1
  0
LINE
  5
4298
330
1F
100
AcDbEntity
  8
P-0000
  6
Continuous
 62
     7
100
AcDbLine
 10
182.6850835296454
 20
412.1416489266253
 30
0.0
 11
179.6850835296454
 21
412.1416489266279
 31
0.0
1001
ACME_LAYERS
1000
1
  0
LINE
  5
4299
330
1F
100
AcDbEntity
  8
P-0000
  6
Continuous
 62
     7
100
AcDbLine
 10
179.6850835296395
 20
406.1416489266271
 30
0.0
 11
182.6850835296395
 21
406.1416489266238
 31
0.0
1001
ACME_LAYERS
1000
1
  0
LINE
  5
429A
330
1F
100
AcDbEntity
  8
P-0000
  6
Continuous
 62
     7
100
AcDbLine
 10
164.9607865445032
 20
403.9416489266407
 30
0.0
 11
164.9607865445045
 21
406.1416489266407
 31
0.0
1001
ACME_LAYERS
1000
1
  0
LINE
  5
429B
330
1F
100
AcDbEntity
  8
P-0000
  6
Continuous
 62
     7
100
AcDbLine
 10
166.2370168110486
 20
400.1850811578479
 30
0.0
 11
171.4607865445055
 21
406.1416489266353
 31
0.0
1001
ACME_LAYERS
1000
1
  0
LINE
  5
429C
330
1F
100
AcDbEntity
  8
P-0000
  6
Continuous
 62
     7
100
AcDbLine
 10
165.4607865445045
 20
406.1416489266407
 30
0.0
 11
165.4607865445055
 21
407.2134456963639
 31
0.0
1001
ACME_LAYERS
1000
1
  0
LINE
  5
429D
330
1F
100
AcDbEntity
  8
P-0000
  6
Continuous
 62
     7
100
AcDbLine
 10
164.9607865445045
 20
406.1416489266407
 30
0.0
 11
165.4607865445045
 21
406.1416489266407
 31
0.0
1001
ACME_LAYERS
1000
1
  0
LINE
  5
429E
330
1F
100
AcDbEntity
  8
P-0000
  6
Continuous
 62
     7
100
AcDbLine
 10
165.4607865445045
 20
406.1416489266407
 30
0.0
 11
165.4607865445055
 21
407.2134456963639
 31
0.0
1001
ACME_LAYERS
1000
1
  0
LINE
  5
429F
330
1F
100
AcDbEntity
  8
P-0000
  6
Continuous
 62
     7
100
AcDbLine
 10
163.7607865445025
 20
402.4416489266409
 30
0.0
 11
165.3196137365703
 21
400.2441071554398
 31
0.0
1001
ACME_LAYERS
1000
1
  0
LINE
  5
42A0
330
1F
100
AcDbEntity
  8
P-0000
  6
Continuous
 62
     7
100
AcDbLine
 10
164.9607865445032
 20
403.9416489266407
 30
0.0
 11
163.7607865445034
 21
403.9416489266407
 31
0.0
1001
ACME_LAYERS
1000
1
  0
LINE
  5
42A1
330
1F
100
AcDbEntity
  8
P-0000
  6
Continuous
 62
     7
100
AcDbLine
 10
163.7607865445034
 20
403.9416489266407
 30
0.0
 11
163.7607865445025
 21
402.4416489266409
 31
0.0
1001
ACME_LAYERS
1000
1
  0
ARC
  5
42A2
330
1F
100
AcDbEntity
  8
P-0000
  6
Continuous
 62
     7
100
AcDbCircle
 10
165.8089935386542
 20
400.5912489266401
 30
0.0
 40
0.6000000000000229
100
AcDbArc
 50
215.3499999999398
 51
269.9999999999479
1001
ACME_LAYERS
1000
1
  0
ARC
  5
42A3
330
1F
100
AcDbEntity
  8
P-0000
  6
Continuous
 62
     7
100
AcDbCircle
 10
165.8092199605926
 20
400.5602489266396
 30
0.0
 40
0.5689999999999894
100
AcDbArc
 50
269.9999999999479
 51
318.7499999999251
1001
ACME_LAYERS
1000
1
  0
LINE
  5
42A4
330
1F
100
AcDbEntity
  8
P-0000
  6
Continuous
 62
     7
100
AcDbLine
 10
165.8089935386542
 20
399.9912489266399
 30
0.0
 11
165.8092199605926
 21
399.9912489266399
 31
0.0
1001
ACME_LAYERS
1000
1
  0
HATCH
  5
42A5
330
1F
100
AcDbEntity
  8
P-0000
  6
Continuous
 62
     1
100
AcDbHatch
 10
0.0
 20
0.0
 30
0.0
210
0.0
220
0.0
230
1.0
  2
_U
 70
     0
 71
     0
 91
        1
 92
        1
 93
        4
 72
     1
 10
179.6850835296454
 20
412.1416489266279
 11
182.6850835296454
 21
412.1416489266253
 72
     1
 10
182.6850835296454
 20
412.1416489266253
 11
182.6850835296404
 21
406.1416489266238
 72
     1
 10
182.6850835296395
 20
406.1416489266238
 11
179.6850835296395
 21
406.1416489266271
 72
     1
 10
179.6850835296395
 20
406.1416489266271
 11
179.6850835296454
 21
412.1416489266279
 97
        0
 75
     0
 76
     0
 52
44.99999999999999
 41
1.0
 77
     0
 78
     1
 53
45.0
 43
-2342.841327598425
 44
-746.2919362696957
 45
-0.7071067811865475
 46
0.7071067811865476
 79
     0
 98
        1
 10
423.0518137806725
 20
524.6397319583857
1001
GENIUS_GENODEF_13
1002
{
1000
HIER
1070
     0
1002
}
1002
{
1000
MANEDIT
1070
     0
1002
}
1002
{
1000
NOSEL
1070
     0
1002
}
1002
{
1000
BEHIND
1070
     0
1002
}
1002
{
1000
OTHER
1070
     0
1002
}
1002
{
1000
REACTOR
1002
}
1001
GENIUS_GENOBJ-N-HTC_13
1002
{
1000
OWNER
1000
GEN
1002
}
1001
GENIUS_GENHATCH_13
1002
{
1000
DATA
1040
135.0
1042
-1.0
1000
_U
1070
     0
1011
181.916106714193
1021
406.6002359731436
1031
0.0
1002
}
1002
{
1000
UCS
1010
0.0
1020
0.0
1030
0.0
1010
1.0
1020
0.0
1030
0.0
1010
0.0
1020
1.0
1030
0.0
1002
}
1001
ACAD
1010
0.0
1020
0.0
1030
0.0
  0
HATCH
  5
42A6
330
1F
100
AcDbEntity
  8
AM_8
100
AcDbHatch
 10
0.0
 20
0.0
 30
0.0
210
0.0
220
0.0
230
1.0
  2
_U
 70
     0
 71
     0
 91
        1
 92
        1
 93
        5
 72
     1
 10
250.4607865445783
 20
486.1416489265629
 11
249.9695151633436
 21
486.1416489265637
 72
     1
 10
249.9695151633436
 20
486.1416489265637
 11
249.9695151633436
 21
471.1416489265628
 72
     1
 10
249.9695151633436
 20
471.1416489265628
 11
253.5824068382403
 21
471.1416489265628
 72
     1
 10
253.5824068382421
 20
471.1416489265628
 11
253.5824068382421
 21
486.1416489265637
 72
     1
 10
253.5824068382421
 20
486.1416489265637
 11
250.4607865445783
 21
486.1416489265629
 97
        0
 75
     0
 76
     0
 52
45.0
 41
2.5
 77
     0
 78
     1
 53
45.0
 43
-2342.841327598425
 44
-746.2919362696957
 45
-1.767766952966368
 46
1.767766952966368
 79
     0
 98
        1
 10
-2342.841327598425
 20
-746.2919362696957
1001
GENIUS_GENODEF_13
1002
{
1000
HIER
1070
     0
1002
}
1002
{
1000
MANEDIT
1070
     0
1002
}
1002
{
1000
NOSEL
1070
     0
1002
}
1002
{
1000
BEHIND
1070
     0
1002
}
1002
{
1000
OTHER
1070
     0
1002
}
1002
{
1000
REACTOR
1002
}
1001
GENIUS_GENOBJ-N-HTC_13
1002
{
1000
OWNER
1000
GEN
1002
}
1001
GENIUS_GENHATCH_13
1002
{
1000
DATA
1040
45.0
1042
2.5
1000
_U
1070
     0
1011
252.3340420322352
1021
483.751178789755
1031
0.0
1002
}
1002
{
1000
UCS
1010
0.0
1020
0.0
1030
0.0
1010
1.0
1020
0.0
1030
0.0
1010
0.0
1020
1.0
1030
0.0
1002
}
  0
HATCH
  5
42A7
330
1F
100
AcDbEntity
  8
AM_8
100
AcDbHatch
 10
0.0
 20
0.0
 30
0.0
210
0.0
220
0.0
230
1.0
  2
_U
 70
     0
 71
     0
 91
        1
 92
        1
 93
        8
 72
     1
 10
249.4782437822077
 20
486.1416489265637
 11
246.3566234885457
 21
486.141648926567
 72
     1
 10
246.3566234885457
 20
486.141648926567
 11
246.3566234885302
 21
471.1416489265661
 72
     1
 10
246.3566234885298
 20
471.1416489265661
 11
247.9782437822077
 21
471.1416489265628
 72
     1
 10
247.9782437822077
 20
471.1416489265628
 11
248.9607865445641
 21
471.1416489265628
 72
     1
 10
248.9607865445637
 20
471.1416489265628
 11
249.4782437822077
 21
471.1416489265628
 72
     1
 10
249.4782437822077
 20
471.1416489265628
 11
249.9695151633436
 21
471.1416489265628
 72
     1
 10
249.9695151633436
 20
471.1416489265628
 11
249.9695151633436
 21
486.1416489265637
 72
     1
 10
249.9695151633436
 20
486.1416489265637
 11
249.4782437822077
 21
486.1416489265637
 97
        0
 75
     0
 76
     0
 52
45.0
 41
2.5
 77
     0
 78
     1
 53
45.0
 43
-2342.841327598425
 44
-746.2919362696957
 45
-1.767766952966368
 46
1.767766952966368
 79
     0
 98
        1
 10
-2342.841327598425
 20
-746.2919362696957
1001
GENIUS_GENOBJ-N-HTC_13
1002
{
1000
OWNER
1000
GEN
1002
}
1001
GENIUS_GENODEF_13
1002
{
1000
HIER
1070
     0
1002
}
1002
{
1000
MANEDIT
1070
     0
1002
}
1002
{
1000
NOSEL
1070
     0
1002
}
1002
{
1000
BEHIND
1070
     0
1002
}
1002
{
1000
OTHER
1070
     0
1002
}
1002
{
1000
REACTOR
1002
}
1001
GENIUS_GENHATCH_13
1002
{
1000
DATA
1040
45.0
1042
2.5
1000
_U
1070
     0
1011
249.2351382994857
1021
482.4045584203997
1031
0.0
1002
}
1002
{
1000
UCS
1010
0.0
1020
0.0
1030
0.0
1010
1.0
1020
0.0
1030
0.0
1010
0.0
1020
1.0
1030
0.0
1002
}
  0
LINE
  5
42A8
330
1F
100
AcDbEntity
  8
AM_7
  6
AM_DIN_G_W050x2
100
AcDbLine
 10
133.7107865445064
 20
399.2159152244799
 30
0.0
 11
133.7282437821995
 21
387.1964718079772
 31
0.0
1001
GENIUS_GENOBJ-N-CEN_13
1002
{
1000
OWNER
1000
GEN
1002
}
1001
GENIUS_GENODEF_13
1002
{
1000
HIER
1070
     0
1002
}
1002
{
1000
MANEDIT
1070
     0
1002
}
1002
{
1000
NOSEL
1070
     0
1002
}
1002
{
1000
BEHIND
1070
     0
1002
}
1002
{
1000
OTHER
1070
     0
1002
}
1002
{
1000
REACTOR
1002
}
1001
GENIUS_GENCEN_19
1002
{
1040
3.0
1002
}
  0
LINE
  5
42A9
330
1F
100
AcDbEntity
  8
AM_7
  6
AM_DIN_G_W050x2
100
AcDbLine
 10
366.2282437821996
 20
399.2159152243739
 30
0.0
 11
366.2282437821996
 21
371.9999990181823
 31
0.0
1001
GENIUS_GENODEF_13
1002
{
1000
HIER
1070
     0
1002
}
1002
{
1000
MANEDIT
1070
     0
1002
}
1002
{
1000
NOSEL
1070
     0
1002
}
1002
{
1000
BEHIND
1070
     0
1002
}
1002
{
1000
OTHER
1070
     0
1002
}
1002
{
1000
REACTOR
1002
}
1001
GENIUS_GENOBJ-N-CEN_13
1002
{
1000
OWNER
1000
GEN
1002
}
1001
GENIUS_GENCEN_19
1002
{
1040
3.0
1002
}
  0
LINE
  5
42AA
330
1F
100
AcDbEntity
  8
P-0000
  6
Continuous
 62
     7
100
AcDbLine
 10
250.0435088451463
 20
386.7059189231272
 30
0.0
 11
250.0347802263104
 21
386.7059189231272
 31
0.0
1001
ACME_LAYERS
1000
1
  0
LINE
  5
42AB
330
1F
100
AcDbEntity
  8
P-0000
  6
Continuous
 62
     7
100
AcDbLine
 10
250.0435088451463
 20
384.9738681155592
 30
0.0
 11
250.0347802262872
 21
384.9738681155592
 31
0.0
1001
ACME_LAYERS
1000
1
  0
LINE
  5
42AC
330
1F
100
AcDbEntity
  8
P-0000
  6
Continuous
 62
     7
100
AcDbLine
 10
258.5522374640027
 20
387.2059189231291
 30
0.0
 11
255.0522374640027
 21
387.2059189231291
 31
0.0
1001
ACME_LAYERS
1000
1
  0
LINE
  5
42AD
330
1F
100
AcDbEntity
  8
P-0000
  6
Continuous
 62
     7
100
AcDbLine
 10
255.0522374640027
 20
387.2059189231291
 30
0.0
 11
250.0522374640032
 21
387.2059189231291
 31
0.0
1001
ACME_LAYERS
1000
1
  0
LINE
  5
42AE
330
1F
100
AcDbEntity
  8
P-0000
  6
Continuous
 62
     7
100
AcDbLine
 10
260.5522374640032
 20
387.2059189231291
 30
0.0
 11
258.5522374640027
 21
387.2059189231291
 31
0.0
1001
ACME_LAYERS
1000
1
  0
LINE
  5
42AF
330
1F
100
AcDbEntity
  8
P-0000
  6
Continuous
 62
     7
100
AcDbLine
 10
260.5522374640032
 20
389.205918923129
 30
0.0
 11
260.5522374640032
 21
387.2059189231291
 31
0.0
1001
ACME_LAYERS
1000
1
  0
LINE
  5
42B0
330
1F
100
AcDbEntity
  8
P-0000
  6
Continuous
 62
     7
100
AcDbLine
 10
250.0435088451463
 20
386.7059189231272
 30
0.0
 11
250.0522374639813
 21
386.7059189231272
 31
0.0
1001
ACME_LAYERS
1000
1
  0
LINE
  5
42B1
330
1F
100
AcDbEntity
  8
P-0000
  6
Continuous
 62
     7
100
AcDbLine
 10
250.0435088451463
 20
384.9738681155592
 30
0.0
 11
250.052237464005
 21
384.9738681155592
 31
0.0
1001
ACME_LAYERS
1000
1
  0
LINE
  5
42B2
330
1F
100
AcDbEntity
  8
P-0000
  6
Continuous
 62
     7
100
AcDbLine
 10
241.5522374640013
 20
387.2059189231291
 30
0.0
 11
245.0522374640027
 21
387.2059189231291
 31
0.0
1001
ACME_LAYERS
1000
1
  0
LINE
  5
42B3
330
1F
100
AcDbEntity
  8
P-0000
  6
Continuous
 62
     7
100
AcDbLine
 10
245.0522374640027
 20
387.2059189231291
 30
0.0
 11
250.0522374640032
 21
387.2059189231291
 31
0.0
1001
ACME_LAYERS
1000
1
  0
LINE
  5
42B4
330
1F
100
AcDbEntity
  8
P-0000
  6
Continuous
 62
     7
100
AcDbLine
 10
239.5522374640032
 20
387.2059189231291
 30
0.0
 11
241.5522374640013
 21
387.2059189231291
 31
0.0
1001
ACME_LAYERS
1000
1
  0
LINE
  5
42B5
330
1F
100
AcDbEntity
  8
P-0000
  6
Continuous
 62
     7
100
AcDbLine
 10
239.5522374640032
 20
389.205918923129
 30
0.0
 11
239.5522374640032
 21
387.2059189231291
 31
0.0
1001
ACME_LAYERS
1000
1
  0
LINE
  5
42B6
330
1F
100
AcDbEntity
  8
P-0000
  6
Continuous
 62
     7
100
AcDbLine
 10
254.5522374640191
 20
387.2059189231291
 30
0.0
 11
249.55223746401
 21
387.2059189231291
 31
0.0
1001
ACME_LAYERS
1000
1
  0
LINE
  5
42B7
330
1F
100
AcDbEntity
  8
P-0000
  6
Continuous
 62
     7
100
AcDbLine
 10
260.5522374640186
 20
389.205918923129
 30
0.0
 11
260.5522374640186
 21
404.2002676246978
 31
0.0
1001
ACME_LAYERS
1000
1
  0
LINE
  5
42B8
330
1F
100
AcDbEntity
  8
P-0000
  6
Continuous
 62
     7
100
AcDbLine
 10
251.0522374640186
 20
404.2002676246978
 30
0.0
 11
259.5522374640186
 21
404.2002676246978
 31
0.0
1001
ACME_LAYERS
1000
1
  0
LINE
  5
42B9
330
1F
100
AcDbEntity
  8
P-0000
  6
Continuous
 62
     7
100
AcDbLine
 10
249.5619976957482
 20
404.2002676246978
 30
0.0
 11
251.0522374640186
 21
404.2002676246978
 31
0.0
1001
ACME_LAYERS
1000
1
  0
LINE
  5
42BA
330
1F
100
AcDbEntity
  8
P-0000
  6
Continuous
 62
     7
100
AcDbLine
 10
259.5522374640186
 20
387.2059189231291
 30
0.0
 11
254.5522374640191
 21
387.2059189231291
 31
0.0
1001
ACME_LAYERS
1000
1
  0
LINE
  5
42BB
330
1F
100
AcDbEntity
  8
P-0000
  6
Continuous
 62
     7
100
AcDbLine
 10
239.5347802262731
 20
389.205918923129
 30
0.0
 11
239.5347802262731
 21
404.2002676246978
 31
0.0
1001
ACME_LAYERS
1000
1
  0
LINE
  5
42BC
330
1F
100
AcDbEntity
  8
P-0000
  6
Continuous
 62
     7
100
AcDbLine
 10
249.0347802262732
 20
404.2002676246978
 30
0.0
 11
240.5347802262759
 21
404.2002676246978
 31
0.0
1001
ACME_LAYERS
1000
1
  0
LINE
  5
42BD
330
1F
100
AcDbEntity
  8
P-0000
  6
Continuous
 62
     7
100
AcDbLine
 10
250.5250199945454
 20
404.2002676246978
 30
0.0
 11
249.0347802262732
 21
404.2002676246978
 31
0.0
1001
ACME_LAYERS
1000
1
  0
LINE
  5
42BE
330
1F
100
AcDbEntity
  8
0
100
AcDbLine
 10
248.0347802262731
 20
404.2002676246978
 30
0.0
 11
248.0347802262731
 21
387.2059189231291
 31
0.0
  0
LINE
  5
42BF
330
1F
100
AcDbEntity
  8
0
100
AcDbLine
 10
252.0522374640191
 20
404.2002676246978
 30
0.0
 11
252.0522374640145
 21
387.2059189231291
 31
0.0
  0
DIMENSION
  5
42C2
102
{ACAD_XDICTIONARY
360
42C3
102
}
102
{ACAD_REACTORS
330
42C4
102
}
330
1F
100
AcDbEntity
  8
AM_5
100
AcDbDimension
  2
*D2
 10
72.99999880317955
 20
369.9999990181823
 30
0.0
 11
66.49999880317948
 21
184.9999990181906
 31
0.0
 70
    32
 71
     5
 42
369.9999999999831
  3
AM_DIN$0
100
AcDbAlignedDimension
 13
249.3666631474807
 23
-0.0000009818008948
 33
0.0
 14
84.99999880317956
 24
369.9999990181823
 34
0.0
 50
90.0
100
AcDbRotatedDimension
1001
ACAD_DSTYLE_DIMINSPECT
1070
   396
1000
100%
1070
   395
1000

1070
   394
1070
    33
1070
   393
1070
     0
1001
ACAD
1000
DSTYLE
1002
{
1070
    41
1040
5.0
1070
   140
1040
10.0
1070
   271
1070
     0
1002
}
  0
HATCH
  5
42F3
330
1F
100
AcDbEntity
  8
AM_CL
100
AcDbHatch
 10
0.0
 20
0.0
 30
0.0
210
0.0
220
0.0
230
1.0
  2
ANSI37
 70
     0
 71
     0
 91
        2
 92
        1
 93
        5
 72
     1
 10
320.3922587644165
 20
369.9999990181995
 11
316.5435088451423
 21
364.8925353681134
 72
     1
 10
316.5435088451423
 20
364.8925353681134
 11
316.5435088451422
 21
119.9999990181995
 72
     1
 10
316.5435088451422
 20
119.9999990181995
 11
360.0435088451421
 21
119.9999990181995
 72
     1
 10
360.0435088451421
 20
119.9999990181995
 11
360.0435088451423
 21
369.9999990181995
 72
     1
 10
360.0435088451423
 20
369.9999990181995
 11
320.3922587644165
 21
369.9999990181995
 97
        0
 92
        1
 93
        3
 72
     1
 10
316.5435088451423
 20
368.2158156503572
 11
317.8879874481056
 21
369.9999990181995
 72
     1
 10
317.8879874481056
 20
369.9999990181995
 11
316.5435088451423
 21
369.9999990181995
 72
     1
 10
316.5435088451423
 20
369.9999990181995
 11
316.5435088451423
 21
368.2158156503572
 97
        0
 75
     0
 76
     1
 52
-90.00000000000001
 41
1.0
 77
     0
 78
     2
 53
315.0
 43
-15.76434869779746
 44
411.6165815787988
 45
2.245064030267287
 46
2.245064030267287
 79
     0
 53
44.99999999999999
 43
-15.76434869779746
 44
411.6165815787988
 45
-2.245064030267287
 46
2.245064030267287
 79
     0
 98
        2
 10
170.8175895312477
 20
268.6145578927458
 10
332.334036580869
 20
289.9220454692929
1001
ACAD
1010
0.0
1020
0.0
1030
0.0
  0
LINE
  5
42F4
330
1F
100
AcDbEntity
  8
P-0000
  6
Continuous
 62
     7
100
AcDbLine
 10
316.5435088451421
 20
119.9999990181995
 30
0.0
 11
316.5435088451423
 21
364.8925353681133
 31
0.0
1001
ACME_LAYERS
1000
1
  0
LINE
  5
42F6
330
1F
100
AcDbEntity
  8
P-0000
  6
Continuous
 62
     7
100
AcDbLine
 10
140.0435088451422
 20
369.9999990181995
 30
0.0
 11
178.3410675304594
 21
369.9999990181995
 31
0.0
1001
ACME_LAYERS
1000
1
  0
LINE
  5
42F7
330
1F
100
AcDbEntity
  8
P-0000
  6
Continuous
 62
     7
100
AcDbLine
 10
316.5435088451421
 20
119.9999990181995
 30
0.0
 11
345.5435088451421
 21
119.9999990181995
 31
0.0
1001
ACME_LAYERS
1000
1
  0
LINE
  5
42F8
330
1F
100
AcDbEntity
  8
P-0000
  6
Continuous
 62
     7
100
AcDbLine
 10
154.5435088451422
 20
119.9999990181995
 30
0.0
 11
182.8666631474843
 21
119.9999990181995
 31
0.0
1001
ACME_LAYERS
1000
1
  0
LINE
  5
42F9
330
1F
100
AcDbEntity
  8
P-0000
  6
Continuous
 62
     7
100
AcDbLine
 10
140.0435088451421
 20
119.9999990181995
 30
0.0
 11
182.8666631474843
 21
119.9999990181995
 31
0.0
1001
ACME_LAYERS
1000
1
  0
LINE
  5
42FC
330
1F
100
AcDbEntity
  8
P-0000
  6
STRICHPUNKT
 62
     3
100
AcDbLine
 10
250.0435088451421
 20
99.7612423151277
 30
0.0
 11
250.0435088451423
 21
382.7612423151276
 31
0.0
1001
ACME_LAYERS
1000
1
  0
LINE
  5
42FD
330
1F
100
AcDbEntity
  8
0
100
AcDbLine
 10
360.0435088451423
 20
369.9999990181995
 30
0.0
 11
360.0435088451421
 21
119.9999990181995
 31
0.0
  0
LINE
  5
42FE
330
1F
100
AcDbEntity
  8
0
100
AcDbLine
 10
140.0435088451422
 20
369.9999990181995
 30
0.0
 11
140.0435088451421
 21
119.9999990181995
 31
0.0
  0
LINE
  5
4300
330
1F
100
AcDbEntity
  8
P-0000
  6
Continuous
 62
     7
100
AcDbLine
 10
315.8666631474885
 20
119.9999990181996
 30
0.0
 11
360.0435088451421
 21
119.9999990181995
 31
0.0
1001
ACME_LAYERS
1000
1
  0
LINE
  5
4301
330
1F
100
AcDbEntity
  8
P-0000
  6
Continuous
 62
     7
100
AcDbLine
 10
320.3922587644165
 20
369.9999990181995
 30
0.0
 11
345.5435088451423
 21
369.9999990181995
 31
0.0
1001
ACME_LAYERS
1000
1
  0
LINE
  5
4302
330
1F
100
AcDbEntity
  8
P-0000
  6
Continuous
 62
     7
100
AcDbLine
 10
320.3922587644165
 20
369.9999990181995
 30
0.0
 11
360.0435088451423
 21
369.9999990181995
 31
0.0
1001
ACME_LAYERS
1000
1
  0
HATCH
  5
430C
330
1F
100
AcDbEntity
  8
AM_CL
100
AcDbHatch
 10
0.0
 20
0.0
 30
0.0
210
0.0
220
0.0
230
1.0
  2
ANSI37
 70
     0
 71
     0
 91
        2
 92
        1
 93
        5
 72
     1
 10
179.6947589258679
 20
369.9999990181995
 11
183.5435088451422
 21
364.8925353681134
 72
     1
 10
183.5435088451422
 20
364.8925353681134
 11
183.5435088451423
 21
119.9999990181995
 72
     1
 10
183.5435088451423
 20
119.9999990181995
 11
140.0435088451423
 21
119.9999990181995
 72
     1
 10
140.0435088451423
 20
119.9999990181995
 11
140.0435088451422
 21
369.9999990181995
 72
     1
 10
140.0435088451422
 20
369.9999990181995
 11
179.6947589258679
 21
369.9999990181995
 97
        0
 92
        1
 93
        3
 72
     1
 10
183.5435088451422
 20
368.2158156503572
 11
182.1990302421788
 21
369.9999990181995
 72
     1
 10
182.1990302421788
 20
369.9999990181995
 11
183.5435088451422
 21
369.9999990181995
 72
     1
 10
183.5435088451422
 20
369.9999990181995
 11
183.5435088451422
 21
368.2158156503572
 97
        0
 75
     0
 76
     1
 52
-90.00000000000001
 41
1.0
 77
     0
 78
     2
 53
225.0
 43
515.8513663880819
 44
411.6165815787988
 45
-2.245064030267287
 46
2.245064030267287
 79
     0
 53
135.0
 43
515.8513663880819
 44
411.6165815787988
 45
2.245064030267287
 46
2.245064030267287
 79
     0
 98
        2
 10
329.2694281590368
 20
268.6145578927458
 10
167.7529811094155
 20
289.9220454692929
1001
ACAD
1010
0.0
1020
0.0
1030
0.0
  0
ENDSEC
  0
SECTION
  2
OBJECTS
  0
DICTIONARY
  5
C
330
0
100
AcDbDictionary
281
     1
  3
ACAD_2007HEADERVARS_RT
350
4444
  3
ACAD_COLOR
350
BE
  3
ACAD_GROUP
350
D
  3
ACAD_LAYOUT
350
1A
  3
ACAD_MATERIAL
350
BD
  3
ACAD_MLEADERSTYLE
350
3EF
  3
ACAD_MLINESTYLE
350
17
  3
ACAD_PLOTSETTINGS
350
19
  3
ACAD_PLOTSTYLENAME
350
E
  3
ACAD_SCALELIST
350
3DD
  3
ACAD_TABLESTYLE
350
11A
  3
ACAD_VISUALSTYLE
350
3CC
  3
ACDB_RECOMPOSE_DATA
350
3262
  3
AcDbVariableDictionary
350
94
  3
AcmDictionary
350
5B
  3
AEC_PROPERTY_SET_DEFS
350
B7A
  3
AMG
350
41
  3
AMGSNAPSETTINGS
350
26B
  3
DWGPROPS
350
4443
  0
DICTIONARY
  5
48A
330
2
100
AcDbDictionary
280
     1
281
     1
  3
ACAD_LAYERSTATES
360
48B
  3
AMLAYER_GROUPCOLORS
360
3AA3
  0
DICTIONARY
  5
3251
330
10
100
AcDbDictionary
280
     1
281
     1
  3
ADSK_XREC_LAYER_RECONCILED
360
3252
  0
DICTIONARY
  5
474
330
473
100
AcDbDictionary
280
     1
281
     1
  3
ADSK_XREC_LAYER_RECONCILED
360
3253
  0
DICTIONARY
  5
477
330
476
100
AcDbDictionary
280
     1
281
     1
  3
ADSK_XREC_LAYER_RECONCILED
360
3254
  0
DICTIONARY
  5
479
330
478
100
AcDbDictionary
280
     1
281
     1
  3
ADSK_XREC_LAYER_RECONCILED
360
3255
  0
DICTIONARY
  5
47B
330
47A
100
AcDbDictionary
280
     1
281
     1
  3
ADSK_XREC_LAYER_RECONCILED
360
3256
  0
DICTIONARY
  5
47D
330
47C
100
AcDbDictionary
280
     1
281
     1
  3
ADSK_XREC_LAYER_RECONCILED
360
3257
  0
DICTIONARY
  5
252B
330
252A
100
AcDbDictionary
280
     1
281
     1
  3
ADSK_XREC_LAYER_RECONCILED
360
325B
  0
DICTIONARY
  5
8F
330
1F
100
AcDbDictionary
280
     1
281
     1
  3
ACAD_SORTENTS
360
3199
  0
DICTIONARY
  5
42C3
330
42C2
100
AcDbDictionary
280
     1
281
     1
  3
ACAD_DIMASSOC
360
42C4
  0
DICTIONARY
  5
4444
102
{ACAD_REACTORS
330
C
102
}
330
C
100
AcDbDictionary
281
     1
  3
DIMJOGANG
350
4445
  3
DIMLTEX1
350
4447
  3
DIMLTEX2
350
4448
  3
DIMLTYPE
350
4446
  0
DICTIONARY
  5
BE
102
{ACAD_REACTORS
330
C
102
}
330
C
100
AcDbDictionary
281
     1
  0
DICTIONARY
  5
D
102
{ACAD_REACTORS
330
C
102
}
330
C
100
AcDbDictionary
281
     1
  0
DICTIONARY
  5
1A
102
{ACAD_REACTORS
330
C
102
}
330
C
100
AcDbDictionary
281
     1
  3
Layout1
350
1E
  3
Layout2
350
26
  3
Model
350
22
  0
DICTIONARY
  5
BD
102
{ACAD_REACTORS
330
C
102
}
330
C
100
AcDbDictionary
281
     1
  3
ByBlock
350
3BC
  3
ByLayer
350
3B4
  3
Global
350
3C4
  0
DICTIONARY
  5
3EF
102
{ACAD_REACTORS
330
C
102
}
330
C
100
AcDbDictionary
281
     1
  3
Standard
350
3F0
  0
DICTIONARY
  5
17
102
{ACAD_REACTORS
330
C
102
}
330
C
100
AcDbDictionary
281
     1
  3
Standard
350
18
  0
DICTIONARY
  5
19
102
{ACAD_REACTORS
330
C
102
}
330
C
100
AcDbDictionary
281
     1
  0
ACDBDICTIONARYWDFLT
  5
E
102
{ACAD_REACTORS
330
C
102
}
330
C
100
AcDbDictionary
281
     1
  3
Normal
350
F
100
AcDbDictionaryWithDefault
340
F
  0
DICTIONARY
  5
3DD
102
{ACAD_REACTORS
330
C
102
}
330
C
100
AcDbDictionary
281
     1
  3
A0
350
3DE
  3
A1
350
3DF
  3
A2
350
3E0
  3
A3
350
3E1
  3
A4
350
3E2
  3
A5
350
3E3
  3
A6
350
3E4
  3
A7
350
3E5
  3
A8
350
3E6
  3
A9
350
3E7
  3
B0
350
3E8
  3
B1
350
3E9
  3
B2
350
3EA
  3
B3
350
3EB
  3
B4
350
3EC
  3
B5
350
3ED
  3
B6
350
3EE
  0
DICTIONARY
  5
11A
102
{ACAD_REACTORS
330
C
102
}
330
C
100
AcDbDictionary
281
     1
  3
Standard
350
11B
  0
DICTIONARY
  5
3CC
102
{ACAD_REACTORS
330
C
102
}
330
C
100
AcDbDictionary
281
     1
  3
2dWireframe
350
3D2
  3
3D Hidden
350
3D4
  3
3dWireframe
350
3D3
  3
Basic
350
3D1
  3
Brighten
350
3D8
  3
ColorChange
350
3DC
  3
Conceptual
350
3D5
  3
Dim
350
3D7
  3
Facepattern
350
3DB
  3
Flat
350
3CD
  3
FlatWithEdges
350
3CE
  3
Gouraud
350
3CF
  3
GouraudWithEdges
350
3D0
  3
Linepattern
350
3DA
  3
Realistic
350
3D6
  3
Thicken
350
3D9
  0
XRECORD
  5
3262
102
{ACAD_REACTORS
330
C
102
}
330
C
100
AcDbXrecord
280
     1
 90
        1
330
11B
  0
DICTIONARY
  5
94
102
{ACAD_REACTORS
330
C
102
}
330
C
100
AcDbDictionary
281
     1
  3
CANNOSCALE
350
325E
  3
CMLEADERSTYLE
350
325D
  3
CTABLESTYLE
350
138
  3
DIMASSOC
350
96
  3
INDEXCTL
350
95
  3
SORTENTS
350
325F
  0
DICTIONARY
  5
5B
102
{ACAD_REACTORS
330
C
102
}
330
C
100
AcDbDictionary
281
     1
  3
AcmBOM
350
272
  3
AcmStdDictionary
350
61
  3
AMDTSECTSYM_ARROWCOLOR
350
123
  0
DICTIONARY
  5
B7A
102
{ACAD_REACTORS
330
C
102
}
330
C
100
AcDbDictionary
281
     1
  0
DICTIONARY
  5
41
102
{ACAD_REACTORS
330
C
102
}
330
C
100
AcDbDictionary
281
     1
  0
DICTIONARY
  5
26B
102
{ACAD_REACTORS
330
C
102
}
330
C
100
AcDbDictionary
281
     1
  0
XRECORD
  5
4443
102
{ACAD_REACTORS
330
C
102
}
330
C
100
AcDbXrecord
280
     1
  1
DWGPROPS COOKIE
  2

  3

  4

  6

  7

  8
jamoeller
  9

300
AmdtFileType=84
301
=
302
=
303
=
304
=
305
=
306
=
307
=
308
=
309
=
 40
0.0614877662037037
 41
2455478.316582292
 42
2455610.348510382
  1

 90
        1
  0
DICTIONARY
  5
48B
102
{ACAD_REACTORS
330
48A
102
}
330
48A
100
AcDbDictionary
281
     1
  0
DICTIONARY
  5
3AA3
102
{ACAD_REACTORS
330
48A
102
}
330
48A
100
AcDbDictionary
280
     1
281
     1
  0
XRECORD
  5
3252
102
{ACAD_REACTORS
330
3251
102
}
330
3251
100
AcDbXrecord
280
     1
290
     1
  0
XRECORD
  5
3253
102
{ACAD_REACTORS
330
474
102
}
330
474
100
AcDbXrecord
280
     1
290
     1
  0
XRECORD
  5
3254
102
{ACAD_REACTORS
330
477
102
}
330
477
100
AcDbXrecord
280
     1
290
     1
  0
XRECORD
  5
3255
102
{ACAD_REACTORS
330
479
102
}
330
479
100
AcDbXrecord
280
     1
290
     1
  0
XRECORD
  5
3256
102
{ACAD_REACTORS
330
47B
102
}
330
47B
100
AcDbXrecord
280
     1
290
     1
  0
XRECORD
  5
3257
102
{ACAD_REACTORS
330
47D
102
}
330
47D
100
AcDbXrecord
280
     1
290
     1
  0
XRECORD
  5
325B
102
{ACAD_REACTORS
330
252B
102
}
330
252B
100
AcDbXrecord
280
     1
290
     1
  0
SORTENTSTABLE
  5
3199
102
{ACAD_REACTORS
330
8F
102
}
330
8F
100
AcDbSortentsTable
330
1F
331
413C
  5
413C
331
417B
  5
417B
331
4144
  5
4144
331
4183
  5
4183
331
414C
  5
414C
331
41AA
  5
41AA
331
41E9
  5
41E9
331
4220
  5
4220
331
407A
  5
407A
331
4103
  5
4103
331
4008
  5
4008
331
4228
  5
4228
331
4267
  5
4267
331
41B2
  5
41B2
331
41F1
  5
41F1
331
429E
  5
429E
331
3FDD
  5
3FDD
331
404F
  5
404F
331
4082
  5
4082
331
40C1
  5
40C1
331
42A6
  5
42A6
331
4230
  5
4230
331
426F
  5
426F
331
410B
  5
410B
331
41BA
  5
41BA
331
41F9
  5
41F9
331
4010
  5
4010
331
3FE5
  5
3FE5
331
4018
  5
4018
331
4057
  5
4057
331
4113
  5
4113
331
408A
  5
408A
331
42AE
  5
42AE
331
40DC
  5
40DC
331
40D1
  5
40D1
331
4238
  5
4238
331
41C2
  5
41C2
331
4277
  5
4277
331
3FAE
  5
3FAE
331
3FED
  5
3FED
331
4020
  5
4020
331
40E4
  5
40E4
331
42B6
  5
42B6
331
4092
  5
4092
331
405F
  5
405F
331
3FB6
  5
3FB6
331
4154
  5
4154
331
415C
  5
415C
331
411D
  5
411D
331
4164
  5
4164
331
4125
  5
4125
331
412D
  5
412D
331
416C
  5
416C
331
41CA
  5
41CA
331
4201
  5
4201
331
418B
  5
418B
331
4240
  5
4240
331
42F4
  5
42F4
331
4248
  5
4248
331
427F
  5
427F
331
41D2
  5
41D2
331
4209
  5
4209
331
42BE
  5
42BE
331
4193
  5
4193
331
409A
  5
409A
331
3FBE
  5
3FBE
331
40A2
  5
40A2
331
3FF1
  5
3FF1
331
40EC
  5
40EC
331
4063
  5
4063
331
4250
  5
4250
331
4287
  5
4287
331
419B
  5
419B
331
41DA
  5
41DA
331
4211
  5
4211
331
42FE
  5
4303
331
4038
  5
4038
331
406B
  5
406B
331
40AA
  5
40AA
331
40CD
  5
40CD
331
40F4
  5
40F4
331
3FF9
  5
3FF9
331
4219
  5
4219
331
4258
  5
4258
331
41A3
  5
41A3
331
41E2
  5
41E2
331
428F
  5
428F
331
3FC6
  5
3FC6
331
3FCE
  5
3FCE
331
4001
  5
4001
331
4040
  5
4040
331
4073
  5
4073
331
4297
  5
4297
331
40FC
  5
40FC
331
3FD6
  5
3FD6
331
4135
  5
4135
331
4174
  5
4174
331
413D
  5
413D
331
417C
  5
417C
331
4184
  5
4184
331
4145
  5
4145
331
414D
  5
414D
331
41EA
  5
41EA
331
4221
  5
4221
331
41AB
  5
41AB
331
4260
  5
4260
331
4009
  5
4009
331
4048
  5
4048
331
4104
  5
4104
331
429F
  5
429F
331
407B
  5
407B
331
40BA
  5
40BA
331
41F2
  5
41F2
331
4229
  5
4229
331
41B3
  5
41B3
331
4268
  5
4268
331
3FDE
  5
3FDE
331
40C2
  5
40C2
331
4011
  5
4011
331
410C
  5
410C
331
4270
  5
4270
331
42A7
  5
42A7
331
4083
  5
4083
331
41BB
  5
41BB
331
41FA
  5
41FA
331
4231
  5
4231
331
4050
  5
4050
331
4058
  5
4058
331
3FA7
  5
3FA7
331
408B
  5
408B
331
40D2
  5
40D2
331
40DD
  5
40DD
331
4114
  5
4114
331
4019
  5
4019
331
4239
  5
4239
331
41C3
  5
41C3
331
42AF
  5
42AF
331
3FE6
  5
3FE6
331
3FEE
  5
3FEE
331
3FAF
  5
3FAF
331
4093
  5
4093
331
42B7
  5
42B7
331
40E5
  5
40E5
331
4021
  5
4021
331
3FB7
  5
3FB7
331
4155
  5
4155
331
411E
  5
411E
331
415D
  5
415D
331
4126
  5
4126
331
4165
  5
4165
331
416D
  5
416D
331
412E
  5
412E
331
4241
  5
4241
331
4278
  5
4278
331
418C
  5
418C
331
41CB
  5
41CB
331
4202
  5
4202
331
42BF
  5
42BF
331
409B
  5
409B
331
420A
  5
420A
331
4249
  5
4249
331
4194
  5
4194
331
41D3
  5
41D3
331
4280
  5
4280
331
3FBF
  5
3FBF
331
3FF2
  5
3FF2
331
40ED
  5
40ED
331
4288
  5
4288
331
4064
  5
4064
331
40A3
  5
40A3
331
41DB
  5
41DB
331
4212
  5
4212
331
419C
  5
419C
331
4251
  5
4251
331
3FC7
  5
3FC7
331
3FFA
  5
3FFA
331
4039
  5
4039
331
40F5
  5
40F5
331
406C
  5
406C
331
4259
  5
4259
331
4290
  5
4290
331
41E3
  5
41E3
331
421A
  5
421A
331
40CE
  5
40CE
331
41A4
  5
41A4
331
40AB
  5
40AB
331
3FCF
  5
3FCF
331
4002
  5
4002
331
40FD
  5
40FD
331
4074
  5
4074
331
4041
  5
4041
331
3FD7
  5
3FD7
331
4175
  5
4175
331
4136
  5
4136
331
413E
  5
413E
331
417D
  5
417D
331
4146
  5
4146
331
4185
  5
4185
331
414E
  5
414E
331
4261
  5
4261
331
4298
  5
4298
331
41AC
  5
41AC
331
41EB
  5
41EB
331
4222
  5
4222
331
4049
  5
4049
331
407C
  5
407C
331
4105
  5
4105
331
400A
  5
400A
331
422A
  5
422A
331
4269
  5
4269
331
41B4
  5
41B4
331
41F3
  5
41F3
331
42A0
  5
42A0
331
3FDF
  5
3FDF
331
4012
  5
4012
331
4051
  5
4051
331
4084
  5
4084
331
40C3
  5
40C3
331
42A8
  5
42A8
331
41FB
  5
41FB
331
4232
  5
4232
331
41BC
  5
41BC
331
4271
  5
4271
331
410D
  5
410D
331
3FE7
  5
3FE7
331
401A
  5
401A
331
4059
  5
4059
331
4115
  5
4115
331
408C
  5
408C
331
42B0
  5
42B0
331
423A
  5
423A
331
40DE
  5
40DE
331
41C4
  5
41C4
331
40D3
  5
40D3
331
3FB0
  5
3FB0
331
4022
  5
4022
331
3FEF
  5
3FEF
331
40E6
  5
40E6
331
4094
  5
4094
331
4156
  5
4156
331
415E
  5
415E
331
411F
  5
411F
331
4166
  5
4166
331
4127
  5
4127
331
412F
  5
412F
331
416E
  5
416E
331
4279
  5
4279
331
42B8
  5
42B8
331
41CC
  5
41CC
331
4203
  5
4203
331
418D
  5
418D
331
4242
  5
4242
331
3FB8
  5
3FB8
331
409C
  5
409C
331
42F6
  5
42F7
331
424A
  5
424A
331
4281
  5
4281
331
4195
  5
4195
331
41D4
  5
41D4
331
420B
  5
420B
331
42F8
  5
42F9
331
3FC0
  5
3FC0
331
40A4
  5
40A4
331
3FF3
  5
3FF3
331
4300
  5
42FB
331
40EE
  5
40EE
331
4252
  5
4252
331
4289
  5
4289
331
4065
  5
4065
331
419D
  5
419D
331
41DC
  5
41DC
331
4213
  5
4213
331
403A
  5
403A
331
406D
  5
406D
331
40AC
  5
40AC
331
40CF
  5
40CF
331
40F6
  5
40F6
331
3FFB
  5
3FFB
331
421B
  5
421B
331
425A
  5
425A
331
41A5
  5
41A5
331
41E4
  5
41E4
331
4291
  5
4291
331
3FC8
  5
3FC8
331
3FD0
  5
3FD0
331
4003
  5
4003
331
4042
  5
4042
331
40FE
  5
40FE
331
4075
  5
4075
331
4137
  5
4137
331
4176
  5
4176
331
417E
  5
417E
331
413F
  5
413F
331
4186
  5
4186
331
4147
  5
4147
331
414F
  5
414F
331
4299
  5
4299
331
41EC
  5
41EC
331
4223
  5
4223
331
41AD
  5
41AD
331
4262
  5
4262
331
3FD8
  5
3FD8
331
400B
  5
400B
331
404A
  5
404A
331
4106
  5
4106
331
426A
  5
426A
331
42A1
  5
42A1
331
407D
  5
407D
331
41F4
  5
41F4
331
422B
  5
422B
331
41B5
  5
41B5
331
3FE0
  5
3FE0
331
40C4
  5
40C4
331
4013
  5
4013
331
410E
  5
410E
331
4272
  5
4272
331
42A9
  5
42A9
331
4085
  5
4085
331
41BD
  5
41BD
331
41FC
  5
41FC
331
4233
  5
4233
331
4052
  5
4052
331
405A
  5
405A
331
3FA9
  5
3FA9
331
408D
  5
408D
331
40D4
  5
40D4
331
40DF
  5
40DF
331
4116
  5
4116
331
401B
  5
401B
331
423B
  5
423B
331
41C5
  5
41C5
331
42B1
  5
42B1
331
3FE8
  5
3FE8
331
4023
  5
4023
331
4095
  5
4095
331
40E7
  5
40E7
331
3FB1
  5
3FB1
331
4118
  5
4118
331
4157
  5
4157
331
4120
  5
4120
331
415F
  5
415F
331
4128
  5
4128
331
4167
  5
4167
331
416F
  5
416F
331
42B9
  5
42B9
331
4204
  5
4204
331
4243
  5
4243
331
418E
  5
418E
331
41CD
  5
41CD
331
427A
  5
427A
331
409D
  5
409D
331
42F9
  5
42FA
331
42F7
  5
42F8
331
420C
  5
420C
331
424B
  5
424B
331
4196
  5
4196
331
41D5
  5
41D5
331
4282
  5
4282
331
3FB9
  5
3FB9
331
3FC1
  5
3FC1
331
3FF4
  5
3FF4
331
40EF
  5
40EF
331
4066
  5
4066
331
428A
  5
428A
331
4301
  5
4300
331
40C8
  5
40C8
331
40A5
  5
40A5
331
41DD
  5
41DD
331
4214
  5
4214
331
419E
  5
419E
331
4253
  5
4253
331
3FC9
  5
3FC9
331
40AD
  5
40AD
331
3FFC
  5
3FFC
331
40F7
  5
40F7
331
406E
  5
406E
331
403B
  5
403B
331
425B
  5
425B
331
4292
  5
4292
331
41A6
  5
41A6
331
41E5
  5
41E5
331
421C
  5
421C
331
3FD1
  5
3FD1
331
4004
  5
4004
331
40FF
  5
40FF
331
4076
  5
4076
331
4043
  5
4043
331
4130
  5
4130
331
4177
  5
4177
331
4138
  5
4138
331
4140
  5
4140
331
417F
  5
417F
331
4148
  5
4148
331
4187
  5
4187
331
4263
  5
4263
331
429A
  5
429A
331
41AE
  5
41AE
331
41ED
  5
41ED
331
4224
  5
4224
331
404B
  5
404B
331
407E
  5
407E
331
400C
  5
400C
331
422C
  5
422C
331
426B
  5
426B
331
41B6
  5
41B6
331
41F5
  5
41F5
331
42A2
  5
42A2
331
3FD9
  5
3FD9
331
3FE1
  5
3FE1
331
4014
  5
4014
331
4053
  5
4053
331
410F
  5
410F
331
4086
  5
4086
331
42AA
  5
42AA
331
40D8
  5
40D8
331
40C5
  5
40C5
331
41FD
  5
41FD
331
4234
  5
4234
331
41BE
  5
41BE
331
4273
  5
4273
331
3FAA
  5
3FAA
331
3FE9
  5
3FE9
331
401C
  5
401C
331
405B
  5
405B
331
4117
  5
4117
331
408E
  5
408E
331
42B2
  5
42B2
331
423C
  5
423C
331
40E0
  5
40E0
331
41C6
  5
41C6
331
40D5
  5
40D5
331
3FB2
  5
3FB2
331
4024
  5
4024
331
4096
  5
4096
331
4150
  5
4150
331
4119
  5
4119
331
4158
  5
4158
331
4160
  5
4160
331
4121
  5
4121
331
4129
  5
4129
331
4168
  5
4168
331
427B
  5
427B
331
42BA
  5
42BA
331
41CE
  5
41CE
331
4205
  5
4205
331
418F
  5
418F
331
4244
  5
4244
331
3FBA
  5
3FBA
331
409E
  5
409E
331
40E8
  5
40E8
331
424C
  5
424C
331
4283
  5
4283
331
4197
  5
4197
331
41D6
  5
41D6
331
420D
  5
420D
331
402C
  5
402C
331
40A6
  5
40A6
331
3FF5
  5
3FF5
331
3FC2
  5
3FC2
331
4302
  5
42FD
331
40F0
  5
40F0
331
4215
  5
4215
331
4254
  5
4254
331
419F
  5
419F
331
41DE
  5
41DE
331
428B
  5
428B
331
4067
  5
4067
331
403C
  5
403C
331
406F
  5
406F
331
40AE
  5
40AE
331
40F8
  5
40F8
331
3FFD
  5
3FFD
331
421D
  5
421D
331
425C
  5
425C
331
41A7
  5
41A7
331
41E6
  5
41E6
331
4293
  5
4293
331
3FCA
  5
3FCA
331
3FD2
  5
3FD2
331
4005
  5
4005
331
4044
  5
4044
331
4077
  5
4077
331
4131
  5
4131
331
4170
  5
4170
331
4139
  5
4139
331
4178
  5
4178
331
4180
  5
4180
331
4141
  5
4141
331
4149
  5
4149
331
4100
  5
4100
331
429B
  5
429B
331
41EE
  5
41EE
331
4225
  5
4225
331
41AF
  5
41AF
331
4264
  5
4264
331
3FDA
  5
3FDA
331
400D
  5
400D
331
4108
  5
4108
331
426C
  5
426C
331
42A3
  5
42A3
331
407F
  5
407F
331
41B7
  5
41B7
331
41F6
  5
41F6
331
422D
  5
422D
331
404C
  5
404C
331
3FE2
  5
3FE2
331
40C6
  5
40C6
331
4015
  5
4015
331
40D9
  5
40D9
331
4110
  5
4110
331
4274
  5
4274
331
42AB
  5
42AB
331
4087
  5
4087
331
41BF
  5
41BF
331
41FE
  5
41FE
331
4235
  5
4235
331
4054
  5
4054
331
405C
  5
405C
331
3FAB
  5
3FAB
331
408F
  5
408F
331
40E1
  5
40E1
331
40D6
  5
40D6
331
401D
  5
401D
331
423D
  5
423D
331
41C7
  5
41C7
331
42B3
  5
42B3
331
3FEA
  5
3FEA
331
4097
  5
4097
331
3FB3
  5
3FB3
331
4151
  5
4151
331
411A
  5
411A
331
4159
  5
4159
331
4122
  5
4122
331
4161
  5
4161
331
412A
  5
412A
331
4169
  5
4169
331
4188
  5
4188
331
42BB
  5
42BB
331
4206
  5
4206
331
4245
  5
4245
331
4190
  5
4190
331
41CF
  5
41CF
331
427C
  5
427C
331
3FBB
  5
3FBB
331
402D
  5
402D
331
4060
  5
4060
331
409F
  5
409F
331
4284
  5
4284
331
420E
  5
420E
331
424D
  5
424D
331
40E9
  5
40E9
331
4198
  5
4198
331
41D7
  5
41D7
331
3FC3
  5
3FC3
331
3FF6
  5
3FF6
331
40F1
  5
40F1
331
4068
  5
4068
331
428C
  5
428C
331
40A7
  5
40A7
331
41DF
  5
41DF
331
4216
  5
4216
331
41A0
  5
41A0
331
4255
  5
4255
331
3FCB
  5
3FCB
331
40AF
  5
40AF
331
3FFE
  5
3FFE
331
42C2
  5
42C2
331
40F9
  5
40F9
331
425D
  5
425D
331
4294
  5
4294
331
4070
  5
4070
331
41E7
  5
41E7
331
421E
  5
421E
331
403D
  5
403D
331
4045
  5
4045
331
40B7
  5
40B7
331
4006
  5
4006
331
3FD3
  5
3FD3
331
4171
  5
4171
331
4132
  5
4132
331
413A
  5
413A
331
4179
  5
4179
331
4142
  5
4142
331
4181
  5
4181
331
414A
  5
414A
331
41A8
  5
41A8
331
4101
  5
4101
331
4226
  5
4226
331
4265
  5
4265
331
41B0
  5
41B0
331
41EF
  5
41EF
331
429C
  5
429C
331
4078
  5
4078
331
404D
  5
404D
331
4080
  5
4080
331
4109
  5
4109
331
400E
  5
400E
331
422E
  5
422E
331
426D
  5
426D
331
41B8
  5
41B8
331
41F7
  5
41F7
331
42A4
  5
42A4
331
3FDB
  5
3FDB
331
3FE3
  5
3FE3
331
4016
  5
4016
331
4055
  5
4055
331
4111
  5
4111
331
4088
  5
4088
331
42AC
  5
42AC
331
40DA
  5
40DA
331
40C7
  5
40C7
331
41FF
  5
41FF
331
4236
  5
4236
331
41C0
  5
41C0
331
4275
  5
4275
331
3FAC
  5
3FAC
331
40D7
  5
40D7
331
401E
  5
401E
331
4090
  5
4090
331
405D
  5
405D
331
42B4
  5
42B4
331
423E
  5
423E
331
40E2
  5
40E2
331
3FB4
  5
3FB4
331
4152
  5
4152
331
411B
  5
411B
331
415A
  5
415A
331
4162
  5
4162
331
4123
  5
4123
331
412B
  5
412B
331
416A
  5
416A
331
41C8
  5
41C8
331
4189
  5
4189
331
427D
  5
427D
331
42BC
  5
42BC
331
4098
  5
4098
331
41D0
  5
41D0
331
4207
  5
4207
331
4191
  5
4191
331
4246
  5
4246
331
3FBC
  5
3FBC
331
40A0
  5
40A0
331
40EA
  5
40EA
331
4061
  5
4061
331
424E
  5
424E
331
4285
  5
4285
331
4199
  5
4199
331
41D8
  5
41D8
331
420F
  5
420F
331
42FC
  5
4301
331
4036
  5
4036
331
4069
  5
4069
331
40A8
  5
40A8
331
40F2
  5
40F2
331
3FF7
  5
3FF7
331
4217
  5
4217
331
4256
  5
4256
331
41A1
  5
41A1
331
41E0
  5
41E0
331
428D
  5
428D
331
3FC4
  5
3FC4
331
3FCC
  5
3FCC
331
4071
  5
4071
331
4295
  5
4295
331
421F
  5
421F
331
425E
  5
425E
331
40FA
  5
40FA
331
3FFF
  5
3FFF
331
3FD4
  5
3FD4
331
4007
  5
4007
331
4046
  5
4046
331
4133
  5
4133
331
4172
  5
4172
331
413B
  5
413B
331
417A
  5
417A
331
4182
  5
4182
331
4143
  5
4143
331
414B
  5
414B
331
41A9
  5
41A9
331
41E8
  5
41E8
331
4102
  5
4102
331
429D
  5
429D
331
40B8
  5
40B8
331
41F0
  5
41F0
331
4227
  5
4227
331
41B1
  5
41B1
331
4266
  5
4266
331
3FDC
  5
3FDC
331
40C0
  5
40C0
331
400F
  5
400F
331
410A
  5
410A
331
426E
  5
426E
331
42A5
  5
42A5
331
4081
  5
4081
331
41B9
  5
41B9
331
41F8
  5
41F8
331
422F
  5
422F
331
404E
  5
404E
331
4056
  5
4056
331
40D0
  5
40D0
331
4017
  5
4017
331
3FE4
  5
3FE4
331
40DB
  5
40DB
331
4112
  5
4112
331
4237
  5
4237
331
41C1
  5
41C1
331
4276
  5
4276
331
42AD
  5
42AD
331
4089
  5
4089
331
405E
  5
405E
331
3FAD
  5
3FAD
331
4091
  5
4091
331
40E3
  5
40E3
331
401F
  5
401F
331
423F
  5
423F
331
42B5
  5
42B5
331
3FEC
  5
3FEC
331
3FB5
  5
3FB5
331
4153
  5
4153
331
411C
  5
411C
331
415B
  5
415B
331
4124
  5
4124
331
4163
  5
4163
331
412C
  5
412C
331
416B
  5
416B
331
418A
  5
418A
331
41C9
  5
41C9
331
4200
  5
4200
331
4099
  5
4099
331
42BD
  5
42BD
331
42F3
  5
42F3
331
4208
  5
4208
331
4247
  5
4247
331
4192
  5
4192
331
41D1
  5
41D1
331
427E
  5
427E
331
3FBD
  5
3FBD
331
3FF0
  5
3FF0
331
4062
  5
4062
331
40A1
  5
40A1
331
4286
  5
4286
331
42FD
  5
4302
331
41D9
  5
41D9
331
4210
  5
4210
331
419A
  5
419A
331
424F
  5
424F
331
40EB
  5
40EB
331
3FC5
  5
3FC5
331
3FF8
  5
3FF8
331
4037
  5
4037
331
40F3
  5
40F3
331
428E
  5
428E
331
406A
  5
406A
331
40A9
  5
40A9
331
41E1
  5
41E1
331
4218
  5
4218
331
41A2
  5
41A2
331
4257
  5
4257
331
3FCD
  5
3FCD
331
4000
  5
4000
331
40FB
  5
40FB
331
425F
  5
425F
331
4296
  5
4296
331
4072
  5
4072
331
403F
  5
403F
331
4047
  5
4047
331
3FD5
  5
3FD5
331
4173
  5
4173
331
4134
  5
4134
  0
DIMASSOC
  5
42C4
102
{ACAD_REACTORS
330
42C3
102
}
330
42C3
100
AcDbDimAssoc
330
42C2
 90
        3
 70
     0
 71
     0
  1
AcDbOsnapPointRef
 72
     1
331
40E7
 73
     0
 91
        0
 40
0.0
 10
0.0
 20
0.0
 30
2.000000000000000E+50
 75
     0
  1
AcDbOsnapPointRef
 72
    13
331
3FAF
 73
     0
 91
        0
 40
0.0
 10
0.0
 20
0.0
 30
2.000000000000000E+50
 75
     0
  0
XRECORD
  5
4445
102
{ACAD_REACTORS
330
4444
102
}
330
4444
100
AcDbXrecord
280
     1
 40
1.570796326794896
  0
XRECORD
  5
4447
102
{ACAD_REACTORS
330
4444
102
}
330
4444
100
AcDbXrecord
280
     1
340
14
  0
XRECORD
  5
4448
102
{ACAD_REACTORS
330
4444
102
}
330
4444
100
AcDbXrecord
280
     1
340
14
  0
XRECORD
  5
4446
102
{ACAD_REACTORS
330
4444
102
}
330
4444
100
AcDbXrecord
280
     1
340
14
  0
LAYOUT
  5
1E
102
{ACAD_XDICTIONARY
360
4449
102
}
102
{ACAD_REACTORS
330
1A
102
}
330
1A
100
AcDbPlotSettings
  1

  2

  4

  6

 40
0.0
 41
0.0
 42
0.0
 43
0.0
 44
0.0
 45
0.0
 46
0.0
 47
0.0
 48
0.0
 49
0.0
140
0.0
141
0.0
142
1.0
143
1.0
 70
   688
 72
     0
 73
     0
 74
     5
  7

 75
    16
147
1.0
148
0.0
149
0.0
100
AcDbLayout
  1
Layout1
 70
     1
 71
     1
 10
0.0
 20
0.0
 11
420.0
 21
297.0
 12
0.0
 22
0.0
 32
0.0
 14
1.000000000000000E+20
 24
1.000000000000000E+20
 34
1.000000000000000E+20
 15
-1.000000000000000E+20
 25
-1.000000000000000E+20
 35
-1.000000000000000E+20
146
0.0
 13
0.0
 23
0.0
 33
0.0
 16
1.0
 26
0.0
 36
0.0
 17
0.0
 27
1.0
 37
0.0
 76
     0
330
1B
  0
LAYOUT
  5
26
102
{ACAD_XDICTIONARY
360
444D
102
}
102
{ACAD_REACTORS
330
1A
102
}
330
1A
100
AcDbPlotSettings
  1

  2

  4

  6

 40
0.0
 41
0.0
 42
0.0
 43
0.0
 44
0.0
 45
0.0
 46
0.0
 47
0.0
 48
0.0
 49
0.0
140
0.0
141
0.0
142
1.0
143
1.0
 70
   688
 72
     0
 73
     0
 74
     5
  7

 75
    16
147
1.0
148
0.0
149
0.0
100
AcDbLayout
  1
Layout2
 70
     1
 71
     2
 10
0.0
 20
0.0
 11
12.0
 21
9.0
 12
0.0
 22
0.0
 32
0.0
 14
0.0
 24
0.0
 34
0.0
 15
0.0
 25
0.0
 35
0.0
146
0.0
 13
0.0
 23
0.0
 33
0.0
 16
1.0
 26
0.0
 36
0.0
 17
0.0
 27
1.0
 37
0.0
 76
     0
330
23
  0
LAYOUT
  5
22
102
{ACAD_XDICTIONARY
360
444B
102
}
102
{ACAD_REACTORS
330
1A
102
}
330
1A
100
AcDbPlotSettings
  1

  2

  4

  6

 40
0.0
 41
0.0
 42
0.0
 43
0.0
 44
0.0
 45
0.0
 46
0.0
 47
0.0
 48
0.0
 49
0.0
140
0.0
141
0.0
142
1.0
143
1.0
 70
  1712
 72
     0
 73
     0
 74
     0
  7

 75
     0
147
1.0
148
0.0
149
0.0
100
AcDbLayout
  1
Model
 70
     1
 71
     0
 10
0.0
 20
0.0
 11
12.0
 21
9.0
 12
0.0
 22
0.0
 32
0.0
 14
0.0
 24
0.0
 34
0.0
 15
0.0
 25
0.0
 35
0.0
146
0.0
 13
0.0
 23
0.0
 33
0.0
 16
1.0
 26
0.0
 36
0.0
 17
0.0
 27
1.0
 37
0.0
 76
     0
330
1F
331
3B2
  0
MATERIAL
  5
3BC
102
{ACAD_XDICTIONARY
360
3BD
102
}
102
{ACAD_REACTORS
330
BD
102
}
330
BD
100
AcDbMaterial
  1
ByBlock
 72
     0
 43
0.0008202099737533
 43
0.0
 43
0.0
 43
0.0
 43
0.0
 43
0.0008202099737533
 43
0.0
 43
0.0
 43
0.0
 43
0.0
 43
1.0
 43
0.0
 43
0.0
 43
0.0
 43
0.0
 43
1.0
 77
     0
 47
0.0008202099737533
 47
0.0
 47
0.0
 47
0.0
 47
0.0
 47
0.0008202099737533
 47
0.0
 47
0.0
 47
0.0
 47
0.0
 47
1.0
 47
0.0
 47
0.0
 47
0.0
 47
0.0
 47
1.0
171
     0
 49
0.0008202099737533
 49
0.0
 49
0.0
 49
0.0
 49
0.0
 49
0.0008202099737533
 49
0.0
 49
0.0
 49
0.0
 49
0.0
 49
1.0
 49
0.0
 49
0.0
 49
0.0
 49
0.0
 49
1.0
175
     0
142
0.0008202099737533
142
0.0
142
0.0
142
0.0
142
0.0
142
0.0008202099737533
142
0.0
142
0.0
142
0.0
142
0.0
142
1.0
142
0.0
142
0.0
142
0.0
142
0.0
142
1.0
179
     0
144
0.0008202099737533
144
0.0
144
0.0
144
0.0
144
0.0
144
0.0008202099737533
144
0.0
144
0.0
144
0.0
144
0.0
144
1.0
144
0.0
144
0.0
144
0.0
144
0.0
144
1.0
147
0.0008202099737533
147
0.0
147
0.0
147
0.0
147
0.0
147
0.0008202099737533
147
0.0
147
0.0
147
0.0
147
0.0
147
1.0
147
0.0
147
0.0
147
0.0
147
0.0
147
1.0
  0
MATERIAL
  5
3B4
102
{ACAD_XDICTIONARY
360
3B5
102
}
102
{ACAD_REACTORS
330
BD
102
}
330
BD
100
AcDbMaterial
  1
ByLayer
 72
     0
 43
0.0008202099737533
 43
0.0
 43
0.0
 43
0.0
 43
0.0
 43
0.0008202099737533
 43
0.0
 43
0.0
 43
0.0
 43
0.0
 43
1.0
 43
0.0
 43
0.0
 43
0.0
 43
0.0
 43
1.0
 77
     0
 47
0.0008202099737533
 47
0.0
 47
0.0
 47
0.0
 47
0.0
 47
0.0008202099737533
 47
0.0
 47
0.0
 47
0.0
 47
0.0
 47
1.0
 47
0.0
 47
0.0
 47
0.0
 47
0.0
 47
1.0
171
     0
 49
0.0008202099737533
 49
0.0
 49
0.0
 49
0.0
 49
0.0
 49
0.0008202099737533
 49
0.0
 49
0.0
 49
0.0
 49
0.0
 49
1.0
 49
0.0
 49
0.0
 49
0.0
 49
0.0
 49
1.0
175
     0
142
0.0008202099737533
142
0.0
142
0.0
142
0.0
142
0.0
142
0.0008202099737533
142
0.0
142
0.0
142
0.0
142
0.0
142
1.0
142
0.0
142
0.0
142
0.0
142
0.0
142
1.0
179
     0
144
0.0008202099737533
144
0.0
144
0.0
144
0.0
144
0.0
144
0.0008202099737533
144
0.0
144
0.0
144
0.0
144
0.0
144
1.0
144
0.0
144
0.0
144
0.0
144
0.0
144
1.0
147
0.0008202099737533
147
0.0
147
0.0
147
0.0
147
0.0
147
0.0008202099737533
147
0.0
147
0.0
147
0.0
147
0.0
147
1.0
147
0.0
147
0.0
147
0.0
147
0.0
147
1.0
  0
MATERIAL
  5
3C4
102
{ACAD_XDICTIONARY
360
3C5
102
}
102
{ACAD_REACTORS
330
BD
102
}
330
BD
100
AcDbMaterial
  1
Global
 72
     0
 43
0.0008202099737533
 43
0.0
 43
0.0
 43
0.0
 43
0.0
 43
0.0008202099737533
 43
0.0
 43
0.0
 43
0.0
 43
0.0
 43
1.0
 43
0.0
 43
0.0
 43
0.0
 43
0.0
 43
1.0
 77
     0
 47
0.0008202099737533
 47
0.0
 47
0.0
 47
0.0
 47
0.0
 47
0.0008202099737533
 47
0.0
 47
0.0
 47
0.0
 47
0.0
 47
1.0
 47
0.0
 47
0.0
 47
0.0
 47
0.0
 47
1.0
171
     0
 49
0.0008202099737533
 49
0.0
 49
0.0
 49
0.0
 49
0.0
 49
0.0008202099737533
 49
0.0
 49
0.0
 49
0.0
 49
0.0
 49
1.0
 49
0.0
 49
0.0
 49
0.0
 49
0.0
 49
1.0
175
     0
142
0.0008202099737533
142
0.0
142
0.0
142
0.0
142
0.0
142
0.0008202099737533
142
0.0
142
0.0
142
0.0
142
0.0
142
1.0
142
0.0
142
0.0
142
0.0
142
0.0
142
1.0
179
     0
144
0.0008202099737533
144
0.0
144
0.0
144
0.0
144
0.0
144
0.0008202099737533
144
0.0
144
0.0
144
0.0
144
0.0
144
1.0
144
0.0
144
0.0
144
0.0
144
0.0
144
1.0
147
0.0008202099737533
147
0.0
147
0.0
147
0.0
147
0.0
147
0.0008202099737533
147
0.0
147
0.0
147
0.0
147
0.0
147
1.0
147
0.0
147
0.0
147
0.0
147
0.0
147
1.0
  0
MLEADERSTYLE
  5
3F0
102
{ACAD_REACTORS
330
3EF
102
}
330
3EF
100
AcDbMLeaderStyle
170
     2
171
     1
172
     0
 90
        2
 40
0.0
 41
0.0
173
     1
 91
-1056964608
340
14
 92
       -2
290
     1
 42
2.0
291
     1
 43
0.36
  3
Standard
 44
4.0
300

342
11
174
     1
178
     6
175
     1
176
     0
 93
-1056964608
 45
4.0
292
     0
297
     0
 46
4.0
 94
-1056964608
 47
1.0
 49
1.0
140
1.0
293
     1
141
0.0
294
     1
177
     0
142
1.0
295
     0
296
     0
143
0.125
1001
ACAD_MLEADERVER
1070
     2
  0
MLINESTYLE
  5
18
102
{ACAD_REACTORS
330
17
102
}
330
17
100
AcDbMlineStyle
  2
STANDARD
 70
     0
  3

 62
   256
 51
90.0
 52
90.0
 71
     2
 49
0.5
 62
   256
  6
BYLAYER
 49
-0.5
 62
   256
  6
BYLAYER
  0
ACDBPLACEHOLDER
  5
F
102
{ACAD_REACTORS
330
E
102
}
330
E
  0
SCALE
  5
3DE
102
{ACAD_REACTORS
330
3DD
102
}
330
3DD
100
AcDbScale
 70
     0
300
1:1
140
1.0
141
1.0
290
     1
  0
SCALE
  5
3DF
102
{ACAD_REACTORS
330
3DD
102
}
330
3DD
100
AcDbScale
 70
     0
300
1:2
140
1.0
141
2.0
290
     0
  0
SCALE
  5
3E0
102
{ACAD_REACTORS
330
3DD
102
}
330
3DD
100
AcDbScale
 70
     0
300
1:4
140
1.0
141
4.0
290
     0
  0
SCALE
  5
3E1
102
{ACAD_REACTORS
330
3DD
102
}
330
3DD
100
AcDbScale
 70
     0
300
1:5
140
1.0
141
5.0
290
     0
  0
SCALE
  5
3E2
102
{ACAD_REACTORS
330
3DD
102
}
330
3DD
100
AcDbScale
 70
     0
300
1:8
140
1.0
141
8.0
290
     0
  0
SCALE
  5
3E3
102
{ACAD_REACTORS
330
3DD
102
}
330
3DD
100
AcDbScale
 70
     0
300
1:10
140
1.0
141
10.0
290
     0
  0
SCALE
  5
3E4
102
{ACAD_REACTORS
330
3DD
102
}
330
3DD
100
AcDbScale
 70
     0
300
1:16
140
1.0
141
16.0
290
     0
  0
SCALE
  5
3E5
102
{ACAD_REACTORS
330
3DD
102
}
330
3DD
100
AcDbScale
 70
     0
300
1:20
140
1.0
141
20.0
290
     0
  0
SCALE
  5
3E6
102
{ACAD_REACTORS
330
3DD
102
}
330
3DD
100
AcDbScale
 70
     0
300
1:30
140
1.0
141
30.0
290
     0
  0
SCALE
  5
3E7
102
{ACAD_REACTORS
330
3DD
102
}
330
3DD
100
AcDbScale
 70
     0
300
1:40
140
1.0
141
40.0
290
     0
  0
SCALE
  5
3E8
102
{ACAD_REACTORS
330
3DD
102
}
330
3DD
100
AcDbScale
 70
     0
300
1:50
140
1.0
141
50.0
290
     0
  0
SCALE
  5
3E9
102
{ACAD_REACTORS
330
3DD
102
}
330
3DD
100
AcDbScale
 70
     0
300
1:100
140
1.0
141
100.0
290
     0
  0
SCALE
  5
3EA
102
{ACAD_REACTORS
330
3DD
102
}
330
3DD
100
AcDbScale
 70
     0
300
2:1
140
2.0
141
1.0
290
     0
  0
SCALE
  5
3EB
102
{ACAD_REACTORS
330
3DD
102
}
330
3DD
100
AcDbScale
 70
     0
300
4:1
140
4.0
141
1.0
290
     0
  0
SCALE
  5
3EC
102
{ACAD_REACTORS
330
3DD
102
}
330
3DD
100
AcDbScale
 70
     0
300
8:1
140
8.0
141
1.0
290
     0
  0
SCALE
  5
3ED
102
{ACAD_REACTORS
330
3DD
102
}
330
3DD
100
AcDbScale
 70
     0
300
10:1
140
10.0
141
1.0
290
     0
  0
SCALE
  5
3EE
102
{ACAD_REACTORS
330
3DD
102
}
330
3DD
100
AcDbScale
 70
     0
300
100:1
140
100.0
141
1.0
290
     0
  0
TABLESTYLE
  5
11B
102
{ACAD_XDICTIONARY
360
3260
102
}
102
{ACAD_REACTORS
330
11A
102
}
330
11A
100
AcDbTableStyle
  3
Standard
 70
     0
 71
     0
 40
1.5
 41
1.5
280
     0
281
     0
  7
STANDARD
140
4.5
170
     2
 62
     0
 63
     7
283
     0
274
    -2
284
     1
 64
     0
275
    -2
285
     1
 65
     0
276
    -2
286
     1
 66
     0
277
    -2
287
     1
 67
     0
278
    -2
288
     1
 68
     0
279
    -2
289
     1
 69
     0
  7
STANDARD
140
6.0
170
     5
 62
     0
 63
     7
283
     0
274
    -2
284
     1
 64
     0
275
    -2
285
     1
 65
     0
276
    -2
286
     1
 66
     0
277
    -2
287
     1
 67
     0
278
    -2
288
     1
 68
     0
279
    -2
289
     1
 69
     0
  7
STANDARD
140
4.5
170
     5
 62
     0
 63
     7
283
     0
274
    -2
284
     1
 64
     0
275
    -2
285
     1
 65
     0
276
    -2
286
     1
 66
     0
277
    -2
287
     1
 67
     0
278
    -2
288
     1
 68
     0
279
    -2
289
     1
 69
     0
  0
VISUALSTYLE
  5
3D2
102
{ACAD_REACTORS
330
3CC
102
}
330
3CC
100
AcDbVisualStyle
  2
2dWireframe
 70
     4
 71
     0
 72
     2
 73
     0
 90
        0
 40
-0.6
 41
-30.0
 62
     5
 63
     7
 74
     1
 91
        4
 64
     7
 65
   257
 75
     1
175
     1
 42
1.0
 92
        0
 66
   257
 43
1.0
 76
     1
 77
     6
 78
     2
 67
     7
 79
     5
170
     0
171
     0
290
     0
174
     0
 93
        1
 44
0.0
173
     0
291
     0
 45
0.0
1001
ACAD
1000
AcDbSavedByObjectVersion
1070
     0
1000
AcDbSavedByObjectVersion
1070
     0
1000
AcDbSavedByObjectVersion
1070
     0
1000
AcDbSavedByObjectVersion
1070
     0
1000
AcDbSavedByObjectVersion
1070
     0
1000
AcDbSavedByObjectVersion
1070
     0
1000
AcDbSavedByObjectVersion
1070
     0
1000
AcDbSavedByObjectVersion
1070
     0
1000
AcDbSavedByObjectVersion
1070
     0
  0
VISUALSTYLE
  5
3D4
102
{ACAD_REACTORS
330
3CC
102
}
330
3CC
100
AcDbVisualStyle
  2
3D Hidden
 70
     6
 71
     1
 72
     2
 73
     2
 90
        0
 40
-0.6
 41
-30.0
 62
     5
 63
     7
 74
     2
 91
        2
 64
     7
 65
   257
 75
     2
175
     1
 42
40.0
 92
        0
 66
   257
 43
1.0
 76
     1
 77
     6
 78
     2
 67
     7
 79
     3
170
     0
171
     0
290
     0
174
     0
 93
        1
 44
0.0
173
     0
291
     0
 45
0.0
1001
ACAD
1000
AcDbSavedByObjectVersion
1070
     0
1000
AcDbSavedByObjectVersion
1070
     0
1000
AcDbSavedByObjectVersion
1070
     0
1000
AcDbSavedByObjectVersion
1070
     0
1000
AcDbSavedByObjectVersion
1070
     0
1000
AcDbSavedByObjectVersion
1070
     0
1000
AcDbSavedByObjectVersion
1070
     0
1000
AcDbSavedByObjectVersion
1070
     0
1000
AcDbSavedByObjectVersion
1070
     0
  0
VISUALSTYLE
  5
3D3
102
{ACAD_REACTORS
330
3CC
102
}
330
3CC
100
AcDbVisualStyle
  2
3dWireframe
 70
     5
 71
     0
 72
     2
 73
     0
 90
        0
 40
-0.6
 41
-30.0
 62
     5
 63
     7
 74
     1
 91
        4
 64
     7
 65
   257
 75
     1
175
     1
 42
1.0
 92
        0
 66
   257
 43
1.0
 76
     1
 77
     6
 78
     2
 67
     7
 79
     5
170
     0
171
     0
290
     0
174
     0
 93
        1
 44
0.0
173
     0
291
     0
 45
0.0
1001
ACAD
1000
AcDbSavedByObjectVersion
1070
     0
1000
AcDbSavedByObjectVersion
1070
     0
1000
AcDbSavedByObjectVersion
1070
     0
1000
AcDbSavedByObjectVersion
1070
     0
1000
AcDbSavedByObjectVersion
1070
     0
1000
AcDbSavedByObjectVersion
1070
     0
1000
AcDbSavedByObjectVersion
1070
     0
1000
AcDbSavedByObjectVersion
1070
     0
1000
AcDbSavedByObjectVersion
1070
     0
  0
VISUALSTYLE
  5
3D1
102
{ACAD_REACTORS
330
3CC
102
}
330
3CC
100
AcDbVisualStyle
  2
Basic
 70
     7
 71
     1
 72
     0
 73
     1
 90
        0
 40
-0.6
 41
-30.0
 62
     5
 63
     7
 74
     0
 91
        4
 64
     7
 65
   257
 75
     1
175
     1
 42
1.0
 92
        8
 66
     7
 43
1.0
 76
     1
 77
     6
 78
     2
 67
     7
 79
     5
170
     0
171
     0
290
     0
174
     0
 93
        1
 44
0.0
173
     0
291
     1
 45
0.0
1001
ACAD
1000
AcDbSavedByObjectVersion
1070
     0
1000
AcDbSavedByObjectVersion
1070
     0
1000
AcDbSavedByObjectVersion
1070
     0
1000
AcDbSavedByObjectVersion
1070
     0
1000
AcDbSavedByObjectVersion
1070
     0
1000
AcDbSavedByObjectVersion
1070
     0
1000
AcDbSavedByObjectVersion
1070
     0
1000
AcDbSavedByObjectVersion
1070
     0
1000
AcDbSavedByObjectVersion
1070
     0
  0
VISUALSTYLE
  5
3D8
102
{ACAD_REACTORS
330
3CC
102
}
330
3CC
100
AcDbVisualStyle
  2
Brighten
 70
    12
 71
     2
 72
     2
 73
     0
 90
        0
 40
-0.6
 41
-30.0
 62
     5
 63
     7
 74
     1
 91
        4
 64
     7
 65
   257
 75
     1
175
     1
 42
1.0
 92
        8
 66
     7
 43
1.0
 76
     1
 77
     6
 78
     2
 67
     7
 79
     5
170
     0
171
     0
290
     0
174
     0
 93
        1
 44
50.0
173
     0
291
     1
 45
0.0
1001
ACAD
1000
AcDbSavedByObjectVersion
1070
     0
1000
AcDbSavedByObjectVersion
1070
     0
1000
AcDbSavedByObjectVersion
1070
     0
1000
AcDbSavedByObjectVersion
1070
     0
1000
AcDbSavedByObjectVersion
1070
     0
1000
AcDbSavedByObjectVersion
1070
     0
1000
AcDbSavedByObjectVersion
1070
     0
1000
AcDbSavedByObjectVersion
1070
     0
1000
AcDbSavedByObjectVersion
1070
     0
  0
VISUALSTYLE
  5
3DC
102
{ACAD_REACTORS
330
3CC
102
}
330
3CC
100
AcDbVisualStyle
  2
ColorChange
 70
    16
 71
     2
 72
     2
 73
     3
 90
        0
 40
-0.6
 41
-30.0
 62
     5
 63
     8
 74
     1
 91
        4
 64
     7
 65
   257
 75
     1
175
     1
 42
1.0
 92
        8
 66
     8
 43
1.0
 76
     1
 77
     6
 78
     2
 67
     7
 79
     5
170
     0
171
     0
290
     0
174
     0
 93
        1
 44
0.0
173
     0
291
     1
 45
0.0
1001
ACAD
1000
AcDbSavedByObjectVersion
1070
     0
1000
AcDbSavedByObjectVersion
1070
     0
1000
AcDbSavedByObjectVersion
1070
     0
1000
AcDbSavedByObjectVersion
1070
     0
1000
AcDbSavedByObjectVersion
1070
     0
1000
AcDbSavedByObjectVersion
1070
     0
1000
AcDbSavedByObjectVersion
1070
     0
1000
AcDbSavedByObjectVersion
1070
     0
1000
AcDbSavedByObjectVersion
1070
     0
  0
VISUALSTYLE
  5
3D5
102
{ACAD_REACTORS
330
3CC
102
}
330
3CC
100
AcDbVisualStyle
  2
Conceptual
 70
     9
 71
     3
 72
     2
 73
     0
 90
        0
 40
-0.6
 41
-30.0
 62
     5
 63
     7
 74
     2
 91
        2
 64
     7
 65
   257
 75
     1
175
     1
 42
40.0
 92
        8
 66
     7
 43
1.0
 76
     1
 77
     6
 78
     2
 67
     7
 79
     3
170
     0
171
     0
290
     0
174
     0
 93
        1
 44
0.0
173
     0
291
     0
 45
0.0
1001
ACAD
1000
AcDbSavedByObjectVersion
1070
     0
1000
AcDbSavedByObjectVersion
1070
     0
1000
AcDbSavedByObjectVersion
1070
     0
1000
AcDbSavedByObjectVersion
1070
     0
1000
AcDbSavedByObjectVersion
1070
     0
1000
AcDbSavedByObjectVersion
1070
     0
1000
AcDbSavedByObjectVersion
1070
     0
1000
AcDbSavedByObjectVersion
1070
     0
1000
AcDbSavedByObjectVersion
1070
     0
  0
VISUALSTYLE
  5
3D7
102
{ACAD_REACTORS
330
3CC
102
}
330
3CC
100
AcDbVisualStyle
  2
Dim
 70
    11
 71
     2
 72
     2
 73
     0
 90
        0
 40
-0.6
 41
-30.0
 62
     5
 63
     7
 74
     1
 91
        4
 64
     7
 65
   257
 75
     1
175
     1
 42
1.0
 92
        8
 66
     7
 43
1.0
 76
     1
 77
     6
 78
     2
 67
     7
 79
     5
170
     0
171
     0
290
     0
174
     0
 93
        1
 44
-50.0
173
     0
291
     1
 45
0.0
1001
ACAD
1000
AcDbSavedByObjectVersion
1070
     0
1000
AcDbSavedByObjectVersion
1070
     0
1000
AcDbSavedByObjectVersion
1070
     0
1000
AcDbSavedByObjectVersion
1070
     0
1000
AcDbSavedByObjectVersion
1070
     0
1000
AcDbSavedByObjectVersion
1070
     0
1000
AcDbSavedByObjectVersion
1070
     0
1000
AcDbSavedByObjectVersion
1070
     0
1000
AcDbSavedByObjectVersion
1070
     0
  0
VISUALSTYLE
  5
3DB
102
{ACAD_REACTORS
330
3CC
102
}
330
3CC
100
AcDbVisualStyle
  2
Facepattern
 70
    15
 71
     2
 72
     2
 73
     0
 90
        0
 40
-0.6
 41
-30.0
 62
     5
 63
     7
 74
     1
 91
        4
 64
     7
 65
   257
 75
     1
175
     1
 42
1.0
 92
        8
 66
     7
 43
1.0
 76
     1
 77
     6
 78
     2
 67
     7
 79
     5
170
     0
171
     0
290
     0
174
     0
 93
        1
 44
0.0
173
     0
291
     1
 45
0.0
1001
ACAD
1000
AcDbSavedByObjectVersion
1070
     0
1000
AcDbSavedByObjectVersion
1070
     0
1000
AcDbSavedByObjectVersion
1070
     0
1000
AcDbSavedByObjectVersion
1070
     0
1000
AcDbSavedByObjectVersion
1070
     0
1000
AcDbSavedByObjectVersion
1070
     0
1000
AcDbSavedByObjectVersion
1070
     0
1000
AcDbSavedByObjectVersion
1070
     0
1000
AcDbSavedByObjectVersion
1070
     0
  0
VISUALSTYLE
  5
3CD
102
{ACAD_REACTORS
330
3CC
102
}
330
3CC
100
AcDbVisualStyle
  2
Flat
 70
     0
 71
     2
 72
     1
 73
     1
 90
        2
 40
-0.6
 41
30.0
 62
     5
 63
     7
 74
     0
 91
        4
 64
     7
 65
   257
 75
     1
175
     1
 42
1.0
 92
        8
 66
     7
 43
1.0
 76
     1
 77
     6
 78
     2
 67
     7
 79
     5
170
     0
171
     0
290
     0
174
     0
 93
       13
 44
0.0
173
     0
291
     1
 45
0.0
1001
ACAD
1000
AcDbSavedByObjectVersion
1070
     0
1000
AcDbSavedByObjectVersion
1070
     0
1000
AcDbSavedByObjectVersion
1070
     0
1000
AcDbSavedByObjectVersion
1070
     0
1000
AcDbSavedByObjectVersion
1070
     0
1000
AcDbSavedByObjectVersion
1070
     0
1000
AcDbSavedByObjectVersion
1070
     0
1000
AcDbSavedByObjectVersion
1070
     0
1000
AcDbSavedByObjectVersion
1070
     0
  0
VISUALSTYLE
  5
3CE
102
{ACAD_REACTORS
330
3CC
102
}
330
3CC
100
AcDbVisualStyle
  2
FlatWithEdges
 70
     1
 71
     2
 72
     1
 73
     1
 90
        2
 40
-0.6
 41
30.0
 62
     5
 63
     7
 74
     1
 91
        4
 64
     7
 65
   257
 75
     1
175
     1
 42
1.0
 92
        0
 66
   257
 43
1.0
 76
     1
 77
     6
 78
     2
 67
     7
 79
     5
170
     0
171
     0
290
     0
174
     0
 93
       13
 44
0.0
173
     0
291
     1
 45
0.0
1001
ACAD
1000
AcDbSavedByObjectVersion
1070
     0
1000
AcDbSavedByObjectVersion
1070
     0
1000
AcDbSavedByObjectVersion
1070
     0
1000
AcDbSavedByObjectVersion
1070
     0
1000
AcDbSavedByObjectVersion
1070
     0
1000
AcDbSavedByObjectVersion
1070
     0
1000
AcDbSavedByObjectVersion
1070
     0
1000
AcDbSavedByObjectVersion
1070
     0
1000
AcDbSavedByObjectVersion
1070
     0
  0
VISUALSTYLE
  5
3CF
102
{ACAD_REACTORS
330
3CC
102
}
330
3CC
100
AcDbVisualStyle
  2
Gouraud
 70
     2
 71
     2
 72
     2
 73
     1
 90
        2
 40
-0.6
 41
30.0
 62
     5
 63
     7
 74
     0
 91
        4
 64
     7
 65
   257
 75
     1
175
     1
 42
1.0
 92
        0
 66
     7
 43
1.0
 76
     1
 77
     6
 78
     2
 67
     7
 79
     5
170
     0
171
     0
290
     0
174
     0
 93
       13
 44
0.0
173
     0
291
     1
 45
0.0
1001
ACAD
1000
AcDbSavedByObjectVersion
1070
     0
1000
AcDbSavedByObjectVersion
1070
     0
1000
AcDbSavedByObjectVersion
1070
     0
1000
AcDbSavedByObjectVersion
1070
     0
1000
AcDbSavedByObjectVersion
1070
     0
1000
AcDbSavedByObjectVersion
1070
     0
1000
AcDbSavedByObjectVersion
1070
     0
1000
AcDbSavedByObjectVersion
1070
     0
1000
AcDbSavedByObjectVersion
1070
     0
  0
VISUALSTYLE
  5
3D0
102
{ACAD_REACTORS
330
3CC
102
}
330
3CC
100
AcDbVisualStyle
  2
GouraudWithEdges
 70
     3
 71
     2
 72
     2
 73
     1
 90
        2
 40
-0.6
 41
30.0
 62
     5
 63
     7
 74
     1
 91
        4
 64
     7
 65
   257
 75
     1
175
     1
 42
1.0
 92
        0
 66
   257
 43
1.0
 76
     1
 77
     6
 78
     2
 67
     7
 79
     5
170
     0
171
     0
290
     0
174
     0
 93
       13
 44
0.0
173
     0
291
     1
 45
0.0
1001
ACAD
1000
AcDbSavedByObjectVersion
1070
     0
1000
AcDbSavedByObjectVersion
1070
     0
1000
AcDbSavedByObjectVersion
1070
     0
1000
AcDbSavedByObjectVersion
1070
     0
1000
AcDbSavedByObjectVersion
1070
     0
1000
AcDbSavedByObjectVersion
1070
     0
1000
AcDbSavedByObjectVersion
1070
     0
1000
AcDbSavedByObjectVersion
1070
     0
1000
AcDbSavedByObjectVersion
1070
     0
  0
VISUALSTYLE
  5
3DA
102
{ACAD_REACTORS
330
3CC
102
}
330
3CC
100
AcDbVisualStyle
  2
Linepattern
 70
    14
 71
     2
 72
     2
 73
     0
 90
        0
 40
-0.6
 41
-30.0
 62
     5
 63
     7
 74
     1
 91
        4
 64
     7
 65
   257
 75
     7
175
     7
 42
1.0
 92
        8
 66
     7
 43
1.0
 76
     1
 77
     6
 78
     2
 67
     7
 79
     5
170
     0
171
     0
290
     0
174
     0
 93
        1
 44
0.0
173
     0
291
     1
 45
0.0
1001
ACAD
1000
AcDbSavedByObjectVersion
1070
     0
1000
AcDbSavedByObjectVersion
1070
     0
1000
AcDbSavedByObjectVersion
1070
     0
1000
AcDbSavedByObjectVersion
1070
     0
1000
AcDbSavedByObjectVersion
1070
     0
1000
AcDbSavedByObjectVersion
1070
     0
1000
AcDbSavedByObjectVersion
1070
     0
1000
AcDbSavedByObjectVersion
1070
     0
1000
AcDbSavedByObjectVersion
1070
     0
  0
VISUALSTYLE
  5
3D6
102
{ACAD_REACTORS
330
3CC
102
}
330
3CC
100
AcDbVisualStyle
  2
Realistic
 70
     8
 71
     2
 72
     2
 73
     0
 90
        0
 40
-0.6
 41
-30.0
 62
     5
 63
     7
 74
     1
 91
        0
 64
     7
 65
   257
 75
     1
175
     1
 42
1.0
 92
        8
 66
     8
 43
1.0
 76
     1
 77
     6
 78
     2
 67
     7
 79
     5
170
     0
171
     0
290
     0
174
     0
 93
       13
 44
0.0
173
     0
291
     0
 45
0.0
1001
ACAD
1000
AcDbSavedByObjectVersion
1070
     0
1000
AcDbSavedByObjectVersion
1070
     0
1000
AcDbSavedByObjectVersion
1070
     0
1000
AcDbSavedByObjectVersion
1070
     0
1000
AcDbSavedByObjectVersion
1070
     0
1000
AcDbSavedByObjectVersion
1070
     0
1000
AcDbSavedByObjectVersion
1070
     0
1000
AcDbSavedByObjectVersion
1070
     0
1000
AcDbSavedByObjectVersion
1070
     0
  0
VISUALSTYLE
  5
3D9
102
{ACAD_REACTORS
330
3CC
102
}
330
3CC
100
AcDbVisualStyle
  2
Thicken
 70
    13
 71
     2
 72
     2
 73
     0
 90
        0
 40
-0.6
 41
-30.0
 62
     5
 63
     7
 74
     1
 91
        4
 64
     7
 65
   257
 75
     1
175
     1
 42
1.0
 92
       12
 66
     7
 43
1.0
 76
     1
 77
     6
 78
     2
 67
     7
 79
     5
170
     0
171
     0
290
     0
174
     0
 93
        1
 44
0.0
173
     0
291
     1
 45
0.0
1001
ACAD
1000
AcDbSavedByObjectVersion
1070
     0
1000
AcDbSavedByObjectVersion
1070
     0
1000
AcDbSavedByObjectVersion
1070
     0
1000
AcDbSavedByObjectVersion
1070
     0
1000
AcDbSavedByObjectVersion
1070
     0
1000
AcDbSavedByObjectVersion
1070
     0
1000
AcDbSavedByObjectVersion
1070
     0
1000
AcDbSavedByObjectVersion
1070
     0
1000
AcDbSavedByObjectVersion
1070
     0
  0
DICTIONARYVAR
  5
325E
102
{ACAD_REACTORS
330
94
102
}
330
94
100
DictionaryVariables
280
     0
  1
1:1
  0
DICTIONARYVAR
  5
325D
102
{ACAD_REACTORS
330
94
102
}
330
94
100
DictionaryVariables
280
     0
  1
STANDARD
  0
DICTIONARYVAR
  5
138
102
{ACAD_REACTORS
330
94
102
}
330
94
100
DictionaryVariables
280
     0
  1
STANDARD
  0
DICTIONARYVAR
  5
96
102
{ACAD_REACTORS
330
94
102
}
330
94
100
DictionaryVariables
280
     0
  1
2
  0
DICTIONARYVAR
  5
95
102
{ACAD_REACTORS
330
94
102
}
330
94
100
DictionaryVariables
280
     0
  1
0
  0
DICTIONARYVAR
  5
325F
102
{ACAD_REACTORS
330
94
102
}
330
94
100
DictionaryVariables
280
     0
  1
127
  0
DICTIONARY
  5
272
102
{ACAD_REACTORS
330
5B
102
}
330
5B
100
AcDbDictionary
281
     1
  0
DICTIONARY
  5
61
102
{ACAD_REACTORS
330
5B
102
}
330
5B
100
AcDbDictionary
281
     1
  0
XRECORD
  5
123
102
{ACAD_REACTORS
330
5B
102
}
330
5B
100
AcDbXrecord
280
     1
 90
-1023410169
  0
DICTIONARY
  5
4449
330
1E
100
AcDbDictionary
280
     1
281
     1
  3
ACAD_XREC_ROUNDTRIP
360
444A
  0
DICTIONARY
  5
444D
330
26
100
AcDbDictionary
280
     1
281
     1
  3
ACAD_XREC_ROUNDTRIP
360
444E
  0
DICTIONARY
  5
444B
330
22
100
AcDbDictionary
280
     1
281
     1
  3
ACAD_XREC_ROUNDTRIP
360
444C
  0
DICTIONARY
  5
3BD
330
3BC
100
AcDbDictionary
280
     1
281
     1
  3
ACAD_XREC_ROUNDTRIP
360
326E
  3
BUMPTILE
360
3BF
  3
DIFFUSETILE
360
3BE
  3
OPACITYTILE
360
3C2
  3
REFLECTIONTILE
360
3C1
  3
REFRACTIONTILE
360
3C3
  3
SPECULARTILE
360
3C0
  0
DICTIONARY
  5
3B5
330
3B4
100
AcDbDictionary
280
     1
281
     1
  3
ACAD_XREC_ROUNDTRIP
360
326D
  3
BUMPTILE
360
3B7
  3
DIFFUSETILE
360
3B6
  3
OPACITYTILE
360
3BA
  3
REFLECTIONTILE
360
3B9
  3
REFRACTIONTILE
360
3BB
  3
SPECULARTILE
360
3B8
  0
DICTIONARY
  5
3C5
330
3C4
100
AcDbDictionary
280
     1
281
     1
  3
ACAD_XREC_ROUNDTRIP
360
326F
  3
BUMPTILE
360
3C7
  3
DIFFUSETILE
360
3C6
  3
OPACITYTILE
360
3CA
  3
REFLECTIONTILE
360
3C9
  3
REFRACTIONTILE
360
3CB
  3
SPECULARTILE
360
3C8
  0
DICTIONARY
  5
3260
330
11B
100
AcDbDictionary
280
     1
281
     1
  3
ACAD_ROUNDTRIP_2008_TABLESTYLE_CELLSTYLEMAP
360
4442
  3
ACAD_XREC_ROUNDTRIP
360
444F
  0
XRECORD
  5
444A
102
{ACAD_REACTORS
330
4449
102
}
330
4449
100
AcDbXrecord
280
     1
102
SHADEPLOT
 70
     0
102
SHADEPLOTRESLEVEL
 70
     2
102
SHADEPLOTCUSTOMDPI
 70
   300
  0
XRECORD
  5
444E
102
{ACAD_REACTORS
330
444D
102
}
330
444D
100
AcDbXrecord
280
     1
102
SHADEPLOT
 70
     0
102
SHADEPLOTRESLEVEL
 70
     2
102
SHADEPLOTCUSTOMDPI
 70
   300
  0
XRECORD
  5
444C
102
{ACAD_REACTORS
330
444B
102
}
330
444B
100
AcDbXrecord
280
     1
102
SHADEPLOT
 70
     0
102
SHADEPLOTRESLEVEL
 70
     2
102
SHADEPLOTCUSTOMDPI
 70
   300
  0
XRECORD
  5
326E
102
{ACAD_REACTORS
330
3BD
102
}
330
3BD
100
AcDbXrecord
280
     1
102
MATERIAL
148
0.0
149
0.0
149
0.0
 93
        0
 94
      127
282
     0
 72
     0
 77
     0
171
     0
175
     0
179
     0
273
     0
  0
XRECORD
  5
3BF
102
{ACAD_REACTORS
330
3BD
102
}
330
3BD
100
AcDbXrecord
280
     1
270
     1
271
     1
  0
XRECORD
  5
3BE
102
{ACAD_REACTORS
330
3BD
102
}
330
3BD
100
AcDbXrecord
280
     1
270
     1
271
     1
  0
XRECORD
  5
3C2
102
{ACAD_REACTORS
330
3BD
102
}
330
3BD
100
AcDbXrecord
280
     1
270
     1
271
     1
  0
XRECORD
  5
3C1
102
{ACAD_REACTORS
330
3BD
102
}
330
3BD
100
AcDbXrecord
280
     1
270
     1
271
     1
  0
XRECORD
  5
3C3
102
{ACAD_REACTORS
330
3BD
102
}
330
3BD
100
AcDbXrecord
280
     1
270
     1
271
     1
  0
XRECORD
  5
3C0
102
{ACAD_REACTORS
330
3BD
102
}
330
3BD
100
AcDbXrecord
280
     1
270
     1
271
     1
  0
XRECORD
  5
326D
102
{ACAD_REACTORS
330
3B5
102
}
330
3B5
100
AcDbXrecord
280
     1
102
MATERIAL
148
0.0
149
0.0
149
0.0
 93
        0
 94
      127
282
     0
 72
     0
 77
     0
171
     0
175
     0
179
     0
273
     0
  0
XRECORD
  5
3B7
102
{ACAD_REACTORS
330
3B5
102
}
330
3B5
100
AcDbXrecord
280
     1
270
     1
271
     1
  0
XRECORD
  5
3B6
102
{ACAD_REACTORS
330
3B5
102
}
330
3B5
100
AcDbXrecord
280
     1
270
     1
271
     1
  0
XRECORD
  5
3BA
102
{ACAD_REACTORS
330
3B5
102
}
330
3B5
100
AcDbXrecord
280
     1
270
     1
271
     1
  0
XRECORD
  5
3B9
102
{ACAD_REACTORS
330
3B5
102
}
330
3B5
100
AcDbXrecord
280
     1
270
     1
271
     1
  0
XRECORD
  5
3BB
102
{ACAD_REACTORS
330
3B5
102
}
330
3B5
100
AcDbXrecord
280
     1
270
     1
271
     1
  0
XRECORD
  5
3B8
102
{ACAD_REACTORS
330
3B5
102
}
330
3B5
100
AcDbXrecord
280
     1
270
     1
271
     1
  0
XRECORD
  5
326F
102
{ACAD_REACTORS
330
3C5
102
}
330
3C5
100
AcDbXrecord
280
     1
102
MATERIAL
148
0.0
149
0.0
149
0.0
 93
        0
 94
      127
282
     0
 72
     0
 77
     0
171
     0
175
     0
179
     0
273
     0
  0
XRECORD
  5
3C7
102
{ACAD_REACTORS
330
3C5
102
}
330
3C5
100
AcDbXrecord
280
     1
270
     1
271
     1
  0
XRECORD
  5
3C6
102
{ACAD_REACTORS
330
3C5
102
}
330
3C5
100
AcDbXrecord
280
     1
270
     1
271
     1
  0
XRECORD
  5
3CA
102
{ACAD_REACTORS
330
3C5
102
}
330
3C5
100
AcDbXrecord
280
     1
270
     1
271
     1
  0
XRECORD
  5
3C9
102
{ACAD_REACTORS
330
3C5
102
}
330
3C5
100
AcDbXrecord
280
     1
270
     1
271
     1
  0
XRECORD
  5
3CB
102
{ACAD_REACTORS
330
3C5
102
}
330
3C5
100
AcDbXrecord
280
     1
270
     1
271
     1
  0
XRECORD
  5
3C8
102
{ACAD_REACTORS
330
3C5
102
}
330
3C5
100
AcDbXrecord
280
     1
270
     1
271
     1
  0
CELLSTYLEMAP
  5
4442
102
{ACAD_REACTORS
330
3260
102
}
330
3260
100
AcDbCellStyleMap
 90
        3
300
CELLSTYLE
  1
TABLEFORMAT_BEGIN
 90
        5
170
     1
 91
        0
 92
    32768
 62
   257
 93
        1
300
CONTENTFORMAT
  1
CONTENTFORMAT_BEGIN
 90
        0
 91
        0
 92
        4
 93
        0
300

 40
0.0
140
1.0
 94
        5
 62
     0
340
11
144
6.0
309
CONTENTFORMAT_END
171
     1
301
MARGIN
  1
CELLMARGIN_BEGIN
 40
1.5
 40
1.5
 40
1.5
 40
1.5
 40
0.18
 40
0.18
309
CELLMARGIN_END
 94
        6
 95
        1
302
GRIDFORMAT
  1
GRIDFORMAT_BEGIN
 90
        0
 91
        1
 62
     0
 92
       -2
340
0
 93
        0
 40
0.045
309
GRIDFORMAT_END
 95
        2
302
GRIDFORMAT
  1
GRIDFORMAT_BEGIN
 90
        0
 91
        1
 62
     0
 92
       -2
340
0
 93
        0
 40
0.045
309
GRIDFORMAT_END
 95
        4
302
GRIDFORMAT
  1
GRIDFORMAT_BEGIN
 90
        0
 91
        1
 62
     0
 92
       -2
340
0
 93
        0
 40
0.045
309
GRIDFORMAT_END
 95
        8
302
GRIDFORMAT
  1
GRIDFORMAT_BEGIN
 90
        0
 91
        1
 62
     0
 92
       -2
340
0
 93
        0
 40
0.045
309
GRIDFORMAT_END
 95
       16
302
GRIDFORMAT
  1
GRIDFORMAT_BEGIN
 90
        0
 91
        1
 62
     0
 92
       -2
340
0
 93
        0
 40
0.045
309
GRIDFORMAT_END
 95
       32
302
GRIDFORMAT
  1
GRIDFORMAT_BEGIN
 90
        0
 91
        1
 62
     0
 92
       -2
340
0
 93
        0
 40
0.045
309
GRIDFORMAT_END
309
TABLEFORMAT_END
  1
CELLSTYLE_BEGIN
 90
        1
 91
        1
300
_TITLE
309
CELLSTYLE_END
300
CELLSTYLE
  1
TABLEFORMAT_BEGIN
 90
        5
170
     1
 91
        0
 92
        0
 62
   257
 93
        1
300
CONTENTFORMAT
  1
CONTENTFORMAT_BEGIN
 90
        0
 91
        0
 92
        4
 93
        0
300

 40
0.0
140
1.0
 94
        5
 62
     0
340
11
144
4.5
309
CONTENTFORMAT_END
171
     1
301
MARGIN
  1
CELLMARGIN_BEGIN
 40
1.5
 40
1.5
 40
1.5
 40
1.5
 40
0.18
 40
0.18
309
CELLMARGIN_END
 94
        6
 95
        1
302
GRIDFORMAT
  1
GRIDFORMAT_BEGIN
 90
        0
 91
        1
 62
     0
 92
       -2
340
0
 93
        0
 40
0.045
309
GRIDFORMAT_END
 95
        2
302
GRIDFORMAT
  1
GRIDFORMAT_BEGIN
 90
        0
 91
        1
 62
     0
 92
       -2
340
0
 93
        0
 40
0.045
309
GRIDFORMAT_END
 95
        4
302
GRIDFORMAT
  1
GRIDFORMAT_BEGIN
 90
        0
 91
        1
 62
     0
 92
       -2
340
0
 93
        0
 40
0.045
309
GRIDFORMAT_END
 95
        8
302
GRIDFORMAT
  1
GRIDFORMAT_BEGIN
 90
        0
 91
        1
 62
     0
 92
       -2
340
0
 93
        0
 40
0.045
309
GRIDFORMAT_END
 95
       16
302
GRIDFORMAT
  1
GRIDFORMAT_BEGIN
 90
        0
 91
        1
 62
     0
 92
       -2
340
0
 93
        0
 40
0.045
309
GRIDFORMAT_END
 95
       32
302
GRIDFORMAT
  1
GRIDFORMAT_BEGIN
 90
        0
 91
        1
 62
     0
 92
       -2
340
0
 93
        0
 40
0.045
309
GRIDFORMAT_END
309
TABLEFORMAT_END
  1
CELLSTYLE_BEGIN
 90
        2
 91
        1
300
_HEADER
309
CELLSTYLE_END
300
CELLSTYLE
  1
TABLEFORMAT_BEGIN
 90
        5
170
     1
 91
        0
 92
        0
 62
   257
 93
        1
300
CONTENTFORMAT
  1
CONTENTFORMAT_BEGIN
 90
        0
 91
        0
 92
        4
 93
        0
300

 40
0.0
140
1.0
 94
        2
 62
     0
340
11
144
4.5
309
CONTENTFORMAT_END
171
     1
301
MARGIN
  1
CELLMARGIN_BEGIN
 40
1.5
 40
1.5
 40
1.5
 40
1.5
 40
0.18
 40
0.18
309
CELLMARGIN_END
 94
        6
 95
        1
302
GRIDFORMAT
  1
GRIDFORMAT_BEGIN
 90
        0
 91
        1
 62
     0
 92
       -2
340
0
 93
        0
 40
0.045
309
GRIDFORMAT_END
 95
        2
302
GRIDFORMAT
  1
GRIDFORMAT_BEGIN
 90
        0
 91
        1
 62
     0
 92
       -2
340
0
 93
        0
 40
0.045
309
GRIDFORMAT_END
 95
        4
302
GRIDFORMAT
  1
GRIDFORMAT_BEGIN
 90
        0
 91
        1
 62
     0
 92
       -2
340
0
 93
        0
 40
0.045
309
GRIDFORMAT_END
 95
        8
302
GRIDFORMAT
  1
GRIDFORMAT_BEGIN
 90
        0
 91
        1
 62
     0
 92
       -2
340
0
 93
        0
 40
0.045
309
GRIDFORMAT_END
 95
       16
302
GRIDFORMAT
  1
GRIDFORMAT_BEGIN
 90
        0
 91
        1
 62
     0
 92
       -2
340
0
 93
        0
 40
0.045
309
GRIDFORMAT_END
 95
       32
302
GRIDFORMAT
  1
GRIDFORMAT_BEGIN
 90
        0
 91
        1
 62
     0
 92
       -2
340
0
 93
        0
 40
0.045
309
GRIDFORMAT_END
309
TABLEFORMAT_END
  1
CELLSTYLE_BEGIN
 90
        3
 91
        2
300
_DATA
309
CELLSTYLE_END
  0
XRECORD
  5
444F
102
{ACAD_REACTORS
330
3260
102
}
330
3260
100
AcDbXrecord
280
     1
102
ACAD_ROUNDTRIP_PRE2007_TABLESTYLE
 90
        4
 91
        0
  1

 92
        4
 93
        0
  2

 94
        4
 95
        0
  3

  0
ENDSEC
  0
EOF
