  0
SECTION
  2
HEADER
  9
$ACADVER
  1
AC1015
  9
$ACADMAINTVER
 70
    20
  9
$DWGCODEPAGE
  3
ANSI_1252
  9
$INSBASE
 10
0.0
 20
0.0
 30
0.0
  9
$EXTMIN
 10
61.9811826527848
 20
-41.16715229265264
 30
-0.0000000000000053
  9
$EXTMAX
 10
416.0950675403755
 20
497.394204447027
 30
0.0000000000000099
  9
$LIMMIN
 10
0.0
 20
0.0
  9
$LIMMAX
 10
420.0
 20
297.0
  9
$ORTHOMODE
 70
     1
  9
$REGENMODE
 70
     1
  9
$FILLMODE
 70
     1
  9
$QTEXTMODE
 70
     0
  9
$MIRRTEXT
 70
     1
  9
$LTSCALE
 40
1.0
  9
$ATTMODE
 70
     1
  9
$TEXTSIZE
 40
2.5
  9
$TRACEWID
 40
1.0
  9
$TEXTSTYLE
  7
STANDARD
  9
$CLAYER
  8
0
  9
$CELTYPE
  6
ByLayer
  9
$CECOLOR
 62
   256
  9
$CELTSCALE
 40
1.0
  9
$DISPSILH
 70
     0
  9
$DIMSCALE
 40
1.0
  9
$DIMASZ
 40
3.5
  9
$DIMEXO
 40
1.0
  9
$DIMDLI
 40
10.0
  9
$DIMRND
 40
0.0
  9
$DIMDLE
 40
0.0
  9
$DIMEXE
 40
1.0
  9
$DIMTP
 40
0.1
  9
$DIMTM
 40
0.1
  9
$DIMTXT
 40
3.5
  9
$DIMCEN
 40
0.0
  9
$DIMTSZ
 40
0.0
  9
$DIMTOL
 70
     0
  9
$DIMLIM
 70
     0
  9
$DIMTIH
 70
     0
  9
$DIMTOH
 70
     0
  9
$DIMSE1
 70
     0
  9
$DIMSE2
 70
     0
  9
$DIMTAD
 70
     1
  9
$DIMZIN
 70
     8
  9
$DIMBLK
  1

  9
$DIMASO
 70
     1
  9
$DIMSHO
 70
     1
  9
$DIMPOST
  1

  9
$DIMAPOST
  1
"
  9
$DIMALT
 70
     0
  9
$DIMALTD
 70
     2
  9
$DIMALTF
 40
0.0393701
  9
$DIMLFAC
 40
1.0
  9
$DIMTOFL
 70
     1
  9
$DIMTVP
 40
0.0
  9
$DIMTIX
 70
     0
  9
$DIMSOXD
 70
     0
  9
$DIMSAH
 70
     0
  9
$DIMBLK1
  1

  9
$DIMBLK2
  1

  9
$DIMSTYLE
  2
AM_DIN
  9
$DIMCLRD
 70
   256
  9
$DIMCLRE
 70
   256
  9
$DIMCLRT
 70
     2
  9
$DIMTFAC
 40
0.71
  9
$DIMGAP
 40
1.5
  9
$DIMJUST
 70
     0
  9
$DIMSD1
 70
     0
  9
$DIMSD2
 70
     0
  9
$DIMTOLJ
 70
     0
  9
$DIMTZIN
 70
     8
  9
$DIMALTZ
 70
     0
  9
$DIMALTTZ
 70
     0
  9
$DIMUPT
 70
     0
  9
$DIMDEC
 70
     2
  9
$DIMTDEC
 70
     3
  9
$DIMALTU
 70
     2
  9
$DIMALTTD
 70
     4
  9
$DIMTXSTY
  7
STANDARD
  9
$DIMAUNIT
 70
     0
  9
$DIMADEC
 70
     0
  9
$DIMALTRND
 40
0.0
  9
$DIMAZIN
 70
     2
  9
$DIMDSEP
 70
    46
  9
$DIMATFIT
 70
     3
  9
$DIMFRAC
 70
     0
  9
$DIMLDRBLK
  1

  9
$DIMLUNIT
 70
     2
  9
$DIMLWD
 70
    -1
  9
$DIMLWE
 70
    -1
  9
$DIMTMOVE
 70
     0
  9
$LUNITS
 70
     2
  9
$LUPREC
 70
     2
  9
$SKETCHINC
 40
1.0
  9
$FILLETRAD
 40
0.0
  9
$AUNITS
 70
     0
  9
$AUPREC
 70
     0
  9
$MENU
  1
.
  9
$ELEVATION
 40
0.0
  9
$PELEVATION
 40
0.0
  9
$THICKNESS
 40
0.0
  9
$LIMCHECK
 70
     0
  9
$CHAMFERA
 40
2.5
  9
$CHAMFERB
 40
2.5
  9
$CHAMFERC
 40
20.0
  9
$CHAMFERD
 40
0.0
  9
$SKPOLY
 70
     0
  9
$TDCREATE
 40
2455478.316582292
  9
$TDUCREATE
 40
2455478.274915625
  9
$TDUPDATE
 40
2455610.346787048
  9
$TDUUPDATE
 40
2455610.305120382
  9
$TDINDWG
 40
0.0737886111
  9
$TDUSRTIMER
 40
0.0736648958
  9
$USRTIMER
 70
     1
  9
$ANGBASE
 50
0.0
  9
$ANGDIR
 70
     0
  9
$PDMODE
 70
     0
  9
$PDSIZE
 40
0.0
  9
$PLINEWID
 40
0.0
  9
$SPLFRAME
 70
     0
  9
$SPLINETYPE
 70
     6
  9
$SPLINESEGS
 70
     8
  9
$HANDSEED
  5
5611
  9
$SURFTAB1
 70
     6
  9
$SURFTAB2
 70
     6
  9
$SURFTYPE
 70
     6
  9
$SURFU
 70
     6
  9
$SURFV
 70
     6
  9
$UCSBASE
  2

  9
$UCSNAME
  2

  9
$UCSORG
 10
0.0
 20
0.0
 30
0.0
  9
$UCSXDIR
 10
1.0
 20
0.0
 30
0.0
  9
$UCSYDIR
 10
0.0
 20
1.0
 30
0.0
  9
$UCSORTHOREF
  2

  9
$UCSORTHOVIEW
 70
     0
  9
$UCSORGTOP
 10
0.0
 20
0.0
 30
0.0
  9
$UCSORGBOTTOM
 10
0.0
 20
0.0
 30
0.0
  9
$UCSORGLEFT
 10
0.0
 20
0.0
 30
0.0
  9
$UCSORGRIGHT
 10
0.0
 20
0.0
 30
0.0
  9
$UCSORGFRONT
 10
0.0
 20
0.0
 30
0.0
  9
$UCSORGBACK
 10
0.0
 20
0.0
 30
0.0
  9
$PUCSBASE
  2

  9
$PUCSNAME
  2

  9
$PUCSORG
 10
0.0
 20
0.0
 30
0.0
  9
$PUCSXDIR
 10
1.0
 20
0.0
 30
0.0
  9
$PUCSYDIR
 10
0.0
 20
1.0
 30
0.0
  9
$PUCSORTHOREF
  2

  9
$PUCSORTHOVIEW
 70
     0
  9
$PUCSORGTOP
 10
0.0
 20
0.0
 30
0.0
  9
$PUCSORGBOTTOM
 10
0.0
 20
0.0
 30
0.0
  9
$PUCSORGLEFT
 10
0.0
 20
0.0
 30
0.0
  9
$PUCSORGRIGHT
 10
0.0
 20
0.0
 30
0.0
  9
$PUCSORGFRONT
 10
0.0
 20
0.0
 30
0.0
  9
$PUCSORGBACK
 10
0.0
 20
0.0
 30
0.0
  9
$USERI1
 70
     0
  9
$USERI2
 70
     0
  9
$USERI3
 70
     0
  9
$USERI4
 70
     0
  9
$USERI5
 70
     0
  9
$USERR1
 40
0.0
  9
$USERR2
 40
0.0
  9
$USERR3
 40
0.0
  9
$USERR4
 40
0.0
  9
$USERR5
 40
0.0
  9
$WORLDVIEW
 70
     1
  9
$SHADEDGE
 70
     3
  9
$SHADEDIF
 70
    70
  9
$TILEMODE
 70
     1
  9
$MAXACTVP
 70
    64
  9
$PINSBASE
 10
0.0
 20
0.0
 30
0.0
  9
$PLIMCHECK
 70
     0
  9
$PEXTMIN
 10
1.000000000000000E+20
 20
1.000000000000000E+20
 30
1.000000000000000E+20
  9
$PEXTMAX
 10
-1.000000000000000E+20
 20
-1.000000000000000E+20
 30
-1.000000000000000E+20
  9
$PLIMMIN
 10
0.0
 20
0.0
  9
$PLIMMAX
 10
420.0
 20
297.0
  9
$UNITMODE
 70
     0
  9
$VISRETAIN
 70
     1
  9
$PLINEGEN
 70
     0
  9
$PSLTSCALE
 70
     1
  9
$TREEDEPTH
 70
  3020
  9
$CMLSTYLE
  2
Standard
  9
$CMLJUST
 70
     0
  9
$CMLSCALE
 40
20.0
  9
$PROXYGRAPHICS
 70
     1
  9
$MEASUREMENT
 70
     1
  9
$CELWEIGHT
370
    -1
  9
$ENDCAPS
280
     0
  9
$JOINSTYLE
280
     0
  9
$LWDISPLAY
290
     0
  9
$INSUNITS
 70
     4
  9
$HYPERLINKBASE
  1

  9
$STYLESHEET
  1

  9
$XEDIT
290
     1
  9
$CEPSNTYPE
380
     0
  9
$PSTYLEMODE
290
     1
  9
$FINGERPRINTGUID
  2
{D9B534CB-CCF6-4FA9-B884-DC7466432EF9}
  9
$VERSIONGUID
  2
{F76D96E8-478C-49A7-B68E-68D16F21621B}
  9
$EXTNAMES
290
     1
  9
$PSVPSCALE
 40
0.0
  9
$OLESTARTUP
290
     0
  0
ENDSEC
  0
SECTION
  2
CLASSES
  0
CLASS
  1
ACDBDICTIONARYWDFLT
  2
AcDbDictionaryWithDefault
  3
ObjectDBX Classes
 90
        0
280
     0
281
     0
  0
CLASS
  1
ACME_DOCUMENT
  2
AcMeDbDoc
  3
AcMeServices
 90
     1024
280
     0
281
     0
  0
CLASS
  1
AMGSETTINGSOBJ
  2
AmgSettingsObj
  3
"AcadM|Product Description: AutoCAD Mechanical|Company: Autodesk, Inc."
 90
     1024
280
     0
281
     0
  0
CLASS
  1
ACMESCOPE
  2
AcMeScope
  3
AcMeServices
 90
     1024
280
     0
281
     0
  0
CLASS
  1
ACMECOMMANDHISTORY
  2
AcMeCommandHistory
  3
AcMeServices
 90
     1024
280
     0
281
     0
  0
CLASS
  1
ACIMSYSVARMAN
  2
AcImSysVarManager
  3
AcMeServices
 90
     1024
280
     0
281
     0
  0
CLASS
  1
ACIMREALSYSVAR
  2
AcImRealSysVar
  3
AcMeServices
 90
     1024
280
     0
281
     0
  0
CLASS
  1
ACIMINTSYSVAR
  2
AcImIntSysVar
  3
AcMeServices
 90
     1024
280
     0
281
     0
  0
CLASS
  1
ACMEDRAWINGMAN
  2
AcMeDrawingMan
  3
AcMeServices
 90
     1024
280
     0
281
     0
  0
CLASS
  1
ACMEVIEW
  2
AcMeView
  3
AcMeServices
 90
     1024
280
     0
281
     0
  0
CLASS
  1
ACDBENTITYCACHE
  2
AcMeEntityCache
  3
AcMeServices
 90
     1024
280
     0
281
     0
  0
CLASS
  1
GSMANAGER
  2
AcMeGSManager
  3
AcMeServices
 90
     1024
280
     0
281
     0
  0
CLASS
  1
AMDTINTERNALREACTOR
  2
AmdtInternalReactor
  3
AcMeServices
 90
     1024
280
     0
281
     0
  0
CLASS
  1
ACMESTATEMGR
  2
AcMeStateMgr
  3
AcMeServices
 90
     1024
280
     0
281
     0
  0
CLASS
  1
ACGREFMASTER
  2
AcGrefMaster
  3
AcAttribServices
 90
     1024
280
     0
281
     0
  0
CLASS
  1
ACME_DATABASE
  2
AcMeDbDatabase
  3
AcMeServices
 90
     1024
280
     0
281
     0
  0
CLASS
  1
ACRFINSADJUSTERMGR
  2
AcRfInsAdjusterMgr
  3
AcMeServices
 90
     1024
280
     0
281
     0
  0
CLASS
  1
ACGREFACADMASTER
  2
AcGrefacadMaster
  3
AcGrefServices
 90
     1024
280
     0
281
     0
  0
CLASS
  1
AMIMASTER
  2
AmiMaster
  3
AmiServices
 90
     1024
280
     0
281
     0
  0
CLASS
  1
ACMDATADICTIONARY
  2
AcmDataDictionary
  3
"AcmSymBB|Product Description: AutoCAD Mechanical|Company: Autodesk, Inc."
 90
     1024
280
     0
281
     0
  0
CLASS
  1
ACMDATAENTRYBLOCK
  2
AcmDataEntryBlock
  3
AcmSymBB|Product Description: AutoCAD Mechanical|Company: Autodesk, Inc.
 90
    33792
280
     0
281
     0
  0
CLASS
  1
ACIMSTRSYSVAR
  2
AcImStrSysVar
  3
AcMeServices
 90
     1024
280
     0
281
     0
  0
CLASS
  1
ACMSTANDARDISO
  2
AcmStandardISO
  3
"Amdt_StdImp|Product Description: AutoCAD Mechanical|Company: Autodesk, Inc."
 90
    33792
280
     0
281
     0
  0
CLASS
  1
AMGOBJPROPCFG
  2
AmgObjPropCfg
  3
"AmgLay|Product Description: AutoCAD Mechanical|Company: Autodesk, Inc."
 90
     1025
280
     0
281
     0
  0
CLASS
  1
AMDTEDGESTANDARDISO
  2
AmdtEdgeStdISO
  3
"Amdt_StdImp|Product Description: AutoCAD Mechanical|Company: Autodesk, Inc."
 90
    33792
280
     0
281
     0
  0
CLASS
  1
ACMSURFSTANDARDISO
  2
AcmSurfTextStdISO
  3
"Amdt_StdImp|Product Description: AutoCAD Mechanical|Company: Autodesk, Inc."
 90
    33792
280
     0
281
     0
  0
CLASS
  1
ACMFCFSTANDARDISO
  2
AcmFCFStdISO
  3
"Amdt_StdImp|Product Description: AutoCAD Mechanical|Company: Autodesk, Inc."
 90
    33792
280
     0
281
     0
  0
CLASS
  1
ACMWELDSTANDARDISO
  2
AcmWeldingStdISO
  3
"Amdt_StdImp|Product Description: AutoCAD Mechanical|Company: Autodesk, Inc."
 90
    33792
280
     0
281
     0
  0
CLASS
  1
ACMIDSTANDARDISO
  2
AcmIdStdISO
  3
"Amdt_StdImp|Product Description: AutoCAD Mechanical|Company: Autodesk, Inc."
 90
    33792
280
     0
281
     0
  0
CLASS
  1
ACMDATUMSTANDARDISO
  2
AcmDatumStdISO
  3
"Amdt_StdImp|Product Description: AutoCAD Mechanical|Company: Autodesk, Inc."
 90
    33792
280
     0
281
     0
  0
CLASS
  1
ACMBOMSTANDARDISO
  2
AcmBOMStdISO
  3
"Amdt_StdImp|Product Description: AutoCAD Mechanical|Company: Autodesk, Inc."
 90
    33792
280
     0
281
     0
  0
CLASS
  1
ACMDETAILSTANDARDISO
  2
AmdtDetailSymStdISO
  3
"Amdt_StdImp|Product Description: AutoCAD Mechanical|Company: Autodesk, Inc."
 90
    33792
280
     0
281
     0
  0
CLASS
  1
ACMSECTIONSTANDARDISO
  2
AmdtSectionSymStdISO
  3
"Amdt_StdImp|Product Description: AutoCAD Mechanical|Company: Autodesk, Inc."
 90
    33792
280
     0
281
     0
  0
CLASS
  1
ACMCENTERLINESTANDARDISO
  2
AmdtCenterLineStdISO
  3
"Amdt_StdImp|Product Description: AutoCAD Mechanical|Company: Autodesk, Inc."
 90
    33792
280
     0
281
     0
  0
CLASS
  1
ACMNOTESTANDARDISO
  2
AmdtNoteStdISO
  3
"Amdt_StdImp|Product Description: AutoCAD Mechanical|Company: Autodesk, Inc."
 90
    33792
280
     0
281
     0
  0
CLASS
  1
ACAMGLAYSTD
  2
AcAmgLayStd
  3
"AmgLay|Product Description: AutoCAD Mechanical|Company: Autodesk, Inc."
 90
    33792
280
     0
281
     0
  0
CLASS
  1
ACAMGDIMSTD
  2
AcAmgDimStd
  3
"AmgDim|Product Description: AutoCAD Mechanical|Company: Autodesk, Inc."
 90
    33792
280
     0
281
     0
  0
CLASS
  1
ACAMGHOLECHARTSTDISO
  2
AcAmgHoleChartStdISO
  3
AmgDim|Product Description: AutoCAD Mechanical|Company: Autodesk, Inc.
 90
    33792
280
     0
281
     0
  0
CLASS
  1
ACAMGTITLESTD
  2
AcAmgTitleStd
  3
"AmgTitle|Product Description: AutoCAD Mechanical|Company: Autodesk, Inc."
 90
    36863
280
     0
281
     0
  0
CLASS
  1
LAYER_INDEX
  2
AcDbLayerIndex
  3
ObjectDBX Classes
 90
    32768
280
     0
281
     0
  0
CLASS
  1
IDBUFFER
  2
AcDbIdBuffer
  3
ObjectDBX Classes
 90
    32768
280
     0
281
     0
  0
CLASS
  1
DICTIONARYVAR
  2
AcDbDictionaryVar
  3
ObjectDBX Classes
 90
        0
280
     0
281
     0
  0
CLASS
  1
AM_DRAWING_MGR
  2
AcDmDwgMgr
  3
AcMechDwgViewMgmt
 90
     1024
280
     0
281
     0
  0
CLASS
  1
AM_DWG_DOCUMENT
  2
AcDmDwgDocument
  3
AcMechDwgViewMgmt
 90
     1024
280
     0
281
     0
  0
CLASS
  1
AM_DWG_SHEET
  2
AcDmSheet
  3
AcMechDwgViewMgmt
 90
     1024
280
     0
281
     0
  0
CLASS
  1
AM_VIEWDIMPARMAP
  2
AcDmViewDimParMap
  3
AcMechDwgViewMgmt
 90
     1024
280
     0
281
     0
  0
CLASS
  1
AM_DWGMGR_NAME
  2
AcDmDwgMgrName
  3
AcMechDwgViewMgmt
 90
     1024
280
     0
281
     0
  0
CLASS
  1
AMDTMENUSTATEMGR
  2
AmdtMenuStateMgr
  3
McadcomServices
 90
     1024
280
     0
281
     0
  0
CLASS
  1
AMDTMCOMMENUSTATE
  2
AmdtMcomMenuState
  3
McadcomServices
 90
     1024
280
     0
281
     0
  0
CLASS
  1
MAPIAMMOUDLE
  2
MApiAmModule
  3
MApiAmServices
 90
     1024
280
     0
281
     0
  0
CLASS
  1
AMDTADMENUSTATE
  2
AmdtAdMenuState
  3
DesignerServices
 90
     1024
280
     0
281
     0
  0
CLASS
  1
ADAPPL
  2
AcAdAppl
  3
DesignerServices
 90
     1024
280
     0
281
     0
  0
CLASS
  1
DEPMGR
  2
AcAdDepMgr
  3
DesignerServices
 90
     1024
280
     0
281
     0
  0
CLASS
  1
PARAMMGR
  2
AcAdParamMgr
  3
DesignerServices
 90
     1024
280
     0
281
     0
  0
CLASS
  1
PARAMSCOPE
  2
AcAdParamScope
  3
DesignerServices
 90
     1024
280
     0
281
     0
  0
CLASS
  1
NAMEDAPPL
  2
AcAdNamedAppl
  3
DesignerServices
 90
     1024
280
     0
281
     0
  0
CLASS
  1
AMDTDMMENUSTATE
  2
AmdtDmMenuState
  3
AcMechDwgViewMgmt
 90
     1024
280
     0
281
     0
  0
CLASS
  1
AMDTAMMENUSTATE
  2
AmdtAmMenuState
  3
DesignerAssemblies
 90
     1024
280
     0
281
     0
  0
CLASS
  1
ACAMPROJECT
  2
AcAmProject
  3
DesignerAssemblies
 90
     1024
280
     0
281
     0
  0
CLASS
  1
ACAMGRCOMPDEF
  2
AcAmGrCompDef
  3
DesignerAssemblies
 90
     1024
280
     0
281
     0
  0
CLASS
  1
ACCMCONTEXT
  2
AcCmContext
  3
DesignerAssemblies
 90
     1024
280
     0
281
     0
  0
CLASS
  1
ACAMCOMPDEF
  2
AcAmCompDef
  3
DesignerAssemblies
 90
     1024
280
     0
281
     0
  0
CLASS
  1
ACAMCOMPDEFMGR
  2
AcAmCompDefMgr
  3
DesignerAssemblies
 90
     1024
280
     0
281
     0
  0
CLASS
  1
AMCONTEXTMGR
  2
AcAmContextMgr
  3
DesignerAssemblies
 90
     1024
280
     0
281
     0
  0
CLASS
  1
ACAMCONTEXTMODELER
  2
AcAmContextModeler
  3
DesignerAssemblies
 90
     1024
280
     0
281
     0
  0
CLASS
  1
ACMTHREADLINESTANDARDISO
  2
AmdtThreadLineStdISO
  3
"Amdt_StdImp|Product Description: AutoCAD Mechanical|Company: Autodesk, Inc."
 90
    33792
280
     0
281
     0
  0
CLASS
  1
CATALOGSTATE
  2
AcAmCatalogState
  3
DesignerAssemblies
 90
     1024
280
     0
281
     0
  0
CLASS
  1
ACAMGRCOMPDEFSET
  2
AcAmGrCompDefSet
  3
DesignerAssemblies
 90
     1024
280
     0
281
     0
  0
CLASS
  1
AMDTBROWSERDBTAB
  2
AmdtBrowserDbTab
  3
McadcomServices
 90
     1024
280
     0
281
     0
  0
CLASS
  1
CBROWSERAPPOBJECT
  2
CBrowserAppObject
  3
McadcomServices
 90
     1024
280
     0
281
     0
  0
CLASS
  1
DM_PLACEHOLDER
  2
AcDmSelsetPlaceholder
  3
AcMechDwgViewMgmt
 90
     1024
280
     0
281
     0
  0
CLASS
  1
TABLESTYLE
  2
AcDbTableStyle
  3
ObjectDBX Classes
 90
     4095
280
     0
281
     0
  0
CLASS
  1
VAACXREFPANELOBJECT
  2
VaAcXREFPanelObject
  3
VAAC_ADDIN
 90
    32768
280
     0
281
     0
  0
CLASS
  1
VAACIMAGEINVENTORY
  2
VaAcImageInventory
  3
VAAC_ADDIN
 90
    32768
280
     0
281
     0
  0
CLASS
  1
AMDTNOTETEMPLATEDB
  2
AmdtNoteTemplateDB
  3
AcmSymBB|Product Description: AutoCAD Mechanical|Company: Autodesk, Inc.
 90
    33792
280
     0
281
     0
  0
CLASS
  1
ACAMGFILTERDAT
  2
AcAmgFilterDat
  3
"AcadM|Product Description: AutoCAD Mechanical|Company: Autodesk, Inc."
 90
    33792
280
     0
281
     0
  0
CLASS
  1
ACMBOM
  2
AcmBom
  3
"AcmSymBB|Product Description: AutoCAD Mechanical|Company: Autodesk, Inc."
 90
    33792
280
     0
281
     0
  0
CLASS
  1
AMDTFORMULAUPDATEDISPATCHER
  2
AmdtFormulaUpdateDispatcher
  3
AcMeServices
 90
    33792
280
     0
281
     0
  0
CLASS
  1
ACMSTANDARDDIN
  2
AcmStandardDIN
  3
"Amdt_StdImp|Product Description: AutoCAD Mechanical|Company: Autodesk, Inc."
 90
    33792
280
     0
281
     0
  0
CLASS
  1
AMDTEDGESTANDARDDIN13715
  2
AmdtEdgeStdDIN13715
  3
"Amdt_StdImp|Product Description: AutoCAD Mechanical|Company: Autodesk, Inc."
 90
    33792
280
     0
281
     0
  0
CLASS
  1
ACMSURFSTANDARDDIN
  2
AcmSurfTextStdDIN
  3
"Amdt_StdImp|Product Description: AutoCAD Mechanical|Company: Autodesk, Inc."
 90
    33792
280
     0
281
     0
  0
CLASS
  1
ACMFCFSTANDARDDIN
  2
AcmFCFStdDIN
  3
"Amdt_StdImp|Product Description: AutoCAD Mechanical|Company: Autodesk, Inc."
 90
    33792
280
     0
281
     0
  0
CLASS
  1
ACMWELDSTANDARDDIN
  2
AcmWeldingStdDIN
  3
"Amdt_StdImp|Product Description: AutoCAD Mechanical|Company: Autodesk, Inc."
 90
    33792
280
     0
281
     0
  0
CLASS
  1
ACMIDSTANDARDDIN
  2
AcmIdStdDIN
  3
"Amdt_StdImp|Product Description: AutoCAD Mechanical|Company: Autodesk, Inc."
 90
    33792
280
     0
281
     0
  0
CLASS
  1
ACMDATUMSTANDARDDIN
  2
AcmDatumStdDIN
  3
"Amdt_StdImp|Product Description: AutoCAD Mechanical|Company: Autodesk, Inc."
 90
    33792
280
     0
281
     0
  0
CLASS
  1
ACMBOMSTANDARDDIN
  2
AcmBOMStdDIN
  3
"Amdt_StdImp|Product Description: AutoCAD Mechanical|Company: Autodesk, Inc."
 90
    33792
280
     0
281
     0
  0
CLASS
  1
ACMDETAILSTANDARDDIN
  2
AmdtDetailSymStdDIN
  3
"Amdt_StdImp|Product Description: AutoCAD Mechanical|Company: Autodesk, Inc."
 90
    33792
280
     0
281
     0
  0
CLASS
  1
ACMSECTIONSTANDARDDIN
  2
AmdtSectionSymStdDIN
  3
"Amdt_StdImp|Product Description: AutoCAD Mechanical|Company: Autodesk, Inc."
 90
    33792
280
     0
281
     0
  0
CLASS
  1
ACMCENTERLINESTANDARDDIN
  2
AmdtCenterLineStdDIN
  3
"Amdt_StdImp|Product Description: AutoCAD Mechanical|Company: Autodesk, Inc."
 90
    33792
280
     0
281
     0
  0
CLASS
  1
ACMTHREADLINESTANDARDDIN
  2
AmdtThreadLineStdDIN
  3
"Amdt_StdImp|Product Description: AutoCAD Mechanical|Company: Autodesk, Inc."
 90
    33792
280
     0
281
     0
  0
CLASS
  1
ACMNOTESTANDARDDIN
  2
AmdtNoteStdDIN
  3
"Amdt_StdImp|Product Description: AutoCAD Mechanical|Company: Autodesk, Inc."
 90
    33792
280
     0
281
     0
  0
CLASS
  1
ACAMGHOLECHARTSTDDIN
  2
AcAmgHoleChartStdDIN
  3
AmgDim|Product Description: AutoCAD Mechanical|Company: Autodesk, Inc.
 90
    33792
280
     0
281
     0
  0
CLASS
  1
MATERIAL
  2
AcDbMaterial
  3
ObjectDBX Classes
 90
     1153
280
     0
281
     0
  0
CLASS
  1
VISUALSTYLE
  2
AcDbVisualStyle
  3
ObjectDBX Classes
 90
     4095
280
     0
281
     0
  0
CLASS
  1
SCALE
  2
AcDbScale
  3
ObjectDBX Classes
 90
     1153
280
     0
281
     0
  0
CLASS
  1
MLEADERSTYLE
  2
AcDbMLeaderStyle
  3
ACDB_MLEADERSTYLE_CLASS
 90
     4095
280
     0
281
     0
  0
CLASS
  1
ACRFATTGENMGR
  2
AcRfAttGeneralMgr
  3
AcAttribServices
 90
    33792
280
     0
281
     0
  0
CLASS
  1
ACRFOBJATTMGR
  2
AcRfObjAttGroupMgr
  3
AcAttribServices
 90
    33792
280
     0
281
     0
  0
CLASS
  1
ACRFMCADAPIATTHOLDER
  2
AcRfMCADAPIAttHolder
  3
AcAttribServices
 90
    33792
280
     0
281
     0
  0
CLASS
  1
AMDTSYSATTR
  2
AmdtSystemAttribute
  3
AcAttribServices
 90
    33792
280
     0
281
     0
  0
CLASS
  1
ACMTAPERSTANDARDISO
  2
AcmTaperStdISO
  3
"Amdt_StdImp|Product Description: AutoCAD Mechanical|Company: Autodesk, Inc."
 90
    33792
280
     0
281
     0
  0
CLASS
  1
ACMANOOTATIONVIEWSTANDARDISO
  2
AmdtAnViewStdISO
  3
"Amdt_StdImp|Product Description: AutoCAD Mechanical|Company: Autodesk, Inc."
 90
    33792
280
     0
281
     0
  0
CLASS
  1
ACMTAPERSTANDARDDIN
  2
AcmTaperStdDIN
  3
"Amdt_StdImp|Product Description: AutoCAD Mechanical|Company: Autodesk, Inc."
 90
    33792
280
     0
281
     0
  0
CLASS
  1
ACMANOOTATIONVIEWSTANDARDDIN
  2
AmdtAnViewStdDIN
  3
"Amdt_StdImp|Product Description: AutoCAD Mechanical|Company: Autodesk, Inc."
 90
    33792
280
     0
281
     0
  0
CLASS
  1
EXACXREFPANELOBJECT
  2
ExAcXREFPanelObject
  3
EXAC_ESW
 90
     1025
280
     0
281
     0
  0
CLASS
  1
NPOCOLLECTION
  2
AcDbImpNonPersistentObjectsCollection
  3
ObjectDBX Classes
 90
     1153
280
     0
281
     0
  0
CLASS
  1
DIMASSOC
  2
AcDbDimAssoc
  3
"AcDbDimAssoc|Product Desc:     AcDim ARX App For Dimension|Company:          Autodesk, Inc.|WEB Address:      www.autodesk.com"
 90
        0
280
     0
281
     0
  0
CLASS
  1
AEC_REFEDIT_STATUS_TRACKER
  2
AecDbRefEditStatusTracker
  3
AecArchBase50|Product Desc: Autodesk Architectural Desktop 2007 |Company: Autodesk,Inc. |WEB Address: www.autodesk.com
 90
    32897
280
     0
281
     0
  0
CLASS
  1
CAMSSTRUCTBTNSTATE
  2
StructBtnState
  3
DesignerAssemblies
 90
    33792
280
     0
281
     0
  0
CLASS
  1
CELLSTYLEMAP
  2
AcDbCellStyleMap
  3
ObjectDBX Classes
 90
     1152
280
     0
281
     0
  0
CLASS
  1
SORTENTSTABLE
  2
AcDbSortentsTable
  3
ObjectDBX Classes
 90
        0
280
     0
281
     0
  0
CLASS
  1
AMDTNOTE
  2
AmdtNote
  3
"AcmSymBB|Product Description: AutoCAD Mechanical|Company: Autodesk, Inc."
 90
    36863
280
     0
281
     1
  0
CLASS
  1
ACMDIMBREAKPERSREACTOR
  2
AcmDimBreakPersReactor
  3
AmgDim|Product Description: AutoCAD Mechanical|Company: Autodesk, Inc.
 90
    36863
280
     0
281
     0
  0
CLASS
  1
ACMSURFSTANDARDDIN2002
  2
AcmSurfTextStdDIN2002
  3
"Amdt_StdImp|Product Description: AutoCAD Mechanical|Company: Autodesk, Inc."
 90
    33792
280
     0
281
     0
  0
CLASS
  1
AMDTEDGESTANDARDDIN
  2
AmdtEdgeStdDIN
  3
"Amdt_StdImp|Product Description: AutoCAD Mechanical|Company: Autodesk, Inc."
 90
    33792
280
     0
281
     0
  0
CLASS
  1
ACDBPLACEHOLDER
  2
AcDbPlaceHolder
  3
ObjectDBX Classes
 90
        0
280
     0
281
     0
  0
CLASS
  1
LAYOUT
  2
AcDbLayout
  3
ObjectDBX Classes
 90
        0
280
     0
281
     0
  0
ENDSEC
  0
SECTION
  2
TABLES
  0
TABLE
  2
VPORT
  5
8
330
0
100
AcDbSymbolTable
 70
     1
  0
VPORT
  5
3B2
330
8
100
AcDbSymbolTableRecord
100
AcDbViewportTableRecord
  2
*Active
 70
     0
 10
0.0
 20
0.0
 11
1.0
 21
1.0
 12
239.0381250965802
 22
228.1135260771872
 13
0.0
 23
0.0
 14
2.5
 24
2.5
 15
10.0
 25
10.0
 16
0.0
 26
0.0
 36
1.0
 17
0.0
 27
0.0
 37
0.0
 40
542.2291979887581
 41
1.752272727272727
 42
50.0
 43
0.0
 44
0.0
 50
0.0
 51
0.0
 71
     0
 72
   100
 73
     1
 74
     3
 75
     0
 76
     0
 77
     0
 78
     0
281
     0
 65
     0
110
0.0
120
0.0
130
0.0
111
1.0
121
0.0
131
0.0
112
0.0
122
1.0
132
0.0
 79
     0
146
0.0
  0
ENDTAB
  0
TABLE
  2
LTYPE
  5
5
330
0
100
AcDbSymbolTable
 70
    21
  0
LTYPE
  5
14
330
5
100
AcDbSymbolTableRecord
100
AcDbLinetypeTableRecord
  2
ByBlock
 70
     0
  3

 72
    65
 73
     0
 40
0.0
  0
LTYPE
  5
15
330
5
100
AcDbSymbolTableRecord
100
AcDbLinetypeTableRecord
  2
ByLayer
 70
     0
  3

 72
    65
 73
     0
 40
0.0
  0
LTYPE
  5
16
330
5
100
AcDbSymbolTableRecord
100
AcDbLinetypeTableRecord
  2
Continuous
 70
     0
  3
Solid line
 72
    65
 73
     0
 40
0.0
  0
LTYPE
  5
67
330
5
100
AcDbSymbolTableRecord
100
AcDbLinetypeTableRecord
  2
Amconstr
 70
     0
  3
_______________________
 72
    65
 73
     2
 40
9999.0
 49
9999.0
 74
     0
 49
0.0
 74
     0
  0
LTYPE
  5
6C
330
5
100
AcDbSymbolTableRecord
100
AcDbLinetypeTableRecord
  2
Amzigzag
 70
     0
  3
/\/-/\/-/\/-/\/-/\/-/\/
 72
    65
 73
     2
 40
11.0001
 49
0.0001
 74
     4
 75
   136
340
22C
 46
0.04
 50
0.0
 44
0.0
 45
0.0
 49
-11.0
 74
     0
  0
LTYPE
  5
7E
330
5
100
AcDbSymbolTableRecord
100
AcDbLinetypeTableRecord
  2
CENTER
 70
     0
  3
__ . __
 72
    65
 73
     4
 40
7.0
 49
4.0
 74
     0
 49
-1.0
 74
     0
 49
1.0
 74
     0
 49
-1.0
 74
     0
  0
LTYPE
  5
D8
330
5
100
AcDbSymbolTableRecord
100
AcDbLinetypeTableRecord
  2
HIDDEN
 70
     0
  3
Hidden __ __ __ __ __ __ __ __ __ __ __ __ __ _
 72
    65
 73
     2
 40
9.524999999999996
 49
6.349999999999997
 74
     0
 49
-3.174999999999998
 74
     0
  0
LTYPE
  5
D9
330
5
100
AcDbSymbolTableRecord
100
AcDbLinetypeTableRecord
  2
PHANTOM2
 70
     0
  3
Phantom (.5x) ___ _ _ ___ _ _ ___ _ _ ___ _ _
 72
    65
 73
     6
 40
31.75
 49
15.875
 74
     0
 49
-3.174999999999998
 74
     0
 49
3.174999999999998
 74
     0
 49
-3.174999999999998
 74
     0
 49
3.174999999999998
 74
     0
 49
-3.174999999999998
 74
     0
  0
LTYPE
  5
322
330
5
100
AcDbSymbolTableRecord
100
AcDbLinetypeTableRecord
  2
AM_DIN_G_W050
 70
     0
  3
____ . ____ . ____ . ____ . ____ . ____ . ____
 72
    65
 73
     4
 40
13.75
 49
9.75
 74
     0
 49
-1.5
 74
     0
 49
1.0
 74
     0
 49
-1.5
 74
     0
  0
LTYPE
  5
324
330
5
100
AcDbSymbolTableRecord
100
AcDbLinetypeTableRecord
  2
AM_DIN_G_W050x2
 70
     0
  3
__ . __ . __ . __ . __ . __
 72
    65
 73
     4
 40
6.875
 49
4.75
 74
     0
 49
-0.875
 74
     0
 49
0.375
 74
     0
 49
-0.875
 74
     0
  0
LTYPE
  5
471
330
5
100
AcDbSymbolTableRecord
100
AcDbLinetypeTableRecord
  2
STRICHPUNKT
 70
     0
  3
Strichpunkt __ . __ . __ . __ . __ . __ . __ . 
 72
    65
 73
     4
 40
25.4
 49
12.7
 74
     0
 49
-6.349999999999997
 74
     0
 49
0.0
 74
     0
 49
-6.349999999999997
 74
     0
  0
LTYPE
  5
472
330
5
100
AcDbSymbolTableRecord
100
AcDbLinetypeTableRecord
  2
STRICHLINIE
 70
     0
  3
Strichlinie __ __ __ __ __ __ __ __ __ __ __ __
 72
    65
 73
     2
 40
19.05
 49
12.7
 74
     0
 49
-6.349999999999997
 74
     0
  0
LTYPE
  5
4A86
330
5
100
AcDbSymbolTableRecord
100
AcDbLinetypeTableRecord
  2
ACDINWELD
 70
     0
  3
_ _ _ _ _
 72
    65
 73
     2
 40
2.0
 49
2.0
 74
     0
 49
-1.0
 74
     0
  0
LTYPE
  5
4A87
330
5
100
AcDbSymbolTableRecord
100
AcDbLinetypeTableRecord
  2
ACDINTGB
 70
     0
  3
__ . . __ . .
 72
    65
 73
     6
 40
9.0
 49
4.0
 74
     0
 49
-1.0
 74
     0
 49
1.0
 74
     0
 49
-1.0
 74
     0
 49
1.0
 74
     0
 49
-1.0
 74
     0
  0
LTYPE
  5
4A88
330
5
100
AcDbSymbolTableRecord
100
AcDbLinetypeTableRecord
  2
ACDINTGL
 70
     0
  3
_ _ _ _ _
 72
    65
 73
     2
 40
3.0
 49
2.0
 74
     0
 49
-1.0
 74
     0
  0
LTYPE
  5
4AFB
330
5
100
AcDbSymbolTableRecord
100
AcDbLinetypeTableRecord
  2
AM_ISO02W050
 70
     0
  3
__ __ __ __ __ __ __ __ __ __ __ __ __ __ __
 72
    65
 73
     2
 40
7.5
 49
6.0
 74
     0
 49
-1.5
 74
     0
  0
LTYPE
  5
4AFC
330
5
100
AcDbSymbolTableRecord
100
AcDbLinetypeTableRecord
  2
AM_ISO08W050
 70
     0
  3
____ . ____ . ____ . ____ . ____ . ____ . ____
 72
    65
 73
     4
 40
18.0
 49
12.0
 74
     0
 49
-1.5
 74
     0
 49
3.0
 74
     0
 49
-1.5
 74
     0
  0
LTYPE
  5
4AFD
330
5
100
AcDbSymbolTableRecord
100
AcDbLinetypeTableRecord
  2
AM_ISO09W050
 70
     0
  3
_____ . . _____ . . _____ . . ____ .. ____
 72
    65
 73
     6
 40
22.5
 49
12.0
 74
     0
 49
-1.5
 74
     0
 49
3.0
 74
     0
 49
-1.5
 74
     0
 49
3.0
 74
     0
 49
-1.5
 74
     0
  0
LTYPE
  5
4AFE
330
5
100
AcDbSymbolTableRecord
100
AcDbLinetypeTableRecord
  2
AM_ISO08W050x2
 70
     0
  3
__ . __ . __ . __ . __ . __
 72
    65
 73
     4
 40
9.0
 49
6.0
 74
     0
 49
-0.75
 74
     0
 49
1.5
 74
     0
 49
-0.75
 74
     0
  0
LTYPE
  5
4AFF
330
5
100
AcDbSymbolTableRecord
100
AcDbLinetypeTableRecord
  2
AM_ISO02W050x2
 70
     0
  3
 _ _ _ _ _ _ _ _ _ _ _ _
 72
    65
 73
     2
 40
3.75
 49
3.0
 74
     0
 49
-0.75
 74
     0
  0
LTYPE
  5
5567
330
5
100
AcDbSymbolTableRecord
100
AcDbLinetypeTableRecord
  2
AM_DIN_F_W050
 70
     0
  3
__ __ __ __ __ __ __ __ __ __ __ __ __ __ __
 72
    65
 73
     2
 40
6.25
 49
4.75
 74
     0
 49
-1.5
 74
     0
  0
LTYPE
  5
5568
330
5
100
AcDbSymbolTableRecord
100
AcDbLinetypeTableRecord
  2
AM_DIN_K_W050
 70
     0
  3
_____ . . _____ . . _____ . . ____ .. ____
 72
    65
 73
     6
 40
16.25
 49
9.75
 74
     0
 49
-1.5
 74
     0
 49
1.0
 74
     0
 49
-1.5
 74
     0
 49
1.0
 74
     0
 49
-1.5
 74
     0
  0
LTYPE
  5
5569
330
5
100
AcDbSymbolTableRecord
100
AcDbLinetypeTableRecord
  2
AM_DIN_F_W050x2
 70
     0
  3
 _ _ _ _ _ _ _ _ _ _ _ _
 72
    65
 73
     2
 40
3.125
 49
2.25
 74
     0
 49
-0.875
 74
     0
  0
ENDTAB
  0
TABLE
  2
LAYER
  5
2
102
{ACAD_XDICTIONARY
360
48A
102
}
330
0
100
AcDbSymbolTable
 70
     7
  0
LAYER
  5
10
102
{ACAD_XDICTIONARY
360
3251
102
}
330
2
100
AcDbSymbolTableRecord
100
AcDbLayerTableRecord
  2
0
 70
     0
 62
     7
  6
Continuous
370
    -3
390
F
  0
LAYER
  5
473
102
{ACAD_XDICTIONARY
360
474
102
}
330
2
100
AcDbSymbolTableRecord
100
AcDbLayerTableRecord
  2
P-0000
 70
     0
 62
     7
  6
Continuous
370
    -3
390
F
  0
LAYER
  5
475
330
2
100
AcDbSymbolTableRecord
100
AcDbLayerTableRecord
  2
Defpoints
 70
     0
 62
     7
  6
Continuous
290
     0
370
    -3
390
F
  0
LAYER
  5
476
102
{ACAD_XDICTIONARY
360
477
102
}
330
2
100
AcDbSymbolTableRecord
100
AcDbLayerTableRecord
  2
AM_5
 70
     0
 62
     3
  6
Continuous
370
    25
390
F
1001
AcAecLayerStandard
1000

1000

  0
LAYER
  5
478
102
{ACAD_XDICTIONARY
360
479
102
}
330
2
100
AcDbSymbolTableRecord
100
AcDbLayerTableRecord
  2
AM_8
 70
     0
 62
     1
  6
Continuous
370
    25
390
F
  0
LAYER
  5
47C
102
{ACAD_XDICTIONARY
360
47D
102
}
330
2
100
AcDbSymbolTableRecord
100
AcDbLayerTableRecord
  2
AM_7
 70
     0
 62
     4
  6
AM_DIN_G_W050
370
    25
390
F
1001
AcAecLayerStandard
1000

1000

  0
LAYER
  5
252A
102
{ACAD_XDICTIONARY
360
252B
102
}
330
2
100
AcDbSymbolTableRecord
100
AcDbLayerTableRecord
  2
P-3FF0
 70
     0
 62
     7
  6
Continuous
370
    -3
390
F
  0
ENDTAB
  0
TABLE
  2
STYLE
  5
3
330
0
100
AcDbSymbolTable
 70
     4
  0
STYLE
  5
11
330
3
100
AcDbSymbolTableRecord
100
AcDbTextStyleTableRecord
  2
STANDARD
 70
     0
 40
0.0
 41
1.0
 50
0.0
 71
     0
 42
2.5
  3
ISOCP.SHX
  4

  0
STYLE
  5
22C
330
3
100
AcDbSymbolTableRecord
100
AcDbTextStyleTableRecord
  2

 70
     1
 40
0.0
 41
1.0
 50
0.0
 71
     0
 42
2.5
  3
genltshp.shx
  4

  0
STYLE
  5
4A85
330
3
100
AcDbSymbolTableRecord
100
AcDbTextStyleTableRecord
  2
ACDINGDT
 70
     0
 40
0.0
 41
1.0
 50
0.0
 71
     0
 42
2.5
  3
amgdt.shx
  4

  0
STYLE
  5
4B26
330
3
100
AcDbSymbolTableRecord
100
AcDbTextStyleTableRecord
  2
ACDINTS
 70
     0
 40
1.0
 41
1.0
 50
0.0
 71
     0
 42
2.5
  3
isocp.shx
  4

  0
ENDTAB
  0
TABLE
  2
VIEW
  5
6
330
0
100
AcDbSymbolTable
 70
     0
  0
ENDTAB
  0
TABLE
  2
UCS
  5
7
330
0
100
AcDbSymbolTable
 70
     0
  0
ENDTAB
  0
TABLE
  2
APPID
  5
9
330
0
100
AcDbSymbolTable
 70
    25
  0
APPID
  5
12
330
9
100
AcDbSymbolTableRecord
100
AcDbRegAppTableRecord
  2
ACAD
 70
     0
  0
APPID
  5
46
330
9
100
AcDbSymbolTableRecord
100
AcDbRegAppTableRecord
  2
MCAD_NO_VIS
 70
     0
  0
APPID
  5
47
330
9
100
AcDbSymbolTableRecord
100
AcDbRegAppTableRecord
  2
ACAD_TEMP_GRAPHIC
 70
     0
  0
APPID
  5
58
330
9
100
AcDbSymbolTableRecord
100
AcDbRegAppTableRecord
  2
ACATTRIBSERVICES
 70
     0
  0
APPID
  5
EE
330
9
100
AcDbSymbolTableRecord
100
AcDbRegAppTableRecord
  2
AD_DRAW
 70
     0
  0
APPID
  5
10C
330
9
100
AcDbSymbolTableRecord
100
AcDbRegAppTableRecord
  2
DESIGNERASSEMBLIES
 70
     0
  0
APPID
  5
111
330
9
100
AcDbSymbolTableRecord
100
AcDbRegAppTableRecord
  2
ACADM_DIM_EDIT
 70
     0
  0
APPID
  5
112
330
9
100
AcDbSymbolTableRecord
100
AcDbRegAppTableRecord
  2
AMDT_DM_ADJ
 70
     0
  0
APPID
  5
1A3
330
9
100
AcDbSymbolTableRecord
100
AcDbRegAppTableRecord
  2
ACAD_DSTYLE_DIMARC_LENGTH_SYMBOL
 70
     0
  0
APPID
  5
1A4
330
9
100
AcDbSymbolTableRecord
100
AcDbRegAppTableRecord
  2
ACAD_DSTYLE_DIMJOGGED_JOGANGLE_SYMBOL
 70
     0
  0
APPID
  5
3F1
330
9
100
AcDbSymbolTableRecord
100
AcDbRegAppTableRecord
  2
ACAD_MLEADERVER
 70
     0
  0
APPID
  5
482
330
9
100
AcDbSymbolTableRecord
100
AcDbRegAppTableRecord
  2
ACME_LAYERS
 70
     0
  0
APPID
  5
483
330
9
100
AcDbSymbolTableRecord
100
AcDbRegAppTableRecord
  2
AcAecLayerStandard
 70
     0
  0
APPID
  5
484
330
9
100
AcDbSymbolTableRecord
100
AcDbRegAppTableRecord
  2
ACAD_DSTYLE_DIMINSPECT
 70
     0
  0
APPID
  5
485
330
9
100
AcDbSymbolTableRecord
100
AcDbRegAppTableRecord
  2
GENIUS_GENODEF_13
 70
     0
  0
APPID
  5
486
330
9
100
AcDbSymbolTableRecord
100
AcDbRegAppTableRecord
  2
GENIUS_GENOBJ-N-HTC_13
 70
     0
  0
APPID
  5
487
330
9
100
AcDbSymbolTableRecord
100
AcDbRegAppTableRecord
  2
GENIUS_GENHATCH_13
 70
     0
  0
APPID
  5
488
330
9
100
AcDbSymbolTableRecord
100
AcDbRegAppTableRecord
  2
GENIUS_GENOBJ-N-CEN_13
 70
     0
  0
APPID
  5
489
330
9
100
AcDbSymbolTableRecord
100
AcDbRegAppTableRecord
  2
GENIUS_GENCEN_19
 70
     0
  0
APPID
  5
14D0
330
9
100
AcDbSymbolTableRecord
100
AcDbRegAppTableRecord
  2
ACAD_PSEXT
 70
     0
  0
APPID
  5
1743
330
9
100
AcDbSymbolTableRecord
100
AcDbRegAppTableRecord
  2
ACAD_EXEMPT_FROM_CAD_STANDARDS
 70
     0
  0
APPID
  5
3235
330
9
100
AcDbSymbolTableRecord
100
AcDbRegAppTableRecord
  2
GENIUS_GENDTOL_13
 70
     0
  0
APPID
  5
3270
330
9
100
AcDbSymbolTableRecord
100
AcDbRegAppTableRecord
  2
ACAD_DSTYLE_DIM_LINETYPE
 70
     0
  0
APPID
  5
3271
330
9
100
AcDbSymbolTableRecord
100
AcDbRegAppTableRecord
  2
ACAD_DSTYLE_DIM_EXT1_LINETYPE
 70
     0
  0
APPID
  5
3272
330
9
100
AcDbSymbolTableRecord
100
AcDbRegAppTableRecord
  2
ACAD_DSTYLE_DIM_EXT2_LINETYPE
 70
     0
  0
ENDTAB
  0
TABLE
  2
DIMSTYLE
  5
A
330
0
100
AcDbSymbolTable
 70
     8
100
AcDbDimStyleTable
 71
     1
340
2F0
  0
DIMSTYLE
105
2F0
330
A
100
AcDbSymbolTableRecord
100
AcDbDimStyleTableRecord
  2
AM_DIN
 70
     0
  4
"
 41
3.5
 42
1.0
 43
10.0
 44
1.0
 47
0.1
 48
0.1
 73
     0
 74
     0
 77
     1
 78
     8
 79
     2
140
3.5
141
0.0
143
0.0393701
146
0.71
147
1.5
172
     1
176
   256
177
   256
178
     2
271
     2
272
     3
274
     4
283
     0
284
     8
340
11
371
    -1
372
    -1
1001
ACAD_DSTYLE_DIMJOGGED_JOGANGLE_SYMBOL
1070
   384
1040
1.570796326794896
1001
ACAD_DSTYLE_DIM_LINETYPE
1070
   380
1005
14
1001
ACAD_DSTYLE_DIM_EXT1_LINETYPE
1070
   381
1005
14
1001
ACAD_DSTYLE_DIM_EXT2_LINETYPE
1070
   382
1005
14
  0
DIMSTYLE
105
480
102
{ACAD_REACTORS
330
519B
102
}
330
A
100
AcDbSymbolTableRecord
100
AcDbDimStyleTableRecord
  2
AM_DIN$0
 70
     0
  4
"
 41
3.5
 42
1.0
 43
10.0
 44
1.0
 47
0.1
 48
0.1
 73
     0
 74
     0
 77
     1
 78
     8
 79
     2
140
3.5
141
0.0
143
0.0393701
146
0.71
147
1.5
172
     1
176
   256
177
   256
178
     2
271
     2
272
     3
274
     4
283
     0
284
     8
340
11
371
    -1
372
    -1
1001
ACAD_DSTYLE_DIMJOGGED_JOGANGLE_SYMBOL
1070
   384
1040
1.570796326794896
1001
ACAD_DSTYLE_DIM_LINETYPE
1070
   380
1005
14
1001
ACAD_DSTYLE_DIM_EXT1_LINETYPE
1070
   381
1005
14
1001
ACAD_DSTYLE_DIM_EXT2_LINETYPE
1070
   382
1005
14
  0
DIMSTYLE
105
49E9
330
A
100
AcDbSymbolTableRecord
100
AcDbDimStyleTableRecord
  2
AM_DIN$3
 70
     0
  4
"
 41
3.5
 42
1.0
 43
10.0
 44
1.0
 47
0.1
 48
0.1
 73
     0
 77
     1
 78
     8
 79
     2
140
3.5
141
0.0
143
0.0393701
146
0.71
147
1.5
176
   256
177
   256
178
     2
271
     2
272
     3
274
     4
283
     0
284
     8
288
     1
289
     0
340
11
371
    -1
372
    -1
1001
ACAD_DSTYLE_DIMJOGGED_JOGANGLE_SYMBOL
1070
   384
1040
1.570796326794896
1001
ACAD_DSTYLE_DIM_LINETYPE
1070
   380
1005
14
1001
ACAD_DSTYLE_DIM_EXT1_LINETYPE
1070
   381
1005
14
1001
ACAD_DSTYLE_DIM_EXT2_LINETYPE
1070
   382
1005
14
  0
DIMSTYLE
105
49EA
330
A
100
AcDbSymbolTableRecord
100
AcDbDimStyleTableRecord
  2
AM_DIN$4
 70
     0
  4
"
 41
3.5
 42
1.0
 43
10.0
 44
1.0
 47
0.1
 48
0.1
 73
     0
 74
     0
 77
     1
 78
     8
 79
     2
140
3.5
141
0.0
143
0.0393701
146
0.71
147
1.5
172
     1
176
   256
177
   256
178
     2
271
     2
272
     3
274
     4
283
     0
284
     8
340
11
371
    -1
372
    -1
1001
ACAD_DSTYLE_DIMJOGGED_JOGANGLE_SYMBOL
1070
   384
1040
1.570796326794896
1001
ACAD_DSTYLE_DIM_LINETYPE
1070
   380
1005
14
1001
ACAD_DSTYLE_DIM_EXT1_LINETYPE
1070
   381
1005
14
1001
ACAD_DSTYLE_DIM_EXT2_LINETYPE
1070
   382
1005
14
  0
DIMSTYLE
105
49EB
330
A
100
AcDbSymbolTableRecord
100
AcDbDimStyleTableRecord
  2
AM_DIN$6
 70
     0
  4
"
 41
3.5
 42
1.0
 43
10.0
 44
1.0
 47
0.1
 48
0.1
 73
     0
 74
     0
 78
     8
 79
     2
140
3.5
141
0.0
143
0.0393701
146
0.71
147
1.5
172
     1
176
   256
177
   256
178
     2
271
     2
272
     3
274
     4
283
     0
284
     8
340
11
371
    -1
372
    -1
1001
ACAD_DSTYLE_DIMJOGGED_JOGANGLE_SYMBOL
1070
   384
1040
1.570796326794896
1001
ACAD_DSTYLE_DIM_LINETYPE
1070
   380
1005
14
1001
ACAD_DSTYLE_DIM_EXT1_LINETYPE
1070
   381
1005
14
1001
ACAD_DSTYLE_DIM_EXT2_LINETYPE
1070
   382
1005
14
  0
DIMSTYLE
105
49EC
330
A
100
AcDbSymbolTableRecord
100
AcDbDimStyleTableRecord
  2
AM_DIN$7
 70
     0
  4
"
 41
3.5
 42
1.0
 43
10.0
 44
1.0
 47
0.1
 48
0.1
 73
     0
 74
     0
 77
     1
 78
     8
 79
     2
140
3.5
141
0.0
143
0.0393701
146
0.71
147
1.5
172
     1
176
   256
177
   256
178
     2
271
     2
272
     3
274
     4
283
     0
284
     8
340
11
371
    -1
372
    -1
1001
ACAD_DSTYLE_DIMJOGGED_JOGANGLE_SYMBOL
1070
   384
1040
1.570796326794896
1001
ACAD_DSTYLE_DIM_LINETYPE
1070
   380
1005
14
1001
ACAD_DSTYLE_DIM_EXT1_LINETYPE
1070
   381
1005
14
1001
ACAD_DSTYLE_DIM_EXT2_LINETYPE
1070
   382
1005
14
  0
DIMSTYLE
105
49ED
330
A
100
AcDbSymbolTableRecord
100
AcDbDimStyleTableRecord
  2
AM_DIN$SF
 70
     0
  4
"
 41
3.5
 42
1.0
 43
10.0
 44
1.0
 47
0.1
 48
0.1
 73
     0
 74
     0
 75
     1
 76
     1
 77
     1
 78
     8
 79
     2
140
3.5
141
0.0
143
0.0393701
146
0.71
147
1.5
172
     1
176
   256
177
   256
178
     2
271
     2
272
     3
274
     4
283
     0
284
     8
340
11
371
    -1
372
    -1
1001
ACAD_DSTYLE_DIMJOGGED_JOGANGLE_SYMBOL
1070
   384
1040
1.570796326794896
1001
ACAD_DSTYLE_DIM_LINETYPE
1070
   380
1005
14
1001
ACAD_DSTYLE_DIM_EXT1_LINETYPE
1070
   381
1005
14
1001
ACAD_DSTYLE_DIM_EXT2_LINETYPE
1070
   382
1005
14
  0
DIMSTYLE
105
49F2
330
A
100
AcDbSymbolTableRecord
100
AcDbDimStyleTableRecord
  2
AM_DIN$SH
 70
     0
  4
"
 41
3.5
 42
1.0
 43
10.0
 44
1.0
 47
0.1
 48
0.1
 73
     0
 74
     0
 75
     1
 76
     1
 77
     1
 78
     8
 79
     2
140
3.5
141
0.0
143
0.0393701
144
2.0
146
0.71
147
1.5
172
     1
173
     1
176
   256
177
   256
178
     2
271
     2
272
     3
274
     4
283
     0
284
     8
340
11
343
49EE
371
    -1
372
    -1
1001
ACAD_DSTYLE_DIMJOGGED_JOGANGLE_SYMBOL
1070
   384
1040
1.570796326794896
1001
ACAD_DSTYLE_DIM_LINETYPE
1070
   380
1005
14
1001
ACAD_DSTYLE_DIM_EXT1_LINETYPE
1070
   381
1005
14
1001
ACAD_DSTYLE_DIM_EXT2_LINETYPE
1070
   382
1005
14
  0
ENDTAB
  0
TABLE
  2
BLOCK_RECORD
  5
1
330
0
100
AcDbSymbolTable
 70
     5
  0
BLOCK_RECORD
  5
1F
102
{ACAD_XDICTIONARY
360
8F
102
}
330
1
100
AcDbSymbolTableRecord
100
AcDbBlockTableRecord
  2
*Model_Space
340
22
  0
BLOCK_RECORD
  5
1B
330
1
100
AcDbSymbolTableRecord
100
AcDbBlockTableRecord
  2
*Paper_Space
340
1E
  0
BLOCK_RECORD
  5
23
330
1
100
AcDbSymbolTableRecord
100
AcDbBlockTableRecord
  2
*Paper_Space0
340
26
  0
BLOCK_RECORD
  5
49EE
330
1
100
AcDbSymbolTableRecord
100
AcDbBlockTableRecord
  2
GENAXEH
340
0
  0
BLOCK_RECORD
  5
519E
330
1
100
AcDbSymbolTableRecord
100
AcDbBlockTableRecord
  2
*D2
340
0
  0
BLOCK_RECORD
  5
51AA
330
1
100
AcDbSymbolTableRecord
100
AcDbBlockTableRecord
  2
*D3
340
0
  0
ENDTAB
  0
ENDSEC
  0
SECTION
  2
BLOCKS
  0
BLOCK
  5
20
330
1F
100
AcDbEntity
  8
0
100
AcDbBlockBegin
  2
*Model_Space
 70
     0
 10
0.0
 20
0.0
 30
0.0
  3
*Model_Space
  1

  0
ENDBLK
  5
21
330
1F
100
AcDbEntity
  8
0
100
AcDbBlockEnd
  0
BLOCK
  5
1C
330
1B
100
AcDbEntity
 67
     1
  8
0
100
AcDbBlockBegin
  2
*Paper_Space
 70
     0
 10
0.0
 20
0.0
 30
0.0
  3
*Paper_Space
  1

  0
ENDBLK
  5
1D
330
1B
100
AcDbEntity
 67
     1
  8
0
100
AcDbBlockEnd
  0
BLOCK
  5
24
330
23
100
AcDbEntity
 67
     1
  8
0
100
AcDbBlockBegin
  2
*Paper_Space0
 70
     0
 10
0.0
 20
0.0
 30
0.0
  3
*Paper_Space0
  1

  0
ENDBLK
  5
25
330
23
100
AcDbEntity
 67
     1
  8
0
100
AcDbBlockEnd
  0
BLOCK
  5
49F0
330
49EE
100
AcDbEntity
  8
0
100
AcDbBlockBegin
  2
GENAXEH
 70
     0
 10
0.0
 20
0.0
 30
0.0
  3
GENAXEH
  1

  0
LINE
  5
49EF
330
49EE
100
AcDbEntity
  8
0
100
AcDbLine
 10
-1.0
 20
0.0
 30
0.0
 11
1.0
 21
0.0
 31
0.0
  0
ENDBLK
  5
49F1
330
49EE
100
AcDbEntity
  8
0
100
AcDbBlockEnd
  0
BLOCK
  5
519F
330
519E
100
AcDbEntity
  8
0
100
AcDbBlockBegin
  2
*D2
 70
     1
 10
0.0
 20
0.0
 30
0.0
  3
*D2
  1

  0
LINE
  5
557D
330
519E
100
AcDbEntity
  8
AM_5
  6
ByBlock
100
AcDbLine
 10
-0.0000010082098924
 20
378.0000008020767
 30
0.0
 11
-0.0000010082098837
 21
521.3738556904871
 31
0.0
  0
LINE
  5
557E
330
519E
100
AcDbEntity
  8
AM_5
  6
ByBlock
100
AcDbLine
 10
500.0870190756804
 20
378.0000008020767
 30
0.0
 11
500.0870190756804
 21
521.3738556904871
 31
0.0
  0
LINE
  5
557F
330
519E
100
AcDbEntity
  8
AM_5
  6
ByBlock
100
AcDbLine
 10
4.999998991790116
 20
520.3738556904871
 30
0.0
 11
495.0870190756804
 21
520.3738556904871
 31
0.0
  0
SOLID
  5
5580
330
519E
100
AcDbEntity
  8
AM_5
100
AcDbTrace
 10
4.999998991790116
 20
521.2071890238206
 30
0.0
 11
4.999998991790116
 21
519.5405223571538
 31
0.0
 12
-0.0000010082098837
 22
520.3738556904871
 32
0.0
 13
-0.0000010082098837
 23
520.3738556904871
 33
0.0
  0
SOLID
  5
5581
330
519E
100
AcDbEntity
  8
AM_5
100
AcDbTrace
 10
495.0870190756804
 20
521.2071890238206
 30
0.0
 11
495.0870190756804
 21
519.5405223571538
 31
0.0
 12
500.0870190756804
 22
520.3738556904871
 32
0.0
 13
500.0870190756804
 23
520.3738556904871
 33
0.0
  0
MTEXT
  5
5582
330
519E
100
AcDbEntity
  8
AM_5
 62
     2
100
AcDbMText
 10
243.9727546916783
 20
526.8738556904873
 30
0.0
 40
10.0
 41
0.0
 71
     5
 72
     1
  1
{\Famgdt;o}500
 73
     1
 44
1.0
1001
ACAD
1000
MTEXTBEGIN
1070
    73
1070
     1
1070
    44
1040
1.0
1070
    74
1070
     0
1000
MTEXTEND
  0
POINT
  5
5583
330
519E
100
AcDbEntity
  8
Defpoints
 62
     0
100
AcDbPoint
 10
-0.0000010082098925
 20
377.0000008020767
 30
0.0
  0
POINT
  5
5584
330
519E
100
AcDbEntity
  8
Defpoints
 62
     0
100
AcDbPoint
 10
500.0870190756804
 20
377.0000008020767
 30
0.0
  0
POINT
  5
5585
330
519E
100
AcDbEntity
  8
Defpoints
 62
     0
100
AcDbPoint
 10
500.0870190756804
 20
520.3738556904871
 30
0.0
  0
ENDBLK
  5
51A0
330
519E
100
AcDbEntity
  8
0
100
AcDbBlockEnd
  0
BLOCK
  5
51AB
330
51AA
100
AcDbEntity
  8
0
100
AcDbBlockBegin
  2
*D3
 70
     1
 10
0.0
 20
0.0
 30
0.0
  3
*D3
  1

  0
LINE
  5
5586
330
51AA
100
AcDbEntity
  8
AM_5
  6
ByBlock
100
AcDbLine
 10
249.043509033731
 20
0.0000008020931549
 30
0.0
 11
71.99999899176821
 21
0.000000802093205
 31
0.0
  0
LINE
  5
5587
330
51AA
100
AcDbEntity
  8
AM_5
  6
ByBlock
100
AcDbLine
 10
83.99999899176826
 20
370.0000008020763
 30
0.0
 11
71.99999899176828
 21
370.0000008020763
 31
0.0
  0
LINE
  5
5588
330
51AA
100
AcDbEntity
  8
AM_5
  6
ByBlock
100
AcDbLine
 10
72.99999899176819
 20
5.000000802093205
 30
0.0
 11
72.99999899176828
 21
365.0000008020763
 31
0.0
  0
SOLID
  5
5589
330
51AA
100
AcDbEntity
  8
AM_5
100
AcDbTrace
 10
72.16666565843485
 20
5.000000802093205
 30
0.0
 11
73.83333232510152
 21
5.000000802093205
 31
0.0
 12
72.99999899176819
 22
0.0000008020932048
 32
0.0
 13
72.99999899176819
 23
0.0000008020932048
 33
0.0
  0
SOLID
  5
558A
330
51AA
100
AcDbEntity
  8
AM_5
100
AcDbTrace
 10
72.16666565843495
 20
365.0000008020763
 30
0.0
 11
73.83333232510159
 21
365.0000008020763
 31
0.0
 12
72.99999899176828
 22
370.0000008020763
 32
0.0
 13
72.99999899176828
 23
370.0000008020763
 33
0.0
  0
MTEXT
  5
558B
330
51AA
100
AcDbEntity
  8
AM_5
 62
     2
100
AcDbMText
 10
66.49999899176821
 20
185.0000008020847
 30
0.0
 40
10.0
 41
0.0
 71
     5
 72
     1
  1
370
 11
0.0000000000000001
 21
1.0
 31
0.0
 73
     1
 44
1.0
1001
ACAD
1000
MTEXTBEGIN
1070
    73
1070
     1
1070
    44
1040
1.0
1070
    74
1070
     0
1000
MTEXTEND
  0
POINT
  5
558C
330
51AA
100
AcDbEntity
  8
Defpoints
 62
     0
100
AcDbPoint
 10
250.043509033731
 20
0.0000008020931546
 30
0.0
  0
POINT
  5
558D
330
51AA
100
AcDbEntity
  8
Defpoints
 62
     0
100
AcDbPoint
 10
84.99999899176826
 20
370.0000008020763
 30
0.0
  0
POINT
  5
558E
330
51AA
100
AcDbEntity
  8
Defpoints
 62
     0
100
AcDbPoint
 10
72.99999899176828
 20
370.0000008020763
 30
0.0
  0
ENDBLK
  5
51AC
330
51AA
100
AcDbEntity
  8
0
100
AcDbBlockEnd
  0
ENDSEC
  0
SECTION
  2
ENTITIES
  0
LINE
  5
4E74
330
1F
100
AcDbEntity
  8
P-0000
  6
Continuous
 62
     7
100
AcDbLine
 10
166.0435090337332
 20
370.0000008020731
 30
0.0
 11
178.3410677190554
 21
370.0000008020838
 31
0.0
1001
ACME_LAYERS
1000
1
  0
LINE
  5
4E76
330
1F
100
AcDbEntity
  8
P-0000
  6
Continuous
 62
     7
100
AcDbLine
 10
165.7217957614939
 20
376.000000802077
 30
0.0
 11
203.0435090337332
 21
376.000000802077
 31
0.0
1001
ACME_LAYERS
1000
1
  0
HATCH
  5
4E77
330
1F
100
AcDbEntity
  8
P-0000
  6
Continuous
 62
     3
100
AcDbHatch
 10
0.0
 20
0.0
 30
0.0
210
0.0
220
0.0
230
1.0
  2
_U
 70
     0
 71
     0
 91
        1
 92
        1
 93
        9
 72
     1
 10
84.99999899176826
 20
370.0000008020763
 11
83.99999899176828
 21
371.7320516096472
 72
     1
 10
83.99999899176828
 20
371.7320516096458
 11
88.36545723167729
 21
374.2524500995912
 72
     2
 10
90.36545723167728
 20
370.7883484844547
 40
4.0
 50
239.9999999999895
 51
270.0
 73
     0
 72
     2
 10
90.36545723167728
 20
370.7883484844547
 40
4.000000000000613
 50
270.0
 51
315.0000000000009
 73
     0
 72
     1
 10
93.19388435642441
 20
373.6167756092024
 11
93.89644560117586
 21
372.9142143644494
 72
     1
 10
93.89644560117586
 20
372.9142143644503
 11
92.48223203880298
 21
371.5000008020761
 72
     1
 10
92.48223203880298
 20
371.5000008020761
 11
91.77967079405016
 21
372.2025620468282
 72
     2
 10
90.36545723167728
 20
370.7883484844547
 40
2.000000000000115
 50
44.99999999999594
 51
120.0000000000099
 73
     1
 72
     1
 10
89.36545723167593
 20
372.5203992920238
 11
84.99999899176826
 21
370.0000008020761
 97
        0
 75
     0
 76
     0
 52
44.99999999999999
 41
2.0
 77
     0
 78
     1
 53
45.0
 43
401.8039505349998
 44
236.1091357685118
 45
-1.414213562373094
 46
1.414213562373094
 79
     0
 98
        1
 10
401.8039505349998
 20
236.1091357685118
1001
ACME_LAYERS
1000
1
  0
LINE
  5
4E78
330
1F
100
AcDbEntity
  8
P-0000
  6
Continuous
 62
     3
100
AcDbLine
 10
83.99999899176828
 20
371.7320516096458
 30
0.0
 11
88.36545723167729
 21
374.2524500995912
 31
0.0
1001
ACME_LAYERS
1000
1
  0
LINE
  5
4E79
330
1F
100
AcDbEntity
  8
P-0000
  6
Continuous
 62
     7
100
AcDbLine
 10
84.99999899176826
 20
370.0000008020763
 30
0.0
 11
89.36545723167593
 21
372.5203992920238
 31
0.0
1001
ACME_LAYERS
1000
1
  0
LINE
  5
4E7A
330
1F
100
AcDbEntity
  8
P-0000
  6
Continuous
 62
     7
100
AcDbLine
 10
84.99999899176826
 20
370.0000008020763
 30
0.0
 11
89.36545723167593
 21
372.5203992920238
 31
0.0
1001
ACME_LAYERS
1000
1
  0
LINE
  5
4E7B
330
1F
100
AcDbEntity
  8
P-0000
  6
Continuous
 62
     7
100
AcDbLine
 10
84.99999899176826
 20
370.0000008020763
 30
0.0
 11
109.571795761492
 21
370.0000008020763
 31
0.0
1001
ACME_LAYERS
1000
1
  0
LINE
  5
4E7C
102
{ACAD_REACTORS
330
519D
102
}
330
1F
100
AcDbEntity
  8
P-0000
  6
Continuous
 62
     7
100
AcDbLine
 10
84.99999899176826
 20
370.0000008020763
 30
0.0
 11
83.99999899176828
 21
371.7320516096458
 31
0.0
1001
ACME_LAYERS
1000
1
  0
LINE
  5
4E7D
330
1F
100
AcDbEntity
  8
P-0000
  6
Continuous
 62
     7
100
AcDbLine
 10
109.571795761492
 20
370.0000008020763
 30
0.0
 11
147.5435090337473
 21
370.0000008020731
 31
0.0
1001
ACME_LAYERS
1000
1
  0
LINE
  5
4E7E
330
1F
100
AcDbEntity
  8
P-0000
  6
Continuous
 62
     7
100
AcDbLine
 10
129.7935090337273
 20
372.0000008020763
 30
0.0
 11
137.7499989917682
 21
372.0000008020763
 31
0.0
1001
ACME_LAYERS
1000
1
  0
LINE
  5
4E7F
330
1F
100
AcDbEntity
  8
P-0000
  6
Continuous
 62
     3
100
AcDbLine
 10
130.5282439707871
 20
387.1964735919761
 30
0.0
 11
130.5282439707871
 21
386.6121248904047
 31
0.0
1001
ACME_LAYERS
1000
1
  0
ARC
  5
4E80
330
1F
100
AcDbEntity
  8
P-0000
  6
Continuous
 62
     7
100
AcDbCircle
 10
109.571795761492
 20
374.0000008020763
 30
0.0
 40
1.999999999999253
100
AcDbArc
 50
239.9999999999962
 51
270.0
1001
ACME_LAYERS
1000
1
  0
ARC
  5
4E81
330
1F
100
AcDbEntity
  8
P-0000
  6
Continuous
 62
     7
100
AcDbCircle
 10
109.571795761492
 20
374.0000008020763
 30
0.0
 40
4.000000000000131
100
AcDbArc
 50
240.0000000000027
 51
270.0
1001
ACME_LAYERS
1000
1
  0
LINE
  5
4E82
330
1F
100
AcDbEntity
  8
P-0000
  6
Continuous
 62
     7
100
AcDbLine
 10
109.8499989917691
 20
372.0000008020763
 30
0.0
 11
104.0820497993381
 21
375.3301278209982
 31
0.0
1001
ACME_LAYERS
1000
1
  0
LINE
  5
4E83
330
1F
100
AcDbEntity
  8
P-0000
  6
Continuous
 62
     7
100
AcDbLine
 10
104.1345407518602
 20
372.5203992920238
 30
0.0
 11
107.571795761492
 21
370.5358991869382
 31
0.0
1001
ACME_LAYERS
1000
1
  0
LINE
  5
4E84
330
1F
100
AcDbEntity
  8
P-0000
  6
Continuous
 62
     7
100
AcDbLine
 10
93.89644560117586
 20
372.9142143644503
 30
0.0
 11
99.60355238236026
 21
372.9142143644503
 31
0.0
1001
ACME_LAYERS
1000
1
  0
LINE
  5
4E85
330
1F
100
AcDbEntity
  8
P-0000
  6
Continuous
 62
     7
100
AcDbLine
 10
92.48223203880298
 20
371.5000008020761
 30
0.0
 11
101.0177659447345
 21
371.5000008020761
 31
0.0
1001
ACME_LAYERS
1000
1
  0
LINE
  5
4E86
330
1F
100
AcDbEntity
  8
P-0000
  6
Continuous
 62
     7
100
AcDbLine
 10
92.73204979933828
 20
376.000000802077
 30
0.0
 11
101.5820497993372
 21
376.000000802077
 31
0.0
1001
ACME_LAYERS
1000
1
  0
LINE
  5
4E87
330
1F
100
AcDbEntity
  8
P-0000
  6
Continuous
 62
     7
100
AcDbLine
 10
90.36545723167728
 20
374.7883484844547
 30
0.0
 11
103.1345407518615
 21
374.7883484844547
 31
0.0
1001
ACME_LAYERS
1000
1
  0
ARC
  5
4E88
330
1F
100
AcDbEntity
  8
P-0000
  6
Continuous
 62
     7
100
AcDbCircle
 10
92.73204979933687
 20
371.0000008020761
 30
0.0
 40
5.0
100
AcDbArc
 50
89.99999999997395
 51
119.9999999999972
1001
ACME_LAYERS
1000
1
  0
ARC
  5
4E89
330
1F
100
AcDbEntity
  8
P-0000
  6
Continuous
 62
     7
100
AcDbCircle
 10
90.36545723167728
 20
370.7883484844547
 30
0.0
 40
4.000000000000613
100
AcDbArc
 50
44.99999999999078
 51
90.0
1001
ACME_LAYERS
1000
1
  0
LINE
  5
4E8A
330
1F
100
AcDbEntity
  8
P-0000
  6
Continuous
 62
     7
100
AcDbLine
 10
91.77967079405016
 20
372.2025620468282
 30
0.0
 11
92.48223203880298
 21
371.5000008020761
 31
0.0
1001
ACME_LAYERS
1000
1
  0
ARC
  5
4E8B
330
1F
100
AcDbEntity
  8
P-0000
  6
Continuous
 62
     7
100
AcDbCircle
 10
90.36545723167728
 20
370.7883484844547
 30
0.0
 40
4.0
100
AcDbArc
 50
90.0
 51
120.0000000000038
1001
ACME_LAYERS
1000
1
  0
LINE
  5
4E8C
330
1F
100
AcDbEntity
  8
P-0000
  6
Continuous
 62
     7
100
AcDbLine
 10
88.36545723167729
 20
374.2524500995912
 30
0.0
 11
90.23204979933643
 21
375.3301278209982
 31
0.0
1001
ACME_LAYERS
1000
1
  0
ARC
  5
4E8D
330
1F
100
AcDbEntity
  8
P-0000
  6
Continuous
 62
     7
100
AcDbCircle
 10
90.36545723167728
 20
370.7883484844547
 30
0.0
 40
2.000000000000115
100
AcDbArc
 50
44.99999999999078
 51
120.0000000000038
1001
ACME_LAYERS
1000
1
  0
LINE
  5
4E8E
330
1F
100
AcDbEntity
  8
P-0000
  6
Continuous
 62
     7
100
AcDbLine
 10
93.89644560117586
 20
372.9142143644503
 30
0.0
 11
92.48223203880298
 21
371.5000008020761
 31
0.0
1001
ACME_LAYERS
1000
1
  0
LINE
  5
4E8F
330
1F
100
AcDbEntity
  8
P-0000
  6
Continuous
 62
     7
100
AcDbLine
 10
93.19388435642441
 20
373.6167756092024
 30
0.0
 11
93.89644560117586
 21
372.9142143644503
 31
0.0
1001
ACME_LAYERS
1000
1
  0
ARC
  5
4E90
330
1F
100
AcDbEntity
  8
P-0000
  6
Continuous
 62
     7
100
AcDbCircle
 10
103.1345407518615
 20
370.7883484844547
 30
0.0
 40
1.999999999999401
100
AcDbArc
 50
59.9999999999962
 51
135.0000000000092
1001
ACME_LAYERS
1000
1
  0
ARC
  5
4E91
330
1F
100
AcDbEntity
  8
P-0000
  6
Continuous
 62
     7
100
AcDbCircle
 10
101.5820497993372
 20
371.0000008020761
 30
0.0
 40
5.000000000000164
100
AcDbArc
 50
60.00000000000272
 51
90.0
1001
ACME_LAYERS
1000
1
  0
ARC
  5
4E92
330
1F
100
AcDbEntity
  8
P-0000
  6
Continuous
 62
     7
100
AcDbCircle
 10
103.1345407518615
 20
370.7883484844547
 30
0.0
 40
1.999999999999401
100
AcDbArc
 50
59.9999999999962
 51
135.0000000000092
1001
ACME_LAYERS
1000
1
  0
ARC
  5
4E93
330
1F
100
AcDbEntity
  8
P-0000
  6
Continuous
 62
     7
100
AcDbCircle
 10
103.1345407518615
 20
370.7883484844547
 30
0.0
 40
3.999999999998728
100
AcDbArc
 50
59.9999999999962
 51
90.0
1001
ACME_LAYERS
1000
1
  0
ARC
  5
4E94
330
1F
100
AcDbEntity
  8
P-0000
  6
Continuous
 62
     7
100
AcDbCircle
 10
103.1345407518615
 20
370.7883484844547
 30
0.0
 40
4.0
100
AcDbArc
 50
90.0
 51
135.0000000000092
1001
ACME_LAYERS
1000
1
  0
LINE
  5
4E95
330
1F
100
AcDbEntity
  8
P-0000
  6
Continuous
 62
     7
100
AcDbLine
 10
99.60355238236026
 20
372.9142143644503
 30
0.0
 11
100.306113627113
 21
373.6167756092024
 31
0.0
1001
ACME_LAYERS
1000
1
  0
LINE
  5
4E96
330
1F
100
AcDbEntity
  8
P-0000
  6
Continuous
 62
     7
100
AcDbLine
 10
101.0177659447345
 20
371.5000008020761
 30
0.0
 11
101.7203271894873
 21
372.2025620468282
 31
0.0
1001
ACME_LAYERS
1000
1
  0
LINE
  5
4E97
330
1F
100
AcDbEntity
  8
P-0000
  6
Continuous
 62
     7
100
AcDbLine
 10
101.0177659447345
 20
371.5000008020761
 30
0.0
 11
99.60355238236026
 21
372.9142143644503
 31
0.0
1001
ACME_LAYERS
1000
1
  0
LINE
  5
4E98
330
1F
100
AcDbEntity
  8
P-0000
  6
Continuous
 62
     7
100
AcDbLine
 10
105.1345407518602
 20
374.2524500995912
 30
0.0
 11
108.571795761492
 21
372.2679499945082
 31
0.0
1001
ACME_LAYERS
1000
1
  0
LINE
  5
4E99
330
1F
100
AcDbEntity
  8
P-0000
  6
Continuous
 62
     7
100
AcDbLine
 10
109.8499989917691
 20
372.0000008020763
 30
0.0
 11
129.7935090337273
 21
372.0000008020763
 31
0.0
1001
ACME_LAYERS
1000
1
  0
LINE
  5
4E9A
330
1F
100
AcDbEntity
  8
P-0000
  6
Continuous
 62
     7
100
AcDbLine
 10
109.8499989917691
 20
372.0000008020763
 30
0.0
 11
109.571795761492
 21
372.0000008020763
 31
0.0
1001
ACME_LAYERS
1000
1
  0
LINE
  5
4E9B
330
1F
100
AcDbEntity
  8
P-0000
  6
Continuous
 62
     3
100
AcDbLine
 10
130.5282439707871
 20
387.1964735919761
 30
0.0
 11
130.5282439707871
 21
372.0000008020763
 31
0.0
1001
ACME_LAYERS
1000
1
  0
LINE
  5
4E9C
330
1F
100
AcDbEntity
  8
P-0000
  6
Continuous
 62
     7
100
AcDbLine
 10
129.7282439707874
 20
385.2059207070198
 30
0.0
 11
129.7282439707874
 21
381.2059207070199
 31
0.0
1001
ACME_LAYERS
1000
1
  0
LINE
  5
4E9D
330
1F
100
AcDbEntity
  8
P-0000
  6
Continuous
 62
     3
100
AcDbLine
 10
136.9282439707872
 20
387.1964735919761
 30
0.0
 11
136.9282439707872
 21
372.0000008020763
 31
0.0
1001
ACME_LAYERS
1000
1
  0
LINE
  5
4E9E
330
1F
100
AcDbEntity
  8
P-0000
  6
Continuous
 62
     7
100
AcDbLine
 10
152.5435090337309
 20
370.0000008020731
 30
0.0
 11
166.0435090337332
 21
370.0000008020731
 31
0.0
1001
ACME_LAYERS
1000
1
  0
LINE
  5
4E9F
330
1F
100
AcDbEntity
  8
P-0000
  6
Continuous
 62
     7
100
AcDbLine
 10
137.7499989917682
 20
372.0000008020763
 30
0.0
 11
157.1858973766302
 21
372.0000008020763
 31
0.0
1001
ACME_LAYERS
1000
1
  0
LINE
  5
4EA0
330
1F
100
AcDbEntity
  8
P-0000
  6
Continuous
 62
     7
100
AcDbLine
 10
148.3047120938216
 20
370.0000008020763
 30
0.0
 11
157.1858973766302
 21
370.0000008020763
 31
0.0
1001
ACME_LAYERS
1000
1
  0
LINE
  5
4EA1
330
1F
100
AcDbEntity
  8
P-0000
  6
Continuous
 62
     7
100
AcDbLine
 10
137.7282439707874
 20
385.2059207070198
 30
0.0
 11
137.7282439707874
 21
381.2059207070199
 31
0.0
1001
ACME_LAYERS
1000
1
  0
LINE
  5
4EA2
330
1F
100
AcDbEntity
  8
P-0000
  6
Continuous
 62
     7
100
AcDbLine
 10
147.5435090337473
 20
370.0000008020731
 30
0.0
 11
148.3047120938216
 21
370.0000008020763
 31
0.0
1001
ACME_LAYERS
1000
1
  0
LINE
  5
4EA3
330
1F
100
AcDbEntity
  8
P-0000
  6
Continuous
 62
     7
100
AcDbLine
 10
159.1858973766288
 20
370.5358991869382
 30
0.0
 11
164.7217957614939
 21
373.7320516096458
 31
0.0
1001
ACME_LAYERS
1000
1
  0
LINE
  5
4EA4
330
1F
100
AcDbEntity
  8
P-0000
  6
Continuous
 62
     7
100
AcDbLine
 10
158.1858973766301
 20
372.2679499945061
 30
0.0
 11
163.7217957614934
 21
375.4641024172142
 31
0.0
1001
ACME_LAYERS
1000
1
  0
ARC
  5
4EA5
330
1F
100
AcDbEntity
  8
P-0000
  6
Continuous
 62
     7
100
AcDbCircle
 10
157.1858973766302
 20
374.0000008020763
 30
0.0
 40
2.0
100
AcDbArc
 50
270.0
 51
300.0000000000038
1001
ACME_LAYERS
1000
1
  0
ARC
  5
4EA6
330
1F
100
AcDbEntity
  8
P-0000
  6
Continuous
 62
     7
100
AcDbCircle
 10
165.7217957614939
 20
372.0000008020763
 30
0.0
 40
4.0
100
AcDbArc
 50
90.0
 51
119.9999999999972
1001
ACME_LAYERS
1000
1
  0
ARC
  5
4EA7
330
1F
100
AcDbEntity
  8
P-0000
  6
Continuous
 62
     7
100
AcDbCircle
 10
165.492041234876
 20
372.5546772962541
 30
0.0
 40
1.406942913943622
100
AcDbArc
 50
78.80050130597068
 51
123.1929568710492
1001
ACME_LAYERS
1000
1
  0
ARC
  5
4EA8
330
1F
100
AcDbEntity
  8
P-0000
  6
Continuous
 62
     7
100
AcDbCircle
 10
157.1858973766302
 20
374.0000008020763
 30
0.0
 40
4.0
100
AcDbArc
 50
270.0
 51
299.9999999999973
1001
ACME_LAYERS
1000
1
  0
LINE
  5
4EA9
330
1F
100
AcDbEntity
  8
P-0000
  6
Continuous
 62
     7
100
AcDbLine
 10
210.6731908472693
 20
376.000000802077
 30
0.0
 11
250.0435090337351
 21
376.000000802077
 31
0.0
1001
ACME_LAYERS
1000
1
  0
LINE
  5
4EAA
330
1F
100
AcDbEntity
  8
P-0000
  6
Continuous
 62
     7
100
AcDbLine
 10
203.0435090337332
 20
376.000000802077
 30
0.0
 11
250.0435090337351
 21
376.000000802077
 31
0.0
1001
ACME_LAYERS
1000
1
  0
LINE
  5
4EAB
330
1F
100
AcDbEntity
  8
P-0000
  6
Continuous
 62
     7
100
AcDbLine
 10
183.5392377174144
 20
376.2195328762071
 30
0.0
 11
183.5435090337273
 21
376.2033691236156
 31
0.0
1001
ACME_LAYERS
1000
1
  0
LINE
  5
4EAC
330
1F
100
AcDbEntity
  8
P-0000
  6
Continuous
 62
     7
100
AcDbLine
 10
137.7847804148782
 20
387.1964735919761
 30
0.0
 11
137.7847804148782
 21
381.2059207070199
 31
0.0
1001
ACME_LAYERS
1000
1
  0
LINE
  5
4EAD
330
1F
100
AcDbEntity
  8
P-0000
  6
Continuous
 62
     7
100
AcDbLine
 10
116.2847804148869
 20
386.7059207070196
 30
0.0
 11
129.7847804148782
 21
386.7059207070196
 31
0.0
1001
ACME_LAYERS
1000
1
  0
LINE
  5
4EAE
330
1F
100
AcDbEntity
  8
P-0000
  6
Continuous
 62
     7
100
AcDbLine
 10
122.1132075396222
 20
385.2059207070198
 30
0.0
 11
124.5508102528501
 21
385.2059207070198
 31
0.0
1001
ACME_LAYERS
1000
1
  0
LINE
  5
4EAF
330
1F
100
AcDbEntity
  8
P-0000
  6
Continuous
 62
     7
100
AcDbLine
 10
250.0347804148701
 20
386.7059207070196
 30
0.0
 11
162.7847804148773
 21
386.7059207070196
 31
0.0
1001
ACME_LAYERS
1000
1
  0
LINE
  5
4EB0
330
1F
100
AcDbEntity
  8
P-0000
  6
Continuous
 62
     7
100
AcDbLine
 10
122.1132075396222
 20
385.2059207070198
 30
0.0
 11
124.5508102528501
 21
385.2059207070198
 31
0.0
1001
ACME_LAYERS
1000
1
  0
LINE
  5
4EB1
330
1F
100
AcDbEntity
  8
P-0000
  6
Continuous
 62
     7
100
AcDbLine
 10
124.5508102528501
 20
385.2059207070198
 30
0.0
 11
125.9611387817099
 21
385.2059207070198
 31
0.0
1001
ACME_LAYERS
1000
1
  0
LINE
  5
4EB2
330
1F
100
AcDbEntity
  8
P-0000
  6
Continuous
 62
     7
100
AcDbLine
 10
124.5508102528501
 20
385.2059207070198
 30
0.0
 11
125.9611387817099
 21
385.2059207070198
 31
0.0
1001
ACME_LAYERS
1000
1
  0
LINE
  5
4EB3
330
1F
100
AcDbEntity
  8
P-0000
  6
Continuous
 62
     7
100
AcDbLine
 10
250.034780414876
 20
384.9738698994522
 30
0.0
 11
163.7847804148782
 21
384.9738698994522
 31
0.0
1001
ACME_LAYERS
1000
1
  0
LINE
  5
4EB4
330
1F
100
AcDbEntity
  8
P-0000
  6
Continuous
 62
     7
100
AcDbLine
 10
162.7847804148773
 20
386.7059207070196
 30
0.0
 11
157.186704203526
 21
383.4738698994522
 31
0.0
1001
ACME_LAYERS
1000
1
  0
LINE
  5
4EB5
330
1F
100
AcDbEntity
  8
P-0000
  6
Continuous
 62
     7
100
AcDbLine
 10
137.7847804148782
 20
386.7059207070196
 30
0.0
 11
162.7847804148773
 21
386.7059207070196
 31
0.0
1001
ACME_LAYERS
1000
1
  0
LINE
  5
4EB6
330
1F
100
AcDbEntity
  8
P-0000
  6
Continuous
 62
     7
100
AcDbLine
 10
163.7847804148782
 20
384.9738698994522
 30
0.0
 11
162.7847804148773
 21
386.7059207070196
 31
0.0
1001
ACME_LAYERS
1000
1
  0
LINE
  5
4EB7
330
1F
100
AcDbEntity
  8
P-0000
  6
Continuous
 62
     7
100
AcDbLine
 10
162.7847804148773
 20
386.7059207070196
 30
0.0
 11
162.712814252377
 21
386.7059207070196
 31
0.0
1001
ACME_LAYERS
1000
1
  0
LINE
  5
4EB8
330
1F
100
AcDbEntity
  8
P-0000
  6
Continuous
 62
     7
100
AcDbLine
 10
125.9611387817099
 20
385.2059207070198
 30
0.0
 11
128.7847804148791
 21
385.2059207070198
 31
0.0
1001
ACME_LAYERS
1000
1
  0
LINE
  5
4EBA
330
1F
100
AcDbEntity
  8
P-0000
  6
Continuous
 62
     3
100
AcDbLine
 10
110.84695824137
 20
383.2059207070196
 30
0.0
 11
111.3828566262332
 21
383.2059207070196
 31
0.0
1001
ACME_LAYERS
1000
1
  0
LINE
  5
4EBB
330
1F
100
AcDbEntity
  8
P-0000
  6
Continuous
 62
     3
100
AcDbLine
 10
110.3828566262332
 20
383.4738698994522
 30
0.0
 11
110.84695824137
 21
383.2059207070196
 31
0.0
1001
ACME_LAYERS
1000
1
  0
LINE
  5
4EBC
330
1F
100
AcDbEntity
  8
P-0000
  6
Continuous
 62
     7
100
AcDbLine
 10
148.2847804148781
 20
384.0343478317661
 30
0.0
 11
148.5274211019982
 21
383.791707144647
 31
0.0
1001
ACME_LAYERS
1000
1
  0
LINE
  5
4EBD
330
1F
100
AcDbEntity
  8
P-0000
  6
Continuous
 62
     7
100
AcDbLine
 10
119.2847804148782
 20
384.0343478317661
 30
0.0
 11
119.04213972776
 21
383.791707144647
 31
0.0
1001
ACME_LAYERS
1000
1
  0
LINE
  5
4EBE
330
1F
100
AcDbEntity
  8
P-0000
  6
Continuous
 62
     7
100
AcDbLine
 10
128.7847804148791
 20
385.2059207070198
 30
0.0
 11
128.7847804148791
 21
383.2059207070196
 31
0.0
1001
ACME_LAYERS
1000
1
  0
LINE
  5
4EBF
330
1F
100
AcDbEntity
  8
P-0000
  6
Continuous
 62
     7
100
AcDbLine
 10
138.7847804148782
 20
385.2059207070198
 30
0.0
 11
138.7847804148782
 21
383.2059207070196
 31
0.0
1001
ACME_LAYERS
1000
1
  0
LINE
  5
4EC0
330
1F
100
AcDbEntity
  8
P-0000
  6
Continuous
 62
     7
100
AcDbLine
 10
103.7847804148791
 20
384.9738698994522
 30
0.0
 11
104.7847804148791
 21
386.7059207070196
 31
0.0
1001
ACME_LAYERS
1000
1
  0
LINE
  5
4EC1
330
1F
100
AcDbEntity
  8
P-0000
  6
Continuous
 62
     7
100
AcDbLine
 10
103.7847804148791
 20
384.9738698994522
 30
0.0
 11
109.3828566262323
 21
381.741819091882
 31
0.0
1001
ACME_LAYERS
1000
1
  0
LINE
  5
4EC2
330
1F
100
AcDbEntity
  8
P-0000
  6
Continuous
 62
     7
100
AcDbLine
 10
104.7847804148791
 20
386.7059207070196
 30
0.0
 11
110.3828566262332
 21
383.4738698994522
 31
0.0
1001
ACME_LAYERS
1000
1
  0
LINE
  5
4EC3
330
1F
100
AcDbEntity
  8
P-0000
  6
Continuous
 62
     7
100
AcDbLine
 10
120.6989939772507
 20
382.6201342693931
 30
0.0
 11
120.4563532901311
 21
382.3774935822752
 31
0.0
1001
ACME_LAYERS
1000
1
  0
LINE
  5
4EC4
330
1F
100
AcDbEntity
  8
P-0000
  6
Continuous
 62
     7
100
AcDbLine
 10
146.870566852504
 20
382.6201342693931
 30
0.0
 11
147.113207539624
 21
382.3774935822752
 31
0.0
1001
ACME_LAYERS
1000
1
  0
LINE
  5
4EC5
330
1F
100
AcDbEntity
  8
P-0000
  6
Continuous
 62
     7
100
AcDbLine
 10
163.7847804148782
 20
384.9738698994522
 30
0.0
 11
158.1867042035251
 21
381.741819091882
 31
0.0
1001
ACME_LAYERS
1000
1
  0
LINE
  5
4EC6
330
1F
100
AcDbEntity
  8
P-0000
  6
Continuous
 62
     7
100
AcDbLine
 10
156.186704203526
 20
381.2059207070199
 30
0.0
 11
250.034780414876
 21
381.2059207070199
 31
0.0
1001
ACME_LAYERS
1000
1
  0
LINE
  5
4EC7
330
1F
100
AcDbEntity
  8
P-0000
  6
Continuous
 62
     7
100
AcDbLine
 10
156.186704203526
 20
383.2059207070196
 30
0.0
 11
149.9416346643711
 21
383.2059207070196
 31
0.0
1001
ACME_LAYERS
1000
1
  0
LINE
  5
4EC8
330
1F
100
AcDbEntity
  8
P-0000
  6
Continuous
 62
     7
100
AcDbLine
 10
156.186704203526
 20
381.2059207070199
 30
0.0
 11
149.9416346643711
 21
381.2059207070199
 31
0.0
1001
ACME_LAYERS
1000
1
  0
LINE
  5
4EC9
330
1F
100
AcDbEntity
  8
P-0000
  6
Continuous
 62
     7
100
AcDbLine
 10
111.3828566262332
 20
381.2059207070198
 30
0.0
 11
117.6279261653844
 21
381.2059207070199
 31
0.0
1001
ACME_LAYERS
1000
1
  0
LINE
  5
4ECA
330
1F
100
AcDbEntity
  8
P-0000
  6
Continuous
 62
     7
100
AcDbLine
 10
128.7847804148791
 20
385.2059207070198
 30
0.0
 11
129.7847804148782
 21
385.2059207070198
 31
0.0
1001
ACME_LAYERS
1000
1
  0
LINE
  5
4ECB
330
1F
100
AcDbEntity
  8
P-0000
  6
Continuous
 62
     7
100
AcDbLine
 10
125.9611387817099
 20
385.2059207070198
 30
0.0
 11
128.7847804148791
 21
385.2059207070198
 31
0.0
1001
ACME_LAYERS
1000
1
  0
LINE
  5
4ECC
330
1F
100
AcDbEntity
  8
P-0000
  6
Continuous
 62
     7
100
AcDbLine
 10
138.7847804148782
 20
385.2059207070198
 30
0.0
 11
145.4563532901311
 21
385.2059207070198
 31
0.0
1001
ACME_LAYERS
1000
1
  0
LINE
  5
4ECD
330
1F
100
AcDbEntity
  8
P-0000
  6
Continuous
 62
     7
100
AcDbLine
 10
137.7847804148782
 20
383.2059207070196
 30
0.0
 11
145.4563532901311
 21
383.2059207070196
 31
0.0
1001
ACME_LAYERS
1000
1
  0
LINE
  5
4ECE
330
1F
100
AcDbEntity
  8
P-0000
  6
Continuous
 62
     7
100
AcDbLine
 10
122.113207539624
 20
383.2059207070196
 30
0.0
 11
129.7282439707874
 21
383.2059207070196
 31
0.0
1001
ACME_LAYERS
1000
1
  0
LINE
  5
4ECF
330
1F
100
AcDbEntity
  8
P-0000
  6
Continuous
 62
     7
100
AcDbLine
 10
137.7847804148782
 20
385.2059207070198
 30
0.0
 11
138.7847804148782
 21
385.2059207070198
 31
0.0
1001
ACME_LAYERS
1000
1
  0
LINE
  5
4ED0
330
1F
100
AcDbEntity
  8
P-0000
  6
Continuous
 62
     7
100
AcDbLine
 10
111.3828566262332
 20
383.2059207070196
 30
0.0
 11
117.6279261653844
 21
383.2059207070196
 31
0.0
1001
ACME_LAYERS
1000
1
  0
LINE
  5
4ED1
330
1F
100
AcDbEntity
  8
P-0000
  6
Continuous
 62
     7
100
AcDbLine
 10
143.7847804148782
 20
385.2059207070198
 30
0.0
 11
138.7847804148782
 21
385.2059207070198
 31
0.0
1001
ACME_LAYERS
1000
1
  0
LINE
  5
4ED2
330
1F
100
AcDbEntity
  8
P-0000
  6
Continuous
 62
     7
100
AcDbLine
 10
138.7847804148782
 20
385.2059207070198
 30
0.0
 11
137.7847804148782
 21
385.2059207070198
 31
0.0
1001
ACME_LAYERS
1000
1
  0
LINE
  5
4ED3
330
1F
100
AcDbEntity
  8
P-0000
  6
Continuous
 62
     7
100
AcDbLine
 10
104.7847804148791
 20
386.7059207070196
 30
0.0
 11
116.2847804148869
 21
386.7059207070196
 31
0.0
1001
ACME_LAYERS
1000
1
  0
LINE
  5
4ED4
330
1F
100
AcDbEntity
  8
P-0000
  6
Continuous
 62
     7
100
AcDbLine
 10
125.3390823014574
 20
385.2059207070198
 30
0.0
 11
129.7847804148782
 21
385.2059207070198
 31
0.0
1001
ACME_LAYERS
1000
1
  0
LINE
  5
4ED5
330
1F
100
AcDbEntity
  8
P-0000
  6
Continuous
 62
     7
100
AcDbLine
 10
137.7847804148782
 20
385.2059207070198
 30
0.0
 11
138.7847804148782
 21
385.2059207070198
 31
0.0
1001
ACME_LAYERS
1000
1
  0
LINE
  5
4ED6
330
1F
100
AcDbEntity
  8
P-0000
  6
Continuous
 62
     7
100
AcDbLine
 10
128.28478041488
 20
385.205920707021
 30
0.0
 11
123.2847804148791
 21
385.205920707021
 31
0.0
1001
ACME_LAYERS
1000
1
  0
LINE
  5
4ED7
330
1F
100
AcDbEntity
  8
P-0000
  6
Continuous
 62
     7
100
AcDbLine
 10
125.3390823014574
 20
387.1964735919761
 30
0.0
 11
129.7847804148782
 21
387.1964735919761
 31
0.0
1001
ACME_LAYERS
1000
1
  0
LINE
  5
4ED8
330
1F
100
AcDbEntity
  8
P-0000
  6
Continuous
 62
     7
100
AcDbLine
 10
138.7847804148782
 20
385.2059207070198
 30
0.0
 11
142.3390823014574
 21
385.2059207070198
 31
0.0
1001
ACME_LAYERS
1000
1
  0
LINE
  5
4ED9
330
1F
100
AcDbEntity
  8
P-0000
  6
Continuous
 62
     7
100
AcDbLine
 10
138.7847804148782
 20
385.2059207070198
 30
0.0
 11
138.28478041488
 21
385.205920707021
 31
0.0
1001
ACME_LAYERS
1000
1
  0
LINE
  5
4EDA
330
1F
100
AcDbEntity
  8
P-0000
  6
Continuous
 62
     7
100
AcDbLine
 10
142.3390823014574
 20
387.1964735919761
 30
0.0
 11
138.28478041488
 21
387.1964735919761
 31
0.0
1001
ACME_LAYERS
1000
1
  0
LINE
  5
4EDB
330
1F
100
AcDbEntity
  8
P-0000
  6
Continuous
 62
     7
100
AcDbLine
 10
129.7847804148782
 20
385.2059207070198
 30
0.0
 11
128.7847804148791
 21
385.2059207070198
 31
0.0
1001
ACME_LAYERS
1000
1
  0
LINE
  5
4EDC
330
1F
100
AcDbEntity
  8
P-0000
  6
Continuous
 62
     7
100
AcDbLine
 10
130.5847804148789
 20
387.1964735919761
 30
0.0
 11
138.28478041488
 21
387.1964735919761
 31
0.0
1001
ACME_LAYERS
1000
1
  0
LINE
  5
4EDD
330
1F
100
AcDbEntity
  8
P-0000
  6
Continuous
 62
     7
100
AcDbLine
 10
129.7847804148782
 20
387.1964735919761
 30
0.0
 11
130.5847804148789
 21
387.1964735919761
 31
0.0
1001
ACME_LAYERS
1000
1
  0
LINE
  5
4EDE
330
1F
100
AcDbEntity
  8
P-0000
  6
Continuous
 62
     7
100
AcDbLine
 10
145.4563532901311
 20
385.2059207070198
 30
0.0
 11
138.7847804148782
 21
385.2059207070198
 31
0.0
1001
ACME_LAYERS
1000
1
  0
ARC
  5
4EDF
330
1F
100
AcDbEntity
  8
P-0000
  6
Continuous
 62
     7
100
AcDbCircle
 10
117.6279261653844
 20
385.2059207070198
 30
0.0
 40
4.0
100
AcDbArc
 50
270.0
 51
315.0000000000092
1001
ACME_LAYERS
1000
1
  0
ARC
  5
4EE0
330
1F
100
AcDbEntity
  8
P-0000
  6
Continuous
 62
     7
100
AcDbCircle
 10
145.4563532901311
 20
381.2059207070199
 30
0.0
 40
4.000000000000613
100
AcDbArc
 50
44.99999999999078
 51
90.0
1001
ACME_LAYERS
1000
1
  0
ARC
  5
4EE1
330
1F
100
AcDbEntity
  8
P-0000
  6
Continuous
 62
     7
100
AcDbCircle
 10
149.9416346643711
 20
385.2059207070198
 30
0.0
 40
3.999999999999423
100
AcDbArc
 50
224.9999999999908
 51
270.0
1001
ACME_LAYERS
1000
1
  0
ARC
  5
4EE2
330
1F
100
AcDbEntity
  8
P-0000
  6
Continuous
 62
     7
100
AcDbCircle
 10
156.186704203526
 20
385.2059207070198
 30
0.0
 40
4.0
100
AcDbArc
 50
270.0
 51
299.9999999999973
1001
ACME_LAYERS
1000
1
  0
ARC
  5
4EE3
330
1F
100
AcDbEntity
  8
P-0000
  6
Continuous
 62
     7
100
AcDbCircle
 10
156.186704203526
 20
385.2059207070198
 30
0.0
 40
2.0
100
AcDbArc
 50
270.0
 51
300.0000000000264
1001
ACME_LAYERS
1000
1
  0
ARC
  5
4EE4
330
1F
100
AcDbEntity
  8
P-0000
  6
Continuous
 62
     7
100
AcDbCircle
 10
149.9416346643711
 20
385.2059207070198
 30
0.0
 40
2.000000000000397
100
AcDbArc
 50
224.9999999999908
 51
270.0
1001
ACME_LAYERS
1000
1
  0
ARC
  5
4EE5
330
1F
100
AcDbEntity
  8
P-0000
  6
Continuous
 62
     7
100
AcDbCircle
 10
145.4563532901311
 20
381.2059207070199
 30
0.0
 40
2.000000000000311
100
AcDbArc
 50
44.99999999999078
 51
90.0
1001
ACME_LAYERS
1000
1
  0
ARC
  5
4EE6
330
1F
100
AcDbEntity
  8
P-0000
  6
Continuous
 62
     7
100
AcDbCircle
 10
122.113207539624
 20
381.2059207070199
 30
0.0
 40
2.0
100
AcDbArc
 50
90.0
 51
135.0000000000092
1001
ACME_LAYERS
1000
1
  0
ARC
  5
4EE7
330
1F
100
AcDbEntity
  8
P-0000
  6
Continuous
 62
     7
100
AcDbCircle
 10
117.6279261653844
 20
385.2059207070198
 30
0.0
 40
2.0
100
AcDbArc
 50
270.0
 51
315.0000000000184
1001
ACME_LAYERS
1000
1
  0
ARC
  5
4EE8
330
1F
100
AcDbEntity
  8
P-0000
  6
Continuous
 62
     7
100
AcDbCircle
 10
111.3828566262332
 20
385.2059207070198
 30
0.0
 40
1.999999999999425
100
AcDbArc
 50
239.9999999999736
 51
270.0
1001
ACME_LAYERS
1000
1
  0
ARC
  5
4EE9
330
1F
100
AcDbEntity
  8
P-0000
  6
Continuous
 62
     7
100
AcDbCircle
 10
111.3828566262332
 20
385.2059207070198
 30
0.0
 40
4.000000000000401
100
AcDbArc
 50
240.0000000000027
 51
270.0
1001
ACME_LAYERS
1000
1
  0
ARC
  5
4EEA
330
1F
100
AcDbEntity
  8
P-0000
  6
Continuous
 62
     7
100
AcDbCircle
 10
122.113207539624
 20
381.2059207070199
 30
0.0
 40
4.0
100
AcDbArc
 50
90.00000000002605
 51
135.0000000000092
1001
ACME_LAYERS
1000
1
  0
HATCH
  5
4EEB
330
1F
100
AcDbEntity
  8
P-0000
  6
Continuous
 62
     3
100
AcDbHatch
 10
0.0
 20
0.0
 30
0.0
210
0.0
220
0.0
230
1.0
  2
_U
 70
     0
 71
     0
 91
        1
 92
        1
 93
       19
 72
     1
 10
162.7847804148773
 20
386.7059207070196
 11
157.186704203526
 21
383.4738698994522
 72
     1
 10
157.186704203526
 20
383.4738698994522
 11
156.7226025883874
 21
383.2059207070196
 72
     1
 10
156.7226025883874
 20
383.2059207070196
 11
156.186704203526
 21
383.2059207070196
 72
     1
 10
156.186704203526
 20
383.2059207070196
 11
149.9416346643711
 21
383.2059207070196
 72
     1
 10
149.9416346643711
 20
383.2059207070196
 11
149.1132075396253
 21
383.2059207070196
 72
     1
 10
149.1132075396253
 20
383.2059207070196
 11
148.5274211019982
 21
383.791707144647
 72
     1
 10
148.5274211019982
 20
383.791707144647
 11
148.2847804148781
 21
384.0343478317661
 72
     2
 10
145.4563532901311
 20
381.2059207070199
 40
4.000000000000613
 50
44.99999999999911
 51
89.99999999999998
 73
     1
 72
     1
 10
145.4563532901311
 20
385.2059207070198
 11
138.7847804148782
 21
385.2059207070198
 72
     1
 10
138.7847804148782
 20
385.2059207070198
 11
138.7847804148782
 21
383.2059207070196
 72
     1
 10
138.7847804148782
 20
383.2059207070196
 11
145.4563532901311
 21
383.2059207070196
 72
     1
 10
145.4563532901311
 20
383.2059207070196
 11
146.2847804148782
 21
383.2059207070196
 72
     1
 10
146.2847804148782
 20
383.2059207070196
 11
146.870566852504
 21
382.6201342693931
 72
     1
 10
146.870566852504
 20
382.6201342693931
 11
147.113207539624
 21
382.3774935822752
 72
     2
 10
149.9416346643711
 20
385.2059207070198
 40
3.999999999999423
 50
224.9999999999822
 51
270.0
 73
     1
 72
     1
 10
149.9416346643711
 20
381.2059207070199
 11
156.186704203526
 21
381.2059207070199
 72
     2
 10
156.186704203526
 20
385.2059207070198
 40
4.0
 50
270.0
 51
299.9999999999967
 73
     1
 72
     1
 10
158.1867042035251
 20
381.741819091882
 11
163.7847804148782
 21
384.973869899452
 72
     1
 10
163.7847804148782
 20
384.9738698994522
 11
162.7847804148773
 21
386.7059207070196
 97
        0
 75
     0
 76
     0
 52
44.99999999999999
 41
3.0
 77
     0
 78
     1
 53
45.0
 43
190.7516523999838
 44
521.831886201395
 45
-2.121320343559641
 46
2.121320343559641
 79
     0
 98
        1
 10
190.7516523999838
 20
521.831886201395
1001
ACME_LAYERS
1000
1
  0
HATCH
  5
4EEC
330
1F
100
AcDbEntity
  8
P-0000
  6
Continuous
 62
     3
100
AcDbHatch
 10
0.0
 20
0.0
 30
0.0
210
0.0
220
0.0
230
1.0
  2
_U
 70
     0
 71
     0
 91
        1
 92
        1
 93
       19
 72
     2
 10
117.6279261653844
 20
385.2059207070198
 40
2.0
 50
270.0
 51
315.0000000000351
 73
     1
 72
     1
 10
119.04213972776
 20
383.791707144647
 11
119.2847804148782
 21
384.0343478317661
 72
     2
 10
122.113207539624
 20
381.2059207070199
 40
4.0
 50
224.9999999999992
 51
269.9999999999739
 73
     0
 72
     1
 10
122.1132075396222
 20
385.2059207070198
 11
124.5508102528501
 21
385.2059207070198
 72
     1
 10
124.5508102528501
 20
385.2059207070198
 11
125.9611387817099
 21
385.2059207070198
 72
     1
 10
125.9611387817099
 20
385.2059207070198
 11
128.7847804148791
 21
385.2059207070198
 72
     1
 10
128.7847804148791
 20
385.2059207070198
 11
128.7847804148791
 21
383.2059207070196
 72
     1
 10
128.7847804148791
 20
383.2059207070196
 11
122.113207539624
 21
383.2059207070196
 72
     1
 10
122.113207539624
 20
383.2059207070196
 11
121.2847804148773
 21
383.2059207070196
 72
     1
 10
121.2847804148773
 20
383.2059207070196
 11
120.6989939772507
 21
382.6201342693931
 72
     1
 10
120.6989939772507
 20
382.6201342693931
 11
120.4563532901311
 21
382.3774935822752
 72
     2
 10
117.6279261653844
 20
385.2059207070198
 40
4.0
 50
44.99999999998212
 51
90.00000000000001
 73
     0
 72
     1
 10
117.6279261653844
 20
381.2059207070199
 11
111.3828566262332
 21
381.2059207070199
 72
     2
 10
111.3828566262332
 20
385.2059207070198
 40
4.000000000000401
 50
90.00000000000001
 51
119.9999999999967
 73
     0
 72
     1
 10
109.3828566262323
 20
381.741819091882
 11
103.7847804148791
 21
384.973869899452
 72
     1
 10
103.7847804148791
 20
384.9738698994522
 11
104.7847804148791
 21
386.7059207070196
 72
     1
 10
104.7847804148791
 20
386.7059207070196
 11
110.3828566262332
 21
383.4738698994522
 72
     2
 10
111.3828566262332
 20
385.2059207070198
 40
1.999999999999425
 50
239.9999999999905
 51
270.0
 73
     1
 72
     1
 10
111.3828566262332
 20
383.2059207070196
 11
117.6279261653844
 21
383.2059207070196
 97
        0
 75
     0
 76
     0
 52
44.99999999999999
 41
5.0
 77
     0
 78
     1
 53
45.0
 43
190.7516523999838
 44
521.831886201395
 45
-3.535533905932736
 46
3.535533905932738
 79
     0
 98
        1
 10
190.7516523999838
 20
521.831886201395
1001
ACME_LAYERS
1000
1
  0
LINE
  5
4EED
330
1F
100
AcDbEntity
  8
0
100
AcDbLine
 10
129.7847804148782
 20
381.2059207070199
 30
0.0
 11
129.7847804148782
 21
387.1964735919761
 31
0.0
  0
LINE
  5
4EEE
330
1F
100
AcDbEntity
  8
P-0000
  6
Continuous
 62
     7
100
AcDbLine
 10
371.3022376525914
 20
386.7059207070196
 30
0.0
 11
361.3022376525919
 21
386.7059207070196
 31
0.0
1001
ACME_LAYERS
1000
1
  0
LINE
  5
4EEF
330
1F
100
AcDbEntity
  8
P-0000
  6
Continuous
 62
     7
100
AcDbLine
 10
156.151922780421
 20
381.2059207070199
 30
0.0
 11
149.9068532412669
 21
381.2059207070199
 31
0.0
1001
ACME_LAYERS
1000
1
  0
LINE
  5
4EF0
330
1F
100
AcDbEntity
  8
P-0000
  6
Continuous
 62
     7
100
AcDbLine
 10
111.3828566262332
 20
381.2059207070199
 30
0.0
 11
117.6279261653862
 21
381.2059207070199
 31
0.0
1001
ACME_LAYERS
1000
1
  0
LINE
  5
4EF1
330
1F
100
AcDbEntity
  8
P-0000
  6
Continuous
 62
     7
100
AcDbLine
 10
156.1867042035269
 20
381.2059207070199
 30
0.0
 11
149.9416346643729
 21
381.2059207070199
 31
0.0
1001
ACME_LAYERS
1000
1
  0
LINE
  5
4EF9
330
1F
100
AcDbEntity
  8
0
100
AcDbLine
 10
129.7282439707874
 20
385.2059207070198
 30
0.0
 11
129.7282439707874
 21
372.0000008020763
 31
0.0
  0
LINE
  5
4EFA
330
1F
100
AcDbEntity
  8
0
100
AcDbLine
 10
137.7282439707874
 20
385.2059207070198
 30
0.0
 11
137.7282439707874
 21
372.0000008020763
 31
0.0
  0
LINE
  5
4F02
330
1F
100
AcDbEntity
  8
0
  6
Continuous
 62
     7
100
AcDbLine
 10
334.0435090337364
 20
370.0000008020731
 30
0.0
 11
320.3922589530002
 21
370.000000802085
 31
0.0
1001
ACME_LAYERS
1000
1
  0
LINE
  5
4F04
330
1F
100
AcDbEntity
  8
P-0000
  6
Continuous
 62
     7
100
AcDbLine
 10
334.3652223059771
 20
376.000000802077
 30
0.0
 11
297.0435090337369
 21
376.000000802077
 31
0.0
1001
ACME_LAYERS
1000
1
  0
HATCH
  5
4F05
330
1F
100
AcDbEntity
  8
P-0000
  6
Continuous
 62
     3
100
AcDbHatch
 10
0.0
 20
0.0
 30
0.0
210
0.0
220
0.0
230
1.0
  2
_U
 70
     0
 71
     0
 91
        1
 92
        1
 93
        9
 72
     1
 10
415.0870190757022
 20
370.0000008020763
 11
416.0870190757021
 21
371.7320516096472
 72
     1
 10
416.0870190757021
 20
371.7320516096458
 11
411.7215608357928
 21
374.2524500995912
 72
     2
 10
409.7215608357933
 20
370.7883484844547
 40
4.0
 50
419.9999999999893
 51
450.0
 73
     1
 72
     2
 10
409.7215608357933
 20
370.7883484844547
 40
4.000000000000613
 50
450.0
 51
495.0000000000009
 73
     1
 72
     1
 10
406.8931337110461
 20
373.6167756092024
 11
406.190572466294
 21
372.9142143644494
 72
     1
 10
406.190572466294
 20
372.9142143644503
 11
407.604786028668
 21
371.5000008020761
 72
     1
 10
407.604786028668
 20
371.5000008020761
 11
408.3073472734204
 21
372.2025620468282
 72
     2
 10
409.7215608357933
 20
370.7883484844547
 40
2.000000000000115
 50
-135.000000000004
 51
-59.99999999999011
 73
     0
 72
     1
 10
410.7215608357937
 20
372.5203992920238
 11
415.0870190757014
 21
370.0000008020761
 97
        0
 75
     0
 76
     0
 52
44.99999999999999
 41
2.0
 77
     0
 78
     1
 53
135.0
 43
98.28306753246989
 44
236.1091357685118
 45
1.414213562373094
 46
1.414213562373094
 79
     0
 98
        1
 10
98.28306753246989
 20
236.1091357685118
1001
ACME_LAYERS
1000
1
  0
LINE
  5
4F06
330
1F
100
AcDbEntity
  8
P-0000
  6
Continuous
 62
     3
100
AcDbLine
 10
416.0870190757021
 20
371.7320516096458
 30
0.0
 11
411.7215608357928
 21
374.2524500995912
 31
0.0
1001
ACME_LAYERS
1000
1
  0
LINE
  5
4F07
330
1F
100
AcDbEntity
  8
P-0000
  6
Continuous
 62
     7
100
AcDbLine
 10
415.0870190757022
 20
370.0000008020763
 30
0.0
 11
410.7215608357937
 21
372.5203992920238
 31
0.0
1001
ACME_LAYERS
1000
1
  0
LINE
  5
4F08
330
1F
100
AcDbEntity
  8
P-0000
  6
Continuous
 62
     7
100
AcDbLine
 10
415.0870190757022
 20
370.0000008020763
 30
0.0
 11
410.7215608357937
 21
372.5203992920238
 31
0.0
1001
ACME_LAYERS
1000
1
  0
LINE
  5
4F09
330
1F
100
AcDbEntity
  8
P-0000
  6
Continuous
 62
     7
100
AcDbLine
 10
415.0870190757022
 20
370.0000008020763
 30
0.0
 11
390.5152223059772
 21
370.0000008020763
 31
0.0
1001
ACME_LAYERS
1000
1
  0
LINE
  5
4F0A
330
1F
100
AcDbEntity
  8
P-0000
  6
Continuous
 62
     7
100
AcDbLine
 10
415.0870190757022
 20
370.0000008020763
 30
0.0
 11
416.0870190757021
 21
371.7320516096458
 31
0.0
1001
ACME_LAYERS
1000
1
  0
LINE
  5
4F0B
330
1F
100
AcDbEntity
  8
P-0000
  6
Continuous
 62
     7
100
AcDbLine
 10
390.5152223059772
 20
370.0000008020763
 30
0.0
 11
352.5435090337233
 21
370.0000008020731
 31
0.0
1001
ACME_LAYERS
1000
1
  0
LINE
  5
4F0D
330
1F
100
AcDbEntity
  8
P-0000
  6
Continuous
 62
     7
100
AcDbLine
 10
370.2935090337433
 20
372.0000008020763
 30
0.0
 11
362.3370190757032
 21
372.0000008020763
 31
0.0
1001
ACME_LAYERS
1000
1
  0
ARC
  5
4F0E
330
1F
100
AcDbEntity
  8
P-0000
  6
Continuous
 62
     7
100
AcDbCircle
 10
390.5152223059772
 20
374.0000008020763
 30
0.0
 40
1.999999999999253
100
AcDbArc
 50
270.0
 51
300.0000000000264
1001
ACME_LAYERS
1000
1
  0
ARC
  5
4F0F
330
1F
100
AcDbEntity
  8
P-0000
  6
Continuous
 62
     7
100
AcDbCircle
 10
390.5152223059772
 20
374.0000008020763
 30
0.0
 40
4.000000000000131
100
AcDbArc
 50
270.0
 51
299.9999999999973
1001
ACME_LAYERS
1000
1
  0
LINE
  5
4F10
330
1F
100
AcDbEntity
  8
P-0000
  6
Continuous
 62
     7
100
AcDbLine
 10
390.2370190757011
 20
372.0000008020763
 30
0.0
 11
396.0049682681324
 21
375.3301278209982
 31
0.0
1001
ACME_LAYERS
1000
1
  0
LINE
  5
4F11
330
1F
100
AcDbEntity
  8
P-0000
  6
Continuous
 62
     7
100
AcDbLine
 10
395.9524773156114
 20
372.5203992920238
 30
0.0
 11
392.5152223059781
 21
370.5358991869382
 31
0.0
1001
ACME_LAYERS
1000
1
  0
LINE
  5
4F12
330
1F
100
AcDbEntity
  8
P-0000
  6
Continuous
 62
     7
100
AcDbLine
 10
406.190572466294
 20
372.9142143644503
 30
0.0
 11
400.4834656851087
 21
372.9142143644503
 31
0.0
1001
ACME_LAYERS
1000
1
  0
LINE
  5
4F13
330
1F
100
AcDbEntity
  8
P-0000
  6
Continuous
 62
     7
100
AcDbLine
 10
407.604786028668
 20
371.5000008020761
 30
0.0
 11
399.0692521227361
 21
371.5000008020761
 31
0.0
1001
ACME_LAYERS
1000
1
  0
LINE
  5
4F14
330
1F
100
AcDbEntity
  8
P-0000
  6
Continuous
 62
     7
100
AcDbLine
 10
407.3549682681307
 20
376.000000802077
 30
0.0
 11
398.5049682681333
 21
376.000000802077
 31
0.0
1001
ACME_LAYERS
1000
1
  0
LINE
  5
4F15
330
1F
100
AcDbEntity
  8
P-0000
  6
Continuous
 62
     7
100
AcDbLine
 10
409.7215608357933
 20
374.7883484844547
 30
0.0
 11
396.9524773156103
 21
374.7883484844547
 31
0.0
1001
ACME_LAYERS
1000
1
  0
ARC
  5
4F16
330
1F
100
AcDbEntity
  8
P-0000
  6
Continuous
 62
     7
100
AcDbCircle
 10
407.354968268133
 20
371.0000008020761
 30
0.0
 40
5.0
100
AcDbArc
 50
60.00000000000272
 51
90.00000000002605
1001
ACME_LAYERS
1000
1
  0
ARC
  5
4F17
330
1F
100
AcDbEntity
  8
P-0000
  6
Continuous
 62
     7
100
AcDbCircle
 10
409.7215608357933
 20
370.7883484844547
 30
0.0
 40
4.000000000000613
100
AcDbArc
 50
90.0
 51
135.0000000000092
1001
ACME_LAYERS
1000
1
  0
LINE
  5
4F18
330
1F
100
AcDbEntity
  8
P-0000
  6
Continuous
 62
     7
100
AcDbLine
 10
408.3073472734204
 20
372.2025620468282
 30
0.0
 11
407.604786028668
 21
371.5000008020761
 31
0.0
1001
ACME_LAYERS
1000
1
  0
ARC
  5
4F19
330
1F
100
AcDbEntity
  8
P-0000
  6
Continuous
 62
     7
100
AcDbCircle
 10
409.7215608357933
 20
370.7883484844547
 30
0.0
 40
4.0
100
AcDbArc
 50
59.99999999997363
 51
90.0
1001
ACME_LAYERS
1000
1
  0
LINE
  5
4F1A
330
1F
100
AcDbEntity
  8
P-0000
  6
Continuous
 62
     7
100
AcDbLine
 10
411.7215608357928
 20
374.2524500995912
 30
0.0
 11
409.8549682681341
 21
375.3301278209982
 31
0.0
1001
ACME_LAYERS
1000
1
  0
ARC
  5
4F1B
330
1F
100
AcDbEntity
  8
P-0000
  6
Continuous
 62
     7
100
AcDbCircle
 10
409.7215608357933
 20
370.7883484844547
 30
0.0
 40
2.000000000000115
100
AcDbArc
 50
59.99999999997363
 51
135.0000000000092
1001
ACME_LAYERS
1000
1
  0
LINE
  5
4F1C
330
1F
100
AcDbEntity
  8
P-0000
  6
Continuous
 62
     7
100
AcDbLine
 10
406.190572466294
 20
372.9142143644503
 30
0.0
 11
407.604786028668
 21
371.5000008020761
 31
0.0
1001
ACME_LAYERS
1000
1
  0
LINE
  5
4F1D
330
1F
100
AcDbEntity
  8
P-0000
  6
Continuous
 62
     7
100
AcDbLine
 10
406.8931337110461
 20
373.6167756092024
 30
0.0
 11
406.190572466294
 21
372.9142143644503
 31
0.0
1001
ACME_LAYERS
1000
1
  0
ARC
  5
4F1E
330
1F
100
AcDbEntity
  8
P-0000
  6
Continuous
 62
     7
100
AcDbCircle
 10
396.9524773156103
 20
370.7883484844547
 30
0.0
 40
1.999999999999401
100
AcDbArc
 50
44.99999999999078
 51
120.0000000000263
1001
ACME_LAYERS
1000
1
  0
ARC
  5
4F1F
330
1F
100
AcDbEntity
  8
P-0000
  6
Continuous
 62
     7
100
AcDbCircle
 10
398.5049682681333
 20
371.0000008020761
 30
0.0
 40
5.000000000000164
100
AcDbArc
 50
90.0
 51
119.9999999999972
1001
ACME_LAYERS
1000
1
  0
ARC
  5
4F20
330
1F
100
AcDbEntity
  8
P-0000
  6
Continuous
 62
     7
100
AcDbCircle
 10
396.9524773156103
 20
370.7883484844547
 30
0.0
 40
1.999999999999401
100
AcDbArc
 50
44.99999999999078
 51
120.0000000000263
1001
ACME_LAYERS
1000
1
  0
ARC
  5
4F21
330
1F
100
AcDbEntity
  8
P-0000
  6
Continuous
 62
     7
100
AcDbCircle
 10
396.9524773156103
 20
370.7883484844547
 30
0.0
 40
3.999999999998728
100
AcDbArc
 50
90.0
 51
120.0000000000263
1001
ACME_LAYERS
1000
1
  0
ARC
  5
4F22
330
1F
100
AcDbEntity
  8
P-0000
  6
Continuous
 62
     7
100
AcDbCircle
 10
396.9524773156103
 20
370.7883484844547
 30
0.0
 40
4.0
100
AcDbArc
 50
44.99999999999078
 51
90.0
1001
ACME_LAYERS
1000
1
  0
LINE
  5
4F23
330
1F
100
AcDbEntity
  8
P-0000
  6
Continuous
 62
     7
100
AcDbLine
 10
400.4834656851087
 20
372.9142143644503
 30
0.0
 11
399.7809044403561
 21
373.6167756092024
 31
0.0
1001
ACME_LAYERS
1000
1
  0
LINE
  5
4F24
330
1F
100
AcDbEntity
  8
P-0000
  6
Continuous
 62
     7
100
AcDbLine
 10
399.0692521227361
 20
371.5000008020761
 30
0.0
 11
398.3666908779833
 21
372.2025620468282
 31
0.0
1001
ACME_LAYERS
1000
1
  0
LINE
  5
4F25
330
1F
100
AcDbEntity
  8
P-0000
  6
Continuous
 62
     7
100
AcDbLine
 10
399.0692521227361
 20
371.5000008020761
 30
0.0
 11
400.4834656851087
 21
372.9142143644503
 31
0.0
1001
ACME_LAYERS
1000
1
  0
LINE
  5
4F26
330
1F
100
AcDbEntity
  8
P-0000
  6
Continuous
 62
     7
100
AcDbLine
 10
394.9524773156103
 20
374.2524500995912
 30
0.0
 11
391.5152223059772
 21
372.2679499945082
 31
0.0
1001
ACME_LAYERS
1000
1
  0
LINE
  5
4F27
330
1F
100
AcDbEntity
  8
P-0000
  6
Continuous
 62
     7
100
AcDbLine
 10
390.2370190757011
 20
372.0000008020763
 30
0.0
 11
370.2935090337433
 21
372.0000008020763
 31
0.0
1001
ACME_LAYERS
1000
1
  0
LINE
  5
4F28
330
1F
100
AcDbEntity
  8
P-0000
  6
Continuous
 62
     7
100
AcDbLine
 10
390.2370190757011
 20
372.0000008020763
 30
0.0
 11
390.5152223059772
 21
372.0000008020763
 31
0.0
1001
ACME_LAYERS
1000
1
  0
LINE
  5
4F29
330
1F
100
AcDbEntity
  8
P-0000
  6
Continuous
 62
     3
100
AcDbLine
 10
369.5587740966822
 20
386.7059207070196
 30
0.0
 11
369.5587740966835
 21
372.0000008020763
 31
0.0
1001
ACME_LAYERS
1000
1
  0
LINE
  5
4F2A
330
1F
100
AcDbEntity
  8
P-0000
  6
Continuous
 62
     7
100
AcDbLine
 10
370.3587740966847
 20
385.2059207070198
 30
0.0
 11
370.3587740966847
 21
381.2059207070199
 31
0.0
1001
ACME_LAYERS
1000
1
  0
LINE
  5
4F2B
330
1F
100
AcDbEntity
  8
P-0000
  6
Continuous
 62
     3
100
AcDbLine
 10
363.158774096682
 20
386.7059207070196
 30
0.0
 11
363.1587740966834
 21
372.0000008020763
 31
0.0
1001
ACME_LAYERS
1000
1
  0
LINE
  5
4F2C
330
1F
100
AcDbEntity
  8
0
  6
Continuous
 62
     7
100
AcDbLine
 10
347.5435090337382
 20
370.0000008020731
 30
0.0
 11
334.0435090337364
 21
370.0000008020731
 31
0.0
1001
ACME_LAYERS
1000
1
  0
LINE
  5
4F2D
330
1F
100
AcDbEntity
  8
P-0000
  6
Continuous
 62
     7
100
AcDbLine
 10
362.3370190757032
 20
372.0000008020763
 30
0.0
 11
342.9011206908403
 21
372.0000008020763
 31
0.0
1001
ACME_LAYERS
1000
1
  0
LINE
  5
4F2E
330
1F
100
AcDbEntity
  8
P-0000
  6
Continuous
 62
     7
100
AcDbLine
 10
351.7823059736475
 20
370.0000008020763
 30
0.0
 11
342.9011206908403
 21
370.0000008020763
 31
0.0
1001
ACME_LAYERS
1000
1
  0
LINE
  5
4F2F
330
1F
100
AcDbEntity
  8
P-0000
  6
Continuous
 62
     7
100
AcDbLine
 10
362.3587740966832
 20
385.2059207070198
 30
0.0
 11
362.3587740966832
 21
381.2059207070199
 31
0.0
1001
ACME_LAYERS
1000
1
  0
LINE
  5
4F30
330
1F
100
AcDbEntity
  8
P-0000
  6
Continuous
 62
     7
100
AcDbLine
 10
352.5435090337233
 20
370.0000008020731
 30
0.0
 11
351.7823059736475
 21
370.0000008020763
 31
0.0
1001
ACME_LAYERS
1000
1
  0
LINE
  5
4F31
330
1F
100
AcDbEntity
  8
P-0000
  6
Continuous
 62
     7
100
AcDbLine
 10
340.9011206908408
 20
370.5358991869382
 30
0.0
 11
335.3652223059766
 21
373.7320516096458
 31
0.0
1001
ACME_LAYERS
1000
1
  0
LINE
  5
4F32
330
1F
100
AcDbEntity
  8
P-0000
  6
Continuous
 62
     7
100
AcDbLine
 10
334.3652223059771
 20
374.0000008020763
 30
0.0
 11
332.4813005032202
 21
374.0000008020763
 31
0.0
1001
ACME_LAYERS
1000
1
  0
LINE
  5
4F33
330
1F
100
AcDbEntity
  8
P-0000
  6
Continuous
 62
     7
100
AcDbLine
 10
341.9011206908403
 20
372.2679499945061
 30
0.0
 11
336.3652223059771
 21
375.4641024172142
 31
0.0
1001
ACME_LAYERS
1000
1
  0
ARC
  5
4F34
330
1F
100
AcDbEntity
  8
P-0000
  6
Continuous
 62
     7
100
AcDbCircle
 10
342.9011206908403
 20
374.0000008020763
 30
0.0
 40
2.0
100
AcDbArc
 50
239.9999999999736
 51
270.0
1001
ACME_LAYERS
1000
1
  0
ARC
  5
4F35
330
1F
100
AcDbEntity
  8
P-0000
  6
Continuous
 62
     7
100
AcDbCircle
 10
334.3652223059771
 20
372.0000008020763
 30
0.0
 40
4.0
100
AcDbArc
 50
60.00000000000272
 51
90.0
1001
ACME_LAYERS
1000
1
  0
ARC
  5
4F36
330
1F
100
AcDbEntity
  8
P-0000
  6
Continuous
 62
     7
100
AcDbCircle
 10
334.3652223059771
 20
372.0000008020763
 30
0.0
 40
2.0
100
AcDbArc
 50
60.00000000003179
 51
90.0
1001
ACME_LAYERS
1000
1
  0
ARC
  5
4F37
330
1F
100
AcDbEntity
  8
P-0000
  6
Continuous
 62
     7
100
AcDbCircle
 10
342.9011206908403
 20
374.0000008020763
 30
0.0
 40
4.0
100
AcDbArc
 50
240.0000000000027
 51
270.0
1001
ACME_LAYERS
1000
1
  0
LINE
  5
4F38
330
1F
100
AcDbEntity
  8
P-0000
  6
Continuous
 62
     7
100
AcDbLine
 10
289.4138272201999
 20
376.000000802077
 30
0.0
 11
250.0435090337351
 21
376.000000802077
 31
0.0
1001
ACME_LAYERS
1000
1
  0
LINE
  5
4F39
330
1F
100
AcDbEntity
  8
P-0000
  6
Continuous
 62
     7
100
AcDbLine
 10
297.0435090337369
 20
376.000000802077
 30
0.0
 11
250.0435090337351
 21
376.000000802077
 31
0.0
1001
ACME_LAYERS
1000
1
  0
LINE
  5
4F3A
330
1F
100
AcDbEntity
  8
P-0000
  6
Continuous
 62
     7
100
AcDbLine
 10
316.5477803500562
 20
376.2195328762071
 30
0.0
 11
316.5435090337433
 21
376.2033691236156
 31
0.0
1001
ACME_LAYERS
1000
1
  0
LINE
  5
4F3B
330
1F
100
AcDbEntity
  8
P-0000
  6
Continuous
 62
     7
100
AcDbLine
 10
362.3022376525931
 20
386.7059207070196
 30
0.0
 11
362.3022376525931
 21
381.2059207070199
 31
0.0
1001
ACME_LAYERS
1000
1
  0
LINE
  5
4F3C
330
1F
100
AcDbEntity
  8
P-0000
  6
Continuous
 62
     7
100
AcDbLine
 10
383.8022376525823
 20
386.7059207070196
 30
0.0
 11
370.3022376525914
 21
386.7059207070196
 31
0.0
1001
ACME_LAYERS
1000
1
  0
LINE
  5
4F3D
330
1F
100
AcDbEntity
  8
P-0000
  6
Continuous
 62
     7
100
AcDbLine
 10
377.973810527847
 20
385.2059207070198
 30
0.0
 11
375.5362078146204
 21
385.2059207070198
 31
0.0
1001
ACME_LAYERS
1000
1
  0
LINE
  5
4F3E
330
1F
100
AcDbEntity
  8
P-0000
  6
Continuous
 62
     7
100
AcDbLine
 10
250.0522376525987
 20
386.7059207070196
 30
0.0
 11
337.3022376525919
 21
386.7059207070196
 31
0.0
1001
ACME_LAYERS
1000
1
  0
LINE
  5
4F3F
330
1F
100
AcDbEntity
  8
P-0000
  6
Continuous
 62
     7
100
AcDbLine
 10
377.973810527847
 20
385.2059207070198
 30
0.0
 11
375.5362078146204
 21
385.2059207070198
 31
0.0
1001
ACME_LAYERS
1000
1
  0
LINE
  5
4F40
330
1F
100
AcDbEntity
  8
P-0000
  6
Continuous
 62
     7
100
AcDbLine
 10
375.5362078146204
 20
385.2059207070198
 30
0.0
 11
374.1258792857611
 21
385.2059207070198
 31
0.0
1001
ACME_LAYERS
1000
1
  0
LINE
  5
4F41
330
1F
100
AcDbEntity
  8
P-0000
  6
Continuous
 62
     7
100
AcDbLine
 10
375.5362078146204
 20
385.2059207070198
 30
0.0
 11
374.1258792857611
 21
385.2059207070198
 31
0.0
1001
ACME_LAYERS
1000
1
  0
LINE
  5
4F42
330
1F
100
AcDbEntity
  8
P-0000
  6
Continuous
 62
     7
100
AcDbLine
 10
250.052237652595
 20
384.9738698994522
 30
0.0
 11
336.3022376525919
 21
384.9738698994522
 31
0.0
1001
ACME_LAYERS
1000
1
  0
LINE
  5
4F43
330
1F
100
AcDbEntity
  8
P-0000
  6
Continuous
 62
     7
100
AcDbLine
 10
337.3022376525919
 20
386.7059207070196
 30
0.0
 11
342.9003138639441
 21
383.4738698994522
 31
0.0
1001
ACME_LAYERS
1000
1
  0
LINE
  5
4F44
330
1F
100
AcDbEntity
  8
P-0000
  6
Continuous
 62
     7
100
AcDbLine
 10
362.3022376525931
 20
386.7059207070196
 30
0.0
 11
337.3022376525919
 21
386.7059207070196
 31
0.0
1001
ACME_LAYERS
1000
1
  0
LINE
  5
4F45
330
1F
100
AcDbEntity
  8
P-0000
  6
Continuous
 62
     7
100
AcDbLine
 10
336.3022376525919
 20
384.9738698994522
 30
0.0
 11
337.3022376525919
 21
386.7059207070196
 31
0.0
1001
ACME_LAYERS
1000
1
  0
LINE
  5
4F46
330
1F
100
AcDbEntity
  8
P-0000
  6
Continuous
 62
     7
100
AcDbLine
 10
337.3022376525919
 20
386.7059207070196
 30
0.0
 11
337.3742038150922
 21
386.7059207070196
 31
0.0
1001
ACME_LAYERS
1000
1
  0
LINE
  5
4F47
330
1F
100
AcDbEntity
  8
P-0000
  6
Continuous
 62
     7
100
AcDbLine
 10
374.1258792857611
 20
385.2059207070198
 30
0.0
 11
371.3022376525914
 21
385.2059207070198
 31
0.0
1001
ACME_LAYERS
1000
1
  0
LINE
  5
4F49
330
1F
100
AcDbEntity
  8
P-0000
  6
Continuous
 62
     3
100
AcDbLine
 10
389.2400598260993
 20
383.2059207070196
 30
0.0
 11
388.7041614412384
 21
383.2059207070196
 31
0.0
1001
ACME_LAYERS
1000
1
  0
LINE
  5
4F4A
330
1F
100
AcDbEntity
  8
P-0000
  6
Continuous
 62
     3
100
AcDbLine
 10
389.7041614412383
 20
383.4738698994522
 30
0.0
 11
389.2400598260993
 21
383.2059207070196
 31
0.0
1001
ACME_LAYERS
1000
1
  0
LINE
  5
4F4B
330
1F
100
AcDbEntity
  8
P-0000
  6
Continuous
 62
     7
100
AcDbLine
 10
351.8022376525919
 20
384.0343478317661
 30
0.0
 11
351.5595969654723
 21
383.791707144647
 31
0.0
1001
ACME_LAYERS
1000
1
  0
LINE
  5
4F4C
330
1F
100
AcDbEntity
  8
P-0000
  6
Continuous
 62
     7
100
AcDbLine
 10
380.8022376525919
 20
384.0343478317661
 30
0.0
 11
381.0448783397102
 21
383.791707144647
 31
0.0
1001
ACME_LAYERS
1000
1
  0
LINE
  5
4F4D
330
1F
100
AcDbEntity
  8
P-0000
  6
Continuous
 62
     7
100
AcDbLine
 10
371.3022376525914
 20
385.2059207070198
 30
0.0
 11
371.3022376525914
 21
383.2059207070196
 31
0.0
1001
ACME_LAYERS
1000
1
  0
LINE
  5
4F4E
330
1F
100
AcDbEntity
  8
P-0000
  6
Continuous
 62
     7
100
AcDbLine
 10
361.3022376525919
 20
385.2059207070198
 30
0.0
 11
361.3022376525919
 21
383.2059207070196
 31
0.0
1001
ACME_LAYERS
1000
1
  0
LINE
  5
4F4F
330
1F
100
AcDbEntity
  8
P-0000
  6
Continuous
 62
     7
100
AcDbLine
 10
396.3022376525901
 20
384.9738698994522
 30
0.0
 11
395.3022376525914
 21
386.7059207070196
 31
0.0
1001
ACME_LAYERS
1000
1
  0
LINE
  5
4F50
330
1F
100
AcDbEntity
  8
P-0000
  6
Continuous
 62
     7
100
AcDbLine
 10
396.3022376525901
 20
384.9738698994522
 30
0.0
 11
390.7041614412383
 21
381.741819091882
 31
0.0
1001
ACME_LAYERS
1000
1
  0
LINE
  5
4F51
330
1F
100
AcDbEntity
  8
P-0000
  6
Continuous
 62
     7
100
AcDbLine
 10
395.3022376525914
 20
386.7059207070196
 30
0.0
 11
389.7041614412383
 21
383.4738698994522
 31
0.0
1001
ACME_LAYERS
1000
1
  0
LINE
  5
4F52
330
1F
100
AcDbEntity
  8
P-0000
  6
Continuous
 62
     7
100
AcDbLine
 10
379.3880240902195
 20
382.6201342693931
 30
0.0
 11
379.6306647773387
 21
382.3774935822752
 31
0.0
1001
ACME_LAYERS
1000
1
  0
LINE
  5
4F53
330
1F
100
AcDbEntity
  8
P-0000
  6
Continuous
 62
     7
100
AcDbLine
 10
353.2164512149648
 20
382.6201342693931
 30
0.0
 11
352.9738105278449
 21
382.3774935822752
 31
0.0
1001
ACME_LAYERS
1000
1
  0
LINE
  5
4F54
330
1F
100
AcDbEntity
  8
P-0000
  6
Continuous
 62
     7
100
AcDbLine
 10
336.3022376525919
 20
384.9738698994522
 30
0.0
 11
341.9003138639441
 21
381.741819091882
 31
0.0
1001
ACME_LAYERS
1000
1
  0
LINE
  5
4F55
330
1F
100
AcDbEntity
  8
P-0000
  6
Continuous
 62
     7
100
AcDbLine
 10
343.9003138639441
 20
381.2059207070199
 30
0.0
 11
250.052237652595
 21
381.2059207070199
 31
0.0
1001
ACME_LAYERS
1000
1
  0
LINE
  5
4F56
330
1F
100
AcDbEntity
  8
P-0000
  6
Continuous
 62
     7
100
AcDbLine
 10
343.9003138639441
 20
383.2059207070196
 30
0.0
 11
350.1453834030995
 21
383.2059207070196
 31
0.0
1001
ACME_LAYERS
1000
1
  0
LINE
  5
4F57
330
1F
100
AcDbEntity
  8
P-0000
  6
Continuous
 62
     7
100
AcDbLine
 10
343.9003138639441
 20
381.2059207070199
 30
0.0
 11
350.1453834030995
 21
381.2059207070199
 31
0.0
1001
ACME_LAYERS
1000
1
  0
LINE
  5
4F58
330
1F
100
AcDbEntity
  8
P-0000
  6
Continuous
 62
     7
100
AcDbLine
 10
388.7041614412384
 20
381.2059207070199
 30
0.0
 11
382.4590919020861
 21
381.2059207070199
 31
0.0
1001
ACME_LAYERS
1000
1
  0
LINE
  5
4F59
330
1F
100
AcDbEntity
  8
P-0000
  6
Continuous
 62
     7
100
AcDbLine
 10
371.3022376525914
 20
385.2059207070198
 30
0.0
 11
370.3022376525914
 21
385.2059207070198
 31
0.0
1001
ACME_LAYERS
1000
1
  0
LINE
  5
4F5A
330
1F
100
AcDbEntity
  8
P-0000
  6
Continuous
 62
     7
100
AcDbLine
 10
374.1258792857611
 20
385.2059207070198
 30
0.0
 11
371.3022376525914
 21
385.2059207070198
 31
0.0
1001
ACME_LAYERS
1000
1
  0
LINE
  5
4F5B
330
1F
100
AcDbEntity
  8
P-0000
  6
Continuous
 62
     7
100
AcDbLine
 10
361.3022376525919
 20
385.2059207070198
 30
0.0
 11
354.6306647773387
 21
385.2059207070198
 31
0.0
1001
ACME_LAYERS
1000
1
  0
LINE
  5
4F5C
330
1F
100
AcDbEntity
  8
P-0000
  6
Continuous
 62
     7
100
AcDbLine
 10
362.3022376525931
 20
383.2059207070196
 30
0.0
 11
354.6306647773387
 21
383.2059207070196
 31
0.0
1001
ACME_LAYERS
1000
1
  0
LINE
  5
4F5D
330
1F
100
AcDbEntity
  8
P-0000
  6
Continuous
 62
     7
100
AcDbLine
 10
377.9738105278449
 20
383.2059207070196
 30
0.0
 11
370.3587740966847
 21
383.2059207070196
 31
0.0
1001
ACME_LAYERS
1000
1
  0
LINE
  5
4F5E
330
1F
100
AcDbEntity
  8
P-0000
  6
Continuous
 62
     7
100
AcDbLine
 10
362.3022376525931
 20
385.2059207070198
 30
0.0
 11
361.3022376525919
 21
385.2059207070198
 31
0.0
1001
ACME_LAYERS
1000
1
  0
LINE
  5
4F5F
330
1F
100
AcDbEntity
  8
P-0000
  6
Continuous
 62
     7
100
AcDbLine
 10
388.7041614412384
 20
383.2059207070196
 30
0.0
 11
382.4590919020861
 21
383.2059207070196
 31
0.0
1001
ACME_LAYERS
1000
1
  0
LINE
  5
4F60
330
1F
100
AcDbEntity
  8
P-0000
  6
Continuous
 62
     7
100
AcDbLine
 10
356.3022376525919
 20
385.2059207070198
 30
0.0
 11
361.3022376525919
 21
385.2059207070198
 31
0.0
1001
ACME_LAYERS
1000
1
  0
LINE
  5
4F61
330
1F
100
AcDbEntity
  8
P-0000
  6
Continuous
 62
     7
100
AcDbLine
 10
361.3022376525919
 20
385.2059207070198
 30
0.0
 11
362.3022376525931
 21
385.2059207070198
 31
0.0
1001
ACME_LAYERS
1000
1
  0
LINE
  5
4F62
330
1F
100
AcDbEntity
  8
P-0000
  6
Continuous
 62
     7
100
AcDbLine
 10
395.3022376525914
 20
386.7059207070196
 30
0.0
 11
383.8022376525823
 21
386.7059207070196
 31
0.0
1001
ACME_LAYERS
1000
1
  0
LINE
  5
4F63
330
1F
100
AcDbEntity
  8
P-0000
  6
Continuous
 62
     7
100
AcDbLine
 10
374.7479357660131
 20
385.2059207070198
 30
0.0
 11
370.3022376525914
 21
385.2059207070198
 31
0.0
1001
ACME_LAYERS
1000
1
  0
LINE
  5
4F64
330
1F
100
AcDbEntity
  8
P-0000
  6
Continuous
 62
     7
100
AcDbLine
 10
362.3022376525931
 20
385.2059207070198
 30
0.0
 11
361.3022376525919
 21
385.2059207070198
 31
0.0
1001
ACME_LAYERS
1000
1
  0
LINE
  5
4F65
330
1F
100
AcDbEntity
  8
P-0000
  6
Continuous
 62
     7
100
AcDbLine
 10
371.8022376525897
 20
385.205920707021
 30
0.0
 11
376.8022376525919
 21
385.205920707021
 31
0.0
1001
ACME_LAYERS
1000
1
  0
LINE
  5
4F66
330
1F
100
AcDbEntity
  8
P-0000
  6
Continuous
 62
     7
100
AcDbLine
 10
374.7479357660131
 20
386.7059207070196
 30
0.0
 11
370.3022376525914
 21
386.7059207070196
 31
0.0
1001
ACME_LAYERS
1000
1
  0
LINE
  5
4F67
330
1F
100
AcDbEntity
  8
P-0000
  6
Continuous
 62
     7
100
AcDbLine
 10
361.3022376525919
 20
385.2059207070198
 30
0.0
 11
357.7479357660132
 21
385.2059207070198
 31
0.0
1001
ACME_LAYERS
1000
1
  0
LINE
  5
4F68
330
1F
100
AcDbEntity
  8
P-0000
  6
Continuous
 62
     7
100
AcDbLine
 10
361.3022376525919
 20
385.2059207070198
 30
0.0
 11
361.80223765259
 21
385.205920707021
 31
0.0
1001
ACME_LAYERS
1000
1
  0
LINE
  5
4F69
330
1F
100
AcDbEntity
  8
P-0000
  6
Continuous
 62
     7
100
AcDbLine
 10
357.7479357660132
 20
386.7059207070196
 30
0.0
 11
361.80223765259
 21
386.7059207070196
 31
0.0
1001
ACME_LAYERS
1000
1
  0
LINE
  5
4F6A
330
1F
100
AcDbEntity
  8
P-0000
  6
Continuous
 62
     7
100
AcDbLine
 10
370.3022376525914
 20
385.2059207070198
 30
0.0
 11
371.3022376525914
 21
385.2059207070198
 31
0.0
1001
ACME_LAYERS
1000
1
  0
LINE
  5
4F6B
330
1F
100
AcDbEntity
  8
P-0000
  6
Continuous
 62
     7
100
AcDbLine
 10
354.6306647773387
 20
385.2059207070198
 30
0.0
 11
361.3022376525919
 21
385.2059207070198
 31
0.0
1001
ACME_LAYERS
1000
1
  0
ARC
  5
4F6C
330
1F
100
AcDbEntity
  8
P-0000
  6
Continuous
 62
     7
100
AcDbCircle
 10
382.4590919020861
 20
385.2059207070198
 30
0.0
 40
4.0
100
AcDbArc
 50
224.9999999999908
 51
270.0
1001
ACME_LAYERS
1000
1
  0
ARC
  5
4F6D
330
1F
100
AcDbEntity
  8
P-0000
  6
Continuous
 62
     7
100
AcDbCircle
 10
354.6306647773387
 20
381.2059207070199
 30
0.0
 40
4.000000000000613
100
AcDbArc
 50
90.0
 51
134.9999999999816
1001
ACME_LAYERS
1000
1
  0
ARC
  5
4F6E
330
1F
100
AcDbEntity
  8
P-0000
  6
Continuous
 62
     7
100
AcDbCircle
 10
350.1453834030995
 20
385.2059207070198
 30
0.0
 40
3.999999999999423
100
AcDbArc
 50
270.0
 51
315.0000000000092
1001
ACME_LAYERS
1000
1
  0
ARC
  5
4F6F
330
1F
100
AcDbEntity
  8
P-0000
  6
Continuous
 62
     7
100
AcDbCircle
 10
343.9003138639441
 20
385.2059207070198
 30
0.0
 40
4.0
100
AcDbArc
 50
240.0000000000027
 51
270.0
1001
ACME_LAYERS
1000
1
  0
ARC
  5
4F70
330
1F
100
AcDbEntity
  8
P-0000
  6
Continuous
 62
     7
100
AcDbCircle
 10
343.9003138639441
 20
385.2059207070198
 30
0.0
 40
2.0
100
AcDbArc
 50
239.9999999999736
 51
270.0
1001
ACME_LAYERS
1000
1
  0
ARC
  5
4F71
330
1F
100
AcDbEntity
  8
P-0000
  6
Continuous
 62
     7
100
AcDbCircle
 10
350.1453834030995
 20
385.2059207070198
 30
0.0
 40
2.000000000000397
100
AcDbArc
 50
270.0
 51
314.9999999999816
1001
ACME_LAYERS
1000
1
  0
ARC
  5
4F72
330
1F
100
AcDbEntity
  8
P-0000
  6
Continuous
 62
     7
100
AcDbCircle
 10
354.6306647773387
 20
381.2059207070199
 30
0.0
 40
2.000000000000311
100
AcDbArc
 50
90.0
 51
134.9999999999816
1001
ACME_LAYERS
1000
1
  0
ARC
  5
4F73
330
1F
100
AcDbEntity
  8
P-0000
  6
Continuous
 62
     7
100
AcDbCircle
 10
377.9738105278449
 20
381.2059207070199
 30
0.0
 40
2.0
100
AcDbArc
 50
45.00000000001842
 51
90.0
1001
ACME_LAYERS
1000
1
  0
ARC
  5
4F74
330
1F
100
AcDbEntity
  8
P-0000
  6
Continuous
 62
     7
100
AcDbCircle
 10
382.4590919020861
 20
385.2059207070198
 30
0.0
 40
2.0
100
AcDbArc
 50
224.9999999999816
 51
270.0
1001
ACME_LAYERS
1000
1
  0
ARC
  5
4F75
330
1F
100
AcDbEntity
  8
P-0000
  6
Continuous
 62
     7
100
AcDbCircle
 10
388.7041614412384
 20
385.2059207070198
 30
0.0
 40
1.999999999999425
100
AcDbArc
 50
270.0
 51
300.0000000000264
1001
ACME_LAYERS
1000
1
  0
ARC
  5
4F76
330
1F
100
AcDbEntity
  8
P-0000
  6
Continuous
 62
     7
100
AcDbCircle
 10
388.7041614412384
 20
385.2059207070198
 30
0.0
 40
4.000000000000401
100
AcDbArc
 50
270.0
 51
299.9999999999973
1001
ACME_LAYERS
1000
1
  0
ARC
  5
4F77
330
1F
100
AcDbEntity
  8
P-0000
  6
Continuous
 62
     7
100
AcDbCircle
 10
377.9738105278449
 20
381.2059207070199
 30
0.0
 40
4.0
100
AcDbArc
 50
45.00000000001842
 51
89.99999999997395
1001
ACME_LAYERS
1000
1
  0
HATCH
  5
4F78
330
1F
100
AcDbEntity
  8
P-0000
  6
Continuous
 62
     3
100
AcDbHatch
 10
0.0
 20
0.0
 30
0.0
210
0.0
220
0.0
230
1.0
  2
_U
 70
     0
 71
     0
 91
        1
 92
        1
 93
       19
 72
     1
 10
337.3022376525919
 20
386.7059207070196
 11
342.9003138639441
 21
383.4738698994522
 72
     1
 10
342.9003138639441
 20
383.4738698994522
 11
343.3644154790818
 21
383.2059207070196
 72
     1
 10
343.3644154790818
 20
383.2059207070196
 11
343.9003138639441
 21
383.2059207070196
 72
     1
 10
343.9003138639441
 20
383.2059207070196
 11
350.1453834030995
 21
383.2059207070196
 72
     1
 10
350.1453834030995
 20
383.2059207070196
 11
350.9738105278461
 21
383.2059207070196
 72
     1
 10
350.9738105278461
 20
383.2059207070196
 11
351.5595969654723
 21
383.791707144647
 72
     1
 10
351.5595969654723
 20
383.791707144647
 11
351.8022376525919
 21
384.0343478317661
 72
     2
 10
354.6306647773387
 20
381.2059207070199
 40
4.000000000000613
 50
-135.0000000000008
 51
-90.00000000000001
 73
     0
 72
     1
 10
354.6306647773387
 20
385.2059207070198
 11
361.3022376525919
 21
385.2059207070198
 72
     1
 10
361.3022376525919
 20
385.2059207070198
 11
361.3022376525919
 21
383.2059207070196
 72
     1
 10
361.3022376525919
 20
383.2059207070196
 11
354.6306647773387
 21
383.2059207070196
 72
     1
 10
354.6306647773387
 20
383.2059207070196
 11
353.8022376525914
 21
383.2059207070196
 72
     1
 10
353.8022376525914
 20
383.2059207070196
 11
353.2164512149648
 21
382.6201342693931
 72
     1
 10
353.2164512149648
 20
382.6201342693931
 11
352.9738105278449
 21
382.3774935822752
 72
     2
 10
350.1453834030995
 20
385.2059207070198
 40
3.999999999999423
 50
44.99999999998222
 51
90.0
 73
     0
 72
     1
 10
350.1453834030995
 20
381.2059207070199
 11
343.9003138639441
 21
381.2059207070199
 72
     2
 10
343.9003138639441
 20
385.2059207070198
 40
4.0
 50
90.0
 51
119.9999999999965
 73
     0
 72
     1
 10
341.9003138639441
 20
381.741819091882
 11
336.3022376525919
 21
384.973869899452
 72
     1
 10
336.3022376525919
 20
384.9738698994522
 11
337.3022376525919
 21
386.7059207070196
 97
        0
 75
     0
 76
     0
 52
44.99999999999999
 41
3.0
 77
     0
 78
     1
 53
135.0
 43
309.3353656674872
 44
521.831886201395
 45
2.121320343559641
 46
2.121320343559641
 79
     0
 98
        1
 10
309.3353656674872
 20
521.831886201395
1001
ACME_LAYERS
1000
1
  0
HATCH
  5
4F79
330
1F
100
AcDbEntity
  8
P-0000
  6
Continuous
 62
     3
100
AcDbHatch
 10
0.0
 20
0.0
 30
0.0
210
0.0
220
0.0
230
1.0
  2
_U
 70
     0
 71
     0
 91
        1
 92
        1
 93
       19
 72
     2
 10
382.4590919020861
 20
385.2059207070198
 40
2.0
 50
90.0
 51
135.0000000000351
 73
     0
 72
     1
 10
381.0448783397102
 20
383.791707144647
 11
380.8022376525919
 21
384.0343478317661
 72
     2
 10
377.9738105278449
 20
381.2059207070199
 40
4.0
 50
404.9999999999991
 51
449.9999999999738
 73
     1
 72
     1
 10
377.973810527847
 20
385.2059207070198
 11
375.5362078146204
 21
385.2059207070198
 72
     1
 10
375.5362078146204
 20
385.2059207070198
 11
374.1258792857611
 21
385.2059207070198
 72
     1
 10
374.1258792857611
 20
385.2059207070198
 11
371.3022376525914
 21
385.2059207070198
 72
     1
 10
371.3022376525914
 20
385.2059207070198
 11
371.3022376525914
 21
383.2059207070196
 72
     1
 10
371.3022376525914
 20
383.2059207070196
 11
377.973810527847
 21
383.2059207070196
 72
     1
 10
377.9738105278449
 20
383.2059207070196
 11
378.8022376525931
 21
383.2059207070196
 72
     1
 10
378.8022376525937
 20
383.2059207070196
 11
379.3880240902195
 21
382.6201342693931
 72
     1
 10
379.3880240902195
 20
382.6201342693931
 11
379.6306647773387
 21
382.3774935822752
 72
     2
 10
382.4590919020861
 20
385.2059207070198
 40
4.0
 50
224.9999999999821
 51
270.0
 73
     1
 72
     1
 10
382.4590919020861
 20
381.2059207070199
 11
388.7041614412384
 21
381.2059207070199
 72
     2
 10
388.7041614412384
 20
385.2059207070198
 40
4.000000000000401
 50
270.0
 51
299.9999999999967
 73
     1
 72
     1
 10
390.7041614412383
 20
381.741819091882
 11
396.3022376525901
 21
384.973869899452
 72
     1
 10
396.3022376525901
 20
384.9738698994522
 11
395.3022376525919
 21
386.7059207070196
 72
     1
 10
395.3022376525914
 20
386.7059207070196
 11
389.7041614412383
 21
383.4738698994522
 72
     2
 10
388.7041614412384
 20
385.2059207070198
 40
1.999999999999425
 50
59.99999999999046
 51
90.0
 73
     0
 72
     1
 10
388.7041614412384
 20
383.2059207070196
 11
382.4590919020861
 21
383.2059207070196
 97
        0
 75
     0
 76
     0
 52
44.99999999999999
 41
5.0
 77
     0
 78
     1
 53
135.0
 43
309.3353656674872
 44
521.831886201395
 45
3.535533905932736
 46
3.535533905932738
 79
     0
 98
        1
 10
309.3353656674872
 20
521.831886201395
1001
ACME_LAYERS
1000
1
  0
LINE
  5
4F7A
330
1F
100
AcDbEntity
  8
0
100
AcDbLine
 10
370.3022376525914
 20
381.2059207070199
 30
0.0
 11
370.3022376525914
 21
386.7059207070196
 31
0.0
  0
LINE
  5
4F7B
330
1F
100
AcDbEntity
  8
P-0000
  6
Continuous
 62
     7
100
AcDbLine
 10
343.93509528705
 20
381.2059207070199
 30
0.0
 11
350.1801648262031
 21
381.2059207070199
 31
0.0
1001
ACME_LAYERS
1000
1
  0
LINE
  5
4F7C
330
1F
100
AcDbEntity
  8
P-0000
  6
Continuous
 62
     7
100
AcDbLine
 10
388.7041614412384
 20
381.2059207070199
 30
0.0
 11
382.4590919020829
 21
381.2059207070199
 31
0.0
1001
ACME_LAYERS
1000
1
  0
LINE
  5
4F7D
330
1F
100
AcDbEntity
  8
P-0000
  6
Continuous
 62
     7
100
AcDbLine
 10
343.9003138639431
 20
381.2059207070199
 30
0.0
 11
350.1453834030963
 21
381.2059207070199
 31
0.0
1001
ACME_LAYERS
1000
1
  0
LINE
  5
4F85
330
1F
100
AcDbEntity
  8
0
100
AcDbLine
 10
370.3587740966847
 20
385.2059207070198
 30
0.0
 11
370.3587740966847
 21
372.0000008020763
 31
0.0
  0
LINE
  5
4F86
330
1F
100
AcDbEntity
  8
0
100
AcDbLine
 10
362.3587740966832
 20
385.2059207070198
 30
0.0
 11
362.3587740966832
 21
372.0000008020763
 31
0.0
  0
LINE
  5
4F88
330
1F
100
AcDbEntity
  8
P-3FF0
  6
Continuous
 62
     7
100
AcDbLine
 10
323.3573636169432
 20
373.9348275919344
 30
0.0
 11
334.3217122640331
 21
373.9348275919344
 31
0.0
1001
ACME_LAYERS
1000
1
  0
LINE
  5
4F8E
330
1F
100
AcDbEntity
  8
P-0000
  6
Continuous
 62
     7
100
AcDbLine
 10
128.8022376525914
 20
387.1964735919761
 30
0.0
 11
138.8022376525919
 21
387.1964735919761
 31
0.0
1001
ACME_LAYERS
1000
1
  0
LINE
  5
4F8F
330
1F
100
AcDbEntity
  8
P-0000
  6
Continuous
 62
     7
100
AcDbLine
 10
159.390475541793
 20
386.7059207070196
 30
0.0
 11
163.8361736552151
 21
386.7059207070196
 31
0.0
1001
ACME_LAYERS
1000
1
  0
LINE
  5
4F90
330
1F
100
AcDbEntity
  8
P-0000
  6
Continuous
 62
     7
100
AcDbLine
 10
176.3904755417943
 20
386.7059207070196
 30
0.0
 11
172.336173655216
 21
386.7059207070196
 31
0.0
1001
ACME_LAYERS
1000
1
  0
LINE
  5
4F91
330
1F
100
AcDbEntity
  8
P-0000
  6
Continuous
 62
     7
100
AcDbLine
 10
164.6361736552153
 20
386.7059207070196
 30
0.0
 11
172.336173655216
 21
386.7059207070196
 31
0.0
1001
ACME_LAYERS
1000
1
  0
LINE
  5
4F92
330
1F
100
AcDbEntity
  8
P-0000
  6
Continuous
 62
     7
100
AcDbLine
 10
163.8361736552151
 20
386.7059207070196
 30
0.0
 11
164.6361736552153
 21
386.7059207070196
 31
0.0
1001
ACME_LAYERS
1000
1
  0
LINE
  5
4F93
330
1F
100
AcDbEntity
  8
P-0000
  6
Continuous
 62
     7
100
AcDbLine
 10
323.8051462988328
 20
386.7059207070196
 30
0.0
 11
328.250844412255
 21
386.7059207070196
 31
0.0
1001
ACME_LAYERS
1000
1
  0
LINE
  5
4F94
330
1F
100
AcDbEntity
  8
P-0000
  6
Continuous
 62
     7
100
AcDbLine
 10
340.8051462988328
 20
386.7059207070196
 30
0.0
 11
336.7508444122564
 21
386.7059207070196
 31
0.0
1001
ACME_LAYERS
1000
1
  0
LINE
  5
4F95
330
1F
100
AcDbEntity
  8
P-0000
  6
Continuous
 62
     7
100
AcDbLine
 10
329.0508444122552
 20
386.7059207070196
 30
0.0
 11
336.7508444122564
 21
386.7059207070196
 31
0.0
1001
ACME_LAYERS
1000
1
  0
LINE
  5
4F96
330
1F
100
AcDbEntity
  8
P-0000
  6
Continuous
 62
     7
100
AcDbLine
 10
328.250844412255
 20
386.7059207070196
 30
0.0
 11
329.0508444122552
 21
386.7059207070196
 31
0.0
1001
ACME_LAYERS
1000
1
  0
HATCH
  5
4F9B
330
1F
100
AcDbEntity
  8
P-0000
  6
Continuous
 62
     3
100
AcDbHatch
 10
0.0
 20
0.0
 30
0.0
210
0.0
220
0.0
230
1.0
  2
_U
 70
     0
 71
     0
 91
        1
 92
        1
 93
       34
 72
     1
 10
100.3844302890288
 20
371.5000008020933
 11
98.97021672665509
 21
372.9142143644672
 72
     1
 10
98.97021672665509
 20
372.9142143644672
 11
99.67277797140742
 21
373.6167756092179
 72
     2
 10
102.5012050961541
 20
370.7883484844722
 40
4.0
 50
224.9999999999994
 51
270.0
 73
     0
 72
     2
 10
102.5012050961541
 20
370.7883484844722
 40
3.999999999999721
 50
270.0
 51
299.9999999999985
 73
     0
 72
     1
 10
104.5012050961536
 20
374.2524500996099
 11
107.9384601057872
 21
372.2679499945241
 72
     2
 10
108.9384601057872
 20
374.0000008020938
 40
1.999999999999868
 50
239.9999999999979
 51
270.0
 73
     1
 72
     1
 10
108.9384601057872
 20
372.0000008020933
 11
137.1166633360617
 21
372.0000008020933
 72
     1
 10
137.1166633360617
 20
372.0000008020933
 11
156.552561720925
 21
372.0000008020933
 72
     2
 10
156.552561720925
 20
374.0000008020938
 40
2.0
 50
-90.00000000000001
 51
-59.99999999999786
 73
     1
 72
     1
 10
157.552561720925
 20
372.2679499945241
 11
158.4122724951353
 21
372.7643042414388
 72
     1
 10
158.4122724951353
 20
372.7643042414388
 11
163.0884601057883
 21
375.4641024172311
 72
     2
 10
165.0884601057892
 20
372.0000008020933
 40
4.0
 50
240.0000000000021
 51
270.0
 73
     0
 72
     1
 10
165.0884601057892
 20
376.0000008020933
 11
173.3325250864245
 21
376.0000008020933
 72
     2
 10
173.3325250864245
 20
370.0000008020938
 40
6.000000000000177
 50
270.0
 51
322.9999999999994
 73
     0
 72
     1
 10
178.1243381467084
 20
373.6108909410059
 11
183.8555695699024
 21
366.005289959347
 72
     2
 10
179.862392019666
 20
362.9962148435871
 40
5.0
 50
322.9999999999976
 51
359.9999999999961
 73
     0
 72
     1
 10
184.862392019666
 20
362.9962148435871
 11
184.862392019666
 21
359.000000802093
 72
     1
 10
184.862392019666
 20
359.0000008020933
 11
184.265861644841
 21
359.0000008020933
 72
     1
 10
184.2658616448398
 20
359.0000008020933
 11
182.862392019666
 21
360.403470427269
 72
     1
 10
182.862392019666
 20
360.4034704272681
 11
182.862392019666
 21
362.9962148435871
 72
     2
 10
179.862392019666
 20
362.9962148435871
 40
3.0
 50
-0.0000000000000127
 51
37.00000000000023
 73
     1
 72
     1
 10
182.258298549807
 20
364.8016599130431
 11
178.3410677190481
 21
370.0000008020932
 72
     1
 10
178.3410677190481
 20
370.0000008020938
 11
177.5348713236881
 21
371.0698595537647
 72
     1
 10
177.5348713236881
 20
371.0698595537647
 11
176.527067126613
 21
372.4072608947017
 72
     2
 10
173.3325250864245
 20
370.0000008020938
 40
4.000000000000238
 50
37.00000000000207
 51
89.99999999999998
 73
     1
 72
     1
 10
173.3325250864245
 20
374.0000008020938
 11
165.0884601057892
 21
374.0000008020938
 72
     2
 10
165.0884601057892
 20
372.0000008020933
 40
2.0
 50
89.99999999999998
 51
119.9999999999928
 73
     1
 72
     1
 10
164.0884601057883
 20
373.7320516096628
 11
158.5525617209241
 21
370.5358991869561
 72
     2
 10
156.552561720925
 20
374.0000008020938
 40
4.0
 50
420.0000000000091
 51
450.0
 73
     0
 72
     1
 10
156.552561720925
 20
370.0000008020938
 11
108.9384601057872
 21
370.0000008020938
 72
     2
 10
108.9384601057872
 20
374.0000008020938
 40
3.999999999999785
 50
90.0000000000049
 51
120.0000000000017
 73
     0
 72
     1
 10
106.9384601057859
 20
370.5358991869561
 11
103.5012050961536
 21
372.5203992920403
 72
     2
 10
102.5012050961541
 20
370.7883484844722
 40
1.999999999999721
 50
59.99999999999537
 51
135.000000000001
 73
     1
 72
     1
 10
101.0869915337812
 20
372.2025620468451
 11
100.3844302890288
 21
371.5000008020932
 97
        0
 75
     0
 76
     0
 52
44.99999999999999
 41
2.0
 77
     0
 78
     1
 53
45.0
 43
957.346107277428
 44
-25.78397960522784
 45
-1.414213562373094
 46
1.414213562373094
 79
     0
 98
        1
 10
957.346107277428
 20
-25.78397960522784
1001
ACME_LAYERS
1000
1
  0
HATCH
  5
4F9C
330
1F
100
AcDbEntity
  8
P-0000
  6
Continuous
 62
     3
100
AcDbHatch
 10
0.0
 20
0.0
 30
0.0
210
0.0
220
0.0
230
1.0
  2
_U
 70
     0
 71
     0
 91
        1
 92
        1
 93
       40
 72
     1
 10
397.6463351383591
 20
372.2025620468451
 11
398.3488963831101
 21
371.5000008020932
 72
     1
 10
398.3488963831101
 20
371.5000008020933
 11
399.7631099454834
 21
372.9142143644672
 72
     1
 10
399.7631099454834
 20
372.9142143644672
 11
399.0605487007323
 21
373.6167756092179
 72
     2
 10
396.2321215759848
 20
370.7883484844722
 40
3.999999999999991
 50
44.99999999999938
 51
89.99999999999998
 73
     1
 72
     2
 10
396.2321215759848
 20
370.7883484844722
 40
4.0
 50
89.99999999999998
 51
119.9999999999971
 73
     1
 72
     1
 10
394.2321215759862
 20
374.2524500996099
 11
390.794866566353
 21
372.2679499945241
 72
     2
 10
389.7948665663525
 20
374.0000008020938
 40
2.0
 50
419.9999999999977
 51
450.0
 73
     0
 72
     1
 10
389.7948665663525
 20
372.0000008020933
 11
389.5166633360782
 21
372.0000008020933
 72
     1
 10
389.5166633360797
 20
372.0000008020933
 11
369.6166633360772
 21
372.0000008020933
 72
     1
 10
369.6166633360758
 20
372.0000008020933
 11
342.1807649512134
 21
372.0000008020933
 72
     2
 10
342.1807649512134
 20
374.0000008020938
 40
1.999999999999868
 50
450.0
 51
480.0000000000022
 73
     0
 72
     1
 10
341.1807649512139
 20
372.2679499945241
 11
341.0759213013134
 21
372.3284815040181
 72
     1
 10
341.0759213013134
 20
372.3284815040181
 11
340.9443271587544
 21
372.4044574176471
 72
     1
 10
340.9443271587544
 20
372.4044574176471
 11
340.3210541770063
 21
372.7643042414388
 72
     1
 10
340.321054177005
 20
372.7643042414388
 11
335.6448665663511
 21
375.4641024172311
 72
     2
 10
333.6448665663511
 20
372.0000008020933
 40
4.000000000000023
 50
60.00000000000208
 51
89.99999999999998
 73
     1
 72
     1
 10
333.6448665663511
 20
376.0000008020933
 11
328.2268523646739
 21
376.0000008020933
 72
     1
 10
328.2268523646753
 20
376.0000008020933
 11
325.4008015856312
 21
376.0000008020933
 72
     2
 10
325.4008015856312
 20
370.0000008020938
 40
6.0
 50
89.99999999999998
 51
142.9999999999993
 73
     1
 72
     1
 10
320.6089885253474
 20
373.6108909410059
 11
314.8777571021546
 21
366.0052899593479
 72
     2
 10
318.8709346523901
 20
362.9962148435871
 40
5.000000000000214
 50
142.9999999999976
 51
179.999999999996
 73
     1
 72
     1
 10
313.8709346523901
 20
362.9962148435871
 11
313.8709346523901
 21
359.000000802093
 72
     1
 10
313.8709346523901
 20
359.0000008020933
 11
314.1021134838593
 21
359.0000008020933
 72
     1
 10
314.1021134838593
 20
359.0000008020933
 11
314.4674650272154
 21
359.0000008020933
 72
     1
 10
314.4674650272154
 20
359.0000008020933
 11
315.8709346523902
 21
360.4034704272681
 72
     1
 10
315.8709346523902
 20
360.4034704272681
 11
315.8709346523902
 21
362.9962148435871
 72
     2
 10
318.8709346523901
 20
362.9962148435871
 40
3.000000000000071
 50
180.0
 51
217.0000000000003
 73
     0
 72
     1
 10
316.4750281222473
 20
364.8016599130431
 11
320.3922589530052
 21
370.0000008020932
 72
     1
 10
320.3922589530052
 20
370.0000008020938
 11
321.1984553483658
 21
371.0698595537647
 72
     1
 10
321.1984553483658
 20
371.0698595537647
 11
322.2062595454422
 21
372.4072608947017
 72
     2
 10
325.4008015856312
 20
370.0000008020938
 40
4.0
 50
217.0000000000021
 51
270.0
 73
     0
 72
     1
 10
325.4008015856312
 20
374.0000008020938
 11
333.6448665663511
 21
374.0000008020938
 72
     2
 10
333.6448665663511
 20
372.0000008020933
 40
2.000000000000205
 50
270.0
 51
299.9999999999928
 73
     0
 72
     1
 10
334.6448665663511
 20
373.7320516096628
 11
340.1807649512148
 21
370.5358991869561
 72
     2
 10
342.1807649512134
 20
374.0000008020938
 40
3.999999999999741
 50
240.0000000000091
 51
270.0
 73
     1
 72
     1
 10
342.1807649512134
 20
370.0000008020938
 11
342.8930544705481
 21
370.0000008020938
 72
     1
 10
342.8930544705481
 20
370.0000008020938
 11
389.7948665663525
 21
370.0000008020938
 72
     2
 10
389.7948665663525
 20
374.0000008020938
 40
4.0
 50
-89.99999999999511
 51
-59.99999999999824
 73
     1
 72
     1
 10
391.7948665663526
 20
370.5358991869561
 11
395.2321215759848
 21
372.5203992920403
 72
     2
 10
396.2321215759848
 20
370.7883484844722
 40
1.999999999999974
 50
239.9999999999954
 51
315.0000000000012
 73
     0
 97
        0
 75
     0
 76
     0
 52
44.99999999999999
 41
2.0
 77
     0
 78
     1
 53
45.0
 43
957.346107277428
 44
-25.78397960522784
 45
-1.414213562373094
 46
1.414213562373094
 79
     0
 98
        1
 10
957.346107277428
 20
-25.78397960522784
1001
ACME_LAYERS
1000
1
  0
HATCH
  5
4F9D
330
1F
100
AcDbEntity
  8
P-0000
  6
Continuous
 62
     3
100
AcDbHatch
 10
0.0
 20
0.0
 30
0.0
210
0.0
220
0.0
230
1.0
  2
_U
 70
     0
 71
     0
 91
        1
 92
        1
 93
        7
 72
     1
 10
182.862392019666
 20
357.5965311769178
 11
182.862392019751
 21
356.0884099237342
 72
     1
 10
182.862392019751
 20
356.0884099237346
 11
182.8666633360631
 21
273.095560224675
 72
     1
 10
182.8666633360612
 20
273.0955602246752
 11
184.8623920197501
 21
272.918895389131
 72
     1
 10
184.8623920197501
 20
272.9188953891307
 11
184.8623920197501
 21
313.9188953891308
 72
     1
 10
184.8623920197501
 20
313.9188953891308
 11
184.8623920197501
 21
359.000000802093
 72
     1
 10
184.8623920197501
 20
359.0000008020933
 11
184.265861644841
 21
359.0000008020933
 72
     1
 10
184.2658616448398
 20
359.0000008020933
 11
182.862392019666
 21
357.5965311769187
 97
        0
 75
     0
 76
     0
 52
-45.0
 41
2.0
 77
     0
 78
     1
 53
315.0
 43
957.346107277428
 44
-25.78397960522784
 45
1.414213562373094
 46
1.414213562373094
 79
     0
 98
        1
 10
957.346107277428
 20
-25.78397960522784
1001
ACME_LAYERS
1000
1
  0
HATCH
  5
4F9E
330
1F
100
AcDbEntity
  8
P-0000
  6
Continuous
 62
     3
100
AcDbHatch
 10
0.0
 20
0.0
 30
0.0
210
0.0
220
0.0
230
1.0
  2
_U
 70
     0
 71
     0
 91
        1
 92
        1
 93
        6
 72
     1
 10
313.8709346523901
 20
359.0000008020933
 11
313.8709346523901
 21
272.9188953891316
 72
     1
 10
313.8709346523892
 20
272.9188953891307
 11
315.8666633360772
 21
273.095560224675
 72
     1
 10
315.8666633360772
 20
273.0955602246752
 11
315.8709346523902
 21
285.5220581853109
 72
     1
 10
315.8709346523902
 20
285.5220581853109
 11
315.8709346523902
 21
357.5965311769178
 72
     1
 10
315.8709346523902
 20
357.5965311769178
 11
314.4674650272154
 21
359.0000008020933
 72
     1
 10
314.4674650272154
 20
359.0000008020933
 11
313.8709346523892
 21
359.0000008020933
 97
        0
 75
     0
 76
     0
 52
-45.0
 41
2.0
 77
     0
 78
     1
 53
315.0
 43
957.346107277428
 44
-25.78397960522784
 45
1.414213562373094
 46
1.414213562373094
 79
     0
 98
        1
 10
957.346107277428
 20
-25.78397960522784
1001
ACME_LAYERS
1000
1
  0
ARC
  5
4F9F
330
1F
100
AcDbEntity
  8
P-0000
  6
Continuous
 62
     7
100
AcDbCircle
 10
318.8709346523901
 20
362.9962148435871
 30
0.0
 40
3.000000000000071
100
AcDbArc
 50
143.0000000000041
 51
180.0
1001
ACME_LAYERS
1000
1
  0
ARC
  5
4FA0
330
1F
100
AcDbEntity
  8
P-0000
  6
Continuous
 62
     7
100
AcDbCircle
 10
318.8709346523901
 20
362.9962148435871
 30
0.0
 40
5.000000000000214
100
AcDbArc
 50
143.0000000000041
 51
179.9999999999739
1001
ACME_LAYERS
1000
1
  0
ARC
  5
4FA1
330
1F
100
AcDbEntity
  8
P-0000
  6
Continuous
 62
     7
100
AcDbCircle
 10
179.862392019666
 20
362.9962148435871
 30
0.0
 40
3.0
100
AcDbArc
 50
0.0
 51
36.99999999999587
1001
ACME_LAYERS
1000
1
  0
ARC
  5
4FA2
330
1F
100
AcDbEntity
  8
P-0000
  6
Continuous
 62
     7
100
AcDbCircle
 10
179.862392019666
 20
362.9962148435871
 30
0.0
 40
5.0
100
AcDbArc
 50
0.0
 51
36.99999999999587
1001
ACME_LAYERS
1000
1
  0
SPLINE
  5
4FA3
330
1F
100
AcDbEntity
  8
P-0000
  6
Continuous
 62
     3
100
AcDbSpline
210
0.0
220
0.0
230
1.0
 70
     8
 71
     3
 72
     8
 73
     4
 74
     0
 42
0.0000000001
 43
0.0000000001
 40
0.0
 40
0.0
 40
0.0
 40
0.0
 40
2.003532740689506
 40
2.003532740689506
 40
2.003532740689506
 40
2.003532740689506
 10
182.8666633360612
 20
273.0955602246752
 30
0.0
 10
183.5312199408331
 20
273.0294888183473
 30
0.0
 10
184.1965069798101
 20
272.9706105106991
 30
0.0
 10
184.8623920197501
 20
272.9188953891307
 30
0.0
  0
SPLINE
  5
4FA4
330
1F
100
AcDbEntity
  8
P-0000
  6
Continuous
 62
     3
100
AcDbSpline
210
0.0
220
0.0
230
1.0
 70
     8
 71
     3
 72
     8
 73
     4
 74
     0
 42
0.0000000001
 43
0.0000000001
 40
0.0
 40
0.0
 40
0.0
 40
0.0
 40
2.003532740689506
 40
2.003532740689506
 40
2.003532740689506
 40
2.003532740689506
 10
315.8666633360772
 20
273.0955602246752
 30
0.0
 10
315.202106731308
 20
273.0294888183473
 30
0.0
 10
314.53681969233
 20
272.9706105106991
 30
0.0
 10
313.8709346523892
 20
272.9188953891307
 30
0.0
  0
LINE
  5
4FA5
330
1F
100
AcDbEntity
  8
P-0000
  6
Continuous
 62
     7
100
AcDbLine
 10
315.8666633360695
 20
319.4534219559522
 30
0.0
 11
315.8666633360695
 21
304.7383292440593
 31
0.0
1001
ACME_LAYERS
1000
1
  0
LINE
  5
4FA6
330
1F
100
AcDbEntity
  8
P-0000
  6
Continuous
 62
     7
100
AcDbLine
 10
315.8666633360695
 20
314.4534219559498
 30
0.0
 11
315.8666633360695
 21
312.4534219559521
 31
0.0
1001
ACME_LAYERS
1000
1
  0
LINE
  5
4FA7
330
1F
100
AcDbEntity
  8
P-0000
  6
Continuous
 62
     3
100
AcDbLine
 10
249.3666633360695
 20
4.059872407059856
 30
0.0
 11
184.2959289713603
 21
4.059872407059856
 31
0.0
1001
ACME_LAYERS
1000
1
  0
LINE
  5
4FA8
330
1F
100
AcDbEntity
  8
P-0000
  6
Continuous
 62
     7
100
AcDbLine
 10
182.8666633360631
 20
4.059872407059856
 30
0.0
 11
182.8666633360722
 21
4.059872407028251
 31
0.0
1001
ACME_LAYERS
1000
1
  0
LINE
  5
4FA9
330
1F
100
AcDbEntity
  8
P-0000
  6
Continuous
 62
     7
100
AcDbLine
 10
249.3666633360695
 20
0.0000008020931546
 30
0.0
 11
183.954502653988
 21
0.0000008020931546
 31
0.0
1001
ACME_LAYERS
1000
1
  0
LINE
  5
4FAA
330
1F
100
AcDbEntity
  8
P-0000
  6
Continuous
 62
     7
100
AcDbLine
 10
182.8666633360612
 20
236.6860646743144
 30
0.0
 11
182.8666633360612
 21
254.4348388591632
 31
0.0
1001
ACME_LAYERS
1000
1
  0
LINE
  5
4FAB
330
1F
100
AcDbEntity
  8
P-0000
  6
Continuous
 62
     7
100
AcDbLine
 10
169.7265105596061
 20
370.0000008020938
 30
0.0
 11
149.665619391284
 21
370.0000008020938
 31
0.0
1001
ACME_LAYERS
1000
1
  0
LINE
  5
4FAC
330
1F
100
AcDbEntity
  8
P-0000
  6
Continuous
 62
     7
100
AcDbLine
 10
149.366663336063
 20
370.0000008020938
 30
0.0
 11
156.552561720925
 21
370.0000008020938
 31
0.0
1001
ACME_LAYERS
1000
1
  0
LINE
  5
4FAD
330
1F
100
AcDbEntity
  8
P-0000
  6
Continuous
 62
     7
100
AcDbLine
 10
108.9384601057872
 20
370.0000008020938
 30
0.0
 11
149.366663336063
 21
370.0000008020938
 31
0.0
1001
ACME_LAYERS
1000
1
  0
LINE
  5
4FAE
330
1F
100
AcDbEntity
  8
P-0000
  6
Continuous
 62
     7
100
AcDbLine
 10
184.8623920197501
 20
313.9188953891308
 30
0.0
 11
184.8623920197501
 21
359.0000008020933
 31
0.0
1001
ACME_LAYERS
1000
1
  0
LINE
  5
4FAF
330
1F
100
AcDbEntity
  8
P-0000
  6
Continuous
 62
     7
100
AcDbLine
 10
182.8666633360612
 20
265.203369123632
 30
0.0
 11
182.8666633360694
 21
185.216020394773
 31
0.0
1001
ACME_LAYERS
1000
1
  0
LINE
  5
4FB0
330
1F
100
AcDbEntity
  8
P-0000
  6
Continuous
 62
     7
100
AcDbLine
 10
182.862392019751
 20
265.2195328762241
 30
0.0
 11
182.8666633360612
 21
265.203369123632
 31
0.0
1001
ACME_LAYERS
1000
1
  0
LINE
  5
4FB1
330
1F
100
AcDbEntity
  8
P-0000
  6
Continuous
 62
     7
100
AcDbLine
 10
182.8666633360612
 20
273.0955602246752
 30
0.0
 11
182.8666633360649
 21
285.5220581853109
 31
0.0
1001
ACME_LAYERS
1000
1
  0
LINE
  5
4FB2
330
1F
100
AcDbEntity
  8
P-0000
  6
Continuous
 62
     7
100
AcDbLine
 10
184.8623920197501
 20
272.9188953891307
 30
0.0
 11
184.8623920197501
 21
313.9188953891308
 31
0.0
1001
ACME_LAYERS
1000
1
  0
LINE
  5
4FB3
330
1F
100
AcDbEntity
  8
P-0000
  6
Continuous
 62
     7
100
AcDbLine
 10
182.862392019751
 20
310.5382219379001
 30
0.0
 11
182.862392019751
 21
359.0000008020933
 31
0.0
1001
ACME_LAYERS
1000
1
  0
LINE
  5
4FB4
330
1F
100
AcDbEntity
  8
P-0000
  6
Continuous
 62
     7
100
AcDbLine
 10
182.8666633360612
 20
255.4348388591632
 30
0.0
 11
182.8666633360612
 21
273.0955602246752
 31
0.0
1001
ACME_LAYERS
1000
1
  0
LINE
  5
4FB5
330
1F
100
AcDbEntity
  8
P-0000
  6
Continuous
 62
     3
100
AcDbLine
 10
314.4373977007798
 20
4.059872407059856
 30
0.0
 11
249.3666633360695
 21
4.059872407059856
 31
0.0
1001
ACME_LAYERS
1000
1
  0
LINE
  5
4FB6
330
1F
100
AcDbEntity
  8
P-0000
  6
Continuous
 62
     7
100
AcDbLine
 10
314.778824018153
 20
0.0000008020931546
 30
0.0
 11
315.8666633360758
 21
4.059872407058036
 31
0.0
1001
ACME_LAYERS
1000
1
  0
LINE
  5
4FB7
330
1F
100
AcDbEntity
  8
P-0000
  6
Continuous
 62
     7
100
AcDbLine
 10
314.778824018153
 20
0.0000008020931546
 30
0.0
 11
249.3666633360695
 21
0.0000008020931546
 31
0.0
1001
ACME_LAYERS
1000
1
  0
LINE
  5
4FB8
330
1F
100
AcDbEntity
  8
0
  6
Continuous
 62
     7
100
AcDbLine
 10
349.0677072808548
 20
370.0000008020938
 30
0.0
 11
329.0068161125323
 21
370.0000008020938
 31
0.0
1001
ACME_LAYERS
1000
1
  0
LINE
  5
4FB9
330
1F
100
AcDbEntity
  8
P-0000
  6
Continuous
 62
     7
100
AcDbLine
 10
329.0068161125323
 20
370.0000008020938
 30
0.0
 11
320.3922589530052
 21
370.0000008020938
 31
0.0
1001
ACME_LAYERS
1000
1
  0
LINE
  5
4FBA
330
1F
100
AcDbEntity
  8
P-0000
  6
Continuous
 62
     7
100
AcDbLine
 10
320.3922589530052
 20
370.0000008020938
 30
0.0
 11
316.4750281222473
 21
364.8016599130431
 31
0.0
1001
ACME_LAYERS
1000
1
  0
LINE
  5
4FBB
330
1F
100
AcDbEntity
  8
P-0000
  6
Continuous
 62
     7
100
AcDbLine
 10
323.3573636169432
 20
373.9348275919344
 30
0.0
 11
320.3922589530002
 21
370.000000802085
 31
0.0
1001
ACME_LAYERS
1000
1
  0
LINE
  5
4FBC
330
1F
100
AcDbEntity
  8
P-0000
  6
Continuous
 62
     7
100
AcDbLine
 10
322.4093119372978
 20
376.000000802077
 30
0.0
 11
314.8777571021546
 21
366.0052899593481
 31
0.0
1001
ACME_LAYERS
1000
1
  0
LINE
  5
4FBD
330
1F
100
AcDbEntity
  8
P-0000
  6
Continuous
 62
     7
100
AcDbLine
 10
321.1984553483658
 20
371.0698595537647
 30
0.0
 11
320.3922589530052
 21
370.0000008020938
 31
0.0
1001
ACME_LAYERS
1000
1
  0
LINE
  5
4FBE
330
1F
100
AcDbEntity
  8
P-0000
  6
Continuous
 62
     7
100
AcDbLine
 10
315.8666633360758
 20
240.2033691236347
 30
0.0
 11
315.8666633360772
 21
265.203369123632
 31
0.0
1001
ACME_LAYERS
1000
1
  0
LINE
  5
4FBF
330
1F
100
AcDbEntity
  8
P-0000
  6
Continuous
 62
     7
100
AcDbLine
 10
315.8666633360772
 20
265.203369123632
 30
0.0
 11
315.8709346523902
 21
265.2195328762241
 31
0.0
1001
ACME_LAYERS
1000
1
  0
LINE
  5
4FC0
330
1F
100
AcDbEntity
  8
P-0000
  6
Continuous
 62
     7
100
AcDbLine
 10
315.8666633360758
 20
285.5220581853109
 30
0.0
 11
315.8666633360772
 21
273.0955602246752
 31
0.0
1001
ACME_LAYERS
1000
1
  0
LINE
  5
4FC1
330
1F
100
AcDbEntity
  8
P-0000
  6
Continuous
 62
     7
100
AcDbLine
 10
315.8709346523902
 20
358.9188953891307
 30
0.0
 11
315.8709346523902
 21
357.5965311769178
 31
0.0
1001
ACME_LAYERS
1000
1
  0
LINE
  5
4FC2
330
1F
100
AcDbEntity
  8
P-0000
  6
Continuous
 62
     7
100
AcDbLine
 10
315.8666633360772
 20
273.0955602246752
 30
0.0
 11
315.8666633360772
 21
255.4348388591632
 31
0.0
1001
ACME_LAYERS
1000
1
  0
LINE
  5
4FC3
330
1F
100
AcDbEntity
  8
P-0000
  6
Continuous
 62
     7
100
AcDbLine
 10
182.8666633360649
 20
310.5382219379001
 30
0.0
 11
182.8666633360649
 21
285.5220581853109
 31
0.0
1001
ACME_LAYERS
1000
1
  0
LINE
  5
4FC4
330
1F
100
AcDbEntity
  8
P-0000
  6
Continuous
 62
     7
100
AcDbLine
 10
315.8666633360772
 20
254.4348388591632
 30
0.0
 11
315.8666633360772
 21
185.216020394773
 31
0.0
1001
ACME_LAYERS
1000
1
  0
LINE
  5
4FC5
330
1F
100
AcDbEntity
  8
P-0000
  6
Continuous
 62
     7
100
AcDbLine
 10
315.8666633360772
 20
4.059872407059856
 30
0.0
 11
315.8666633360758
 21
4.059872407058036
 31
0.0
1001
ACME_LAYERS
1000
1
  0
LINE
  5
4FC6
330
1F
100
AcDbEntity
  8
P-0000
  6
Continuous
 62
     7
100
AcDbLine
 10
315.8666633360758
 20
4.059872407058036
 30
0.0
 11
315.8666633360772
 21
4.059872407059856
 31
0.0
1001
ACME_LAYERS
1000
1
  0
LINE
  5
4FC7
330
1F
100
AcDbEntity
  8
P-0000
  6
Continuous
 62
     7
100
AcDbLine
 10
182.8666633360722
 20
4.059872407028251
 30
0.0
 11
183.954502653988
 21
0.0000008020931546
 31
0.0
1001
ACME_LAYERS
1000
1
  0
LINE
  5
4FC8
330
1F
100
AcDbEntity
  8
P-0000
  6
Continuous
 62
     7
100
AcDbLine
 10
313.8709346523901
 20
359.0000008020933
 30
0.0
 11
313.8709346523892
 21
272.9188953891307
 31
0.0
1001
ACME_LAYERS
1000
1
  0
LINE
  5
4FC9
330
1F
100
AcDbEntity
  8
P-0000
  6
Continuous
 62
     7
100
AcDbLine
 10
315.8709346523902
 20
358.9188953891307
 30
0.0
 11
315.8709346523902
 21
360.4034704272681
 31
0.0
1001
ACME_LAYERS
1000
1
  0
LINE
  5
4FCA
330
1F
100
AcDbEntity
  8
P-0000
  6
Continuous
 62
     7
100
AcDbLine
 10
313.8709346523901
 20
359.0000008020933
 30
0.0
 11
313.8709346523901
 21
362.9962148435871
 31
0.0
1001
ACME_LAYERS
1000
1
  0
LINE
  5
4FCB
330
1F
100
AcDbEntity
  8
P-0000
  6
Continuous
 62
     7
100
AcDbLine
 10
315.8709346523902
 20
359.0000008020933
 30
0.0
 11
314.4674650272154
 21
359.0000008020933
 31
0.0
1001
ACME_LAYERS
1000
1
  0
LINE
  5
4FCC
330
1F
100
AcDbEntity
  8
P-0000
  6
Continuous
 62
     7
100
AcDbLine
 10
315.8709346523902
 20
357.5965311769178
 30
0.0
 11
315.8709346523902
 21
285.5220581853109
 31
0.0
1001
ACME_LAYERS
1000
1
  0
LINE
  5
4FCD
330
1F
100
AcDbEntity
  8
P-0000
  6
Continuous
 62
     7
100
AcDbLine
 10
314.4674650272154
 20
359.0000008020933
 30
0.0
 11
313.8709346523901
 21
359.0000008020933
 31
0.0
1001
ACME_LAYERS
1000
1
  0
LINE
  5
4FCE
330
1F
100
AcDbEntity
  8
P-0000
  6
Continuous
 62
     7
100
AcDbLine
 10
315.8709346523902
 20
360.4034704272681
 30
0.0
 11
315.8709346523902
 21
362.9962148435871
 31
0.0
1001
ACME_LAYERS
1000
1
  0
LINE
  5
4FCF
330
1F
100
AcDbEntity
  8
P-0000
  6
Continuous
 62
     7
100
AcDbLine
 10
178.3410677190481
 20
370.0000008020938
 30
0.0
 11
169.726510559522
 21
370.0000008020938
 31
0.0
1001
ACME_LAYERS
1000
1
  0
LINE
  5
4FD0
330
1F
100
AcDbEntity
  8
P-0000
  6
Continuous
 62
     7
100
AcDbLine
 10
182.258298549807
 20
364.8016599130431
 30
0.0
 11
178.3410677190481
 21
370.0000008020938
 31
0.0
1001
ACME_LAYERS
1000
1
  0
LINE
  5
4FD1
330
1F
100
AcDbEntity
  8
P-0000
  6
Continuous
 62
     7
100
AcDbLine
 10
178.7672577033654
 20
369.4344275903787
 30
0.0
 11
175.3759630551108
 21
373.9348275919344
 31
0.0
1001
ACME_LAYERS
1000
1
  0
LINE
  5
4FD2
330
1F
100
AcDbEntity
  8
P-0000
  6
Continuous
 62
     7
100
AcDbLine
 10
183.8555695699024
 20
366.0052899593481
 30
0.0
 11
176.3240147347583
 21
376.000000802077
 31
0.0
1001
ACME_LAYERS
1000
1
  0
LINE
  5
4FD3
330
1F
100
AcDbEntity
  8
P-0000
  6
Continuous
 62
     7
100
AcDbLine
 10
178.3410677190481
 20
370.0000008020938
 30
0.0
 11
175.3759630551108
 21
373.9348275919344
 31
0.0
1001
ACME_LAYERS
1000
1
  0
LINE
  5
4FD4
330
1F
100
AcDbEntity
  8
P-0000
  6
Continuous
 62
     7
100
AcDbLine
 10
182.862392019666
 20
357.5965311769178
 30
0.0
 11
182.862392019666
 21
358.9188953891307
 31
0.0
1001
ACME_LAYERS
1000
1
  0
LINE
  5
4FD5
330
1F
100
AcDbEntity
  8
P-0000
  6
Continuous
 62
     7
100
AcDbLine
 10
182.862392019666
 20
360.4034704272681
 30
0.0
 11
182.862392019666
 21
358.9188953891307
 31
0.0
1001
ACME_LAYERS
1000
1
  0
LINE
  5
4FD6
330
1F
100
AcDbEntity
  8
P-0000
  6
Continuous
 62
     7
100
AcDbLine
 10
184.862392019666
 20
362.9962148435871
 30
0.0
 11
184.862392019666
 21
359.0000008020933
 31
0.0
1001
ACME_LAYERS
1000
1
  0
LINE
  5
4FD7
330
1F
100
AcDbEntity
  8
P-0000
  6
Continuous
 62
     7
100
AcDbLine
 10
184.2658616448398
 20
359.0000008020933
 30
0.0
 11
182.862392019666
 21
359.0000008020933
 31
0.0
1001
ACME_LAYERS
1000
1
  0
LINE
  5
4FD8
330
1F
100
AcDbEntity
  8
P-0000
  6
Continuous
 62
     7
100
AcDbLine
 10
182.862392019666
 20
362.9962148435871
 30
0.0
 11
182.862392019666
 21
360.4034704272681
 31
0.0
1001
ACME_LAYERS
1000
1
  0
LINE
  5
4FD9
330
1F
100
AcDbEntity
  8
P-0000
  6
Continuous
 62
     7
100
AcDbLine
 10
184.862392019666
 20
359.0000008020933
 30
0.0
 11
184.2658616448398
 21
359.0000008020933
 31
0.0
1001
ACME_LAYERS
1000
1
  0
LINE
  5
4FDB
330
1F
100
AcDbEntity
  8
P-0000
  6
Continuous
 62
     7
100
AcDbLine
 10
315.8666633360772
 20
170.216020394773
 30
0.0
 11
315.8666633360772
 21
4.05987240706122
 31
0.0
1001
ACME_LAYERS
1000
1
  0
LINE
  5
4FDC
330
1F
100
AcDbEntity
  8
P-0000
  6
Continuous
 62
     7
100
AcDbLine
 10
182.8666633360694
 20
170.216020394773
 30
0.0
 11
182.8666633360812
 21
4.059872406994143
 31
0.0
1001
ACME_LAYERS
1000
1
  0
LINE
  5
4FDD
330
1F
100
AcDbEntity
  8
P-0000
  6
Continuous
 62
     7
100
AcDbLine
 10
315.8666633360772
 20
185.216020394773
 30
0.0
 11
315.8666633360772
 21
170.216020394773
 31
0.0
1001
ACME_LAYERS
1000
1
  0
LINE
  5
4FDE
330
1F
100
AcDbEntity
  8
P-0000
  6
Continuous
 62
     7
100
AcDbLine
 10
182.8666633360694
 20
185.216020394773
 30
0.0
 11
182.8666633360694
 21
170.216020394773
 31
0.0
1001
ACME_LAYERS
1000
1
  0
LINE
  5
4FDF
330
1F
100
AcDbEntity
  8
0
100
AcDbLine
 10
320.3922589530052
 20
370.0000008020938
 30
0.0
 11
388.6364381462982
 21
370.0000008020938
 31
0.0
  0
LINE
  5
4FE0
330
1F
100
AcDbEntity
  8
0
100
AcDbLine
 10
165.7653058034375
 20
373.9348275919344
 30
0.0
 11
175.3759630551108
 21
373.9348275919344
 31
0.0
  0
LINE
  5
4FE1
330
1F
100
AcDbEntity
  8
P-0000
  6
Continuous
 62
     7
100
AcDbLine
 10
162.7673231771659
 20
386.6964735919753
 30
0.0
 11
162.6953570146661
 21
386.6964735919753
 31
0.0
1001
ACME_LAYERS
1000
1
  0
LINE
  5
4FE2
330
1F
100
AcDbEntity
  8
P-0000
  6
Continuous
 62
     7
100
AcDbLine
 10
137.7673231771659
 20
387.1964735919761
 30
0.0
 11
138.2673231771659
 21
387.1964735919761
 31
0.0
1001
ACME_LAYERS
1000
1
  0
LINE
  5
4FE3
330
1F
100
AcDbEntity
  8
P-0000
  6
Continuous
 62
     7
100
AcDbLine
 10
136.9673231771653
 20
387.1964735919761
 30
0.0
 11
137.7673231771659
 21
387.1964735919761
 31
0.0
1001
ACME_LAYERS
1000
1
  0
LINE
  5
4FE4
330
1F
100
AcDbEntity
  8
P-0000
  6
Continuous
 62
     7
100
AcDbLine
 10
337.2847804148796
 20
386.6964735919753
 30
0.0
 11
337.3567465773808
 21
386.6964735919753
 31
0.0
1001
ACME_LAYERS
1000
1
  0
LINE
  5
4FE5
330
1F
100
AcDbEntity
  8
P-0000
  6
Continuous
 62
     7
100
AcDbLine
 10
138.7847804148782
 20
387.1964735919761
 30
0.0
 11
144.1960248169571
 21
387.1964735919761
 31
0.0
1001
ACME_LAYERS
1000
1
  0
LINE
  5
4FE6
330
1F
100
AcDbEntity
  8
P-0000
  6
Continuous
 62
     7
100
AcDbLine
 10
128.7847804148791
 20
387.1964735919761
 30
0.0
 11
138.7847804148782
 21
387.1964735919761
 31
0.0
1001
ACME_LAYERS
1000
1
  0
LINE
  5
4FE7
330
1F
100
AcDbEntity
  8
P-0000
  6
Continuous
 62
     7
100
AcDbLine
 10
144.1960248169571
 20
387.1964735919761
 30
0.0
 11
146.196024816958
 21
387.1964735919761
 31
0.0
1001
ACME_LAYERS
1000
1
  0
LINE
  5
4FE8
330
1F
100
AcDbEntity
  8
P-0000
  6
Continuous
 62
     7
100
AcDbLine
 10
159.3730183040801
 20
386.6964735919753
 30
0.0
 11
163.8187164175028
 21
386.6964735919753
 31
0.0
1001
ACME_LAYERS
1000
1
  0
LINE
  5
4FE9
330
1F
100
AcDbEntity
  8
P-0000
  6
Continuous
 62
     7
100
AcDbLine
 10
176.3730183040802
 20
386.6964735919753
 30
0.0
 11
172.3187164175042
 21
386.6964735919753
 31
0.0
1001
ACME_LAYERS
1000
1
  0
LINE
  5
4FEA
330
1F
100
AcDbEntity
  8
P-0000
  6
Continuous
 62
     7
100
AcDbLine
 10
164.6187164175021
 20
386.6964735919753
 30
0.0
 11
172.3187164175042
 21
386.6964735919753
 31
0.0
1001
ACME_LAYERS
1000
1
  0
LINE
  5
4FEB
330
1F
100
AcDbEntity
  8
P-0000
  6
Continuous
 62
     7
100
AcDbLine
 10
163.8187164175028
 20
386.6964735919753
 30
0.0
 11
164.6187164175021
 21
386.6964735919753
 31
0.0
1001
ACME_LAYERS
1000
1
  0
LINE
  5
4FEC
330
1F
100
AcDbEntity
  8
P-0000
  6
Continuous
 62
     7
100
AcDbLine
 10
323.7876890611224
 20
386.6964735919753
 30
0.0
 11
328.2333871745432
 21
386.6964735919753
 31
0.0
1001
ACME_LAYERS
1000
1
  0
LINE
  5
4FED
330
1F
100
AcDbEntity
  8
P-0000
  6
Continuous
 62
     7
100
AcDbLine
 10
340.787689061121
 20
386.6964735919753
 30
0.0
 11
336.7333871745432
 21
386.6964735919753
 31
0.0
1001
ACME_LAYERS
1000
1
  0
LINE
  5
4FEE
330
1F
100
AcDbEntity
  8
P-0000
  6
Continuous
 62
     7
100
AcDbLine
 10
329.0333871745434
 20
386.6964735919753
 30
0.0
 11
336.7333871745432
 21
386.6964735919753
 31
0.0
1001
ACME_LAYERS
1000
1
  0
LINE
  5
4FEF
330
1F
100
AcDbEntity
  8
P-0000
  6
Continuous
 62
     7
100
AcDbLine
 10
328.2333871745432
 20
386.6964735919753
 30
0.0
 11
329.0333871745434
 21
386.6964735919753
 31
0.0
1001
ACME_LAYERS
1000
1
  0
LINE
  5
4FF0
330
1F
100
AcDbEntity
  8
AM_7
  6
AM_DIN_G_W050x2
100
AcDbLine
 10
133.7282439707874
 20
388.2059207070199
 30
0.0
 11
133.7282439707874
 21
369.000000802077
 31
0.0
1001
GENIUS_GENOBJ-N-CEN_13
1002
{
1000
OWNER
1000
GEN
1002
}
1001
GENIUS_GENODEF_13
1002
{
1000
HIER
1070
     0
1002
}
1002
{
1000
MANEDIT
1070
     0
1002
}
1002
{
1000
NOSEL
1070
     0
1002
}
1002
{
1000
BEHIND
1070
     0
1002
}
1002
{
1000
OTHER
1070
     0
1002
}
1002
{
1000
REACTOR
1002
}
1001
GENIUS_GENCEN_19
1002
{
1040
3.0
1002
}
  0
LINE
  5
4FF1
330
1F
100
AcDbEntity
  8
P-0000
  6
STRICHPUNKT
 62
     3
100
AcDbLine
 10
249.9695153519324
 20
497.3805563768437
 30
0.0
 11
249.9695153519312
 21
0.0000008020931546
 31
0.0
1001
ACME_LAYERS
1000
1
  0
LINE
  5
4FF2
330
1F
100
AcDbEntity
  8
P-0000
  6
Continuous
 62
     7
100
AcDbLine
 10
162.7107867330742
 20
386.6964735918693
 30
0.0
 11
162.638820570573
 21
386.6964735918693
 31
0.0
1001
ACME_LAYERS
1000
1
  0
LINE
  5
4FF3
330
1F
100
AcDbEntity
  8
P-0000
  6
Continuous
 62
     7
100
AcDbLine
 10
137.7107867330742
 20
387.1964735918711
 30
0.0
 11
138.210786733076
 21
387.1964735918711
 31
0.0
1001
ACME_LAYERS
1000
1
  0
LINE
  5
4FF4
330
1F
100
AcDbEntity
  8
P-0000
  6
Continuous
 62
     7
100
AcDbLine
 10
136.9107867330754
 20
387.1964735918711
 30
0.0
 11
137.7107867330742
 21
387.1964735918711
 31
0.0
1001
ACME_LAYERS
1000
1
  0
LINE
  5
4FF5
330
1F
100
AcDbEntity
  8
P-0000
  6
Continuous
 62
     7
100
AcDbLine
 10
371.2282439707883
 20
389.19647359187
 30
0.0
 11
361.2282439707883
 21
389.19647359187
 31
0.0
1001
ACME_LAYERS
1000
1
  0
LINE
  5
4FF6
330
1F
100
AcDbEntity
  8
P-0000
  6
Continuous
 62
     7
100
AcDbLine
 10
369.428243970789
 20
400.3437550315823
 30
0.0
 11
366.2282439707884
 21
400.3437550315823
 31
0.0
1001
ACME_LAYERS
1000
1
  0
LINE
  5
4FF7
330
1F
100
AcDbEntity
  8
P-0000
  6
Continuous
 62
     7
100
AcDbLine
 10
363.0282439707885
 20
399.7437550315826
 30
0.0
 11
369.428243970789
 21
399.7437550315826
 31
0.0
1001
ACME_LAYERS
1000
1
  0
LINE
  5
4FF8
330
1F
100
AcDbEntity
  8
P-0000
  6
Continuous
 62
     7
100
AcDbLine
 10
370.2282439707884
 20
399.7437550315826
 30
0.0
 11
370.2282439707884
 21
396.796473591869
 31
0.0
1001
ACME_LAYERS
1000
1
  0
LINE
  5
4FF9
330
1F
100
AcDbEntity
  8
P-0000
  6
Continuous
 62
     3
100
AcDbLine
 10
369.428243970789
 20
400.3437550315823
 30
0.0
 11
369.428243970789
 21
396.796473591869
 31
0.0
1001
ACME_LAYERS
1000
1
  0
LINE
  5
4FFA
330
1F
100
AcDbEntity
  8
P-0000
  6
Continuous
 62
     7
100
AcDbLine
 10
369.428243970789
 20
399.7437550315826
 30
0.0
 11
370.2282439707884
 21
399.7437550315826
 31
0.0
1001
ACME_LAYERS
1000
1
  0
LINE
  5
4FFB
330
1F
100
AcDbEntity
  8
P-0000
  6
Continuous
 62
     3
100
AcDbLine
 10
369.428243970789
 20
400.3437550315823
 30
0.0
 11
369.428243970789
 21
399.7437550315826
 31
0.0
1001
ACME_LAYERS
1000
1
  0
LINE
  5
4FFC
330
1F
100
AcDbEntity
  8
P-0000
  6
Continuous
 62
     7
100
AcDbLine
 10
370.2282439707884
 20
399.7437550315826
 30
0.0
 11
369.428243970789
 21
400.3437550315823
 31
0.0
1001
ACME_LAYERS
1000
1
  0
LINE
  5
4FFD
330
1F
100
AcDbEntity
  8
P-0000
  6
Continuous
 62
     7
100
AcDbLine
 10
362.2282439707884
 20
399.7437550315826
 30
0.0
 11
362.2282439707884
 21
396.796473591869
 31
0.0
1001
ACME_LAYERS
1000
1
  0
LINE
  5
4FFE
330
1F
100
AcDbEntity
  8
P-0000
  6
STRICHPUNKT
 62
     3
100
AcDbLine
 10
366.2282439707884
 20
396.796473591869
 30
0.0
 11
366.2282439707884
 21
400.3437550315823
 31
0.0
1001
ACME_LAYERS
1000
1
  0
LINE
  5
4FFF
330
1F
100
AcDbEntity
  8
P-0000
  6
Continuous
 62
     3
100
AcDbLine
 10
363.0282439707885
 20
400.3437550315823
 30
0.0
 11
363.0282439707885
 21
396.796473591869
 31
0.0
1001
ACME_LAYERS
1000
1
  0
LINE
  5
5000
330
1F
100
AcDbEntity
  8
P-0000
  6
Continuous
 62
     3
100
AcDbLine
 10
363.0282439707885
 20
400.3437550315823
 30
0.0
 11
363.0282439707885
 21
399.7437550315826
 31
0.0
1001
ACME_LAYERS
1000
1
  0
LINE
  5
5001
330
1F
100
AcDbEntity
  8
P-0000
  6
Continuous
 62
     7
100
AcDbLine
 10
362.2282439707884
 20
399.7437550315826
 30
0.0
 11
363.0282439707885
 21
399.7437550315826
 31
0.0
1001
ACME_LAYERS
1000
1
  0
LINE
  5
5002
330
1F
100
AcDbEntity
  8
P-0000
  6
Continuous
 62
     7
100
AcDbLine
 10
363.0282439707885
 20
400.3437550315823
 30
0.0
 11
362.2282439707884
 21
399.7437550315826
 31
0.0
1001
ACME_LAYERS
1000
1
  0
LINE
  5
5003
330
1F
100
AcDbEntity
  8
P-0000
  6
Continuous
 62
     7
100
AcDbLine
 10
366.2282439707884
 20
400.3437550315823
 30
0.0
 11
363.0282439707885
 21
400.3437550315823
 31
0.0
1001
ACME_LAYERS
1000
1
  0
LINE
  5
5004
330
1F
100
AcDbEntity
  8
P-0000
  6
Continuous
 62
     7
100
AcDbLine
 10
362.2282439707892
 20
396.796473591869
 30
0.0
 11
369.428243970789
 21
396.796473591869
 31
0.0
1001
ACME_LAYERS
1000
1
  0
LINE
  5
5005
330
1F
100
AcDbEntity
  8
P-0000
  6
Continuous
 62
     7
100
AcDbLine
 10
369.428243970789
 20
396.796473591869
 30
0.0
 11
370.2282439707892
 21
396.796473591869
 31
0.0
1001
ACME_LAYERS
1000
1
  0
LINE
  5
5006
330
1F
100
AcDbEntity
  8
P-0000
  6
Continuous
 62
     7
100
AcDbLine
 10
374.6739420842083
 20
390.6964735918671
 30
0.0
 11
374.6739420842083
 21
389.19647359187
 31
0.0
1001
ACME_LAYERS
1000
1
  0
LINE
  5
5007
330
1F
100
AcDbEntity
  8
P-0000
  6
Continuous
 62
     7
100
AcDbLine
 10
357.6739420842092
 20
389.19647359187
 30
0.0
 11
357.6739420842092
 21
390.6964735918671
 31
0.0
1001
ACME_LAYERS
1000
1
  0
LINE
  5
5008
330
1F
100
AcDbEntity
  8
P-0000
  6
Continuous
 62
     7
100
AcDbLine
 10
337.2282439707892
 20
386.6964735918693
 30
0.0
 11
337.3002101332891
 21
386.6964735918693
 31
0.0
1001
ACME_LAYERS
1000
1
  0
LINE
  5
5009
330
1F
100
AcDbEntity
  8
P-0000
  6
Continuous
 62
     7
100
AcDbLine
 10
374.6739420842083
 20
390.7964735918676
 30
0.0
 11
374.6739420842083
 21
390.6964735918671
 31
0.0
1001
ACME_LAYERS
1000
1
  0
LINE
  5
500A
330
1F
100
AcDbEntity
  8
P-0000
  6
Continuous
 62
     7
100
AcDbLine
 10
357.6739420842092
 20
390.7964735918676
 30
0.0
 11
374.6739420842083
 21
390.7964735918676
 31
0.0
1001
ACME_LAYERS
1000
1
  0
LINE
  5
500B
330
1F
100
AcDbEntity
  8
P-0000
  6
Continuous
 62
     7
100
AcDbLine
 10
357.6739420842092
 20
390.6964735918671
 30
0.0
 11
357.6739420842092
 21
390.7964735918676
 31
0.0
1001
ACME_LAYERS
1000
1
  0
LINE
  5
500C
330
1F
100
AcDbEntity
  8
P-0000
  6
Continuous
 62
     7
100
AcDbLine
 10
358.7226904713221
 20
392.6834127837756
 30
0.0
 11
358.7226904713221
 21
391.3770301754682
 31
0.0
1001
ACME_LAYERS
1000
1
  0
LINE
  5
500D
330
1F
100
AcDbEntity
  8
P-0000
  6
Continuous
 62
     7
100
AcDbLine
 10
372.7282439707892
 20
390.7964735918676
 30
0.0
 11
359.7282439707892
 21
390.7964735918676
 31
0.0
1001
ACME_LAYERS
1000
1
  0
LINE
  5
500E
330
1F
100
AcDbEntity
  8
P-0000
  6
Continuous
 62
     7
100
AcDbLine
 10
373.7337974702532
 20
392.6834127837756
 30
0.0
 11
373.7337974702532
 21
391.3770301754682
 31
0.0
1001
ACME_LAYERS
1000
1
  0
LINE
  5
500F
330
1F
100
AcDbEntity
  8
P-0000
  6
Continuous
 62
     7
100
AcDbLine
 10
370.2282439707892
 20
396.796473591869
 30
0.0
 11
372.7282439707892
 21
396.796473591869
 31
0.0
1001
ACME_LAYERS
1000
1
  0
LINE
  5
5010
330
1F
100
AcDbEntity
  8
P-0000
  6
Continuous
 62
     7
100
AcDbLine
 10
358.9693620599796
 20
391.223617157503
 30
0.0
 11
359.7282439707892
 21
390.7964735918676
 31
0.0
1001
ACME_LAYERS
1000
1
  0
LINE
  5
5011
330
1F
100
AcDbEntity
  8
P-0000
  6
Continuous
 62
     7
100
AcDbLine
 10
358.9693620599796
 20
396.3693300262341
 30
0.0
 11
359.7282439707892
 21
396.796473591869
 31
0.0
1001
ACME_LAYERS
1000
1
  0
LINE
  5
5012
330
1F
100
AcDbEntity
  8
P-0000
  6
Continuous
 62
     7
100
AcDbLine
 10
373.4871258815951
 20
391.223617157503
 30
0.0
 11
372.7282439707892
 21
390.7964735918676
 31
0.0
1001
ACME_LAYERS
1000
1
  0
LINE
  5
5013
330
1F
100
AcDbEntity
  8
P-0000
  6
Continuous
 62
     7
100
AcDbLine
 10
373.4871258815951
 20
396.3693300262341
 30
0.0
 11
372.7282439707892
 21
396.796473591869
 31
0.0
1001
ACME_LAYERS
1000
1
  0
LINE
  5
5014
330
1F
100
AcDbEntity
  8
P-0000
  6
Continuous
 62
     7
100
AcDbLine
 10
359.7282439707892
 20
396.796473591869
 30
0.0
 11
362.2282439707892
 21
396.796473591869
 31
0.0
1001
ACME_LAYERS
1000
1
  0
LINE
  5
5015
330
1F
100
AcDbEntity
  8
P-0000
  6
Continuous
 62
     7
100
AcDbLine
 10
373.7337974702532
 20
396.2159170082671
 30
0.0
 11
373.7337974702532
 21
392.6834127837756
 31
0.0
1001
ACME_LAYERS
1000
1
  0
LINE
  5
5016
330
1F
100
AcDbEntity
  8
P-0000
  6
Continuous
 62
     7
100
AcDbLine
 10
369.9810207205211
 20
396.2159170082671
 30
0.0
 11
369.9810207205211
 21
390.7964735918676
 31
0.0
1001
ACME_LAYERS
1000
1
  0
LINE
  5
5017
330
1F
100
AcDbEntity
  8
P-0000
  6
Continuous
 62
     7
100
AcDbLine
 10
362.4754672210565
 20
396.2159170082671
 30
0.0
 11
362.4754672210565
 21
390.7964735918676
 31
0.0
1001
ACME_LAYERS
1000
1
  0
LINE
  5
5018
330
1F
100
AcDbEntity
  8
P-0000
  6
Continuous
 62
     7
100
AcDbLine
 10
358.7226904713221
 20
396.2159170082671
 30
0.0
 11
358.7226904713221
 21
392.6834127837756
 31
0.0
1001
ACME_LAYERS
1000
1
  0
LINE
  5
5019
330
1F
100
AcDbEntity
  8
P-0000
  6
Continuous
 62
     7
100
AcDbLine
 10
374.6739420842083
 20
389.19647359187
 30
0.0
 11
370.2282439707892
 21
389.19647359187
 31
0.0
1001
ACME_LAYERS
1000
1
  0
LINE
  5
501A
330
1F
100
AcDbEntity
  8
P-0000
  6
Continuous
 62
     7
100
AcDbLine
 10
357.6739420842092
 20
389.19647359187
 30
0.0
 11
361.7282439707873
 21
389.19647359187
 31
0.0
1001
ACME_LAYERS
1000
1
  0
LINE
  5
501B
330
1F
100
AcDbEntity
  8
P-0000
  6
Continuous
 62
     7
100
AcDbLine
 10
362.2282439707892
 20
387.1964735918711
 30
0.0
 11
361.7282439707873
 21
387.1964735918711
 31
0.0
1001
ACME_LAYERS
1000
1
  0
LINE
  5
501C
330
1F
100
AcDbEntity
  8
P-0000
  6
Continuous
 62
     7
100
AcDbLine
 10
363.0282439707885
 20
387.1964735918711
 30
0.0
 11
362.2282439707892
 21
387.1964735918711
 31
0.0
1001
ACME_LAYERS
1000
1
  0
LINE
  5
501D
330
1F
100
AcDbEntity
  8
P-0000
  6
Continuous
 62
     7
100
AcDbLine
 10
369.428243970789
 20
387.1964735918711
 30
0.0
 11
363.0282439707885
 21
387.1964735918711
 31
0.0
1001
ACME_LAYERS
1000
1
  0
LINE
  5
501E
330
1F
100
AcDbEntity
  8
P-0000
  6
Continuous
 62
     7
100
AcDbLine
 10
370.2282439707892
 20
387.1964735918711
 30
0.0
 11
369.428243970789
 21
387.1964735918711
 31
0.0
1001
ACME_LAYERS
1000
1
  0
ARC
  5
501F
330
1F
100
AcDbEntity
  8
P-0000
  6
Continuous
 62
     7
100
AcDbCircle
 10
366.2282439707892
 20
403.2159170082668
 30
0.0
 40
12.41944341639904
100
AcDbArc
 50
252.4120462260076
 51
287.5879537739924
1001
ACME_LAYERS
1000
1
  0
ARC
  5
5020
330
1F
100
AcDbEntity
  8
P-0000
  6
Continuous
 62
     7
100
AcDbCircle
 10
366.2282439707892
 20
384.3770301754691
 30
0.0
 40
12.41944341639904
100
AcDbArc
 50
72.41204622600756
 51
107.5879537739924
1001
ACME_LAYERS
1000
1
  0
ARC
  5
5021
330
1F
100
AcDbEntity
  8
P-0000
  6
Continuous
 62
     7
100
AcDbCircle
 10
360.5990788461881
 20
394.1190431648183
 30
0.0
 40
3.322569572950221
100
AcDbArc
 50
240.6266206051644
 51
304.3842474680531
1001
ACME_LAYERS
1000
1
  0
ARC
  5
5022
330
1F
100
AcDbEntity
  8
P-0000
  6
Continuous
 62
     7
100
AcDbCircle
 10
360.5990788461881
 20
393.4739040189165
 30
0.0
 40
3.322569572950149
100
AcDbArc
 50
119.3733793948355
 51
124.3842474680531
1001
ACME_LAYERS
1000
1
  0
ARC
  5
5023
330
1F
100
AcDbEntity
  8
P-0000
  6
Continuous
 62
     7
100
AcDbCircle
 10
371.8574090953853
 20
394.1190431648183
 30
0.0
 40
3.322569572950221
100
AcDbArc
 50
299.3733793948356
 51
304.3842474680531
1001
ACME_LAYERS
1000
1
  0
ARC
  5
5024
330
1F
100
AcDbEntity
  8
P-0000
  6
Continuous
 62
     7
100
AcDbCircle
 10
371.8574090953853
 20
393.473904018919
 30
0.0
 40
3.322569572949122
100
AcDbArc
 50
60.62662060516443
 51
124.3842474680243
1001
ACME_LAYERS
1000
1
  0
ARC
  5
5025
330
1F
100
AcDbEntity
  8
P-0000
  6
Continuous
 62
     7
100
AcDbCircle
 10
360.5990788461881
 20
394.1190431648183
 30
0.0
 40
3.322569572949876
100
AcDbArc
 50
235.6157525319468
 51
240.6266206051644
1001
ACME_LAYERS
1000
1
  0
ARC
  5
5026
330
1F
100
AcDbEntity
  8
P-0000
  6
Continuous
 62
     7
100
AcDbCircle
 10
360.5990788461881
 20
393.473904018919
 30
0.0
 40
3.322569572949888
100
AcDbArc
 50
55.61575253194686
 51
119.3733793948355
1001
ACME_LAYERS
1000
1
  0
ARC
  5
5027
330
1F
100
AcDbEntity
  8
P-0000
  6
Continuous
 62
     7
100
AcDbCircle
 10
371.8574090953853
 20
394.1190431648183
 30
0.0
 40
3.322569572949872
100
AcDbArc
 50
235.6157525319757
 51
299.3733793948356
1001
ACME_LAYERS
1000
1
  0
ARC
  5
5028
330
1F
100
AcDbEntity
  8
P-0000
  6
Continuous
 62
     7
100
AcDbCircle
 10
371.8574090953853
 20
393.473904018919
 30
0.0
 40
3.322569572949884
100
AcDbArc
 50
55.61575253194686
 51
60.62662060516443
1001
ACME_LAYERS
1000
1
  0
LINE
  5
5029
330
1F
100
AcDbEntity
  8
P-0000
  6
Continuous
 62
     7
100
AcDbLine
 10
138.7282439707883
 20
387.1964735918711
 30
0.0
 11
144.139488372867
 21
387.1964735918711
 31
0.0
1001
ACME_LAYERS
1000
1
  0
LINE
  5
502A
330
1F
100
AcDbEntity
  8
P-0000
  6
Continuous
 62
     7
100
AcDbLine
 10
128.7282439707883
 20
387.1964735918711
 30
0.0
 11
138.7282439707883
 21
387.1964735918711
 31
0.0
1001
ACME_LAYERS
1000
1
  0
LINE
  5
502B
330
1F
100
AcDbEntity
  8
P-0000
  6
Continuous
 62
     7
100
AcDbLine
 10
144.139488372867
 20
387.1964735918711
 30
0.0
 11
146.1394883728662
 21
387.1964735918711
 31
0.0
1001
ACME_LAYERS
1000
1
  0
LINE
  5
502C
330
1F
100
AcDbEntity
  8
P-0000
  6
Continuous
 62
     7
100
AcDbLine
 10
159.3164818599903
 20
386.6964735918693
 30
0.0
 11
163.7621799734111
 21
386.6964735918693
 31
0.0
1001
ACME_LAYERS
1000
1
  0
LINE
  5
502D
330
1F
100
AcDbEntity
  8
P-0000
  6
Continuous
 62
     7
100
AcDbLine
 10
176.3164818599903
 20
386.6964735918693
 30
0.0
 11
172.2621799734129
 21
386.6964735918693
 31
0.0
1001
ACME_LAYERS
1000
1
  0
LINE
  5
502E
330
1F
100
AcDbEntity
  8
P-0000
  6
Continuous
 62
     7
100
AcDbLine
 10
164.5621799734121
 20
386.6964735918693
 30
0.0
 11
172.2621799734129
 21
386.6964735918693
 31
0.0
1001
ACME_LAYERS
1000
1
  0
LINE
  5
502F
330
1F
100
AcDbEntity
  8
P-0000
  6
Continuous
 62
     7
100
AcDbLine
 10
163.7621799734111
 20
386.6964735918693
 30
0.0
 11
164.5621799734121
 21
386.6964735918693
 31
0.0
1001
ACME_LAYERS
1000
1
  0
LINE
  5
5030
330
1F
100
AcDbEntity
  8
P-0000
  6
Continuous
 62
     7
100
AcDbLine
 10
328.1768507304509
 20
397.1791412846301
 30
0.0
 11
328.1768507304509
 21
394.2964735918662
 31
0.0
1001
ACME_LAYERS
1000
1
  0
LINE
  5
5031
330
1F
100
AcDbEntity
  8
P-0000
  6
Continuous
 62
     3
100
AcDbLine
 10
328.9768507304511
 20
396.7172610692781
 30
0.0
 11
328.9768507304511
 21
394.2964735918662
 31
0.0
1001
ACME_LAYERS
1000
1
  0
LINE
  5
5032
330
1F
100
AcDbEntity
  8
P-0000
  6
Continuous
 62
     7
100
AcDbLine
 10
333.1697776356524
 20
394.2964735918662
 30
0.0
 11
328.9768507304521
 21
394.2964735918662
 31
0.0
1001
ACME_LAYERS
1000
1
  0
LINE
  5
5033
330
1F
100
AcDbEntity
  8
P-0000
  6
Continuous
 62
     7
100
AcDbLine
 10
328.9768507304521
 20
394.2964735918662
 30
0.0
 11
328.1768507304509
 21
394.2964735918662
 31
0.0
1001
ACME_LAYERS
1000
1
  0
LINE
  5
5034
330
1F
100
AcDbEntity
  8
P-0000
  6
Continuous
 62
     7
100
AcDbLine
 10
323.731152617031
 20
388.1964735918671
 30
0.0
 11
323.731152617031
 21
386.6964735918693
 31
0.0
1001
ACME_LAYERS
1000
1
  0
LINE
  5
5035
330
1F
100
AcDbEntity
  8
P-0000
  6
Continuous
 62
     7
100
AcDbLine
 10
340.7311526170301
 20
386.6964735918693
 30
0.0
 11
340.7311526170301
 21
388.1964735918671
 31
0.0
1001
ACME_LAYERS
1000
1
  0
LINE
  5
5036
330
1F
100
AcDbEntity
  8
P-0000
  6
Continuous
 62
     7
100
AcDbLine
 10
323.731152617031
 20
388.296473591867
 30
0.0
 11
323.731152617031
 21
388.1964735918671
 31
0.0
1001
ACME_LAYERS
1000
1
  0
LINE
  5
5037
330
1F
100
AcDbEntity
  8
P-0000
  6
Continuous
 62
     7
100
AcDbLine
 10
340.7311526170301
 20
388.296473591867
 30
0.0
 11
323.731152617031
 21
388.296473591867
 31
0.0
1001
ACME_LAYERS
1000
1
  0
LINE
  5
5038
330
1F
100
AcDbEntity
  8
P-0000
  6
Continuous
 62
     7
100
AcDbLine
 10
340.7311526170301
 20
388.1964735918671
 30
0.0
 11
340.7311526170301
 21
388.296473591867
 31
0.0
1001
ACME_LAYERS
1000
1
  0
LINE
  5
5039
330
1F
100
AcDbEntity
  8
P-0000
  6
Continuous
 62
     7
100
AcDbLine
 10
339.6824042299168
 20
390.1834127837731
 30
0.0
 11
339.6824042299168
 21
388.8770301754673
 31
0.0
1001
ACME_LAYERS
1000
1
  0
LINE
  5
503A
330
1F
100
AcDbEntity
  8
P-0000
  6
Continuous
 62
     7
100
AcDbLine
 10
325.6768507304505
 20
388.296473591867
 30
0.0
 11
338.6768507304509
 21
388.296473591867
 31
0.0
1001
ACME_LAYERS
1000
1
  0
LINE
  5
503B
330
1F
100
AcDbEntity
  8
P-0000
  6
Continuous
 62
     7
100
AcDbLine
 10
324.6712972309861
 20
390.1834127837731
 30
0.0
 11
324.6712972309861
 21
388.8770301754673
 31
0.0
1001
ACME_LAYERS
1000
1
  0
LINE
  5
503C
330
1F
100
AcDbEntity
  8
P-0000
  6
Continuous
 62
     7
100
AcDbLine
 10
328.1768507304509
 20
394.2964735918662
 30
0.0
 11
325.6768507304505
 21
394.2964735918662
 31
0.0
1001
ACME_LAYERS
1000
1
  0
LINE
  5
503D
330
1F
100
AcDbEntity
  8
P-0000
  6
Continuous
 62
     7
100
AcDbLine
 10
335.9296274801823
 20
390.1834127837731
 30
0.0
 11
335.9296274801823
 21
388.8770301754673
 31
0.0
1001
ACME_LAYERS
1000
1
  0
LINE
  5
503E
330
1F
100
AcDbEntity
  8
P-0000
  6
Continuous
 62
     7
100
AcDbLine
 10
328.4240739807196
 20
390.1834127837731
 30
0.0
 11
328.4240739807196
 21
388.8770301754673
 31
0.0
1001
ACME_LAYERS
1000
1
  0
LINE
  5
503F
330
1F
100
AcDbEntity
  8
P-0000
  6
Continuous
 62
     7
100
AcDbLine
 10
339.435732641261
 20
388.7236171575012
 30
0.0
 11
338.6768507304509
 21
388.296473591867
 31
0.0
1001
ACME_LAYERS
1000
1
  0
LINE
  5
5040
330
1F
100
AcDbEntity
  8
P-0000
  6
Continuous
 62
     7
100
AcDbLine
 10
324.9179688196436
 20
388.7236171575012
 30
0.0
 11
325.6768507304505
 21
388.296473591867
 31
0.0
1001
ACME_LAYERS
1000
1
  0
LINE
  5
5041
330
1F
100
AcDbEntity
  8
P-0000
  6
Continuous
 62
     7
100
AcDbLine
 10
324.9179688196436
 20
393.8693300262307
 30
0.0
 11
325.6768507304505
 21
394.2964735918662
 31
0.0
1001
ACME_LAYERS
1000
1
  0
LINE
  5
5042
330
1F
100
AcDbEntity
  8
P-0000
  6
Continuous
 62
     7
100
AcDbLine
 10
324.6712972309861
 20
393.7159170082662
 30
0.0
 11
324.6712972309861
 21
390.1834127837731
 31
0.0
1001
ACME_LAYERS
1000
1
  0
LINE
  5
5043
330
1F
100
AcDbEntity
  8
P-0000
  6
Continuous
 62
     7
100
AcDbLine
 10
328.4240739807196
 20
393.7159170082662
 30
0.0
 11
328.4240739807196
 21
390.1834127837731
 31
0.0
1001
ACME_LAYERS
1000
1
  0
LINE
  5
5044
330
1F
100
AcDbEntity
  8
P-0000
  6
Continuous
 62
     7
100
AcDbLine
 10
335.9296274801823
 20
392.7030735412052
 30
0.0
 11
335.9296274801823
 21
390.1834127837731
 31
0.0
1001
ACME_LAYERS
1000
1
  0
LINE
  5
5045
330
1F
100
AcDbEntity
  8
P-0000
  6
Continuous
 62
     7
100
AcDbLine
 10
339.6824042299168
 20
390.5364068745378
 30
0.0
 11
339.6824042299168
 21
390.1834127837731
 31
0.0
1001
ACME_LAYERS
1000
1
  0
LINE
  5
5046
330
1F
100
AcDbEntity
  8
P-0000
  6
Continuous
 62
     7
100
AcDbLine
 10
323.731152617031
 20
386.6964735918693
 30
0.0
 11
328.1768507304509
 21
386.6964735918693
 31
0.0
1001
ACME_LAYERS
1000
1
  0
LINE
  5
5047
330
1F
100
AcDbEntity
  8
P-0000
  6
Continuous
 62
     7
100
AcDbLine
 10
340.7311526170301
 20
386.6964735918693
 30
0.0
 11
336.6768507304532
 21
386.6964735918693
 31
0.0
1001
ACME_LAYERS
1000
1
  0
LINE
  5
5048
330
1F
100
AcDbEntity
  8
P-0000
  6
Continuous
 62
     7
100
AcDbLine
 10
328.9768507304521
 20
386.6964735918693
 30
0.0
 11
336.6768507304532
 21
386.6964735918693
 31
0.0
1001
ACME_LAYERS
1000
1
  0
LINE
  5
5049
330
1F
100
AcDbEntity
  8
P-0000
  6
Continuous
 62
     7
100
AcDbLine
 10
328.1768507304509
 20
386.6964735918693
 30
0.0
 11
328.9768507304521
 21
386.6964735918693
 31
0.0
1001
ACME_LAYERS
1000
1
  0
ARC
  5
504A
330
1F
100
AcDbEntity
  8
P-0000
  6
Continuous
 62
     7
100
AcDbCircle
 10
332.1768507304491
 20
400.7159170082651
 30
0.0
 40
12.41944341639904
100
AcDbArc
 50
252.4120462260076
 51
287.5879537739924
1001
ACME_LAYERS
1000
1
  0
ARC
  5
504B
330
1F
100
AcDbEntity
  8
P-0000
  6
Continuous
 62
     7
100
AcDbCircle
 10
332.1768507304491
 20
381.8770301754672
 30
0.0
 40
12.41944341639904
100
AcDbArc
 50
85.04168193073009
 51
107.5879537739924
1001
ACME_LAYERS
1000
1
  0
ARC
  5
504C
330
1F
100
AcDbEntity
  8
P-0000
  6
Continuous
 62
     7
100
AcDbCircle
 10
337.8060158550497
 20
391.6190431648156
 30
0.0
 40
3.322569572950221
100
AcDbArc
 50
235.6157525319468
 51
299.3733793948356
1001
ACME_LAYERS
1000
1
  0
ARC
  5
504D
330
1F
100
AcDbEntity
  8
P-0000
  6
Continuous
 62
     7
100
AcDbCircle
 10
326.5476856058531
 20
391.6190431648156
 30
0.0
 40
3.322569572950221
100
AcDbArc
 50
235.6157525319468
 51
240.6266206051644
1001
ACME_LAYERS
1000
1
  0
ARC
  5
504E
330
1F
100
AcDbEntity
  8
P-0000
  6
Continuous
 62
     7
100
AcDbCircle
 10
326.5476856058531
 20
390.9739040189165
 30
0.0
 40
3.322569572949122
100
AcDbArc
 50
55.61575253197573
 51
119.3733793948355
1001
ACME_LAYERS
1000
1
  0
ARC
  5
504F
330
1F
100
AcDbEntity
  8
P-0000
  6
Continuous
 62
     7
100
AcDbCircle
 10
337.8060158550497
 20
391.6190431648156
 30
0.0
 40
3.322569572949876
100
AcDbArc
 50
299.3733793948356
 51
304.3842474680531
1001
ACME_LAYERS
1000
1
  0
ARC
  5
5050
330
1F
100
AcDbEntity
  8
P-0000
  6
Continuous
 62
     7
100
AcDbCircle
 10
326.5476856058531
 20
391.6190431648156
 30
0.0
 40
3.322569572949872
100
AcDbArc
 50
240.6266206051644
 51
304.3842474680243
1001
ACME_LAYERS
1000
1
  0
ARC
  5
5051
330
1F
100
AcDbEntity
  8
P-0000
  6
Continuous
 62
     7
100
AcDbCircle
 10
326.5476856058531
 20
390.9739040189165
 30
0.0
 40
3.322569572949884
100
AcDbArc
 50
119.3733793948355
 51
124.3842474680531
1001
ACME_LAYERS
1000
1
  0
HATCH
  5
5052
330
1F
100
AcDbEntity
  8
P-0000
  6
Continuous
 62
     1
100
AcDbHatch
 10
0.0
 20
0.0
 30
0.0
210
0.0
220
0.0
230
1.0
  2
_U
 70
     0
 71
     0
 91
        1
 92
        1
 93
       16
 72
     1
 10
334.4782439707965
 20
406.19082229344
 11
334.4782439707965
 21
406.141650710458
 72
     1
 10
334.4782439707965
 20
406.141650710458
 11
334.9782439707965
 21
406.141650710458
 72
     1
 10
334.9782439707965
 20
406.141650710458
 11
334.9782439707965
 21
404.19082229344
 72
     1
 10
334.9782439707965
 20
404.19082229344
 11
342.0391351391099
 21
404.19082229344
 72
     2
 10
342.0391351391099
 20
403.6908222934401
 40
0.5
 50
270.0
 51
360.0
 73
     0
 72
     1
 10
342.5391351391113
 20
403.6908222934401
 11
342.5391351391113
 21
391.19647359187
 72
     2
 10
346.5391351391113
 20
391.1964735918711
 40
4.000000000000068
 50
180.0
 51
270.0
 73
     1
 72
     1
 10
346.5391351391113
 20
387.1964735918711
 11
361.2282439707883
 21
387.1964735918711
 72
     1
 10
361.2282439707883
 20
387.1964735918711
 11
361.2282439707883
 21
389.19647359187
 72
     1
 10
361.2282439707883
 20
389.19647359187
 11
346.4782439707965
 21
389.19647359187
 72
     2
 10
346.4782439707965
 20
391.1964735918711
 40
1.999999999999999
 50
90.0
 51
180.0
 73
     0
 72
     1
 10
344.4782439707965
 20
391.1964735918711
 11
344.4782439707965
 21
408.69082229344
 72
     1
 10
344.4782439707965
 20
408.69082229344
 11
342.4782439707965
 21
408.69082229344
 72
     1
 10
342.4782439707965
 20
408.69082229344
 11
342.4782439707965
 21
406.6908222934394
 72
     2
 10
341.9782439707969
 20
406.6908222934391
 40
0.5
 50
360.0
 51
450.0
 73
     0
 72
     1
 10
341.9782439707969
 20
406.19082229344
 11
334.4782439707965
 21
406.19082229344
 97
        0
 75
     0
 76
     0
 52
-45.0
 41
2.0
 77
     0
 78
     1
 53
315.0
 43
375.4173528024803
 44
-102.2248460496587
 45
1.414213562373094
 46
1.414213562373094
 79
     0
 98
        1
 10
375.4173528024803
 20
-102.2248460496587
1001
ACME_LAYERS
1000
1
  0
LINE
  5
5053
330
1F
100
AcDbEntity
  8
P-0000
  6
Continuous
 62
     7
100
AcDbLine
 10
314.4782439707883
 20
408.69082229344
 30
0.0
 11
317.2539469856592
 21
408.69082229344
 31
0.0
1001
ACME_LAYERS
1000
1
  0
LINE
  5
5054
330
1F
100
AcDbEntity
  8
P-0000
  6
Continuous
 62
     7
100
AcDbLine
 10
333.9405235139152
 20
408.69082229344
 30
0.0
 11
342.4782439707965
 21
408.69082229344
 31
0.0
1001
ACME_LAYERS
1000
1
  0
LINE
  5
5055
330
1F
100
AcDbEntity
  8
P-0000
  6
Continuous
 62
     7
100
AcDbLine
 10
316.0322629767252
 20
404.19082229344
 30
0.0
 11
344.5391351391113
 21
387.7323719767321
 31
0.0
1001
ACME_LAYERS
1000
1
  0
LINE
  5
5056
330
1F
100
AcDbEntity
  8
P-0000
  6
Continuous
 62
     7
100
AcDbLine
 10
342.0391351391099
 20
404.19082229344
 30
0.0
 11
334.9782439707965
 21
404.19082229344
 31
0.0
1001
ACME_LAYERS
1000
1
  0
LINE
  5
5057
330
1F
100
AcDbEntity
  8
P-0000
  6
Continuous
 62
     7
100
AcDbLine
 10
334.4782439707965
 20
406.19082229344
 30
0.0
 11
341.9782439707969
 21
406.19082229344
 31
0.0
1001
ACME_LAYERS
1000
1
  0
LINE
  5
5058
330
1F
100
AcDbEntity
  8
P-0000
  6
Continuous
 62
     7
100
AcDbLine
 10
249.4880042025165
 20
408.69082229344
 30
0.0
 11
314.4782439707883
 21
408.69082229344
 31
0.0
1001
ACME_LAYERS
1000
1
  0
LINE
  5
5059
330
1F
100
AcDbEntity
  8
P-0000
  6
Continuous
 62
     7
100
AcDbLine
 10
249.4880042025165
 20
406.19082229344
 30
0.0
 11
304.4782439707969
 21
406.19082229344
 31
0.0
1001
ACME_LAYERS
1000
1
  0
LINE
  5
505A
330
1F
100
AcDbEntity
  8
P-0000
  6
Continuous
 62
     7
100
AcDbLine
 10
259.4782439708033
 20
404.19082229344
 30
0.0
 11
310.4782439707883
 21
404.19082229344
 31
0.0
1001
ACME_LAYERS
1000
1
  0
LINE
  5
505B
330
1F
100
AcDbEntity
  8
P-0000
  6
Continuous
 62
     7
100
AcDbLine
 10
250.4880042025324
 20
406.19082229344
 30
0.0
 11
259.470259778333
 21
406.19082229344
 31
0.0
1001
ACME_LAYERS
1000
1
  0
LINE
  5
505C
330
1F
100
AcDbEntity
  8
P-0000
  6
STRICHPUNKT
 62
     3
100
AcDbLine
 10
249.468483739075
 20
404.19082229344
 30
0.0
 11
249.468483739075
 21
406.19082229344
 31
0.0
1001
ACME_LAYERS
1000
1
  0
LINE
  5
505D
330
1F
100
AcDbEntity
  8
P-0000
  6
STRICHPUNKT
 62
     3
100
AcDbLine
 10
249.4880042025334
 20
406.19082229344
 30
0.0
 11
249.4880042025334
 21
404.19082229344
 31
0.0
1001
ACME_LAYERS
1000
1
  0
LINE
  5
505E
330
1F
100
AcDbEntity
  8
P-0000
  6
Continuous
 62
     7
100
AcDbLine
 10
249.4880042025334
 20
406.19082229344
 30
0.0
 11
250.4880042025324
 21
406.19082229344
 31
0.0
1001
ACME_LAYERS
1000
1
  0
HATCH
  5
505F
330
1F
100
AcDbEntity
  8
P-0000
  6
Continuous
 62
     1
100
AcDbHatch
 10
0.0
 20
0.0
 30
0.0
210
0.0
220
0.0
230
1.0
  2
_U
 70
     0
 71
     0
 91
        1
 92
        1
 93
       11
 72
     1
 10
314.9782439707883
 20
406.19082229344
 11
326.4782439707965
 21
406.19082229344
 72
     1
 10
326.4782439707965
 20
406.19082229344
 11
326.4782439707965
 21
404.19082229344
 72
     1
 10
326.4782439707965
 20
404.19082229344
 11
316.0322629767252
 21
404.19082229344
 72
     1
 10
316.0322629767252
 20
404.19082229344
 11
310.4782439707874
 21
404.19082229344
 72
     1
 10
310.4782439707883
 20
404.19082229344
 11
310.4782439707883
 21
406.19082229344
 72
     1
 10
310.4782439707883
 20
406.19082229344
 11
311.9782439707883
 21
406.19082229344
 72
     2
 10
311.9782439707883
 20
406.6908222934391
 40
0.5
 50
-90.00000000000001
 51
-0.0000000000000127
 73
     1
 72
     1
 10
312.4782439707883
 20
406.6908222934391
 11
312.4782439707883
 21
408.69082229344
 72
     1
 10
312.4782439707883
 20
408.69082229344
 11
314.4782439707883
 21
408.69082229344
 72
     1
 10
314.4782439707883
 20
408.69082229344
 11
314.4782439707883
 21
406.6908222934394
 72
     2
 10
314.9782439707883
 20
406.6908222934391
 40
0.5
 50
180.0
 51
270.0
 73
     1
 97
        0
 75
     0
 76
     0
 52
-45.0
 41
2.0
 77
     0
 78
     1
 53
315.0
 43
20.79864868569893
 44
466.735213166017
 45
1.414213562373094
 46
1.414213562373094
 79
     0
 98
        1
 10
375.4173528024803
 20
-102.2248460496587
1001
ACME_LAYERS
1000
1
  0
LINE
  5
5060
330
1F
100
AcDbEntity
  8
P-0000
  6
Continuous
 62
     7
100
AcDbLine
 10
314.9782439707883
 20
406.19082229344
 30
0.0
 11
326.4782439707965
 21
406.19082229344
 31
0.0
1001
ACME_LAYERS
1000
1
  0
LINE
  5
5061
330
1F
100
AcDbEntity
  8
P-0000
  6
Continuous
 62
     7
100
AcDbLine
 10
310.4782439707883
 20
404.19082229344
 30
0.0
 11
316.0322629767252
 21
404.19082229344
 31
0.0
1001
ACME_LAYERS
1000
1
  0
LINE
  5
5062
330
1F
100
AcDbEntity
  8
P-0000
  6
Continuous
 62
     7
100
AcDbLine
 10
304.4782439707969
 20
406.19082229344
 30
0.0
 11
310.4782439707883
 21
406.19082229344
 31
0.0
1001
ACME_LAYERS
1000
1
  0
LINE
  5
5063
330
1F
100
AcDbEntity
  8
P-0000
  6
Continuous
 62
     7
100
AcDbLine
 10
310.4782439707883
 20
404.19082229344
 30
0.0
 11
310.4782439707883
 21
406.19082229344
 31
0.0
1001
ACME_LAYERS
1000
1
  0
LINE
  5
5064
330
1F
100
AcDbEntity
  8
P-0000
  6
Continuous
 62
     7
100
AcDbLine
 10
310.4782439707883
 20
406.19082229344
 30
0.0
 11
311.9782439707883
 21
406.19082229344
 31
0.0
1001
ACME_LAYERS
1000
1
  0
LINE
  5
5065
330
1F
100
AcDbEntity
  8
P-0000
  6
Continuous
 62
     7
100
AcDbLine
 10
314.4782439707883
 20
406.6908222934391
 30
0.0
 11
314.4782439707883
 21
408.69082229344
 31
0.0
1001
ACME_LAYERS
1000
1
  0
LINE
  5
5066
330
1F
100
AcDbEntity
  8
P-0000
  6
Continuous
 62
     7
100
AcDbLine
 10
312.4782439707883
 20
406.6908222934391
 30
0.0
 11
312.4782439707883
 21
408.69082229344
 31
0.0
1001
ACME_LAYERS
1000
1
  0
LINE
  5
5067
330
1F
100
AcDbEntity
  8
P-0000
  6
Continuous
 62
     7
100
AcDbLine
 10
314.4782439707883
 20
408.69082229344
 30
0.0
 11
312.4782439707883
 21
408.69082229344
 31
0.0
1001
ACME_LAYERS
1000
1
  0
ARC
  5
5068
330
1F
100
AcDbEntity
  8
P-0000
  6
Continuous
 62
     7
100
AcDbCircle
 10
314.9782439707883
 20
406.6908222934391
 30
0.0
 40
0.5
100
AcDbArc
 50
180.0
 51
270.0
1001
ACME_LAYERS
1000
1
  0
ARC
  5
5069
330
1F
100
AcDbEntity
  8
P-0000
  6
Continuous
 62
     7
100
AcDbCircle
 10
311.9782439707883
 20
406.6908222934391
 30
0.0
 40
0.5
100
AcDbArc
 50
270.0
 51
0.0
1001
ACME_LAYERS
1000
1
  0
LINE
  5
506A
330
1F
100
AcDbEntity
  8
P-0000
  6
Continuous
 62
     7
100
AcDbLine
 10
330.189074575856
 20
404.19082229344
 30
0.0
 11
326.4782439707965
 21
404.19082229344
 31
0.0
1001
ACME_LAYERS
1000
1
  0
LINE
  5
506B
330
1F
100
AcDbEntity
  8
P-0000
  6
Continuous
 62
     7
100
AcDbLine
 10
326.4782439707965
 20
406.19082229344
 30
0.0
 11
334.4782439707965
 21
406.19082229344
 31
0.0
1001
ACME_LAYERS
1000
1
  0
LINE
  5
506C
330
1F
100
AcDbEntity
  8
P-0000
  6
Continuous
 62
     7
100
AcDbLine
 10
326.4782439707965
 20
404.19082229344
 30
0.0
 11
316.0322629767252
 21
404.19082229344
 31
0.0
1001
ACME_LAYERS
1000
1
  0
LINE
  5
506D
330
1F
100
AcDbEntity
  8
P-0000
  6
Continuous
 62
     7
100
AcDbLine
 10
326.4782439707965
 20
406.19082229344
 30
0.0
 11
326.4782439707965
 21
404.19082229344
 31
0.0
1001
ACME_LAYERS
1000
1
  0
LINE
  5
506E
330
1F
100
AcDbEntity
  8
P-0000
  6
Continuous
 62
     7
100
AcDbLine
 10
331.9880042025184
 20
406.19082229344
 30
0.0
 11
332.9880042025184
 21
406.19082229344
 31
0.0
1001
ACME_LAYERS
1000
1
  0
LINE
  5
506F
330
1F
100
AcDbEntity
  8
P-0000
  6
Continuous
 62
     7
100
AcDbLine
 10
331.9880042025184
 20
406.19082229344
 30
0.0
 11
332.9880042025184
 21
406.19082229344
 31
0.0
1001
ACME_LAYERS
1000
1
  0
LINE
  5
5070
330
1F
100
AcDbEntity
  8
P-0000
  6
Continuous
 62
     7
100
AcDbLine
 10
371.2282439707869
 20
389.19647359187
 30
0.0
 11
361.2282439707883
 21
389.19647359187
 31
0.0
1001
ACME_LAYERS
1000
1
  0
LINE
  5
5071
330
1F
100
AcDbEntity
  8
P-0000
  6
Continuous
 62
     7
100
AcDbLine
 10
371.2282439707869
 20
387.1964735918711
 30
0.0
 11
361.2282439707883
 21
387.1964735918711
 31
0.0
1001
ACME_LAYERS
1000
1
  0
LINE
  5
5072
330
1F
100
AcDbEntity
  8
P-0000
  6
Continuous
 62
     7
100
AcDbLine
 10
342.5391351391113
 20
391.1964735918711
 30
0.0
 11
342.5391351391113
 21
403.6908222934401
 31
0.0
1001
ACME_LAYERS
1000
1
  0
LINE
  5
5073
330
1F
100
AcDbEntity
  8
P-0000
  6
Continuous
 62
     7
100
AcDbLine
 10
344.4782439707965
 20
391.1964735918711
 30
0.0
 11
344.4782439707965
 21
406.19082229344
 31
0.0
1001
ACME_LAYERS
1000
1
  0
LINE
  5
5074
330
1F
100
AcDbEntity
  8
P-0000
  6
Continuous
 62
     7
100
AcDbLine
 10
354.28993576835
 20
389.19647359187
 30
0.0
 11
344.4782439707965
 21
406.19082229344
 31
0.0
1001
ACME_LAYERS
1000
1
  0
LINE
  5
5075
330
1F
100
AcDbEntity
  8
P-0000
  6
Continuous
 62
     7
100
AcDbLine
 10
344.4782439707965
 20
408.69082229344
 30
0.0
 11
342.4782439707965
 21
408.69082229344
 31
0.0
1001
ACME_LAYERS
1000
1
  0
LINE
  5
5076
330
1F
100
AcDbEntity
  8
P-0000
  6
Continuous
 62
     7
100
AcDbLine
 10
342.4782439707965
 20
408.69082229344
 30
0.0
 11
342.4782439707965
 21
406.6908222934391
 31
0.0
1001
ACME_LAYERS
1000
1
  0
ARC
  5
5077
330
1F
100
AcDbEntity
  8
P-0000
  6
Continuous
 62
     7
100
AcDbCircle
 10
341.9782439707969
 20
406.6908222934391
 30
0.0
 40
0.5
100
AcDbArc
 50
270.0
 51
0.0
1001
ACME_LAYERS
1000
1
  0
ARC
  5
5078
330
1F
100
AcDbEntity
  8
P-0000
  6
Continuous
 62
     7
100
AcDbCircle
 10
342.0391351391099
 20
403.6908222934401
 30
0.0
 40
0.5
100
AcDbArc
 50
0.0
 51
90.0
1001
ACME_LAYERS
1000
1
  0
LINE
  5
5079
330
1F
100
AcDbEntity
  8
P-0000
  6
Continuous
 62
     7
100
AcDbLine
 10
344.4782439707965
 20
408.69082229344
 30
0.0
 11
344.4782439707965
 21
406.19082229344
 31
0.0
1001
ACME_LAYERS
1000
1
  0
LINE
  5
507A
330
1F
100
AcDbEntity
  8
P-0000
  6
Continuous
 62
     7
100
AcDbLine
 10
354.28993576835
 20
389.19647359187
 30
0.0
 11
346.4782439707965
 21
389.19647359187
 31
0.0
1001
ACME_LAYERS
1000
1
  0
LINE
  5
507B
330
1F
100
AcDbEntity
  8
P-0000
  6
Continuous
 62
     7
100
AcDbLine
 10
361.2282439707883
 20
387.1964735918711
 30
0.0
 11
346.5391351391113
 21
387.1964735918711
 31
0.0
1001
ACME_LAYERS
1000
1
  0
ARC
  5
507C
330
1F
100
AcDbEntity
  8
P-0000
  6
Continuous
 62
     7
100
AcDbCircle
 10
346.4782439707965
 20
391.1964735918711
 30
0.0
 40
2.0
100
AcDbArc
 50
180.0
 51
270.0
1001
ACME_LAYERS
1000
1
  0
ARC
  5
507D
330
1F
100
AcDbEntity
  8
P-0000
  6
Continuous
 62
     7
100
AcDbCircle
 10
346.5391351391113
 20
391.1964735918711
 30
0.0
 40
4.0
100
AcDbArc
 50
180.0
 51
240.0000000000027
1001
ACME_LAYERS
1000
1
  0
ARC
  5
507E
330
1F
100
AcDbEntity
  8
P-0000
  6
Continuous
 62
     7
100
AcDbCircle
 10
346.5391351391113
 20
391.1964735918711
 30
0.0
 40
4.000000000000031
100
AcDbArc
 50
240.0000000000027
 51
270.0
1001
ACME_LAYERS
1000
1
  0
LINE
  5
507F
330
1F
100
AcDbEntity
  8
P-0000
  6
Continuous
 62
     7
100
AcDbLine
 10
361.2282439707883
 20
389.19647359187
 30
0.0
 11
354.28993576835
 21
389.19647359187
 31
0.0
1001
ACME_LAYERS
1000
1
  0
LINE
  5
5080
330
1F
100
AcDbEntity
  8
P-0000
  6
Continuous
 62
     7
100
AcDbLine
 10
361.2282439707883
 20
387.1964735918711
 30
0.0
 11
361.2282439707883
 21
389.19647359187
 31
0.0
1001
ACME_LAYERS
1000
1
  0
HATCH
  5
5081
330
1F
100
AcDbEntity
  8
P-0000
  6
Continuous
 62
     1
100
AcDbHatch
 10
0.0
 20
0.0
 30
0.0
210
0.0
220
0.0
230
1.0
  2
_U
 70
     0
 71
     0
 91
        1
 92
        1
 93
        4
 72
     1
 10
376.2282439707884
 20
387.1964735918711
 11
371.2282439707869
 21
387.1964735918711
 72
     1
 10
371.2282439707869
 20
387.1964735918711
 11
371.2282439707869
 21
389.19647359187
 72
     1
 10
371.2282439707869
 20
389.19647359187
 11
376.2282439707878
 21
389.19647359187
 72
     1
 10
376.2282439707884
 20
389.19647359187
 11
376.2282439707884
 21
387.1964735918709
 97
        0
 75
     0
 76
     0
 52
-45.0
 41
2.0
 77
     0
 78
     1
 53
315.0
 43
375.4173528024803
 44
-102.2248460496587
 45
1.414213562373094
 46
1.414213562373094
 79
     0
 98
        1
 10
375.4173528024803
 20
-102.2248460496587
1001
ACME_LAYERS
1000
1
  0
LINE
  5
5082
330
1F
100
AcDbEntity
  8
P-0000
  6
Continuous
 62
     7
100
AcDbLine
 10
376.2282439707884
 20
389.19647359187
 30
0.0
 11
371.2282439707869
 21
389.19647359187
 31
0.0
1001
ACME_LAYERS
1000
1
  0
LINE
  5
5083
330
1F
100
AcDbEntity
  8
P-0000
  6
Continuous
 62
     7
100
AcDbLine
 10
376.2282439707884
 20
387.1964735918711
 30
0.0
 11
371.2282439707869
 21
387.1964735918711
 31
0.0
1001
ACME_LAYERS
1000
1
  0
LINE
  5
5084
330
1F
100
AcDbEntity
  8
P-0000
  6
Continuous
 62
     7
100
AcDbLine
 10
371.2282439707869
 20
387.1964735918711
 30
0.0
 11
371.2282439707869
 21
389.19647359187
 31
0.0
1001
ACME_LAYERS
1000
1
  0
LINE
  5
5085
330
1F
100
AcDbEntity
  8
P-0000
  6
Continuous
 62
     7
100
AcDbLine
 10
376.2282439707884
 20
387.1964735918711
 30
0.0
 11
376.2282439707884
 21
389.19647359187
 31
0.0
1001
ACME_LAYERS
1000
1
  0
LINE
  5
5086
330
1F
100
AcDbEntity
  8
P-0000
  6
Continuous
 62
     7
100
AcDbLine
 10
250.9782439707965
 20
448.141650710457
 30
0.0
 11
250.9782439707965
 21
412.1416507104568
 31
0.0
1001
ACME_LAYERS
1000
1
  0
LINE
  5
5087
330
1F
100
AcDbEntity
  8
P-0000
  6
Continuous
 62
     7
100
AcDbLine
 10
325.9259143817753
 20
430.7107799097457
 30
0.0
 11
326.9047035980602
 21
428.0215786395983
 31
0.0
1001
ACME_LAYERS
1000
1
  0
LINE
  5
5088
330
1F
100
AcDbEntity
  8
P-0000
  6
Continuous
 62
     7
100
AcDbLine
 10
317.253946985661
 20
412.1416507104568
 30
0.0
 11
304.1510185520751
 21
448.141650710457
 31
0.0
1001
ACME_LAYERS
1000
1
  0
LINE
  5
5089
330
1F
100
AcDbEntity
  8
P-0000
  6
Continuous
 62
     7
100
AcDbLine
 10
250.9782439707965
 20
454.1112998100891
 30
0.0
 11
301.9782439707965
 21
454.1112998100891
 31
0.0
1001
ACME_LAYERS
1000
1
  0
LINE
  5
508A
330
1F
100
AcDbEntity
  8
P-0000
  6
Continuous
 62
     7
100
AcDbLine
 10
250.9782439707965
 20
454.1112998100891
 30
0.0
 11
301.9782439707965
 21
454.1112998100891
 31
0.0
1001
ACME_LAYERS
1000
1
  0
LINE
  5
508B
330
1F
100
AcDbEntity
  8
P-0000
  6
Continuous
 62
     7
100
AcDbLine
 10
297.3482368923455
 20
486.1416507104578
 30
0.0
 11
290.3201496499591
 21
486.1416507104578
 31
0.0
1001
ACME_LAYERS
1000
1
  0
LINE
  5
508C
330
1F
100
AcDbEntity
  8
P-0000
  6
Continuous
 62
     7
100
AcDbLine
 10
302.9782439707965
 20
448.141650710457
 30
0.0
 11
250.9782439707965
 21
448.141650710457
 31
0.0
1001
ACME_LAYERS
1000
1
  0
LINE
  5
508D
330
1F
100
AcDbEntity
  8
P-0000
  6
Continuous
 62
     7
100
AcDbLine
 10
295.7797031639529
 20
471.1416507104567
 30
0.0
 11
253.5824070268304
 21
471.1416507104567
 31
0.0
1001
ACME_LAYERS
1000
1
  0
LINE
  5
508E
330
1F
100
AcDbEntity
  8
P-0000
  6
Continuous
 62
     7
100
AcDbLine
 10
250.9782439707965
 20
471.1416507104567
 30
0.0
 11
250.9782439707965
 21
454.1112998100891
 31
0.0
1001
ACME_LAYERS
1000
1
  0
LINE
  5
508F
330
1F
100
AcDbEntity
  8
P-0000
  6
Continuous
 62
     7
100
AcDbLine
 10
288.1917941050083
 20
486.1416507104578
 30
0.0
 11
253.5824070268304
 21
486.1416507104578
 31
0.0
1001
ACME_LAYERS
1000
1
  0
LINE
  5
5090
330
1F
100
AcDbEntity
  8
P-0000
  6
Continuous
 62
     7
100
AcDbLine
 10
253.5824070268304
 20
486.1416507104578
 30
0.0
 11
253.5824070268304
 21
471.1416507104567
 31
0.0
1001
ACME_LAYERS
1000
1
  0
LINE
  5
5091
330
1F
100
AcDbEntity
  8
P-0000
  6
Continuous
 62
     7
100
AcDbLine
 10
253.5824070268304
 20
486.1416507104578
 30
0.0
 11
249.4782439707965
 21
486.1416507104578
 31
0.0
1001
ACME_LAYERS
1000
1
  0
LINE
  5
5092
330
1F
100
AcDbEntity
  8
P-0000
  6
Continuous
 62
     7
100
AcDbLine
 10
253.5824070268304
 20
471.1416507104567
 30
0.0
 11
250.9782439707965
 21
471.1416507104567
 31
0.0
1001
ACME_LAYERS
1000
1
  0
LINE
  5
5093
330
1F
100
AcDbEntity
  8
P-0000
  6
Continuous
 62
     7
100
AcDbLine
 10
250.9782439707965
 20
471.1416507104567
 30
0.0
 11
249.4782439707965
 21
471.1416507104567
 31
0.0
1001
ACME_LAYERS
1000
1
  0
LINE
  5
5094
330
1F
100
AcDbEntity
  8
P-0000
  6
Continuous
 62
     7
100
AcDbLine
 10
249.4782439707965
 20
471.1416507104567
 30
0.0
 11
247.9782439707965
 21
471.1416507104567
 31
0.0
1001
ACME_LAYERS
1000
1
  0
HATCH
  5
5095
330
1F
100
AcDbEntity
  8
P-0000
  6
Continuous
 62
     1
100
AcDbHatch
 10
0.0
 20
0.0
 30
0.0
210
0.0
220
0.0
230
1.0
  2
_U
 70
     0
 71
     0
 91
        1
 92
        1
 93
        5
 72
     1
 10
291.7760305870242
 20
482.141650710457
 11
290.3201496499582
 21
486.1416507104578
 72
     1
 10
290.3201496499591
 20
486.1416507104578
 11
288.1917941050083
 21
486.1416507104578
 72
     1
 10
288.1917941050083
 20
486.1416507104578
 11
289.4081899594962
 21
482.7996305671319
 72
     2
 10
290.3478825802813
 20
483.1416507104568
 40
1.000000000000015
 50
200.0000000000031
 51
270.0
 73
     1
 72
     1
 10
290.3478825802813
 20
482.141650710457
 11
291.7760305870242
 21
482.141650710457
 97
        0
 75
     0
 76
     0
 52
44.99999999999999
 41
1.0
 77
     0
 78
     1
 53
45.0
 43
76.88721673473629
 44
524.6397337424373
 45
-0.7071067811865474
 46
0.7071067811865479
 79
     0
 98
        1
 10
375.4271130342004
 20
-82.33720495789702
1001
ACME_LAYERS
1000
1
  0
LINE
  5
5096
330
1F
100
AcDbEntity
  8
P-0000
  6
Continuous
 62
     7
100
AcDbLine
 10
289.4081899594962
 20
482.7996305671319
 30
0.0
 11
288.1917941050083
 21
486.1416507104578
 31
0.0
1001
ACME_LAYERS
1000
1
  0
LINE
  5
5097
330
1F
100
AcDbEntity
  8
P-0000
  6
Continuous
 62
     7
100
AcDbLine
 10
291.7760305870242
 20
482.141650710457
 30
0.0
 11
290.3201496499591
 21
486.1416507104578
 31
0.0
1001
ACME_LAYERS
1000
1
  0
LINE
  5
5098
330
1F
100
AcDbEntity
  8
P-0000
  6
Continuous
 62
     7
100
AcDbLine
 10
290.3201496499591
 20
486.1416507104578
 30
0.0
 11
288.1917941050083
 21
486.1416507104578
 31
0.0
1001
ACME_LAYERS
1000
1
  0
ARC
  5
5099
330
1F
100
AcDbEntity
  8
P-0000
  6
Continuous
 62
     7
100
AcDbCircle
 10
290.3478825802813
 20
483.1416507104568
 30
0.0
 40
1.000000000000015
100
AcDbArc
 50
199.9999999999892
 51
270.0
1001
ACME_LAYERS
1000
1
  0
ARC
  5
509A
330
1F
100
AcDbEntity
  8
P-0000
  6
Continuous
 62
     7
100
AcDbCircle
 10
290.3478825802813
 20
483.1416507104568
 30
0.0
 40
1.000000000000015
100
AcDbArc
 50
199.9999999999892
 51
270.0
1001
ACME_LAYERS
1000
1
  0
LINE
  5
509B
330
1F
100
AcDbEntity
  8
P-0000
  6
Continuous
 62
     7
100
AcDbLine
 10
291.7760305870242
 20
482.141650710457
 30
0.0
 11
290.3478825802813
 21
482.141650710457
 31
0.0
1001
ACME_LAYERS
1000
1
  0
LINE
  5
509C
330
1F
100
AcDbEntity
  8
P-0000
  6
Continuous
 62
     7
100
AcDbLine
 10
249.4782439707965
 20
454.1112998100891
 30
0.0
 11
250.9782439707965
 21
454.1112998100891
 31
0.0
1001
ACME_LAYERS
1000
1
  0
LINE
  5
509D
330
1F
100
AcDbEntity
  8
P-0000
  6
Continuous
 62
     7
100
AcDbLine
 10
249.4782439707965
 20
454.1112998100891
 30
0.0
 11
250.9782439707965
 21
454.1112998100891
 31
0.0
1001
ACME_LAYERS
1000
1
  0
LINE
  5
509E
330
1F
100
AcDbEntity
  8
P-0000
  6
Continuous
 62
     7
100
AcDbLine
 10
250.9782439707965
 20
448.141650710457
 30
0.0
 11
249.4782439707965
 21
448.141650710457
 31
0.0
1001
ACME_LAYERS
1000
1
  0
LINE
  5
509F
330
1F
100
AcDbEntity
  8
P-0000
  6
Continuous
 62
     7
100
AcDbLine
 10
308.6245483417756
 20
478.245892430366
 30
0.0
 11
325.9259143817753
 21
430.7107799097457
 31
0.0
1001
ACME_LAYERS
1000
1
  0
LINE
  5
50A0
330
1F
100
AcDbEntity
  8
P-0000
  6
Continuous
 62
     7
100
AcDbLine
 10
301.9782439707965
 20
454.1112998100891
 30
0.0
 11
295.7797031639529
 21
471.1416507104567
 31
0.0
1001
ACME_LAYERS
1000
1
  0
ARC
  5
50A1
330
1F
100
AcDbEntity
  8
P-0000
  6
Continuous
 62
     7
100
AcDbCircle
 10
297.3482368923455
 20
474.1416507104578
 30
0.0
 40
11.99999999999995
100
AcDbArc
 50
19.99999999998924
 51
90.0
1001
ACME_LAYERS
1000
1
  0
HATCH
  5
50A2
330
1F
100
AcDbEntity
  8
P-0000
  6
Continuous
 62
     3
100
AcDbHatch
 10
0.0
 20
0.0
 30
0.0
210
0.0
220
0.0
230
1.0
  2
_U
 70
     0
 71
     0
 91
        1
 92
        1
 93
        4
 72
     1
 10
304.1510185520751
 20
448.141650710457
 11
301.9782439707965
 21
454.1112998100891
 72
     1
 10
301.9782439707965
 20
454.1112998100891
 11
301.9782439707965
 21
449.1416507104578
 72
     2
 10
302.9782439707965
 20
449.1416507104578
 40
1.0
 50
180.0
 51
270.0
 73
     1
 72
     1
 10
302.9782439707965
 20
448.141650710457
 11
304.1510185520751
 21
448.141650710457
 97
        0
 75
     0
 76
     0
 52
44.99999999999999
 41
1.0
 77
     0
 78
     1
 53
45.0
 43
375.4271130342004
 44
-82.33720495789702
 45
-0.7071067811865474
 46
0.7071067811865479
 79
     0
 98
        1
 10
375.4271130342004
 20
-82.33720495789702
1001
ACME_LAYERS
1000
1
  0
LINE
  5
50A3
330
1F
100
AcDbEntity
  8
P-0000
  6
Continuous
 62
     7
100
AcDbLine
 10
304.1510185520751
 20
448.141650710457
 30
0.0
 11
302.9782439707965
 21
448.141650710457
 31
0.0
1001
ACME_LAYERS
1000
1
  0
LINE
  5
50A4
330
1F
100
AcDbEntity
  8
P-0000
  6
Continuous
 62
     7
100
AcDbLine
 10
304.1510185520751
 20
448.141650710457
 30
0.0
 11
301.9782439707965
 21
454.1112998100891
 31
0.0
1001
ACME_LAYERS
1000
1
  0
LINE
  5
50A5
330
1F
100
AcDbEntity
  8
P-0000
  6
Continuous
 62
     7
100
AcDbLine
 10
301.9782439707965
 20
449.1416507104578
 30
0.0
 11
301.9782439707965
 21
454.1112998100891
 31
0.0
1001
ACME_LAYERS
1000
1
  0
LINE
  5
50A6
330
1F
100
AcDbEntity
  8
P-0000
  6
Continuous
 62
     7
100
AcDbLine
 10
301.9782439707965
 20
449.1416507104578
 30
0.0
 11
301.9782439707965
 21
454.1112998100891
 31
0.0
1001
ACME_LAYERS
1000
1
  0
ARC
  5
50A7
330
1F
100
AcDbEntity
  8
P-0000
  6
Continuous
 62
     7
100
AcDbCircle
 10
302.9782439707965
 20
449.1416507104578
 30
0.0
 40
1.0
100
AcDbArc
 50
180.0
 51
270.0
1001
ACME_LAYERS
1000
1
  0
ARC
  5
50A8
330
1F
100
AcDbEntity
  8
P-0000
  6
Continuous
 62
     7
100
AcDbCircle
 10
302.9782439707965
 20
449.1416507104578
 30
0.0
 40
1.0
100
AcDbArc
 50
180.0
 51
270.0
1001
ACME_LAYERS
1000
1
  0
LINE
  5
50A9
330
1F
100
AcDbEntity
  8
P-0000
  6
Continuous
 62
     7
100
AcDbLine
 10
250.9782439707965
 20
412.1416507104568
 30
0.0
 11
317.253946985661
 21
412.1416507104568
 31
0.0
1001
ACME_LAYERS
1000
1
  0
LINE
  5
50AA
330
1F
100
AcDbEntity
  8
P-0000
  6
Continuous
 62
     7
100
AcDbLine
 10
250.9782439707965
 20
412.1416507104568
 30
0.0
 11
317.253946985661
 21
412.1416507104568
 31
0.0
1001
ACME_LAYERS
1000
1
  0
LINE
  5
50AB
330
1F
100
AcDbEntity
  8
P-0000
  6
Continuous
 62
     7
100
AcDbLine
 10
250.9782439707965
 20
412.1416507104568
 30
0.0
 11
317.253946985661
 21
412.1416507104568
 31
0.0
1001
ACME_LAYERS
1000
1
  0
LINE
  5
50AC
330
1F
100
AcDbEntity
  8
P-0000
  6
Continuous
 62
     7
100
AcDbLine
 10
317.253946985661
 20
406.141650710458
 30
0.0
 11
250.9782439707965
 21
406.141650710458
 31
0.0
1001
ACME_LAYERS
1000
1
  0
LINE
  5
50AD
330
1F
100
AcDbEntity
  8
P-0000
  6
Continuous
 62
     7
100
AcDbLine
 10
249.4782439707965
 20
412.1416507104568
 30
0.0
 11
250.9782439707965
 21
412.1416507104568
 31
0.0
1001
ACME_LAYERS
1000
1
  0
LINE
  5
50AE
330
1F
100
AcDbEntity
  8
P-0000
  6
Continuous
 62
     7
100
AcDbLine
 10
249.4782439707965
 20
412.1416507104568
 30
0.0
 11
250.9782439707965
 21
412.1416507104568
 31
0.0
1001
ACME_LAYERS
1000
1
  0
LINE
  5
50AF
330
1F
100
AcDbEntity
  8
P-0000
  6
Continuous
 62
     7
100
AcDbLine
 10
249.4782439707965
 20
412.1416507104568
 30
0.0
 11
250.9782439707965
 21
412.1416507104568
 31
0.0
1001
ACME_LAYERS
1000
1
  0
LINE
  5
50B0
330
1F
100
AcDbEntity
  8
P-0000
  6
Continuous
 62
     7
100
AcDbLine
 10
250.9782439707965
 20
406.141650710458
 30
0.0
 11
249.4782439707965
 21
406.141650710458
 31
0.0
1001
ACME_LAYERS
1000
1
  0
LINE
  5
50B1
330
1F
100
AcDbEntity
  8
P-0000
  6
Continuous
 62
     7
100
AcDbLine
 10
326.9047035980602
 20
428.0215786395983
 30
0.0
 11
334.4782439707965
 21
407.2134474801821
 31
0.0
1001
ACME_LAYERS
1000
1
  0
LINE
  5
50B2
330
1F
100
AcDbEntity
  8
P-0000
  6
Continuous
 62
     7
100
AcDbLine
 10
328.4782439707969
 20
406.141650710458
 30
0.0
 11
320.2539469856611
 21
406.141650710458
 31
0.0
1001
ACME_LAYERS
1000
1
  0
LINE
  5
50B3
330
1F
100
AcDbEntity
  8
P-0000
  6
Continuous
 62
     7
100
AcDbLine
 10
320.2539469856611
 20
406.141650710458
 30
0.0
 11
320.2539469856611
 21
412.1416507104568
 31
0.0
1001
ACME_LAYERS
1000
1
  0
LINE
  5
50B4
330
1F
100
AcDbEntity
  8
P-0000
  6
Continuous
 62
     7
100
AcDbLine
 10
317.253946985661
 20
406.141650710458
 30
0.0
 11
317.253946985661
 21
412.1416507104568
 31
0.0
1001
ACME_LAYERS
1000
1
  0
LINE
  5
50B5
330
1F
100
AcDbEntity
  8
P-0000
  6
Continuous
 62
     7
100
AcDbLine
 10
317.253946985661
 20
412.1416507104568
 30
0.0
 11
320.2539469856611
 21
412.1416507104568
 31
0.0
1001
ACME_LAYERS
1000
1
  0
LINE
  5
50B6
330
1F
100
AcDbEntity
  8
P-0000
  6
Continuous
 62
     7
100
AcDbLine
 10
317.253946985661
 20
412.1416507104568
 30
0.0
 11
320.2539469856611
 21
412.1416507104568
 31
0.0
1001
ACME_LAYERS
1000
1
  0
LINE
  5
50B7
330
1F
100
AcDbEntity
  8
P-0000
  6
Continuous
 62
     7
100
AcDbLine
 10
320.2539469856611
 20
406.141650710458
 30
0.0
 11
317.253946985661
 21
406.141650710458
 31
0.0
1001
ACME_LAYERS
1000
1
  0
LINE
  5
50B8
102
{ACAD_REACTORS
330
5052
102
}
330
1F
100
AcDbEntity
  8
P-0000
  6
Continuous
 62
     7
100
AcDbLine
 10
334.9782439707965
 20
403.9416507104578
 30
0.0
 11
334.9782439707965
 21
406.141650710458
 31
0.0
1001
ACME_LAYERS
1000
1
  0
LINE
  5
50B9
330
1F
100
AcDbEntity
  8
P-0000
  6
Continuous
 62
     7
100
AcDbLine
 10
333.7020137042459
 20
400.1850829416651
 30
0.0
 11
328.4782439707969
 21
406.141650710458
 31
0.0
1001
ACME_LAYERS
1000
1
  0
LINE
  5
50BA
330
1F
100
AcDbEntity
  8
P-0000
  6
Continuous
 62
     7
100
AcDbLine
 10
334.4782439707965
 20
406.141650710458
 30
0.0
 11
334.4782439707965
 21
407.2134474801821
 31
0.0
1001
ACME_LAYERS
1000
1
  0
LINE
  5
50BB
102
{ACAD_REACTORS
330
5052
102
}
330
1F
100
AcDbEntity
  8
P-0000
  6
Continuous
 62
     7
100
AcDbLine
 10
334.9782439707965
 20
406.141650710458
 30
0.0
 11
334.4782439707965
 21
406.141650710458
 31
0.0
1001
ACME_LAYERS
1000
1
  0
LINE
  5
50BC
102
{ACAD_REACTORS
330
5052
102
}
330
1F
100
AcDbEntity
  8
P-0000
  6
Continuous
 62
     7
100
AcDbLine
 10
334.4782439707965
 20
406.141650710458
 30
0.0
 11
334.4782439707965
 21
407.2134474801821
 31
0.0
1001
ACME_LAYERS
1000
1
  0
LINE
  5
50BD
330
1F
100
AcDbEntity
  8
P-0000
  6
Continuous
 62
     7
100
AcDbLine
 10
336.1782439707963
 20
402.4416507104582
 30
0.0
 11
334.6194167787262
 21
400.2441089392577
 31
0.0
1001
ACME_LAYERS
1000
1
  0
LINE
  5
50BE
330
1F
100
AcDbEntity
  8
P-0000
  6
Continuous
 62
     7
100
AcDbLine
 10
334.9782439707965
 20
403.9416507104578
 30
0.0
 11
336.1782439707963
 21
403.9416507104578
 31
0.0
1001
ACME_LAYERS
1000
1
  0
LINE
  5
50BF
330
1F
100
AcDbEntity
  8
P-0000
  6
Continuous
 62
     7
100
AcDbLine
 10
336.1782439707963
 20
403.9416507104578
 30
0.0
 11
336.1782439707963
 21
402.4416507104582
 31
0.0
1001
ACME_LAYERS
1000
1
  0
ARC
  5
50C0
330
1F
100
AcDbEntity
  8
P-0000
  6
Continuous
 62
     7
100
AcDbCircle
 10
334.13003697664
 20
400.5912507104575
 30
0.0
 40
0.6000000000000229
100
AcDbArc
 50
270.0
 51
324.6500000000132
1001
ACME_LAYERS
1000
1
  0
ARC
  5
50C1
330
1F
100
AcDbEntity
  8
P-0000
  6
Continuous
 62
     7
100
AcDbCircle
 10
334.1298105547021
 20
400.5602507104566
 30
0.0
 40
0.5689999999999894
100
AcDbArc
 50
221.2500000000013
 51
270.0
1001
ACME_LAYERS
1000
1
  0
LINE
  5
50C2
330
1F
100
AcDbEntity
  8
P-0000
  6
Continuous
 62
     7
100
AcDbLine
 10
334.13003697664
 20
399.991250710457
 30
0.0
 11
334.1298105547021
 21
399.991250710457
 31
0.0
1001
ACME_LAYERS
1000
1
  0
HATCH
  5
50C3
330
1F
100
AcDbEntity
  8
P-0000
  6
Continuous
 62
     1
100
AcDbHatch
 10
0.0
 20
0.0
 30
0.0
210
0.0
220
0.0
230
1.0
  2
_U
 70
     0
 71
     0
 91
        1
 92
        1
 93
        4
 72
     1
 10
320.2539469856611
 20
412.1416507104568
 11
317.253946985661
 21
412.1416507104568
 72
     1
 10
317.253946985661
 20
412.1416507104568
 11
317.253946985661
 21
406.141650710458
 72
     1
 10
317.253946985661
 20
406.141650710458
 11
320.2539469856611
 21
406.141650710458
 72
     1
 10
320.2539469856611
 20
406.141650710458
 11
320.2539469856611
 21
412.1416507104568
 97
        0
 75
     0
 76
     0
 52
44.99999999999999
 41
1.0
 77
     0
 78
     1
 53
45.0
 43
-2342.841327409836
 44
-746.2919344858017
 45
-0.7071067811865475
 46
0.7071067811865476
 79
     0
 98
        1
 10
76.88721673473629
 20
524.6397337424373
1001
GENIUS_GENODEF_13
1002
{
1000
HIER
1070
     0
1002
}
1002
{
1000
MANEDIT
1070
     0
1002
}
1002
{
1000
NOSEL
1070
     0
1002
}
1002
{
1000
BEHIND
1070
     0
1002
}
1002
{
1000
OTHER
1070
     0
1002
}
1002
{
1000
REACTOR
1002
}
1001
GENIUS_GENOBJ-N-HTC_13
1002
{
1000
OWNER
1000
GEN
1002
}
1001
GENIUS_GENHATCH_13
1002
{
1000
DATA
1040
135.0
1042
1.0
1000
_U
1070
     0
1011
318.0229238011083
1021
406.6002377569757
1031
0.0
1002
}
1002
{
1000
UCS
1010
0.0
1020
0.0
1030
0.0
1010
1.0
1020
0.0
1030
0.0
1010
0.0
1020
1.0
1030
0.0
1002
}
1001
ACAD
1010
0.0
1020
0.0
1030
0.0
  0
LINE
  5
50C4
330
1F
100
AcDbEntity
  8
P-0000
  6
Continuous
 62
     7
100
AcDbLine
 10
128.7107867330869
 20
389.1964735919812
 30
0.0
 11
138.7107867330869
 21
389.1964735919719
 31
0.0
1001
ACME_LAYERS
1000
1
  0
LINE
  5
50C5
330
1F
100
AcDbEntity
  8
P-0000
  6
Continuous
 62
     7
100
AcDbLine
 10
130.5107867330975
 20
400.343755031691
 30
0.0
 11
133.7107867330974
 21
400.3437550316891
 31
0.0
1001
ACME_LAYERS
1000
1
  0
LINE
  5
50C6
330
1F
100
AcDbEntity
  8
P-0000
  6
Continuous
 62
     7
100
AcDbLine
 10
136.9107867330949
 20
399.7437550316861
 30
0.0
 11
130.5107867330944
 21
399.7437550316911
 31
0.0
1001
ACME_LAYERS
1000
1
  0
LINE
  5
50C7
330
1F
100
AcDbEntity
  8
P-0000
  6
Continuous
 62
     7
100
AcDbLine
 10
129.710786733096
 20
399.7437550316911
 30
0.0
 11
129.7107867330933
 21
396.7964735919768
 31
0.0
1001
ACME_LAYERS
1000
1
  0
LINE
  5
50C8
330
1F
100
AcDbEntity
  8
P-0000
  6
Continuous
 62
     3
100
AcDbLine
 10
130.5107867330975
 20
400.343755031691
 30
0.0
 11
130.5107867330912
 21
396.7964735919768
 31
0.0
1001
ACME_LAYERS
1000
1
  0
LINE
  5
50C9
330
1F
100
AcDbEntity
  8
P-0000
  6
Continuous
 62
     7
100
AcDbLine
 10
130.5107867330944
 20
399.7437550316911
 30
0.0
 11
129.710786733096
 21
399.7437550316911
 31
0.0
1001
ACME_LAYERS
1000
1
  0
LINE
  5
50CA
330
1F
100
AcDbEntity
  8
P-0000
  6
Continuous
 62
     3
100
AcDbLine
 10
130.5107867330975
 20
400.343755031691
 30
0.0
 11
130.5107867330944
 21
399.7437550316911
 31
0.0
1001
ACME_LAYERS
1000
1
  0
LINE
  5
50CB
330
1F
100
AcDbEntity
  8
P-0000
  6
Continuous
 62
     7
100
AcDbLine
 10
129.710786733096
 20
399.7437550316911
 30
0.0
 11
130.5107867330975
 21
400.343755031691
 31
0.0
1001
ACME_LAYERS
1000
1
  0
LINE
  5
50CC
330
1F
100
AcDbEntity
  8
P-0000
  6
Continuous
 62
     7
100
AcDbLine
 10
137.7107867330974
 20
399.7437550316852
 30
0.0
 11
137.7107867330933
 21
396.7964735919713
 31
0.0
1001
ACME_LAYERS
1000
1
  0
LINE
  5
50CD
330
1F
100
AcDbEntity
  8
P-0000
  6
STRICHPUNKT
 62
     3
100
AcDbLine
 10
133.7107867330933
 20
396.7964735919729
 30
0.0
 11
133.7107867330974
 21
400.3437550316891
 31
0.0
1001
ACME_LAYERS
1000
1
  0
LINE
  5
50CE
330
1F
100
AcDbEntity
  8
P-0000
  6
Continuous
 62
     3
100
AcDbLine
 10
136.9107867330976
 20
400.343755031685
 30
0.0
 11
136.9107867330931
 21
396.796473591972
 31
0.0
1001
ACME_LAYERS
1000
1
  0
LINE
  5
50CF
330
1F
100
AcDbEntity
  8
P-0000
  6
Continuous
 62
     3
100
AcDbLine
 10
136.9107867330976
 20
400.343755031685
 30
0.0
 11
136.9107867330949
 21
399.7437550316861
 31
0.0
1001
ACME_LAYERS
1000
1
  0
LINE
  5
50D0
330
1F
100
AcDbEntity
  8
P-0000
  6
Continuous
 62
     7
100
AcDbLine
 10
137.7107867330974
 20
399.7437550316852
 30
0.0
 11
136.9107867330949
 21
399.7437550316861
 31
0.0
1001
ACME_LAYERS
1000
1
  0
LINE
  5
50D1
330
1F
100
AcDbEntity
  8
P-0000
  6
Continuous
 62
     7
100
AcDbLine
 10
136.9107867330976
 20
400.343755031685
 30
0.0
 11
137.7107867330974
 21
399.7437550316852
 31
0.0
1001
ACME_LAYERS
1000
1
  0
LINE
  5
50D2
330
1F
100
AcDbEntity
  8
P-0000
  6
Continuous
 62
     7
100
AcDbLine
 10
133.7107867330974
 20
400.3437550316891
 30
0.0
 11
136.9107867330976
 21
400.343755031685
 31
0.0
1001
ACME_LAYERS
1000
1
  0
LINE
  5
50D3
330
1F
100
AcDbEntity
  8
P-0000
  6
Continuous
 62
     7
100
AcDbLine
 10
137.7107867330919
 20
396.7964735919713
 30
0.0
 11
130.5107867330912
 21
396.7964735919768
 31
0.0
1001
ACME_LAYERS
1000
1
  0
LINE
  5
50D4
330
1F
100
AcDbEntity
  8
P-0000
  6
Continuous
 62
     7
100
AcDbLine
 10
130.5107867330912
 20
396.7964735919768
 30
0.0
 11
129.7107867330933
 21
396.7964735919768
 31
0.0
1001
ACME_LAYERS
1000
1
  0
LINE
  5
50D5
330
1F
100
AcDbEntity
  8
P-0000
  6
Continuous
 62
     7
100
AcDbLine
 10
125.2650886196661
 20
390.6964735919812
 30
0.0
 11
125.2650886196652
 21
389.1964735919846
 31
0.0
1001
ACME_LAYERS
1000
1
  0
LINE
  5
50D6
330
1F
100
AcDbEntity
  8
P-0000
  6
Continuous
 62
     7
100
AcDbLine
 10
142.2650886196652
 20
389.1964735919689
 30
0.0
 11
142.2650886196661
 21
390.6964735919655
 31
0.0
1001
ACME_LAYERS
1000
1
  0
LINE
  5
50D7
330
1F
100
AcDbEntity
  8
P-0000
  6
Continuous
 62
     7
100
AcDbLine
 10
125.2650886196661
 20
390.7964735919822
 30
0.0
 11
125.2650886196661
 21
390.6964735919812
 31
0.0
1001
ACME_LAYERS
1000
1
  0
LINE
  5
50D8
330
1F
100
AcDbEntity
  8
P-0000
  6
Continuous
 62
     7
100
AcDbLine
 10
142.2650886196661
 20
390.796473591967
 30
0.0
 11
125.2650886196661
 21
390.7964735919822
 31
0.0
1001
ACME_LAYERS
1000
1
  0
LINE
  5
50D9
330
1F
100
AcDbEntity
  8
P-0000
  6
Continuous
 62
     7
100
AcDbLine
 10
142.2650886196661
 20
390.6964735919655
 30
0.0
 11
142.2650886196661
 21
390.796473591967
 31
0.0
1001
ACME_LAYERS
1000
1
  0
LINE
  5
50DA
330
1F
100
AcDbEntity
  8
P-0000
  6
Continuous
 62
     7
100
AcDbLine
 10
141.2163402325554
 20
392.6834127838749
 30
0.0
 11
141.2163402325523
 21
391.3770301755676
 31
0.0
1001
ACME_LAYERS
1000
1
  0
LINE
  5
50DB
330
1F
100
AcDbEntity
  8
P-0000
  6
Continuous
 62
     7
100
AcDbLine
 10
127.2107867330869
 20
390.7964735919802
 30
0.0
 11
140.2107867330869
 21
390.7964735919677
 31
0.0
1001
ACME_LAYERS
1000
1
  0
LINE
  5
50DC
330
1F
100
AcDbEntity
  8
P-0000
  6
Continuous
 62
     7
100
AcDbLine
 10
126.2052332336243
 20
392.6834127838883
 30
0.0
 11
126.2052332336229
 21
391.3770301755799
 31
0.0
1001
ACME_LAYERS
1000
1
  0
LINE
  5
50DD
330
1F
100
AcDbEntity
  8
P-0000
  6
Continuous
 62
     7
100
AcDbLine
 10
129.7107867330933
 20
396.7964735919768
 30
0.0
 11
127.2107867330933
 21
396.7964735919802
 31
0.0
1001
ACME_LAYERS
1000
1
  0
LINE
  5
50DE
330
1F
100
AcDbEntity
  8
P-0000
  6
Continuous
 62
     7
100
AcDbLine
 10
140.9696686438969
 20
391.2236171576024
 30
0.0
 11
140.2107867330869
 21
390.7964735919677
 31
0.0
1001
ACME_LAYERS
1000
1
  0
LINE
  5
50DF
330
1F
100
AcDbEntity
  8
P-0000
  6
Continuous
 62
     7
100
AcDbLine
 10
140.9696686439019
 20
396.3693300263328
 30
0.0
 11
140.2107867330919
 21
396.7964735919679
 31
0.0
1001
ACME_LAYERS
1000
1
  0
LINE
  5
50E0
330
1F
100
AcDbEntity
  8
P-0000
  6
Continuous
 62
     7
100
AcDbLine
 10
126.4519048222814
 20
391.2236171576146
 30
0.0
 11
127.2107867330869
 21
390.7964735919802
 31
0.0
1001
ACME_LAYERS
1000
1
  0
LINE
  5
50E1
330
1F
100
AcDbEntity
  8
P-0000
  6
Continuous
 62
     7
100
AcDbLine
 10
126.4519048222851
 20
396.3693300263449
 30
0.0
 11
127.2107867330933
 21
396.7964735919802
 31
0.0
1001
ACME_LAYERS
1000
1
  0
LINE
  5
50E2
330
1F
100
AcDbEntity
  8
P-0000
  6
Continuous
 62
     7
100
AcDbLine
 10
140.2107867330919
 20
396.7964735919679
 30
0.0
 11
137.7107867330919
 21
396.7964735919713
 31
0.0
1001
ACME_LAYERS
1000
1
  0
LINE
  5
50E3
330
1F
100
AcDbEntity
  8
P-0000
  6
Continuous
 62
     7
100
AcDbLine
 10
126.205233233627
 20
396.2159170083801
 30
0.0
 11
126.2052332336243
 21
392.6834127838883
 31
0.0
1001
ACME_LAYERS
1000
1
  0
LINE
  5
50E4
330
1F
100
AcDbEntity
  8
P-0000
  6
Continuous
 62
     7
100
AcDbLine
 10
129.9580099833597
 20
396.2159170083769
 30
0.0
 11
129.9580099833542
 21
390.796473591977
 31
0.0
1001
ACME_LAYERS
1000
1
  0
LINE
  5
50E5
330
1F
100
AcDbEntity
  8
P-0000
  6
Continuous
 62
     7
100
AcDbLine
 10
137.463563482825
 20
396.2159170083701
 30
0.0
 11
137.4635634828191
 21
390.7964735919709
 31
0.0
1001
ACME_LAYERS
1000
1
  0
LINE
  5
50E6
330
1F
100
AcDbEntity
  8
P-0000
  6
Continuous
 62
     7
100
AcDbLine
 10
141.2163402325577
 20
396.2159170083662
 30
0.0
 11
141.2163402325554
 21
392.6834127838749
 31
0.0
1001
ACME_LAYERS
1000
1
  0
LINE
  5
50E7
330
1F
100
AcDbEntity
  8
P-0000
  6
Continuous
 62
     7
100
AcDbLine
 10
125.2650886196652
 20
389.1964735919846
 30
0.0
 11
129.7107867330865
 21
389.1964735919796
 31
0.0
1001
ACME_LAYERS
1000
1
  0
LINE
  5
50E8
330
1F
100
AcDbEntity
  8
P-0000
  6
Continuous
 62
     7
100
AcDbLine
 10
142.2650886196652
 20
389.1964735919689
 30
0.0
 11
138.2107867330883
 21
389.1964735919719
 31
0.0
1001
ACME_LAYERS
1000
1
  0
LINE
  5
50E9
330
1F
100
AcDbEntity
  8
P-0000
  6
Continuous
 62
     7
100
AcDbLine
 10
137.7107867330833
 20
387.1964735919728
 30
0.0
 11
138.2107867330869
 21
387.1964735919712
 31
0.0
1001
ACME_LAYERS
1000
1
  0
LINE
  5
50EA
330
1F
100
AcDbEntity
  8
P-0000
  6
Continuous
 62
     7
100
AcDbLine
 10
136.9107867330854
 20
387.1964735919728
 30
0.0
 11
137.7107867330833
 21
387.1964735919728
 31
0.0
1001
ACME_LAYERS
1000
1
  0
LINE
  5
50EB
330
1F
100
AcDbEntity
  8
P-0000
  6
Continuous
 62
     7
100
AcDbLine
 10
130.5107867330839
 20
387.1964735919789
 30
0.0
 11
136.9107867330854
 21
387.1964735919728
 31
0.0
1001
ACME_LAYERS
1000
1
  0
LINE
  5
50EC
330
1F
100
AcDbEntity
  8
P-0000
  6
Continuous
 62
     7
100
AcDbLine
 10
129.7107867330833
 20
387.1964735919799
 30
0.0
 11
130.5107867330839
 21
387.1964735919789
 31
0.0
1001
ACME_LAYERS
1000
1
  0
ARC
  5
50ED
330
1F
100
AcDbEntity
  8
P-0000
  6
Continuous
 62
     7
100
AcDbCircle
 10
133.7107867330992
 20
403.215917008373
 30
0.0
 40
12.41944341639904
100
AcDbArc
 50
252.4120462259827
 51
287.5879537739637
1001
ACME_LAYERS
1000
1
  0
ARC
  5
50EE
330
1F
100
AcDbEntity
  8
P-0000
  6
Continuous
 62
     7
100
AcDbCircle
 10
133.7107867330805
 20
384.3770301755731
 30
0.0
 40
12.41944341639904
100
AcDbArc
 50
72.41204622598274
 51
107.5879537739636
1001
ACME_LAYERS
1000
1
  0
ARC
  5
50EF
330
1F
100
AcDbEntity
  8
P-0000
  6
Continuous
 62
     7
100
AcDbCircle
 10
139.3399518576902
 20
394.119043164919
 30
0.0
 40
3.322569572950221
100
AcDbArc
 50
235.6157525319106
 51
299.3733793947709
1001
ACME_LAYERS
1000
1
  0
ARC
  5
50F0
330
1F
100
AcDbEntity
  8
P-0000
  6
Continuous
 62
     7
100
AcDbCircle
 10
139.3399518576907
 20
393.4739040190182
 30
0.0
 40
3.322569572950149
100
AcDbArc
 50
55.61575253191065
 51
60.62662060510624
1001
ACME_LAYERS
1000
1
  0
ARC
  5
50F1
330
1F
100
AcDbEntity
  8
P-0000
  6
Continuous
 62
     7
100
AcDbCircle
 10
128.0816216084931
 20
394.1190431649291
 30
0.0
 40
3.322569572950221
100
AcDbArc
 50
235.6157525319106
 51
240.6266206051062
1001
ACME_LAYERS
1000
1
  0
ARC
  5
50F2
330
1F
100
AcDbEntity
  8
P-0000
  6
Continuous
 62
     7
100
AcDbCircle
 10
128.0816216084931
 20
393.4739040190292
 30
0.0
 40
3.322569572949122
100
AcDbArc
 50
55.61575253191065
 51
119.3733793947709
1001
ACME_LAYERS
1000
1
  0
ARC
  5
50F3
330
1F
100
AcDbEntity
  8
P-0000
  6
Continuous
 62
     7
100
AcDbCircle
 10
139.3399518576902
 20
394.119043164919
 30
0.0
 40
3.322569572949876
100
AcDbArc
 50
299.3733793947709
 51
304.3842474680243
1001
ACME_LAYERS
1000
1
  0
ARC
  5
50F4
330
1F
100
AcDbEntity
  8
P-0000
  6
Continuous
 62
     7
100
AcDbCircle
 10
139.3399518576902
 20
393.4739040190191
 30
0.0
 40
3.322569572949888
100
AcDbArc
 50
60.62662060510624
 51
124.3842474680243
1001
ACME_LAYERS
1000
1
  0
ARC
  5
50F5
330
1F
100
AcDbEntity
  8
P-0000
  6
Continuous
 62
     7
100
AcDbCircle
 10
128.0816216084931
 20
394.1190431649291
 30
0.0
 40
3.322569572949872
100
AcDbArc
 50
240.6266206051062
 51
304.3842474679592
1001
ACME_LAYERS
1000
1
  0
ARC
  5
50F6
330
1F
100
AcDbEntity
  8
P-0000
  6
Continuous
 62
     7
100
AcDbCircle
 10
128.0816216084931
 20
393.4739040190292
 30
0.0
 40
3.322569572949884
100
AcDbArc
 50
119.3733793947709
 51
124.3842474680243
1001
ACME_LAYERS
1000
1
  0
LINE
  5
50F7
330
1F
100
AcDbEntity
  8
P-0000
  6
Continuous
 62
     7
100
AcDbLine
 10
171.7621799734311
 20
397.1791412847005
 30
0.0
 11
171.7621799734283
 21
394.2964735919381
 31
0.0
1001
ACME_LAYERS
1000
1
  0
LINE
  5
50F8
330
1F
100
AcDbEntity
  8
P-0000
  6
Continuous
 62
     3
100
AcDbLine
 10
170.96217997343
 20
396.7172610693501
 30
0.0
 11
170.9621799734282
 21
394.2964735919381
 31
0.0
1001
ACME_LAYERS
1000
1
  0
LINE
  5
50F9
330
1F
100
AcDbEntity
  8
P-0000
  6
Continuous
 62
     7
100
AcDbLine
 10
166.769253068226
 20
394.296473591942
 30
0.0
 11
170.9621799734268
 21
394.2964735919381
 31
0.0
1001
ACME_LAYERS
1000
1
  0
LINE
  5
50FA
330
1F
100
AcDbEntity
  8
P-0000
  6
Continuous
 62
     7
100
AcDbLine
 10
170.9621799734268
 20
394.2964735919381
 30
0.0
 11
171.7621799734283
 21
394.2964735919381
 31
0.0
1001
ACME_LAYERS
1000
1
  0
LINE
  5
50FB
330
1F
100
AcDbEntity
  8
P-0000
  6
Continuous
 62
     7
100
AcDbLine
 10
176.2078780868432
 20
388.196473591933
 30
0.0
 11
176.2078780868401
 21
386.6964735919362
 31
0.0
1001
ACME_LAYERS
1000
1
  0
LINE
  5
50FC
330
1F
100
AcDbEntity
  8
P-0000
  6
Continuous
 62
     7
100
AcDbLine
 10
159.2078780868414
 20
386.6964735919512
 30
0.0
 11
159.2078780868432
 21
388.1964735919492
 31
0.0
1001
ACME_LAYERS
1000
1
  0
LINE
  5
50FD
330
1F
100
AcDbEntity
  8
P-0000
  6
Continuous
 62
     7
100
AcDbLine
 10
176.2078780868432
 20
388.296473591934
 30
0.0
 11
176.2078780868432
 21
388.196473591933
 31
0.0
1001
ACME_LAYERS
1000
1
  0
LINE
  5
50FE
330
1F
100
AcDbEntity
  8
P-0000
  6
Continuous
 62
     7
100
AcDbLine
 10
159.2078780868432
 20
388.296473591949
 30
0.0
 11
176.2078780868432
 21
388.296473591934
 31
0.0
1001
ACME_LAYERS
1000
1
  0
LINE
  5
50FF
330
1F
100
AcDbEntity
  8
P-0000
  6
Continuous
 62
     7
100
AcDbLine
 10
159.2078780868432
 20
388.1964735919492
 30
0.0
 11
159.2078780868432
 21
388.296473591949
 31
0.0
1001
ACME_LAYERS
1000
1
  0
LINE
  5
5100
330
1F
100
AcDbEntity
  8
P-0000
  6
Continuous
 62
     7
100
AcDbLine
 10
160.2566264739594
 20
390.1834127838547
 30
0.0
 11
160.256626473958
 21
388.8770301755492
 31
0.0
1001
ACME_LAYERS
1000
1
  0
LINE
  5
5101
330
1F
100
AcDbEntity
  8
P-0000
  6
Continuous
 62
     7
100
AcDbLine
 10
174.2621799734233
 20
388.2964735919361
 30
0.0
 11
161.2621799734234
 21
388.2964735919477
 31
0.0
1001
ACME_LAYERS
1000
1
  0
LINE
  5
5102
330
1F
100
AcDbEntity
  8
P-0000
  6
Continuous
 62
     7
100
AcDbLine
 10
175.2677334728891
 20
390.1834127838422
 30
0.0
 11
175.2677334728882
 21
388.8770301755349
 31
0.0
1001
ACME_LAYERS
1000
1
  0
LINE
  5
5103
330
1F
100
AcDbEntity
  8
P-0000
  6
Continuous
 62
     7
100
AcDbLine
 10
171.7621799734283
 20
394.2964735919381
 30
0.0
 11
174.2621799734301
 21
394.2964735919363
 31
0.0
1001
ACME_LAYERS
1000
1
  0
LINE
  5
5104
330
1F
100
AcDbEntity
  8
P-0000
  6
Continuous
 62
     7
100
AcDbLine
 10
164.0094032236929
 20
390.1834127838514
 30
0.0
 11
164.0094032236911
 21
388.8770301755454
 31
0.0
1001
ACME_LAYERS
1000
1
  0
LINE
  5
5105
330
1F
100
AcDbEntity
  8
P-0000
  6
Continuous
 62
     7
100
AcDbLine
 10
171.514956723156
 20
390.1834127838453
 30
0.0
 11
171.5149567231556
 21
388.877030175538
 31
0.0
1001
ACME_LAYERS
1000
1
  0
LINE
  5
5106
330
1F
100
AcDbEntity
  8
P-0000
  6
Continuous
 62
     7
100
AcDbLine
 10
160.5032980626133
 20
388.7236171575812
 30
0.0
 11
161.2621799734234
 21
388.2964735919477
 31
0.0
1001
ACME_LAYERS
1000
1
  0
LINE
  5
5107
330
1F
100
AcDbEntity
  8
P-0000
  6
Continuous
 62
     7
100
AcDbLine
 10
175.021061884232
 20
388.7236171575679
 30
0.0
 11
174.2621799734233
 21
388.2964735919361
 31
0.0
1001
ACME_LAYERS
1000
1
  0
LINE
  5
5108
330
1F
100
AcDbEntity
  8
P-0000
  6
Continuous
 62
     7
100
AcDbLine
 10
175.0210618842361
 20
393.8693300263003
 30
0.0
 11
174.2621799734301
 21
394.2964735919363
 31
0.0
1001
ACME_LAYERS
1000
1
  0
LINE
  5
5109
330
1F
100
AcDbEntity
  8
P-0000
  6
Continuous
 62
     7
100
AcDbLine
 10
175.2677334728928
 20
393.7159170083329
 30
0.0
 11
175.2677334728891
 21
390.1834127838422
 31
0.0
1001
ACME_LAYERS
1000
1
  0
LINE
  5
510A
330
1F
100
AcDbEntity
  8
P-0000
  6
Continuous
 62
     7
100
AcDbLine
 10
171.5149567231601
 20
393.7159170083371
 30
0.0
 11
171.514956723156
 21
390.1834127838453
 31
0.0
1001
ACME_LAYERS
1000
1
  0
LINE
  5
510B
330
1F
100
AcDbEntity
  8
P-0000
  6
Continuous
 62
     7
100
AcDbLine
 10
164.0094032236948
 20
392.7030735412829
 30
0.0
 11
164.0094032236929
 21
390.1834127838514
 31
0.0
1001
ACME_LAYERS
1000
1
  0
LINE
  5
510C
330
1F
100
AcDbEntity
  8
P-0000
  6
Continuous
 62
     7
100
AcDbLine
 10
160.2566264739594
 20
390.5364068746192
 30
0.0
 11
160.2566264739594
 21
390.1834127838547
 31
0.0
1001
ACME_LAYERS
1000
1
  0
ARC
  5
510D
330
1F
100
AcDbEntity
  8
P-0000
  6
Continuous
 62
     7
100
AcDbCircle
 10
167.7621799734343
 20
400.7159170083411
 30
0.0
 40
12.41944341639904
100
AcDbArc
 50
252.4120462259827
 51
287.5879537739637
1001
ACME_LAYERS
1000
1
  0
ARC
  5
510E
330
1F
100
AcDbEntity
  8
P-0000
  6
Continuous
 62
     7
100
AcDbCircle
 10
167.7621799734184
 20
381.8770301755417
 30
0.0
 40
12.41944341639904
100
AcDbArc
 50
72.41204622598274
 51
94.95831806924392
1001
ACME_LAYERS
1000
1
  0
ARC
  5
510F
330
1F
100
AcDbEntity
  8
P-0000
  6
Continuous
 62
     7
100
AcDbCircle
 10
162.1330148488273
 20
391.6190431648958
 30
0.0
 40
3.322569572950221
100
AcDbArc
 50
240.6266206051062
 51
304.3842474680243
1001
ACME_LAYERS
1000
1
  0
ARC
  5
5110
330
1F
100
AcDbEntity
  8
P-0000
  6
Continuous
 62
     7
100
AcDbCircle
 10
173.391345098024
 20
391.6190431648861
 30
0.0
 40
3.322569572950221
100
AcDbArc
 50
299.3733793947709
 51
304.3842474680243
1001
ACME_LAYERS
1000
1
  0
ARC
  5
5111
330
1F
100
AcDbEntity
  8
P-0000
  6
Continuous
 62
     7
100
AcDbCircle
 10
173.391345098024
 20
390.973904018987
 30
0.0
 40
3.322569572949122
100
AcDbArc
 50
60.62662060510624
 51
124.3842474679592
1001
ACME_LAYERS
1000
1
  0
ARC
  5
5112
330
1F
100
AcDbEntity
  8
P-0000
  6
Continuous
 62
     7
100
AcDbCircle
 10
162.1330148488273
 20
391.6190431648958
 30
0.0
 40
3.322569572949876
100
AcDbArc
 50
235.6157525319106
 51
240.6266206051062
1001
ACME_LAYERS
1000
1
  0
ARC
  5
5113
330
1F
100
AcDbEntity
  8
P-0000
  6
Continuous
 62
     7
100
AcDbCircle
 10
173.391345098024
 20
391.6190431648861
 30
0.0
 40
3.322569572949872
100
AcDbArc
 50
235.6157525319106
 51
299.3733793947709
1001
ACME_LAYERS
1000
1
  0
ARC
  5
5114
330
1F
100
AcDbEntity
  8
P-0000
  6
Continuous
 62
     7
100
AcDbCircle
 10
173.391345098024
 20
390.973904018987
 30
0.0
 40
3.322569572949884
100
AcDbArc
 50
55.61575253191065
 51
60.62662060510624
1001
ACME_LAYERS
1000
1
  0
HATCH
  5
5115
330
1F
100
AcDbEntity
  8
P-0000
  6
Continuous
 62
     1
100
AcDbHatch
 10
0.0
 20
0.0
 30
0.0
210
0.0
220
0.0
230
1.0
  2
_U
 70
     0
 71
     0
 91
        1
 92
        1
 93
       16
 72
     1
 10
165.4607867330933
 20
406.1908222935158
 11
165.4607867330933
 21
406.1416507105334
 72
     1
 10
165.4607867330933
 20
406.1416507105345
 11
164.9607867330933
 21
406.1416507105345
 72
     1
 10
164.9607867330933
 20
406.1416507105345
 11
164.9607867330919
 21
404.1908222935154
 72
     1
 10
164.9607867330919
 20
404.1908222935155
 11
157.8998955647771
 21
404.1908222935227
 72
     2
 10
157.8998955647771
 20
403.6908222935235
 40
0.5
 50
449.9999999999478
 51
539.9999999999478
 73
     1
 72
     1
 10
157.3998955647771
 20
403.6908222935235
 11
157.3998955647648
 21
391.1964735919547
 72
     2
 10
153.3998955647662
 20
391.1964735919578
 40
4.000000000000068
 50
0.0000000000521102
 51
90.00000000005211
 73
     0
 72
     1
 10
153.3998955647625
 20
387.1964735919594
 11
138.7107867330851
 21
387.1964735919712
 72
     1
 10
138.7107867330851
 20
387.1964735919712
 11
138.7107867330869
 21
389.1964735919719
 72
     1
 10
138.7107867330869
 20
389.1964735919719
 11
153.4607867330791
 21
389.1964735919569
 72
     2
 10
153.4607867330805
 20
391.1964735919578
 40
1.999999999999999
 50
269.9999999999479
 51
359.9999999999479
 73
     1
 72
     1
 10
155.4607867330805
 20
391.1964735919562
 11
155.460786733096
 21
408.6908222935251
 72
     1
 10
155.460786733096
 20
408.6908222935251
 11
157.460786733096
 21
408.6908222935234
 72
     1
 10
157.460786733096
 20
408.6908222935234
 11
157.4607867330951
 21
406.6908222935234
 72
     2
 10
157.9607867330933
 20
406.6908222935234
 40
0.5
 50
539.9999999999478
 51
629.9999999999479
 73
     1
 72
     1
 10
157.9607867330933
 20
406.1908222935226
 11
165.4607867330933
 21
406.1908222935158
 97
        0
 75
     0
 76
     0
 52
-45.0
 41
2.0
 77
     0
 78
     1
 53
315.0
 43
-2342.841327409836
 44
-746.2919344858017
 45
1.414213562373094
 46
1.414213562373094
 79
     0
 98
        1
 10
124.5216779009483
 20
-102.2248460495441
1001
ACME_LAYERS
1000
1
1001
ACAD
1010
0.0
1020
0.0
1030
0.0
  0
LINE
  5
5116
330
1F
100
AcDbEntity
  8
P-0000
  6
Continuous
 62
     7
100
AcDbLine
 10
185.4607867331042
 20
408.6908222934992
 30
0.0
 11
182.6850837182328
 21
408.6908222935009
 31
0.0
1001
ACME_LAYERS
1000
1
  0
LINE
  5
5117
330
1F
100
AcDbEntity
  8
P-0000
  6
Continuous
 62
     7
100
AcDbLine
 10
165.9985071899791
 20
408.690822293516
 30
0.0
 11
157.460786733096
 21
408.6908222935234
 31
0.0
1001
ACME_LAYERS
1000
1
  0
LINE
  5
5118
330
1F
100
AcDbEntity
  8
P-0000
  6
Continuous
 62
     7
100
AcDbLine
 10
183.9067677271628
 20
404.1908222934991
 30
0.0
 11
155.3998955647625
 21
387.7323719768187
 31
0.0
1001
ACME_LAYERS
1000
1
  0
LINE
  5
5119
330
1F
100
AcDbEntity
  8
P-0000
  6
Continuous
 62
     7
100
AcDbLine
 10
157.8998955647771
 20
404.1908222935234
 30
0.0
 11
164.9607867330919
 21
404.1908222935155
 31
0.0
1001
ACME_LAYERS
1000
1
  0
LINE
  5
511A
330
1F
100
AcDbEntity
  8
P-0000
  6
Continuous
 62
     7
100
AcDbLine
 10
165.4607867330933
 20
406.1908222935158
 30
0.0
 11
157.9607867330933
 21
406.1908222935226
 31
0.0
1001
ACME_LAYERS
1000
1
  0
LINE
  5
511B
330
1F
100
AcDbEntity
  8
P-0000
  6
Continuous
 62
     7
100
AcDbLine
 10
250.4510265013751
 20
408.6908222934392
 30
0.0
 11
185.4607867331042
 21
408.6908222934992
 31
0.0
1001
ACME_LAYERS
1000
1
  0
LINE
  5
511C
330
1F
100
AcDbEntity
  8
P-0000
  6
Continuous
 62
     7
100
AcDbLine
 10
250.4510265013732
 20
406.19082229344
 30
0.0
 11
195.4607867330919
 21
406.1908222934891
 31
0.0
1001
ACME_LAYERS
1000
1
  0
LINE
  5
511D
330
1F
100
AcDbEntity
  8
P-0000
  6
Continuous
 62
     7
100
AcDbLine
 10
240.4607867330851
 20
404.1908222934491
 30
0.0
 11
189.4607867330996
 21
404.190822293495
 31
0.0
1001
ACME_LAYERS
1000
1
  0
HATCH
  5
511E
330
1F
100
AcDbEntity
  8
P-0000
  6
Continuous
 62
     1
100
AcDbHatch
 10
0.0
 20
0.0
 30
0.0
210
0.0
220
0.0
230
1.0
  2
_U
 70
     0
 71
     0
 91
        1
 92
        1
 93
       11
 72
     1
 10
184.960786733101
 20
406.1908222934992
 11
173.4607867330933
 21
406.1908222935098
 72
     1
 10
173.4607867330933
 20
406.1908222935092
 11
173.4607867330919
 21
404.1908222935076
 72
     1
 10
173.4607867330919
 20
404.1908222935091
 11
183.9067677271628
 21
404.1908222934996
 72
     1
 10
183.9067677271628
 20
404.1908222934991
 11
189.4607867330996
 21
404.190822293495
 72
     1
 10
189.4607867330996
 20
404.190822293495
 11
189.460786733101
 21
406.1908222934951
 72
     1
 10
189.460786733101
 20
406.1908222934951
 11
187.960786733101
 21
406.190822293496
 72
     2
 10
187.9607867331024
 20
406.6908222934951
 40
0.5
 50
-269.9999999999479
 51
-179.9999999999479
 73
     0
 72
     1
 10
187.4607867331024
 20
406.690822293496
 11
187.4607867331041
 21
408.6908222934968
 72
     1
 10
187.4607867331041
 20
408.6908222934968
 11
185.4607867331042
 21
408.6908222934978
 72
     1
 10
185.4607867331042
 20
408.6908222934992
 11
185.4607867331024
 21
406.6908222934991
 72
     2
 10
184.960786733101
 20
406.6908222934991
 40
0.5
 50
0.0000000000521102
 51
90.00000000005211
 73
     0
 97
        0
 75
     0
 76
     0
 52
-45.0
 41
2.0
 77
     0
 78
     1
 53
315.0
 43
-2342.841327409836
 44
-746.2919344858017
 45
1.414213562373094
 46
1.414213562373094
 79
     0
 98
        1
 10
124.5216779009483
 20
-102.2248460495441
1001
ACME_LAYERS
1000
1
1001
ACAD
1010
0.0
1020
0.0
1030
0.0
  0
LINE
  5
511F
330
1F
100
AcDbEntity
  8
P-0000
  6
Continuous
 62
     7
100
AcDbLine
 10
184.960786733101
 20
406.1908222934992
 30
0.0
 11
173.4607867330933
 21
406.1908222935092
 31
0.0
1001
ACME_LAYERS
1000
1
  0
LINE
  5
5120
330
1F
100
AcDbEntity
  8
P-0000
  6
Continuous
 62
     7
100
AcDbLine
 10
189.4607867330996
 20
404.190822293495
 30
0.0
 11
183.9067677271628
 21
404.1908222934991
 31
0.0
1001
ACME_LAYERS
1000
1
  0
LINE
  5
5121
330
1F
100
AcDbEntity
  8
P-0000
  6
Continuous
 62
     7
100
AcDbLine
 10
195.4607867330919
 20
406.1908222934891
 30
0.0
 11
189.460786733101
 21
406.1908222934951
 31
0.0
1001
ACME_LAYERS
1000
1
  0
LINE
  5
5122
330
1F
100
AcDbEntity
  8
P-0000
  6
Continuous
 62
     7
100
AcDbLine
 10
189.4607867330996
 20
404.190822293495
 30
0.0
 11
189.460786733101
 21
406.1908222934951
 31
0.0
1001
ACME_LAYERS
1000
1
  0
LINE
  5
5123
330
1F
100
AcDbEntity
  8
P-0000
  6
Continuous
 62
     7
100
AcDbLine
 10
189.460786733101
 20
406.1908222934951
 30
0.0
 11
187.960786733101
 21
406.190822293496
 31
0.0
1001
ACME_LAYERS
1000
1
  0
LINE
  5
5124
330
1F
100
AcDbEntity
  8
P-0000
  6
Continuous
 62
     7
100
AcDbLine
 10
185.4607867331024
 20
406.6908222934991
 30
0.0
 11
185.4607867331042
 21
408.6908222934992
 31
0.0
1001
ACME_LAYERS
1000
1
  0
LINE
  5
5125
330
1F
100
AcDbEntity
  8
P-0000
  6
Continuous
 62
     7
100
AcDbLine
 10
187.4607867331024
 20
406.690822293496
 30
0.0
 11
187.4607867331041
 21
408.6908222934968
 31
0.0
1001
ACME_LAYERS
1000
1
  0
LINE
  5
5126
330
1F
100
AcDbEntity
  8
P-0000
  6
Continuous
 62
     7
100
AcDbLine
 10
185.4607867331042
 20
408.6908222934992
 30
0.0
 11
187.4607867331041
 21
408.6908222934968
 31
0.0
1001
ACME_LAYERS
1000
1
  0
ARC
  5
5127
330
1F
100
AcDbEntity
  8
P-0000
  6
Continuous
 62
     7
100
AcDbCircle
 10
184.960786733101
 20
406.6908222934991
 30
0.0
 40
0.5
100
AcDbArc
 50
269.9999999999479
 51
359.9999999999479
1001
ACME_LAYERS
1000
1
  0
ARC
  5
5128
330
1F
100
AcDbEntity
  8
P-0000
  6
Continuous
 62
     7
100
AcDbCircle
 10
187.9607867331024
 20
406.6908222934951
 30
0.0
 40
0.5
100
AcDbArc
 50
179.9999999999479
 51
269.9999999999479
1001
ACME_LAYERS
1000
1
  0
LINE
  5
5129
330
1F
100
AcDbEntity
  8
P-0000
  6
Continuous
 62
     7
100
AcDbLine
 10
169.749956128031
 20
404.1908222935131
 30
0.0
 11
173.4607867330919
 21
404.1908222935091
 31
0.0
1001
ACME_LAYERS
1000
1
  0
LINE
  5
512A
330
1F
100
AcDbEntity
  8
P-0000
  6
Continuous
 62
     7
100
AcDbLine
 10
173.4607867330933
 20
406.1908222935092
 30
0.0
 11
165.4607867330933
 21
406.1908222935158
 31
0.0
1001
ACME_LAYERS
1000
1
  0
LINE
  5
512B
330
1F
100
AcDbEntity
  8
P-0000
  6
Continuous
 62
     7
100
AcDbLine
 10
173.4607867330919
 20
404.1908222935091
 30
0.0
 11
183.9067677271628
 21
404.1908222934991
 31
0.0
1001
ACME_LAYERS
1000
1
  0
LINE
  5
512C
330
1F
100
AcDbEntity
  8
P-0000
  6
Continuous
 62
     7
100
AcDbLine
 10
173.4607867330933
 20
406.1908222935092
 30
0.0
 11
173.4607867330919
 21
404.1908222935091
 31
0.0
1001
ACME_LAYERS
1000
1
  0
LINE
  5
512D
330
1F
100
AcDbEntity
  8
P-0000
  6
Continuous
 62
     7
100
AcDbLine
 10
167.9510265013714
 20
406.1908222935142
 30
0.0
 11
166.9510265013714
 21
406.1908222935142
 31
0.0
1001
ACME_LAYERS
1000
1
  0
LINE
  5
512E
330
1F
100
AcDbEntity
  8
P-0000
  6
Continuous
 62
     7
100
AcDbLine
 10
167.9510265013714
 20
406.1908222935142
 30
0.0
 11
166.9510265013714
 21
406.1908222935142
 31
0.0
1001
ACME_LAYERS
1000
1
  0
LINE
  5
512F
330
1F
100
AcDbEntity
  8
P-0000
  6
Continuous
 62
     7
100
AcDbLine
 10
128.7107867330869
 20
389.1964735919812
 30
0.0
 11
138.7107867330869
 21
389.1964735919719
 31
0.0
1001
ACME_LAYERS
1000
1
  0
LINE
  5
5130
330
1F
100
AcDbEntity
  8
P-0000
  6
Continuous
 62
     7
100
AcDbLine
 10
128.7107867330865
 20
387.1964735919812
 30
0.0
 11
138.7107867330851
 21
387.1964735919712
 31
0.0
1001
ACME_LAYERS
1000
1
  0
LINE
  5
5131
330
1F
100
AcDbEntity
  8
P-0000
  6
Continuous
 62
     7
100
AcDbLine
 10
157.3998955647648
 20
391.1964735919547
 30
0.0
 11
157.3998955647771
 21
403.6908222935235
 31
0.0
1001
ACME_LAYERS
1000
1
  0
LINE
  5
5132
330
1F
100
AcDbEntity
  8
P-0000
  6
Continuous
 62
     7
100
AcDbLine
 10
155.4607867330805
 20
391.1964735919562
 30
0.0
 11
155.4607867330933
 21
406.1908222935247
 31
0.0
1001
ACME_LAYERS
1000
1
  0
LINE
  5
5133
330
1F
100
AcDbEntity
  8
P-0000
  6
Continuous
 62
     7
100
AcDbLine
 10
145.6490949355252
 20
389.1964735919655
 30
0.0
 11
155.4607867330933
 21
406.1908222935247
 31
0.0
1001
ACME_LAYERS
1000
1
  0
LINE
  5
5134
330
1F
100
AcDbEntity
  8
P-0000
  6
Continuous
 62
     7
100
AcDbLine
 10
155.460786733096
 20
408.6908222935251
 30
0.0
 11
157.460786733096
 21
408.6908222935234
 31
0.0
1001
ACME_LAYERS
1000
1
  0
LINE
  5
5135
330
1F
100
AcDbEntity
  8
P-0000
  6
Continuous
 62
     7
100
AcDbLine
 10
157.460786733096
 20
408.6908222935234
 30
0.0
 11
157.4607867330942
 21
406.6908222935234
 31
0.0
1001
ACME_LAYERS
1000
1
  0
ARC
  5
5136
330
1F
100
AcDbEntity
  8
P-0000
  6
Continuous
 62
     7
100
AcDbCircle
 10
157.9607867330933
 20
406.6908222935234
 30
0.0
 40
0.5
100
AcDbArc
 50
179.9999999999479
 51
269.9999999999479
1001
ACME_LAYERS
1000
1
  0
ARC
  5
5137
330
1F
100
AcDbEntity
  8
P-0000
  6
Continuous
 62
     7
100
AcDbCircle
 10
157.8998955647771
 20
403.6908222935235
 30
0.0
 40
0.5
100
AcDbArc
 50
89.99999999994789
 51
179.9999999999479
1001
ACME_LAYERS
1000
1
  0
LINE
  5
5138
330
1F
100
AcDbEntity
  8
P-0000
  6
Continuous
 62
     7
100
AcDbLine
 10
155.460786733096
 20
408.6908222935251
 30
0.0
 11
155.4607867330933
 21
406.1908222935247
 31
0.0
1001
ACME_LAYERS
1000
1
  0
LINE
  5
5139
330
1F
100
AcDbEntity
  8
P-0000
  6
Continuous
 62
     7
100
AcDbLine
 10
145.6490949355252
 20
389.1964735919655
 30
0.0
 11
153.4607867330791
 21
389.1964735919571
 31
0.0
1001
ACME_LAYERS
1000
1
  0
LINE
  5
513A
330
1F
100
AcDbEntity
  8
P-0000
  6
Continuous
 62
     7
100
AcDbLine
 10
138.7107867330851
 20
387.1964735919712
 30
0.0
 11
153.3998955647625
 21
387.1964735919594
 31
0.0
1001
ACME_LAYERS
1000
1
  0
ARC
  5
513B
330
1F
100
AcDbEntity
  8
P-0000
  6
Continuous
 62
     7
100
AcDbCircle
 10
153.4607867330805
 20
391.1964735919578
 30
0.0
 40
2.0
100
AcDbArc
 50
269.9999999999479
 51
359.9999999999479
1001
ACME_LAYERS
1000
1
  0
ARC
  5
513C
330
1F
100
AcDbEntity
  8
P-0000
  6
Continuous
 62
     7
100
AcDbCircle
 10
153.3998955647662
 20
391.1964735919578
 30
0.0
 40
4.0
100
AcDbArc
 50
299.9999999999391
 51
359.9999999999479
1001
ACME_LAYERS
1000
1
  0
ARC
  5
513D
330
1F
100
AcDbEntity
  8
P-0000
  6
Continuous
 62
     7
100
AcDbCircle
 10
153.3998955647662
 20
391.1964735919578
 30
0.0
 40
4.000000000000031
100
AcDbArc
 50
269.9999999999479
 51
299.9999999999391
1001
ACME_LAYERS
1000
1
  0
LINE
  5
513E
330
1F
100
AcDbEntity
  8
P-0000
  6
Continuous
 62
     7
100
AcDbLine
 10
138.7107867330869
 20
389.1964735919719
 30
0.0
 11
145.6490949355252
 21
389.1964735919655
 31
0.0
1001
ACME_LAYERS
1000
1
  0
LINE
  5
513F
330
1F
100
AcDbEntity
  8
P-0000
  6
Continuous
 62
     7
100
AcDbLine
 10
138.7107867330851
 20
387.1964735919712
 30
0.0
 11
138.7107867330869
 21
389.1964735919719
 31
0.0
1001
ACME_LAYERS
1000
1
  0
HATCH
  5
5140
330
1F
100
AcDbEntity
  8
P-0000
  6
Continuous
 62
     1
100
AcDbHatch
 10
0.0
 20
0.0
 30
0.0
210
0.0
220
0.0
230
1.0
  2
_U
 70
     0
 71
     0
 91
        1
 92
        1
 93
        4
 72
     1
 10
123.7107867330851
 20
387.1964735919851
 11
128.7107867330865
 21
387.196473591981
 72
     1
 10
128.7107867330865
 20
387.1964735919812
 11
128.7107867330869
 21
389.1964735919812
 72
     1
 10
128.7107867330869
 20
389.1964735919812
 11
123.7107867330869
 21
389.1964735919862
 72
     1
 10
123.7107867330869
 20
389.1964735919862
 11
123.7107867330851
 21
387.1964735919851
 97
        0
 75
     0
 76
     0
 52
-45.0
 41
2.0
 77
     0
 78
     1
 53
315.0
 43
-2342.841327409836
 44
-746.2919344858017
 45
1.414213562373094
 46
1.414213562373094
 79
     0
 98
        1
 10
124.5216779009483
 20
-102.2248460495441
1001
ACME_LAYERS
1000
1
1001
ACAD
1010
0.0
1020
0.0
1030
0.0
  0
LINE
  5
5141
330
1F
100
AcDbEntity
  8
P-0000
  6
Continuous
 62
     7
100
AcDbLine
 10
123.7107867330869
 20
389.1964735919862
 30
0.0
 11
128.7107867330869
 21
389.1964735919812
 31
0.0
1001
ACME_LAYERS
1000
1
  0
LINE
  5
5142
330
1F
100
AcDbEntity
  8
P-0000
  6
Continuous
 62
     7
100
AcDbLine
 10
123.7107867330851
 20
387.1964735919851
 30
0.0
 11
128.7107867330865
 21
387.1964735919812
 31
0.0
1001
ACME_LAYERS
1000
1
  0
LINE
  5
5143
330
1F
100
AcDbEntity
  8
P-0000
  6
Continuous
 62
     7
100
AcDbLine
 10
128.7107867330865
 20
387.1964735919812
 30
0.0
 11
128.7107867330869
 21
389.1964735919812
 31
0.0
1001
ACME_LAYERS
1000
1
  0
LINE
  5
5144
330
1F
100
AcDbEntity
  8
P-0000
  6
Continuous
 62
     7
100
AcDbLine
 10
123.7107867330851
 20
387.1964735919851
 30
0.0
 11
123.7107867330869
 21
389.1964735919862
 31
0.0
1001
ACME_LAYERS
1000
1
  0
LINE
  5
5145
330
1F
100
AcDbEntity
  8
P-0000
  6
Continuous
 62
     7
100
AcDbLine
 10
248.9607867331324
 20
448.1416507104578
 30
0.0
 11
248.9607867330992
 21
412.1416507104584
 31
0.0
1001
ACME_LAYERS
1000
1
  0
LINE
  5
5146
330
1F
100
AcDbEntity
  8
P-0000
  6
Continuous
 62
     7
100
AcDbLine
 10
174.0131163221363
 20
430.7107799098148
 30
0.0
 11
173.0343271058491
 21
428.0215786396693
 31
0.0
1001
ACME_LAYERS
1000
1
  0
LINE
  5
5147
330
1F
100
AcDbEntity
  8
P-0000
  6
Continuous
 62
     7
100
AcDbLine
 10
182.6850837182341
 20
412.1416507105193
 30
0.0
 11
195.7880121518528
 21
448.1416507105071
 31
0.0
1001
ACME_LAYERS
1000
1
  0
LINE
  5
5148
330
1F
100
AcDbEntity
  8
P-0000
  6
Continuous
 62
     7
100
AcDbLine
 10
248.9607867331383
 20
454.1112998100897
 30
0.0
 11
197.9607867331369
 21
454.1112998101366
 31
0.0
1001
ACME_LAYERS
1000
1
  0
LINE
  5
5149
330
1F
100
AcDbEntity
  8
P-0000
  6
Continuous
 62
     7
100
AcDbLine
 10
248.9607867331383
 20
454.1112998100897
 30
0.0
 11
197.9607867331369
 21
454.1112998101366
 31
0.0
1001
ACME_LAYERS
1000
1
  0
LINE
  5
514A
330
1F
100
AcDbEntity
  8
P-0000
  6
Continuous
 62
     7
100
AcDbLine
 10
202.5907938116179
 20
486.1416507105011
 30
0.0
 11
209.6188810540034
 21
486.1416507104946
 31
0.0
1001
ACME_LAYERS
1000
1
  0
LINE
  5
514B
330
1F
100
AcDbEntity
  8
P-0000
  6
Continuous
 62
     7
100
AcDbLine
 10
196.960786733131
 20
448.1416507105061
 30
0.0
 11
248.9607867331324
 21
448.1416507104578
 31
0.0
1001
ACME_LAYERS
1000
1
  0
LINE
  5
514C
330
1F
100
AcDbEntity
  8
P-0000
  6
Continuous
 62
     7
100
AcDbLine
 10
204.1593275399964
 20
471.1416507104988
 30
0.0
 11
246.3566236771185
 21
471.1416507104602
 31
0.0
1001
ACME_LAYERS
1000
1
  0
LINE
  5
514D
330
1F
100
AcDbEntity
  8
P-0000
  6
Continuous
 62
     7
100
AcDbLine
 10
248.9607867331524
 20
471.1416507104567
 30
0.0
 11
248.9607867331383
 21
454.1112998100897
 31
0.0
1001
ACME_LAYERS
1000
1
  0
LINE
  5
514E
330
1F
100
AcDbEntity
  8
P-0000
  6
Continuous
 62
     7
100
AcDbLine
 10
211.7472365989552
 20
486.1416507104918
 30
0.0
 11
246.3566236771344
 21
486.1416507104611
 31
0.0
1001
ACME_LAYERS
1000
1
  0
LINE
  5
514F
330
1F
100
AcDbEntity
  8
P-0000
  6
Continuous
 62
     7
100
AcDbLine
 10
246.3566236771344
 20
486.1416507104611
 30
0.0
 11
246.3566236771185
 21
471.1416507104602
 31
0.0
1001
ACME_LAYERS
1000
1
  0
LINE
  5
5150
330
1F
100
AcDbEntity
  8
P-0000
  6
Continuous
 62
     7
100
AcDbLine
 10
246.3566236771344
 20
486.1416507104611
 30
0.0
 11
250.460786733167
 21
486.141650710457
 31
0.0
1001
ACME_LAYERS
1000
1
  0
LINE
  5
5151
330
1F
100
AcDbEntity
  8
P-0000
  6
Continuous
 62
     7
100
AcDbLine
 10
246.3566236771185
 20
471.1416507104602
 30
0.0
 11
248.9607867331524
 21
471.1416507104567
 31
0.0
1001
ACME_LAYERS
1000
1
  0
HATCH
  5
5152
330
1F
100
AcDbEntity
  8
P-0000
  6
Continuous
 62
     1
100
AcDbHatch
 10
0.0
 20
0.0
 30
0.0
210
0.0
220
0.0
230
1.0
  2
_U
 70
     0
 71
     0
 91
        1
 92
        1
 93
        5
 72
     1
 10
208.1630001169342
 20
482.1416507104961
 11
209.6188810540034
 21
486.1416507104936
 72
     1
 10
209.6188810540034
 20
486.1416507104946
 11
211.7472365989552
 21
486.1416507104918
 72
     1
 10
211.7472365989552
 20
486.1416507104918
 11
210.5308407444636
 21
482.7996305671676
 72
     2
 10
209.5911481236781
 20
483.1416507104948
 40
1.000000000000015
 50
20.00000000005522
 51
90.00000000005211
 73
     0
 72
     1
 10
209.5911481236771
 20
482.1416507104936
 11
208.1630001169342
 21
482.1416507104961
 97
        0
 75
     0
 76
     0
 52
44.99999999999999
 41
1.0
 77
     0
 78
     1
 53
45.0
 43
-2342.841327409836
 44
-746.2919344858017
 45
-0.7071067811865475
 46
0.7071067811865476
 79
     0
 98
        1
 10
124.5119176692451
 20
-82.33720495778289
1001
ACME_LAYERS
1000
1
1001
ACAD
1010
0.0
1020
0.0
1030
0.0
  0
LINE
  5
5153
330
1F
100
AcDbEntity
  8
P-0000
  6
Continuous
 62
     7
100
AcDbLine
 10
210.5308407444636
 20
482.7996305671676
 30
0.0
 11
211.7472365989552
 21
486.1416507104918
 31
0.0
1001
ACME_LAYERS
1000
1
  0
LINE
  5
5154
330
1F
100
AcDbEntity
  8
P-0000
  6
Continuous
 62
     7
100
AcDbLine
 10
208.1630001169342
 20
482.1416507104961
 30
0.0
 11
209.6188810540034
 21
486.1416507104946
 31
0.0
1001
ACME_LAYERS
1000
1
  0
LINE
  5
5155
330
1F
100
AcDbEntity
  8
P-0000
  6
Continuous
 62
     7
100
AcDbLine
 10
209.6188810540034
 20
486.1416507104946
 30
0.0
 11
211.7472365989552
 21
486.1416507104918
 31
0.0
1001
ACME_LAYERS
1000
1
  0
ARC
  5
5156
330
1F
100
AcDbEntity
  8
P-0000
  6
Continuous
 62
     7
100
AcDbCircle
 10
209.5911481236781
 20
483.1416507104948
 30
0.0
 40
1.000000000000015
100
AcDbArc
 50
269.9999999999479
 51
339.9999999999284
1001
ACME_LAYERS
1000
1
  0
ARC
  5
5157
330
1F
100
AcDbEntity
  8
P-0000
  6
Continuous
 62
     7
100
AcDbCircle
 10
209.5911481236781
 20
483.1416507104948
 30
0.0
 40
1.000000000000015
100
AcDbArc
 50
269.9999999999479
 51
339.9999999999284
1001
ACME_LAYERS
1000
1
  0
LINE
  5
5158
330
1F
100
AcDbEntity
  8
P-0000
  6
Continuous
 62
     7
100
AcDbLine
 10
208.1630001169342
 20
482.1416507104961
 30
0.0
 11
209.5911481236771
 21
482.1416507104936
 31
0.0
1001
ACME_LAYERS
1000
1
  0
LINE
  5
5159
330
1F
100
AcDbEntity
  8
P-0000
  6
Continuous
 62
     7
100
AcDbLine
 10
250.4607867331383
 20
454.1112998100891
 30
0.0
 11
248.9607867331383
 21
454.1112998100897
 31
0.0
1001
ACME_LAYERS
1000
1
  0
LINE
  5
515A
330
1F
100
AcDbEntity
  8
P-0000
  6
Continuous
 62
     7
100
AcDbLine
 10
250.4607867331383
 20
454.1112998100891
 30
0.0
 11
248.9607867331383
 21
454.1112998100897
 31
0.0
1001
ACME_LAYERS
1000
1
  0
LINE
  5
515B
330
1F
100
AcDbEntity
  8
P-0000
  6
Continuous
 62
     7
100
AcDbLine
 10
248.9607867331324
 20
448.1416507104578
 30
0.0
 11
250.460786733131
 21
448.1416507104563
 31
0.0
1001
ACME_LAYERS
1000
1
  0
LINE
  5
515C
330
1F
100
AcDbEntity
  8
P-0000
  6
Continuous
 62
     7
100
AcDbLine
 10
191.3144823621787
 20
478.2458924304178
 30
0.0
 11
174.0131163221363
 21
430.7107799098148
 31
0.0
1001
ACME_LAYERS
1000
1
  0
LINE
  5
515D
330
1F
100
AcDbEntity
  8
P-0000
  6
Continuous
 62
     7
100
AcDbLine
 10
197.9607867331369
 20
454.1112998101366
 30
0.0
 11
204.1593275399964
 21
471.1416507104988
 31
0.0
1001
ACME_LAYERS
1000
1
  0
ARC
  5
515E
330
1F
100
AcDbEntity
  8
P-0000
  6
Continuous
 62
     7
100
AcDbCircle
 10
202.5907938116065
 20
474.1416507105011
 30
0.0
 40
11.99999999999995
100
AcDbArc
 50
89.99999999994789
 51
159.9999999999529
1001
ACME_LAYERS
1000
1
  0
HATCH
  5
515F
330
1F
100
AcDbEntity
  8
P-0000
  6
Continuous
 62
     3
100
AcDbHatch
 10
0.0
 20
0.0
 30
0.0
210
0.0
220
0.0
230
1.0
  2
_U
 70
     0
 71
     0
 91
        1
 92
        1
 93
        4
 72
     1
 10
195.7880121518528
 20
448.1416507105071
 11
197.9607867331369
 21
454.1112998101366
 72
     1
 10
197.9607867331369
 20
454.1112998101366
 11
197.9607867331333
 21
449.1416507105041
 72
     2
 10
196.9607867331324
 20
449.1416507105062
 40
1.0
 50
0.0000000000521102
 51
90.00000000005211
 73
     0
 72
     1
 10
196.960786733131
 20
448.1416507105061
 11
195.7880121518524
 21
448.1416507105071
 97
        0
 75
     0
 76
     0
 52
44.99999999999999
 41
1.0
 77
     0
 78
     1
 53
45.0
 43
-2342.841327409836
 44
-746.2919344858017
 45
-0.7071067811865475
 46
0.7071067811865476
 79
     0
 98
        1
 10
124.5119176692451
 20
-82.33720495778289
1001
ACME_LAYERS
1000
1
1001
ACAD
1010
0.0
1020
0.0
1030
0.0
  0
LINE
  5
5160
330
1F
100
AcDbEntity
  8
P-0000
  6
Continuous
 62
     7
100
AcDbLine
 10
195.7880121518528
 20
448.1416507105071
 30
0.0
 11
196.960786733131
 21
448.1416507105061
 31
0.0
1001
ACME_LAYERS
1000
1
  0
LINE
  5
5161
330
1F
100
AcDbEntity
  8
P-0000
  6
Continuous
 62
     7
100
AcDbLine
 10
195.7880121518528
 20
448.1416507105071
 30
0.0
 11
197.9607867331369
 21
454.1112998101366
 31
0.0
1001
ACME_LAYERS
1000
1
  0
LINE
  5
5162
330
1F
100
AcDbEntity
  8
P-0000
  6
Continuous
 62
     7
100
AcDbLine
 10
197.9607867331324
 20
449.1416507105048
 30
0.0
 11
197.9607867331369
 21
454.1112998101366
 31
0.0
1001
ACME_LAYERS
1000
1
  0
LINE
  5
5163
330
1F
100
AcDbEntity
  8
P-0000
  6
Continuous
 62
     7
100
AcDbLine
 10
197.9607867331324
 20
449.1416507105048
 30
0.0
 11
197.9607867331369
 21
454.1112998101366
 31
0.0
1001
ACME_LAYERS
1000
1
  0
ARC
  5
5164
330
1F
100
AcDbEntity
  8
P-0000
  6
Continuous
 62
     7
100
AcDbCircle
 10
196.9607867331324
 20
449.1416507105062
 30
0.0
 40
1.0
100
AcDbArc
 50
269.9999999999479
 51
359.9999999999479
1001
ACME_LAYERS
1000
1
  0
ARC
  5
5165
330
1F
100
AcDbEntity
  8
P-0000
  6
Continuous
 62
     3
100
AcDbCircle
 10
196.9607867331324
 20
449.1416507105062
 30
0.0
 40
1.0
100
AcDbArc
 50
269.9999999999479
 51
359.9999999999479
1001
ACME_LAYERS
1000
1
  0
LINE
  5
5166
330
1F
100
AcDbEntity
  8
P-0000
  6
Continuous
 62
     7
100
AcDbLine
 10
248.9607867330992
 20
412.1416507104584
 30
0.0
 11
182.6850837182341
 21
412.1416507105193
 31
0.0
1001
ACME_LAYERS
1000
1
  0
LINE
  5
5167
330
1F
100
AcDbEntity
  8
P-0000
  6
Continuous
 62
     7
100
AcDbLine
 10
248.9607867330992
 20
412.1416507104584
 30
0.0
 11
182.6850837182341
 21
412.1416507105193
 31
0.0
1001
ACME_LAYERS
1000
1
  0
LINE
  5
5168
330
1F
100
AcDbEntity
  8
P-0000
  6
Continuous
 62
     7
100
AcDbLine
 10
248.9607867330992
 20
412.1416507104584
 30
0.0
 11
182.6850837182341
 21
412.1416507105193
 31
0.0
1001
ACME_LAYERS
1000
1
  0
LINE
  5
5169
330
1F
100
AcDbEntity
  8
P-0000
  6
Continuous
 62
     7
100
AcDbLine
 10
182.6850837182282
 20
406.1416507105177
 30
0.0
 11
248.9607867330942
 21
406.141650710458
 31
0.0
1001
ACME_LAYERS
1000
1
  0
LINE
  5
516A
330
1F
100
AcDbEntity
  8
P-0000
  6
Continuous
 62
     7
100
AcDbLine
 10
173.0343271058491
 20
428.0215786396693
 30
0.0
 11
165.4607867330942
 21
407.213447480258
 31
0.0
1001
ACME_LAYERS
1000
1
  0
LINE
  5
516B
330
1F
100
AcDbEntity
  8
P-0000
  6
Continuous
 62
     7
100
AcDbLine
 10
171.4607867330942
 20
406.1416507105293
 30
0.0
 11
179.6850837182281
 21
406.1416507105211
 31
0.0
1001
ACME_LAYERS
1000
1
  0
LINE
  5
516C
330
1F
100
AcDbEntity
  8
P-0000
  6
Continuous
 62
     7
100
AcDbLine
 10
179.6850837182281
 20
406.1416507105211
 30
0.0
 11
179.6850837182342
 21
412.141650710522
 31
0.0
1001
ACME_LAYERS
1000
1
  0
LINE
  5
516D
330
1F
100
AcDbEntity
  8
P-0000
  6
Continuous
 62
     7
100
AcDbLine
 10
182.6850837182282
 20
406.1416507105177
 30
0.0
 11
182.6850837182341
 21
412.1416507105193
 31
0.0
1001
ACME_LAYERS
1000
1
  0
LINE
  5
516E
330
1F
100
AcDbEntity
  8
P-0000
  6
Continuous
 62
     7
100
AcDbLine
 10
182.6850837182341
 20
412.1416507105193
 30
0.0
 11
179.6850837182342
 21
412.141650710522
 31
0.0
1001
ACME_LAYERS
1000
1
  0
LINE
  5
516F
330
1F
100
AcDbEntity
  8
P-0000
  6
Continuous
 62
     7
100
AcDbLine
 10
182.6850837182341
 20
412.1416507105193
 30
0.0
 11
179.6850837182342
 21
412.141650710522
 31
0.0
1001
ACME_LAYERS
1000
1
  0
LINE
  5
5170
330
1F
100
AcDbEntity
  8
P-0000
  6
Continuous
 62
     7
100
AcDbLine
 10
179.6850837182281
 20
406.1416507105211
 30
0.0
 11
182.6850837182282
 21
406.1416507105177
 31
0.0
1001
ACME_LAYERS
1000
1
  0
LINE
  5
5171
330
1F
100
AcDbEntity
  8
P-0000
  6
Continuous
 62
     7
100
AcDbLine
 10
164.9607867330919
 20
403.9416507105348
 30
0.0
 11
164.9607867330933
 21
406.1416507105345
 31
0.0
1001
ACME_LAYERS
1000
1
  0
LINE
  5
5172
330
1F
100
AcDbEntity
  8
P-0000
  6
Continuous
 62
     7
100
AcDbLine
 10
166.2370169996375
 20
400.1850829417419
 30
0.0
 11
171.4607867330942
 21
406.1416507105293
 31
0.0
1001
ACME_LAYERS
1000
1
  0
LINE
  5
5173
330
1F
100
AcDbEntity
  8
P-0000
  6
Continuous
 62
     7
100
AcDbLine
 10
165.4607867330933
 20
406.1416507105345
 30
0.0
 11
165.4607867330942
 21
407.213447480258
 31
0.0
1001
ACME_LAYERS
1000
1
  0
LINE
  5
5174
330
1F
100
AcDbEntity
  8
P-0000
  6
Continuous
 62
     7
100
AcDbLine
 10
164.9607867330933
 20
406.1416507105345
 30
0.0
 11
165.4607867330933
 21
406.1416507105345
 31
0.0
1001
ACME_LAYERS
1000
1
  0
LINE
  5
5175
330
1F
100
AcDbEntity
  8
P-0000
  6
Continuous
 62
     7
100
AcDbLine
 10
165.4607867330933
 20
406.1416507105345
 30
0.0
 11
165.4607867330942
 21
407.213447480258
 31
0.0
1001
ACME_LAYERS
1000
1
  0
LINE
  5
5176
330
1F
100
AcDbEntity
  8
P-0000
  6
Continuous
 62
     7
100
AcDbLine
 10
163.7607867330912
 20
402.441650710535
 30
0.0
 11
165.319613925159
 21
400.2441089393339
 31
0.0
1001
ACME_LAYERS
1000
1
  0
LINE
  5
5177
330
1F
100
AcDbEntity
  8
P-0000
  6
Continuous
 62
     7
100
AcDbLine
 10
164.9607867330919
 20
403.9416507105348
 30
0.0
 11
163.7607867330921
 21
403.9416507105348
 31
0.0
1001
ACME_LAYERS
1000
1
  0
LINE
  5
5178
330
1F
100
AcDbEntity
  8
P-0000
  6
Continuous
 62
     7
100
AcDbLine
 10
163.7607867330921
 20
403.9416507105348
 30
0.0
 11
163.7607867330912
 21
402.441650710535
 31
0.0
1001
ACME_LAYERS
1000
1
  0
ARC
  5
5179
330
1F
100
AcDbEntity
  8
P-0000
  6
Continuous
 62
     7
100
AcDbCircle
 10
165.8089937272429
 20
400.591250710534
 30
0.0
 40
0.6000000000000229
100
AcDbArc
 50
215.3499999999398
 51
269.9999999999479
1001
ACME_LAYERS
1000
1
  0
ARC
  5
517A
330
1F
100
AcDbEntity
  8
P-0000
  6
Continuous
 62
     7
100
AcDbCircle
 10
165.8092201491813
 20
400.5602507105336
 30
0.0
 40
0.5689999999999894
100
AcDbArc
 50
269.9999999999479
 51
318.7499999999251
1001
ACME_LAYERS
1000
1
  0
LINE
  5
517B
330
1F
100
AcDbEntity
  8
P-0000
  6
Continuous
 62
     7
100
AcDbLine
 10
165.8089937272429
 20
399.9912507105339
 30
0.0
 11
165.8092201491813
 21
399.9912507105339
 31
0.0
1001
ACME_LAYERS
1000
1
  0
HATCH
  5
517C
330
1F
100
AcDbEntity
  8
P-0000
  6
Continuous
 62
     1
100
AcDbHatch
 10
0.0
 20
0.0
 30
0.0
210
0.0
220
0.0
230
1.0
  2
_U
 70
     0
 71
     0
 91
        1
 92
        1
 93
        4
 72
     1
 10
179.6850837182342
 20
412.141650710522
 11
182.6850837182341
 21
412.1416507105193
 72
     1
 10
182.6850837182341
 20
412.1416507105193
 11
182.6850837182291
 21
406.1416507105177
 72
     1
 10
182.6850837182282
 20
406.1416507105177
 11
179.6850837182281
 21
406.1416507105211
 72
     1
 10
179.6850837182281
 20
406.1416507105211
 11
179.6850837182342
 21
412.141650710522
 97
        0
 75
     0
 76
     0
 52
44.99999999999999
 41
1.0
 77
     0
 78
     1
 53
45.0
 43
-2342.841327409836
 44
-746.2919344858017
 45
-0.7071067811865475
 46
0.7071067811865476
 79
     0
 98
        1
 10
423.0518139692613
 20
524.6397337422798
1001
GENIUS_GENODEF_13
1002
{
1000
HIER
1070
     0
1002
}
1002
{
1000
MANEDIT
1070
     0
1002
}
1002
{
1000
NOSEL
1070
     0
1002
}
1002
{
1000
BEHIND
1070
     0
1002
}
1002
{
1000
OTHER
1070
     0
1002
}
1002
{
1000
REACTOR
1002
}
1001
GENIUS_GENOBJ-N-HTC_13
1002
{
1000
OWNER
1000
GEN
1002
}
1001
GENIUS_GENHATCH_13
1002
{
1000
DATA
1040
135.0
1042
-1.0
1000
_U
1070
     0
1011
181.9161069027818
1021
406.6002377570375
1031
0.0
1002
}
1002
{
1000
UCS
1010
0.0
1020
0.0
1030
0.0
1010
1.0
1020
0.0
1030
0.0
1010
0.0
1020
1.0
1030
0.0
1002
}
1001
ACAD
1010
0.0
1020
0.0
1030
0.0
  0
HATCH
  5
517D
330
1F
100
AcDbEntity
  8
AM_8
100
AcDbHatch
 10
0.0
 20
0.0
 30
0.0
210
0.0
220
0.0
230
1.0
  2
_U
 70
     0
 71
     0
 91
        1
 92
        1
 93
        5
 72
     1
 10
250.460786733167
 20
486.141650710457
 11
249.9695153519324
 21
486.1416507104578
 72
     1
 10
249.9695153519324
 20
486.1416507104578
 11
249.9695153519324
 21
471.1416507104567
 72
     1
 10
249.9695153519324
 20
471.1416507104567
 11
253.5824070268291
 21
471.1416507104567
 72
     1
 10
253.5824070268304
 20
471.1416507104567
 11
253.5824070268304
 21
486.1416507104581
 72
     1
 10
253.5824070268304
 20
486.1416507104578
 11
250.460786733167
 21
486.141650710457
 97
        0
 75
     0
 76
     0
 52
45.0
 41
2.5
 77
     0
 78
     1
 53
45.0
 43
-2342.841327409836
 44
-746.2919344858017
 45
-1.767766952966368
 46
1.767766952966368
 79
     0
 98
        1
 10
-2342.841327409836
 20
-746.2919344858017
1001
GENIUS_GENODEF_13
1002
{
1000
HIER
1070
     0
1002
}
1002
{
1000
MANEDIT
1070
     0
1002
}
1002
{
1000
NOSEL
1070
     0
1002
}
1002
{
1000
BEHIND
1070
     0
1002
}
1002
{
1000
OTHER
1070
     0
1002
}
1002
{
1000
REACTOR
1002
}
1001
GENIUS_GENOBJ-N-HTC_13
1002
{
1000
OWNER
1000
GEN
1002
}
1001
GENIUS_GENHATCH_13
1002
{
1000
DATA
1040
45.0
1042
2.5
1000
_U
1070
     0
1011
252.3340422208239
1021
483.7511805736491
1031
0.0
1002
}
1002
{
1000
UCS
1010
0.0
1020
0.0
1030
0.0
1010
1.0
1020
0.0
1030
0.0
1010
0.0
1020
1.0
1030
0.0
1002
}
  0
HATCH
  5
517E
330
1F
100
AcDbEntity
  8
AM_8
100
AcDbHatch
 10
0.0
 20
0.0
 30
0.0
210
0.0
220
0.0
230
1.0
  2
_U
 70
     0
 71
     0
 91
        1
 92
        1
 93
        8
 72
     1
 10
249.4782439707965
 20
486.1416507104578
 11
246.3566236771344
 21
486.1416507104611
 72
     1
 10
246.3566236771344
 20
486.1416507104611
 11
246.3566236771189
 21
471.1416507104602
 72
     1
 10
246.3566236771185
 20
471.1416507104602
 11
247.9782439707965
 21
471.1416507104567
 72
     1
 10
247.9782439707965
 20
471.1416507104567
 11
248.9607867331529
 21
471.1416507104567
 72
     1
 10
248.9607867331524
 20
471.1416507104567
 11
249.4782439707965
 21
471.1416507104567
 72
     1
 10
249.4782439707965
 20
471.1416507104567
 11
249.9695153519324
 21
471.1416507104567
 72
     1
 10
249.9695153519324
 20
471.1416507104567
 11
249.9695153519324
 21
486.1416507104581
 72
     1
 10
249.9695153519324
 20
486.1416507104578
 11
249.4782439707965
 21
486.1416507104578
 97
        0
 75
     0
 76
     0
 52
45.0
 41
2.5
 77
     0
 78
     1
 53
45.0
 43
-2342.841327409836
 44
-746.2919344858017
 45
-1.767766952966368
 46
1.767766952966368
 79
     0
 98
        1
 10
-2342.841327409836
 20
-746.2919344858017
1001
GENIUS_GENOBJ-N-HTC_13
1002
{
1000
OWNER
1000
GEN
1002
}
1001
GENIUS_GENODEF_13
1002
{
1000
HIER
1070
     0
1002
}
1002
{
1000
MANEDIT
1070
     0
1002
}
1002
{
1000
NOSEL
1070
     0
1002
}
1002
{
1000
BEHIND
1070
     0
1002
}
1002
{
1000
OTHER
1070
     0
1002
}
1002
{
1000
REACTOR
1002
}
1001
GENIUS_GENHATCH_13
1002
{
1000
DATA
1040
45.0
1042
2.5
1000
_U
1070
     0
1011
249.2351384880744
1021
482.4045602042938
1031
0.0
1002
}
1002
{
1000
UCS
1010
0.0
1020
0.0
1030
0.0
1010
1.0
1020
0.0
1030
0.0
1010
0.0
1020
1.0
1030
0.0
1002
}
  0
LINE
  5
517F
330
1F
100
AcDbEntity
  8
AM_7
  6
AM_DIN_G_W050x2
100
AcDbLine
 10
133.7107867330951
 20
399.2159170083739
 30
0.0
 11
133.7282439707883
 21
387.1964735918711
 31
0.0
1001
GENIUS_GENOBJ-N-CEN_13
1002
{
1000
OWNER
1000
GEN
1002
}
1001
GENIUS_GENODEF_13
1002
{
1000
HIER
1070
     0
1002
}
1002
{
1000
MANEDIT
1070
     0
1002
}
1002
{
1000
NOSEL
1070
     0
1002
}
1002
{
1000
BEHIND
1070
     0
1002
}
1002
{
1000
OTHER
1070
     0
1002
}
1002
{
1000
REACTOR
1002
}
1001
GENIUS_GENCEN_19
1002
{
1040
3.0
1002
}
  0
LINE
  5
5180
330
1F
100
AcDbEntity
  8
AM_7
  6
AM_DIN_G_W050x2
100
AcDbLine
 10
366.2282439707884
 20
399.215917008268
 30
0.0
 11
366.2282439707873
 21
387.1964735918711
 31
0.0
1001
GENIUS_GENODEF_13
1002
{
1000
HIER
1070
     0
1002
}
1002
{
1000
MANEDIT
1070
     0
1002
}
1002
{
1000
NOSEL
1070
     0
1002
}
1002
{
1000
BEHIND
1070
     0
1002
}
1002
{
1000
OTHER
1070
     0
1002
}
1002
{
1000
REACTOR
1002
}
1001
GENIUS_GENOBJ-N-CEN_13
1002
{
1000
OWNER
1000
GEN
1002
}
1001
GENIUS_GENCEN_19
1002
{
1040
3.0
1002
}
  0
LINE
  5
5181
330
1F
100
AcDbEntity
  8
P-0000
  6
Continuous
 62
     7
100
AcDbLine
 10
250.0435090337342
 20
386.7059207070211
 30
0.0
 11
250.0347804148991
 21
386.7059207070211
 31
0.0
1001
ACME_LAYERS
1000
1
  0
LINE
  5
5182
330
1F
100
AcDbEntity
  8
P-0000
  6
Continuous
 62
     7
100
AcDbLine
 10
250.0435090337342
 20
384.9738698994529
 30
0.0
 11
250.0347804148751
 21
384.9738698994529
 31
0.0
1001
ACME_LAYERS
1000
1
  0
LINE
  5
5183
330
1F
100
AcDbEntity
  8
P-0000
  6
Continuous
 62
     7
100
AcDbLine
 10
258.552237652591
 20
387.2059207070229
 30
0.0
 11
255.052237652591
 21
387.2059207070229
 31
0.0
1001
ACME_LAYERS
1000
1
  0
LINE
  5
5184
330
1F
100
AcDbEntity
  8
P-0000
  6
Continuous
 62
     7
100
AcDbLine
 10
255.052237652591
 20
387.2059207070229
 30
0.0
 11
250.0522376525911
 21
387.2059207070229
 31
0.0
1001
ACME_LAYERS
1000
1
  0
LINE
  5
5185
330
1F
100
AcDbEntity
  8
P-0000
  6
Continuous
 62
     7
100
AcDbLine
 10
260.5522376525911
 20
387.2059207070229
 30
0.0
 11
258.552237652591
 21
387.2059207070229
 31
0.0
1001
ACME_LAYERS
1000
1
  0
LINE
  5
5186
330
1F
100
AcDbEntity
  8
P-0000
  6
Continuous
 62
     7
100
AcDbLine
 10
260.5522376525911
 20
389.2059207070229
 30
0.0
 11
260.5522376525911
 21
387.2059207070229
 31
0.0
1001
ACME_LAYERS
1000
1
  0
LINE
  5
5187
330
1F
100
AcDbEntity
  8
P-0000
  6
Continuous
 62
     7
100
AcDbLine
 10
250.0435090337342
 20
386.7059207070211
 30
0.0
 11
250.05223765257
 21
386.7059207070211
 31
0.0
1001
ACME_LAYERS
1000
1
  0
LINE
  5
5188
330
1F
100
AcDbEntity
  8
P-0000
  6
Continuous
 62
     7
100
AcDbLine
 10
250.0435090337342
 20
384.9738698994529
 30
0.0
 11
250.0522376525942
 21
384.9738698994529
 31
0.0
1001
ACME_LAYERS
1000
1
  0
LINE
  5
5189
330
1F
100
AcDbEntity
  8
P-0000
  6
Continuous
 62
     7
100
AcDbLine
 10
241.5522376525901
 20
387.2059207070229
 30
0.0
 11
245.052237652591
 21
387.2059207070229
 31
0.0
1001
ACME_LAYERS
1000
1
  0
LINE
  5
518A
330
1F
100
AcDbEntity
  8
P-0000
  6
Continuous
 62
     7
100
AcDbLine
 10
245.052237652591
 20
387.2059207070229
 30
0.0
 11
250.0522376525911
 21
387.2059207070229
 31
0.0
1001
ACME_LAYERS
1000
1
  0
LINE
  5
518B
330
1F
100
AcDbEntity
  8
P-0000
  6
Continuous
 62
     7
100
AcDbLine
 10
239.5522376525919
 20
387.2059207070229
 30
0.0
 11
241.5522376525901
 21
387.2059207070229
 31
0.0
1001
ACME_LAYERS
1000
1
  0
LINE
  5
518C
330
1F
100
AcDbEntity
  8
P-0000
  6
Continuous
 62
     7
100
AcDbLine
 10
239.5522376525919
 20
389.2059207070229
 30
0.0
 11
239.5522376525919
 21
387.2059207070229
 31
0.0
1001
ACME_LAYERS
1000
1
  0
LINE
  5
518D
330
1F
100
AcDbEntity
  8
P-0000
  6
Continuous
 62
     7
100
AcDbLine
 10
254.5522376526078
 20
387.2059207070229
 30
0.0
 11
249.5522376525983
 21
387.2059207070229
 31
0.0
1001
ACME_LAYERS
1000
1
  0
LINE
  5
518E
330
1F
100
AcDbEntity
  8
P-0000
  6
Continuous
 62
     7
100
AcDbLine
 10
260.5522376526069
 20
389.2059207070229
 30
0.0
 11
260.5522376526069
 21
404.2002694085922
 31
0.0
1001
ACME_LAYERS
1000
1
  0
LINE
  5
518F
330
1F
100
AcDbEntity
  8
P-0000
  6
Continuous
 62
     7
100
AcDbLine
 10
251.0522376526069
 20
404.2002694085922
 30
0.0
 11
259.5522376526069
 21
404.2002694085922
 31
0.0
1001
ACME_LAYERS
1000
1
  0
LINE
  5
5190
330
1F
100
AcDbEntity
  8
P-0000
  6
Continuous
 62
     7
100
AcDbLine
 10
249.5619978843361
 20
404.2002694085922
 30
0.0
 11
251.0522376526069
 21
404.2002694085922
 31
0.0
1001
ACME_LAYERS
1000
1
  0
LINE
  5
5191
330
1F
100
AcDbEntity
  8
P-0000
  6
Continuous
 62
     7
100
AcDbLine
 10
249.5424774208773
 20
401.2002694085922
 30
0.0
 11
249.5424774208809
 21
401.2002694085922
 31
0.0
1001
ACME_LAYERS
1000
1
  0
LINE
  5
5192
330
1F
100
AcDbEntity
  8
P-0000
  6
Continuous
 62
     7
100
AcDbLine
 10
249.5619978843338
 20
401.2002694085922
 30
0.0
 11
249.5619978843369
 21
401.2002694085922
 31
0.0
1001
ACME_LAYERS
1000
1
  0
LINE
  5
5193
330
1F
100
AcDbEntity
  8
P-0000
  6
Continuous
 62
     7
100
AcDbLine
 10
259.5522376526069
 20
387.2059207070229
 30
0.0
 11
254.5522376526078
 21
387.2059207070229
 31
0.0
1001
ACME_LAYERS
1000
1
  0
LINE
  5
5194
330
1F
100
AcDbEntity
  8
P-0000
  6
Continuous
 62
     7
100
AcDbLine
 10
239.5347804148619
 20
389.2059207070229
 30
0.0
 11
239.5347804148619
 21
404.2002694085922
 31
0.0
1001
ACME_LAYERS
1000
1
  0
LINE
  5
5195
330
1F
100
AcDbEntity
  8
P-0000
  6
Continuous
 62
     7
100
AcDbLine
 10
249.0347804148619
 20
404.2002694085922
 30
0.0
 11
240.5347804148632
 21
404.2002694085922
 31
0.0
1001
ACME_LAYERS
1000
1
  0
LINE
  5
5196
330
1F
100
AcDbEntity
  8
P-0000
  6
Continuous
 62
     7
100
AcDbLine
 10
250.5250201831332
 20
404.2002694085922
 30
0.0
 11
249.0347804148619
 21
404.2002694085922
 31
0.0
1001
ACME_LAYERS
1000
1
  0
LINE
  5
5197
330
1F
100
AcDbEntity
  8
0
100
AcDbLine
 10
248.0347804148619
 20
404.2002694085922
 30
0.0
 11
248.0347804148619
 21
387.2059207070229
 31
0.0
  0
LINE
  5
5198
330
1F
100
AcDbEntity
  8
0
100
AcDbLine
 10
252.0522376526069
 20
404.2002694085922
 30
0.0
 11
252.0522376526028
 21
387.2059207070229
 31
0.0
  0
DIMENSION
  5
519B
102
{ACAD_XDICTIONARY
360
519C
102
}
102
{ACAD_REACTORS
330
519D
102
}
330
1F
100
AcDbEntity
  8
AM_5
100
AcDbDimension
  2
*D3
 10
72.99999899176828
 20
370.0000008020763
 30
0.0
 11
66.49999899176821
 21
185.0000008020847
 31
0.0
 70
    32
 71
     5
 42
369.9999999999831
  3
AM_DIN$0
100
AcDbAlignedDimension
 13
250.043509033731
 23
0.0000008020931546
 33
0.0
 14
84.99999899176826
 24
370.0000008020763
 34
0.0
 50
90.0
100
AcDbRotatedDimension
1001
ACAD_DSTYLE_DIMINSPECT
1070
   396
1000
100%
1070
   395
1000

1070
   394
1070
    33
1070
   393
1070
     0
1001
ACAD
1000
DSTYLE
1002
{
1070
    41
1040
5.0
1070
   140
1040
10.0
1070
   271
1070
     0
1002
}
  0
LINE
  5
52EC
330
1F
100
AcDbEntity
  8
P-0000
  6
Continuous
 62
     7
100
AcDbLine
 10
316.5435090337303
 20
217.9962148435908
 30
0.0
 11
315.8666633360771
 21
217.9962148435908
 31
0.0
1001
ACME_LAYERS
1000
1
  0
LINE
  5
52F4
330
1F
100
AcDbEntity
  8
P-0000
  6
Continuous
 62
     7
100
AcDbLine
 10
174.5435090336942
 20
348.000000802078
 30
0.0
 11
184.8623920197208
 21
348.000000802078
 31
0.0
1001
ACME_LAYERS
1000
1
  0
LINE
  5
52F5
330
1F
100
AcDbEntity
  8
P-0000
  6
Continuous
 62
     7
100
AcDbLine
 10
177.5435090337016
 20
323.0000008020738
 30
0.0
 11
184.8623920197208
 21
323.0000008020738
 31
0.0
1001
ACME_LAYERS
1000
1
  0
LINE
  5
52F6
330
1F
100
AcDbEntity
  8
P-0000
  6
Continuous
 62
     7
100
AcDbLine
 10
177.5435090337016
 20
323.0000008020738
 30
0.0
 11
177.5435090337015
 21
232.0000008020764
 31
0.0
1001
ACME_LAYERS
1000
1
  0
LINE
  5
52F7
330
1F
100
AcDbEntity
  8
P-0000
  6
Continuous
 62
     7
100
AcDbLine
 10
154.543509033714
 20
330.0000008021003
 30
0.0
 11
154.543509033714
 21
220.0000008020773
 31
0.0
1001
ACME_LAYERS
1000
1
  0
LINE
  5
52F8
330
1F
100
AcDbEntity
  8
P-0000
  6
Continuous
 62
     7
100
AcDbLine
 10
147.5435090337141
 20
330.0000008021003
 30
0.0
 11
147.5435090337141
 21
220.0000008020773
 31
0.0
1001
ACME_LAYERS
1000
1
  0
HATCH
  5
52FB
330
1F
100
AcDbEntity
  8
P-0000
  6
Continuous
 62
     3
100
AcDbHatch
 10
0.0
 20
0.0
 30
0.0
210
0.0
220
0.0
230
1.0
  2
_U
 70
     0
 71
     0
 91
        1
 92
        1
 93
       14
 72
     1
 10
160.0435090337015
 20
225.0000008020773
 11
160.0435090337015
 21
220.0000008020773
 72
     1
 10
160.0435090337015
 20
220.0000008020773
 11
154.5435090337139
 21
220.0000008020773
 72
     1
 10
154.543509033714
 20
220.0000008020773
 11
154.543509033714
 21
330.0000008021003
 72
     1
 10
154.543509033714
 20
330.0000008021003
 11
147.5435090337141
 21
330.0000008021003
 72
     1
 10
147.5435090337141
 20
330.0000008021003
 11
147.5435090337141
 21
370.0000008020735
 72
     1
 10
147.5435090337141
 20
370.0000008020735
 11
166.0435090337011
 21
370.0000008020735
 72
     1
 10
166.0435090337011
 20
370.0000008020735
 11
166.0435090336992
 21
348.0000008020771
 72
     1
 10
166.0435090336992
 20
348.0000008020771
 11
170.0435090336992
 21
348.0000008020776
 72
     1
 10
170.0435090336992
 20
348.0000008020776
 11
170.0435090336992
 21
323.0000008020738
 72
     1
 10
170.0435090336992
 20
323.0000008020738
 11
177.5435090337016
 21
323.0000008020738
 72
     1
 10
177.5435090337016
 20
323.0000008020738
 11
177.5435090337016
 21
232.0000008020764
 72
     1
 10
177.5435090337015
 20
232.0000008020764
 11
183.5435090337021
 21
232.0000008020764
 72
     1
 10
183.5435090337021
 20
232.0000008020764
 11
183.5435090337021
 21
225.0000008020772
 72
     1
 10
183.5435090337021
 20
225.0000008020773
 11
160.0435090337015
 21
225.0000008020773
 97
        0
 75
     0
 76
     0
 52
-45.0
 41
5.0
 77
     0
 78
     1
 53
315.0
 43
401.8039505349673
 44
163.9447614079026
 45
3.535533905932738
 46
3.535533905932736
 79
     0
 98
        1
 10
401.8039505349673
 20
163.9447614079026
1001
ACME_LAYERS
1000
1
  0
HATCH
  5
52FC
330
1F
100
AcDbEntity
  8
P-0000
  6
Continuous
 62
     3
100
AcDbHatch
 10
0.0
 20
0.0
 30
0.0
210
0.0
220
0.0
230
1.0
  2
_U
 70
     0
 71
     0
 91
        1
 92
        1
 93
       14
 72
     1
 10
160.0435090337015
 20
225.0000008020773
 11
160.0435090337015
 21
220.0000008020773
 72
     1
 10
160.0435090337015
 20
220.0000008020773
 11
154.5435090337139
 21
220.0000008020773
 72
     1
 10
154.543509033714
 20
220.0000008020773
 11
154.543509033714
 21
330.0000008021003
 72
     1
 10
154.543509033714
 20
330.0000008021003
 11
147.5435090337141
 21
330.0000008021003
 72
     1
 10
147.5435090337141
 20
330.0000008021003
 11
147.5435090337141
 21
370.0000008020735
 72
     1
 10
147.5435090337141
 20
370.0000008020735
 11
166.0435090337011
 21
370.0000008020735
 72
     1
 10
166.0435090337011
 20
370.0000008020735
 11
166.0435090336992
 21
348.0000008020771
 72
     1
 10
166.0435090336992
 20
348.0000008020771
 11
170.0435090336992
 21
348.0000008020776
 72
     1
 10
170.0435090336992
 20
348.0000008020776
 11
170.0435090336992
 21
323.0000008020738
 72
     1
 10
170.0435090336992
 20
323.0000008020738
 11
177.5435090337016
 21
323.0000008020738
 72
     1
 10
177.5435090337016
 20
323.0000008020738
 11
177.5435090337016
 21
232.0000008020764
 72
     1
 10
177.5435090337015
 20
232.0000008020764
 11
183.5435090337021
 21
232.0000008020764
 72
     1
 10
183.5435090337021
 20
232.0000008020764
 11
183.5435090337021
 21
225.0000008020772
 72
     1
 10
183.5435090337021
 20
225.0000008020773
 11
160.0435090337015
 21
225.0000008020773
 97
        0
 75
     0
 76
     0
 52
44.99999999999999
 41
5.0
 77
     0
 78
     1
 53
45.0
 43
401.8039505349673
 44
163.9447614079026
 45
-3.535533905932736
 46
3.535533905932738
 79
     0
 98
        1
 10
401.8039505349673
 20
163.9447614079026
1001
ACME_LAYERS
1000
1
  0
LINE
  5
52FD
330
1F
100
AcDbEntity
  8
P-0000
  6
Continuous
 62
     7
100
AcDbLine
 10
166.0435090336992
 20
348.0000008020771
 30
0.0
 11
166.0435090337011
 21
370.0000008020735
 31
0.0
1001
ACME_LAYERS
1000
1
  0
LINE
  5
5300
330
1F
100
AcDbEntity
  8
P-0000
  6
Continuous
 62
     7
100
AcDbLine
 10
147.5435090337141
 20
370.0000008020735
 30
0.0
 11
147.5435090337141
 21
330.0000008021003
 31
0.0
1001
ACME_LAYERS
1000
1
  0
LINE
  5
5301
330
1F
100
AcDbEntity
  8
P-0000
  6
Continuous
 62
     7
100
AcDbLine
 10
148.3047120937895
 20
370.0000008020763
 30
0.0
 11
157.1858973765977
 21
370.0000008020763
 31
0.0
1001
ACME_LAYERS
1000
1
  0
LINE
  5
5302
330
1F
100
AcDbEntity
  8
P-0000
  6
Continuous
 62
     7
100
AcDbLine
 10
152.5435090336992
 20
370.0000008020735
 30
0.0
 11
166.0435090337011
 21
370.0000008020735
 31
0.0
1001
ACME_LAYERS
1000
1
  0
LINE
  5
5303
330
1F
100
AcDbEntity
  8
P-0000
  6
Continuous
 62
     7
100
AcDbLine
 10
147.5435090337141
 20
370.0000008020735
 30
0.0
 11
148.3047120937895
 21
370.0000008020763
 31
0.0
1001
ACME_LAYERS
1000
1
  0
LINE
  5
5304
330
1F
100
AcDbEntity
  8
P-0000
  6
Continuous
 62
     7
100
AcDbLine
 10
170.0435090336992
 20
323.0000008020738
 30
0.0
 11
177.5435090337016
 21
323.0000008020738
 31
0.0
1001
ACME_LAYERS
1000
1
  0
LINE
  5
5305
330
1F
100
AcDbEntity
  8
P-0000
  6
Continuous
 62
     7
100
AcDbLine
 10
170.0435090336992
 20
348.0000008020776
 30
0.0
 11
174.5435090336942
 21
348.000000802078
 31
0.0
1001
ACME_LAYERS
1000
1
  0
LINE
  5
5306
330
1F
100
AcDbEntity
  8
P-0000
  6
Continuous
 62
     7
100
AcDbLine
 10
170.0435090336992
 20
348.0000008020776
 30
0.0
 11
170.0435090336992
 21
323.0000008020738
 31
0.0
1001
ACME_LAYERS
1000
1
  0
LINE
  5
5307
330
1F
100
AcDbEntity
  8
P-0000
  6
Continuous
 62
     7
100
AcDbLine
 10
166.0435090336992
 20
348.0000008020771
 30
0.0
 11
170.0435090336992
 21
348.0000008020776
 31
0.0
1001
ACME_LAYERS
1000
1
  0
LINE
  5
5308
330
1F
100
AcDbEntity
  8
P-0000
  6
Continuous
 62
     7
100
AcDbLine
 10
154.543509033714
 20
330.0000008021003
 30
0.0
 11
147.5435090337141
 21
330.0000008021003
 31
0.0
1001
ACME_LAYERS
1000
1
  0
LINE
  5
5309
330
1F
100
AcDbEntity
  8
P-0000
  6
Continuous
 62
     7
100
AcDbLine
 10
177.5435090337016
 20
323.0000008020738
 30
0.0
 11
178.5435090337015
 21
323.0000008020738
 31
0.0
1001
ACME_LAYERS
1000
1
  0
LINE
  5
530B
330
1F
100
AcDbEntity
  8
P-0000
  6
Continuous
 62
     7
100
AcDbLine
 10
183.5435090337314
 20
224.99621484359
 30
0.0
 11
183.5435090337314
 21
217.9962148435908
 31
0.0
1001
ACME_LAYERS
1000
1
  0
LINE
  5
530C
330
1F
100
AcDbEntity
  8
P-0000
  6
Continuous
 62
     7
100
AcDbLine
 10
183.5435090337021
 20
232.0000008020764
 30
0.0
 11
177.5435090337015
 21
232.0000008020764
 31
0.0
1001
ACME_LAYERS
1000
1
  0
LINE
  5
530D
330
1F
100
AcDbEntity
  8
P-0000
  6
Continuous
 62
     7
100
AcDbLine
 10
183.5435090337021
 20
225.0000008020773
 30
0.0
 11
160.0435090337015
 21
225.0000008020773
 31
0.0
1001
ACME_LAYERS
1000
1
  0
LINE
  5
530E
330
1F
100
AcDbEntity
  8
P-0000
  6
Continuous
 62
     7
100
AcDbLine
 10
160.0435090337015
 20
220.0000008020773
 30
0.0
 11
154.543509033714
 21
220.0000008020773
 31
0.0
1001
ACME_LAYERS
1000
1
  0
LINE
  5
530F
330
1F
100
AcDbEntity
  8
P-0000
  6
Continuous
 62
     7
100
AcDbLine
 10
154.543509033714
 20
220.0000008020773
 30
0.0
 11
147.5435090337141
 21
220.0000008020773
 31
0.0
1001
ACME_LAYERS
1000
1
  0
LINE
  5
5310
330
1F
100
AcDbEntity
  8
P-0000
  6
Continuous
 62
     7
100
AcDbLine
 10
160.0435090337015
 20
225.0000008020773
 30
0.0
 11
160.0435090337015
 21
220.0000008020773
 31
0.0
1001
ACME_LAYERS
1000
1
  0
LINE
  5
5312
330
1F
100
AcDbEntity
  8
P-0000
  6
Continuous
 62
     7
100
AcDbLine
 10
345.5435090336892
 20
220.0000008020773
 30
0.0
 11
345.5435090336892
 21
330.0000008021003
 31
0.0
1001
ACME_LAYERS
1000
1
  0
HATCH
  5
5313
330
1F
100
AcDbEntity
  8
P-0000
  6
Continuous
 62
     3
100
AcDbHatch
 10
0.0
 20
0.0
 30
0.0
210
0.0
220
0.0
230
1.0
  2
_U
 70
     0
 71
     0
 91
        1
 92
        1
 93
       11
 72
     1
 10
334.0435090336992
 20
232.0000008020764
 11
316.5435090337009
 21
232.0000008020764
 72
     1
 10
316.5435090337009
 20
232.0000008020764
 11
316.5435090337009
 21
225.0000008020772
 72
     1
 10
316.5435090337009
 20
225.0000008020773
 11
340.0435090337016
 21
225.0000008020773
 72
     1
 10
340.0435090337016
 20
225.0000008020773
 11
340.0435090337016
 21
220.0000008020773
 72
     1
 10
340.0435090337016
 20
220.0000008020773
 11
345.5435090336892
 21
220.0000008020773
 72
     1
 10
345.5435090336892
 20
220.0000008020773
 11
345.5435090336892
 21
330.0000008021003
 72
     1
 10
345.5435090336892
 20
330.0000008021003
 11
352.5435090336892
 21
330.0000008021003
 72
     1
 10
352.5435090336892
 20
330.0000008021003
 11
352.5435090336944
 21
335.1174873703292
 72
     1
 10
352.5435090336944
 20
335.1174873703292
 11
352.5435090336963
 21
370.0000008020771
 72
     1
 10
352.5435090336963
 20
370.0000008020771
 11
334.0435090336994
 21
370.0000008020735
 72
     1
 10
334.0435090336992
 20
370.0000008020735
 11
334.0435090336992
 21
232.0000008020764
 97
        0
 75
     0
 76
     0
 52
-45.0
 41
5.0
 77
     0
 78
     1
 53
315.0
 43
401.8039505349673
 44
163.9447614079026
 45
3.535533905932738
 46
3.535533905932736
 79
     0
 98
        1
 10
401.8039505349673
 20
163.9447614079026
1001
ACME_LAYERS
1000
1
  0
HATCH
  5
5314
330
1F
100
AcDbEntity
  8
P-0000
  6
Continuous
 62
     3
100
AcDbHatch
 10
0.0
 20
0.0
 30
0.0
210
0.0
220
0.0
230
1.0
  2
_U
 70
     0
 71
     0
 91
        1
 92
        1
 93
       11
 72
     1
 10
334.0435090336992
 20
232.0000008020764
 11
316.5435090337009
 21
232.0000008020764
 72
     1
 10
316.5435090337009
 20
232.0000008020764
 11
316.5435090337009
 21
225.0000008020772
 72
     1
 10
316.5435090337009
 20
225.0000008020773
 11
340.0435090337016
 21
225.0000008020773
 72
     1
 10
340.0435090337016
 20
225.0000008020773
 11
340.0435090337016
 21
220.0000008020773
 72
     1
 10
340.0435090337016
 20
220.0000008020773
 11
345.5435090336892
 21
220.0000008020773
 72
     1
 10
345.5435090336892
 20
220.0000008020773
 11
345.5435090336892
 21
330.0000008021003
 72
     1
 10
345.5435090336892
 20
330.0000008021003
 11
352.5435090336892
 21
330.0000008021003
 72
     1
 10
352.5435090336892
 20
330.0000008021003
 11
352.5435090336944
 21
335.1174873703292
 72
     1
 10
352.5435090336944
 20
335.1174873703292
 11
352.5435090336963
 21
370.0000008020771
 72
     1
 10
352.5435090336963
 20
370.0000008020771
 11
334.0435090336994
 21
370.0000008020735
 72
     1
 10
334.0435090336992
 20
370.0000008020735
 11
334.0435090336992
 21
232.0000008020764
 97
        0
 75
     0
 76
     0
 52
44.99999999999999
 41
5.0
 77
     0
 78
     1
 53
45.0
 43
401.8039505349673
 44
163.9447614079026
 45
-3.535533905932736
 46
3.535533905932738
 79
     0
 98
        1
 10
401.8039505349673
 20
163.9447614079026
1001
ACME_LAYERS
1000
1
  0
LINE
  5
5315
330
1F
100
AcDbEntity
  8
P-0000
  6
Continuous
 62
     7
100
AcDbLine
 10
352.5435090336963
 20
370.0000008020771
 30
0.0
 11
352.5435090336884
 21
220.0000008020773
 31
0.0
1001
ACME_LAYERS
1000
1
  0
LINE
  5
5316
330
1F
100
AcDbEntity
  8
P-0000
  6
Continuous
 62
     7
100
AcDbLine
 10
334.0435090336992
 20
232.0000008020764
 30
0.0
 11
334.0435090336992
 21
370.0000008020735
 31
0.0
1001
ACME_LAYERS
1000
1
  0
LINE
  5
5319
330
1F
100
AcDbEntity
  8
P-0000
  6
Continuous
 62
     7
100
AcDbLine
 10
334.0435090336992
 20
370.0000008020735
 30
0.0
 11
347.5435090336992
 21
370.0000008020771
 31
0.0
1001
ACME_LAYERS
1000
1
  0
LINE
  5
531E
330
1F
100
AcDbEntity
  8
P-0000
  6
Continuous
 62
     7
100
AcDbLine
 10
342.9011206908052
 20
370.0000008020763
 30
0.0
 11
352.5435090336963
 21
370.0000008020771
 31
0.0
1001
ACME_LAYERS
1000
1
  0
LINE
  5
531F
330
1F
100
AcDbEntity
  8
P-0000
  6
Continuous
 62
     7
100
AcDbLine
 10
352.5435090337185
 20
322.9962148436138
 30
0.0
 11
345.5435090337185
 21
322.9962148436138
 31
0.0
1001
ACME_LAYERS
1000
1
  0
LINE
  5
5320
330
1F
100
AcDbEntity
  8
P-0000
  6
Continuous
 62
     7
100
AcDbLine
 10
340.0435090337016
 20
225.0000008020773
 30
0.0
 11
331.5435090336992
 21
225.0000008020773
 31
0.0
1001
ACME_LAYERS
1000
1
  0
LINE
  5
5321
330
1F
100
AcDbEntity
  8
P-0000
  6
STRICHLINIE
 62
     2
100
AcDbLine
 10
331.5435090336992
 20
232.0000008020764
 30
0.0
 11
331.5435090336992
 21
225.0000008020773
 31
0.0
1001
ACME_LAYERS
1000
1
  0
LINE
  5
5322
330
1F
100
AcDbEntity
  8
P-0000
  6
STRICHLINIE
 62
     2
100
AcDbLine
 10
324.5435090336992
 20
232.0000008020764
 30
0.0
 11
324.5435090336992
 21
225.0000008020773
 31
0.0
1001
ACME_LAYERS
1000
1
  0
LINE
  5
5323
330
1F
100
AcDbEntity
  8
P-0000
  6
STRICHPUNKT
 62
     3
100
AcDbLine
 10
328.0435090336992
 20
238.0000008020764
 30
0.0
 11
328.0435090336992
 21
219.0000008020773
 31
0.0
1001
ACME_LAYERS
1000
1
  0
LINE
  5
5324
330
1F
100
AcDbEntity
  8
P-0000
  6
Continuous
 62
     7
100
AcDbLine
 10
316.5435090337009
 20
225.0000008020773
 30
0.0
 11
316.5435090337009
 21
232.0000008020764
 31
0.0
1001
ACME_LAYERS
1000
1
  0
LINE
  5
5326
330
1F
100
AcDbEntity
  8
P-0000
  6
Continuous
 62
     7
100
AcDbLine
 10
316.5435090337009
 20
232.0000008020764
 30
0.0
 11
324.5435090336992
 21
232.0000008020764
 31
0.0
1001
ACME_LAYERS
1000
1
  0
LINE
  5
5327
330
1F
100
AcDbEntity
  8
P-0000
  6
Continuous
 62
     7
100
AcDbLine
 10
331.5435090336992
 20
232.0000008020764
 30
0.0
 11
334.0435090336992
 21
232.0000008020764
 31
0.0
1001
ACME_LAYERS
1000
1
  0
LINE
  5
5328
330
1F
100
AcDbEntity
  8
P-0000
  6
Continuous
 62
     7
100
AcDbLine
 10
324.5435090336992
 20
232.0000008020764
 30
0.0
 11
331.5435090336992
 21
232.0000008020764
 31
0.0
1001
ACME_LAYERS
1000
1
  0
LINE
  5
5329
330
1F
100
AcDbEntity
  8
P-0000
  6
Continuous
 62
     7
100
AcDbLine
 10
324.5435090336992
 20
225.0000008020773
 30
0.0
 11
316.5435090337009
 21
225.0000008020773
 31
0.0
1001
ACME_LAYERS
1000
1
  0
LINE
  5
532A
330
1F
100
AcDbEntity
  8
P-0000
  6
Continuous
 62
     7
100
AcDbLine
 10
331.5435090336992
 20
225.0000008020773
 30
0.0
 11
324.5435090336992
 21
225.0000008020773
 31
0.0
1001
ACME_LAYERS
1000
1
  0
LINE
  5
532B
330
1F
100
AcDbEntity
  8
P-0000
  6
Continuous
 62
     7
100
AcDbLine
 10
352.5435090336884
 20
220.0000008020773
 30
0.0
 11
340.0435090337016
 21
220.0000008020773
 31
0.0
1001
ACME_LAYERS
1000
1
  0
LINE
  5
532C
330
1F
100
AcDbEntity
  8
P-0000
  6
Continuous
 62
     7
100
AcDbLine
 10
340.0435090337016
 20
225.0000008020773
 30
0.0
 11
340.0435090337016
 21
220.0000008020773
 31
0.0
1001
ACME_LAYERS
1000
1
  0
LINE
  5
532E
330
1F
100
AcDbEntity
  8
P-0000
  6
Continuous
 62
     7
100
AcDbLine
 10
316.543509033731
 20
112.9962148435908
 30
0.0
 11
315.8666633360772
 21
112.9962148435908
 31
0.0
1001
ACME_LAYERS
1000
1
  0
LINE
  5
5330
330
1F
100
AcDbEntity
  8
P-0000
  6
Continuous
 62
     7
100
AcDbLine
 10
183.5435090337016
 20
225.0000008020773
 30
0.0
 11
183.5435090337016
 21
120.0000008020772
 31
0.0
1001
ACME_LAYERS
1000
1
  0
LINE
  5
5333
330
1F
100
AcDbEntity
  8
P-0000
  6
Continuous
 62
     7
100
AcDbLine
 10
154.5435090337125
 20
210.0000008020773
 30
0.0
 11
154.5435090337125
 21
120.0000008020772
 31
0.0
1001
ACME_LAYERS
1000
1
  0
LINE
  5
5334
330
1F
100
AcDbEntity
  8
P-0000
  6
Continuous
 62
     7
100
AcDbLine
 10
147.5435090337143
 20
210.0000008020773
 30
0.0
 11
147.5435090337143
 21
120.0000008020772
 31
0.0
1001
ACME_LAYERS
1000
1
  0
HATCH
  5
5335
330
1F
100
AcDbEntity
  8
P-0000
  6
Continuous
 62
     3
100
AcDbHatch
 10
0.0
 20
0.0
 30
0.0
210
0.0
220
0.0
230
1.0
  2
_U
 70
     0
 71
     0
 91
        1
 92
        1
 93
        8
 72
     1
 10
183.5435090337016
 20
120.0000008020772
 11
154.5435090337125
 21
120.0000008020772
 72
     1
 10
154.5435090337125
 20
120.0000008020772
 11
154.5435090337125
 21
210.0000008020773
 72
     1
 10
154.5435090337125
 20
210.0000008020773
 11
147.5435090337143
 21
210.0000008020773
 72
     1
 10
147.5435090337143
 20
210.0000008020773
 11
147.5435090337143
 21
220.0000008020773
 72
     1
 10
147.5435090337143
 20
220.0000008020773
 11
160.0435090337016
 21
220.0000008020773
 72
     1
 10
160.0435090337016
 20
220.0000008020773
 11
160.0435090337016
 21
225.0000008020773
 72
     1
 10
160.0435090337016
 20
225.0000008020773
 11
183.5435090337016
 21
225.0000008020773
 72
     1
 10
183.5435090337016
 20
225.0000008020773
 11
183.5435090337016
 21
120.0000008020772
 97
        0
 75
     0
 76
     0
 52
-45.0
 41
5.0
 77
     0
 78
     1
 53
315.0
 43
401.8039505349682
 44
619.4651129590048
 45
3.535533905932738
 46
3.535533905932736
 79
     0
 98
        1
 10
401.8039505349682
 20
619.4651129590048
1001
ACME_LAYERS
1000
1
  0
HATCH
  5
5336
330
1F
100
AcDbEntity
  8
P-0000
  6
Continuous
 62
     3
100
AcDbHatch
 10
0.0
 20
0.0
 30
0.0
210
0.0
220
0.0
230
1.0
  2
_U
 70
     0
 71
     0
 91
        1
 92
        1
 93
        8
 72
     1
 10
183.5435090337016
 20
120.0000008020772
 11
154.5435090337125
 21
120.0000008020772
 72
     1
 10
154.5435090337125
 20
120.0000008020772
 11
154.5435090337125
 21
210.0000008020773
 72
     1
 10
154.5435090337125
 20
210.0000008020773
 11
147.5435090337143
 21
210.0000008020773
 72
     1
 10
147.5435090337143
 20
210.0000008020773
 11
147.5435090337143
 21
220.0000008020773
 72
     1
 10
147.5435090337143
 20
220.0000008020773
 11
160.0435090337016
 21
220.0000008020773
 72
     1
 10
160.0435090337016
 20
220.0000008020773
 11
160.0435090337016
 21
225.0000008020773
 72
     1
 10
160.0435090337016
 20
225.0000008020773
 11
183.5435090337016
 21
225.0000008020773
 72
     1
 10
183.5435090337016
 20
225.0000008020773
 11
183.5435090337016
 21
120.0000008020772
 97
        0
 75
     0
 76
     0
 52
44.99999999999999
 41
5.0
 77
     0
 78
     1
 53
45.0
 43
401.8039505349682
 44
619.4651129590048
 45
-3.535533905932736
 46
3.535533905932738
 79
     0
 98
        1
 10
401.8039505349682
 20
619.4651129590048
1001
ACME_LAYERS
1000
1
  0
LINE
  5
5338
330
1F
100
AcDbEntity
  8
P-0000
  6
Continuous
 62
     7
100
AcDbLine
 10
147.5435090337143
 20
220.0000008020773
 30
0.0
 11
147.5435090337143
 21
210.0000008020773
 31
0.0
1001
ACME_LAYERS
1000
1
  0
LINE
  5
5339
330
1F
100
AcDbEntity
  8
P-0000
  6
Continuous
 62
     7
100
AcDbLine
 10
183.5435090337016
 20
225.0000008020773
 30
0.0
 11
160.0435090337016
 21
225.0000008020773
 31
0.0
1001
ACME_LAYERS
1000
1
  0
LINE
  5
533A
330
1F
100
AcDbEntity
  8
P-0000
  6
Continuous
 62
     7
100
AcDbLine
 10
160.0435090337016
 20
220.0000008020773
 30
0.0
 11
147.5435090337143
 21
220.0000008020773
 31
0.0
1001
ACME_LAYERS
1000
1
  0
LINE
  5
533B
330
1F
100
AcDbEntity
  8
P-0000
  6
Continuous
 62
     7
100
AcDbLine
 10
160.0435090337016
 20
225.0000008020773
 30
0.0
 11
160.0435090337016
 21
220.0000008020773
 31
0.0
1001
ACME_LAYERS
1000
1
  0
LINE
  5
533C
330
1F
100
AcDbEntity
  8
P-0000
  6
Continuous
 62
     7
100
AcDbLine
 10
154.5435090337125
 20
210.0000008020773
 30
0.0
 11
147.5435090337143
 21
210.0000008020773
 31
0.0
1001
ACME_LAYERS
1000
1
  0
LINE
  5
533D
330
1F
100
AcDbEntity
  8
P-0000
  6
Continuous
 62
     7
100
AcDbLine
 10
183.5435090337016
 20
120.0000008020772
 30
0.0
 11
154.5435090337125
 21
120.0000008020772
 31
0.0
1001
ACME_LAYERS
1000
1
  0
LINE
  5
533E
330
1F
100
AcDbEntity
  8
P-0000
  6
Continuous
 62
     7
100
AcDbLine
 10
154.5435090337125
 20
120.0000008020772
 30
0.0
 11
147.5435090337143
 21
120.0000008020772
 31
0.0
1001
ACME_LAYERS
1000
1
  0
HATCH
  5
533F
330
1F
100
AcDbEntity
  8
P-0000
  6
Continuous
 62
     3
100
AcDbHatch
 10
0.0
 20
0.0
 30
0.0
210
0.0
220
0.0
230
1.0
  2
_U
 70
     0
 71
     0
 91
        1
 92
        1
 93
        5
 72
     1
 10
316.5435090337017
 20
120.0000008020772
 11
324.5435090336999
 21
120.0000008020772
 72
     1
 10
324.5435090336999
 20
120.0000008020772
 11
324.5435090336999
 21
225.0000008020773
 72
     1
 10
324.5435090336999
 20
225.0000008020773
 11
316.5435090337017
 21
225.0000008020773
 72
     1
 10
316.5435090337017
 20
225.0000008020773
 11
316.5435090337017
 21
207.3263328956939
 72
     1
 10
316.5435090337017
 20
207.3263328956939
 11
316.5435090337017
 21
120.0000008020772
 97
        0
 75
     0
 76
     0
 52
-45.0
 41
5.0
 77
     0
 78
     1
 53
315.0
 43
401.8039505349682
 44
619.4651129590048
 45
3.535533905932738
 46
3.535533905932736
 79
     0
 98
        1
 10
401.8039505349682
 20
619.4651129590048
1001
ACME_LAYERS
1000
1
  0
HATCH
  5
5340
330
1F
100
AcDbEntity
  8
P-0000
  6
Continuous
 62
     3
100
AcDbHatch
 10
0.0
 20
0.0
 30
0.0
210
0.0
220
0.0
230
1.0
  2
_U
 70
     0
 71
     0
 91
        1
 92
        1
 93
        5
 72
     1
 10
316.5435090337017
 20
120.0000008020772
 11
324.5435090336999
 21
120.0000008020772
 72
     1
 10
324.5435090336999
 20
120.0000008020772
 11
324.5435090336999
 21
225.0000008020773
 72
     1
 10
324.5435090336999
 20
225.0000008020773
 11
316.5435090337017
 21
225.0000008020773
 72
     1
 10
316.5435090337017
 20
225.0000008020773
 11
316.5435090337017
 21
207.3263328956939
 72
     1
 10
316.5435090337017
 20
207.3263328956939
 11
316.5435090337017
 21
120.0000008020772
 97
        0
 75
     0
 76
     0
 52
44.99999999999999
 41
5.0
 77
     0
 78
     1
 53
45.0
 43
401.8039505349682
 44
619.4651129590048
 45
-3.535533905932736
 46
3.535533905932738
 79
     0
 98
        1
 10
401.8039505349682
 20
619.4651129590048
1001
ACME_LAYERS
1000
1
  0
HATCH
  5
5341
330
1F
100
AcDbEntity
  8
P-0000
  6
Continuous
 62
     3
100
AcDbHatch
 10
0.0
 20
0.0
 30
0.0
210
0.0
220
0.0
230
1.0
  2
_U
 70
     0
 71
     0
 91
        1
 92
        1
 93
        4
 72
     1
 10
324.5435090336999
 20
120.0000008020772
 11
331.5435090336999
 21
120.0000008020772
 72
     1
 10
331.5435090336999
 20
120.0000008020772
 11
331.5435090336999
 21
225.0000008020773
 72
     1
 10
331.5435090336999
 20
225.0000008020773
 11
324.5435090336999
 21
225.0000008020773
 72
     1
 10
324.5435090336999
 20
225.0000008020773
 11
324.5435090336999
 21
120.0000008020772
 97
        0
 75
     0
 76
     0
 52
-45.0
 41
5.0
 77
     0
 78
     1
 53
315.0
 43
401.8039505349682
 44
619.4651129590048
 45
3.535533905932738
 46
3.535533905932736
 79
     0
 98
        1
 10
401.8039505349682
 20
619.4651129590048
1001
ACME_LAYERS
1000
1
  0
HATCH
  5
5342
330
1F
100
AcDbEntity
  8
P-0000
  6
Continuous
 62
     3
100
AcDbHatch
 10
0.0
 20
0.0
 30
0.0
210
0.0
220
0.0
230
1.0
  2
_U
 70
     0
 71
     0
 91
        1
 92
        1
 93
        4
 72
     1
 10
324.5435090336999
 20
120.0000008020772
 11
331.5435090336999
 21
120.0000008020772
 72
     1
 10
331.5435090336999
 20
120.0000008020772
 11
331.5435090336999
 21
225.0000008020773
 72
     1
 10
331.5435090336999
 20
225.0000008020773
 11
324.5435090336999
 21
225.0000008020773
 72
     1
 10
324.5435090336999
 20
225.0000008020773
 11
324.5435090336999
 21
120.0000008020772
 97
        0
 75
     0
 76
     0
 52
44.99999999999999
 41
5.0
 77
     0
 78
     1
 53
45.0
 43
401.8039505349682
 44
619.4651129590048
 45
-3.535533905932736
 46
3.535533905932738
 79
     0
 98
        1
 10
401.8039505349682
 20
619.4651129590048
1001
ACME_LAYERS
1000
1
  0
HATCH
  5
5343
330
1F
100
AcDbEntity
  8
P-0000
  6
Continuous
 62
     3
100
AcDbHatch
 10
0.0
 20
0.0
 30
0.0
210
0.0
220
0.0
230
1.0
  2
_U
 70
     0
 71
     0
 91
        1
 92
        1
 93
        9
 72
     1
 10
334.0435090336999
 20
120.0000008020772
 11
345.5435090336891
 21
120.0000008020772
 72
     1
 10
345.5435090336891
 20
120.0000008020772
 11
345.5435090336891
 21
210.0000008020773
 72
     1
 10
345.5435090336891
 20
210.0000008020773
 11
352.5435090336872
 21
210.0000008020773
 72
     1
 10
352.5435090336872
 20
210.0000008020773
 11
352.5435090336889
 21
220.0000008020773
 72
     1
 10
352.5435090336889
 20
220.0000008020773
 11
340.0435090337018
 21
220.0000008020773
 72
     1
 10
340.0435090337018
 20
220.0000008020773
 11
340.0435090337018
 21
225.0000008020773
 72
     1
 10
340.0435090337018
 20
225.0000008020773
 11
331.5435090336999
 21
225.0000008020773
 72
     1
 10
331.5435090336999
 20
225.0000008020773
 11
331.5435090336999
 21
120.0000008020772
 72
     1
 10
331.5435090336999
 20
120.0000008020772
 11
334.0435090336999
 21
120.0000008020772
 97
        0
 75
     0
 76
     0
 52
-45.0
 41
5.0
 77
     0
 78
     1
 53
315.0
 43
401.8039505349682
 44
619.4651129590048
 45
3.535533905932738
 46
3.535533905932736
 79
     0
 98
        1
 10
401.8039505349682
 20
619.4651129590048
1001
ACME_LAYERS
1000
1
  0
HATCH
  5
5344
330
1F
100
AcDbEntity
  8
P-0000
  6
Continuous
 62
     3
100
AcDbHatch
 10
0.0
 20
0.0
 30
0.0
210
0.0
220
0.0
230
1.0
  2
_U
 70
     0
 71
     0
 91
        1
 92
        1
 93
        9
 72
     1
 10
334.0435090336999
 20
120.0000008020772
 11
345.5435090336891
 21
120.0000008020772
 72
     1
 10
345.5435090336891
 20
120.0000008020772
 11
345.5435090336891
 21
210.0000008020773
 72
     1
 10
345.5435090336891
 20
210.0000008020773
 11
352.5435090336872
 21
210.0000008020773
 72
     1
 10
352.5435090336872
 20
210.0000008020773
 11
352.5435090336889
 21
220.0000008020773
 72
     1
 10
352.5435090336889
 20
220.0000008020773
 11
340.0435090337018
 21
220.0000008020773
 72
     1
 10
340.0435090337018
 20
220.0000008020773
 11
340.0435090337018
 21
225.0000008020773
 72
     1
 10
340.0435090337018
 20
225.0000008020773
 11
331.5435090336999
 21
225.0000008020773
 72
     1
 10
331.5435090336999
 20
225.0000008020773
 11
331.5435090336999
 21
120.0000008020772
 72
     1
 10
331.5435090336999
 20
120.0000008020772
 11
334.0435090336999
 21
120.0000008020772
 97
        0
 75
     0
 76
     0
 52
44.99999999999999
 41
5.0
 77
     0
 78
     1
 53
45.0
 43
401.8039505349682
 44
619.4651129590048
 45
-3.535533905932736
 46
3.535533905932738
 79
     0
 98
        1
 10
401.8039505349682
 20
619.4651129590048
1001
ACME_LAYERS
1000
1
  0
LINE
  5
5346
330
1F
100
AcDbEntity
  8
P-0000
  6
STRICHLINIE
 62
     2
100
AcDbLine
 10
324.5435090336999
 20
225.0000008020773
 30
0.0
 11
324.5435090336999
 21
120.0000008020772
 31
0.0
1001
ACME_LAYERS
1000
1
  0
LINE
  5
5347
330
1F
100
AcDbEntity
  8
P-0000
  6
STRICHLINIE
 62
     2
100
AcDbLine
 10
331.5435090336999
 20
225.0000008020773
 30
0.0
 11
331.5435090336999
 21
120.0000008020772
 31
0.0
1001
ACME_LAYERS
1000
1
  0
LINE
  5
5348
330
1F
100
AcDbEntity
  8
P-0000
  6
Continuous
 62
     7
100
AcDbLine
 10
316.5435090337017
 20
207.3263328956939
 30
0.0
 11
316.5435090337017
 21
120.0000008020772
 31
0.0
1001
ACME_LAYERS
1000
1
  0
LINE
  5
5349
330
1F
100
AcDbEntity
  8
P-0000
  6
STRICHPUNKT
 62
     3
100
AcDbLine
 10
328.0435090336999
 20
232.0000008020773
 30
0.0
 11
328.0435090336999
 21
120.0000008020772
 31
0.0
1001
ACME_LAYERS
1000
1
  0
LINE
  5
534A
330
1F
100
AcDbEntity
  8
P-0000
  6
Continuous
 62
     7
100
AcDbLine
 10
345.5435090336891
 20
120.0000008020772
 30
0.0
 11
345.5435090336891
 21
210.0000008020773
 31
0.0
1001
ACME_LAYERS
1000
1
  0
LINE
  5
534B
330
1F
100
AcDbEntity
  8
P-0000
  6
Continuous
 62
     7
100
AcDbLine
 10
345.5435090336891
 20
120.0000008020772
 30
0.0
 11
345.5435090336891
 21
210.0000008020773
 31
0.0
1001
ACME_LAYERS
1000
1
  0
LINE
  5
534C
330
1F
100
AcDbEntity
  8
P-0000
  6
Continuous
 62
     7
100
AcDbLine
 10
352.5435090336872
 20
210.0000008020773
 30
0.0
 11
352.5435090336836
 21
120.0000008020772
 31
0.0
1001
ACME_LAYERS
1000
1
  0
LINE
  5
534D
330
1F
100
AcDbEntity
  8
P-0000
  6
Continuous
 62
     7
100
AcDbLine
 10
340.0435090337018
 20
225.0000008020773
 30
0.0
 11
331.5435090336999
 21
225.0000008020773
 31
0.0
1001
ACME_LAYERS
1000
1
  0
LINE
  5
534E
330
1F
100
AcDbEntity
  8
P-0000
  6
Continuous
 62
     7
100
AcDbLine
 10
316.543509033731
 20
217.9962148435908
 30
0.0
 11
315.8666633360772
 21
217.9962148435908
 31
0.0
1001
ACME_LAYERS
1000
1
  0
LINE
  5
5350
330
1F
100
AcDbEntity
  8
P-0000
  6
Continuous
 62
     7
100
AcDbLine
 10
316.5435090337017
 20
207.3263328956939
 30
0.0
 11
316.5435090337017
 21
225.0000008020773
 31
0.0
1001
ACME_LAYERS
1000
1
  0
LINE
  5
5351
330
1F
100
AcDbEntity
  8
P-0000
  6
Continuous
 62
     7
100
AcDbLine
 10
324.5435090336999
 20
225.0000008020773
 30
0.0
 11
316.5435090337017
 21
225.0000008020773
 31
0.0
1001
ACME_LAYERS
1000
1
  0
LINE
  5
5352
330
1F
100
AcDbEntity
  8
P-0000
  6
Continuous
 62
     7
100
AcDbLine
 10
331.5435090336999
 20
225.0000008020773
 30
0.0
 11
324.5435090336999
 21
225.0000008020773
 31
0.0
1001
ACME_LAYERS
1000
1
  0
LINE
  5
5353
330
1F
100
AcDbEntity
  8
P-0000
  6
Continuous
 62
     7
100
AcDbLine
 10
352.5435090336889
 20
220.0000008020773
 30
0.0
 11
352.5435090336872
 21
210.0000008020773
 31
0.0
1001
ACME_LAYERS
1000
1
  0
LINE
  5
5354
330
1F
100
AcDbEntity
  8
P-0000
  6
Continuous
 62
     7
100
AcDbLine
 10
352.5435090336889
 20
220.0000008020773
 30
0.0
 11
340.0435090337018
 21
220.0000008020773
 31
0.0
1001
ACME_LAYERS
1000
1
  0
LINE
  5
5355
330
1F
100
AcDbEntity
  8
P-0000
  6
Continuous
 62
     7
100
AcDbLine
 10
340.0435090337018
 20
225.0000008020773
 30
0.0
 11
340.0435090337018
 21
220.0000008020773
 31
0.0
1001
ACME_LAYERS
1000
1
  0
LINE
  5
5356
330
1F
100
AcDbEntity
  8
P-0000
  6
Continuous
 62
     7
100
AcDbLine
 10
352.5435090336872
 20
210.0000008020773
 30
0.0
 11
345.5435090336891
 21
210.0000008020773
 31
0.0
1001
ACME_LAYERS
1000
1
  0
LINE
  5
5357
330
1F
100
AcDbEntity
  8
P-0000
  6
Continuous
 62
     7
100
AcDbLine
 10
334.0435090336999
 20
120.0000008020772
 30
0.0
 11
345.5435090336891
 21
120.0000008020772
 31
0.0
1001
ACME_LAYERS
1000
1
  0
LINE
  5
5358
330
1F
100
AcDbEntity
  8
P-0000
  6
Continuous
 62
     7
100
AcDbLine
 10
316.5435090337017
 20
120.0000008020772
 30
0.0
 11
324.5435090336999
 21
120.0000008020772
 31
0.0
1001
ACME_LAYERS
1000
1
  0
LINE
  5
5359
330
1F
100
AcDbEntity
  8
P-0000
  6
Continuous
 62
     7
100
AcDbLine
 10
331.5435090336999
 20
120.0000008020772
 30
0.0
 11
334.0435090336999
 21
120.0000008020772
 31
0.0
1001
ACME_LAYERS
1000
1
  0
LINE
  5
535A
330
1F
100
AcDbEntity
  8
P-0000
  6
Continuous
 62
     7
100
AcDbLine
 10
324.5435090336999
 20
120.0000008020772
 30
0.0
 11
331.5435090336999
 21
120.0000008020772
 31
0.0
1001
ACME_LAYERS
1000
1
  0
LINE
  5
535B
330
1F
100
AcDbEntity
  8
P-0000
  6
Continuous
 62
     7
100
AcDbLine
 10
345.5435090336891
 20
120.0000008020772
 30
0.0
 11
352.5435090336836
 21
120.0000008020772
 31
0.0
1001
ACME_LAYERS
1000
1
  0
LINE
  5
54D2
330
1F
100
AcDbEntity
  8
P-0000
  6
Continuous
 62
     7
100
AcDbLine
 10
334.0435090336999
 20
120.0000008020772
 30
0.0
 11
334.1559430316777
 21
-27.3773695549346
 31
0.0
1001
ACME_LAYERS
1000
1
  0
LINE
  5
54D3
330
1F
100
AcDbEntity
  8
P-0000
  6
Continuous
 62
     7
100
AcDbLine
 10
330.1559441957059
 20
-27.38042114867563
 30
0.0
 11
330.1662483234339
 21
-40.88696966318434
 31
0.0
1001
ACME_LAYERS
1000
1
  0
LINE
  5
54D4
330
1F
100
AcDbEntity
  8
P-0000
  6
Continuous
 62
     7
100
AcDbLine
 10
319.0435133988066
 20
119.9885573255453
 30
0.0
 11
319.1559473967844
 21
-27.38881303146558
 31
0.0
1001
ACME_LAYERS
1000
1
  0
LINE
  5
54D5
330
1F
100
AcDbEntity
  8
P-0000
  6
Continuous
 62
     7
100
AcDbLine
 10
323.1559462327553
 20
-27.38576143772367
 30
0.0
 11
323.1664368474856
 21
-41.136755267539
 31
0.0
1001
ACME_LAYERS
1000
1
  0
LINE
  5
54D6
330
1F
100
AcDbEntity
  8
P-0000
  6
Continuous
 62
     7
100
AcDbLine
 10
176.1448990704037
 20
365.1997086161386
 30
0.0
 11
175.9891191269846
 21
358.1961536602591
 31
0.0
1001
ACME_LAYERS
1000
1
  0
LINE
  5
54D7
330
1F
100
AcDbEntity
  8
P-0000
  6
Continuous
 62
     7
100
AcDbLine
 10
325.1825926356709
 20
365.0342644142181
 30
0.0
 11
325.0268126922509
 21
358.0307094583397
 31
0.0
1001
ACME_LAYERS
1000
1
  0
LINE
  5
54D8
330
1F
100
AcDbEntity
  8
P-0000
  6
Continuous
 62
     7
100
AcDbLine
 10
324.530550147257
 20
335.7197371333405
 30
0.0
 11
324.3743503831646
 21
328.6973078789573
 31
0.0
1001
ACME_LAYERS
1000
1
  0
LINE
  5
54D9
330
1F
100
AcDbEntity
  8
P-0000
  6
STRICHLINIE
 62
     2
100
AcDbLine
 10
321.0942605164513
 20
354.1202115159237
 30
0.0
 11
180.0545886843091
 21
354.1077558682808
 31
0.0
  0
LINE
  5
54DA
330
1F
100
AcDbEntity
  8
P-0000
  6
STRICHLINIE
 62
     2
100
AcDbLine
 10
321.1171230783473
 20
369.122662206197
 30
0.0
 11
180.0774512462038
 21
369.1102065585543
 31
0.0
  0
LINE
  5
54DB
330
1F
100
AcDbEntity
  8
P-0000
  6
STRICHLINIE
 62
     2
100
AcDbLine
 10
179.3850433383644
 20
325.1037719737094
 30
0.0
 11
320.4358224707129
 21
324.7963004404146
 31
0.0
  0
LINE
  5
54DC
330
1F
100
AcDbEntity
  8
P-0000
  6
STRICHLINIE
 62
     2
100
AcDbLine
 10
179.4480920135396
 20
340.1057741996277
 30
0.0
 11
320.4909386903245
 21
339.7982021783965
 31
0.0
  0
LINE
  5
54DD
330
1F
100
AcDbEntity
  8
0
100
AcDbLine
 10
334.1559430316777
 20
-27.3773695549346
 30
0.0
 11
319.1559473967844
 21
-27.38881303146558
 31
0.0
  0
ARC
  5
54DE
330
1F
100
AcDbEntity
  8
0
100
AcDbCircle
 10
320.3852806984722
 20
328.7860366822118
 30
0.0
 40
3.990056359233776
100
AcDbArc
 50
270.7257811477408
 51
358.7257811477071
  0
ARC
  5
54DF
330
1F
100
AcDbEntity
  8
0
100
AcDbCircle
 10
320.5414804625647
 20
335.8084659365967
 30
0.0
 40
3.990056359233776
100
AcDbArc
 50
358.7257811477071
 51
90.7257811477408
  0
ARC
  5
54E0
330
1F
100
AcDbEntity
  8
0
100
AcDbCircle
 10
321.0278018256894
 20
358.1196593831208
 30
0.0
 40
4.000000000000076
100
AcDbArc
 50
270.9519944258446
 51
358.7257811477071
  0
ARC
  5
54E1
330
1F
100
AcDbEntity
  8
0
100
AcDbCircle
 10
180.1439099369657
 20
365.1107586913591
 30
0.0
 40
4.000000000000109
100
AcDbArc
 50
90.95199442584464
 51
178.7257811477071
  0
ARC
  5
54E2
330
1F
100
AcDbEntity
  8
0
100
AcDbCircle
 10
179.9881299935463
 20
358.1072037354794
 30
0.0
 40
3.999999999999976
100
AcDbArc
 50
178.7257811477071
 51
270.9519944258446
  0
ARC
  5
54E3
330
1F
100
AcDbEntity
  8
0
100
AcDbCircle
 10
179.3344811458636
 20
329.0951201782775
 30
0.0
 40
3.991668451338988
100
AcDbArc
 50
178.7257811477071
 51
270.7257811477408
  0
ARC
  5
54E4
330
1F
100
AcDbEntity
  8
0
100
AcDbCircle
 10
178.8115613015537
 20
336.7999031320098
 30
0.0
 40
3.366593955768055
100
AcDbArc
 50
79.10133216356299
 51
190.3502301319358
  0
LINE
  5
54E5
330
1F
100
AcDbEntity
  8
0
100
AcDbLine
 10
175.3437997677096
 20
329.183884830404
 30
0.0
 11
175.4997488746384
 21
336.1950450396092
 31
0.0
  0
ARC
  5
5595
330
1F
100
AcDbEntity
  8
0
100
AcDbCircle
 10
321.1935229509786
 20
365.1229932174743
 30
0.0
 40
3.990056359233776
100
AcDbArc
 50
358.7257811477071
 51
90.7257811477408
  0
ENDSEC
  0
SECTION
  2
OBJECTS
  0
DICTIONARY
  5
C
330
0
100
AcDbDictionary
281
     1
  3
ACAD_2007HEADERVARS_RT
350
5605
  3
ACAD_COLOR
350
BE
  3
ACAD_GROUP
350
D
  3
ACAD_LAYOUT
350
1A
  3
ACAD_MATERIAL
350
BD
  3
ACAD_MLEADERSTYLE
350
3EF
  3
ACAD_MLINESTYLE
350
17
  3
ACAD_PLOTSETTINGS
350
19
  3
ACAD_PLOTSTYLENAME
350
E
  3
ACAD_SCALELIST
350
3DD
  3
ACAD_TABLESTYLE
350
11A
  3
ACAD_VISUALSTYLE
350
3CC
  3
ACDB_RECOMPOSE_DATA
350
3262
  3
AcDbVariableDictionary
350
94
  3
AcmDictionary
350
5B
  3
AEC_PROPERTY_SET_DEFS
350
B7A
  3
AMG
350
41
  3
AMGSNAPSETTINGS
350
26B
  3
DWGPROPS
350
5604
  0
DICTIONARY
  5
48A
330
2
100
AcDbDictionary
280
     1
281
     1
  3
ACAD_LAYERSTATES
360
48B
  0
DICTIONARY
  5
3251
330
10
100
AcDbDictionary
280
     1
281
     1
  3
ADSK_XREC_LAYER_RECONCILED
360
3252
  0
DICTIONARY
  5
474
330
473
100
AcDbDictionary
280
     1
281
     1
  3
ADSK_XREC_LAYER_RECONCILED
360
3253
  0
DICTIONARY
  5
477
330
476
100
AcDbDictionary
280
     1
281
     1
  3
ADSK_XREC_LAYER_RECONCILED
360
3254
  0
DICTIONARY
  5
479
330
478
100
AcDbDictionary
280
     1
281
     1
  3
ADSK_XREC_LAYER_RECONCILED
360
3255
  0
DICTIONARY
  5
47D
330
47C
100
AcDbDictionary
280
     1
281
     1
  3
ADSK_XREC_LAYER_RECONCILED
360
3257
  0
DICTIONARY
  5
252B
330
252A
100
AcDbDictionary
280
     1
281
     1
  3
ADSK_XREC_LAYER_RECONCILED
360
325B
  0
DICTIONARY
  5
8F
330
1F
100
AcDbDictionary
280
     1
281
     1
  3
ACAD_SORTENTS
360
3199
  0
DICTIONARY
  5
519C
330
519B
100
AcDbDictionary
280
     1
281
     1
  3
ACAD_DIMASSOC
360
519D
  0
DICTIONARY
  5
5605
102
{ACAD_REACTORS
330
C
102
}
330
C
100
AcDbDictionary
281
     1
  3
DIMJOGANG
350
5606
  3
DIMLTEX1
350
5608
  3
DIMLTEX2
350
5609
  3
DIMLTYPE
350
5607
  0
DICTIONARY
  5
BE
102
{ACAD_REACTORS
330
C
102
}
330
C
100
AcDbDictionary
281
     1
  0
DICTIONARY
  5
D
102
{ACAD_REACTORS
330
C
102
}
330
C
100
AcDbDictionary
281
     1
  0
DICTIONARY
  5
1A
102
{ACAD_REACTORS
330
C
102
}
330
C
100
AcDbDictionary
281
     1
  3
Layout1
350
1E
  3
Layout2
350
26
  3
Model
350
22
  0
DICTIONARY
  5
BD
102
{ACAD_REACTORS
330
C
102
}
330
C
100
AcDbDictionary
281
     1
  3
ByBlock
350
3BC
  3
ByLayer
350
3B4
  3
Global
350
3C4
  0
DICTIONARY
  5
3EF
102
{ACAD_REACTORS
330
C
102
}
330
C
100
AcDbDictionary
281
     1
  3
Standard
350
3F0
  0
DICTIONARY
  5
17
102
{ACAD_REACTORS
330
C
102
}
330
C
100
AcDbDictionary
281
     1
  3
Standard
350
18
  0
DICTIONARY
  5
19
102
{ACAD_REACTORS
330
C
102
}
330
C
100
AcDbDictionary
281
     1
  0
ACDBDICTIONARYWDFLT
  5
E
102
{ACAD_REACTORS
330
C
102
}
330
C
100
AcDbDictionary
281
     1
  3
Normal
350
F
100
AcDbDictionaryWithDefault
340
F
  0
DICTIONARY
  5
3DD
102
{ACAD_REACTORS
330
C
102
}
330
C
100
AcDbDictionary
281
     1
  3
A0
350
3DE
  3
A1
350
3DF
  3
A2
350
3E0
  3
A3
350
3E1
  3
A4
350
3E2
  3
A5
350
3E3
  3
A6
350
3E4
  3
A7
350
3E5
  3
A8
350
3E6
  3
A9
350
3E7
  3
B0
350
3E8
  3
B1
350
3E9
  3
B2
350
3EA
  3
B3
350
3EB
  3
B4
350
3EC
  3
B5
350
3ED
  3
B6
350
3EE
  0
DICTIONARY
  5
11A
102
{ACAD_REACTORS
330
C
102
}
330
C
100
AcDbDictionary
281
     1
  3
Standard
350
11B
  0
DICTIONARY
  5
3CC
102
{ACAD_REACTORS
330
C
102
}
330
C
100
AcDbDictionary
281
     1
  3
2dWireframe
350
3D2
  3
3D Hidden
350
3D4
  3
3dWireframe
350
3D3
  3
Basic
350
3D1
  3
Brighten
350
3D8
  3
ColorChange
350
3DC
  3
Conceptual
350
3D5
  3
Dim
350
3D7
  3
Facepattern
350
3DB
  3
Flat
350
3CD
  3
FlatWithEdges
350
3CE
  3
Gouraud
350
3CF
  3
GouraudWithEdges
350
3D0
  3
Linepattern
350
3DA
  3
Realistic
350
3D6
  3
Thicken
350
3D9
  0
XRECORD
  5
3262
102
{ACAD_REACTORS
330
C
102
}
330
C
100
AcDbXrecord
280
     1
 90
        1
330
11B
  0
DICTIONARY
  5
94
102
{ACAD_REACTORS
330
C
102
}
330
C
100
AcDbDictionary
281
     1
  3
CANNOSCALE
350
325E
  3
CMLEADERSTYLE
350
325D
  3
CTABLESTYLE
350
138
  3
DIMASSOC
350
96
  3
INDEXCTL
350
95
  3
SORTENTS
350
325F
  0
DICTIONARY
  5
5B
102
{ACAD_REACTORS
330
C
102
}
330
C
100
AcDbDictionary
281
     1
  3
AcmBOM
350
272
  3
AcmStdDictionary
350
61
  3
AMDTSECTSYM_ARROWCOLOR
350
123
  0
DICTIONARY
  5
B7A
102
{ACAD_REACTORS
330
C
102
}
330
C
100
AcDbDictionary
281
     1
  0
DICTIONARY
  5
41
102
{ACAD_REACTORS
330
C
102
}
330
C
100
AcDbDictionary
281
     1
  0
DICTIONARY
  5
26B
102
{ACAD_REACTORS
330
C
102
}
330
C
100
AcDbDictionary
281
     1
  0
XRECORD
  5
5604
102
{ACAD_REACTORS
330
C
102
}
330
C
100
AcDbXrecord
280
     1
  1
DWGPROPS COOKIE
  2

  3

  4

  6

  7

  8
jamoeller
  9

300
AmdtFileType=84
301
=
302
=
303
=
304
=
305
=
306
=
307
=
308
=
309
=
 40
0.0737882523148148
 41
2455478.316582292
 42
2455610.346787048
  1

 90
        1
  0
DICTIONARY
  5
48B
102
{ACAD_REACTORS
330
48A
102
}
330
48A
100
AcDbDictionary
281
     1
  0
XRECORD
  5
3252
102
{ACAD_REACTORS
330
3251
102
}
330
3251
100
AcDbXrecord
280
     1
290
     1
  0
XRECORD
  5
3253
102
{ACAD_REACTORS
330
474
102
}
330
474
100
AcDbXrecord
280
     1
290
     1
  0
XRECORD
  5
3254
102
{ACAD_REACTORS
330
477
102
}
330
477
100
AcDbXrecord
280
     1
290
     1
  0
XRECORD
  5
3255
102
{ACAD_REACTORS
330
479
102
}
330
479
100
AcDbXrecord
280
     1
290
     1
  0
XRECORD
  5
3257
102
{ACAD_REACTORS
330
47D
102
}
330
47D
100
AcDbXrecord
280
     1
290
     1
  0
XRECORD
  5
325B
102
{ACAD_REACTORS
330
252B
102
}
330
252B
100
AcDbXrecord
280
     1
290
     1
  0
SORTENTSTABLE
  5
3199
102
{ACAD_REACTORS
330
8F
102
}
330
8F
100
AcDbSortentsTable
330
1F
331
5006
  5
5006
331
5045
  5
5045
331
500E
  5
500E
331
504D
  5
504D
331
5016
  5
5016
331
5055
  5
5055
331
501E
  5
501E
331
5131
  5
5131
331
5168
  5
5168
331
507C
  5
507C
331
50BB
  5
50BB
331
50F2
  5
50F2
331
5336
  5
533B
331
50FA
  5
50FA
331
5139
  5
5139
331
5084
  5
5084
331
50C3
  5
50C3
331
5170
  5
5170
331
4ED0
  5
4ED0
331
4FD3
  5
4FD3
331
5307
  5
530C
331
533E
  5
5342
331
4F42
  5
4F42
331
5102
  5
5102
331
5141
  5
5141
331
508C
  5
508C
331
50CB
  5
50CB
331
5178
  5
5178
331
4F17
  5
4F17
331
4F4A
  5
4F4A
331
4FDB
  5
4FDB
331
4ED8
  5
4ED8
331
5180
  5
5180
331
510A
  5
510A
331
530F
  5
5313
331
5094
  5
5094
331
5346
  5
534A
331
4EA5
  5
4EA5
331
4EAD
  5
4EAD
331
4EE0
  5
4EE0
331
4F1F
  5
4F1F
331
4FE3
  5
4FE3
331
4F52
  5
4F52
331
534E
  5
5352
331
4FA4
  5
4FA4
331
4F91
  5
4F91
331
4E76
  5
4E76
331
4EB5
  5
4EB5
331
4EE8
  5
4EE8
331
4F5A
  5
4F5A
331
4F27
  5
4F27
331
4FAC
  5
4FAC
331
4E7E
  5
4E7E
331
5026
  5
5026
331
502E
  5
502E
331
4FEF
  5
4FEF
331
4FF7
  5
4FF7
331
5036
  5
5036
331
4FFF
  5
4FFF
331
503E
  5
503E
331
5149
  5
5149
331
5188
  5
5188
331
509C
  5
509C
331
50D3
  5
50D3
331
505D
  5
505D
331
5112
  5
5112
331
5356
  5
535A
331
5151
  5
5151
331
5190
  5
5190
331
50A4
  5
50A4
331
50DB
  5
50DB
331
5065
  5
5065
331
511A
  5
511A
331
4EF0
  5
4EF0
331
4FB4
  5
4FB4
331
531F
  5
5323
331
5122
  5
5122
331
5159
  5
5159
331
506D
  5
506D
331
50AC
  5
50AC
331
50E3
  5
50E3
331
4F62
  5
4F62
331
4E86
  5
4E86
331
4F6A
  5
4F6A
331
4FBC
  5
4FBC
331
5327
  5
532B
331
4F2B
  5
4F2B
331
50EB
  5
50EB
331
512A
  5
512A
331
5075
  5
5075
331
50B4
  5
50B4
331
5161
  5
5161
331
4F72
  5
4F72
331
4EC1
  5
4EC1
331
4E8E
  5
4E8E
331
4F9D
  5
4F9D
331
4FC4
  5
4FC4
331
4F33
  5
4F33
331
4F08
  5
4F08
331
4F3B
  5
4F3B
331
4F7A
  5
4F7A
331
4FCC
  5
4FCC
331
4EC9
  5
4EC9
331
4E96
  5
4E96
331
4E9E
  5
4E9E
331
5046
  5
5046
331
5007
  5
5007
331
504E
  5
504E
331
500F
  5
500F
331
5017
  5
5017
331
5056
  5
5056
331
501F
  5
501F
331
5169
  5
5169
331
52F8
  5
5300
331
50F3
  5
50F3
331
5132
  5
5132
331
507D
  5
507D
331
50BC
  5
50BC
331
5171
  5
5171
331
5300
  5
5304
331
50C4
  5
50C4
331
50FB
  5
50FB
331
5085
  5
5085
331
513A
  5
513A
331
4ED1
  5
4ED1
331
4F10
  5
4F10
331
4FD4
  5
4FD4
331
533F
  5
5343
331
4F43
  5
4F43
331
5142
  5
5142
331
5179
  5
5179
331
508D
  5
508D
331
50CC
  5
50CC
331
5103
  5
5103
331
5308
  5
530D
331
4EA6
  5
4EA6
331
4ED9
  5
4ED9
331
4FDC
  5
4FDC
331
5347
  5
534B
331
4F4B
  5
4F4B
331
510B
  5
510B
331
5095
  5
5095
331
5181
  5
5181
331
4F18
  5
4F18
331
4EAE
  5
4EAE
331
4F92
  5
4F92
331
4EE1
  5
4EE1
331
4FA5
  5
4FA5
331
4FE4
  5
4FE4
331
4F53
  5
4F53
331
4F20
  5
4F20
331
4E77
  5
4E77
331
4F5B
  5
4F5B
331
4FAD
  5
4FAD
331
4EE9
  5
4EE9
331
4EB6
  5
4EB6
331
4E7F
  5
4E7F
331
4FE8
  5
4FE8
331
5027
  5
5027
331
4FF0
  5
4FF0
331
502F
  5
502F
331
5037
  5
5037
331
4FF8
  5
4FF8
331
503F
  5
503F
331
5310
  5
5314
331
5113
  5
5113
331
514A
  5
514A
331
505E
  5
505E
331
509D
  5
509D
331
50D4
  5
50D4
331
5189
  5
5189
331
5191
  5
5191
331
50DC
  5
50DC
331
511B
  5
511B
331
5066
  5
5066
331
50A5
  5
50A5
331
5152
  5
5152
331
5357
  5
535B
331
4EF1
  5
4EF1
331
4F63
  5
4F63
331
4FB5
  5
4FB5
331
515A
  5
515A
331
50AD
  5
50AD
331
50E4
  5
50E4
331
506E
  5
506E
331
5123
  5
5123
331
5320
  5
5324
331
4E87
  5
4E87
331
4EF9
  5
4EF9
331
4F2C
  5
4F2C
331
4F6B
  5
4F6B
331
5328
  5
532C
331
5162
  5
5162
331
4FBD
  5
4FBD
331
50B5
  5
50B5
331
50EC
  5
50EC
331
5076
  5
5076
331
512B
  5
512B
331
4EBA
  5
4EBA
331
4E8F
  5
4E8F
331
4EC2
  5
4EC2
331
4FC5
  5
4FC5
331
4F34
  5
4F34
331
4F9E
  5
4F9E
331
4F73
  5
4F73
331
4E97
  5
4E97
331
4F7B
  5
4F7B
331
4ECA
  5
4ECA
331
4FCD
  5
4FCD
331
4F3C
  5
4F3C
331
4F09
  5
4F09
331
4E9F
  5
4E9F
331
5000
  5
5000
331
5008
  5
5008
331
5047
  5
5047
331
5010
  5
5010
331
504F
  5
504F
331
5057
  5
5057
331
5018
  5
5018
331
5330
  5
5336
331
5133
  5
5133
331
516A
  5
516A
331
507E
  5
507E
331
50BD
  5
50BD
331
50F4
  5
50F4
331
5301
  5
5305
331
5338
  5
533C
331
50FC
  5
50FC
331
513B
  5
513B
331
5086
  5
5086
331
50C5
  5
50C5
331
5172
  5
5172
331
4F11
  5
4F11
331
4ED2
  5
4ED2
331
4FD5
  5
4FD5
331
517A
  5
517A
331
5309
  5
530E
331
5104
  5
5104
331
5143
  5
5143
331
5340
  5
5344
331
508E
  5
508E
331
50CD
  5
50CD
331
4F44
  5
4F44
331
4F19
  5
4F19
331
4F4C
  5
4F4C
331
4FDD
  5
4FDD
331
4EDA
  5
4EDA
331
5182
  5
5182
331
510C
  5
510C
331
5096
  5
5096
331
5348
  5
534C
331
4EA7
  5
4EA7
331
4EAF
  5
4EAF
331
4EE2
  5
4EE2
331
4F21
  5
4F21
331
4FE5
  5
4FE5
331
4F54
  5
4F54
331
4FA6
  5
4FA6
331
4F93
  5
4F93
331
4E78
  5
4E78
331
4EEA
  5
4EEA
331
4EB7
  5
4EB7
331
4F5C
  5
4F5C
331
4FAE
  5
4FAE
331
5020
  5
5020
331
5028
  5
5028
331
4FE9
  5
4FE9
331
4FF1
  5
4FF1
331
5030
  5
5030
331
4FF9
  5
4FF9
331
5038
  5
5038
331
5350
  5
5354
331
514B
  5
514B
331
518A
  5
518A
331
509E
  5
509E
331
50D5
  5
50D5
331
505F
  5
505F
331
5114
  5
5114
331
5319
  5
531D
331
5358
  5
5482
331
511C
  5
511C
331
5153
  5
5153
331
50A6
  5
50A6
331
50DD
  5
50DD
331
5192
  5
5192
331
5067
  5
5067
331
4E80
  5
4E80
331
4FB6
  5
4FB6
331
5321
  5
5325
331
5124
  5
5124
331
515B
  5
515B
331
506F
  5
506F
331
50AE
  5
50AE
331
50E5
  5
50E5
331
4F64
  5
4F64
331
4E88
  5
4E88
331
4F6C
  5
4F6C
331
4EBB
  5
4EBB
331
4FBE
  5
4FBE
331
5329
  5
532E
331
4F2D
  5
4F2D
331
50ED
  5
50ED
331
512C
  5
512C
331
5077
  5
5077
331
50B6
  5
50B6
331
5163
  5
5163
331
4EFA
  5
4EFA
331
4F02
  5
4F02
331
4F35
  5
4F35
331
4F74
  5
4F74
331
4F9F
  5
4F9F
331
4FC6
  5
4FC6
331
4EC3
  5
4EC3
331
4E90
  5
4E90
331
4E98
  5
4E98
331
4F0A
  5
4F0A
331
4F3D
  5
4F3D
331
4F7C
  5
4F7C
331
4FCE
  5
4FCE
331
4ECB
  5
4ECB
331
5001
  5
5001
331
5040
  5
5040
331
5048
  5
5048
331
5009
  5
5009
331
5050
  5
5050
331
5011
  5
5011
331
5019
  5
5019
331
516B
  5
516B
331
50BE
  5
50BE
331
50F5
  5
50F5
331
507F
  5
507F
331
5134
  5
5134
331
5339
  5
533D
331
5173
  5
5173
331
5302
  5
5306
331
50C6
  5
50C6
331
50FD
  5
50FD
331
5087
  5
5087
331
513C
  5
513C
331
4EA0
  5
4EA0
331
4ED3
  5
4ED3
331
4F12
  5
4F12
331
4FD6
  5
4FD6
331
5341
  5
5345
331
4F45
  5
4F45
331
5144
  5
5144
331
517B
  5
517B
331
508F
  5
508F
331
50CE
  5
50CE
331
5105
  5
5105
331
4EA8
  5
4EA8
331
4EDB
  5
4EDB
331
4FDE
  5
4FDE
331
5349
  5
534D
331
4F4D
  5
4F4D
331
510D
  5
510D
331
5097
  5
5097
331
5183
  5
5183
331
4F1A
  5
4F1A
331
4F22
  5
4F22
331
4F94
  5
4F94
331
4EE3
  5
4EE3
331
4EB0
  5
4EB0
331
4FA7
  5
4FA7
331
4FE6
  5
4FE6
331
4F55
  5
4F55
331
4E79
  5
4E79
331
4F5D
  5
4F5D
331
4FAF
  5
4FAF
331
4EEB
  5
4EEB
331
5021
  5
5021
331
4FEA
  5
4FEA
331
5029
  5
5029
331
4FF2
  5
4FF2
331
5031
  5
5031
331
5039
  5
5039
331
4FFA
  5
4FFA
331
5058
  5
5058
331
518B
  5
518B
331
5312
  5
5316
331
5115
  5
5115
331
514C
  5
514C
331
5351
  5
5355
331
5060
  5
5060
331
509F
  5
509F
331
50D6
  5
50D6
331
5193
  5
5193
331
50DE
  5
50DE
331
511D
  5
511D
331
5068
  5
5068
331
50A7
  5
50A7
331
5154
  5
5154
331
5359
  5
5483
331
4F65
  5
4F65
331
4FB7
  5
4FB7
331
515C
  5
515C
331
50AF
  5
50AF
331
50E6
  5
50E6
331
5070
  5
5070
331
5125
  5
5125
331
5322
  5
5326
331
4E81
  5
4E81
331
4E89
  5
4E89
331
4EBC
  5
4EBC
331
4F2E
  5
4F2E
331
4F6D
  5
4F6D
331
532A
  5
532F
331
512D
  5
512D
331
5164
  5
5164
331
50B7
  5
50B7
331
50EE
  5
50EE
331
4FBF
  5
4FBF
331
4E91
  5
4E91
331
4EC4
  5
4EC4
331
4FC7
  5
4FC7
331
4F36
  5
4F36
331
5198
  5
5198
331
4F75
  5
4F75
331
4E99
  5
4E99
331
4F7D
  5
4F7D
331
4ECC
  5
4ECC
331
4FCF
  5
4FCF
331
4F3E
  5
4F3E
331
4F0B
  5
4F0B
331
5002
  5
5002
331
5041
  5
5041
331
500A
  5
500A
331
5049
  5
5049
331
5012
  5
5012
331
5051
  5
5051
331
501A
  5
501A
331
5078
  5
5078
331
5135
  5
5135
331
516C
  5
516C
331
5080
  5
5080
331
50BF
  5
50BF
331
50F6
  5
50F6
331
52FB
  5
5301
331
5303
  5
5307
331
533A
  5
533E
331
50FE
  5
50FE
331
513D
  5
513D
331
5088
  5
5088
331
50C7
  5
50C7
331
5174
  5
5174
331
4F13
  5
4F13
331
4F46
  5
4F46
331
4F85
  5
4F85
331
4FD7
  5
4FD7
331
4ED4
  5
4ED4
331
517C
  5
517C
331
530B
  5
530F
331
50CF
  5
50CF
331
5106
  5
5106
331
5090
  5
5090
331
5145
  5
5145
331
5342
  5
5346
331
4EA1
  5
4EA1
331
4EA9
  5
4EA9
331
4F1B
  5
4F1B
331
4F4E
  5
4F4E
331
534A
  5
534E
331
5184
  5
5184
331
4FA0
  5
4FA0
331
510E
  5
510E
331
4FDF
  5
4FDF
331
4EDC
  5
4EDC
331
4EB1
  5
4EB1
331
4EE4
  5
4EE4
331
4F23
  5
4F23
331
4FE7
  5
4FE7
331
4F56
  5
4F56
331
4FA8
  5
4FA8
331
4F95
  5
4F95
331
4E7A
  5
4E7A
331
4EEC
  5
4EEC
331
4F5E
  5
4F5E
331
5022
  5
5022
331
502A
  5
502A
331
4FEB
  5
4FEB
331
4FF3
  5
4FF3
331
5032
  5
5032
331
4FFB
  5
4FFB
331
503A
  5
503A
331
5059
  5
5059
331
5098
  5
5098
331
5352
  5
5356
331
514D
  5
514D
331
518C
  5
518C
331
50A0
  5
50A0
331
50D7
  5
50D7
331
5061
  5
5061
331
5116
  5
5116
331
5313
  5
5318
331
4FB0
  5
4FB0
331
535A
  5
5484
331
511E
  5
511E
331
5155
  5
5155
331
5069
  5
5069
331
50A8
  5
50A8
331
50DF
  5
50DF
331
5194
  5
5194
331
4E82
  5
4E82
331
4FB8
  5
4FB8
331
52EC
  5
52EC
331
5323
  5
5327
331
5126
  5
5126
331
515D
  5
515D
331
5071
  5
5071
331
50B0
  5
50B0
331
50E7
  5
50E7
331
4F66
  5
4F66
331
4E8A
  5
4E8A
331
4F6E
  5
4F6E
331
4EBD
  5
4EBD
331
4FC0
  5
4FC0
331
52F4
  5
52F6
331
532B
  5
5330
331
4F2F
  5
4F2F
331
50EF
  5
50EF
331
512E
  5
512E
331
5165
  5
5165
331
4F04
  5
4F04
331
4F37
  5
4F37
331
4F76
  5
4F76
331
4FC8
  5
4FC8
331
4EC5
  5
4EC5
331
4E92
  5
4E92
331
4E9A
  5
4E9A
331
4ECD
  5
4ECD
331
4F3F
  5
4F3F
331
5003
  5
5003
331
5042
  5
5042
331
504A
  5
504A
331
500B
  5
500B
331
5013
  5
5013
331
5052
  5
5052
331
501B
  5
501B
331
5079
  5
5079
331
50B8
  5
50B8
331
516D
  5
516D
331
52FC
  5
5302
331
50C0
  5
50C0
331
50F7
  5
50F7
331
5081
  5
5081
331
5136
  5
5136
331
5333
  5
5338
331
533B
  5
533F
331
513E
  5
513E
331
5175
  5
5175
331
50C8
  5
50C8
331
50FF
  5
50FF
331
5304
  5
5308
331
5089
  5
5089
331
4FD0
  5
4FD0
331
4EA2
  5
4EA2
331
4ED5
  5
4ED5
331
4F14
  5
4F14
331
4FD8
  5
4FD8
331
5343
  5
5347
331
4F47
  5
4F47
331
4F86
  5
4F86
331
5146
  5
5146
331
517D
  5
517D
331
5091
  5
5091
331
5107
  5
5107
331
530C
  5
5310
331
4EAA
  5
4EAA
331
4F8E
  5
4F8E
331
4EDD
  5
4EDD
331
4FA1
  5
4FA1
331
4FE0
  5
4FE0
331
534B
  5
534F
331
4F4F
  5
4F4F
331
510F
  5
510F
331
5185
  5
5185
331
4F1C
  5
4F1C
331
4F24
  5
4F24
331
4F57
  5
4F57
331
4FA9
  5
4FA9
331
4F96
  5
4F96
331
4EE5
  5
4EE5
331
4EB2
  5
4EB2
331
4E7B
  5
4E7B
331
4F5F
  5
4F5F
331
4EED
  5
4EED
331
5023
  5
5023
331
4FEC
  5
4FEC
331
502B
  5
502B
331
4FF4
  5
4FF4
331
5033
  5
5033
331
503B
  5
503B
331
4FFC
  5
4FFC
331
505A
  5
505A
331
5099
  5
5099
331
50D0
  5
50D0
331
518D
  5
518D
331
5314
  5
5319
331
50D8
  5
50D8
331
5117
  5
5117
331
5062
  5
5062
331
50A1
  5
50A1
331
514E
  5
514E
331
5353
  5
5357
331
535B
  5
5485
331
5195
  5
5195
331
4FB1
  5
4FB1
331
50E0
  5
50E0
331
511F
  5
511F
331
506A
  5
506A
331
50A9
  5
50A9
331
5156
  5
5156
331
4F28
  5
4F28
331
4F67
  5
4F67
331
4FB9
  5
4FB9
331
515E
  5
515E
331
50B1
  5
50B1
331
50E8
  5
50E8
331
5072
  5
5072
331
5127
  5
5127
331
5324
  5
5328
331
4E83
  5
4E83
331
4E8B
  5
4E8B
331
4EBE
  5
4EBE
331
4FC1
  5
4FC1
331
532C
  5
5333
331
4F30
  5
4F30
331
4F6F
  5
4F6F
331
512F
  5
512F
331
5166
  5
5166
331
52F5
  5
52F8
331
4E93
  5
4E93
331
4EC6
  5
4EC6
331
4F05
  5
4F05
331
4FC9
  5
4FC9
331
4F38
  5
4F38
331
4F77
  5
4F77
331
4E9B
  5
4E9B
331
4ECE
  5
4ECE
331
4F0D
  5
4F0D
331
5004
  5
5004
331
5043
  5
5043
331
500C
  5
500C
331
504B
  5
504B
331
5014
  5
5014
331
5053
  5
5053
331
501C
  5
501C
331
507A
  5
507A
331
50B9
  5
50B9
331
50F0
  5
50F0
331
52FD
  5
5303
331
5334
  5
5339
331
5137
  5
5137
331
516E
  5
516E
331
5082
  5
5082
331
50C1
  5
50C1
331
50F8
  5
50F8
331
4FD1
  5
4FD1
331
5305
  5
5309
331
533C
  5
5340
331
4F40
  5
4F40
331
5100
  5
5100
331
513F
  5
513F
331
508A
  5
508A
331
50C9
  5
50C9
331
5176
  5
5176
331
4F15
  5
4F15
331
4FD9
  5
4FD9
331
4ED6
  5
4ED6
331
517E
  5
517E
331
530D
  5
5311
331
5108
  5
5108
331
5092
  5
5092
331
5147
  5
5147
331
5344
  5
5348
331
4EA3
  5
4EA3
331
4EAB
  5
4EAB
331
4EDE
  5
4EDE
331
4F1D
  5
4F1D
331
4F50
  5
4F50
331
4F8F
  5
4F8F
331
534C
  5
5350
331
5186
  5
5186
331
4FA2
  5
4FA2
331
4FE1
  5
4FE1
331
4EB3
  5
4EB3
331
4EE6
  5
4EE6
331
4F25
  5
4F25
331
4F58
  5
4F58
331
4FAA
  5
4FAA
331
4E74
  5
4E74
331
4E7C
  5
4E7C
331
4EEE
  5
4EEE
331
5024
  5
5024
331
502C
  5
502C
331
4FED
  5
4FED
331
4FF5
  5
4FF5
331
5034
  5
5034
331
4FFD
  5
4FFD
331
503C
  5
503C
331
50D1
  5
50D1
331
5110
  5
5110
331
505B
  5
505B
331
509A
  5
509A
331
5354
  5
5358
331
514F
  5
514F
331
518E
  5
518E
331
50A2
  5
50A2
331
50D9
  5
50D9
331
5063
  5
5063
331
5118
  5
5118
331
5315
  5
531A
331
4FB2
  5
4FB2
331
4F60
  5
4F60
331
5120
  5
5120
331
5157
  5
5157
331
506B
  5
506B
331
50AA
  5
50AA
331
50E1
  5
50E1
331
5196
  5
5196
331
4E84
  5
4E84
331
4F68
  5
4F68
331
4FBA
  5
4FBA
331
4F29
  5
4F29
331
50E9
  5
50E9
331
5128
  5
5128
331
5073
  5
5073
331
50B2
  5
50B2
331
515F
  5
515F
331
4E8C
  5
4E8C
331
4F70
  5
4F70
331
4EBF
  5
4EBF
331
4F9B
  5
4F9B
331
52F6
  5
52FC
331
4FC2
  5
4FC2
331
4F31
  5
4F31
331
5167
  5
5167
331
4F06
  5
4F06
331
4F39
  5
4F39
331
4F78
  5
4F78
331
519B
  5
519B
331
4FCA
  5
4FCA
331
4EC7
  5
4EC7
331
4E94
  5
4E94
331
4E9C
  5
4E9C
331
4ECF
  5
4ECF
331
4F0E
  5
4F0E
331
5005
  5
5005
331
5044
  5
5044
331
504C
  5
504C
331
500D
  5
500D
331
5015
  5
5015
331
5054
  5
5054
331
501D
  5
501D
331
50F1
  5
50F1
331
5130
  5
5130
331
507B
  5
507B
331
50BA
  5
50BA
331
516F
  5
516F
331
50C2
  5
50C2
331
50F9
  5
50F9
331
5083
  5
5083
331
5138
  5
5138
331
5335
  5
533A
331
4FD2
  5
4FD2
331
533D
  5
5341
331
4F41
  5
4F41
331
5140
  5
5140
331
5177
  5
5177
331
508B
  5
508B
331
50CA
  5
50CA
331
5101
  5
5101
331
5306
  5
530B
331
4EA4
  5
4EA4
331
4ED7
  5
4ED7
331
4F16
  5
4F16
331
530E
  5
5312
331
4F49
  5
4F49
331
517F
  5
517F
331
5093
  5
5093
331
5109
  5
5109
331
4F88
  5
4F88
331
4EAC
  5
4EAC
331
4F90
  5
4F90
331
4EDF
  5
4EDF
331
4FA3
  5
4FA3
331
4FE2
  5
4FE2
331
534D
  5
5351
331
4F51
  5
4F51
331
5187
  5
5187
331
4F1E
  5
4F1E
331
4F26
  5
4F26
331
4F59
  5
4F59
331
4FAB
  5
4FAB
331
4EE7
  5
4EE7
331
4EB4
  5
4EB4
331
4EEF
  5
4EEF
331
4E7D
  5
4E7D
331
5025
  5
5025
331
4FEE
  5
4FEE
331
502D
  5
502D
331
5035
  5
5035
331
4FF6
  5
4FF6
331
503D
  5
503D
331
4FFE
  5
4FFE
331
5111
  5
5111
331
5148
  5
5148
331
505C
  5
505C
331
509B
  5
509B
331
50D2
  5
50D2
331
518F
  5
518F
331
5316
  5
531B
331
50DA
  5
50DA
331
5119
  5
5119
331
5064
  5
5064
331
50A3
  5
50A3
331
5150
  5
5150
331
5355
  5
5359
331
4F61
  5
4F61
331
4FB3
  5
4FB3
331
5158
  5
5158
331
5197
  5
5197
331
50E2
  5
50E2
331
5121
  5
5121
331
531E
  5
5322
331
506C
  5
506C
331
50AB
  5
50AB
331
4F2A
  5
4F2A
331
4F69
  5
4F69
331
4FBB
  5
4FBB
331
4EB8
  5
4EB8
331
5160
  5
5160
331
50B3
  5
50B3
331
50EA
  5
50EA
331
5074
  5
5074
331
5129
  5
5129
331
5326
  5
532A
331
4E85
  5
4E85
331
4E8D
  5
4E8D
331
4EC0
  5
4EC0
331
4FC3
  5
4FC3
331
4F32
  5
4F32
331
532E
  5
5334
331
4F9C
  5
4F9C
331
4F71
  5
4F71
331
52F7
  5
52FD
331
4E95
  5
4E95
331
4F79
  5
4F79
331
4EC8
  5
4EC8
331
4FCB
  5
4FCB
331
4F3A
  5
4F3A
331
4F07
  5
4F07
331
4E9D
  5
4E9D
331
4F0F
  5
4F0F
  0
DIMASSOC
  5
519D
102
{ACAD_REACTORS
330
519C
102
}
330
519C
100
AcDbDimAssoc
330
519B
 90
        2
 70
     0
 71
     0
  1
AcDbOsnapPointRef
 72
    13
331
4E7C
 73
     0
 91
        0
 40
0.0
 10
0.0
 20
0.0
 30
2.000000000000000E+50
 75
     0
  0
XRECORD
  5
5606
102
{ACAD_REACTORS
330
5605
102
}
330
5605
100
AcDbXrecord
280
     1
 40
1.570796326794896
  0
XRECORD
  5
5608
102
{ACAD_REACTORS
330
5605
102
}
330
5605
100
AcDbXrecord
280
     1
340
14
  0
XRECORD
  5
5609
102
{ACAD_REACTORS
330
5605
102
}
330
5605
100
AcDbXrecord
280
     1
340
14
  0
XRECORD
  5
5607
102
{ACAD_REACTORS
330
5605
102
}
330
5605
100
AcDbXrecord
280
     1
340
14
  0
LAYOUT
  5
1E
102
{ACAD_XDICTIONARY
360
560A
102
}
102
{ACAD_REACTORS
330
1A
102
}
330
1A
100
AcDbPlotSettings
  1

  2

  4

  6

 40
0.0
 41
0.0
 42
0.0
 43
0.0
 44
0.0
 45
0.0
 46
0.0
 47
0.0
 48
0.0
 49
0.0
140
0.0
141
0.0
142
1.0
143
1.0
 70
   688
 72
     0
 73
     0
 74
     5
  7

 75
    16
147
1.0
148
0.0
149
0.0
100
AcDbLayout
  1
Layout1
 70
     1
 71
     1
 10
0.0
 20
0.0
 11
420.0
 21
297.0
 12
0.0
 22
0.0
 32
0.0
 14
1.000000000000000E+20
 24
1.000000000000000E+20
 34
1.000000000000000E+20
 15
-1.000000000000000E+20
 25
-1.000000000000000E+20
 35
-1.000000000000000E+20
146
0.0
 13
0.0
 23
0.0
 33
0.0
 16
1.0
 26
0.0
 36
0.0
 17
0.0
 27
1.0
 37
0.0
 76
     0
330
1B
  0
LAYOUT
  5
26
102
{ACAD_XDICTIONARY
360
560E
102
}
102
{ACAD_REACTORS
330
1A
102
}
330
1A
100
AcDbPlotSettings
  1

  2

  4

  6

 40
0.0
 41
0.0
 42
0.0
 43
0.0
 44
0.0
 45
0.0
 46
0.0
 47
0.0
 48
0.0
 49
0.0
140
0.0
141
0.0
142
1.0
143
1.0
 70
   688
 72
     0
 73
     0
 74
     5
  7

 75
    16
147
1.0
148
0.0
149
0.0
100
AcDbLayout
  1
Layout2
 70
     1
 71
     2
 10
0.0
 20
0.0
 11
12.0
 21
9.0
 12
0.0
 22
0.0
 32
0.0
 14
0.0
 24
0.0
 34
0.0
 15
0.0
 25
0.0
 35
0.0
146
0.0
 13
0.0
 23
0.0
 33
0.0
 16
1.0
 26
0.0
 36
0.0
 17
0.0
 27
1.0
 37
0.0
 76
     0
330
23
  0
LAYOUT
  5
22
102
{ACAD_XDICTIONARY
360
560C
102
}
102
{ACAD_REACTORS
330
1A
102
}
330
1A
100
AcDbPlotSettings
  1

  2

  4

  6

 40
0.0
 41
0.0
 42
0.0
 43
0.0
 44
0.0
 45
0.0
 46
0.0
 47
0.0
 48
0.0
 49
0.0
140
0.0
141
0.0
142
1.0
143
1.0
 70
  1712
 72
     0
 73
     0
 74
     0
  7

 75
     0
147
1.0
148
0.0
149
0.0
100
AcDbLayout
  1
Model
 70
     1
 71
     0
 10
0.0
 20
0.0
 11
12.0
 21
9.0
 12
0.0
 22
0.0
 32
0.0
 14
0.0
 24
0.0
 34
0.0
 15
0.0
 25
0.0
 35
0.0
146
0.0
 13
0.0
 23
0.0
 33
0.0
 16
1.0
 26
0.0
 36
0.0
 17
0.0
 27
1.0
 37
0.0
 76
     0
330
1F
331
3B2
  0
MATERIAL
  5
3BC
102
{ACAD_XDICTIONARY
360
3BD
102
}
102
{ACAD_REACTORS
330
BD
102
}
330
BD
100
AcDbMaterial
  1
ByBlock
 72
     0
 43
0.0008202099737533
 43
0.0
 43
0.0
 43
0.0
 43
0.0
 43
0.0008202099737533
 43
0.0
 43
0.0
 43
0.0
 43
0.0
 43
1.0
 43
0.0
 43
0.0
 43
0.0
 43
0.0
 43
1.0
 77
     0
 47
0.0008202099737533
 47
0.0
 47
0.0
 47
0.0
 47
0.0
 47
0.0008202099737533
 47
0.0
 47
0.0
 47
0.0
 47
0.0
 47
1.0
 47
0.0
 47
0.0
 47
0.0
 47
0.0
 47
1.0
171
     0
 49
0.0008202099737533
 49
0.0
 49
0.0
 49
0.0
 49
0.0
 49
0.0008202099737533
 49
0.0
 49
0.0
 49
0.0
 49
0.0
 49
1.0
 49
0.0
 49
0.0
 49
0.0
 49
0.0
 49
1.0
175
     0
142
0.0008202099737533
142
0.0
142
0.0
142
0.0
142
0.0
142
0.0008202099737533
142
0.0
142
0.0
142
0.0
142
0.0
142
1.0
142
0.0
142
0.0
142
0.0
142
0.0
142
1.0
179
     0
144
0.0008202099737533
144
0.0
144
0.0
144
0.0
144
0.0
144
0.0008202099737533
144
0.0
144
0.0
144
0.0
144
0.0
144
1.0
144
0.0
144
0.0
144
0.0
144
0.0
144
1.0
147
0.0008202099737533
147
0.0
147
0.0
147
0.0
147
0.0
147
0.0008202099737533
147
0.0
147
0.0
147
0.0
147
0.0
147
1.0
147
0.0
147
0.0
147
0.0
147
0.0
147
1.0
  0
MATERIAL
  5
3B4
102
{ACAD_XDICTIONARY
360
3B5
102
}
102
{ACAD_REACTORS
330
BD
102
}
330
BD
100
AcDbMaterial
  1
ByLayer
 72
     0
 43
0.0008202099737533
 43
0.0
 43
0.0
 43
0.0
 43
0.0
 43
0.0008202099737533
 43
0.0
 43
0.0
 43
0.0
 43
0.0
 43
1.0
 43
0.0
 43
0.0
 43
0.0
 43
0.0
 43
1.0
 77
     0
 47
0.0008202099737533
 47
0.0
 47
0.0
 47
0.0
 47
0.0
 47
0.0008202099737533
 47
0.0
 47
0.0
 47
0.0
 47
0.0
 47
1.0
 47
0.0
 47
0.0
 47
0.0
 47
0.0
 47
1.0
171
     0
 49
0.0008202099737533
 49
0.0
 49
0.0
 49
0.0
 49
0.0
 49
0.0008202099737533
 49
0.0
 49
0.0
 49
0.0
 49
0.0
 49
1.0
 49
0.0
 49
0.0
 49
0.0
 49
0.0
 49
1.0
175
     0
142
0.0008202099737533
142
0.0
142
0.0
142
0.0
142
0.0
142
0.0008202099737533
142
0.0
142
0.0
142
0.0
142
0.0
142
1.0
142
0.0
142
0.0
142
0.0
142
0.0
142
1.0
179
     0
144
0.0008202099737533
144
0.0
144
0.0
144
0.0
144
0.0
144
0.0008202099737533
144
0.0
144
0.0
144
0.0
144
0.0
144
1.0
144
0.0
144
0.0
144
0.0
144
0.0
144
1.0
147
0.0008202099737533
147
0.0
147
0.0
147
0.0
147
0.0
147
0.0008202099737533
147
0.0
147
0.0
147
0.0
147
0.0
147
1.0
147
0.0
147
0.0
147
0.0
147
0.0
147
1.0
  0
MATERIAL
  5
3C4
102
{ACAD_XDICTIONARY
360
3C5
102
}
102
{ACAD_REACTORS
330
BD
102
}
330
BD
100
AcDbMaterial
  1
Global
 72
     0
 43
0.0008202099737533
 43
0.0
 43
0.0
 43
0.0
 43
0.0
 43
0.0008202099737533
 43
0.0
 43
0.0
 43
0.0
 43
0.0
 43
1.0
 43
0.0
 43
0.0
 43
0.0
 43
0.0
 43
1.0
 77
     0
 47
0.0008202099737533
 47
0.0
 47
0.0
 47
0.0
 47
0.0
 47
0.0008202099737533
 47
0.0
 47
0.0
 47
0.0
 47
0.0
 47
1.0
 47
0.0
 47
0.0
 47
0.0
 47
0.0
 47
1.0
171
     0
 49
0.0008202099737533
 49
0.0
 49
0.0
 49
0.0
 49
0.0
 49
0.0008202099737533
 49
0.0
 49
0.0
 49
0.0
 49
0.0
 49
1.0
 49
0.0
 49
0.0
 49
0.0
 49
0.0
 49
1.0
175
     0
142
0.0008202099737533
142
0.0
142
0.0
142
0.0
142
0.0
142
0.0008202099737533
142
0.0
142
0.0
142
0.0
142
0.0
142
1.0
142
0.0
142
0.0
142
0.0
142
0.0
142
1.0
179
     0
144
0.0008202099737533
144
0.0
144
0.0
144
0.0
144
0.0
144
0.0008202099737533
144
0.0
144
0.0
144
0.0
144
0.0
144
1.0
144
0.0
144
0.0
144
0.0
144
0.0
144
1.0
147
0.0008202099737533
147
0.0
147
0.0
147
0.0
147
0.0
147
0.0008202099737533
147
0.0
147
0.0
147
0.0
147
0.0
147
1.0
147
0.0
147
0.0
147
0.0
147
0.0
147
1.0
  0
MLEADERSTYLE
  5
3F0
102
{ACAD_REACTORS
330
3EF
102
}
330
3EF
100
AcDbMLeaderStyle
170
     2
171
     1
172
     0
 90
        2
 40
0.0
 41
0.0
173
     1
 91
-1056964608
340
14
 92
       -2
290
     1
 42
2.0
291
     1
 43
0.36
  3
Standard
 44
4.0
300

342
11
174
     1
178
     6
175
     1
176
     0
 93
-1056964608
 45
4.0
292
     0
297
     0
 46
4.0
 94
-1056964608
 47
1.0
 49
1.0
140
1.0
293
     1
141
0.0
294
     1
177
     0
142
1.0
295
     0
296
     0
143
0.125
1001
ACAD_MLEADERVER
1070
     2
  0
MLINESTYLE
  5
18
102
{ACAD_REACTORS
330
17
102
}
330
17
100
AcDbMlineStyle
  2
STANDARD
 70
     0
  3

 62
   256
 51
90.0
 52
90.0
 71
     2
 49
0.5
 62
   256
  6
BYLAYER
 49
-0.5
 62
   256
  6
BYLAYER
  0
ACDBPLACEHOLDER
  5
F
102
{ACAD_REACTORS
330
E
102
}
330
E
  0
SCALE
  5
3DE
102
{ACAD_REACTORS
330
3DD
102
}
330
3DD
100
AcDbScale
 70
     0
300
1:1
140
1.0
141
1.0
290
     1
  0
SCALE
  5
3DF
102
{ACAD_REACTORS
330
3DD
102
}
330
3DD
100
AcDbScale
 70
     0
300
1:2
140
1.0
141
2.0
290
     0
  0
SCALE
  5
3E0
102
{ACAD_REACTORS
330
3DD
102
}
330
3DD
100
AcDbScale
 70
     0
300
1:4
140
1.0
141
4.0
290
     0
  0
SCALE
  5
3E1
102
{ACAD_REACTORS
330
3DD
102
}
330
3DD
100
AcDbScale
 70
     0
300
1:5
140
1.0
141
5.0
290
     0
  0
SCALE
  5
3E2
102
{ACAD_REACTORS
330
3DD
102
}
330
3DD
100
AcDbScale
 70
     0
300
1:8
140
1.0
141
8.0
290
     0
  0
SCALE
  5
3E3
102
{ACAD_REACTORS
330
3DD
102
}
330
3DD
100
AcDbScale
 70
     0
300
1:10
140
1.0
141
10.0
290
     0
  0
SCALE
  5
3E4
102
{ACAD_REACTORS
330
3DD
102
}
330
3DD
100
AcDbScale
 70
     0
300
1:16
140
1.0
141
16.0
290
     0
  0
SCALE
  5
3E5
102
{ACAD_REACTORS
330
3DD
102
}
330
3DD
100
AcDbScale
 70
     0
300
1:20
140
1.0
141
20.0
290
     0
  0
SCALE
  5
3E6
102
{ACAD_REACTORS
330
3DD
102
}
330
3DD
100
AcDbScale
 70
     0
300
1:30
140
1.0
141
30.0
290
     0
  0
SCALE
  5
3E7
102
{ACAD_REACTORS
330
3DD
102
}
330
3DD
100
AcDbScale
 70
     0
300
1:40
140
1.0
141
40.0
290
     0
  0
SCALE
  5
3E8
102
{ACAD_REACTORS
330
3DD
102
}
330
3DD
100
AcDbScale
 70
     0
300
1:50
140
1.0
141
50.0
290
     0
  0
SCALE
  5
3E9
102
{ACAD_REACTORS
330
3DD
102
}
330
3DD
100
AcDbScale
 70
     0
300
1:100
140
1.0
141
100.0
290
     0
  0
SCALE
  5
3EA
102
{ACAD_REACTORS
330
3DD
102
}
330
3DD
100
AcDbScale
 70
     0
300
2:1
140
2.0
141
1.0
290
     0
  0
SCALE
  5
3EB
102
{ACAD_REACTORS
330
3DD
102
}
330
3DD
100
AcDbScale
 70
     0
300
4:1
140
4.0
141
1.0
290
     0
  0
SCALE
  5
3EC
102
{ACAD_REACTORS
330
3DD
102
}
330
3DD
100
AcDbScale
 70
     0
300
8:1
140
8.0
141
1.0
290
     0
  0
SCALE
  5
3ED
102
{ACAD_REACTORS
330
3DD
102
}
330
3DD
100
AcDbScale
 70
     0
300
10:1
140
10.0
141
1.0
290
     0
  0
SCALE
  5
3EE
102
{ACAD_REACTORS
330
3DD
102
}
330
3DD
100
AcDbScale
 70
     0
300
100:1
140
100.0
141
1.0
290
     0
  0
TABLESTYLE
  5
11B
102
{ACAD_XDICTIONARY
360
3260
102
}
102
{ACAD_REACTORS
330
11A
102
}
330
11A
100
AcDbTableStyle
  3
Standard
 70
     0
 71
     0
 40
1.5
 41
1.5
280
     0
281
     0
  7
STANDARD
140
4.5
170
     2
 62
     0
 63
     7
283
     0
274
    -2
284
     1
 64
     0
275
    -2
285
     1
 65
     0
276
    -2
286
     1
 66
     0
277
    -2
287
     1
 67
     0
278
    -2
288
     1
 68
     0
279
    -2
289
     1
 69
     0
  7
STANDARD
140
6.0
170
     5
 62
     0
 63
     7
283
     0
274
    -2
284
     1
 64
     0
275
    -2
285
     1
 65
     0
276
    -2
286
     1
 66
     0
277
    -2
287
     1
 67
     0
278
    -2
288
     1
 68
     0
279
    -2
289
     1
 69
     0
  7
STANDARD
140
4.5
170
     5
 62
     0
 63
     7
283
     0
274
    -2
284
     1
 64
     0
275
    -2
285
     1
 65
     0
276
    -2
286
     1
 66
     0
277
    -2
287
     1
 67
     0
278
    -2
288
     1
 68
     0
279
    -2
289
     1
 69
     0
  0
VISUALSTYLE
  5
3D2
102
{ACAD_REACTORS
330
3CC
102
}
330
3CC
100
AcDbVisualStyle
  2
2dWireframe
 70
     4
 71
     0
 72
     2
 73
     0
 90
        0
 40
-0.6
 41
-30.0
 62
     5
 63
     7
 74
     1
 91
        4
 64
     7
 65
   257
 75
     1
175
     1
 42
1.0
 92
        0
 66
   257
 43
1.0
 76
     1
 77
     6
 78
     2
 67
     7
 79
     5
170
     0
171
     0
290
     0
174
     0
 93
        1
 44
0.0
173
     0
291
     0
 45
0.0
1001
ACAD
1000
AcDbSavedByObjectVersion
1070
     0
1000
AcDbSavedByObjectVersion
1070
     0
1000
AcDbSavedByObjectVersion
1070
     0
1000
AcDbSavedByObjectVersion
1070
     0
1000
AcDbSavedByObjectVersion
1070
     0
1000
AcDbSavedByObjectVersion
1070
     0
1000
AcDbSavedByObjectVersion
1070
     0
1000
AcDbSavedByObjectVersion
1070
     0
1000
AcDbSavedByObjectVersion
1070
     0
  0
VISUALSTYLE
  5
3D4
102
{ACAD_REACTORS
330
3CC
102
}
330
3CC
100
AcDbVisualStyle
  2
3D Hidden
 70
     6
 71
     1
 72
     2
 73
     2
 90
        0
 40
-0.6
 41
-30.0
 62
     5
 63
     7
 74
     2
 91
        2
 64
     7
 65
   257
 75
     2
175
     1
 42
40.0
 92
        0
 66
   257
 43
1.0
 76
     1
 77
     6
 78
     2
 67
     7
 79
     3
170
     0
171
     0
290
     0
174
     0
 93
        1
 44
0.0
173
     0
291
     0
 45
0.0
1001
ACAD
1000
AcDbSavedByObjectVersion
1070
     0
1000
AcDbSavedByObjectVersion
1070
     0
1000
AcDbSavedByObjectVersion
1070
     0
1000
AcDbSavedByObjectVersion
1070
     0
1000
AcDbSavedByObjectVersion
1070
     0
1000
AcDbSavedByObjectVersion
1070
     0
1000
AcDbSavedByObjectVersion
1070
     0
1000
AcDbSavedByObjectVersion
1070
     0
1000
AcDbSavedByObjectVersion
1070
     0
  0
VISUALSTYLE
  5
3D3
102
{ACAD_REACTORS
330
3CC
102
}
330
3CC
100
AcDbVisualStyle
  2
3dWireframe
 70
     5
 71
     0
 72
     2
 73
     0
 90
        0
 40
-0.6
 41
-30.0
 62
     5
 63
     7
 74
     1
 91
        4
 64
     7
 65
   257
 75
     1
175
     1
 42
1.0
 92
        0
 66
   257
 43
1.0
 76
     1
 77
     6
 78
     2
 67
     7
 79
     5
170
     0
171
     0
290
     0
174
     0
 93
        1
 44
0.0
173
     0
291
     0
 45
0.0
1001
ACAD
1000
AcDbSavedByObjectVersion
1070
     0
1000
AcDbSavedByObjectVersion
1070
     0
1000
AcDbSavedByObjectVersion
1070
     0
1000
AcDbSavedByObjectVersion
1070
     0
1000
AcDbSavedByObjectVersion
1070
     0
1000
AcDbSavedByObjectVersion
1070
     0
1000
AcDbSavedByObjectVersion
1070
     0
1000
AcDbSavedByObjectVersion
1070
     0
1000
AcDbSavedByObjectVersion
1070
     0
  0
VISUALSTYLE
  5
3D1
102
{ACAD_REACTORS
330
3CC
102
}
330
3CC
100
AcDbVisualStyle
  2
Basic
 70
     7
 71
     1
 72
     0
 73
     1
 90
        0
 40
-0.6
 41
-30.0
 62
     5
 63
     7
 74
     0
 91
        4
 64
     7
 65
   257
 75
     1
175
     1
 42
1.0
 92
        8
 66
     7
 43
1.0
 76
     1
 77
     6
 78
     2
 67
     7
 79
     5
170
     0
171
     0
290
     0
174
     0
 93
        1
 44
0.0
173
     0
291
     1
 45
0.0
1001
ACAD
1000
AcDbSavedByObjectVersion
1070
     0
1000
AcDbSavedByObjectVersion
1070
     0
1000
AcDbSavedByObjectVersion
1070
     0
1000
AcDbSavedByObjectVersion
1070
     0
1000
AcDbSavedByObjectVersion
1070
     0
1000
AcDbSavedByObjectVersion
1070
     0
1000
AcDbSavedByObjectVersion
1070
     0
1000
AcDbSavedByObjectVersion
1070
     0
1000
AcDbSavedByObjectVersion
1070
     0
  0
VISUALSTYLE
  5
3D8
102
{ACAD_REACTORS
330
3CC
102
}
330
3CC
100
AcDbVisualStyle
  2
Brighten
 70
    12
 71
     2
 72
     2
 73
     0
 90
        0
 40
-0.6
 41
-30.0
 62
     5
 63
     7
 74
     1
 91
        4
 64
     7
 65
   257
 75
     1
175
     1
 42
1.0
 92
        8
 66
     7
 43
1.0
 76
     1
 77
     6
 78
     2
 67
     7
 79
     5
170
     0
171
     0
290
     0
174
     0
 93
        1
 44
50.0
173
     0
291
     1
 45
0.0
1001
ACAD
1000
AcDbSavedByObjectVersion
1070
     0
1000
AcDbSavedByObjectVersion
1070
     0
1000
AcDbSavedByObjectVersion
1070
     0
1000
AcDbSavedByObjectVersion
1070
     0
1000
AcDbSavedByObjectVersion
1070
     0
1000
AcDbSavedByObjectVersion
1070
     0
1000
AcDbSavedByObjectVersion
1070
     0
1000
AcDbSavedByObjectVersion
1070
     0
1000
AcDbSavedByObjectVersion
1070
     0
  0
VISUALSTYLE
  5
3DC
102
{ACAD_REACTORS
330
3CC
102
}
330
3CC
100
AcDbVisualStyle
  2
ColorChange
 70
    16
 71
     2
 72
     2
 73
     3
 90
        0
 40
-0.6
 41
-30.0
 62
     5
 63
     8
 74
     1
 91
        4
 64
     7
 65
   257
 75
     1
175
     1
 42
1.0
 92
        8
 66
     8
 43
1.0
 76
     1
 77
     6
 78
     2
 67
     7
 79
     5
170
     0
171
     0
290
     0
174
     0
 93
        1
 44
0.0
173
     0
291
     1
 45
0.0
1001
ACAD
1000
AcDbSavedByObjectVersion
1070
     0
1000
AcDbSavedByObjectVersion
1070
     0
1000
AcDbSavedByObjectVersion
1070
     0
1000
AcDbSavedByObjectVersion
1070
     0
1000
AcDbSavedByObjectVersion
1070
     0
1000
AcDbSavedByObjectVersion
1070
     0
1000
AcDbSavedByObjectVersion
1070
     0
1000
AcDbSavedByObjectVersion
1070
     0
1000
AcDbSavedByObjectVersion
1070
     0
  0
VISUALSTYLE
  5
3D5
102
{ACAD_REACTORS
330
3CC
102
}
330
3CC
100
AcDbVisualStyle
  2
Conceptual
 70
     9
 71
     3
 72
     2
 73
     0
 90
        0
 40
-0.6
 41
-30.0
 62
     5
 63
     7
 74
     2
 91
        2
 64
     7
 65
   257
 75
     1
175
     1
 42
40.0
 92
        8
 66
     7
 43
1.0
 76
     1
 77
     6
 78
     2
 67
     7
 79
     3
170
     0
171
     0
290
     0
174
     0
 93
        1
 44
0.0
173
     0
291
     0
 45
0.0
1001
ACAD
1000
AcDbSavedByObjectVersion
1070
     0
1000
AcDbSavedByObjectVersion
1070
     0
1000
AcDbSavedByObjectVersion
1070
     0
1000
AcDbSavedByObjectVersion
1070
     0
1000
AcDbSavedByObjectVersion
1070
     0
1000
AcDbSavedByObjectVersion
1070
     0
1000
AcDbSavedByObjectVersion
1070
     0
1000
AcDbSavedByObjectVersion
1070
     0
1000
AcDbSavedByObjectVersion
1070
     0
  0
VISUALSTYLE
  5
3D7
102
{ACAD_REACTORS
330
3CC
102
}
330
3CC
100
AcDbVisualStyle
  2
Dim
 70
    11
 71
     2
 72
     2
 73
     0
 90
        0
 40
-0.6
 41
-30.0
 62
     5
 63
     7
 74
     1
 91
        4
 64
     7
 65
   257
 75
     1
175
     1
 42
1.0
 92
        8
 66
     7
 43
1.0
 76
     1
 77
     6
 78
     2
 67
     7
 79
     5
170
     0
171
     0
290
     0
174
     0
 93
        1
 44
-50.0
173
     0
291
     1
 45
0.0
1001
ACAD
1000
AcDbSavedByObjectVersion
1070
     0
1000
AcDbSavedByObjectVersion
1070
     0
1000
AcDbSavedByObjectVersion
1070
     0
1000
AcDbSavedByObjectVersion
1070
     0
1000
AcDbSavedByObjectVersion
1070
     0
1000
AcDbSavedByObjectVersion
1070
     0
1000
AcDbSavedByObjectVersion
1070
     0
1000
AcDbSavedByObjectVersion
1070
     0
1000
AcDbSavedByObjectVersion
1070
     0
  0
VISUALSTYLE
  5
3DB
102
{ACAD_REACTORS
330
3CC
102
}
330
3CC
100
AcDbVisualStyle
  2
Facepattern
 70
    15
 71
     2
 72
     2
 73
     0
 90
        0
 40
-0.6
 41
-30.0
 62
     5
 63
     7
 74
     1
 91
        4
 64
     7
 65
   257
 75
     1
175
     1
 42
1.0
 92
        8
 66
     7
 43
1.0
 76
     1
 77
     6
 78
     2
 67
     7
 79
     5
170
     0
171
     0
290
     0
174
     0
 93
        1
 44
0.0
173
     0
291
     1
 45
0.0
1001
ACAD
1000
AcDbSavedByObjectVersion
1070
     0
1000
AcDbSavedByObjectVersion
1070
     0
1000
AcDbSavedByObjectVersion
1070
     0
1000
AcDbSavedByObjectVersion
1070
     0
1000
AcDbSavedByObjectVersion
1070
     0
1000
AcDbSavedByObjectVersion
1070
     0
1000
AcDbSavedByObjectVersion
1070
     0
1000
AcDbSavedByObjectVersion
1070
     0
1000
AcDbSavedByObjectVersion
1070
     0
  0
VISUALSTYLE
  5
3CD
102
{ACAD_REACTORS
330
3CC
102
}
330
3CC
100
AcDbVisualStyle
  2
Flat
 70
     0
 71
     2
 72
     1
 73
     1
 90
        2
 40
-0.6
 41
30.0
 62
     5
 63
     7
 74
     0
 91
        4
 64
     7
 65
   257
 75
     1
175
     1
 42
1.0
 92
        8
 66
     7
 43
1.0
 76
     1
 77
     6
 78
     2
 67
     7
 79
     5
170
     0
171
     0
290
     0
174
     0
 93
       13
 44
0.0
173
     0
291
     1
 45
0.0
1001
ACAD
1000
AcDbSavedByObjectVersion
1070
     0
1000
AcDbSavedByObjectVersion
1070
     0
1000
AcDbSavedByObjectVersion
1070
     0
1000
AcDbSavedByObjectVersion
1070
     0
1000
AcDbSavedByObjectVersion
1070
     0
1000
AcDbSavedByObjectVersion
1070
     0
1000
AcDbSavedByObjectVersion
1070
     0
1000
AcDbSavedByObjectVersion
1070
     0
1000
AcDbSavedByObjectVersion
1070
     0
  0
VISUALSTYLE
  5
3CE
102
{ACAD_REACTORS
330
3CC
102
}
330
3CC
100
AcDbVisualStyle
  2
FlatWithEdges
 70
     1
 71
     2
 72
     1
 73
     1
 90
        2
 40
-0.6
 41
30.0
 62
     5
 63
     7
 74
     1
 91
        4
 64
     7
 65
   257
 75
     1
175
     1
 42
1.0
 92
        0
 66
   257
 43
1.0
 76
     1
 77
     6
 78
     2
 67
     7
 79
     5
170
     0
171
     0
290
     0
174
     0
 93
       13
 44
0.0
173
     0
291
     1
 45
0.0
1001
ACAD
1000
AcDbSavedByObjectVersion
1070
     0
1000
AcDbSavedByObjectVersion
1070
     0
1000
AcDbSavedByObjectVersion
1070
     0
1000
AcDbSavedByObjectVersion
1070
     0
1000
AcDbSavedByObjectVersion
1070
     0
1000
AcDbSavedByObjectVersion
1070
     0
1000
AcDbSavedByObjectVersion
1070
     0
1000
AcDbSavedByObjectVersion
1070
     0
1000
AcDbSavedByObjectVersion
1070
     0
  0
VISUALSTYLE
  5
3CF
102
{ACAD_REACTORS
330
3CC
102
}
330
3CC
100
AcDbVisualStyle
  2
Gouraud
 70
     2
 71
     2
 72
     2
 73
     1
 90
        2
 40
-0.6
 41
30.0
 62
     5
 63
     7
 74
     0
 91
        4
 64
     7
 65
   257
 75
     1
175
     1
 42
1.0
 92
        0
 66
     7
 43
1.0
 76
     1
 77
     6
 78
     2
 67
     7
 79
     5
170
     0
171
     0
290
     0
174
     0
 93
       13
 44
0.0
173
     0
291
     1
 45
0.0
1001
ACAD
1000
AcDbSavedByObjectVersion
1070
     0
1000
AcDbSavedByObjectVersion
1070
     0
1000
AcDbSavedByObjectVersion
1070
     0
1000
AcDbSavedByObjectVersion
1070
     0
1000
AcDbSavedByObjectVersion
1070
     0
1000
AcDbSavedByObjectVersion
1070
     0
1000
AcDbSavedByObjectVersion
1070
     0
1000
AcDbSavedByObjectVersion
1070
     0
1000
AcDbSavedByObjectVersion
1070
     0
  0
VISUALSTYLE
  5
3D0
102
{ACAD_REACTORS
330
3CC
102
}
330
3CC
100
AcDbVisualStyle
  2
GouraudWithEdges
 70
     3
 71
     2
 72
     2
 73
     1
 90
        2
 40
-0.6
 41
30.0
 62
     5
 63
     7
 74
     1
 91
        4
 64
     7
 65
   257
 75
     1
175
     1
 42
1.0
 92
        0
 66
   257
 43
1.0
 76
     1
 77
     6
 78
     2
 67
     7
 79
     5
170
     0
171
     0
290
     0
174
     0
 93
       13
 44
0.0
173
     0
291
     1
 45
0.0
1001
ACAD
1000
AcDbSavedByObjectVersion
1070
     0
1000
AcDbSavedByObjectVersion
1070
     0
1000
AcDbSavedByObjectVersion
1070
     0
1000
AcDbSavedByObjectVersion
1070
     0
1000
AcDbSavedByObjectVersion
1070
     0
1000
AcDbSavedByObjectVersion
1070
     0
1000
AcDbSavedByObjectVersion
1070
     0
1000
AcDbSavedByObjectVersion
1070
     0
1000
AcDbSavedByObjectVersion
1070
     0
  0
VISUALSTYLE
  5
3DA
102
{ACAD_REACTORS
330
3CC
102
}
330
3CC
100
AcDbVisualStyle
  2
Linepattern
 70
    14
 71
     2
 72
     2
 73
     0
 90
        0
 40
-0.6
 41
-30.0
 62
     5
 63
     7
 74
     1
 91
        4
 64
     7
 65
   257
 75
     7
175
     7
 42
1.0
 92
        8
 66
     7
 43
1.0
 76
     1
 77
     6
 78
     2
 67
     7
 79
     5
170
     0
171
     0
290
     0
174
     0
 93
        1
 44
0.0
173
     0
291
     1
 45
0.0
1001
ACAD
1000
AcDbSavedByObjectVersion
1070
     0
1000
AcDbSavedByObjectVersion
1070
     0
1000
AcDbSavedByObjectVersion
1070
     0
1000
AcDbSavedByObjectVersion
1070
     0
1000
AcDbSavedByObjectVersion
1070
     0
1000
AcDbSavedByObjectVersion
1070
     0
1000
AcDbSavedByObjectVersion
1070
     0
1000
AcDbSavedByObjectVersion
1070
     0
1000
AcDbSavedByObjectVersion
1070
     0
  0
VISUALSTYLE
  5
3D6
102
{ACAD_REACTORS
330
3CC
102
}
330
3CC
100
AcDbVisualStyle
  2
Realistic
 70
     8
 71
     2
 72
     2
 73
     0
 90
        0
 40
-0.6
 41
-30.0
 62
     5
 63
     7
 74
     1
 91
        0
 64
     7
 65
   257
 75
     1
175
     1
 42
1.0
 92
        8
 66
     8
 43
1.0
 76
     1
 77
     6
 78
     2
 67
     7
 79
     5
170
     0
171
     0
290
     0
174
     0
 93
       13
 44
0.0
173
     0
291
     0
 45
0.0
1001
ACAD
1000
AcDbSavedByObjectVersion
1070
     0
1000
AcDbSavedByObjectVersion
1070
     0
1000
AcDbSavedByObjectVersion
1070
     0
1000
AcDbSavedByObjectVersion
1070
     0
1000
AcDbSavedByObjectVersion
1070
     0
1000
AcDbSavedByObjectVersion
1070
     0
1000
AcDbSavedByObjectVersion
1070
     0
1000
AcDbSavedByObjectVersion
1070
     0
1000
AcDbSavedByObjectVersion
1070
     0
  0
VISUALSTYLE
  5
3D9
102
{ACAD_REACTORS
330
3CC
102
}
330
3CC
100
AcDbVisualStyle
  2
Thicken
 70
    13
 71
     2
 72
     2
 73
     0
 90
        0
 40
-0.6
 41
-30.0
 62
     5
 63
     7
 74
     1
 91
        4
 64
     7
 65
   257
 75
     1
175
     1
 42
1.0
 92
       12
 66
     7
 43
1.0
 76
     1
 77
     6
 78
     2
 67
     7
 79
     5
170
     0
171
     0
290
     0
174
     0
 93
        1
 44
0.0
173
     0
291
     1
 45
0.0
1001
ACAD
1000
AcDbSavedByObjectVersion
1070
     0
1000
AcDbSavedByObjectVersion
1070
     0
1000
AcDbSavedByObjectVersion
1070
     0
1000
AcDbSavedByObjectVersion
1070
     0
1000
AcDbSavedByObjectVersion
1070
     0
1000
AcDbSavedByObjectVersion
1070
     0
1000
AcDbSavedByObjectVersion
1070
     0
1000
AcDbSavedByObjectVersion
1070
     0
1000
AcDbSavedByObjectVersion
1070
     0
  0
DICTIONARYVAR
  5
325E
102
{ACAD_REACTORS
330
94
102
}
330
94
100
DictionaryVariables
280
     0
  1
1:1
  0
DICTIONARYVAR
  5
325D
102
{ACAD_REACTORS
330
94
102
}
330
94
100
DictionaryVariables
280
     0
  1
STANDARD
  0
DICTIONARYVAR
  5
138
102
{ACAD_REACTORS
330
94
102
}
330
94
100
DictionaryVariables
280
     0
  1
STANDARD
  0
DICTIONARYVAR
  5
96
102
{ACAD_REACTORS
330
94
102
}
330
94
100
DictionaryVariables
280
     0
  1
2
  0
DICTIONARYVAR
  5
95
102
{ACAD_REACTORS
330
94
102
}
330
94
100
DictionaryVariables
280
     0
  1
0
  0
DICTIONARYVAR
  5
325F
102
{ACAD_REACTORS
330
94
102
}
330
94
100
DictionaryVariables
280
     0
  1
127
  0
DICTIONARY
  5
272
102
{ACAD_REACTORS
330
5B
102
}
330
5B
100
AcDbDictionary
281
     1
  0
DICTIONARY
  5
61
102
{ACAD_REACTORS
330
5B
102
}
330
5B
100
AcDbDictionary
281
     1
  0
XRECORD
  5
123
102
{ACAD_REACTORS
330
5B
102
}
330
5B
100
AcDbXrecord
280
     1
 90
-1023410169
  0
DICTIONARY
  5
560A
330
1E
100
AcDbDictionary
280
     1
281
     1
  3
ACAD_XREC_ROUNDTRIP
360
560B
  0
DICTIONARY
  5
560E
330
26
100
AcDbDictionary
280
     1
281
     1
  3
ACAD_XREC_ROUNDTRIP
360
560F
  0
DICTIONARY
  5
560C
330
22
100
AcDbDictionary
280
     1
281
     1
  3
ACAD_XREC_ROUNDTRIP
360
560D
  0
DICTIONARY
  5
3BD
330
3BC
100
AcDbDictionary
280
     1
281
     1
  3
ACAD_XREC_ROUNDTRIP
360
326E
  3
BUMPTILE
360
3BF
  3
DIFFUSETILE
360
3BE
  3
OPACITYTILE
360
3C2
  3
REFLECTIONTILE
360
3C1
  3
REFRACTIONTILE
360
3C3
  3
SPECULARTILE
360
3C0
  0
DICTIONARY
  5
3B5
330
3B4
100
AcDbDictionary
280
     1
281
     1
  3
ACAD_XREC_ROUNDTRIP
360
326D
  3
BUMPTILE
360
3B7
  3
DIFFUSETILE
360
3B6
  3
OPACITYTILE
360
3BA
  3
REFLECTIONTILE
360
3B9
  3
REFRACTIONTILE
360
3BB
  3
SPECULARTILE
360
3B8
  0
DICTIONARY
  5
3C5
330
3C4
100
AcDbDictionary
280
     1
281
     1
  3
ACAD_XREC_ROUNDTRIP
360
326F
  3
BUMPTILE
360
3C7
  3
DIFFUSETILE
360
3C6
  3
OPACITYTILE
360
3CA
  3
REFLECTIONTILE
360
3C9
  3
REFRACTIONTILE
360
3CB
  3
SPECULARTILE
360
3C8
  0
DICTIONARY
  5
3260
330
11B
100
AcDbDictionary
280
     1
281
     1
  3
ACAD_ROUNDTRIP_2008_TABLESTYLE_CELLSTYLEMAP
360
5603
  3
ACAD_XREC_ROUNDTRIP
360
5610
  0
XRECORD
  5
560B
102
{ACAD_REACTORS
330
560A
102
}
330
560A
100
AcDbXrecord
280
     1
102
SHADEPLOT
 70
     0
102
SHADEPLOTRESLEVEL
 70
     2
102
SHADEPLOTCUSTOMDPI
 70
   300
  0
XRECORD
  5
560F
102
{ACAD_REACTORS
330
560E
102
}
330
560E
100
AcDbXrecord
280
     1
102
SHADEPLOT
 70
     0
102
SHADEPLOTRESLEVEL
 70
     2
102
SHADEPLOTCUSTOMDPI
 70
   300
  0
XRECORD
  5
560D
102
{ACAD_REACTORS
330
560C
102
}
330
560C
100
AcDbXrecord
280
     1
102
SHADEPLOT
 70
     0
102
SHADEPLOTRESLEVEL
 70
     2
102
SHADEPLOTCUSTOMDPI
 70
   300
  0
XRECORD
  5
326E
102
{ACAD_REACTORS
330
3BD
102
}
330
3BD
100
AcDbXrecord
280
     1
102
MATERIAL
148
0.0
149
0.0
149
0.0
 93
        0
 94
      127
282
     0
 72
     0
 77
     0
171
     0
175
     0
179
     0
273
     0
  0
XRECORD
  5
3BF
102
{ACAD_REACTORS
330
3BD
102
}
330
3BD
100
AcDbXrecord
280
     1
270
     1
271
     1
  0
XRECORD
  5
3BE
102
{ACAD_REACTORS
330
3BD
102
}
330
3BD
100
AcDbXrecord
280
     1
270
     1
271
     1
  0
XRECORD
  5
3C2
102
{ACAD_REACTORS
330
3BD
102
}
330
3BD
100
AcDbXrecord
280
     1
270
     1
271
     1
  0
XRECORD
  5
3C1
102
{ACAD_REACTORS
330
3BD
102
}
330
3BD
100
AcDbXrecord
280
     1
270
     1
271
     1
  0
XRECORD
  5
3C3
102
{ACAD_REACTORS
330
3BD
102
}
330
3BD
100
AcDbXrecord
280
     1
270
     1
271
     1
  0
XRECORD
  5
3C0
102
{ACAD_REACTORS
330
3BD
102
}
330
3BD
100
AcDbXrecord
280
     1
270
     1
271
     1
  0
XRECORD
  5
326D
102
{ACAD_REACTORS
330
3B5
102
}
330
3B5
100
AcDbXrecord
280
     1
102
MATERIAL
148
0.0
149
0.0
149
0.0
 93
        0
 94
      127
282
     0
 72
     0
 77
     0
171
     0
175
     0
179
     0
273
     0
  0
XRECORD
  5
3B7
102
{ACAD_REACTORS
330
3B5
102
}
330
3B5
100
AcDbXrecord
280
     1
270
     1
271
     1
  0
XRECORD
  5
3B6
102
{ACAD_REACTORS
330
3B5
102
}
330
3B5
100
AcDbXrecord
280
     1
270
     1
271
     1
  0
XRECORD
  5
3BA
102
{ACAD_REACTORS
330
3B5
102
}
330
3B5
100
AcDbXrecord
280
     1
270
     1
271
     1
  0
XRECORD
  5
3B9
102
{ACAD_REACTORS
330
3B5
102
}
330
3B5
100
AcDbXrecord
280
     1
270
     1
271
     1
  0
XRECORD
  5
3BB
102
{ACAD_REACTORS
330
3B5
102
}
330
3B5
100
AcDbXrecord
280
     1
270
     1
271
     1
  0
XRECORD
  5
3B8
102
{ACAD_REACTORS
330
3B5
102
}
330
3B5
100
AcDbXrecord
280
     1
270
     1
271
     1
  0
XRECORD
  5
326F
102
{ACAD_REACTORS
330
3C5
102
}
330
3C5
100
AcDbXrecord
280
     1
102
MATERIAL
148
0.0
149
0.0
149
0.0
 93
        0
 94
      127
282
     0
 72
     0
 77
     0
171
     0
175
     0
179
     0
273
     0
  0
XRECORD
  5
3C7
102
{ACAD_REACTORS
330
3C5
102
}
330
3C5
100
AcDbXrecord
280
     1
270
     1
271
     1
  0
XRECORD
  5
3C6
102
{ACAD_REACTORS
330
3C5
102
}
330
3C5
100
AcDbXrecord
280
     1
270
     1
271
     1
  0
XRECORD
  5
3CA
102
{ACAD_REACTORS
330
3C5
102
}
330
3C5
100
AcDbXrecord
280
     1
270
     1
271
     1
  0
XRECORD
  5
3C9
102
{ACAD_REACTORS
330
3C5
102
}
330
3C5
100
AcDbXrecord
280
     1
270
     1
271
     1
  0
XRECORD
  5
3CB
102
{ACAD_REACTORS
330
3C5
102
}
330
3C5
100
AcDbXrecord
280
     1
270
     1
271
     1
  0
XRECORD
  5
3C8
102
{ACAD_REACTORS
330
3C5
102
}
330
3C5
100
AcDbXrecord
280
     1
270
     1
271
     1
  0
CELLSTYLEMAP
  5
5603
102
{ACAD_REACTORS
330
3260
102
}
330
3260
100
AcDbCellStyleMap
 90
        3
300
CELLSTYLE
  1
TABLEFORMAT_BEGIN
 90
        5
170
     1
 91
        0
 92
    32768
 62
   257
 93
        1
300
CONTENTFORMAT
  1
CONTENTFORMAT_BEGIN
 90
        0
 91
        0
 92
        4
 93
        0
300

 40
0.0
140
1.0
 94
        5
 62
     0
340
11
144
6.0
309
CONTENTFORMAT_END
171
     1
301
MARGIN
  1
CELLMARGIN_BEGIN
 40
1.5
 40
1.5
 40
1.5
 40
1.5
 40
0.18
 40
0.18
309
CELLMARGIN_END
 94
        6
 95
        1
302
GRIDFORMAT
  1
GRIDFORMAT_BEGIN
 90
        0
 91
        1
 62
     0
 92
       -2
340
0
 93
        0
 40
0.045
309
GRIDFORMAT_END
 95
        2
302
GRIDFORMAT
  1
GRIDFORMAT_BEGIN
 90
        0
 91
        1
 62
     0
 92
       -2
340
0
 93
        0
 40
0.045
309
GRIDFORMAT_END
 95
        4
302
GRIDFORMAT
  1
GRIDFORMAT_BEGIN
 90
        0
 91
        1
 62
     0
 92
       -2
340
0
 93
        0
 40
0.045
309
GRIDFORMAT_END
 95
        8
302
GRIDFORMAT
  1
GRIDFORMAT_BEGIN
 90
        0
 91
        1
 62
     0
 92
       -2
340
0
 93
        0
 40
0.045
309
GRIDFORMAT_END
 95
       16
302
GRIDFORMAT
  1
GRIDFORMAT_BEGIN
 90
        0
 91
        1
 62
     0
 92
       -2
340
0
 93
        0
 40
0.045
309
GRIDFORMAT_END
 95
       32
302
GRIDFORMAT
  1
GRIDFORMAT_BEGIN
 90
        0
 91
        1
 62
     0
 92
       -2
340
0
 93
        0
 40
0.045
309
GRIDFORMAT_END
309
TABLEFORMAT_END
  1
CELLSTYLE_BEGIN
 90
        1
 91
        1
300
_TITLE
309
CELLSTYLE_END
300
CELLSTYLE
  1
TABLEFORMAT_BEGIN
 90
        5
170
     1
 91
        0
 92
        0
 62
   257
 93
        1
300
CONTENTFORMAT
  1
CONTENTFORMAT_BEGIN
 90
        0
 91
        0
 92
        4
 93
        0
300

 40
0.0
140
1.0
 94
        5
 62
     0
340
11
144
4.5
309
CONTENTFORMAT_END
171
     1
301
MARGIN
  1
CELLMARGIN_BEGIN
 40
1.5
 40
1.5
 40
1.5
 40
1.5
 40
0.18
 40
0.18
309
CELLMARGIN_END
 94
        6
 95
        1
302
GRIDFORMAT
  1
GRIDFORMAT_BEGIN
 90
        0
 91
        1
 62
     0
 92
       -2
340
0
 93
        0
 40
0.045
309
GRIDFORMAT_END
 95
        2
302
GRIDFORMAT
  1
GRIDFORMAT_BEGIN
 90
        0
 91
        1
 62
     0
 92
       -2
340
0
 93
        0
 40
0.045
309
GRIDFORMAT_END
 95
        4
302
GRIDFORMAT
  1
GRIDFORMAT_BEGIN
 90
        0
 91
        1
 62
     0
 92
       -2
340
0
 93
        0
 40
0.045
309
GRIDFORMAT_END
 95
        8
302
GRIDFORMAT
  1
GRIDFORMAT_BEGIN
 90
        0
 91
        1
 62
     0
 92
       -2
340
0
 93
        0
 40
0.045
309
GRIDFORMAT_END
 95
       16
302
GRIDFORMAT
  1
GRIDFORMAT_BEGIN
 90
        0
 91
        1
 62
     0
 92
       -2
340
0
 93
        0
 40
0.045
309
GRIDFORMAT_END
 95
       32
302
GRIDFORMAT
  1
GRIDFORMAT_BEGIN
 90
        0
 91
        1
 62
     0
 92
       -2
340
0
 93
        0
 40
0.045
309
GRIDFORMAT_END
309
TABLEFORMAT_END
  1
CELLSTYLE_BEGIN
 90
        2
 91
        1
300
_HEADER
309
CELLSTYLE_END
300
CELLSTYLE
  1
TABLEFORMAT_BEGIN
 90
        5
170
     1
 91
        0
 92
        0
 62
   257
 93
        1
300
CONTENTFORMAT
  1
CONTENTFORMAT_BEGIN
 90
        0
 91
        0
 92
        4
 93
        0
300

 40
0.0
140
1.0
 94
        2
 62
     0
340
11
144
4.5
309
CONTENTFORMAT_END
171
     1
301
MARGIN
  1
CELLMARGIN_BEGIN
 40
1.5
 40
1.5
 40
1.5
 40
1.5
 40
0.18
 40
0.18
309
CELLMARGIN_END
 94
        6
 95
        1
302
GRIDFORMAT
  1
GRIDFORMAT_BEGIN
 90
        0
 91
        1
 62
     0
 92
       -2
340
0
 93
        0
 40
0.045
309
GRIDFORMAT_END
 95
        2
302
GRIDFORMAT
  1
GRIDFORMAT_BEGIN
 90
        0
 91
        1
 62
     0
 92
       -2
340
0
 93
        0
 40
0.045
309
GRIDFORMAT_END
 95
        4
302
GRIDFORMAT
  1
GRIDFORMAT_BEGIN
 90
        0
 91
        1
 62
     0
 92
       -2
340
0
 93
        0
 40
0.045
309
GRIDFORMAT_END
 95
        8
302
GRIDFORMAT
  1
GRIDFORMAT_BEGIN
 90
        0
 91
        1
 62
     0
 92
       -2
340
0
 93
        0
 40
0.045
309
GRIDFORMAT_END
 95
       16
302
GRIDFORMAT
  1
GRIDFORMAT_BEGIN
 90
        0
 91
        1
 62
     0
 92
       -2
340
0
 93
        0
 40
0.045
309
GRIDFORMAT_END
 95
       32
302
GRIDFORMAT
  1
GRIDFORMAT_BEGIN
 90
        0
 91
        1
 62
     0
 92
       -2
340
0
 93
        0
 40
0.045
309
GRIDFORMAT_END
309
TABLEFORMAT_END
  1
CELLSTYLE_BEGIN
 90
        3
 91
        2
300
_DATA
309
CELLSTYLE_END
  0
XRECORD
  5
5610
102
{ACAD_REACTORS
330
3260
102
}
330
3260
100
AcDbXrecord
280
     1
102
ACAD_ROUNDTRIP_PRE2007_TABLESTYLE
 90
        4
 91
        0
  1

 92
        4
 93
        0
  2

 94
        4
 95
        0
  3

  0
ENDSEC
  0
EOF
