  0
SECTION
  2
HEADER
  9
$ACADVER
  1
AC1015
  9
$ACADMAINTVER
 70
    20
  9
$DWGCODEPAGE
  3
ANSI_1252
  9
$INSBASE
 10
0.0
 20
0.0
 30
0.0
  9
$EXTMIN
 10
3253.005792798892
 20
1779.648206876579
 30
-0.000000000000013
  9
$EXTMAX
 10
3607.297450971798
 20
2277.179329828644
 30
0.0000000000000023
  9
$LIMMIN
 10
0.0
 20
0.0
  9
$LIMMAX
 10
420.0
 20
297.0
  9
$ORTHOMODE
 70
     0
  9
$REGENMODE
 70
     1
  9
$FILLMODE
 70
     1
  9
$QTEXTMODE
 70
     0
  9
$MIRRTEXT
 70
     1
  9
$LTSCALE
 40
1.0
  9
$ATTMODE
 70
     1
  9
$TEXTSIZE
 40
2.5
  9
$TRACEWID
 40
1.0
  9
$TEXTSTYLE
  7
STANDARD
  9
$CLAYER
  8
0
  9
$CELTYPE
  6
ByLayer
  9
$CECOLOR
 62
   256
  9
$CELTSCALE
 40
1.0
  9
$DISPSILH
 70
     0
  9
$DIMSCALE
 40
1.0
  9
$DIMASZ
 40
3.5
  9
$DIMEXO
 40
1.0
  9
$DIMDLI
 40
10.0
  9
$DIMRND
 40
0.0
  9
$DIMDLE
 40
0.0
  9
$DIMEXE
 40
1.0
  9
$DIMTP
 40
0.1
  9
$DIMTM
 40
0.1
  9
$DIMTXT
 40
3.5
  9
$DIMCEN
 40
0.0
  9
$DIMTSZ
 40
0.0
  9
$DIMTOL
 70
     0
  9
$DIMLIM
 70
     0
  9
$DIMTIH
 70
     0
  9
$DIMTOH
 70
     0
  9
$DIMSE1
 70
     0
  9
$DIMSE2
 70
     0
  9
$DIMTAD
 70
     1
  9
$DIMZIN
 70
     8
  9
$DIMBLK
  1

  9
$DIMASO
 70
     1
  9
$DIMSHO
 70
     1
  9
$DIMPOST
  1

  9
$DIMAPOST
  1
"
  9
$DIMALT
 70
     0
  9
$DIMALTD
 70
     2
  9
$DIMALTF
 40
0.0393701
  9
$DIMLFAC
 40
1.0
  9
$DIMTOFL
 70
     1
  9
$DIMTVP
 40
0.0
  9
$DIMTIX
 70
     0
  9
$DIMSOXD
 70
     0
  9
$DIMSAH
 70
     0
  9
$DIMBLK1
  1

  9
$DIMBLK2
  1

  9
$DIMSTYLE
  2
AM_DIN
  9
$DIMCLRD
 70
   256
  9
$DIMCLRE
 70
   256
  9
$DIMCLRT
 70
     2
  9
$DIMTFAC
 40
0.71
  9
$DIMGAP
 40
1.5
  9
$DIMJUST
 70
     0
  9
$DIMSD1
 70
     0
  9
$DIMSD2
 70
     0
  9
$DIMTOLJ
 70
     0
  9
$DIMTZIN
 70
     8
  9
$DIMALTZ
 70
     0
  9
$DIMALTTZ
 70
     0
  9
$DIMUPT
 70
     0
  9
$DIMDEC
 70
     2
  9
$DIMTDEC
 70
     3
  9
$DIMALTU
 70
     2
  9
$DIMALTTD
 70
     4
  9
$DIMTXSTY
  7
STANDARD
  9
$DIMAUNIT
 70
     0
  9
$DIMADEC
 70
     0
  9
$DIMALTRND
 40
0.0
  9
$DIMAZIN
 70
     2
  9
$DIMDSEP
 70
    46
  9
$DIMATFIT
 70
     3
  9
$DIMFRAC
 70
     0
  9
$DIMLDRBLK
  1

  9
$DIMLUNIT
 70
     2
  9
$DIMLWD
 70
    -1
  9
$DIMLWE
 70
    -1
  9
$DIMTMOVE
 70
     0
  9
$LUNITS
 70
     2
  9
$LUPREC
 70
     2
  9
$SKETCHINC
 40
1.0
  9
$FILLETRAD
 40
0.0
  9
$AUNITS
 70
     0
  9
$AUPREC
 70
     0
  9
$MENU
  1
.
  9
$ELEVATION
 40
0.0
  9
$PELEVATION
 40
0.0
  9
$THICKNESS
 40
0.0
  9
$LIMCHECK
 70
     0
  9
$CHAMFERA
 40
2.5
  9
$CHAMFERB
 40
2.5
  9
$CHAMFERC
 40
20.0
  9
$CHAMFERD
 40
0.0
  9
$SKPOLY
 70
     0
  9
$TDCREATE
 40
2455478.316582292
  9
$TDUCREATE
 40
2455478.274915625
  9
$TDUPDATE
 40
2455610.347806759
  9
$TDUUPDATE
 40
2455610.306140093
  9
$TDINDWG
 40
0.0734854398
  9
$TDUSRTIMER
 40
0.0733621065
  9
$USRTIMER
 70
     1
  9
$ANGBASE
 50
0.0
  9
$ANGDIR
 70
     0
  9
$PDMODE
 70
     0
  9
$PDSIZE
 40
0.0
  9
$PLINEWID
 40
0.0
  9
$SPLFRAME
 70
     0
  9
$SPLINETYPE
 70
     6
  9
$SPLINESEGS
 70
     8
  9
$HANDSEED
  5
3B6E
  9
$SURFTAB1
 70
     6
  9
$SURFTAB2
 70
     6
  9
$SURFTYPE
 70
     6
  9
$SURFU
 70
     6
  9
$SURFV
 70
     6
  9
$UCSBASE
  2

  9
$UCSNAME
  2

  9
$UCSORG
 10
0.0
 20
0.0
 30
0.0
  9
$UCSXDIR
 10
1.0
 20
0.0
 30
0.0
  9
$UCSYDIR
 10
0.0
 20
1.0
 30
0.0
  9
$UCSORTHOREF
  2

  9
$UCSORTHOVIEW
 70
     0
  9
$UCSORGTOP
 10
0.0
 20
0.0
 30
0.0
  9
$UCSORGBOTTOM
 10
0.0
 20
0.0
 30
0.0
  9
$UCSORGLEFT
 10
0.0
 20
0.0
 30
0.0
  9
$UCSORGRIGHT
 10
0.0
 20
0.0
 30
0.0
  9
$UCSORGFRONT
 10
0.0
 20
0.0
 30
0.0
  9
$UCSORGBACK
 10
0.0
 20
0.0
 30
0.0
  9
$PUCSBASE
  2

  9
$PUCSNAME
  2

  9
$PUCSORG
 10
0.0
 20
0.0
 30
0.0
  9
$PUCSXDIR
 10
1.0
 20
0.0
 30
0.0
  9
$PUCSYDIR
 10
0.0
 20
1.0
 30
0.0
  9
$PUCSORTHOREF
  2

  9
$PUCSORTHOVIEW
 70
     0
  9
$PUCSORGTOP
 10
0.0
 20
0.0
 30
0.0
  9
$PUCSORGBOTTOM
 10
0.0
 20
0.0
 30
0.0
  9
$PUCSORGLEFT
 10
0.0
 20
0.0
 30
0.0
  9
$PUCSORGRIGHT
 10
0.0
 20
0.0
 30
0.0
  9
$PUCSORGFRONT
 10
0.0
 20
0.0
 30
0.0
  9
$PUCSORGBACK
 10
0.0
 20
0.0
 30
0.0
  9
$USERI1
 70
     0
  9
$USERI2
 70
     0
  9
$USERI3
 70
     0
  9
$USERI4
 70
     0
  9
$USERI5
 70
     0
  9
$USERR1
 40
0.0
  9
$USERR2
 40
0.0
  9
$USERR3
 40
0.0
  9
$USERR4
 40
0.0
  9
$USERR5
 40
0.0
  9
$WORLDVIEW
 70
     1
  9
$SHADEDGE
 70
     3
  9
$SHADEDIF
 70
    70
  9
$TILEMODE
 70
     1
  9
$MAXACTVP
 70
    64
  9
$PINSBASE
 10
0.0
 20
0.0
 30
0.0
  9
$PLIMCHECK
 70
     0
  9
$PEXTMIN
 10
1.000000000000000E+20
 20
1.000000000000000E+20
 30
1.000000000000000E+20
  9
$PEXTMAX
 10
-1.000000000000000E+20
 20
-1.000000000000000E+20
 30
-1.000000000000000E+20
  9
$PLIMMIN
 10
0.0
 20
0.0
  9
$PLIMMAX
 10
420.0
 20
297.0
  9
$UNITMODE
 70
     0
  9
$VISRETAIN
 70
     1
  9
$PLINEGEN
 70
     0
  9
$PSLTSCALE
 70
     1
  9
$TREEDEPTH
 70
  3020
  9
$CMLSTYLE
  2
Standard
  9
$CMLJUST
 70
     0
  9
$CMLSCALE
 40
20.0
  9
$PROXYGRAPHICS
 70
     1
  9
$MEASUREMENT
 70
     1
  9
$CELWEIGHT
370
    -1
  9
$ENDCAPS
280
     0
  9
$JOINSTYLE
280
     0
  9
$LWDISPLAY
290
     0
  9
$INSUNITS
 70
     4
  9
$HYPERLINKBASE
  1

  9
$STYLESHEET
  1

  9
$XEDIT
290
     1
  9
$CEPSNTYPE
380
     0
  9
$PSTYLEMODE
290
     1
  9
$FINGERPRINTGUID
  2
{D9B534CB-CCF6-4FA9-B884-DC7466432EF9}
  9
$VERSIONGUID
  2
{DC283BFD-A0C7-4FD3-82F4-C1DD8094344D}
  9
$EXTNAMES
290
     1
  9
$PSVPSCALE
 40
0.0
  9
$OLESTARTUP
290
     0
  0
ENDSEC
  0
SECTION
  2
CLASSES
  0
CLASS
  1
ACDBDICTIONARYWDFLT
  2
AcDbDictionaryWithDefault
  3
ObjectDBX Classes
 90
        0
280
     0
281
     0
  0
CLASS
  1
ACME_DOCUMENT
  2
AcMeDbDoc
  3
AcMeServices
 90
     1024
280
     0
281
     0
  0
CLASS
  1
AMGSETTINGSOBJ
  2
AmgSettingsObj
  3
"AcadM|Product Description: AutoCAD Mechanical|Company: Autodesk, Inc."
 90
     1024
280
     0
281
     0
  0
CLASS
  1
ACMESCOPE
  2
AcMeScope
  3
AcMeServices
 90
     1024
280
     0
281
     0
  0
CLASS
  1
ACMECOMMANDHISTORY
  2
AcMeCommandHistory
  3
AcMeServices
 90
     1024
280
     0
281
     0
  0
CLASS
  1
ACIMSYSVARMAN
  2
AcImSysVarManager
  3
AcMeServices
 90
     1024
280
     0
281
     0
  0
CLASS
  1
ACIMREALSYSVAR
  2
AcImRealSysVar
  3
AcMeServices
 90
     1024
280
     0
281
     0
  0
CLASS
  1
ACIMINTSYSVAR
  2
AcImIntSysVar
  3
AcMeServices
 90
     1024
280
     0
281
     0
  0
CLASS
  1
ACMEDRAWINGMAN
  2
AcMeDrawingMan
  3
AcMeServices
 90
     1024
280
     0
281
     0
  0
CLASS
  1
ACMEVIEW
  2
AcMeView
  3
AcMeServices
 90
     1024
280
     0
281
     0
  0
CLASS
  1
ACDBENTITYCACHE
  2
AcMeEntityCache
  3
AcMeServices
 90
     1024
280
     0
281
     0
  0
CLASS
  1
GSMANAGER
  2
AcMeGSManager
  3
AcMeServices
 90
     1024
280
     0
281
     0
  0
CLASS
  1
AMDTINTERNALREACTOR
  2
AmdtInternalReactor
  3
AcMeServices
 90
     1024
280
     0
281
     0
  0
CLASS
  1
ACMESTATEMGR
  2
AcMeStateMgr
  3
AcMeServices
 90
     1024
280
     0
281
     0
  0
CLASS
  1
ACGREFMASTER
  2
AcGrefMaster
  3
AcAttribServices
 90
     1024
280
     0
281
     0
  0
CLASS
  1
ACME_DATABASE
  2
AcMeDbDatabase
  3
AcMeServices
 90
     1024
280
     0
281
     0
  0
CLASS
  1
ACRFINSADJUSTERMGR
  2
AcRfInsAdjusterMgr
  3
AcMeServices
 90
     1024
280
     0
281
     0
  0
CLASS
  1
ACGREFACADMASTER
  2
AcGrefacadMaster
  3
AcGrefServices
 90
     1024
280
     0
281
     0
  0
CLASS
  1
AMIMASTER
  2
AmiMaster
  3
AmiServices
 90
     1024
280
     0
281
     0
  0
CLASS
  1
ACMDATADICTIONARY
  2
AcmDataDictionary
  3
"AcmSymBB|Product Description: AutoCAD Mechanical|Company: Autodesk, Inc."
 90
     1024
280
     0
281
     0
  0
CLASS
  1
ACMDATAENTRYBLOCK
  2
AcmDataEntryBlock
  3
AcmSymBB|Product Description: AutoCAD Mechanical|Company: Autodesk, Inc.
 90
    33792
280
     0
281
     0
  0
CLASS
  1
ACIMSTRSYSVAR
  2
AcImStrSysVar
  3
AcMeServices
 90
     1024
280
     0
281
     0
  0
CLASS
  1
ACMSTANDARDISO
  2
AcmStandardISO
  3
"Amdt_StdImp|Product Description: AutoCAD Mechanical|Company: Autodesk, Inc."
 90
    33792
280
     0
281
     0
  0
CLASS
  1
AMGOBJPROPCFG
  2
AmgObjPropCfg
  3
"AmgLay|Product Description: AutoCAD Mechanical|Company: Autodesk, Inc."
 90
     1025
280
     0
281
     0
  0
CLASS
  1
AMDTEDGESTANDARDISO
  2
AmdtEdgeStdISO
  3
"Amdt_StdImp|Product Description: AutoCAD Mechanical|Company: Autodesk, Inc."
 90
    33792
280
     0
281
     0
  0
CLASS
  1
ACMSURFSTANDARDISO
  2
AcmSurfTextStdISO
  3
"Amdt_StdImp|Product Description: AutoCAD Mechanical|Company: Autodesk, Inc."
 90
    33792
280
     0
281
     0
  0
CLASS
  1
ACMFCFSTANDARDISO
  2
AcmFCFStdISO
  3
"Amdt_StdImp|Product Description: AutoCAD Mechanical|Company: Autodesk, Inc."
 90
    33792
280
     0
281
     0
  0
CLASS
  1
ACMWELDSTANDARDISO
  2
AcmWeldingStdISO
  3
"Amdt_StdImp|Product Description: AutoCAD Mechanical|Company: Autodesk, Inc."
 90
    33792
280
     0
281
     0
  0
CLASS
  1
ACMIDSTANDARDISO
  2
AcmIdStdISO
  3
"Amdt_StdImp|Product Description: AutoCAD Mechanical|Company: Autodesk, Inc."
 90
    33792
280
     0
281
     0
  0
CLASS
  1
ACMDATUMSTANDARDISO
  2
AcmDatumStdISO
  3
"Amdt_StdImp|Product Description: AutoCAD Mechanical|Company: Autodesk, Inc."
 90
    33792
280
     0
281
     0
  0
CLASS
  1
ACMBOMSTANDARDISO
  2
AcmBOMStdISO
  3
"Amdt_StdImp|Product Description: AutoCAD Mechanical|Company: Autodesk, Inc."
 90
    33792
280
     0
281
     0
  0
CLASS
  1
ACMDETAILSTANDARDISO
  2
AmdtDetailSymStdISO
  3
"Amdt_StdImp|Product Description: AutoCAD Mechanical|Company: Autodesk, Inc."
 90
    33792
280
     0
281
     0
  0
CLASS
  1
ACMSECTIONSTANDARDISO
  2
AmdtSectionSymStdISO
  3
"Amdt_StdImp|Product Description: AutoCAD Mechanical|Company: Autodesk, Inc."
 90
    33792
280
     0
281
     0
  0
CLASS
  1
ACMCENTERLINESTANDARDISO
  2
AmdtCenterLineStdISO
  3
"Amdt_StdImp|Product Description: AutoCAD Mechanical|Company: Autodesk, Inc."
 90
    33792
280
     0
281
     0
  0
CLASS
  1
ACMNOTESTANDARDISO
  2
AmdtNoteStdISO
  3
"Amdt_StdImp|Product Description: AutoCAD Mechanical|Company: Autodesk, Inc."
 90
    33792
280
     0
281
     0
  0
CLASS
  1
ACAMGLAYSTD
  2
AcAmgLayStd
  3
"AmgLay|Product Description: AutoCAD Mechanical|Company: Autodesk, Inc."
 90
    33792
280
     0
281
     0
  0
CLASS
  1
ACAMGDIMSTD
  2
AcAmgDimStd
  3
"AmgDim|Product Description: AutoCAD Mechanical|Company: Autodesk, Inc."
 90
    33792
280
     0
281
     0
  0
CLASS
  1
ACAMGHOLECHARTSTDISO
  2
AcAmgHoleChartStdISO
  3
AmgDim|Product Description: AutoCAD Mechanical|Company: Autodesk, Inc.
 90
    33792
280
     0
281
     0
  0
CLASS
  1
ACAMGTITLESTD
  2
AcAmgTitleStd
  3
"AmgTitle|Product Description: AutoCAD Mechanical|Company: Autodesk, Inc."
 90
    36863
280
     0
281
     0
  0
CLASS
  1
LAYER_INDEX
  2
AcDbLayerIndex
  3
ObjectDBX Classes
 90
    32768
280
     0
281
     0
  0
CLASS
  1
IDBUFFER
  2
AcDbIdBuffer
  3
ObjectDBX Classes
 90
    32768
280
     0
281
     0
  0
CLASS
  1
DICTIONARYVAR
  2
AcDbDictionaryVar
  3
ObjectDBX Classes
 90
        0
280
     0
281
     0
  0
CLASS
  1
AM_DRAWING_MGR
  2
AcDmDwgMgr
  3
AcMechDwgViewMgmt
 90
     1024
280
     0
281
     0
  0
CLASS
  1
AM_DWG_DOCUMENT
  2
AcDmDwgDocument
  3
AcMechDwgViewMgmt
 90
     1024
280
     0
281
     0
  0
CLASS
  1
AM_DWG_SHEET
  2
AcDmSheet
  3
AcMechDwgViewMgmt
 90
     1024
280
     0
281
     0
  0
CLASS
  1
AM_VIEWDIMPARMAP
  2
AcDmViewDimParMap
  3
AcMechDwgViewMgmt
 90
     1024
280
     0
281
     0
  0
CLASS
  1
AM_DWGMGR_NAME
  2
AcDmDwgMgrName
  3
AcMechDwgViewMgmt
 90
     1024
280
     0
281
     0
  0
CLASS
  1
AMDTMENUSTATEMGR
  2
AmdtMenuStateMgr
  3
McadcomServices
 90
     1024
280
     0
281
     0
  0
CLASS
  1
AMDTMCOMMENUSTATE
  2
AmdtMcomMenuState
  3
McadcomServices
 90
     1024
280
     0
281
     0
  0
CLASS
  1
MAPIAMMOUDLE
  2
MApiAmModule
  3
MApiAmServices
 90
     1024
280
     0
281
     0
  0
CLASS
  1
AMDTADMENUSTATE
  2
AmdtAdMenuState
  3
DesignerServices
 90
     1024
280
     0
281
     0
  0
CLASS
  1
ADAPPL
  2
AcAdAppl
  3
DesignerServices
 90
     1024
280
     0
281
     0
  0
CLASS
  1
DEPMGR
  2
AcAdDepMgr
  3
DesignerServices
 90
     1024
280
     0
281
     0
  0
CLASS
  1
PARAMMGR
  2
AcAdParamMgr
  3
DesignerServices
 90
     1024
280
     0
281
     0
  0
CLASS
  1
PARAMSCOPE
  2
AcAdParamScope
  3
DesignerServices
 90
     1024
280
     0
281
     0
  0
CLASS
  1
NAMEDAPPL
  2
AcAdNamedAppl
  3
DesignerServices
 90
     1024
280
     0
281
     0
  0
CLASS
  1
AMDTDMMENUSTATE
  2
AmdtDmMenuState
  3
AcMechDwgViewMgmt
 90
     1024
280
     0
281
     0
  0
CLASS
  1
AMDTAMMENUSTATE
  2
AmdtAmMenuState
  3
DesignerAssemblies
 90
     1024
280
     0
281
     0
  0
CLASS
  1
ACAMPROJECT
  2
AcAmProject
  3
DesignerAssemblies
 90
     1024
280
     0
281
     0
  0
CLASS
  1
ACAMGRCOMPDEF
  2
AcAmGrCompDef
  3
DesignerAssemblies
 90
     1024
280
     0
281
     0
  0
CLASS
  1
ACCMCONTEXT
  2
AcCmContext
  3
DesignerAssemblies
 90
     1024
280
     0
281
     0
  0
CLASS
  1
ACAMCOMPDEF
  2
AcAmCompDef
  3
DesignerAssemblies
 90
     1024
280
     0
281
     0
  0
CLASS
  1
ACAMCOMPDEFMGR
  2
AcAmCompDefMgr
  3
DesignerAssemblies
 90
     1024
280
     0
281
     0
  0
CLASS
  1
AMCONTEXTMGR
  2
AcAmContextMgr
  3
DesignerAssemblies
 90
     1024
280
     0
281
     0
  0
CLASS
  1
ACAMCONTEXTMODELER
  2
AcAmContextModeler
  3
DesignerAssemblies
 90
     1024
280
     0
281
     0
  0
CLASS
  1
ACMTHREADLINESTANDARDISO
  2
AmdtThreadLineStdISO
  3
"Amdt_StdImp|Product Description: AutoCAD Mechanical|Company: Autodesk, Inc."
 90
    33792
280
     0
281
     0
  0
CLASS
  1
CATALOGSTATE
  2
AcAmCatalogState
  3
DesignerAssemblies
 90
     1024
280
     0
281
     0
  0
CLASS
  1
ACAMGRCOMPDEFSET
  2
AcAmGrCompDefSet
  3
DesignerAssemblies
 90
     1024
280
     0
281
     0
  0
CLASS
  1
AMDTBROWSERDBTAB
  2
AmdtBrowserDbTab
  3
McadcomServices
 90
     1024
280
     0
281
     0
  0
CLASS
  1
CBROWSERAPPOBJECT
  2
CBrowserAppObject
  3
McadcomServices
 90
     1024
280
     0
281
     0
  0
CLASS
  1
DM_PLACEHOLDER
  2
AcDmSelsetPlaceholder
  3
AcMechDwgViewMgmt
 90
     1024
280
     0
281
     0
  0
CLASS
  1
TABLESTYLE
  2
AcDbTableStyle
  3
ObjectDBX Classes
 90
     4095
280
     0
281
     0
  0
CLASS
  1
VAACXREFPANELOBJECT
  2
VaAcXREFPanelObject
  3
VAAC_ADDIN
 90
    32768
280
     0
281
     0
  0
CLASS
  1
VAACIMAGEINVENTORY
  2
VaAcImageInventory
  3
VAAC_ADDIN
 90
    32768
280
     0
281
     0
  0
CLASS
  1
AMDTNOTETEMPLATEDB
  2
AmdtNoteTemplateDB
  3
AcmSymBB|Product Description: AutoCAD Mechanical|Company: Autodesk, Inc.
 90
    33792
280
     0
281
     0
  0
CLASS
  1
ACAMGFILTERDAT
  2
AcAmgFilterDat
  3
"AcadM|Product Description: AutoCAD Mechanical|Company: Autodesk, Inc."
 90
    33792
280
     0
281
     0
  0
CLASS
  1
ACMBOM
  2
AcmBom
  3
"AcmSymBB|Product Description: AutoCAD Mechanical|Company: Autodesk, Inc."
 90
    33792
280
     0
281
     0
  0
CLASS
  1
AMDTFORMULAUPDATEDISPATCHER
  2
AmdtFormulaUpdateDispatcher
  3
AcMeServices
 90
    33792
280
     0
281
     0
  0
CLASS
  1
ACMSTANDARDDIN
  2
AcmStandardDIN
  3
"Amdt_StdImp|Product Description: AutoCAD Mechanical|Company: Autodesk, Inc."
 90
    33792
280
     0
281
     0
  0
CLASS
  1
AMDTEDGESTANDARDDIN13715
  2
AmdtEdgeStdDIN13715
  3
"Amdt_StdImp|Product Description: AutoCAD Mechanical|Company: Autodesk, Inc."
 90
    33792
280
     0
281
     0
  0
CLASS
  1
ACMSURFSTANDARDDIN
  2
AcmSurfTextStdDIN
  3
"Amdt_StdImp|Product Description: AutoCAD Mechanical|Company: Autodesk, Inc."
 90
    33792
280
     0
281
     0
  0
CLASS
  1
ACMFCFSTANDARDDIN
  2
AcmFCFStdDIN
  3
"Amdt_StdImp|Product Description: AutoCAD Mechanical|Company: Autodesk, Inc."
 90
    33792
280
     0
281
     0
  0
CLASS
  1
ACMWELDSTANDARDDIN
  2
AcmWeldingStdDIN
  3
"Amdt_StdImp|Product Description: AutoCAD Mechanical|Company: Autodesk, Inc."
 90
    33792
280
     0
281
     0
  0
CLASS
  1
ACMIDSTANDARDDIN
  2
AcmIdStdDIN
  3
"Amdt_StdImp|Product Description: AutoCAD Mechanical|Company: Autodesk, Inc."
 90
    33792
280
     0
281
     0
  0
CLASS
  1
ACMDATUMSTANDARDDIN
  2
AcmDatumStdDIN
  3
"Amdt_StdImp|Product Description: AutoCAD Mechanical|Company: Autodesk, Inc."
 90
    33792
280
     0
281
     0
  0
CLASS
  1
ACMBOMSTANDARDDIN
  2
AcmBOMStdDIN
  3
"Amdt_StdImp|Product Description: AutoCAD Mechanical|Company: Autodesk, Inc."
 90
    33792
280
     0
281
     0
  0
CLASS
  1
ACMDETAILSTANDARDDIN
  2
AmdtDetailSymStdDIN
  3
"Amdt_StdImp|Product Description: AutoCAD Mechanical|Company: Autodesk, Inc."
 90
    33792
280
     0
281
     0
  0
CLASS
  1
ACMSECTIONSTANDARDDIN
  2
AmdtSectionSymStdDIN
  3
"Amdt_StdImp|Product Description: AutoCAD Mechanical|Company: Autodesk, Inc."
 90
    33792
280
     0
281
     0
  0
CLASS
  1
ACMCENTERLINESTANDARDDIN
  2
AmdtCenterLineStdDIN
  3
"Amdt_StdImp|Product Description: AutoCAD Mechanical|Company: Autodesk, Inc."
 90
    33792
280
     0
281
     0
  0
CLASS
  1
ACMTHREADLINESTANDARDDIN
  2
AmdtThreadLineStdDIN
  3
"Amdt_StdImp|Product Description: AutoCAD Mechanical|Company: Autodesk, Inc."
 90
    33792
280
     0
281
     0
  0
CLASS
  1
ACMNOTESTANDARDDIN
  2
AmdtNoteStdDIN
  3
"Amdt_StdImp|Product Description: AutoCAD Mechanical|Company: Autodesk, Inc."
 90
    33792
280
     0
281
     0
  0
CLASS
  1
ACAMGHOLECHARTSTDDIN
  2
AcAmgHoleChartStdDIN
  3
AmgDim|Product Description: AutoCAD Mechanical|Company: Autodesk, Inc.
 90
    33792
280
     0
281
     0
  0
CLASS
  1
MATERIAL
  2
AcDbMaterial
  3
ObjectDBX Classes
 90
     1153
280
     0
281
     0
  0
CLASS
  1
VISUALSTYLE
  2
AcDbVisualStyle
  3
ObjectDBX Classes
 90
     4095
280
     0
281
     0
  0
CLASS
  1
SCALE
  2
AcDbScale
  3
ObjectDBX Classes
 90
     1153
280
     0
281
     0
  0
CLASS
  1
MLEADERSTYLE
  2
AcDbMLeaderStyle
  3
ACDB_MLEADERSTYLE_CLASS
 90
     4095
280
     0
281
     0
  0
CLASS
  1
ACRFATTGENMGR
  2
AcRfAttGeneralMgr
  3
AcAttribServices
 90
    33792
280
     0
281
     0
  0
CLASS
  1
ACRFOBJATTMGR
  2
AcRfObjAttGroupMgr
  3
AcAttribServices
 90
    33792
280
     0
281
     0
  0
CLASS
  1
ACRFMCADAPIATTHOLDER
  2
AcRfMCADAPIAttHolder
  3
AcAttribServices
 90
    33792
280
     0
281
     0
  0
CLASS
  1
AMDTSYSATTR
  2
AmdtSystemAttribute
  3
AcAttribServices
 90
    33792
280
     0
281
     0
  0
CLASS
  1
ACMTAPERSTANDARDISO
  2
AcmTaperStdISO
  3
"Amdt_StdImp|Product Description: AutoCAD Mechanical|Company: Autodesk, Inc."
 90
    33792
280
     0
281
     0
  0
CLASS
  1
ACMANOOTATIONVIEWSTANDARDISO
  2
AmdtAnViewStdISO
  3
"Amdt_StdImp|Product Description: AutoCAD Mechanical|Company: Autodesk, Inc."
 90
    33792
280
     0
281
     0
  0
CLASS
  1
ACMTAPERSTANDARDDIN
  2
AcmTaperStdDIN
  3
"Amdt_StdImp|Product Description: AutoCAD Mechanical|Company: Autodesk, Inc."
 90
    33792
280
     0
281
     0
  0
CLASS
  1
ACMANOOTATIONVIEWSTANDARDDIN
  2
AmdtAnViewStdDIN
  3
"Amdt_StdImp|Product Description: AutoCAD Mechanical|Company: Autodesk, Inc."
 90
    33792
280
     0
281
     0
  0
CLASS
  1
EXACXREFPANELOBJECT
  2
ExAcXREFPanelObject
  3
EXAC_ESW
 90
     1025
280
     0
281
     0
  0
CLASS
  1
NPOCOLLECTION
  2
AcDbImpNonPersistentObjectsCollection
  3
ObjectDBX Classes
 90
     1153
280
     0
281
     0
  0
CLASS
  1
DIMASSOC
  2
AcDbDimAssoc
  3
"AcDbDimAssoc|Product Desc:     AcDim ARX App For Dimension|Company:          Autodesk, Inc.|WEB Address:      www.autodesk.com"
 90
        0
280
     0
281
     0
  0
CLASS
  1
AEC_REFEDIT_STATUS_TRACKER
  2
AecDbRefEditStatusTracker
  3
AecArchBase50|Product Desc: Autodesk Architectural Desktop 2007 |Company: Autodesk,Inc. |WEB Address: www.autodesk.com
 90
    32897
280
     0
281
     0
  0
CLASS
  1
CAMSSTRUCTBTNSTATE
  2
StructBtnState
  3
DesignerAssemblies
 90
    33792
280
     0
281
     0
  0
CLASS
  1
CELLSTYLEMAP
  2
AcDbCellStyleMap
  3
ObjectDBX Classes
 90
     1152
280
     0
281
     0
  0
CLASS
  1
SORTENTSTABLE
  2
AcDbSortentsTable
  3
ObjectDBX Classes
 90
        0
280
     0
281
     0
  0
CLASS
  1
AMDTNOTE
  2
AmdtNote
  3
"AcmSymBB|Product Description: AutoCAD Mechanical|Company: Autodesk, Inc."
 90
    36863
280
     0
281
     1
  0
CLASS
  1
ACMDIMBREAKPERSREACTOR
  2
AcmDimBreakPersReactor
  3
AmgDim|Product Description: AutoCAD Mechanical|Company: Autodesk, Inc.
 90
    36863
280
     0
281
     0
  0
CLASS
  1
ACMSURFSTANDARDDIN2002
  2
AcmSurfTextStdDIN2002
  3
"Amdt_StdImp|Product Description: AutoCAD Mechanical|Company: Autodesk, Inc."
 90
    33792
280
     0
281
     0
  0
CLASS
  1
ACDBPLACEHOLDER
  2
AcDbPlaceHolder
  3
ObjectDBX Classes
 90
        0
280
     0
281
     0
  0
CLASS
  1
LAYOUT
  2
AcDbLayout
  3
ObjectDBX Classes
 90
        0
280
     0
281
     0
  0
ENDSEC
  0
SECTION
  2
TABLES
  0
TABLE
  2
VPORT
  5
8
330
0
100
AcDbSymbolTable
 70
     1
  0
VPORT
  5
3B2
330
8
100
AcDbSymbolTableRecord
100
AcDbViewportTableRecord
  2
*Active
 70
     0
 10
0.0
 20
0.0
 11
1.0
 21
1.0
 12
3430.151621885345
 22
2028.413768352612
 13
0.0
 23
0.0
 14
2.5
 24
2.5
 15
10.0
 25
10.0
 16
0.0
 26
0.0
 36
1.0
 17
0.0
 27
0.0
 37
0.0
 40
500.9871749946726
 41
1.752272727272727
 42
50.0
 43
0.0
 44
0.0
 50
0.0
 51
0.0
 71
     0
 72
   100
 73
     1
 74
     3
 75
     0
 76
     0
 77
     0
 78
     0
281
     0
 65
     0
110
0.0
120
0.0
130
0.0
111
1.0
121
0.0
131
0.0
112
0.0
122
1.0
132
0.0
 79
     0
146
0.0
  0
ENDTAB
  0
TABLE
  2
LTYPE
  5
5
330
0
100
AcDbSymbolTable
 70
    20
  0
LTYPE
  5
14
330
5
100
AcDbSymbolTableRecord
100
AcDbLinetypeTableRecord
  2
ByBlock
 70
     0
  3

 72
    65
 73
     0
 40
0.0
  0
LTYPE
  5
15
330
5
100
AcDbSymbolTableRecord
100
AcDbLinetypeTableRecord
  2
ByLayer
 70
     0
  3

 72
    65
 73
     0
 40
0.0
  0
LTYPE
  5
16
330
5
100
AcDbSymbolTableRecord
100
AcDbLinetypeTableRecord
  2
Continuous
 70
     0
  3
Solid line
 72
    65
 73
     0
 40
0.0
  0
LTYPE
  5
67
330
5
100
AcDbSymbolTableRecord
100
AcDbLinetypeTableRecord
  2
Amconstr
 70
     0
  3
_______________________
 72
    65
 73
     2
 40
9999.0
 49
9999.0
 74
     0
 49
0.0
 74
     0
  0
LTYPE
  5
6C
330
5
100
AcDbSymbolTableRecord
100
AcDbLinetypeTableRecord
  2
Amzigzag
 70
     0
  3
/\/-/\/-/\/-/\/-/\/-/\/
 72
    65
 73
     2
 40
11.0001
 49
0.0001
 74
     4
 75
   136
340
22C
 46
0.04
 50
0.0
 44
0.0
 45
0.0
 49
-11.0
 74
     0
  0
LTYPE
  5
7E
330
5
100
AcDbSymbolTableRecord
100
AcDbLinetypeTableRecord
  2
CENTER
 70
     0
  3
__ . __
 72
    65
 73
     4
 40
7.0
 49
4.0
 74
     0
 49
-1.0
 74
     0
 49
1.0
 74
     0
 49
-1.0
 74
     0
  0
LTYPE
  5
D8
330
5
100
AcDbSymbolTableRecord
100
AcDbLinetypeTableRecord
  2
HIDDEN
 70
     0
  3
Hidden __ __ __ __ __ __ __ __ __ __ __ __ __ _
 72
    65
 73
     2
 40
9.524999999999996
 49
6.349999999999997
 74
     0
 49
-3.174999999999998
 74
     0
  0
LTYPE
  5
D9
330
5
100
AcDbSymbolTableRecord
100
AcDbLinetypeTableRecord
  2
PHANTOM2
 70
     0
  3
Phantom (.5x) ___ _ _ ___ _ _ ___ _ _ ___ _ _
 72
    65
 73
     6
 40
31.75
 49
15.875
 74
     0
 49
-3.174999999999998
 74
     0
 49
3.174999999999998
 74
     0
 49
-3.174999999999998
 74
     0
 49
3.174999999999998
 74
     0
 49
-3.174999999999998
 74
     0
  0
LTYPE
  5
2E5
330
5
100
AcDbSymbolTableRecord
100
AcDbLinetypeTableRecord
  2
ACDINWELD
 70
     0
  3
_ _ _ _ _
 72
    65
 73
     2
 40
2.0
 49
2.0
 74
     0
 49
-1.0
 74
     0
  0
LTYPE
  5
2E6
330
5
100
AcDbSymbolTableRecord
100
AcDbLinetypeTableRecord
  2
ACDINTGB
 70
     0
  3
__ . . __ . .
 72
    65
 73
     6
 40
9.0
 49
4.0
 74
     0
 49
-1.0
 74
     0
 49
1.0
 74
     0
 49
-1.0
 74
     0
 49
1.0
 74
     0
 49
-1.0
 74
     0
  0
LTYPE
  5
2E7
330
5
100
AcDbSymbolTableRecord
100
AcDbLinetypeTableRecord
  2
ACDINTGL
 70
     0
  3
_ _ _ _ _
 72
    65
 73
     2
 40
3.0
 49
2.0
 74
     0
 49
-1.0
 74
     0
  0
LTYPE
  5
321
330
5
100
AcDbSymbolTableRecord
100
AcDbLinetypeTableRecord
  2
AM_DIN_F_W050
 70
     0
  3
__ __ __ __ __ __ __ __ __ __ __ __ __ __ __
 72
    65
 73
     2
 40
6.25
 49
4.75
 74
     0
 49
-1.5
 74
     0
  0
LTYPE
  5
322
330
5
100
AcDbSymbolTableRecord
100
AcDbLinetypeTableRecord
  2
AM_DIN_G_W050
 70
     0
  3
____ . ____ . ____ . ____ . ____ . ____ . ____
 72
    65
 73
     4
 40
13.75
 49
9.75
 74
     0
 49
-1.5
 74
     0
 49
1.0
 74
     0
 49
-1.5
 74
     0
  0
LTYPE
  5
323
330
5
100
AcDbSymbolTableRecord
100
AcDbLinetypeTableRecord
  2
AM_DIN_K_W050
 70
     0
  3
_____ . . _____ . . _____ . . ____ .. ____
 72
    65
 73
     6
 40
16.25
 49
9.75
 74
     0
 49
-1.5
 74
     0
 49
1.0
 74
     0
 49
-1.5
 74
     0
 49
1.0
 74
     0
 49
-1.5
 74
     0
  0
LTYPE
  5
324
330
5
100
AcDbSymbolTableRecord
100
AcDbLinetypeTableRecord
  2
AM_DIN_G_W050x2
 70
     0
  3
__ . __ . __ . __ . __ . __
 72
    65
 73
     4
 40
6.875
 49
4.75
 74
     0
 49
-0.875
 74
     0
 49
0.375
 74
     0
 49
-0.875
 74
     0
  0
LTYPE
  5
325
330
5
100
AcDbSymbolTableRecord
100
AcDbLinetypeTableRecord
  2
AM_DIN_F_W050x2
 70
     0
  3
 _ _ _ _ _ _ _ _ _ _ _ _
 72
    65
 73
     2
 40
3.125
 49
2.25
 74
     0
 49
-0.875
 74
     0
  0
LTYPE
  5
471
330
5
100
AcDbSymbolTableRecord
100
AcDbLinetypeTableRecord
  2
STRICHPUNKT
 70
     0
  3
Strichpunkt __ . __ . __ . __ . __ . __ . __ . 
 72
    65
 73
     4
 40
25.4
 49
12.7
 74
     0
 49
-6.349999999999997
 74
     0
 49
0.0
 74
     0
 49
-6.349999999999997
 74
     0
  0
LTYPE
  5
3B4D
330
5
100
AcDbSymbolTableRecord
100
AcDbLinetypeTableRecord
  2
AM_ISO02W050
 70
     0
  3
__ __ __ __ __ __ __ __ __ __ __ __ __ __ __
 72
    65
 73
     2
 40
7.5
 49
6.0
 74
     0
 49
-1.5
 74
     0
  0
LTYPE
  5
3B4E
330
5
100
AcDbSymbolTableRecord
100
AcDbLinetypeTableRecord
  2
AM_ISO08W050
 70
     0
  3
____ . ____ . ____ . ____ . ____ . ____ . ____
 72
    65
 73
     4
 40
18.0
 49
12.0
 74
     0
 49
-1.5
 74
     0
 49
3.0
 74
     0
 49
-1.5
 74
     0
  0
LTYPE
  5
3B4F
330
5
100
AcDbSymbolTableRecord
100
AcDbLinetypeTableRecord
  2
AM_ISO09W050
 70
     0
  3
_____ . . _____ . . _____ . . ____ .. ____
 72
    65
 73
     6
 40
22.5
 49
12.0
 74
     0
 49
-1.5
 74
     0
 49
3.0
 74
     0
 49
-1.5
 74
     0
 49
3.0
 74
     0
 49
-1.5
 74
     0
  0
LTYPE
  5
3B50
330
5
100
AcDbSymbolTableRecord
100
AcDbLinetypeTableRecord
  2
AM_ISO08W050x2
 70
     0
  3
__ . __ . __ . __ . __ . __
 72
    65
 73
     4
 40
9.0
 49
6.0
 74
     0
 49
-0.75
 74
     0
 49
1.5
 74
     0
 49
-0.75
 74
     0
  0
LTYPE
  5
3B51
330
5
100
AcDbSymbolTableRecord
100
AcDbLinetypeTableRecord
  2
AM_ISO02W050x2
 70
     0
  3
 _ _ _ _ _ _ _ _ _ _ _ _
 72
    65
 73
     2
 40
3.75
 49
3.0
 74
     0
 49
-0.75
 74
     0
  0
ENDTAB
  0
TABLE
  2
LAYER
  5
2
102
{ACAD_XDICTIONARY
360
48A
102
}
330
0
100
AcDbSymbolTable
 70
     8
  0
LAYER
  5
10
102
{ACAD_XDICTIONARY
360
3251
102
}
330
2
100
AcDbSymbolTableRecord
100
AcDbLayerTableRecord
  2
0
 70
     0
 62
     7
  6
Continuous
370
    -3
390
F
  0
LAYER
  5
473
102
{ACAD_XDICTIONARY
360
474
102
}
330
2
100
AcDbSymbolTableRecord
100
AcDbLayerTableRecord
  2
P-0000
 70
     0
 62
     7
  6
Continuous
370
    -3
390
F
  0
LAYER
  5
475
330
2
100
AcDbSymbolTableRecord
100
AcDbLayerTableRecord
  2
Defpoints
 70
     0
 62
     7
  6
Continuous
290
     0
370
    -3
390
F
  0
LAYER
  5
476
102
{ACAD_XDICTIONARY
360
477
102
}
330
2
100
AcDbSymbolTableRecord
100
AcDbLayerTableRecord
  2
AM_5
 70
     0
 62
     3
  6
Continuous
370
    25
390
F
1001
AcAecLayerStandard
1000

1000

  0
LAYER
  5
478
102
{ACAD_XDICTIONARY
360
479
102
}
330
2
100
AcDbSymbolTableRecord
100
AcDbLayerTableRecord
  2
AM_8
 70
     0
 62
     1
  6
Continuous
370
    25
390
F
  0
LAYER
  5
47A
102
{ACAD_XDICTIONARY
360
47B
102
}
330
2
100
AcDbSymbolTableRecord
100
AcDbLayerTableRecord
  2
AM_CL
 70
     0
 62
     1
  6
Amconstr
370
    25
390
F
1001
AcAecLayerStandard
1000

1000

  0
LAYER
  5
47C
102
{ACAD_XDICTIONARY
360
47D
102
}
330
2
100
AcDbSymbolTableRecord
100
AcDbLayerTableRecord
  2
AM_7
 70
     0
 62
     4
  6
AM_DIN_G_W050
370
    25
390
F
1001
AcAecLayerStandard
1000

1000

  0
LAYER
  5
252A
102
{ACAD_XDICTIONARY
360
252B
102
}
330
2
100
AcDbSymbolTableRecord
100
AcDbLayerTableRecord
  2
P-3FF0
 70
     0
 62
     7
  6
Continuous
370
    -3
390
F
  0
ENDTAB
  0
TABLE
  2
STYLE
  5
3
330
0
100
AcDbSymbolTable
 70
     3
  0
STYLE
  5
11
330
3
100
AcDbSymbolTableRecord
100
AcDbTextStyleTableRecord
  2
STANDARD
 70
     0
 40
0.0
 41
1.0
 50
0.0
 71
     0
 42
2.5
  3
ISOCP.SHX
  4

  0
STYLE
  5
22C
330
3
100
AcDbSymbolTableRecord
100
AcDbTextStyleTableRecord
  2

 70
     1
 40
0.0
 41
1.0
 50
0.0
 71
     0
 42
2.5
  3
genltshp.shx
  4

  0
STYLE
  5
2E4
330
3
100
AcDbSymbolTableRecord
100
AcDbTextStyleTableRecord
  2
ACDINGDT
 70
     0
 40
0.0
 41
1.0
 50
0.0
 71
     0
 42
2.5
  3
amgdt.shx
  4

  0
ENDTAB
  0
TABLE
  2
VIEW
  5
6
330
0
100
AcDbSymbolTable
 70
     0
  0
ENDTAB
  0
TABLE
  2
UCS
  5
7
330
0
100
AcDbSymbolTable
 70
     0
  0
ENDTAB
  0
TABLE
  2
APPID
  5
9
330
0
100
AcDbSymbolTable
 70
    25
  0
APPID
  5
12
330
9
100
AcDbSymbolTableRecord
100
AcDbRegAppTableRecord
  2
ACAD
 70
     0
  0
APPID
  5
46
330
9
100
AcDbSymbolTableRecord
100
AcDbRegAppTableRecord
  2
MCAD_NO_VIS
 70
     0
  0
APPID
  5
47
330
9
100
AcDbSymbolTableRecord
100
AcDbRegAppTableRecord
  2
ACAD_TEMP_GRAPHIC
 70
     0
  0
APPID
  5
58
330
9
100
AcDbSymbolTableRecord
100
AcDbRegAppTableRecord
  2
ACATTRIBSERVICES
 70
     0
  0
APPID
  5
EE
330
9
100
AcDbSymbolTableRecord
100
AcDbRegAppTableRecord
  2
AD_DRAW
 70
     0
  0
APPID
  5
10C
330
9
100
AcDbSymbolTableRecord
100
AcDbRegAppTableRecord
  2
DESIGNERASSEMBLIES
 70
     0
  0
APPID
  5
111
330
9
100
AcDbSymbolTableRecord
100
AcDbRegAppTableRecord
  2
ACADM_DIM_EDIT
 70
     0
  0
APPID
  5
112
330
9
100
AcDbSymbolTableRecord
100
AcDbRegAppTableRecord
  2
AMDT_DM_ADJ
 70
     0
  0
APPID
  5
1A3
330
9
100
AcDbSymbolTableRecord
100
AcDbRegAppTableRecord
  2
ACAD_DSTYLE_DIMARC_LENGTH_SYMBOL
 70
     0
  0
APPID
  5
1A4
330
9
100
AcDbSymbolTableRecord
100
AcDbRegAppTableRecord
  2
ACAD_DSTYLE_DIMJOGGED_JOGANGLE_SYMBOL
 70
     0
  0
APPID
  5
3F1
330
9
100
AcDbSymbolTableRecord
100
AcDbRegAppTableRecord
  2
ACAD_MLEADERVER
 70
     0
  0
APPID
  5
482
330
9
100
AcDbSymbolTableRecord
100
AcDbRegAppTableRecord
  2
ACME_LAYERS
 70
     0
  0
APPID
  5
483
330
9
100
AcDbSymbolTableRecord
100
AcDbRegAppTableRecord
  2
AcAecLayerStandard
 70
     0
  0
APPID
  5
484
330
9
100
AcDbSymbolTableRecord
100
AcDbRegAppTableRecord
  2
ACAD_DSTYLE_DIMINSPECT
 70
     0
  0
APPID
  5
485
330
9
100
AcDbSymbolTableRecord
100
AcDbRegAppTableRecord
  2
GENIUS_GENODEF_13
 70
     0
  0
APPID
  5
486
330
9
100
AcDbSymbolTableRecord
100
AcDbRegAppTableRecord
  2
GENIUS_GENOBJ-N-HTC_13
 70
     0
  0
APPID
  5
487
330
9
100
AcDbSymbolTableRecord
100
AcDbRegAppTableRecord
  2
GENIUS_GENHATCH_13
 70
     0
  0
APPID
  5
488
330
9
100
AcDbSymbolTableRecord
100
AcDbRegAppTableRecord
  2
GENIUS_GENOBJ-N-CEN_13
 70
     0
  0
APPID
  5
489
330
9
100
AcDbSymbolTableRecord
100
AcDbRegAppTableRecord
  2
GENIUS_GENCEN_19
 70
     0
  0
APPID
  5
14D0
330
9
100
AcDbSymbolTableRecord
100
AcDbRegAppTableRecord
  2
ACAD_PSEXT
 70
     0
  0
APPID
  5
1743
330
9
100
AcDbSymbolTableRecord
100
AcDbRegAppTableRecord
  2
ACAD_EXEMPT_FROM_CAD_STANDARDS
 70
     0
  0
APPID
  5
3235
330
9
100
AcDbSymbolTableRecord
100
AcDbRegAppTableRecord
  2
GENIUS_GENDTOL_13
 70
     0
  0
APPID
  5
3270
330
9
100
AcDbSymbolTableRecord
100
AcDbRegAppTableRecord
  2
ACAD_DSTYLE_DIM_LINETYPE
 70
     0
  0
APPID
  5
3271
330
9
100
AcDbSymbolTableRecord
100
AcDbRegAppTableRecord
  2
ACAD_DSTYLE_DIM_EXT1_LINETYPE
 70
     0
  0
APPID
  5
3272
330
9
100
AcDbSymbolTableRecord
100
AcDbRegAppTableRecord
  2
ACAD_DSTYLE_DIM_EXT2_LINETYPE
 70
     0
  0
ENDTAB
  0
TABLE
  2
DIMSTYLE
  5
A
330
0
100
AcDbSymbolTable
 70
     9
100
AcDbDimStyleTable
 71
     1
340
2F0
  0
DIMSTYLE
105
2F0
330
A
100
AcDbSymbolTableRecord
100
AcDbDimStyleTableRecord
  2
AM_DIN
 70
     0
  4
"
 41
3.5
 42
1.0
 43
10.0
 44
1.0
 47
0.1
 48
0.1
 73
     0
 74
     0
 77
     1
 78
     8
 79
     2
140
3.5
141
0.0
143
0.0393701
146
0.71
147
1.5
172
     1
176
   256
177
   256
178
     2
271
     2
272
     3
274
     4
283
     0
284
     8
340
11
371
    -1
372
    -1
1001
ACAD_DSTYLE_DIMJOGGED_JOGANGLE_SYMBOL
1070
   384
1040
1.570796326794896
1001
ACAD_DSTYLE_DIM_LINETYPE
1070
   380
1005
14
1001
ACAD_DSTYLE_DIM_EXT1_LINETYPE
1070
   381
1005
14
1001
ACAD_DSTYLE_DIM_EXT2_LINETYPE
1070
   382
1005
14
  0
DIMSTYLE
105
301
330
A
100
AcDbSymbolTableRecord
100
AcDbDimStyleTableRecord
  2
AM_DIN$3
 70
     0
  4
"
 41
3.5
 42
1.0
 43
10.0
 44
1.0
 47
0.1
 48
0.1
 73
     0
 77
     1
 78
     8
 79
     2
140
3.5
141
0.0
143
0.0393701
146
0.71
147
1.5
176
   256
177
   256
178
     2
271
     2
272
     3
274
     4
283
     0
284
     8
288
     1
289
     0
340
11
371
    -1
372
    -1
1001
ACAD_DSTYLE_DIMJOGGED_JOGANGLE_SYMBOL
1070
   384
1040
1.570796326794896
1001
ACAD_DSTYLE_DIM_LINETYPE
1070
   380
1005
14
1001
ACAD_DSTYLE_DIM_EXT1_LINETYPE
1070
   381
1005
14
1001
ACAD_DSTYLE_DIM_EXT2_LINETYPE
1070
   382
1005
14
  0
DIMSTYLE
105
306
330
A
100
AcDbSymbolTableRecord
100
AcDbDimStyleTableRecord
  2
AM_DIN$4
 70
     0
  4
"
 41
3.5
 42
1.0
 43
10.0
 44
1.0
 47
0.1
 48
0.1
 73
     0
 74
     0
 77
     1
 78
     8
 79
     2
140
3.5
141
0.0
143
0.0393701
146
0.71
147
1.5
172
     1
176
   256
177
   256
178
     2
271
     2
272
     3
274
     4
283
     0
284
     8
340
11
371
    -1
372
    -1
1001
ACAD_DSTYLE_DIMJOGGED_JOGANGLE_SYMBOL
1070
   384
1040
1.570796326794896
1001
ACAD_DSTYLE_DIM_LINETYPE
1070
   380
1005
14
1001
ACAD_DSTYLE_DIM_EXT1_LINETYPE
1070
   381
1005
14
1001
ACAD_DSTYLE_DIM_EXT2_LINETYPE
1070
   382
1005
14
  0
DIMSTYLE
105
30B
330
A
100
AcDbSymbolTableRecord
100
AcDbDimStyleTableRecord
  2
AM_DIN$6
 70
     0
  4
"
 41
3.5
 42
1.0
 43
10.0
 44
1.0
 47
0.1
 48
0.1
 73
     0
 74
     0
 78
     8
 79
     2
140
3.5
141
0.0
143
0.0393701
146
0.71
147
1.5
172
     1
176
   256
177
   256
178
     2
271
     2
272
     3
274
     4
283
     0
284
     8
340
11
371
    -1
372
    -1
1001
ACAD_DSTYLE_DIMJOGGED_JOGANGLE_SYMBOL
1070
   384
1040
1.570796326794896
1001
ACAD_DSTYLE_DIM_LINETYPE
1070
   380
1005
14
1001
ACAD_DSTYLE_DIM_EXT1_LINETYPE
1070
   381
1005
14
1001
ACAD_DSTYLE_DIM_EXT2_LINETYPE
1070
   382
1005
14
  0
DIMSTYLE
105
310
330
A
100
AcDbSymbolTableRecord
100
AcDbDimStyleTableRecord
  2
AM_DIN$7
 70
     0
  4
"
 41
3.5
 42
1.0
 43
10.0
 44
1.0
 47
0.1
 48
0.1
 73
     0
 74
     0
 77
     1
 78
     8
 79
     2
140
3.5
141
0.0
143
0.0393701
146
0.71
147
1.5
172
     1
176
   256
177
   256
178
     2
271
     2
272
     3
274
     4
283
     0
284
     8
340
11
371
    -1
372
    -1
1001
ACAD_DSTYLE_DIMJOGGED_JOGANGLE_SYMBOL
1070
   384
1040
1.570796326794896
1001
ACAD_DSTYLE_DIM_LINETYPE
1070
   380
1005
14
1001
ACAD_DSTYLE_DIM_EXT1_LINETYPE
1070
   381
1005
14
1001
ACAD_DSTYLE_DIM_EXT2_LINETYPE
1070
   382
1005
14
  0
DIMSTYLE
105
315
330
A
100
AcDbSymbolTableRecord
100
AcDbDimStyleTableRecord
  2
AM_DIN$SF
 70
     0
  4
"
 41
3.5
 42
1.0
 43
10.0
 44
1.0
 47
0.1
 48
0.1
 73
     0
 74
     0
 75
     1
 76
     1
 77
     1
 78
     8
 79
     2
140
3.5
141
0.0
143
0.0393701
146
0.71
147
1.5
172
     1
176
   256
177
   256
178
     2
271
     2
272
     3
274
     4
283
     0
284
     8
340
11
371
    -1
372
    -1
1001
ACAD_DSTYLE_DIMJOGGED_JOGANGLE_SYMBOL
1070
   384
1040
1.570796326794896
1001
ACAD_DSTYLE_DIM_LINETYPE
1070
   380
1005
14
1001
ACAD_DSTYLE_DIM_EXT1_LINETYPE
1070
   381
1005
14
1001
ACAD_DSTYLE_DIM_EXT2_LINETYPE
1070
   382
1005
14
  0
DIMSTYLE
105
31A
330
A
100
AcDbSymbolTableRecord
100
AcDbDimStyleTableRecord
  2
AM_DIN$SH
 70
     0
  4
"
 41
3.5
 42
1.0
 43
10.0
 44
1.0
 47
0.1
 48
0.1
 73
     0
 74
     0
 75
     1
 76
     1
 77
     1
 78
     8
 79
     2
140
3.5
141
0.0
143
0.0393701
144
2.0
146
0.71
147
1.5
172
     1
173
     1
176
   256
177
   256
178
     2
271
     2
272
     3
274
     4
283
     0
284
     8
340
11
343
87
371
    -1
372
    -1
1001
ACAD_DSTYLE_DIMJOGGED_JOGANGLE_SYMBOL
1070
   384
1040
1.570796326794896
1001
ACAD_DSTYLE_DIM_LINETYPE
1070
   380
1005
14
1001
ACAD_DSTYLE_DIM_EXT1_LINETYPE
1070
   381
1005
14
1001
ACAD_DSTYLE_DIM_EXT2_LINETYPE
1070
   382
1005
14
  0
DIMSTYLE
105
480
102
{ACAD_REACTORS
330
3AA3
102
}
330
A
100
AcDbSymbolTableRecord
100
AcDbDimStyleTableRecord
  2
AM_DIN$0
 70
     0
  4
"
 41
3.5
 42
1.0
 43
10.0
 44
1.0
 47
0.1
 48
0.1
 73
     0
 74
     0
 77
     1
 78
     8
 79
     2
140
3.5
141
0.0
143
0.0393701
146
0.71
147
1.5
172
     1
176
   256
177
   256
178
     2
271
     2
272
     3
274
     4
283
     0
284
     8
340
11
371
    -1
372
    -1
1001
ACAD_DSTYLE_DIMJOGGED_JOGANGLE_SYMBOL
1070
   384
1040
1.570796326794896
1001
ACAD_DSTYLE_DIM_LINETYPE
1070
   380
1005
14
1001
ACAD_DSTYLE_DIM_EXT1_LINETYPE
1070
   381
1005
14
1001
ACAD_DSTYLE_DIM_EXT2_LINETYPE
1070
   382
1005
14
  0
DIMSTYLE
105
481
330
A
100
AcDbSymbolTableRecord
100
AcDbDimStyleTableRecord
  2
AM_DIN$2
 70
     0
  4
"
 41
3.5
 42
1.0
 43
10.0
 44
1.0
 47
0.1
 48
0.1
 73
     0
 74
     0
 77
     1
 78
     8
 79
     2
140
3.5
141
0.0
143
0.0393701
146
0.71
147
1.5
172
     1
176
   256
177
   256
178
     2
271
     2
272
     3
274
     4
283
     0
284
     8
340
11
371
    -1
372
    -1
1001
ACAD_DSTYLE_DIMJOGGED_JOGANGLE_SYMBOL
1070
   384
1040
1.570796326794896
1001
ACAD_DSTYLE_DIM_LINETYPE
1070
   380
1005
14
1001
ACAD_DSTYLE_DIM_EXT1_LINETYPE
1070
   381
1005
14
1001
ACAD_DSTYLE_DIM_EXT2_LINETYPE
1070
   382
1005
14
  0
ENDTAB
  0
TABLE
  2
BLOCK_RECORD
  5
1
330
0
100
AcDbSymbolTable
 70
     5
  0
BLOCK_RECORD
  5
1F
102
{ACAD_XDICTIONARY
360
8F
102
}
330
1
100
AcDbSymbolTableRecord
100
AcDbBlockTableRecord
  2
*Model_Space
340
22
  0
BLOCK_RECORD
  5
1B
330
1
100
AcDbSymbolTableRecord
100
AcDbBlockTableRecord
  2
*Paper_Space
340
1E
  0
BLOCK_RECORD
  5
23
330
1
100
AcDbSymbolTableRecord
100
AcDbBlockTableRecord
  2
*Paper_Space0
340
26
  0
BLOCK_RECORD
  5
87
330
1
100
AcDbSymbolTableRecord
100
AcDbBlockTableRecord
  2
GENAXEH
340
0
  0
BLOCK_RECORD
  5
2A93
330
1
100
AcDbSymbolTableRecord
100
AcDbBlockTableRecord
  2
*D2
340
0
  0
BLOCK_RECORD
  5
3AA4
330
1
100
AcDbSymbolTableRecord
100
AcDbBlockTableRecord
  2
*D3
340
0
  0
ENDTAB
  0
ENDSEC
  0
SECTION
  2
BLOCKS
  0
BLOCK
  5
20
330
1F
100
AcDbEntity
  8
0
100
AcDbBlockBegin
  2
*Model_Space
 70
     0
 10
0.0
 20
0.0
 30
0.0
  3
*Model_Space
  1

  0
ENDBLK
  5
21
330
1F
100
AcDbEntity
  8
0
100
AcDbBlockEnd
  0
BLOCK
  5
1C
330
1B
100
AcDbEntity
 67
     1
  8
0
100
AcDbBlockBegin
  2
*Paper_Space
 70
     0
 10
0.0
 20
0.0
 30
0.0
  3
*Paper_Space
  1

  0
ENDBLK
  5
1D
330
1B
100
AcDbEntity
 67
     1
  8
0
100
AcDbBlockEnd
  0
BLOCK
  5
24
330
23
100
AcDbEntity
 67
     1
  8
0
100
AcDbBlockBegin
  2
*Paper_Space0
 70
     0
 10
0.0
 20
0.0
 30
0.0
  3
*Paper_Space0
  1

  0
ENDBLK
  5
25
330
23
100
AcDbEntity
 67
     1
  8
0
100
AcDbBlockEnd
  0
BLOCK
  5
89
330
87
100
AcDbEntity
  8
0
100
AcDbBlockBegin
  2
GENAXEH
 70
     0
 10
0.0
 20
0.0
 30
0.0
  3
GENAXEH
  1

  0
LINE
  5
88
330
87
100
AcDbEntity
  8
0
100
AcDbLine
 10
-1.0
 20
0.0
 30
0.0
 11
1.0
 21
0.0
 31
0.0
  0
ENDBLK
  5
8A
330
87
100
AcDbEntity
  8
0
100
AcDbBlockEnd
  0
BLOCK
  5
2A94
330
2A93
100
AcDbEntity
  8
0
100
AcDbBlockBegin
  2
*D2
 70
     1
 10
0.0
 20
0.0
 30
0.0
  3
*D2
  1

  0
LINE
  5
3A70
330
2A93
100
AcDbEntity
  8
AM_5
  6
ByBlock
100
AcDbLine
 10
3191.073071411031
 20
2157.691278371022
 30
0.0
 11
3191.073071411031
 21
2301.065133259433
 31
0.0
  0
LINE
  5
3A71
330
2A93
100
AcDbEntity
  8
AM_5
  6
ByBlock
100
AcDbLine
 10
3691.160091494921
 20
2157.691278371022
 30
0.0
 11
3691.160091494921
 21
2301.065133259433
 31
0.0
  0
LINE
  5
3A72
330
2A93
100
AcDbEntity
  8
AM_5
  6
ByBlock
100
AcDbLine
 10
3196.073071411031
 20
2300.065133259433
 30
0.0
 11
3686.160091494921
 21
2300.065133259433
 31
0.0
  0
SOLID
  5
3A73
330
2A93
100
AcDbEntity
  8
AM_5
100
AcDbTrace
 10
3196.073071411031
 20
2300.898466592767
 30
0.0
 11
3196.073071411031
 21
2299.231799926099
 31
0.0
 12
3191.073071411031
 22
2300.065133259433
 32
0.0
 13
3191.073071411031
 23
2300.065133259433
 33
0.0
  0
SOLID
  5
3A74
330
2A93
100
AcDbEntity
  8
AM_5
100
AcDbTrace
 10
3686.160091494921
 20
2300.898466592767
 30
0.0
 11
3686.160091494921
 21
2299.231799926099
 31
0.0
 12
3691.160091494921
 22
2300.065133259433
 32
0.0
 13
3691.160091494921
 23
2300.065133259433
 33
0.0
  0
MTEXT
  5
3A75
330
2A93
100
AcDbEntity
  8
AM_5
 62
     2
100
AcDbMText
 10
3435.045827110919
 20
2306.565133259433
 30
0.0
 40
10.0
 41
0.0
 71
     5
 72
     1
  1
{\Famgdt;o}500
 73
     1
 44
1.0
1001
ACAD
1000
MTEXTBEGIN
1070
    73
1070
     1
1070
    44
1040
1.0
1070
    74
1070
     0
1000
MTEXTEND
  0
POINT
  5
3A76
330
2A93
100
AcDbEntity
  8
Defpoints
 62
     0
100
AcDbPoint
 10
3191.073071411031
 20
2156.691278371022
 30
0.0
  0
POINT
  5
3A77
330
2A93
100
AcDbEntity
  8
Defpoints
 62
     0
100
AcDbPoint
 10
3691.160091494921
 20
2156.691278371022
 30
0.0
  0
POINT
  5
3A78
330
2A93
100
AcDbEntity
  8
Defpoints
 62
     0
100
AcDbPoint
 10
3691.160091494921
 20
2300.065133259433
 30
0.0
  0
ENDBLK
  5
2A95
330
2A93
100
AcDbEntity
  8
0
100
AcDbBlockEnd
  0
BLOCK
  5
3AA5
330
3AA4
100
AcDbEntity
  8
0
100
AcDbBlockBegin
  2
*D3
 70
     1
 10
0.0
 20
0.0
 30
0.0
  3
*D3
  1

  0
LINE
  5
3ACD
330
3AA4
100
AcDbEntity
  8
AM_5
  6
ByBlock
100
AcDbLine
 10
3440.116581452972
 20
1779.691278371039
 30
0.0
 11
3263.073071411009
 21
1779.691278371039
 31
0.0
  0
LINE
  5
3ACE
330
3AA4
100
AcDbEntity
  8
AM_5
  6
ByBlock
100
AcDbLine
 10
3275.073071411009
 20
2149.691278371022
 30
0.0
 11
3263.073071411009
 21
2149.691278371022
 31
0.0
  0
LINE
  5
3ACF
330
3AA4
100
AcDbEntity
  8
AM_5
  6
ByBlock
100
AcDbLine
 10
3264.07307141101
 20
1784.691278371039
 30
0.0
 11
3264.07307141101
 21
2144.691278371022
 31
0.0
  0
SOLID
  5
3AD0
330
3AA4
100
AcDbEntity
  8
AM_5
100
AcDbTrace
 10
3263.239738077676
 20
1784.691278371039
 30
0.0
 11
3264.906404744343
 21
1784.691278371039
 31
0.0
 12
3264.07307141101
 22
1779.691278371039
 32
0.0
 13
3264.07307141101
 23
1779.691278371039
 33
0.0
  0
SOLID
  5
3AD1
330
3AA4
100
AcDbEntity
  8
AM_5
100
AcDbTrace
 10
3263.239738077676
 20
2144.691278371022
 30
0.0
 11
3264.906404744343
 21
2144.691278371022
 31
0.0
 12
3264.07307141101
 22
2149.691278371022
 32
0.0
 13
3264.07307141101
 23
2149.691278371022
 33
0.0
  0
MTEXT
  5
3AD2
330
3AA4
100
AcDbEntity
  8
AM_5
 62
     2
100
AcDbMText
 10
3257.573071411009
 20
1964.691278371031
 30
0.0
 40
10.0
 41
0.0
 71
     5
 72
     1
  1
370
 11
0.0000000000000001
 21
1.0
 31
0.0
 73
     1
 44
1.0
1001
ACAD
1000
MTEXTBEGIN
1070
    73
1070
     1
1070
    44
1040
1.0
1070
    74
1070
     0
1000
MTEXTEND
  0
POINT
  5
3AD3
330
3AA4
100
AcDbEntity
  8
Defpoints
 62
     0
100
AcDbPoint
 10
3441.116581452972
 20
1779.691278371039
 30
0.0
  0
POINT
  5
3AD4
330
3AA4
100
AcDbEntity
  8
Defpoints
 62
     0
100
AcDbPoint
 10
3276.073071411009
 20
2149.691278371022
 30
0.0
  0
POINT
  5
3AD5
330
3AA4
100
AcDbEntity
  8
Defpoints
 62
     0
100
AcDbPoint
 10
3264.07307141101
 20
2149.691278371022
 30
0.0
  0
ENDBLK
  5
3AA6
330
3AA4
100
AcDbEntity
  8
0
100
AcDbBlockEnd
  0
ENDSEC
  0
SECTION
  2
ENTITIES
  0
LINE
  5
23C7
102
{ACAD_REACTORS
330
3AB1
102
}
330
1F
100
AcDbEntity
  8
P-0000
  6
STRICHPUNKT
 62
     3
100
AcDbLine
 10
3441.116581452972
 20
2265.832928279404
 30
0.0
 11
3441.116581452972
 21
1779.691278371039
 31
0.0
1001
ACME_LAYERS
1000
1
  0
LINE
  5
27DE
330
1F
100
AcDbEntity
  8
P-0000
  6
Continuous
 62
     7
100
AcDbLine
 10
3357.116581452974
 20
2149.691278371019
 30
0.0
 11
3369.414140138296
 21
2149.69127837103
 31
0.0
1001
ACME_LAYERS
1000
1
  0
LINE
  5
27E0
330
1F
100
AcDbEntity
  8
P-0000
  6
Continuous
 62
     7
100
AcDbLine
 10
3356.794868180735
 20
2155.691278371023
 30
0.0
 11
3394.116581452974
 21
2155.691278371023
 31
0.0
1001
ACME_LAYERS
1000
1
  0
HATCH
  5
27E1
330
1F
100
AcDbEntity
  8
P-0000
  6
Continuous
 62
     3
100
AcDbHatch
 10
0.0
 20
0.0
 30
0.0
210
0.0
220
0.0
230
1.0
  2
_U
 70
     0
 71
     0
 91
        1
 92
        1
 93
        9
 72
     1
 10
3276.073071411009
 20
2149.691278371022
 11
3275.073071411009
 21
2151.423329178593
 72
     1
 10
3275.073071411009
 20
2151.423329178592
 11
3279.438529650918
 21
2153.943727668537
 72
     2
 10
3281.438529650918
 20
2150.479626053401
 40
4.0
 50
239.9999999999895
 51
270.0
 73
     0
 72
     2
 10
3281.438529650918
 20
2150.479626053401
 40
4.000000000000613
 50
270.0
 51
315.0000000000009
 73
     0
 72
     1
 10
3284.266956775665
 20
2153.308053178148
 11
3284.969518020417
 21
2152.605491933395
 72
     1
 10
3284.969518020417
 20
2152.605491933396
 11
3283.555304458044
 21
2151.191278371022
 72
     1
 10
3283.555304458044
 20
2151.191278371022
 11
3282.852743213291
 21
2151.893839615774
 72
     2
 10
3281.438529650918
 20
2150.479626053401
 40
2.000000000000115
 50
44.99999999999594
 51
120.0000000000099
 73
     1
 72
     1
 10
3280.438529650917
 20
2152.21167686097
 11
3276.073071411009
 21
2149.691278371022
 97
        0
 75
     0
 76
     0
 52
44.99999999999999
 41
2.0
 77
     0
 78
     1
 53
45.0
 43
3592.877022954241
 44
2015.800413337458
 45
-1.414213562373094
 46
1.414213562373094
 79
     0
 98
        1
 10
3592.877022954241
 20
2015.800413337458
1001
ACME_LAYERS
1000
1
  0
LINE
  5
27E2
330
1F
100
AcDbEntity
  8
P-0000
  6
Continuous
 62
     3
100
AcDbLine
 10
3275.073071411009
 20
2151.423329178592
 30
0.0
 11
3279.438529650918
 21
2153.943727668537
 31
0.0
1001
ACME_LAYERS
1000
1
  0
LINE
  5
27E3
330
1F
100
AcDbEntity
  8
P-0000
  6
Continuous
 62
     7
100
AcDbLine
 10
3276.073071411009
 20
2149.691278371022
 30
0.0
 11
3280.438529650917
 21
2152.21167686097
 31
0.0
1001
ACME_LAYERS
1000
1
  0
LINE
  5
27E4
330
1F
100
AcDbEntity
  8
P-0000
  6
Continuous
 62
     7
100
AcDbLine
 10
3276.073071411009
 20
2149.691278371022
 30
0.0
 11
3280.438529650917
 21
2152.21167686097
 31
0.0
1001
ACME_LAYERS
1000
1
  0
LINE
  5
27E5
330
1F
100
AcDbEntity
  8
P-0000
  6
Continuous
 62
     7
100
AcDbLine
 10
3276.073071411009
 20
2149.691278371022
 30
0.0
 11
3300.644868180733
 21
2149.691278371022
 31
0.0
1001
ACME_LAYERS
1000
1
  0
LINE
  5
27E6
102
{ACAD_REACTORS
330
3AB1
102
}
330
1F
100
AcDbEntity
  8
P-0000
  6
Continuous
 62
     7
100
AcDbLine
 10
3276.073071411009
 20
2149.691278371022
 30
0.0
 11
3275.073071411009
 21
2151.423329178592
 31
0.0
1001
ACME_LAYERS
1000
1
  0
LINE
  5
27E7
330
1F
100
AcDbEntity
  8
P-0000
  6
Continuous
 62
     7
100
AcDbLine
 10
3300.644868180733
 20
2149.691278371022
 30
0.0
 11
3338.616581452988
 21
2149.691278371019
 31
0.0
1001
ACME_LAYERS
1000
1
  0
LINE
  5
27EA
330
1F
100
AcDbEntity
  8
P-0000
  6
Continuous
 62
     7
100
AcDbLine
 10
3320.866581452968
 20
2151.691278371022
 30
0.0
 11
3328.823071411009
 21
2151.691278371022
 31
0.0
1001
ACME_LAYERS
1000
1
  0
LINE
  5
27ED
330
1F
100
AcDbEntity
  8
P-0000
  6
Continuous
 62
     3
100
AcDbLine
 10
3321.601316390028
 20
2166.887751160922
 30
0.0
 11
3321.601316390028
 21
2166.303402459351
 31
0.0
1001
ACME_LAYERS
1000
1
  0
ARC
  5
27F1
330
1F
100
AcDbEntity
  8
P-0000
  6
Continuous
 62
     7
100
AcDbCircle
 10
3300.644868180733
 20
2153.691278371022
 30
0.0
 40
1.999999999999253
100
AcDbArc
 50
239.9999999999966
 51
270.0
1001
ACME_LAYERS
1000
1
  0
ARC
  5
27F2
330
1F
100
AcDbEntity
  8
P-0000
  6
Continuous
 62
     7
100
AcDbCircle
 10
3300.644868180733
 20
2153.691278371022
 30
0.0
 40
4.000000000000131
100
AcDbArc
 50
239.9999999999987
 51
270.0
1001
ACME_LAYERS
1000
1
  0
LINE
  5
27F3
330
1F
100
AcDbEntity
  8
P-0000
  6
Continuous
 62
     7
100
AcDbLine
 10
3300.92307141101
 20
2151.691278371022
 30
0.0
 11
3295.155122218579
 21
2155.021405389944
 31
0.0
1001
ACME_LAYERS
1000
1
  0
LINE
  5
27F4
330
1F
100
AcDbEntity
  8
P-0000
  6
Continuous
 62
     7
100
AcDbLine
 10
3295.207613171101
 20
2152.21167686097
 30
0.0
 11
3298.644868180733
 21
2150.227176755884
 31
0.0
1001
ACME_LAYERS
1000
1
  0
LINE
  5
27F5
330
1F
100
AcDbEntity
  8
P-0000
  6
Continuous
 62
     7
100
AcDbLine
 10
3284.969518020417
 20
2152.605491933396
 30
0.0
 11
3290.676624801601
 21
2152.605491933396
 31
0.0
1001
ACME_LAYERS
1000
1
  0
LINE
  5
27F6
330
1F
100
AcDbEntity
  8
P-0000
  6
Continuous
 62
     7
100
AcDbLine
 10
3283.555304458044
 20
2151.191278371022
 30
0.0
 11
3292.090838363975
 21
2151.191278371022
 31
0.0
1001
ACME_LAYERS
1000
1
  0
LINE
  5
27F7
330
1F
100
AcDbEntity
  8
P-0000
  6
Continuous
 62
     7
100
AcDbLine
 10
3283.805122218579
 20
2155.691278371023
 30
0.0
 11
3292.655122218578
 21
2155.691278371023
 31
0.0
1001
ACME_LAYERS
1000
1
  0
LINE
  5
27F8
330
1F
100
AcDbEntity
  8
P-0000
  6
Continuous
 62
     7
100
AcDbLine
 10
3281.438529650918
 20
2154.479626053401
 30
0.0
 11
3294.207613171103
 21
2154.479626053401
 31
0.0
1001
ACME_LAYERS
1000
1
  0
ARC
  5
27F9
330
1F
100
AcDbEntity
  8
P-0000
  6
Continuous
 62
     7
100
AcDbCircle
 10
3283.805122218578
 20
2150.691278371022
 30
0.0
 40
5.0
100
AcDbArc
 50
89.99999999997395
 51
120.0000000000012
1001
ACME_LAYERS
1000
1
  0
ARC
  5
27FA
330
1F
100
AcDbEntity
  8
P-0000
  6
Continuous
 62
     7
100
AcDbCircle
 10
3281.438529650918
 20
2150.479626053401
 30
0.0
 40
4.000000000000613
100
AcDbArc
 50
44.99999999999309
 51
90.0
1001
ACME_LAYERS
1000
1
  0
LINE
  5
27FB
330
1F
100
AcDbEntity
  8
P-0000
  6
Continuous
 62
     7
100
AcDbLine
 10
3282.852743213291
 20
2151.893839615774
 30
0.0
 11
3283.555304458044
 21
2151.191278371022
 31
0.0
1001
ACME_LAYERS
1000
1
  0
ARC
  5
27FC
330
1F
100
AcDbEntity
  8
P-0000
  6
Continuous
 62
     7
100
AcDbCircle
 10
3281.438529650918
 20
2150.479626053401
 30
0.0
 40
4.0
100
AcDbArc
 50
90.0
 51
120.0000000000034
1001
ACME_LAYERS
1000
1
  0
LINE
  5
27FD
330
1F
100
AcDbEntity
  8
P-0000
  6
Continuous
 62
     7
100
AcDbLine
 10
3279.438529650918
 20
2153.943727668537
 30
0.0
 11
3281.305122218577
 21
2155.021405389944
 31
0.0
1001
ACME_LAYERS
1000
1
  0
ARC
  5
27FE
330
1F
100
AcDbEntity
  8
P-0000
  6
Continuous
 62
     7
100
AcDbCircle
 10
3281.438529650918
 20
2150.479626053401
 30
0.0
 40
2.000000000000115
100
AcDbArc
 50
44.99999999999309
 51
120.0000000000034
1001
ACME_LAYERS
1000
1
  0
LINE
  5
27FF
330
1F
100
AcDbEntity
  8
P-0000
  6
Continuous
 62
     7
100
AcDbLine
 10
3284.969518020417
 20
2152.605491933396
 30
0.0
 11
3283.555304458044
 21
2151.191278371022
 31
0.0
1001
ACME_LAYERS
1000
1
  0
LINE
  5
2800
330
1F
100
AcDbEntity
  8
P-0000
  6
Continuous
 62
     7
100
AcDbLine
 10
3284.266956775665
 20
2153.308053178148
 30
0.0
 11
3284.969518020417
 21
2152.605491933396
 31
0.0
1001
ACME_LAYERS
1000
1
  0
ARC
  5
2801
330
1F
100
AcDbEntity
  8
P-0000
  6
Continuous
 62
     7
100
AcDbCircle
 10
3294.207613171103
 20
2150.479626053401
 30
0.0
 40
1.999999999999401
100
AcDbArc
 50
59.99999999999665
 51
135.0000000000069
1001
ACME_LAYERS
1000
1
  0
ARC
  5
2802
330
1F
100
AcDbEntity
  8
P-0000
  6
Continuous
 62
     7
100
AcDbCircle
 10
3292.655122218578
 20
2150.691278371022
 30
0.0
 40
5.000000000000164
100
AcDbArc
 50
59.99999999999875
 51
90.0
1001
ACME_LAYERS
1000
1
  0
ARC
  5
2803
330
1F
100
AcDbEntity
  8
P-0000
  6
Continuous
 62
     7
100
AcDbCircle
 10
3294.207613171103
 20
2150.479626053401
 30
0.0
 40
1.999999999999401
100
AcDbArc
 50
59.99999999999665
 51
135.0000000000069
1001
ACME_LAYERS
1000
1
  0
ARC
  5
2804
330
1F
100
AcDbEntity
  8
P-0000
  6
Continuous
 62
     7
100
AcDbCircle
 10
3294.207613171103
 20
2150.479626053401
 30
0.0
 40
3.999999999998728
100
AcDbArc
 50
59.99999999999665
 51
90.0
1001
ACME_LAYERS
1000
1
  0
ARC
  5
2805
330
1F
100
AcDbEntity
  8
P-0000
  6
Continuous
 62
     7
100
AcDbCircle
 10
3294.207613171103
 20
2150.479626053401
 30
0.0
 40
4.0
100
AcDbArc
 50
90.0
 51
135.0000000000069
1001
ACME_LAYERS
1000
1
  0
LINE
  5
2806
330
1F
100
AcDbEntity
  8
P-0000
  6
Continuous
 62
     7
100
AcDbLine
 10
3290.676624801601
 20
2152.605491933396
 30
0.0
 11
3291.379186046354
 21
2153.308053178148
 31
0.0
1001
ACME_LAYERS
1000
1
  0
LINE
  5
2807
330
1F
100
AcDbEntity
  8
P-0000
  6
Continuous
 62
     7
100
AcDbLine
 10
3292.090838363975
 20
2151.191278371022
 30
0.0
 11
3292.793399608728
 21
2151.893839615774
 31
0.0
1001
ACME_LAYERS
1000
1
  0
LINE
  5
2808
330
1F
100
AcDbEntity
  8
P-0000
  6
Continuous
 62
     7
100
AcDbLine
 10
3292.090838363975
 20
2151.191278371022
 30
0.0
 11
3290.676624801601
 21
2152.605491933396
 31
0.0
1001
ACME_LAYERS
1000
1
  0
LINE
  5
2809
330
1F
100
AcDbEntity
  8
P-0000
  6
Continuous
 62
     7
100
AcDbLine
 10
3296.207613171101
 20
2153.943727668537
 30
0.0
 11
3299.644868180733
 21
2151.959227563454
 31
0.0
1001
ACME_LAYERS
1000
1
  0
LINE
  5
280A
330
1F
100
AcDbEntity
  8
P-0000
  6
Continuous
 62
     7
100
AcDbLine
 10
3300.92307141101
 20
2151.691278371022
 30
0.0
 11
3320.866581452968
 21
2151.691278371022
 31
0.0
1001
ACME_LAYERS
1000
1
  0
LINE
  5
280B
330
1F
100
AcDbEntity
  8
P-0000
  6
Continuous
 62
     7
100
AcDbLine
 10
3300.92307141101
 20
2151.691278371022
 30
0.0
 11
3300.644868180733
 21
2151.691278371022
 31
0.0
1001
ACME_LAYERS
1000
1
  0
LINE
  5
280C
330
1F
100
AcDbEntity
  8
P-0000
  6
Continuous
 62
     3
100
AcDbLine
 10
3321.601316390028
 20
2166.887751160922
 30
0.0
 11
3321.601316390028
 21
2151.691278371022
 31
0.0
1001
ACME_LAYERS
1000
1
  0
LINE
  5
280D
330
1F
100
AcDbEntity
  8
P-0000
  6
Continuous
 62
     7
100
AcDbLine
 10
3320.801316390028
 20
2164.897198275966
 30
0.0
 11
3320.801316390028
 21
2160.897198275966
 31
0.0
1001
ACME_LAYERS
1000
1
  0
LINE
  5
280F
330
1F
100
AcDbEntity
  8
P-0000
  6
Continuous
 62
     3
100
AcDbLine
 10
3328.001316390028
 20
2166.887751160922
 30
0.0
 11
3328.001316390028
 21
2151.691278371022
 31
0.0
1001
ACME_LAYERS
1000
1
  0
LINE
  5
2816
330
1F
100
AcDbEntity
  8
P-0000
  6
Continuous
 62
     7
100
AcDbLine
 10
3343.616581452972
 20
2149.691278371019
 30
0.0
 11
3357.116581452974
 21
2149.691278371019
 31
0.0
1001
ACME_LAYERS
1000
1
  0
LINE
  5
2817
330
1F
100
AcDbEntity
  8
P-0000
  6
Continuous
 62
     7
100
AcDbLine
 10
3328.823071411009
 20
2151.691278371022
 30
0.0
 11
3348.258969795871
 21
2151.691278371022
 31
0.0
1001
ACME_LAYERS
1000
1
  0
LINE
  5
2818
330
1F
100
AcDbEntity
  8
P-0000
  6
Continuous
 62
     7
100
AcDbLine
 10
3339.377784513063
 20
2149.691278371022
 30
0.0
 11
3348.258969795871
 21
2149.691278371022
 31
0.0
1001
ACME_LAYERS
1000
1
  0
LINE
  5
2819
330
1F
100
AcDbEntity
  8
P-0000
  6
Continuous
 62
     7
100
AcDbLine
 10
3328.801316390028
 20
2164.897198275966
 30
0.0
 11
3328.801316390028
 21
2160.897198275966
 31
0.0
1001
ACME_LAYERS
1000
1
  0
LINE
  5
281A
330
1F
100
AcDbEntity
  8
P-0000
  6
Continuous
 62
     7
100
AcDbLine
 10
3338.616581452988
 20
2149.691278371019
 30
0.0
 11
3339.377784513063
 21
2149.691278371022
 31
0.0
1001
ACME_LAYERS
1000
1
  0
LINE
  5
281B
330
1F
100
AcDbEntity
  8
P-0000
  6
Continuous
 62
     7
100
AcDbLine
 10
3350.25896979587
 20
2150.227176755884
 30
0.0
 11
3355.794868180735
 21
2153.423329178592
 31
0.0
1001
ACME_LAYERS
1000
1
  0
LINE
  5
281C
330
1F
100
AcDbEntity
  8
P-0000
  6
Continuous
 62
     7
100
AcDbLine
 10
3349.258969795871
 20
2151.959227563452
 30
0.0
 11
3354.794868180734
 21
2155.15537998616
 31
0.0
1001
ACME_LAYERS
1000
1
  0
ARC
  5
281D
330
1F
100
AcDbEntity
  8
P-0000
  6
Continuous
 62
     7
100
AcDbCircle
 10
3348.258969795871
 20
2153.691278371022
 30
0.0
 40
2.0
100
AcDbArc
 50
270.0
 51
300.0000000000034
1001
ACME_LAYERS
1000
1
  0
ARC
  5
281E
330
1F
100
AcDbEntity
  8
P-0000
  6
Continuous
 62
     7
100
AcDbCircle
 10
3356.794868180735
 20
2151.691278371022
 30
0.0
 40
4.0
100
AcDbArc
 50
90.0
 51
120.0000000000012
1001
ACME_LAYERS
1000
1
  0
ARC
  5
281F
330
1F
100
AcDbEntity
  8
P-0000
  6
Continuous
 62
     7
100
AcDbCircle
 10
3356.565113654117
 20
2152.2459548652
 30
0.0
 40
1.406942913943622
100
AcDbArc
 50
78.80050130597023
 51
123.1929568710466
1001
ACME_LAYERS
1000
1
  0
ARC
  5
2820
330
1F
100
AcDbEntity
  8
P-0000
  6
Continuous
 62
     7
100
AcDbCircle
 10
3348.258969795871
 20
2153.691278371022
 30
0.0
 40
4.0
100
AcDbArc
 50
270.0
 51
300.0000000000012
1001
ACME_LAYERS
1000
1
  0
LINE
  5
2821
330
1F
100
AcDbEntity
  8
P-0000
  6
Continuous
 62
     7
100
AcDbLine
 10
3401.74626326651
 20
2155.691278371023
 30
0.0
 11
3441.116581452976
 21
2155.691278371023
 31
0.0
1001
ACME_LAYERS
1000
1
  0
LINE
  5
2822
330
1F
100
AcDbEntity
  8
P-0000
  6
Continuous
 62
     7
100
AcDbLine
 10
3394.116581452974
 20
2155.691278371023
 30
0.0
 11
3441.116581452976
 21
2155.691278371023
 31
0.0
1001
ACME_LAYERS
1000
1
  0
LINE
  5
2824
330
1F
100
AcDbEntity
  8
P-0000
  6
Continuous
 62
     7
100
AcDbLine
 10
3374.612310136655
 20
2155.910810445153
 30
0.0
 11
3374.616581452968
 21
2155.894646692562
 31
0.0
1001
ACME_LAYERS
1000
1
  0
LINE
  5
282B
330
1F
100
AcDbEntity
  8
P-0000
  6
Continuous
 62
     7
100
AcDbLine
 10
3328.857852834119
 20
2166.887751160922
 30
0.0
 11
3328.857852834119
 21
2160.897198275966
 31
0.0
1001
ACME_LAYERS
1000
1
  0
LINE
  5
282D
330
1F
100
AcDbEntity
  8
P-0000
  6
Continuous
 62
     7
100
AcDbLine
 10
3307.357852834128
 20
2166.397198275966
 30
0.0
 11
3320.857852834119
 21
2166.397198275966
 31
0.0
1001
ACME_LAYERS
1000
1
  0
LINE
  5
282E
330
1F
100
AcDbEntity
  8
P-0000
  6
Continuous
 62
     7
100
AcDbLine
 10
3313.186279958863
 20
2164.897198275966
 30
0.0
 11
3315.623882672091
 21
2164.897198275966
 31
0.0
1001
ACME_LAYERS
1000
1
  0
LINE
  5
282F
330
1F
100
AcDbEntity
  8
P-0000
  6
Continuous
 62
     7
100
AcDbLine
 10
3441.107852834111
 20
2166.397198275966
 30
0.0
 11
3353.857852834118
 21
2166.397198275966
 31
0.0
1001
ACME_LAYERS
1000
1
  0
LINE
  5
2830
330
1F
100
AcDbEntity
  8
P-0000
  6
Continuous
 62
     7
100
AcDbLine
 10
3313.186279958863
 20
2164.897198275966
 30
0.0
 11
3315.623882672091
 21
2164.897198275966
 31
0.0
1001
ACME_LAYERS
1000
1
  0
LINE
  5
2831
330
1F
100
AcDbEntity
  8
P-0000
  6
Continuous
 62
     7
100
AcDbLine
 10
3315.623882672091
 20
2164.897198275966
 30
0.0
 11
3317.034211200951
 21
2164.897198275966
 31
0.0
1001
ACME_LAYERS
1000
1
  0
LINE
  5
2832
330
1F
100
AcDbEntity
  8
P-0000
  6
Continuous
 62
     7
100
AcDbLine
 10
3315.623882672091
 20
2164.897198275966
 30
0.0
 11
3317.034211200951
 21
2164.897198275966
 31
0.0
1001
ACME_LAYERS
1000
1
  0
LINE
  5
2833
330
1F
100
AcDbEntity
  8
P-0000
  6
Continuous
 62
     7
100
AcDbLine
 10
3441.107852834117
 20
2164.665147468398
 30
0.0
 11
3354.857852834119
 21
2164.665147468398
 31
0.0
1001
ACME_LAYERS
1000
1
  0
LINE
  5
2834
330
1F
100
AcDbEntity
  8
P-0000
  6
Continuous
 62
     7
100
AcDbLine
 10
3353.857852834118
 20
2166.397198275966
 30
0.0
 11
3348.259776622767
 21
2163.165147468398
 31
0.0
1001
ACME_LAYERS
1000
1
  0
LINE
  5
2835
330
1F
100
AcDbEntity
  8
P-0000
  6
Continuous
 62
     7
100
AcDbLine
 10
3328.857852834119
 20
2166.397198275966
 30
0.0
 11
3353.857852834118
 21
2166.397198275966
 31
0.0
1001
ACME_LAYERS
1000
1
  0
LINE
  5
2836
330
1F
100
AcDbEntity
  8
P-0000
  6
Continuous
 62
     7
100
AcDbLine
 10
3354.857852834119
 20
2164.665147468398
 30
0.0
 11
3353.857852834118
 21
2166.397198275966
 31
0.0
1001
ACME_LAYERS
1000
1
  0
LINE
  5
2837
330
1F
100
AcDbEntity
  8
P-0000
  6
Continuous
 62
     7
100
AcDbLine
 10
3353.857852834118
 20
2166.397198275966
 30
0.0
 11
3353.785886671618
 21
2166.397198275966
 31
0.0
1001
ACME_LAYERS
1000
1
  0
LINE
  5
2838
330
1F
100
AcDbEntity
  8
P-0000
  6
Continuous
 62
     7
100
AcDbLine
 10
3317.034211200951
 20
2164.897198275966
 30
0.0
 11
3319.85785283412
 21
2164.897198275966
 31
0.0
1001
ACME_LAYERS
1000
1
  0
LINE
  5
283A
330
1F
100
AcDbEntity
  8
P-0000
  6
Continuous
 62
     3
100
AcDbLine
 10
3301.920030660611
 20
2162.897198275966
 30
0.0
 11
3302.455929045474
 21
2162.897198275966
 31
0.0
1001
ACME_LAYERS
1000
1
  0
LINE
  5
283B
330
1F
100
AcDbEntity
  8
P-0000
  6
Continuous
 62
     3
100
AcDbLine
 10
3301.455929045474
 20
2163.165147468398
 30
0.0
 11
3301.920030660611
 21
2162.897198275966
 31
0.0
1001
ACME_LAYERS
1000
1
  0
LINE
  5
283C
330
1F
100
AcDbEntity
  8
P-0000
  6
Continuous
 62
     7
100
AcDbLine
 10
3339.357852834119
 20
2163.725625400712
 30
0.0
 11
3339.600493521239
 21
2163.482984713593
 31
0.0
1001
ACME_LAYERS
1000
1
  0
LINE
  5
283D
330
1F
100
AcDbEntity
  8
P-0000
  6
Continuous
 62
     7
100
AcDbLine
 10
3310.357852834119
 20
2163.725625400712
 30
0.0
 11
3310.115212147001
 21
2163.482984713593
 31
0.0
1001
ACME_LAYERS
1000
1
  0
LINE
  5
283E
330
1F
100
AcDbEntity
  8
P-0000
  6
Continuous
 62
     7
100
AcDbLine
 10
3319.85785283412
 20
2164.897198275966
 30
0.0
 11
3319.85785283412
 21
2162.897198275966
 31
0.0
1001
ACME_LAYERS
1000
1
  0
LINE
  5
283F
330
1F
100
AcDbEntity
  8
P-0000
  6
Continuous
 62
     7
100
AcDbLine
 10
3329.857852834119
 20
2164.897198275966
 30
0.0
 11
3329.857852834119
 21
2162.897198275966
 31
0.0
1001
ACME_LAYERS
1000
1
  0
LINE
  5
2840
330
1F
100
AcDbEntity
  8
P-0000
  6
Continuous
 62
     7
100
AcDbLine
 10
3294.85785283412
 20
2164.665147468398
 30
0.0
 11
3295.85785283412
 21
2166.397198275966
 31
0.0
1001
ACME_LAYERS
1000
1
  0
LINE
  5
2841
330
1F
100
AcDbEntity
  8
P-0000
  6
Continuous
 62
     7
100
AcDbLine
 10
3294.85785283412
 20
2164.665147468398
 30
0.0
 11
3300.455929045473
 21
2161.433096660828
 31
0.0
1001
ACME_LAYERS
1000
1
  0
LINE
  5
2842
330
1F
100
AcDbEntity
  8
P-0000
  6
Continuous
 62
     7
100
AcDbLine
 10
3295.85785283412
 20
2166.397198275966
 30
0.0
 11
3301.455929045474
 21
2163.165147468398
 31
0.0
1001
ACME_LAYERS
1000
1
  0
LINE
  5
2843
330
1F
100
AcDbEntity
  8
P-0000
  6
Continuous
 62
     7
100
AcDbLine
 10
3311.772066396492
 20
2162.311411838339
 30
0.0
 11
3311.529425709372
 21
2162.068771151221
 31
0.0
1001
ACME_LAYERS
1000
1
  0
LINE
  5
2844
330
1F
100
AcDbEntity
  8
P-0000
  6
Continuous
 62
     7
100
AcDbLine
 10
3337.943639271745
 20
2162.311411838339
 30
0.0
 11
3338.186279958865
 21
2162.068771151221
 31
0.0
1001
ACME_LAYERS
1000
1
  0
LINE
  5
2845
330
1F
100
AcDbEntity
  8
P-0000
  6
Continuous
 62
     7
100
AcDbLine
 10
3354.857852834119
 20
2164.665147468398
 30
0.0
 11
3349.259776622766
 21
2161.433096660828
 31
0.0
1001
ACME_LAYERS
1000
1
  0
LINE
  5
2846
330
1F
100
AcDbEntity
  8
P-0000
  6
Continuous
 62
     7
100
AcDbLine
 10
3347.259776622767
 20
2160.897198275966
 30
0.0
 11
3441.107852834117
 21
2160.897198275966
 31
0.0
1001
ACME_LAYERS
1000
1
  0
LINE
  5
2847
330
1F
100
AcDbEntity
  8
P-0000
  6
Continuous
 62
     7
100
AcDbLine
 10
3347.259776622767
 20
2162.897198275966
 30
0.0
 11
3341.014707083612
 21
2162.897198275966
 31
0.0
1001
ACME_LAYERS
1000
1
  0
LINE
  5
2848
330
1F
100
AcDbEntity
  8
P-0000
  6
Continuous
 62
     7
100
AcDbLine
 10
3347.259776622767
 20
2160.897198275966
 30
0.0
 11
3341.014707083612
 21
2160.897198275966
 31
0.0
1001
ACME_LAYERS
1000
1
  0
LINE
  5
2849
330
1F
100
AcDbEntity
  8
P-0000
  6
Continuous
 62
     7
100
AcDbLine
 10
3302.455929045474
 20
2160.897198275966
 30
0.0
 11
3308.700998584625
 21
2160.897198275966
 31
0.0
1001
ACME_LAYERS
1000
1
  0
LINE
  5
284A
330
1F
100
AcDbEntity
  8
P-0000
  6
Continuous
 62
     7
100
AcDbLine
 10
3319.85785283412
 20
2164.897198275966
 30
0.0
 11
3320.857852834119
 21
2164.897198275966
 31
0.0
1001
ACME_LAYERS
1000
1
  0
LINE
  5
284B
330
1F
100
AcDbEntity
  8
P-0000
  6
Continuous
 62
     7
100
AcDbLine
 10
3317.034211200951
 20
2164.897198275966
 30
0.0
 11
3319.85785283412
 21
2164.897198275966
 31
0.0
1001
ACME_LAYERS
1000
1
  0
LINE
  5
284C
330
1F
100
AcDbEntity
  8
P-0000
  6
Continuous
 62
     7
100
AcDbLine
 10
3329.857852834119
 20
2164.897198275966
 30
0.0
 11
3336.529425709372
 21
2164.897198275966
 31
0.0
1001
ACME_LAYERS
1000
1
  0
LINE
  5
284D
330
1F
100
AcDbEntity
  8
P-0000
  6
Continuous
 62
     7
100
AcDbLine
 10
3328.857852834119
 20
2162.897198275966
 30
0.0
 11
3336.529425709372
 21
2162.897198275966
 31
0.0
1001
ACME_LAYERS
1000
1
  0
LINE
  5
284E
330
1F
100
AcDbEntity
  8
P-0000
  6
Continuous
 62
     7
100
AcDbLine
 10
3313.186279958865
 20
2162.897198275966
 30
0.0
 11
3320.801316390028
 21
2162.897198275966
 31
0.0
1001
ACME_LAYERS
1000
1
  0
LINE
  5
284F
330
1F
100
AcDbEntity
  8
P-0000
  6
Continuous
 62
     7
100
AcDbLine
 10
3328.857852834119
 20
2164.897198275966
 30
0.0
 11
3329.857852834119
 21
2164.897198275966
 31
0.0
1001
ACME_LAYERS
1000
1
  0
LINE
  5
2850
330
1F
100
AcDbEntity
  8
P-0000
  6
Continuous
 62
     7
100
AcDbLine
 10
3302.455929045474
 20
2162.897198275966
 30
0.0
 11
3308.700998584625
 21
2162.897198275966
 31
0.0
1001
ACME_LAYERS
1000
1
  0
LINE
  5
2851
330
1F
100
AcDbEntity
  8
P-0000
  6
Continuous
 62
     7
100
AcDbLine
 10
3334.857852834119
 20
2164.897198275966
 30
0.0
 11
3329.857852834119
 21
2164.897198275966
 31
0.0
1001
ACME_LAYERS
1000
1
  0
LINE
  5
2852
330
1F
100
AcDbEntity
  8
P-0000
  6
Continuous
 62
     7
100
AcDbLine
 10
3329.857852834119
 20
2164.897198275966
 30
0.0
 11
3328.857852834119
 21
2164.897198275966
 31
0.0
1001
ACME_LAYERS
1000
1
  0
LINE
  5
2853
330
1F
100
AcDbEntity
  8
P-0000
  6
Continuous
 62
     7
100
AcDbLine
 10
3295.85785283412
 20
2166.397198275966
 30
0.0
 11
3307.357852834128
 21
2166.397198275966
 31
0.0
1001
ACME_LAYERS
1000
1
  0
LINE
  5
2854
330
1F
100
AcDbEntity
  8
P-0000
  6
Continuous
 62
     7
100
AcDbLine
 10
3316.412154720698
 20
2164.897198275966
 30
0.0
 11
3320.857852834119
 21
2164.897198275966
 31
0.0
1001
ACME_LAYERS
1000
1
  0
LINE
  5
2855
330
1F
100
AcDbEntity
  8
P-0000
  6
Continuous
 62
     7
100
AcDbLine
 10
3328.857852834119
 20
2164.897198275966
 30
0.0
 11
3329.857852834119
 21
2164.897198275966
 31
0.0
1001
ACME_LAYERS
1000
1
  0
LINE
  5
286A
330
1F
100
AcDbEntity
  8
P-0000
  6
Continuous
 62
     7
100
AcDbLine
 10
3441.116581452976
 20
2164.665147468398
 30
0.0
 11
3441.107852834117
 21
2164.665147468398
 31
0.0
1001
ACME_LAYERS
1000
1
  0
LINE
  5
286B
330
1F
100
AcDbEntity
  8
P-0000
  6
Continuous
 62
     7
100
AcDbLine
 10
3441.116581452976
 20
2160.897198275966
 30
0.0
 11
3441.107852834117
 21
2160.897198275966
 31
0.0
1001
ACME_LAYERS
1000
1
  0
LINE
  5
286C
330
1F
100
AcDbEntity
  8
P-0000
  6
Continuous
 62
     7
100
AcDbLine
 10
3319.357852834121
 20
2164.897198275967
 30
0.0
 11
3314.35785283412
 21
2164.897198275967
 31
0.0
1001
ACME_LAYERS
1000
1
  0
LINE
  5
286D
330
1F
100
AcDbEntity
  8
P-0000
  6
Continuous
 62
     7
100
AcDbLine
 10
3316.412154720698
 20
2166.887751160922
 30
0.0
 11
3320.857852834119
 21
2166.887751160922
 31
0.0
1001
ACME_LAYERS
1000
1
  0
LINE
  5
286E
330
1F
100
AcDbEntity
  8
P-0000
  6
Continuous
 62
     7
100
AcDbLine
 10
3329.857852834119
 20
2164.897198275966
 30
0.0
 11
3333.412154720698
 21
2164.897198275966
 31
0.0
1001
ACME_LAYERS
1000
1
  0
LINE
  5
286F
330
1F
100
AcDbEntity
  8
P-0000
  6
Continuous
 62
     7
100
AcDbLine
 10
3329.857852834119
 20
2164.897198275966
 30
0.0
 11
3329.357852834121
 21
2164.897198275967
 31
0.0
1001
ACME_LAYERS
1000
1
  0
LINE
  5
2870
330
1F
100
AcDbEntity
  8
P-0000
  6
Continuous
 62
     7
100
AcDbLine
 10
3333.412154720698
 20
2166.887751160922
 30
0.0
 11
3329.357852834121
 21
2166.887751160922
 31
0.0
1001
ACME_LAYERS
1000
1
  0
LINE
  5
2871
330
1F
100
AcDbEntity
  8
P-0000
  6
Continuous
 62
     7
100
AcDbLine
 10
3320.857852834119
 20
2164.897198275966
 30
0.0
 11
3319.85785283412
 21
2164.897198275966
 31
0.0
1001
ACME_LAYERS
1000
1
  0
LINE
  5
2872
330
1F
100
AcDbEntity
  8
P-0000
  6
Continuous
 62
     7
100
AcDbLine
 10
3321.65785283412
 20
2166.887751160922
 30
0.0
 11
3329.357852834121
 21
2166.887751160922
 31
0.0
1001
ACME_LAYERS
1000
1
  0
LINE
  5
2873
330
1F
100
AcDbEntity
  8
P-0000
  6
Continuous
 62
     7
100
AcDbLine
 10
3320.857852834119
 20
2166.887751160922
 30
0.0
 11
3321.65785283412
 21
2166.887751160922
 31
0.0
1001
ACME_LAYERS
1000
1
  0
LINE
  5
2874
330
1F
100
AcDbEntity
  8
P-0000
  6
Continuous
 62
     7
100
AcDbLine
 10
3336.529425709372
 20
2164.897198275966
 30
0.0
 11
3329.857852834119
 21
2164.897198275966
 31
0.0
1001
ACME_LAYERS
1000
1
  0
ARC
  5
2875
330
1F
100
AcDbEntity
  8
P-0000
  6
Continuous
 62
     7
100
AcDbCircle
 10
3308.700998584625
 20
2164.897198275966
 30
0.0
 40
4.0
100
AcDbArc
 50
270.0
 51
315.0000000000162
1001
ACME_LAYERS
1000
1
  0
ARC
  5
2876
330
1F
100
AcDbEntity
  8
P-0000
  6
Continuous
 62
     7
100
AcDbCircle
 10
3336.529425709372
 20
2160.897198275966
 30
0.0
 40
4.000000000000613
100
AcDbArc
 50
44.99999999999309
 51
90.0
1001
ACME_LAYERS
1000
1
  0
ARC
  5
2877
330
1F
100
AcDbEntity
  8
P-0000
  6
Continuous
 62
     7
100
AcDbCircle
 10
3341.014707083612
 20
2164.897198275966
 30
0.0
 40
3.999999999999423
100
AcDbArc
 50
224.9999999999839
 51
270.0
1001
ACME_LAYERS
1000
1
  0
ARC
  5
2878
330
1F
100
AcDbEntity
  8
P-0000
  6
Continuous
 62
     7
100
AcDbCircle
 10
3347.259776622767
 20
2164.897198275966
 30
0.0
 40
4.0
100
AcDbArc
 50
270.0
 51
300.0000000000012
1001
ACME_LAYERS
1000
1
  0
ARC
  5
2883
330
1F
100
AcDbEntity
  8
P-0000
  6
Continuous
 62
     7
100
AcDbCircle
 10
3347.259776622767
 20
2164.897198275966
 30
0.0
 40
2.0
100
AcDbArc
 50
270.0
 51
300.0000000000268
1001
ACME_LAYERS
1000
1
  0
ARC
  5
2884
330
1F
100
AcDbEntity
  8
P-0000
  6
Continuous
 62
     7
100
AcDbCircle
 10
3341.014707083612
 20
2164.897198275966
 30
0.0
 40
2.000000000000397
100
AcDbArc
 50
224.9999999999931
 51
270.0
1001
ACME_LAYERS
1000
1
  0
ARC
  5
2885
330
1F
100
AcDbEntity
  8
P-0000
  6
Continuous
 62
     7
100
AcDbCircle
 10
3336.529425709372
 20
2160.897198275966
 30
0.0
 40
2.000000000000311
100
AcDbArc
 50
44.99999999999309
 51
90.0
1001
ACME_LAYERS
1000
1
  0
ARC
  5
2886
330
1F
100
AcDbEntity
  8
P-0000
  6
Continuous
 62
     7
100
AcDbCircle
 10
3313.186279958865
 20
2160.897198275966
 30
0.0
 40
2.0
100
AcDbArc
 50
90.0
 51
135.0000000000069
1001
ACME_LAYERS
1000
1
  0
ARC
  5
2887
330
1F
100
AcDbEntity
  8
P-0000
  6
Continuous
 62
     7
100
AcDbCircle
 10
3308.700998584625
 20
2164.897198275966
 30
0.0
 40
2.0
100
AcDbArc
 50
270.0
 51
315.0000000000184
1001
ACME_LAYERS
1000
1
  0
ARC
  5
2888
330
1F
100
AcDbEntity
  8
P-0000
  6
Continuous
 62
     7
100
AcDbCircle
 10
3302.455929045474
 20
2164.897198275966
 30
0.0
 40
1.999999999999425
100
AcDbArc
 50
239.9999999999732
 51
270.0
1001
ACME_LAYERS
1000
1
  0
ARC
  5
2889
330
1F
100
AcDbEntity
  8
P-0000
  6
Continuous
 62
     7
100
AcDbCircle
 10
3302.455929045474
 20
2164.897198275966
 30
0.0
 40
4.000000000000401
100
AcDbArc
 50
239.9999999999987
 51
270.0
1001
ACME_LAYERS
1000
1
  0
ARC
  5
288A
330
1F
100
AcDbEntity
  8
P-0000
  6
Continuous
 62
     7
100
AcDbCircle
 10
3313.186279958865
 20
2160.897198275966
 30
0.0
 40
4.0
100
AcDbArc
 50
90.00000000002605
 51
135.0000000000069
1001
ACME_LAYERS
1000
1
  0
HATCH
  5
288B
330
1F
100
AcDbEntity
  8
P-0000
  6
Continuous
 62
     3
100
AcDbHatch
 10
0.0
 20
0.0
 30
0.0
210
0.0
220
0.0
230
1.0
  2
_U
 70
     0
 71
     0
 91
        1
 92
        1
 93
       19
 72
     1
 10
3353.857852834118
 20
2166.397198275966
 11
3348.259776622767
 21
2163.165147468398
 72
     1
 10
3348.259776622767
 20
2163.165147468398
 11
3347.795675007628
 21
2162.897198275966
 72
     1
 10
3347.795675007628
 20
2162.897198275966
 11
3347.259776622767
 21
2162.897198275966
 72
     1
 10
3347.259776622767
 20
2162.897198275966
 11
3341.014707083612
 21
2162.897198275966
 72
     1
 10
3341.014707083612
 20
2162.897198275966
 11
3340.186279958866
 21
2162.897198275966
 72
     1
 10
3340.186279958866
 20
2162.897198275966
 11
3339.600493521239
 21
2163.482984713593
 72
     1
 10
3339.600493521239
 20
2163.482984713593
 11
3339.357852834119
 21
2163.725625400712
 72
     2
 10
3336.529425709372
 20
2160.897198275966
 40
4.000000000000613
 50
44.99999999999911
 51
89.99999999999998
 73
     1
 72
     1
 10
3336.529425709372
 20
2164.897198275966
 11
3329.857852834119
 21
2164.897198275966
 72
     1
 10
3329.857852834119
 20
2164.897198275966
 11
3329.857852834119
 21
2162.897198275966
 72
     1
 10
3329.857852834119
 20
2162.897198275966
 11
3336.529425709372
 21
2162.897198275966
 72
     1
 10
3336.529425709372
 20
2162.897198275966
 11
3337.357852834119
 21
2162.897198275966
 72
     1
 10
3337.357852834119
 20
2162.897198275966
 11
3337.943639271745
 21
2162.311411838339
 72
     1
 10
3337.943639271745
 20
2162.311411838339
 11
3338.186279958865
 21
2162.068771151221
 72
     2
 10
3341.014707083612
 20
2164.897198275966
 40
3.999999999999423
 50
224.9999999999822
 51
270.0
 73
     1
 72
     1
 10
3341.014707083612
 20
2160.897198275966
 11
3347.259776622767
 21
2160.897198275966
 72
     2
 10
3347.259776622767
 20
2164.897198275966
 40
4.0
 50
270.0
 51
299.9999999999967
 73
     1
 72
     1
 10
3349.259776622766
 20
2161.433096660828
 11
3354.857852834119
 21
2164.665147468398
 72
     1
 10
3354.857852834119
 20
2164.665147468398
 11
3353.857852834118
 21
2166.397198275966
 97
        0
 75
     0
 76
     0
 52
44.99999999999999
 41
3.0
 77
     0
 78
     1
 53
45.0
 43
3381.824724819225
 44
2301.523163770341
 45
-2.121320343559641
 46
2.121320343559641
 79
     0
 98
        1
 10
3381.824724819225
 20
2301.523163770341
1001
ACME_LAYERS
1000
1
  0
HATCH
  5
288C
330
1F
100
AcDbEntity
  8
P-0000
  6
Continuous
 62
     3
100
AcDbHatch
 10
0.0
 20
0.0
 30
0.0
210
0.0
220
0.0
230
1.0
  2
_U
 70
     0
 71
     0
 91
        1
 92
        1
 93
       19
 72
     2
 10
3308.700998584625
 20
2164.897198275966
 40
2.0
 50
270.0
 51
315.0000000000351
 73
     1
 72
     1
 10
3310.115212147001
 20
2163.482984713593
 11
3310.357852834119
 21
2163.725625400712
 72
     2
 10
3313.186279958865
 20
2160.897198275966
 40
4.0
 50
224.9999999999992
 51
269.9999999999739
 73
     0
 72
     1
 10
3313.186279958863
 20
2164.897198275966
 11
3315.623882672091
 21
2164.897198275966
 72
     1
 10
3315.623882672091
 20
2164.897198275966
 11
3317.034211200951
 21
2164.897198275966
 72
     1
 10
3317.034211200951
 20
2164.897198275966
 11
3319.85785283412
 21
2164.897198275966
 72
     1
 10
3319.85785283412
 20
2164.897198275966
 11
3319.85785283412
 21
2162.897198275966
 72
     1
 10
3319.85785283412
 20
2162.897198275966
 11
3313.186279958865
 21
2162.897198275966
 72
     1
 10
3313.186279958865
 20
2162.897198275966
 11
3312.357852834118
 21
2162.897198275966
 72
     1
 10
3312.357852834118
 20
2162.897198275966
 11
3311.772066396492
 21
2162.311411838339
 72
     1
 10
3311.772066396492
 20
2162.311411838339
 11
3311.529425709372
 21
2162.068771151221
 72
     2
 10
3308.700998584625
 20
2164.897198275966
 40
4.0
 50
44.99999999998212
 51
90.00000000000001
 73
     0
 72
     1
 10
3308.700998584625
 20
2160.897198275966
 11
3302.455929045474
 21
2160.897198275966
 72
     2
 10
3302.455929045474
 20
2164.897198275966
 40
4.000000000000401
 50
90.00000000000001
 51
119.9999999999967
 73
     0
 72
     1
 10
3300.455929045473
 20
2161.433096660828
 11
3294.85785283412
 21
2164.665147468398
 72
     1
 10
3294.85785283412
 20
2164.665147468398
 11
3295.85785283412
 21
2166.397198275966
 72
     1
 10
3295.85785283412
 20
2166.397198275966
 11
3301.455929045474
 21
2163.165147468398
 72
     2
 10
3302.455929045474
 20
2164.897198275966
 40
1.999999999999425
 50
239.9999999999905
 51
270.0
 73
     1
 72
     1
 10
3302.455929045474
 20
2162.897198275966
 11
3308.700998584625
 21
2162.897198275966
 97
        0
 75
     0
 76
     0
 52
44.99999999999999
 41
5.0
 77
     0
 78
     1
 53
45.0
 43
3381.824724819225
 44
2301.523163770341
 45
-3.535533905932736
 46
3.535533905932738
 79
     0
 98
        1
 10
3381.824724819225
 20
2301.523163770341
1001
ACME_LAYERS
1000
1
  0
LINE
  5
288D
330
1F
100
AcDbEntity
  8
0
100
AcDbLine
 10
3320.857852834119
 20
2160.897198275966
 30
0.0
 11
3320.857852834119
 21
2166.887751160922
 31
0.0
  0
LINE
  5
2896
330
1F
100
AcDbEntity
  8
P-0000
  6
Continuous
 62
     7
100
AcDbLine
 10
3562.375310071832
 20
2166.397198275966
 30
0.0
 11
3552.375310071833
 21
2166.397198275966
 31
0.0
1001
ACME_LAYERS
1000
1
  0
LINE
  5
2899
330
1F
100
AcDbEntity
  8
P-0000
  6
Continuous
 62
     7
100
AcDbLine
 10
3347.224995199662
 20
2160.897198275966
 30
0.0
 11
3340.979925660508
 21
2160.897198275966
 31
0.0
1001
ACME_LAYERS
1000
1
  0
LINE
  5
289A
330
1F
100
AcDbEntity
  8
P-0000
  6
Continuous
 62
     7
100
AcDbLine
 10
3302.455929045474
 20
2160.897198275966
 30
0.0
 11
3308.700998584627
 21
2160.897198275966
 31
0.0
1001
ACME_LAYERS
1000
1
  0
LINE
  5
289B
330
1F
100
AcDbEntity
  8
P-0000
  6
Continuous
 62
     7
100
AcDbLine
 10
3347.259776622768
 20
2160.897198275966
 30
0.0
 11
3341.014707083614
 21
2160.897198275966
 31
0.0
1001
ACME_LAYERS
1000
1
  0
LINE
  5
28A3
330
1F
100
AcDbEntity
  8
0
100
AcDbLine
 10
3320.801316390028
 20
2164.897198275966
 30
0.0
 11
3320.801316390028
 21
2151.691278371022
 31
0.0
  0
LINE
  5
28A4
330
1F
100
AcDbEntity
  8
0
100
AcDbLine
 10
3328.801316390028
 20
2164.897198275966
 30
0.0
 11
3328.801316390028
 21
2151.691278371022
 31
0.0
  0
LINE
  5
28AD
330
1F
100
AcDbEntity
  8
P-0000
  6
Continuous
 62
     7
100
AcDbLine
 10
3525.116581452977
 20
2149.691278371019
 30
0.0
 11
3511.465331372241
 21
2149.691278371031
 31
0.0
1001
ACME_LAYERS
1000
1
  0
LINE
  5
28B0
330
1F
100
AcDbEntity
  8
P-0000
  6
Continuous
 62
     7
100
AcDbLine
 10
3525.438294725218
 20
2155.691278371023
 30
0.0
 11
3488.116581452978
 21
2155.691278371023
 31
0.0
1001
ACME_LAYERS
1000
1
  0
HATCH
  5
28B1
330
1F
100
AcDbEntity
  8
P-0000
  6
Continuous
 62
     3
100
AcDbHatch
 10
0.0
 20
0.0
 30
0.0
210
0.0
220
0.0
230
1.0
  2
_U
 70
     0
 71
     0
 91
        1
 92
        1
 93
        9
 72
     1
 10
3606.160091494943
 20
2149.691278371022
 11
3607.160091494943
 21
2151.423329178593
 72
     1
 10
3607.160091494943
 20
2151.423329178592
 11
3602.794633255034
 21
2153.943727668537
 72
     2
 10
3600.794633255034
 20
2150.479626053401
 40
4.0
 50
419.9999999999893
 51
450.0
 73
     1
 72
     2
 10
3600.794633255034
 20
2150.479626053401
 40
4.000000000000613
 50
450.0
 51
495.0000000000009
 73
     1
 72
     1
 10
3597.966206130287
 20
2153.308053178148
 11
3597.263644885535
 21
2152.605491933395
 72
     1
 10
3597.263644885535
 20
2152.605491933396
 11
3598.677858447909
 21
2151.191278371022
 72
     1
 10
3598.677858447909
 20
2151.191278371022
 11
3599.380419692661
 21
2151.893839615774
 72
     2
 10
3600.794633255034
 20
2150.479626053401
 40
2.000000000000115
 50
-135.000000000004
 51
-59.99999999999011
 73
     0
 72
     1
 10
3601.794633255035
 20
2152.21167686097
 11
3606.160091494942
 21
2149.691278371022
 97
        0
 75
     0
 76
     0
 52
44.99999999999999
 41
2.0
 77
     0
 78
     1
 53
135.0
 43
3289.356139951711
 44
2015.800413337458
 45
1.414213562373094
 46
1.414213562373094
 79
     0
 98
        1
 10
3289.356139951711
 20
2015.800413337458
1001
ACME_LAYERS
1000
1
  0
LINE
  5
28B2
330
1F
100
AcDbEntity
  8
P-0000
  6
Continuous
 62
     3
100
AcDbLine
 10
3607.160091494943
 20
2151.423329178592
 30
0.0
 11
3602.794633255034
 21
2153.943727668537
 31
0.0
1001
ACME_LAYERS
1000
1
  0
LINE
  5
28B3
330
1F
100
AcDbEntity
  8
P-0000
  6
Continuous
 62
     7
100
AcDbLine
 10
3606.160091494943
 20
2149.691278371022
 30
0.0
 11
3601.794633255035
 21
2152.21167686097
 31
0.0
1001
ACME_LAYERS
1000
1
  0
LINE
  5
28B4
330
1F
100
AcDbEntity
  8
P-0000
  6
Continuous
 62
     7
100
AcDbLine
 10
3606.160091494943
 20
2149.691278371022
 30
0.0
 11
3601.794633255035
 21
2152.21167686097
 31
0.0
1001
ACME_LAYERS
1000
1
  0
LINE
  5
28B5
330
1F
100
AcDbEntity
  8
P-0000
  6
Continuous
 62
     7
100
AcDbLine
 10
3606.160091494943
 20
2149.691278371022
 30
0.0
 11
3581.588294725218
 21
2149.691278371022
 31
0.0
1001
ACME_LAYERS
1000
1
  0
LINE
  5
28B6
330
1F
100
AcDbEntity
  8
P-0000
  6
Continuous
 62
     7
100
AcDbLine
 10
3606.160091494943
 20
2149.691278371022
 30
0.0
 11
3607.160091494943
 21
2151.423329178592
 31
0.0
1001
ACME_LAYERS
1000
1
  0
LINE
  5
28B7
330
1F
100
AcDbEntity
  8
P-0000
  6
Continuous
 62
     7
100
AcDbLine
 10
3581.588294725218
 20
2149.691278371022
 30
0.0
 11
3543.616581452964
 21
2149.691278371019
 31
0.0
1001
ACME_LAYERS
1000
1
  0
LINE
  5
28BB
330
1F
100
AcDbEntity
  8
P-0000
  6
Continuous
 62
     7
100
AcDbLine
 10
3561.366581452984
 20
2151.691278371022
 30
0.0
 11
3553.410091494944
 21
2151.691278371022
 31
0.0
1001
ACME_LAYERS
1000
1
  0
ARC
  5
28C1
330
1F
100
AcDbEntity
  8
P-0000
  6
Continuous
 62
     7
100
AcDbCircle
 10
3581.588294725218
 20
2153.691278371022
 30
0.0
 40
1.999999999999253
100
AcDbArc
 50
270.0
 51
300.0000000000268
1001
ACME_LAYERS
1000
1
  0
ARC
  5
28C2
330
1F
100
AcDbEntity
  8
P-0000
  6
Continuous
 62
     7
100
AcDbCircle
 10
3581.588294725218
 20
2153.691278371022
 30
0.0
 40
4.000000000000131
100
AcDbArc
 50
270.0
 51
300.0000000000012
1001
ACME_LAYERS
1000
1
  0
LINE
  5
28C3
330
1F
100
AcDbEntity
  8
P-0000
  6
Continuous
 62
     7
100
AcDbLine
 10
3581.310091494942
 20
2151.691278371022
 30
0.0
 11
3587.078040687373
 21
2155.021405389944
 31
0.0
1001
ACME_LAYERS
1000
1
  0
LINE
  5
28C4
330
1F
100
AcDbEntity
  8
P-0000
  6
Continuous
 62
     7
100
AcDbLine
 10
3587.025549734852
 20
2152.21167686097
 30
0.0
 11
3583.588294725219
 21
2150.227176755884
 31
0.0
1001
ACME_LAYERS
1000
1
  0
LINE
  5
28C5
330
1F
100
AcDbEntity
  8
P-0000
  6
Continuous
 62
     7
100
AcDbLine
 10
3597.263644885535
 20
2152.605491933396
 30
0.0
 11
3591.55653810435
 21
2152.605491933396
 31
0.0
1001
ACME_LAYERS
1000
1
  0
LINE
  5
28C6
330
1F
100
AcDbEntity
  8
P-0000
  6
Continuous
 62
     7
100
AcDbLine
 10
3598.677858447909
 20
2151.191278371022
 30
0.0
 11
3590.142324541977
 21
2151.191278371022
 31
0.0
1001
ACME_LAYERS
1000
1
  0
LINE
  5
28C7
330
1F
100
AcDbEntity
  8
P-0000
  6
Continuous
 62
     7
100
AcDbLine
 10
3598.428040687372
 20
2155.691278371023
 30
0.0
 11
3589.578040687374
 21
2155.691278371023
 31
0.0
1001
ACME_LAYERS
1000
1
  0
LINE
  5
28C8
330
1F
100
AcDbEntity
  8
P-0000
  6
Continuous
 62
     7
100
AcDbLine
 10
3600.794633255034
 20
2154.479626053401
 30
0.0
 11
3588.025549734851
 21
2154.479626053401
 31
0.0
1001
ACME_LAYERS
1000
1
  0
ARC
  5
28C9
330
1F
100
AcDbEntity
  8
P-0000
  6
Continuous
 62
     7
100
AcDbCircle
 10
3598.428040687374
 20
2150.691278371022
 30
0.0
 40
5.0
100
AcDbArc
 50
59.99999999999875
 51
90.00000000002605
1001
ACME_LAYERS
1000
1
  0
ARC
  5
28CA
330
1F
100
AcDbEntity
  8
P-0000
  6
Continuous
 62
     7
100
AcDbCircle
 10
3600.794633255034
 20
2150.479626053401
 30
0.0
 40
4.000000000000613
100
AcDbArc
 50
90.0
 51
135.0000000000069
1001
ACME_LAYERS
1000
1
  0
LINE
  5
28CB
330
1F
100
AcDbEntity
  8
P-0000
  6
Continuous
 62
     7
100
AcDbLine
 10
3599.380419692661
 20
2151.893839615774
 30
0.0
 11
3598.677858447909
 21
2151.191278371022
 31
0.0
1001
ACME_LAYERS
1000
1
  0
ARC
  5
28CC
330
1F
100
AcDbEntity
  8
P-0000
  6
Continuous
 62
     7
100
AcDbCircle
 10
3600.794633255034
 20
2150.479626053401
 30
0.0
 40
4.0
100
AcDbArc
 50
59.99999999997321
 51
90.0
1001
ACME_LAYERS
1000
1
  0
LINE
  5
28CD
330
1F
100
AcDbEntity
  8
P-0000
  6
Continuous
 62
     7
100
AcDbLine
 10
3602.794633255034
 20
2153.943727668537
 30
0.0
 11
3600.928040687375
 21
2155.021405389944
 31
0.0
1001
ACME_LAYERS
1000
1
  0
ARC
  5
28CE
330
1F
100
AcDbEntity
  8
P-0000
  6
Continuous
 62
     7
100
AcDbCircle
 10
3600.794633255034
 20
2150.479626053401
 30
0.0
 40
2.000000000000115
100
AcDbArc
 50
59.99999999997321
 51
135.0000000000092
1001
ACME_LAYERS
1000
1
  0
LINE
  5
28CF
330
1F
100
AcDbEntity
  8
P-0000
  6
Continuous
 62
     7
100
AcDbLine
 10
3597.263644885535
 20
2152.605491933396
 30
0.0
 11
3598.677858447909
 21
2151.191278371022
 31
0.0
1001
ACME_LAYERS
1000
1
  0
LINE
  5
28D0
330
1F
100
AcDbEntity
  8
P-0000
  6
Continuous
 62
     7
100
AcDbLine
 10
3597.966206130287
 20
2153.308053178148
 30
0.0
 11
3597.263644885535
 21
2152.605491933396
 31
0.0
1001
ACME_LAYERS
1000
1
  0
ARC
  5
28D1
330
1F
100
AcDbEntity
  8
P-0000
  6
Continuous
 62
     7
100
AcDbCircle
 10
3588.025549734851
 20
2150.479626053401
 30
0.0
 40
1.999999999999401
100
AcDbArc
 50
44.99999999999078
 51
120.0000000000268
1001
ACME_LAYERS
1000
1
  0
ARC
  5
28D2
330
1F
100
AcDbEntity
  8
P-0000
  6
Continuous
 62
     7
100
AcDbCircle
 10
3589.578040687374
 20
2150.691278371022
 30
0.0
 40
5.000000000000164
100
AcDbArc
 50
90.0
 51
120.0000000000012
1001
ACME_LAYERS
1000
1
  0
ARC
  5
28D3
330
1F
100
AcDbEntity
  8
P-0000
  6
Continuous
 62
     7
100
AcDbCircle
 10
3588.025549734851
 20
2150.479626053401
 30
0.0
 40
1.999999999999401
100
AcDbArc
 50
44.99999999999078
 51
120.0000000000268
1001
ACME_LAYERS
1000
1
  0
ARC
  5
28D4
330
1F
100
AcDbEntity
  8
P-0000
  6
Continuous
 62
     7
100
AcDbCircle
 10
3588.025549734851
 20
2150.479626053401
 30
0.0
 40
3.999999999998728
100
AcDbArc
 50
90.0
 51
120.0000000000268
1001
ACME_LAYERS
1000
1
  0
ARC
  5
28D5
330
1F
100
AcDbEntity
  8
P-0000
  6
Continuous
 62
     7
100
AcDbCircle
 10
3588.025549734851
 20
2150.479626053401
 30
0.0
 40
4.0
100
AcDbArc
 50
44.99999999999309
 51
90.0
1001
ACME_LAYERS
1000
1
  0
LINE
  5
28D6
330
1F
100
AcDbEntity
  8
P-0000
  6
Continuous
 62
     7
100
AcDbLine
 10
3591.55653810435
 20
2152.605491933396
 30
0.0
 11
3590.853976859597
 21
2153.308053178148
 31
0.0
1001
ACME_LAYERS
1000
1
  0
LINE
  5
28D7
330
1F
100
AcDbEntity
  8
P-0000
  6
Continuous
 62
     7
100
AcDbLine
 10
3590.142324541977
 20
2151.191278371022
 30
0.0
 11
3589.439763297225
 21
2151.893839615774
 31
0.0
1001
ACME_LAYERS
1000
1
  0
LINE
  5
28D8
330
1F
100
AcDbEntity
  8
P-0000
  6
Continuous
 62
     7
100
AcDbLine
 10
3590.142324541977
 20
2151.191278371022
 30
0.0
 11
3591.55653810435
 21
2152.605491933396
 31
0.0
1001
ACME_LAYERS
1000
1
  0
LINE
  5
28D9
330
1F
100
AcDbEntity
  8
P-0000
  6
Continuous
 62
     7
100
AcDbLine
 10
3586.025549734851
 20
2153.943727668537
 30
0.0
 11
3582.588294725218
 21
2151.959227563454
 31
0.0
1001
ACME_LAYERS
1000
1
  0
LINE
  5
28DA
330
1F
100
AcDbEntity
  8
P-0000
  6
Continuous
 62
     7
100
AcDbLine
 10
3581.310091494942
 20
2151.691278371022
 30
0.0
 11
3561.366581452984
 21
2151.691278371022
 31
0.0
1001
ACME_LAYERS
1000
1
  0
LINE
  5
28DB
330
1F
100
AcDbEntity
  8
P-0000
  6
Continuous
 62
     7
100
AcDbLine
 10
3581.310091494942
 20
2151.691278371022
 30
0.0
 11
3581.588294725218
 21
2151.691278371022
 31
0.0
1001
ACME_LAYERS
1000
1
  0
LINE
  5
28DC
330
1F
100
AcDbEntity
  8
P-0000
  6
Continuous
 62
     3
100
AcDbLine
 10
3560.631846515923
 20
2166.397198275966
 30
0.0
 11
3560.631846515924
 21
2151.691278371022
 31
0.0
1001
ACME_LAYERS
1000
1
  0
LINE
  5
28DD
330
1F
100
AcDbEntity
  8
P-0000
  6
Continuous
 62
     7
100
AcDbLine
 10
3561.431846515926
 20
2164.897198275966
 30
0.0
 11
3561.431846515926
 21
2160.897198275966
 31
0.0
1001
ACME_LAYERS
1000
1
  0
LINE
  5
28DF
330
1F
100
AcDbEntity
  8
P-0000
  6
Continuous
 62
     3
100
AcDbLine
 10
3554.231846515923
 20
2166.397198275966
 30
0.0
 11
3554.231846515924
 21
2151.691278371022
 31
0.0
1001
ACME_LAYERS
1000
1
  0
LINE
  5
28E6
330
1F
100
AcDbEntity
  8
P-0000
  6
Continuous
 62
     7
100
AcDbLine
 10
3538.616581452979
 20
2149.691278371019
 30
0.0
 11
3525.116581452977
 21
2149.691278371019
 31
0.0
1001
ACME_LAYERS
1000
1
  0
LINE
  5
28E7
330
1F
100
AcDbEntity
  8
P-0000
  6
Continuous
 62
     7
100
AcDbLine
 10
3553.410091494944
 20
2151.691278371022
 30
0.0
 11
3533.974193110081
 21
2151.691278371022
 31
0.0
1001
ACME_LAYERS
1000
1
  0
LINE
  5
28E8
330
1F
100
AcDbEntity
  8
P-0000
  6
Continuous
 62
     7
100
AcDbLine
 10
3542.855378392889
 20
2149.691278371022
 30
0.0
 11
3533.974193110081
 21
2149.691278371022
 31
0.0
1001
ACME_LAYERS
1000
1
  0
LINE
  5
28E9
330
1F
100
AcDbEntity
  8
P-0000
  6
Continuous
 62
     7
100
AcDbLine
 10
3553.431846515924
 20
2164.897198275966
 30
0.0
 11
3553.431846515924
 21
2160.897198275966
 31
0.0
1001
ACME_LAYERS
1000
1
  0
LINE
  5
28EA
330
1F
100
AcDbEntity
  8
P-0000
  6
Continuous
 62
     7
100
AcDbLine
 10
3543.616581452964
 20
2149.691278371019
 30
0.0
 11
3542.855378392889
 21
2149.691278371022
 31
0.0
1001
ACME_LAYERS
1000
1
  0
LINE
  5
28EB
330
1F
100
AcDbEntity
  8
P-0000
  6
Continuous
 62
     7
100
AcDbLine
 10
3531.974193110082
 20
2150.227176755884
 30
0.0
 11
3526.438294725217
 21
2153.423329178592
 31
0.0
1001
ACME_LAYERS
1000
1
  0
LINE
  5
28EC
330
1F
100
AcDbEntity
  8
P-0000
  6
Continuous
 62
     7
100
AcDbLine
 10
3525.438294725218
 20
2153.691278371022
 30
0.0
 11
3523.554372922461
 21
2153.691278371022
 31
0.0
1001
ACME_LAYERS
1000
1
  0
LINE
  5
28ED
330
1F
100
AcDbEntity
  8
P-0000
  6
Continuous
 62
     7
100
AcDbLine
 10
3532.974193110081
 20
2151.959227563452
 30
0.0
 11
3527.438294725218
 21
2155.15537998616
 31
0.0
1001
ACME_LAYERS
1000
1
  0
ARC
  5
28EE
330
1F
100
AcDbEntity
  8
P-0000
  6
Continuous
 62
     7
100
AcDbCircle
 10
3533.974193110081
 20
2153.691278371022
 30
0.0
 40
2.0
100
AcDbArc
 50
239.9999999999732
 51
270.0
1001
ACME_LAYERS
1000
1
  0
ARC
  5
28EF
330
1F
100
AcDbEntity
  8
P-0000
  6
Continuous
 62
     7
100
AcDbCircle
 10
3525.438294725218
 20
2151.691278371022
 30
0.0
 40
4.0
100
AcDbArc
 50
59.99999999999875
 51
90.0
1001
ACME_LAYERS
1000
1
  0
ARC
  5
28F0
330
1F
100
AcDbEntity
  8
P-0000
  6
Continuous
 62
     7
100
AcDbCircle
 10
3525.438294725218
 20
2151.691278371022
 30
0.0
 40
2.0
100
AcDbArc
 50
60.00000000002501
 51
90.0
1001
ACME_LAYERS
1000
1
  0
ARC
  5
28F1
330
1F
100
AcDbEntity
  8
P-0000
  6
Continuous
 62
     7
100
AcDbCircle
 10
3533.974193110081
 20
2153.691278371022
 30
0.0
 40
4.0
100
AcDbArc
 50
239.9999999999987
 51
270.0
1001
ACME_LAYERS
1000
1
  0
LINE
  5
28F2
330
1F
100
AcDbEntity
  8
P-0000
  6
Continuous
 62
     7
100
AcDbLine
 10
3480.486899639441
 20
2155.691278371023
 30
0.0
 11
3441.116581452976
 21
2155.691278371023
 31
0.0
1001
ACME_LAYERS
1000
1
  0
LINE
  5
28F3
330
1F
100
AcDbEntity
  8
P-0000
  6
Continuous
 62
     7
100
AcDbLine
 10
3488.116581452978
 20
2155.691278371023
 30
0.0
 11
3441.116581452976
 21
2155.691278371023
 31
0.0
1001
ACME_LAYERS
1000
1
  0
LINE
  5
28F5
330
1F
100
AcDbEntity
  8
P-0000
  6
Continuous
 62
     7
100
AcDbLine
 10
3507.620852769297
 20
2155.910810445153
 30
0.0
 11
3507.616581452984
 21
2155.894646692562
 31
0.0
1001
ACME_LAYERS
1000
1
  0
LINE
  5
28FB
330
1F
100
AcDbEntity
  8
P-0000
  6
Continuous
 62
     7
100
AcDbLine
 10
3553.375310071834
 20
2166.397198275966
 30
0.0
 11
3553.375310071834
 21
2160.897198275966
 31
0.0
1001
ACME_LAYERS
1000
1
  0
LINE
  5
28FD
330
1F
100
AcDbEntity
  8
P-0000
  6
Continuous
 62
     7
100
AcDbLine
 10
3574.875310071824
 20
2166.397198275966
 30
0.0
 11
3561.375310071833
 21
2166.397198275966
 31
0.0
1001
ACME_LAYERS
1000
1
  0
LINE
  5
28FE
330
1F
100
AcDbEntity
  8
P-0000
  6
Continuous
 62
     7
100
AcDbLine
 10
3569.046882947088
 20
2164.897198275966
 30
0.0
 11
3566.609280233861
 21
2164.897198275966
 31
0.0
1001
ACME_LAYERS
1000
1
  0
LINE
  5
28FF
330
1F
100
AcDbEntity
  8
P-0000
  6
Continuous
 62
     7
100
AcDbLine
 10
3441.12531007184
 20
2166.397198275966
 30
0.0
 11
3528.375310071833
 21
2166.397198275966
 31
0.0
1001
ACME_LAYERS
1000
1
  0
LINE
  5
2900
330
1F
100
AcDbEntity
  8
P-0000
  6
Continuous
 62
     7
100
AcDbLine
 10
3569.046882947088
 20
2164.897198275966
 30
0.0
 11
3566.609280233861
 21
2164.897198275966
 31
0.0
1001
ACME_LAYERS
1000
1
  0
LINE
  5
2901
330
1F
100
AcDbEntity
  8
P-0000
  6
Continuous
 62
     7
100
AcDbLine
 10
3566.609280233861
 20
2164.897198275966
 30
0.0
 11
3565.198951705002
 21
2164.897198275966
 31
0.0
1001
ACME_LAYERS
1000
1
  0
LINE
  5
2902
330
1F
100
AcDbEntity
  8
P-0000
  6
Continuous
 62
     7
100
AcDbLine
 10
3566.609280233861
 20
2164.897198275966
 30
0.0
 11
3565.198951705002
 21
2164.897198275966
 31
0.0
1001
ACME_LAYERS
1000
1
  0
LINE
  5
2903
330
1F
100
AcDbEntity
  8
P-0000
  6
Continuous
 62
     7
100
AcDbLine
 10
3441.125310071836
 20
2164.665147468398
 30
0.0
 11
3527.375310071833
 21
2164.665147468398
 31
0.0
1001
ACME_LAYERS
1000
1
  0
LINE
  5
2904
330
1F
100
AcDbEntity
  8
P-0000
  6
Continuous
 62
     7
100
AcDbLine
 10
3528.375310071833
 20
2166.397198275966
 30
0.0
 11
3533.973386283185
 21
2163.165147468398
 31
0.0
1001
ACME_LAYERS
1000
1
  0
LINE
  5
2905
330
1F
100
AcDbEntity
  8
P-0000
  6
Continuous
 62
     7
100
AcDbLine
 10
3553.375310071834
 20
2166.397198275966
 30
0.0
 11
3528.375310071833
 21
2166.397198275966
 31
0.0
1001
ACME_LAYERS
1000
1
  0
LINE
  5
2906
330
1F
100
AcDbEntity
  8
P-0000
  6
Continuous
 62
     7
100
AcDbLine
 10
3527.375310071833
 20
2164.665147468398
 30
0.0
 11
3528.375310071833
 21
2166.397198275966
 31
0.0
1001
ACME_LAYERS
1000
1
  0
LINE
  5
2907
330
1F
100
AcDbEntity
  8
P-0000
  6
Continuous
 62
     7
100
AcDbLine
 10
3528.375310071833
 20
2166.397198275966
 30
0.0
 11
3528.447276234333
 21
2166.397198275966
 31
0.0
1001
ACME_LAYERS
1000
1
  0
LINE
  5
2908
330
1F
100
AcDbEntity
  8
P-0000
  6
Continuous
 62
     7
100
AcDbLine
 10
3565.198951705002
 20
2164.897198275966
 30
0.0
 11
3562.375310071832
 21
2164.897198275966
 31
0.0
1001
ACME_LAYERS
1000
1
  0
LINE
  5
290A
330
1F
100
AcDbEntity
  8
P-0000
  6
Continuous
 62
     3
100
AcDbLine
 10
3580.31313224534
 20
2162.897198275966
 30
0.0
 11
3579.777233860479
 21
2162.897198275966
 31
0.0
1001
ACME_LAYERS
1000
1
  0
LINE
  5
290B
330
1F
100
AcDbEntity
  8
P-0000
  6
Continuous
 62
     3
100
AcDbLine
 10
3580.777233860479
 20
2163.165147468398
 30
0.0
 11
3580.31313224534
 21
2162.897198275966
 31
0.0
1001
ACME_LAYERS
1000
1
  0
LINE
  5
290C
330
1F
100
AcDbEntity
  8
P-0000
  6
Continuous
 62
     7
100
AcDbLine
 10
3542.875310071833
 20
2163.725625400712
 30
0.0
 11
3542.632669384713
 21
2163.482984713593
 31
0.0
1001
ACME_LAYERS
1000
1
  0
LINE
  5
290D
330
1F
100
AcDbEntity
  8
P-0000
  6
Continuous
 62
     7
100
AcDbLine
 10
3571.875310071833
 20
2163.725625400712
 30
0.0
 11
3572.117950758951
 21
2163.482984713593
 31
0.0
1001
ACME_LAYERS
1000
1
  0
LINE
  5
290E
330
1F
100
AcDbEntity
  8
P-0000
  6
Continuous
 62
     7
100
AcDbLine
 10
3562.375310071832
 20
2164.897198275966
 30
0.0
 11
3562.375310071832
 21
2162.897198275966
 31
0.0
1001
ACME_LAYERS
1000
1
  0
LINE
  5
290F
330
1F
100
AcDbEntity
  8
P-0000
  6
Continuous
 62
     7
100
AcDbLine
 10
3552.375310071833
 20
2164.897198275966
 30
0.0
 11
3552.375310071833
 21
2162.897198275966
 31
0.0
1001
ACME_LAYERS
1000
1
  0
LINE
  5
2910
330
1F
100
AcDbEntity
  8
P-0000
  6
Continuous
 62
     7
100
AcDbLine
 10
3587.375310071831
 20
2164.665147468398
 30
0.0
 11
3586.375310071833
 21
2166.397198275966
 31
0.0
1001
ACME_LAYERS
1000
1
  0
LINE
  5
2911
330
1F
100
AcDbEntity
  8
P-0000
  6
Continuous
 62
     7
100
AcDbLine
 10
3587.375310071831
 20
2164.665147468398
 30
0.0
 11
3581.777233860479
 21
2161.433096660828
 31
0.0
1001
ACME_LAYERS
1000
1
  0
LINE
  5
2912
330
1F
100
AcDbEntity
  8
P-0000
  6
Continuous
 62
     7
100
AcDbLine
 10
3586.375310071833
 20
2166.397198275966
 30
0.0
 11
3580.777233860479
 21
2163.165147468398
 31
0.0
1001
ACME_LAYERS
1000
1
  0
LINE
  5
2913
330
1F
100
AcDbEntity
  8
P-0000
  6
Continuous
 62
     7
100
AcDbLine
 10
3570.46109650946
 20
2162.311411838339
 30
0.0
 11
3570.70373719658
 21
2162.068771151221
 31
0.0
1001
ACME_LAYERS
1000
1
  0
LINE
  5
2914
330
1F
100
AcDbEntity
  8
P-0000
  6
Continuous
 62
     7
100
AcDbLine
 10
3544.289523634206
 20
2162.311411838339
 30
0.0
 11
3544.046882947086
 21
2162.068771151221
 31
0.0
1001
ACME_LAYERS
1000
1
  0
LINE
  5
2915
330
1F
100
AcDbEntity
  8
P-0000
  6
Continuous
 62
     7
100
AcDbLine
 10
3527.375310071833
 20
2164.665147468398
 30
0.0
 11
3532.973386283185
 21
2161.433096660828
 31
0.0
1001
ACME_LAYERS
1000
1
  0
LINE
  5
2916
330
1F
100
AcDbEntity
  8
P-0000
  6
Continuous
 62
     7
100
AcDbLine
 10
3534.973386283185
 20
2160.897198275966
 30
0.0
 11
3441.125310071836
 21
2160.897198275966
 31
0.0
1001
ACME_LAYERS
1000
1
  0
LINE
  5
2917
330
1F
100
AcDbEntity
  8
P-0000
  6
Continuous
 62
     7
100
AcDbLine
 10
3534.973386283185
 20
2162.897198275966
 30
0.0
 11
3541.21845582234
 21
2162.897198275966
 31
0.0
1001
ACME_LAYERS
1000
1
  0
LINE
  5
2918
330
1F
100
AcDbEntity
  8
P-0000
  6
Continuous
 62
     7
100
AcDbLine
 10
3534.973386283185
 20
2160.897198275966
 30
0.0
 11
3541.21845582234
 21
2160.897198275966
 31
0.0
1001
ACME_LAYERS
1000
1
  0
LINE
  5
2919
330
1F
100
AcDbEntity
  8
P-0000
  6
Continuous
 62
     7
100
AcDbLine
 10
3579.777233860479
 20
2160.897198275966
 30
0.0
 11
3573.532164321327
 21
2160.897198275966
 31
0.0
1001
ACME_LAYERS
1000
1
  0
LINE
  5
291A
330
1F
100
AcDbEntity
  8
P-0000
  6
Continuous
 62
     7
100
AcDbLine
 10
3562.375310071832
 20
2164.897198275966
 30
0.0
 11
3561.375310071833
 21
2164.897198275966
 31
0.0
1001
ACME_LAYERS
1000
1
  0
LINE
  5
291B
330
1F
100
AcDbEntity
  8
P-0000
  6
Continuous
 62
     7
100
AcDbLine
 10
3565.198951705002
 20
2164.897198275966
 30
0.0
 11
3562.375310071832
 21
2164.897198275966
 31
0.0
1001
ACME_LAYERS
1000
1
  0
LINE
  5
291C
330
1F
100
AcDbEntity
  8
P-0000
  6
Continuous
 62
     7
100
AcDbLine
 10
3552.375310071833
 20
2164.897198275966
 30
0.0
 11
3545.70373719658
 21
2164.897198275966
 31
0.0
1001
ACME_LAYERS
1000
1
  0
LINE
  5
291D
330
1F
100
AcDbEntity
  8
P-0000
  6
Continuous
 62
     7
100
AcDbLine
 10
3553.375310071834
 20
2162.897198275966
 30
0.0
 11
3545.70373719658
 21
2162.897198275966
 31
0.0
1001
ACME_LAYERS
1000
1
  0
LINE
  5
291E
330
1F
100
AcDbEntity
  8
P-0000
  6
Continuous
 62
     7
100
AcDbLine
 10
3569.046882947086
 20
2162.897198275966
 30
0.0
 11
3561.431846515926
 21
2162.897198275966
 31
0.0
1001
ACME_LAYERS
1000
1
  0
LINE
  5
291F
330
1F
100
AcDbEntity
  8
P-0000
  6
Continuous
 62
     7
100
AcDbLine
 10
3553.375310071834
 20
2164.897198275966
 30
0.0
 11
3552.375310071833
 21
2164.897198275966
 31
0.0
1001
ACME_LAYERS
1000
1
  0
LINE
  5
2920
330
1F
100
AcDbEntity
  8
P-0000
  6
Continuous
 62
     7
100
AcDbLine
 10
3579.777233860479
 20
2162.897198275966
 30
0.0
 11
3573.532164321327
 21
2162.897198275966
 31
0.0
1001
ACME_LAYERS
1000
1
  0
LINE
  5
2921
330
1F
100
AcDbEntity
  8
P-0000
  6
Continuous
 62
     7
100
AcDbLine
 10
3547.375310071833
 20
2164.897198275966
 30
0.0
 11
3552.375310071833
 21
2164.897198275966
 31
0.0
1001
ACME_LAYERS
1000
1
  0
LINE
  5
2922
330
1F
100
AcDbEntity
  8
P-0000
  6
Continuous
 62
     7
100
AcDbLine
 10
3552.375310071833
 20
2164.897198275966
 30
0.0
 11
3553.375310071834
 21
2164.897198275966
 31
0.0
1001
ACME_LAYERS
1000
1
  0
LINE
  5
2923
330
1F
100
AcDbEntity
  8
P-0000
  6
Continuous
 62
     7
100
AcDbLine
 10
3586.375310071833
 20
2166.397198275966
 30
0.0
 11
3574.875310071824
 21
2166.397198275966
 31
0.0
1001
ACME_LAYERS
1000
1
  0
LINE
  5
2924
330
1F
100
AcDbEntity
  8
P-0000
  6
Continuous
 62
     7
100
AcDbLine
 10
3565.821008185254
 20
2164.897198275966
 30
0.0
 11
3561.375310071833
 21
2164.897198275966
 31
0.0
1001
ACME_LAYERS
1000
1
  0
LINE
  5
2925
330
1F
100
AcDbEntity
  8
P-0000
  6
Continuous
 62
     7
100
AcDbLine
 10
3553.375310071834
 20
2164.897198275966
 30
0.0
 11
3552.375310071833
 21
2164.897198275966
 31
0.0
1001
ACME_LAYERS
1000
1
  0
LINE
  5
2937
330
1F
100
AcDbEntity
  8
P-0000
  6
Continuous
 62
     7
100
AcDbLine
 10
3441.116581452976
 20
2164.665147468398
 30
0.0
 11
3441.125310071836
 21
2164.665147468398
 31
0.0
1001
ACME_LAYERS
1000
1
  0
LINE
  5
2938
330
1F
100
AcDbEntity
  8
P-0000
  6
Continuous
 62
     7
100
AcDbLine
 10
3441.116581452976
 20
2160.897198275966
 30
0.0
 11
3441.125310071836
 21
2160.897198275966
 31
0.0
1001
ACME_LAYERS
1000
1
  0
LINE
  5
2939
330
1F
100
AcDbEntity
  8
P-0000
  6
Continuous
 62
     7
100
AcDbLine
 10
3562.875310071831
 20
2164.897198275967
 30
0.0
 11
3567.875310071833
 21
2164.897198275967
 31
0.0
1001
ACME_LAYERS
1000
1
  0
LINE
  5
293A
330
1F
100
AcDbEntity
  8
P-0000
  6
Continuous
 62
     7
100
AcDbLine
 10
3565.821008185254
 20
2166.397198275966
 30
0.0
 11
3561.375310071833
 21
2166.397198275966
 31
0.0
1001
ACME_LAYERS
1000
1
  0
LINE
  5
293B
330
1F
100
AcDbEntity
  8
P-0000
  6
Continuous
 62
     7
100
AcDbLine
 10
3552.375310071833
 20
2164.897198275966
 30
0.0
 11
3548.821008185254
 21
2164.897198275966
 31
0.0
1001
ACME_LAYERS
1000
1
  0
LINE
  5
293C
330
1F
100
AcDbEntity
  8
P-0000
  6
Continuous
 62
     7
100
AcDbLine
 10
3552.375310071833
 20
2164.897198275966
 30
0.0
 11
3552.875310071831
 21
2164.897198275967
 31
0.0
1001
ACME_LAYERS
1000
1
  0
LINE
  5
293D
330
1F
100
AcDbEntity
  8
P-0000
  6
Continuous
 62
     7
100
AcDbLine
 10
3548.821008185254
 20
2166.397198275966
 30
0.0
 11
3552.875310071831
 21
2166.397198275966
 31
0.0
1001
ACME_LAYERS
1000
1
  0
LINE
  5
293E
330
1F
100
AcDbEntity
  8
P-0000
  6
Continuous
 62
     7
100
AcDbLine
 10
3561.375310071833
 20
2164.897198275966
 30
0.0
 11
3562.375310071832
 21
2164.897198275966
 31
0.0
1001
ACME_LAYERS
1000
1
  0
LINE
  5
293F
330
1F
100
AcDbEntity
  8
P-0000
  6
Continuous
 62
     7
100
AcDbLine
 10
3545.70373719658
 20
2164.897198275966
 30
0.0
 11
3552.375310071833
 21
2164.897198275966
 31
0.0
1001
ACME_LAYERS
1000
1
  0
ARC
  5
2940
330
1F
100
AcDbEntity
  8
P-0000
  6
Continuous
 62
     7
100
AcDbCircle
 10
3573.532164321327
 20
2164.897198275966
 30
0.0
 40
4.0
100
AcDbArc
 50
224.9999999999908
 51
270.0
1001
ACME_LAYERS
1000
1
  0
ARC
  5
2941
330
1F
100
AcDbEntity
  8
P-0000
  6
Continuous
 62
     7
100
AcDbCircle
 10
3545.70373719658
 20
2160.897198275966
 30
0.0
 40
4.000000000000613
100
AcDbArc
 50
90.0
 51
134.9999999999816
1001
ACME_LAYERS
1000
1
  0
ARC
  5
2942
330
1F
100
AcDbEntity
  8
P-0000
  6
Continuous
 62
     7
100
AcDbCircle
 10
3541.21845582234
 20
2164.897198275966
 30
0.0
 40
3.999999999999423
100
AcDbArc
 50
270.0
 51
315.0000000000092
1001
ACME_LAYERS
1000
1
  0
ARC
  5
2943
330
1F
100
AcDbEntity
  8
P-0000
  6
Continuous
 62
     7
100
AcDbCircle
 10
3534.973386283185
 20
2164.897198275966
 30
0.0
 40
4.0
100
AcDbArc
 50
239.9999999999987
 51
270.0
1001
ACME_LAYERS
1000
1
  0
ARC
  5
294E
330
1F
100
AcDbEntity
  8
P-0000
  6
Continuous
 62
     7
100
AcDbCircle
 10
3534.973386283185
 20
2164.897198275966
 30
0.0
 40
2.0
100
AcDbArc
 50
239.9999999999732
 51
270.0
1001
ACME_LAYERS
1000
1
  0
ARC
  5
294F
330
1F
100
AcDbEntity
  8
P-0000
  6
Continuous
 62
     7
100
AcDbCircle
 10
3541.21845582234
 20
2164.897198275966
 30
0.0
 40
2.000000000000397
100
AcDbArc
 50
270.0
 51
314.9999999999816
1001
ACME_LAYERS
1000
1
  0
ARC
  5
2950
330
1F
100
AcDbEntity
  8
P-0000
  6
Continuous
 62
     7
100
AcDbCircle
 10
3545.70373719658
 20
2160.897198275966
 30
0.0
 40
2.000000000000311
100
AcDbArc
 50
90.0
 51
134.9999999999816
1001
ACME_LAYERS
1000
1
  0
ARC
  5
2951
330
1F
100
AcDbEntity
  8
P-0000
  6
Continuous
 62
     7
100
AcDbCircle
 10
3569.046882947086
 20
2160.897198275966
 30
0.0
 40
2.0
100
AcDbArc
 50
45.00000000001842
 51
90.0
1001
ACME_LAYERS
1000
1
  0
ARC
  5
2952
330
1F
100
AcDbEntity
  8
P-0000
  6
Continuous
 62
     7
100
AcDbCircle
 10
3573.532164321327
 20
2164.897198275966
 30
0.0
 40
2.0
100
AcDbArc
 50
224.9999999999816
 51
270.0
1001
ACME_LAYERS
1000
1
  0
ARC
  5
2953
330
1F
100
AcDbEntity
  8
P-0000
  6
Continuous
 62
     7
100
AcDbCircle
 10
3579.777233860479
 20
2164.897198275966
 30
0.0
 40
1.999999999999425
100
AcDbArc
 50
270.0
 51
300.0000000000268
1001
ACME_LAYERS
1000
1
  0
ARC
  5
2954
330
1F
100
AcDbEntity
  8
P-0000
  6
Continuous
 62
     7
100
AcDbCircle
 10
3579.777233860479
 20
2164.897198275966
 30
0.0
 40
4.000000000000401
100
AcDbArc
 50
270.0
 51
300.0000000000012
1001
ACME_LAYERS
1000
1
  0
ARC
  5
2955
330
1F
100
AcDbEntity
  8
P-0000
  6
Continuous
 62
     7
100
AcDbCircle
 10
3569.046882947086
 20
2160.897198275966
 30
0.0
 40
4.0
100
AcDbArc
 50
45.00000000001842
 51
89.99999999997395
1001
ACME_LAYERS
1000
1
  0
HATCH
  5
2956
330
1F
100
AcDbEntity
  8
P-0000
  6
Continuous
 62
     3
100
AcDbHatch
 10
0.0
 20
0.0
 30
0.0
210
0.0
220
0.0
230
1.0
  2
_U
 70
     0
 71
     0
 91
        1
 92
        1
 93
       19
 72
     1
 10
3528.375310071833
 20
2166.397198275966
 11
3533.973386283185
 21
2163.165147468398
 72
     1
 10
3533.973386283185
 20
2163.165147468398
 11
3534.437487898323
 21
2162.897198275966
 72
     1
 10
3534.437487898323
 20
2162.897198275966
 11
3534.973386283185
 21
2162.897198275966
 72
     1
 10
3534.973386283185
 20
2162.897198275966
 11
3541.21845582234
 21
2162.897198275966
 72
     1
 10
3541.21845582234
 20
2162.897198275966
 11
3542.046882947087
 21
2162.897198275966
 72
     1
 10
3542.046882947087
 20
2162.897198275966
 11
3542.632669384713
 21
2163.482984713593
 72
     1
 10
3542.632669384713
 20
2163.482984713593
 11
3542.875310071833
 21
2163.725625400712
 72
     2
 10
3545.70373719658
 20
2160.897198275966
 40
4.000000000000613
 50
-135.0000000000008
 51
-90.00000000000001
 73
     0
 72
     1
 10
3545.70373719658
 20
2164.897198275966
 11
3552.375310071833
 21
2164.897198275966
 72
     1
 10
3552.375310071833
 20
2164.897198275966
 11
3552.375310071833
 21
2162.897198275966
 72
     1
 10
3552.375310071833
 20
2162.897198275966
 11
3545.70373719658
 21
2162.897198275966
 72
     1
 10
3545.70373719658
 20
2162.897198275966
 11
3544.875310071833
 21
2162.897198275966
 72
     1
 10
3544.875310071833
 20
2162.897198275966
 11
3544.289523634206
 21
2162.311411838339
 72
     1
 10
3544.289523634206
 20
2162.311411838339
 11
3544.046882947086
 21
2162.068771151221
 72
     2
 10
3541.21845582234
 20
2164.897198275966
 40
3.999999999999423
 50
44.99999999998222
 51
90.0
 73
     0
 72
     1
 10
3541.21845582234
 20
2160.897198275966
 11
3534.973386283185
 21
2160.897198275966
 72
     2
 10
3534.973386283185
 20
2164.897198275966
 40
4.0
 50
90.0
 51
119.9999999999965
 73
     0
 72
     1
 10
3532.973386283185
 20
2161.433096660828
 11
3527.375310071833
 21
2164.665147468398
 72
     1
 10
3527.375310071833
 20
2164.665147468398
 11
3528.375310071833
 21
2166.397198275966
 97
        0
 75
     0
 76
     0
 52
44.99999999999999
 41
3.0
 77
     0
 78
     1
 53
135.0
 43
3500.408438086728
 44
2301.523163770341
 45
2.121320343559641
 46
2.121320343559641
 79
     0
 98
        1
 10
3500.408438086728
 20
2301.523163770341
1001
ACME_LAYERS
1000
1
  0
HATCH
  5
2957
330
1F
100
AcDbEntity
  8
P-0000
  6
Continuous
 62
     3
100
AcDbHatch
 10
0.0
 20
0.0
 30
0.0
210
0.0
220
0.0
230
1.0
  2
_U
 70
     0
 71
     0
 91
        1
 92
        1
 93
       19
 72
     2
 10
3573.532164321327
 20
2164.897198275966
 40
2.0
 50
90.0
 51
135.0000000000351
 73
     0
 72
     1
 10
3572.117950758951
 20
2163.482984713593
 11
3571.875310071833
 21
2163.725625400712
 72
     2
 10
3569.046882947086
 20
2160.897198275966
 40
4.0
 50
404.9999999999991
 51
449.9999999999738
 73
     1
 72
     1
 10
3569.046882947088
 20
2164.897198275966
 11
3566.609280233861
 21
2164.897198275966
 72
     1
 10
3566.609280233861
 20
2164.897198275966
 11
3565.198951705002
 21
2164.897198275966
 72
     1
 10
3565.198951705002
 20
2164.897198275966
 11
3562.375310071832
 21
2164.897198275966
 72
     1
 10
3562.375310071832
 20
2164.897198275966
 11
3562.375310071832
 21
2162.897198275966
 72
     1
 10
3562.375310071832
 20
2162.897198275966
 11
3569.046882947088
 21
2162.897198275966
 72
     1
 10
3569.046882947086
 20
2162.897198275966
 11
3569.875310071835
 21
2162.897198275966
 72
     1
 10
3569.875310071835
 20
2162.897198275966
 11
3570.46109650946
 21
2162.311411838339
 72
     1
 10
3570.46109650946
 20
2162.311411838339
 11
3570.70373719658
 21
2162.068771151221
 72
     2
 10
3573.532164321327
 20
2164.897198275966
 40
4.0
 50
224.9999999999821
 51
270.0
 73
     1
 72
     1
 10
3573.532164321327
 20
2160.897198275966
 11
3579.777233860479
 21
2160.897198275966
 72
     2
 10
3579.777233860479
 20
2164.897198275966
 40
4.000000000000401
 50
270.0
 51
299.9999999999967
 73
     1
 72
     1
 10
3581.777233860479
 20
2161.433096660828
 11
3587.375310071831
 21
2164.665147468398
 72
     1
 10
3587.375310071831
 20
2164.665147468398
 11
3586.375310071833
 21
2166.397198275966
 72
     1
 10
3586.375310071833
 20
2166.397198275966
 11
3580.777233860479
 21
2163.165147468398
 72
     2
 10
3579.777233860479
 20
2164.897198275966
 40
1.999999999999425
 50
59.99999999999046
 51
90.0
 73
     0
 72
     1
 10
3579.777233860479
 20
2162.897198275966
 11
3573.532164321327
 21
2162.897198275966
 97
        0
 75
     0
 76
     0
 52
44.99999999999999
 41
5.0
 77
     0
 78
     1
 53
135.0
 43
3500.408438086728
 44
2301.523163770341
 45
3.535533905932736
 46
3.535533905932738
 79
     0
 98
        1
 10
3500.408438086728
 20
2301.523163770341
1001
ACME_LAYERS
1000
1
  0
LINE
  5
2958
330
1F
100
AcDbEntity
  8
0
100
AcDbLine
 10
3561.375310071833
 20
2160.897198275966
 30
0.0
 11
3561.375310071833
 21
2166.397198275966
 31
0.0
  0
LINE
  5
295D
330
1F
100
AcDbEntity
  8
P-0000
  6
Continuous
 62
     7
100
AcDbLine
 10
3535.008167706291
 20
2160.897198275966
 30
0.0
 11
3541.253237245444
 21
2160.897198275966
 31
0.0
1001
ACME_LAYERS
1000
1
  0
LINE
  5
295E
330
1F
100
AcDbEntity
  8
P-0000
  6
Continuous
 62
     7
100
AcDbLine
 10
3579.777233860479
 20
2160.897198275966
 30
0.0
 11
3573.532164321324
 21
2160.897198275966
 31
0.0
1001
ACME_LAYERS
1000
1
  0
LINE
  5
295F
330
1F
100
AcDbEntity
  8
P-0000
  6
Continuous
 62
     7
100
AcDbLine
 10
3534.973386283184
 20
2160.897198275966
 30
0.0
 11
3541.218455822337
 21
2160.897198275966
 31
0.0
1001
ACME_LAYERS
1000
1
  0
LINE
  5
2967
330
1F
100
AcDbEntity
  8
0
100
AcDbLine
 10
3561.431846515926
 20
2164.897198275966
 30
0.0
 11
3561.431846515926
 21
2151.691278371022
 31
0.0
  0
LINE
  5
2968
330
1F
100
AcDbEntity
  8
0
100
AcDbLine
 10
3553.431846515924
 20
2164.897198275966
 30
0.0
 11
3553.431846515924
 21
2151.691278371022
 31
0.0
  0
LINE
  5
296A
330
1F
100
AcDbEntity
  8
P-3FF0
  6
Continuous
 62
     7
100
AcDbLine
 10
3514.430436036184
 20
2153.62610516088
 30
0.0
 11
3525.394784683274
 21
2153.62610516088
 31
0.0
1001
ACME_LAYERS
1000
1
  0
LINE
  5
2972
330
1F
100
AcDbEntity
  8
P-0000
  6
Continuous
 62
     7
100
AcDbLine
 10
3319.875310071832
 20
2166.887751160922
 30
0.0
 11
3329.875310071833
 21
2166.887751160922
 31
0.0
1001
ACME_LAYERS
1000
1
  0
LINE
  5
2999
330
1F
100
AcDbEntity
  8
P-0000
  6
Continuous
 62
     7
100
AcDbLine
 10
3350.463547961034
 20
2166.397198275966
 30
0.0
 11
3354.909246074456
 21
2166.397198275966
 31
0.0
1001
ACME_LAYERS
1000
1
  0
LINE
  5
299A
330
1F
100
AcDbEntity
  8
P-0000
  6
Continuous
 62
     7
100
AcDbLine
 10
3367.463547961035
 20
2166.397198275966
 30
0.0
 11
3363.409246074457
 21
2166.397198275966
 31
0.0
1001
ACME_LAYERS
1000
1
  0
LINE
  5
299B
330
1F
100
AcDbEntity
  8
P-0000
  6
Continuous
 62
     7
100
AcDbLine
 10
3355.709246074456
 20
2166.397198275966
 30
0.0
 11
3363.409246074457
 21
2166.397198275966
 31
0.0
1001
ACME_LAYERS
1000
1
  0
LINE
  5
299C
330
1F
100
AcDbEntity
  8
P-0000
  6
Continuous
 62
     7
100
AcDbLine
 10
3354.909246074456
 20
2166.397198275966
 30
0.0
 11
3355.709246074456
 21
2166.397198275966
 31
0.0
1001
ACME_LAYERS
1000
1
  0
LINE
  5
29D2
330
1F
100
AcDbEntity
  8
P-0000
  6
Continuous
 62
     7
100
AcDbLine
 10
3514.878218718074
 20
2166.397198275966
 30
0.0
 11
3519.323916831496
 21
2166.397198275966
 31
0.0
1001
ACME_LAYERS
1000
1
  0
LINE
  5
29D3
330
1F
100
AcDbEntity
  8
P-0000
  6
Continuous
 62
     7
100
AcDbLine
 10
3531.878218718074
 20
2166.397198275966
 30
0.0
 11
3527.823916831497
 21
2166.397198275966
 31
0.0
1001
ACME_LAYERS
1000
1
  0
LINE
  5
29D4
330
1F
100
AcDbEntity
  8
P-0000
  6
Continuous
 62
     7
100
AcDbLine
 10
3520.123916831496
 20
2166.397198275966
 30
0.0
 11
3527.823916831497
 21
2166.397198275966
 31
0.0
1001
ACME_LAYERS
1000
1
  0
LINE
  5
29D5
330
1F
100
AcDbEntity
  8
P-0000
  6
Continuous
 62
     7
100
AcDbLine
 10
3519.323916831496
 20
2166.397198275966
 30
0.0
 11
3520.123916831496
 21
2166.397198275966
 31
0.0
1001
ACME_LAYERS
1000
1
  0
HATCH
  5
2A32
330
1F
100
AcDbEntity
  8
P-0000
  6
Continuous
 62
     3
100
AcDbHatch
 10
0.0
 20
0.0
 30
0.0
210
0.0
220
0.0
230
1.0
  2
_U
 70
     0
 71
     0
 91
        1
 92
        1
 93
       34
 72
     1
 10
3291.45750270827
 20
2151.19127837104
 11
3290.043289145896
 21
2152.605491933413
 72
     1
 10
3290.043289145896
 20
2152.605491933413
 11
3290.745850390648
 21
2153.308053178164
 72
     2
 10
3293.574277515395
 20
2150.479626053418
 40
4.0
 50
224.9999999999994
 51
270.0
 73
     0
 72
     2
 10
3293.574277515395
 20
2150.479626053418
 40
3.999999999999721
 50
270.0
 51
299.9999999999985
 73
     0
 72
     1
 10
3295.574277515394
 20
2153.943727668556
 11
3299.011532525028
 21
2151.95922756347
 72
     2
 10
3300.011532525028
 20
2153.69127837104
 40
1.999999999999868
 50
239.9999999999979
 51
270.0
 73
     1
 72
     1
 10
3300.011532525028
 20
2151.69127837104
 11
3328.189735755303
 21
2151.69127837104
 72
     1
 10
3328.189735755303
 20
2151.69127837104
 11
3347.625634140166
 21
2151.69127837104
 72
     2
 10
3347.625634140166
 20
2153.69127837104
 40
2.0
 50
-90.00000000000001
 51
-59.99999999999786
 73
     1
 72
     1
 10
3348.625634140166
 20
2151.95922756347
 11
3349.485344914376
 21
2152.455581810385
 72
     1
 10
3349.485344914376
 20
2152.455581810385
 11
3354.161532525029
 21
2155.155379986177
 72
     2
 10
3356.16153252503
 20
2151.69127837104
 40
4.0
 50
240.0000000000021
 51
270.0
 73
     0
 72
     1
 10
3356.16153252503
 20
2155.69127837104
 11
3364.405597505665
 21
2155.69127837104
 72
     2
 10
3364.405597505665
 20
2149.69127837104
 40
6.000000000000177
 50
270.0
 51
322.9999999999994
 73
     0
 72
     1
 10
3369.197410565949
 20
2153.302168509952
 11
3374.928641989143
 21
2145.696567528293
 72
     2
 10
3370.935464438907
 20
2142.687492412533
 40
5.0
 50
322.9999999999976
 51
359.9999999999961
 73
     0
 72
     1
 10
3375.935464438907
 20
2142.687492412533
 11
3375.935464438907
 21
2138.691278371039
 72
     1
 10
3375.935464438907
 20
2138.69127837104
 11
3375.338934064082
 21
2138.69127837104
 72
     1
 10
3375.338934064081
 20
2138.69127837104
 11
3373.935464438907
 21
2140.094747996215
 72
     1
 10
3373.935464438907
 20
2140.094747996214
 11
3373.935464438907
 21
2142.687492412533
 72
     2
 10
3370.935464438907
 20
2142.687492412533
 40
3.0
 50
-0.0000000000000127
 51
37.00000000000023
 73
     1
 72
     1
 10
3373.331370969048
 20
2144.492937481989
 11
3369.414140138289
 21
2149.691278371039
 72
     1
 10
3369.414140138289
 20
2149.69127837104
 11
3368.607943742929
 21
2150.761137122711
 72
     1
 10
3368.607943742929
 20
2150.761137122711
 11
3367.600139545854
 21
2152.098538463648
 72
     2
 10
3364.405597505665
 20
2149.69127837104
 40
4.000000000000238
 50
37.00000000000207
 51
89.99999999999998
 73
     1
 72
     1
 10
3364.405597505665
 20
2153.69127837104
 11
3356.16153252503
 21
2153.69127837104
 72
     2
 10
3356.16153252503
 20
2151.69127837104
 40
2.0
 50
89.99999999999998
 51
119.9999999999928
 73
     1
 72
     1
 10
3355.161532525029
 20
2153.423329178609
 11
3349.625634140165
 21
2150.227176755902
 72
     2
 10
3347.625634140166
 20
2153.69127837104
 40
4.0
 50
420.0000000000091
 51
450.0
 73
     0
 72
     1
 10
3347.625634140166
 20
2149.69127837104
 11
3300.011532525028
 21
2149.69127837104
 72
     2
 10
3300.011532525028
 20
2153.69127837104
 40
3.999999999999785
 50
90.0000000000049
 51
120.0000000000017
 73
     0
 72
     1
 10
3298.011532525027
 20
2150.227176755902
 11
3294.574277515394
 21
2152.211676860986
 72
     2
 10
3293.574277515395
 20
2150.479626053418
 40
1.999999999999721
 50
59.99999999999537
 51
135.000000000001
 73
     1
 72
     1
 10
3292.160063953022
 20
2151.893839615791
 11
3291.45750270827
 21
2151.191278371039
 97
        0
 75
     0
 76
     0
 52
44.99999999999999
 41
2.0
 77
     0
 78
     1
 53
44.99999999999999
 43
4148.419179696669
 44
1753.907297963718
 45
-1.414213562373094
 46
1.414213562373094
 79
     0
 98
        1
 10
4148.419179696669
 20
1753.907297963718
1001
ACME_LAYERS
1000
1
  0
HATCH
  5
2A37
330
1F
100
AcDbEntity
  8
P-0000
  6
Continuous
 62
     3
100
AcDbHatch
 10
0.0
 20
0.0
 30
0.0
210
0.0
220
0.0
230
1.0
  2
_U
 70
     0
 71
     0
 91
        1
 92
        1
 93
       40
 72
     1
 10
3588.7194075576
 20
2151.893839615791
 11
3589.421968802351
 21
2151.191278371039
 72
     1
 10
3589.421968802351
 20
2151.19127837104
 11
3590.836182364724
 21
2152.605491933413
 72
     1
 10
3590.836182364724
 20
2152.605491933413
 11
3590.133621119973
 21
2153.308053178164
 72
     2
 10
3587.305193995226
 20
2150.479626053418
 40
3.999999999999991
 50
44.99999999999938
 51
89.99999999999998
 73
     1
 72
     2
 10
3587.305193995226
 20
2150.479626053418
 40
4.0
 50
89.99999999999998
 51
119.9999999999971
 73
     1
 72
     1
 10
3585.305193995227
 20
2153.943727668556
 11
3581.867938985594
 21
2151.95922756347
 72
     2
 10
3580.867938985593
 20
2153.69127837104
 40
2.0
 50
419.9999999999977
 51
450.0
 73
     0
 72
     1
 10
3580.867938985593
 20
2151.69127837104
 11
3580.589735755321
 21
2151.69127837104
 72
     1
 10
3580.589735755321
 20
2151.69127837104
 11
3560.689735755318
 21
2151.69127837104
 72
     1
 10
3560.689735755317
 20
2151.69127837104
 11
3533.253837370454
 21
2151.69127837104
 72
     2
 10
3533.253837370454
 20
2153.69127837104
 40
1.999999999999868
 50
450.0
 51
480.0000000000022
 73
     0
 72
     1
 10
3532.253837370455
 20
2151.95922756347
 11
3532.148993720554
 21
2152.019759072964
 72
     1
 10
3532.148993720554
 20
2152.019759072964
 11
3532.017399577995
 21
2152.095734986593
 72
     1
 10
3532.017399577995
 20
2152.095734986593
 11
3531.394126596247
 21
2152.455581810385
 72
     1
 10
3531.394126596246
 20
2152.455581810385
 11
3526.717938985592
 21
2155.155379986177
 72
     2
 10
3524.717938985592
 20
2151.69127837104
 40
4.000000000000023
 50
60.00000000000208
 51
89.99999999999998
 73
     1
 72
     1
 10
3524.717938985592
 20
2155.69127837104
 11
3519.299924783915
 21
2155.69127837104
 72
     1
 10
3519.299924783916
 20
2155.69127837104
 11
3516.473874004872
 21
2155.69127837104
 72
     2
 10
3516.473874004872
 20
2149.69127837104
 40
6.0
 50
89.99999999999998
 51
142.9999999999993
 73
     1
 72
     1
 10
3511.682060944588
 20
2153.302168509952
 11
3505.950829521395
 21
2145.696567528294
 72
     2
 10
3509.944007071631
 20
2142.687492412533
 40
5.000000000000214
 50
142.9999999999976
 51
179.999999999996
 73
     1
 72
     1
 10
3504.944007071631
 20
2142.687492412533
 11
3504.944007071631
 21
2138.691278371039
 72
     1
 10
3504.944007071631
 20
2138.69127837104
 11
3505.1751859031
 21
2138.69127837104
 72
     1
 10
3505.1751859031
 20
2138.69127837104
 11
3505.540537446456
 21
2138.69127837104
 72
     1
 10
3505.540537446456
 20
2138.69127837104
 11
3506.944007071631
 21
2140.094747996214
 72
     1
 10
3506.944007071631
 20
2140.094747996214
 11
3506.944007071631
 21
2142.687492412533
 72
     2
 10
3509.944007071631
 20
2142.687492412533
 40
3.000000000000071
 50
180.0
 51
217.0000000000003
 73
     0
 72
     1
 10
3507.548100541488
 20
2144.492937481989
 11
3511.465331372246
 21
2149.691278371039
 72
     1
 10
3511.465331372246
 20
2149.69127837104
 11
3512.271527767607
 21
2150.761137122711
 72
     1
 10
3512.271527767607
 20
2150.761137122711
 11
3513.279331964683
 21
2152.098538463648
 72
     2
 10
3516.473874004872
 20
2149.69127837104
 40
4.0
 50
217.0000000000021
 51
270.0
 73
     0
 72
     1
 10
3516.473874004872
 20
2153.69127837104
 11
3524.717938985592
 21
2153.69127837104
 72
     2
 10
3524.717938985592
 20
2151.69127837104
 40
2.000000000000205
 50
270.0
 51
299.9999999999928
 73
     0
 72
     1
 10
3525.717938985592
 20
2153.423329178609
 11
3531.253837370456
 21
2150.227176755902
 72
     2
 10
3533.253837370454
 20
2153.69127837104
 40
3.999999999999741
 50
240.0000000000091
 51
270.0
 73
     1
 72
     1
 10
3533.253837370454
 20
2149.69127837104
 11
3533.966126889789
 21
2149.69127837104
 72
     1
 10
3533.966126889789
 20
2149.69127837104
 11
3580.867938985593
 21
2149.69127837104
 72
     2
 10
3580.867938985593
 20
2153.69127837104
 40
4.0
 50
-89.99999999999511
 51
-59.99999999999824
 73
     1
 72
     1
 10
3582.867938985593
 20
2150.227176755902
 11
3586.305193995226
 21
2152.211676860986
 72
     2
 10
3587.305193995226
 20
2150.479626053418
 40
1.999999999999974
 50
239.9999999999954
 51
315.0000000000012
 73
     0
 97
        0
 75
     0
 76
     0
 52
44.99999999999999
 41
2.0
 77
     0
 78
     1
 53
44.99999999999999
 43
4148.419179696669
 44
1753.907297963718
 45
-1.414213562373094
 46
1.414213562373094
 79
     0
 98
        1
 10
4148.419179696669
 20
1753.907297963718
1001
ACME_LAYERS
1000
1
  0
HATCH
  5
2A38
330
1F
100
AcDbEntity
  8
P-0000
  6
Continuous
 62
     3
100
AcDbHatch
 10
0.0
 20
0.0
 30
0.0
210
0.0
220
0.0
230
1.0
  2
_U
 70
     0
 71
     0
 91
        1
 92
        1
 93
        7
 72
     1
 10
3373.935464438907
 20
2137.287808745864
 11
3373.935464438992
 21
2135.77968749268
 72
     1
 10
3373.935464438992
 20
2135.779687492681
 11
3373.939735755304
 21
2052.786837793621
 72
     1
 10
3373.939735755302
 20
2052.786837793621
 11
3375.935464438991
 21
2052.610172958077
 72
     1
 10
3375.935464438991
 20
2052.610172958077
 11
3375.935464438991
 21
2093.610172958077
 72
     1
 10
3375.935464438991
 20
2093.610172958077
 11
3375.935464438991
 21
2138.691278371039
 72
     1
 10
3375.935464438991
 20
2138.69127837104
 11
3375.338934064082
 21
2138.69127837104
 72
     1
 10
3375.338934064081
 20
2138.69127837104
 11
3373.935464438907
 21
2137.287808745865
 97
        0
 75
     0
 76
     0
 52
-45.0
 41
2.0
 77
     0
 78
     1
 53
315.0
 43
4148.419179696669
 44
1753.907297963718
 45
1.414213562373094
 46
1.414213562373094
 79
     0
 98
        1
 10
4148.419179696669
 20
1753.907297963718
1001
ACME_LAYERS
1000
1
  0
HATCH
  5
2A39
330
1F
100
AcDbEntity
  8
P-0000
  6
Continuous
 62
     3
100
AcDbHatch
 10
0.0
 20
0.0
 30
0.0
210
0.0
220
0.0
230
1.0
  2
_U
 70
     0
 71
     0
 91
        1
 92
        1
 93
        6
 72
     1
 10
3504.944007071631
 20
2138.69127837104
 11
3504.944007071631
 21
2052.610172958078
 72
     1
 10
3504.94400707163
 20
2052.610172958077
 11
3506.939735755318
 21
2052.786837793621
 72
     1
 10
3506.939735755318
 20
2052.786837793621
 11
3506.944007071631
 21
2065.213335754257
 72
     1
 10
3506.944007071631
 20
2065.213335754257
 11
3506.944007071631
 21
2137.287808745864
 72
     1
 10
3506.944007071631
 20
2137.287808745864
 11
3505.540537446456
 21
2138.691278371039
 72
     1
 10
3505.540537446456
 20
2138.69127837104
 11
3504.94400707163
 21
2138.69127837104
 97
        0
 75
     0
 76
     0
 52
-45.0
 41
2.0
 77
     0
 78
     1
 53
315.0
 43
4148.419179696669
 44
1753.907297963718
 45
1.414213562373094
 46
1.414213562373094
 79
     0
 98
        1
 10
4148.419179696669
 20
1753.907297963718
1001
ACME_LAYERS
1000
1
  0
ARC
  5
2A3B
330
1F
100
AcDbEntity
  8
P-0000
  6
Continuous
 62
     7
100
AcDbCircle
 10
3509.944007071631
 20
2142.687492412533
 30
0.0
 40
3.000000000000071
100
AcDbArc
 50
143.0000000000049
 51
180.0
1001
ACME_LAYERS
1000
1
  0
ARC
  5
2A3C
330
1F
100
AcDbEntity
  8
P-0000
  6
Continuous
 62
     7
100
AcDbCircle
 10
3509.944007071631
 20
2142.687492412533
 30
0.0
 40
5.000000000000214
100
AcDbArc
 50
143.0000000000049
 51
179.9999999999739
1001
ACME_LAYERS
1000
1
  0
ARC
  5
2A3D
330
1F
100
AcDbEntity
  8
P-0000
  6
Continuous
 62
     7
100
AcDbCircle
 10
3370.935464438907
 20
2142.687492412533
 30
0.0
 40
3.0
100
AcDbArc
 50
0.0
 51
36.99999999999509
1001
ACME_LAYERS
1000
1
  0
ARC
  5
2A3E
330
1F
100
AcDbEntity
  8
P-0000
  6
Continuous
 62
     7
100
AcDbCircle
 10
3370.935464438907
 20
2142.687492412533
 30
0.0
 40
5.0
100
AcDbArc
 50
0.0
 51
36.99999999999509
1001
ACME_LAYERS
1000
1
  0
SPLINE
  5
2A3F
330
1F
100
AcDbEntity
  8
P-0000
  6
Continuous
 62
     3
100
AcDbSpline
210
0.0
220
0.0
230
1.0
 70
     8
 71
     3
 72
     8
 73
     4
 74
     0
 42
0.0000000001
 43
0.0000000001
 40
0.0
 40
0.0
 40
0.0
 40
0.0
 40
2.003532740689506
 40
2.003532740689506
 40
2.003532740689506
 40
2.003532740689506
 10
3373.939735755302
 20
2052.786837793621
 30
0.0
 10
3374.604292360074
 20
2052.720766387293
 30
0.0
 10
3375.269579399051
 20
2052.661888079645
 30
0.0
 10
3375.935464438991
 20
2052.610172958077
 30
0.0
  0
SPLINE
  5
2A41
330
1F
100
AcDbEntity
  8
P-0000
  6
Continuous
 62
     3
100
AcDbSpline
210
0.0
220
0.0
230
1.0
 70
     8
 71
     3
 72
     8
 73
     4
 74
     0
 42
0.0000000001
 43
0.0000000001
 40
0.0
 40
0.0
 40
0.0
 40
0.0
 40
2.003532740689506
 40
2.003532740689506
 40
2.003532740689506
 40
2.003532740689506
 10
3506.939735755318
 20
2052.786837793621
 30
0.0
 10
3506.275179150549
 20
2052.720766387293
 30
0.0
 10
3505.609892111571
 20
2052.661888079645
 30
0.0
 10
3504.94400707163
 20
2052.610172958077
 30
0.0
  0
LINE
  5
2A45
330
1F
100
AcDbEntity
  8
P-0000
  6
Continuous
 62
     7
100
AcDbLine
 10
3506.93973575531
 20
2099.144699524898
 30
0.0
 11
3506.93973575531
 21
2084.429606813005
 31
0.0
1001
ACME_LAYERS
1000
1
  0
LINE
  5
2A46
330
1F
100
AcDbEntity
  8
P-0000
  6
Continuous
 62
     7
100
AcDbLine
 10
3506.93973575531
 20
2094.144699524896
 30
0.0
 11
3506.93973575531
 21
2092.144699524898
 31
0.0
1001
ACME_LAYERS
1000
1
  0
LINE
  5
2A47
330
1F
100
AcDbEntity
  8
P-0000
  6
Continuous
 62
     3
100
AcDbLine
 10
3440.43973575531
 20
1783.751149976006
 30
0.0
 11
3375.369001390601
 21
1783.751149976006
 31
0.0
1001
ACME_LAYERS
1000
1
  0
LINE
  5
2A48
330
1F
100
AcDbEntity
  8
P-0000
  6
Continuous
 62
     7
100
AcDbLine
 10
3373.939735755304
 20
1783.751149976006
 30
0.0
 11
3373.939735755313
 21
1783.751149975974
 31
0.0
1001
ACME_LAYERS
1000
1
  0
LINE
  5
2A49
330
1F
100
AcDbEntity
  8
P-0000
  6
Continuous
 62
     7
100
AcDbLine
 10
3440.43973575531
 20
1779.691278371039
 30
0.0
 11
3375.027575073229
 21
1779.691278371039
 31
0.0
1001
ACME_LAYERS
1000
1
  0
LINE
  5
2A4A
330
1F
100
AcDbEntity
  8
P-0000
  6
Continuous
 62
     7
100
AcDbLine
 10
3373.939735755302
 20
2016.37734224326
 30
0.0
 11
3373.939735755302
 21
2034.126116428109
 31
0.0
1001
ACME_LAYERS
1000
1
  0
LINE
  5
2A4B
330
1F
100
AcDbEntity
  8
P-0000
  6
Continuous
 62
     7
100
AcDbLine
 10
3360.799582978847
 20
2149.69127837104
 30
0.0
 11
3340.738691810525
 21
2149.69127837104
 31
0.0
1001
ACME_LAYERS
1000
1
  0
LINE
  5
2A4C
330
1F
100
AcDbEntity
  8
P-0000
  6
Continuous
 62
     7
100
AcDbLine
 10
3340.439735755304
 20
2149.69127837104
 30
0.0
 11
3347.625634140166
 21
2149.69127837104
 31
0.0
1001
ACME_LAYERS
1000
1
  0
LINE
  5
2A4D
330
1F
100
AcDbEntity
  8
P-0000
  6
Continuous
 62
     7
100
AcDbLine
 10
3300.011532525028
 20
2149.69127837104
 30
0.0
 11
3340.439735755304
 21
2149.69127837104
 31
0.0
1001
ACME_LAYERS
1000
1
  0
LINE
  5
2A4E
330
1F
100
AcDbEntity
  8
P-0000
  6
Continuous
 62
     7
100
AcDbLine
 10
3375.935464438991
 20
2093.610172958077
 30
0.0
 11
3375.935464438991
 21
2138.69127837104
 31
0.0
1001
ACME_LAYERS
1000
1
  0
LINE
  5
2A4F
330
1F
100
AcDbEntity
  8
P-0000
  6
Continuous
 62
     7
100
AcDbLine
 10
3373.939735755302
 20
2044.894646692578
 30
0.0
 11
3373.93973575531
 21
1964.907297963719
 31
0.0
1001
ACME_LAYERS
1000
1
  0
LINE
  5
2A50
330
1F
100
AcDbEntity
  8
P-0000
  6
Continuous
 62
     7
100
AcDbLine
 10
3373.935464438992
 20
2044.91081044517
 30
0.0
 11
3373.939735755302
 21
2044.894646692578
 31
0.0
1001
ACME_LAYERS
1000
1
  0
LINE
  5
2A51
330
1F
100
AcDbEntity
  8
P-0000
  6
Continuous
 62
     7
100
AcDbLine
 10
3373.939735755302
 20
2052.786837793621
 30
0.0
 11
3373.939735755306
 21
2065.213335754257
 31
0.0
1001
ACME_LAYERS
1000
1
  0
LINE
  5
2A52
330
1F
100
AcDbEntity
  8
P-0000
  6
Continuous
 62
     7
100
AcDbLine
 10
3375.935464438991
 20
2052.610172958077
 30
0.0
 11
3375.935464438991
 21
2093.610172958077
 31
0.0
1001
ACME_LAYERS
1000
1
  0
LINE
  5
2A53
330
1F
100
AcDbEntity
  8
P-0000
  6
Continuous
 62
     7
100
AcDbLine
 10
3373.935464438992
 20
2090.229499506846
 30
0.0
 11
3373.935464438992
 21
2138.69127837104
 31
0.0
1001
ACME_LAYERS
1000
1
  0
LINE
  5
2A54
330
1F
100
AcDbEntity
  8
P-0000
  6
Continuous
 62
     7
100
AcDbLine
 10
3373.939735755302
 20
2035.126116428109
 30
0.0
 11
3373.939735755302
 21
2052.786837793621
 31
0.0
1001
ACME_LAYERS
1000
1
  0
LINE
  5
2A55
330
1F
100
AcDbEntity
  8
P-0000
  6
Continuous
 62
     3
100
AcDbLine
 10
3505.510470120021
 20
1783.751149976006
 30
0.0
 11
3440.43973575531
 21
1783.751149976006
 31
0.0
1001
ACME_LAYERS
1000
1
  0
LINE
  5
2A56
330
1F
100
AcDbEntity
  8
P-0000
  6
Continuous
 62
     7
100
AcDbLine
 10
3505.851896437394
 20
1779.691278371039
 30
0.0
 11
3506.939735755317
 21
1783.751149976004
 31
0.0
1001
ACME_LAYERS
1000
1
  0
LINE
  5
2A57
330
1F
100
AcDbEntity
  8
P-0000
  6
Continuous
 62
     7
100
AcDbLine
 10
3505.851896437394
 20
1779.691278371039
 30
0.0
 11
3440.43973575531
 21
1779.691278371039
 31
0.0
1001
ACME_LAYERS
1000
1
  0
LINE
  5
2A58
330
1F
100
AcDbEntity
  8
P-0000
  6
Continuous
 62
     7
100
AcDbLine
 10
3540.140779700096
 20
2149.69127837104
 30
0.0
 11
3520.079888531773
 21
2149.69127837104
 31
0.0
1001
ACME_LAYERS
1000
1
  0
LINE
  5
2A59
330
1F
100
AcDbEntity
  8
P-0000
  6
Continuous
 62
     7
100
AcDbLine
 10
3520.079888531773
 20
2149.69127837104
 30
0.0
 11
3511.465331372246
 21
2149.69127837104
 31
0.0
1001
ACME_LAYERS
1000
1
  0
LINE
  5
2A5A
330
1F
100
AcDbEntity
  8
P-0000
  6
Continuous
 62
     7
100
AcDbLine
 10
3511.465331372246
 20
2149.69127837104
 30
0.0
 11
3507.548100541488
 21
2144.492937481989
 31
0.0
1001
ACME_LAYERS
1000
1
  0
LINE
  5
2A5B
330
1F
100
AcDbEntity
  8
P-0000
  6
Continuous
 62
     7
100
AcDbLine
 10
3514.430436036184
 20
2153.62610516088
 30
0.0
 11
3511.465331372241
 21
2149.691278371031
 31
0.0
1001
ACME_LAYERS
1000
1
  0
LINE
  5
2A5C
330
1F
100
AcDbEntity
  8
P-0000
  6
Continuous
 62
     7
100
AcDbLine
 10
3513.482384356539
 20
2155.691278371023
 30
0.0
 11
3505.950829521395
 21
2145.696567528294
 31
0.0
1001
ACME_LAYERS
1000
1
  0
LINE
  5
2A5D
330
1F
100
AcDbEntity
  8
P-0000
  6
Continuous
 62
     7
100
AcDbLine
 10
3512.271527767607
 20
2150.761137122711
 30
0.0
 11
3511.465331372246
 21
2149.69127837104
 31
0.0
1001
ACME_LAYERS
1000
1
  0
LINE
  5
2A5E
330
1F
100
AcDbEntity
  8
P-0000
  6
Continuous
 62
     7
100
AcDbLine
 10
3506.939735755317
 20
2019.894646692581
 30
0.0
 11
3506.939735755318
 21
2044.894646692578
 31
0.0
1001
ACME_LAYERS
1000
1
  0
LINE
  5
2A5F
330
1F
100
AcDbEntity
  8
P-0000
  6
Continuous
 62
     7
100
AcDbLine
 10
3506.939735755318
 20
2044.894646692578
 30
0.0
 11
3506.944007071631
 21
2044.91081044517
 31
0.0
1001
ACME_LAYERS
1000
1
  0
LINE
  5
2A60
330
1F
100
AcDbEntity
  8
P-0000
  6
Continuous
 62
     7
100
AcDbLine
 10
3506.939735755317
 20
2065.213335754257
 30
0.0
 11
3506.939735755318
 21
2052.786837793621
 31
0.0
1001
ACME_LAYERS
1000
1
  0
LINE
  5
2A61
330
1F
100
AcDbEntity
  8
P-0000
  6
Continuous
 62
     7
100
AcDbLine
 10
3506.944007071631
 20
2138.610172958077
 30
0.0
 11
3506.944007071631
 21
2137.287808745864
 31
0.0
1001
ACME_LAYERS
1000
1
  0
LINE
  5
2A62
330
1F
100
AcDbEntity
  8
P-0000
  6
Continuous
 62
     7
100
AcDbLine
 10
3506.939735755318
 20
2052.786837793621
 30
0.0
 11
3506.939735755318
 21
2035.126116428109
 31
0.0
1001
ACME_LAYERS
1000
1
  0
LINE
  5
2A63
330
1F
100
AcDbEntity
  8
P-0000
  6
Continuous
 62
     7
100
AcDbLine
 10
3373.939735755306
 20
2090.229499506846
 30
0.0
 11
3373.939735755306
 21
2065.213335754257
 31
0.0
1001
ACME_LAYERS
1000
1
  0
LINE
  5
2A64
330
1F
100
AcDbEntity
  8
P-0000
  6
Continuous
 62
     7
100
AcDbLine
 10
3506.939735755318
 20
2034.126116428109
 30
0.0
 11
3506.939735755318
 21
1964.907297963719
 31
0.0
1001
ACME_LAYERS
1000
1
  0
LINE
  5
2A65
330
1F
100
AcDbEntity
  8
P-0000
  6
Continuous
 62
     7
100
AcDbLine
 10
3506.939735755318
 20
1783.751149976006
 30
0.0
 11
3506.939735755317
 21
1783.751149976004
 31
0.0
1001
ACME_LAYERS
1000
1
  0
LINE
  5
2A66
330
1F
100
AcDbEntity
  8
P-0000
  6
Continuous
 62
     7
100
AcDbLine
 10
3506.939735755317
 20
1783.751149976004
 30
0.0
 11
3506.939735755318
 21
1783.751149976006
 31
0.0
1001
ACME_LAYERS
1000
1
  0
LINE
  5
2A67
330
1F
100
AcDbEntity
  8
P-0000
  6
Continuous
 62
     7
100
AcDbLine
 10
3373.939735755313
 20
1783.751149975974
 30
0.0
 11
3375.027575073229
 21
1779.691278371039
 31
0.0
1001
ACME_LAYERS
1000
1
  0
LINE
  5
2A68
330
1F
100
AcDbEntity
  8
P-0000
  6
Continuous
 62
     7
100
AcDbLine
 10
3504.944007071631
 20
2138.69127837104
 30
0.0
 11
3504.94400707163
 21
2052.610172958077
 31
0.0
1001
ACME_LAYERS
1000
1
  0
LINE
  5
2A69
330
1F
100
AcDbEntity
  8
P-0000
  6
Continuous
 62
     7
100
AcDbLine
 10
3506.944007071631
 20
2138.610172958077
 30
0.0
 11
3506.944007071631
 21
2140.094747996214
 31
0.0
1001
ACME_LAYERS
1000
1
  0
LINE
  5
2A6A
330
1F
100
AcDbEntity
  8
P-0000
  6
Continuous
 62
     7
100
AcDbLine
 10
3504.944007071631
 20
2138.69127837104
 30
0.0
 11
3504.944007071631
 21
2142.687492412533
 31
0.0
1001
ACME_LAYERS
1000
1
  0
LINE
  5
2A6B
330
1F
100
AcDbEntity
  8
P-0000
  6
Continuous
 62
     7
100
AcDbLine
 10
3506.944007071631
 20
2138.69127837104
 30
0.0
 11
3505.540537446456
 21
2138.69127837104
 31
0.0
1001
ACME_LAYERS
1000
1
  0
LINE
  5
2A6D
330
1F
100
AcDbEntity
  8
P-0000
  6
Continuous
 62
     7
100
AcDbLine
 10
3506.944007071631
 20
2137.287808745864
 30
0.0
 11
3506.944007071631
 21
2065.213335754257
 31
0.0
1001
ACME_LAYERS
1000
1
  0
LINE
  5
2A6E
330
1F
100
AcDbEntity
  8
P-0000
  6
Continuous
 62
     7
100
AcDbLine
 10
3505.540537446456
 20
2138.69127837104
 30
0.0
 11
3504.944007071631
 21
2138.69127837104
 31
0.0
1001
ACME_LAYERS
1000
1
  0
LINE
  5
2A70
330
1F
100
AcDbEntity
  8
P-0000
  6
Continuous
 62
     7
100
AcDbLine
 10
3506.944007071631
 20
2140.094747996214
 30
0.0
 11
3506.944007071631
 21
2142.687492412533
 31
0.0
1001
ACME_LAYERS
1000
1
  0
LINE
  5
2A72
330
1F
100
AcDbEntity
  8
P-0000
  6
Continuous
 62
     7
100
AcDbLine
 10
3369.414140138289
 20
2149.69127837104
 30
0.0
 11
3360.799582978763
 21
2149.69127837104
 31
0.0
1001
ACME_LAYERS
1000
1
  0
LINE
  5
2A73
330
1F
100
AcDbEntity
  8
P-0000
  6
Continuous
 62
     7
100
AcDbLine
 10
3373.331370969048
 20
2144.492937481989
 30
0.0
 11
3369.414140138289
 21
2149.69127837104
 31
0.0
1001
ACME_LAYERS
1000
1
  0
LINE
  5
2A74
330
1F
100
AcDbEntity
  8
P-0000
  6
Continuous
 62
     7
100
AcDbLine
 10
3369.840330122606
 20
2149.125705159325
 30
0.0
 11
3366.449035474352
 21
2153.62610516088
 31
0.0
1001
ACME_LAYERS
1000
1
  0
LINE
  5
2A75
330
1F
100
AcDbEntity
  8
P-0000
  6
Continuous
 62
     7
100
AcDbLine
 10
3374.928641989143
 20
2145.696567528294
 30
0.0
 11
3367.397087153999
 21
2155.691278371023
 31
0.0
1001
ACME_LAYERS
1000
1
  0
LINE
  5
2A76
330
1F
100
AcDbEntity
  8
P-0000
  6
Continuous
 62
     7
100
AcDbLine
 10
3369.414140138289
 20
2149.69127837104
 30
0.0
 11
3366.449035474352
 21
2153.62610516088
 31
0.0
1001
ACME_LAYERS
1000
1
  0
LINE
  5
2A77
330
1F
100
AcDbEntity
  8
P-0000
  6
Continuous
 62
     7
100
AcDbLine
 10
3373.935464438907
 20
2137.287808745864
 30
0.0
 11
3373.935464438907
 21
2138.610172958077
 31
0.0
1001
ACME_LAYERS
1000
1
  0
LINE
  5
2A78
330
1F
100
AcDbEntity
  8
P-0000
  6
Continuous
 62
     7
100
AcDbLine
 10
3373.935464438907
 20
2140.094747996214
 30
0.0
 11
3373.935464438907
 21
2138.610172958077
 31
0.0
1001
ACME_LAYERS
1000
1
  0
LINE
  5
2A79
330
1F
100
AcDbEntity
  8
P-0000
  6
Continuous
 62
     7
100
AcDbLine
 10
3375.935464438907
 20
2142.687492412533
 30
0.0
 11
3375.935464438907
 21
2138.69127837104
 31
0.0
1001
ACME_LAYERS
1000
1
  0
LINE
  5
2A7A
330
1F
100
AcDbEntity
  8
P-0000
  6
Continuous
 62
     7
100
AcDbLine
 10
3375.338934064081
 20
2138.69127837104
 30
0.0
 11
3373.935464438907
 21
2138.69127837104
 31
0.0
1001
ACME_LAYERS
1000
1
  0
LINE
  5
2A7D
330
1F
100
AcDbEntity
  8
P-0000
  6
Continuous
 62
     7
100
AcDbLine
 10
3373.935464438907
 20
2142.687492412533
 30
0.0
 11
3373.935464438907
 21
2140.094747996214
 31
0.0
1001
ACME_LAYERS
1000
1
  0
LINE
  5
2A7E
330
1F
100
AcDbEntity
  8
P-0000
  6
Continuous
 62
     7
100
AcDbLine
 10
3375.935464438907
 20
2138.69127837104
 30
0.0
 11
3375.338934064081
 21
2138.69127837104
 31
0.0
1001
ACME_LAYERS
1000
1
  0
LINE
  5
2A7F
330
1F
100
AcDbEntity
  8
P-0000
  6
Continuous
 62
     3
100
AcDbLine
 10
3503.41917969667
 20
2144.907297963719
 30
0.0
 11
3379.419179696669
 21
2144.907297963719
 31
0.0
1001
ACME_LAYERS
1000
1
  0
LINE
  5
2A81
330
1F
100
AcDbEntity
  8
P-0000
  6
Continuous
 62
     7
100
AcDbLine
 10
3506.939735755318
 20
1949.907297963719
 30
0.0
 11
3506.939735755318
 21
1783.751149976007
 31
0.0
1001
ACME_LAYERS
1000
1
  0
LINE
  5
2A82
330
1F
100
AcDbEntity
  8
P-0000
  6
Continuous
 62
     7
100
AcDbLine
 10
3373.93973575531
 20
1949.907297963719
 30
0.0
 11
3373.939735755322
 21
1783.75114997594
 31
0.0
1001
ACME_LAYERS
1000
1
  0
LINE
  5
2A83
330
1F
100
AcDbEntity
  8
P-0000
  6
Continuous
 62
     7
100
AcDbLine
 10
3506.939735755318
 20
1964.907297963719
 30
0.0
 11
3506.939735755318
 21
1949.907297963719
 31
0.0
1001
ACME_LAYERS
1000
1
  0
LINE
  5
2A84
330
1F
100
AcDbEntity
  8
P-0000
  6
Continuous
 62
     7
100
AcDbLine
 10
3373.93973575531
 20
1964.907297963719
 30
0.0
 11
3373.93973575531
 21
1949.907297963719
 31
0.0
1001
ACME_LAYERS
1000
1
  0
LINE
  5
2A85
330
1F
100
AcDbEntity
  8
AM_CL
100
AcDbLine
 10
3511.465331372246
 20
2149.69127837104
 30
0.0
 11
3579.709510565539
 21
2149.69127837104
 31
0.0
  0
LINE
  5
2A86
330
1F
100
AcDbEntity
  8
0
100
AcDbLine
 10
3356.838378222678
 20
2153.62610516088
 30
0.0
 11
3366.449035474352
 21
2153.62610516088
 31
0.0
  0
LINE
  5
2E2D
330
1F
100
AcDbEntity
  8
P-0000
  6
Continuous
 62
     7
100
AcDbLine
 10
3353.840395596407
 20
2166.387751160921
 30
0.0
 11
3353.768429433909
 21
2166.387751160921
 31
0.0
1001
ACME_LAYERS
1000
1
  0
LINE
  5
2E43
330
1F
100
AcDbEntity
  8
P-0000
  6
Continuous
 62
     7
100
AcDbLine
 10
3328.840395596407
 20
2166.887751160922
 30
0.0
 11
3329.340395596407
 21
2166.887751160922
 31
0.0
1001
ACME_LAYERS
1000
1
  0
LINE
  5
2E44
330
1F
100
AcDbEntity
  8
P-0000
  6
Continuous
 62
     7
100
AcDbLine
 10
3328.040395596406
 20
2166.887751160922
 30
0.0
 11
3328.840395596407
 21
2166.887751160922
 31
0.0
1001
ACME_LAYERS
1000
1
  0
LINE
  5
2E58
330
1F
100
AcDbEntity
  8
P-0000
  6
Continuous
 62
     7
100
AcDbLine
 10
3528.35785283412
 20
2166.387751160921
 30
0.0
 11
3528.429818996622
 21
2166.387751160921
 31
0.0
1001
ACME_LAYERS
1000
1
  0
LINE
  5
2E79
330
1F
100
AcDbEntity
  8
P-0000
  6
Continuous
 62
     7
100
AcDbLine
 10
3329.857852834119
 20
2166.887751160922
 30
0.0
 11
3335.269097236198
 21
2166.887751160922
 31
0.0
1001
ACME_LAYERS
1000
1
  0
LINE
  5
2E7C
330
1F
100
AcDbEntity
  8
P-0000
  6
Continuous
 62
     7
100
AcDbLine
 10
3319.85785283412
 20
2166.887751160922
 30
0.0
 11
3329.857852834119
 21
2166.887751160922
 31
0.0
1001
ACME_LAYERS
1000
1
  0
LINE
  5
2E7F
330
1F
100
AcDbEntity
  8
P-0000
  6
Continuous
 62
     7
100
AcDbLine
 10
3335.269097236198
 20
2166.887751160922
 30
0.0
 11
3337.269097236199
 21
2166.887751160922
 31
0.0
1001
ACME_LAYERS
1000
1
  0
LINE
  5
2FA7
330
1F
100
AcDbEntity
  8
P-0000
  6
Continuous
 62
     7
100
AcDbLine
 10
3350.446090723321
 20
2166.387751160921
 30
0.0
 11
3354.891788836744
 21
2166.387751160921
 31
0.0
1001
ACME_LAYERS
1000
1
  0
LINE
  5
2FA8
330
1F
100
AcDbEntity
  8
P-0000
  6
Continuous
 62
     7
100
AcDbLine
 10
3367.446090723321
 20
2166.387751160921
 30
0.0
 11
3363.391788836745
 21
2166.387751160921
 31
0.0
1001
ACME_LAYERS
1000
1
  0
LINE
  5
2FA9
330
1F
100
AcDbEntity
  8
P-0000
  6
Continuous
 62
     7
100
AcDbLine
 10
3355.691788836743
 20
2166.387751160921
 30
0.0
 11
3363.391788836745
 21
2166.387751160921
 31
0.0
1001
ACME_LAYERS
1000
1
  0
LINE
  5
2FAA
330
1F
100
AcDbEntity
  8
P-0000
  6
Continuous
 62
     7
100
AcDbLine
 10
3354.891788836744
 20
2166.387751160921
 30
0.0
 11
3355.691788836743
 21
2166.387751160921
 31
0.0
1001
ACME_LAYERS
1000
1
  0
LINE
  5
2FB5
330
1F
100
AcDbEntity
  8
P-0000
  6
Continuous
 62
     7
100
AcDbLine
 10
3514.860761480363
 20
2166.387751160921
 30
0.0
 11
3519.306459593784
 21
2166.387751160921
 31
0.0
1001
ACME_LAYERS
1000
1
  0
LINE
  5
2FB6
330
1F
100
AcDbEntity
  8
P-0000
  6
Continuous
 62
     7
100
AcDbLine
 10
3531.860761480362
 20
2166.387751160921
 30
0.0
 11
3527.806459593784
 21
2166.387751160921
 31
0.0
1001
ACME_LAYERS
1000
1
  0
LINE
  5
2FB7
330
1F
100
AcDbEntity
  8
P-0000
  6
Continuous
 62
     7
100
AcDbLine
 10
3520.106459593784
 20
2166.387751160921
 30
0.0
 11
3527.806459593784
 21
2166.387751160921
 31
0.0
1001
ACME_LAYERS
1000
1
  0
LINE
  5
2FB8
330
1F
100
AcDbEntity
  8
P-0000
  6
Continuous
 62
     7
100
AcDbLine
 10
3519.306459593784
 20
2166.387751160921
 30
0.0
 11
3520.106459593784
 21
2166.387751160921
 31
0.0
1001
ACME_LAYERS
1000
1
  0
LINE
  5
336E
330
1F
100
AcDbEntity
  8
AM_7
  6
AM_DIN_G_W050x2
100
AcDbLine
 10
3324.801316390028
 20
2167.897198275966
 30
0.0
 11
3324.801316390028
 21
2148.691278371023
 31
0.0
1001
GENIUS_GENOBJ-N-CEN_13
1002
{
1000
OWNER
1000
GEN
1002
}
1001
GENIUS_GENODEF_13
1002
{
1000
HIER
1070
     0
1002
}
1002
{
1000
MANEDIT
1070
     0
1002
}
1002
{
1000
NOSEL
1070
     0
1002
}
1002
{
1000
BEHIND
1070
     0
1002
}
1002
{
1000
OTHER
1070
     0
1002
}
1002
{
1000
REACTOR
1002
}
1001
GENIUS_GENCEN_19
1002
{
1040
3.0
1002
}
  0
LINE
  5
3556
330
1F
100
AcDbEntity
  8
P-0000
  6
STRICHPUNKT
 62
     3
100
AcDbLine
 10
3441.042587771173
 20
2277.07183394579
 30
0.0
 11
3441.042587771172
 21
2166.387751160814
 31
0.0
1001
ACME_LAYERS
1000
1
  0
LINE
  5
3557
330
1F
100
AcDbEntity
  8
P-0000
  6
Continuous
 62
     7
100
AcDbLine
 10
3353.783859152315
 20
2166.387751160815
 30
0.0
 11
3353.711892989814
 21
2166.387751160815
 31
0.0
1001
ACME_LAYERS
1000
1
  0
LINE
  5
3558
330
1F
100
AcDbEntity
  8
P-0000
  6
Continuous
 62
     7
100
AcDbLine
 10
3328.783859152315
 20
2166.887751160817
 30
0.0
 11
3329.283859152317
 21
2166.887751160817
 31
0.0
1001
ACME_LAYERS
1000
1
  0
LINE
  5
3559
330
1F
100
AcDbEntity
  8
P-0000
  6
Continuous
 62
     7
100
AcDbLine
 10
3327.983859152316
 20
2166.887751160817
 30
0.0
 11
3328.783859152315
 21
2166.887751160817
 31
0.0
1001
ACME_LAYERS
1000
1
  0
LINE
  5
355A
330
1F
100
AcDbEntity
  8
P-0000
  6
Continuous
 62
     7
100
AcDbLine
 10
3562.301316390029
 20
2168.887751160816
 30
0.0
 11
3552.30131639003
 21
2168.887751160816
 31
0.0
1001
ACME_LAYERS
1000
1
  0
LINE
  5
3562
330
1F
100
AcDbEntity
  8
P-0000
  6
Continuous
 62
     7
100
AcDbLine
 10
3560.50131639003
 20
2180.035032600529
 30
0.0
 11
3557.301316390029
 21
2180.035032600529
 31
0.0
1001
ACME_LAYERS
1000
1
  0
LINE
  5
3563
330
1F
100
AcDbEntity
  8
P-0000
  6
Continuous
 62
     7
100
AcDbLine
 10
3554.10131639003
 20
2179.435032600529
 30
0.0
 11
3560.50131639003
 21
2179.435032600529
 31
0.0
1001
ACME_LAYERS
1000
1
  0
LINE
  5
3564
330
1F
100
AcDbEntity
  8
P-0000
  6
Continuous
 62
     7
100
AcDbLine
 10
3561.301316390029
 20
2179.435032600529
 30
0.0
 11
3561.301316390029
 21
2176.487751160815
 31
0.0
1001
ACME_LAYERS
1000
1
  0
LINE
  5
3565
330
1F
100
AcDbEntity
  8
P-0000
  6
Continuous
 62
     3
100
AcDbLine
 10
3560.50131639003
 20
2180.035032600529
 30
0.0
 11
3560.50131639003
 21
2176.487751160815
 31
0.0
1001
ACME_LAYERS
1000
1
  0
LINE
  5
3566
330
1F
100
AcDbEntity
  8
P-0000
  6
Continuous
 62
     7
100
AcDbLine
 10
3560.50131639003
 20
2179.435032600529
 30
0.0
 11
3561.301316390029
 21
2179.435032600529
 31
0.0
1001
ACME_LAYERS
1000
1
  0
LINE
  5
3567
330
1F
100
AcDbEntity
  8
P-0000
  6
Continuous
 62
     3
100
AcDbLine
 10
3560.50131639003
 20
2180.035032600529
 30
0.0
 11
3560.50131639003
 21
2179.435032600529
 31
0.0
1001
ACME_LAYERS
1000
1
  0
LINE
  5
3568
330
1F
100
AcDbEntity
  8
P-0000
  6
Continuous
 62
     7
100
AcDbLine
 10
3561.301316390029
 20
2179.435032600529
 30
0.0
 11
3560.50131639003
 21
2180.035032600529
 31
0.0
1001
ACME_LAYERS
1000
1
  0
LINE
  5
3569
330
1F
100
AcDbEntity
  8
P-0000
  6
Continuous
 62
     7
100
AcDbLine
 10
3553.301316390029
 20
2179.435032600529
 30
0.0
 11
3553.301316390029
 21
2176.487751160815
 31
0.0
1001
ACME_LAYERS
1000
1
  0
LINE
  5
356A
330
1F
100
AcDbEntity
  8
P-0000
  6
STRICHPUNKT
 62
     3
100
AcDbLine
 10
3557.301316390029
 20
2176.487751160815
 30
0.0
 11
3557.301316390029
 21
2180.035032600529
 31
0.0
1001
ACME_LAYERS
1000
1
  0
LINE
  5
356B
330
1F
100
AcDbEntity
  8
P-0000
  6
Continuous
 62
     3
100
AcDbLine
 10
3554.10131639003
 20
2180.035032600529
 30
0.0
 11
3554.10131639003
 21
2176.487751160815
 31
0.0
1001
ACME_LAYERS
1000
1
  0
LINE
  5
356C
330
1F
100
AcDbEntity
  8
P-0000
  6
Continuous
 62
     3
100
AcDbLine
 10
3554.10131639003
 20
2180.035032600529
 30
0.0
 11
3554.10131639003
 21
2179.435032600529
 31
0.0
1001
ACME_LAYERS
1000
1
  0
LINE
  5
356D
330
1F
100
AcDbEntity
  8
P-0000
  6
Continuous
 62
     7
100
AcDbLine
 10
3553.301316390029
 20
2179.435032600529
 30
0.0
 11
3554.10131639003
 21
2179.435032600529
 31
0.0
1001
ACME_LAYERS
1000
1
  0
LINE
  5
356E
330
1F
100
AcDbEntity
  8
P-0000
  6
Continuous
 62
     7
100
AcDbLine
 10
3554.10131639003
 20
2180.035032600529
 30
0.0
 11
3553.301316390029
 21
2179.435032600529
 31
0.0
1001
ACME_LAYERS
1000
1
  0
LINE
  5
356F
330
1F
100
AcDbEntity
  8
P-0000
  6
Continuous
 62
     7
100
AcDbLine
 10
3557.301316390029
 20
2180.035032600529
 30
0.0
 11
3554.10131639003
 21
2180.035032600529
 31
0.0
1001
ACME_LAYERS
1000
1
  0
LINE
  5
3570
330
1F
100
AcDbEntity
  8
P-0000
  6
Continuous
 62
     7
100
AcDbLine
 10
3553.30131639003
 20
2176.487751160815
 30
0.0
 11
3560.50131639003
 21
2176.487751160815
 31
0.0
1001
ACME_LAYERS
1000
1
  0
LINE
  5
3571
330
1F
100
AcDbEntity
  8
P-0000
  6
Continuous
 62
     7
100
AcDbLine
 10
3560.50131639003
 20
2176.487751160815
 30
0.0
 11
3561.30131639003
 21
2176.487751160815
 31
0.0
1001
ACME_LAYERS
1000
1
  0
LINE
  5
3572
330
1F
100
AcDbEntity
  8
P-0000
  6
Continuous
 62
     7
100
AcDbLine
 10
3565.747014503449
 20
2170.387751160813
 30
0.0
 11
3565.747014503449
 21
2168.887751160816
 31
0.0
1001
ACME_LAYERS
1000
1
  0
LINE
  5
3573
330
1F
100
AcDbEntity
  8
P-0000
  6
Continuous
 62
     7
100
AcDbLine
 10
3548.74701450345
 20
2168.887751160816
 30
0.0
 11
3548.74701450345
 21
2170.387751160813
 31
0.0
1001
ACME_LAYERS
1000
1
  0
LINE
  5
3574
330
1F
100
AcDbEntity
  8
P-0000
  6
Continuous
 62
     7
100
AcDbLine
 10
3528.30131639003
 20
2166.387751160815
 30
0.0
 11
3528.37328255253
 21
2166.387751160815
 31
0.0
1001
ACME_LAYERS
1000
1
  0
LINE
  5
3575
330
1F
100
AcDbEntity
  8
P-0000
  6
Continuous
 62
     7
100
AcDbLine
 10
3565.747014503449
 20
2170.487751160814
 30
0.0
 11
3565.747014503449
 21
2170.387751160813
 31
0.0
1001
ACME_LAYERS
1000
1
  0
LINE
  5
3576
330
1F
100
AcDbEntity
  8
P-0000
  6
Continuous
 62
     7
100
AcDbLine
 10
3548.74701450345
 20
2170.487751160814
 30
0.0
 11
3565.747014503449
 21
2170.487751160814
 31
0.0
1001
ACME_LAYERS
1000
1
  0
LINE
  5
3577
330
1F
100
AcDbEntity
  8
P-0000
  6
Continuous
 62
     7
100
AcDbLine
 10
3548.74701450345
 20
2170.387751160813
 30
0.0
 11
3548.74701450345
 21
2170.487751160814
 31
0.0
1001
ACME_LAYERS
1000
1
  0
LINE
  5
3578
330
1F
100
AcDbEntity
  8
P-0000
  6
Continuous
 62
     7
100
AcDbLine
 10
3549.795762890563
 20
2172.374690352722
 30
0.0
 11
3549.795762890563
 21
2171.068307744414
 31
0.0
1001
ACME_LAYERS
1000
1
  0
LINE
  5
3579
330
1F
100
AcDbEntity
  8
P-0000
  6
Continuous
 62
     7
100
AcDbLine
 10
3563.80131639003
 20
2170.487751160814
 30
0.0
 11
3550.80131639003
 21
2170.487751160814
 31
0.0
1001
ACME_LAYERS
1000
1
  0
LINE
  5
357A
330
1F
100
AcDbEntity
  8
P-0000
  6
Continuous
 62
     7
100
AcDbLine
 10
3564.806869889494
 20
2172.374690352722
 30
0.0
 11
3564.806869889494
 21
2171.068307744414
 31
0.0
1001
ACME_LAYERS
1000
1
  0
LINE
  5
357B
330
1F
100
AcDbEntity
  8
P-0000
  6
Continuous
 62
     7
100
AcDbLine
 10
3561.30131639003
 20
2176.487751160815
 30
0.0
 11
3563.80131639003
 21
2176.487751160815
 31
0.0
1001
ACME_LAYERS
1000
1
  0
LINE
  5
357C
330
1F
100
AcDbEntity
  8
P-0000
  6
Continuous
 62
     7
100
AcDbLine
 10
3550.042434479222
 20
2170.914894726449
 30
0.0
 11
3550.80131639003
 21
2170.487751160814
 31
0.0
1001
ACME_LAYERS
1000
1
  0
LINE
  5
357D
330
1F
100
AcDbEntity
  8
P-0000
  6
Continuous
 62
     7
100
AcDbLine
 10
3550.042434479222
 20
2176.06060759518
 30
0.0
 11
3550.80131639003
 21
2176.487751160815
 31
0.0
1001
ACME_LAYERS
1000
1
  0
LINE
  5
357E
330
1F
100
AcDbEntity
  8
P-0000
  6
Continuous
 62
     7
100
AcDbLine
 10
3564.560198300836
 20
2170.914894726449
 30
0.0
 11
3563.80131639003
 21
2170.487751160814
 31
0.0
1001
ACME_LAYERS
1000
1
  0
LINE
  5
357F
330
1F
100
AcDbEntity
  8
P-0000
  6
Continuous
 62
     7
100
AcDbLine
 10
3564.560198300836
 20
2176.06060759518
 30
0.0
 11
3563.80131639003
 21
2176.487751160815
 31
0.0
1001
ACME_LAYERS
1000
1
  0
LINE
  5
3580
330
1F
100
AcDbEntity
  8
P-0000
  6
Continuous
 62
     7
100
AcDbLine
 10
3550.80131639003
 20
2176.487751160815
 30
0.0
 11
3553.30131639003
 21
2176.487751160815
 31
0.0
1001
ACME_LAYERS
1000
1
  0
LINE
  5
3581
330
1F
100
AcDbEntity
  8
P-0000
  6
Continuous
 62
     7
100
AcDbLine
 10
3564.806869889494
 20
2175.907194577213
 30
0.0
 11
3564.806869889494
 21
2172.374690352722
 31
0.0
1001
ACME_LAYERS
1000
1
  0
LINE
  5
3582
330
1F
100
AcDbEntity
  8
P-0000
  6
Continuous
 62
     7
100
AcDbLine
 10
3561.054093139762
 20
2175.907194577213
 30
0.0
 11
3561.054093139762
 21
2170.487751160814
 31
0.0
1001
ACME_LAYERS
1000
1
  0
LINE
  5
3583
330
1F
100
AcDbEntity
  8
P-0000
  6
Continuous
 62
     7
100
AcDbLine
 10
3553.548539640298
 20
2175.907194577213
 30
0.0
 11
3553.548539640298
 21
2170.487751160814
 31
0.0
1001
ACME_LAYERS
1000
1
  0
LINE
  5
3584
330
1F
100
AcDbEntity
  8
P-0000
  6
Continuous
 62
     7
100
AcDbLine
 10
3549.795762890563
 20
2175.907194577213
 30
0.0
 11
3549.795762890563
 21
2172.374690352722
 31
0.0
1001
ACME_LAYERS
1000
1
  0
LINE
  5
3585
330
1F
100
AcDbEntity
  8
P-0000
  6
Continuous
 62
     7
100
AcDbLine
 10
3565.747014503449
 20
2168.887751160816
 30
0.0
 11
3561.30131639003
 21
2168.887751160816
 31
0.0
1001
ACME_LAYERS
1000
1
  0
LINE
  5
3586
330
1F
100
AcDbEntity
  8
P-0000
  6
Continuous
 62
     7
100
AcDbLine
 10
3548.74701450345
 20
2168.887751160816
 30
0.0
 11
3552.801316390028
 21
2168.887751160816
 31
0.0
1001
ACME_LAYERS
1000
1
  0
LINE
  5
3587
330
1F
100
AcDbEntity
  8
P-0000
  6
Continuous
 62
     7
100
AcDbLine
 10
3553.30131639003
 20
2166.887751160817
 30
0.0
 11
3552.801316390028
 21
2166.887751160817
 31
0.0
1001
ACME_LAYERS
1000
1
  0
LINE
  5
3588
330
1F
100
AcDbEntity
  8
P-0000
  6
Continuous
 62
     7
100
AcDbLine
 10
3554.10131639003
 20
2166.887751160817
 30
0.0
 11
3553.30131639003
 21
2166.887751160817
 31
0.0
1001
ACME_LAYERS
1000
1
  0
LINE
  5
3589
330
1F
100
AcDbEntity
  8
P-0000
  6
Continuous
 62
     7
100
AcDbLine
 10
3560.50131639003
 20
2166.887751160817
 30
0.0
 11
3554.10131639003
 21
2166.887751160817
 31
0.0
1001
ACME_LAYERS
1000
1
  0
LINE
  5
358A
330
1F
100
AcDbEntity
  8
P-0000
  6
Continuous
 62
     7
100
AcDbLine
 10
3561.30131639003
 20
2166.887751160817
 30
0.0
 11
3560.50131639003
 21
2166.887751160817
 31
0.0
1001
ACME_LAYERS
1000
1
  0
ARC
  5
358B
330
1F
100
AcDbEntity
  8
P-0000
  6
Continuous
 62
     7
100
AcDbCircle
 10
3557.30131639003
 20
2182.907194577213
 30
0.0
 40
12.41944341639904
100
AcDbArc
 50
252.4120462260115
 51
287.5879537739885
1001
ACME_LAYERS
1000
1
  0
ARC
  5
358C
330
1F
100
AcDbEntity
  8
P-0000
  6
Continuous
 62
     7
100
AcDbCircle
 10
3557.30131639003
 20
2164.068307744415
 30
0.0
 40
12.41944341639904
100
AcDbArc
 50
72.41204622601149
 51
107.5879537739885
1001
ACME_LAYERS
1000
1
  0
ARC
  5
358D
330
1F
100
AcDbEntity
  8
P-0000
  6
Continuous
 62
     7
100
AcDbCircle
 10
3551.672151265429
 20
2173.810320733764
 30
0.0
 40
3.322569572950221
100
AcDbArc
 50
240.6266206051644
 51
304.3842474680531
1001
ACME_LAYERS
1000
1
  0
ARC
  5
358E
330
1F
100
AcDbEntity
  8
P-0000
  6
Continuous
 62
     7
100
AcDbCircle
 10
3551.672151265429
 20
2173.165181587863
 30
0.0
 40
3.322569572950149
100
AcDbArc
 50
119.3733793948355
 51
124.3842474680531
1001
ACME_LAYERS
1000
1
  0
ARC
  5
358F
330
1F
100
AcDbEntity
  8
P-0000
  6
Continuous
 62
     7
100
AcDbCircle
 10
3562.930481514626
 20
2173.810320733764
 30
0.0
 40
3.322569572950221
100
AcDbArc
 50
299.3733793948356
 51
304.3842474680531
1001
ACME_LAYERS
1000
1
  0
ARC
  5
3590
330
1F
100
AcDbEntity
  8
P-0000
  6
Continuous
 62
     7
100
AcDbCircle
 10
3562.930481514626
 20
2173.165181587865
 30
0.0
 40
3.322569572949122
100
AcDbArc
 50
60.62662060516443
 51
124.3842474680169
1001
ACME_LAYERS
1000
1
  0
ARC
  5
3591
330
1F
100
AcDbEntity
  8
P-0000
  6
Continuous
 62
     7
100
AcDbCircle
 10
3551.672151265429
 20
2173.810320733764
 30
0.0
 40
3.322569572949876
100
AcDbArc
 50
235.6157525319468
 51
240.6266206051644
1001
ACME_LAYERS
1000
1
  0
ARC
  5
3592
330
1F
100
AcDbEntity
  8
P-0000
  6
Continuous
 62
     7
100
AcDbCircle
 10
3551.672151265429
 20
2173.165181587865
 30
0.0
 40
3.322569572949888
100
AcDbArc
 50
55.61575253194686
 51
119.3733793948355
1001
ACME_LAYERS
1000
1
  0
ARC
  5
3593
330
1F
100
AcDbEntity
  8
P-0000
  6
Continuous
 62
     7
100
AcDbCircle
 10
3562.930481514626
 20
2173.810320733764
 30
0.0
 40
3.322569572949872
100
AcDbArc
 50
235.6157525319831
 51
299.3733793948356
1001
ACME_LAYERS
1000
1
  0
ARC
  5
3594
330
1F
100
AcDbEntity
  8
P-0000
  6
Continuous
 62
     7
100
AcDbCircle
 10
3562.930481514626
 20
2173.165181587865
 30
0.0
 40
3.322569572949884
100
AcDbArc
 50
55.61575253194686
 51
60.62662060516443
1001
ACME_LAYERS
1000
1
  0
LINE
  5
3595
330
1F
100
AcDbEntity
  8
P-0000
  6
Continuous
 62
     7
100
AcDbLine
 10
3329.801316390029
 20
2166.887751160817
 30
0.0
 11
3335.212560792108
 21
2166.887751160817
 31
0.0
1001
ACME_LAYERS
1000
1
  0
LINE
  5
3596
330
1F
100
AcDbEntity
  8
P-0000
  6
Continuous
 62
     7
100
AcDbLine
 10
3319.801316390029
 20
2166.887751160817
 30
0.0
 11
3329.801316390029
 21
2166.887751160817
 31
0.0
1001
ACME_LAYERS
1000
1
  0
LINE
  5
3597
330
1F
100
AcDbEntity
  8
P-0000
  6
Continuous
 62
     7
100
AcDbLine
 10
3335.212560792108
 20
2166.887751160817
 30
0.0
 11
3337.212560792107
 21
2166.887751160817
 31
0.0
1001
ACME_LAYERS
1000
1
  0
LINE
  5
35A0
330
1F
100
AcDbEntity
  8
P-0000
  6
Continuous
 62
     7
100
AcDbLine
 10
3350.389554279232
 20
2166.387751160815
 30
0.0
 11
3354.835252392652
 21
2166.387751160815
 31
0.0
1001
ACME_LAYERS
1000
1
  0
LINE
  5
35A1
330
1F
100
AcDbEntity
  8
P-0000
  6
Continuous
 62
     7
100
AcDbLine
 10
3367.389554279231
 20
2166.387751160815
 30
0.0
 11
3363.335252392654
 21
2166.387751160815
 31
0.0
1001
ACME_LAYERS
1000
1
  0
LINE
  5
35A2
330
1F
100
AcDbEntity
  8
P-0000
  6
Continuous
 62
     7
100
AcDbLine
 10
3355.635252392653
 20
2166.387751160815
 30
0.0
 11
3363.335252392654
 21
2166.387751160815
 31
0.0
1001
ACME_LAYERS
1000
1
  0
LINE
  5
35A3
330
1F
100
AcDbEntity
  8
P-0000
  6
Continuous
 62
     7
100
AcDbLine
 10
3354.835252392652
 20
2166.387751160815
 30
0.0
 11
3355.635252392653
 21
2166.387751160815
 31
0.0
1001
ACME_LAYERS
1000
1
  0
LINE
  5
35A4
330
1F
100
AcDbEntity
  8
P-0000
  6
Continuous
 62
     7
100
AcDbLine
 10
3519.249923149692
 20
2176.870418853576
 30
0.0
 11
3519.249923149692
 21
2173.987751160812
 31
0.0
1001
ACME_LAYERS
1000
1
  0
LINE
  5
35A5
330
1F
100
AcDbEntity
  8
P-0000
  6
Continuous
 62
     3
100
AcDbLine
 10
3520.049923149692
 20
2176.408538638224
 30
0.0
 11
3520.049923149692
 21
2173.987751160812
 31
0.0
1001
ACME_LAYERS
1000
1
  0
LINE
  5
35A6
330
1F
100
AcDbEntity
  8
P-0000
  6
Continuous
 62
     7
100
AcDbLine
 10
3524.242850054893
 20
2173.987751160812
 30
0.0
 11
3520.049923149693
 21
2173.987751160812
 31
0.0
1001
ACME_LAYERS
1000
1
  0
LINE
  5
35A7
330
1F
100
AcDbEntity
  8
P-0000
  6
Continuous
 62
     7
100
AcDbLine
 10
3520.049923149693
 20
2173.987751160812
 30
0.0
 11
3519.249923149692
 21
2173.987751160812
 31
0.0
1001
ACME_LAYERS
1000
1
  0
LINE
  5
35A8
330
1F
100
AcDbEntity
  8
P-0000
  6
Continuous
 62
     7
100
AcDbLine
 10
3514.804225036272
 20
2167.887751160813
 30
0.0
 11
3514.804225036272
 21
2166.387751160815
 31
0.0
1001
ACME_LAYERS
1000
1
  0
LINE
  5
35A9
330
1F
100
AcDbEntity
  8
P-0000
  6
Continuous
 62
     7
100
AcDbLine
 10
3531.804225036271
 20
2166.387751160815
 30
0.0
 11
3531.804225036271
 21
2167.887751160813
 31
0.0
1001
ACME_LAYERS
1000
1
  0
LINE
  5
35AA
330
1F
100
AcDbEntity
  8
P-0000
  6
Continuous
 62
     7
100
AcDbLine
 10
3514.804225036272
 20
2167.987751160813
 30
0.0
 11
3514.804225036272
 21
2167.887751160813
 31
0.0
1001
ACME_LAYERS
1000
1
  0
LINE
  5
35AB
330
1F
100
AcDbEntity
  8
P-0000
  6
Continuous
 62
     7
100
AcDbLine
 10
3531.804225036271
 20
2167.987751160813
 30
0.0
 11
3514.804225036272
 21
2167.987751160813
 31
0.0
1001
ACME_LAYERS
1000
1
  0
LINE
  5
35AC
330
1F
100
AcDbEntity
  8
P-0000
  6
Continuous
 62
     7
100
AcDbLine
 10
3531.804225036271
 20
2167.887751160813
 30
0.0
 11
3531.804225036271
 21
2167.987751160813
 31
0.0
1001
ACME_LAYERS
1000
1
  0
LINE
  5
35AD
330
1F
100
AcDbEntity
  8
P-0000
  6
Continuous
 62
     7
100
AcDbLine
 10
3530.755476649158
 20
2169.874690352719
 30
0.0
 11
3530.755476649158
 21
2168.568307744413
 31
0.0
1001
ACME_LAYERS
1000
1
  0
LINE
  5
35AE
330
1F
100
AcDbEntity
  8
P-0000
  6
Continuous
 62
     7
100
AcDbLine
 10
3516.749923149691
 20
2167.987751160813
 30
0.0
 11
3529.749923149692
 21
2167.987751160813
 31
0.0
1001
ACME_LAYERS
1000
1
  0
LINE
  5
35AF
330
1F
100
AcDbEntity
  8
P-0000
  6
Continuous
 62
     7
100
AcDbLine
 10
3515.744369650227
 20
2169.874690352719
 30
0.0
 11
3515.744369650227
 21
2168.568307744413
 31
0.0
1001
ACME_LAYERS
1000
1
  0
LINE
  5
35B0
330
1F
100
AcDbEntity
  8
P-0000
  6
Continuous
 62
     7
100
AcDbLine
 10
3519.249923149692
 20
2173.987751160812
 30
0.0
 11
3516.749923149691
 21
2173.987751160812
 31
0.0
1001
ACME_LAYERS
1000
1
  0
LINE
  5
35B1
330
1F
100
AcDbEntity
  8
P-0000
  6
Continuous
 62
     7
100
AcDbLine
 10
3527.002699899423
 20
2169.874690352719
 30
0.0
 11
3527.002699899423
 21
2168.568307744413
 31
0.0
1001
ACME_LAYERS
1000
1
  0
LINE
  5
35B2
330
1F
100
AcDbEntity
  8
P-0000
  6
Continuous
 62
     7
100
AcDbLine
 10
3519.497146399961
 20
2169.874690352719
 30
0.0
 11
3519.497146399961
 21
2168.568307744413
 31
0.0
1001
ACME_LAYERS
1000
1
  0
LINE
  5
35B3
330
1F
100
AcDbEntity
  8
P-0000
  6
Continuous
 62
     7
100
AcDbLine
 10
3530.508805060502
 20
2168.414894726447
 30
0.0
 11
3529.749923149692
 21
2167.987751160813
 31
0.0
1001
ACME_LAYERS
1000
1
  0
LINE
  5
35B4
330
1F
100
AcDbEntity
  8
P-0000
  6
Continuous
 62
     7
100
AcDbLine
 10
3515.991041238885
 20
2168.414894726447
 30
0.0
 11
3516.749923149691
 21
2167.987751160813
 31
0.0
1001
ACME_LAYERS
1000
1
  0
LINE
  5
35B5
330
1F
100
AcDbEntity
  8
P-0000
  6
Continuous
 62
     7
100
AcDbLine
 10
3515.991041238885
 20
2173.560607595177
 30
0.0
 11
3516.749923149691
 21
2173.987751160812
 31
0.0
1001
ACME_LAYERS
1000
1
  0
LINE
  5
35B6
330
1F
100
AcDbEntity
  8
P-0000
  6
Continuous
 62
     7
100
AcDbLine
 10
3515.744369650227
 20
2173.407194577212
 30
0.0
 11
3515.744369650227
 21
2169.874690352719
 31
0.0
1001
ACME_LAYERS
1000
1
  0
LINE
  5
35B7
330
1F
100
AcDbEntity
  8
P-0000
  6
Continuous
 62
     7
100
AcDbLine
 10
3519.497146399961
 20
2173.407194577212
 30
0.0
 11
3519.497146399961
 21
2169.874690352719
 31
0.0
1001
ACME_LAYERS
1000
1
  0
LINE
  5
35B8
330
1F
100
AcDbEntity
  8
P-0000
  6
Continuous
 62
     7
100
AcDbLine
 10
3527.002699899423
 20
2172.394351110151
 30
0.0
 11
3527.002699899423
 21
2169.874690352719
 31
0.0
1001
ACME_LAYERS
1000
1
  0
LINE
  5
35B9
330
1F
100
AcDbEntity
  8
P-0000
  6
Continuous
 62
     7
100
AcDbLine
 10
3530.755476649158
 20
2170.227684443484
 30
0.0
 11
3530.755476649158
 21
2169.874690352719
 31
0.0
1001
ACME_LAYERS
1000
1
  0
LINE
  5
35BA
330
1F
100
AcDbEntity
  8
P-0000
  6
Continuous
 62
     7
100
AcDbLine
 10
3514.804225036272
 20
2166.387751160815
 30
0.0
 11
3519.249923149692
 21
2166.387751160815
 31
0.0
1001
ACME_LAYERS
1000
1
  0
LINE
  5
35BB
330
1F
100
AcDbEntity
  8
P-0000
  6
Continuous
 62
     7
100
AcDbLine
 10
3531.804225036271
 20
2166.387751160815
 30
0.0
 11
3527.749923149694
 21
2166.387751160815
 31
0.0
1001
ACME_LAYERS
1000
1
  0
LINE
  5
35BC
330
1F
100
AcDbEntity
  8
P-0000
  6
Continuous
 62
     7
100
AcDbLine
 10
3520.049923149693
 20
2166.387751160815
 30
0.0
 11
3527.749923149694
 21
2166.387751160815
 31
0.0
1001
ACME_LAYERS
1000
1
  0
LINE
  5
35BD
330
1F
100
AcDbEntity
  8
P-0000
  6
Continuous
 62
     7
100
AcDbLine
 10
3519.249923149692
 20
2166.387751160815
 30
0.0
 11
3520.049923149693
 21
2166.387751160815
 31
0.0
1001
ACME_LAYERS
1000
1
  0
ARC
  5
35BE
330
1F
100
AcDbEntity
  8
P-0000
  6
Continuous
 62
     7
100
AcDbCircle
 10
3523.24992314969
 20
2180.407194577211
 30
0.0
 40
12.41944341639904
100
AcDbArc
 50
252.4120462260115
 51
287.5879537739885
1001
ACME_LAYERS
1000
1
  0
ARC
  5
35BF
330
1F
100
AcDbEntity
  8
P-0000
  6
Continuous
 62
     7
100
AcDbCircle
 10
3523.24992314969
 20
2161.568307744413
 30
0.0
 40
12.41944341639904
100
AcDbArc
 50
85.04168193073009
 51
107.5879537739885
1001
ACME_LAYERS
1000
1
  0
ARC
  5
35C0
330
1F
100
AcDbEntity
  8
P-0000
  6
Continuous
 62
     7
100
AcDbCircle
 10
3528.879088274291
 20
2171.310320733762
 30
0.0
 40
3.322569572950221
100
AcDbArc
 50
235.6157525319468
 51
299.3733793948356
1001
ACME_LAYERS
1000
1
  0
ARC
  5
35C1
330
1F
100
AcDbEntity
  8
P-0000
  6
Continuous
 62
     7
100
AcDbCircle
 10
3517.620758025094
 20
2171.310320733762
 30
0.0
 40
3.322569572950221
100
AcDbArc
 50
235.6157525319468
 51
240.6266206051644
1001
ACME_LAYERS
1000
1
  0
ARC
  5
35C2
330
1F
100
AcDbEntity
  8
P-0000
  6
Continuous
 62
     7
100
AcDbCircle
 10
3517.620758025094
 20
2170.665181587863
 30
0.0
 40
3.322569572949122
100
AcDbArc
 50
55.61575253198308
 51
119.3733793948355
1001
ACME_LAYERS
1000
1
  0
ARC
  5
35C3
330
1F
100
AcDbEntity
  8
P-0000
  6
Continuous
 62
     7
100
AcDbCircle
 10
3528.879088274291
 20
2171.310320733762
 30
0.0
 40
3.322569572949876
100
AcDbArc
 50
299.3733793948356
 51
304.3842474680531
1001
ACME_LAYERS
1000
1
  0
ARC
  5
35C4
330
1F
100
AcDbEntity
  8
P-0000
  6
Continuous
 62
     7
100
AcDbCircle
 10
3517.620758025094
 20
2171.310320733762
 30
0.0
 40
3.322569572949872
100
AcDbArc
 50
240.6266206051644
 51
304.3842474680169
1001
ACME_LAYERS
1000
1
  0
ARC
  5
35C5
330
1F
100
AcDbEntity
  8
P-0000
  6
Continuous
 62
     7
100
AcDbCircle
 10
3517.620758025094
 20
2170.665181587863
 30
0.0
 40
3.322569572949884
100
AcDbArc
 50
119.3733793948355
 51
124.3842474680531
1001
ACME_LAYERS
1000
1
  0
HATCH
  5
35F8
330
1F
100
AcDbEntity
  8
P-0000
  6
Continuous
 62
     1
100
AcDbHatch
 10
0.0
 20
0.0
 30
0.0
210
0.0
220
0.0
230
1.0
  2
_U
 70
     0
 71
     0
 91
        1
 92
        1
 93
       16
 72
     1
 10
3525.551316390038
 20
2185.882099862386
 11
3525.551316390038
 21
2185.832928279404
 72
     1
 10
3525.551316390038
 20
2185.832928279404
 11
3526.051316390038
 21
2185.832928279404
 72
     1
 10
3526.051316390038
 20
2185.832928279404
 11
3526.051316390038
 21
2183.882099862386
 72
     1
 10
3526.051316390038
 20
2183.882099862386
 11
3533.112207558351
 21
2183.882099862386
 72
     2
 10
3533.112207558351
 20
2183.382099862386
 40
0.5
 50
270.0
 51
360.0
 73
     0
 72
     1
 10
3533.612207558352
 20
2183.382099862386
 11
3533.612207558352
 21
2170.887751160816
 72
     2
 10
3537.612207558352
 20
2170.887751160817
 40
4.000000000000068
 50
180.0
 51
270.0
 73
     1
 72
     1
 10
3537.612207558352
 20
2166.887751160817
 11
3552.30131639003
 21
2166.887751160817
 72
     1
 10
3552.30131639003
 20
2166.887751160817
 11
3552.30131639003
 21
2168.887751160816
 72
     1
 10
3552.30131639003
 20
2168.887751160816
 11
3537.551316390037
 21
2168.887751160816
 72
     2
 10
3537.551316390037
 20
2170.887751160817
 40
1.999999999999999
 50
90.0
 51
180.0
 73
     0
 72
     1
 10
3535.551316390038
 20
2170.887751160817
 11
3535.551316390038
 21
2188.382099862386
 72
     1
 10
3535.551316390038
 20
2188.382099862386
 11
3533.551316390037
 21
2188.382099862386
 72
     1
 10
3533.551316390037
 20
2188.382099862386
 11
3533.551316390037
 21
2186.382099862385
 72
     2
 10
3533.051316390038
 20
2186.382099862385
 40
0.5
 50
360.0
 51
450.0
 73
     0
 72
     1
 10
3533.051316390038
 20
2185.882099862386
 11
3525.551316390038
 21
2185.882099862386
 97
        0
 75
     0
 76
     0
 52
-45.0
 41
2.0
 77
     0
 78
     1
 53
315.0
 43
3566.490425221721
 44
1677.466431519287
 45
1.414213562373094
 46
1.414213562373094
 79
     0
 98
        1
 10
3566.490425221721
 20
1677.466431519287
1001
ACME_LAYERS
1000
1
  0
LINE
  5
35F9
330
1F
100
AcDbEntity
  8
P-0000
  6
Continuous
 62
     7
100
AcDbLine
 10
3505.551316390029
 20
2188.382099862386
 30
0.0
 11
3508.3270194049
 21
2188.382099862386
 31
0.0
1001
ACME_LAYERS
1000
1
  0
LINE
  5
35FA
330
1F
100
AcDbEntity
  8
P-0000
  6
Continuous
 62
     7
100
AcDbLine
 10
3525.013595933156
 20
2188.382099862386
 30
0.0
 11
3533.551316390037
 21
2188.382099862386
 31
0.0
1001
ACME_LAYERS
1000
1
  0
LINE
  5
35FB
330
1F
100
AcDbEntity
  8
P-0000
  6
Continuous
 62
     7
100
AcDbLine
 10
3507.105335395966
 20
2183.882099862386
 30
0.0
 11
3535.612207558352
 21
2167.423649545678
 31
0.0
1001
ACME_LAYERS
1000
1
  0
LINE
  5
35FC
330
1F
100
AcDbEntity
  8
P-0000
  6
Continuous
 62
     7
100
AcDbLine
 10
3533.112207558351
 20
2183.882099862386
 30
0.0
 11
3526.051316390038
 21
2183.882099862386
 31
0.0
1001
ACME_LAYERS
1000
1
  0
LINE
  5
35FD
330
1F
100
AcDbEntity
  8
P-0000
  6
Continuous
 62
     7
100
AcDbLine
 10
3525.551316390038
 20
2185.882099862386
 30
0.0
 11
3533.051316390038
 21
2185.882099862386
 31
0.0
1001
ACME_LAYERS
1000
1
  0
LINE
  5
35FF
330
1F
100
AcDbEntity
  8
P-0000
  6
Continuous
 62
     7
100
AcDbLine
 10
3440.561076621758
 20
2188.382099862386
 30
0.0
 11
3505.551316390029
 21
2188.382099862386
 31
0.0
1001
ACME_LAYERS
1000
1
  0
LINE
  5
3600
330
1F
100
AcDbEntity
  8
P-0000
  6
Continuous
 62
     7
100
AcDbLine
 10
3440.561076621758
 20
2185.882099862386
 30
0.0
 11
3495.551316390038
 21
2185.882099862386
 31
0.0
1001
ACME_LAYERS
1000
1
  0
LINE
  5
3601
330
1F
100
AcDbEntity
  8
P-0000
  6
Continuous
 62
     7
100
AcDbLine
 10
3450.551316390044
 20
2183.882099862386
 30
0.0
 11
3501.55131639003
 21
2183.882099862386
 31
0.0
1001
ACME_LAYERS
1000
1
  0
LINE
  5
3604
330
1F
100
AcDbEntity
  8
P-0000
  6
Continuous
 62
     7
100
AcDbLine
 10
3441.561076621773
 20
2185.882099862386
 30
0.0
 11
3450.543332197574
 21
2185.882099862386
 31
0.0
1001
ACME_LAYERS
1000
1
  0
LINE
  5
3605
330
1F
100
AcDbEntity
  8
P-0000
  6
STRICHPUNKT
 62
     3
100
AcDbLine
 10
3440.541556158316
 20
2183.882099862386
 30
0.0
 11
3440.541556158316
 21
2185.882099862386
 31
0.0
1001
ACME_LAYERS
1000
1
  0
LINE
  5
3606
330
1F
100
AcDbEntity
  8
P-0000
  6
STRICHPUNKT
 62
     3
100
AcDbLine
 10
3440.561076621774
 20
2185.882099862386
 30
0.0
 11
3440.561076621774
 21
2183.882099862386
 31
0.0
1001
ACME_LAYERS
1000
1
  0
LINE
  5
3607
330
1F
100
AcDbEntity
  8
P-0000
  6
Continuous
 62
     7
100
AcDbLine
 10
3440.561076621774
 20
2185.882099862386
 30
0.0
 11
3441.561076621773
 21
2185.882099862386
 31
0.0
1001
ACME_LAYERS
1000
1
  0
HATCH
  5
360F
330
1F
100
AcDbEntity
  8
P-0000
  6
Continuous
 62
     1
100
AcDbHatch
 10
0.0
 20
0.0
 30
0.0
210
0.0
220
0.0
230
1.0
  2
_U
 70
     0
 71
     0
 91
        1
 92
        1
 93
       11
 72
     1
 10
3506.051316390029
 20
2185.882099862386
 11
3517.551316390038
 21
2185.882099862386
 72
     1
 10
3517.551316390038
 20
2185.882099862386
 11
3517.551316390038
 21
2183.882099862386
 72
     1
 10
3517.551316390038
 20
2183.882099862386
 11
3507.105335395966
 21
2183.882099862386
 72
     1
 10
3507.105335395966
 20
2183.882099862386
 11
3501.551316390028
 21
2183.882099862386
 72
     1
 10
3501.55131639003
 20
2183.882099862386
 11
3501.55131639003
 21
2185.882099862386
 72
     1
 10
3501.55131639003
 20
2185.882099862386
 11
3503.05131639003
 21
2185.882099862386
 72
     2
 10
3503.05131639003
 20
2186.382099862385
 40
0.5
 50
-90.00000000000001
 51
-0.0000000000000127
 73
     1
 72
     1
 10
3503.551316390029
 20
2186.382099862385
 11
3503.551316390029
 21
2188.382099862386
 72
     1
 10
3503.551316390029
 20
2188.382099862386
 11
3505.551316390029
 21
2188.382099862386
 72
     1
 10
3505.551316390029
 20
2188.382099862386
 11
3505.551316390029
 21
2186.382099862385
 72
     2
 10
3506.051316390029
 20
2186.382099862385
 40
0.5
 50
180.0
 51
270.0
 73
     1
 97
        0
 75
     0
 76
     0
 52
-45.0
 41
2.0
 77
     0
 78
     1
 53
315.0
 43
3211.87172110494
 44
2246.426490734963
 45
1.414213562373094
 46
1.414213562373094
 79
     0
 98
        1
 10
3566.490425221721
 20
1677.466431519287
1001
ACME_LAYERS
1000
1
  0
LINE
  5
3610
330
1F
100
AcDbEntity
  8
P-0000
  6
Continuous
 62
     7
100
AcDbLine
 10
3506.051316390029
 20
2185.882099862386
 30
0.0
 11
3517.551316390038
 21
2185.882099862386
 31
0.0
1001
ACME_LAYERS
1000
1
  0
LINE
  5
3611
330
1F
100
AcDbEntity
  8
P-0000
  6
Continuous
 62
     7
100
AcDbLine
 10
3501.55131639003
 20
2183.882099862386
 30
0.0
 11
3507.105335395966
 21
2183.882099862386
 31
0.0
1001
ACME_LAYERS
1000
1
  0
LINE
  5
3612
330
1F
100
AcDbEntity
  8
P-0000
  6
Continuous
 62
     7
100
AcDbLine
 10
3495.551316390038
 20
2185.882099862386
 30
0.0
 11
3501.55131639003
 21
2185.882099862386
 31
0.0
1001
ACME_LAYERS
1000
1
  0
LINE
  5
3613
330
1F
100
AcDbEntity
  8
P-0000
  6
Continuous
 62
     7
100
AcDbLine
 10
3501.55131639003
 20
2183.882099862386
 30
0.0
 11
3501.55131639003
 21
2185.882099862386
 31
0.0
1001
ACME_LAYERS
1000
1
  0
LINE
  5
3614
330
1F
100
AcDbEntity
  8
P-0000
  6
Continuous
 62
     7
100
AcDbLine
 10
3501.55131639003
 20
2185.882099862386
 30
0.0
 11
3503.05131639003
 21
2185.882099862386
 31
0.0
1001
ACME_LAYERS
1000
1
  0
LINE
  5
3615
330
1F
100
AcDbEntity
  8
P-0000
  6
Continuous
 62
     7
100
AcDbLine
 10
3505.551316390029
 20
2186.382099862385
 30
0.0
 11
3505.551316390029
 21
2188.382099862386
 31
0.0
1001
ACME_LAYERS
1000
1
  0
LINE
  5
3616
330
1F
100
AcDbEntity
  8
P-0000
  6
Continuous
 62
     7
100
AcDbLine
 10
3503.551316390029
 20
2186.382099862385
 30
0.0
 11
3503.551316390029
 21
2188.382099862386
 31
0.0
1001
ACME_LAYERS
1000
1
  0
LINE
  5
3617
330
1F
100
AcDbEntity
  8
P-0000
  6
Continuous
 62
     7
100
AcDbLine
 10
3505.551316390029
 20
2188.382099862386
 30
0.0
 11
3503.551316390029
 21
2188.382099862386
 31
0.0
1001
ACME_LAYERS
1000
1
  0
ARC
  5
3618
330
1F
100
AcDbEntity
  8
P-0000
  6
Continuous
 62
     7
100
AcDbCircle
 10
3506.051316390029
 20
2186.382099862385
 30
0.0
 40
0.5
100
AcDbArc
 50
180.0
 51
270.0
1001
ACME_LAYERS
1000
1
  0
ARC
  5
3619
330
1F
100
AcDbEntity
  8
P-0000
  6
Continuous
 62
     7
100
AcDbCircle
 10
3503.05131639003
 20
2186.382099862385
 30
0.0
 40
0.5
100
AcDbArc
 50
270.0
 51
0.0
1001
ACME_LAYERS
1000
1
  0
LINE
  5
361A
330
1F
100
AcDbEntity
  8
P-0000
  6
Continuous
 62
     7
100
AcDbLine
 10
3521.262146995097
 20
2183.882099862386
 30
0.0
 11
3517.551316390038
 21
2183.882099862386
 31
0.0
1001
ACME_LAYERS
1000
1
  0
LINE
  5
361B
330
1F
100
AcDbEntity
  8
P-0000
  6
Continuous
 62
     7
100
AcDbLine
 10
3517.551316390038
 20
2185.882099862386
 30
0.0
 11
3525.551316390038
 21
2185.882099862386
 31
0.0
1001
ACME_LAYERS
1000
1
  0
LINE
  5
361C
330
1F
100
AcDbEntity
  8
P-0000
  6
Continuous
 62
     7
100
AcDbLine
 10
3517.551316390038
 20
2183.882099862386
 30
0.0
 11
3507.105335395966
 21
2183.882099862386
 31
0.0
1001
ACME_LAYERS
1000
1
  0
LINE
  5
361D
330
1F
100
AcDbEntity
  8
P-0000
  6
Continuous
 62
     7
100
AcDbLine
 10
3517.551316390038
 20
2185.882099862386
 30
0.0
 11
3517.551316390038
 21
2183.882099862386
 31
0.0
1001
ACME_LAYERS
1000
1
  0
LINE
  5
361E
330
1F
100
AcDbEntity
  8
P-0000
  6
Continuous
 62
     7
100
AcDbLine
 10
3523.06107662176
 20
2185.882099862386
 30
0.0
 11
3524.061076621759
 21
2185.882099862386
 31
0.0
1001
ACME_LAYERS
1000
1
  0
LINE
  5
361F
330
1F
100
AcDbEntity
  8
P-0000
  6
Continuous
 62
     7
100
AcDbLine
 10
3523.06107662176
 20
2185.882099862386
 30
0.0
 11
3524.061076621759
 21
2185.882099862386
 31
0.0
1001
ACME_LAYERS
1000
1
  0
LINE
  5
3620
330
1F
100
AcDbEntity
  8
P-0000
  6
Continuous
 62
     7
100
AcDbLine
 10
3562.301316390029
 20
2168.887751160816
 30
0.0
 11
3552.30131639003
 21
2168.887751160816
 31
0.0
1001
ACME_LAYERS
1000
1
  0
LINE
  5
3621
330
1F
100
AcDbEntity
  8
P-0000
  6
Continuous
 62
     7
100
AcDbLine
 10
3562.301316390029
 20
2166.887751160817
 30
0.0
 11
3552.30131639003
 21
2166.887751160817
 31
0.0
1001
ACME_LAYERS
1000
1
  0
LINE
  5
3622
330
1F
100
AcDbEntity
  8
P-0000
  6
Continuous
 62
     7
100
AcDbLine
 10
3533.612207558352
 20
2170.887751160817
 30
0.0
 11
3533.612207558352
 21
2183.382099862386
 31
0.0
1001
ACME_LAYERS
1000
1
  0
LINE
  5
3623
330
1F
100
AcDbEntity
  8
P-0000
  6
Continuous
 62
     7
100
AcDbLine
 10
3535.551316390038
 20
2170.887751160817
 30
0.0
 11
3535.551316390038
 21
2185.882099862386
 31
0.0
1001
ACME_LAYERS
1000
1
  0
LINE
  5
3624
330
1F
100
AcDbEntity
  8
P-0000
  6
Continuous
 62
     7
100
AcDbLine
 10
3545.363008187591
 20
2168.887751160816
 30
0.0
 11
3535.551316390038
 21
2185.882099862386
 31
0.0
1001
ACME_LAYERS
1000
1
  0
LINE
  5
3625
330
1F
100
AcDbEntity
  8
P-0000
  6
Continuous
 62
     7
100
AcDbLine
 10
3535.551316390038
 20
2188.382099862386
 30
0.0
 11
3533.551316390037
 21
2188.382099862386
 31
0.0
1001
ACME_LAYERS
1000
1
  0
LINE
  5
3626
330
1F
100
AcDbEntity
  8
P-0000
  6
Continuous
 62
     7
100
AcDbLine
 10
3533.551316390037
 20
2188.382099862386
 30
0.0
 11
3533.551316390037
 21
2186.382099862385
 31
0.0
1001
ACME_LAYERS
1000
1
  0
ARC
  5
3627
330
1F
100
AcDbEntity
  8
P-0000
  6
Continuous
 62
     7
100
AcDbCircle
 10
3533.051316390038
 20
2186.382099862385
 30
0.0
 40
0.5
100
AcDbArc
 50
270.0
 51
0.0
1001
ACME_LAYERS
1000
1
  0
ARC
  5
3628
330
1F
100
AcDbEntity
  8
P-0000
  6
Continuous
 62
     7
100
AcDbCircle
 10
3533.112207558351
 20
2183.382099862386
 30
0.0
 40
0.5
100
AcDbArc
 50
0.0
 51
90.0
1001
ACME_LAYERS
1000
1
  0
LINE
  5
3629
330
1F
100
AcDbEntity
  8
P-0000
  6
Continuous
 62
     7
100
AcDbLine
 10
3535.551316390038
 20
2188.382099862386
 30
0.0
 11
3535.551316390038
 21
2185.882099862386
 31
0.0
1001
ACME_LAYERS
1000
1
  0
LINE
  5
362A
330
1F
100
AcDbEntity
  8
P-0000
  6
Continuous
 62
     7
100
AcDbLine
 10
3545.363008187591
 20
2168.887751160816
 30
0.0
 11
3537.551316390037
 21
2168.887751160816
 31
0.0
1001
ACME_LAYERS
1000
1
  0
LINE
  5
362B
330
1F
100
AcDbEntity
  8
P-0000
  6
Continuous
 62
     7
100
AcDbLine
 10
3552.30131639003
 20
2166.887751160817
 30
0.0
 11
3537.612207558352
 21
2166.887751160817
 31
0.0
1001
ACME_LAYERS
1000
1
  0
ARC
  5
362C
330
1F
100
AcDbEntity
  8
P-0000
  6
Continuous
 62
     7
100
AcDbCircle
 10
3537.551316390037
 20
2170.887751160817
 30
0.0
 40
2.0
100
AcDbArc
 50
180.0
 51
270.0
1001
ACME_LAYERS
1000
1
  0
ARC
  5
362D
330
1F
100
AcDbEntity
  8
P-0000
  6
Continuous
 62
     7
100
AcDbCircle
 10
3537.612207558352
 20
2170.887751160817
 30
0.0
 40
4.0
100
AcDbArc
 50
180.0
 51
240.0000000000027
1001
ACME_LAYERS
1000
1
  0
ARC
  5
362E
330
1F
100
AcDbEntity
  8
P-0000
  6
Continuous
 62
     7
100
AcDbCircle
 10
3537.612207558352
 20
2170.887751160817
 30
0.0
 40
4.000000000000031
100
AcDbArc
 50
240.0000000000027
 51
270.0
1001
ACME_LAYERS
1000
1
  0
LINE
  5
362F
330
1F
100
AcDbEntity
  8
P-0000
  6
Continuous
 62
     7
100
AcDbLine
 10
3552.30131639003
 20
2168.887751160816
 30
0.0
 11
3545.363008187591
 21
2168.887751160816
 31
0.0
1001
ACME_LAYERS
1000
1
  0
LINE
  5
3630
330
1F
100
AcDbEntity
  8
P-0000
  6
Continuous
 62
     7
100
AcDbLine
 10
3552.30131639003
 20
2166.887751160817
 30
0.0
 11
3552.30131639003
 21
2168.887751160816
 31
0.0
1001
ACME_LAYERS
1000
1
  0
HATCH
  5
3631
330
1F
100
AcDbEntity
  8
P-0000
  6
Continuous
 62
     1
100
AcDbHatch
 10
0.0
 20
0.0
 30
0.0
210
0.0
220
0.0
230
1.0
  2
_U
 70
     0
 71
     0
 91
        1
 92
        1
 93
        4
 72
     1
 10
3567.301316390029
 20
2166.887751160817
 11
3562.301316390029
 21
2166.887751160817
 72
     1
 10
3562.301316390029
 20
2166.887751160817
 11
3562.301316390029
 21
2168.887751160816
 72
     1
 10
3562.301316390029
 20
2168.887751160816
 11
3567.301316390029
 21
2168.887751160816
 72
     1
 10
3567.301316390029
 20
2168.887751160816
 11
3567.301316390029
 21
2166.887751160817
 97
        0
 75
     0
 76
     0
 52
-45.0
 41
2.0
 77
     0
 78
     1
 53
315.0
 43
3566.490425221721
 44
1677.466431519287
 45
1.414213562373094
 46
1.414213562373094
 79
     0
 98
        1
 10
3566.490425221721
 20
1677.466431519287
1001
ACME_LAYERS
1000
1
  0
LINE
  5
3632
330
1F
100
AcDbEntity
  8
P-0000
  6
Continuous
 62
     7
100
AcDbLine
 10
3567.301316390029
 20
2168.887751160816
 30
0.0
 11
3562.301316390029
 21
2168.887751160816
 31
0.0
1001
ACME_LAYERS
1000
1
  0
LINE
  5
3633
330
1F
100
AcDbEntity
  8
P-0000
  6
Continuous
 62
     7
100
AcDbLine
 10
3567.301316390029
 20
2166.887751160817
 30
0.0
 11
3562.301316390029
 21
2166.887751160817
 31
0.0
1001
ACME_LAYERS
1000
1
  0
LINE
  5
3634
330
1F
100
AcDbEntity
  8
P-0000
  6
Continuous
 62
     7
100
AcDbLine
 10
3562.301316390029
 20
2166.887751160817
 30
0.0
 11
3562.301316390029
 21
2168.887751160816
 31
0.0
1001
ACME_LAYERS
1000
1
  0
LINE
  5
3635
330
1F
100
AcDbEntity
  8
P-0000
  6
Continuous
 62
     7
100
AcDbLine
 10
3567.301316390029
 20
2166.887751160817
 30
0.0
 11
3567.301316390029
 21
2168.887751160816
 31
0.0
1001
ACME_LAYERS
1000
1
  0
LINE
  5
3636
330
1F
100
AcDbEntity
  8
P-0000
  6
Continuous
 62
     7
100
AcDbLine
 10
3442.051316390037
 20
2227.832928279403
 30
0.0
 11
3442.051316390037
 21
2191.832928279403
 31
0.0
1001
ACME_LAYERS
1000
1
  0
LINE
  5
3637
330
1F
100
AcDbEntity
  8
P-0000
  6
Continuous
 62
     7
100
AcDbLine
 10
3516.998986801016
 20
2210.402057478692
 30
0.0
 11
3517.977776017301
 21
2207.712856208544
 31
0.0
1001
ACME_LAYERS
1000
1
  0
LINE
  5
3638
330
1F
100
AcDbEntity
  8
P-0000
  6
Continuous
 62
     7
100
AcDbLine
 10
3508.327019404902
 20
2191.832928279403
 30
0.0
 11
3495.224090971316
 21
2227.832928279403
 31
0.0
1001
ACME_LAYERS
1000
1
  0
LINE
  5
3639
330
1F
100
AcDbEntity
  8
P-0000
  6
Continuous
 62
     7
100
AcDbLine
 10
3442.051316390037
 20
2233.802577379035
 30
0.0
 11
3493.051316390037
 21
2233.802577379035
 31
0.0
1001
ACME_LAYERS
1000
1
  0
LINE
  5
363A
330
1F
100
AcDbEntity
  8
P-0000
  6
Continuous
 62
     7
100
AcDbLine
 10
3442.051316390037
 20
2233.802577379035
 30
0.0
 11
3493.051316390037
 21
2233.802577379035
 31
0.0
1001
ACME_LAYERS
1000
1
  0
LINE
  5
363B
330
1F
100
AcDbEntity
  8
P-0000
  6
Continuous
 62
     7
100
AcDbLine
 10
3488.421309311587
 20
2265.832928279404
 30
0.0
 11
3481.3932220692
 21
2265.832928279404
 31
0.0
1001
ACME_LAYERS
1000
1
  0
LINE
  5
363C
330
1F
100
AcDbEntity
  8
P-0000
  6
Continuous
 62
     7
100
AcDbLine
 10
3494.051316390038
 20
2227.832928279403
 30
0.0
 11
3442.051316390037
 21
2227.832928279403
 31
0.0
1001
ACME_LAYERS
1000
1
  0
LINE
  5
363D
330
1F
100
AcDbEntity
  8
P-0000
  6
Continuous
 62
     7
100
AcDbLine
 10
3486.852775583194
 20
2250.832928279403
 30
0.0
 11
3444.655479446072
 21
2250.832928279403
 31
0.0
1001
ACME_LAYERS
1000
1
  0
LINE
  5
363E
330
1F
100
AcDbEntity
  8
P-0000
  6
Continuous
 62
     7
100
AcDbLine
 10
3442.051316390037
 20
2250.832928279403
 30
0.0
 11
3442.051316390037
 21
2233.802577379035
 31
0.0
1001
ACME_LAYERS
1000
1
  0
LINE
  5
363F
330
1F
100
AcDbEntity
  8
P-0000
  6
Continuous
 62
     7
100
AcDbLine
 10
3479.264866524249
 20
2265.832928279404
 30
0.0
 11
3444.655479446072
 21
2265.832928279404
 31
0.0
1001
ACME_LAYERS
1000
1
  0
LINE
  5
3640
330
1F
100
AcDbEntity
  8
P-0000
  6
Continuous
 62
     7
100
AcDbLine
 10
3444.655479446072
 20
2265.832928279404
 30
0.0
 11
3444.655479446072
 21
2250.832928279403
 31
0.0
1001
ACME_LAYERS
1000
1
  0
LINE
  5
3641
330
1F
100
AcDbEntity
  8
P-0000
  6
Continuous
 62
     7
100
AcDbLine
 10
3444.655479446072
 20
2265.832928279404
 30
0.0
 11
3440.551316390037
 21
2265.832928279404
 31
0.0
1001
ACME_LAYERS
1000
1
  0
LINE
  5
3642
330
1F
100
AcDbEntity
  8
P-0000
  6
Continuous
 62
     7
100
AcDbLine
 10
3444.655479446072
 20
2250.832928279403
 30
0.0
 11
3442.051316390037
 21
2250.832928279403
 31
0.0
1001
ACME_LAYERS
1000
1
  0
LINE
  5
3643
330
1F
100
AcDbEntity
  8
P-0000
  6
Continuous
 62
     7
100
AcDbLine
 10
3442.051316390037
 20
2250.832928279403
 30
0.0
 11
3440.551316390037
 21
2250.832928279403
 31
0.0
1001
ACME_LAYERS
1000
1
  0
LINE
  5
3644
330
1F
100
AcDbEntity
  8
P-0000
  6
Continuous
 62
     7
100
AcDbLine
 10
3440.551316390037
 20
2250.832928279403
 30
0.0
 11
3439.051316390037
 21
2250.832928279403
 31
0.0
1001
ACME_LAYERS
1000
1
  0
HATCH
  5
3645
330
1F
100
AcDbEntity
  8
P-0000
  6
Continuous
 62
     1
100
AcDbHatch
 10
0.0
 20
0.0
 30
0.0
210
0.0
220
0.0
230
1.0
  2
_U
 70
     0
 71
     0
 91
        1
 92
        1
 93
        5
 72
     1
 10
3482.849103006265
 20
2261.832928279403
 11
3481.393222069199
 21
2265.832928279404
 72
     1
 10
3481.3932220692
 20
2265.832928279404
 11
3479.264866524249
 21
2265.832928279404
 72
     1
 10
3479.264866524249
 20
2265.832928279404
 11
3480.481262378737
 21
2262.490908136078
 72
     2
 10
3481.420954999522
 20
2262.832928279403
 40
1.000000000000015
 50
200.0000000000031
 51
270.0
 73
     1
 72
     1
 10
3481.420954999522
 20
2261.832928279403
 11
3482.849103006265
 21
2261.832928279403
 97
        0
 75
     0
 76
     0
 52
44.99999999999999
 41
1.0
 77
     0
 78
     1
 53
45.0
 43
3267.960289153979
 44
2304.331011311383
 45
-0.7071067811865474
 46
0.7071067811865479
 79
     0
 98
        1
 10
3566.500185453442
 20
1697.354072611049
1001
ACME_LAYERS
1000
1
  0
LINE
  5
3646
330
1F
100
AcDbEntity
  8
P-0000
  6
Continuous
 62
     7
100
AcDbLine
 10
3480.481262378737
 20
2262.490908136078
 30
0.0
 11
3479.264866524249
 21
2265.832928279404
 31
0.0
1001
ACME_LAYERS
1000
1
  0
LINE
  5
3647
330
1F
100
AcDbEntity
  8
P-0000
  6
Continuous
 62
     7
100
AcDbLine
 10
3482.849103006265
 20
2261.832928279403
 30
0.0
 11
3481.3932220692
 21
2265.832928279404
 31
0.0
1001
ACME_LAYERS
1000
1
  0
LINE
  5
3648
330
1F
100
AcDbEntity
  8
P-0000
  6
Continuous
 62
     7
100
AcDbLine
 10
3481.3932220692
 20
2265.832928279404
 30
0.0
 11
3479.264866524249
 21
2265.832928279404
 31
0.0
1001
ACME_LAYERS
1000
1
  0
ARC
  5
3649
330
1F
100
AcDbEntity
  8
P-0000
  6
Continuous
 62
     7
100
AcDbCircle
 10
3481.420954999522
 20
2262.832928279403
 30
0.0
 40
1.000000000000015
100
AcDbArc
 50
199.9999999999892
 51
270.0
1001
ACME_LAYERS
1000
1
  0
ARC
  5
364A
330
1F
100
AcDbEntity
  8
P-0000
  6
Continuous
 62
     7
100
AcDbCircle
 10
3481.420954999522
 20
2262.832928279403
 30
0.0
 40
1.000000000000015
100
AcDbArc
 50
199.9999999999892
 51
270.0
1001
ACME_LAYERS
1000
1
  0
LINE
  5
364B
330
1F
100
AcDbEntity
  8
P-0000
  6
Continuous
 62
     7
100
AcDbLine
 10
3482.849103006265
 20
2261.832928279403
 30
0.0
 11
3481.420954999522
 21
2261.832928279403
 31
0.0
1001
ACME_LAYERS
1000
1
  0
LINE
  5
364C
330
1F
100
AcDbEntity
  8
P-0000
  6
Continuous
 62
     7
100
AcDbLine
 10
3440.551316390037
 20
2233.802577379035
 30
0.0
 11
3442.051316390037
 21
2233.802577379035
 31
0.0
1001
ACME_LAYERS
1000
1
  0
LINE
  5
364D
330
1F
100
AcDbEntity
  8
P-0000
  6
Continuous
 62
     7
100
AcDbLine
 10
3440.551316390037
 20
2233.802577379035
 30
0.0
 11
3442.051316390037
 21
2233.802577379035
 31
0.0
1001
ACME_LAYERS
1000
1
  0
LINE
  5
364E
330
1F
100
AcDbEntity
  8
P-0000
  6
Continuous
 62
     7
100
AcDbLine
 10
3442.051316390037
 20
2227.832928279403
 30
0.0
 11
3440.551316390037
 21
2227.832928279403
 31
0.0
1001
ACME_LAYERS
1000
1
  0
LINE
  5
364F
330
1F
100
AcDbEntity
  8
P-0000
  6
Continuous
 62
     7
100
AcDbLine
 10
3499.697620761017
 20
2257.937169999312
 30
0.0
 11
3516.998986801016
 21
2210.402057478692
 31
0.0
1001
ACME_LAYERS
1000
1
  0
LINE
  5
3650
330
1F
100
AcDbEntity
  8
P-0000
  6
Continuous
 62
     7
100
AcDbLine
 10
3493.051316390037
 20
2233.802577379035
 30
0.0
 11
3486.852775583194
 21
2250.832928279403
 31
0.0
1001
ACME_LAYERS
1000
1
  0
ARC
  5
3651
330
1F
100
AcDbEntity
  8
P-0000
  6
Continuous
 62
     7
100
AcDbCircle
 10
3488.421309311587
 20
2253.832928279404
 30
0.0
 40
11.99999999999995
100
AcDbArc
 50
19.99999999998924
 51
90.0
1001
ACME_LAYERS
1000
1
  0
HATCH
  5
3652
330
1F
100
AcDbEntity
  8
P-0000
  6
Continuous
 62
     3
100
AcDbHatch
 10
0.0
 20
0.0
 30
0.0
210
0.0
220
0.0
230
1.0
  2
_U
 70
     0
 71
     0
 91
        1
 92
        1
 93
        4
 72
     1
 10
3495.224090971316
 20
2227.832928279403
 11
3493.051316390037
 21
2233.802577379035
 72
     1
 10
3493.051316390037
 20
2233.802577379035
 11
3493.051316390037
 21
2228.832928279404
 72
     2
 10
3494.051316390038
 20
2228.832928279404
 40
1.0
 50
180.0
 51
270.0
 73
     1
 72
     1
 10
3494.051316390038
 20
2227.832928279403
 11
3495.224090971316
 21
2227.832928279403
 97
        0
 75
     0
 76
     0
 52
44.99999999999999
 41
1.0
 77
     0
 78
     1
 53
45.0
 43
3566.500185453442
 44
1697.354072611049
 45
-0.7071067811865474
 46
0.7071067811865479
 79
     0
 98
        1
 10
3566.500185453442
 20
1697.354072611049
1001
ACME_LAYERS
1000
1
  0
LINE
  5
3653
330
1F
100
AcDbEntity
  8
P-0000
  6
Continuous
 62
     7
100
AcDbLine
 10
3495.224090971316
 20
2227.832928279403
 30
0.0
 11
3494.051316390038
 21
2227.832928279403
 31
0.0
1001
ACME_LAYERS
1000
1
  0
LINE
  5
3654
330
1F
100
AcDbEntity
  8
P-0000
  6
Continuous
 62
     7
100
AcDbLine
 10
3495.224090971316
 20
2227.832928279403
 30
0.0
 11
3493.051316390037
 21
2233.802577379035
 31
0.0
1001
ACME_LAYERS
1000
1
  0
LINE
  5
3655
330
1F
100
AcDbEntity
  8
P-0000
  6
Continuous
 62
     7
100
AcDbLine
 10
3493.051316390037
 20
2228.832928279404
 30
0.0
 11
3493.051316390037
 21
2233.802577379035
 31
0.0
1001
ACME_LAYERS
1000
1
  0
LINE
  5
3656
330
1F
100
AcDbEntity
  8
P-0000
  6
Continuous
 62
     7
100
AcDbLine
 10
3493.051316390037
 20
2228.832928279404
 30
0.0
 11
3493.051316390037
 21
2233.802577379035
 31
0.0
1001
ACME_LAYERS
1000
1
  0
ARC
  5
3657
330
1F
100
AcDbEntity
  8
P-0000
  6
Continuous
 62
     7
100
AcDbCircle
 10
3494.051316390038
 20
2228.832928279404
 30
0.0
 40
1.0
100
AcDbArc
 50
180.0
 51
270.0
1001
ACME_LAYERS
1000
1
  0
ARC
  5
3658
330
1F
100
AcDbEntity
  8
P-0000
  6
Continuous
 62
     7
100
AcDbCircle
 10
3494.051316390038
 20
2228.832928279404
 30
0.0
 40
1.0
100
AcDbArc
 50
180.0
 51
270.0
1001
ACME_LAYERS
1000
1
  0
LINE
  5
3659
330
1F
100
AcDbEntity
  8
P-0000
  6
Continuous
 62
     7
100
AcDbLine
 10
3442.051316390037
 20
2191.832928279403
 30
0.0
 11
3508.327019404902
 21
2191.832928279403
 31
0.0
1001
ACME_LAYERS
1000
1
  0
LINE
  5
365A
330
1F
100
AcDbEntity
  8
P-0000
  6
Continuous
 62
     7
100
AcDbLine
 10
3442.051316390037
 20
2191.832928279403
 30
0.0
 11
3508.327019404902
 21
2191.832928279403
 31
0.0
1001
ACME_LAYERS
1000
1
  0
LINE
  5
365B
330
1F
100
AcDbEntity
  8
P-0000
  6
Continuous
 62
     7
100
AcDbLine
 10
3442.051316390037
 20
2191.832928279403
 30
0.0
 11
3508.327019404902
 21
2191.832928279403
 31
0.0
1001
ACME_LAYERS
1000
1
  0
LINE
  5
365C
330
1F
100
AcDbEntity
  8
P-0000
  6
Continuous
 62
     7
100
AcDbLine
 10
3508.327019404902
 20
2185.832928279404
 30
0.0
 11
3442.051316390037
 21
2185.832928279404
 31
0.0
1001
ACME_LAYERS
1000
1
  0
LINE
  5
365D
330
1F
100
AcDbEntity
  8
P-0000
  6
Continuous
 62
     7
100
AcDbLine
 10
3440.551316390037
 20
2191.832928279403
 30
0.0
 11
3442.051316390037
 21
2191.832928279403
 31
0.0
1001
ACME_LAYERS
1000
1
  0
LINE
  5
365E
330
1F
100
AcDbEntity
  8
P-0000
  6
Continuous
 62
     7
100
AcDbLine
 10
3440.551316390037
 20
2191.832928279403
 30
0.0
 11
3442.051316390037
 21
2191.832928279403
 31
0.0
1001
ACME_LAYERS
1000
1
  0
LINE
  5
365F
330
1F
100
AcDbEntity
  8
P-0000
  6
Continuous
 62
     7
100
AcDbLine
 10
3440.551316390037
 20
2191.832928279403
 30
0.0
 11
3442.051316390037
 21
2191.832928279403
 31
0.0
1001
ACME_LAYERS
1000
1
  0
LINE
  5
3660
330
1F
100
AcDbEntity
  8
P-0000
  6
Continuous
 62
     7
100
AcDbLine
 10
3442.051316390037
 20
2185.832928279404
 30
0.0
 11
3440.551316390037
 21
2185.832928279404
 31
0.0
1001
ACME_LAYERS
1000
1
  0
LINE
  5
3661
330
1F
100
AcDbEntity
  8
P-0000
  6
Continuous
 62
     7
100
AcDbLine
 10
3517.977776017301
 20
2207.712856208544
 30
0.0
 11
3525.551316390038
 21
2186.904725049128
 31
0.0
1001
ACME_LAYERS
1000
1
  0
LINE
  5
3662
330
1F
100
AcDbEntity
  8
P-0000
  6
Continuous
 62
     7
100
AcDbLine
 10
3519.551316390038
 20
2185.832928279404
 30
0.0
 11
3511.327019404902
 21
2185.832928279404
 31
0.0
1001
ACME_LAYERS
1000
1
  0
LINE
  5
3663
330
1F
100
AcDbEntity
  8
P-0000
  6
Continuous
 62
     7
100
AcDbLine
 10
3511.327019404902
 20
2185.832928279404
 30
0.0
 11
3511.327019404902
 21
2191.832928279403
 31
0.0
1001
ACME_LAYERS
1000
1
  0
LINE
  5
3664
330
1F
100
AcDbEntity
  8
P-0000
  6
Continuous
 62
     7
100
AcDbLine
 10
3508.327019404902
 20
2185.832928279404
 30
0.0
 11
3508.327019404902
 21
2191.832928279403
 31
0.0
1001
ACME_LAYERS
1000
1
  0
LINE
  5
3665
330
1F
100
AcDbEntity
  8
P-0000
  6
Continuous
 62
     7
100
AcDbLine
 10
3508.327019404902
 20
2191.832928279403
 30
0.0
 11
3511.327019404902
 21
2191.832928279403
 31
0.0
1001
ACME_LAYERS
1000
1
  0
LINE
  5
3666
330
1F
100
AcDbEntity
  8
P-0000
  6
Continuous
 62
     7
100
AcDbLine
 10
3508.327019404902
 20
2191.832928279403
 30
0.0
 11
3511.327019404902
 21
2191.832928279403
 31
0.0
1001
ACME_LAYERS
1000
1
  0
LINE
  5
3667
330
1F
100
AcDbEntity
  8
P-0000
  6
Continuous
 62
     7
100
AcDbLine
 10
3511.327019404902
 20
2185.832928279404
 30
0.0
 11
3508.327019404902
 21
2185.832928279404
 31
0.0
1001
ACME_LAYERS
1000
1
  0
LINE
  5
3668
102
{ACAD_REACTORS
330
35F8
102
}
330
1F
100
AcDbEntity
  8
P-0000
  6
Continuous
 62
     7
100
AcDbLine
 10
3526.051316390038
 20
2183.632928279404
 30
0.0
 11
3526.051316390038
 21
2185.832928279404
 31
0.0
1001
ACME_LAYERS
1000
1
  0
LINE
  5
3669
330
1F
100
AcDbEntity
  8
P-0000
  6
Continuous
 62
     7
100
AcDbLine
 10
3524.775086123487
 20
2179.876360510611
 30
0.0
 11
3519.551316390038
 21
2185.832928279404
 31
0.0
1001
ACME_LAYERS
1000
1
  0
LINE
  5
366A
330
1F
100
AcDbEntity
  8
P-0000
  6
Continuous
 62
     7
100
AcDbLine
 10
3525.551316390038
 20
2185.832928279404
 30
0.0
 11
3525.551316390038
 21
2186.904725049128
 31
0.0
1001
ACME_LAYERS
1000
1
  0
LINE
  5
366B
102
{ACAD_REACTORS
330
35F8
102
}
330
1F
100
AcDbEntity
  8
P-0000
  6
Continuous
 62
     7
100
AcDbLine
 10
3526.051316390038
 20
2185.832928279404
 30
0.0
 11
3525.551316390038
 21
2185.832928279404
 31
0.0
1001
ACME_LAYERS
1000
1
  0
LINE
  5
366C
102
{ACAD_REACTORS
330
35F8
102
}
330
1F
100
AcDbEntity
  8
P-0000
  6
Continuous
 62
     7
100
AcDbLine
 10
3525.551316390038
 20
2185.832928279404
 30
0.0
 11
3525.551316390038
 21
2186.904725049128
 31
0.0
1001
ACME_LAYERS
1000
1
  0
LINE
  5
366D
330
1F
100
AcDbEntity
  8
P-0000
  6
Continuous
 62
     7
100
AcDbLine
 10
3527.251316390037
 20
2182.132928279404
 30
0.0
 11
3525.692489197967
 21
2179.935386508204
 31
0.0
1001
ACME_LAYERS
1000
1
  0
LINE
  5
366E
330
1F
100
AcDbEntity
  8
P-0000
  6
Continuous
 62
     7
100
AcDbLine
 10
3526.051316390038
 20
2183.632928279404
 30
0.0
 11
3527.251316390037
 21
2183.632928279404
 31
0.0
1001
ACME_LAYERS
1000
1
  0
LINE
  5
366F
330
1F
100
AcDbEntity
  8
P-0000
  6
Continuous
 62
     7
100
AcDbLine
 10
3527.251316390037
 20
2183.632928279404
 30
0.0
 11
3527.251316390037
 21
2182.132928279404
 31
0.0
1001
ACME_LAYERS
1000
1
  0
ARC
  5
3670
330
1F
100
AcDbEntity
  8
P-0000
  6
Continuous
 62
     7
100
AcDbCircle
 10
3525.203109395881
 20
2180.282528279404
 30
0.0
 40
0.6000000000000229
100
AcDbArc
 50
270.0
 51
324.6500000000132
1001
ACME_LAYERS
1000
1
  0
ARC
  5
3671
330
1F
100
AcDbEntity
  8
P-0000
  6
Continuous
 62
     7
100
AcDbCircle
 10
3525.202882973943
 20
2180.251528279403
 30
0.0
 40
0.5689999999999894
100
AcDbArc
 50
221.2500000000013
 51
270.0
1001
ACME_LAYERS
1000
1
  0
LINE
  5
3672
330
1F
100
AcDbEntity
  8
P-0000
  6
Continuous
 62
     7
100
AcDbLine
 10
3525.203109395881
 20
2179.682528279403
 30
0.0
 11
3525.202882973943
 21
2179.682528279403
 31
0.0
1001
ACME_LAYERS
1000
1
  0
HATCH
  5
3673
330
1F
100
AcDbEntity
  8
P-0000
  6
Continuous
 62
     1
100
AcDbHatch
 10
0.0
 20
0.0
 30
0.0
210
0.0
220
0.0
230
1.0
  2
_U
 70
     0
 71
     0
 91
        1
 92
        1
 93
        4
 72
     1
 10
3511.327019404902
 20
2191.832928279403
 11
3508.327019404902
 21
2191.832928279403
 72
     1
 10
3508.327019404902
 20
2191.832928279403
 11
3508.327019404902
 21
2185.832928279404
 72
     1
 10
3508.327019404902
 20
2185.832928279404
 11
3511.327019404902
 21
2185.832928279404
 72
     1
 10
3511.327019404902
 20
2185.832928279404
 11
3511.327019404902
 21
2191.832928279403
 97
        0
 75
     0
 76
     0
 52
44.99999999999999
 41
1.0
 77
     0
 78
     1
 53
45.0
 43
848.2317450094047
 44
1033.399343083144
 45
-0.7071067811865475
 46
0.7071067811865476
 79
     0
 98
        1
 10
3267.960289153979
 20
2304.331011311383
1001
GENIUS_GENODEF_13
1002
{
1000
HIER
1070
     0
1002
}
1002
{
1000
MANEDIT
1070
     0
1002
}
1002
{
1000
NOSEL
1070
     0
1002
}
1002
{
1000
BEHIND
1070
     0
1002
}
1002
{
1000
OTHER
1070
     0
1002
}
1002
{
1000
REACTOR
1002
}
1001
GENIUS_GENOBJ-N-HTC_13
1002
{
1000
OWNER
1000
GEN
1002
}
1001
GENIUS_GENHATCH_13
1002
{
1000
DATA
1040
135.0
1042
1.0
1000
_U
1070
     0
1011
3509.095996220349
1021
2186.291515325922
1031
0.0
1002
}
1002
{
1000
UCS
1010
0.0
1020
0.0
1030
0.0
1010
1.0
1020
0.0
1030
0.0
1010
0.0
1020
1.0
1030
0.0
1002
}
1001
ACAD
1010
0.0
1020
0.0
1030
0.0
  0
LINE
  5
3674
330
1F
100
AcDbEntity
  8
P-0000
  6
Continuous
 62
     7
100
AcDbLine
 10
3319.783859152328
 20
2168.887751160927
 30
0.0
 11
3329.783859152328
 21
2168.887751160918
 31
0.0
1001
ACME_LAYERS
1000
1
  0
LINE
  5
3675
330
1F
100
AcDbEntity
  8
P-0000
  6
Continuous
 62
     7
100
AcDbLine
 10
3321.583859152339
 20
2180.035032600637
 30
0.0
 11
3324.783859152339
 21
2180.035032600635
 31
0.0
1001
ACME_LAYERS
1000
1
  0
LINE
  5
3676
330
1F
100
AcDbEntity
  8
P-0000
  6
Continuous
 62
     7
100
AcDbLine
 10
3327.983859152336
 20
2179.435032600632
 30
0.0
 11
3321.583859152335
 21
2179.435032600637
 31
0.0
1001
ACME_LAYERS
1000
1
  0
LINE
  5
3677
330
1F
100
AcDbEntity
  8
P-0000
  6
Continuous
 62
     7
100
AcDbLine
 10
3320.783859152337
 20
2179.435032600637
 30
0.0
 11
3320.783859152334
 21
2176.487751160923
 31
0.0
1001
ACME_LAYERS
1000
1
  0
LINE
  5
3678
330
1F
100
AcDbEntity
  8
P-0000
  6
Continuous
 62
     3
100
AcDbLine
 10
3321.583859152339
 20
2180.035032600637
 30
0.0
 11
3321.583859152332
 21
2176.487751160923
 31
0.0
1001
ACME_LAYERS
1000
1
  0
LINE
  5
3679
330
1F
100
AcDbEntity
  8
P-0000
  6
Continuous
 62
     7
100
AcDbLine
 10
3321.583859152335
 20
2179.435032600637
 30
0.0
 11
3320.783859152337
 21
2179.435032600637
 31
0.0
1001
ACME_LAYERS
1000
1
  0
LINE
  5
367A
330
1F
100
AcDbEntity
  8
P-0000
  6
Continuous
 62
     3
100
AcDbLine
 10
3321.583859152339
 20
2180.035032600637
 30
0.0
 11
3321.583859152335
 21
2179.435032600637
 31
0.0
1001
ACME_LAYERS
1000
1
  0
LINE
  5
367B
330
1F
100
AcDbEntity
  8
P-0000
  6
Continuous
 62
     7
100
AcDbLine
 10
3320.783859152337
 20
2179.435032600637
 30
0.0
 11
3321.583859152339
 21
2180.035032600637
 31
0.0
1001
ACME_LAYERS
1000
1
  0
LINE
  5
367C
330
1F
100
AcDbEntity
  8
P-0000
  6
Continuous
 62
     7
100
AcDbLine
 10
3328.783859152338
 20
2179.435032600631
 30
0.0
 11
3328.783859152334
 21
2176.487751160917
 31
0.0
1001
ACME_LAYERS
1000
1
  0
LINE
  5
367D
330
1F
100
AcDbEntity
  8
P-0000
  6
STRICHPUNKT
 62
     3
100
AcDbLine
 10
3324.783859152334
 20
2176.487751160919
 30
0.0
 11
3324.783859152339
 21
2180.035032600635
 31
0.0
1001
ACME_LAYERS
1000
1
  0
LINE
  5
367E
330
1F
100
AcDbEntity
  8
P-0000
  6
Continuous
 62
     3
100
AcDbLine
 10
3327.983859152339
 20
2180.035032600631
 30
0.0
 11
3327.983859152334
 21
2176.487751160918
 31
0.0
1001
ACME_LAYERS
1000
1
  0
LINE
  5
367F
330
1F
100
AcDbEntity
  8
P-0000
  6
Continuous
 62
     3
100
AcDbLine
 10
3327.983859152339
 20
2180.035032600631
 30
0.0
 11
3327.983859152336
 21
2179.435032600632
 31
0.0
1001
ACME_LAYERS
1000
1
  0
LINE
  5
3680
330
1F
100
AcDbEntity
  8
P-0000
  6
Continuous
 62
     7
100
AcDbLine
 10
3328.783859152338
 20
2179.435032600631
 30
0.0
 11
3327.983859152336
 21
2179.435032600632
 31
0.0
1001
ACME_LAYERS
1000
1
  0
LINE
  5
3681
330
1F
100
AcDbEntity
  8
P-0000
  6
Continuous
 62
     7
100
AcDbLine
 10
3327.983859152339
 20
2180.035032600631
 30
0.0
 11
3328.783859152338
 21
2179.435032600631
 31
0.0
1001
ACME_LAYERS
1000
1
  0
LINE
  5
3682
330
1F
100
AcDbEntity
  8
P-0000
  6
Continuous
 62
     7
100
AcDbLine
 10
3324.783859152339
 20
2180.035032600635
 30
0.0
 11
3327.983859152339
 21
2180.035032600631
 31
0.0
1001
ACME_LAYERS
1000
1
  0
LINE
  5
3683
330
1F
100
AcDbEntity
  8
P-0000
  6
Continuous
 62
     7
100
AcDbLine
 10
3328.783859152333
 20
2176.487751160917
 30
0.0
 11
3321.583859152332
 21
2176.487751160923
 31
0.0
1001
ACME_LAYERS
1000
1
  0
LINE
  5
3684
330
1F
100
AcDbEntity
  8
P-0000
  6
Continuous
 62
     7
100
AcDbLine
 10
3321.583859152332
 20
2176.487751160923
 30
0.0
 11
3320.783859152334
 21
2176.487751160923
 31
0.0
1001
ACME_LAYERS
1000
1
  0
LINE
  5
3685
330
1F
100
AcDbEntity
  8
P-0000
  6
Continuous
 62
     7
100
AcDbLine
 10
3316.338161038907
 20
2170.387751160927
 30
0.0
 11
3316.338161038906
 21
2168.88775116093
 31
0.0
1001
ACME_LAYERS
1000
1
  0
LINE
  5
3686
330
1F
100
AcDbEntity
  8
P-0000
  6
Continuous
 62
     7
100
AcDbLine
 10
3333.338161038906
 20
2168.887751160915
 30
0.0
 11
3333.338161038907
 21
2170.387751160912
 31
0.0
1001
ACME_LAYERS
1000
1
  0
LINE
  5
3687
330
1F
100
AcDbEntity
  8
P-0000
  6
Continuous
 62
     7
100
AcDbLine
 10
3316.338161038907
 20
2170.487751160928
 30
0.0
 11
3316.338161038907
 21
2170.387751160927
 31
0.0
1001
ACME_LAYERS
1000
1
  0
LINE
  5
3688
330
1F
100
AcDbEntity
  8
P-0000
  6
Continuous
 62
     7
100
AcDbLine
 10
3333.338161038907
 20
2170.487751160913
 30
0.0
 11
3316.338161038907
 21
2170.487751160928
 31
0.0
1001
ACME_LAYERS
1000
1
  0
LINE
  5
3689
330
1F
100
AcDbEntity
  8
P-0000
  6
Continuous
 62
     7
100
AcDbLine
 10
3333.338161038907
 20
2170.387751160912
 30
0.0
 11
3333.338161038907
 21
2170.487751160913
 31
0.0
1001
ACME_LAYERS
1000
1
  0
LINE
  5
368A
330
1F
100
AcDbEntity
  8
P-0000
  6
Continuous
 62
     7
100
AcDbLine
 10
3332.289412651797
 20
2172.374690352821
 30
0.0
 11
3332.289412651793
 21
2171.068307744514
 31
0.0
1001
ACME_LAYERS
1000
1
  0
LINE
  5
368B
330
1F
100
AcDbEntity
  8
P-0000
  6
Continuous
 62
     7
100
AcDbLine
 10
3318.283859152328
 20
2170.487751160926
 30
0.0
 11
3331.283859152328
 21
2170.487751160914
 31
0.0
1001
ACME_LAYERS
1000
1
  0
LINE
  5
368C
330
1F
100
AcDbEntity
  8
P-0000
  6
Continuous
 62
     7
100
AcDbLine
 10
3317.278305652865
 20
2172.374690352834
 30
0.0
 11
3317.278305652864
 21
2171.068307744526
 31
0.0
1001
ACME_LAYERS
1000
1
  0
LINE
  5
368D
330
1F
100
AcDbEntity
  8
P-0000
  6
Continuous
 62
     7
100
AcDbLine
 10
3320.783859152334
 20
2176.487751160923
 30
0.0
 11
3318.283859152334
 21
2176.487751160926
 31
0.0
1001
ACME_LAYERS
1000
1
  0
LINE
  5
368E
330
1F
100
AcDbEntity
  8
P-0000
  6
Continuous
 62
     7
100
AcDbLine
 10
3332.042741063138
 20
2170.914894726548
 30
0.0
 11
3331.283859152328
 21
2170.487751160914
 31
0.0
1001
ACME_LAYERS
1000
1
  0
LINE
  5
368F
330
1F
100
AcDbEntity
  8
P-0000
  6
Continuous
 62
     7
100
AcDbLine
 10
3332.042741063143
 20
2176.060607595279
 30
0.0
 11
3331.283859152333
 21
2176.487751160914
 31
0.0
1001
ACME_LAYERS
1000
1
  0
LINE
  5
3690
330
1F
100
AcDbEntity
  8
P-0000
  6
Continuous
 62
     7
100
AcDbLine
 10
3317.524977241522
 20
2170.914894726561
 30
0.0
 11
3318.283859152328
 21
2170.487751160926
 31
0.0
1001
ACME_LAYERS
1000
1
  0
LINE
  5
3691
330
1F
100
AcDbEntity
  8
P-0000
  6
Continuous
 62
     7
100
AcDbLine
 10
3317.524977241526
 20
2176.060607595291
 30
0.0
 11
3318.283859152334
 21
2176.487751160926
 31
0.0
1001
ACME_LAYERS
1000
1
  0
LINE
  5
3692
330
1F
100
AcDbEntity
  8
P-0000
  6
Continuous
 62
     7
100
AcDbLine
 10
3331.283859152333
 20
2176.487751160914
 30
0.0
 11
3328.783859152333
 21
2176.487751160917
 31
0.0
1001
ACME_LAYERS
1000
1
  0
LINE
  5
3693
330
1F
100
AcDbEntity
  8
P-0000
  6
Continuous
 62
     7
100
AcDbLine
 10
3317.278305652868
 20
2175.907194577326
 30
0.0
 11
3317.278305652865
 21
2172.374690352834
 31
0.0
1001
ACME_LAYERS
1000
1
  0
LINE
  5
3694
330
1F
100
AcDbEntity
  8
P-0000
  6
Continuous
 62
     7
100
AcDbLine
 10
3321.0310824026
 20
2175.907194577323
 30
0.0
 11
3321.031082402595
 21
2170.487751160923
 31
0.0
1001
ACME_LAYERS
1000
1
  0
LINE
  5
3695
330
1F
100
AcDbEntity
  8
P-0000
  6
Continuous
 62
     7
100
AcDbLine
 10
3328.536635902066
 20
2175.907194577316
 30
0.0
 11
3328.53663590206
 21
2170.487751160917
 31
0.0
1001
ACME_LAYERS
1000
1
  0
LINE
  5
3696
330
1F
100
AcDbEntity
  8
P-0000
  6
Continuous
 62
     7
100
AcDbLine
 10
3332.289412651799
 20
2175.907194577312
 30
0.0
 11
3332.289412651797
 21
2172.374690352821
 31
0.0
1001
ACME_LAYERS
1000
1
  0
LINE
  5
3697
330
1F
100
AcDbEntity
  8
P-0000
  6
Continuous
 62
     7
100
AcDbLine
 10
3316.338161038906
 20
2168.88775116093
 30
0.0
 11
3320.783859152327
 21
2168.887751160926
 31
0.0
1001
ACME_LAYERS
1000
1
  0
LINE
  5
3698
330
1F
100
AcDbEntity
  8
P-0000
  6
Continuous
 62
     7
100
AcDbLine
 10
3333.338161038906
 20
2168.887751160915
 30
0.0
 11
3329.283859152329
 21
2168.887751160918
 31
0.0
1001
ACME_LAYERS
1000
1
  0
LINE
  5
3699
330
1F
100
AcDbEntity
  8
P-0000
  6
Continuous
 62
     7
100
AcDbLine
 10
3328.783859152324
 20
2166.887751160919
 30
0.0
 11
3329.283859152328
 21
2166.887751160917
 31
0.0
1001
ACME_LAYERS
1000
1
  0
LINE
  5
369A
330
1F
100
AcDbEntity
  8
P-0000
  6
Continuous
 62
     7
100
AcDbLine
 10
3327.983859152328
 20
2166.887751160919
 30
0.0
 11
3328.783859152324
 21
2166.887751160919
 31
0.0
1001
ACME_LAYERS
1000
1
  0
LINE
  5
369B
330
1F
100
AcDbEntity
  8
P-0000
  6
Continuous
 62
     7
100
AcDbLine
 10
3321.583859152325
 20
2166.887751160925
 30
0.0
 11
3327.983859152328
 21
2166.887751160919
 31
0.0
1001
ACME_LAYERS
1000
1
  0
LINE
  5
369C
330
1F
100
AcDbEntity
  8
P-0000
  6
Continuous
 62
     7
100
AcDbLine
 10
3320.783859152324
 20
2166.887751160926
 30
0.0
 11
3321.583859152325
 21
2166.887751160925
 31
0.0
1001
ACME_LAYERS
1000
1
  0
ARC
  5
369D
330
1F
100
AcDbEntity
  8
P-0000
  6
Continuous
 62
     7
100
AcDbCircle
 10
3324.78385915234
 20
2182.907194577319
 30
0.0
 40
12.41944341639904
100
AcDbArc
 50
252.4120462259788
 51
287.5879537739637
1001
ACME_LAYERS
1000
1
  0
ARC
  5
369E
330
1F
100
AcDbEntity
  8
P-0000
  6
Continuous
 62
     7
100
AcDbCircle
 10
3324.783859152321
 20
2164.068307744519
 30
0.0
 40
12.41944341639904
100
AcDbArc
 50
72.41204622597878
 51
107.5879537739636
1001
ACME_LAYERS
1000
1
  0
ARC
  5
369F
330
1F
100
AcDbEntity
  8
P-0000
  6
Continuous
 62
     7
100
AcDbCircle
 10
3330.413024276931
 20
2173.810320733865
 30
0.0
 40
3.322569572950221
100
AcDbArc
 50
235.6157525319106
 51
299.3733793947774
1001
ACME_LAYERS
1000
1
  0
ARC
  5
36A0
330
1F
100
AcDbEntity
  8
P-0000
  6
Continuous
 62
     7
100
AcDbCircle
 10
3330.413024276932
 20
2173.165181587964
 30
0.0
 40
3.322569572950149
100
AcDbArc
 50
55.61575253191065
 51
60.62662060510624
1001
ACME_LAYERS
1000
1
  0
ARC
  5
36A1
330
1F
100
AcDbEntity
  8
P-0000
  6
Continuous
 62
     7
100
AcDbCircle
 10
3319.154694027734
 20
2173.810320733875
 30
0.0
 40
3.322569572950221
100
AcDbArc
 50
235.6157525319106
 51
240.6266206051062
1001
ACME_LAYERS
1000
1
  0
ARC
  5
36A2
330
1F
100
AcDbEntity
  8
P-0000
  6
Continuous
 62
     7
100
AcDbCircle
 10
3319.154694027734
 20
2173.165181587975
 30
0.0
 40
3.322569572949122
100
AcDbArc
 50
55.61575253191065
 51
119.3733793947773
1001
ACME_LAYERS
1000
1
  0
ARC
  5
36A3
330
1F
100
AcDbEntity
  8
P-0000
  6
Continuous
 62
     7
100
AcDbCircle
 10
3330.413024276931
 20
2173.810320733865
 30
0.0
 40
3.322569572949876
100
AcDbArc
 50
299.3733793947774
 51
304.3842474680169
1001
ACME_LAYERS
1000
1
  0
ARC
  5
36A4
330
1F
100
AcDbEntity
  8
P-0000
  6
Continuous
 62
     7
100
AcDbCircle
 10
3330.413024276931
 20
2173.165181587965
 30
0.0
 40
3.322569572949888
100
AcDbArc
 50
60.62662060510624
 51
124.3842474680169
1001
ACME_LAYERS
1000
1
  0
ARC
  5
36A5
330
1F
100
AcDbEntity
  8
P-0000
  6
Continuous
 62
     7
100
AcDbCircle
 10
3319.154694027734
 20
2173.810320733875
 30
0.0
 40
3.322569572949872
100
AcDbArc
 50
240.6266206051062
 51
304.3842474679592
1001
ACME_LAYERS
1000
1
  0
ARC
  5
36A6
330
1F
100
AcDbEntity
  8
P-0000
  6
Continuous
 62
     7
100
AcDbCircle
 10
3319.154694027734
 20
2173.165181587975
 30
0.0
 40
3.322569572949884
100
AcDbArc
 50
119.3733793947773
 51
124.3842474680169
1001
ACME_LAYERS
1000
1
  0
LINE
  5
36A7
330
1F
100
AcDbEntity
  8
P-0000
  6
Continuous
 62
     7
100
AcDbLine
 10
3362.835252392673
 20
2176.870418853647
 30
0.0
 11
3362.835252392669
 21
2173.987751160884
 31
0.0
1001
ACME_LAYERS
1000
1
  0
LINE
  5
36A8
330
1F
100
AcDbEntity
  8
P-0000
  6
Continuous
 62
     3
100
AcDbLine
 10
3362.035252392671
 20
2176.408538638296
 30
0.0
 11
3362.035252392669
 21
2173.987751160884
 31
0.0
1001
ACME_LAYERS
1000
1
  0
LINE
  5
36A9
330
1F
100
AcDbEntity
  8
P-0000
  6
Continuous
 62
     7
100
AcDbLine
 10
3357.842325487467
 20
2173.987751160888
 30
0.0
 11
3362.035252392668
 21
2173.987751160884
 31
0.0
1001
ACME_LAYERS
1000
1
  0
LINE
  5
36AA
330
1F
100
AcDbEntity
  8
P-0000
  6
Continuous
 62
     7
100
AcDbLine
 10
3362.035252392668
 20
2173.987751160884
 30
0.0
 11
3362.835252392669
 21
2173.987751160884
 31
0.0
1001
ACME_LAYERS
1000
1
  0
LINE
  5
36AB
330
1F
100
AcDbEntity
  8
P-0000
  6
Continuous
 62
     7
100
AcDbLine
 10
3367.280950506084
 20
2167.887751160879
 30
0.0
 11
3367.280950506081
 21
2166.387751160882
 31
0.0
1001
ACME_LAYERS
1000
1
  0
LINE
  5
36AC
330
1F
100
AcDbEntity
  8
P-0000
  6
Continuous
 62
     7
100
AcDbLine
 10
3350.280950506082
 20
2166.387751160897
 30
0.0
 11
3350.280950506084
 21
2167.887751160895
 31
0.0
1001
ACME_LAYERS
1000
1
  0
LINE
  5
36AD
330
1F
100
AcDbEntity
  8
P-0000
  6
Continuous
 62
     7
100
AcDbLine
 10
3367.280950506084
 20
2167.98775116088
 30
0.0
 11
3367.280950506084
 21
2167.887751160879
 31
0.0
1001
ACME_LAYERS
1000
1
  0
LINE
  5
36AE
330
1F
100
AcDbEntity
  8
P-0000
  6
Continuous
 62
     7
100
AcDbLine
 10
3350.280950506084
 20
2167.987751160895
 30
0.0
 11
3367.280950506084
 21
2167.98775116088
 31
0.0
1001
ACME_LAYERS
1000
1
  0
LINE
  5
36AF
330
1F
100
AcDbEntity
  8
P-0000
  6
Continuous
 62
     7
100
AcDbLine
 10
3350.280950506084
 20
2167.887751160895
 30
0.0
 11
3350.280950506084
 21
2167.987751160895
 31
0.0
1001
ACME_LAYERS
1000
1
  0
LINE
  5
36B0
330
1F
100
AcDbEntity
  8
P-0000
  6
Continuous
 62
     7
100
AcDbLine
 10
3351.329698893201
 20
2169.874690352801
 30
0.0
 11
3351.329698893199
 21
2168.568307744495
 31
0.0
1001
ACME_LAYERS
1000
1
  0
LINE
  5
36B1
330
1F
100
AcDbEntity
  8
P-0000
  6
Continuous
 62
     7
100
AcDbLine
 10
3365.335252392664
 20
2167.987751160882
 30
0.0
 11
3352.335252392664
 21
2167.987751160894
 31
0.0
1001
ACME_LAYERS
1000
1
  0
LINE
  5
36B2
330
1F
100
AcDbEntity
  8
P-0000
  6
Continuous
 62
     7
100
AcDbLine
 10
3366.34080589213
 20
2169.874690352788
 30
0.0
 11
3366.340805892129
 21
2168.568307744481
 31
0.0
1001
ACME_LAYERS
1000
1
  0
LINE
  5
36B3
330
1F
100
AcDbEntity
  8
P-0000
  6
Continuous
 62
     7
100
AcDbLine
 10
3362.835252392669
 20
2173.987751160884
 30
0.0
 11
3365.335252392672
 21
2173.987751160882
 31
0.0
1001
ACME_LAYERS
1000
1
  0
LINE
  5
36B4
330
1F
100
AcDbEntity
  8
P-0000
  6
Continuous
 62
     7
100
AcDbLine
 10
3355.082475642934
 20
2169.874690352798
 30
0.0
 11
3355.082475642932
 21
2168.568307744491
 31
0.0
1001
ACME_LAYERS
1000
1
  0
LINE
  5
36B5
330
1F
100
AcDbEntity
  8
P-0000
  6
Continuous
 62
     7
100
AcDbLine
 10
3362.588029142397
 20
2169.874690352791
 30
0.0
 11
3362.588029142397
 21
2168.568307744484
 31
0.0
1001
ACME_LAYERS
1000
1
  0
LINE
  5
36B6
330
1F
100
AcDbEntity
  8
P-0000
  6
Continuous
 62
     7
100
AcDbLine
 10
3351.576370481854
 20
2168.414894726527
 30
0.0
 11
3352.335252392664
 21
2167.987751160894
 31
0.0
1001
ACME_LAYERS
1000
1
  0
LINE
  5
36B7
330
1F
100
AcDbEntity
  8
P-0000
  6
Continuous
 62
     7
100
AcDbLine
 10
3366.094134303473
 20
2168.414894726514
 30
0.0
 11
3365.335252392664
 21
2167.987751160882
 31
0.0
1001
ACME_LAYERS
1000
1
  0
LINE
  5
36B8
330
1F
100
AcDbEntity
  8
P-0000
  6
Continuous
 62
     7
100
AcDbLine
 10
3366.094134303477
 20
2173.560607595246
 30
0.0
 11
3365.335252392672
 21
2173.987751160882
 31
0.0
1001
ACME_LAYERS
1000
1
  0
LINE
  5
36B9
330
1F
100
AcDbEntity
  8
P-0000
  6
Continuous
 62
     7
100
AcDbLine
 10
3366.340805892134
 20
2173.407194577279
 30
0.0
 11
3366.34080589213
 21
2169.874690352788
 31
0.0
1001
ACME_LAYERS
1000
1
  0
LINE
  5
36BA
330
1F
100
AcDbEntity
  8
P-0000
  6
Continuous
 62
     7
100
AcDbLine
 10
3362.588029142401
 20
2173.407194577283
 30
0.0
 11
3362.588029142397
 21
2169.874690352791
 31
0.0
1001
ACME_LAYERS
1000
1
  0
LINE
  5
36BB
330
1F
100
AcDbEntity
  8
P-0000
  6
Continuous
 62
     7
100
AcDbLine
 10
3355.082475642936
 20
2172.394351110229
 30
0.0
 11
3355.082475642934
 21
2169.874690352798
 31
0.0
1001
ACME_LAYERS
1000
1
  0
LINE
  5
36BC
330
1F
100
AcDbEntity
  8
P-0000
  6
Continuous
 62
     7
100
AcDbLine
 10
3351.329698893201
 20
2170.227684443565
 30
0.0
 11
3351.329698893201
 21
2169.874690352801
 31
0.0
1001
ACME_LAYERS
1000
1
  0
ARC
  5
36BD
330
1F
100
AcDbEntity
  8
P-0000
  6
Continuous
 62
     7
100
AcDbCircle
 10
3358.835252392675
 20
2180.407194577287
 30
0.0
 40
12.41944341639904
100
AcDbArc
 50
252.4120462259788
 51
287.5879537739637
1001
ACME_LAYERS
1000
1
  0
ARC
  5
36BE
330
1F
100
AcDbEntity
  8
P-0000
  6
Continuous
 62
     7
100
AcDbCircle
 10
3358.835252392661
 20
2161.568307744488
 30
0.0
 40
12.41944341639904
100
AcDbArc
 50
72.41204622597878
 51
94.95831806924394
1001
ACME_LAYERS
1000
1
  0
ARC
  5
36BF
330
1F
100
AcDbEntity
  8
P-0000
  6
Continuous
 62
     7
100
AcDbCircle
 10
3353.206087268068
 20
2171.310320733842
 30
0.0
 40
3.322569572950221
100
AcDbArc
 50
240.6266206051062
 51
304.3842474680169
1001
ACME_LAYERS
1000
1
  0
ARC
  5
36C0
330
1F
100
AcDbEntity
  8
P-0000
  6
Continuous
 62
     7
100
AcDbCircle
 10
3364.464417517265
 20
2171.310320733832
 30
0.0
 40
3.322569572950221
100
AcDbArc
 50
299.3733793947774
 51
304.3842474680169
1001
ACME_LAYERS
1000
1
  0
ARC
  5
36C1
330
1F
100
AcDbEntity
  8
P-0000
  6
Continuous
 62
     7
100
AcDbCircle
 10
3364.464417517265
 20
2170.665181587933
 30
0.0
 40
3.322569572949122
100
AcDbArc
 50
60.62662060510624
 51
124.3842474679592
1001
ACME_LAYERS
1000
1
  0
ARC
  5
36C2
330
1F
100
AcDbEntity
  8
P-0000
  6
Continuous
 62
     7
100
AcDbCircle
 10
3353.206087268068
 20
2171.310320733842
 30
0.0
 40
3.322569572949876
100
AcDbArc
 50
235.6157525319106
 51
240.6266206051062
1001
ACME_LAYERS
1000
1
  0
ARC
  5
36C3
330
1F
100
AcDbEntity
  8
P-0000
  6
Continuous
 62
     7
100
AcDbCircle
 10
3364.464417517265
 20
2171.310320733832
 30
0.0
 40
3.322569572949872
100
AcDbArc
 50
235.6157525319106
 51
299.3733793947774
1001
ACME_LAYERS
1000
1
  0
ARC
  5
36C4
330
1F
100
AcDbEntity
  8
P-0000
  6
Continuous
 62
     7
100
AcDbCircle
 10
3364.464417517265
 20
2170.665181587933
 30
0.0
 40
3.322569572949884
100
AcDbArc
 50
55.61575253191065
 51
60.62662060510624
1001
ACME_LAYERS
1000
1
  0
HATCH
  5
36C5
330
1F
100
AcDbEntity
  8
P-0000
  6
Continuous
 62
     1
100
AcDbHatch
 10
0.0
 20
0.0
 30
0.0
210
0.0
220
0.0
230
1.0
  2
_U
 70
     0
 71
     0
 91
        1
 92
        1
 93
       16
 72
     1
 10
3356.533859152334
 20
2185.882099862462
 11
3356.533859152334
 21
2185.83292827948
 72
     1
 10
3356.533859152334
 20
2185.832928279481
 11
3356.033859152334
 21
2185.832928279481
 72
     1
 10
3356.033859152334
 20
2185.832928279481
 11
3356.033859152333
 21
2183.882099862462
 72
     1
 10
3356.033859152333
 20
2183.882099862462
 11
3348.972967984018
 21
2183.882099862469
 72
     2
 10
3348.972967984018
 20
2183.38209986247
 40
0.5
 50
449.9999999999478
 51
539.9999999999478
 73
     1
 72
     1
 10
3348.472967984018
 20
2183.38209986247
 11
3348.472967984006
 21
2170.887751160901
 72
     2
 10
3344.472967984007
 20
2170.887751160904
 40
4.000000000000068
 50
0.0000000000521102
 51
90.00000000005211
 73
     0
 72
     1
 10
3344.472967984004
 20
2166.887751160905
 11
3329.783859152326
 21
2166.887751160917
 72
     1
 10
3329.783859152326
 20
2166.887751160917
 11
3329.783859152328
 21
2168.887751160918
 72
     1
 10
3329.783859152328
 20
2168.887751160918
 11
3344.533859152322
 21
2168.887751160903
 72
     2
 10
3344.533859152322
 20
2170.887751160904
 40
1.999999999999999
 50
269.9999999999479
 51
359.9999999999479
 73
     1
 72
     1
 10
3346.533859152322
 20
2170.887751160902
 11
3346.533859152337
 21
2188.382099862471
 72
     1
 10
3346.533859152337
 20
2188.382099862471
 11
3348.533859152337
 21
2188.38209986247
 72
     1
 10
3348.533859152337
 20
2188.38209986247
 11
3348.533859152336
 21
2186.38209986247
 72
     2
 10
3349.033859152334
 20
2186.38209986247
 40
0.5
 50
539.9999999999478
 51
629.9999999999479
 73
     1
 72
     1
 10
3349.033859152334
 20
2185.882099862469
 11
3356.533859152334
 21
2185.882099862462
 97
        0
 75
     0
 76
     0
 52
-45.0
 41
2.0
 77
     0
 78
     1
 53
315.0
 43
848.2317450094047
 44
1033.399343083144
 45
1.414213562373094
 46
1.414213562373094
 79
     0
 98
        1
 10
3315.594750320189
 20
1677.466431519402
1001
ACME_LAYERS
1000
1
1001
ACAD
1010
0.0
1020
0.0
1030
0.0
  0
LINE
  5
36C6
330
1F
100
AcDbEntity
  8
P-0000
  6
Continuous
 62
     7
100
AcDbLine
 10
3376.533859152345
 20
2188.382099862445
 30
0.0
 11
3373.758156137474
 21
2188.382099862447
 31
0.0
1001
ACME_LAYERS
1000
1
  0
LINE
  5
36C7
330
1F
100
AcDbEntity
  8
P-0000
  6
Continuous
 62
     7
100
AcDbLine
 10
3357.07157960922
 20
2188.382099862462
 30
0.0
 11
3348.533859152337
 21
2188.38209986247
 31
0.0
1001
ACME_LAYERS
1000
1
  0
LINE
  5
36C8
330
1F
100
AcDbEntity
  8
P-0000
  6
Continuous
 62
     7
100
AcDbLine
 10
3374.979840146404
 20
2183.882099862445
 30
0.0
 11
3346.472967984003
 21
2167.423649545765
 31
0.0
1001
ACME_LAYERS
1000
1
  0
LINE
  5
36C9
330
1F
100
AcDbEntity
  8
P-0000
  6
Continuous
 62
     7
100
AcDbLine
 10
3348.972967984018
 20
2183.88209986247
 30
0.0
 11
3356.033859152333
 21
2183.882099862462
 31
0.0
1001
ACME_LAYERS
1000
1
  0
LINE
  5
36CA
330
1F
100
AcDbEntity
  8
P-0000
  6
Continuous
 62
     7
100
AcDbLine
 10
3356.533859152334
 20
2185.882099862462
 30
0.0
 11
3349.033859152334
 21
2185.882099862469
 31
0.0
1001
ACME_LAYERS
1000
1
  0
LINE
  5
36CB
330
1F
100
AcDbEntity
  8
P-0000
  6
Continuous
 62
     7
100
AcDbLine
 10
3441.524098920616
 20
2188.382099862385
 30
0.0
 11
3376.533859152345
 21
2188.382099862445
 31
0.0
1001
ACME_LAYERS
1000
1
  0
LINE
  5
36CC
330
1F
100
AcDbEntity
  8
P-0000
  6
Continuous
 62
     7
100
AcDbLine
 10
3441.524098920614
 20
2185.882099862386
 30
0.0
 11
3386.533859152333
 21
2185.882099862435
 31
0.0
1001
ACME_LAYERS
1000
1
  0
LINE
  5
36CD
330
1F
100
AcDbEntity
  8
P-0000
  6
Continuous
 62
     7
100
AcDbLine
 10
3431.533859152326
 20
2183.882099862395
 30
0.0
 11
3380.533859152341
 21
2183.882099862441
 31
0.0
1001
ACME_LAYERS
1000
1
  0
HATCH
  5
36D1
330
1F
100
AcDbEntity
  8
P-0000
  6
Continuous
 62
     1
100
AcDbHatch
 10
0.0
 20
0.0
 30
0.0
210
0.0
220
0.0
230
1.0
  2
_U
 70
     0
 71
     0
 91
        1
 92
        1
 93
       11
 72
     1
 10
3376.033859152342
 20
2185.882099862445
 11
3364.533859152334
 21
2185.882099862456
 72
     1
 10
3364.533859152334
 20
2185.882099862455
 11
3364.533859152333
 21
2183.882099862454
 72
     1
 10
3364.533859152333
 20
2183.882099862455
 11
3374.979840146404
 21
2183.882099862446
 72
     1
 10
3374.979840146404
 20
2183.882099862445
 11
3380.533859152341
 21
2183.882099862441
 72
     1
 10
3380.533859152341
 20
2183.882099862441
 11
3380.533859152342
 21
2185.882099862441
 72
     1
 10
3380.533859152342
 20
2185.882099862441
 11
3379.033859152342
 21
2185.882099862442
 72
     2
 10
3379.033859152343
 20
2186.382099862441
 40
0.5
 50
-269.9999999999479
 51
-179.9999999999479
 73
     0
 72
     1
 10
3378.533859152343
 20
2186.382099862442
 11
3378.533859152345
 21
2188.382099862443
 72
     1
 10
3378.533859152345
 20
2188.382099862443
 11
3376.533859152345
 21
2188.382099862444
 72
     1
 10
3376.533859152345
 20
2188.382099862445
 11
3376.533859152343
 21
2186.382099862445
 72
     2
 10
3376.033859152342
 20
2186.382099862445
 40
0.5
 50
0.0000000000521102
 51
90.00000000005211
 73
     0
 97
        0
 75
     0
 76
     0
 52
-45.0
 41
2.0
 77
     0
 78
     1
 53
315.0
 43
848.2317450094047
 44
1033.399343083144
 45
1.414213562373094
 46
1.414213562373094
 79
     0
 98
        1
 10
3315.594750320189
 20
1677.466431519402
1001
ACME_LAYERS
1000
1
1001
ACAD
1010
0.0
1020
0.0
1030
0.0
  0
LINE
  5
36D2
330
1F
100
AcDbEntity
  8
P-0000
  6
Continuous
 62
     7
100
AcDbLine
 10
3376.033859152342
 20
2185.882099862445
 30
0.0
 11
3364.533859152334
 21
2185.882099862455
 31
0.0
1001
ACME_LAYERS
1000
1
  0
LINE
  5
36D3
330
1F
100
AcDbEntity
  8
P-0000
  6
Continuous
 62
     7
100
AcDbLine
 10
3380.533859152341
 20
2183.882099862441
 30
0.0
 11
3374.979840146404
 21
2183.882099862445
 31
0.0
1001
ACME_LAYERS
1000
1
  0
LINE
  5
36D4
330
1F
100
AcDbEntity
  8
P-0000
  6
Continuous
 62
     7
100
AcDbLine
 10
3386.533859152333
 20
2185.882099862435
 30
0.0
 11
3380.533859152342
 21
2185.882099862441
 31
0.0
1001
ACME_LAYERS
1000
1
  0
LINE
  5
36D5
330
1F
100
AcDbEntity
  8
P-0000
  6
Continuous
 62
     7
100
AcDbLine
 10
3380.533859152341
 20
2183.882099862441
 30
0.0
 11
3380.533859152342
 21
2185.882099862441
 31
0.0
1001
ACME_LAYERS
1000
1
  0
LINE
  5
36D6
330
1F
100
AcDbEntity
  8
P-0000
  6
Continuous
 62
     7
100
AcDbLine
 10
3380.533859152342
 20
2185.882099862441
 30
0.0
 11
3379.033859152342
 21
2185.882099862442
 31
0.0
1001
ACME_LAYERS
1000
1
  0
LINE
  5
36D7
330
1F
100
AcDbEntity
  8
P-0000
  6
Continuous
 62
     7
100
AcDbLine
 10
3376.533859152343
 20
2186.382099862445
 30
0.0
 11
3376.533859152345
 21
2188.382099862445
 31
0.0
1001
ACME_LAYERS
1000
1
  0
LINE
  5
36D8
330
1F
100
AcDbEntity
  8
P-0000
  6
Continuous
 62
     7
100
AcDbLine
 10
3378.533859152343
 20
2186.382099862442
 30
0.0
 11
3378.533859152345
 21
2188.382099862443
 31
0.0
1001
ACME_LAYERS
1000
1
  0
LINE
  5
36D9
330
1F
100
AcDbEntity
  8
P-0000
  6
Continuous
 62
     7
100
AcDbLine
 10
3376.533859152345
 20
2188.382099862445
 30
0.0
 11
3378.533859152345
 21
2188.382099862443
 31
0.0
1001
ACME_LAYERS
1000
1
  0
ARC
  5
36DA
330
1F
100
AcDbEntity
  8
P-0000
  6
Continuous
 62
     7
100
AcDbCircle
 10
3376.033859152342
 20
2186.382099862445
 30
0.0
 40
0.5
100
AcDbArc
 50
269.9999999999479
 51
359.9999999999479
1001
ACME_LAYERS
1000
1
  0
ARC
  5
36DB
330
1F
100
AcDbEntity
  8
P-0000
  6
Continuous
 62
     7
100
AcDbCircle
 10
3379.033859152343
 20
2186.382099862441
 30
0.0
 40
0.5
100
AcDbArc
 50
179.9999999999479
 51
269.9999999999479
1001
ACME_LAYERS
1000
1
  0
LINE
  5
36DC
330
1F
100
AcDbEntity
  8
P-0000
  6
Continuous
 62
     7
100
AcDbLine
 10
3360.823028547272
 20
2183.882099862459
 30
0.0
 11
3364.533859152333
 21
2183.882099862455
 31
0.0
1001
ACME_LAYERS
1000
1
  0
LINE
  5
36DD
330
1F
100
AcDbEntity
  8
P-0000
  6
Continuous
 62
     7
100
AcDbLine
 10
3364.533859152334
 20
2185.882099862455
 30
0.0
 11
3356.533859152334
 21
2185.882099862462
 31
0.0
1001
ACME_LAYERS
1000
1
  0
LINE
  5
36DE
330
1F
100
AcDbEntity
  8
P-0000
  6
Continuous
 62
     7
100
AcDbLine
 10
3364.533859152333
 20
2183.882099862455
 30
0.0
 11
3374.979840146404
 21
2183.882099862445
 31
0.0
1001
ACME_LAYERS
1000
1
  0
LINE
  5
36DF
330
1F
100
AcDbEntity
  8
P-0000
  6
Continuous
 62
     7
100
AcDbLine
 10
3364.533859152334
 20
2185.882099862455
 30
0.0
 11
3364.533859152333
 21
2183.882099862455
 31
0.0
1001
ACME_LAYERS
1000
1
  0
LINE
  5
36E0
330
1F
100
AcDbEntity
  8
P-0000
  6
Continuous
 62
     7
100
AcDbLine
 10
3359.024098920612
 20
2185.88209986246
 30
0.0
 11
3358.024098920612
 21
2185.88209986246
 31
0.0
1001
ACME_LAYERS
1000
1
  0
LINE
  5
36E1
330
1F
100
AcDbEntity
  8
P-0000
  6
Continuous
 62
     7
100
AcDbLine
 10
3359.024098920612
 20
2185.88209986246
 30
0.0
 11
3358.024098920612
 21
2185.88209986246
 31
0.0
1001
ACME_LAYERS
1000
1
  0
LINE
  5
36E2
330
1F
100
AcDbEntity
  8
P-0000
  6
Continuous
 62
     7
100
AcDbLine
 10
3319.783859152328
 20
2168.887751160927
 30
0.0
 11
3329.783859152328
 21
2168.887751160918
 31
0.0
1001
ACME_LAYERS
1000
1
  0
LINE
  5
36E3
330
1F
100
AcDbEntity
  8
P-0000
  6
Continuous
 62
     7
100
AcDbLine
 10
3319.783859152327
 20
2166.887751160927
 30
0.0
 11
3329.783859152326
 21
2166.887751160917
 31
0.0
1001
ACME_LAYERS
1000
1
  0
LINE
  5
36E4
330
1F
100
AcDbEntity
  8
P-0000
  6
Continuous
 62
     7
100
AcDbLine
 10
3348.472967984006
 20
2170.887751160901
 30
0.0
 11
3348.472967984018
 21
2183.38209986247
 31
0.0
1001
ACME_LAYERS
1000
1
  0
LINE
  5
36E5
330
1F
100
AcDbEntity
  8
P-0000
  6
Continuous
 62
     7
100
AcDbLine
 10
3346.533859152322
 20
2170.887751160902
 30
0.0
 11
3346.533859152334
 21
2185.882099862471
 31
0.0
1001
ACME_LAYERS
1000
1
  0
LINE
  5
36E6
330
1F
100
AcDbEntity
  8
P-0000
  6
Continuous
 62
     7
100
AcDbLine
 10
3336.722167354766
 20
2168.887751160912
 30
0.0
 11
3346.533859152334
 21
2185.882099862471
 31
0.0
1001
ACME_LAYERS
1000
1
  0
LINE
  5
36E7
330
1F
100
AcDbEntity
  8
P-0000
  6
Continuous
 62
     7
100
AcDbLine
 10
3346.533859152337
 20
2188.382099862471
 30
0.0
 11
3348.533859152337
 21
2188.38209986247
 31
0.0
1001
ACME_LAYERS
1000
1
  0
LINE
  5
36E8
330
1F
100
AcDbEntity
  8
P-0000
  6
Continuous
 62
     7
100
AcDbLine
 10
3348.533859152337
 20
2188.38209986247
 30
0.0
 11
3348.533859152335
 21
2186.38209986247
 31
0.0
1001
ACME_LAYERS
1000
1
  0
ARC
  5
36E9
330
1F
100
AcDbEntity
  8
P-0000
  6
Continuous
 62
     7
100
AcDbCircle
 10
3349.033859152334
 20
2186.38209986247
 30
0.0
 40
0.5
100
AcDbArc
 50
179.9999999999479
 51
269.9999999999479
1001
ACME_LAYERS
1000
1
  0
ARC
  5
36EA
330
1F
100
AcDbEntity
  8
P-0000
  6
Continuous
 62
     7
100
AcDbCircle
 10
3348.972967984018
 20
2183.38209986247
 30
0.0
 40
0.5
100
AcDbArc
 50
89.99999999994789
 51
179.9999999999479
1001
ACME_LAYERS
1000
1
  0
LINE
  5
36EB
330
1F
100
AcDbEntity
  8
P-0000
  6
Continuous
 62
     7
100
AcDbLine
 10
3346.533859152337
 20
2188.382099862471
 30
0.0
 11
3346.533859152334
 21
2185.882099862471
 31
0.0
1001
ACME_LAYERS
1000
1
  0
LINE
  5
36EC
330
1F
100
AcDbEntity
  8
P-0000
  6
Continuous
 62
     7
100
AcDbLine
 10
3336.722167354766
 20
2168.887751160912
 30
0.0
 11
3344.533859152322
 21
2168.887751160903
 31
0.0
1001
ACME_LAYERS
1000
1
  0
LINE
  5
36ED
330
1F
100
AcDbEntity
  8
P-0000
  6
Continuous
 62
     7
100
AcDbLine
 10
3329.783859152326
 20
2166.887751160917
 30
0.0
 11
3344.472967984004
 21
2166.887751160905
 31
0.0
1001
ACME_LAYERS
1000
1
  0
ARC
  5
36EE
330
1F
100
AcDbEntity
  8
P-0000
  6
Continuous
 62
     7
100
AcDbCircle
 10
3344.533859152322
 20
2170.887751160904
 30
0.0
 40
2.0
100
AcDbArc
 50
269.9999999999479
 51
359.9999999999479
1001
ACME_LAYERS
1000
1
  0
ARC
  5
36EF
330
1F
100
AcDbEntity
  8
P-0000
  6
Continuous
 62
     7
100
AcDbCircle
 10
3344.472967984007
 20
2170.887751160904
 30
0.0
 40
4.0
100
AcDbArc
 50
299.9999999999391
 51
359.9999999999479
1001
ACME_LAYERS
1000
1
  0
ARC
  5
36F0
330
1F
100
AcDbEntity
  8
P-0000
  6
Continuous
 62
     7
100
AcDbCircle
 10
3344.472967984007
 20
2170.887751160904
 30
0.0
 40
4.000000000000031
100
AcDbArc
 50
269.9999999999479
 51
299.9999999999391
1001
ACME_LAYERS
1000
1
  0
LINE
  5
36F1
330
1F
100
AcDbEntity
  8
P-0000
  6
Continuous
 62
     7
100
AcDbLine
 10
3329.783859152328
 20
2168.887751160918
 30
0.0
 11
3336.722167354766
 21
2168.887751160912
 31
0.0
1001
ACME_LAYERS
1000
1
  0
LINE
  5
36F2
330
1F
100
AcDbEntity
  8
P-0000
  6
Continuous
 62
     7
100
AcDbLine
 10
3329.783859152326
 20
2166.887751160917
 30
0.0
 11
3329.783859152328
 21
2168.887751160918
 31
0.0
1001
ACME_LAYERS
1000
1
  0
HATCH
  5
36F3
330
1F
100
AcDbEntity
  8
P-0000
  6
Continuous
 62
     1
100
AcDbHatch
 10
0.0
 20
0.0
 30
0.0
210
0.0
220
0.0
230
1.0
  2
_U
 70
     0
 71
     0
 91
        1
 92
        1
 93
        4
 72
     1
 10
3314.783859152326
 20
2166.887751160931
 11
3319.783859152327
 21
2166.887751160927
 72
     1
 10
3319.783859152327
 20
2166.887751160927
 11
3319.783859152328
 21
2168.887751160927
 72
     1
 10
3319.783859152328
 20
2168.887751160927
 11
3314.783859152328
 21
2168.887751160932
 72
     1
 10
3314.783859152328
 20
2168.887751160932
 11
3314.783859152326
 21
2166.887751160931
 97
        0
 75
     0
 76
     0
 52
-45.0
 41
2.0
 77
     0
 78
     1
 53
315.0
 43
848.2317450094047
 44
1033.399343083144
 45
1.414213562373094
 46
1.414213562373094
 79
     0
 98
        1
 10
3315.594750320189
 20
1677.466431519402
1001
ACME_LAYERS
1000
1
1001
ACAD
1010
0.0
1020
0.0
1030
0.0
  0
LINE
  5
36F4
330
1F
100
AcDbEntity
  8
P-0000
  6
Continuous
 62
     7
100
AcDbLine
 10
3314.783859152328
 20
2168.887751160932
 30
0.0
 11
3319.783859152328
 21
2168.887751160927
 31
0.0
1001
ACME_LAYERS
1000
1
  0
LINE
  5
36F5
330
1F
100
AcDbEntity
  8
P-0000
  6
Continuous
 62
     7
100
AcDbLine
 10
3314.783859152326
 20
2166.887751160931
 30
0.0
 11
3319.783859152327
 21
2166.887751160927
 31
0.0
1001
ACME_LAYERS
1000
1
  0
LINE
  5
36F6
330
1F
100
AcDbEntity
  8
P-0000
  6
Continuous
 62
     7
100
AcDbLine
 10
3319.783859152327
 20
2166.887751160927
 30
0.0
 11
3319.783859152328
 21
2168.887751160927
 31
0.0
1001
ACME_LAYERS
1000
1
  0
LINE
  5
36F7
330
1F
100
AcDbEntity
  8
P-0000
  6
Continuous
 62
     7
100
AcDbLine
 10
3314.783859152326
 20
2166.887751160931
 30
0.0
 11
3314.783859152328
 21
2168.887751160932
 31
0.0
1001
ACME_LAYERS
1000
1
  0
LINE
  5
36F8
330
1F
100
AcDbEntity
  8
P-0000
  6
Continuous
 62
     7
100
AcDbLine
 10
3440.033859152374
 20
2227.832928279404
 30
0.0
 11
3440.03385915234
 21
2191.832928279405
 31
0.0
1001
ACME_LAYERS
1000
1
  0
LINE
  5
36F9
330
1F
100
AcDbEntity
  8
P-0000
  6
Continuous
 62
     7
100
AcDbLine
 10
3365.086188741377
 20
2210.402057478761
 30
0.0
 11
3364.10739952509
 21
2207.712856208615
 31
0.0
1001
ACME_LAYERS
1000
1
  0
LINE
  5
36FA
330
1F
100
AcDbEntity
  8
P-0000
  6
Continuous
 62
     7
100
AcDbLine
 10
3373.758156137475
 20
2191.832928279465
 30
0.0
 11
3386.861084571094
 21
2227.832928279453
 31
0.0
1001
ACME_LAYERS
1000
1
  0
LINE
  5
36FB
330
1F
100
AcDbEntity
  8
P-0000
  6
Continuous
 62
     7
100
AcDbLine
 10
3440.033859152379
 20
2233.802577379036
 30
0.0
 11
3389.033859152378
 21
2233.802577379083
 31
0.0
1001
ACME_LAYERS
1000
1
  0
LINE
  5
36FC
330
1F
100
AcDbEntity
  8
P-0000
  6
Continuous
 62
     7
100
AcDbLine
 10
3440.033859152379
 20
2233.802577379036
 30
0.0
 11
3389.033859152378
 21
2233.802577379083
 31
0.0
1001
ACME_LAYERS
1000
1
  0
LINE
  5
36FD
330
1F
100
AcDbEntity
  8
P-0000
  6
Continuous
 62
     7
100
AcDbLine
 10
3393.663866230859
 20
2265.832928279447
 30
0.0
 11
3400.691953473244
 21
2265.832928279441
 31
0.0
1001
ACME_LAYERS
1000
1
  0
LINE
  5
36FE
330
1F
100
AcDbEntity
  8
P-0000
  6
Continuous
 62
     7
100
AcDbLine
 10
3388.033859152372
 20
2227.832928279452
 30
0.0
 11
3440.033859152374
 21
2227.832928279404
 31
0.0
1001
ACME_LAYERS
1000
1
  0
LINE
  5
36FF
330
1F
100
AcDbEntity
  8
P-0000
  6
Continuous
 62
     7
100
AcDbLine
 10
3395.232399959237
 20
2250.832928279445
 30
0.0
 11
3437.429696096359
 21
2250.832928279406
 31
0.0
1001
ACME_LAYERS
1000
1
  0
LINE
  5
3700
330
1F
100
AcDbEntity
  8
P-0000
  6
Continuous
 62
     7
100
AcDbLine
 10
3440.033859152393
 20
2250.832928279403
 30
0.0
 11
3440.033859152379
 21
2233.802577379036
 31
0.0
1001
ACME_LAYERS
1000
1
  0
LINE
  5
3701
330
1F
100
AcDbEntity
  8
P-0000
  6
Continuous
 62
     7
100
AcDbLine
 10
3402.820309018196
 20
2265.832928279438
 30
0.0
 11
3437.429696096375
 21
2265.832928279407
 31
0.0
1001
ACME_LAYERS
1000
1
  0
LINE
  5
3702
330
1F
100
AcDbEntity
  8
P-0000
  6
Continuous
 62
     7
100
AcDbLine
 10
3437.429696096375
 20
2265.832928279407
 30
0.0
 11
3437.429696096359
 21
2250.832928279406
 31
0.0
1001
ACME_LAYERS
1000
1
  0
LINE
  5
3703
330
1F
100
AcDbEntity
  8
P-0000
  6
Continuous
 62
     7
100
AcDbLine
 10
3437.429696096375
 20
2265.832928279407
 30
0.0
 11
3441.533859152408
 21
2265.832928279403
 31
0.0
1001
ACME_LAYERS
1000
1
  0
LINE
  5
3704
330
1F
100
AcDbEntity
  8
P-0000
  6
Continuous
 62
     7
100
AcDbLine
 10
3437.429696096359
 20
2250.832928279406
 30
0.0
 11
3440.033859152393
 21
2250.832928279403
 31
0.0
1001
ACME_LAYERS
1000
1
  0
HATCH
  5
3705
330
1F
100
AcDbEntity
  8
P-0000
  6
Continuous
 62
     1
100
AcDbHatch
 10
0.0
 20
0.0
 30
0.0
210
0.0
220
0.0
230
1.0
  2
_U
 70
     0
 71
     0
 91
        1
 92
        1
 93
        5
 72
     1
 10
3399.236072536175
 20
2261.832928279442
 11
3400.691953473244
 21
2265.83292827944
 72
     1
 10
3400.691953473244
 20
2265.832928279441
 11
3402.820309018196
 21
2265.832928279438
 72
     1
 10
3402.820309018196
 20
2265.832928279438
 11
3401.603913163704
 21
2262.490908136114
 72
     2
 10
3400.664220542919
 20
2262.832928279441
 40
1.000000000000015
 50
20.00000000005522
 51
90.00000000005211
 73
     0
 72
     1
 10
3400.664220542918
 20
2261.83292827944
 11
3399.236072536175
 21
2261.832928279442
 97
        0
 75
     0
 76
     0
 52
44.99999999999999
 41
1.0
 77
     0
 78
     1
 53
45.0
 43
848.2317450094047
 44
1033.399343083144
 45
-0.7071067811865475
 46
0.7071067811865476
 79
     0
 98
        1
 10
3315.584990088486
 20
1697.354072611163
1001
ACME_LAYERS
1000
1
1001
ACAD
1010
0.0
1020
0.0
1030
0.0
  0
LINE
  5
3706
330
1F
100
AcDbEntity
  8
P-0000
  6
Continuous
 62
     7
100
AcDbLine
 10
3401.603913163704
 20
2262.490908136114
 30
0.0
 11
3402.820309018196
 21
2265.832928279438
 31
0.0
1001
ACME_LAYERS
1000
1
  0
LINE
  5
3707
330
1F
100
AcDbEntity
  8
P-0000
  6
Continuous
 62
     7
100
AcDbLine
 10
3399.236072536175
 20
2261.832928279442
 30
0.0
 11
3400.691953473244
 21
2265.832928279441
 31
0.0
1001
ACME_LAYERS
1000
1
  0
LINE
  5
3708
330
1F
100
AcDbEntity
  8
P-0000
  6
Continuous
 62
     7
100
AcDbLine
 10
3400.691953473244
 20
2265.832928279441
 30
0.0
 11
3402.820309018196
 21
2265.832928279438
 31
0.0
1001
ACME_LAYERS
1000
1
  0
ARC
  5
3709
330
1F
100
AcDbEntity
  8
P-0000
  6
Continuous
 62
     7
100
AcDbCircle
 10
3400.664220542919
 20
2262.832928279441
 30
0.0
 40
1.000000000000015
100
AcDbArc
 50
269.9999999999479
 51
339.9999999999284
1001
ACME_LAYERS
1000
1
  0
ARC
  5
370A
330
1F
100
AcDbEntity
  8
P-0000
  6
Continuous
 62
     7
100
AcDbCircle
 10
3400.664220542919
 20
2262.832928279441
 30
0.0
 40
1.000000000000015
100
AcDbArc
 50
269.9999999999479
 51
339.9999999999284
1001
ACME_LAYERS
1000
1
  0
LINE
  5
370B
330
1F
100
AcDbEntity
  8
P-0000
  6
Continuous
 62
     7
100
AcDbLine
 10
3399.236072536175
 20
2261.832928279442
 30
0.0
 11
3400.664220542918
 21
2261.83292827944
 31
0.0
1001
ACME_LAYERS
1000
1
  0
LINE
  5
370C
330
1F
100
AcDbEntity
  8
P-0000
  6
Continuous
 62
     7
100
AcDbLine
 10
3441.533859152379
 20
2233.802577379035
 30
0.0
 11
3440.033859152379
 21
2233.802577379036
 31
0.0
1001
ACME_LAYERS
1000
1
  0
LINE
  5
370D
330
1F
100
AcDbEntity
  8
P-0000
  6
Continuous
 62
     7
100
AcDbLine
 10
3441.533859152379
 20
2233.802577379035
 30
0.0
 11
3440.033859152379
 21
2233.802577379036
 31
0.0
1001
ACME_LAYERS
1000
1
  0
LINE
  5
370E
330
1F
100
AcDbEntity
  8
P-0000
  6
Continuous
 62
     7
100
AcDbLine
 10
3440.033859152374
 20
2227.832928279404
 30
0.0
 11
3441.533859152372
 21
2227.832928279402
 31
0.0
1001
ACME_LAYERS
1000
1
  0
LINE
  5
370F
330
1F
100
AcDbEntity
  8
P-0000
  6
Continuous
 62
     7
100
AcDbLine
 10
3382.38755478142
 20
2257.937169999364
 30
0.0
 11
3365.086188741377
 21
2210.402057478761
 31
0.0
1001
ACME_LAYERS
1000
1
  0
LINE
  5
3710
330
1F
100
AcDbEntity
  8
P-0000
  6
Continuous
 62
     7
100
AcDbLine
 10
3389.033859152378
 20
2233.802577379083
 30
0.0
 11
3395.232399959237
 21
2250.832928279445
 31
0.0
1001
ACME_LAYERS
1000
1
  0
ARC
  5
3711
330
1F
100
AcDbEntity
  8
P-0000
  6
Continuous
 62
     7
100
AcDbCircle
 10
3393.663866230848
 20
2253.832928279447
 30
0.0
 40
11.99999999999995
100
AcDbArc
 50
89.99999999994789
 51
159.9999999999529
1001
ACME_LAYERS
1000
1
  0
HATCH
  5
3712
330
1F
100
AcDbEntity
  8
P-0000
  6
Continuous
 62
     3
100
AcDbHatch
 10
0.0
 20
0.0
 30
0.0
210
0.0
220
0.0
230
1.0
  2
_U
 70
     0
 71
     0
 91
        1
 92
        1
 93
        4
 72
     1
 10
3386.861084571094
 20
2227.832928279453
 11
3389.033859152378
 21
2233.802577379083
 72
     1
 10
3389.033859152378
 20
2233.802577379083
 11
3389.033859152374
 21
2228.83292827945
 72
     2
 10
3388.033859152373
 20
2228.832928279452
 40
1.0
 50
0.0000000000521102
 51
90.00000000005211
 73
     0
 72
     1
 10
3388.033859152372
 20
2227.832928279452
 11
3386.861084571093
 21
2227.832928279453
 97
        0
 75
     0
 76
     0
 52
44.99999999999999
 41
1.0
 77
     0
 78
     1
 53
45.0
 43
848.2317450094047
 44
1033.399343083144
 45
-0.7071067811865475
 46
0.7071067811865476
 79
     0
 98
        1
 10
3315.584990088486
 20
1697.354072611163
1001
ACME_LAYERS
1000
1
1001
ACAD
1010
0.0
1020
0.0
1030
0.0
  0
LINE
  5
3713
330
1F
100
AcDbEntity
  8
P-0000
  6
Continuous
 62
     7
100
AcDbLine
 10
3386.861084571094
 20
2227.832928279453
 30
0.0
 11
3388.033859152372
 21
2227.832928279452
 31
0.0
1001
ACME_LAYERS
1000
1
  0
LINE
  5
3714
330
1F
100
AcDbEntity
  8
P-0000
  6
Continuous
 62
     7
100
AcDbLine
 10
3386.861084571094
 20
2227.832928279453
 30
0.0
 11
3389.033859152378
 21
2233.802577379083
 31
0.0
1001
ACME_LAYERS
1000
1
  0
LINE
  5
3715
330
1F
100
AcDbEntity
  8
P-0000
  6
Continuous
 62
     7
100
AcDbLine
 10
3389.033859152373
 20
2228.832928279451
 30
0.0
 11
3389.033859152378
 21
2233.802577379083
 31
0.0
1001
ACME_LAYERS
1000
1
  0
LINE
  5
3716
330
1F
100
AcDbEntity
  8
P-0000
  6
Continuous
 62
     7
100
AcDbLine
 10
3389.033859152373
 20
2228.832928279451
 30
0.0
 11
3389.033859152378
 21
2233.802577379083
 31
0.0
1001
ACME_LAYERS
1000
1
  0
ARC
  5
3717
330
1F
100
AcDbEntity
  8
P-0000
  6
Continuous
 62
     7
100
AcDbCircle
 10
3388.033859152373
 20
2228.832928279452
 30
0.0
 40
1.0
100
AcDbArc
 50
269.9999999999479
 51
359.9999999999479
1001
ACME_LAYERS
1000
1
  0
ARC
  5
3718
330
1F
100
AcDbEntity
  8
P-0000
  6
Continuous
 62
     3
100
AcDbCircle
 10
3388.033859152373
 20
2228.832928279452
 30
0.0
 40
1.0
100
AcDbArc
 50
269.9999999999479
 51
359.9999999999479
1001
ACME_LAYERS
1000
1
  0
LINE
  5
3719
330
1F
100
AcDbEntity
  8
P-0000
  6
Continuous
 62
     7
100
AcDbLine
 10
3440.03385915234
 20
2191.832928279405
 30
0.0
 11
3373.758156137475
 21
2191.832928279465
 31
0.0
1001
ACME_LAYERS
1000
1
  0
LINE
  5
371A
330
1F
100
AcDbEntity
  8
P-0000
  6
Continuous
 62
     7
100
AcDbLine
 10
3440.03385915234
 20
2191.832928279405
 30
0.0
 11
3373.758156137475
 21
2191.832928279465
 31
0.0
1001
ACME_LAYERS
1000
1
  0
LINE
  5
371B
330
1F
100
AcDbEntity
  8
P-0000
  6
Continuous
 62
     7
100
AcDbLine
 10
3440.03385915234
 20
2191.832928279405
 30
0.0
 11
3373.758156137475
 21
2191.832928279465
 31
0.0
1001
ACME_LAYERS
1000
1
  0
LINE
  5
371C
330
1F
100
AcDbEntity
  8
P-0000
  6
Continuous
 62
     7
100
AcDbLine
 10
3373.758156137469
 20
2185.832928279464
 30
0.0
 11
3440.033859152335
 21
2185.832928279404
 31
0.0
1001
ACME_LAYERS
1000
1
  0
LINE
  5
371D
330
1F
100
AcDbEntity
  8
P-0000
  6
Continuous
 62
     7
100
AcDbLine
 10
3364.10739952509
 20
2207.712856208615
 30
0.0
 11
3356.533859152335
 21
2186.904725049204
 31
0.0
1001
ACME_LAYERS
1000
1
  0
LINE
  5
371E
330
1F
100
AcDbEntity
  8
P-0000
  6
Continuous
 62
     7
100
AcDbLine
 10
3362.533859152335
 20
2185.832928279475
 30
0.0
 11
3370.758156137469
 21
2185.832928279467
 31
0.0
1001
ACME_LAYERS
1000
1
  0
LINE
  5
371F
330
1F
100
AcDbEntity
  8
P-0000
  6
Continuous
 62
     7
100
AcDbLine
 10
3370.758156137469
 20
2185.832928279467
 30
0.0
 11
3370.758156137475
 21
2191.832928279468
 31
0.0
1001
ACME_LAYERS
1000
1
  0
LINE
  5
3720
330
1F
100
AcDbEntity
  8
P-0000
  6
Continuous
 62
     7
100
AcDbLine
 10
3373.758156137469
 20
2185.832928279464
 30
0.0
 11
3373.758156137475
 21
2191.832928279465
 31
0.0
1001
ACME_LAYERS
1000
1
  0
LINE
  5
3721
330
1F
100
AcDbEntity
  8
P-0000
  6
Continuous
 62
     7
100
AcDbLine
 10
3373.758156137475
 20
2191.832928279465
 30
0.0
 11
3370.758156137475
 21
2191.832928279468
 31
0.0
1001
ACME_LAYERS
1000
1
  0
LINE
  5
3722
330
1F
100
AcDbEntity
  8
P-0000
  6
Continuous
 62
     7
100
AcDbLine
 10
3373.758156137475
 20
2191.832928279465
 30
0.0
 11
3370.758156137475
 21
2191.832928279468
 31
0.0
1001
ACME_LAYERS
1000
1
  0
LINE
  5
3723
330
1F
100
AcDbEntity
  8
P-0000
  6
Continuous
 62
     7
100
AcDbLine
 10
3370.758156137469
 20
2185.832928279467
 30
0.0
 11
3373.758156137469
 21
2185.832928279464
 31
0.0
1001
ACME_LAYERS
1000
1
  0
LINE
  5
3724
330
1F
100
AcDbEntity
  8
P-0000
  6
Continuous
 62
     7
100
AcDbLine
 10
3356.033859152333
 20
2183.632928279481
 30
0.0
 11
3356.033859152334
 21
2185.832928279481
 31
0.0
1001
ACME_LAYERS
1000
1
  0
LINE
  5
3725
330
1F
100
AcDbEntity
  8
P-0000
  6
Continuous
 62
     7
100
AcDbLine
 10
3357.310089418878
 20
2179.876360510688
 30
0.0
 11
3362.533859152335
 21
2185.832928279475
 31
0.0
1001
ACME_LAYERS
1000
1
  0
LINE
  5
3726
330
1F
100
AcDbEntity
  8
P-0000
  6
Continuous
 62
     7
100
AcDbLine
 10
3356.533859152334
 20
2185.832928279481
 30
0.0
 11
3356.533859152335
 21
2186.904725049204
 31
0.0
1001
ACME_LAYERS
1000
1
  0
LINE
  5
3727
330
1F
100
AcDbEntity
  8
P-0000
  6
Continuous
 62
     7
100
AcDbLine
 10
3356.033859152334
 20
2185.832928279481
 30
0.0
 11
3356.533859152334
 21
2185.832928279481
 31
0.0
1001
ACME_LAYERS
1000
1
  0
LINE
  5
3728
330
1F
100
AcDbEntity
  8
P-0000
  6
Continuous
 62
     7
100
AcDbLine
 10
3356.533859152334
 20
2185.832928279481
 30
0.0
 11
3356.533859152335
 21
2186.904725049204
 31
0.0
1001
ACME_LAYERS
1000
1
  0
LINE
  5
3729
330
1F
100
AcDbEntity
  8
P-0000
  6
Continuous
 62
     7
100
AcDbLine
 10
3354.833859152332
 20
2182.132928279481
 30
0.0
 11
3356.3926863444
 21
2179.93538650828
 31
0.0
1001
ACME_LAYERS
1000
1
  0
LINE
  5
372A
330
1F
100
AcDbEntity
  8
P-0000
  6
Continuous
 62
     7
100
AcDbLine
 10
3356.033859152333
 20
2183.632928279481
 30
0.0
 11
3354.833859152333
 21
2183.632928279481
 31
0.0
1001
ACME_LAYERS
1000
1
  0
LINE
  5
372B
330
1F
100
AcDbEntity
  8
P-0000
  6
Continuous
 62
     7
100
AcDbLine
 10
3354.833859152333
 20
2183.632928279481
 30
0.0
 11
3354.833859152332
 21
2182.132928279481
 31
0.0
1001
ACME_LAYERS
1000
1
  0
ARC
  5
372C
330
1F
100
AcDbEntity
  8
P-0000
  6
Continuous
 62
     7
100
AcDbCircle
 10
3356.882066146484
 20
2180.28252827948
 30
0.0
 40
0.6000000000000229
100
AcDbArc
 50
215.3499999999292
 51
269.9999999999479
1001
ACME_LAYERS
1000
1
  0
ARC
  5
372D
330
1F
100
AcDbEntity
  8
P-0000
  6
Continuous
 62
     7
100
AcDbCircle
 10
3356.882292568422
 20
2180.25152827948
 30
0.0
 40
0.5689999999999894
100
AcDbArc
 50
269.9999999999479
 51
318.7499999999251
1001
ACME_LAYERS
1000
1
  0
LINE
  5
372E
330
1F
100
AcDbEntity
  8
P-0000
  6
Continuous
 62
     7
100
AcDbLine
 10
3356.882066146484
 20
2179.68252827948
 30
0.0
 11
3356.882292568422
 21
2179.68252827948
 31
0.0
1001
ACME_LAYERS
1000
1
  0
HATCH
  5
372F
330
1F
100
AcDbEntity
  8
P-0000
  6
Continuous
 62
     1
100
AcDbHatch
 10
0.0
 20
0.0
 30
0.0
210
0.0
220
0.0
230
1.0
  2
_U
 70
     0
 71
     0
 91
        1
 92
        1
 93
        4
 72
     1
 10
3370.758156137475
 20
2191.832928279468
 11
3373.758156137475
 21
2191.832928279465
 72
     1
 10
3373.758156137475
 20
2191.832928279465
 11
3373.75815613747
 21
2185.832928279464
 72
     1
 10
3373.758156137469
 20
2185.832928279464
 11
3370.758156137469
 21
2185.832928279467
 72
     1
 10
3370.758156137469
 20
2185.832928279467
 11
3370.758156137475
 21
2191.832928279468
 97
        0
 75
     0
 76
     0
 52
44.99999999999999
 41
1.0
 77
     0
 78
     1
 53
45.0
 43
848.2317450094047
 44
1033.399343083144
 45
-0.7071067811865475
 46
0.7071067811865476
 79
     0
 98
        1
 10
3614.124886388502
 20
2304.331011311226
1001
GENIUS_GENODEF_13
1002
{
1000
HIER
1070
     0
1002
}
1002
{
1000
MANEDIT
1070
     0
1002
}
1002
{
1000
NOSEL
1070
     0
1002
}
1002
{
1000
BEHIND
1070
     0
1002
}
1002
{
1000
OTHER
1070
     0
1002
}
1002
{
1000
REACTOR
1002
}
1001
GENIUS_GENOBJ-N-HTC_13
1002
{
1000
OWNER
1000
GEN
1002
}
1001
GENIUS_GENHATCH_13
1002
{
1000
DATA
1040
135.0
1042
-1.0
1000
_U
1070
     0
1011
3372.989179322023
1021
2186.291515325984
1031
0.0
1002
}
1002
{
1000
UCS
1010
0.0
1020
0.0
1030
0.0
1010
1.0
1020
0.0
1030
0.0
1010
0.0
1020
1.0
1030
0.0
1002
}
1001
ACAD
1010
0.0
1020
0.0
1030
0.0
  0
HATCH
  5
3730
330
1F
100
AcDbEntity
  8
AM_8
100
AcDbHatch
 10
0.0
 20
0.0
 30
0.0
210
0.0
220
0.0
230
1.0
  2
_U
 70
     0
 71
     0
 91
        1
 92
        1
 93
        5
 72
     1
 10
3441.533859152408
 20
2265.832928279403
 11
3441.042587771173
 21
2265.832928279404
 72
     1
 10
3441.042587771173
 20
2265.832928279404
 11
3441.042587771173
 21
2250.832928279403
 72
     1
 10
3441.042587771173
 20
2250.832928279403
 11
3444.65547944607
 21
2250.832928279403
 72
     1
 10
3444.655479446072
 20
2250.832928279403
 11
3444.655479446072
 21
2265.832928279404
 72
     1
 10
3444.655479446072
 20
2265.832928279404
 11
3441.533859152408
 21
2265.832928279403
 97
        0
 75
     0
 76
     0
 52
45.0
 41
2.5
 77
     0
 78
     1
 53
45.0
 43
848.2317450094047
 44
1033.399343083144
 45
-1.767766952966368
 46
1.767766952966368
 79
     0
 98
        1
 10
848.2317450094047
 20
1033.399343083144
1001
GENIUS_GENODEF_13
1002
{
1000
HIER
1070
     0
1002
}
1002
{
1000
MANEDIT
1070
     0
1002
}
1002
{
1000
NOSEL
1070
     0
1002
}
1002
{
1000
BEHIND
1070
     0
1002
}
1002
{
1000
OTHER
1070
     0
1002
}
1002
{
1000
REACTOR
1002
}
1001
GENIUS_GENOBJ-N-HTC_13
1002
{
1000
OWNER
1000
GEN
1002
}
1001
GENIUS_GENHATCH_13
1002
{
1000
DATA
1040
45.0
1042
2.5
1000
_U
1070
     0
1011
3443.407114640065
1021
2263.442458142595
1031
0.0
1002
}
1002
{
1000
UCS
1010
0.0
1020
0.0
1030
0.0
1010
1.0
1020
0.0
1030
0.0
1010
0.0
1020
1.0
1030
0.0
1002
}
  0
HATCH
  5
3731
330
1F
100
AcDbEntity
  8
AM_8
100
AcDbHatch
 10
0.0
 20
0.0
 30
0.0
210
0.0
220
0.0
230
1.0
  2
_U
 70
     0
 71
     0
 91
        1
 92
        1
 93
        8
 72
     1
 10
3440.551316390037
 20
2265.832928279404
 11
3437.429696096375
 21
2265.832928279407
 72
     1
 10
3437.429696096375
 20
2265.832928279407
 11
3437.42969609636
 21
2250.832928279406
 72
     1
 10
3437.429696096359
 20
2250.832928279406
 11
3439.051316390037
 21
2250.832928279403
 72
     1
 10
3439.051316390037
 20
2250.832928279403
 11
3440.033859152394
 21
2250.832928279403
 72
     1
 10
3440.033859152393
 20
2250.832928279403
 11
3440.551316390037
 21
2250.832928279403
 72
     1
 10
3440.551316390037
 20
2250.832928279403
 11
3441.042587771173
 21
2250.832928279403
 72
     1
 10
3441.042587771173
 20
2250.832928279403
 11
3441.042587771173
 21
2265.832928279404
 72
     1
 10
3441.042587771173
 20
2265.832928279404
 11
3440.551316390037
 21
2265.832928279404
 97
        0
 75
     0
 76
     0
 52
45.0
 41
2.5
 77
     0
 78
     1
 53
45.0
 43
848.2317450094047
 44
1033.399343083144
 45
-1.767766952966368
 46
1.767766952966368
 79
     0
 98
        1
 10
848.2317450094047
 20
1033.399343083144
1001
GENIUS_GENOBJ-N-HTC_13
1002
{
1000
OWNER
1000
GEN
1002
}
1001
GENIUS_GENODEF_13
1002
{
1000
HIER
1070
     0
1002
}
1002
{
1000
MANEDIT
1070
     0
1002
}
1002
{
1000
NOSEL
1070
     0
1002
}
1002
{
1000
BEHIND
1070
     0
1002
}
1002
{
1000
OTHER
1070
     0
1002
}
1002
{
1000
REACTOR
1002
}
1001
GENIUS_GENHATCH_13
1002
{
1000
DATA
1040
45.0
1042
2.5
1000
_U
1070
     0
1011
3440.308210907315
1021
2262.09583777324
1031
0.0
1002
}
1002
{
1000
UCS
1010
0.0
1020
0.0
1030
0.0
1010
1.0
1020
0.0
1030
0.0
1010
0.0
1020
1.0
1030
0.0
1002
}
  0
LINE
  5
3732
330
1F
100
AcDbEntity
  8
AM_7
  6
AM_DIN_G_W050x2
100
AcDbLine
 10
3324.783859152336
 20
2178.90719457732
 30
0.0
 11
3324.801316390029
 21
2166.887751160817
 31
0.0
1001
GENIUS_GENOBJ-N-CEN_13
1002
{
1000
OWNER
1000
GEN
1002
}
1001
GENIUS_GENODEF_13
1002
{
1000
HIER
1070
     0
1002
}
1002
{
1000
MANEDIT
1070
     0
1002
}
1002
{
1000
NOSEL
1070
     0
1002
}
1002
{
1000
BEHIND
1070
     0
1002
}
1002
{
1000
OTHER
1070
     0
1002
}
1002
{
1000
REACTOR
1002
}
1001
GENIUS_GENCEN_19
1002
{
1040
3.0
1002
}
  0
LINE
  5
3733
330
1F
100
AcDbEntity
  8
AM_7
  6
AM_DIN_G_W050x2
100
AcDbLine
 10
3557.301316390029
 20
2178.907194577214
 30
0.0
 11
3557.301316390029
 21
2166.887751160817
 31
0.0
1001
GENIUS_GENODEF_13
1002
{
1000
HIER
1070
     0
1002
}
1002
{
1000
MANEDIT
1070
     0
1002
}
1002
{
1000
NOSEL
1070
     0
1002
}
1002
{
1000
BEHIND
1070
     0
1002
}
1002
{
1000
OTHER
1070
     0
1002
}
1002
{
1000
REACTOR
1002
}
1001
GENIUS_GENOBJ-N-CEN_13
1002
{
1000
OWNER
1000
GEN
1002
}
1001
GENIUS_GENCEN_19
1002
{
1040
3.0
1002
}
  0
LINE
  5
37E4
330
1F
100
AcDbEntity
  8
P-0000
  6
Continuous
 62
     7
100
AcDbLine
 10
3441.116581452976
 20
2166.397198275967
 30
0.0
 11
3441.10785283414
 21
2166.397198275967
 31
0.0
1001
ACME_LAYERS
1000
1
  0
LINE
  5
37E5
330
1F
100
AcDbEntity
  8
P-0000
  6
Continuous
 62
     7
100
AcDbLine
 10
3441.116581452976
 20
2164.665147468399
 30
0.0
 11
3441.107852834117
 21
2164.665147468399
 31
0.0
1001
ACME_LAYERS
1000
1
  0
LINE
  5
37E6
330
1F
100
AcDbEntity
  8
P-0000
  6
Continuous
 62
     7
100
AcDbLine
 10
3449.625310071832
 20
2166.897198275969
 30
0.0
 11
3446.125310071832
 21
2166.897198275969
 31
0.0
1001
ACME_LAYERS
1000
1
  0
LINE
  5
37E7
330
1F
100
AcDbEntity
  8
P-0000
  6
Continuous
 62
     7
100
AcDbLine
 10
3446.125310071832
 20
2166.897198275969
 30
0.0
 11
3441.125310071833
 21
2166.897198275969
 31
0.0
1001
ACME_LAYERS
1000
1
  0
LINE
  5
37E8
330
1F
100
AcDbEntity
  8
P-0000
  6
Continuous
 62
     7
100
AcDbLine
 10
3451.625310071833
 20
2166.897198275969
 30
0.0
 11
3449.625310071832
 21
2166.897198275969
 31
0.0
1001
ACME_LAYERS
1000
1
  0
LINE
  5
37E9
330
1F
100
AcDbEntity
  8
P-0000
  6
Continuous
 62
     7
100
AcDbLine
 10
3451.625310071833
 20
2168.897198275969
 30
0.0
 11
3451.625310071833
 21
2166.897198275969
 31
0.0
1001
ACME_LAYERS
1000
1
  0
LINE
  5
37EA
330
1F
100
AcDbEntity
  8
P-0000
  6
Continuous
 62
     7
100
AcDbLine
 10
3441.116581452976
 20
2166.397198275967
 30
0.0
 11
3441.125310071811
 21
2166.397198275967
 31
0.0
1001
ACME_LAYERS
1000
1
  0
LINE
  5
37EB
330
1F
100
AcDbEntity
  8
P-0000
  6
Continuous
 62
     7
100
AcDbLine
 10
3441.116581452976
 20
2164.665147468399
 30
0.0
 11
3441.125310071835
 21
2164.665147468399
 31
0.0
1001
ACME_LAYERS
1000
1
  0
LINE
  5
37EC
330
1F
100
AcDbEntity
  8
P-0000
  6
Continuous
 62
     7
100
AcDbLine
 10
3432.625310071831
 20
2166.897198275969
 30
0.0
 11
3436.125310071832
 21
2166.897198275969
 31
0.0
1001
ACME_LAYERS
1000
1
  0
LINE
  5
37ED
330
1F
100
AcDbEntity
  8
P-0000
  6
Continuous
 62
     7
100
AcDbLine
 10
3436.125310071832
 20
2166.897198275969
 30
0.0
 11
3441.125310071833
 21
2166.897198275969
 31
0.0
1001
ACME_LAYERS
1000
1
  0
LINE
  5
37EE
330
1F
100
AcDbEntity
  8
P-0000
  6
Continuous
 62
     7
100
AcDbLine
 10
3430.625310071833
 20
2166.897198275969
 30
0.0
 11
3432.625310071831
 21
2166.897198275969
 31
0.0
1001
ACME_LAYERS
1000
1
  0
LINE
  5
37EF
330
1F
100
AcDbEntity
  8
P-0000
  6
Continuous
 62
     7
100
AcDbLine
 10
3430.625310071833
 20
2168.897198275969
 30
0.0
 11
3430.625310071833
 21
2166.897198275969
 31
0.0
1001
ACME_LAYERS
1000
1
  0
LINE
  5
37F0
330
1F
100
AcDbEntity
  8
P-0000
  6
Continuous
 62
     7
100
AcDbLine
 10
3445.625310071849
 20
2166.897198275969
 30
0.0
 11
3440.62531007184
 21
2166.897198275969
 31
0.0
1001
ACME_LAYERS
1000
1
  0
LINE
  5
37F1
330
1F
100
AcDbEntity
  8
P-0000
  6
Continuous
 62
     7
100
AcDbLine
 10
3451.625310071848
 20
2168.897198275969
 30
0.0
 11
3451.625310071848
 21
2183.891546977538
 31
0.0
1001
ACME_LAYERS
1000
1
  0
LINE
  5
37F2
330
1F
100
AcDbEntity
  8
P-0000
  6
Continuous
 62
     7
100
AcDbLine
 10
3442.125310071848
 20
2183.891546977538
 30
0.0
 11
3450.625310071848
 21
2183.891546977538
 31
0.0
1001
ACME_LAYERS
1000
1
  0
LINE
  5
37F3
330
1F
100
AcDbEntity
  8
P-0000
  6
Continuous
 62
     7
100
AcDbLine
 10
3440.635070303578
 20
2183.891546977538
 30
0.0
 11
3442.125310071848
 21
2183.891546977538
 31
0.0
1001
ACME_LAYERS
1000
1
  0
LINE
  5
37F4
330
1F
100
AcDbEntity
  8
P-0000
  6
Continuous
 62
     7
100
AcDbLine
 10
3440.615549840118
 20
2180.891546977539
 30
0.0
 11
3440.615549840123
 21
2180.891546977539
 31
0.0
1001
ACME_LAYERS
1000
1
  0
LINE
  5
37F5
330
1F
100
AcDbEntity
  8
P-0000
  6
Continuous
 62
     7
100
AcDbLine
 10
3440.635070303575
 20
2180.891546977539
 30
0.0
 11
3440.635070303578
 21
2180.891546977539
 31
0.0
1001
ACME_LAYERS
1000
1
  0
LINE
  5
37F6
330
1F
100
AcDbEntity
  8
P-0000
  6
Continuous
 62
     7
100
AcDbLine
 10
3450.625310071848
 20
2166.897198275969
 30
0.0
 11
3445.625310071849
 21
2166.897198275969
 31
0.0
1001
ACME_LAYERS
1000
1
  0
LINE
  5
37F7
330
1F
100
AcDbEntity
  8
P-0000
  6
Continuous
 62
     7
100
AcDbLine
 10
3430.607852834103
 20
2168.897198275969
 30
0.0
 11
3430.607852834103
 21
2183.891546977538
 31
0.0
1001
ACME_LAYERS
1000
1
  0
LINE
  5
37F8
330
1F
100
AcDbEntity
  8
P-0000
  6
Continuous
 62
     7
100
AcDbLine
 10
3440.107852834103
 20
2183.891546977538
 30
0.0
 11
3431.607852834105
 21
2183.891546977538
 31
0.0
1001
ACME_LAYERS
1000
1
  0
LINE
  5
37F9
330
1F
100
AcDbEntity
  8
P-0000
  6
Continuous
 62
     7
100
AcDbLine
 10
3441.598092602375
 20
2183.891546977538
 30
0.0
 11
3440.107852834103
 21
2183.891546977538
 31
0.0
1001
ACME_LAYERS
1000
1
  0
LINE
  5
37FA
330
1F
100
AcDbEntity
  8
0
100
AcDbLine
 10
3439.107852834103
 20
2183.891546977538
 30
0.0
 11
3439.107852834103
 21
2166.897198275969
 31
0.0
  0
LINE
  5
37FB
330
1F
100
AcDbEntity
  8
0
100
AcDbLine
 10
3443.125310071849
 20
2183.891546977538
 30
0.0
 11
3443.125310071844
 21
2166.897198275969
 31
0.0
  0
DIMENSION
  5
3AA3
102
{ACAD_XDICTIONARY
360
3AB0
102
}
102
{ACAD_REACTORS
330
3AB1
102
}
330
1F
100
AcDbEntity
  8
AM_5
100
AcDbDimension
  2
*D3
 10
3264.07307141101
 20
2149.691278371022
 30
0.0
 11
3257.573071411009
 21
1964.691278371031
 31
0.0
 70
    32
 71
     5
 42
369.9999999999834
  3
AM_DIN$0
100
AcDbAlignedDimension
 13
3441.116581452972
 23
1779.691278371039
 33
0.0
 14
3276.073071411009
 24
2149.691278371022
 34
0.0
 50
90.00000000000005
100
AcDbRotatedDimension
1001
ACAD_DSTYLE_DIMINSPECT
1070
   396
1000
100%
1070
   395
1000

1070
   394
1070
    33
1070
   393
1070
     0
1001
ACAD
1000
DSTYLE
1002
{
1070
    41
1040
5.0
1070
   140
1040
10.0
1070
   271
1070
     0
1002
}
  0
ENDSEC
  0
SECTION
  2
OBJECTS
  0
DICTIONARY
  5
C
330
0
100
AcDbDictionary
281
     1
  3
ACAD_2007HEADERVARS_RT
350
3B62
  3
ACAD_COLOR
350
BE
  3
ACAD_GROUP
350
D
  3
ACAD_LAYOUT
350
1A
  3
ACAD_MATERIAL
350
BD
  3
ACAD_MLEADERSTYLE
350
3EF
  3
ACAD_MLINESTYLE
350
17
  3
ACAD_PLOTSETTINGS
350
19
  3
ACAD_PLOTSTYLENAME
350
E
  3
ACAD_SCALELIST
350
3DD
  3
ACAD_TABLESTYLE
350
11A
  3
ACAD_VISUALSTYLE
350
3CC
  3
ACDB_RECOMPOSE_DATA
350
3262
  3
AcDbVariableDictionary
350
94
  3
AcmDictionary
350
5B
  3
AEC_PROPERTY_SET_DEFS
350
B7A
  3
AMG
350
41
  3
AMGSNAPSETTINGS
350
26B
  3
DWGPROPS
350
3B61
  0
DICTIONARY
  5
48A
330
2
100
AcDbDictionary
280
     1
281
     1
  3
ACAD_LAYERSTATES
360
48B
  0
DICTIONARY
  5
3251
330
10
100
AcDbDictionary
280
     1
281
     1
  3
ADSK_XREC_LAYER_RECONCILED
360
3252
  0
DICTIONARY
  5
474
330
473
100
AcDbDictionary
280
     1
281
     1
  3
ADSK_XREC_LAYER_RECONCILED
360
3253
  0
DICTIONARY
  5
477
330
476
100
AcDbDictionary
280
     1
281
     1
  3
ADSK_XREC_LAYER_RECONCILED
360
3254
  0
DICTIONARY
  5
479
330
478
100
AcDbDictionary
280
     1
281
     1
  3
ADSK_XREC_LAYER_RECONCILED
360
3255
  0
DICTIONARY
  5
47B
330
47A
100
AcDbDictionary
280
     1
281
     1
  3
ADSK_XREC_LAYER_RECONCILED
360
3256
  0
DICTIONARY
  5
47D
330
47C
100
AcDbDictionary
280
     1
281
     1
  3
ADSK_XREC_LAYER_RECONCILED
360
3257
  0
DICTIONARY
  5
252B
330
252A
100
AcDbDictionary
280
     1
281
     1
  3
ADSK_XREC_LAYER_RECONCILED
360
325B
  0
DICTIONARY
  5
8F
330
1F
100
AcDbDictionary
280
     1
281
     1
  3
ACAD_SORTENTS
360
3199
  0
DICTIONARY
  5
3AB0
330
3AA3
100
AcDbDictionary
280
     1
281
     1
  3
ACAD_DIMASSOC
360
3AB1
  0
DICTIONARY
  5
3B62
102
{ACAD_REACTORS
330
C
102
}
330
C
100
AcDbDictionary
281
     1
  3
DIMJOGANG
350
3B63
  3
DIMLTEX1
350
3B65
  3
DIMLTEX2
350
3B66
  3
DIMLTYPE
350
3B64
  0
DICTIONARY
  5
BE
102
{ACAD_REACTORS
330
C
102
}
330
C
100
AcDbDictionary
281
     1
  0
DICTIONARY
  5
D
102
{ACAD_REACTORS
330
C
102
}
330
C
100
AcDbDictionary
281
     1
  0
DICTIONARY
  5
1A
102
{ACAD_REACTORS
330
C
102
}
330
C
100
AcDbDictionary
281
     1
  3
Layout1
350
1E
  3
Layout2
350
26
  3
Model
350
22
  0
DICTIONARY
  5
BD
102
{ACAD_REACTORS
330
C
102
}
330
C
100
AcDbDictionary
281
     1
  3
ByBlock
350
3BC
  3
ByLayer
350
3B4
  3
Global
350
3C4
  0
DICTIONARY
  5
3EF
102
{ACAD_REACTORS
330
C
102
}
330
C
100
AcDbDictionary
281
     1
  3
Standard
350
3F0
  0
DICTIONARY
  5
17
102
{ACAD_REACTORS
330
C
102
}
330
C
100
AcDbDictionary
281
     1
  3
Standard
350
18
  0
DICTIONARY
  5
19
102
{ACAD_REACTORS
330
C
102
}
330
C
100
AcDbDictionary
281
     1
  0
ACDBDICTIONARYWDFLT
  5
E
102
{ACAD_REACTORS
330
C
102
}
330
C
100
AcDbDictionary
281
     1
  3
Normal
350
F
100
AcDbDictionaryWithDefault
340
F
  0
DICTIONARY
  5
3DD
102
{ACAD_REACTORS
330
C
102
}
330
C
100
AcDbDictionary
281
     1
  3
A0
350
3DE
  3
A1
350
3DF
  3
A2
350
3E0
  3
A3
350
3E1
  3
A4
350
3E2
  3
A5
350
3E3
  3
A6
350
3E4
  3
A7
350
3E5
  3
A8
350
3E6
  3
A9
350
3E7
  3
B0
350
3E8
  3
B1
350
3E9
  3
B2
350
3EA
  3
B3
350
3EB
  3
B4
350
3EC
  3
B5
350
3ED
  3
B6
350
3EE
  0
DICTIONARY
  5
11A
102
{ACAD_REACTORS
330
C
102
}
330
C
100
AcDbDictionary
281
     1
  3
Standard
350
11B
  0
DICTIONARY
  5
3CC
102
{ACAD_REACTORS
330
C
102
}
330
C
100
AcDbDictionary
281
     1
  3
2dWireframe
350
3D2
  3
3D Hidden
350
3D4
  3
3dWireframe
350
3D3
  3
Basic
350
3D1
  3
Brighten
350
3D8
  3
ColorChange
350
3DC
  3
Conceptual
350
3D5
  3
Dim
350
3D7
  3
Facepattern
350
3DB
  3
Flat
350
3CD
  3
FlatWithEdges
350
3CE
  3
Gouraud
350
3CF
  3
GouraudWithEdges
350
3D0
  3
Linepattern
350
3DA
  3
Realistic
350
3D6
  3
Thicken
350
3D9
  0
XRECORD
  5
3262
102
{ACAD_REACTORS
330
C
102
}
330
C
100
AcDbXrecord
280
     1
 90
        1
330
11B
  0
DICTIONARY
  5
94
102
{ACAD_REACTORS
330
C
102
}
330
C
100
AcDbDictionary
281
     1
  3
CANNOSCALE
350
325E
  3
CMLEADERSTYLE
350
325D
  3
CTABLESTYLE
350
138
  3
DIMASSOC
350
96
  3
INDEXCTL
350
95
  3
SORTENTS
350
325F
  0
DICTIONARY
  5
5B
102
{ACAD_REACTORS
330
C
102
}
330
C
100
AcDbDictionary
281
     1
  3
AcmBOM
350
272
  3
AcmStdDictionary
350
61
  3
AMDTSECTSYM_ARROWCOLOR
350
123
  0
DICTIONARY
  5
B7A
102
{ACAD_REACTORS
330
C
102
}
330
C
100
AcDbDictionary
281
     1
  0
DICTIONARY
  5
41
102
{ACAD_REACTORS
330
C
102
}
330
C
100
AcDbDictionary
281
     1
  0
DICTIONARY
  5
26B
102
{ACAD_REACTORS
330
C
102
}
330
C
100
AcDbDictionary
281
     1
  0
XRECORD
  5
3B61
102
{ACAD_REACTORS
330
C
102
}
330
C
100
AcDbXrecord
280
     1
  1
DWGPROPS COOKIE
  2

  3

  4

  6

  7

  8
jamoeller
  9

300
AmdtFileType=84
301
=
302
=
303
=
304
=
305
=
306
=
307
=
308
=
309
=
 40
0.0734850694444445
 41
2455478.316582292
 42
2455610.347806759
  1

 90
        1
  0
DICTIONARY
  5
48B
102
{ACAD_REACTORS
330
48A
102
}
330
48A
100
AcDbDictionary
281
     1
  0
XRECORD
  5
3252
102
{ACAD_REACTORS
330
3251
102
}
330
3251
100
AcDbXrecord
280
     1
290
     1
  0
XRECORD
  5
3253
102
{ACAD_REACTORS
330
474
102
}
330
474
100
AcDbXrecord
280
     1
290
     1
  0
XRECORD
  5
3254
102
{ACAD_REACTORS
330
477
102
}
330
477
100
AcDbXrecord
280
     1
290
     1
  0
XRECORD
  5
3255
102
{ACAD_REACTORS
330
479
102
}
330
479
100
AcDbXrecord
280
     1
290
     1
  0
XRECORD
  5
3256
102
{ACAD_REACTORS
330
47B
102
}
330
47B
100
AcDbXrecord
280
     1
290
     1
  0
XRECORD
  5
3257
102
{ACAD_REACTORS
330
47D
102
}
330
47D
100
AcDbXrecord
280
     1
290
     1
  0
XRECORD
  5
325B
102
{ACAD_REACTORS
330
252B
102
}
330
252B
100
AcDbXrecord
280
     1
290
     1
  0
SORTENTSTABLE
  5
3199
102
{ACAD_REACTORS
330
8F
102
}
330
8F
100
AcDbSortentsTable
330
1F
331
28EA
  5
28EB
331
3718
  5
3719
331
366B
  5
366C
331
36A2
  5
36A3
331
2939
  5
293A
331
28F2
  5
28F3
331
28CF
  5
28D0
331
362C
  5
362D
331
36E1
  5
36E2
331
36E9
  5
36EA
331
3720
  5
3721
331
3634
  5
3635
331
3673
  5
3674
331
28D7
  5
28D8
331
2941
  5
2942
331
3565
  5
3566
331
36AA
  5
36AB
331
36B2
  5
36B3
331
36F1
  5
36F2
331
363C
  5
363D
331
367B
  5
367C
331
3728
  5
3729
331
28DF
  5
28E0
331
2902
  5
2903
331
356D
  5
356E
331
36BA
  5
36BB
331
3644
  5
3645
331
3730
  5
3731
331
284C
  5
284D
331
2A38
  5
2A3B
331
27E2
  5
27E3
331
2854
  5
2855
331
2951
  5
2952
331
35A6
  5
35A7
331
27EA
  5
27EB
331
2A77
  5
2A79
331
281D
  5
281E
331
286C
  5
286D
331
35AE
  5
35AF
331
35B6
  5
35B7
331
2A48
  5
2A4A
331
2874
  5
2875
331
27F2
  5
27F3
331
2A7F
  5
2A82
331
3577
  5
3578
331
35BE
  5
35BF
331
290A
  5
290B
331
3683
  5
3684
331
36C2
  5
36C3
331
2FB6
  5
2FB8
331
28B0
  5
28B1
331
2912
  5
2913
331
364C
  5
364D
331
36F9
  5
36FA
331
3701
  5
3702
331
37E8
  5
37E9
331
3654
  5
3655
331
368B
  5
368C
331
3615
  5
3616
331
36CA
  5
36CB
331
291A
  5
291B
331
3709
  5
370A
331
37F0
  5
37F1
331
365C
  5
365D
331
3693
  5
3694
331
2922
  5
2923
331
336E
  5
3556
331
361D
  5
361E
331
36D2
  5
36D3
331
36DA
  5
36DB
331
3711
  5
3712
331
3625
  5
3626
331
3664
  5
3665
331
3556
  5
3557
331
369B
  5
369C
331
37F8
  5
37F9
331
27FA
  5
27FB
331
2A50
  5
2A52
331
282D
  5
282E
331
357F
  5
3580
331
2802
  5
2803
331
2835
  5
2836
331
2884
  5
2885
331
2A58
  5
2A5A
331
2A60
  5
2A62
331
3587
  5
3588
331
280A
  5
280B
331
283D
  5
283E
331
288C
  5
288D
331
2999
  5
299B
331
3606
  5
3607
331
2845
  5
2846
331
358F
  5
3590
331
3597
  5
35A0
331
28EB
  5
28EC
331
28C8
  5
28C9
331
36A3
  5
36A4
331
36E2
  5
36E3
331
28D0
  5
28D1
331
362D
  5
362E
331
28F3
  5
28F4
331
293A
  5
293B
331
366C
  5
366D
331
3719
  5
371A
331
3721
  5
3722
331
36AB
  5
36AC
331
36EA
  5
36EB
331
3566
  5
3567
331
3635
  5
3636
331
2899
  5
289A
331
28D8
  5
28D9
331
28FB
  5
28FC
331
2942
  5
2943
331
2E7F
  5
2FA8
331
3674
  5
3675
331
3729
  5
372A
331
367C
  5
367D
331
36B3
  5
36B4
331
2FA7
  5
2FA9
331
356E
  5
356F
331
2903
  5
2904
331
363D
  5
363E
331
36F2
  5
36F3
331
3731
  5
3732
331
3645
  5
3646
331
36BB
  5
36BC
331
2A68
  5
2A6A
331
284D
  5
284E
331
35A7
  5
35A8
331
2952
  5
2953
331
2A39
  5
2A3C
331
2855
  5
2856
331
2816
  5
2817
331
27E3
  5
27E4
331
2A70
  5
2A73
331
2A78
  5
2A7A
331
35AF
  5
35B0
331
281E
  5
281F
331
286D
  5
286E
331
2A41
  5
2A46
331
2A49
  5
2A4B
331
3570
  5
3571
331
27F3
  5
27F4
331
2875
  5
2876
331
35B7
  5
35B8
331
35BF
  5
35C0
331
290B
  5
290C
331
36C3
  5
36C4
331
36FA
  5
36FB
331
364D
  5
364E
331
2FB7
  5
2FB9
331
3684
  5
3685
331
2913
  5
2914
331
28B1
  5
28B2
331
36CB
  5
36CC
331
3702
  5
3703
331
3616
  5
3617
331
291B
  5
291C
331
3655
  5
3656
331
368C
  5
368D
331
37E9
  5
37EA
331
37F1
  5
37F2
331
3694
  5
3695
331
36D3
  5
36D4
331
28C1
  5
28C2
331
361E
  5
361F
331
2923
  5
2924
331
365D
  5
365E
331
370A
  5
370B
331
3712
  5
3713
331
37F9
  5
37FA
331
3665
  5
3666
331
369C
  5
369D
331
3557
  5
3558
331
3626
  5
3627
331
36DB
  5
36DC
331
2A51
  5
2A53
331
3578
  5
3579
331
282E
  5
282F
331
27FB
  5
27FC
331
296A
  5
296B
331
2972
  5
299A
331
2A59
  5
2A5B
331
2885
  5
2886
331
2836
  5
2837
331
2803
  5
2804
331
3580
  5
3581
331
3588
  5
3589
331
35FF
  5
3600
331
280B
  5
280C
331
288D
  5
288E
331
299A
  5
299C
331
2A61
  5
2A63
331
283E
  5
283F
331
3590
  5
3591
331
2846
  5
2847
331
29D2
  5
29D4
331
3607
  5
360F
331
28EC
  5
28ED
331
28C9
  5
28CA
331
2E58
  5
2E7A
331
371A
  5
371B
331
366D
  5
366E
331
36A4
  5
36A5
331
293B
  5
293C
331
28D1
  5
28D2
331
362E
  5
362F
331
36E3
  5
36E4
331
36EB
  5
36EC
331
3722
  5
3723
331
3636
  5
3637
331
3675
  5
3676
331
28D9
  5
28DA
331
2943
  5
2944
331
289A
  5
289B
331
3567
  5
3568
331
36AC
  5
36AD
331
36B4
  5
36B5
331
36F3
  5
36F4
331
356F
  5
3570
331
363E
  5
363F
331
2FA8
  5
2FAA
331
367D
  5
367E
331
372A
  5
372B
331
2904
  5
2905
331
3732
  5
3733
331
36BC
  5
36BD
331
3646
  5
3647
331
2A69
  5
2A6B
331
35A0
  5
35A1
331
284E
  5
284F
331
2A32
  5
2A38
331
2817
  5
2818
331
27E4
  5
27E5
331
2953
  5
2954
331
35A8
  5
35A9
331
35B0
  5
35B1
331
2A79
  5
2A7B
331
281F
  5
2820
331
286E
  5
286F
331
35B8
  5
35B9
331
2A4A
  5
2A4C
331
2876
  5
2877
331
27F4
  5
27F5
331
3571
  5
3572
331
290C
  5
290D
331
3685
  5
3686
331
36C4
  5
36C5
331
2FB8
  5
31CF
331
360F
  5
3610
331
28B2
  5
28B3
331
2914
  5
2915
331
2A81
  5
2A83
331
364E
  5
364F
331
36FB
  5
36FC
331
3703
  5
3704
331
37EA
  5
37EB
331
3656
  5
3657
331
368D
  5
368E
331
3617
  5
3618
331
36CC
  5
36CD
331
291C
  5
291D
331
36D4
  5
36D5
331
370B
  5
370C
331
365E
  5
365F
331
3695
  5
3696
331
37F2
  5
37F3
331
2924
  5
2925
331
28C2
  5
28C3
331
361F
  5
3620
331
36DC
  5
36DD
331
3713
  5
3714
331
3627
  5
3628
331
3666
  5
3667
331
369D
  5
369E
331
37FA
  5
37FB
331
3579
  5
357A
331
35C0
  5
35C1
331
282F
  5
2830
331
27FC
  5
27FD
331
2A52
  5
2A54
331
2A5A
  5
2A5C
331
2804
  5
2805
331
3581
  5
3582
331
2837
  5
2838
331
2886
  5
2887
331
35F8
  5
35F9
331
2A62
  5
2A64
331
3589
  5
358A
331
283F
  5
2840
331
280C
  5
280D
331
299B
  5
299D
331
3600
  5
3601
331
29D3
  5
29D5
331
2847
  5
2848
331
3591
  5
3592
331
28ED
  5
28EE
331
28CA
  5
28CB
331
3558
  5
3559
331
36A5
  5
36A6
331
36E4
  5
36E5
331
362F
  5
3630
331
28D2
  5
28D3
331
28F5
  5
28F6
331
293C
  5
293D
331
2E79
  5
2E7D
331
366E
  5
366F
331
371B
  5
371C
331
3723
  5
3724
331
3676
  5
3677
331
36AD
  5
36AE
331
3568
  5
3569
331
289B
  5
289C
331
28FD
  5
28FE
331
28DA
  5
28DB
331
3637
  5
3638
331
36EC
  5
36ED
331
372B
  5
372C
331
367E
  5
367F
331
36B5
  5
36B6
331
2FA9
  5
2FAB
331
28A3
  5
28A4
331
2905
  5
2906
331
363F
  5
3640
331
36F4
  5
36F5
331
3733
  5
37E4
331
3647
  5
3648
331
36BD
  5
36BE
331
35A1
  5
35A2
331
2A6A
  5
2A6C
331
284F
  5
2850
331
35A9
  5
35AA
331
2954
  5
2955
331
2A3B
  5
2A3D
331
2818
  5
2819
331
27E5
  5
27E6
331
2A72
  5
2A74
331
27ED
  5
27EE
331
2A7A
  5
2A7E
331
2820
  5
2821
331
286F
  5
2870
331
35B1
  5
35B2
331
2A4B
  5
2A4D
331
3572
  5
3573
331
27F5
  5
27F6
331
2877
  5
2878
331
35B9
  5
35BA
331
290D
  5
290E
331
36C5
  5
36C6
331
36FC
  5
36FD
331
3610
  5
3611
331
2A82
  5
2A84
331
364F
  5
3650
331
3686
  5
3687
331
2915
  5
2916
331
28B3
  5
28B4
331
37EB
  5
37EC
331
36CD
  5
36D1
331
3704
  5
3705
331
28BB
  5
28BC
331
3618
  5
3619
331
3657
  5
3658
331
291D
  5
291E
331
368E
  5
368F
331
37F3
  5
37F4
331
3696
  5
3697
331
36D5
  5
36D6
331
28C3
  5
28C4
331
3620
  5
3621
331
28E6
  5
28E7
331
2925
  5
2926
331
365F
  5
3660
331
370C
  5
370D
331
3714
  5
3715
331
37FB
  5
3907
331
3667
  5
3668
331
369E
  5
369F
331
36DD
  5
36DE
331
35C1
  5
35C2
331
2A53
  5
2A55
331
357A
  5
357B
331
2830
  5
2831
331
27FD
  5
27FE
331
35F9
  5
35FA
331
2A5B
  5
2A5D
331
2887
  5
2888
331
2838
  5
2839
331
2805
  5
2806
331
3582
  5
3583
331
358A
  5
358B
331
3601
  5
3604
331
2840
  5
2841
331
280D
  5
280E
331
299C
  5
29D3
331
2A63
  5
2A65
331
3592
  5
3593
331
29D4
  5
29D6
331
3559
  5
355A
331
28EE
  5
28EF
331
28CB
  5
28CC
331
3628
  5
3629
331
36E5
  5
36E6
331
371C
  5
371D
331
366F
  5
3670
331
36A6
  5
36A7
331
293D
  5
293E
331
28D3
  5
28D4
331
3630
  5
3631
331
36ED
  5
36EE
331
3724
  5
3725
331
3638
  5
3639
331
3677
  5
3678
331
28DB
  5
28DC
331
28FE
  5
28FF
331
3569
  5
356A
331
36AE
  5
36AF
331
36B6
  5
36B7
331
36F5
  5
36F6
331
3640
  5
3641
331
28A4
  5
28A5
331
2906
  5
2907
331
2FAA
  5
2FB6
331
367F
  5
3680
331
372C
  5
372D
331
36BE
  5
36BF
331
2848
  5
2849
331
27DE
  5
27DF
331
2A6B
  5
2A6E
331
2850
  5
2851
331
35A2
  5
35A3
331
2A3C
  5
2A3E
331
2A73
  5
2A75
331
2819
  5
281A
331
27E6
  5
27E7
331
2955
  5
2956
331
35AA
  5
35AB
331
295D
  5
295E
331
35B2
  5
35B3
331
2821
  5
2822
331
2870
  5
2871
331
35BA
  5
35BB
331
2A4C
  5
2A4E
331
27F6
  5
27F7
331
3573
  5
3574
331
290E
  5
290F
331
3648
  5
3649
331
37E4
  5
37E5
331
3687
  5
3688
331
36C6
  5
36C7
331
3611
  5
3612
331
28B4
  5
28B5
331
2916
  5
2917
331
2A83
  5
2A85
331
3650
  5
3651
331
36FD
  5
36FE
331
3705
  5
3706
331
3658
  5
3659
331
368F
  5
3690
331
37EC
  5
37ED
331
291E
  5
291F
331
3619
  5
361A
331
36D6
  5
36D7
331
370D
  5
370E
331
3621
  5
3622
331
2E43
  5
2E45
331
3660
  5
3661
331
3697
  5
3698
331
37F4
  5
37F5
331
28E7
  5
28E8
331
28C4
  5
28C5
331
36DE
  5
36DF
331
3715
  5
3716
331
369F
  5
36A0
331
2878
  5
2879
331
357B
  5
357C
331
35C2
  5
35C3
331
2831
  5
2832
331
27FE
  5
27FF
331
2A54
  5
2A56
331
2A5C
  5
2A5E
331
2806
  5
2807
331
3583
  5
3584
331
2888
  5
2889
331
35FA
  5
35FB
331
2A64
  5
2A66
331
2841
  5
2842
331
358B
  5
358C
331
29D5
  5
2A2C
331
23C7
  5
23C7
331
3593
  5
3594
331
3629
  5
362A
331
3668
  5
3669
331
28EF
  5
28F0
331
28CC
  5
28CD
331
355A
  5
3562
331
36A7
  5
36A8
331
36E6
  5
36E7
331
3562
  5
3563
331
28D4
  5
28D5
331
3631
  5
3632
331
293E
  5
293F
331
3670
  5
3671
331
371D
  5
371E
331
3725
  5
3726
331
3678
  5
3679
331
36AF
  5
36B0
331
356A
  5
356B
331
28FF
  5
2900
331
28DC
  5
28DD
331
3639
  5
363A
331
36EE
  5
36EF
331
36F6
  5
36F7
331
372D
  5
372E
331
36B7
  5
36B8
331
2907
  5
2908
331
3641
  5
3642
331
36BF
  5
36C0
331
2849
  5
284A
331
294E
  5
294F
331
35A3
  5
35A4
331
2851
  5
2852
331
2A74
  5
2A76
331
35AB
  5
35AC
331
2956
  5
2957
331
2A3D
  5
2A3F
331
281A
  5
281B
331
27E7
  5
27E8
331
35B3
  5
35B4
331
2822
  5
2823
331
2871
  5
2872
331
295E
  5
295F
331
2A45
  5
2A47
331
2A4D
  5
2A4F
331
3574
  5
3575
331
27F7
  5
27F8
331
35BB
  5
35BC
331
3649
  5
364A
331
3680
  5
3681
331
290F
  5
2910
331
28AD
  5
28AE
331
36C7
  5
36C8
331
36FE
  5
36FF
331
3612
  5
3613
331
28B5
  5
28B6
331
2917
  5
2918
331
2A84
  5
2A86
331
3651
  5
3652
331
3688
  5
3689
331
37E5
  5
37E6
331
37ED
  5
37EE
331
3690
  5
3691
331
361A
  5
361B
331
291F
  5
2920
331
3659
  5
365A
331
3706
  5
3707
331
37F5
  5
37F6
331
3698
  5
3699
331
36D7
  5
36D8
331
3622
  5
3623
331
28C5
  5
28C6
331
2E44
  5
2E59
331
3661
  5
3662
331
370E
  5
370F
331
3716
  5
3717
331
36DF
  5
36E0
331
35C3
  5
35C4
331
2A55
  5
2A57
331
2832
  5
2833
331
27FF
  5
2800
331
357C
  5
357D
331
35FB
  5
35FC
331
2A5D
  5
2A5F
331
2889
  5
288A
331
283A
  5
283B
331
2807
  5
2808
331
3584
  5
3585
331
358C
  5
358D
331
2842
  5
2843
331
280F
  5
2810
331
2A65
  5
2A67
331
3594
  5
3595
331
28E8
  5
28E9
331
3669
  5
366A
331
36A0
  5
36A1
331
2937
  5
2938
331
28F0
  5
28F1
331
28CD
  5
28CE
331
362A
  5
362B
331
36E7
  5
36E8
331
371E
  5
371F
331
3632
  5
3633
331
3671
  5
3672
331
2E7C
  5
2E80
331
3563
  5
3564
331
36A8
  5
36A9
331
293F
  5
2940
331
2896
  5
2897
331
28D5
  5
28D6
331
36EF
  5
36F0
331
3726
  5
3727
331
363A
  5
363B
331
3679
  5
367A
331
28DD
  5
28DE
331
2900
  5
2901
331
356B
  5
356C
331
36B0
  5
36B1
331
36B8
  5
36B9
331
3642
  5
3643
331
36F7
  5
36F8
331
372E
  5
372F
331
284A
  5
284B
331
2A6D
  5
2A6F
331
27E0
  5
27E1
331
2852
  5
2853
331
294F
  5
2950
331
35A4
  5
35A5
331
2A3E
  5
2A40
331
2A75
  5
2A77
331
281B
  5
281C
331
286A
  5
286B
331
2957
  5
2958
331
35AC
  5
35AD
331
35B4
  5
35B5
331
2872
  5
2873
331
295F
  5
2960
331
2A46
  5
2A48
331
2A7D
  5
2A7F
331
3575
  5
3576
331
35BC
  5
35BD
331
2967
  5
2968
331
2A4E
  5
2A50
331
2908
  5
2909
331
3681
  5
3682
331
36C0
  5
36C1
331
2910
  5
2911
331
364A
  5
364B
331
36FF
  5
3700
331
37E6
  5
37E7
331
3689
  5
368A
331
36C8
  5
36C9
331
3613
  5
3614
331
28B6
  5
28B7
331
2918
  5
2919
331
2A85
  5
2E1C
331
3652
  5
3653
331
3707
  5
3708
331
365A
  5
365B
331
3691
  5
3692
331
37EE
  5
37EF
331
2920
  5
2921
331
2E2D
  5
2E44
331
361B
  5
361C
331
36D8
  5
36D9
331
370F
  5
3710
331
28C6
  5
28C7
331
3623
  5
3624
331
3662
  5
3663
331
3699
  5
369A
331
37F6
  5
37F7
331
3717
  5
3718
331
282B
  5
282C
331
27F8
  5
27F9
331
357D
  5
357E
331
35C4
  5
35C5
331
2833
  5
2834
331
2800
  5
2801
331
2A56
  5
2A58
331
2A5E
  5
2A60
331
2808
  5
2809
331
3585
  5
3586
331
283B
  5
283C
331
288A
  5
288B
331
35FC
  5
35FD
331
3604
  5
3605
331
2A66
  5
2A68
331
2843
  5
2844
331
358D
  5
358E
331
3595
  5
3596
331
28E9
  5
28EA
331
36A1
  5
36A2
331
36E0
  5
36E1
331
28CE
  5
28CF
331
362B
  5
362C
331
28F1
  5
28F2
331
2938
  5
2939
331
366A
  5
366B
331
36A9
  5
36AA
331
36E8
  5
36E9
331
3564
  5
3565
331
28D6
  5
28D7
331
3633
  5
3634
331
2940
  5
2941
331
3672
  5
3673
331
371F
  5
3720
331
3727
  5
3728
331
367A
  5
367B
331
36B1
  5
36B2
331
356C
  5
356D
331
2901
  5
2902
331
363B
  5
363C
331
36F0
  5
36F1
331
372F
  5
3730
331
3643
  5
3644
331
36B9
  5
36BA
331
284B
  5
284C
331
35A5
  5
35A6
331
2950
  5
2951
331
2A37
  5
2A39
331
2853
  5
2854
331
27E1
  5
27E2
331
2A6E
  5
2A71
331
2A76
  5
2A78
331
35AD
  5
35AE
331
286B
  5
286C
331
2958
  5
2959
331
2A3F
  5
2A42
331
281C
  5
281D
331
2A7E
  5
2A80
331
35B5
  5
35B6
331
27F1
  5
27F2
331
2824
  5
2825
331
2873
  5
2874
331
2A47
  5
2A49
331
2A4F
  5
2A51
331
3576
  5
3577
331
35BD
  5
35BE
331
36F8
  5
36F9
331
364B
  5
364C
331
2FB5
  5
2FB7
331
3682
  5
3683
331
2911
  5
2912
331
36C1
  5
36C2
331
36C9
  5
36CA
331
3700
  5
3701
331
3614
  5
3615
331
28B7
  5
28B8
331
2919
  5
291A
331
2A86
  5
2E2E
331
3653
  5
3654
331
368A
  5
368B
331
37E7
  5
37E8
331
37EF
  5
37F0
331
3692
  5
3693
331
36D1
  5
36D2
331
361C
  5
361D
331
2921
  5
2922
331
365B
  5
365C
331
3708
  5
3709
331
3710
  5
3711
331
37F7
  5
37F8
331
369A
  5
369B
331
36D9
  5
36DA
331
28C7
  5
28C8
331
3624
  5
3625
331
3663
  5
3664
331
27F9
  5
27FA
331
2968
  5
2969
331
35C5
  5
35F8
331
2A57
  5
2A59
331
2883
  5
2884
331
2834
  5
2835
331
2801
  5
2802
331
357E
  5
357F
331
3586
  5
3587
331
35FD
  5
35FF
331
2A5F
  5
2A61
331
288B
  5
288C
331
283C
  5
283D
331
2809
  5
280A
331
358E
  5
358F
331
3605
  5
3606
331
2844
  5
2845
331
2A67
  5
2A69
331
3596
  5
3597
  0
DIMASSOC
  5
3AB1
102
{ACAD_REACTORS
330
3AB0
102
}
330
3AB0
100
AcDbDimAssoc
330
3AA3
 90
        3
 70
     0
 71
     0
  1
AcDbOsnapPointRef
 72
     1
331
23C7
 73
     0
 91
        0
 40
0.0
 10
0.0
 20
0.0
 30
2.000000000000000E+50
 75
     0
  1
AcDbOsnapPointRef
 72
    13
331
27E6
 73
     0
 91
        0
 40
0.0
 10
0.0
 20
0.0
 30
2.000000000000000E+50
 75
     0
  0
XRECORD
  5
3B63
102
{ACAD_REACTORS
330
3B62
102
}
330
3B62
100
AcDbXrecord
280
     1
 40
1.570796326794896
  0
XRECORD
  5
3B65
102
{ACAD_REACTORS
330
3B62
102
}
330
3B62
100
AcDbXrecord
280
     1
340
14
  0
XRECORD
  5
3B66
102
{ACAD_REACTORS
330
3B62
102
}
330
3B62
100
AcDbXrecord
280
     1
340
14
  0
XRECORD
  5
3B64
102
{ACAD_REACTORS
330
3B62
102
}
330
3B62
100
AcDbXrecord
280
     1
340
14
  0
LAYOUT
  5
1E
102
{ACAD_XDICTIONARY
360
3B67
102
}
102
{ACAD_REACTORS
330
1A
102
}
330
1A
100
AcDbPlotSettings
  1

  2

  4

  6

 40
0.0
 41
0.0
 42
0.0
 43
0.0
 44
0.0
 45
0.0
 46
0.0
 47
0.0
 48
0.0
 49
0.0
140
0.0
141
0.0
142
1.0
143
1.0
 70
   688
 72
     0
 73
     0
 74
     5
  7

 75
    16
147
1.0
148
0.0
149
0.0
100
AcDbLayout
  1
Layout1
 70
     1
 71
     1
 10
0.0
 20
0.0
 11
420.0
 21
297.0
 12
0.0
 22
0.0
 32
0.0
 14
1.000000000000000E+20
 24
1.000000000000000E+20
 34
1.000000000000000E+20
 15
-1.000000000000000E+20
 25
-1.000000000000000E+20
 35
-1.000000000000000E+20
146
0.0
 13
0.0
 23
0.0
 33
0.0
 16
1.0
 26
0.0
 36
0.0
 17
0.0
 27
1.0
 37
0.0
 76
     0
330
1B
  0
LAYOUT
  5
26
102
{ACAD_XDICTIONARY
360
3B6B
102
}
102
{ACAD_REACTORS
330
1A
102
}
330
1A
100
AcDbPlotSettings
  1

  2

  4

  6

 40
0.0
 41
0.0
 42
0.0
 43
0.0
 44
0.0
 45
0.0
 46
0.0
 47
0.0
 48
0.0
 49
0.0
140
0.0
141
0.0
142
1.0
143
1.0
 70
   688
 72
     0
 73
     0
 74
     5
  7

 75
    16
147
1.0
148
0.0
149
0.0
100
AcDbLayout
  1
Layout2
 70
     1
 71
     2
 10
0.0
 20
0.0
 11
12.0
 21
9.0
 12
0.0
 22
0.0
 32
0.0
 14
0.0
 24
0.0
 34
0.0
 15
0.0
 25
0.0
 35
0.0
146
0.0
 13
0.0
 23
0.0
 33
0.0
 16
1.0
 26
0.0
 36
0.0
 17
0.0
 27
1.0
 37
0.0
 76
     0
330
23
  0
LAYOUT
  5
22
102
{ACAD_XDICTIONARY
360
3B69
102
}
102
{ACAD_REACTORS
330
1A
102
}
330
1A
100
AcDbPlotSettings
  1

  2

  4

  6

 40
0.0
 41
0.0
 42
0.0
 43
0.0
 44
0.0
 45
0.0
 46
0.0
 47
0.0
 48
0.0
 49
0.0
140
0.0
141
0.0
142
1.0
143
1.0
 70
  1712
 72
     0
 73
     0
 74
     0
  7

 75
     0
147
1.0
148
0.0
149
0.0
100
AcDbLayout
  1
Model
 70
     1
 71
     0
 10
0.0
 20
0.0
 11
12.0
 21
9.0
 12
0.0
 22
0.0
 32
0.0
 14
0.0
 24
0.0
 34
0.0
 15
0.0
 25
0.0
 35
0.0
146
0.0
 13
0.0
 23
0.0
 33
0.0
 16
1.0
 26
0.0
 36
0.0
 17
0.0
 27
1.0
 37
0.0
 76
     0
330
1F
331
3B2
  0
MATERIAL
  5
3BC
102
{ACAD_XDICTIONARY
360
3BD
102
}
102
{ACAD_REACTORS
330
BD
102
}
330
BD
100
AcDbMaterial
  1
ByBlock
 72
     0
 43
0.0008202099737533
 43
0.0
 43
0.0
 43
0.0
 43
0.0
 43
0.0008202099737533
 43
0.0
 43
0.0
 43
0.0
 43
0.0
 43
1.0
 43
0.0
 43
0.0
 43
0.0
 43
0.0
 43
1.0
 77
     0
 47
0.0008202099737533
 47
0.0
 47
0.0
 47
0.0
 47
0.0
 47
0.0008202099737533
 47
0.0
 47
0.0
 47
0.0
 47
0.0
 47
1.0
 47
0.0
 47
0.0
 47
0.0
 47
0.0
 47
1.0
171
     0
 49
0.0008202099737533
 49
0.0
 49
0.0
 49
0.0
 49
0.0
 49
0.0008202099737533
 49
0.0
 49
0.0
 49
0.0
 49
0.0
 49
1.0
 49
0.0
 49
0.0
 49
0.0
 49
0.0
 49
1.0
175
     0
142
0.0008202099737533
142
0.0
142
0.0
142
0.0
142
0.0
142
0.0008202099737533
142
0.0
142
0.0
142
0.0
142
0.0
142
1.0
142
0.0
142
0.0
142
0.0
142
0.0
142
1.0
179
     0
144
0.0008202099737533
144
0.0
144
0.0
144
0.0
144
0.0
144
0.0008202099737533
144
0.0
144
0.0
144
0.0
144
0.0
144
1.0
144
0.0
144
0.0
144
0.0
144
0.0
144
1.0
147
0.0008202099737533
147
0.0
147
0.0
147
0.0
147
0.0
147
0.0008202099737533
147
0.0
147
0.0
147
0.0
147
0.0
147
1.0
147
0.0
147
0.0
147
0.0
147
0.0
147
1.0
  0
MATERIAL
  5
3B4
102
{ACAD_XDICTIONARY
360
3B5
102
}
102
{ACAD_REACTORS
330
BD
102
}
330
BD
100
AcDbMaterial
  1
ByLayer
 72
     0
 43
0.0008202099737533
 43
0.0
 43
0.0
 43
0.0
 43
0.0
 43
0.0008202099737533
 43
0.0
 43
0.0
 43
0.0
 43
0.0
 43
1.0
 43
0.0
 43
0.0
 43
0.0
 43
0.0
 43
1.0
 77
     0
 47
0.0008202099737533
 47
0.0
 47
0.0
 47
0.0
 47
0.0
 47
0.0008202099737533
 47
0.0
 47
0.0
 47
0.0
 47
0.0
 47
1.0
 47
0.0
 47
0.0
 47
0.0
 47
0.0
 47
1.0
171
     0
 49
0.0008202099737533
 49
0.0
 49
0.0
 49
0.0
 49
0.0
 49
0.0008202099737533
 49
0.0
 49
0.0
 49
0.0
 49
0.0
 49
1.0
 49
0.0
 49
0.0
 49
0.0
 49
0.0
 49
1.0
175
     0
142
0.0008202099737533
142
0.0
142
0.0
142
0.0
142
0.0
142
0.0008202099737533
142
0.0
142
0.0
142
0.0
142
0.0
142
1.0
142
0.0
142
0.0
142
0.0
142
0.0
142
1.0
179
     0
144
0.0008202099737533
144
0.0
144
0.0
144
0.0
144
0.0
144
0.0008202099737533
144
0.0
144
0.0
144
0.0
144
0.0
144
1.0
144
0.0
144
0.0
144
0.0
144
0.0
144
1.0
147
0.0008202099737533
147
0.0
147
0.0
147
0.0
147
0.0
147
0.0008202099737533
147
0.0
147
0.0
147
0.0
147
0.0
147
1.0
147
0.0
147
0.0
147
0.0
147
0.0
147
1.0
  0
MATERIAL
  5
3C4
102
{ACAD_XDICTIONARY
360
3C5
102
}
102
{ACAD_REACTORS
330
BD
102
}
330
BD
100
AcDbMaterial
  1
Global
 72
     0
 43
0.0008202099737533
 43
0.0
 43
0.0
 43
0.0
 43
0.0
 43
0.0008202099737533
 43
0.0
 43
0.0
 43
0.0
 43
0.0
 43
1.0
 43
0.0
 43
0.0
 43
0.0
 43
0.0
 43
1.0
 77
     0
 47
0.0008202099737533
 47
0.0
 47
0.0
 47
0.0
 47
0.0
 47
0.0008202099737533
 47
0.0
 47
0.0
 47
0.0
 47
0.0
 47
1.0
 47
0.0
 47
0.0
 47
0.0
 47
0.0
 47
1.0
171
     0
 49
0.0008202099737533
 49
0.0
 49
0.0
 49
0.0
 49
0.0
 49
0.0008202099737533
 49
0.0
 49
0.0
 49
0.0
 49
0.0
 49
1.0
 49
0.0
 49
0.0
 49
0.0
 49
0.0
 49
1.0
175
     0
142
0.0008202099737533
142
0.0
142
0.0
142
0.0
142
0.0
142
0.0008202099737533
142
0.0
142
0.0
142
0.0
142
0.0
142
1.0
142
0.0
142
0.0
142
0.0
142
0.0
142
1.0
179
     0
144
0.0008202099737533
144
0.0
144
0.0
144
0.0
144
0.0
144
0.0008202099737533
144
0.0
144
0.0
144
0.0
144
0.0
144
1.0
144
0.0
144
0.0
144
0.0
144
0.0
144
1.0
147
0.0008202099737533
147
0.0
147
0.0
147
0.0
147
0.0
147
0.0008202099737533
147
0.0
147
0.0
147
0.0
147
0.0
147
1.0
147
0.0
147
0.0
147
0.0
147
0.0
147
1.0
  0
MLEADERSTYLE
  5
3F0
102
{ACAD_REACTORS
330
3EF
102
}
330
3EF
100
AcDbMLeaderStyle
170
     2
171
     1
172
     0
 90
        2
 40
0.0
 41
0.0
173
     1
 91
-1056964608
340
14
 92
       -2
290
     1
 42
2.0
291
     1
 43
0.36
  3
Standard
 44
4.0
300

342
11
174
     1
178
     6
175
     1
176
     0
 93
-1056964608
 45
4.0
292
     0
297
     0
 46
4.0
 94
-1056964608
 47
1.0
 49
1.0
140
1.0
293
     1
141
0.0
294
     1
177
     0
142
1.0
295
     0
296
     0
143
0.125
1001
ACAD_MLEADERVER
1070
     2
  0
MLINESTYLE
  5
18
102
{ACAD_REACTORS
330
17
102
}
330
17
100
AcDbMlineStyle
  2
STANDARD
 70
     0
  3

 62
   256
 51
90.0
 52
90.0
 71
     2
 49
0.5
 62
   256
  6
BYLAYER
 49
-0.5
 62
   256
  6
BYLAYER
  0
ACDBPLACEHOLDER
  5
F
102
{ACAD_REACTORS
330
E
102
}
330
E
  0
SCALE
  5
3DE
102
{ACAD_REACTORS
330
3DD
102
}
330
3DD
100
AcDbScale
 70
     0
300
1:1
140
1.0
141
1.0
290
     1
  0
SCALE
  5
3DF
102
{ACAD_REACTORS
330
3DD
102
}
330
3DD
100
AcDbScale
 70
     0
300
1:2
140
1.0
141
2.0
290
     0
  0
SCALE
  5
3E0
102
{ACAD_REACTORS
330
3DD
102
}
330
3DD
100
AcDbScale
 70
     0
300
1:4
140
1.0
141
4.0
290
     0
  0
SCALE
  5
3E1
102
{ACAD_REACTORS
330
3DD
102
}
330
3DD
100
AcDbScale
 70
     0
300
1:5
140
1.0
141
5.0
290
     0
  0
SCALE
  5
3E2
102
{ACAD_REACTORS
330
3DD
102
}
330
3DD
100
AcDbScale
 70
     0
300
1:8
140
1.0
141
8.0
290
     0
  0
SCALE
  5
3E3
102
{ACAD_REACTORS
330
3DD
102
}
330
3DD
100
AcDbScale
 70
     0
300
1:10
140
1.0
141
10.0
290
     0
  0
SCALE
  5
3E4
102
{ACAD_REACTORS
330
3DD
102
}
330
3DD
100
AcDbScale
 70
     0
300
1:16
140
1.0
141
16.0
290
     0
  0
SCALE
  5
3E5
102
{ACAD_REACTORS
330
3DD
102
}
330
3DD
100
AcDbScale
 70
     0
300
1:20
140
1.0
141
20.0
290
     0
  0
SCALE
  5
3E6
102
{ACAD_REACTORS
330
3DD
102
}
330
3DD
100
AcDbScale
 70
     0
300
1:30
140
1.0
141
30.0
290
     0
  0
SCALE
  5
3E7
102
{ACAD_REACTORS
330
3DD
102
}
330
3DD
100
AcDbScale
 70
     0
300
1:40
140
1.0
141
40.0
290
     0
  0
SCALE
  5
3E8
102
{ACAD_REACTORS
330
3DD
102
}
330
3DD
100
AcDbScale
 70
     0
300
1:50
140
1.0
141
50.0
290
     0
  0
SCALE
  5
3E9
102
{ACAD_REACTORS
330
3DD
102
}
330
3DD
100
AcDbScale
 70
     0
300
1:100
140
1.0
141
100.0
290
     0
  0
SCALE
  5
3EA
102
{ACAD_REACTORS
330
3DD
102
}
330
3DD
100
AcDbScale
 70
     0
300
2:1
140
2.0
141
1.0
290
     0
  0
SCALE
  5
3EB
102
{ACAD_REACTORS
330
3DD
102
}
330
3DD
100
AcDbScale
 70
     0
300
4:1
140
4.0
141
1.0
290
     0
  0
SCALE
  5
3EC
102
{ACAD_REACTORS
330
3DD
102
}
330
3DD
100
AcDbScale
 70
     0
300
8:1
140
8.0
141
1.0
290
     0
  0
SCALE
  5
3ED
102
{ACAD_REACTORS
330
3DD
102
}
330
3DD
100
AcDbScale
 70
     0
300
10:1
140
10.0
141
1.0
290
     0
  0
SCALE
  5
3EE
102
{ACAD_REACTORS
330
3DD
102
}
330
3DD
100
AcDbScale
 70
     0
300
100:1
140
100.0
141
1.0
290
     0
  0
TABLESTYLE
  5
11B
102
{ACAD_XDICTIONARY
360
3260
102
}
102
{ACAD_REACTORS
330
11A
102
}
330
11A
100
AcDbTableStyle
  3
Standard
 70
     0
 71
     0
 40
1.5
 41
1.5
280
     0
281
     0
  7
STANDARD
140
4.5
170
     2
 62
     0
 63
     7
283
     0
274
    -2
284
     1
 64
     0
275
    -2
285
     1
 65
     0
276
    -2
286
     1
 66
     0
277
    -2
287
     1
 67
     0
278
    -2
288
     1
 68
     0
279
    -2
289
     1
 69
     0
  7
STANDARD
140
6.0
170
     5
 62
     0
 63
     7
283
     0
274
    -2
284
     1
 64
     0
275
    -2
285
     1
 65
     0
276
    -2
286
     1
 66
     0
277
    -2
287
     1
 67
     0
278
    -2
288
     1
 68
     0
279
    -2
289
     1
 69
     0
  7
STANDARD
140
4.5
170
     5
 62
     0
 63
     7
283
     0
274
    -2
284
     1
 64
     0
275
    -2
285
     1
 65
     0
276
    -2
286
     1
 66
     0
277
    -2
287
     1
 67
     0
278
    -2
288
     1
 68
     0
279
    -2
289
     1
 69
     0
  0
VISUALSTYLE
  5
3D2
102
{ACAD_REACTORS
330
3CC
102
}
330
3CC
100
AcDbVisualStyle
  2
2dWireframe
 70
     4
 71
     0
 72
     2
 73
     0
 90
        0
 40
-0.6
 41
-30.0
 62
     5
 63
     7
 74
     1
 91
        4
 64
     7
 65
   257
 75
     1
175
     1
 42
1.0
 92
        0
 66
   257
 43
1.0
 76
     1
 77
     6
 78
     2
 67
     7
 79
     5
170
     0
171
     0
290
     0
174
     0
 93
        1
 44
0.0
173
     0
291
     0
 45
0.0
1001
ACAD
1000
AcDbSavedByObjectVersion
1070
     0
1000
AcDbSavedByObjectVersion
1070
     0
1000
AcDbSavedByObjectVersion
1070
     0
1000
AcDbSavedByObjectVersion
1070
     0
1000
AcDbSavedByObjectVersion
1070
     0
1000
AcDbSavedByObjectVersion
1070
     0
1000
AcDbSavedByObjectVersion
1070
     0
  0
VISUALSTYLE
  5
3D4
102
{ACAD_REACTORS
330
3CC
102
}
330
3CC
100
AcDbVisualStyle
  2
3D Hidden
 70
     6
 71
     1
 72
     2
 73
     2
 90
        0
 40
-0.6
 41
-30.0
 62
     5
 63
     7
 74
     2
 91
        2
 64
     7
 65
   257
 75
     2
175
     1
 42
40.0
 92
        0
 66
   257
 43
1.0
 76
     1
 77
     6
 78
     2
 67
     7
 79
     3
170
     0
171
     0
290
     0
174
     0
 93
        1
 44
0.0
173
     0
291
     0
 45
0.0
1001
ACAD
1000
AcDbSavedByObjectVersion
1070
     0
1000
AcDbSavedByObjectVersion
1070
     0
1000
AcDbSavedByObjectVersion
1070
     0
1000
AcDbSavedByObjectVersion
1070
     0
1000
AcDbSavedByObjectVersion
1070
     0
1000
AcDbSavedByObjectVersion
1070
     0
1000
AcDbSavedByObjectVersion
1070
     0
  0
VISUALSTYLE
  5
3D3
102
{ACAD_REACTORS
330
3CC
102
}
330
3CC
100
AcDbVisualStyle
  2
3dWireframe
 70
     5
 71
     0
 72
     2
 73
     0
 90
        0
 40
-0.6
 41
-30.0
 62
     5
 63
     7
 74
     1
 91
        4
 64
     7
 65
   257
 75
     1
175
     1
 42
1.0
 92
        0
 66
   257
 43
1.0
 76
     1
 77
     6
 78
     2
 67
     7
 79
     5
170
     0
171
     0
290
     0
174
     0
 93
        1
 44
0.0
173
     0
291
     0
 45
0.0
1001
ACAD
1000
AcDbSavedByObjectVersion
1070
     0
1000
AcDbSavedByObjectVersion
1070
     0
1000
AcDbSavedByObjectVersion
1070
     0
1000
AcDbSavedByObjectVersion
1070
     0
1000
AcDbSavedByObjectVersion
1070
     0
1000
AcDbSavedByObjectVersion
1070
     0
1000
AcDbSavedByObjectVersion
1070
     0
  0
VISUALSTYLE
  5
3D1
102
{ACAD_REACTORS
330
3CC
102
}
330
3CC
100
AcDbVisualStyle
  2
Basic
 70
     7
 71
     1
 72
     0
 73
     1
 90
        0
 40
-0.6
 41
-30.0
 62
     5
 63
     7
 74
     0
 91
        4
 64
     7
 65
   257
 75
     1
175
     1
 42
1.0
 92
        8
 66
     7
 43
1.0
 76
     1
 77
     6
 78
     2
 67
     7
 79
     5
170
     0
171
     0
290
     0
174
     0
 93
        1
 44
0.0
173
     0
291
     1
 45
0.0
1001
ACAD
1000
AcDbSavedByObjectVersion
1070
     0
1000
AcDbSavedByObjectVersion
1070
     0
1000
AcDbSavedByObjectVersion
1070
     0
1000
AcDbSavedByObjectVersion
1070
     0
1000
AcDbSavedByObjectVersion
1070
     0
1000
AcDbSavedByObjectVersion
1070
     0
1000
AcDbSavedByObjectVersion
1070
     0
  0
VISUALSTYLE
  5
3D8
102
{ACAD_REACTORS
330
3CC
102
}
330
3CC
100
AcDbVisualStyle
  2
Brighten
 70
    12
 71
     2
 72
     2
 73
     0
 90
        0
 40
-0.6
 41
-30.0
 62
     5
 63
     7
 74
     1
 91
        4
 64
     7
 65
   257
 75
     1
175
     1
 42
1.0
 92
        8
 66
     7
 43
1.0
 76
     1
 77
     6
 78
     2
 67
     7
 79
     5
170
     0
171
     0
290
     0
174
     0
 93
        1
 44
50.0
173
     0
291
     1
 45
0.0
1001
ACAD
1000
AcDbSavedByObjectVersion
1070
     0
1000
AcDbSavedByObjectVersion
1070
     0
1000
AcDbSavedByObjectVersion
1070
     0
1000
AcDbSavedByObjectVersion
1070
     0
1000
AcDbSavedByObjectVersion
1070
     0
1000
AcDbSavedByObjectVersion
1070
     0
1000
AcDbSavedByObjectVersion
1070
     0
  0
VISUALSTYLE
  5
3DC
102
{ACAD_REACTORS
330
3CC
102
}
330
3CC
100
AcDbVisualStyle
  2
ColorChange
 70
    16
 71
     2
 72
     2
 73
     3
 90
        0
 40
-0.6
 41
-30.0
 62
     5
 63
     8
 74
     1
 91
        4
 64
     7
 65
   257
 75
     1
175
     1
 42
1.0
 92
        8
 66
     8
 43
1.0
 76
     1
 77
     6
 78
     2
 67
     7
 79
     5
170
     0
171
     0
290
     0
174
     0
 93
        1
 44
0.0
173
     0
291
     1
 45
0.0
1001
ACAD
1000
AcDbSavedByObjectVersion
1070
     0
1000
AcDbSavedByObjectVersion
1070
     0
1000
AcDbSavedByObjectVersion
1070
     0
1000
AcDbSavedByObjectVersion
1070
     0
1000
AcDbSavedByObjectVersion
1070
     0
1000
AcDbSavedByObjectVersion
1070
     0
1000
AcDbSavedByObjectVersion
1070
     0
  0
VISUALSTYLE
  5
3D5
102
{ACAD_REACTORS
330
3CC
102
}
330
3CC
100
AcDbVisualStyle
  2
Conceptual
 70
     9
 71
     3
 72
     2
 73
     0
 90
        0
 40
-0.6
 41
-30.0
 62
     5
 63
     7
 74
     2
 91
        2
 64
     7
 65
   257
 75
     1
175
     1
 42
40.0
 92
        8
 66
     7
 43
1.0
 76
     1
 77
     6
 78
     2
 67
     7
 79
     3
170
     0
171
     0
290
     0
174
     0
 93
        1
 44
0.0
173
     0
291
     0
 45
0.0
1001
ACAD
1000
AcDbSavedByObjectVersion
1070
     0
1000
AcDbSavedByObjectVersion
1070
     0
1000
AcDbSavedByObjectVersion
1070
     0
1000
AcDbSavedByObjectVersion
1070
     0
1000
AcDbSavedByObjectVersion
1070
     0
1000
AcDbSavedByObjectVersion
1070
     0
1000
AcDbSavedByObjectVersion
1070
     0
  0
VISUALSTYLE
  5
3D7
102
{ACAD_REACTORS
330
3CC
102
}
330
3CC
100
AcDbVisualStyle
  2
Dim
 70
    11
 71
     2
 72
     2
 73
     0
 90
        0
 40
-0.6
 41
-30.0
 62
     5
 63
     7
 74
     1
 91
        4
 64
     7
 65
   257
 75
     1
175
     1
 42
1.0
 92
        8
 66
     7
 43
1.0
 76
     1
 77
     6
 78
     2
 67
     7
 79
     5
170
     0
171
     0
290
     0
174
     0
 93
        1
 44
-50.0
173
     0
291
     1
 45
0.0
1001
ACAD
1000
AcDbSavedByObjectVersion
1070
     0
1000
AcDbSavedByObjectVersion
1070
     0
1000
AcDbSavedByObjectVersion
1070
     0
1000
AcDbSavedByObjectVersion
1070
     0
1000
AcDbSavedByObjectVersion
1070
     0
1000
AcDbSavedByObjectVersion
1070
     0
1000
AcDbSavedByObjectVersion
1070
     0
  0
VISUALSTYLE
  5
3DB
102
{ACAD_REACTORS
330
3CC
102
}
330
3CC
100
AcDbVisualStyle
  2
Facepattern
 70
    15
 71
     2
 72
     2
 73
     0
 90
        0
 40
-0.6
 41
-30.0
 62
     5
 63
     7
 74
     1
 91
        4
 64
     7
 65
   257
 75
     1
175
     1
 42
1.0
 92
        8
 66
     7
 43
1.0
 76
     1
 77
     6
 78
     2
 67
     7
 79
     5
170
     0
171
     0
290
     0
174
     0
 93
        1
 44
0.0
173
     0
291
     1
 45
0.0
1001
ACAD
1000
AcDbSavedByObjectVersion
1070
     0
1000
AcDbSavedByObjectVersion
1070
     0
1000
AcDbSavedByObjectVersion
1070
     0
1000
AcDbSavedByObjectVersion
1070
     0
1000
AcDbSavedByObjectVersion
1070
     0
1000
AcDbSavedByObjectVersion
1070
     0
1000
AcDbSavedByObjectVersion
1070
     0
  0
VISUALSTYLE
  5
3CD
102
{ACAD_REACTORS
330
3CC
102
}
330
3CC
100
AcDbVisualStyle
  2
Flat
 70
     0
 71
     2
 72
     1
 73
     1
 90
        2
 40
-0.6
 41
30.0
 62
     5
 63
     7
 74
     0
 91
        4
 64
     7
 65
   257
 75
     1
175
     1
 42
1.0
 92
        8
 66
     7
 43
1.0
 76
     1
 77
     6
 78
     2
 67
     7
 79
     5
170
     0
171
     0
290
     0
174
     0
 93
       13
 44
0.0
173
     0
291
     1
 45
0.0
1001
ACAD
1000
AcDbSavedByObjectVersion
1070
     0
1000
AcDbSavedByObjectVersion
1070
     0
1000
AcDbSavedByObjectVersion
1070
     0
1000
AcDbSavedByObjectVersion
1070
     0
1000
AcDbSavedByObjectVersion
1070
     0
1000
AcDbSavedByObjectVersion
1070
     0
1000
AcDbSavedByObjectVersion
1070
     0
  0
VISUALSTYLE
  5
3CE
102
{ACAD_REACTORS
330
3CC
102
}
330
3CC
100
AcDbVisualStyle
  2
FlatWithEdges
 70
     1
 71
     2
 72
     1
 73
     1
 90
        2
 40
-0.6
 41
30.0
 62
     5
 63
     7
 74
     1
 91
        4
 64
     7
 65
   257
 75
     1
175
     1
 42
1.0
 92
        0
 66
   257
 43
1.0
 76
     1
 77
     6
 78
     2
 67
     7
 79
     5
170
     0
171
     0
290
     0
174
     0
 93
       13
 44
0.0
173
     0
291
     1
 45
0.0
1001
ACAD
1000
AcDbSavedByObjectVersion
1070
     0
1000
AcDbSavedByObjectVersion
1070
     0
1000
AcDbSavedByObjectVersion
1070
     0
1000
AcDbSavedByObjectVersion
1070
     0
1000
AcDbSavedByObjectVersion
1070
     0
1000
AcDbSavedByObjectVersion
1070
     0
1000
AcDbSavedByObjectVersion
1070
     0
  0
VISUALSTYLE
  5
3CF
102
{ACAD_REACTORS
330
3CC
102
}
330
3CC
100
AcDbVisualStyle
  2
Gouraud
 70
     2
 71
     2
 72
     2
 73
     1
 90
        2
 40
-0.6
 41
30.0
 62
     5
 63
     7
 74
     0
 91
        4
 64
     7
 65
   257
 75
     1
175
     1
 42
1.0
 92
        0
 66
     7
 43
1.0
 76
     1
 77
     6
 78
     2
 67
     7
 79
     5
170
     0
171
     0
290
     0
174
     0
 93
       13
 44
0.0
173
     0
291
     1
 45
0.0
1001
ACAD
1000
AcDbSavedByObjectVersion
1070
     0
1000
AcDbSavedByObjectVersion
1070
     0
1000
AcDbSavedByObjectVersion
1070
     0
1000
AcDbSavedByObjectVersion
1070
     0
1000
AcDbSavedByObjectVersion
1070
     0
1000
AcDbSavedByObjectVersion
1070
     0
1000
AcDbSavedByObjectVersion
1070
     0
  0
VISUALSTYLE
  5
3D0
102
{ACAD_REACTORS
330
3CC
102
}
330
3CC
100
AcDbVisualStyle
  2
GouraudWithEdges
 70
     3
 71
     2
 72
     2
 73
     1
 90
        2
 40
-0.6
 41
30.0
 62
     5
 63
     7
 74
     1
 91
        4
 64
     7
 65
   257
 75
     1
175
     1
 42
1.0
 92
        0
 66
   257
 43
1.0
 76
     1
 77
     6
 78
     2
 67
     7
 79
     5
170
     0
171
     0
290
     0
174
     0
 93
       13
 44
0.0
173
     0
291
     1
 45
0.0
1001
ACAD
1000
AcDbSavedByObjectVersion
1070
     0
1000
AcDbSavedByObjectVersion
1070
     0
1000
AcDbSavedByObjectVersion
1070
     0
1000
AcDbSavedByObjectVersion
1070
     0
1000
AcDbSavedByObjectVersion
1070
     0
1000
AcDbSavedByObjectVersion
1070
     0
1000
AcDbSavedByObjectVersion
1070
     0
  0
VISUALSTYLE
  5
3DA
102
{ACAD_REACTORS
330
3CC
102
}
330
3CC
100
AcDbVisualStyle
  2
Linepattern
 70
    14
 71
     2
 72
     2
 73
     0
 90
        0
 40
-0.6
 41
-30.0
 62
     5
 63
     7
 74
     1
 91
        4
 64
     7
 65
   257
 75
     7
175
     7
 42
1.0
 92
        8
 66
     7
 43
1.0
 76
     1
 77
     6
 78
     2
 67
     7
 79
     5
170
     0
171
     0
290
     0
174
     0
 93
        1
 44
0.0
173
     0
291
     1
 45
0.0
1001
ACAD
1000
AcDbSavedByObjectVersion
1070
     0
1000
AcDbSavedByObjectVersion
1070
     0
1000
AcDbSavedByObjectVersion
1070
     0
1000
AcDbSavedByObjectVersion
1070
     0
1000
AcDbSavedByObjectVersion
1070
     0
1000
AcDbSavedByObjectVersion
1070
     0
1000
AcDbSavedByObjectVersion
1070
     0
  0
VISUALSTYLE
  5
3D6
102
{ACAD_REACTORS
330
3CC
102
}
330
3CC
100
AcDbVisualStyle
  2
Realistic
 70
     8
 71
     2
 72
     2
 73
     0
 90
        0
 40
-0.6
 41
-30.0
 62
     5
 63
     7
 74
     1
 91
        0
 64
     7
 65
   257
 75
     1
175
     1
 42
1.0
 92
        8
 66
     8
 43
1.0
 76
     1
 77
     6
 78
     2
 67
     7
 79
     5
170
     0
171
     0
290
     0
174
     0
 93
       13
 44
0.0
173
     0
291
     0
 45
0.0
1001
ACAD
1000
AcDbSavedByObjectVersion
1070
     0
1000
AcDbSavedByObjectVersion
1070
     0
1000
AcDbSavedByObjectVersion
1070
     0
1000
AcDbSavedByObjectVersion
1070
     0
1000
AcDbSavedByObjectVersion
1070
     0
1000
AcDbSavedByObjectVersion
1070
     0
1000
AcDbSavedByObjectVersion
1070
     0
  0
VISUALSTYLE
  5
3D9
102
{ACAD_REACTORS
330
3CC
102
}
330
3CC
100
AcDbVisualStyle
  2
Thicken
 70
    13
 71
     2
 72
     2
 73
     0
 90
        0
 40
-0.6
 41
-30.0
 62
     5
 63
     7
 74
     1
 91
        4
 64
     7
 65
   257
 75
     1
175
     1
 42
1.0
 92
       12
 66
     7
 43
1.0
 76
     1
 77
     6
 78
     2
 67
     7
 79
     5
170
     0
171
     0
290
     0
174
     0
 93
        1
 44
0.0
173
     0
291
     1
 45
0.0
1001
ACAD
1000
AcDbSavedByObjectVersion
1070
     0
1000
AcDbSavedByObjectVersion
1070
     0
1000
AcDbSavedByObjectVersion
1070
     0
1000
AcDbSavedByObjectVersion
1070
     0
1000
AcDbSavedByObjectVersion
1070
     0
1000
AcDbSavedByObjectVersion
1070
     0
1000
AcDbSavedByObjectVersion
1070
     0
  0
DICTIONARYVAR
  5
325E
102
{ACAD_REACTORS
330
94
102
}
330
94
100
DictionaryVariables
280
     0
  1
1:1
  0
DICTIONARYVAR
  5
325D
102
{ACAD_REACTORS
330
94
102
}
330
94
100
DictionaryVariables
280
     0
  1
STANDARD
  0
DICTIONARYVAR
  5
138
102
{ACAD_REACTORS
330
94
102
}
330
94
100
DictionaryVariables
280
     0
  1
STANDARD
  0
DICTIONARYVAR
  5
96
102
{ACAD_REACTORS
330
94
102
}
330
94
100
DictionaryVariables
280
     0
  1
2
  0
DICTIONARYVAR
  5
95
102
{ACAD_REACTORS
330
94
102
}
330
94
100
DictionaryVariables
280
     0
  1
0
  0
DICTIONARYVAR
  5
325F
102
{ACAD_REACTORS
330
94
102
}
330
94
100
DictionaryVariables
280
     0
  1
127
  0
DICTIONARY
  5
272
102
{ACAD_REACTORS
330
5B
102
}
330
5B
100
AcDbDictionary
281
     1
  0
DICTIONARY
  5
61
102
{ACAD_REACTORS
330
5B
102
}
330
5B
100
AcDbDictionary
281
     1
  0
XRECORD
  5
123
102
{ACAD_REACTORS
330
5B
102
}
330
5B
100
AcDbXrecord
280
     1
 90
-1023410169
  0
DICTIONARY
  5
3B67
330
1E
100
AcDbDictionary
280
     1
281
     1
  3
ACAD_XREC_ROUNDTRIP
360
3B68
  0
DICTIONARY
  5
3B6B
330
26
100
AcDbDictionary
280
     1
281
     1
  3
ACAD_XREC_ROUNDTRIP
360
3B6C
  0
DICTIONARY
  5
3B69
330
22
100
AcDbDictionary
280
     1
281
     1
  3
ACAD_XREC_ROUNDTRIP
360
3B6A
  0
DICTIONARY
  5
3BD
330
3BC
100
AcDbDictionary
280
     1
281
     1
  3
ACAD_XREC_ROUNDTRIP
360
326E
  3
BUMPTILE
360
3BF
  3
DIFFUSETILE
360
3BE
  3
OPACITYTILE
360
3C2
  3
REFLECTIONTILE
360
3C1
  3
REFRACTIONTILE
360
3C3
  3
SPECULARTILE
360
3C0
  0
DICTIONARY
  5
3B5
330
3B4
100
AcDbDictionary
280
     1
281
     1
  3
ACAD_XREC_ROUNDTRIP
360
326D
  3
BUMPTILE
360
3B7
  3
DIFFUSETILE
360
3B6
  3
OPACITYTILE
360
3BA
  3
REFLECTIONTILE
360
3B9
  3
REFRACTIONTILE
360
3BB
  3
SPECULARTILE
360
3B8
  0
DICTIONARY
  5
3C5
330
3C4
100
AcDbDictionary
280
     1
281
     1
  3
ACAD_XREC_ROUNDTRIP
360
326F
  3
BUMPTILE
360
3C7
  3
DIFFUSETILE
360
3C6
  3
OPACITYTILE
360
3CA
  3
REFLECTIONTILE
360
3C9
  3
REFRACTIONTILE
360
3CB
  3
SPECULARTILE
360
3C8
  0
DICTIONARY
  5
3260
330
11B
100
AcDbDictionary
280
     1
281
     1
  3
ACAD_ROUNDTRIP_2008_TABLESTYLE_CELLSTYLEMAP
360
3B60
  3
ACAD_XREC_ROUNDTRIP
360
3B6D
  0
XRECORD
  5
3B68
102
{ACAD_REACTORS
330
3B67
102
}
330
3B67
100
AcDbXrecord
280
     1
102
SHADEPLOT
 70
     0
102
SHADEPLOTRESLEVEL
 70
     2
102
SHADEPLOTCUSTOMDPI
 70
   300
  0
XRECORD
  5
3B6C
102
{ACAD_REACTORS
330
3B6B
102
}
330
3B6B
100
AcDbXrecord
280
     1
102
SHADEPLOT
 70
     0
102
SHADEPLOTRESLEVEL
 70
     2
102
SHADEPLOTCUSTOMDPI
 70
   300
  0
XRECORD
  5
3B6A
102
{ACAD_REACTORS
330
3B69
102
}
330
3B69
100
AcDbXrecord
280
     1
102
SHADEPLOT
 70
     0
102
SHADEPLOTRESLEVEL
 70
     2
102
SHADEPLOTCUSTOMDPI
 70
   300
  0
XRECORD
  5
326E
102
{ACAD_REACTORS
330
3BD
102
}
330
3BD
100
AcDbXrecord
280
     1
102
MATERIAL
148
0.0
149
0.0
149
0.0
 93
        0
 94
      127
282
     0
 72
     0
 77
     0
171
     0
175
     0
179
     0
273
     0
  0
XRECORD
  5
3BF
102
{ACAD_REACTORS
330
3BD
102
}
330
3BD
100
AcDbXrecord
280
     1
270
     1
271
     1
  0
XRECORD
  5
3BE
102
{ACAD_REACTORS
330
3BD
102
}
330
3BD
100
AcDbXrecord
280
     1
270
     1
271
     1
  0
XRECORD
  5
3C2
102
{ACAD_REACTORS
330
3BD
102
}
330
3BD
100
AcDbXrecord
280
     1
270
     1
271
     1
  0
XRECORD
  5
3C1
102
{ACAD_REACTORS
330
3BD
102
}
330
3BD
100
AcDbXrecord
280
     1
270
     1
271
     1
  0
XRECORD
  5
3C3
102
{ACAD_REACTORS
330
3BD
102
}
330
3BD
100
AcDbXrecord
280
     1
270
     1
271
     1
  0
XRECORD
  5
3C0
102
{ACAD_REACTORS
330
3BD
102
}
330
3BD
100
AcDbXrecord
280
     1
270
     1
271
     1
  0
XRECORD
  5
326D
102
{ACAD_REACTORS
330
3B5
102
}
330
3B5
100
AcDbXrecord
280
     1
102
MATERIAL
148
0.0
149
0.0
149
0.0
 93
        0
 94
      127
282
     0
 72
     0
 77
     0
171
     0
175
     0
179
     0
273
     0
  0
XRECORD
  5
3B7
102
{ACAD_REACTORS
330
3B5
102
}
330
3B5
100
AcDbXrecord
280
     1
270
     1
271
     1
  0
XRECORD
  5
3B6
102
{ACAD_REACTORS
330
3B5
102
}
330
3B5
100
AcDbXrecord
280
     1
270
     1
271
     1
  0
XRECORD
  5
3BA
102
{ACAD_REACTORS
330
3B5
102
}
330
3B5
100
AcDbXrecord
280
     1
270
     1
271
     1
  0
XRECORD
  5
3B9
102
{ACAD_REACTORS
330
3B5
102
}
330
3B5
100
AcDbXrecord
280
     1
270
     1
271
     1
  0
XRECORD
  5
3BB
102
{ACAD_REACTORS
330
3B5
102
}
330
3B5
100
AcDbXrecord
280
     1
270
     1
271
     1
  0
XRECORD
  5
3B8
102
{ACAD_REACTORS
330
3B5
102
}
330
3B5
100
AcDbXrecord
280
     1
270
     1
271
     1
  0
XRECORD
  5
326F
102
{ACAD_REACTORS
330
3C5
102
}
330
3C5
100
AcDbXrecord
280
     1
102
MATERIAL
148
0.0
149
0.0
149
0.0
 93
        0
 94
      127
282
     0
 72
     0
 77
     0
171
     0
175
     0
179
     0
273
     0
  0
XRECORD
  5
3C7
102
{ACAD_REACTORS
330
3C5
102
}
330
3C5
100
AcDbXrecord
280
     1
270
     1
271
     1
  0
XRECORD
  5
3C6
102
{ACAD_REACTORS
330
3C5
102
}
330
3C5
100
AcDbXrecord
280
     1
270
     1
271
     1
  0
XRECORD
  5
3CA
102
{ACAD_REACTORS
330
3C5
102
}
330
3C5
100
AcDbXrecord
280
     1
270
     1
271
     1
  0
XRECORD
  5
3C9
102
{ACAD_REACTORS
330
3C5
102
}
330
3C5
100
AcDbXrecord
280
     1
270
     1
271
     1
  0
XRECORD
  5
3CB
102
{ACAD_REACTORS
330
3C5
102
}
330
3C5
100
AcDbXrecord
280
     1
270
     1
271
     1
  0
XRECORD
  5
3C8
102
{ACAD_REACTORS
330
3C5
102
}
330
3C5
100
AcDbXrecord
280
     1
270
     1
271
     1
  0
CELLSTYLEMAP
  5
3B60
102
{ACAD_REACTORS
330
3260
102
}
330
3260
100
AcDbCellStyleMap
 90
        3
300
CELLSTYLE
  1
TABLEFORMAT_BEGIN
 90
        5
170
     1
 91
        0
 92
    32768
 62
   257
 93
        1
300
CONTENTFORMAT
  1
CONTENTFORMAT_BEGIN
 90
        0
 91
        0
 92
        4
 93
        0
300

 40
0.0
140
1.0
 94
        5
 62
     0
340
11
144
6.0
309
CONTENTFORMAT_END
171
     1
301
MARGIN
  1
CELLMARGIN_BEGIN
 40
1.5
 40
1.5
 40
1.5
 40
1.5
 40
0.18
 40
0.18
309
CELLMARGIN_END
 94
        6
 95
        1
302
GRIDFORMAT
  1
GRIDFORMAT_BEGIN
 90
        0
 91
        1
 62
     0
 92
       -2
340
0
 93
        0
 40
0.045
309
GRIDFORMAT_END
 95
        2
302
GRIDFORMAT
  1
GRIDFORMAT_BEGIN
 90
        0
 91
        1
 62
     0
 92
       -2
340
0
 93
        0
 40
0.045
309
GRIDFORMAT_END
 95
        4
302
GRIDFORMAT
  1
GRIDFORMAT_BEGIN
 90
        0
 91
        1
 62
     0
 92
       -2
340
0
 93
        0
 40
0.045
309
GRIDFORMAT_END
 95
        8
302
GRIDFORMAT
  1
GRIDFORMAT_BEGIN
 90
        0
 91
        1
 62
     0
 92
       -2
340
0
 93
        0
 40
0.045
309
GRIDFORMAT_END
 95
       16
302
GRIDFORMAT
  1
GRIDFORMAT_BEGIN
 90
        0
 91
        1
 62
     0
 92
       -2
340
0
 93
        0
 40
0.045
309
GRIDFORMAT_END
 95
       32
302
GRIDFORMAT
  1
GRIDFORMAT_BEGIN
 90
        0
 91
        1
 62
     0
 92
       -2
340
0
 93
        0
 40
0.045
309
GRIDFORMAT_END
309
TABLEFORMAT_END
  1
CELLSTYLE_BEGIN
 90
        1
 91
        1
300
_TITLE
309
CELLSTYLE_END
300
CELLSTYLE
  1
TABLEFORMAT_BEGIN
 90
        5
170
     1
 91
        0
 92
        0
 62
   257
 93
        1
300
CONTENTFORMAT
  1
CONTENTFORMAT_BEGIN
 90
        0
 91
        0
 92
        4
 93
        0
300

 40
0.0
140
1.0
 94
        5
 62
     0
340
11
144
4.5
309
CONTENTFORMAT_END
171
     1
301
MARGIN
  1
CELLMARGIN_BEGIN
 40
1.5
 40
1.5
 40
1.5
 40
1.5
 40
0.18
 40
0.18
309
CELLMARGIN_END
 94
        6
 95
        1
302
GRIDFORMAT
  1
GRIDFORMAT_BEGIN
 90
        0
 91
        1
 62
     0
 92
       -2
340
0
 93
        0
 40
0.045
309
GRIDFORMAT_END
 95
        2
302
GRIDFORMAT
  1
GRIDFORMAT_BEGIN
 90
        0
 91
        1
 62
     0
 92
       -2
340
0
 93
        0
 40
0.045
309
GRIDFORMAT_END
 95
        4
302
GRIDFORMAT
  1
GRIDFORMAT_BEGIN
 90
        0
 91
        1
 62
     0
 92
       -2
340
0
 93
        0
 40
0.045
309
GRIDFORMAT_END
 95
        8
302
GRIDFORMAT
  1
GRIDFORMAT_BEGIN
 90
        0
 91
        1
 62
     0
 92
       -2
340
0
 93
        0
 40
0.045
309
GRIDFORMAT_END
 95
       16
302
GRIDFORMAT
  1
GRIDFORMAT_BEGIN
 90
        0
 91
        1
 62
     0
 92
       -2
340
0
 93
        0
 40
0.045
309
GRIDFORMAT_END
 95
       32
302
GRIDFORMAT
  1
GRIDFORMAT_BEGIN
 90
        0
 91
        1
 62
     0
 92
       -2
340
0
 93
        0
 40
0.045
309
GRIDFORMAT_END
309
TABLEFORMAT_END
  1
CELLSTYLE_BEGIN
 90
        2
 91
        1
300
_HEADER
309
CELLSTYLE_END
300
CELLSTYLE
  1
TABLEFORMAT_BEGIN
 90
        5
170
     1
 91
        0
 92
        0
 62
   257
 93
        1
300
CONTENTFORMAT
  1
CONTENTFORMAT_BEGIN
 90
        0
 91
        0
 92
        4
 93
        0
300

 40
0.0
140
1.0
 94
        2
 62
     0
340
11
144
4.5
309
CONTENTFORMAT_END
171
     1
301
MARGIN
  1
CELLMARGIN_BEGIN
 40
1.5
 40
1.5
 40
1.5
 40
1.5
 40
0.18
 40
0.18
309
CELLMARGIN_END
 94
        6
 95
        1
302
GRIDFORMAT
  1
GRIDFORMAT_BEGIN
 90
        0
 91
        1
 62
     0
 92
       -2
340
0
 93
        0
 40
0.045
309
GRIDFORMAT_END
 95
        2
302
GRIDFORMAT
  1
GRIDFORMAT_BEGIN
 90
        0
 91
        1
 62
     0
 92
       -2
340
0
 93
        0
 40
0.045
309
GRIDFORMAT_END
 95
        4
302
GRIDFORMAT
  1
GRIDFORMAT_BEGIN
 90
        0
 91
        1
 62
     0
 92
       -2
340
0
 93
        0
 40
0.045
309
GRIDFORMAT_END
 95
        8
302
GRIDFORMAT
  1
GRIDFORMAT_BEGIN
 90
        0
 91
        1
 62
     0
 92
       -2
340
0
 93
        0
 40
0.045
309
GRIDFORMAT_END
 95
       16
302
GRIDFORMAT
  1
GRIDFORMAT_BEGIN
 90
        0
 91
        1
 62
     0
 92
       -2
340
0
 93
        0
 40
0.045
309
GRIDFORMAT_END
 95
       32
302
GRIDFORMAT
  1
GRIDFORMAT_BEGIN
 90
        0
 91
        1
 62
     0
 92
       -2
340
0
 93
        0
 40
0.045
309
GRIDFORMAT_END
309
TABLEFORMAT_END
  1
CELLSTYLE_BEGIN
 90
        3
 91
        2
300
_DATA
309
CELLSTYLE_END
  0
XRECORD
  5
3B6D
102
{ACAD_REACTORS
330
3260
102
}
330
3260
100
AcDbXrecord
280
     1
102
ACAD_ROUNDTRIP_PRE2007_TABLESTYLE
 90
        4
 91
        0
  1

 92
        4
 93
        0
  2

 94
        4
 95
        0
  3

  0
ENDSEC
  0
EOF
