  0
SECTION
  2
HEADER
  9
$ACADVER
  1
AC1015
  9
$ACADMAINTVER
 70
    20
  9
$DWGCODEPAGE
  3
ANSI_1252
  9
$INSBASE
 10
0.0
 20
0.0
 30
0.0
  9
$EXTMIN
 10
-0.0280771495612271
 20
-0.0253626803601037
 30
-0.0000000349181948
  9
$EXTMAX
 10
500.1046806484362
 20
534.1549597222563
 30
0.0000000814935747
  9
$LIMMIN
 10
0.0
 20
0.0
  9
$LIMMAX
 10
420.0
 20
297.0
  9
$ORTHOMODE
 70
     0
  9
$REGENMODE
 70
     1
  9
$FILLMODE
 70
     1
  9
$QTEXTMODE
 70
     0
  9
$MIRRTEXT
 70
     1
  9
$LTSCALE
 40
1.0
  9
$ATTMODE
 70
     1
  9
$TEXTSIZE
 40
2.5
  9
$TRACEWID
 40
1.0
  9
$TEXTSTYLE
  7
STANDARD
  9
$CLAYER
  8
0
  9
$CELTYPE
  6
ByLayer
  9
$CECOLOR
 62
   256
  9
$CELTSCALE
 40
1.0
  9
$DISPSILH
 70
     0
  9
$DIMSCALE
 40
1.0
  9
$DIMASZ
 40
3.5
  9
$DIMEXO
 40
1.0
  9
$DIMDLI
 40
10.0
  9
$DIMRND
 40
0.0
  9
$DIMDLE
 40
0.0
  9
$DIMEXE
 40
1.0
  9
$DIMTP
 40
0.1
  9
$DIMTM
 40
0.1
  9
$DIMTXT
 40
3.5
  9
$DIMCEN
 40
0.0
  9
$DIMTSZ
 40
0.0
  9
$DIMTOL
 70
     0
  9
$DIMLIM
 70
     0
  9
$DIMTIH
 70
     0
  9
$DIMTOH
 70
     0
  9
$DIMSE1
 70
     0
  9
$DIMSE2
 70
     0
  9
$DIMTAD
 70
     1
  9
$DIMZIN
 70
     8
  9
$DIMBLK
  1

  9
$DIMASO
 70
     1
  9
$DIMSHO
 70
     1
  9
$DIMPOST
  1

  9
$DIMAPOST
  1
"
  9
$DIMALT
 70
     0
  9
$DIMALTD
 70
     2
  9
$DIMALTF
 40
0.0393701
  9
$DIMLFAC
 40
1.0
  9
$DIMTOFL
 70
     1
  9
$DIMTVP
 40
0.0
  9
$DIMTIX
 70
     0
  9
$DIMSOXD
 70
     0
  9
$DIMSAH
 70
     0
  9
$DIMBLK1
  1

  9
$DIMBLK2
  1

  9
$DIMSTYLE
  2
AM_DIN
  9
$DIMCLRD
 70
   256
  9
$DIMCLRE
 70
   256
  9
$DIMCLRT
 70
     2
  9
$DIMTFAC
 40
0.71
  9
$DIMGAP
 40
1.5
  9
$DIMJUST
 70
     0
  9
$DIMSD1
 70
     0
  9
$DIMSD2
 70
     0
  9
$DIMTOLJ
 70
     0
  9
$DIMTZIN
 70
     8
  9
$DIMALTZ
 70
     0
  9
$DIMALTTZ
 70
     0
  9
$DIMUPT
 70
     0
  9
$DIMDEC
 70
     2
  9
$DIMTDEC
 70
     3
  9
$DIMALTU
 70
     2
  9
$DIMALTTD
 70
     4
  9
$DIMTXSTY
  7
STANDARD
  9
$DIMAUNIT
 70
     0
  9
$DIMADEC
 70
     0
  9
$DIMALTRND
 40
0.0
  9
$DIMAZIN
 70
     2
  9
$DIMDSEP
 70
    46
  9
$DIMATFIT
 70
     3
  9
$DIMFRAC
 70
     0
  9
$DIMLDRBLK
  1

  9
$DIMLUNIT
 70
     2
  9
$DIMLWD
 70
    -1
  9
$DIMLWE
 70
    -1
  9
$DIMTMOVE
 70
     0
  9
$LUNITS
 70
     2
  9
$LUPREC
 70
     2
  9
$SKETCHINC
 40
1.0
  9
$FILLETRAD
 40
0.0
  9
$AUNITS
 70
     0
  9
$AUPREC
 70
     0
  9
$MENU
  1
.
  9
$ELEVATION
 40
0.0
  9
$PELEVATION
 40
0.0
  9
$THICKNESS
 40
0.0
  9
$LIMCHECK
 70
     0
  9
$CHAMFERA
 40
2.5
  9
$CHAMFERB
 40
2.5
  9
$CHAMFERC
 40
20.0
  9
$CHAMFERD
 40
0.0
  9
$SKPOLY
 70
     0
  9
$TDCREATE
 40
2455782.292722801
  9
$TDUCREATE
 40
2455782.209389468
  9
$TDUPDATE
 40
2455782.553151933
  9
$TDUUPDATE
 40
2455782.469818600
  9
$TDINDWG
 40
0.2072884491
  9
$TDUSRTIMER
 40
0.2072671065
  9
$USRTIMER
 70
     1
  9
$ANGBASE
 50
0.0
  9
$ANGDIR
 70
     0
  9
$PDMODE
 70
     0
  9
$PDSIZE
 40
0.0
  9
$PLINEWID
 40
0.0
  9
$SPLFRAME
 70
     0
  9
$SPLINETYPE
 70
     6
  9
$SPLINESEGS
 70
     8
  9
$HANDSEED
  5
C6C
  9
$SURFTAB1
 70
     6
  9
$SURFTAB2
 70
     6
  9
$SURFTYPE
 70
     6
  9
$SURFU
 70
     6
  9
$SURFV
 70
     6
  9
$UCSBASE
  2

  9
$UCSNAME
  2

  9
$UCSORG
 10
0.0
 20
0.0
 30
0.0
  9
$UCSXDIR
 10
1.0
 20
0.0
 30
0.0
  9
$UCSYDIR
 10
0.0
 20
1.0
 30
0.0
  9
$UCSORTHOREF
  2

  9
$UCSORTHOVIEW
 70
     0
  9
$UCSORGTOP
 10
0.0
 20
0.0
 30
0.0
  9
$UCSORGBOTTOM
 10
0.0
 20
0.0
 30
0.0
  9
$UCSORGLEFT
 10
0.0
 20
0.0
 30
0.0
  9
$UCSORGRIGHT
 10
0.0
 20
0.0
 30
0.0
  9
$UCSORGFRONT
 10
0.0
 20
0.0
 30
0.0
  9
$UCSORGBACK
 10
0.0
 20
0.0
 30
0.0
  9
$PUCSBASE
  2

  9
$PUCSNAME
  2

  9
$PUCSORG
 10
0.0
 20
0.0
 30
0.0
  9
$PUCSXDIR
 10
1.0
 20
0.0
 30
0.0
  9
$PUCSYDIR
 10
0.0
 20
1.0
 30
0.0
  9
$PUCSORTHOREF
  2

  9
$PUCSORTHOVIEW
 70
     0
  9
$PUCSORGTOP
 10
0.0
 20
0.0
 30
0.0
  9
$PUCSORGBOTTOM
 10
0.0
 20
0.0
 30
0.0
  9
$PUCSORGLEFT
 10
0.0
 20
0.0
 30
0.0
  9
$PUCSORGRIGHT
 10
0.0
 20
0.0
 30
0.0
  9
$PUCSORGFRONT
 10
0.0
 20
0.0
 30
0.0
  9
$PUCSORGBACK
 10
0.0
 20
0.0
 30
0.0
  9
$USERI1
 70
     0
  9
$USERI2
 70
     0
  9
$USERI3
 70
     0
  9
$USERI4
 70
     0
  9
$USERI5
 70
     0
  9
$USERR1
 40
0.0
  9
$USERR2
 40
0.0
  9
$USERR3
 40
0.0
  9
$USERR4
 40
0.0
  9
$USERR5
 40
0.0
  9
$WORLDVIEW
 70
     1
  9
$SHADEDGE
 70
     3
  9
$SHADEDIF
 70
    70
  9
$TILEMODE
 70
     1
  9
$MAXACTVP
 70
    64
  9
$PINSBASE
 10
0.0
 20
0.0
 30
0.0
  9
$PLIMCHECK
 70
     0
  9
$PEXTMIN
 10
1.000000000000000E+20
 20
1.000000000000000E+20
 30
1.000000000000000E+20
  9
$PEXTMAX
 10
-1.000000000000000E+20
 20
-1.000000000000000E+20
 30
-1.000000000000000E+20
  9
$PLIMMIN
 10
0.0
 20
0.0
  9
$PLIMMAX
 10
420.0
 20
297.0
  9
$UNITMODE
 70
     0
  9
$VISRETAIN
 70
     1
  9
$PLINEGEN
 70
     0
  9
$PSLTSCALE
 70
     1
  9
$TREEDEPTH
 70
  3020
  9
$CMLSTYLE
  2
Standard
  9
$CMLJUST
 70
     0
  9
$CMLSCALE
 40
20.0
  9
$PROXYGRAPHICS
 70
     1
  9
$MEASUREMENT
 70
     1
  9
$CELWEIGHT
370
    -1
  9
$ENDCAPS
280
     0
  9
$JOINSTYLE
280
     0
  9
$LWDISPLAY
290
     0
  9
$INSUNITS
 70
     4
  9
$HYPERLINKBASE
  1

  9
$STYLESHEET
  1

  9
$XEDIT
290
     1
  9
$CEPSNTYPE
380
     0
  9
$PSTYLEMODE
290
     1
  9
$FINGERPRINTGUID
  2
{A0FF8E8C-1E28-4548-98AE-4A2EF73B11A6}
  9
$VERSIONGUID
  2
{A85CA939-3804-4BEC-9C79-51F6350AD725}
  9
$EXTNAMES
290
     1
  9
$PSVPSCALE
 40
0.0
  9
$OLESTARTUP
290
     0
  0
ENDSEC
  0
SECTION
  2
CLASSES
  0
CLASS
  1
ACDBDICTIONARYWDFLT
  2
AcDbDictionaryWithDefault
  3
ObjectDBX Classes
 90
        0
280
     0
281
     0
  0
CLASS
  1
ACDBPLACEHOLDER
  2
AcDbPlaceHolder
  3
ObjectDBX Classes
 90
        0
280
     0
281
     0
  0
CLASS
  1
LAYOUT
  2
AcDbLayout
  3
ObjectDBX Classes
 90
        0
280
     0
281
     0
  0
CLASS
  1
ACME_DOCUMENT
  2
AcMeDbDoc
  3
AcMeServices
 90
     1024
280
     0
281
     0
  0
CLASS
  1
AMGSETTINGSOBJ
  2
AmgSettingsObj
  3
"AcadM|Product Description: AutoCAD Mechanical|Company: Autodesk, Inc."
 90
     1024
280
     0
281
     0
  0
CLASS
  1
ACMESCOPE
  2
AcMeScope
  3
AcMeServices
 90
     1024
280
     0
281
     0
  0
CLASS
  1
ACMECOMMANDHISTORY
  2
AcMeCommandHistory
  3
AcMeServices
 90
     1024
280
     0
281
     0
  0
CLASS
  1
ACIMSYSVARMAN
  2
AcImSysVarManager
  3
AcMeServices
 90
     1024
280
     0
281
     0
  0
CLASS
  1
ACIMREALSYSVAR
  2
AcImRealSysVar
  3
AcMeServices
 90
     1024
280
     0
281
     0
  0
CLASS
  1
ACIMINTSYSVAR
  2
AcImIntSysVar
  3
AcMeServices
 90
     1024
280
     0
281
     0
  0
CLASS
  1
ACMEDRAWINGMAN
  2
AcMeDrawingMan
  3
AcMeServices
 90
     1024
280
     0
281
     0
  0
CLASS
  1
ACMEVIEW
  2
AcMeView
  3
AcMeServices
 90
     1024
280
     0
281
     0
  0
CLASS
  1
ACDBENTITYCACHE
  2
AcMeEntityCache
  3
AcMeServices
 90
     1024
280
     0
281
     0
  0
CLASS
  1
GSMANAGER
  2
AcMeGSManager
  3
AcMeServices
 90
     1024
280
     0
281
     0
  0
CLASS
  1
AMDTINTERNALREACTOR
  2
AmdtInternalReactor
  3
AcMeServices
 90
     1024
280
     0
281
     0
  0
CLASS
  1
ACMESTATEMGR
  2
AcMeStateMgr
  3
AcMeServices
 90
     1024
280
     0
281
     0
  0
CLASS
  1
ACGREFMASTER
  2
AcGrefMaster
  3
AcAttribServices
 90
     1024
280
     0
281
     0
  0
CLASS
  1
ACME_DATABASE
  2
AcMeDbDatabase
  3
AcMeServices
 90
     1024
280
     0
281
     0
  0
CLASS
  1
ACRFINSADJUSTERMGR
  2
AcRfInsAdjusterMgr
  3
AcMeServices
 90
     1024
280
     0
281
     0
  0
CLASS
  1
ACGREFACADMASTER
  2
AcGrefacadMaster
  3
AcGrefServices
 90
     1024
280
     0
281
     0
  0
CLASS
  1
AMIMASTER
  2
AmiMaster
  3
AmiServices
 90
     1024
280
     0
281
     0
  0
CLASS
  1
ACMDATADICTIONARY
  2
AcmDataDictionary
  3
"AcmSymBB|Product Description: AutoCAD Mechanical|Company: Autodesk, Inc."
 90
     1024
280
     0
281
     0
  0
CLASS
  1
ACMDATAENTRYBLOCK
  2
AcmDataEntryBlock
  3
AcmSymBB|Product Description: AutoCAD Mechanical|Company: Autodesk, Inc.
 90
    33792
280
     0
281
     0
  0
CLASS
  1
ACIMSTRSYSVAR
  2
AcImStrSysVar
  3
AcMeServices
 90
     1024
280
     0
281
     0
  0
CLASS
  1
ACMSTANDARDISO
  2
AcmStandardISO
  3
"Amdt_StdImp|Product Description: AutoCAD Mechanical|Company: Autodesk, Inc."
 90
    33792
280
     0
281
     0
  0
CLASS
  1
AMGOBJPROPCFG
  2
AmgObjPropCfg
  3
"AmgLay|Product Description: AutoCAD Mechanical|Company: Autodesk, Inc."
 90
     1025
280
     0
281
     0
  0
CLASS
  1
AMDTEDGESTANDARDISO
  2
AmdtEdgeStdISO
  3
"Amdt_StdImp|Product Description: AutoCAD Mechanical|Company: Autodesk, Inc."
 90
    33792
280
     0
281
     0
  0
CLASS
  1
ACMSURFSTANDARDISO
  2
AcmSurfTextStdISO
  3
"Amdt_StdImp|Product Description: AutoCAD Mechanical|Company: Autodesk, Inc."
 90
    33792
280
     0
281
     0
  0
CLASS
  1
ACMFCFSTANDARDISO
  2
AcmFCFStdISO
  3
"Amdt_StdImp|Product Description: AutoCAD Mechanical|Company: Autodesk, Inc."
 90
    33792
280
     0
281
     0
  0
CLASS
  1
ACMWELDSTANDARDISO
  2
AcmWeldingStdISO
  3
"Amdt_StdImp|Product Description: AutoCAD Mechanical|Company: Autodesk, Inc."
 90
    33792
280
     0
281
     0
  0
CLASS
  1
ACMIDSTANDARDISO
  2
AcmIdStdISO
  3
"Amdt_StdImp|Product Description: AutoCAD Mechanical|Company: Autodesk, Inc."
 90
    33792
280
     0
281
     0
  0
CLASS
  1
ACMDATUMSTANDARDISO
  2
AcmDatumStdISO
  3
"Amdt_StdImp|Product Description: AutoCAD Mechanical|Company: Autodesk, Inc."
 90
    33792
280
     0
281
     0
  0
CLASS
  1
ACMBOMSTANDARDISO
  2
AcmBOMStdISO
  3
"Amdt_StdImp|Product Description: AutoCAD Mechanical|Company: Autodesk, Inc."
 90
    33792
280
     0
281
     0
  0
CLASS
  1
ACMDETAILSTANDARDISO
  2
AmdtDetailSymStdISO
  3
"Amdt_StdImp|Product Description: AutoCAD Mechanical|Company: Autodesk, Inc."
 90
    33792
280
     0
281
     0
  0
CLASS
  1
ACMSECTIONSTANDARDISO
  2
AmdtSectionSymStdISO
  3
"Amdt_StdImp|Product Description: AutoCAD Mechanical|Company: Autodesk, Inc."
 90
    33792
280
     0
281
     0
  0
CLASS
  1
ACMCENTERLINESTANDARDISO
  2
AmdtCenterLineStdISO
  3
"Amdt_StdImp|Product Description: AutoCAD Mechanical|Company: Autodesk, Inc."
 90
    33792
280
     0
281
     0
  0
CLASS
  1
ACMNOTESTANDARDISO
  2
AmdtNoteStdISO
  3
"Amdt_StdImp|Product Description: AutoCAD Mechanical|Company: Autodesk, Inc."
 90
    33792
280
     0
281
     0
  0
CLASS
  1
ACAMGLAYSTD
  2
AcAmgLayStd
  3
"AmgLay|Product Description: AutoCAD Mechanical|Company: Autodesk, Inc."
 90
     1024
280
     0
281
     0
  0
CLASS
  1
ACAMGDIMSTD
  2
AcAmgDimStd
  3
"AmgDim|Product Description: AutoCAD Mechanical|Company: Autodesk, Inc."
 90
     1024
280
     0
281
     0
  0
CLASS
  1
ACAMGHOLECHARTSTDISO
  2
AcAmgHoleChartStdISO
  3
AmgDim|Product Description: AutoCAD Mechanical|Company: Autodesk, Inc.
 90
    33792
280
     0
281
     0
  0
CLASS
  1
ACAMGTITLESTD
  2
AcAmgTitleStd
  3
"AmgTitle|Product Description: AutoCAD Mechanical|Company: Autodesk, Inc."
 90
     4095
280
     0
281
     0
  0
CLASS
  1
LAYER_INDEX
  2
AcDbLayerIndex
  3
ObjectDBX Classes
 90
    32768
280
     0
281
     0
  0
CLASS
  1
IDBUFFER
  2
AcDbIdBuffer
  3
ObjectDBX Classes
 90
    32768
280
     0
281
     0
  0
CLASS
  1
DICTIONARYVAR
  2
AcDbDictionaryVar
  3
ObjectDBX Classes
 90
        0
280
     0
281
     0
  0
CLASS
  1
AM_DRAWING_MGR
  2
AcDmDwgMgr
  3
AcMechDwgViewMgmt
 90
     1024
280
     0
281
     0
  0
CLASS
  1
AM_DWG_DOCUMENT
  2
AcDmDwgDocument
  3
AcMechDwgViewMgmt
 90
     1024
280
     0
281
     0
  0
CLASS
  1
AM_DWG_SHEET
  2
AcDmSheet
  3
AcMechDwgViewMgmt
 90
     1024
280
     0
281
     0
  0
CLASS
  1
AM_VIEWDIMPARMAP
  2
AcDmViewDimParMap
  3
AcMechDwgViewMgmt
 90
     1024
280
     0
281
     0
  0
CLASS
  1
AM_DWGMGR_NAME
  2
AcDmDwgMgrName
  3
AcMechDwgViewMgmt
 90
     1024
280
     0
281
     0
  0
CLASS
  1
AMDTMENUSTATEMGR
  2
AmdtMenuStateMgr
  3
McadcomServices
 90
     1024
280
     0
281
     0
  0
CLASS
  1
AMDTMCOMMENUSTATE
  2
AmdtMcomMenuState
  3
McadcomServices
 90
     1024
280
     0
281
     0
  0
CLASS
  1
MAPIAMMOUDLE
  2
MApiAmModule
  3
MApiAmServices
 90
     1024
280
     0
281
     0
  0
CLASS
  1
AMDTADMENUSTATE
  2
AmdtAdMenuState
  3
DesignerServices
 90
     1024
280
     0
281
     0
  0
CLASS
  1
ADAPPL
  2
AcAdAppl
  3
DesignerServices
 90
     1024
280
     0
281
     0
  0
CLASS
  1
DEPMGR
  2
AcAdDepMgr
  3
DesignerServices
 90
     1024
280
     0
281
     0
  0
CLASS
  1
PARAMMGR
  2
AcAdParamMgr
  3
DesignerServices
 90
     1024
280
     0
281
     0
  0
CLASS
  1
PARAMSCOPE
  2
AcAdParamScope
  3
DesignerServices
 90
     1024
280
     0
281
     0
  0
CLASS
  1
NAMEDAPPL
  2
AcAdNamedAppl
  3
DesignerServices
 90
     1024
280
     0
281
     0
  0
CLASS
  1
AMDTDMMENUSTATE
  2
AmdtDmMenuState
  3
AcMechDwgViewMgmt
 90
     1024
280
     0
281
     0
  0
CLASS
  1
AMDTAMMENUSTATE
  2
AmdtAmMenuState
  3
DesignerAssemblies
 90
     1024
280
     0
281
     0
  0
CLASS
  1
ACAMPROJECT
  2
AcAmProject
  3
DesignerAssemblies
 90
     1024
280
     0
281
     0
  0
CLASS
  1
ACAMGRCOMPDEF
  2
AcAmGrCompDef
  3
DesignerAssemblies
 90
     1024
280
     0
281
     0
  0
CLASS
  1
ACCMCONTEXT
  2
AcCmContext
  3
DesignerAssemblies
 90
     1024
280
     0
281
     0
  0
CLASS
  1
ACAMCOMPDEF
  2
AcAmCompDef
  3
DesignerAssemblies
 90
     1024
280
     0
281
     0
  0
CLASS
  1
ACAMCOMPDEFMGR
  2
AcAmCompDefMgr
  3
DesignerAssemblies
 90
     1024
280
     0
281
     0
  0
CLASS
  1
AMCONTEXTMGR
  2
AcAmContextMgr
  3
DesignerAssemblies
 90
     1024
280
     0
281
     0
  0
CLASS
  1
ACAMCONTEXTMODELER
  2
AcAmContextModeler
  3
DesignerAssemblies
 90
     1024
280
     0
281
     0
  0
CLASS
  1
ACMTHREADLINESTANDARDISO
  2
AmdtThreadLineStdISO
  3
"Amdt_StdImp|Product Description: AutoCAD Mechanical|Company: Autodesk, Inc."
 90
    33792
280
     0
281
     0
  0
CLASS
  1
CATALOGSTATE
  2
AcAmCatalogState
  3
DesignerAssemblies
 90
     1024
280
     0
281
     0
  0
CLASS
  1
ACAMGRCOMPDEFSET
  2
AcAmGrCompDefSet
  3
DesignerAssemblies
 90
     1024
280
     0
281
     0
  0
CLASS
  1
AMDTBROWSERDBTAB
  2
AmdtBrowserDbTab
  3
McadcomServices
 90
     1024
280
     0
281
     0
  0
CLASS
  1
CBROWSERAPPOBJECT
  2
CBrowserAppObject
  3
McadcomServices
 90
     1024
280
     0
281
     0
  0
CLASS
  1
DM_PLACEHOLDER
  2
AcDmSelsetPlaceholder
  3
AcMechDwgViewMgmt
 90
     1024
280
     0
281
     0
  0
CLASS
  1
TABLESTYLE
  2
AcDbTableStyle
  3
ObjectDBX Classes
 90
     4095
280
     0
281
     0
  0
CLASS
  1
VAACXREFPANELOBJECT
  2
VaAcXREFPanelObject
  3
VAAC_ADDIN
 90
    32768
280
     0
281
     0
  0
CLASS
  1
VAACIMAGEINVENTORY
  2
VaAcImageInventory
  3
VAAC_ADDIN
 90
    32768
280
     0
281
     0
  0
CLASS
  1
AMDTNOTETEMPLATEDB
  2
AmdtNoteTemplateDB
  3
AcmSymBB|Product Description: AutoCAD Mechanical|Company: Autodesk, Inc.
 90
     1024
280
     0
281
     0
  0
CLASS
  1
ACAMGFILTERDAT
  2
AcAmgFilterDat
  3
"AcadM|Product Description: AutoCAD Mechanical|Company: Autodesk, Inc."
 90
    33792
280
     0
281
     0
  0
CLASS
  1
ACMBOM
  2
AcmBom
  3
"AcmSymBB|Product Description: AutoCAD Mechanical|Company: Autodesk, Inc."
 90
    33792
280
     0
281
     0
  0
CLASS
  1
AMDTFORMULAUPDATEDISPATCHER
  2
AmdtFormulaUpdateDispatcher
  3
AcMeServices
 90
    33792
280
     0
281
     0
  0
CLASS
  1
ACMSTANDARDDIN
  2
AcmStandardDIN
  3
"Amdt_StdImp|Product Description: AutoCAD Mechanical|Company: Autodesk, Inc."
 90
     1024
280
     0
281
     0
  0
CLASS
  1
AMDTEDGESTANDARDDIN13715
  2
AmdtEdgeStdDIN13715
  3
"Amdt_StdImp|Product Description: AutoCAD Mechanical|Company: Autodesk, Inc."
 90
     1024
280
     0
281
     0
  0
CLASS
  1
ACMSURFSTANDARDDIN
  2
AcmSurfTextStdDIN
  3
"Amdt_StdImp|Product Description: AutoCAD Mechanical|Company: Autodesk, Inc."
 90
    33792
280
     0
281
     0
  0
CLASS
  1
ACMFCFSTANDARDDIN
  2
AcmFCFStdDIN
  3
"Amdt_StdImp|Product Description: AutoCAD Mechanical|Company: Autodesk, Inc."
 90
     1024
280
     0
281
     0
  0
CLASS
  1
ACMWELDSTANDARDDIN
  2
AcmWeldingStdDIN
  3
"Amdt_StdImp|Product Description: AutoCAD Mechanical|Company: Autodesk, Inc."
 90
     1024
280
     0
281
     0
  0
CLASS
  1
ACMIDSTANDARDDIN
  2
AcmIdStdDIN
  3
"Amdt_StdImp|Product Description: AutoCAD Mechanical|Company: Autodesk, Inc."
 90
     1024
280
     0
281
     0
  0
CLASS
  1
ACMDATUMSTANDARDDIN
  2
AcmDatumStdDIN
  3
"Amdt_StdImp|Product Description: AutoCAD Mechanical|Company: Autodesk, Inc."
 90
     1024
280
     0
281
     0
  0
CLASS
  1
ACMBOMSTANDARDDIN
  2
AcmBOMStdDIN
  3
"Amdt_StdImp|Product Description: AutoCAD Mechanical|Company: Autodesk, Inc."
 90
     1024
280
     0
281
     0
  0
CLASS
  1
ACMDETAILSTANDARDDIN
  2
AmdtDetailSymStdDIN
  3
"Amdt_StdImp|Product Description: AutoCAD Mechanical|Company: Autodesk, Inc."
 90
     1024
280
     0
281
     0
  0
CLASS
  1
ACMSECTIONSTANDARDDIN
  2
AmdtSectionSymStdDIN
  3
"Amdt_StdImp|Product Description: AutoCAD Mechanical|Company: Autodesk, Inc."
 90
     1024
280
     0
281
     0
  0
CLASS
  1
ACMCENTERLINESTANDARDDIN
  2
AmdtCenterLineStdDIN
  3
"Amdt_StdImp|Product Description: AutoCAD Mechanical|Company: Autodesk, Inc."
 90
     1024
280
     0
281
     0
  0
CLASS
  1
ACMTHREADLINESTANDARDDIN
  2
AmdtThreadLineStdDIN
  3
"Amdt_StdImp|Product Description: AutoCAD Mechanical|Company: Autodesk, Inc."
 90
     1024
280
     0
281
     0
  0
CLASS
  1
ACMNOTESTANDARDDIN
  2
AmdtNoteStdDIN
  3
"Amdt_StdImp|Product Description: AutoCAD Mechanical|Company: Autodesk, Inc."
 90
     1024
280
     0
281
     0
  0
CLASS
  1
ACAMGHOLECHARTSTDDIN
  2
AcAmgHoleChartStdDIN
  3
AmgDim|Product Description: AutoCAD Mechanical|Company: Autodesk, Inc.
 90
     1024
280
     0
281
     0
  0
CLASS
  1
MATERIAL
  2
AcDbMaterial
  3
ObjectDBX Classes
 90
     1153
280
     0
281
     0
  0
CLASS
  1
VISUALSTYLE
  2
AcDbVisualStyle
  3
ObjectDBX Classes
 90
     4095
280
     0
281
     0
  0
CLASS
  1
SCALE
  2
AcDbScale
  3
ObjectDBX Classes
 90
     1153
280
     0
281
     0
  0
CLASS
  1
MLEADERSTYLE
  2
AcDbMLeaderStyle
  3
ACDB_MLEADERSTYLE_CLASS
 90
     4095
280
     0
281
     0
  0
CLASS
  1
ACRFATTGENMGR
  2
AcRfAttGeneralMgr
  3
AcAttribServices
 90
    33792
280
     0
281
     0
  0
CLASS
  1
ACRFOBJATTMGR
  2
AcRfObjAttGroupMgr
  3
AcAttribServices
 90
    33792
280
     0
281
     0
  0
CLASS
  1
ACRFMCADAPIATTHOLDER
  2
AcRfMCADAPIAttHolder
  3
AcAttribServices
 90
    33792
280
     0
281
     0
  0
CLASS
  1
AMDTSYSATTR
  2
AmdtSystemAttribute
  3
AcAttribServices
 90
    33792
280
     0
281
     0
  0
CLASS
  1
ACMTAPERSTANDARDISO
  2
AcmTaperStdISO
  3
"Amdt_StdImp|Product Description: AutoCAD Mechanical|Company: Autodesk, Inc."
 90
    33792
280
     0
281
     0
  0
CLASS
  1
ACMANOOTATIONVIEWSTANDARDISO
  2
AmdtAnViewStdISO
  3
"Amdt_StdImp|Product Description: AutoCAD Mechanical|Company: Autodesk, Inc."
 90
    33792
280
     0
281
     0
  0
CLASS
  1
ACMTAPERSTANDARDDIN
  2
AcmTaperStdDIN
  3
"Amdt_StdImp|Product Description: AutoCAD Mechanical|Company: Autodesk, Inc."
 90
     1024
280
     0
281
     0
  0
CLASS
  1
ACMANOOTATIONVIEWSTANDARDDIN
  2
AmdtAnViewStdDIN
  3
"Amdt_StdImp|Product Description: AutoCAD Mechanical|Company: Autodesk, Inc."
 90
     1024
280
     0
281
     0
  0
CLASS
  1
EXACXREFPANELOBJECT
  2
ExAcXREFPanelObject
  3
EXAC_ESW
 90
     1025
280
     0
281
     0
  0
CLASS
  1
NPOCOLLECTION
  2
AcDbImpNonPersistentObjectsCollection
  3
ObjectDBX Classes
 90
     1153
280
     0
281
     0
  0
CLASS
  1
DIMASSOC
  2
AcDbDimAssoc
  3
"AcDbDimAssoc|Product Desc:     AcDim ARX App For Dimension|Company:          Autodesk, Inc.|WEB Address:      www.autodesk.com"
 90
        0
280
     0
281
     0
  0
CLASS
  1
SORTENTSTABLE
  2
AcDbSortentsTable
  3
ObjectDBX Classes
 90
        0
280
     0
281
     0
  0
CLASS
  1
CELLSTYLEMAP
  2
AcDbCellStyleMap
  3
ObjectDBX Classes
 90
     1152
280
     0
281
     0
  0
CLASS
  1
ACMSURFSTANDARDDIN2002
  2
AcmSurfTextStdDIN2002
  3
"Amdt_StdImp|Product Description: AutoCAD Mechanical|Company: Autodesk, Inc."
 90
     1024
280
     0
281
     0
  0
CLASS
  1
AEC_REFEDIT_STATUS_TRACKER
  2
AecDbRefEditStatusTracker
  3
AecArchBase50|Product Desc: Autodesk Architectural Desktop 2007 |Company: Autodesk,Inc. |WEB Address: www.autodesk.com
 90
      129
280
     0
281
     0
  0
CLASS
  1
CAMSSTRUCTBTNSTATE
  2
StructBtnState
  3
DesignerAssemblies
 90
     1024
280
     0
281
     0
  0
ENDSEC
  0
SECTION
  2
TABLES
  0
TABLE
  2
VPORT
  5
8
330
0
100
AcDbSymbolTable
 70
     1
  0
VPORT
  5
3B2
330
8
100
AcDbSymbolTableRecord
100
AcDbViewportTableRecord
  2
*Active
 70
     0
 10
0.0
 20
0.0
 11
1.0
 21
1.0
 12
250.0383017494375
 22
267.0647985209482
 13
0.0
 23
0.0
 14
2.5
 24
2.5
 15
10.0
 25
10.0
 16
0.0
 26
0.0
 36
1.0
 17
0.0
 27
0.0
 37
0.0
 40
537.8399576309162
 41
1.752272727272727
 42
50.0
 43
0.0
 44
0.0
 50
0.0
 51
0.0
 71
     0
 72
   100
 73
     1
 74
     3
 75
     0
 76
     0
 77
     0
 78
     0
281
     0
 65
     0
110
0.0
120
0.0
130
0.0
111
1.0
121
0.0
131
0.0
112
0.0
122
1.0
132
0.0
 79
     0
146
0.0
  0
ENDTAB
  0
TABLE
  2
LTYPE
  5
5
330
0
100
AcDbSymbolTable
 70
    25
  0
LTYPE
  5
14
330
5
100
AcDbSymbolTableRecord
100
AcDbLinetypeTableRecord
  2
ByBlock
 70
     0
  3

 72
    65
 73
     0
 40
0.0
  0
LTYPE
  5
15
330
5
100
AcDbSymbolTableRecord
100
AcDbLinetypeTableRecord
  2
ByLayer
 70
     0
  3

 72
    65
 73
     0
 40
0.0
  0
LTYPE
  5
16
330
5
100
AcDbSymbolTableRecord
100
AcDbLinetypeTableRecord
  2
Continuous
 70
     0
  3
Solid line
 72
    65
 73
     0
 40
0.0
  0
LTYPE
  5
64
330
5
100
AcDbSymbolTableRecord
100
AcDbLinetypeTableRecord
  2
AM_ISO02W050
 70
     0
  3
__ __ __ __ __ __ __ __ __ __ __ __ __ __ __
 72
    65
 73
     2
 40
7.5
 49
6.0
 74
     0
 49
-1.5
 74
     0
  0
LTYPE
  5
65
330
5
100
AcDbSymbolTableRecord
100
AcDbLinetypeTableRecord
  2
AM_ISO08W050
 70
     0
  3
____ . ____ . ____ . ____ . ____ . ____ . ____
 72
    65
 73
     4
 40
18.0
 49
12.0
 74
     0
 49
-1.5
 74
     0
 49
3.0
 74
     0
 49
-1.5
 74
     0
  0
LTYPE
  5
66
330
5
100
AcDbSymbolTableRecord
100
AcDbLinetypeTableRecord
  2
AM_ISO09W050
 70
     0
  3
_____ . . _____ . . _____ . . ____ .. ____
 72
    65
 73
     6
 40
22.5
 49
12.0
 74
     0
 49
-1.5
 74
     0
 49
3.0
 74
     0
 49
-1.5
 74
     0
 49
3.0
 74
     0
 49
-1.5
 74
     0
  0
LTYPE
  5
67
330
5
100
AcDbSymbolTableRecord
100
AcDbLinetypeTableRecord
  2
Amconstr
 70
     0
  3
_______________________
 72
    65
 73
     2
 40
9999.0
 49
9999.0
 74
     0
 49
0.0
 74
     0
  0
LTYPE
  5
68
330
5
100
AcDbSymbolTableRecord
100
AcDbLinetypeTableRecord
  2
AM_ISO08W050x2
 70
     0
  3
__ . __ . __ . __ . __ . __
 72
    65
 73
     4
 40
9.0
 49
6.0
 74
     0
 49
-0.75
 74
     0
 49
1.5
 74
     0
 49
-0.75
 74
     0
  0
LTYPE
  5
69
330
5
100
AcDbSymbolTableRecord
100
AcDbLinetypeTableRecord
  2
AM_ISO02W050x2
 70
     0
  3
 _ _ _ _ _ _ _ _ _ _ _ _
 72
    65
 73
     2
 40
3.75
 49
3.0
 74
     0
 49
-0.75
 74
     0
  0
LTYPE
  5
6C
330
5
100
AcDbSymbolTableRecord
100
AcDbLinetypeTableRecord
  2
Amzigzag
 70
     0
  3
/\/-/\/-/\/-/\/-/\/-/\/
 72
    65
 73
     2
 40
11.0001
 49
0.0001
 74
     4
 75
   136
340
22C
 46
0.04
 50
0.0
 44
0.0
 45
0.0
 49
-11.0
 74
     0
  0
LTYPE
  5
7A
330
5
100
AcDbSymbolTableRecord
100
AcDbLinetypeTableRecord
  2
ACISOWELD
 70
     0
  3
_ _ _ _ _
 72
    65
 73
     2
 40
2.0
 49
2.0
 74
     0
 49
-1.0
 74
     0
  0
LTYPE
  5
7B
330
5
100
AcDbSymbolTableRecord
100
AcDbLinetypeTableRecord
  2
ACISOTGB
 70
     0
  3
__ . . __ . .
 72
    65
 73
     6
 40
9.0
 49
4.0
 74
     0
 49
-1.0
 74
     0
 49
1.0
 74
     0
 49
-1.0
 74
     0
 49
1.0
 74
     0
 49
-1.0
 74
     0
  0
LTYPE
  5
7C
330
5
100
AcDbSymbolTableRecord
100
AcDbLinetypeTableRecord
  2
ACISOTGL
 70
     0
  3
_ _ _ _ _
 72
    65
 73
     2
 40
3.0
 49
2.0
 74
     0
 49
-1.0
 74
     0
  0
LTYPE
  5
7E
330
5
100
AcDbSymbolTableRecord
100
AcDbLinetypeTableRecord
  2
CENTER
 70
     0
  3
__ . __
 72
    65
 73
     4
 40
7.0
 49
4.0
 74
     0
 49
-1.0
 74
     0
 49
1.0
 74
     0
 49
-1.0
 74
     0
  0
LTYPE
  5
D8
330
5
100
AcDbSymbolTableRecord
100
AcDbLinetypeTableRecord
  2
HIDDEN
 70
     0
  3
Hidden __ __ __ __ __ __ __ __ __ __ __ __ __ _
 72
    65
 73
     2
 40
9.524999999999996
 49
6.349999999999998
 74
     0
 49
-3.174999999999998
 74
     0
  0
LTYPE
  5
D9
330
5
100
AcDbSymbolTableRecord
100
AcDbLinetypeTableRecord
  2
PHANTOM2
 70
     0
  3
Phantom (.5x) ___ _ _ ___ _ _ ___ _ _ ___ _ _
 72
    65
 73
     6
 40
31.75
 49
15.875
 74
     0
 49
-3.174999999999998
 74
     0
 49
3.174999999999998
 74
     0
 49
-3.174999999999998
 74
     0
 49
3.174999999999998
 74
     0
 49
-3.174999999999998
 74
     0
  0
LTYPE
  5
2E5
330
5
100
AcDbSymbolTableRecord
100
AcDbLinetypeTableRecord
  2
ACDINWELD
 70
     0
  3
_ _ _ _ _
 72
    65
 73
     2
 40
2.0
 49
2.0
 74
     0
 49
-1.0
 74
     0
  0
LTYPE
  5
2E6
330
5
100
AcDbSymbolTableRecord
100
AcDbLinetypeTableRecord
  2
ACDINTGB
 70
     0
  3
__ . . __ . .
 72
    65
 73
     6
 40
9.0
 49
4.0
 74
     0
 49
-1.0
 74
     0
 49
1.0
 74
     0
 49
-1.0
 74
     0
 49
1.0
 74
     0
 49
-1.0
 74
     0
  0
LTYPE
  5
2E7
330
5
100
AcDbSymbolTableRecord
100
AcDbLinetypeTableRecord
  2
ACDINTGL
 70
     0
  3
_ _ _ _ _
 72
    65
 73
     2
 40
3.0
 49
2.0
 74
     0
 49
-1.0
 74
     0
  0
LTYPE
  5
321
330
5
100
AcDbSymbolTableRecord
100
AcDbLinetypeTableRecord
  2
AM_DIN_F_W050
 70
     0
  3
__ __ __ __ __ __ __ __ __ __ __ __ __ __ __
 72
    65
 73
     2
 40
6.25
 49
4.75
 74
     0
 49
-1.5
 74
     0
  0
LTYPE
  5
322
330
5
100
AcDbSymbolTableRecord
100
AcDbLinetypeTableRecord
  2
AM_DIN_G_W050
 70
     0
  3
____ . ____ . ____ . ____ . ____ . ____ . ____
 72
    65
 73
     4
 40
13.75
 49
9.75
 74
     0
 49
-1.5
 74
     0
 49
1.0
 74
     0
 49
-1.5
 74
     0
  0
LTYPE
  5
323
330
5
100
AcDbSymbolTableRecord
100
AcDbLinetypeTableRecord
  2
AM_DIN_K_W050
 70
     0
  3
_____ . . _____ . . _____ . . ____ .. ____
 72
    65
 73
     6
 40
16.25
 49
9.75
 74
     0
 49
-1.5
 74
     0
 49
1.0
 74
     0
 49
-1.5
 74
     0
 49
1.0
 74
     0
 49
-1.5
 74
     0
  0
LTYPE
  5
324
330
5
100
AcDbSymbolTableRecord
100
AcDbLinetypeTableRecord
  2
AM_DIN_G_W050x2
 70
     0
  3
__ . __ . __ . __ . __ . __
 72
    65
 73
     4
 40
6.875
 49
4.75
 74
     0
 49
-0.875
 74
     0
 49
0.375
 74
     0
 49
-0.875
 74
     0
  0
LTYPE
  5
325
330
5
100
AcDbSymbolTableRecord
100
AcDbLinetypeTableRecord
  2
AM_DIN_F_W050x2
 70
     0
  3
 _ _ _ _ _ _ _ _ _ _ _ _
 72
    65
 73
     2
 40
3.125
 49
2.25
 74
     0
 49
-0.875
 74
     0
  0
LTYPE
  5
433
330
5
100
AcDbSymbolTableRecord
100
AcDbLinetypeTableRecord
  2
STRICHPUNKT
 70
     0
  3
Strichpunkt __ . __ . __ . __ . __ . __ . __ . 
 72
    65
 73
     4
 40
25.4
 49
12.7
 74
     0
 49
-6.349999999999997
 74
     0
 49
0.0
 74
     0
 49
-6.349999999999997
 74
     0
  0
LTYPE
  5
ABE
330
5
100
AcDbSymbolTableRecord
100
AcDbLinetypeTableRecord
  2
STRICHLINIE
 70
     0
  3
Strichlinie __ __ __ __ __ __ __ __ __ __ __ __
 72
    65
 73
     2
 40
19.05
 49
12.7
 74
     0
 49
-6.349999999999997
 74
     0
  0
ENDTAB
  0
TABLE
  2
LAYER
  5
2
102
{ACAD_XDICTIONARY
360
446
102
}
330
0
100
AcDbSymbolTable
 70
     6
  0
LAYER
  5
10
102
{ACAD_XDICTIONARY
360
B59
102
}
330
2
100
AcDbSymbolTableRecord
100
AcDbLayerTableRecord
  2
0
 70
     0
 62
     7
  6
Continuous
370
    -3
390
F
  0
LAYER
  5
434
102
{ACAD_XDICTIONARY
360
435
102
}
330
2
100
AcDbSymbolTableRecord
100
AcDbLayerTableRecord
  2
P-0000
 70
     0
 62
     7
  6
Continuous
370
    -3
390
F
  0
LAYER
  5
436
330
2
100
AcDbSymbolTableRecord
100
AcDbLayerTableRecord
  2
Defpoints
 70
     0
 62
     7
  6
Continuous
290
     0
370
    -3
390
F
  0
LAYER
  5
437
102
{ACAD_XDICTIONARY
360
438
102
}
330
2
100
AcDbSymbolTableRecord
100
AcDbLayerTableRecord
  2
AM_5
 70
     0
 62
     3
  6
Continuous
370
    25
390
F
1001
AcAecLayerStandard
1000

1000

  0
LAYER
  5
439
102
{ACAD_XDICTIONARY
360
43A
102
}
330
2
100
AcDbSymbolTableRecord
100
AcDbLayerTableRecord
  2
AM_8
 70
     0
 62
     1
  6
Continuous
370
    25
390
F
  0
LAYER
  5
43B
102
{ACAD_XDICTIONARY
360
43C
102
}
330
2
100
AcDbSymbolTableRecord
100
AcDbLayerTableRecord
  2
AM_7
 70
     0
 62
     4
  6
AM_DIN_G_W050
370
    25
390
F
1001
AcAecLayerStandard
1000

1000

  0
ENDTAB
  0
TABLE
  2
STYLE
  5
3
330
0
100
AcDbSymbolTable
 70
    10
  0
STYLE
  5
11
330
3
100
AcDbSymbolTableRecord
100
AcDbTextStyleTableRecord
  2
STANDARD
 70
     0
 40
0.0
 41
1.0
 50
0.0
 71
     0
 42
2.5
  3
ISOCP.SHX
  4

  0
STYLE
  5
6B
330
3
100
AcDbSymbolTableRecord
100
AcDbTextStyleTableRecord
  2

 70
     1
 40
0.0
 41
1.0
 50
0.0
 71
     0
 42
2.5
  3
ltypeshp.shx
  4

  0
STYLE
  5
6D
330
3
100
AcDbSymbolTableRecord
100
AcDbTextStyleTableRecord
  2
ACISOTS
 70
     0
 40
1.0
 41
1.0
 50
0.0
 71
     0
 42
2.5
  3
isocp.shx
  4
bigfont.shx
  0
STYLE
  5
79
330
3
100
AcDbSymbolTableRecord
100
AcDbTextStyleTableRecord
  2
ACISOGDT
 70
     0
 40
0.0
 41
1.0
 50
0.0
 71
     0
 42
2.5
  3
AMGDT
  4
bigfont.shx
  0
STYLE
  5
1ED
330
3
100
AcDbSymbolTableRecord
100
AcDbTextStyleTableRecord
  2
USER1
 70
     0
 40
0.0
 41
1.0
 50
0.0
 71
     0
 42
2.5
  3
TXT.SHX
  4
bigfont.shx
  0
STYLE
  5
1EE
330
3
100
AcDbSymbolTableRecord
100
AcDbTextStyleTableRecord
  2
USER2
 70
     0
 40
0.0
 41
1.0
 50
0.0
 71
     0
 42
2.5
  3
SIMPLEX.SHX
  4
bigfont.shx
  0
STYLE
  5
1EF
330
3
100
AcDbSymbolTableRecord
100
AcDbTextStyleTableRecord
  2
USER3
 70
     0
 40
0.0
 41
1.0
 50
0.0
 71
     0
 42
2.5
  3
ITALIC.SHX
  4
bigfont.shx
  0
STYLE
  5
22C
330
3
100
AcDbSymbolTableRecord
100
AcDbTextStyleTableRecord
  2

 70
     1
 40
0.0
 41
1.0
 50
0.0
 71
     0
 42
2.5
  3
genltshp.shx
  4

  0
STYLE
  5
2D7
330
3
100
AcDbSymbolTableRecord
100
AcDbTextStyleTableRecord
  2
ACDINTS
 70
     0
 40
1.0
 41
1.0
 50
0.0
 71
     0
 42
2.5
  3
isocp.shx
  4

  0
STYLE
  5
2E4
330
3
100
AcDbSymbolTableRecord
100
AcDbTextStyleTableRecord
  2
ACDINGDT
 70
     0
 40
0.0
 41
1.0
 50
0.0
 71
     0
 42
2.5
  3
amgdt.shx
  4

  0
ENDTAB
  0
TABLE
  2
VIEW
  5
6
330
0
100
AcDbSymbolTable
 70
     0
  0
ENDTAB
  0
TABLE
  2
UCS
  5
7
330
0
100
AcDbSymbolTable
 70
     0
  0
ENDTAB
  0
TABLE
  2
APPID
  5
9
330
0
100
AcDbSymbolTable
 70
    23
  0
APPID
  5
12
330
9
100
AcDbSymbolTableRecord
100
AcDbRegAppTableRecord
  2
ACAD
 70
     0
  0
APPID
  5
46
330
9
100
AcDbSymbolTableRecord
100
AcDbRegAppTableRecord
  2
MCAD_NO_VIS
 70
     0
  0
APPID
  5
47
330
9
100
AcDbSymbolTableRecord
100
AcDbRegAppTableRecord
  2
ACAD_TEMP_GRAPHIC
 70
     0
  0
APPID
  5
58
330
9
100
AcDbSymbolTableRecord
100
AcDbRegAppTableRecord
  2
ACATTRIBSERVICES
 70
     0
  0
APPID
  5
EE
330
9
100
AcDbSymbolTableRecord
100
AcDbRegAppTableRecord
  2
AD_DRAW
 70
     0
  0
APPID
  5
10C
330
9
100
AcDbSymbolTableRecord
100
AcDbRegAppTableRecord
  2
DESIGNERASSEMBLIES
 70
     0
  0
APPID
  5
111
330
9
100
AcDbSymbolTableRecord
100
AcDbRegAppTableRecord
  2
ACADM_DIM_EDIT
 70
     0
  0
APPID
  5
112
330
9
100
AcDbSymbolTableRecord
100
AcDbRegAppTableRecord
  2
AMDT_DM_ADJ
 70
     0
  0
APPID
  5
1A3
330
9
100
AcDbSymbolTableRecord
100
AcDbRegAppTableRecord
  2
ACAD_DSTYLE_DIMARC_LENGTH_SYMBOL
 70
     0
  0
APPID
  5
1A4
330
9
100
AcDbSymbolTableRecord
100
AcDbRegAppTableRecord
  2
ACAD_DSTYLE_DIMJOGGED_JOGANGLE_SYMBOL
 70
     0
  0
APPID
  5
3F1
330
9
100
AcDbSymbolTableRecord
100
AcDbRegAppTableRecord
  2
ACAD_MLEADERVER
 70
     0
  0
APPID
  5
43E
330
9
100
AcDbSymbolTableRecord
100
AcDbRegAppTableRecord
  2
ACME_LAYERS
 70
     0
  0
APPID
  5
43F
330
9
100
AcDbSymbolTableRecord
100
AcDbRegAppTableRecord
  2
AcAecLayerStandard
 70
     0
  0
APPID
  5
440
330
9
100
AcDbSymbolTableRecord
100
AcDbRegAppTableRecord
  2
ACAD_DSTYLE_DIMINSPECT
 70
     0
  0
APPID
  5
441
330
9
100
AcDbSymbolTableRecord
100
AcDbRegAppTableRecord
  2
GENIUS_GENODEF_13
 70
     0
  0
APPID
  5
442
330
9
100
AcDbSymbolTableRecord
100
AcDbRegAppTableRecord
  2
GENIUS_GENOBJ-N-HTC_13
 70
     0
  0
APPID
  5
443
330
9
100
AcDbSymbolTableRecord
100
AcDbRegAppTableRecord
  2
GENIUS_GENHATCH_13
 70
     0
  0
APPID
  5
444
330
9
100
AcDbSymbolTableRecord
100
AcDbRegAppTableRecord
  2
GENIUS_GENOBJ-N-CEN_13
 70
     0
  0
APPID
  5
445
330
9
100
AcDbSymbolTableRecord
100
AcDbRegAppTableRecord
  2
GENIUS_GENCEN_19
 70
     0
  0
APPID
  5
B72
330
9
100
AcDbSymbolTableRecord
100
AcDbRegAppTableRecord
  2
ACAD_DSTYLE_DIM_LINETYPE
 70
     0
  0
APPID
  5
B73
330
9
100
AcDbSymbolTableRecord
100
AcDbRegAppTableRecord
  2
ACAD_DSTYLE_DIM_EXT1_LINETYPE
 70
     0
  0
APPID
  5
B74
330
9
100
AcDbSymbolTableRecord
100
AcDbRegAppTableRecord
  2
ACAD_DSTYLE_DIM_EXT2_LINETYPE
 70
     0
  0
APPID
  5
C49
330
9
100
AcDbSymbolTableRecord
100
AcDbRegAppTableRecord
  2
ACAD_EXEMPT_FROM_CAD_STANDARDS
 70
     0
  0
ENDTAB
  0
TABLE
  2
DIMSTYLE
  5
A
330
0
100
AcDbSymbolTable
 70
    17
100
AcDbDimStyleTable
 71
     2
340
2F0
340
81
  0
DIMSTYLE
105
27
330
A
100
AcDbSymbolTableRecord
100
AcDbDimStyleTableRecord
  2
ISO-25
 70
     0
 41
2.5
 42
0.625
 43
3.75
 44
1.25
 73
     0
 74
     0
 77
     1
 78
     8
140
2.5
141
2.5
143
0.03937007874016
147
0.625
171
     3
172
     1
271
     2
272
     2
274
     3
278
    44
283
     0
284
     8
340
11
  0
DIMSTYLE
105
81
330
A
100
AcDbSymbolTableRecord
100
AcDbDimStyleTableRecord
  2
AM_ISO
 70
     0
  4
"
 41
2.5
 42
1.0
 43
10.0
 44
1.0
 47
0.1
 48
0.1
 73
     0
 74
     0
 77
     1
 78
     8
 79
     2
140
3.5
141
0.0
143
0.0393701
146
0.71
147
1.5
172
     1
176
   256
177
   256
178
     2
271
     2
272
     3
274
     4
283
     0
284
     8
340
11
371
    -1
372
    -1
1001
ACAD_DSTYLE_DIMJOGGED_JOGANGLE_SYMBOL
1070
   384
1040
0.7853981633974483
1001
ACAD_DSTYLE_DIMARC_LENGTH_SYMBOL
1070
   379
1070
     1
  0
DIMSTYLE
105
82
330
A
100
AcDbSymbolTableRecord
100
AcDbDimStyleTableRecord
  2
AM_ISO$3
 70
     0
  4
"
 41
2.5
 42
1.0
 43
10.0
 44
1.0
 47
0.1
 48
0.1
 73
     0
 77
     1
 78
     8
 79
     2
140
3.5
141
0.0
143
0.0393701
146
0.71
147
1.5
176
   256
177
   256
178
     2
271
     2
272
     3
274
     4
283
     0
284
     8
288
     1
289
     0
340
11
371
    -1
372
    -1
1001
ACAD_DSTYLE_DIMJOGGED_JOGANGLE_SYMBOL
1070
   384
1040
0.7853981633974483
1001
ACAD_DSTYLE_DIMARC_LENGTH_SYMBOL
1070
   379
1070
     1
  0
DIMSTYLE
105
83
330
A
100
AcDbSymbolTableRecord
100
AcDbDimStyleTableRecord
  2
AM_ISO$4
 70
     0
  4
"
 41
2.5
 42
1.0
 43
10.0
 44
1.0
 47
0.1
 48
0.1
 73
     0
 77
     1
 78
     8
 79
     2
140
3.5
141
0.0
143
0.0393701
146
0.71
147
1.5
176
   256
177
   256
178
     2
271
     2
272
     3
274
     4
283
     0
284
     8
288
     1
289
     0
340
11
371
    -1
372
    -1
1001
ACAD_DSTYLE_DIMJOGGED_JOGANGLE_SYMBOL
1070
   384
1040
0.7853981633974483
1001
ACAD_DSTYLE_DIMARC_LENGTH_SYMBOL
1070
   379
1070
     1
  0
DIMSTYLE
105
84
330
A
100
AcDbSymbolTableRecord
100
AcDbDimStyleTableRecord
  2
AM_ISO$6
 70
     0
  4
"
 41
2.5
 42
1.0
 43
10.0
 44
1.0
 47
0.1
 48
0.1
 73
     0
 74
     0
 78
     8
 79
     2
140
3.5
141
0.0
143
0.0393701
146
0.71
147
1.5
172
     1
176
   256
177
   256
178
     2
271
     2
272
     3
274
     4
283
     0
284
     8
340
11
371
    -1
372
    -1
1001
ACAD_DSTYLE_DIMJOGGED_JOGANGLE_SYMBOL
1070
   384
1040
0.7853981633974483
1001
ACAD_DSTYLE_DIMARC_LENGTH_SYMBOL
1070
   379
1070
     1
  0
DIMSTYLE
105
85
330
A
100
AcDbSymbolTableRecord
100
AcDbDimStyleTableRecord
  2
AM_ISO$7
 70
     0
  4
"
 41
2.5
 42
1.0
 43
10.0
 44
1.0
 47
0.1
 48
0.1
 73
     0
 74
     0
 77
     1
 78
     8
 79
     2
140
5.0
141
0.0
143
0.0393701
146
0.71
147
1.5
172
     1
176
   256
177
   256
178
     2
271
     2
272
     3
274
     4
283
     0
284
     8
340
11
371
    -1
372
    -1
1001
ACAD_DSTYLE_DIMJOGGED_JOGANGLE_SYMBOL
1070
   384
1040
0.7853981633974483
1001
ACAD_DSTYLE_DIMARC_LENGTH_SYMBOL
1070
   379
1070
     1
  0
DIMSTYLE
105
86
330
A
100
AcDbSymbolTableRecord
100
AcDbDimStyleTableRecord
  2
AM_ISO$SF
 70
     0
  4
"
 41
2.5
 42
1.0
 43
10.0
 44
1.0
 47
0.1
 48
0.1
 73
     0
 74
     0
 75
     1
 76
     1
 77
     1
 78
     8
 79
     2
140
3.5
141
0.0
143
0.0393701
146
0.71
147
1.5
172
     1
176
   256
177
   256
178
     2
271
     2
272
     3
274
     4
283
     0
284
     8
340
11
371
    -1
372
    -1
1001
ACAD_DSTYLE_DIMJOGGED_JOGANGLE_SYMBOL
1070
   384
1040
0.7853981633974483
1001
ACAD_DSTYLE_DIMARC_LENGTH_SYMBOL
1070
   379
1070
     1
  0
DIMSTYLE
105
8B
330
A
100
AcDbSymbolTableRecord
100
AcDbDimStyleTableRecord
  2
AM_ISO$SH
 70
     0
  4
"
 41
2.5
 42
1.0
 43
10.0
 44
1.0
 47
0.1
 48
0.1
 73
     0
 74
     0
 75
     1
 76
     1
 77
     1
 78
     8
 79
     2
140
3.5
141
0.0
143
0.0393701
144
2.0
146
0.71
147
1.5
172
     1
173
     1
176
   256
177
   256
178
     2
271
     2
272
     3
274
     4
283
     0
284
     8
340
11
343
87
371
    -1
372
    -1
1001
ACAD_DSTYLE_DIMJOGGED_JOGANGLE_SYMBOL
1070
   384
1040
0.7853981633974483
1001
ACAD_DSTYLE_DIMARC_LENGTH_SYMBOL
1070
   379
1070
     1
  0
DIMSTYLE
105
2F0
102
{ACAD_REACTORS
330
BDD
102
}
330
A
100
AcDbSymbolTableRecord
100
AcDbDimStyleTableRecord
  2
AM_DIN
 70
     0
  4
"
 41
3.5
 42
1.0
 43
10.0
 44
1.0
 47
0.1
 48
0.1
 73
     0
 74
     0
 77
     1
 78
     8
 79
     2
140
3.5
141
0.0
143
0.0393701
146
0.71
147
1.5
172
     1
176
   256
177
   256
178
     2
271
     2
272
     3
274
     4
283
     0
284
     8
340
11
371
    -1
372
    -1
1001
ACAD_DSTYLE_DIMJOGGED_JOGANGLE_SYMBOL
1070
   384
1040
1.570796326794896
1001
ACAD_DSTYLE_DIM_LINETYPE
1070
   380
1005
14
1001
ACAD_DSTYLE_DIM_EXT1_LINETYPE
1070
   381
1005
14
1001
ACAD_DSTYLE_DIM_EXT2_LINETYPE
1070
   382
1005
14
  0
DIMSTYLE
105
301
330
A
100
AcDbSymbolTableRecord
100
AcDbDimStyleTableRecord
  2
AM_DIN$3
 70
     0
  4
"
 41
3.5
 42
1.0
 43
10.0
 44
1.0
 47
0.1
 48
0.1
 73
     0
 77
     1
 78
     8
 79
     2
140
3.5
141
0.0
143
0.0393701
146
0.71
147
1.5
176
   256
177
   256
178
     2
271
     2
272
     3
274
     4
283
     0
284
     8
288
     1
289
     0
340
11
371
    -1
372
    -1
1001
ACAD_DSTYLE_DIMJOGGED_JOGANGLE_SYMBOL
1070
   384
1040
1.570796326794896
1001
ACAD_DSTYLE_DIM_LINETYPE
1070
   380
1005
14
1001
ACAD_DSTYLE_DIM_EXT1_LINETYPE
1070
   381
1005
14
1001
ACAD_DSTYLE_DIM_EXT2_LINETYPE
1070
   382
1005
14
  0
DIMSTYLE
105
306
330
A
100
AcDbSymbolTableRecord
100
AcDbDimStyleTableRecord
  2
AM_DIN$4
 70
     0
  4
"
 41
3.5
 42
1.0
 43
10.0
 44
1.0
 47
0.1
 48
0.1
 73
     0
 74
     0
 77
     1
 78
     8
 79
     2
140
3.5
141
0.0
143
0.0393701
146
0.71
147
1.5
172
     1
176
   256
177
   256
178
     2
271
     2
272
     3
274
     4
283
     0
284
     8
340
11
371
    -1
372
    -1
1001
ACAD_DSTYLE_DIMJOGGED_JOGANGLE_SYMBOL
1070
   384
1040
1.570796326794896
1001
ACAD_DSTYLE_DIM_LINETYPE
1070
   380
1005
14
1001
ACAD_DSTYLE_DIM_EXT1_LINETYPE
1070
   381
1005
14
1001
ACAD_DSTYLE_DIM_EXT2_LINETYPE
1070
   382
1005
14
  0
DIMSTYLE
105
30B
330
A
100
AcDbSymbolTableRecord
100
AcDbDimStyleTableRecord
  2
AM_DIN$6
 70
     0
  4
"
 41
3.5
 42
1.0
 43
10.0
 44
1.0
 47
0.1
 48
0.1
 73
     0
 74
     0
 78
     8
 79
     2
140
3.5
141
0.0
143
0.0393701
146
0.71
147
1.5
172
     1
176
   256
177
   256
178
     2
271
     2
272
     3
274
     4
283
     0
284
     8
340
11
371
    -1
372
    -1
1001
ACAD_DSTYLE_DIMJOGGED_JOGANGLE_SYMBOL
1070
   384
1040
1.570796326794896
1001
ACAD_DSTYLE_DIM_LINETYPE
1070
   380
1005
14
1001
ACAD_DSTYLE_DIM_EXT1_LINETYPE
1070
   381
1005
14
1001
ACAD_DSTYLE_DIM_EXT2_LINETYPE
1070
   382
1005
14
  0
DIMSTYLE
105
310
330
A
100
AcDbSymbolTableRecord
100
AcDbDimStyleTableRecord
  2
AM_DIN$7
 70
     0
  4
"
 41
3.5
 42
1.0
 43
10.0
 44
1.0
 47
0.1
 48
0.1
 73
     0
 74
     0
 77
     1
 78
     8
 79
     2
140
3.5
141
0.0
143
0.0393701
146
0.71
147
1.5
172
     1
176
   256
177
   256
178
     2
271
     2
272
     3
274
     4
283
     0
284
     8
340
11
371
    -1
372
    -1
1001
ACAD_DSTYLE_DIMJOGGED_JOGANGLE_SYMBOL
1070
   384
1040
1.570796326794896
1001
ACAD_DSTYLE_DIM_LINETYPE
1070
   380
1005
14
1001
ACAD_DSTYLE_DIM_EXT1_LINETYPE
1070
   381
1005
14
1001
ACAD_DSTYLE_DIM_EXT2_LINETYPE
1070
   382
1005
14
  0
DIMSTYLE
105
315
330
A
100
AcDbSymbolTableRecord
100
AcDbDimStyleTableRecord
  2
AM_DIN$SF
 70
     0
  4
"
 41
3.5
 42
1.0
 43
10.0
 44
1.0
 47
0.1
 48
0.1
 73
     0
 74
     0
 75
     1
 76
     1
 77
     1
 78
     8
 79
     2
140
3.5
141
0.0
143
0.0393701
146
0.71
147
1.5
172
     1
176
   256
177
   256
178
     2
271
     2
272
     3
274
     4
283
     0
284
     8
340
11
371
    -1
372
    -1
1001
ACAD_DSTYLE_DIMJOGGED_JOGANGLE_SYMBOL
1070
   384
1040
1.570796326794896
1001
ACAD_DSTYLE_DIM_LINETYPE
1070
   380
1005
14
1001
ACAD_DSTYLE_DIM_EXT1_LINETYPE
1070
   381
1005
14
1001
ACAD_DSTYLE_DIM_EXT2_LINETYPE
1070
   382
1005
14
  0
DIMSTYLE
105
31A
330
A
100
AcDbSymbolTableRecord
100
AcDbDimStyleTableRecord
  2
AM_DIN$SH
 70
     0
  4
"
 41
3.5
 42
1.0
 43
10.0
 44
1.0
 47
0.1
 48
0.1
 73
     0
 74
     0
 75
     1
 76
     1
 77
     1
 78
     8
 79
     2
140
3.5
141
0.0
143
0.0393701
144
2.0
146
0.71
147
1.5
172
     1
173
     1
176
   256
177
   256
178
     2
271
     2
272
     3
274
     4
283
     0
284
     8
340
11
343
87
371
    -1
372
    -1
1001
ACAD_DSTYLE_DIMJOGGED_JOGANGLE_SYMBOL
1070
   384
1040
1.570796326794896
1001
ACAD_DSTYLE_DIM_LINETYPE
1070
   380
1005
14
1001
ACAD_DSTYLE_DIM_EXT1_LINETYPE
1070
   381
1005
14
1001
ACAD_DSTYLE_DIM_EXT2_LINETYPE
1070
   382
1005
14
  0
DIMSTYLE
105
43D
102
{ACAD_REACTORS
330
AA2
330
8FA
102
}
330
A
100
AcDbSymbolTableRecord
100
AcDbDimStyleTableRecord
  2
AM_DIN$0
 70
     0
  4
"
 41
3.5
 42
1.0
 43
10.0
 44
1.0
 47
0.1
 48
0.1
 73
     0
 74
     0
 77
     1
 78
     8
 79
     2
140
3.5
141
0.0
143
0.0393701
146
0.71
147
1.5
172
     1
176
   256
177
   256
178
     2
271
     2
272
     3
274
     4
283
     0
284
     8
340
11
371
    -1
372
    -1
1001
ACAD_DSTYLE_DIMJOGGED_JOGANGLE_SYMBOL
1070
   384
1040
1.570796326794896
1001
ACAD_DSTYLE_DIM_LINETYPE
1070
   380
1005
14
1001
ACAD_DSTYLE_DIM_EXT1_LINETYPE
1070
   381
1005
14
1001
ACAD_DSTYLE_DIM_EXT2_LINETYPE
1070
   382
1005
14
  0
ENDTAB
  0
TABLE
  2
BLOCK_RECORD
  5
1
330
0
100
AcDbSymbolTable
 70
     9
  0
BLOCK_RECORD
  5
1F
102
{ACAD_XDICTIONARY
360
8F
102
}
330
1
100
AcDbSymbolTableRecord
100
AcDbBlockTableRecord
  2
*Model_Space
340
22
  0
BLOCK_RECORD
  5
1B
330
1
100
AcDbSymbolTableRecord
100
AcDbBlockTableRecord
  2
*Paper_Space
340
1E
  0
BLOCK_RECORD
  5
23
330
1
100
AcDbSymbolTableRecord
100
AcDbBlockTableRecord
  2
*Paper_Space0
340
26
  0
BLOCK_RECORD
  5
87
330
1
100
AcDbSymbolTableRecord
100
AcDbBlockTableRecord
  2
GENAXEH
340
0
  0
BLOCK_RECORD
  5
41B
330
1
100
AcDbSymbolTableRecord
100
AcDbBlockTableRecord
  2
*D2
340
0
  0
BLOCK_RECORD
  5
427
330
1
100
AcDbSymbolTableRecord
100
AcDbBlockTableRecord
  2
*D3
340
0
  0
BLOCK_RECORD
  5
AA5
330
1
100
AcDbSymbolTableRecord
100
AcDbBlockTableRecord
  2
*D4
340
0
  0
BLOCK_RECORD
  5
AB1
330
1
100
AcDbSymbolTableRecord
100
AcDbBlockTableRecord
  2
*D5
340
0
  0
ENDTAB
  0
ENDSEC
  0
SECTION
  2
BLOCKS
  0
BLOCK
  5
20
330
1F
100
AcDbEntity
  8
0
100
AcDbBlockBegin
  2
*Model_Space
 70
     0
 10
0.0
 20
0.0
 30
0.0
  3
*Model_Space
  1

  0
ENDBLK
  5
21
330
1F
100
AcDbEntity
  8
0
100
AcDbBlockEnd
  0
BLOCK
  5
1C
330
1B
100
AcDbEntity
 67
     1
  8
0
100
AcDbBlockBegin
  2
*Paper_Space
 70
     0
 10
0.0
 20
0.0
 30
0.0
  3
*Paper_Space
  1

  0
ENDBLK
  5
1D
330
1B
100
AcDbEntity
 67
     1
  8
0
100
AcDbBlockEnd
  0
BLOCK
  5
24
330
23
100
AcDbEntity
 67
     1
  8
0
100
AcDbBlockBegin
  2
*Paper_Space0
 70
     0
 10
0.0
 20
0.0
 30
0.0
  3
*Paper_Space0
  1

  0
ENDBLK
  5
25
330
23
100
AcDbEntity
 67
     1
  8
0
100
AcDbBlockEnd
  0
BLOCK
  5
89
330
87
100
AcDbEntity
  8
0
100
AcDbBlockBegin
  2
GENAXEH
 70
     0
 10
0.0
 20
0.0
 30
0.0
  3
GENAXEH
  1

  0
LINE
  5
88
330
87
100
AcDbEntity
  8
0
100
AcDbLine
 10
-1.0
 20
0.0
 30
0.0
 11
1.0
 21
0.0
 31
0.0
  0
ENDBLK
  5
8A
330
87
100
AcDbEntity
  8
0
100
AcDbBlockEnd
  0
BLOCK
  5
41C
330
41B
100
AcDbEntity
  8
0
100
AcDbBlockBegin
  2
*D2
 70
     1
 10
0.0
 20
0.0
 30
0.0
  3
*D2
  1

  0
LINE
  5
41D
330
41B
100
AcDbEntity
  8
AM_5
  6
ByBlock
100
AcDbLine
 10
2265.291861003038
 20
2148.250098146036
 30
0.0
 11
2265.291861003038
 21
2291.954246198159
 31
0.0
  0
LINE
  5
41E
330
41B
100
AcDbEntity
  8
AM_5
  6
ByBlock
100
AcDbLine
 10
2765.378881086929
 20
2148.250098146036
 30
0.0
 11
2765.378881086929
 21
2291.954246198159
 31
0.0
  0
LINE
  5
41F
330
41B
100
AcDbEntity
  8
AM_5
  6
ByBlock
100
AcDbLine
 10
2270.291861003038
 20
2290.954246198159
 30
0.0
 11
2760.378881086929
 21
2290.954246198159
 31
0.0
  0
SOLID
  5
420
330
41B
100
AcDbEntity
  8
AM_5
100
AcDbTrace
 10
2270.291861003038
 20
2291.787579531492
 30
0.0
 11
2270.291861003038
 21
2290.120912864825
 31
0.0
 12
2265.291861003038
 22
2290.954246198159
 32
0.0
 13
2265.291861003038
 23
2290.954246198159
 33
0.0
  0
SOLID
  5
421
330
41B
100
AcDbEntity
  8
AM_5
100
AcDbTrace
 10
2760.378881086929
 20
2291.787579531492
 30
0.0
 11
2760.378881086929
 21
2290.120912864825
 31
0.0
 12
2765.378881086929
 22
2290.954246198159
 32
0.0
 13
2765.378881086929
 23
2290.954246198159
 33
0.0
  0
MTEXT
  5
422
330
41B
100
AcDbEntity
  8
AM_5
 62
     2
100
AcDbMText
 10
2522.374559892537
 20
2297.454246198159
 30
0.0
 40
10.0
 41
0.0
 71
     5
 72
     1
  1
{\Famgdt;o}500
 73
     1
 44
1.0
1001
ACAD
1000
MTEXTBEGIN
1070
    73
1070
     1
1070
    44
1040
1.0
1070
    74
1070
     0
1000
MTEXTEND
  0
POINT
  5
423
330
41B
100
AcDbEntity
  8
Defpoints
 62
     0
100
AcDbPoint
 10
2265.291861003038
 20
2147.250098146036
 30
0.0
  0
POINT
  5
424
330
41B
100
AcDbEntity
  8
Defpoints
 62
     0
100
AcDbPoint
 10
2765.378881086929
 20
2147.250098146036
 30
0.0
  0
POINT
  5
425
330
41B
100
AcDbEntity
  8
Defpoints
 62
     0
100
AcDbPoint
 10
2765.378881086929
 20
2290.954246198159
 30
0.0
  0
ENDBLK
  5
426
330
41B
100
AcDbEntity
  8
0
100
AcDbBlockEnd
  0
BLOCK
  5
428
330
427
100
AcDbEntity
  8
0
100
AcDbBlockBegin
  2
*D3
 70
     1
 10
0.0
 20
0.0
 30
0.0
  3
*D3
  1

  0
LINE
  5
429
330
427
100
AcDbEntity
  8
AM_5
  6
ByBlock
100
AcDbLine
 10
2514.335371044983
 20
1770.250098146036
 30
0.0
 11
2337.291861003016
 21
1770.250098146036
 31
0.0
  0
LINE
  5
42A
330
427
100
AcDbEntity
  8
AM_5
  6
ByBlock
100
AcDbLine
 10
2349.291861003016
 20
2140.250098146037
 30
0.0
 11
2337.291861003016
 21
2140.250098146037
 31
0.0
  0
LINE
  5
42B
330
427
100
AcDbEntity
  8
AM_5
  6
ByBlock
100
AcDbLine
 10
2338.291861003017
 20
1775.250098146036
 30
0.0
 11
2338.291861003017
 21
2135.250098146037
 31
0.0
  0
SOLID
  5
42C
330
427
100
AcDbEntity
  8
AM_5
100
AcDbTrace
 10
2337.458527669683
 20
1775.250098146036
 30
0.0
 11
2339.12519433635
 21
1775.250098146036
 31
0.0
 12
2338.291861003017
 22
1770.250098146036
 32
0.0
 13
2338.291861003017
 23
1770.250098146036
 33
0.0
  0
SOLID
  5
42D
330
427
100
AcDbEntity
  8
AM_5
100
AcDbTrace
 10
2337.458527669683
 20
2135.250098146037
 30
0.0
 11
2339.12519433635
 21
2135.250098146037
 31
0.0
 12
2338.291861003017
 22
2140.250098146037
 32
0.0
 13
2338.291861003017
 23
2140.250098146037
 33
0.0
  0
MTEXT
  5
42E
330
427
100
AcDbEntity
  8
AM_5
 62
     2
100
AcDbMText
 10
2331.791861003016
 20
1955.250098146037
 30
0.0
 40
10.0
 41
0.0
 71
     5
 72
     1
  1
370
 11
0.0000000000000001
 21
1.0
 31
0.0
 73
     1
 44
1.0
1001
ACAD
1000
MTEXTBEGIN
1070
    73
1070
     1
1070
    44
1040
1.0
1070
    74
1070
     0
1000
MTEXTEND
  0
POINT
  5
42F
330
427
100
AcDbEntity
  8
Defpoints
 62
     0
100
AcDbPoint
 10
2515.335371044983
 20
1770.250098146036
 30
0.0
  0
POINT
  5
430
330
427
100
AcDbEntity
  8
Defpoints
 62
     0
100
AcDbPoint
 10
2350.291861003016
 20
2140.250098146037
 30
0.0
  0
POINT
  5
431
330
427
100
AcDbEntity
  8
Defpoints
 62
     0
100
AcDbPoint
 10
2338.291861003017
 20
2140.250098146037
 30
0.0
  0
ENDBLK
  5
432
330
427
100
AcDbEntity
  8
0
100
AcDbBlockEnd
  0
BLOCK
  5
AA6
330
AA5
100
AcDbEntity
  8
0
100
AcDbBlockBegin
  2
*D4
 70
     1
 10
0.0
 20
0.0
 30
0.0
  3
*D4
  1

  0
LINE
  5
C03
330
AA5
100
AcDbEntity
  8
AM_5
  6
ByBlock
100
AcDbLine
 10
249.0435109305404
 20
1.918645666079554
 30
0.0
 11
72.00000088857439
 21
1.918645666079605
 31
0.0
  0
LINE
  5
C04
330
AA5
100
AcDbEntity
  8
AM_5
  6
ByBlock
100
AcDbLine
 10
84.00000088857359
 20
371.9186456660805
 30
0.0
 11
72.00000088857449
 21
371.9186456660805
 31
0.0
  0
LINE
  5
C05
330
AA5
100
AcDbEntity
  8
AM_5
  6
ByBlock
100
AcDbLine
 10
73.00000088857441
 20
6.918645666079605
 30
0.0
 11
73.00000088857449
 21
366.9186456660805
 31
0.0
  0
SOLID
  5
C06
330
AA5
100
AcDbEntity
  8
AM_5
100
AcDbTrace
 10
72.16666755524108
 20
6.918645666079605
 30
0.0
 11
73.83333422190773
 21
6.918645666079605
 31
0.0
 12
73.00000088857441
 22
1.918645666079605
 32
0.0
 13
73.00000088857441
 23
1.918645666079605
 33
0.0
  0
SOLID
  5
C07
330
AA5
100
AcDbEntity
  8
AM_5
100
AcDbTrace
 10
72.16666755524116
 20
366.9186456660805
 30
0.0
 11
73.83333422190782
 21
366.9186456660805
 31
0.0
 12
73.00000088857449
 22
371.9186456660805
 32
0.0
 13
73.00000088857449
 23
371.9186456660805
 33
0.0
  0
MTEXT
  5
C08
330
AA5
100
AcDbEntity
  8
AM_5
 62
     2
100
AcDbMText
 10
66.50000088857442
 20
186.91864566608
 30
0.0
 40
10.0
 41
0.0
 71
     5
 72
     1
  1
370
 11
0.0000000000000001
 21
1.0
 31
0.0
 73
     1
 44
1.0
1001
ACAD
1000
MTEXTBEGIN
1070
    73
1070
     1
1070
    44
1040
1.0
1070
    74
1070
     0
1000
MTEXTEND
  0
POINT
  5
C09
330
AA5
100
AcDbEntity
  8
Defpoints
 62
     0
100
AcDbPoint
 10
250.0435109305404
 20
1.918645666079554
 30
0.0
  0
POINT
  5
C0A
330
AA5
100
AcDbEntity
  8
Defpoints
 62
     0
100
AcDbPoint
 10
85.0000008885736
 20
371.9186456660805
 30
0.0
  0
POINT
  5
C0B
330
AA5
100
AcDbEntity
  8
Defpoints
 62
     0
100
AcDbPoint
 10
73.00000088857449
 20
371.9186456660805
 30
0.0
  0
ENDBLK
  5
AA7
330
AA5
100
AcDbEntity
  8
0
100
AcDbBlockEnd
  0
BLOCK
  5
AB2
330
AB1
100
AcDbEntity
  8
0
100
AcDbBlockBegin
  2
*D5
 70
     1
 10
0.0
 20
0.0
 30
0.0
  3
*D5
  1

  0
LINE
  5
C0C
330
AB1
100
AcDbEntity
  8
AM_5
  6
ByBlock
100
AcDbLine
 10
0.0000008885954231
 20
379.9186456660796
 30
0.0
 11
0.0000008885954319
 21
523.6227937182019
 31
0.0
  0
LINE
  5
C0D
330
AB1
100
AcDbEntity
  8
AM_5
  6
ByBlock
100
AcDbLine
 10
500.0870209724862
 20
379.9186456660796
 30
0.0
 11
500.0870209724862
 21
523.6227937182019
 31
0.0
  0
LINE
  5
C0E
330
AB1
100
AcDbEntity
  8
AM_5
  6
ByBlock
100
AcDbLine
 10
5.000000888595431
 20
522.6227937182019
 30
0.0
 11
495.0870209724861
 21
522.6227937182019
 31
0.0
  0
SOLID
  5
C0F
330
AB1
100
AcDbEntity
  8
AM_5
100
AcDbTrace
 10
5.000000888595431
 20
523.4561270515353
 30
0.0
 11
5.000000888595431
 21
521.7894603848685
 31
0.0
 12
0.0000008885954318
 22
522.6227937182019
 32
0.0
 13
0.0000008885954318
 23
522.6227937182019
 33
0.0
  0
SOLID
  5
C10
330
AB1
100
AcDbEntity
  8
AM_5
100
AcDbTrace
 10
495.0870209724861
 20
523.4561270515353
 30
0.0
 11
495.0870209724861
 21
521.7894603848685
 31
0.0
 12
500.0870209724862
 22
522.6227937182019
 32
0.0
 13
500.0870209724862
 23
522.6227937182019
 33
0.0
  0
MTEXT
  5
C11
330
AB1
100
AcDbEntity
  8
AM_5
 62
     2
100
AcDbMText
 10
257.0826997780946
 20
529.1227937182019
 30
0.0
 40
10.0
 41
0.0
 71
     5
 72
     1
  1
{\Famgdt;o}500
 73
     1
 44
1.0
1001
ACAD
1000
MTEXTBEGIN
1070
    73
1070
     1
1070
    44
1040
1.0
1070
    74
1070
     0
1000
MTEXTEND
  0
POINT
  5
C12
330
AB1
100
AcDbEntity
  8
Defpoints
 62
     0
100
AcDbPoint
 10
0.000000888595423
 20
378.9186456660796
 30
0.0
  0
POINT
  5
C13
330
AB1
100
AcDbEntity
  8
Defpoints
 62
     0
100
AcDbPoint
 10
500.0870209724862
 20
378.9186456660796
 30
0.0
  0
POINT
  5
C14
330
AB1
100
AcDbEntity
  8
Defpoints
 62
     0
100
AcDbPoint
 10
500.0870209724862
 20
522.6227937182019
 30
0.0
  0
ENDBLK
  5
AB3
330
AB1
100
AcDbEntity
  8
0
100
AcDbBlockEnd
  0
ENDSEC
  0
SECTION
  2
ENTITIES
  0
LINE
  5
779
330
1F
100
AcDbEntity
  8
P-0000
  6
Continuous
 62
     7
100
AcDbLine
 10
250.0435109305104
 20
64.87658317604746
 30
0.0
 11
250.0435109305144
 21
64.87658317604746
 31
0.0
1001
ACME_LAYERS
1000
1
  0
LINE
  5
77A
330
1F
100
AcDbEntity
  8
P-0000
  6
STRICHPUNKT
 62
     3
100
AcDbLine
 10
250.0435109305144
 20
55.49198118123445
 30
0.0
 11
250.0435109305126
 21
15.91819996885147
 31
0.0
1001
ACME_LAYERS
1000
1
  0
LINE
  5
77B
330
1F
100
AcDbEntity
  8
P-0000
  6
STRICHPUNKT
 62
     3
100
AcDbLine
 10
250.0435109305126
 20
15.91819996885147
 30
0.0
 11
250.0435109305126
 21
9.688640559269515
 31
0.0
1001
ACME_LAYERS
1000
1
  0
LINE
  5
77C
330
1F
100
AcDbEntity
  8
P-0000
  6
STRICHPUNKT
 62
     3
100
AcDbLine
 10
250.0435109305154
 20
72.3512090038853
 30
0.0
 11
250.0435109305144
 21
56.20198118123449
 31
0.0
1001
ACME_LAYERS
1000
1
  0
LINE
  5
77D
330
1F
100
AcDbEntity
  8
P-0000
  6
Continuous
 62
     7
100
AcDbLine
 10
301.5392396142138
 20
257.3534837231496
 30
0.0
 11
301.5392396142097
 21
312.4568668018874
 31
0.0
1001
ACME_LAYERS
1000
1
  0
LINE
  5
77E
330
1F
100
AcDbEntity
  8
P-0000
  6
Continuous
 62
     7
100
AcDbLine
 10
198.5477822468406
 20
312.4568668018874
 30
0.0
 11
198.5477822468397
 21
257.3534837231496
 31
0.0
1001
ACME_LAYERS
1000
1
  0
LINE
  5
77F
330
1F
100
AcDbEntity
  8
P-0000
  6
Continuous
 62
     7
100
AcDbLine
 10
193.5221866299084
 20
371.9186456660805
 30
0.0
 11
170.4033581539629
 21
371.9186456660805
 31
0.0
1001
ACME_LAYERS
1000
1
  0
LINE
  5
780
330
1F
100
AcDbEntity
  8
P-0000
  6
Continuous
 62
     7
100
AcDbLine
 10
188.5136439972834
 20
375.9186456660795
 30
0.0
 11
165.7653077002287
 21
375.9186456660795
 31
0.0
1001
ACME_LAYERS
1000
1
  0
LINE
  5
781
330
1F
100
AcDbEntity
  8
P-0000
  6
Continuous
 62
     7
100
AcDbLine
 10
188.5136439972834
 20
377.9186456660796
 30
0.0
 11
165.7653077002287
 21
377.9186456660796
 31
0.0
1001
ACME_LAYERS
1000
1
  0
LINE
  5
782
330
1F
100
AcDbEntity
  8
P-0000
  6
Continuous
 62
     7
100
AcDbLine
 10
137.7935109305035
 20
377.9186456660796
 30
0.0
 11
165.7653077002287
 21
377.9186456660796
 31
0.0
1001
ACME_LAYERS
1000
1
  0
LINE
  5
783
330
1F
100
AcDbEntity
  8
P-0000
  6
Continuous
 62
     7
100
AcDbLine
 10
101.6255617380725
 20
377.9186456660796
 30
0.0
 11
129.7935109305035
 21
377.9186456660796
 31
0.0
1001
ACME_LAYERS
1000
1
  0
ARC
  5
784
330
1F
100
AcDbEntity
  8
P-0000
  6
Continuous
 62
     7
100
AcDbCircle
 10
165.7653077002287
 20
373.9186456660795
 30
0.0
 40
2.0
100
AcDbArc
 50
90.0
 51
119.9999999999972
1001
ACME_LAYERS
1000
1
  0
LINE
  5
785
330
1F
100
AcDbEntity
  8
P-0000
  6
Continuous
 62
     7
100
AcDbLine
 10
326.0776491800725
 20
377.9186456660796
 30
0.0
 11
250.0435109305404
 21
377.9186456660796
 31
0.0
1001
ACME_LAYERS
1000
1
  0
LINE
  5
786
330
1F
100
AcDbEntity
  8
P-0000
  6
Continuous
 62
     3
100
AcDbLine
 10
296.5597956727624
 20
367.1346652587595
 30
0.0
 11
250.0435109305254
 21
367.1346652587595
 31
0.0
1001
ACME_LAYERS
1000
1
  0
ARC
  5
787
330
1F
100
AcDbEntity
  8
P-0000
  6
Continuous
 62
     7
100
AcDbCircle
 10
188.5136439972834
 20
371.9186456660805
 30
0.0
 40
4.000000000000238
100
AcDbArc
 50
36.99999999999587
 51
90.0
1001
ACME_LAYERS
1000
1
  0
LINE
  5
788
330
1F
100
AcDbEntity
  8
P-0000
  6
Continuous
 62
     7
100
AcDbLine
 10
199.0366884807627
 20
367.9239348233346
 30
0.0
 11
193.3054570575686
 21
375.5295358049925
 31
0.0
1001
ACME_LAYERS
1000
1
  0
LINE
  5
789
330
1F
100
AcDbEntity
  8
P-0000
  6
Continuous
 62
     7
100
AcDbLine
 10
250.0435109305104
 20
377.9186456660796
 30
0.0
 11
188.5136439972834
 21
377.9186456660796
 31
0.0
1001
ACME_LAYERS
1000
1
  0
ARC
  5
78A
330
1F
100
AcDbEntity
  8
P-0000
  6
Continuous
 62
     7
100
AcDbCircle
 10
188.5136439972834
 20
371.9186456660805
 30
0.0
 40
6.000000000000177
100
AcDbArc
 50
36.99999999999587
 51
90.0
1001
ACME_LAYERS
1000
1
  0
LINE
  5
78B
330
1F
100
AcDbEntity
  8
P-0000
  6
Continuous
 62
     3
100
AcDbLine
 10
250.0435109305254
 20
367.1346652587595
 30
0.0
 11
203.5272261882887
 21
367.1346652587595
 31
0.0
1001
ACME_LAYERS
1000
1
  0
HATCH
  5
78C
330
1F
100
AcDbEntity
  8
P-0000
  6
Continuous
 62
     3
100
AcDbHatch
 10
0.0
 20
0.0
 30
0.0
210
0.0
220
0.0
230
1.0
  2
_U
 70
     0
 71
     0
 91
        1
 92
        1
 93
        8
 72
     1
 10
198.5435109305253
 20
312.4568668018874
 11
199.3419012882682
 21
312.7174956224471
 72
     1
 10
199.3419012882682
 20
312.7174956224471
 11
200.0435109305263
 21
312.9186456660796
 72
     1
 10
200.0435109305254
 20
312.9186456660796
 11
200.0435109305254
 21
360.9186456660796
 72
     1
 10
200.0435109305254
 20
360.9186456660796
 11
199.4469805557005
 21
360.9186456660796
 72
     1
 10
199.4469805557005
 20
360.9186456660796
 11
198.5435109305253
 21
360.0151760409044
 72
     1
 10
198.5435109305253
 20
360.0151760409044
 11
198.5435109304408
 21
359.5151760409044
 72
     1
 10
198.5435109304408
 20
359.5151760409044
 11
198.5435109305253
 21
359.3762130769615
 72
     1
 10
198.5435109305253
 20
359.3762130769615
 11
198.5435109305253
 21
312.4568668018874
 97
        0
 75
     0
 76
     0
 52
315.0
 41
2.0
 77
     0
 78
     1
 53
315.0
 43
958.0229548718703
 44
-23.86533474124167
 45
1.414213562373094
 46
1.414213562373094
 79
     0
 98
        1
 10
958.0229548718703
 20
-23.86533474124167
1001
ACME_LAYERS
1000
1
  0
LINE
  5
78D
330
1F
100
AcDbEntity
  8
P-0000
  6
Continuous
 62
     7
100
AcDbLine
 10
200.0435109305254
 20
360.9186456660796
 30
0.0
 11
200.0435109305254
 21
312.9186456660796
 31
0.0
1001
ACME_LAYERS
1000
1
  0
LINE
  5
78E
330
1F
100
AcDbEntity
  8
P-0000
  6
Continuous
 62
     7
100
AcDbLine
 10
198.5435109305253
 20
312.4568668018874
 30
0.0
 11
198.5435109305253
 21
360.0151760409044
 31
0.0
1001
ACME_LAYERS
1000
1
  0
LINE
  5
78F
330
1F
100
AcDbEntity
  8
P-0000
  6
Continuous
 62
     7
100
AcDbLine
 10
197.4394174606686
 20
366.7203047770295
 30
0.0
 11
193.5221866299084
 21
371.9186456660805
 31
0.0
1001
ACME_LAYERS
1000
1
  0
LINE
  5
790
330
1F
100
AcDbEntity
  8
P-0000
  6
Continuous
 62
     7
100
AcDbLine
 10
192.7159902345488
 20
372.9885044177513
 30
0.0
 11
191.7081860374733
 21
374.3259057586883
 31
0.0
1001
ACME_LAYERS
1000
1
  0
LINE
  5
791
330
1F
100
AcDbEntity
  8
P-0000
  6
Continuous
 62
     7
100
AcDbLine
 10
193.5221866299084
 20
371.9186456660805
 30
0.0
 11
192.7159902345488
 21
372.9885044177513
 31
0.0
1001
ACME_LAYERS
1000
1
  0
ARC
  5
792
330
1F
100
AcDbEntity
  8
P-0000
  6
Continuous
 62
     7
100
AcDbCircle
 10
195.0435109305253
 20
364.9148597075737
 30
0.0
 40
5.0
100
AcDbArc
 50
0.0
 51
36.99999999999587
1001
ACME_LAYERS
1000
1
  0
ARC
  5
793
330
1F
100
AcDbEntity
  8
P-0000
  6
Continuous
 62
     7
100
AcDbCircle
 10
195.0435109305253
 20
364.9148597075737
 30
0.0
 40
3.0
100
AcDbArc
 50
0.0
 51
36.99999999999587
1001
ACME_LAYERS
1000
1
  0
LINE
  5
794
330
1F
100
AcDbEntity
  8
P-0000
  6
Continuous
 62
     7
100
AcDbLine
 10
198.5435109305253
 20
360.0151760409044
 30
0.0
 11
198.5435109304408
 21
360.8375402531174
 31
0.0
1001
ACME_LAYERS
1000
1
  0
LINE
  5
795
330
1F
100
AcDbEntity
  8
P-0000
  6
Continuous
 62
     7
100
AcDbLine
 10
198.5435109305253
 20
360.0151760409044
 30
0.0
 11
198.5435109305253
 21
360.9186456660796
 31
0.0
1001
ACME_LAYERS
1000
1
  0
LINE
  5
796
330
1F
100
AcDbEntity
  8
P-0000
  6
Continuous
 62
     7
100
AcDbLine
 10
198.5435109304408
 20
359.5151760409044
 30
0.0
 11
198.5435109305253
 21
360.0151760409044
 31
0.0
1001
ACME_LAYERS
1000
1
  0
LINE
  5
797
330
1F
100
AcDbEntity
  8
P-0000
  6
Continuous
 62
     7
100
AcDbLine
 10
198.0435109305253
 20
362.3221152912543
 30
0.0
 11
198.0435109305253
 21
360.8375402531174
 31
0.0
1001
ACME_LAYERS
1000
1
  0
LINE
  5
798
330
1F
100
AcDbEntity
  8
P-0000
  6
Continuous
 62
     7
100
AcDbLine
 10
200.0435109305254
 20
364.9148597075737
 30
0.0
 11
200.0435109305254
 21
360.9186456660796
 31
0.0
1001
ACME_LAYERS
1000
1
  0
LINE
  5
799
330
1F
100
AcDbEntity
  8
P-0000
  6
Continuous
 62
     7
100
AcDbLine
 10
199.4469805557005
 20
360.9186456660796
 30
0.0
 11
198.0435109305253
 21
360.9186456660796
 31
0.0
1001
ACME_LAYERS
1000
1
  0
LINE
  5
79A
330
1F
100
AcDbEntity
  8
P-0000
  6
Continuous
 62
     7
100
AcDbLine
 10
198.0435109305253
 20
364.9148597075737
 30
0.0
 11
198.0435109305253
 21
362.3221152912543
 31
0.0
1001
ACME_LAYERS
1000
1
  0
LINE
  5
79B
330
1F
100
AcDbEntity
  8
P-0000
  6
Continuous
 62
     7
100
AcDbLine
 10
200.0435109305254
 20
360.9186456660796
 30
0.0
 11
199.4469805557005
 21
360.9186456660796
 31
0.0
1001
ACME_LAYERS
1000
1
  0
SPLINE
  5
79C
330
1F
100
AcDbEntity
  8
P-0000
  6
Continuous
 62
     3
100
AcDbSpline
210
0.0
220
0.0
230
1.0
 70
     8
 71
     3
 72
     8
 73
     4
 74
     0
 42
0.0000000001
 43
0.0000000001
 40
0.0
 40
0.0
 40
0.0
 40
0.0
 40
1.565389413088656
 40
1.565389413088656
 40
1.565389413088656
 40
1.565389413088656
 10
198.5477822468406
 20
312.4568668018874
 30
0.0
 10
199.0414282413808
 20
312.6302637737235
 30
0.0
 10
199.5402672727714
 20
312.7837297662036
 30
0.0
 10
200.0435109305254
 20
312.9186456660796
 30
0.0
  0
ARC
  5
79D
330
1F
100
AcDbEntity
  8
P-0000
  6
Continuous
 62
     7
100
AcDbCircle
 10
311.5733778637686
 20
371.9186456660805
 30
0.0
 40
4.0
100
AcDbArc
 50
90.0
 51
143.0000000000041
1001
ACME_LAYERS
1000
1
  0
ARC
  5
79E
330
1F
100
AcDbEntity
  8
P-0000
  6
Continuous
 62
     7
100
AcDbCircle
 10
311.5733778637686
 20
371.9186456660805
 30
0.0
 40
4.0
100
AcDbArc
 50
90.0
 51
143.0000000000041
1001
ACME_LAYERS
1000
1
  0
LINE
  5
79F
330
1F
100
AcDbEntity
  8
P-0000
  6
Continuous
 62
     7
100
AcDbLine
 10
306.7815648034834
 20
375.5295358049925
 30
0.0
 11
301.0503333802895
 21
367.9239348233346
 31
0.0
1001
ACME_LAYERS
1000
1
  0
LINE
  5
7A0
330
1F
100
AcDbEntity
  8
P-0000
  6
Continuous
 62
     7
100
AcDbLine
 10
336.3217141607915
 20
377.3827472812172
 30
0.0
 11
340.9979017714463
 21
374.6829491054255
 31
0.0
1001
ACME_LAYERS
1000
1
  0
LINE
  5
7A1
330
1F
100
AcDbEntity
  8
P-0000
  6
Continuous
 62
     7
100
AcDbLine
 10
335.3217141607915
 20
375.6506964736495
 30
0.0
 11
340.8576125456557
 21
372.4545440509424
 31
0.0
1001
ACME_LAYERS
1000
1
  0
LINE
  5
7A2
330
1F
100
AcDbEntity
  8
P-0000
  6
Continuous
 62
     7
100
AcDbLine
 10
334.3217141607925
 20
375.9186456660795
 30
0.0
 11
311.5733778637686
 21
375.9186456660795
 31
0.0
1001
ACME_LAYERS
1000
1
  0
ARC
  5
7A3
330
1F
100
AcDbEntity
  8
P-0000
  6
Continuous
 62
     7
100
AcDbCircle
 10
311.5733778637686
 20
371.9186456660805
 30
0.0
 40
6.0
100
AcDbArc
 50
90.0
 51
143.0000000000041
1001
ACME_LAYERS
1000
1
  0
LINE
  5
7A4
330
1F
100
AcDbEntity
  8
P-0000
  6
Continuous
 62
     7
100
AcDbLine
 10
362.2935109305176
 20
377.9186456660796
 30
0.0
 11
334.3217141607925
 21
377.9186456660796
 31
0.0
1001
ACME_LAYERS
1000
1
  0
ARC
  5
7A5
330
1F
100
AcDbEntity
  8
P-0000
  6
Continuous
 62
     7
100
AcDbCircle
 10
334.3217141607925
 20
373.9186456660795
 30
0.0
 40
4.000000000000023
100
AcDbArc
 50
60.00000000000272
 51
90.0
1001
ACME_LAYERS
1000
1
  0
ARC
  5
7A6
330
1F
100
AcDbEntity
  8
P-0000
  6
Continuous
 62
     7
100
AcDbCircle
 10
334.3217141607925
 20
373.9186456660795
 30
0.0
 40
2.000000000000205
100
AcDbArc
 50
60.00000000000272
 51
90.0
1001
ACME_LAYERS
1000
1
  0
LINE
  5
7A7
330
1F
100
AcDbEntity
  8
P-0000
  6
Continuous
 62
     7
100
AcDbLine
 10
334.3217141607925
 20
377.9186456660796
 30
0.0
 11
328.9036999591159
 21
377.9186456660796
 31
0.0
1001
ACME_LAYERS
1000
1
  0
LINE
  5
7A8
330
1F
100
AcDbEntity
  8
P-0000
  6
Continuous
 62
     7
100
AcDbLine
 10
328.9036999591159
 20
377.9186456660796
 30
0.0
 11
326.0776491800725
 21
377.9186456660796
 31
0.0
1001
ACME_LAYERS
1000
1
  0
HATCH
  5
7A9
330
1F
100
AcDbEntity
  8
P-0000
  6
Continuous
 62
     3
100
AcDbHatch
 10
0.0
 20
0.0
 30
0.0
210
0.0
220
0.0
230
1.0
  2
_U
 70
     0
 71
     0
 91
        1
 92
        1
 93
        7
 72
     1
 10
301.5392396142097
 20
312.4568668018874
 11
300.0435109305208
 21
312.9186456660804
 72
     1
 10
300.0435109305254
 20
312.9186456660796
 11
300.0435109305254
 21
360.9186456660796
 72
     1
 10
300.0435109305254
 20
360.9186456660796
 11
300.6400413053507
 21
360.9186456660796
 72
     1
 10
300.6400413053507
 20
360.9186456660796
 11
301.5435109305254
 21
360.0151760409044
 72
     1
 10
301.5435109305254
 20
360.0151760409044
 11
301.5435109305254
 21
313.9258296886855
 72
     1
 10
301.5435109305254
 20
313.9258296886855
 11
301.5435109305254
 21
313.3187502155966
 72
     1
 10
301.5435109305254
 20
313.3187502155966
 11
301.5392396142097
 21
312.4568668018874
 97
        0
 75
     0
 76
     0
 52
315.0
 41
2.0
 77
     0
 78
     1
 53
315.0
 43
958.0229548718703
 44
-23.86533474124167
 45
1.414213562373094
 46
1.414213562373094
 79
     0
 98
        1
 10
958.0229548718703
 20
-23.86533474124167
1001
ACME_LAYERS
1000
1
  0
LINE
  5
7AA
330
1F
100
AcDbEntity
  8
P-0000
  6
Continuous
 62
     7
100
AcDbLine
 10
301.5435109305254
 20
360.0151760409044
 30
0.0
 11
301.5435109305254
 21
312.4568668018874
 31
0.0
1001
ACME_LAYERS
1000
1
  0
LINE
  5
7AB
330
1F
100
AcDbEntity
  8
P-0000
  6
Continuous
 62
     7
100
AcDbLine
 10
300.0435109305254
 20
312.9186456660796
 30
0.0
 11
300.0435109305254
 21
360.9186456660796
 31
0.0
1001
ACME_LAYERS
1000
1
  0
LINE
  5
7AC
330
1F
100
AcDbEntity
  8
P-0000
  6
Continuous
 62
     7
100
AcDbLine
 10
302.0435109305254
 20
360.9186456660796
 30
0.0
 11
300.6400413053507
 21
360.9186456660796
 31
0.0
1001
ACME_LAYERS
1000
1
  0
ARC
  5
7AD
330
1F
100
AcDbEntity
  8
P-0000
  6
Continuous
 62
     7
100
AcDbCircle
 10
305.0435109305254
 20
364.9148597075737
 30
0.0
 40
5.000000000000214
100
AcDbArc
 50
143.0000000000041
 51
179.999999999987
1001
ACME_LAYERS
1000
1
  0
LINE
  5
7AE
330
1F
100
AcDbEntity
  8
P-0000
  6
Continuous
 62
     7
100
AcDbLine
 10
300.0435109305254
 20
360.9186456660796
 30
0.0
 11
300.0435109305254
 21
364.9148597075737
 31
0.0
1001
ACME_LAYERS
1000
1
  0
LINE
  5
7AF
330
1F
100
AcDbEntity
  8
P-0000
  6
Continuous
 62
     7
100
AcDbLine
 10
300.6400413053507
 20
360.9186456660796
 30
0.0
 11
300.0435109305254
 21
360.9186456660796
 31
0.0
1001
ACME_LAYERS
1000
1
  0
LINE
  5
7B0
330
1F
100
AcDbEntity
  8
P-0000
  6
Continuous
 62
     7
100
AcDbLine
 10
306.5648352311427
 20
371.9186456660805
 30
0.0
 11
302.6476044003834
 21
366.7203047770295
 31
0.0
1001
ACME_LAYERS
1000
1
  0
LINE
  5
7B1
330
1F
100
AcDbEntity
  8
P-0000
  6
Continuous
 62
     7
100
AcDbLine
 10
307.3710316265028
 20
372.9885044177513
 30
0.0
 11
306.5648352311427
 21
371.9186456660805
 31
0.0
1001
ACME_LAYERS
1000
1
  0
LINE
  5
7B2
330
1F
100
AcDbEntity
  8
P-0000
  6
Continuous
 62
     7
100
AcDbLine
 10
308.3788358235775
 20
374.3259057586883
 30
0.0
 11
307.3710316265028
 21
372.9885044177513
 31
0.0
1001
ACME_LAYERS
1000
1
  0
LINE
  5
7B3
330
1F
100
AcDbEntity
  8
P-0000
  6
Continuous
 62
     7
100
AcDbLine
 10
307.3710316265028
 20
372.9885044177513
 30
0.0
 11
306.5648352311427
 21
371.9186456660805
 31
0.0
1001
ACME_LAYERS
1000
1
  0
LINE
  5
7B4
330
1F
100
AcDbEntity
  8
P-0000
  6
Continuous
 62
     7
100
AcDbLine
 10
308.3788358235775
 20
374.3259057586883
 30
0.0
 11
307.3710316265028
 21
372.9885044177513
 31
0.0
1001
ACME_LAYERS
1000
1
  0
ARC
  5
7B5
330
1F
100
AcDbEntity
  8
P-0000
  6
Continuous
 62
     7
100
AcDbCircle
 10
305.0435109305254
 20
364.9148597075737
 30
0.0
 40
3.000000000000071
100
AcDbArc
 50
143.0000000000041
 51
180.0
1001
ACME_LAYERS
1000
1
  0
LINE
  5
7B6
330
1F
100
AcDbEntity
  8
P-0000
  6
Continuous
 62
     7
100
AcDbLine
 10
301.5435109306109
 20
360.8375402531174
 30
0.0
 11
301.5435109305254
 21
360.0151760409044
 31
0.0
1001
ACME_LAYERS
1000
1
  0
LINE
  5
7B7
330
1F
100
AcDbEntity
  8
P-0000
  6
Continuous
 62
     7
100
AcDbLine
 10
301.5435109305254
 20
360.9186456660796
 30
0.0
 11
301.5435109305254
 21
360.0151760409044
 31
0.0
1001
ACME_LAYERS
1000
1
  0
LINE
  5
7B8
330
1F
100
AcDbEntity
  8
P-0000
  6
Continuous
 62
     7
100
AcDbLine
 10
302.0435109305254
 20
360.8375402531174
 30
0.0
 11
302.0435109305254
 21
362.3221152912543
 31
0.0
1001
ACME_LAYERS
1000
1
  0
LINE
  5
7B9
330
1F
100
AcDbEntity
  8
P-0000
  6
Continuous
 62
     7
100
AcDbLine
 10
302.0435109305254
 20
362.3221152912543
 30
0.0
 11
302.0435109305254
 21
364.9148597075737
 31
0.0
1001
ACME_LAYERS
1000
1
  0
SPLINE
  5
7BA
330
1F
100
AcDbEntity
  8
P-0000
  6
Continuous
 62
     3
100
AcDbSpline
210
0.0
220
0.0
230
1.0
 70
     8
 71
     3
 72
     8
 73
     4
 74
     0
 42
0.0000000001
 43
0.0000000001
 40
0.0
 40
0.0
 40
0.0
 40
0.0
 40
1.565389413094596
 40
1.565389413094596
 40
1.565389413094596
 40
1.565389413094596
 10
301.5392396142097
 20
312.4568668018874
 30
0.0
 10
301.0455936196686
 20
312.6302637737244
 30
0.0
 10
300.5467545882743
 20
312.7837297662054
 30
0.0
 10
300.0435109305208
 20
312.9186456660804
 30
0.0
  0
ARC
  5
7BB
330
1F
100
AcDbEntity
  8
P-0000
  6
Continuous
 62
     7
100
AcDbCircle
 10
342.8576125456566
 20
375.9186456660795
 30
0.0
 40
1.999999999999868
100
AcDbArc
 50
240.0000000000027
 51
270.0
1001
ACME_LAYERS
1000
1
  0
ARC
  5
7BC
330
1F
100
AcDbEntity
  8
P-0000
  6
Continuous
 62
     7
100
AcDbCircle
 10
342.8576125456566
 20
375.9186456660795
 30
0.0
 40
3.999999999999741
100
AcDbArc
 50
240.0000000000253
 51
270.0
1001
ACME_LAYERS
1000
1
  0
LINE
  5
7BD
330
1F
100
AcDbEntity
  8
P-0000
  6
Continuous
 62
     7
100
AcDbLine
 10
340.9979017714463
 20
374.6829491054255
 30
0.0
 11
341.6211747531956
 21
374.3231022816344
 31
0.0
1001
ACME_LAYERS
1000
1
  0
LINE
  5
7BE
330
1F
100
AcDbEntity
  8
P-0000
  6
Continuous
 62
     3
100
AcDbLine
 10
341.7527688957534
 20
374.2471263680045
 30
0.0
 11
341.6211747531956
 21
374.3231022816344
 31
0.0
1001
ACME_LAYERS
1000
1
  0
LINE
  5
7BF
330
1F
100
AcDbEntity
  8
P-0000
  6
Continuous
 62
     7
100
AcDbLine
 10
341.6211747531956
 20
374.3231022816344
 30
0.0
 11
341.7527688957534
 21
374.2471263680045
 31
0.0
1001
ACME_LAYERS
1000
1
  0
LINE
  5
7C0
330
1F
100
AcDbEntity
  8
P-0000
  6
Continuous
 62
     3
100
AcDbLine
 10
341.6211747531956
 20
374.3231022816344
 30
0.0
 11
340.9979017714463
 21
374.6829491054255
 31
0.0
1001
ACME_LAYERS
1000
1
  0
LINE
  5
7C1
330
1F
100
AcDbEntity
  8
P-0000
  6
Continuous
 62
     7
100
AcDbLine
 10
341.7527688957534
 20
374.2471263680045
 30
0.0
 11
341.8576125456557
 21
374.1865948585113
 31
0.0
1001
ACME_LAYERS
1000
1
  0
LINE
  5
7C2
330
1F
100
AcDbEntity
  8
P-0000
  6
Continuous
 62
     7
100
AcDbLine
 10
301.5392396141956
 20
5.978517270984183
 30
0.0
 11
301.5392396142138
 21
267.1220139876193
 31
0.0
1001
ACME_LAYERS
1000
1
  0
LINE
  5
7C3
330
1F
100
AcDbEntity
  8
P-0000
  6
STRICHPUNKT
 62
     3
100
AcDbLine
 10
250.0435109305254
 20
494.2015433189653
 30
0.0
 11
250.0435109305254
 21
0.0000002798021796
 31
0.0
1001
ACME_LAYERS
1000
1
  0
LINE
  5
7C4
330
1F
100
AcDbEntity
  8
P-0000
  6
Continuous
 62
     7
100
AcDbLine
 10
198.5477822468397
 20
267.1220139876193
 30
0.0
 11
198.5477822468556
 21
5.978517270984183
 31
0.0
1001
ACME_LAYERS
1000
1
  0
LINE
  5
7C5
330
1F
100
AcDbEntity
  8
P-0000
  6
Continuous
 62
     3
100
AcDbLine
 10
300.1099739789165
 20
5.978517271046483
 30
0.0
 11
268.0640669891813
 21
5.978517271046483
 31
0.0
1001
ACME_LAYERS
1000
1
  0
LINE
  5
7C6
330
1F
100
AcDbEntity
  8
P-0000
  6
Continuous
 62
     7
100
AcDbLine
 10
300.4514002962883
 20
1.918645666079554
 30
0.0
 11
268.0640669891813
 21
1.918645666079554
 31
0.0
1001
ACME_LAYERS
1000
1
  0
LINE
  5
7C7
330
1F
100
AcDbEntity
  8
P-0000
  6
Continuous
 62
     3
100
AcDbLine
 10
232.0229548718694
 20
5.978517271046483
 30
0.0
 11
199.9770478821347
 21
5.978517271046483
 31
0.0
1001
ACME_LAYERS
1000
1
  0
LINE
  5
7C8
330
1F
100
AcDbEntity
  8
P-0000
  6
Continuous
 62
     7
100
AcDbLine
 10
232.0229548718694
 20
1.918645666079554
 30
0.0
 11
199.6356215647633
 21
1.918645666079554
 31
0.0
1001
ACME_LAYERS
1000
1
  0
LINE
  5
7C9
330
1F
100
AcDbEntity
  8
P-0000
  6
Continuous
 62
     7
100
AcDbLine
 10
198.5477822468474
 20
5.978517271014424
 30
0.0
 11
199.6356215647633
 21
1.918645666079554
 31
0.0
1001
ACME_LAYERS
1000
1
  0
LINE
  5
7CA
330
1F
100
AcDbEntity
  8
P-0000
  6
Continuous
 62
     3
100
AcDbLine
 10
268.0640669891813
 20
5.978517271046483
 30
0.0
 11
250.0435109305404
 21
5.978517271046483
 31
0.0
1001
ACME_LAYERS
1000
1
  0
LINE
  5
7CB
102
{ACAD_REACTORS
330
AA4
102
}
330
1F
100
AcDbEntity
  8
P-0000
  6
Continuous
 62
     7
100
AcDbLine
 10
268.0640669891813
 20
1.918645666079554
 30
0.0
 11
250.0435109305404
 21
1.918645666079554
 31
0.0
1001
ACME_LAYERS
1000
1
  0
LINE
  5
7CC
330
1F
100
AcDbEntity
  8
P-0000
  6
Continuous
 62
     3
100
AcDbLine
 10
250.0435109305104
 20
5.978517271046483
 30
0.0
 11
232.0229548718694
 21
5.978517271046483
 31
0.0
1001
ACME_LAYERS
1000
1
  0
LINE
  5
7CD
330
1F
100
AcDbEntity
  8
P-0000
  6
Continuous
 62
     7
100
AcDbLine
 10
250.0435109305104
 20
1.918645666079554
 30
0.0
 11
232.0229548718694
 21
1.918645666079554
 31
0.0
1001
ACME_LAYERS
1000
1
  0
LINE
  5
7CE
330
1F
100
AcDbEntity
  8
P-0000
  6
Continuous
 62
     7
100
AcDbLine
 10
300.4514002962883
 20
1.918645666079554
 30
0.0
 11
301.5392396142033
 21
5.978517271014424
 31
0.0
1001
ACME_LAYERS
1000
1
  0
LINE
  5
7CF
330
1F
100
AcDbEntity
  8
P-0000
  6
Continuous
 62
     7
100
AcDbLine
 10
166.0435109305385
 20
371.9186456660764
 30
0.0
 11
186.0435109305404
 21
371.9186456660946
 31
0.0
1001
ACME_LAYERS
1000
1
  0
HATCH
  5
7D0
330
1F
100
AcDbEntity
  8
AM_8
100
AcDbHatch
 10
0.0
 20
0.0
 30
0.0
210
0.0
220
0.0
230
1.0
  2
AR-HBONE
 70
     0
 71
     0
 91
        2
 92
        7
 72
     0
 73
     1
 93
        7
 10
129.1039810701313
 20
379.9186456660796
 10
0.000000888595423
 20
379.9186456660796
 10
0.000000888595423
 20
377.9186456660796
 10
92.73205169614264
 20
377.9186456660796
 10
101.5820516961426
 20
377.9186456660796
 10
109.8792815837505
 20
377.9186456660805
 10
129.1039810701313
 20
377.9186456660823
 97
        0
 92
        1
 93
        4
 72
     1
 10
165.0435109305254
 20
377.9186456660814
 11
165.0435109305254
 21
379.9186456660805
 72
     1
 10
165.0435109305254
 20
379.9186456660805
 11
138.4655835532367
 21
379.9186456660796
 72
     1
 10
138.4655835532367
 20
379.9186456660796
 11
138.4655835532367
 21
377.9186456660823
 72
     1
 10
138.4655835532367
 20
377.9186456660823
 11
165.0435109305254
 21
377.9186456660814
 97
        0
 75
     0
 76
     1
 52
0.0
 41
0.01
 77
     0
 78
     2
 53
45.0
 43
-397.6512606577924
 44
-241.4669999851556
 45
0.0000000000000001
 46
1.436840979371063
 79
     2
 49
3.048
 49
-1.016
 53
135.0
 43
-396.9328406577925
 44
-240.7485799851556
 45
0.0000000000000001
 46
1.436840979371063
 79
     2
 49
3.048
 49
-1.016
 47
0.1094729729406301
 98
        2
 10
83.51823180232532
 20
378.9784772347293
 10
149.8856863637324
 20
379.0879504771055
1001
ACAD
1010
0.0
1020
0.0
1030
0.0
  0
LINE
  5
7D1
330
1F
100
AcDbEntity
  8
P-0000
  6
Continuous
 62
     7
100
AcDbLine
 10
165.7217976583006
 20
377.9186456660796
 30
0.0
 11
203.0435109305386
 21
377.9186456660796
 31
0.0
1001
ACME_LAYERS
1000
1
  0
HATCH
  5
7D2
330
1F
100
AcDbEntity
  8
P-0000
  6
Continuous
 62
     3
100
AcDbHatch
 10
0.0
 20
0.0
 30
0.0
210
0.0
220
0.0
230
1.0
  2
_U
 70
     0
 71
     0
 91
        1
 92
        1
 93
        9
 72
     1
 10
85.0000008885736
 20
371.9186456660805
 11
84.00000088857451
 21
373.6506964736495
 72
     1
 10
84.00000088857451
 20
373.6506964736495
 11
88.36545912848258
 21
376.1710949635944
 72
     2
 10
90.36545912848259
 20
372.7069933484581
 40
4.0
 50
239.9999999999895
 51
270.0
 73
     0
 72
     2
 10
90.36545912848259
 20
372.7069933484581
 40
4.000000000000613
 50
270.0
 51
315.0000000000009
 73
     0
 72
     1
 10
93.1938862532297
 20
375.5354204732054
 11
93.89644749798163
 21
374.8328592284533
 72
     1
 10
93.89644749798163
 20
374.8328592284533
 11
92.48223393560877
 21
373.4186456660796
 72
     1
 10
92.48223393560877
 20
373.4186456660796
 11
91.77967269085547
 21
374.1212069108324
 72
     2
 10
90.36545912848259
 20
372.7069933484581
 40
2.000000000000115
 50
44.99999999999594
 51
120.0000000000099
 73
     1
 72
     1
 10
89.36545912848258
 20
374.4390441560272
 11
85.0000008885736
 21
371.9186456660805
 97
        0
 75
     0
 76
     0
 52
44.99999999999999
 41
2.0
 77
     0
 78
     1
 53
45.0
 43
401.8039524318054
 44
238.0277806325166
 45
-1.414213562373094
 46
1.414213562373094
 79
     0
 98
        1
 10
401.8039524318054
 20
238.0277806325166
1001
ACME_LAYERS
1000
1
  0
LINE
  5
7D3
330
1F
100
AcDbEntity
  8
P-0000
  6
Continuous
 62
     3
100
AcDbLine
 10
84.00000088857451
 20
373.6506964736495
 30
0.0
 11
88.36545912848258
 21
376.1710949635944
 31
0.0
1001
ACME_LAYERS
1000
1
  0
LINE
  5
7D4
330
1F
100
AcDbEntity
  8
P-0000
  6
Continuous
 62
     7
100
AcDbLine
 10
85.0000008885736
 20
371.9186456660805
 30
0.0
 11
89.36545912848258
 21
374.4390441560272
 31
0.0
1001
ACME_LAYERS
1000
1
  0
LINE
  5
7D5
330
1F
100
AcDbEntity
  8
P-0000
  6
Continuous
 62
     7
100
AcDbLine
 10
85.0000008885736
 20
371.9186456660805
 30
0.0
 11
89.36545912848258
 21
374.4390441560272
 31
0.0
1001
ACME_LAYERS
1000
1
  0
LINE
  5
7D6
330
1F
100
AcDbEntity
  8
P-0000
  6
Continuous
 62
     7
100
AcDbLine
 10
85.0000008885736
 20
371.9186456660805
 30
0.0
 11
109.5717976582973
 21
371.9186456660805
 31
0.0
1001
ACME_LAYERS
1000
1
  0
LINE
  5
7D7
102
{ACAD_REACTORS
330
AA4
102
}
330
1F
100
AcDbEntity
  8
P-0000
  6
Continuous
 62
     7
100
AcDbLine
 10
85.0000008885736
 20
371.9186456660805
 30
0.0
 11
84.00000088857451
 21
373.6506964736495
 31
0.0
1001
ACME_LAYERS
1000
1
  0
LINE
  5
7D8
330
1F
100
AcDbEntity
  8
P-0000
  6
Continuous
 62
     7
100
AcDbLine
 10
109.5717976582973
 20
371.9186456660805
 30
0.0
 11
147.5435109305526
 21
371.9186456660764
 31
0.0
1001
ACME_LAYERS
1000
1
  0
LINE
  5
7D9
330
1F
100
AcDbEntity
  8
P-0000
  6
Continuous
 62
     7
100
AcDbLine
 10
129.7935109305326
 20
373.9186456660795
 30
0.0
 11
137.7500008885736
 21
373.9186456660795
 31
0.0
1001
ACME_LAYERS
1000
1
  0
ARC
  5
7DA
330
1F
100
AcDbEntity
  8
P-0000
  6
Continuous
 62
     7
100
AcDbCircle
 10
109.5717976582973
 20
375.9186456660795
 30
0.0
 40
1.999999999999253
100
AcDbArc
 50
239.9999999999671
 51
270.0
1001
ACME_LAYERS
1000
1
  0
ARC
  5
7DB
330
1F
100
AcDbEntity
  8
P-0000
  6
Continuous
 62
     7
100
AcDbCircle
 10
109.5717976582973
 20
375.9186456660795
 30
0.0
 40
4.000000000000131
100
AcDbArc
 50
240.0000000000027
 51
270.0
1001
ACME_LAYERS
1000
1
  0
LINE
  5
7DC
330
1F
100
AcDbEntity
  8
P-0000
  6
Continuous
 62
     7
100
AcDbLine
 10
109.8500008885744
 20
373.9186456660795
 30
0.0
 11
104.0820516961425
 21
377.2487726850013
 31
0.0
1001
ACME_LAYERS
1000
1
  0
LINE
  5
7DD
330
1F
100
AcDbEntity
  8
P-0000
  6
Continuous
 62
     7
100
AcDbLine
 10
104.1345426486655
 20
374.4390441560272
 30
0.0
 11
107.5717976582964
 21
372.4545440509414
 31
0.0
1001
ACME_LAYERS
1000
1
  0
LINE
  5
7DE
330
1F
100
AcDbEntity
  8
P-0000
  6
Continuous
 62
     7
100
AcDbLine
 10
93.89644749798163
 20
374.8328592284533
 30
0.0
 11
99.60355427916649
 21
374.8328592284533
 31
0.0
1001
ACME_LAYERS
1000
1
  0
LINE
  5
7DF
330
1F
100
AcDbEntity
  8
P-0000
  6
Continuous
 62
     7
100
AcDbLine
 10
92.48223393560877
 20
373.4186456660796
 30
0.0
 11
101.0177678415398
 21
373.4186456660796
 31
0.0
1001
ACME_LAYERS
1000
1
  0
LINE
  5
7E0
330
1F
100
AcDbEntity
  8
P-0000
  6
Continuous
 62
     7
100
AcDbLine
 10
92.73205169614447
 20
377.9186456660796
 30
0.0
 11
101.5820516961426
 21
377.9186456660796
 31
0.0
1001
ACME_LAYERS
1000
1
  0
LINE
  5
7E1
330
1F
100
AcDbEntity
  8
P-0000
  6
Continuous
 62
     7
100
AcDbLine
 10
90.36545912848259
 20
376.7069933484595
 30
0.0
 11
103.1345426486655
 21
376.7069933484595
 31
0.0
1001
ACME_LAYERS
1000
1
  0
ARC
  5
7E2
330
1F
100
AcDbEntity
  8
P-0000
  6
Continuous
 62
     7
100
AcDbCircle
 10
92.73205169614264
 20
372.9186456660796
 30
0.0
 40
5.0
100
AcDbArc
 50
89.99999999997395
 51
119.9999999999972
1001
ACME_LAYERS
1000
1
  0
ARC
  5
7E3
330
1F
100
AcDbEntity
  8
P-0000
  6
Continuous
 62
     7
100
AcDbCircle
 10
90.36545912848259
 20
372.7069933484581
 30
0.0
 40
4.000000000000613
100
AcDbArc
 50
44.99999999999078
 51
90.0
1001
ACME_LAYERS
1000
1
  0
LINE
  5
7E4
330
1F
100
AcDbEntity
  8
P-0000
  6
Continuous
 62
     7
100
AcDbLine
 10
91.77967269085547
 20
374.1212069108324
 30
0.0
 11
92.48223393560877
 21
373.4186456660796
 31
0.0
1001
ACME_LAYERS
1000
1
  0
ARC
  5
7E5
330
1F
100
AcDbEntity
  8
P-0000
  6
Continuous
 62
     7
100
AcDbCircle
 10
90.36545912848259
 20
372.7069933484581
 30
0.0
 40
4.0
100
AcDbArc
 50
90.0
 51
120.0000000000329
1001
ACME_LAYERS
1000
1
  0
LINE
  5
7E6
330
1F
100
AcDbEntity
  8
P-0000
  6
Continuous
 62
     7
100
AcDbLine
 10
88.36545912848258
 20
376.1710949635944
 30
0.0
 11
90.23205169614264
 21
377.2487726850013
 31
0.0
1001
ACME_LAYERS
1000
1
  0
ARC
  5
7E7
330
1F
100
AcDbEntity
  8
P-0000
  6
Continuous
 62
     7
100
AcDbCircle
 10
90.36545912848259
 20
372.7069933484581
 30
0.0
 40
2.000000000000115
100
AcDbArc
 50
44.99999999999078
 51
120.0000000000329
1001
ACME_LAYERS
1000
1
  0
LINE
  5
7E8
330
1F
100
AcDbEntity
  8
P-0000
  6
Continuous
 62
     7
100
AcDbLine
 10
93.89644749798163
 20
374.8328592284533
 30
0.0
 11
92.48223393560877
 21
373.4186456660796
 31
0.0
1001
ACME_LAYERS
1000
1
  0
LINE
  5
7E9
330
1F
100
AcDbEntity
  8
P-0000
  6
Continuous
 62
     7
100
AcDbLine
 10
93.1938862532297
 20
375.5354204732054
 30
0.0
 11
93.89644749798163
 21
374.8328592284533
 31
0.0
1001
ACME_LAYERS
1000
1
  0
ARC
  5
7EA
330
1F
100
AcDbEntity
  8
P-0000
  6
Continuous
 62
     7
100
AcDbCircle
 10
103.1345426486655
 20
372.7069933484581
 30
0.0
 40
1.999999999999401
100
AcDbArc
 50
59.99999999996712
 51
135.0000000000092
1001
ACME_LAYERS
1000
1
  0
ARC
  5
7EB
330
1F
100
AcDbEntity
  8
P-0000
  6
Continuous
 62
     7
100
AcDbCircle
 10
101.5820516961426
 20
372.9186456660796
 30
0.0
 40
5.000000000000164
100
AcDbArc
 50
60.00000000000272
 51
90.0
1001
ACME_LAYERS
1000
1
  0
ARC
  5
7EC
330
1F
100
AcDbEntity
  8
P-0000
  6
Continuous
 62
     7
100
AcDbCircle
 10
103.1345426486655
 20
372.7069933484581
 30
0.0
 40
1.999999999999401
100
AcDbArc
 50
59.99999999996712
 51
135.0000000000092
1001
ACME_LAYERS
1000
1
  0
ARC
  5
7ED
330
1F
100
AcDbEntity
  8
P-0000
  6
Continuous
 62
     7
100
AcDbCircle
 10
103.1345426486655
 20
372.7069933484581
 30
0.0
 40
3.999999999998728
100
AcDbArc
 50
59.99999999996712
 51
90.0
1001
ACME_LAYERS
1000
1
  0
ARC
  5
7EE
330
1F
100
AcDbEntity
  8
P-0000
  6
Continuous
 62
     7
100
AcDbCircle
 10
103.1345426486655
 20
372.7069933484581
 30
0.0
 40
4.0
100
AcDbArc
 50
90.0
 51
135.0000000000092
1001
ACME_LAYERS
1000
1
  0
LINE
  5
7EF
330
1F
100
AcDbEntity
  8
P-0000
  6
Continuous
 62
     7
100
AcDbLine
 10
99.60355427916649
 20
374.8328592284533
 30
0.0
 11
100.3061155239183
 21
375.5354204732054
 31
0.0
1001
ACME_LAYERS
1000
1
  0
LINE
  5
7F0
330
1F
100
AcDbEntity
  8
P-0000
  6
Continuous
 62
     7
100
AcDbLine
 10
101.0177678415398
 20
373.4186456660796
 30
0.0
 11
101.7203290862926
 21
374.1212069108324
 31
0.0
1001
ACME_LAYERS
1000
1
  0
LINE
  5
7F1
330
1F
100
AcDbEntity
  8
P-0000
  6
Continuous
 62
     7
100
AcDbLine
 10
101.0177678415398
 20
373.4186456660796
 30
0.0
 11
99.60355427916649
 21
374.8328592284533
 31
0.0
1001
ACME_LAYERS
1000
1
  0
LINE
  5
7F2
330
1F
100
AcDbEntity
  8
P-0000
  6
Continuous
 62
     7
100
AcDbLine
 10
105.1345426486655
 20
376.1710949635944
 30
0.0
 11
108.5717976582973
 21
374.1865948585113
 31
0.0
1001
ACME_LAYERS
1000
1
  0
LINE
  5
7F3
330
1F
100
AcDbEntity
  8
P-0000
  6
Continuous
 62
     7
100
AcDbLine
 10
109.8500008885744
 20
373.9186456660795
 30
0.0
 11
129.7935109305326
 21
373.9186456660795
 31
0.0
1001
ACME_LAYERS
1000
1
  0
LINE
  5
7F4
330
1F
100
AcDbEntity
  8
P-0000
  6
Continuous
 62
     7
100
AcDbLine
 10
109.8500008885744
 20
373.9186456660795
 30
0.0
 11
109.5717976582973
 21
373.9186456660795
 31
0.0
1001
ACME_LAYERS
1000
1
  0
LINE
  5
7F5
330
1F
100
AcDbEntity
  8
P-0000
  6
Continuous
 62
     7
100
AcDbLine
 10
129.7282458675922
 20
387.1245655710237
 30
0.0
 11
129.7282458675922
 21
383.1245655710237
 31
0.0
1001
ACME_LAYERS
1000
1
  0
LINE
  5
7F6
330
1F
100
AcDbEntity
  8
P-0000
  6
Continuous
 62
     7
100
AcDbLine
 10
152.5435109305363
 20
371.9186456660764
 30
0.0
 11
166.0435109305385
 21
371.9186456660764
 31
0.0
1001
ACME_LAYERS
1000
1
  0
LINE
  5
7F7
330
1F
100
AcDbEntity
  8
P-0000
  6
Continuous
 62
     7
100
AcDbLine
 10
137.7500008885736
 20
373.9186456660795
 30
0.0
 11
157.1858992734355
 21
373.9186456660795
 31
0.0
1001
ACME_LAYERS
1000
1
  0
LINE
  5
7F8
330
1F
100
AcDbEntity
  8
P-0000
  6
Continuous
 62
     7
100
AcDbLine
 10
148.3047139906275
 20
371.9186456660805
 30
0.0
 11
157.1858992734355
 21
371.9186456660805
 31
0.0
1001
ACME_LAYERS
1000
1
  0
LINE
  5
7F9
330
1F
100
AcDbEntity
  8
P-0000
  6
Continuous
 62
     7
100
AcDbLine
 10
137.7282458675922
 20
387.1245655710237
 30
0.0
 11
137.7282458675922
 21
383.1245655710237
 31
0.0
1001
ACME_LAYERS
1000
1
  0
LINE
  5
7FA
330
1F
100
AcDbEntity
  8
P-0000
  6
Continuous
 62
     7
100
AcDbLine
 10
147.5435109305526
 20
371.9186456660764
 30
0.0
 11
148.3047139906275
 21
371.9186456660805
 31
0.0
1001
ACME_LAYERS
1000
1
  0
LINE
  5
7FB
330
1F
100
AcDbEntity
  8
P-0000
  6
Continuous
 62
     7
100
AcDbLine
 10
159.1858992734355
 20
372.4545440509414
 30
0.0
 11
164.7217976582997
 21
375.6506964736504
 31
0.0
1001
ACME_LAYERS
1000
1
  0
LINE
  5
7FC
330
1F
100
AcDbEntity
  8
P-0000
  6
Continuous
 62
     7
100
AcDbLine
 10
158.1858992734355
 20
374.1865948585105
 30
0.0
 11
163.7217976582988
 21
377.3827472812182
 31
0.0
1001
ACME_LAYERS
1000
1
  0
ARC
  5
7FD
330
1F
100
AcDbEntity
  8
P-0000
  6
Continuous
 62
     7
100
AcDbCircle
 10
157.1858992734355
 20
375.9186456660795
 30
0.0
 40
2.0
100
AcDbArc
 50
270.0
 51
300.0000000000329
1001
ACME_LAYERS
1000
1
  0
ARC
  5
7FE
330
1F
100
AcDbEntity
  8
P-0000
  6
Continuous
 62
     7
100
AcDbCircle
 10
165.7217976583006
 20
373.9186456660795
 30
0.0
 40
4.0
100
AcDbArc
 50
90.0
 51
119.9999999999972
1001
ACME_LAYERS
1000
1
  0
ARC
  5
7FF
330
1F
100
AcDbEntity
  8
P-0000
  6
Continuous
 62
     7
100
AcDbCircle
 10
165.4920431316814
 20
374.4733221602587
 30
0.0
 40
1.406942913943622
100
AcDbArc
 50
78.80050130599626
 51
123.1929568710204
1001
ACME_LAYERS
1000
1
  0
ARC
  5
800
330
1F
100
AcDbEntity
  8
P-0000
  6
Continuous
 62
     7
100
AcDbCircle
 10
157.1858992734355
 20
375.9186456660795
 30
0.0
 40
4.0
100
AcDbArc
 50
270.0
 51
299.9999999999973
1001
ACME_LAYERS
1000
1
  0
LINE
  5
801
330
1F
100
AcDbEntity
  8
P-0000
  6
Continuous
 62
     7
100
AcDbLine
 10
210.6731927440746
 20
377.9186456660796
 30
0.0
 11
250.0435109305404
 21
377.9186456660796
 31
0.0
1001
ACME_LAYERS
1000
1
  0
LINE
  5
802
330
1F
100
AcDbEntity
  8
P-0000
  6
Continuous
 62
     7
100
AcDbLine
 10
203.0435109305386
 20
377.9186456660796
 30
0.0
 11
250.0435109305404
 21
377.9186456660796
 31
0.0
1001
ACME_LAYERS
1000
1
  0
LINE
  5
803
330
1F
100
AcDbEntity
  8
P-0000
  6
Continuous
 62
     7
100
AcDbLine
 10
186.0435109305404
 20
371.9186456660946
 30
0.0
 11
193.5221866298975
 21
371.9186456660946
 31
0.0
1001
ACME_LAYERS
1000
1
  0
LINE
  5
804
330
1F
100
AcDbEntity
  8
P-0000
  6
Continuous
 62
     7
100
AcDbLine
 10
183.5392396142197
 20
378.1381777402103
 30
0.0
 11
183.5435109305326
 21
378.1220139876195
 31
0.0
1001
ACME_LAYERS
1000
1
  0
LINE
  5
805
330
1F
100
AcDbEntity
  8
P-0000
  6
STRICHPUNKT
 62
     3
100
AcDbLine
 10
250.0435109305386
 20
350.0605228971331
 30
0.0
 11
250.0435109305386
 21
349.6047095383005
 31
0.0
1001
ACME_LAYERS
1000
1
  0
LINE
  5
806
330
1F
100
AcDbEntity
  8
P-0000
  6
Continuous
 62
     7
100
AcDbLine
 10
116.2847823116926
 20
388.6245655710236
 30
0.0
 11
129.7847823116835
 21
388.6245655710236
 31
0.0
1001
ACME_LAYERS
1000
1
  0
LINE
  5
807
330
1F
100
AcDbEntity
  8
P-0000
  6
Continuous
 62
     7
100
AcDbLine
 10
122.1132094364284
 20
387.1245655710237
 30
0.0
 11
124.5508121496555
 21
387.1245655710237
 31
0.0
1001
ACME_LAYERS
1000
1
  0
LINE
  5
808
330
1F
100
AcDbEntity
  8
P-0000
  6
Continuous
 62
     7
100
AcDbLine
 10
250.0347823116754
 20
388.6245655710236
 30
0.0
 11
162.7847823116826
 21
388.6245655710236
 31
0.0
1001
ACME_LAYERS
1000
1
  0
LINE
  5
809
330
1F
100
AcDbEntity
  8
P-0000
  6
Continuous
 62
     7
100
AcDbLine
 10
122.1132094364284
 20
387.1245655710237
 30
0.0
 11
124.5508121496555
 21
387.1245655710237
 31
0.0
1001
ACME_LAYERS
1000
1
  0
LINE
  5
80A
330
1F
100
AcDbEntity
  8
P-0000
  6
Continuous
 62
     7
100
AcDbLine
 10
124.5508121496555
 20
387.1245655710237
 30
0.0
 11
125.9611406785156
 21
387.1245655710237
 31
0.0
1001
ACME_LAYERS
1000
1
  0
LINE
  5
80B
330
1F
100
AcDbEntity
  8
P-0000
  6
Continuous
 62
     7
100
AcDbLine
 10
124.5508121496555
 20
387.1245655710237
 30
0.0
 11
125.9611406785156
 21
387.1245655710237
 31
0.0
1001
ACME_LAYERS
1000
1
  0
LINE
  5
80C
330
1F
100
AcDbEntity
  8
P-0000
  6
Continuous
 62
     7
100
AcDbLine
 10
250.0347823116808
 20
386.8925147634554
 30
0.0
 11
163.7847823116835
 21
386.8925147634554
 31
0.0
1001
ACME_LAYERS
1000
1
  0
LINE
  5
80D
330
1F
100
AcDbEntity
  8
P-0000
  6
Continuous
 62
     7
100
AcDbLine
 10
162.7847823116826
 20
388.6245655710236
 30
0.0
 11
157.1867061003313
 21
385.3925147634555
 31
0.0
1001
ACME_LAYERS
1000
1
  0
LINE
  5
80E
330
1F
100
AcDbEntity
  8
P-0000
  6
Continuous
 62
     7
100
AcDbLine
 10
137.7847823116835
 20
388.6245655710236
 30
0.0
 11
162.7847823116826
 21
388.6245655710236
 31
0.0
1001
ACME_LAYERS
1000
1
  0
LINE
  5
80F
330
1F
100
AcDbEntity
  8
P-0000
  6
Continuous
 62
     7
100
AcDbLine
 10
163.7847823116835
 20
386.8925147634554
 30
0.0
 11
162.7847823116826
 21
388.6245655710236
 31
0.0
1001
ACME_LAYERS
1000
1
  0
LINE
  5
810
330
1F
100
AcDbEntity
  8
P-0000
  6
Continuous
 62
     7
100
AcDbLine
 10
162.7847823116826
 20
388.6245655710236
 30
0.0
 11
162.7128161491837
 21
388.6245655710236
 31
0.0
1001
ACME_LAYERS
1000
1
  0
LINE
  5
811
330
1F
100
AcDbEntity
  8
P-0000
  6
Continuous
 62
     7
100
AcDbLine
 10
125.9611406785156
 20
387.1245655710237
 30
0.0
 11
128.7847823116835
 21
387.1245655710237
 31
0.0
1001
ACME_LAYERS
1000
1
  0
LINE
  5
812
330
1F
100
AcDbEntity
  8
P-0000
  6
Continuous
 62
     3
100
AcDbLine
 10
110.3110617533143
 20
383.1245655710237
 30
0.0
 11
111.3828585230375
 21
383.1245655710237
 31
0.0
1001
ACME_LAYERS
1000
1
  0
LINE
  5
813
330
1F
100
AcDbEntity
  8
P-0000
  6
Continuous
 62
     3
100
AcDbLine
 10
110.8469601381757
 20
385.1245655710237
 30
0.0
 11
111.3828585230375
 21
385.1245655710237
 31
0.0
1001
ACME_LAYERS
1000
1
  0
LINE
  5
814
330
1F
100
AcDbEntity
  8
P-0000
  6
Continuous
 62
     3
100
AcDbLine
 10
110.3828585230376
 20
385.3925147634555
 30
0.0
 11
110.8469601381757
 21
385.1245655710237
 31
0.0
1001
ACME_LAYERS
1000
1
  0
LINE
  5
815
330
1F
100
AcDbEntity
  8
P-0000
  6
Continuous
 62
     7
100
AcDbLine
 10
148.2847823116835
 20
385.9529926957703
 30
0.0
 11
148.5274229988035
 21
385.7103520086503
 31
0.0
1001
ACME_LAYERS
1000
1
  0
LINE
  5
816
330
1F
100
AcDbEntity
  8
P-0000
  6
Continuous
 62
     7
100
AcDbLine
 10
119.2847823116835
 20
385.9529926957703
 30
0.0
 11
119.0421416245653
 21
385.7103520086503
 31
0.0
1001
ACME_LAYERS
1000
1
  0
LINE
  5
817
330
1F
100
AcDbEntity
  8
P-0000
  6
Continuous
 62
     7
100
AcDbLine
 10
128.7847823116835
 20
387.1245655710237
 30
0.0
 11
128.7847823116835
 21
385.1245655710237
 31
0.0
1001
ACME_LAYERS
1000
1
  0
LINE
  5
818
330
1F
100
AcDbEntity
  8
P-0000
  6
Continuous
 62
     7
100
AcDbLine
 10
138.7847823116835
 20
387.1245655710237
 30
0.0
 11
138.7847823116835
 21
385.1245655710237
 31
0.0
1001
ACME_LAYERS
1000
1
  0
LINE
  5
819
330
1F
100
AcDbEntity
  8
P-0000
  6
Continuous
 62
     7
100
AcDbLine
 10
103.7847823116853
 20
386.8925147634554
 30
0.0
 11
104.7847823116835
 21
388.6245655710236
 31
0.0
1001
ACME_LAYERS
1000
1
  0
LINE
  5
81A
330
1F
100
AcDbEntity
  8
P-0000
  6
Continuous
 62
     7
100
AcDbLine
 10
103.7847823116853
 20
386.8925147634554
 30
0.0
 11
109.3828585230376
 21
383.6604639558855
 31
0.0
1001
ACME_LAYERS
1000
1
  0
LINE
  5
81B
330
1F
100
AcDbEntity
  8
P-0000
  6
Continuous
 62
     7
100
AcDbLine
 10
104.7847823116835
 20
388.6245655710236
 30
0.0
 11
110.3828585230376
 21
385.3925147634555
 31
0.0
1001
ACME_LAYERS
1000
1
  0
LINE
  5
81C
330
1F
100
AcDbEntity
  8
P-0000
  6
Continuous
 62
     7
100
AcDbLine
 10
120.6989958740569
 20
384.5387791333974
 30
0.0
 11
120.4563551869364
 21
384.2961384462783
 31
0.0
1001
ACME_LAYERS
1000
1
  0
LINE
  5
81D
330
1F
100
AcDbEntity
  8
P-0000
  6
Continuous
 62
     7
100
AcDbLine
 10
146.8705687493097
 20
384.5387791333974
 30
0.0
 11
147.1132094364293
 21
384.2961384462783
 31
0.0
1001
ACME_LAYERS
1000
1
  0
LINE
  5
81E
330
1F
100
AcDbEntity
  8
P-0000
  6
Continuous
 62
     7
100
AcDbLine
 10
163.7847823116835
 20
386.8925147634554
 30
0.0
 11
158.1867061003313
 21
383.6604639558855
 31
0.0
1001
ACME_LAYERS
1000
1
  0
LINE
  5
81F
330
1F
100
AcDbEntity
  8
P-0000
  6
Continuous
 62
     7
100
AcDbLine
 10
156.1867061003304
 20
383.1245655710237
 30
0.0
 11
250.0347823116808
 21
383.1245655710237
 31
0.0
1001
ACME_LAYERS
1000
1
  0
LINE
  5
820
330
1F
100
AcDbEntity
  8
P-0000
  6
Continuous
 62
     7
100
AcDbLine
 10
156.1867061003304
 20
385.1245655710237
 30
0.0
 11
149.9416365611764
 21
385.1245655710237
 31
0.0
1001
ACME_LAYERS
1000
1
  0
LINE
  5
821
330
1F
100
AcDbEntity
  8
P-0000
  6
Continuous
 62
     7
100
AcDbLine
 10
156.1867061003304
 20
383.1245655710237
 30
0.0
 11
149.9416365611764
 21
383.1245655710237
 31
0.0
1001
ACME_LAYERS
1000
1
  0
LINE
  5
822
330
1F
100
AcDbEntity
  8
P-0000
  6
Continuous
 62
     7
100
AcDbLine
 10
110.3110617533134
 20
383.1245655710237
 30
0.0
 11
117.6279280621898
 21
383.1245655710237
 31
0.0
1001
ACME_LAYERS
1000
1
  0
LINE
  5
823
330
1F
100
AcDbEntity
  8
P-0000
  6
Continuous
 62
     7
100
AcDbLine
 10
128.7847823116835
 20
387.1245655710237
 30
0.0
 11
129.7847823116835
 21
387.1245655710237
 31
0.0
1001
ACME_LAYERS
1000
1
  0
LINE
  5
824
330
1F
100
AcDbEntity
  8
P-0000
  6
Continuous
 62
     7
100
AcDbLine
 10
125.9611406785156
 20
387.1245655710237
 30
0.0
 11
128.7847823116835
 21
387.1245655710237
 31
0.0
1001
ACME_LAYERS
1000
1
  0
LINE
  5
825
330
1F
100
AcDbEntity
  8
P-0000
  6
Continuous
 62
     7
100
AcDbLine
 10
138.7847823116835
 20
387.1245655710237
 30
0.0
 11
145.4563551869373
 21
387.1245655710237
 31
0.0
1001
ACME_LAYERS
1000
1
  0
LINE
  5
826
330
1F
100
AcDbEntity
  8
P-0000
  6
Continuous
 62
     7
100
AcDbLine
 10
137.7847823116835
 20
385.1245655710237
 30
0.0
 11
145.4563551869373
 21
385.1245655710237
 31
0.0
1001
ACME_LAYERS
1000
1
  0
LINE
  5
827
330
1F
100
AcDbEntity
  8
P-0000
  6
Continuous
 62
     7
100
AcDbLine
 10
122.1132094364293
 20
385.1245655710237
 30
0.0
 11
129.7282458675922
 21
385.1245655710237
 31
0.0
1001
ACME_LAYERS
1000
1
  0
LINE
  5
828
330
1F
100
AcDbEntity
  8
P-0000
  6
Continuous
 62
     7
100
AcDbLine
 10
137.7847823116835
 20
387.1245655710237
 30
0.0
 11
138.7847823116835
 21
387.1245655710237
 31
0.0
1001
ACME_LAYERS
1000
1
  0
LINE
  5
829
330
1F
100
AcDbEntity
  8
P-0000
  6
Continuous
 62
     7
100
AcDbLine
 10
111.3828585230375
 20
385.1245655710237
 30
0.0
 11
117.6279280621898
 21
385.1245655710237
 31
0.0
1001
ACME_LAYERS
1000
1
  0
LINE
  5
82A
330
1F
100
AcDbEntity
  8
P-0000
  6
Continuous
 62
     7
100
AcDbLine
 10
143.7847823116835
 20
387.1245655710237
 30
0.0
 11
138.7847823116835
 21
387.1245655710237
 31
0.0
1001
ACME_LAYERS
1000
1
  0
LINE
  5
82B
330
1F
100
AcDbEntity
  8
P-0000
  6
Continuous
 62
     7
100
AcDbLine
 10
138.7847823116835
 20
387.1245655710237
 30
0.0
 11
137.7847823116835
 21
387.1245655710237
 31
0.0
1001
ACME_LAYERS
1000
1
  0
LINE
  5
82C
330
1F
100
AcDbEntity
  8
P-0000
  6
Continuous
 62
     7
100
AcDbLine
 10
104.7847823116835
 20
388.6245655710236
 30
0.0
 11
116.2847823116926
 21
388.6245655710236
 31
0.0
1001
ACME_LAYERS
1000
1
  0
LINE
  5
82D
330
1F
100
AcDbEntity
  8
P-0000
  6
Continuous
 62
     7
100
AcDbLine
 10
125.3390841982636
 20
387.1245655710237
 30
0.0
 11
129.7847823116835
 21
387.1245655710237
 31
0.0
1001
ACME_LAYERS
1000
1
  0
LINE
  5
82E
330
1F
100
AcDbEntity
  8
P-0000
  6
Continuous
 62
     7
100
AcDbLine
 10
137.7847823116835
 20
387.1245655710237
 30
0.0
 11
138.7847823116835
 21
387.1245655710237
 31
0.0
1001
ACME_LAYERS
1000
1
  0
LINE
  5
82F
330
1F
100
AcDbEntity
  8
P-0000
  6
Continuous
 62
     7
100
AcDbLine
 10
250.0435109305404
 20
388.6245655710236
 30
0.0
 11
250.0347823117077
 21
388.6245655710236
 31
0.0
1001
ACME_LAYERS
1000
1
  0
LINE
  5
830
330
1F
100
AcDbEntity
  8
P-0000
  6
Continuous
 62
     7
100
AcDbLine
 10
250.0435109305404
 20
386.8925147634554
 30
0.0
 11
250.0347823116808
 21
386.8925147634554
 31
0.0
1001
ACME_LAYERS
1000
1
  0
LINE
  5
831
330
1F
100
AcDbEntity
  8
P-0000
  6
Continuous
 62
     7
100
AcDbLine
 10
250.0435109305404
 20
383.1245655710237
 30
0.0
 11
250.0347823116808
 21
383.1245655710237
 31
0.0
1001
ACME_LAYERS
1000
1
  0
LINE
  5
832
330
1F
100
AcDbEntity
  8
P-0000
  6
Continuous
 62
     7
100
AcDbLine
 10
128.2847823116844
 20
387.1245655710254
 30
0.0
 11
123.2847823116844
 21
387.1245655710254
 31
0.0
1001
ACME_LAYERS
1000
1
  0
LINE
  5
833
330
1F
100
AcDbEntity
  8
P-0000
  6
Continuous
 62
     7
100
AcDbLine
 10
138.7847823116835
 20
387.1245655710237
 30
0.0
 11
142.3390841982627
 21
387.1245655710237
 31
0.0
1001
ACME_LAYERS
1000
1
  0
LINE
  5
834
330
1F
100
AcDbEntity
  8
P-0000
  6
Continuous
 62
     7
100
AcDbLine
 10
138.7847823116835
 20
387.1245655710237
 30
0.0
 11
138.2847823116853
 21
387.1245655710254
 31
0.0
1001
ACME_LAYERS
1000
1
  0
LINE
  5
835
330
1F
100
AcDbEntity
  8
P-0000
  6
Continuous
 62
     7
100
AcDbLine
 10
129.7847823116835
 20
387.1245655710237
 30
0.0
 11
128.7847823116835
 21
387.1245655710237
 31
0.0
1001
ACME_LAYERS
1000
1
  0
LINE
  5
836
330
1F
100
AcDbEntity
  8
P-0000
  6
Continuous
 62
     7
100
AcDbLine
 10
145.4563551869373
 20
387.1245655710237
 30
0.0
 11
138.7847823116835
 21
387.1245655710237
 31
0.0
1001
ACME_LAYERS
1000
1
  0
ARC
  5
837
330
1F
100
AcDbEntity
  8
P-0000
  6
Continuous
 62
     7
100
AcDbCircle
 10
117.6279280621898
 20
387.1245655710237
 30
0.0
 40
4.0
100
AcDbArc
 50
270.0
 51
315.0000000000092
1001
ACME_LAYERS
1000
1
  0
ARC
  5
838
330
1F
100
AcDbEntity
  8
P-0000
  6
Continuous
 62
     7
100
AcDbCircle
 10
145.4563551869373
 20
383.1245655710237
 30
0.0
 40
4.000000000000613
100
AcDbArc
 50
44.99999999999078
 51
90.0
1001
ACME_LAYERS
1000
1
  0
ARC
  5
839
330
1F
100
AcDbEntity
  8
P-0000
  6
Continuous
 62
     7
100
AcDbCircle
 10
149.9416365611764
 20
387.1245655710237
 30
0.0
 40
3.999999999999423
100
AcDbArc
 50
224.9999999999908
 51
270.0
1001
ACME_LAYERS
1000
1
  0
ARC
  5
83A
330
1F
100
AcDbEntity
  8
P-0000
  6
Continuous
 62
     7
100
AcDbCircle
 10
156.1867061003304
 20
387.1245655710237
 30
0.0
 40
4.0
100
AcDbArc
 50
270.0
 51
299.9999999999973
1001
ACME_LAYERS
1000
1
  0
ARC
  5
83B
330
1F
100
AcDbEntity
  8
P-0000
  6
Continuous
 62
     7
100
AcDbCircle
 10
156.1867061003304
 20
387.1245655710237
 30
0.0
 40
2.0
100
AcDbArc
 50
270.0
 51
300.0000000000329
1001
ACME_LAYERS
1000
1
  0
ARC
  5
83C
330
1F
100
AcDbEntity
  8
P-0000
  6
Continuous
 62
     7
100
AcDbCircle
 10
149.9416365611764
 20
387.1245655710237
 30
0.0
 40
2.000000000000397
100
AcDbArc
 50
224.9999999999908
 51
270.0
1001
ACME_LAYERS
1000
1
  0
ARC
  5
83D
330
1F
100
AcDbEntity
  8
P-0000
  6
Continuous
 62
     7
100
AcDbCircle
 10
145.4563551869373
 20
383.1245655710237
 30
0.0
 40
2.000000000000311
100
AcDbArc
 50
44.99999999999078
 51
90.0
1001
ACME_LAYERS
1000
1
  0
ARC
  5
83E
330
1F
100
AcDbEntity
  8
P-0000
  6
Continuous
 62
     7
100
AcDbCircle
 10
122.1132094364293
 20
383.1245655710237
 30
0.0
 40
2.0
100
AcDbArc
 50
90.0
 51
135.0000000000092
1001
ACME_LAYERS
1000
1
  0
ARC
  5
83F
330
1F
100
AcDbEntity
  8
P-0000
  6
Continuous
 62
     7
100
AcDbCircle
 10
117.6279280621898
 20
387.1245655710237
 30
0.0
 40
2.0
100
AcDbArc
 50
270.0
 51
315.0000000000184
1001
ACME_LAYERS
1000
1
  0
ARC
  5
840
330
1F
100
AcDbEntity
  8
P-0000
  6
Continuous
 62
     7
100
AcDbCircle
 10
111.3828585230375
 20
387.1245655710237
 30
0.0
 40
1.999999999999425
100
AcDbArc
 50
239.9999999999671
 51
270.0
1001
ACME_LAYERS
1000
1
  0
ARC
  5
841
330
1F
100
AcDbEntity
  8
P-0000
  6
Continuous
 62
     7
100
AcDbCircle
 10
111.3828585230375
 20
387.1245655710237
 30
0.0
 40
4.000000000000401
100
AcDbArc
 50
240.0000000000027
 51
270.0
1001
ACME_LAYERS
1000
1
  0
ARC
  5
842
330
1F
100
AcDbEntity
  8
P-0000
  6
Continuous
 62
     7
100
AcDbCircle
 10
122.1132094364293
 20
383.1245655710237
 30
0.0
 40
4.0
100
AcDbArc
 50
90.00000000002605
 51
135.0000000000092
1001
ACME_LAYERS
1000
1
  0
HATCH
  5
843
330
1F
100
AcDbEntity
  8
P-0000
  6
Continuous
 62
     3
100
AcDbHatch
 10
0.0
 20
0.0
 30
0.0
210
0.0
220
0.0
230
1.0
  2
_U
 70
     0
 71
     0
 91
        1
 92
        1
 93
       19
 72
     1
 10
162.7847823116826
 20
388.6245655710236
 11
157.1867061003313
 21
385.3925147634555
 72
     1
 10
157.1867061003313
 20
385.3925147634555
 11
156.7226044851936
 21
385.1245655710237
 72
     1
 10
156.7226044851936
 20
385.1245655710237
 11
156.1867061003313
 21
385.1245655710237
 72
     1
 10
156.1867061003304
 20
385.1245655710237
 11
149.9416365611764
 21
385.1245655710237
 72
     1
 10
149.9416365611764
 20
385.1245655710237
 11
149.1132094364306
 21
385.1245655710237
 72
     1
 10
149.1132094364306
 20
385.1245655710237
 11
148.5274229988035
 21
385.7103520086494
 72
     1
 10
148.5274229988035
 20
385.7103520086503
 11
148.2847823116835
 21
385.9529926957703
 72
     2
 10
145.4563551869373
 20
383.1245655710237
 40
4.000000000000613
 50
44.99999999999911
 51
89.99999999999998
 73
     1
 72
     1
 10
145.4563551869373
 20
387.1245655710237
 11
138.7847823116835
 21
387.1245655710237
 72
     1
 10
138.7847823116835
 20
387.1245655710237
 11
138.7847823116835
 21
385.1245655710244
 72
     1
 10
138.7847823116835
 20
385.1245655710237
 11
145.4563551869364
 21
385.1245655710237
 72
     1
 10
145.4563551869373
 20
385.1245655710237
 11
146.2847823116835
 21
385.1245655710237
 72
     1
 10
146.2847823116835
 20
385.1245655710237
 11
146.8705687493097
 21
384.5387791333974
 72
     1
 10
146.8705687493097
 20
384.5387791333974
 11
147.1132094364293
 21
384.2961384462783
 72
     2
 10
149.9416365611764
 20
387.1245655710237
 40
3.999999999999423
 50
224.9999999999822
 51
270.0
 73
     1
 72
     1
 10
149.9416365611764
 20
383.1245655710237
 11
156.1867061003313
 21
383.1245655710237
 72
     2
 10
156.1867061003304
 20
387.1245655710237
 40
4.0
 50
270.0
 51
299.9999999999967
 73
     1
 72
     1
 10
158.1867061003313
 20
383.6604639558855
 11
163.7847823116835
 21
386.8925147634554
 72
     1
 10
163.7847823116835
 20
386.8925147634554
 11
162.7847823116835
 21
388.6245655710236
 97
        0
 75
     0
 76
     0
 52
44.99999999999999
 41
3.0
 77
     0
 78
     1
 53
45.0
 43
190.7516542967887
 44
523.7505310653983
 45
-2.121320343559641
 46
2.121320343559641
 79
     0
 98
        1
 10
190.7516542967887
 20
523.7505310653983
1001
ACME_LAYERS
1000
1
  0
HATCH
  5
844
330
1F
100
AcDbEntity
  8
P-0000
  6
Continuous
 62
     3
100
AcDbHatch
 10
0.0
 20
0.0
 30
0.0
210
0.0
220
0.0
230
1.0
  2
_U
 70
     0
 71
     0
 91
        1
 92
        1
 93
       19
 72
     2
 10
117.6279280621898
 20
387.1245655710237
 40
2.0
 50
270.0
 51
315.0000000000351
 73
     1
 72
     1
 10
119.0421416245653
 20
385.7103520086503
 11
119.2847823116835
 21
385.9529926957703
 72
     2
 10
122.1132094364293
 20
383.1245655710237
 40
4.0
 50
224.9999999999992
 51
269.9999999999739
 73
     0
 72
     1
 10
122.1132094364284
 20
387.1245655710237
 11
124.5508121496555
 21
387.1245655710237
 72
     1
 10
124.5508121496555
 20
387.1245655710237
 11
125.9611406785156
 21
387.1245655710237
 72
     1
 10
125.9611406785156
 20
387.1245655710237
 11
128.7847823116835
 21
387.1245655710237
 72
     1
 10
128.7847823116835
 20
387.1245655710237
 11
128.7847823116835
 21
385.1245655710244
 72
     1
 10
128.7847823116835
 20
385.1245655710237
 11
122.1132094364293
 21
385.1245655710237
 72
     1
 10
122.1132094364293
 20
385.1245655710237
 11
121.2847823116835
 21
385.1245655710237
 72
     1
 10
121.2847823116835
 20
385.1245655710237
 11
120.6989958740569
 21
384.5387791333974
 72
     1
 10
120.6989958740569
 20
384.5387791333974
 11
120.4563551869364
 21
384.2961384462783
 72
     2
 10
117.6279280621898
 20
387.1245655710237
 40
4.0
 50
44.99999999998212
 51
90.00000000000001
 73
     0
 72
     1
 10
117.6279280621898
 20
383.1245655710237
 11
111.3828585230375
 21
383.1245655710237
 72
     2
 10
111.3828585230375
 20
387.1245655710237
 40
4.000000000000401
 50
90.00000000000001
 51
119.9999999999967
 73
     0
 72
     1
 10
109.3828585230376
 20
383.6604639558855
 11
103.7847823116853
 21
386.8925147634554
 72
     1
 10
103.7847823116853
 20
386.8925147634554
 11
104.7847823116835
 21
388.6245655710236
 72
     1
 10
104.7847823116835
 20
388.6245655710236
 11
110.3828585230376
 21
385.3925147634555
 72
     2
 10
111.3828585230375
 20
387.1245655710237
 40
1.999999999999425
 50
239.9999999999905
 51
270.0
 73
     1
 72
     1
 10
111.3828585230375
 20
385.1245655710237
 11
117.6279280621898
 21
385.1245655710237
 97
        0
 75
     0
 76
     0
 52
44.99999999999999
 41
5.0
 77
     0
 78
     1
 53
45.0
 43
190.7516542967887
 44
523.7505310653983
 45
-3.535533905932736
 46
3.535533905932738
 79
     0
 98
        1
 10
190.7516542967887
 20
523.7505310653983
1001
ACME_LAYERS
1000
1
  0
LINE
  5
845
330
1F
100
AcDbEntity
  8
P-0000
  6
Continuous
 62
     7
100
AcDbLine
 10
371.3022395493967
 20
388.6245655710236
 30
0.0
 11
361.3022395493967
 21
388.6245655710236
 31
0.0
1001
ACME_LAYERS
1000
1
  0
LINE
  5
846
330
1F
100
AcDbEntity
  8
P-0000
  6
Continuous
 62
     7
100
AcDbLine
 10
258.5522395493967
 20
388.6245655710236
 30
0.0
 11
255.0522395493967
 21
388.6245655710236
 31
0.0
1001
ACME_LAYERS
1000
1
  0
LINE
  5
847
330
1F
100
AcDbEntity
  8
P-0000
  6
Continuous
 62
     7
100
AcDbLine
 10
255.0522395493967
 20
388.6245655710236
 30
0.0
 11
250.0522395493967
 21
388.6245655710236
 31
0.0
1001
ACME_LAYERS
1000
1
  0
LINE
  5
848
330
1F
100
AcDbEntity
  8
P-0000
  6
Continuous
 62
     7
100
AcDbLine
 10
156.1519246772272
 20
383.1245655710237
 30
0.0
 11
149.9068551380724
 21
383.1245655710237
 31
0.0
1001
ACME_LAYERS
1000
1
  0
LINE
  5
849
330
1F
100
AcDbEntity
  8
P-0000
  6
Continuous
 62
     7
100
AcDbLine
 10
109.8792815837505
 20
383.1245655710237
 30
0.0
 11
117.6279280621916
 21
383.1245655710237
 31
0.0
1001
ACME_LAYERS
1000
1
  0
LINE
  5
84A
330
1F
100
AcDbEntity
  8
P-0000
  6
Continuous
 62
     7
100
AcDbLine
 10
156.1867061003327
 20
383.1245655710237
 30
0.0
 11
149.9416365611787
 21
383.1245655710237
 31
0.0
1001
ACME_LAYERS
1000
1
  0
LINE
  5
84B
330
1F
100
AcDbEntity
  8
P-0000
  6
Continuous
 62
     7
100
AcDbLine
 10
109.8792815837505
 20
377.9186456660805
 30
0.0
 11
129.7282458675936
 21
377.9186456660823
 31
0.0
1001
ACME_LAYERS
1000
1
  0
LINE
  5
84C
330
1F
100
AcDbEntity
  8
P-0000
  6
Continuous
 62
     7
100
AcDbLine
 10
137.7282458675922
 20
377.9186456660823
 30
0.0
 11
165.7217976583006
 21
377.9186456660814
 31
0.0
1001
ACME_LAYERS
1000
1
  0
LINE
  5
84D
330
1F
100
AcDbEntity
  8
P-0000
  6
Continuous
 62
     7
100
AcDbLine
 10
92.73205169614264
 20
377.9186456660796
 30
0.0
 11
0.000000888595423
 21
377.9186456660796
 31
0.0
1001
ACME_LAYERS
1000
1
  0
LINE
  5
84E
330
1F
100
AcDbEntity
  8
P-0000
  6
Continuous
 62
     7
100
AcDbLine
 10
157.2151799686253
 20
379.9186456660796
 30
0.0
 11
157.2151799686253
 21
383.1245655710237
 31
0.0
1001
ACME_LAYERS
1000
1
  0
LINE
  5
84F
102
{ACAD_REACTORS
330
8FC
102
}
330
1F
100
AcDbEntity
  8
0
100
AcDbLine
 10
0.000000888595423
 20
379.9186456660796
 30
0.0
 11
0.000000888595423
 21
377.9186456660796
 31
0.0
  0
LINE
  5
850
330
1F
100
AcDbEntity
  8
0
100
AcDbLine
 10
157.2151799686253
 20
377.9186456660814
 30
0.0
 11
157.1858992734355
 21
373.9186456660795
 31
0.0
  0
LINE
  5
851
330
1F
100
AcDbEntity
  8
0
100
AcDbLine
 10
109.8500008885726
 20
373.9186456660795
 30
0.0
 11
109.8500008885726
 21
377.9186456660805
 31
0.0
  0
LINE
  5
852
330
1F
100
AcDbEntity
  8
0
100
AcDbLine
 10
129.7282458675922
 20
387.1245655710237
 30
0.0
 11
129.7282458675922
 21
373.9186456660795
 31
0.0
  0
LINE
  5
853
330
1F
100
AcDbEntity
  8
0
100
AcDbLine
 10
137.7282458675922
 20
387.1245655710237
 30
0.0
 11
137.7282458675922
 21
373.9186456660795
 31
0.0
  0
LINE
  5
854
330
1F
100
AcDbEntity
  8
0
100
AcDbLine
 10
109.8792815837505
 20
377.9186456660805
 30
0.0
 11
101.5820516961426
 21
377.9186456660796
 31
0.0
  0
LINE
  5
855
330
1F
100
AcDbEntity
  8
AM_5
100
AcDbLine
 10
407.3549701649348
 20
377.9186456660796
 30
0.0
 11
449.3283015705181
 21
377.9186456660796
 31
0.0
  0
LINE
  5
856
330
1F
100
AcDbEntity
  8
0
100
AcDbLine
 10
0.000000888595423
 20
379.9186456660796
 30
0.0
 11
129.7282458675922
 21
379.9186456660796
 31
0.0
  0
LINE
  5
857
330
1F
100
AcDbEntity
  8
0
100
AcDbLine
 10
137.7282458675922
 20
379.9186456660796
 30
0.0
 11
250.0435109305404
 21
379.9186456660796
 31
0.0
  0
LINE
  5
858
330
1F
100
AcDbEntity
  8
0
100
AcDbLine
 10
109.8792815837505
 20
383.1245655710237
 30
0.0
 11
109.8792815837505
 21
379.9186456660796
 31
0.0
  0
LINE
  5
859
330
1F
100
AcDbEntity
  8
0
100
AcDbLine
 10
129.1039810701313
 20
379.9186456660796
 30
0.0
 11
129.1039810701313
 21
377.9186456660823
 31
0.0
  0
LINE
  5
85A
330
1F
100
AcDbEntity
  8
0
100
AcDbLine
 10
138.4655835532367
 20
379.9186456660796
 30
0.0
 11
138.4655835532367
 21
377.9186456660823
 31
0.0
  0
LINE
  5
85B
330
1F
100
AcDbEntity
  8
P-0000
  6
Continuous
 62
     7
100
AcDbLine
 10
334.0435109305427
 20
371.9186456660764
 30
0.0
 11
314.0435109305418
 21
371.9186456660946
 31
0.0
1001
ACME_LAYERS
1000
1
  0
HATCH
  5
85C
330
1F
100
AcDbEntity
  8
AM_8
100
AcDbHatch
 10
0.0
 20
0.0
 30
0.0
210
0.0
220
0.0
230
1.0
  2
AR-HBONE
 70
     0
 71
     0
 91
        2
 92
        7
 72
     0
 73
     1
 93
        7
 10
370.9830407909508
 20
379.9186456660796
 10
370.9830407909508
 20
377.9186456660823
 10
390.2077402773307
 20
377.9186456660805
 10
398.5049701649387
 20
377.9186456660796
 10
407.3549701649366
 20
377.9186456660796
 10
500.0870209724862
 20
377.9186456660796
 10
500.0870209724862
 20
379.9186456660796
 97
        0
 92
        1
 93
        4
 72
     1
 10
335.0331539576164
 20
379.9186456660796
 11
335.0347786501784
 21
377.9186456660814
 72
     1
 10
335.0347786501784
 20
377.9186456660814
 11
361.6214383078445
 21
377.9186456660823
 72
     1
 10
361.6214383078445
 20
377.9186456660823
 11
361.6214383078445
 21
379.9186456660796
 72
     1
 10
361.6214383078445
 20
379.9186456660796
 11
335.0331539576164
 21
379.9186456660796
 97
        0
 75
     0
 76
     1
 52
0.0
 41
0.01
 77
     0
 78
     2
 53
135.0
 43
897.7382825188739
 44
-241.4669999851556
 45
-0.0000000000000001
 46
1.436840979371063
 79
     2
 49
3.048
 49
-1.016
 53
45.0
 43
897.0198625188736
 44
-240.7485799851556
 45
-0.0000000000000001
 46
1.436840979371063
 79
     2
 49
3.048
 49
-1.016
 47
0.1094729729406301
 98
        2
 10
416.5687900587553
 20
378.9784772347293
 10
350.2013354973487
 20
379.0879504771055
1001
ACAD
1010
0.0
1020
0.0
1030
0.0
  0
LINE
  5
85D
330
1F
100
AcDbEntity
  8
P-0000
  6
Continuous
 62
     7
100
AcDbLine
 10
334.3652242027815
 20
377.9186456660796
 30
0.0
 11
297.0435109305427
 21
377.9186456660796
 31
0.0
1001
ACME_LAYERS
1000
1
  0
HATCH
  5
85E
330
1F
100
AcDbEntity
  8
P-0000
  6
Continuous
 62
     3
100
AcDbHatch
 10
0.0
 20
0.0
 30
0.0
210
0.0
220
0.0
230
1.0
  2
_U
 70
     0
 71
     0
 91
        1
 92
        1
 93
        9
 72
     1
 10
415.0870209725074
 20
371.9186456660805
 11
416.0870209725076
 21
373.6506964736495
 72
     1
 10
416.0870209725076
 20
373.6506964736495
 11
411.7215627325986
 21
376.1710949635944
 72
     2
 10
409.7215627325986
 20
372.7069933484581
 40
4.0
 50
419.9999999999893
 51
450.0
 73
     1
 72
     2
 10
409.7215627325986
 20
372.7069933484581
 40
4.000000000000613
 50
450.0
 51
495.0000000000009
 73
     1
 72
     1
 10
406.8931356078515
 20
375.5354204732054
 11
406.1905743630996
 21
374.8328592284533
 72
     1
 10
406.1905743630996
 20
374.8328592284533
 11
407.6047879254747
 21
373.4186456660796
 72
     1
 10
407.6047879254725
 20
373.4186456660796
 11
408.3073491702248
 21
374.1212069108324
 72
     2
 10
409.7215627325986
 20
372.7069933484581
 40
2.000000000000115
 50
-135.000000000004
 51
-59.99999999999011
 73
     0
 72
     1
 10
410.7215627325984
 20
374.4390441560272
 11
415.0870209725061
 21
371.9186456660805
 97
        0
 75
     0
 76
     0
 52
44.99999999999999
 41
2.0
 77
     0
 78
     1
 53
135.0
 43
98.28306942927568
 44
238.0277806325166
 45
1.414213562373094
 46
1.414213562373094
 79
     0
 98
        1
 10
98.28306942927568
 20
238.0277806325166
1001
ACME_LAYERS
1000
1
  0
LINE
  5
85F
330
1F
100
AcDbEntity
  8
P-0000
  6
Continuous
 62
     3
100
AcDbLine
 10
416.0870209725076
 20
373.6506964736495
 30
0.0
 11
411.7215627325986
 21
376.1710949635944
 31
0.0
1001
ACME_LAYERS
1000
1
  0
LINE
  5
860
330
1F
100
AcDbEntity
  8
P-0000
  6
Continuous
 62
     7
100
AcDbLine
 10
415.0870209725074
 20
371.9186456660805
 30
0.0
 11
410.7215627325984
 21
374.4390441560272
 31
0.0
1001
ACME_LAYERS
1000
1
  0
LINE
  5
861
330
1F
100
AcDbEntity
  8
P-0000
  6
Continuous
 62
     7
100
AcDbLine
 10
415.0870209725074
 20
371.9186456660805
 30
0.0
 11
410.7215627325984
 21
374.4390441560272
 31
0.0
1001
ACME_LAYERS
1000
1
  0
LINE
  5
862
330
1F
100
AcDbEntity
  8
P-0000
  6
Continuous
 62
     7
100
AcDbLine
 10
415.0870209725074
 20
371.9186456660805
 30
0.0
 11
390.5152242027834
 21
371.9186456660805
 31
0.0
1001
ACME_LAYERS
1000
1
  0
LINE
  5
863
330
1F
100
AcDbEntity
  8
P-0000
  6
Continuous
 62
     7
100
AcDbLine
 10
415.0870209725074
 20
371.9186456660805
 30
0.0
 11
416.0870209725076
 21
373.6506964736495
 31
0.0
1001
ACME_LAYERS
1000
1
  0
LINE
  5
864
330
1F
100
AcDbEntity
  8
P-0000
  6
Continuous
 62
     7
100
AcDbLine
 10
390.5152242027834
 20
371.9186456660805
 30
0.0
 11
352.5435109305295
 21
371.9186456660764
 31
0.0
1001
ACME_LAYERS
1000
1
  0
HATCH
  5
865
330
1F
100
AcDbEntity
  8
AM_8
100
AcDbHatch
 10
0.0
 20
0.0
 30
0.0
210
0.0
220
0.0
230
1.0
  2
ANSI37
 70
     0
 71
     0
 91
        5
 92
        7
 72
     0
 73
     1
 93
        5
 10
370.3587759934884
 20
377.9186456660823
 10
390.2077402773307
 20
377.9186456660805
 10
390.2370209725086
 20
377.9186456660805
 10
390.2370209725086
 20
373.9186456660795
 10
370.3587759934884
 20
373.9186456660795
 97
        0
 92
        7
 72
     1
 73
     1
 93
        8
 10
370.3587759934876
 20
385.1245655710237
 42
0.0
 10
377.9738124246514
 20
385.1245655710237
 42
-0.1989123673796753
 10
379.3880259870243
 20
384.5387791333974
 42
0.0
 10
379.6306666741448
 20
384.2961384462783
 42
0.198912367379606
 10
382.4590937988905
 20
383.1245655710237
 42
0.0
 10
390.2077402773307
 20
383.1245655710237
 42
0.0
 10
390.2077402773307
 20
379.9186456660796
 42
0.0
 10
370.3587759934884
 20
379.9186456660796
 42
0.0
 97
        0
 92
        7
 72
     0
 73
     1
 93
       11
 10
342.8718418924554
 20
383.1245655710237
 10
343.9003157607495
 20
383.1245655710237
 10
350.1453852999025
 20
383.1245655710237
 10
350.1801667230084
 20
383.1245655710237
 10
351.8022395493972
 20
383.1245655710237
 10
362.3022395493972
 20
383.1245655710237
 10
362.3022395493972
 20
389.1245655710254
 10
362.3587759934884
 20
389.1245655710254
 10
362.3587759934884
 20
387.1245655710237
 10
362.3587759934884
 20
379.9186456660796
 10
342.8718418924554
 20
379.9186456660796
 97
        0
 92
       23
 72
     1
 73
     1
 93
        7
 10
352.9738124246514
 20
384.2961384462783
 42
0.0
 10
353.2164531117715
 20
384.5387791333974
 42
-0.1989123673796396
 10
354.6306666741448
 20
385.1245655710237
 42
0.0
 10
362.3022395493972
 20
385.1245655710237
 42
0.0
 10
362.3022395493972
 20
383.1245655710237
 42
0.0
 10
351.8022395493972
 20
383.1245655710237
 42
0.0
 10
350.1453852999043
 20
383.1245655710237
 42
0.1989123673797568
 97
        0
 92
        7
 72
     0
 73
     1
 93
        5
 10
342.8718418924568
 20
377.9186456660814
 10
362.3587759934884
 20
377.9186456660823
 10
362.3587759934884
 20
373.9186456660795
 10
362.3370209725085
 20
373.9186456660795
 10
342.9011225876457
 20
373.9186456660795
 97
        0
 75
     0
 76
     1
 52
0.0
 41
0.5
 77
     0
 78
     2
 53
135.0
 43
897.7382825188739
 44
-241.4669999851556
 45
1.122532015133643
 46
1.122532015133643
 79
     0
 53
45.0
 43
897.7382825188739
 44
-241.4669999851556
 45
1.122532015133643
 46
-1.122532015133643
 79
     0
 47
0.0400806174687128
 98
        5
 10
375.3393389535536
 20
375.9039056938405
 10
375.3840614899413
 20
380.9556194393085
 10
359.5591315177636
 20
381.4041316116177
 10
359.1982607941436
 20
383.8891303470641
 10
357.2335137281157
 20
376.7146990234983
1001
ACAD
1010
0.0
1020
0.0
1030
0.0
  0
LINE
  5
866
330
1F
100
AcDbEntity
  8
P-0000
  6
Continuous
 62
     7
100
AcDbLine
 10
370.2935109305486
 20
373.9186456660795
 30
0.0
 11
362.3370209725085
 21
373.9186456660795
 31
0.0
1001
ACME_LAYERS
1000
1
  0
ARC
  5
867
330
1F
100
AcDbEntity
  8
P-0000
  6
Continuous
 62
     7
100
AcDbCircle
 10
390.5152242027834
 20
375.9186456660795
 30
0.0
 40
1.999999999999253
100
AcDbArc
 50
270.0
 51
300.0000000000329
1001
ACME_LAYERS
1000
1
  0
ARC
  5
868
330
1F
100
AcDbEntity
  8
P-0000
  6
Continuous
 62
     7
100
AcDbCircle
 10
390.5152242027834
 20
375.9186456660795
 30
0.0
 40
4.000000000000131
100
AcDbArc
 50
270.0
 51
299.9999999999973
1001
ACME_LAYERS
1000
1
  0
LINE
  5
869
330
1F
100
AcDbEntity
  8
P-0000
  6
Continuous
 62
     7
100
AcDbLine
 10
390.2370209725063
 20
373.9186456660795
 30
0.0
 11
396.0049701649386
 21
377.2487726850013
 31
0.0
1001
ACME_LAYERS
1000
1
  0
LINE
  5
86A
330
1F
100
AcDbEntity
  8
P-0000
  6
Continuous
 62
     7
100
AcDbLine
 10
395.9524792124152
 20
374.4390441560272
 30
0.0
 11
392.5152242027834
 21
372.4545440509414
 31
0.0
1001
ACME_LAYERS
1000
1
  0
LINE
  5
86B
330
1F
100
AcDbEntity
  8
P-0000
  6
Continuous
 62
     7
100
AcDbLine
 10
406.1905743630996
 20
374.8328592284533
 30
0.0
 11
400.4834675819147
 21
374.8328592284533
 31
0.0
1001
ACME_LAYERS
1000
1
  0
LINE
  5
86C
330
1F
100
AcDbEntity
  8
P-0000
  6
Continuous
 62
     7
100
AcDbLine
 10
407.6047879254725
 20
373.4186456660796
 30
0.0
 11
399.0692540195414
 21
373.4186456660796
 31
0.0
1001
ACME_LAYERS
1000
1
  0
LINE
  5
86D
330
1F
100
AcDbEntity
  8
P-0000
  6
Continuous
 62
     7
100
AcDbLine
 10
407.3549701649366
 20
377.9186456660796
 30
0.0
 11
398.5049701649387
 21
377.9186456660796
 31
0.0
1001
ACME_LAYERS
1000
1
  0
LINE
  5
86E
330
1F
100
AcDbEntity
  8
P-0000
  6
Continuous
 62
     7
100
AcDbLine
 10
409.7215627325986
 20
376.7069933484595
 30
0.0
 11
396.9524792124153
 21
376.7069933484595
 31
0.0
1001
ACME_LAYERS
1000
1
  0
ARC
  5
86F
330
1F
100
AcDbEntity
  8
P-0000
  6
Continuous
 62
     7
100
AcDbCircle
 10
407.3549701649384
 20
372.9186456660796
 30
0.0
 40
5.0
100
AcDbArc
 50
60.00000000000272
 51
90.00000000002605
1001
ACME_LAYERS
1000
1
  0
ARC
  5
870
330
1F
100
AcDbEntity
  8
P-0000
  6
Continuous
 62
     7
100
AcDbCircle
 10
409.7215627325986
 20
372.7069933484581
 30
0.0
 40
4.000000000000613
100
AcDbArc
 50
90.0
 51
135.0000000000092
1001
ACME_LAYERS
1000
1
  0
LINE
  5
871
330
1F
100
AcDbEntity
  8
P-0000
  6
Continuous
 62
     7
100
AcDbLine
 10
408.3073491702256
 20
374.1212069108324
 30
0.0
 11
407.6047879254725
 21
373.4186456660796
 31
0.0
1001
ACME_LAYERS
1000
1
  0
ARC
  5
872
330
1F
100
AcDbEntity
  8
P-0000
  6
Continuous
 62
     7
100
AcDbCircle
 10
409.7215627325986
 20
372.7069933484581
 30
0.0
 40
4.0
100
AcDbArc
 50
59.99999999996712
 51
90.0
1001
ACME_LAYERS
1000
1
  0
LINE
  5
873
330
1F
100
AcDbEntity
  8
P-0000
  6
Continuous
 62
     7
100
AcDbLine
 10
411.7215627325986
 20
376.1710949635944
 30
0.0
 11
409.8549701649385
 21
377.2487726850013
 31
0.0
1001
ACME_LAYERS
1000
1
  0
ARC
  5
874
330
1F
100
AcDbEntity
  8
P-0000
  6
Continuous
 62
     7
100
AcDbCircle
 10
409.7215627325986
 20
372.7069933484581
 30
0.0
 40
2.000000000000115
100
AcDbArc
 50
59.99999999996712
 51
135.0000000000092
1001
ACME_LAYERS
1000
1
  0
LINE
  5
875
330
1F
100
AcDbEntity
  8
P-0000
  6
Continuous
 62
     7
100
AcDbLine
 10
406.1905743630996
 20
374.8328592284533
 30
0.0
 11
407.6047879254725
 21
373.4186456660796
 31
0.0
1001
ACME_LAYERS
1000
1
  0
LINE
  5
876
330
1F
100
AcDbEntity
  8
P-0000
  6
Continuous
 62
     7
100
AcDbLine
 10
406.8931356078515
 20
375.5354204732054
 30
0.0
 11
406.1905743630996
 21
374.8328592284533
 31
0.0
1001
ACME_LAYERS
1000
1
  0
ARC
  5
877
330
1F
100
AcDbEntity
  8
P-0000
  6
Continuous
 62
     7
100
AcDbCircle
 10
396.9524792124153
 20
372.7069933484581
 30
0.0
 40
1.999999999999401
100
AcDbArc
 50
44.99999999999078
 51
120.0000000000329
1001
ACME_LAYERS
1000
1
  0
ARC
  5
878
330
1F
100
AcDbEntity
  8
P-0000
  6
Continuous
 62
     7
100
AcDbCircle
 10
398.5049701649387
 20
372.9186456660796
 30
0.0
 40
5.000000000000164
100
AcDbArc
 50
90.0
 51
119.9999999999972
1001
ACME_LAYERS
1000
1
  0
ARC
  5
879
330
1F
100
AcDbEntity
  8
P-0000
  6
Continuous
 62
     7
100
AcDbCircle
 10
396.9524792124153
 20
372.7069933484581
 30
0.0
 40
1.999999999999401
100
AcDbArc
 50
44.99999999999078
 51
120.0000000000329
1001
ACME_LAYERS
1000
1
  0
ARC
  5
87A
330
1F
100
AcDbEntity
  8
P-0000
  6
Continuous
 62
     7
100
AcDbCircle
 10
396.9524792124153
 20
372.7069933484581
 30
0.0
 40
3.999999999998728
100
AcDbArc
 50
90.0
 51
120.0000000000329
1001
ACME_LAYERS
1000
1
  0
ARC
  5
87B
330
1F
100
AcDbEntity
  8
P-0000
  6
Continuous
 62
     7
100
AcDbCircle
 10
396.9524792124153
 20
372.7069933484581
 30
0.0
 40
4.0
100
AcDbArc
 50
44.99999999999078
 51
90.0
1001
ACME_LAYERS
1000
1
  0
LINE
  5
87C
330
1F
100
AcDbEntity
  8
P-0000
  6
Continuous
 62
     7
100
AcDbLine
 10
400.4834675819147
 20
374.8328592284533
 30
0.0
 11
399.7809063371624
 21
375.5354204732054
 31
0.0
1001
ACME_LAYERS
1000
1
  0
LINE
  5
87D
330
1F
100
AcDbEntity
  8
P-0000
  6
Continuous
 62
     7
100
AcDbLine
 10
399.0692540195414
 20
373.4186456660796
 30
0.0
 11
398.3666927747886
 21
374.1212069108324
 31
0.0
1001
ACME_LAYERS
1000
1
  0
LINE
  5
87E
330
1F
100
AcDbEntity
  8
P-0000
  6
Continuous
 62
     7
100
AcDbLine
 10
399.0692540195414
 20
373.4186456660796
 30
0.0
 11
400.4834675819147
 21
374.8328592284533
 31
0.0
1001
ACME_LAYERS
1000
1
  0
LINE
  5
87F
330
1F
100
AcDbEntity
  8
P-0000
  6
Continuous
 62
     7
100
AcDbLine
 10
394.9524792124153
 20
376.1710949635944
 30
0.0
 11
391.5152242027834
 21
374.1865948585113
 31
0.0
1001
ACME_LAYERS
1000
1
  0
LINE
  5
880
330
1F
100
AcDbEntity
  8
P-0000
  6
Continuous
 62
     7
100
AcDbLine
 10
390.2370209725063
 20
373.9186456660795
 30
0.0
 11
370.2935109305486
 21
373.9186456660795
 31
0.0
1001
ACME_LAYERS
1000
1
  0
LINE
  5
881
330
1F
100
AcDbEntity
  8
P-0000
  6
Continuous
 62
     7
100
AcDbLine
 10
390.2370209725063
 20
373.9186456660795
 30
0.0
 11
390.5152242027834
 21
373.9186456660795
 31
0.0
1001
ACME_LAYERS
1000
1
  0
LINE
  5
882
330
1F
100
AcDbEntity
  8
P-0000
  6
Continuous
 62
     3
100
AcDbLine
 10
369.5587759934883
 20
388.6245655710236
 30
0.0
 11
369.5587759934883
 21
373.9186456660795
 31
0.0
1001
ACME_LAYERS
1000
1
  0
LINE
  5
883
330
1F
100
AcDbEntity
  8
P-0000
  6
Continuous
 62
     7
100
AcDbLine
 10
370.3587759934884
 20
387.1245655710237
 30
0.0
 11
370.3587759934884
 21
383.1245655710237
 31
0.0
1001
ACME_LAYERS
1000
1
  0
LINE
  5
884
330
1F
100
AcDbEntity
  8
P-0000
  6
Continuous
 62
     3
100
AcDbLine
 10
363.1587759934873
 20
388.6245655710236
 30
0.0
 11
363.1587759934873
 21
373.9186456660795
 31
0.0
1001
ACME_LAYERS
1000
1
  0
LINE
  5
885
330
1F
100
AcDbEntity
  8
P-0000
  6
Continuous
 62
     7
100
AcDbLine
 10
347.5435109305445
 20
371.9186456660764
 30
0.0
 11
334.0435109305427
 21
371.9186456660764
 31
0.0
1001
ACME_LAYERS
1000
1
  0
LINE
  5
886
330
1F
100
AcDbEntity
  8
P-0000
  6
Continuous
 62
     7
100
AcDbLine
 10
362.3370209725085
 20
373.9186456660795
 30
0.0
 11
342.9011225876457
 21
373.9186456660795
 31
0.0
1001
ACME_LAYERS
1000
1
  0
LINE
  5
887
330
1F
100
AcDbEntity
  8
P-0000
  6
Continuous
 62
     7
100
AcDbLine
 10
351.7823078704537
 20
371.9186456660805
 30
0.0
 11
342.9011225876457
 21
371.9186456660805
 31
0.0
1001
ACME_LAYERS
1000
1
  0
LINE
  5
888
330
1F
100
AcDbEntity
  8
P-0000
  6
Continuous
 62
     7
100
AcDbLine
 10
362.3587759934884
 20
387.1245655710237
 30
0.0
 11
362.3587759934884
 21
383.1245655710237
 31
0.0
1001
ACME_LAYERS
1000
1
  0
LINE
  5
889
330
1F
100
AcDbEntity
  8
P-0000
  6
Continuous
 62
     7
100
AcDbLine
 10
352.5435109305295
 20
371.9186456660764
 30
0.0
 11
351.7823078704537
 21
371.9186456660805
 31
0.0
1001
ACME_LAYERS
1000
1
  0
LINE
  5
88A
330
1F
100
AcDbEntity
  8
P-0000
  6
Continuous
 62
     7
100
AcDbLine
 10
340.9011225876465
 20
372.4545440509414
 30
0.0
 11
335.3652242027824
 21
375.6506964736504
 31
0.0
1001
ACME_LAYERS
1000
1
  0
LINE
  5
88B
330
1F
100
AcDbEntity
  8
P-0000
  6
Continuous
 62
     7
100
AcDbLine
 10
334.3652242027815
 20
375.9186456660795
 30
0.0
 11
332.4813024000255
 21
375.9186456660795
 31
0.0
1001
ACME_LAYERS
1000
1
  0
LINE
  5
88C
330
1F
100
AcDbEntity
  8
P-0000
  6
Continuous
 62
     7
100
AcDbLine
 10
341.9011225876456
 20
374.1865948585105
 30
0.0
 11
336.3652242027824
 21
377.3827472812182
 31
0.0
1001
ACME_LAYERS
1000
1
  0
ARC
  5
88D
330
1F
100
AcDbEntity
  8
P-0000
  6
Continuous
 62
     7
100
AcDbCircle
 10
342.9011225876457
 20
375.9186456660795
 30
0.0
 40
2.0
100
AcDbArc
 50
239.9999999999671
 51
270.0
1001
ACME_LAYERS
1000
1
  0
ARC
  5
88E
330
1F
100
AcDbEntity
  8
P-0000
  6
Continuous
 62
     7
100
AcDbCircle
 10
334.3652242027815
 20
373.9186456660795
 30
0.0
 40
4.0
100
AcDbArc
 50
60.00000000000272
 51
90.0
1001
ACME_LAYERS
1000
1
  0
ARC
  5
88F
330
1F
100
AcDbEntity
  8
P-0000
  6
Continuous
 62
     7
100
AcDbCircle
 10
334.3652242027815
 20
373.9186456660795
 30
0.0
 40
2.0
100
AcDbArc
 50
60.00000000002527
 51
90.0
1001
ACME_LAYERS
1000
1
  0
ARC
  5
890
330
1F
100
AcDbEntity
  8
P-0000
  6
Continuous
 62
     7
100
AcDbCircle
 10
342.9011225876457
 20
375.9186456660795
 30
0.0
 40
4.0
100
AcDbArc
 50
240.0000000000027
 51
270.0
1001
ACME_LAYERS
1000
1
  0
LINE
  5
891
330
1F
100
AcDbEntity
  8
P-0000
  6
Continuous
 62
     7
100
AcDbLine
 10
289.4138291170066
 20
377.9186456660796
 30
0.0
 11
250.0435109305404
 21
377.9186456660796
 31
0.0
1001
ACME_LAYERS
1000
1
  0
LINE
  5
892
330
1F
100
AcDbEntity
  8
P-0000
  6
Continuous
 62
     7
100
AcDbLine
 10
297.0435109305427
 20
377.9186456660796
 30
0.0
 11
250.0435109305404
 21
377.9186456660796
 31
0.0
1001
ACME_LAYERS
1000
1
  0
LINE
  5
893
330
1F
100
AcDbEntity
  8
P-0000
  6
Continuous
 62
     7
100
AcDbLine
 10
314.0435109305418
 20
371.9186456660946
 30
0.0
 11
306.5648352311546
 21
371.9186456660946
 31
0.0
1001
ACME_LAYERS
1000
1
  0
LINE
  5
894
330
1F
100
AcDbEntity
  8
P-0000
  6
Continuous
 62
     7
100
AcDbLine
 10
316.5477822468615
 20
378.1381777402103
 30
0.0
 11
316.5435109305495
 21
378.1220139876195
 31
0.0
1001
ACME_LAYERS
1000
1
  0
LINE
  5
895
330
1F
100
AcDbEntity
  8
P-0000
  6
STRICHPUNKT
 62
     3
100
AcDbLine
 10
250.0435109305426
 20
350.0605228971331
 30
0.0
 11
250.0435109305426
 21
349.6047095383005
 31
0.0
1001
ACME_LAYERS
1000
1
  0
LINE
  5
896
330
1F
100
AcDbEntity
  8
P-0000
  6
Continuous
 62
     7
100
AcDbLine
 10
362.3022395493972
 20
388.6245655710236
 30
0.0
 11
362.3022395493972
 21
383.1245655710237
 31
0.0
1001
ACME_LAYERS
1000
1
  0
LINE
  5
897
330
1F
100
AcDbEntity
  8
P-0000
  6
Continuous
 62
     7
100
AcDbLine
 10
383.8022395493887
 20
388.6245655710236
 30
0.0
 11
370.3022395493972
 21
388.6245655710236
 31
0.0
1001
ACME_LAYERS
1000
1
  0
LINE
  5
898
330
1F
100
AcDbEntity
  8
P-0000
  6
Continuous
 62
     7
100
AcDbLine
 10
377.9738124246524
 20
387.1245655710237
 30
0.0
 11
375.5362097114253
 21
387.1245655710237
 31
0.0
1001
ACME_LAYERS
1000
1
  0
LINE
  5
899
330
1F
100
AcDbEntity
  8
P-0000
  6
Continuous
 62
     7
100
AcDbLine
 10
250.0522395494054
 20
388.6245655710236
 30
0.0
 11
337.3022395493972
 21
388.6245655710236
 31
0.0
1001
ACME_LAYERS
1000
1
  0
LINE
  5
89A
330
1F
100
AcDbEntity
  8
P-0000
  6
Continuous
 62
     7
100
AcDbLine
 10
377.9738124246524
 20
387.1245655710237
 30
0.0
 11
375.5362097114253
 21
387.1245655710237
 31
0.0
1001
ACME_LAYERS
1000
1
  0
LINE
  5
89B
330
1F
100
AcDbEntity
  8
P-0000
  6
Continuous
 62
     7
100
AcDbLine
 10
375.5362097114253
 20
387.1245655710237
 30
0.0
 11
374.1258811825655
 21
387.1245655710237
 31
0.0
1001
ACME_LAYERS
1000
1
  0
LINE
  5
89C
330
1F
100
AcDbEntity
  8
P-0000
  6
Continuous
 62
     7
100
AcDbLine
 10
375.5362097114253
 20
387.1245655710237
 30
0.0
 11
374.1258811825655
 21
387.1245655710237
 31
0.0
1001
ACME_LAYERS
1000
1
  0
LINE
  5
89D
330
1F
100
AcDbEntity
  8
P-0000
  6
Continuous
 62
     7
100
AcDbLine
 10
250.0522395494018
 20
386.8925147634554
 30
0.0
 11
336.3022395493972
 21
386.8925147634554
 31
0.0
1001
ACME_LAYERS
1000
1
  0
LINE
  5
89E
330
1F
100
AcDbEntity
  8
P-0000
  6
Continuous
 62
     7
100
AcDbLine
 10
337.3022395493972
 20
388.6245655710236
 30
0.0
 11
342.9003157607494
 21
385.3925147634555
 31
0.0
1001
ACME_LAYERS
1000
1
  0
LINE
  5
89F
330
1F
100
AcDbEntity
  8
P-0000
  6
Continuous
 62
     7
100
AcDbLine
 10
362.3022395493972
 20
388.6245655710236
 30
0.0
 11
337.3022395493972
 21
388.6245655710236
 31
0.0
1001
ACME_LAYERS
1000
1
  0
LINE
  5
8A0
330
1F
100
AcDbEntity
  8
P-0000
  6
Continuous
 62
     7
100
AcDbLine
 10
336.3022395493972
 20
386.8925147634554
 30
0.0
 11
337.3022395493972
 21
388.6245655710236
 31
0.0
1001
ACME_LAYERS
1000
1
  0
LINE
  5
8A1
330
1F
100
AcDbEntity
  8
P-0000
  6
Continuous
 62
     7
100
AcDbLine
 10
337.3022395493972
 20
388.6245655710236
 30
0.0
 11
337.3742057118984
 21
388.6245655710236
 31
0.0
1001
ACME_LAYERS
1000
1
  0
LINE
  5
8A2
330
1F
100
AcDbEntity
  8
P-0000
  6
Continuous
 62
     7
100
AcDbLine
 10
374.1258811825655
 20
387.1245655710237
 30
0.0
 11
371.3022395493972
 21
387.1245655710237
 31
0.0
1001
ACME_LAYERS
1000
1
  0
LINE
  5
8A3
330
1F
100
AcDbEntity
  8
P-0000
  6
Continuous
 62
     3
100
AcDbLine
 10
389.7759601077678
 20
383.1245655710237
 30
0.0
 11
388.7041633380436
 21
383.1245655710237
 31
0.0
1001
ACME_LAYERS
1000
1
  0
LINE
  5
8A4
330
1F
100
AcDbEntity
  8
P-0000
  6
Continuous
 62
     3
100
AcDbLine
 10
389.2400617229055
 20
385.1245655710237
 30
0.0
 11
388.7041633380436
 21
385.1245655710237
 31
0.0
1001
ACME_LAYERS
1000
1
  0
LINE
  5
8A5
330
1F
100
AcDbEntity
  8
P-0000
  6
Continuous
 62
     3
100
AcDbLine
 10
389.7041633380436
 20
385.3925147634555
 30
0.0
 11
389.2400617229055
 21
385.1245655710237
 31
0.0
1001
ACME_LAYERS
1000
1
  0
LINE
  5
8A6
330
1F
100
AcDbEntity
  8
P-0000
  6
Continuous
 62
     7
100
AcDbLine
 10
351.8022395493972
 20
385.9529926957703
 30
0.0
 11
351.5595988622777
 21
385.7103520086503
 31
0.0
1001
ACME_LAYERS
1000
1
  0
LINE
  5
8A7
330
1F
100
AcDbEntity
  8
P-0000
  6
Continuous
 62
     7
100
AcDbLine
 10
380.8022395493972
 20
385.9529926957703
 30
0.0
 11
381.0448802365164
 21
385.7103520086503
 31
0.0
1001
ACME_LAYERS
1000
1
  0
LINE
  5
8A8
330
1F
100
AcDbEntity
  8
P-0000
  6
Continuous
 62
     7
100
AcDbLine
 10
371.3022395493972
 20
387.1245655710237
 30
0.0
 11
371.3022395493972
 21
385.1245655710237
 31
0.0
1001
ACME_LAYERS
1000
1
  0
LINE
  5
8A9
330
1F
100
AcDbEntity
  8
P-0000
  6
Continuous
 62
     7
100
AcDbLine
 10
361.3022395493985
 20
387.1245655710237
 30
0.0
 11
361.3022395493985
 21
385.1245655710237
 31
0.0
1001
ACME_LAYERS
1000
1
  0
LINE
  5
8AA
330
1F
100
AcDbEntity
  8
P-0000
  6
Continuous
 62
     7
100
AcDbLine
 10
396.3022395493954
 20
386.8925147634554
 30
0.0
 11
395.3022395493968
 21
388.6245655710236
 31
0.0
1001
ACME_LAYERS
1000
1
  0
LINE
  5
8AB
330
1F
100
AcDbEntity
  8
P-0000
  6
Continuous
 62
     7
100
AcDbLine
 10
396.3022395493954
 20
386.8925147634554
 30
0.0
 11
390.7041633380436
 21
383.6604639558855
 31
0.0
1001
ACME_LAYERS
1000
1
  0
LINE
  5
8AC
330
1F
100
AcDbEntity
  8
P-0000
  6
Continuous
 62
     7
100
AcDbLine
 10
395.3022395493968
 20
388.6245655710236
 30
0.0
 11
389.7041633380436
 21
385.3925147634555
 31
0.0
1001
ACME_LAYERS
1000
1
  0
LINE
  5
8AD
330
1F
100
AcDbEntity
  8
P-0000
  6
Continuous
 62
     7
100
AcDbLine
 10
379.3880259870243
 20
384.5387791333974
 30
0.0
 11
379.6306666741448
 21
384.2961384462783
 31
0.0
1001
ACME_LAYERS
1000
1
  0
LINE
  5
8AE
330
1F
100
AcDbEntity
  8
P-0000
  6
Continuous
 62
     7
100
AcDbLine
 10
353.2164531117715
 20
384.5387791333974
 30
0.0
 11
352.9738124246514
 21
384.2961384462783
 31
0.0
1001
ACME_LAYERS
1000
1
  0
LINE
  5
8AF
330
1F
100
AcDbEntity
  8
P-0000
  6
Continuous
 62
     7
100
AcDbLine
 10
336.3022395493972
 20
386.8925147634554
 30
0.0
 11
341.9003157607503
 21
383.6604639558855
 31
0.0
1001
ACME_LAYERS
1000
1
  0
LINE
  5
8B0
330
1F
100
AcDbEntity
  8
P-0000
  6
Continuous
 62
     7
100
AcDbLine
 10
343.9003157607495
 20
383.1245655710237
 30
0.0
 11
250.0522395494018
 21
383.1245655710237
 31
0.0
1001
ACME_LAYERS
1000
1
  0
LINE
  5
8B1
330
1F
100
AcDbEntity
  8
P-0000
  6
Continuous
 62
     7
100
AcDbLine
 10
343.9003157607495
 20
385.1245655710237
 30
0.0
 11
350.1453852999043
 21
385.1245655710237
 31
0.0
1001
ACME_LAYERS
1000
1
  0
LINE
  5
8B2
330
1F
100
AcDbEntity
  8
P-0000
  6
Continuous
 62
     7
100
AcDbLine
 10
343.9003157607495
 20
383.1245655710237
 30
0.0
 11
350.1453852999043
 21
383.1245655710237
 31
0.0
1001
ACME_LAYERS
1000
1
  0
LINE
  5
8B3
330
1F
100
AcDbEntity
  8
P-0000
  6
Continuous
 62
     7
100
AcDbLine
 10
389.7759601077678
 20
383.1245655710237
 30
0.0
 11
382.4590937988915
 21
383.1245655710237
 31
0.0
1001
ACME_LAYERS
1000
1
  0
LINE
  5
8B4
330
1F
100
AcDbEntity
  8
P-0000
  6
Continuous
 62
     7
100
AcDbLine
 10
371.3022395493972
 20
387.1245655710237
 30
0.0
 11
370.3022395493972
 21
387.1245655710237
 31
0.0
1001
ACME_LAYERS
1000
1
  0
LINE
  5
8B5
330
1F
100
AcDbEntity
  8
P-0000
  6
Continuous
 62
     7
100
AcDbLine
 10
374.1258811825655
 20
387.1245655710237
 30
0.0
 11
371.3022395493972
 21
387.1245655710237
 31
0.0
1001
ACME_LAYERS
1000
1
  0
LINE
  5
8B6
330
1F
100
AcDbEntity
  8
P-0000
  6
Continuous
 62
     7
100
AcDbLine
 10
361.3022395493985
 20
387.1245655710237
 30
0.0
 11
354.6306666741448
 21
387.1245655710237
 31
0.0
1001
ACME_LAYERS
1000
1
  0
LINE
  5
8B7
330
1F
100
AcDbEntity
  8
P-0000
  6
Continuous
 62
     7
100
AcDbLine
 10
362.3022395493972
 20
385.1245655710237
 30
0.0
 11
354.6306666741448
 21
385.1245655710237
 31
0.0
1001
ACME_LAYERS
1000
1
  0
LINE
  5
8B8
330
1F
100
AcDbEntity
  8
P-0000
  6
Continuous
 62
     7
100
AcDbLine
 10
377.9738124246514
 20
385.1245655710237
 30
0.0
 11
370.3587759934884
 21
385.1245655710237
 31
0.0
1001
ACME_LAYERS
1000
1
  0
LINE
  5
8B9
330
1F
100
AcDbEntity
  8
P-0000
  6
Continuous
 62
     7
100
AcDbLine
 10
362.3022395493972
 20
387.1245655710237
 30
0.0
 11
361.3022395493985
 21
387.1245655710237
 31
0.0
1001
ACME_LAYERS
1000
1
  0
LINE
  5
8BA
330
1F
100
AcDbEntity
  8
P-0000
  6
Continuous
 62
     7
100
AcDbLine
 10
388.7041633380436
 20
385.1245655710237
 30
0.0
 11
382.4590937988915
 21
385.1245655710237
 31
0.0
1001
ACME_LAYERS
1000
1
  0
LINE
  5
8BB
330
1F
100
AcDbEntity
  8
P-0000
  6
Continuous
 62
     7
100
AcDbLine
 10
356.3022395493972
 20
387.1245655710237
 30
0.0
 11
361.3022395493985
 21
387.1245655710237
 31
0.0
1001
ACME_LAYERS
1000
1
  0
LINE
  5
8BC
330
1F
100
AcDbEntity
  8
P-0000
  6
Continuous
 62
     7
100
AcDbLine
 10
361.3022395493985
 20
387.1245655710237
 30
0.0
 11
362.3022395493972
 21
387.1245655710237
 31
0.0
1001
ACME_LAYERS
1000
1
  0
LINE
  5
8BD
330
1F
100
AcDbEntity
  8
P-0000
  6
Continuous
 62
     7
100
AcDbLine
 10
395.3022395493968
 20
388.6245655710236
 30
0.0
 11
383.8022395493887
 21
388.6245655710236
 31
0.0
1001
ACME_LAYERS
1000
1
  0
LINE
  5
8BE
330
1F
100
AcDbEntity
  8
P-0000
  6
Continuous
 62
     7
100
AcDbLine
 10
374.7479376628185
 20
387.1245655710237
 30
0.0
 11
370.3022395493972
 21
387.1245655710237
 31
0.0
1001
ACME_LAYERS
1000
1
  0
LINE
  5
8BF
330
1F
100
AcDbEntity
  8
P-0000
  6
Continuous
 62
     7
100
AcDbLine
 10
362.3022395493972
 20
387.1245655710237
 30
0.0
 11
361.3022395493985
 21
387.1245655710237
 31
0.0
1001
ACME_LAYERS
1000
1
  0
LINE
  5
8C0
330
1F
100
AcDbEntity
  8
P-0000
  6
Continuous
 62
     7
100
AcDbLine
 10
250.0435109305404
 20
388.6245655710236
 30
0.0
 11
250.0522395493758
 21
388.6245655710236
 31
0.0
1001
ACME_LAYERS
1000
1
  0
LINE
  5
8C1
330
1F
100
AcDbEntity
  8
P-0000
  6
Continuous
 62
     7
100
AcDbLine
 10
250.0435109305404
 20
386.8925147634554
 30
0.0
 11
250.0522395494018
 21
386.8925147634554
 31
0.0
1001
ACME_LAYERS
1000
1
  0
LINE
  5
8C2
330
1F
100
AcDbEntity
  8
P-0000
  6
Continuous
 62
     7
100
AcDbLine
 10
250.0435109305404
 20
383.1245655710237
 30
0.0
 11
250.0522395494018
 21
383.1245655710237
 31
0.0
1001
ACME_LAYERS
1000
1
  0
LINE
  5
8C3
330
1F
100
AcDbEntity
  8
P-0000
  6
Continuous
 62
     7
100
AcDbLine
 10
371.8022395493954
 20
387.1245655710254
 30
0.0
 11
376.8022395493954
 21
387.1245655710254
 31
0.0
1001
ACME_LAYERS
1000
1
  0
LINE
  5
8C4
330
1F
100
AcDbEntity
  8
P-0000
  6
Continuous
 62
     7
100
AcDbLine
 10
374.7479376628185
 20
388.6245655710236
 30
0.0
 11
370.3022395493972
 21
388.6245655710236
 31
0.0
1001
ACME_LAYERS
1000
1
  0
LINE
  5
8C5
330
1F
100
AcDbEntity
  8
P-0000
  6
Continuous
 62
     7
100
AcDbLine
 10
361.3022395493985
 20
387.1245655710237
 30
0.0
 11
357.7479376628184
 21
387.1245655710237
 31
0.0
1001
ACME_LAYERS
1000
1
  0
LINE
  5
8C6
330
1F
100
AcDbEntity
  8
P-0000
  6
Continuous
 62
     7
100
AcDbLine
 10
361.3022395493985
 20
387.1245655710237
 30
0.0
 11
361.8022395493954
 21
387.1245655710254
 31
0.0
1001
ACME_LAYERS
1000
1
  0
LINE
  5
8C7
330
1F
100
AcDbEntity
  8
P-0000
  6
Continuous
 62
     7
100
AcDbLine
 10
357.7479376628184
 20
388.6245655710236
 30
0.0
 11
361.8022395493954
 21
388.6245655710236
 31
0.0
1001
ACME_LAYERS
1000
1
  0
LINE
  5
8C8
330
1F
100
AcDbEntity
  8
P-0000
  6
Continuous
 62
     7
100
AcDbLine
 10
370.3022395493972
 20
387.1245655710237
 30
0.0
 11
371.3022395493972
 21
387.1245655710237
 31
0.0
1001
ACME_LAYERS
1000
1
  0
LINE
  5
8C9
330
1F
100
AcDbEntity
  8
P-0000
  6
Continuous
 62
     7
100
AcDbLine
 10
354.6306666741448
 20
387.1245655710237
 30
0.0
 11
361.3022395493985
 21
387.1245655710237
 31
0.0
1001
ACME_LAYERS
1000
1
  0
ARC
  5
8CA
330
1F
100
AcDbEntity
  8
P-0000
  6
Continuous
 62
     7
100
AcDbCircle
 10
382.4590937988915
 20
387.1245655710237
 30
0.0
 40
4.0
100
AcDbArc
 50
224.9999999999908
 51
270.0
1001
ACME_LAYERS
1000
1
  0
ARC
  5
8CB
330
1F
100
AcDbEntity
  8
P-0000
  6
Continuous
 62
     7
100
AcDbCircle
 10
354.6306666741448
 20
383.1245655710237
 30
0.0
 40
4.000000000000613
100
AcDbArc
 50
90.0
 51
134.9999999999816
1001
ACME_LAYERS
1000
1
  0
ARC
  5
8CC
330
1F
100
AcDbEntity
  8
P-0000
  6
Continuous
 62
     7
100
AcDbCircle
 10
350.1453852999043
 20
387.1245655710237
 30
0.0
 40
3.999999999999423
100
AcDbArc
 50
270.0
 51
315.0000000000092
1001
ACME_LAYERS
1000
1
  0
ARC
  5
8CD
330
1F
100
AcDbEntity
  8
P-0000
  6
Continuous
 62
     7
100
AcDbCircle
 10
343.9003157607495
 20
387.1245655710237
 30
0.0
 40
4.0
100
AcDbArc
 50
240.0000000000027
 51
270.0
1001
ACME_LAYERS
1000
1
  0
ARC
  5
8CE
330
1F
100
AcDbEntity
  8
P-0000
  6
Continuous
 62
     7
100
AcDbCircle
 10
343.9003157607495
 20
387.1245655710237
 30
0.0
 40
2.0
100
AcDbArc
 50
239.9999999999671
 51
270.0
1001
ACME_LAYERS
1000
1
  0
ARC
  5
8CF
330
1F
100
AcDbEntity
  8
P-0000
  6
Continuous
 62
     7
100
AcDbCircle
 10
350.1453852999043
 20
387.1245655710237
 30
0.0
 40
2.000000000000397
100
AcDbArc
 50
270.0
 51
314.9999999999816
1001
ACME_LAYERS
1000
1
  0
ARC
  5
8D0
330
1F
100
AcDbEntity
  8
P-0000
  6
Continuous
 62
     7
100
AcDbCircle
 10
354.6306666741448
 20
383.1245655710237
 30
0.0
 40
2.000000000000311
100
AcDbArc
 50
90.0
 51
134.9999999999816
1001
ACME_LAYERS
1000
1
  0
ARC
  5
8D1
330
1F
100
AcDbEntity
  8
P-0000
  6
Continuous
 62
     7
100
AcDbCircle
 10
377.9738124246514
 20
383.1245655710237
 30
0.0
 40
2.0
100
AcDbArc
 50
45.00000000001842
 51
90.0
1001
ACME_LAYERS
1000
1
  0
ARC
  5
8D2
330
1F
100
AcDbEntity
  8
P-0000
  6
Continuous
 62
     7
100
AcDbCircle
 10
382.4590937988915
 20
387.1245655710237
 30
0.0
 40
2.0
100
AcDbArc
 50
224.9999999999816
 51
270.0
1001
ACME_LAYERS
1000
1
  0
ARC
  5
8D3
330
1F
100
AcDbEntity
  8
P-0000
  6
Continuous
 62
     7
100
AcDbCircle
 10
388.7041633380436
 20
387.1245655710237
 30
0.0
 40
1.999999999999425
100
AcDbArc
 50
270.0
 51
300.0000000000329
1001
ACME_LAYERS
1000
1
  0
ARC
  5
8D4
330
1F
100
AcDbEntity
  8
P-0000
  6
Continuous
 62
     7
100
AcDbCircle
 10
388.7041633380436
 20
387.1245655710237
 30
0.0
 40
4.000000000000401
100
AcDbArc
 50
270.0
 51
299.9999999999973
1001
ACME_LAYERS
1000
1
  0
ARC
  5
8D5
330
1F
100
AcDbEntity
  8
P-0000
  6
Continuous
 62
     7
100
AcDbCircle
 10
377.9738124246514
 20
383.1245655710237
 30
0.0
 40
4.0
100
AcDbArc
 50
45.00000000001842
 51
89.99999999997395
1001
ACME_LAYERS
1000
1
  0
HATCH
  5
8D6
330
1F
100
AcDbEntity
  8
P-0000
  6
Continuous
 62
     3
100
AcDbHatch
 10
0.0
 20
0.0
 30
0.0
210
0.0
220
0.0
230
1.0
  2
_U
 70
     0
 71
     0
 91
        1
 92
        1
 93
       19
 72
     1
 10
337.3022395493972
 20
388.6245655710236
 11
342.9003157607494
 21
385.3925147634555
 72
     1
 10
342.9003157607494
 20
385.3925147634555
 11
343.3644173758885
 21
385.1245655710237
 72
     1
 10
343.3644173758885
 20
385.1245655710237
 11
343.9003157607495
 21
385.1245655710237
 72
     1
 10
343.9003157607495
 20
385.1245655710237
 11
350.1453852999043
 21
385.1245655710237
 72
     1
 10
350.1453852999043
 20
385.1245655710237
 11
350.9738124246514
 21
385.1245655710237
 72
     1
 10
350.9738124246514
 20
385.1245655710237
 11
351.5595988622777
 21
385.7103520086494
 72
     1
 10
351.5595988622777
 20
385.7103520086503
 11
351.8022395493972
 21
385.9529926957703
 72
     2
 10
354.6306666741448
 20
383.1245655710237
 40
4.000000000000613
 50
-135.0000000000008
 51
-90.00000000000001
 73
     0
 72
     1
 10
354.6306666741448
 20
387.1245655710237
 11
361.3022395493985
 21
387.1245655710237
 72
     1
 10
361.3022395493985
 20
387.1245655710237
 11
361.3022395493985
 21
385.1245655710244
 72
     1
 10
361.3022395493985
 20
385.1245655710237
 11
354.6306666741448
 21
385.1245655710237
 72
     1
 10
354.6306666741448
 20
385.1245655710237
 11
353.8022395493972
 21
385.1245655710237
 72
     1
 10
353.8022395493972
 20
385.1245655710237
 11
353.2164531117715
 21
384.5387791333974
 72
     1
 10
353.2164531117715
 20
384.5387791333974
 11
352.9738124246514
 21
384.2961384462783
 72
     2
 10
350.1453852999043
 20
387.1245655710237
 40
3.999999999999423
 50
44.99999999998222
 51
90.0
 73
     0
 72
     1
 10
350.1453852999043
 20
383.1245655710237
 11
343.9003157607495
 21
383.1245655710237
 72
     2
 10
343.9003157607495
 20
387.1245655710237
 40
4.0
 50
90.0
 51
119.9999999999965
 73
     0
 72
     1
 10
341.9003157607503
 20
383.6604639558855
 11
336.3022395493972
 21
386.8925147634554
 72
     1
 10
336.3022395493972
 20
386.8925147634554
 11
337.3022395493972
 21
388.6245655710236
 97
        0
 75
     0
 76
     0
 52
44.99999999999999
 41
3.0
 77
     0
 78
     1
 53
135.0
 43
309.3353675642925
 44
523.7505310653983
 45
2.121320343559641
 46
2.121320343559641
 79
     0
 98
        1
 10
309.3353675642925
 20
523.7505310653983
1001
ACME_LAYERS
1000
1
  0
HATCH
  5
8D7
330
1F
100
AcDbEntity
  8
P-0000
  6
Continuous
 62
     3
100
AcDbHatch
 10
0.0
 20
0.0
 30
0.0
210
0.0
220
0.0
230
1.0
  2
_U
 70
     0
 71
     0
 91
        1
 92
        1
 93
       19
 72
     2
 10
382.4590937988915
 20
387.1245655710237
 40
2.0
 50
90.0
 51
135.0000000000351
 73
     0
 72
     1
 10
381.0448802365164
 20
385.7103520086503
 11
380.8022395493972
 21
385.9529926957703
 72
     2
 10
377.9738124246514
 20
383.1245655710237
 40
4.0
 50
404.9999999999991
 51
449.9999999999738
 73
     1
 72
     1
 10
377.9738124246524
 20
387.1245655710237
 11
375.5362097114253
 21
387.1245655710237
 72
     1
 10
375.5362097114253
 20
387.1245655710237
 11
374.1258811825655
 21
387.1245655710237
 72
     1
 10
374.1258811825655
 20
387.1245655710237
 11
371.3022395493972
 21
387.1245655710237
 72
     1
 10
371.3022395493972
 20
387.1245655710237
 11
371.3022395493972
 21
385.1245655710244
 72
     1
 10
371.3022395493972
 20
385.1245655710237
 11
377.9738124246514
 21
385.1245655710237
 72
     1
 10
377.9738124246514
 20
385.1245655710237
 11
378.8022395493987
 21
385.1245655710237
 72
     1
 10
378.8022395493987
 20
385.1245655710237
 11
379.3880259870243
 21
384.5387791333974
 72
     1
 10
379.3880259870243
 20
384.5387791333974
 11
379.6306666741448
 21
384.2961384462783
 72
     2
 10
382.4590937988915
 20
387.1245655710237
 40
4.0
 50
224.9999999999821
 51
270.0
 73
     1
 72
     1
 10
382.4590937988915
 20
383.1245655710237
 11
388.7041633380436
 21
383.1245655710237
 72
     2
 10
388.7041633380436
 20
387.1245655710237
 40
4.000000000000401
 50
270.0
 51
299.9999999999967
 73
     1
 72
     1
 10
390.7041633380436
 20
383.6604639558855
 11
396.3022395493954
 21
386.8925147634554
 72
     1
 10
396.3022395493954
 20
386.8925147634554
 11
395.3022395493968
 21
388.6245655710236
 72
     1
 10
395.3022395493968
 20
388.6245655710236
 11
389.7041633380436
 21
385.3925147634555
 72
     2
 10
388.7041633380436
 20
387.1245655710237
 40
1.999999999999425
 50
59.99999999999046
 51
90.0
 73
     0
 72
     1
 10
388.7041633380436
 20
385.1245655710237
 11
382.4590937988915
 21
385.1245655710237
 97
        0
 75
     0
 76
     0
 52
44.99999999999999
 41
5.0
 77
     0
 78
     1
 53
135.0
 43
309.3353675642925
 44
523.7505310653983
 45
3.535533905932736
 46
3.535533905932738
 79
     0
 98
        1
 10
309.3353675642925
 20
523.7505310653983
1001
ACME_LAYERS
1000
1
  0
LINE
  5
8D8
330
1F
100
AcDbEntity
  8
0
100
AcDbLine
 10
370.3022395493972
 20
383.1245655710237
 30
0.0
 11
370.3022395493972
 21
388.6245655710236
 31
0.0
  0
LINE
  5
8D9
330
1F
100
AcDbEntity
  8
P-0000
  6
Continuous
 62
     7
100
AcDbLine
 10
343.9350971838558
 20
383.1245655710237
 30
0.0
 11
350.1801667230084
 21
383.1245655710237
 31
0.0
1001
ACME_LAYERS
1000
1
  0
LINE
  5
8DA
330
1F
100
AcDbEntity
  8
P-0000
  6
Continuous
 62
     7
100
AcDbLine
 10
390.2077402773307
 20
383.1245655710237
 30
0.0
 11
382.4590937988905
 21
383.1245655710237
 31
0.0
1001
ACME_LAYERS
1000
1
  0
LINE
  5
8DB
330
1F
100
AcDbEntity
  8
P-0000
  6
Continuous
 62
     7
100
AcDbLine
 10
343.9003157607485
 20
383.1245655710237
 30
0.0
 11
350.1453852999025
 21
383.1245655710237
 31
0.0
1001
ACME_LAYERS
1000
1
  0
LINE
  5
8DC
330
1F
100
AcDbEntity
  8
P-0000
  6
Continuous
 62
     7
100
AcDbLine
 10
390.2077402773307
 20
377.9186456660805
 30
0.0
 11
370.3587759934876
 21
377.9186456660823
 31
0.0
1001
ACME_LAYERS
1000
1
  0
LINE
  5
8DD
330
1F
100
AcDbEntity
  8
P-0000
  6
Continuous
 62
     7
100
AcDbLine
 10
362.3587759934884
 20
377.9186456660823
 30
0.0
 11
334.3652242027815
 21
377.9186456660814
 31
0.0
1001
ACME_LAYERS
1000
1
  0
LINE
  5
8DE
330
1F
100
AcDbEntity
  8
P-0000
  6
Continuous
 62
     7
100
AcDbLine
 10
407.3549701649393
 20
377.9186456660796
 30
0.0
 11
500.0870209724862
 21
377.9186456660796
 31
0.0
1001
ACME_LAYERS
1000
1
  0
LINE
  5
8DF
330
1F
100
AcDbEntity
  8
P-0000
  6
Continuous
 62
     7
100
AcDbLine
 10
342.8718418924554
 20
379.9186456660796
 30
0.0
 11
342.8718418924554
 21
383.1245655710237
 31
0.0
1001
ACME_LAYERS
1000
1
  0
LINE
  5
8E0
102
{ACAD_REACTORS
330
8FC
102
}
330
1F
100
AcDbEntity
  8
0
100
AcDbLine
 10
500.0870209724862
 20
379.9186456660796
 30
0.0
 11
500.0870209724862
 21
377.9186456660796
 31
0.0
  0
LINE
  5
8E1
330
1F
100
AcDbEntity
  8
0
100
AcDbLine
 10
342.8718418924554
 20
377.9186456660814
 30
0.0
 11
342.9011225876457
 21
373.9186456660795
 31
0.0
  0
LINE
  5
8E2
330
1F
100
AcDbEntity
  8
0
100
AcDbLine
 10
390.2370209725086
 20
373.9186456660795
 30
0.0
 11
390.2370209725086
 21
377.9186456660805
 31
0.0
  0
LINE
  5
8E3
330
1F
100
AcDbEntity
  8
0
100
AcDbLine
 10
370.3587759934884
 20
387.1245655710237
 30
0.0
 11
370.3587759934884
 21
373.9186456660795
 31
0.0
  0
LINE
  5
8E4
330
1F
100
AcDbEntity
  8
0
100
AcDbLine
 10
362.3587759934884
 20
387.1245655710237
 30
0.0
 11
362.3587759934884
 21
373.9186456660795
 31
0.0
  0
LINE
  5
8E5
330
1F
100
AcDbEntity
  8
0
100
AcDbLine
 10
390.2077402773307
 20
377.9186456660805
 30
0.0
 11
398.5049701649387
 21
377.9186456660796
 31
0.0
  0
LINE
  5
8E6
330
1F
100
AcDbEntity
  8
0
100
AcDbLine
 10
500.0870209724862
 20
379.9186456660796
 30
0.0
 11
370.3587759934884
 21
379.9186456660796
 31
0.0
  0
LINE
  5
8E7
330
1F
100
AcDbEntity
  8
0
100
AcDbLine
 10
362.3587759934884
 20
379.9186456660796
 30
0.0
 11
250.0435109305404
 21
379.9186456660796
 31
0.0
  0
LINE
  5
8E8
330
1F
100
AcDbEntity
  8
0
100
AcDbLine
 10
390.2077402773307
 20
383.1245655710237
 30
0.0
 11
390.2077402773307
 21
379.9186456660796
 31
0.0
  0
LINE
  5
8E9
330
1F
100
AcDbEntity
  8
0
100
AcDbLine
 10
370.9830407909508
 20
379.9186456660796
 30
0.0
 11
370.9830407909508
 21
377.9186456660823
 31
0.0
  0
LINE
  5
8EA
330
1F
100
AcDbEntity
  8
0
100
AcDbLine
 10
361.6214383078445
 20
379.9186456660796
 30
0.0
 11
361.6214383078445
 21
377.9186456660823
 31
0.0
  0
LINE
  5
8EB
330
1F
100
AcDbEntity
  8
P-0000
  6
Continuous
 62
     7
100
AcDbLine
 10
241.5522395493967
 20
388.6245655710236
 30
0.0
 11
245.0522395493972
 21
388.6245655710236
 31
0.0
1001
ACME_LAYERS
1000
1
  0
LINE
  5
8EC
330
1F
100
AcDbEntity
  8
P-0000
  6
Continuous
 62
     7
100
AcDbLine
 10
245.0522395493972
 20
388.6245655710236
 30
0.0
 11
250.0522395493967
 21
388.6245655710236
 31
0.0
1001
ACME_LAYERS
1000
1
  0
LINE
  5
8ED
330
1F
100
AcDbEntity
  8
P-0000
  6
Continuous
 62
     7
100
AcDbLine
 10
159.3904774385987
 20
388.6245655710236
 30
0.0
 11
163.8361755520195
 21
388.6245655710236
 31
0.0
1001
ACME_LAYERS
1000
1
  0
LINE
  5
8EE
330
1F
100
AcDbEntity
  8
P-0000
  6
Continuous
 62
     7
100
AcDbLine
 10
176.3904774385996
 20
388.6245655710236
 30
0.0
 11
172.3361755520213
 21
388.6245655710236
 31
0.0
1001
ACME_LAYERS
1000
1
  0
LINE
  5
8EF
330
1F
100
AcDbEntity
  8
P-0000
  6
Continuous
 62
     7
100
AcDbLine
 10
164.6361755520205
 20
388.6245655710236
 30
0.0
 11
172.3361755520213
 21
388.6245655710236
 31
0.0
1001
ACME_LAYERS
1000
1
  0
LINE
  5
8F0
330
1F
100
AcDbEntity
  8
P-0000
  6
Continuous
 62
     7
100
AcDbLine
 10
163.8361755520195
 20
388.6245655710236
 30
0.0
 11
164.6361755520205
 21
388.6245655710236
 31
0.0
1001
ACME_LAYERS
1000
1
  0
LINE
  5
8F1
330
1F
100
AcDbEntity
  8
P-0000
  6
Continuous
 62
     7
100
AcDbLine
 10
323.8051481956386
 20
388.6245655710236
 30
0.0
 11
328.2508463090594
 21
388.6245655710236
 31
0.0
1001
ACME_LAYERS
1000
1
  0
LINE
  5
8F2
330
1F
100
AcDbEntity
  8
P-0000
  6
Continuous
 62
     7
100
AcDbLine
 10
340.8051481956395
 20
388.6245655710236
 30
0.0
 11
336.7508463090617
 21
388.6245655710236
 31
0.0
1001
ACME_LAYERS
1000
1
  0
LINE
  5
8F3
330
1F
100
AcDbEntity
  8
P-0000
  6
Continuous
 62
     7
100
AcDbLine
 10
329.0508463090605
 20
388.6245655710236
 30
0.0
 11
336.7508463090617
 21
388.6245655710236
 31
0.0
1001
ACME_LAYERS
1000
1
  0
LINE
  5
8F4
330
1F
100
AcDbEntity
  8
P-0000
  6
Continuous
 62
     7
100
AcDbLine
 10
328.2508463090594
 20
388.6245655710236
 30
0.0
 11
329.0508463090605
 21
388.6245655710236
 31
0.0
1001
ACME_LAYERS
1000
1
  0
LINE
  5
8F5
330
1F
100
AcDbEntity
  8
P-0000
  6
Continuous
 62
     7
100
AcDbLine
 10
241.5978128171186
 20
388.6245655710236
 30
0.0
 11
246.0435109305395
 21
388.6245655710236
 31
0.0
1001
ACME_LAYERS
1000
1
  0
LINE
  5
8F6
330
1F
100
AcDbEntity
  8
P-0000
  6
Continuous
 62
     7
100
AcDbLine
 10
258.5978128171196
 20
388.6245655710236
 30
0.0
 11
254.5435109305426
 21
388.6245655710236
 31
0.0
1001
ACME_LAYERS
1000
1
  0
LINE
  5
8F7
330
1F
100
AcDbEntity
  8
P-0000
  6
Continuous
 62
     7
100
AcDbLine
 10
246.8435109305405
 20
388.6245655710236
 30
0.0
 11
254.5435109305426
 21
388.6245655710236
 31
0.0
1001
ACME_LAYERS
1000
1
  0
LINE
  5
8F8
330
1F
100
AcDbEntity
  8
P-0000
  6
Continuous
 62
     7
100
AcDbLine
 10
246.0435109305395
 20
388.6245655710236
 30
0.0
 11
246.8435109305405
 21
388.6245655710236
 31
0.0
1001
ACME_LAYERS
1000
1
  0
HATCH
  5
8F9
330
1F
100
AcDbEntity
  8
AM_8
100
AcDbHatch
 10
0.0
 20
0.0
 30
0.0
210
0.0
220
0.0
230
1.0
  2
ANSI37
 70
     0
 71
     0
 91
        5
 92
        7
 72
     0
 73
     1
 93
        5
 10
129.7289223330167
 20
377.5151883871964
 10
109.8800696487955
 20
377.4486281787763
 10
109.8507891182466
 20
377.4485299908223
 10
109.8642024545747
 20
373.4485524805846
 10
129.7423356693434
 20
373.5152108769576
 97
        0
 92
        7
 72
     1
 73
     1
 93
        8
 10
129.7047584762094
 20
384.7210677772832
 42
0.0
 10
122.0897648601353
 20
384.6955320160842
 42
0.1989123673796753
 10
120.6775235867208
 20
384.1050065414693
 42
0.0
 10
120.4356979191189
 20
383.8615535632994
 42
-0.198912367379606
 10
117.6112153722893
 20
382.6805026140673
 42
0.0
 10
109.8626124601514
 20
382.6545188137443
 42
0.0
 10
109.8733629806315
 20
379.4486169338944
 42
0.0
 10
129.7222156648527
 20
379.5151771423134
 42
0.0
 97
        0
 92
        7
 72
     0
 73
     1
 93
       11
 10
157.1982447017526
 20
382.8132518950874
 10
156.1697766159914
 20
382.8098030786114
 10
149.9247421893706
 20
382.7888612740835
 10
149.8899609618215
 20
382.7887446403515
 10
148.2678972554408
 20
382.7833052882592
 10
137.7679562910657
 20
382.7480952804021
 10
137.7478362865754
 20
388.7480615457603
 10
137.6913001603575
 20
388.7478719601754
 10
137.6980068285206
 20
386.7478832050542
 10
137.7221706853288
 20
379.5420038149674
 10
157.2089952222336
 20
379.6073500152362
 97
        0
 92
       23
 72
     1
 73
     1
 93
        7
 10
147.0924022920335
 20
383.9509429011641
 42
0.0
 10
146.8489493138626
 20
384.1927685687642
 42
0.1989123673796396
 10
145.4327793651932
 20
384.7738093823036
 42
0.0
 10
137.7612496229026
 20
384.7480840355211
 42
0.0
 10
137.7679562910657
 20
382.7480952804021
 42
0.0
 10
148.2678972554408
 20
382.7833052882592
 42
0.0
 10
149.9247421893697
 20
382.7888612740835
 42
-0.1989123673797568
 97
        0
 92
        7
 72
     0
 73
     1
 93
        5
 10
157.2157018903963
 20
377.6073612601194
 10
137.7288773534924
 20
377.5420150598506
 10
137.7422906898196
 20
373.5420375496105
 10
137.7640455884834
 20
373.5421105014634
 10
157.1998346961622
 20
373.6072855619263
 97
        0
 75
     0
 76
     1
 52
0.0
 41
0.5
 77
     0
 78
     2
 53
45.19213225026318
 43
-395.5706120371713
 44
-243.6354544783017
 45
-1.126289928628287
 46
1.118761478899985
 79
     0
 53
135.1921322502632
 43
-395.5706120371713
 44
-243.6354544783017
 45
-1.118761478899985
 46
-1.126289928628287
 79
     0
 47
0.0400806174687128
 98
        5
 10
124.7551434720844
 20
375.4837582511914
 10
124.6934811032738
 20
380.5352936240934
 10
140.5168180895698
 20
381.0368695516863
 10
140.8693537532634
 20
383.5230644354701
 10
142.8581480376915
 20
376.3552619030183
1001
ACAD
1010
0.0
1020
0.0
1030
0.0
  0
DIMENSION
  5
8FA
102
{ACAD_XDICTIONARY
360
8FB
102
}
102
{ACAD_REACTORS
330
8FC
102
}
330
1F
100
AcDbEntity
  8
AM_5
100
AcDbDimension
  2
*D5
 10
500.0870209724862
 20
522.6227937182019
 30
0.0
 11
257.0826997780946
 21
522.6227937182019
 31
0.0
 70
   160
  1
{\Famgdt;o}<>
 71
     5
 42
500.0870200838908
  3
AM_DIN$0
100
AcDbAlignedDimension
 13
0.000000888595423
 23
378.9186456660796
 33
0.0
 14
500.0870209724862
 24
378.9186456660796
 34
0.0
100
AcDbRotatedDimension
1001
ACAD_DSTYLE_DIMINSPECT
1070
   396
1000
100%
1070
   395
1000

1070
   394
1070
    33
1070
   393
1070
     0
1001
ACAD
1000
DSTYLE
1002
{
1070
    41
1040
5.0
1070
   140
1040
10.0
1070
   271
1070
     0
1002
}
  0
HATCH
  5
8FD
330
1F
100
AcDbEntity
  8
AM_8
100
AcDbHatch
 10
0.0
 20
0.0
 30
0.0
210
0.0
220
0.0
230
1.0
  2
_U
 70
     0
 71
     0
 91
        1
 92
        1
 93
       32
 72
     1
 10
147.5435109305526
 20
371.9186456660764
 11
157.1858992734355
 21
371.9186456660764
 72
     1
 10
157.1858992734355
 20
371.9186456660764
 11
159.1858992734364
 21
372.4545440509424
 72
     1
 10
159.1858992734364
 20
372.4545440509424
 11
165.3319083042805
 21
375.8711222890856
 72
     1
 10
165.3319083042805
 20
375.8711222890856
 11
188.5136439972834
 21
375.9186456660795
 72
     1
 10
188.5136439972834
 20
375.9186456660795
 11
190.2984352497224
 21
375.4983831124882
 72
     1
 10
190.2984352497224
 20
375.4983831124882
 11
193.5221866298975
 21
371.9186456660946
 72
     1
 10
193.5221866298975
 20
371.9186456660946
 11
197.8884818961441
 21
365.8667736767893
 72
     1
 10
197.8884818961432
 20
365.8667736767884
 11
198.0435109305253
 21
362.3221152912543
 72
     1
 10
198.0435109305253
 20
362.3221152912543
 11
198.5435109305253
 21
360.9186456660796
 72
     1
 10
198.5435109305253
 20
360.9186456660796
 11
200.0435109305254
 21
360.9186456660796
 72
     1
 10
200.0435109305254
 20
360.9186456660796
 11
200.0435109305254
 21
364.9148597075737
 72
     1
 10
200.0435109305254
 20
364.9148597075737
 11
199.0366884807613
 21
367.9239348233346
 72
     1
 10
199.0366884807613
 20
367.9239348233346
 11
193.3054570575686
 21
375.5295358049925
 72
     1
 10
193.3054570575686
 20
375.5295358049925
 11
191.1908308759425
 21
377.2882518356923
 72
     1
 10
191.1908308759425
 20
377.2882518356923
 11
188.5136439972843
 21
377.9186456660796
 72
     1
 10
188.5136439972834
 20
377.9186456660796
 11
165.7653077002287
 21
377.9186456660796
 72
     1
 10
165.7653077002287
 20
377.9186456660796
 11
163.7217976582988
 21
377.3827472812172
 72
     1
 10
163.7217976582988
 20
377.3827472812172
 11
159.3063450383856
 21
374.8334845225163
 72
     1
 10
159.3063450383856
 20
374.8334845225163
 11
157.1858992734355
 21
373.9186456660795
 72
     1
 10
157.1858992734355
 20
373.9186456660795
 11
109.5717976582973
 21
373.9186456660795
 72
     2
 10
109.5717976582996
 20
375.9186456660795
 40
1.999999999999543
 50
90.00000000004559
 51
120.0000000000595
 73
     0
 72
     1
 10
108.5717976582973
 20
374.1865948585124
 11
105.1345426486655
 21
376.1710949635944
 72
     1
 10
105.1345426486655
 20
376.1710949635944
 11
103.1345426486655
 21
376.7069933484581
 72
     1
 10
103.1345426486655
 20
376.7069933484581
 11
100.3061155239197
 21
375.5354204732054
 72
     1
 10
100.3061155239183
 20
375.5354204732043
 11
99.60355427916555
 21
374.8328592284533
 72
     1
 10
99.60355427916649
 20
374.8328592284533
 11
101.0177678415398
 21
373.4186456660796
 72
     1
 10
101.0177678415398
 20
373.4186456660796
 11
101.7203290862926
 21
374.1212069108324
 72
     2
 10
103.1345426486646
 20
372.7069933484581
 40
1.999999999999934
 50
225.0000000000069
 51
300.0000000000272
 73
     0
 72
     1
 10
104.1345426486655
 20
374.4390441560263
 11
107.5717976582964
 21
372.4545440509414
 72
     1
 10
107.5717976582964
 20
372.4545440509414
 11
109.5717976582973
 21
371.9186456660805
 72
     1
 10
109.5717976582973
 20
371.9186456660805
 11
109.9829298847685
 21
371.9186456660805
 72
     1
 10
109.9829298847685
 20
371.9186456660805
 11
147.5435109305526
 21
371.9186456660764
 97
        0
 75
     0
 76
     0
 52
45.0
 41
2.5
 77
     0
 78
     1
 53
45.0
 43
-1214.590073551853
 44
-537.1012506991454
 45
-1.767766952966368
 46
1.767766952966368
 79
     0
 98
        1
 10
-1214.590073551853
 20
-537.1012506991454
1001
GENIUS_GENOBJ-N-HTC_13
1002
{
1000
OWNER
1000
GEN
1002
}
1001
GENIUS_GENODEF_13
1002
{
1000
HIER
1070
     0
1002
}
1002
{
1000
MANEDIT
1070
     0
1002
}
1002
{
1000
NOSEL
1070
     0
1002
}
1002
{
1000
BEHIND
1070
     0
1002
}
1002
{
1000
OTHER
1070
     0
1002
}
1002
{
1000
REACTOR
1002
}
1001
GENIUS_GENHATCH_13
1002
{
1000
DATA
1040
45.0
1042
2.5
1000
_U
1070
     0
1011
109.9829298847685
1021
372.7109497176652
1031
0.0
1002
}
1002
{
1000
UCS
1010
0.0
1020
0.0
1030
0.0
1010
1.0
1020
0.0
1030
0.0
1010
0.0
1020
1.0
1030
0.0
1002
}
  0
HATCH
  5
8FE
330
1F
100
AcDbEntity
  8
AM_8
100
AcDbHatch
 10
0.0
 20
0.0
 30
0.0
210
0.0
220
0.0
230
1.0
  2
_U
 70
     0
 71
     0
 91
        1
 92
        1
 93
       32
 72
     1
 10
352.5435109305135
 20
371.9186456657912
 11
342.9011225876298
 21
371.9186456658186
 72
     1
 10
342.9011225876298
 20
371.9186456658186
 11
340.9011225876307
 21
372.4545440506895
 72
     1
 10
340.9011225876307
 20
372.4545440506895
 11
334.7551135567956
 21
375.8711222888496
 72
     1
 10
334.7551135567956
 20
375.8711222888496
 11
311.5733778637914
 21
375.9186456659081
 72
     1
 10
311.5733778637914
 20
375.9186456659081
 11
309.7885866113515
 21
375.4983831123213
 72
     1
 10
309.7885866113515
 20
375.4983831123221
 11
306.5648352311669
 21
371.9186456659372
 72
     1
 10
306.5648352311669
 20
371.9186456659372
 11
302.1985399649034
 21
365.8667736766433
 72
     1
 10
302.1985399649034
 20
365.8667736766442
 11
302.0435109305126
 21
362.3221152911114
 72
     1
 10
302.0435109305126
 20
362.3221152911102
 11
301.5435109305085
 21
360.9186456659362
 72
     1
 10
301.5435109305077
 20
360.9186456659362
 11
300.0435109305076
 21
360.9186456659404
 72
     1
 10
300.0435109305076
 20
360.9186456659404
 11
300.0435109305195
 21
364.9148597074344
 72
     1
 10
300.0435109305195
 20
364.9148597074344
 11
301.0503333802912
 21
367.9239348231913
 72
     1
 10
301.0503333802912
 20
367.9239348231913
 11
306.7815648035066
 21
375.5295358048329
 72
     1
 10
306.7815648035066
 20
375.5295358048343
 11
308.8961909851378
 21
377.2882518355282
 72
     1
 10
308.8961909851364
 20
377.2882518355282
 11
311.5733778637968
 21
377.9186456659072
 72
     1
 10
311.5733778637973
 20
377.9186456659072
 11
334.3217141608516
 21
377.9186456658454
 72
     1
 10
334.3217141608516
 20
377.9186456658454
 11
336.3652242027806
 21
377.3827472809776
 72
     1
 10
336.3652242027806
 20
377.3827472809776
 11
340.7806768226865
 21
374.8334845222644
 72
     1
 10
340.7806768226865
 20
374.8334845222644
 11
342.9011225876347
 21
373.9186456658213
 72
     1
 10
342.9011225876347
 20
373.9186456658213
 11
390.5152242027725
 21
373.9186456656885
 72
     2
 10
390.5152242027757
 20
375.9186456656885
 40
1.999999999999543
 50
269.9999999998861
 51
299.9999999999001
 73
     1
 72
     1
 10
391.5152242027734
 20
374.1865948581185
 11
394.9524792124107
 21
376.1710949631924
 72
     1
 10
394.9524792124107
 20
376.1710949631912
 11
396.9524792124125
 21
376.7069933480484
 72
     1
 10
396.9524792124125
 20
376.7069933480493
 11
399.7809063371556
 21
375.5354204727883
 72
     1
 10
399.7809063371556
 20
375.5354204727883
 11
400.4834675819065
 21
374.8328592280345
 72
     1
 10
400.4834675819065
 20
374.8328592280345
 11
399.0692540195297
 21
373.4186456656644
 72
     1
 10
399.0692540195287
 20
373.4186456656644
 11
398.3666927747786
 21
374.1212069104195
 72
     2
 10
396.9524792124017
 20
372.7069933480493
 40
1.999999999999934
 50
404.9999999998474
 51
479.9999999998678
 73
     1
 72
     1
 10
395.9524792124057
 20
374.4390441556206
 11
392.5152242027684
 21
372.4545440505445
 72
     1
 10
392.5152242027675
 20
372.4545440505445
 11
390.5152242027666
 21
371.9186456656885
 72
     1
 10
390.5152242027666
 20
371.9186456656885
 11
390.1040919762968
 21
371.9186456656894
 72
     1
 10
390.1040919762968
 20
371.9186456656903
 11
352.5435109305135
 21
371.9186456657912
 97
        0
 75
     0
 76
     0
 52
45.0
 41
2.5
 77
     0
 78
     1
 53
45.0
 43
-1214.590073551853
 44
-537.1012506991454
 45
-1.767766952966368
 46
1.767766952966368
 79
     0
 98
        1
 10
1714.677095410387
 20
-537.1012507032217
1001
GENIUS_GENOBJ-N-HTC_13
1002
{
1000
OWNER
1000
GEN
1002
}
1001
GENIUS_GENODEF_13
1002
{
1000
HIER
1070
     0
1002
}
1002
{
1000
MANEDIT
1070
     0
1002
}
1002
{
1000
NOSEL
1070
     0
1002
}
1002
{
1000
BEHIND
1070
     0
1002
}
1002
{
1000
OTHER
1070
     0
1002
}
1002
{
1000
REACTOR
1002
}
1001
GENIUS_GENHATCH_13
1002
{
1000
DATA
1040
45.0
1042
-2.5
1000
_U
1070
     0
1011
390.1040919762973
1021
372.7109497172755
1031
0.0
1002
}
1002
{
1000
UCS
1010
0.0
1020
0.0
1030
0.0
1010
1.0
1020
0.0
1030
0.0
1010
0.0
1020
1.0
1030
0.0
1002
}
1001
ACAD
1010
0.0
1020
0.0
1030
0.0
  0
LINE
  5
8FF
330
1F
100
AcDbEntity
  8
P-0000
  6
STRICHPUNKT
 62
     3
100
AcDbLine
 10
250.0435109305144
 20
72.87658317604744
 30
0.0
 11
250.0435109305144
 21
64.87658317604746
 31
0.0
1001
ACME_LAYERS
1000
1
  0
LINE
  5
900
330
1F
100
AcDbEntity
  8
P-0000
  6
STRICHPUNKT
 62
     3
100
AcDbLine
 10
250.0435109305144
 20
64.87658317604746
 30
0.0
 11
250.0435109305144
 21
44.37658317604745
 31
0.0
1001
ACME_LAYERS
1000
1
  0
LINE
  5
901
330
1F
100
AcDbEntity
  8
P-0000
  6
Continuous
 62
     7
100
AcDbLine
 10
162.7673250739694
 20
388.6151184559785
 30
0.0
 11
162.6953589114696
 21
388.6151184559785
 31
0.0
1001
ACME_LAYERS
1000
1
  0
LINE
  5
902
330
1F
100
AcDbEntity
  8
P-0000
  6
Continuous
 62
     7
100
AcDbLine
 10
337.2847823116836
 20
388.6151184559785
 30
0.0
 11
337.3567484741848
 21
388.6151184559785
 31
0.0
1001
ACME_LAYERS
1000
1
  0
LINE
  5
903
330
1F
100
AcDbEntity
  8
P-0000
  6
Continuous
 62
     7
100
AcDbLine
 10
163.8187183143068
 20
388.6151184559785
 30
0.0
 11
164.6187183143074
 21
388.6151184559785
 31
0.0
1001
ACME_LAYERS
1000
1
  0
LINE
  5
904
330
1F
100
AcDbEntity
  8
P-0000
  6
Continuous
 62
     7
100
AcDbLine
 10
328.2333890713462
 20
388.6151184559785
 30
0.0
 11
329.0333890713473
 21
388.6151184559785
 31
0.0
1001
ACME_LAYERS
1000
1
  0
LINE
  5
905
330
1F
100
AcDbEntity
  8
AM_7
  6
AM_DIN_G_W050x2
100
AcDbLine
 10
133.7282458675922
 20
390.1245655710237
 30
0.0
 11
133.7282458675922
 21
370.9186456660796
 31
0.0
1001
GENIUS_GENODEF_13
1002
{
1000
HIER
1070
     0
1002
}
1002
{
1000
MANEDIT
1070
     0
1002
}
1002
{
1000
NOSEL
1070
     0
1002
}
1002
{
1000
BEHIND
1070
     0
1002
}
1002
{
1000
OTHER
1070
     0
1002
}
1002
{
1000
REACTOR
1002
}
1001
GENIUS_GENOBJ-N-CEN_13
1002
{
1000
OWNER
1000
GEN
1002
}
1001
GENIUS_GENCEN_19
1002
{
1040
3.0
1002
}
  0
LINE
  5
906
330
1F
100
AcDbEntity
  8
0
100
AcDbLine
 10
129.7847823116835
 20
388.6245655710236
 30
0.0
 11
137.7847823116835
 21
388.6245655710236
 31
0.0
  0
LINE
  5
907
330
1F
100
AcDbEntity
  8
P-0000
  6
Continuous
 62
     7
100
AcDbLine
 10
162.7282458675827
 20
388.6245655709163
 30
0.0
 11
162.6562797050815
 21
388.6245655709163
 31
0.0
1001
ACME_LAYERS
1000
1
  0
LINE
  5
908
330
1F
100
AcDbEntity
  8
P-0000
  6
Continuous
 62
     7
100
AcDbLine
 10
137.7282458675827
 20
389.1245655709181
 30
0.0
 11
138.2282458675836
 21
389.1245655709181
 31
0.0
1001
ACME_LAYERS
1000
1
  0
LINE
  5
909
330
1F
100
AcDbEntity
  8
P-0000
  6
Continuous
 62
     7
100
AcDbLine
 10
136.9282458675825
 20
389.1245655709181
 30
0.0
 11
137.7282458675827
 21
389.1245655709181
 31
0.0
1001
ACME_LAYERS
1000
1
  0
LINE
  5
90A
330
1F
100
AcDbEntity
  8
P-0000
  6
Continuous
 62
     7
100
AcDbLine
 10
371.2457031052954
 20
391.1245655709181
 30
0.0
 11
361.2457031052954
 21
391.1245655709181
 31
0.0
1001
ACME_LAYERS
1000
1
  0
LINE
  5
90B
330
1F
100
AcDbEntity
  8
P-0000
  6
Continuous
 62
     7
100
AcDbLine
 10
369.4457031052966
 20
402.27184701063
 30
0.0
 11
366.2457031052954
 21
402.27184701063
 31
0.0
1001
ACME_LAYERS
1000
1
  0
LINE
  5
90C
330
1F
100
AcDbEntity
  8
P-0000
  6
Continuous
 62
     7
100
AcDbLine
 10
363.0457031052956
 20
401.6718470106316
 30
0.0
 11
369.4457031052966
 21
401.6718470106316
 31
0.0
1001
ACME_LAYERS
1000
1
  0
LINE
  5
90D
330
1F
100
AcDbEntity
  8
P-0000
  6
Continuous
 62
     7
100
AcDbLine
 10
370.2457031052954
 20
401.6718470106316
 30
0.0
 11
370.2457031052954
 21
398.7245655709175
 31
0.0
1001
ACME_LAYERS
1000
1
  0
LINE
  5
90E
330
1F
100
AcDbEntity
  8
P-0000
  6
Continuous
 62
     3
100
AcDbLine
 10
369.4457031052966
 20
402.27184701063
 30
0.0
 11
369.4457031052966
 21
398.7245655709175
 31
0.0
1001
ACME_LAYERS
1000
1
  0
LINE
  5
90F
330
1F
100
AcDbEntity
  8
P-0000
  6
Continuous
 62
     7
100
AcDbLine
 10
369.4457031052966
 20
401.6718470106316
 30
0.0
 11
370.2457031052954
 21
401.6718470106316
 31
0.0
1001
ACME_LAYERS
1000
1
  0
LINE
  5
910
330
1F
100
AcDbEntity
  8
P-0000
  6
Continuous
 62
     3
100
AcDbLine
 10
369.4457031052966
 20
402.27184701063
 30
0.0
 11
369.4457031052966
 21
401.6718470106316
 31
0.0
1001
ACME_LAYERS
1000
1
  0
LINE
  5
911
330
1F
100
AcDbEntity
  8
P-0000
  6
Continuous
 62
     7
100
AcDbLine
 10
370.2457031052954
 20
401.6718470106316
 30
0.0
 11
369.4457031052966
 21
402.27184701063
 31
0.0
1001
ACME_LAYERS
1000
1
  0
LINE
  5
912
330
1F
100
AcDbEntity
  8
P-0000
  6
Continuous
 62
     7
100
AcDbLine
 10
362.2457031052954
 20
401.6718470106316
 30
0.0
 11
362.2457031052954
 21
398.7245655709175
 31
0.0
1001
ACME_LAYERS
1000
1
  0
LINE
  5
913
330
1F
100
AcDbEntity
  8
P-0000
  6
STRICHPUNKT
 62
     3
100
AcDbLine
 10
366.2457031052954
 20
398.7245655709175
 30
0.0
 11
366.2457031052954
 21
402.27184701063
 31
0.0
1001
ACME_LAYERS
1000
1
  0
LINE
  5
914
330
1F
100
AcDbEntity
  8
P-0000
  6
Continuous
 62
     3
100
AcDbLine
 10
363.0457031052956
 20
402.27184701063
 30
0.0
 11
363.0457031052956
 21
398.7245655709175
 31
0.0
1001
ACME_LAYERS
1000
1
  0
LINE
  5
915
330
1F
100
AcDbEntity
  8
P-0000
  6
Continuous
 62
     3
100
AcDbLine
 10
363.0457031052956
 20
402.27184701063
 30
0.0
 11
363.0457031052956
 21
401.6718470106316
 31
0.0
1001
ACME_LAYERS
1000
1
  0
LINE
  5
916
330
1F
100
AcDbEntity
  8
P-0000
  6
Continuous
 62
     7
100
AcDbLine
 10
362.2457031052954
 20
401.6718470106316
 30
0.0
 11
363.0457031052956
 21
401.6718470106316
 31
0.0
1001
ACME_LAYERS
1000
1
  0
LINE
  5
917
330
1F
100
AcDbEntity
  8
P-0000
  6
Continuous
 62
     7
100
AcDbLine
 10
363.0457031052956
 20
402.27184701063
 30
0.0
 11
362.2457031052954
 21
401.6718470106316
 31
0.0
1001
ACME_LAYERS
1000
1
  0
LINE
  5
918
330
1F
100
AcDbEntity
  8
P-0000
  6
Continuous
 62
     7
100
AcDbLine
 10
366.2457031052954
 20
402.27184701063
 30
0.0
 11
363.0457031052956
 21
402.27184701063
 31
0.0
1001
ACME_LAYERS
1000
1
  0
LINE
  5
919
330
1F
100
AcDbEntity
  8
P-0000
  6
Continuous
 62
     7
100
AcDbLine
 10
362.2457031052968
 20
398.7245655709175
 30
0.0
 11
369.4457031052966
 21
398.7245655709175
 31
0.0
1001
ACME_LAYERS
1000
1
  0
LINE
  5
91A
330
1F
100
AcDbEntity
  8
P-0000
  6
Continuous
 62
     7
100
AcDbLine
 10
369.4457031052966
 20
398.7245655709175
 30
0.0
 11
370.2457031052968
 21
398.7245655709175
 31
0.0
1001
ACME_LAYERS
1000
1
  0
LINE
  5
91B
330
1F
100
AcDbEntity
  8
P-0000
  6
Continuous
 62
     7
100
AcDbLine
 10
374.6914012187162
 20
392.6245655709163
 30
0.0
 11
374.6914012187162
 21
391.1245655709181
 31
0.0
1001
ACME_LAYERS
1000
1
  0
LINE
  5
91C
330
1F
100
AcDbEntity
  8
P-0000
  6
Continuous
 62
     7
100
AcDbLine
 10
357.6914012187162
 20
391.1245655709181
 30
0.0
 11
357.6914012187162
 21
392.6245655709163
 31
0.0
1001
ACME_LAYERS
1000
1
  0
LINE
  5
91D
330
1F
100
AcDbEntity
  8
P-0000
  6
Continuous
 62
     7
100
AcDbLine
 10
337.2457031052968
 20
388.6245655709163
 30
0.0
 11
337.3176692677966
 21
388.6245655709163
 31
0.0
1001
ACME_LAYERS
1000
1
  0
LINE
  5
91E
330
1F
100
AcDbEntity
  8
P-0000
  6
Continuous
 62
     7
100
AcDbLine
 10
374.6914012187162
 20
392.7245655709175
 30
0.0
 11
374.6914012187162
 21
392.6245655709163
 31
0.0
1001
ACME_LAYERS
1000
1
  0
LINE
  5
91F
330
1F
100
AcDbEntity
  8
P-0000
  6
Continuous
 62
     7
100
AcDbLine
 10
357.6914012187162
 20
392.7245655709175
 30
0.0
 11
374.6914012187162
 21
392.7245655709175
 31
0.0
1001
ACME_LAYERS
1000
1
  0
LINE
  5
920
330
1F
100
AcDbEntity
  8
P-0000
  6
Continuous
 62
     7
100
AcDbLine
 10
357.6914012187162
 20
392.6245655709163
 30
0.0
 11
357.6914012187162
 21
392.7245655709175
 31
0.0
1001
ACME_LAYERS
1000
1
  0
LINE
  5
921
330
1F
100
AcDbEntity
  8
P-0000
  6
Continuous
 62
     7
100
AcDbLine
 10
358.7401496058305
 20
394.6115047628254
 30
0.0
 11
358.7401496058305
 21
393.3051221545174
 31
0.0
1001
ACME_LAYERS
1000
1
  0
LINE
  5
922
330
1F
100
AcDbEntity
  8
P-0000
  6
Continuous
 62
     7
100
AcDbLine
 10
372.7457031052968
 20
392.7245655709175
 30
0.0
 11
359.7457031052977
 21
392.7245655709175
 31
0.0
1001
ACME_LAYERS
1000
1
  0
LINE
  5
923
330
1F
100
AcDbEntity
  8
P-0000
  6
Continuous
 62
     7
100
AcDbLine
 10
373.7512566047616
 20
394.6115047628254
 30
0.0
 11
373.7512566047616
 21
393.3051221545174
 31
0.0
1001
ACME_LAYERS
1000
1
  0
LINE
  5
924
330
1F
100
AcDbEntity
  8
P-0000
  6
Continuous
 62
     7
100
AcDbLine
 10
370.2457031052968
 20
398.7245655709175
 30
0.0
 11
372.7457031052968
 21
398.7245655709175
 31
0.0
1001
ACME_LAYERS
1000
1
  0
LINE
  5
925
330
1F
100
AcDbEntity
  8
P-0000
  6
Continuous
 62
     7
100
AcDbLine
 10
358.9868211944877
 20
393.1517091365504
 30
0.0
 11
359.7457031052977
 21
392.7245655709175
 31
0.0
1001
ACME_LAYERS
1000
1
  0
LINE
  5
926
330
1F
100
AcDbEntity
  8
P-0000
  6
Continuous
 62
     7
100
AcDbLine
 10
358.9868211944877
 20
398.2974220052815
 30
0.0
 11
359.7457031052977
 21
398.7245655709175
 31
0.0
1001
ACME_LAYERS
1000
1
  0
LINE
  5
927
330
1F
100
AcDbEntity
  8
P-0000
  6
Continuous
 62
     7
100
AcDbLine
 10
373.5045850161037
 20
393.1517091365504
 30
0.0
 11
372.7457031052968
 21
392.7245655709175
 31
0.0
1001
ACME_LAYERS
1000
1
  0
LINE
  5
928
330
1F
100
AcDbEntity
  8
P-0000
  6
Continuous
 62
     7
100
AcDbLine
 10
373.5045850161037
 20
398.2974220052815
 30
0.0
 11
372.7457031052968
 21
398.7245655709175
 31
0.0
1001
ACME_LAYERS
1000
1
  0
LINE
  5
929
330
1F
100
AcDbEntity
  8
P-0000
  6
Continuous
 62
     7
100
AcDbLine
 10
359.7457031052977
 20
398.7245655709175
 30
0.0
 11
362.2457031052968
 21
398.7245655709175
 31
0.0
1001
ACME_LAYERS
1000
1
  0
LINE
  5
92A
330
1F
100
AcDbEntity
  8
P-0000
  6
Continuous
 62
     7
100
AcDbLine
 10
373.7512566047616
 20
398.1440089873154
 30
0.0
 11
373.7512566047616
 21
394.6115047628254
 31
0.0
1001
ACME_LAYERS
1000
1
  0
LINE
  5
92B
330
1F
100
AcDbEntity
  8
P-0000
  6
Continuous
 62
     7
100
AcDbLine
 10
369.9984798550286
 20
398.1440089873154
 30
0.0
 11
369.9984798550286
 21
392.7245655709175
 31
0.0
1001
ACME_LAYERS
1000
1
  0
LINE
  5
92C
330
1F
100
AcDbEntity
  8
P-0000
  6
Continuous
 62
     7
100
AcDbLine
 10
362.4929263555637
 20
398.1440089873154
 30
0.0
 11
362.4929263555637
 21
392.7245655709175
 31
0.0
1001
ACME_LAYERS
1000
1
  0
LINE
  5
92D
330
1F
100
AcDbEntity
  8
P-0000
  6
Continuous
 62
     7
100
AcDbLine
 10
358.7401496058305
 20
398.1440089873154
 30
0.0
 11
358.7401496058305
 21
394.6115047628254
 31
0.0
1001
ACME_LAYERS
1000
1
  0
LINE
  5
92E
330
1F
100
AcDbEntity
  8
P-0000
  6
Continuous
 62
     7
100
AcDbLine
 10
374.6914012187162
 20
391.1245655709181
 30
0.0
 11
370.2457031052968
 21
391.1245655709181
 31
0.0
1001
ACME_LAYERS
1000
1
  0
LINE
  5
92F
330
1F
100
AcDbEntity
  8
P-0000
  6
Continuous
 62
     7
100
AcDbLine
 10
357.6914012187162
 20
391.1245655709181
 30
0.0
 11
361.7457031052945
 21
391.1245655709181
 31
0.0
1001
ACME_LAYERS
1000
1
  0
LINE
  5
930
330
1F
100
AcDbEntity
  8
P-0000
  6
Continuous
 62
     7
100
AcDbLine
 10
362.2457031052968
 20
389.1245655709181
 30
0.0
 11
361.7457031052945
 21
389.1245655709181
 31
0.0
1001
ACME_LAYERS
1000
1
  0
LINE
  5
931
330
1F
100
AcDbEntity
  8
P-0000
  6
Continuous
 62
     7
100
AcDbLine
 10
363.0457031052956
 20
389.1245655709181
 30
0.0
 11
362.2457031052968
 21
389.1245655709181
 31
0.0
1001
ACME_LAYERS
1000
1
  0
LINE
  5
932
330
1F
100
AcDbEntity
  8
P-0000
  6
Continuous
 62
     7
100
AcDbLine
 10
369.4457031052966
 20
389.1245655709181
 30
0.0
 11
363.0457031052956
 21
389.1245655709181
 31
0.0
1001
ACME_LAYERS
1000
1
  0
LINE
  5
933
330
1F
100
AcDbEntity
  8
P-0000
  6
Continuous
 62
     7
100
AcDbLine
 10
370.2457031052968
 20
389.1245655709181
 30
0.0
 11
369.4457031052966
 21
389.1245655709181
 31
0.0
1001
ACME_LAYERS
1000
1
  0
ARC
  5
934
330
1F
100
AcDbEntity
  8
P-0000
  6
Continuous
 62
     7
100
AcDbCircle
 10
366.2457031052968
 20
405.1440089873143
 30
0.0
 40
12.41944341639904
100
AcDbArc
 50
252.4120462260076
 51
287.5879537739924
1001
ACME_LAYERS
1000
1
  0
ARC
  5
935
330
1F
100
AcDbEntity
  8
P-0000
  6
Continuous
 62
     7
100
AcDbCircle
 10
366.2457031052968
 20
386.3051221545165
 30
0.0
 40
12.41944341639904
100
AcDbArc
 50
72.41204622600756
 51
107.5879537739924
1001
ACME_LAYERS
1000
1
  0
ARC
  5
936
330
1F
100
AcDbEntity
  8
P-0000
  6
Continuous
 62
     7
100
AcDbCircle
 10
360.6165379806962
 20
396.0471351438664
 30
0.0
 40
3.322569572950221
100
AcDbArc
 50
240.6266206051644
 51
304.3842474680531
1001
ACME_LAYERS
1000
1
  0
ARC
  5
937
330
1F
100
AcDbEntity
  8
P-0000
  6
Continuous
 62
     7
100
AcDbCircle
 10
360.6165379806953
 20
395.4019959979655
 30
0.0
 40
3.322569572950149
100
AcDbArc
 50
119.3733793948355
 51
124.3842474680531
1001
ACME_LAYERS
1000
1
  0
ARC
  5
938
330
1F
100
AcDbEntity
  8
P-0000
  6
Continuous
 62
     7
100
AcDbCircle
 10
371.8748682298933
 20
396.0471351438664
 30
0.0
 40
3.322569572950221
100
AcDbArc
 50
299.3733793948356
 51
304.3842474680531
1001
ACME_LAYERS
1000
1
  0
ARC
  5
939
330
1F
100
AcDbEntity
  8
P-0000
  6
Continuous
 62
     7
100
AcDbCircle
 10
371.8748682298933
 20
395.4019959979664
 30
0.0
 40
3.322569572949122
100
AcDbArc
 50
60.62662060516443
 51
124.3842474680243
1001
ACME_LAYERS
1000
1
  0
ARC
  5
93A
330
1F
100
AcDbEntity
  8
P-0000
  6
Continuous
 62
     7
100
AcDbCircle
 10
360.6165379806962
 20
396.0471351438664
 30
0.0
 40
3.322569572949876
100
AcDbArc
 50
235.6157525319468
 51
240.6266206051644
1001
ACME_LAYERS
1000
1
  0
ARC
  5
93B
330
1F
100
AcDbEntity
  8
P-0000
  6
Continuous
 62
     7
100
AcDbCircle
 10
360.6165379806962
 20
395.4019959979664
 30
0.0
 40
3.322569572949888
100
AcDbArc
 50
55.61575253194686
 51
119.3733793948355
1001
ACME_LAYERS
1000
1
  0
ARC
  5
93C
330
1F
100
AcDbEntity
  8
P-0000
  6
Continuous
 62
     7
100
AcDbCircle
 10
371.8748682298933
 20
396.0471351438664
 30
0.0
 40
3.322569572949872
100
AcDbArc
 50
235.6157525319757
 51
299.3733793948356
1001
ACME_LAYERS
1000
1
  0
ARC
  5
93D
330
1F
100
AcDbEntity
  8
P-0000
  6
Continuous
 62
     7
100
AcDbCircle
 10
371.8748682298933
 20
395.4019959979664
 30
0.0
 40
3.322569572949884
100
AcDbArc
 50
55.61575253194686
 51
60.62662060516443
1001
ACME_LAYERS
1000
1
  0
LINE
  5
93E
330
1F
100
AcDbEntity
  8
P-0000
  6
Continuous
 62
     7
100
AcDbLine
 10
138.7457031052954
 20
389.1245655709181
 30
0.0
 11
144.1569475073756
 21
389.1245655709181
 31
0.0
1001
ACME_LAYERS
1000
1
  0
LINE
  5
93F
330
1F
100
AcDbEntity
  8
P-0000
  6
Continuous
 62
     7
100
AcDbLine
 10
128.7457031052954
 20
389.1245655709181
 30
0.0
 11
138.7457031052954
 21
389.1245655709181
 31
0.0
1001
ACME_LAYERS
1000
1
  0
LINE
  5
940
330
1F
100
AcDbEntity
  8
P-0000
  6
Continuous
 62
     7
100
AcDbLine
 10
144.1569475073756
 20
389.1245655709181
 30
0.0
 11
146.1569475073747
 21
389.1245655709181
 31
0.0
1001
ACME_LAYERS
1000
1
  0
LINE
  5
941
330
1F
100
AcDbEntity
  8
P-0000
  6
Continuous
 62
     7
100
AcDbLine
 10
119.7457031052954
 20
389.1245655709181
 30
0.0
 11
128.7457031052954
 21
389.1245655709181
 31
0.0
1001
ACME_LAYERS
1000
1
  0
LINE
  5
942
330
1F
100
AcDbEntity
  8
P-0000
  6
Continuous
 62
     7
100
AcDbLine
 10
159.3339409944974
 20
388.6245655709163
 30
0.0
 11
163.7796391079196
 21
388.6245655709163
 31
0.0
1001
ACME_LAYERS
1000
1
  0
LINE
  5
943
330
1F
100
AcDbEntity
  8
P-0000
  6
Continuous
 62
     7
100
AcDbLine
 10
176.3339409944974
 20
388.6245655709163
 30
0.0
 11
172.2796391079205
 21
388.6245655709163
 31
0.0
1001
ACME_LAYERS
1000
1
  0
LINE
  5
944
330
1F
100
AcDbEntity
  8
P-0000
  6
Continuous
 62
     7
100
AcDbLine
 10
164.5796391079197
 20
388.6245655709163
 30
0.0
 11
172.2796391079205
 21
388.6245655709163
 31
0.0
1001
ACME_LAYERS
1000
1
  0
LINE
  5
945
330
1F
100
AcDbEntity
  8
P-0000
  6
Continuous
 62
     7
100
AcDbLine
 10
163.7796391079196
 20
388.6245655709163
 30
0.0
 11
164.5796391079197
 21
388.6245655709163
 31
0.0
1001
ACME_LAYERS
1000
1
  0
LINE
  5
946
330
1F
100
AcDbEntity
  8
P-0000
  6
Continuous
 62
     7
100
AcDbLine
 10
328.1943098649585
 20
399.1072332636782
 30
0.0
 11
328.1943098649585
 21
396.2245655709144
 31
0.0
1001
ACME_LAYERS
1000
1
  0
LINE
  5
947
330
1F
100
AcDbEntity
  8
P-0000
  6
Continuous
 62
     3
100
AcDbLine
 10
328.9943098649587
 20
398.6453530483254
 30
0.0
 11
328.9943098649587
 21
396.2245655709144
 31
0.0
1001
ACME_LAYERS
1000
1
  0
LINE
  5
948
330
1F
100
AcDbEntity
  8
P-0000
  6
Continuous
 62
     7
100
AcDbLine
 10
333.1872367701603
 20
396.2245655709144
 30
0.0
 11
328.9943098649596
 21
396.2245655709144
 31
0.0
1001
ACME_LAYERS
1000
1
  0
LINE
  5
949
330
1F
100
AcDbEntity
  8
P-0000
  6
Continuous
 62
     7
100
AcDbLine
 10
328.9943098649596
 20
396.2245655709144
 30
0.0
 11
328.1943098649585
 21
396.2245655709144
 31
0.0
1001
ACME_LAYERS
1000
1
  0
LINE
  5
94A
330
1F
100
AcDbEntity
  8
P-0000
  6
Continuous
 62
     7
100
AcDbLine
 10
323.7486117515396
 20
390.1245655709145
 30
0.0
 11
323.7486117515396
 21
388.6245655709163
 31
0.0
1001
ACME_LAYERS
1000
1
  0
LINE
  5
94B
330
1F
100
AcDbEntity
  8
P-0000
  6
Continuous
 62
     7
100
AcDbLine
 10
340.7486117515386
 20
388.6245655709163
 30
0.0
 11
340.7486117515386
 21
390.1245655709145
 31
0.0
1001
ACME_LAYERS
1000
1
  0
LINE
  5
94C
330
1F
100
AcDbEntity
  8
P-0000
  6
Continuous
 62
     7
100
AcDbLine
 10
323.7486117515396
 20
390.2245655709144
 30
0.0
 11
323.7486117515396
 21
390.1245655709145
 31
0.0
1001
ACME_LAYERS
1000
1
  0
LINE
  5
94D
330
1F
100
AcDbEntity
  8
P-0000
  6
Continuous
 62
     7
100
AcDbLine
 10
340.7486117515386
 20
390.2245655709144
 30
0.0
 11
323.7486117515396
 21
390.2245655709144
 31
0.0
1001
ACME_LAYERS
1000
1
  0
LINE
  5
94E
330
1F
100
AcDbEntity
  8
P-0000
  6
Continuous
 62
     7
100
AcDbLine
 10
340.7486117515386
 20
390.1245655709145
 30
0.0
 11
340.7486117515386
 21
390.2245655709144
 31
0.0
1001
ACME_LAYERS
1000
1
  0
LINE
  5
94F
330
1F
100
AcDbEntity
  8
P-0000
  6
Continuous
 62
     7
100
AcDbLine
 10
339.6998633644244
 20
392.1115047628214
 30
0.0
 11
339.6998633644244
 21
390.8051221545147
 31
0.0
1001
ACME_LAYERS
1000
1
  0
LINE
  5
950
330
1F
100
AcDbEntity
  8
P-0000
  6
Continuous
 62
     7
100
AcDbLine
 10
325.6943098649576
 20
390.2245655709144
 30
0.0
 11
338.6943098649585
 21
390.2245655709144
 31
0.0
1001
ACME_LAYERS
1000
1
  0
LINE
  5
951
330
1F
100
AcDbEntity
  8
P-0000
  6
Continuous
 62
     7
100
AcDbLine
 10
324.6887563654937
 20
392.1115047628214
 30
0.0
 11
324.6887563654937
 21
390.8051221545147
 31
0.0
1001
ACME_LAYERS
1000
1
  0
LINE
  5
952
330
1F
100
AcDbEntity
  8
P-0000
  6
Continuous
 62
     7
100
AcDbLine
 10
328.1943098649585
 20
396.2245655709144
 30
0.0
 11
325.6943098649576
 21
396.2245655709144
 31
0.0
1001
ACME_LAYERS
1000
1
  0
LINE
  5
953
330
1F
100
AcDbEntity
  8
P-0000
  6
Continuous
 62
     7
100
AcDbLine
 10
335.9470866146907
 20
392.1115047628214
 30
0.0
 11
335.9470866146907
 21
390.8051221545147
 31
0.0
1001
ACME_LAYERS
1000
1
  0
LINE
  5
954
330
1F
100
AcDbEntity
  8
P-0000
  6
Continuous
 62
     7
100
AcDbLine
 10
328.4415331152272
 20
392.1115047628214
 30
0.0
 11
328.4415331152272
 21
390.8051221545147
 31
0.0
1001
ACME_LAYERS
1000
1
  0
LINE
  5
955
330
1F
100
AcDbEntity
  8
P-0000
  6
Continuous
 62
     7
100
AcDbLine
 10
339.4531917757686
 20
390.6517091365495
 30
0.0
 11
338.6943098649585
 21
390.2245655709144
 31
0.0
1001
ACME_LAYERS
1000
1
  0
LINE
  5
956
330
1F
100
AcDbEntity
  8
P-0000
  6
Continuous
 62
     7
100
AcDbLine
 10
324.9354279541508
 20
390.6517091365495
 30
0.0
 11
325.6943098649576
 21
390.2245655709144
 31
0.0
1001
ACME_LAYERS
1000
1
  0
LINE
  5
957
330
1F
100
AcDbEntity
  8
P-0000
  6
Continuous
 62
     7
100
AcDbLine
 10
324.9354279541508
 20
395.7974220052792
 30
0.0
 11
325.6943098649576
 21
396.2245655709144
 31
0.0
1001
ACME_LAYERS
1000
1
  0
LINE
  5
958
330
1F
100
AcDbEntity
  8
P-0000
  6
Continuous
 62
     7
100
AcDbLine
 10
324.6887563654937
 20
395.6440089873132
 30
0.0
 11
324.6887563654937
 21
392.1115047628214
 31
0.0
1001
ACME_LAYERS
1000
1
  0
LINE
  5
959
330
1F
100
AcDbEntity
  8
P-0000
  6
Continuous
 62
     7
100
AcDbLine
 10
328.4415331152272
 20
395.6440089873132
 30
0.0
 11
328.4415331152272
 21
392.1115047628214
 31
0.0
1001
ACME_LAYERS
1000
1
  0
LINE
  5
95A
330
1F
100
AcDbEntity
  8
P-0000
  6
Continuous
 62
     7
100
AcDbLine
 10
335.9470866146907
 20
394.6311655202535
 30
0.0
 11
335.9470866146907
 21
392.1115047628214
 31
0.0
1001
ACME_LAYERS
1000
1
  0
LINE
  5
95B
330
1F
100
AcDbEntity
  8
P-0000
  6
Continuous
 62
     7
100
AcDbLine
 10
339.6998633644244
 20
392.4644988535852
 30
0.0
 11
339.6998633644244
 21
392.1115047628214
 31
0.0
1001
ACME_LAYERS
1000
1
  0
LINE
  5
95C
330
1F
100
AcDbEntity
  8
P-0000
  6
Continuous
 62
     7
100
AcDbLine
 10
323.7486117515396
 20
388.6245655709163
 30
0.0
 11
328.1943098649585
 21
388.6245655709163
 31
0.0
1001
ACME_LAYERS
1000
1
  0
LINE
  5
95D
330
1F
100
AcDbEntity
  8
P-0000
  6
Continuous
 62
     7
100
AcDbLine
 10
340.7486117515386
 20
388.6245655709163
 30
0.0
 11
336.6943098649617
 21
388.6245655709163
 31
0.0
1001
ACME_LAYERS
1000
1
  0
LINE
  5
95E
330
1F
100
AcDbEntity
  8
P-0000
  6
Continuous
 62
     7
100
AcDbLine
 10
328.9943098649596
 20
388.6245655709163
 30
0.0
 11
336.6943098649617
 21
388.6245655709163
 31
0.0
1001
ACME_LAYERS
1000
1
  0
LINE
  5
95F
330
1F
100
AcDbEntity
  8
P-0000
  6
Continuous
 62
     7
100
AcDbLine
 10
328.1943098649585
 20
388.6245655709163
 30
0.0
 11
328.9943098649596
 21
388.6245655709163
 31
0.0
1001
ACME_LAYERS
1000
1
  0
ARC
  5
960
330
1F
100
AcDbEntity
  8
P-0000
  6
Continuous
 62
     7
100
AcDbCircle
 10
332.1943098649577
 20
402.6440089873132
 30
0.0
 40
12.41944341639904
100
AcDbArc
 50
252.4120462260076
 51
287.5879537739924
1001
ACME_LAYERS
1000
1
  0
ARC
  5
961
330
1F
100
AcDbEntity
  8
P-0000
  6
Continuous
 62
     7
100
AcDbCircle
 10
332.1943098649577
 20
383.8051221545157
 30
0.0
 40
12.41944341639904
100
AcDbArc
 50
85.04168193073009
 51
107.5879537739924
1001
ACME_LAYERS
1000
1
  0
ARC
  5
962
330
1F
100
AcDbEntity
  8
P-0000
  6
Continuous
 62
     7
100
AcDbCircle
 10
337.8234749895573
 20
393.5471351438646
 30
0.0
 40
3.322569572950221
100
AcDbArc
 50
235.6157525319468
 51
299.3733793948356
1001
ACME_LAYERS
1000
1
  0
ARC
  5
963
330
1F
100
AcDbEntity
  8
P-0000
  6
Continuous
 62
     7
100
AcDbCircle
 10
326.5651447403602
 20
393.5471351438646
 30
0.0
 40
3.322569572950221
100
AcDbArc
 50
235.6157525319468
 51
240.6266206051644
1001
ACME_LAYERS
1000
1
  0
ARC
  5
964
330
1F
100
AcDbEntity
  8
P-0000
  6
Continuous
 62
     7
100
AcDbCircle
 10
326.5651447403602
 20
392.9019959979646
 30
0.0
 40
3.322569572949122
100
AcDbArc
 50
55.61575253197573
 51
119.3733793948355
1001
ACME_LAYERS
1000
1
  0
ARC
  5
965
330
1F
100
AcDbEntity
  8
P-0000
  6
Continuous
 62
     7
100
AcDbCircle
 10
337.8234749895573
 20
393.5471351438646
 30
0.0
 40
3.322569572949876
100
AcDbArc
 50
299.3733793948356
 51
304.3842474680531
1001
ACME_LAYERS
1000
1
  0
ARC
  5
966
330
1F
100
AcDbEntity
  8
P-0000
  6
Continuous
 62
     7
100
AcDbCircle
 10
326.5651447403602
 20
393.5471351438646
 30
0.0
 40
3.322569572949872
100
AcDbArc
 50
240.6266206051644
 51
304.3842474680243
1001
ACME_LAYERS
1000
1
  0
ARC
  5
967
330
1F
100
AcDbEntity
  8
P-0000
  6
Continuous
 62
     7
100
AcDbCircle
 10
326.5651447403602
 20
392.9019959979646
 30
0.0
 40
3.322569572949884
100
AcDbArc
 50
119.3733793948355
 51
124.3842474680531
1001
ACME_LAYERS
1000
1
  0
HATCH
  5
968
330
1F
100
AcDbEntity
  8
P-0000
  6
Continuous
 62
     1
100
AcDbHatch
 10
0.0
 20
0.0
 30
0.0
210
0.0
220
0.0
230
1.0
  2
_U
 70
     0
 71
     0
 91
        1
 92
        1
 93
       16
 72
     1
 10
334.4957031053036
 20
408.118914272487
 11
334.4957031053036
 21
408.0697426895053
 72
     1
 10
334.4957031053036
 20
408.0697426895053
 11
334.9957031053036
 21
408.0697426895053
 72
     1
 10
334.9957031053036
 20
408.0697426895053
 11
334.9957031053023
 21
406.1189142724868
 72
     1
 10
334.9957031053023
 20
406.1189142724868
 11
342.056594273618
 21
406.1189142724868
 72
     2
 10
342.056594273618
 20
405.6189142724869
 40
0.5
 50
270.0
 51
360.0
 73
     0
 72
     1
 10
342.5565942736184
 20
405.6189142724869
 11
342.5565942736184
 21
393.1245655709181
 72
     2
 10
346.5565942736184
 20
393.1245655709181
 40
4.000000000000068
 50
180.0
 51
270.0
 73
     1
 72
     1
 10
346.5565942736184
 20
389.1245655709181
 11
361.2457031052954
 21
389.1245655709181
 72
     1
 10
361.2457031052954
 20
389.1245655709181
 11
361.2457031052954
 21
391.1245655709181
 72
     1
 10
361.2457031052954
 20
391.1245655709181
 11
346.4957031053037
 21
391.1245655709181
 72
     2
 10
346.4957031053037
 20
393.1245655709181
 40
1.999999999999999
 50
90.0
 51
180.0
 73
     0
 72
     1
 10
344.4957031053037
 20
393.1245655709181
 11
344.4957031053037
 21
410.6189142724859
 72
     1
 10
344.4957031053037
 20
410.6189142724859
 11
342.4957031053036
 21
410.6189142724859
 72
     1
 10
342.4957031053036
 20
410.6189142724859
 11
342.4957031053036
 21
408.6189142724883
 72
     2
 10
341.9957031053045
 20
408.6189142724883
 40
0.5
 50
360.0
 51
450.0
 73
     0
 72
     1
 10
341.9957031053045
 20
408.118914272487
 11
334.4957031053036
 21
408.118914272487
 97
        0
 75
     0
 76
     0
 52
-45.0
 41
2.0
 77
     0
 78
     1
 53
315.0
 43
375.4348119369883
 44
-100.2967540706106
 45
1.414213562373094
 46
1.414213562373094
 79
     0
 98
        1
 10
375.4348119369883
 20
-100.2967540706106
1001
ACME_LAYERS
1000
1
  0
LINE
  5
969
330
1F
100
AcDbEntity
  8
P-0000
  6
Continuous
 62
     7
100
AcDbLine
 10
314.4957031052954
 20
410.6189142724859
 30
0.0
 11
317.2714061201677
 21
410.6189142724859
 31
0.0
1001
ACME_LAYERS
1000
1
  0
LINE
  5
96A
330
1F
100
AcDbEntity
  8
P-0000
  6
Continuous
 62
     7
100
AcDbLine
 10
333.9579826484223
 20
410.6189142724859
 30
0.0
 11
342.4957031053036
 21
410.6189142724859
 31
0.0
1001
ACME_LAYERS
1000
1
  0
LINE
  5
96B
330
1F
100
AcDbEntity
  8
P-0000
  6
Continuous
 62
     7
100
AcDbLine
 10
316.0497221112337
 20
406.1189142724868
 30
0.0
 11
344.5565942736184
 21
389.6604639557804
 31
0.0
1001
ACME_LAYERS
1000
1
  0
LINE
  5
96C
330
1F
100
AcDbEntity
  8
P-0000
  6
Continuous
 62
     7
100
AcDbLine
 10
342.056594273618
 20
406.1189142724868
 30
0.0
 11
334.9957031053023
 21
406.1189142724868
 31
0.0
1001
ACME_LAYERS
1000
1
  0
LINE
  5
96D
330
1F
100
AcDbEntity
  8
P-0000
  6
Continuous
 62
     7
100
AcDbLine
 10
334.4957031053036
 20
408.118914272487
 30
0.0
 11
341.9957031053045
 21
408.118914272487
 31
0.0
1001
ACME_LAYERS
1000
1
  0
LINE
  5
96E
330
1F
100
AcDbEntity
  8
P-0000
  6
Continuous
 62
     7
100
AcDbLine
 10
249.5054633370246
 20
410.6189142724859
 30
0.0
 11
314.4957031052954
 21
410.6189142724859
 31
0.0
1001
ACME_LAYERS
1000
1
  0
LINE
  5
96F
330
1F
100
AcDbEntity
  8
P-0000
  6
Continuous
 62
     7
100
AcDbLine
 10
249.5054633370246
 20
408.118914272487
 30
0.0
 11
304.4957031053045
 21
408.118914272487
 31
0.0
1001
ACME_LAYERS
1000
1
  0
LINE
  5
970
330
1F
100
AcDbEntity
  8
P-0000
  6
Continuous
 62
     7
100
AcDbLine
 10
259.4957031053127
 20
406.1189142724868
 30
0.0
 11
310.4957031052955
 21
406.1189142724868
 31
0.0
1001
ACME_LAYERS
1000
1
  0
LINE
  5
971
330
1F
100
AcDbEntity
  8
P-0000
  6
Continuous
 62
     7
100
AcDbLine
 10
259.4957031053127
 20
388.6245655710236
 30
0.0
 11
259.4957031053127
 21
406.1189142724868
 31
0.0
1001
ACME_LAYERS
1000
1
  0
LINE
  5
972
330
1F
100
AcDbEntity
  8
P-0000
  6
Continuous
 62
     7
100
AcDbLine
 10
250.9957031053118
 20
406.1189142724868
 30
0.0
 11
259.4957031053127
 21
406.1189142724868
 31
0.0
1001
ACME_LAYERS
1000
1
  0
LINE
  5
973
330
1F
100
AcDbEntity
  8
P-0000
  6
Continuous
 62
     7
100
AcDbLine
 10
250.5054633370405
 20
408.118914272487
 30
0.0
 11
259.4877189128415
 21
408.118914272487
 31
0.0
1001
ACME_LAYERS
1000
1
  0
LINE
  5
974
330
1F
100
AcDbEntity
  8
P-0000
  6
Continuous
 62
     7
100
AcDbLine
 10
249.5054633370405
 20
408.118914272487
 30
0.0
 11
250.5054633370405
 21
408.118914272487
 31
0.0
1001
ACME_LAYERS
1000
1
  0
LINE
  5
975
330
1F
100
AcDbEntity
  8
P-0000
  6
Continuous
 62
     7
100
AcDbLine
 10
249.5054633370405
 20
406.1189142724868
 30
0.0
 11
250.9957031053118
 21
406.1189142724868
 31
0.0
1001
ACME_LAYERS
1000
1
  0
LINE
  5
976
330
1F
100
AcDbEntity
  8
P-0000
  6
Continuous
 62
     7
100
AcDbLine
 10
249.4859428735826
 20
403.118914272487
 30
0.0
 11
249.4859428735854
 21
403.118914272487
 31
0.0
1001
ACME_LAYERS
1000
1
  0
LINE
  5
977
330
1F
100
AcDbEntity
  8
P-0000
  6
Continuous
 62
     7
100
AcDbLine
 10
249.5054633370387
 20
403.118914272487
 30
0.0
 11
249.5054633370414
 21
403.118914272487
 31
0.0
1001
ACME_LAYERS
1000
1
  0
HATCH
  5
978
330
1F
100
AcDbEntity
  8
P-0000
  6
Continuous
 62
     1
100
AcDbHatch
 10
0.0
 20
0.0
 30
0.0
210
0.0
220
0.0
230
1.0
  2
_U
 70
     0
 71
     0
 91
        1
 92
        1
 93
       11
 72
     1
 10
314.9957031052954
 20
408.118914272487
 11
326.4957031053036
 21
408.118914272487
 72
     1
 10
326.4957031053036
 20
408.118914272487
 11
326.4957031053036
 21
406.1189142724868
 72
     1
 10
326.4957031053036
 20
406.1189142724868
 11
316.0497221112337
 21
406.1189142724868
 72
     1
 10
316.0497221112337
 20
406.1189142724868
 11
310.4957031052955
 21
406.1189142724868
 72
     1
 10
310.4957031052955
 20
406.1189142724868
 11
310.4957031052955
 21
408.118914272487
 72
     1
 10
310.4957031052955
 20
408.118914272487
 11
311.9957031052954
 21
408.118914272487
 72
     2
 10
311.9957031052954
 20
408.6189142724883
 40
0.5
 50
-90.00000000000001
 51
-0.0000000000000127
 73
     1
 72
     1
 10
312.4957031052954
 20
408.6189142724883
 11
312.4957031052954
 21
410.6189142724859
 72
     1
 10
312.4957031052954
 20
410.6189142724859
 11
314.4957031052954
 21
410.6189142724859
 72
     1
 10
314.4957031052954
 20
410.6189142724859
 11
314.4957031052954
 21
408.6189142724883
 72
     2
 10
314.9957031052954
 20
408.6189142724883
 40
0.5
 50
180.0
 51
270.0
 73
     1
 97
        0
 75
     0
 76
     0
 52
-45.0
 41
2.0
 77
     0
 78
     1
 53
315.0
 43
20.81610782020653
 44
468.6633051450662
 45
1.414213562373094
 46
1.414213562373094
 79
     0
 98
        1
 10
375.4348119369883
 20
-100.2967540706106
1001
ACME_LAYERS
1000
1
  0
LINE
  5
979
330
1F
100
AcDbEntity
  8
P-0000
  6
Continuous
 62
     7
100
AcDbLine
 10
314.9957031052954
 20
408.118914272487
 30
0.0
 11
326.4957031053036
 21
408.118914272487
 31
0.0
1001
ACME_LAYERS
1000
1
  0
LINE
  5
97A
330
1F
100
AcDbEntity
  8
P-0000
  6
Continuous
 62
     7
100
AcDbLine
 10
310.4957031052955
 20
406.1189142724868
 30
0.0
 11
316.0497221112337
 21
406.1189142724868
 31
0.0
1001
ACME_LAYERS
1000
1
  0
LINE
  5
97B
330
1F
100
AcDbEntity
  8
P-0000
  6
Continuous
 62
     7
100
AcDbLine
 10
304.4957031053045
 20
408.118914272487
 30
0.0
 11
310.4957031052955
 21
408.118914272487
 31
0.0
1001
ACME_LAYERS
1000
1
  0
LINE
  5
97C
330
1F
100
AcDbEntity
  8
P-0000
  6
Continuous
 62
     7
100
AcDbLine
 10
310.4957031052955
 20
406.1189142724868
 30
0.0
 11
310.4957031052955
 21
408.118914272487
 31
0.0
1001
ACME_LAYERS
1000
1
  0
LINE
  5
97D
330
1F
100
AcDbEntity
  8
P-0000
  6
Continuous
 62
     7
100
AcDbLine
 10
310.4957031052955
 20
408.118914272487
 30
0.0
 11
311.9957031052954
 21
408.118914272487
 31
0.0
1001
ACME_LAYERS
1000
1
  0
LINE
  5
97E
330
1F
100
AcDbEntity
  8
P-0000
  6
Continuous
 62
     7
100
AcDbLine
 10
314.4957031052954
 20
408.6189142724883
 30
0.0
 11
314.4957031052954
 21
410.6189142724859
 31
0.0
1001
ACME_LAYERS
1000
1
  0
LINE
  5
97F
330
1F
100
AcDbEntity
  8
P-0000
  6
Continuous
 62
     7
100
AcDbLine
 10
312.4957031052954
 20
408.6189142724883
 30
0.0
 11
312.4957031052954
 21
410.6189142724859
 31
0.0
1001
ACME_LAYERS
1000
1
  0
LINE
  5
980
330
1F
100
AcDbEntity
  8
P-0000
  6
Continuous
 62
     7
100
AcDbLine
 10
314.4957031052954
 20
410.6189142724859
 30
0.0
 11
312.4957031052954
 21
410.6189142724859
 31
0.0
1001
ACME_LAYERS
1000
1
  0
ARC
  5
981
330
1F
100
AcDbEntity
  8
P-0000
  6
Continuous
 62
     7
100
AcDbCircle
 10
314.9957031052954
 20
408.6189142724883
 30
0.0
 40
0.5
100
AcDbArc
 50
180.0
 51
270.0
1001
ACME_LAYERS
1000
1
  0
ARC
  5
982
330
1F
100
AcDbEntity
  8
P-0000
  6
Continuous
 62
     7
100
AcDbCircle
 10
311.9957031052954
 20
408.6189142724883
 30
0.0
 40
0.5
100
AcDbArc
 50
270.0
 51
0.0
1001
ACME_LAYERS
1000
1
  0
LINE
  5
983
330
1F
100
AcDbEntity
  8
P-0000
  6
Continuous
 62
     7
100
AcDbLine
 10
330.2065337103645
 20
406.1189142724868
 30
0.0
 11
326.4957031053036
 21
406.1189142724868
 31
0.0
1001
ACME_LAYERS
1000
1
  0
LINE
  5
984
330
1F
100
AcDbEntity
  8
P-0000
  6
Continuous
 62
     7
100
AcDbLine
 10
326.4957031053036
 20
408.118914272487
 30
0.0
 11
334.4957031053036
 21
408.118914272487
 31
0.0
1001
ACME_LAYERS
1000
1
  0
LINE
  5
985
330
1F
100
AcDbEntity
  8
P-0000
  6
Continuous
 62
     7
100
AcDbLine
 10
326.4957031053036
 20
406.1189142724868
 30
0.0
 11
316.0497221112337
 21
406.1189142724868
 31
0.0
1001
ACME_LAYERS
1000
1
  0
LINE
  5
986
330
1F
100
AcDbEntity
  8
P-0000
  6
Continuous
 62
     7
100
AcDbLine
 10
326.4957031053036
 20
408.118914272487
 30
0.0
 11
326.4957031053036
 21
406.1189142724868
 31
0.0
1001
ACME_LAYERS
1000
1
  0
LINE
  5
987
330
1F
100
AcDbEntity
  8
P-0000
  6
Continuous
 62
     7
100
AcDbLine
 10
332.0054633370255
 20
408.118914272487
 30
0.0
 11
333.0054633370255
 21
408.118914272487
 31
0.0
1001
ACME_LAYERS
1000
1
  0
LINE
  5
988
330
1F
100
AcDbEntity
  8
P-0000
  6
Continuous
 62
     7
100
AcDbLine
 10
332.0054633370255
 20
408.118914272487
 30
0.0
 11
333.0054633370255
 21
408.118914272487
 31
0.0
1001
ACME_LAYERS
1000
1
  0
LINE
  5
989
330
1F
100
AcDbEntity
  8
P-0000
  6
Continuous
 62
     7
100
AcDbLine
 10
371.2457031052945
 20
391.1245655709181
 30
0.0
 11
361.2457031052954
 21
391.1245655709181
 31
0.0
1001
ACME_LAYERS
1000
1
  0
LINE
  5
98A
330
1F
100
AcDbEntity
  8
P-0000
  6
Continuous
 62
     7
100
AcDbLine
 10
371.2457031052945
 20
389.1245655709181
 30
0.0
 11
361.2457031052954
 21
389.1245655709181
 31
0.0
1001
ACME_LAYERS
1000
1
  0
LINE
  5
98B
330
1F
100
AcDbEntity
  8
P-0000
  6
Continuous
 62
     7
100
AcDbLine
 10
342.5565942736184
 20
393.1245655709181
 30
0.0
 11
342.5565942736184
 21
405.6189142724869
 31
0.0
1001
ACME_LAYERS
1000
1
  0
LINE
  5
98C
330
1F
100
AcDbEntity
  8
P-0000
  6
Continuous
 62
     7
100
AcDbLine
 10
344.4957031053037
 20
393.1245655709181
 30
0.0
 11
344.4957031053037
 21
408.118914272487
 31
0.0
1001
ACME_LAYERS
1000
1
  0
LINE
  5
98D
330
1F
100
AcDbEntity
  8
P-0000
  6
Continuous
 62
     7
100
AcDbLine
 10
354.3073949028585
 20
391.1245655709181
 30
0.0
 11
344.4957031053037
 21
408.118914272487
 31
0.0
1001
ACME_LAYERS
1000
1
  0
LINE
  5
98E
330
1F
100
AcDbEntity
  8
P-0000
  6
Continuous
 62
     7
100
AcDbLine
 10
344.4957031053037
 20
410.6189142724859
 30
0.0
 11
342.4957031053036
 21
410.6189142724859
 31
0.0
1001
ACME_LAYERS
1000
1
  0
LINE
  5
98F
330
1F
100
AcDbEntity
  8
P-0000
  6
Continuous
 62
     7
100
AcDbLine
 10
342.4957031053036
 20
410.6189142724859
 30
0.0
 11
342.4957031053036
 21
408.6189142724883
 31
0.0
1001
ACME_LAYERS
1000
1
  0
ARC
  5
990
330
1F
100
AcDbEntity
  8
P-0000
  6
Continuous
 62
     7
100
AcDbCircle
 10
341.9957031053045
 20
408.6189142724883
 30
0.0
 40
0.5
100
AcDbArc
 50
270.0
 51
0.0
1001
ACME_LAYERS
1000
1
  0
ARC
  5
991
330
1F
100
AcDbEntity
  8
P-0000
  6
Continuous
 62
     7
100
AcDbCircle
 10
342.056594273618
 20
405.6189142724869
 30
0.0
 40
0.5
100
AcDbArc
 50
0.0
 51
90.0
1001
ACME_LAYERS
1000
1
  0
LINE
  5
992
330
1F
100
AcDbEntity
  8
P-0000
  6
Continuous
 62
     7
100
AcDbLine
 10
344.4957031053037
 20
410.6189142724859
 30
0.0
 11
344.4957031053037
 21
408.118914272487
 31
0.0
1001
ACME_LAYERS
1000
1
  0
LINE
  5
993
330
1F
100
AcDbEntity
  8
P-0000
  6
Continuous
 62
     7
100
AcDbLine
 10
354.3073949028585
 20
391.1245655709181
 30
0.0
 11
346.4957031053037
 21
391.1245655709181
 31
0.0
1001
ACME_LAYERS
1000
1
  0
LINE
  5
994
330
1F
100
AcDbEntity
  8
P-0000
  6
Continuous
 62
     7
100
AcDbLine
 10
361.2457031052954
 20
389.1245655709181
 30
0.0
 11
346.5565942736184
 21
389.1245655709181
 31
0.0
1001
ACME_LAYERS
1000
1
  0
ARC
  5
995
330
1F
100
AcDbEntity
  8
P-0000
  6
Continuous
 62
     7
100
AcDbCircle
 10
346.4957031053037
 20
393.1245655709181
 30
0.0
 40
2.0
100
AcDbArc
 50
180.0
 51
270.0
1001
ACME_LAYERS
1000
1
  0
ARC
  5
996
330
1F
100
AcDbEntity
  8
P-0000
  6
Continuous
 62
     7
100
AcDbCircle
 10
346.5565942736184
 20
393.1245655709181
 30
0.0
 40
4.0
100
AcDbArc
 50
180.0
 51
240.0000000000027
1001
ACME_LAYERS
1000
1
  0
ARC
  5
997
330
1F
100
AcDbEntity
  8
P-0000
  6
Continuous
 62
     7
100
AcDbCircle
 10
346.5565942736184
 20
393.1245655709181
 30
0.0
 40
4.000000000000031
100
AcDbArc
 50
240.0000000000027
 51
270.0
1001
ACME_LAYERS
1000
1
  0
LINE
  5
998
330
1F
100
AcDbEntity
  8
P-0000
  6
Continuous
 62
     7
100
AcDbLine
 10
361.2457031052954
 20
391.1245655709181
 30
0.0
 11
354.3073949028585
 21
391.1245655709181
 31
0.0
1001
ACME_LAYERS
1000
1
  0
LINE
  5
999
330
1F
100
AcDbEntity
  8
P-0000
  6
Continuous
 62
     7
100
AcDbLine
 10
361.2457031052954
 20
389.1245655709181
 30
0.0
 11
361.2457031052954
 21
391.1245655709181
 31
0.0
1001
ACME_LAYERS
1000
1
  0
HATCH
  5
99A
330
1F
100
AcDbEntity
  8
P-0000
  6
Continuous
 62
     1
100
AcDbHatch
 10
0.0
 20
0.0
 30
0.0
210
0.0
220
0.0
230
1.0
  2
_U
 70
     0
 71
     0
 91
        1
 92
        1
 93
        4
 72
     1
 10
376.2457031052954
 20
389.1245655709181
 11
371.2457031052945
 21
389.1245655709181
 72
     1
 10
371.2457031052945
 20
389.1245655709181
 11
371.2457031052945
 21
391.1245655709181
 72
     1
 10
371.2457031052945
 20
391.1245655709181
 11
376.2457031052954
 21
391.1245655709181
 72
     1
 10
376.2457031052954
 20
391.1245655709181
 11
376.2457031052954
 21
389.1245655709181
 97
        0
 75
     0
 76
     0
 52
-45.0
 41
2.0
 77
     0
 78
     1
 53
315.0
 43
375.4348119369883
 44
-100.2967540706106
 45
1.414213562373094
 46
1.414213562373094
 79
     0
 98
        1
 10
375.4348119369883
 20
-100.2967540706106
1001
ACME_LAYERS
1000
1
  0
LINE
  5
99B
330
1F
100
AcDbEntity
  8
P-0000
  6
Continuous
 62
     7
100
AcDbLine
 10
376.2457031052954
 20
391.1245655709181
 30
0.0
 11
371.2457031052945
 21
391.1245655709181
 31
0.0
1001
ACME_LAYERS
1000
1
  0
LINE
  5
99C
330
1F
100
AcDbEntity
  8
P-0000
  6
Continuous
 62
     7
100
AcDbLine
 10
376.2457031052954
 20
389.1245655709181
 30
0.0
 11
371.2457031052945
 21
389.1245655709181
 31
0.0
1001
ACME_LAYERS
1000
1
  0
LINE
  5
99D
330
1F
100
AcDbEntity
  8
P-0000
  6
Continuous
 62
     7
100
AcDbLine
 10
371.2457031052945
 20
389.1245655709181
 30
0.0
 11
371.2457031052945
 21
391.1245655709181
 31
0.0
1001
ACME_LAYERS
1000
1
  0
LINE
  5
99E
330
1F
100
AcDbEntity
  8
P-0000
  6
Continuous
 62
     7
100
AcDbLine
 10
376.2457031052954
 20
389.1245655709181
 30
0.0
 11
376.2457031052954
 21
391.1245655709181
 31
0.0
1001
ACME_LAYERS
1000
1
  0
LINE
  5
99F
330
1F
100
AcDbEntity
  8
P-0000
  6
Continuous
 62
     7
100
AcDbLine
 10
250.9957031053045
 20
450.0697426895053
 30
0.0
 11
250.9957031053045
 21
414.0697426895052
 31
0.0
1001
ACME_LAYERS
1000
1
  0
LINE
  5
9A0
330
1F
100
AcDbEntity
  8
P-0000
  6
Continuous
 62
     7
100
AcDbLine
 10
325.9433735162834
 20
432.6388718887941
 30
0.0
 11
326.9221627325696
 21
429.9496706186473
 31
0.0
1001
ACME_LAYERS
1000
1
  0
LINE
  5
9A1
330
1F
100
AcDbEntity
  8
P-0000
  6
Continuous
 62
     7
100
AcDbLine
 10
317.2714061201696
 20
414.0697426895052
 30
0.0
 11
304.1684776865836
 21
450.0697426895053
 31
0.0
1001
ACME_LAYERS
1000
1
  0
LINE
  5
9A2
330
1F
100
AcDbEntity
  8
P-0000
  6
Continuous
 62
     7
100
AcDbLine
 10
250.9957031053045
 20
456.0393917891373
 30
0.0
 11
301.9957031053036
 21
456.0393917891373
 31
0.0
1001
ACME_LAYERS
1000
1
  0
LINE
  5
9A3
330
1F
100
AcDbEntity
  8
P-0000
  6
Continuous
 62
     7
100
AcDbLine
 10
250.9957031053045
 20
456.0393917891373
 30
0.0
 11
301.9957031053036
 21
456.0393917891373
 31
0.0
1001
ACME_LAYERS
1000
1
  0
LINE
  5
9A4
330
1F
100
AcDbEntity
  8
P-0000
  6
Continuous
 62
     7
100
AcDbLine
 10
297.3656960268522
 20
488.0697426895053
 30
0.0
 11
290.3376087844667
 21
488.0697426895053
 31
0.0
1001
ACME_LAYERS
1000
1
  0
LINE
  5
9A5
330
1F
100
AcDbEntity
  8
P-0000
  6
Continuous
 62
     7
100
AcDbLine
 10
302.9957031053036
 20
450.0697426895053
 30
0.0
 11
250.9957031053045
 21
450.0697426895053
 31
0.0
1001
ACME_LAYERS
1000
1
  0
LINE
  5
9A6
330
1F
100
AcDbEntity
  8
P-0000
  6
Continuous
 62
     7
100
AcDbLine
 10
295.7971622984605
 20
473.0697426895043
 30
0.0
 11
253.5998661613376
 21
473.0697426895043
 31
0.0
1001
ACME_LAYERS
1000
1
  0
LINE
  5
9A7
330
1F
100
AcDbEntity
  8
P-0000
  6
Continuous
 62
     7
100
AcDbLine
 10
250.9957031053045
 20
473.0697426895043
 30
0.0
 11
250.9957031053045
 21
456.0393917891373
 31
0.0
1001
ACME_LAYERS
1000
1
  0
LINE
  5
9A8
330
1F
100
AcDbEntity
  8
P-0000
  6
Continuous
 62
     7
100
AcDbLine
 10
288.2092532395159
 20
488.0697426895053
 30
0.0
 11
253.5998661613376
 21
488.0697426895053
 31
0.0
1001
ACME_LAYERS
1000
1
  0
LINE
  5
9A9
330
1F
100
AcDbEntity
  8
P-0000
  6
Continuous
 62
     7
100
AcDbLine
 10
253.5998661613376
 20
488.0697426895053
 30
0.0
 11
253.5998661613376
 21
473.0697426895043
 31
0.0
1001
ACME_LAYERS
1000
1
  0
LINE
  5
9AA
330
1F
100
AcDbEntity
  8
P-0000
  6
Continuous
 62
     7
100
AcDbLine
 10
253.5998661613376
 20
488.0697426895053
 30
0.0
 11
249.4957031053036
 21
488.0697426895053
 31
0.0
1001
ACME_LAYERS
1000
1
  0
LINE
  5
9AB
330
1F
100
AcDbEntity
  8
P-0000
  6
Continuous
 62
     7
100
AcDbLine
 10
253.5998661613376
 20
473.0697426895043
 30
0.0
 11
250.9957031053045
 21
473.0697426895043
 31
0.0
1001
ACME_LAYERS
1000
1
  0
LINE
  5
9AC
330
1F
100
AcDbEntity
  8
P-0000
  6
Continuous
 62
     7
100
AcDbLine
 10
250.9957031053045
 20
473.0697426895043
 30
0.0
 11
249.4957031053036
 21
473.0697426895043
 31
0.0
1001
ACME_LAYERS
1000
1
  0
LINE
  5
9AD
330
1F
100
AcDbEntity
  8
P-0000
  6
Continuous
 62
     7
100
AcDbLine
 10
249.4957031053036
 20
473.0697426895043
 30
0.0
 11
247.9957031053036
 21
473.0697426895043
 31
0.0
1001
ACME_LAYERS
1000
1
  0
HATCH
  5
9AE
330
1F
100
AcDbEntity
  8
P-0000
  6
Continuous
 62
     1
100
AcDbHatch
 10
0.0
 20
0.0
 30
0.0
210
0.0
220
0.0
230
1.0
  2
_U
 70
     0
 71
     0
 91
        1
 92
        1
 93
        5
 72
     1
 10
291.7934897215337
 20
484.0697426895054
 11
290.3376087844667
 21
488.0697426895053
 72
     1
 10
290.3376087844667
 20
488.0697426895053
 11
288.2092532395159
 21
488.0697426895053
 72
     1
 10
288.2092532395159
 20
488.0697426895053
 11
289.4256490940038
 21
484.7277225461793
 72
     2
 10
290.3653417147893
 20
485.0697426895052
 40
1.000000000000015
 50
200.0000000000031
 51
270.0
 73
     1
 72
     1
 10
290.3653417147893
 20
484.0697426895054
 11
291.7934897215337
 21
484.0697426895054
 97
        0
 75
     0
 76
     0
 52
44.99999999999999
 41
1.0
 77
     0
 78
     1
 53
45.0
 43
76.90467586924341
 44
526.5678257214845
 45
-0.7071067811865474
 46
0.7071067811865479
 79
     0
 98
        1
 10
375.4445721687093
 20
-80.4091129788485
1001
ACME_LAYERS
1000
1
  0
LINE
  5
9AF
330
1F
100
AcDbEntity
  8
P-0000
  6
Continuous
 62
     7
100
AcDbLine
 10
289.4256490940038
 20
484.7277225461803
 30
0.0
 11
288.2092532395159
 21
488.0697426895053
 31
0.0
1001
ACME_LAYERS
1000
1
  0
LINE
  5
9B0
330
1F
100
AcDbEntity
  8
P-0000
  6
Continuous
 62
     7
100
AcDbLine
 10
291.7934897215337
 20
484.0697426895054
 30
0.0
 11
290.3376087844667
 21
488.0697426895053
 31
0.0
1001
ACME_LAYERS
1000
1
  0
LINE
  5
9B1
330
1F
100
AcDbEntity
  8
P-0000
  6
Continuous
 62
     7
100
AcDbLine
 10
290.3376087844667
 20
488.0697426895053
 30
0.0
 11
288.2092532395159
 21
488.0697426895053
 31
0.0
1001
ACME_LAYERS
1000
1
  0
ARC
  5
9B2
330
1F
100
AcDbEntity
  8
P-0000
  6
Continuous
 62
     7
100
AcDbCircle
 10
290.3653417147893
 20
485.0697426895052
 30
0.0
 40
1.000000000000015
100
AcDbArc
 50
200.0000000000015
 51
270.0
1001
ACME_LAYERS
1000
1
  0
ARC
  5
9B3
330
1F
100
AcDbEntity
  8
P-0000
  6
Continuous
 62
     7
100
AcDbCircle
 10
290.3653417147893
 20
485.0697426895052
 30
0.0
 40
1.000000000000015
100
AcDbArc
 50
200.0000000000015
 51
270.0
1001
ACME_LAYERS
1000
1
  0
LINE
  5
9B4
330
1F
100
AcDbEntity
  8
P-0000
  6
Continuous
 62
     7
100
AcDbLine
 10
291.7934897215337
 20
484.0697426895054
 30
0.0
 11
290.3653417147893
 21
484.0697426895054
 31
0.0
1001
ACME_LAYERS
1000
1
  0
LINE
  5
9B5
330
1F
100
AcDbEntity
  8
P-0000
  6
Continuous
 62
     7
100
AcDbLine
 10
249.4957031053036
 20
456.0393917891373
 30
0.0
 11
250.9957031053045
 21
456.0393917891373
 31
0.0
1001
ACME_LAYERS
1000
1
  0
LINE
  5
9B6
330
1F
100
AcDbEntity
  8
P-0000
  6
Continuous
 62
     7
100
AcDbLine
 10
249.4957031053036
 20
456.0393917891373
 30
0.0
 11
250.9957031053045
 21
456.0393917891373
 31
0.0
1001
ACME_LAYERS
1000
1
  0
LINE
  5
9B7
330
1F
100
AcDbEntity
  8
P-0000
  6
Continuous
 62
     7
100
AcDbLine
 10
250.9957031053045
 20
450.0697426895053
 30
0.0
 11
249.4957031053036
 21
450.0697426895053
 31
0.0
1001
ACME_LAYERS
1000
1
  0
LINE
  5
9B8
330
1F
100
AcDbEntity
  8
P-0000
  6
Continuous
 62
     7
100
AcDbLine
 10
308.6420074762846
 20
480.1739844094145
 30
0.0
 11
325.9433735162834
 21
432.6388718887941
 31
0.0
1001
ACME_LAYERS
1000
1
  0
LINE
  5
9B9
330
1F
100
AcDbEntity
  8
P-0000
  6
Continuous
 62
     7
100
AcDbLine
 10
301.9957031053036
 20
456.0393917891373
 30
0.0
 11
295.7971622984605
 21
473.0697426895043
 31
0.0
1001
ACME_LAYERS
1000
1
  0
ARC
  5
9BA
330
1F
100
AcDbEntity
  8
P-0000
  6
Continuous
 62
     7
100
AcDbCircle
 10
297.3656960268522
 20
476.0697426895053
 30
0.0
 40
11.99999999999995
100
AcDbArc
 50
19.99999999998924
 51
90.0
1001
ACME_LAYERS
1000
1
  0
HATCH
  5
9BB
330
1F
100
AcDbEntity
  8
P-0000
  6
Continuous
 62
     3
100
AcDbHatch
 10
0.0
 20
0.0
 30
0.0
210
0.0
220
0.0
230
1.0
  2
_U
 70
     0
 71
     0
 91
        1
 92
        1
 93
        4
 72
     1
 10
304.1684776865836
 20
450.0697426895053
 11
301.9957031053036
 21
456.0393917891373
 72
     1
 10
301.9957031053036
 20
456.0393917891373
 11
301.9957031053036
 21
451.0697426895053
 72
     2
 10
302.9957031053036
 20
451.0697426895053
 40
1.0
 50
180.0
 51
270.0
 73
     1
 72
     1
 10
302.9957031053036
 20
450.0697426895053
 11
304.1684776865836
 21
450.0697426895053
 97
        0
 75
     0
 76
     0
 52
44.99999999999999
 41
1.0
 77
     0
 78
     1
 53
45.0
 43
375.4445721687093
 44
-80.4091129788485
 45
-0.7071067811865474
 46
0.7071067811865479
 79
     0
 98
        1
 10
375.4445721687093
 20
-80.4091129788485
1001
ACME_LAYERS
1000
1
  0
LINE
  5
9BC
330
1F
100
AcDbEntity
  8
P-0000
  6
Continuous
 62
     7
100
AcDbLine
 10
304.1684776865836
 20
450.0697426895053
 30
0.0
 11
302.9957031053036
 21
450.0697426895053
 31
0.0
1001
ACME_LAYERS
1000
1
  0
LINE
  5
9BD
330
1F
100
AcDbEntity
  8
P-0000
  6
Continuous
 62
     7
100
AcDbLine
 10
304.1684776865836
 20
450.0697426895053
 30
0.0
 11
301.9957031053036
 21
456.0393917891373
 31
0.0
1001
ACME_LAYERS
1000
1
  0
LINE
  5
9BE
330
1F
100
AcDbEntity
  8
P-0000
  6
Continuous
 62
     7
100
AcDbLine
 10
301.9957031053036
 20
451.0697426895053
 30
0.0
 11
301.9957031053036
 21
456.0393917891373
 31
0.0
1001
ACME_LAYERS
1000
1
  0
LINE
  5
9BF
330
1F
100
AcDbEntity
  8
P-0000
  6
Continuous
 62
     7
100
AcDbLine
 10
301.9957031053036
 20
451.0697426895053
 30
0.0
 11
301.9957031053036
 21
456.0393917891373
 31
0.0
1001
ACME_LAYERS
1000
1
  0
ARC
  5
9C0
330
1F
100
AcDbEntity
  8
P-0000
  6
Continuous
 62
     7
100
AcDbCircle
 10
302.9957031053036
 20
451.0697426895053
 30
0.0
 40
1.0
100
AcDbArc
 50
180.0
 51
270.0
1001
ACME_LAYERS
1000
1
  0
ARC
  5
9C1
330
1F
100
AcDbEntity
  8
P-0000
  6
Continuous
 62
     7
100
AcDbCircle
 10
302.9957031053036
 20
451.0697426895053
 30
0.0
 40
1.0
100
AcDbArc
 50
180.0
 51
270.0
1001
ACME_LAYERS
1000
1
  0
LINE
  5
9C2
330
1F
100
AcDbEntity
  8
P-0000
  6
Continuous
 62
     7
100
AcDbLine
 10
250.9957031053045
 20
414.0697426895052
 30
0.0
 11
317.2714061201696
 21
414.0697426895052
 31
0.0
1001
ACME_LAYERS
1000
1
  0
LINE
  5
9C3
330
1F
100
AcDbEntity
  8
P-0000
  6
Continuous
 62
     7
100
AcDbLine
 10
250.9957031053045
 20
414.0697426895052
 30
0.0
 11
317.2714061201696
 21
414.0697426895052
 31
0.0
1001
ACME_LAYERS
1000
1
  0
LINE
  5
9C4
330
1F
100
AcDbEntity
  8
P-0000
  6
Continuous
 62
     7
100
AcDbLine
 10
250.9957031053045
 20
414.0697426895052
 30
0.0
 11
317.2714061201696
 21
414.0697426895052
 31
0.0
1001
ACME_LAYERS
1000
1
  0
LINE
  5
9C5
330
1F
100
AcDbEntity
  8
P-0000
  6
Continuous
 62
     7
100
AcDbLine
 10
317.2714061201696
 20
408.0697426895053
 30
0.0
 11
250.9957031053045
 21
408.0697426895053
 31
0.0
1001
ACME_LAYERS
1000
1
  0
LINE
  5
9C6
330
1F
100
AcDbEntity
  8
P-0000
  6
Continuous
 62
     7
100
AcDbLine
 10
249.4957031053036
 20
414.0697426895052
 30
0.0
 11
250.9957031053045
 21
414.0697426895052
 31
0.0
1001
ACME_LAYERS
1000
1
  0
LINE
  5
9C7
330
1F
100
AcDbEntity
  8
P-0000
  6
Continuous
 62
     7
100
AcDbLine
 10
249.4957031053036
 20
414.0697426895052
 30
0.0
 11
250.9957031053045
 21
414.0697426895052
 31
0.0
1001
ACME_LAYERS
1000
1
  0
LINE
  5
9C8
330
1F
100
AcDbEntity
  8
P-0000
  6
Continuous
 62
     7
100
AcDbLine
 10
249.4957031053036
 20
414.0697426895052
 30
0.0
 11
250.9957031053045
 21
414.0697426895052
 31
0.0
1001
ACME_LAYERS
1000
1
  0
LINE
  5
9C9
330
1F
100
AcDbEntity
  8
P-0000
  6
Continuous
 62
     7
100
AcDbLine
 10
250.9957031053045
 20
408.0697426895053
 30
0.0
 11
249.4957031053036
 21
408.0697426895053
 31
0.0
1001
ACME_LAYERS
1000
1
  0
LINE
  5
9CA
330
1F
100
AcDbEntity
  8
P-0000
  6
Continuous
 62
     7
100
AcDbLine
 10
326.9221627325696
 20
429.9496706186473
 30
0.0
 11
334.4957031053036
 21
409.1415394592303
 31
0.0
1001
ACME_LAYERS
1000
1
  0
LINE
  5
9CB
330
1F
100
AcDbEntity
  8
P-0000
  6
Continuous
 62
     7
100
AcDbLine
 10
328.4957031053036
 20
408.0697426895053
 30
0.0
 11
320.2714061201687
 21
408.0697426895053
 31
0.0
1001
ACME_LAYERS
1000
1
  0
LINE
  5
9CC
330
1F
100
AcDbEntity
  8
P-0000
  6
Continuous
 62
     7
100
AcDbLine
 10
320.2714061201687
 20
408.0697426895053
 30
0.0
 11
320.2714061201687
 21
414.0697426895052
 31
0.0
1001
ACME_LAYERS
1000
1
  0
LINE
  5
9CD
330
1F
100
AcDbEntity
  8
P-0000
  6
Continuous
 62
     7
100
AcDbLine
 10
317.2714061201696
 20
408.0697426895053
 30
0.0
 11
317.2714061201696
 21
414.0697426895052
 31
0.0
1001
ACME_LAYERS
1000
1
  0
LINE
  5
9CE
330
1F
100
AcDbEntity
  8
P-0000
  6
Continuous
 62
     7
100
AcDbLine
 10
317.2714061201696
 20
414.0697426895052
 30
0.0
 11
320.2714061201687
 21
414.0697426895052
 31
0.0
1001
ACME_LAYERS
1000
1
  0
LINE
  5
9CF
330
1F
100
AcDbEntity
  8
P-0000
  6
Continuous
 62
     7
100
AcDbLine
 10
317.2714061201696
 20
414.0697426895052
 30
0.0
 11
320.2714061201687
 21
414.0697426895052
 31
0.0
1001
ACME_LAYERS
1000
1
  0
LINE
  5
9D0
330
1F
100
AcDbEntity
  8
P-0000
  6
Continuous
 62
     7
100
AcDbLine
 10
320.2714061201687
 20
408.0697426895053
 30
0.0
 11
317.2714061201696
 21
408.0697426895053
 31
0.0
1001
ACME_LAYERS
1000
1
  0
LINE
  5
9D1
330
1F
100
AcDbEntity
  8
P-0000
  6
Continuous
 62
     7
100
AcDbLine
 10
334.9957031053036
 20
405.8697426895054
 30
0.0
 11
334.9957031053036
 21
408.0697426895053
 31
0.0
1001
ACME_LAYERS
1000
1
  0
LINE
  5
9D2
330
1F
100
AcDbEntity
  8
P-0000
  6
Continuous
 62
     7
100
AcDbLine
 10
333.7194728387544
 20
402.1131749207143
 30
0.0
 11
328.4957031053036
 21
408.0697426895053
 31
0.0
1001
ACME_LAYERS
1000
1
  0
LINE
  5
9D3
330
1F
100
AcDbEntity
  8
P-0000
  6
Continuous
 62
     7
100
AcDbLine
 10
334.4957031053036
 20
408.0697426895053
 30
0.0
 11
334.4957031053036
 21
409.1415394592303
 31
0.0
1001
ACME_LAYERS
1000
1
  0
LINE
  5
9D4
330
1F
100
AcDbEntity
  8
P-0000
  6
Continuous
 62
     7
100
AcDbLine
 10
334.9957031053036
 20
408.0697426895053
 30
0.0
 11
334.4957031053036
 21
408.0697426895053
 31
0.0
1001
ACME_LAYERS
1000
1
  0
LINE
  5
9D5
330
1F
100
AcDbEntity
  8
P-0000
  6
Continuous
 62
     7
100
AcDbLine
 10
334.4957031053036
 20
408.0697426895053
 30
0.0
 11
334.4957031053036
 21
409.1415394592303
 31
0.0
1001
ACME_LAYERS
1000
1
  0
LINE
  5
9D6
330
1F
100
AcDbEntity
  8
P-0000
  6
Continuous
 62
     7
100
AcDbLine
 10
336.1957031053034
 20
404.3697426895055
 30
0.0
 11
334.6368759132338
 21
402.1722009183053
 31
0.0
1001
ACME_LAYERS
1000
1
  0
LINE
  5
9D7
330
1F
100
AcDbEntity
  8
P-0000
  6
Continuous
 62
     7
100
AcDbLine
 10
334.9957031053036
 20
405.8697426895054
 30
0.0
 11
336.1957031053034
 21
405.8697426895054
 31
0.0
1001
ACME_LAYERS
1000
1
  0
LINE
  5
9D8
330
1F
100
AcDbEntity
  8
P-0000
  6
Continuous
 62
     7
100
AcDbLine
 10
336.1957031053034
 20
405.8697426895054
 30
0.0
 11
336.1957031053034
 21
404.3697426895055
 31
0.0
1001
ACME_LAYERS
1000
1
  0
ARC
  5
9D9
330
1F
100
AcDbEntity
  8
P-0000
  6
Continuous
 62
     7
100
AcDbCircle
 10
334.1474961111485
 20
402.5193426895062
 30
0.0
 40
0.6000000000000229
100
AcDbArc
 50
270.0
 51
324.6500000000025
1001
ACME_LAYERS
1000
1
  0
ARC
  5
9DA
330
1F
100
AcDbEntity
  8
P-0000
  6
Continuous
 62
     7
100
AcDbCircle
 10
334.1472696892097
 20
402.4883426895053
 30
0.0
 40
0.5689999999999894
100
AcDbArc
 50
221.2500000000013
 51
270.0
1001
ACME_LAYERS
1000
1
  0
LINE
  5
9DB
330
1F
100
AcDbEntity
  8
P-0000
  6
Continuous
 62
     7
100
AcDbLine
 10
334.1474961111485
 20
401.9193426895053
 30
0.0
 11
334.1472696892097
 21
401.9193426895053
 31
0.0
1001
ACME_LAYERS
1000
1
  0
HATCH
  5
9DC
330
1F
100
AcDbEntity
  8
P-0000
  6
Continuous
 62
     1
100
AcDbHatch
 10
0.0
 20
0.0
 30
0.0
210
0.0
220
0.0
230
1.0
  2
_U
 70
     0
 71
     0
 91
        1
 92
        1
 93
        4
 72
     1
 10
320.2714061201687
 20
414.0697426895052
 11
317.2714061201696
 21
414.0697426895052
 72
     1
 10
317.2714061201696
 20
414.0697426895052
 11
317.2714061201696
 21
408.0697426895053
 72
     1
 10
317.2714061201696
 20
408.0697426895053
 11
320.2714061201687
 21
408.0697426895053
 72
     1
 10
320.2714061201687
 20
408.0697426895053
 11
320.2714061201687
 21
414.0697426895052
 97
        0
 75
     0
 76
     0
 52
44.99999999999999
 41
1.0
 77
     0
 78
     1
 53
45.0
 43
-2342.823868275329
 44
-744.3638425067534
 45
-0.7071067811865475
 46
0.7071067811865476
 79
     0
 98
        1
 10
76.90467586924341
 20
526.5678257214845
1001
GENIUS_GENODEF_13
1002
{
1000
HIER
1070
     0
1002
}
1002
{
1000
MANEDIT
1070
     0
1002
}
1002
{
1000
NOSEL
1070
     0
1002
}
1002
{
1000
BEHIND
1070
     0
1002
}
1002
{
1000
OTHER
1070
     0
1002
}
1002
{
1000
REACTOR
1002
}
1001
GENIUS_GENOBJ-N-HTC_13
1002
{
1000
OWNER
1000
GEN
1002
}
1001
GENIUS_GENHATCH_13
1002
{
1000
DATA
1040
135.0
1042
1.0
1000
_U
1070
     0
1011
318.0403829356155
1021
408.5283297360254
1031
0.0
1002
}
1002
{
1000
UCS
1010
0.0
1020
0.0
1030
0.0
1010
1.0
1020
0.0
1030
0.0
1010
0.0
1020
1.0
1030
0.0
1002
}
1001
ACAD
1010
0.0
1020
0.0
1030
0.0
  0
LINE
  5
9DD
330
1F
100
AcDbEntity
  8
P-0000
  6
Continuous
 62
     7
100
AcDbLine
 10
128.7282458675945
 20
391.1245655710286
 30
0.0
 11
138.7282458675945
 21
391.1245655710195
 31
0.0
1001
ACME_LAYERS
1000
1
  0
LINE
  5
9DE
330
1F
100
AcDbEntity
  8
P-0000
  6
Continuous
 62
     7
100
AcDbLine
 10
130.5282458676046
 20
402.2718470107393
 30
0.0
 11
133.7282458676045
 21
402.2718470107373
 31
0.0
1001
ACME_LAYERS
1000
1
  0
LINE
  5
9DF
330
1F
100
AcDbEntity
  8
P-0000
  6
Continuous
 62
     7
100
AcDbLine
 10
136.9282458676034
 20
401.6718470107344
 30
0.0
 11
130.5282458676024
 21
401.6718470107393
 31
0.0
1001
ACME_LAYERS
1000
1
  0
LINE
  5
9E0
330
1F
100
AcDbEntity
  8
P-0000
  6
Continuous
 62
     7
100
AcDbLine
 10
129.7282458676036
 20
401.6718470107393
 30
0.0
 11
129.7282458676027
 21
398.7245655710253
 31
0.0
1001
ACME_LAYERS
1000
1
  0
LINE
  5
9E1
330
1F
100
AcDbEntity
  8
P-0000
  6
Continuous
 62
     3
100
AcDbLine
 10
130.5282458676046
 20
402.2718470107393
 30
0.0
 11
130.5282458675997
 21
398.7245655710253
 31
0.0
1001
ACME_LAYERS
1000
1
  0
LINE
  5
9E2
330
1F
100
AcDbEntity
  8
P-0000
  6
Continuous
 62
     7
100
AcDbLine
 10
130.5282458676024
 20
401.6718470107393
 30
0.0
 11
129.7282458676036
 21
401.6718470107393
 31
0.0
1001
ACME_LAYERS
1000
1
  0
LINE
  5
9E3
330
1F
100
AcDbEntity
  8
P-0000
  6
Continuous
 62
     3
100
AcDbLine
 10
130.5282458676046
 20
402.2718470107393
 30
0.0
 11
130.5282458676024
 21
401.6718470107393
 31
0.0
1001
ACME_LAYERS
1000
1
  0
LINE
  5
9E4
330
1F
100
AcDbEntity
  8
P-0000
  6
Continuous
 62
     7
100
AcDbLine
 10
129.7282458676036
 20
401.6718470107393
 30
0.0
 11
130.5282458676046
 21
402.2718470107393
 31
0.0
1001
ACME_LAYERS
1000
1
  0
LINE
  5
9E5
330
1F
100
AcDbEntity
  8
P-0000
  6
Continuous
 62
     7
100
AcDbLine
 10
137.7282458676045
 20
401.6718470107329
 30
0.0
 11
137.7282458676018
 21
398.7245655710194
 31
0.0
1001
ACME_LAYERS
1000
1
  0
LINE
  5
9E6
330
1F
100
AcDbEntity
  8
P-0000
  6
STRICHPUNKT
 62
     3
100
AcDbLine
 10
133.7282458676018
 20
398.7245655710227
 30
0.0
 11
133.7282458676045
 21
402.2718470107373
 31
0.0
1001
ACME_LAYERS
1000
1
  0
LINE
  5
9E7
330
1F
100
AcDbEntity
  8
P-0000
  6
Continuous
 62
     3
100
AcDbLine
 10
136.9282458676057
 20
402.2718470107323
 30
0.0
 11
136.9282458676007
 21
398.7245655710194
 31
0.0
1001
ACME_LAYERS
1000
1
  0
LINE
  5
9E8
330
1F
100
AcDbEntity
  8
P-0000
  6
Continuous
 62
     3
100
AcDbLine
 10
136.9282458676057
 20
402.2718470107323
 30
0.0
 11
136.9282458676034
 21
401.6718470107344
 31
0.0
1001
ACME_LAYERS
1000
1
  0
LINE
  5
9E9
330
1F
100
AcDbEntity
  8
P-0000
  6
Continuous
 62
     7
100
AcDbLine
 10
137.7282458676045
 20
401.6718470107329
 30
0.0
 11
136.9282458676034
 21
401.6718470107344
 31
0.0
1001
ACME_LAYERS
1000
1
  0
LINE
  5
9EA
330
1F
100
AcDbEntity
  8
P-0000
  6
Continuous
 62
     7
100
AcDbLine
 10
136.9282458676057
 20
402.2718470107323
 30
0.0
 11
137.7282458676045
 21
401.6718470107329
 31
0.0
1001
ACME_LAYERS
1000
1
  0
LINE
  5
9EB
330
1F
100
AcDbEntity
  8
P-0000
  6
Continuous
 62
     7
100
AcDbLine
 10
133.7282458676045
 20
402.2718470107373
 30
0.0
 11
136.9282458676057
 21
402.2718470107323
 31
0.0
1001
ACME_LAYERS
1000
1
  0
LINE
  5
9EC
330
1F
100
AcDbEntity
  8
P-0000
  6
Continuous
 62
     7
100
AcDbLine
 10
137.7282458676018
 20
398.7245655710194
 30
0.0
 11
130.5282458675997
 21
398.7245655710253
 31
0.0
1001
ACME_LAYERS
1000
1
  0
LINE
  5
9ED
330
1F
100
AcDbEntity
  8
P-0000
  6
Continuous
 62
     7
100
AcDbLine
 10
130.5282458675997
 20
398.7245655710253
 30
0.0
 11
129.7282458676009
 21
398.7245655710253
 31
0.0
1001
ACME_LAYERS
1000
1
  0
LINE
  5
9EE
330
1F
100
AcDbEntity
  8
P-0000
  6
Continuous
 62
     7
100
AcDbLine
 10
125.2825477541746
 20
392.6245655710286
 30
0.0
 11
125.2825477541737
 21
391.1245655710313
 31
0.0
1001
ACME_LAYERS
1000
1
  0
LINE
  5
9EF
330
1F
100
AcDbEntity
  8
P-0000
  6
Continuous
 62
     7
100
AcDbLine
 10
142.2825477541737
 20
391.1245655710163
 30
0.0
 11
142.2825477541746
 21
392.6245655710145
 31
0.0
1001
ACME_LAYERS
1000
1
  0
LINE
  5
9F0
330
1F
100
AcDbEntity
  8
P-0000
  6
Continuous
 62
     7
100
AcDbLine
 10
125.2825477541746
 20
392.7245655710294
 30
0.0
 11
125.2825477541746
 21
392.6245655710286
 31
0.0
1001
ACME_LAYERS
1000
1
  0
LINE
  5
9F1
330
1F
100
AcDbEntity
  8
P-0000
  6
Continuous
 62
     7
100
AcDbLine
 10
142.2825477541746
 20
392.7245655710144
 30
0.0
 11
125.2825477541746
 21
392.7245655710294
 31
0.0
1001
ACME_LAYERS
1000
1
  0
LINE
  5
9F2
330
1F
100
AcDbEntity
  8
P-0000
  6
Continuous
 62
     7
100
AcDbLine
 10
142.2825477541746
 20
392.6245655710145
 30
0.0
 11
142.2825477541746
 21
392.7245655710144
 31
0.0
1001
ACME_LAYERS
1000
1
  0
LINE
  5
9F3
330
1F
100
AcDbEntity
  8
P-0000
  6
Continuous
 62
     7
100
AcDbLine
 10
141.2337993670625
 20
394.6115047629232
 30
0.0
 11
141.2337993670603
 21
393.3051221546167
 31
0.0
1001
ACME_LAYERS
1000
1
  0
LINE
  5
9F4
330
1F
100
AcDbEntity
  8
P-0000
  6
Continuous
 62
     7
100
AcDbLine
 10
127.2282458675945
 20
392.7245655710285
 30
0.0
 11
140.2282458675945
 21
392.7245655710162
 31
0.0
1001
ACME_LAYERS
1000
1
  0
LINE
  5
9F5
330
1F
100
AcDbEntity
  8
P-0000
  6
Continuous
 62
     7
100
AcDbLine
 10
126.2226923681314
 20
394.6115047629364
 30
0.0
 11
126.2226923681305
 21
393.3051221546293
 31
0.0
1001
ACME_LAYERS
1000
1
  0
LINE
  5
9F6
330
1F
100
AcDbEntity
  8
P-0000
  6
Continuous
 62
     7
100
AcDbLine
 10
129.7282458676009
 20
398.7245655710253
 30
0.0
 11
127.2282458676009
 21
398.7245655710285
 31
0.0
1001
ACME_LAYERS
1000
1
  0
LINE
  5
9F7
330
1F
100
AcDbEntity
  8
P-0000
  6
Continuous
 62
     7
100
AcDbLine
 10
140.9871277784055
 20
393.1517091366504
 30
0.0
 11
140.2282458675945
 21
392.7245655710162
 31
0.0
1001
ACME_LAYERS
1000
1
  0
LINE
  5
9F8
330
1F
100
AcDbEntity
  8
P-0000
  6
Continuous
 62
     7
100
AcDbLine
 10
140.9871277784095
 20
398.2974220053802
 30
0.0
 11
140.2282458676027
 21
398.7245655710162
 31
0.0
1001
ACME_LAYERS
1000
1
  0
LINE
  5
9F9
330
1F
100
AcDbEntity
  8
P-0000
  6
Continuous
 62
     7
100
AcDbLine
 10
126.4693639567886
 20
393.1517091366623
 30
0.0
 11
127.2282458675945
 21
392.7245655710285
 31
0.0
1001
ACME_LAYERS
1000
1
  0
LINE
  5
9FA
330
1F
100
AcDbEntity
  8
P-0000
  6
Continuous
 62
     7
100
AcDbLine
 10
126.4693639567926
 20
398.2974220053933
 30
0.0
 11
127.2282458676009
 21
398.7245655710285
 31
0.0
1001
ACME_LAYERS
1000
1
  0
LINE
  5
9FB
330
1F
100
AcDbEntity
  8
P-0000
  6
Continuous
 62
     7
100
AcDbLine
 10
140.2282458676027
 20
398.7245655710162
 30
0.0
 11
137.7282458676018
 21
398.7245655710194
 31
0.0
1001
ACME_LAYERS
1000
1
  0
LINE
  5
9FC
330
1F
100
AcDbEntity
  8
P-0000
  6
Continuous
 62
     7
100
AcDbLine
 10
126.2226923681346
 20
398.1440089874281
 30
0.0
 11
126.2226923681314
 21
394.6115047629364
 31
0.0
1001
ACME_LAYERS
1000
1
  0
LINE
  5
9FD
330
1F
100
AcDbEntity
  8
P-0000
  6
Continuous
 62
     7
100
AcDbLine
 10
129.9754691178677
 20
398.1440089874245
 30
0.0
 11
129.9754691178627
 21
392.7245655710253
 31
0.0
1001
ACME_LAYERS
1000
1
  0
LINE
  5
9FE
330
1F
100
AcDbEntity
  8
P-0000
  6
Continuous
 62
     7
100
AcDbLine
 10
137.4810226173326
 20
398.1440089874181
 30
0.0
 11
137.4810226173276
 21
392.7245655710194
 31
0.0
1001
ACME_LAYERS
1000
1
  0
LINE
  5
9FF
330
1F
100
AcDbEntity
  8
P-0000
  6
Continuous
 62
     7
100
AcDbLine
 10
141.2337993670653
 20
398.1440089874145
 30
0.0
 11
141.2337993670625
 21
394.6115047629232
 31
0.0
1001
ACME_LAYERS
1000
1
  0
LINE
  5
A00
330
1F
100
AcDbEntity
  8
P-0000
  6
Continuous
 62
     7
100
AcDbLine
 10
125.2825477541737
 20
391.1245655710313
 30
0.0
 11
129.7282458675936
 21
391.1245655710286
 31
0.0
1001
ACME_LAYERS
1000
1
  0
LINE
  5
A01
330
1F
100
AcDbEntity
  8
P-0000
  6
Continuous
 62
     7
100
AcDbLine
 10
142.2825477541737
 20
391.1245655710163
 30
0.0
 11
138.2282458675954
 21
391.1245655710195
 31
0.0
1001
ACME_LAYERS
1000
1
  0
LINE
  5
A02
330
1F
100
AcDbEntity
  8
P-0000
  6
Continuous
 62
     7
100
AcDbLine
 10
137.7282458675913
 20
389.1245655710203
 30
0.0
 11
138.2282458675945
 21
389.1245655710195
 31
0.0
1001
ACME_LAYERS
1000
1
  0
LINE
  5
A03
330
1F
100
AcDbEntity
  8
P-0000
  6
Continuous
 62
     7
100
AcDbLine
 10
136.9282458675925
 20
389.1245655710203
 30
0.0
 11
137.7282458675913
 21
389.1245655710203
 31
0.0
1001
ACME_LAYERS
1000
1
  0
LINE
  5
A04
330
1F
100
AcDbEntity
  8
P-0000
  6
Continuous
 62
     7
100
AcDbLine
 10
130.5282458675915
 20
389.1245655710272
 30
0.0
 11
136.9282458675925
 21
389.1245655710203
 31
0.0
1001
ACME_LAYERS
1000
1
  0
LINE
  5
A05
330
1F
100
AcDbEntity
  8
P-0000
  6
Continuous
 62
     7
100
AcDbLine
 10
129.7282458675913
 20
389.1245655710272
 30
0.0
 11
130.5282458675915
 21
389.1245655710272
 31
0.0
1001
ACME_LAYERS
1000
1
  0
ARC
  5
A06
330
1F
100
AcDbEntity
  8
P-0000
  6
Continuous
 62
     7
100
AcDbCircle
 10
133.7282458676063
 20
405.1440089874203
 30
0.0
 40
12.41944341639904
100
AcDbArc
 50
252.4120462259827
 51
287.5879537739637
1001
ACME_LAYERS
1000
1
  0
ARC
  5
A07
330
1F
100
AcDbEntity
  8
P-0000
  6
Continuous
 62
     7
100
AcDbCircle
 10
133.7282458675886
 20
386.3051221546212
 30
0.0
 40
12.41944341639904
100
AcDbArc
 50
72.41204622598274
 51
107.5879537739636
1001
ACME_LAYERS
1000
1
  0
ARC
  5
A08
330
1F
100
AcDbEntity
  8
P-0000
  6
Continuous
 62
     7
100
AcDbCircle
 10
139.3574109921974
 20
396.0471351439664
 30
0.0
 40
3.322569572950221
100
AcDbArc
 50
235.6157525319106
 51
299.3733793947709
1001
ACME_LAYERS
1000
1
  0
ARC
  5
A09
330
1F
100
AcDbEntity
  8
P-0000
  6
Continuous
 62
     7
100
AcDbCircle
 10
139.3574109921983
 20
395.4019959980651
 30
0.0
 40
3.322569572950149
100
AcDbArc
 50
55.61575253191065
 51
60.62662060510624
1001
ACME_LAYERS
1000
1
  0
ARC
  5
A0A
330
1F
100
AcDbEntity
  8
P-0000
  6
Continuous
 62
     7
100
AcDbCircle
 10
128.0990807430003
 20
396.0471351439774
 30
0.0
 40
3.322569572950221
100
AcDbArc
 50
235.6157525319106
 51
240.6266206051062
1001
ACME_LAYERS
1000
1
  0
ARC
  5
A0B
330
1F
100
AcDbEntity
  8
P-0000
  6
Continuous
 62
     7
100
AcDbCircle
 10
128.0990807430003
 20
395.4019959980774
 30
0.0
 40
3.322569572949122
100
AcDbArc
 50
55.61575253191065
 51
119.3733793947709
1001
ACME_LAYERS
1000
1
  0
ARC
  5
A0C
330
1F
100
AcDbEntity
  8
P-0000
  6
Continuous
 62
     7
100
AcDbCircle
 10
139.3574109921974
 20
396.0471351439664
 30
0.0
 40
3.322569572949876
100
AcDbArc
 50
299.3733793947709
 51
304.3842474680243
1001
ACME_LAYERS
1000
1
  0
ARC
  5
A0D
330
1F
100
AcDbEntity
  8
P-0000
  6
Continuous
 62
     7
100
AcDbCircle
 10
139.3574109921974
 20
395.4019959980665
 30
0.0
 40
3.322569572949888
100
AcDbArc
 50
60.62662060510624
 51
124.3842474680243
1001
ACME_LAYERS
1000
1
  0
ARC
  5
A0E
330
1F
100
AcDbEntity
  8
P-0000
  6
Continuous
 62
     7
100
AcDbCircle
 10
128.0990807430003
 20
396.0471351439774
 30
0.0
 40
3.322569572949872
100
AcDbArc
 50
240.6266206051062
 51
304.3842474679592
1001
ACME_LAYERS
1000
1
  0
ARC
  5
A0F
330
1F
100
AcDbEntity
  8
P-0000
  6
Continuous
 62
     7
100
AcDbCircle
 10
128.0990807430003
 20
395.4019959980774
 30
0.0
 40
3.322569572949884
100
AcDbArc
 50
119.3733793947709
 51
124.3842474680243
1001
ACME_LAYERS
1000
1
  0
LINE
  5
A10
330
1F
100
AcDbEntity
  8
P-0000
  6
Continuous
 62
     7
100
AcDbLine
 10
171.7796391079387
 20
399.1072332637496
 30
0.0
 11
171.7796391079355
 21
396.2245655709854
 31
0.0
1001
ACME_LAYERS
1000
1
  0
LINE
  5
A11
330
1F
100
AcDbEntity
  8
P-0000
  6
Continuous
 62
     3
100
AcDbLine
 10
170.9796391079385
 20
398.6453530483986
 30
0.0
 11
170.9796391079353
 21
396.2245655709854
 31
0.0
1001
ACME_LAYERS
1000
1
  0
LINE
  5
A12
330
1F
100
AcDbEntity
  8
P-0000
  6
Continuous
 62
     7
100
AcDbLine
 10
166.7867122027332
 20
396.2245655709903
 30
0.0
 11
170.9796391079344
 21
396.2245655709854
 31
0.0
1001
ACME_LAYERS
1000
1
  0
LINE
  5
A13
330
1F
100
AcDbEntity
  8
P-0000
  6
Continuous
 62
     7
100
AcDbLine
 10
170.9796391079344
 20
396.2245655709854
 30
0.0
 11
171.7796391079355
 21
396.2245655709854
 31
0.0
1001
ACME_LAYERS
1000
1
  0
LINE
  5
A14
330
1F
100
AcDbEntity
  8
P-0000
  6
Continuous
 62
     7
100
AcDbLine
 10
176.2253372213508
 20
390.1245655709813
 30
0.0
 11
176.2253372213486
 21
388.6245655709831
 31
0.0
1001
ACME_LAYERS
1000
1
  0
LINE
  5
A15
330
1F
100
AcDbEntity
  8
P-0000
  6
Continuous
 62
     7
100
AcDbLine
 10
159.2253372213495
 20
388.6245655709982
 30
0.0
 11
159.2253372213517
 21
390.1245655709963
 31
0.0
1001
ACME_LAYERS
1000
1
  0
LINE
  5
A16
330
1F
100
AcDbEntity
  8
P-0000
  6
Continuous
 62
     7
100
AcDbLine
 10
176.2253372213508
 20
390.2245655709817
 30
0.0
 11
176.2253372213508
 21
390.1245655709813
 31
0.0
1001
ACME_LAYERS
1000
1
  0
LINE
  5
A17
330
1F
100
AcDbEntity
  8
P-0000
  6
Continuous
 62
     7
100
AcDbLine
 10
159.2253372213517
 20
390.2245655709961
 30
0.0
 11
176.2253372213508
 21
390.2245655709817
 31
0.0
1001
ACME_LAYERS
1000
1
  0
LINE
  5
A18
330
1F
100
AcDbEntity
  8
P-0000
  6
Continuous
 62
     7
100
AcDbLine
 10
159.2253372213517
 20
390.1245655709963
 30
0.0
 11
159.2253372213517
 21
390.2245655709961
 31
0.0
1001
ACME_LAYERS
1000
1
  0
LINE
  5
A19
330
1F
100
AcDbEntity
  8
P-0000
  6
Continuous
 62
     7
100
AcDbLine
 10
160.2740856084665
 20
392.1115047629023
 30
0.0
 11
160.2740856084665
 21
390.8051221545961
 31
0.0
1001
ACME_LAYERS
1000
1
  0
LINE
  5
A1A
330
1F
100
AcDbEntity
  8
P-0000
  6
Continuous
 62
     7
100
AcDbLine
 10
174.2796391079314
 20
390.2245655709835
 30
0.0
 11
161.2796391079314
 21
390.2245655709961
 31
0.0
1001
ACME_LAYERS
1000
1
  0
LINE
  5
A1B
330
1F
100
AcDbEntity
  8
P-0000
  6
Continuous
 62
     7
100
AcDbLine
 10
175.2851926073977
 20
392.1115047628896
 30
0.0
 11
175.2851926073977
 21
390.8051221545825
 31
0.0
1001
ACME_LAYERS
1000
1
  0
LINE
  5
A1C
330
1F
100
AcDbEntity
  8
P-0000
  6
Continuous
 62
     7
100
AcDbLine
 10
171.7796391079355
 20
396.2245655709854
 30
0.0
 11
174.2796391079378
 21
396.2245655709835
 31
0.0
1001
ACME_LAYERS
1000
1
  0
LINE
  5
A1D
330
1F
100
AcDbEntity
  8
P-0000
  6
Continuous
 62
     7
100
AcDbLine
 10
164.0268623582005
 20
392.1115047628997
 30
0.0
 11
164.0268623581996
 21
390.8051221545925
 31
0.0
1001
ACME_LAYERS
1000
1
  0
LINE
  5
A1E
330
1F
100
AcDbEntity
  8
P-0000
  6
Continuous
 62
     7
100
AcDbLine
 10
171.5324158576636
 20
392.1115047628923
 30
0.0
 11
171.5324158576627
 21
390.8051221545852
 31
0.0
1001
ACME_LAYERS
1000
1
  0
LINE
  5
A1F
330
1F
100
AcDbEntity
  8
P-0000
  6
Continuous
 62
     7
100
AcDbLine
 10
160.5207571971204
 20
390.6517091366295
 30
0.0
 11
161.2796391079314
 21
390.2245655709961
 31
0.0
1001
ACME_LAYERS
1000
1
  0
LINE
  5
A20
330
1F
100
AcDbEntity
  8
P-0000
  6
Continuous
 62
     7
100
AcDbLine
 10
175.0385210187396
 20
390.6517091366163
 30
0.0
 11
174.2796391079314
 21
390.2245655709835
 31
0.0
1001
ACME_LAYERS
1000
1
  0
LINE
  5
A21
330
1F
100
AcDbEntity
  8
P-0000
  6
Continuous
 62
     7
100
AcDbLine
 10
175.0385210187445
 20
395.7974220053484
 30
0.0
 11
174.2796391079378
 21
396.2245655709835
 31
0.0
1001
ACME_LAYERS
1000
1
  0
LINE
  5
A22
330
1F
100
AcDbEntity
  8
P-0000
  6
Continuous
 62
     7
100
AcDbLine
 10
175.2851926074004
 20
395.6440089873822
 30
0.0
 11
175.2851926073977
 21
392.1115047628896
 31
0.0
1001
ACME_LAYERS
1000
1
  0
LINE
  5
A23
330
1F
100
AcDbEntity
  8
P-0000
  6
Continuous
 62
     7
100
AcDbLine
 10
171.5324158576686
 20
395.6440089873845
 30
0.0
 11
171.5324158576636
 21
392.1115047628923
 31
0.0
1001
ACME_LAYERS
1000
1
  0
LINE
  5
A24
330
1F
100
AcDbEntity
  8
P-0000
  6
Continuous
 62
     7
100
AcDbLine
 10
164.0268623582024
 20
394.6311655203303
 30
0.0
 11
164.0268623582005
 21
392.1115047628997
 31
0.0
1001
ACME_LAYERS
1000
1
  0
LINE
  5
A25
330
1F
100
AcDbEntity
  8
P-0000
  6
Continuous
 62
     7
100
AcDbLine
 10
160.2740856084665
 20
392.4644988536666
 30
0.0
 11
160.2740856084665
 21
392.1115047629023
 31
0.0
1001
ACME_LAYERS
1000
1
  0
ARC
  5
A26
330
1F
100
AcDbEntity
  8
P-0000
  6
Continuous
 62
     7
100
AcDbCircle
 10
167.7796391079423
 20
402.6440089873889
 30
0.0
 40
12.41944341639904
100
AcDbArc
 50
252.4120462259827
 51
287.5879537739637
1001
ACME_LAYERS
1000
1
  0
ARC
  5
A27
330
1F
100
AcDbEntity
  8
P-0000
  6
Continuous
 62
     7
100
AcDbCircle
 10
167.7796391079255
 20
383.8051221545893
 30
0.0
 40
12.41944341639904
100
AcDbArc
 50
72.41204622598274
 51
94.95831806924392
1001
ACME_LAYERS
1000
1
  0
ARC
  5
A28
330
1F
100
AcDbEntity
  8
P-0000
  6
Continuous
 62
     7
100
AcDbCircle
 10
162.1504739833344
 20
393.5471351439446
 30
0.0
 40
3.322569572950221
100
AcDbArc
 50
240.6266206051062
 51
304.3842474680243
1001
ACME_LAYERS
1000
1
  0
ARC
  5
A29
330
1F
100
AcDbEntity
  8
P-0000
  6
Continuous
 62
     7
100
AcDbCircle
 10
173.4088042325315
 20
393.5471351439332
 30
0.0
 40
3.322569572950221
100
AcDbArc
 50
299.3733793947709
 51
304.3842474680243
1001
ACME_LAYERS
1000
1
  0
ARC
  5
A2A
330
1F
100
AcDbEntity
  8
P-0000
  6
Continuous
 62
     7
100
AcDbCircle
 10
173.4088042325315
 20
392.9019959980342
 30
0.0
 40
3.322569572949122
100
AcDbArc
 50
60.62662060510624
 51
124.3842474679592
1001
ACME_LAYERS
1000
1
  0
ARC
  5
A2B
330
1F
100
AcDbEntity
  8
P-0000
  6
Continuous
 62
     7
100
AcDbCircle
 10
162.1504739833344
 20
393.5471351439446
 30
0.0
 40
3.322569572949876
100
AcDbArc
 50
235.6157525319106
 51
240.6266206051062
1001
ACME_LAYERS
1000
1
  0
ARC
  5
A2C
330
1F
100
AcDbEntity
  8
P-0000
  6
Continuous
 62
     7
100
AcDbCircle
 10
173.4088042325315
 20
393.5471351439332
 30
0.0
 40
3.322569572949872
100
AcDbArc
 50
235.6157525319106
 51
299.3733793947709
1001
ACME_LAYERS
1000
1
  0
ARC
  5
A2D
330
1F
100
AcDbEntity
  8
P-0000
  6
Continuous
 62
     7
100
AcDbCircle
 10
173.4088042325315
 20
392.9019959980342
 30
0.0
 40
3.322569572949884
100
AcDbArc
 50
55.61575253191065
 51
60.62662060510624
1001
ACME_LAYERS
1000
1
  0
HATCH
  5
A2E
330
1F
100
AcDbEntity
  8
P-0000
  6
Continuous
 62
     1
100
AcDbHatch
 10
0.0
 20
0.0
 30
0.0
210
0.0
220
0.0
230
1.0
  2
_U
 70
     0
 71
     0
 91
        1
 92
        1
 93
       16
 72
     1
 10
165.4782458676018
 20
408.1189142725651
 11
165.4782458676018
 21
408.0697426895822
 72
     1
 10
165.4782458676018
 20
408.0697426895822
 11
164.9782458676027
 21
408.0697426895822
 72
     1
 10
164.9782458676027
 20
408.0697426895822
 11
164.9782458676027
 21
406.1189142725643
 72
     1
 10
164.9782458676027
 20
406.1189142725643
 11
157.9173546992856
 21
406.1189142725724
 72
     2
 10
157.9173546992856
 20
405.6189142725724
 40
0.5
 50
449.9999999999478
 51
539.9999999999478
 73
     1
 72
     1
 10
157.4173546992847
 20
405.6189142725724
 11
157.4173546992724
 21
393.1245655710037
 72
     2
 10
153.4173546992747
 20
393.1245655710072
 40
4.000000000000068
 50
0.0000000000521102
 51
90.00000000005211
 73
     0
 72
     1
 10
153.4173546992692
 20
389.1245655710063
 11
138.7282458675922
 21
389.1245655710195
 72
     1
 10
138.7282458675922
 20
389.1245655710195
 11
138.7282458675945
 21
391.1245655710195
 72
     1
 10
138.7282458675945
 20
391.1245655710195
 11
153.4782458675868
 21
391.1245655710054
 72
     2
 10
153.4782458675886
 20
393.1245655710072
 40
1.999999999999999
 50
269.9999999999479
 51
359.9999999999479
 73
     1
 72
     1
 10
155.4782458675876
 20
393.1245655710054
 11
155.4782458676036
 21
410.6189142725733
 72
     1
 10
155.4782458676036
 20
410.6189142725733
 11
157.4782458676036
 21
410.6189142725724
 72
     1
 10
157.4782458676036
 20
410.6189142725724
 11
157.4782458676027
 21
408.6189142725724
 72
     2
 10
157.9782458676018
 20
408.6189142725724
 40
0.5
 50
539.9999999999478
 51
629.9999999999479
 73
     1
 72
     1
 10
157.9782458676018
 20
408.1189142725714
 11
165.4782458676018
 21
408.1189142725651
 97
        0
 75
     0
 76
     0
 52
-45.0
 41
2.0
 77
     0
 78
     1
 53
315.0
 43
-2342.823868275329
 44
-744.3638425067534
 45
1.414213562373094
 46
1.414213562373094
 79
     0
 98
        1
 10
124.5391370354555
 20
-100.2967540704967
1001
ACME_LAYERS
1000
1
1001
ACAD
1010
0.0
1020
0.0
1030
0.0
  0
LINE
  5
A2F
330
1F
100
AcDbEntity
  8
P-0000
  6
Continuous
 62
     7
100
AcDbLine
 10
185.4782458676126
 20
410.6189142725464
 30
0.0
 11
182.7025428527404
 21
410.6189142725483
 31
0.0
1001
ACME_LAYERS
1000
1
  0
LINE
  5
A30
330
1F
100
AcDbEntity
  8
P-0000
  6
Continuous
 62
     7
100
AcDbLine
 10
166.0159663244876
 20
410.6189142725643
 30
0.0
 11
157.4782458676036
 21
410.6189142725724
 31
0.0
1001
ACME_LAYERS
1000
1
  0
LINE
  5
A31
330
1F
100
AcDbEntity
  8
P-0000
  6
Continuous
 62
     7
100
AcDbLine
 10
183.9242268616704
 20
406.1189142725473
 30
0.0
 11
155.4173546992691
 21
389.6604639558664
 31
0.0
1001
ACME_LAYERS
1000
1
  0
LINE
  5
A32
330
1F
100
AcDbEntity
  8
P-0000
  6
Continuous
 62
     7
100
AcDbLine
 10
157.9173546992856
 20
406.1189142725724
 30
0.0
 11
164.9782458676027
 21
406.1189142725643
 31
0.0
1001
ACME_LAYERS
1000
1
  0
LINE
  5
A33
330
1F
100
AcDbEntity
  8
P-0000
  6
Continuous
 62
     7
100
AcDbLine
 10
165.4782458676018
 20
408.1189142725651
 30
0.0
 11
157.9782458676018
 21
408.1189142725714
 31
0.0
1001
ACME_LAYERS
1000
1
  0
LINE
  5
A34
330
1F
100
AcDbEntity
  8
P-0000
  6
Continuous
 62
     7
100
AcDbLine
 10
250.4684856358835
 20
410.6189142724859
 30
0.0
 11
185.4782458676126
 21
410.6189142725464
 31
0.0
1001
ACME_LAYERS
1000
1
  0
LINE
  5
A35
330
1F
100
AcDbEntity
  8
P-0000
  6
Continuous
 62
     7
100
AcDbLine
 10
250.4684856358827
 20
408.118914272487
 30
0.0
 11
195.4782458676027
 21
408.118914272536
 31
0.0
1001
ACME_LAYERS
1000
1
  0
LINE
  5
A36
330
1F
100
AcDbEntity
  8
P-0000
  6
Continuous
 62
     7
100
AcDbLine
 10
240.4782458675936
 20
406.1189142724964
 30
0.0
 11
189.4782458676072
 21
406.1189142725433
 31
0.0
1001
ACME_LAYERS
1000
1
  0
LINE
  5
A37
330
1F
100
AcDbEntity
  8
P-0000
  6
Continuous
 62
     7
100
AcDbLine
 10
240.4782458675777
 20
388.6245655710236
 30
0.0
 11
240.4782458675936
 21
406.1189142724964
 31
0.0
1001
ACME_LAYERS
1000
1
  0
LINE
  5
A38
330
1F
100
AcDbEntity
  8
P-0000
  6
Continuous
 62
     7
100
AcDbLine
 10
248.9782458675914
 20
406.1189142724884
 30
0.0
 11
240.4782458675936
 21
406.1189142724964
 31
0.0
1001
ACME_LAYERS
1000
1
  0
LINE
  5
A39
330
1F
100
AcDbEntity
  8
P-0000
  6
Continuous
 62
     7
100
AcDbLine
 10
250.4684856358626
 20
406.1189142724859
 30
0.0
 11
248.9782458675914
 21
406.1189142724884
 31
0.0
1001
ACME_LAYERS
1000
1
  0
HATCH
  5
A3A
330
1F
100
AcDbEntity
  8
P-0000
  6
Continuous
 62
     1
100
AcDbHatch
 10
0.0
 20
0.0
 30
0.0
210
0.0
220
0.0
230
1.0
  2
_U
 70
     0
 71
     0
 91
        1
 92
        1
 93
       11
 72
     1
 10
184.9782458676094
 20
408.1189142725466
 11
173.4782458676018
 21
408.1189142725575
 72
     1
 10
173.4782458676018
 20
408.1189142725575
 11
173.4782458675995
 21
406.1189142725566
 72
     1
 10
173.4782458675995
 20
406.1189142725566
 11
183.9242268616704
 21
406.1189142725473
 72
     1
 10
183.9242268616704
 20
406.1189142725473
 11
189.4782458676072
 21
406.1189142725423
 72
     1
 10
189.4782458676072
 20
406.1189142725433
 11
189.4782458676095
 21
408.1189142725425
 72
     1
 10
189.4782458676095
 20
408.1189142725425
 11
187.9782458676094
 21
408.1189142725443
 72
     2
 10
187.9782458676104
 20
408.6189142725434
 40
0.5
 50
-269.9999999999479
 51
-179.9999999999479
 73
     0
 72
     1
 10
187.4782458676104
 20
408.6189142725443
 11
187.4782458676127
 21
410.6189142725455
 72
     1
 10
187.4782458676127
 20
410.6189142725455
 11
185.4782458676126
 21
410.6189142725464
 72
     1
 10
185.4782458676126
 20
410.6189142725464
 11
185.4782458676104
 21
408.6189142725466
 72
     2
 10
184.9782458676094
 20
408.6189142725466
 40
0.5
 50
0.0000000000521102
 51
90.00000000005211
 73
     0
 97
        0
 75
     0
 76
     0
 52
-45.0
 41
2.0
 77
     0
 78
     1
 53
315.0
 43
-2342.823868275329
 44
-744.3638425067534
 45
1.414213562373094
 46
1.414213562373094
 79
     0
 98
        1
 10
124.5391370354555
 20
-100.2967540704967
1001
ACME_LAYERS
1000
1
1001
ACAD
1010
0.0
1020
0.0
1030
0.0
  0
LINE
  5
A3B
330
1F
100
AcDbEntity
  8
P-0000
  6
Continuous
 62
     7
100
AcDbLine
 10
184.9782458676094
 20
408.1189142725466
 30
0.0
 11
173.4782458676018
 21
408.1189142725575
 31
0.0
1001
ACME_LAYERS
1000
1
  0
LINE
  5
A3C
330
1F
100
AcDbEntity
  8
P-0000
  6
Continuous
 62
     7
100
AcDbLine
 10
189.4782458676072
 20
406.1189142725433
 30
0.0
 11
183.9242268616704
 21
406.1189142725473
 31
0.0
1001
ACME_LAYERS
1000
1
  0
LINE
  5
A3D
330
1F
100
AcDbEntity
  8
P-0000
  6
Continuous
 62
     7
100
AcDbLine
 10
195.4782458676027
 20
408.118914272536
 30
0.0
 11
189.4782458676095
 21
408.1189142725425
 31
0.0
1001
ACME_LAYERS
1000
1
  0
LINE
  5
A3E
330
1F
100
AcDbEntity
  8
P-0000
  6
Continuous
 62
     7
100
AcDbLine
 10
189.4782458676072
 20
406.1189142725433
 30
0.0
 11
189.4782458676095
 21
408.1189142725425
 31
0.0
1001
ACME_LAYERS
1000
1
  0
LINE
  5
A3F
330
1F
100
AcDbEntity
  8
P-0000
  6
Continuous
 62
     7
100
AcDbLine
 10
189.4782458676095
 20
408.1189142725425
 30
0.0
 11
187.9782458676094
 21
408.1189142725443
 31
0.0
1001
ACME_LAYERS
1000
1
  0
LINE
  5
A40
330
1F
100
AcDbEntity
  8
P-0000
  6
Continuous
 62
     7
100
AcDbLine
 10
185.4782458676104
 20
408.6189142725466
 30
0.0
 11
185.4782458676126
 21
410.6189142725464
 31
0.0
1001
ACME_LAYERS
1000
1
  0
LINE
  5
A41
330
1F
100
AcDbEntity
  8
P-0000
  6
Continuous
 62
     7
100
AcDbLine
 10
187.4782458676104
 20
408.6189142725443
 30
0.0
 11
187.4782458676127
 21
410.6189142725455
 31
0.0
1001
ACME_LAYERS
1000
1
  0
LINE
  5
A42
330
1F
100
AcDbEntity
  8
P-0000
  6
Continuous
 62
     7
100
AcDbLine
 10
185.4782458676126
 20
410.6189142725464
 30
0.0
 11
187.4782458676127
 21
410.6189142725455
 31
0.0
1001
ACME_LAYERS
1000
1
  0
ARC
  5
A43
330
1F
100
AcDbEntity
  8
P-0000
  6
Continuous
 62
     7
100
AcDbCircle
 10
184.9782458676094
 20
408.6189142725466
 30
0.0
 40
0.5
100
AcDbArc
 50
269.9999999999479
 51
359.9999999999479
1001
ACME_LAYERS
1000
1
  0
ARC
  5
A44
330
1F
100
AcDbEntity
  8
P-0000
  6
Continuous
 62
     7
100
AcDbCircle
 10
187.9782458676104
 20
408.6189142725434
 30
0.0
 40
0.5
100
AcDbArc
 50
179.9999999999479
 51
269.9999999999479
1001
ACME_LAYERS
1000
1
  0
LINE
  5
A45
330
1F
100
AcDbEntity
  8
P-0000
  6
Continuous
 62
     7
100
AcDbLine
 10
169.7674152625386
 20
406.1189142725615
 30
0.0
 11
173.4782458675995
 21
406.1189142725566
 31
0.0
1001
ACME_LAYERS
1000
1
  0
LINE
  5
A46
330
1F
100
AcDbEntity
  8
P-0000
  6
Continuous
 62
     7
100
AcDbLine
 10
173.4782458676018
 20
408.1189142725575
 30
0.0
 11
165.4782458676018
 21
408.1189142725651
 31
0.0
1001
ACME_LAYERS
1000
1
  0
LINE
  5
A47
330
1F
100
AcDbEntity
  8
P-0000
  6
Continuous
 62
     7
100
AcDbLine
 10
173.4782458675995
 20
406.1189142725566
 30
0.0
 11
183.9242268616704
 21
406.1189142725473
 31
0.0
1001
ACME_LAYERS
1000
1
  0
LINE
  5
A48
330
1F
100
AcDbEntity
  8
P-0000
  6
Continuous
 62
     7
100
AcDbLine
 10
173.4782458676018
 20
408.1189142725575
 30
0.0
 11
173.4782458675995
 21
406.1189142725566
 31
0.0
1001
ACME_LAYERS
1000
1
  0
LINE
  5
A49
330
1F
100
AcDbEntity
  8
P-0000
  6
Continuous
 62
     7
100
AcDbLine
 10
167.9684856358794
 20
408.1189142725625
 30
0.0
 11
166.9684856358794
 21
408.1189142725634
 31
0.0
1001
ACME_LAYERS
1000
1
  0
LINE
  5
A4A
330
1F
100
AcDbEntity
  8
P-0000
  6
Continuous
 62
     7
100
AcDbLine
 10
167.9684856358794
 20
408.1189142725625
 30
0.0
 11
166.9684856358794
 21
408.1189142725634
 31
0.0
1001
ACME_LAYERS
1000
1
  0
LINE
  5
A4B
330
1F
100
AcDbEntity
  8
P-0000
  6
Continuous
 62
     7
100
AcDbLine
 10
128.7282458675945
 20
391.1245655710286
 30
0.0
 11
138.7282458675945
 21
391.1245655710195
 31
0.0
1001
ACME_LAYERS
1000
1
  0
LINE
  5
A4C
330
1F
100
AcDbEntity
  8
P-0000
  6
Continuous
 62
     7
100
AcDbLine
 10
128.7282458675936
 20
389.1245655710286
 30
0.0
 11
138.7282458675922
 21
389.1245655710195
 31
0.0
1001
ACME_LAYERS
1000
1
  0
LINE
  5
A4D
330
1F
100
AcDbEntity
  8
P-0000
  6
Continuous
 62
     7
100
AcDbLine
 10
157.4173546992724
 20
393.1245655710037
 30
0.0
 11
157.4173546992847
 21
405.6189142725724
 31
0.0
1001
ACME_LAYERS
1000
1
  0
LINE
  5
A4E
330
1F
100
AcDbEntity
  8
P-0000
  6
Continuous
 62
     7
100
AcDbLine
 10
155.4782458675876
 20
393.1245655710054
 30
0.0
 11
155.4782458676027
 21
408.1189142725743
 31
0.0
1001
ACME_LAYERS
1000
1
  0
LINE
  5
A4F
330
1F
100
AcDbEntity
  8
P-0000
  6
Continuous
 62
     7
100
AcDbLine
 10
145.6665540700328
 20
391.1245655710132
 30
0.0
 11
155.4782458676027
 21
408.1189142725743
 31
0.0
1001
ACME_LAYERS
1000
1
  0
LINE
  5
A50
330
1F
100
AcDbEntity
  8
P-0000
  6
Continuous
 62
     7
100
AcDbLine
 10
155.4782458676036
 20
410.6189142725733
 30
0.0
 11
157.4782458676036
 21
410.6189142725724
 31
0.0
1001
ACME_LAYERS
1000
1
  0
LINE
  5
A51
330
1F
100
AcDbEntity
  8
P-0000
  6
Continuous
 62
     7
100
AcDbLine
 10
157.4782458676036
 20
410.6189142725724
 30
0.0
 11
157.4782458676027
 21
408.6189142725724
 31
0.0
1001
ACME_LAYERS
1000
1
  0
ARC
  5
A52
330
1F
100
AcDbEntity
  8
P-0000
  6
Continuous
 62
     7
100
AcDbCircle
 10
157.9782458676018
 20
408.6189142725724
 30
0.0
 40
0.5
100
AcDbArc
 50
179.9999999999479
 51
269.9999999999479
1001
ACME_LAYERS
1000
1
  0
ARC
  5
A53
330
1F
100
AcDbEntity
  8
P-0000
  6
Continuous
 62
     7
100
AcDbCircle
 10
157.9173546992856
 20
405.6189142725724
 30
0.0
 40
0.5
100
AcDbArc
 50
89.99999999994789
 51
179.9999999999479
1001
ACME_LAYERS
1000
1
  0
LINE
  5
A54
330
1F
100
AcDbEntity
  8
P-0000
  6
Continuous
 62
     7
100
AcDbLine
 10
155.4782458676036
 20
410.6189142725733
 30
0.0
 11
155.4782458676027
 21
408.1189142725743
 31
0.0
1001
ACME_LAYERS
1000
1
  0
LINE
  5
A55
330
1F
100
AcDbEntity
  8
P-0000
  6
Continuous
 62
     7
100
AcDbLine
 10
145.6665540700328
 20
391.1245655710132
 30
0.0
 11
153.4782458675868
 21
391.1245655710054
 31
0.0
1001
ACME_LAYERS
1000
1
  0
LINE
  5
A56
330
1F
100
AcDbEntity
  8
P-0000
  6
Continuous
 62
     7
100
AcDbLine
 10
138.7282458675922
 20
389.1245655710195
 30
0.0
 11
153.4173546992692
 21
389.1245655710063
 31
0.0
1001
ACME_LAYERS
1000
1
  0
ARC
  5
A57
330
1F
100
AcDbEntity
  8
P-0000
  6
Continuous
 62
     7
100
AcDbCircle
 10
153.4782458675886
 20
393.1245655710072
 30
0.0
 40
2.0
100
AcDbArc
 50
269.9999999999479
 51
359.9999999999479
1001
ACME_LAYERS
1000
1
  0
ARC
  5
A58
330
1F
100
AcDbEntity
  8
P-0000
  6
Continuous
 62
     7
100
AcDbCircle
 10
153.4173546992747
 20
393.1245655710072
 30
0.0
 40
4.0
100
AcDbArc
 50
299.9999999999391
 51
359.9999999999479
1001
ACME_LAYERS
1000
1
  0
ARC
  5
A59
330
1F
100
AcDbEntity
  8
P-0000
  6
Continuous
 62
     7
100
AcDbCircle
 10
153.4173546992747
 20
393.1245655710072
 30
0.0
 40
4.000000000000031
100
AcDbArc
 50
269.9999999999479
 51
299.9999999999391
1001
ACME_LAYERS
1000
1
  0
LINE
  5
A5A
330
1F
100
AcDbEntity
  8
P-0000
  6
Continuous
 62
     7
100
AcDbLine
 10
138.7282458675945
 20
391.1245655710195
 30
0.0
 11
145.6665540700328
 21
391.1245655710132
 31
0.0
1001
ACME_LAYERS
1000
1
  0
LINE
  5
A5B
330
1F
100
AcDbEntity
  8
P-0000
  6
Continuous
 62
     7
100
AcDbLine
 10
138.7282458675922
 20
389.1245655710195
 30
0.0
 11
138.7282458675945
 21
391.1245655710195
 31
0.0
1001
ACME_LAYERS
1000
1
  0
HATCH
  5
A5C
330
1F
100
AcDbEntity
  8
P-0000
  6
Continuous
 62
     1
100
AcDbHatch
 10
0.0
 20
0.0
 30
0.0
210
0.0
220
0.0
230
1.0
  2
_U
 70
     0
 71
     0
 91
        1
 92
        1
 93
        4
 72
     1
 10
123.7282458675922
 20
389.1245655710322
 11
128.7282458675936
 21
389.1245655710286
 72
     1
 10
128.7282458675936
 20
389.1245655710286
 11
128.7282458675945
 21
391.1245655710286
 72
     1
 10
128.7282458675945
 20
391.1245655710286
 11
123.7282458675945
 21
391.1245655710331
 72
     1
 10
123.7282458675945
 20
391.1245655710331
 11
123.7282458675922
 21
389.1245655710322
 97
        0
 75
     0
 76
     0
 52
-45.0
 41
2.0
 77
     0
 78
     1
 53
315.0
 43
-2342.823868275329
 44
-744.3638425067534
 45
1.414213562373094
 46
1.414213562373094
 79
     0
 98
        1
 10
124.5391370354555
 20
-100.2967540704967
1001
ACME_LAYERS
1000
1
1001
ACAD
1010
0.0
1020
0.0
1030
0.0
  0
LINE
  5
A5D
330
1F
100
AcDbEntity
  8
P-0000
  6
Continuous
 62
     7
100
AcDbLine
 10
123.7282458675945
 20
391.1245655710331
 30
0.0
 11
128.7282458675945
 21
391.1245655710286
 31
0.0
1001
ACME_LAYERS
1000
1
  0
LINE
  5
A5E
330
1F
100
AcDbEntity
  8
P-0000
  6
Continuous
 62
     7
100
AcDbLine
 10
123.7282458675922
 20
389.1245655710322
 30
0.0
 11
128.7282458675936
 21
389.1245655710286
 31
0.0
1001
ACME_LAYERS
1000
1
  0
LINE
  5
A5F
330
1F
100
AcDbEntity
  8
P-0000
  6
Continuous
 62
     7
100
AcDbLine
 10
128.7282458675936
 20
389.1245655710286
 30
0.0
 11
128.7282458675945
 21
391.1245655710286
 31
0.0
1001
ACME_LAYERS
1000
1
  0
LINE
  5
A60
330
1F
100
AcDbEntity
  8
P-0000
  6
Continuous
 62
     7
100
AcDbLine
 10
123.7282458675922
 20
389.1245655710322
 30
0.0
 11
123.7282458675945
 21
391.1245655710331
 31
0.0
1001
ACME_LAYERS
1000
1
  0
LINE
  5
A61
330
1F
100
AcDbEntity
  8
P-0000
  6
Continuous
 62
     7
100
AcDbLine
 10
248.9782458676395
 20
450.0697426895063
 30
0.0
 11
248.9782458676064
 21
414.0697426895061
 31
0.0
1001
ACME_LAYERS
1000
1
  0
LINE
  5
A62
330
1F
100
AcDbEntity
  8
P-0000
  6
Continuous
 62
     7
100
AcDbLine
 10
174.0305754566439
 20
432.6388718888633
 30
0.0
 11
173.0517862403561
 21
429.9496706187173
 31
0.0
1001
ACME_LAYERS
1000
1
  0
LINE
  5
A63
330
1F
100
AcDbEntity
  8
P-0000
  6
Continuous
 62
     7
100
AcDbLine
 10
182.7025428527417
 20
414.0697426895663
 30
0.0
 11
195.8054712863604
 21
450.0697426895543
 31
0.0
1001
ACME_LAYERS
1000
1
  0
LINE
  5
A64
330
1F
100
AcDbEntity
  8
P-0000
  6
Continuous
 62
     7
100
AcDbLine
 10
248.9782458676454
 20
456.0393917891383
 30
0.0
 11
197.9782458676445
 21
456.0393917891856
 31
0.0
1001
ACME_LAYERS
1000
1
  0
LINE
  5
A65
330
1F
100
AcDbEntity
  8
P-0000
  6
Continuous
 62
     7
100
AcDbLine
 10
248.9782458676454
 20
456.0393917891383
 30
0.0
 11
197.9782458676445
 21
456.0393917891856
 31
0.0
1001
ACME_LAYERS
1000
1
  0
LINE
  5
A66
330
1F
100
AcDbEntity
  8
P-0000
  6
Continuous
 62
     7
100
AcDbLine
 10
202.6082529461255
 20
488.0697426895493
 30
0.0
 11
209.6363401885114
 21
488.0697426895421
 31
0.0
1001
ACME_LAYERS
1000
1
  0
LINE
  5
A67
330
1F
100
AcDbEntity
  8
P-0000
  6
Continuous
 62
     7
100
AcDbLine
 10
196.9782458676395
 20
450.0697426895535
 30
0.0
 11
248.9782458676395
 21
450.0697426895063
 31
0.0
1001
ACME_LAYERS
1000
1
  0
LINE
  5
A68
330
1F
100
AcDbEntity
  8
P-0000
  6
Continuous
 62
     7
100
AcDbLine
 10
204.1767866745026
 20
473.0697426895476
 30
0.0
 11
246.3740828116265
 21
473.0697426895085
 31
0.0
1001
ACME_LAYERS
1000
1
  0
LINE
  5
A69
330
1F
100
AcDbEntity
  8
P-0000
  6
Continuous
 62
     7
100
AcDbLine
 10
248.9782458676605
 20
473.0697426895052
 30
0.0
 11
248.9782458676454
 21
456.0393917891383
 31
0.0
1001
ACME_LAYERS
1000
1
  0
LINE
  5
A6A
330
1F
100
AcDbEntity
  8
P-0000
  6
Continuous
 62
     7
100
AcDbLine
 10
211.7646957334623
 20
488.0697426895388
 30
0.0
 11
246.3740828116415
 21
488.0697426895093
 31
0.0
1001
ACME_LAYERS
1000
1
  0
LINE
  5
A6B
330
1F
100
AcDbEntity
  8
P-0000
  6
Continuous
 62
     7
100
AcDbLine
 10
246.3740828116415
 20
488.0697426895093
 30
0.0
 11
246.3740828116265
 21
473.0697426895085
 31
0.0
1001
ACME_LAYERS
1000
1
  0
LINE
  5
A6C
330
1F
100
AcDbEntity
  8
P-0000
  6
Continuous
 62
     7
100
AcDbLine
 10
246.3740828116415
 20
488.0697426895093
 30
0.0
 11
250.4782458676745
 21
488.0697426895044
 31
0.0
1001
ACME_LAYERS
1000
1
  0
LINE
  5
A6D
330
1F
100
AcDbEntity
  8
P-0000
  6
Continuous
 62
     7
100
AcDbLine
 10
246.3740828116265
 20
473.0697426895085
 30
0.0
 11
248.9782458676605
 21
473.0697426895052
 31
0.0
1001
ACME_LAYERS
1000
1
  0
HATCH
  5
A6E
330
1F
100
AcDbEntity
  8
P-0000
  6
Continuous
 62
     1
100
AcDbHatch
 10
0.0
 20
0.0
 30
0.0
210
0.0
220
0.0
230
1.0
  2
_U
 70
     0
 71
     0
 91
        1
 92
        1
 93
        5
 72
     1
 10
208.1804592514427
 20
484.0697426895435
 11
209.6363401885114
 21
488.0697426895411
 72
     1
 10
209.6363401885114
 20
488.0697426895421
 11
211.7646957334623
 21
488.0697426895388
 72
     1
 10
211.7646957334623
 20
488.0697426895388
 11
210.5482998789717
 21
484.7277225462167
 72
     2
 10
209.6086072581852
 20
485.0697426895421
 40
1.000000000000015
 50
20.00000000005522
 51
90.00000000005211
 73
     0
 72
     1
 10
209.6086072581843
 20
484.0697426895421
 11
208.1804592514427
 21
484.0697426895435
 97
        0
 75
     0
 76
     0
 52
44.99999999999999
 41
1.0
 77
     0
 78
     1
 53
45.0
 43
-2342.823868275329
 44
-744.3638425067534
 45
-0.7071067811865475
 46
0.7071067811865476
 79
     0
 98
        1
 10
124.5293768037522
 20
-80.40911297873481
1001
ACME_LAYERS
1000
1
1001
ACAD
1010
0.0
1020
0.0
1030
0.0
  0
LINE
  5
A6F
330
1F
100
AcDbEntity
  8
P-0000
  6
Continuous
 62
     7
100
AcDbLine
 10
210.5482998789717
 20
484.7277225462167
 30
0.0
 11
211.7646957334623
 21
488.0697426895388
 31
0.0
1001
ACME_LAYERS
1000
1
  0
LINE
  5
A70
330
1F
100
AcDbEntity
  8
P-0000
  6
Continuous
 62
     7
100
AcDbLine
 10
208.1804592514427
 20
484.0697426895435
 30
0.0
 11
209.6363401885114
 21
488.0697426895421
 31
0.0
1001
ACME_LAYERS
1000
1
  0
LINE
  5
A71
330
1F
100
AcDbEntity
  8
P-0000
  6
Continuous
 62
     7
100
AcDbLine
 10
209.6363401885114
 20
488.0697426895421
 30
0.0
 11
211.7646957334623
 21
488.0697426895388
 31
0.0
1001
ACME_LAYERS
1000
1
  0
ARC
  5
A72
330
1F
100
AcDbEntity
  8
P-0000
  6
Continuous
 62
     7
100
AcDbCircle
 10
209.6086072581852
 20
485.0697426895421
 30
0.0
 40
1.000000000000015
100
AcDbArc
 50
269.9999999999479
 51
339.9999999999407
1001
ACME_LAYERS
1000
1
  0
ARC
  5
A73
330
1F
100
AcDbEntity
  8
P-0000
  6
Continuous
 62
     7
100
AcDbCircle
 10
209.6086072581852
 20
485.0697426895421
 30
0.0
 40
1.000000000000015
100
AcDbArc
 50
269.9999999999479
 51
339.9999999999407
1001
ACME_LAYERS
1000
1
  0
LINE
  5
A74
330
1F
100
AcDbEntity
  8
P-0000
  6
Continuous
 62
     7
100
AcDbLine
 10
208.1804592514427
 20
484.0697426895435
 30
0.0
 11
209.6086072581843
 21
484.0697426895421
 31
0.0
1001
ACME_LAYERS
1000
1
  0
LINE
  5
A75
330
1F
100
AcDbEntity
  8
P-0000
  6
Continuous
 62
     7
100
AcDbLine
 10
250.4782458676455
 20
456.0393917891373
 30
0.0
 11
248.9782458676454
 21
456.0393917891383
 31
0.0
1001
ACME_LAYERS
1000
1
  0
LINE
  5
A76
330
1F
100
AcDbEntity
  8
P-0000
  6
Continuous
 62
     7
100
AcDbLine
 10
250.4782458676455
 20
456.0393917891373
 30
0.0
 11
248.9782458676454
 21
456.0393917891383
 31
0.0
1001
ACME_LAYERS
1000
1
  0
LINE
  5
A77
330
1F
100
AcDbEntity
  8
P-0000
  6
Continuous
 62
     7
100
AcDbLine
 10
248.9782458676395
 20
450.0697426895063
 30
0.0
 11
250.4782458676396
 21
450.0697426895043
 31
0.0
1001
ACME_LAYERS
1000
1
  0
LINE
  5
A78
330
1F
100
AcDbEntity
  8
P-0000
  6
Continuous
 62
     7
100
AcDbLine
 10
191.3319414966877
 20
480.1739844094663
 30
0.0
 11
174.0305754566439
 21
432.6388718888633
 31
0.0
1001
ACME_LAYERS
1000
1
  0
LINE
  5
A79
330
1F
100
AcDbEntity
  8
P-0000
  6
Continuous
 62
     7
100
AcDbLine
 10
197.9782458676445
 20
456.0393917891856
 30
0.0
 11
204.1767866745026
 21
473.0697426895476
 31
0.0
1001
ACME_LAYERS
1000
1
  0
ARC
  5
A7A
330
1F
100
AcDbEntity
  8
P-0000
  6
Continuous
 62
     7
100
AcDbCircle
 10
202.6082529461146
 20
476.0697426895494
 30
0.0
 40
11.99999999999995
100
AcDbArc
 50
89.99999999994789
 51
159.9999999999529
1001
ACME_LAYERS
1000
1
  0
HATCH
  5
A7B
330
1F
100
AcDbEntity
  8
P-0000
  6
Continuous
 62
     3
100
AcDbHatch
 10
0.0
 20
0.0
 30
0.0
210
0.0
220
0.0
230
1.0
  2
_U
 70
     0
 71
     0
 91
        1
 92
        1
 93
        4
 72
     1
 10
195.8054712863604
 20
450.0697426895543
 11
197.9782458676445
 21
456.0393917891842
 72
     1
 10
197.9782458676445
 20
456.0393917891856
 11
197.9782458676418
 21
451.0697426895521
 72
     2
 10
196.9782458676426
 20
451.0697426895535
 40
1.0
 50
0.0000000000521102
 51
90.00000000005211
 73
     0
 72
     1
 10
196.9782458676395
 20
450.0697426895535
 11
195.8054712863604
 21
450.0697426895543
 97
        0
 75
     0
 76
     0
 52
44.99999999999999
 41
1.0
 77
     0
 78
     1
 53
45.0
 43
-2342.823868275329
 44
-744.3638425067534
 45
-0.7071067811865475
 46
0.7071067811865476
 79
     0
 98
        1
 10
124.5293768037522
 20
-80.40911297873481
1001
ACME_LAYERS
1000
1
1001
ACAD
1010
0.0
1020
0.0
1030
0.0
  0
LINE
  5
A7C
330
1F
100
AcDbEntity
  8
P-0000
  6
Continuous
 62
     7
100
AcDbLine
 10
195.8054712863604
 20
450.0697426895543
 30
0.0
 11
196.9782458676395
 21
450.0697426895535
 31
0.0
1001
ACME_LAYERS
1000
1
  0
LINE
  5
A7D
330
1F
100
AcDbEntity
  8
P-0000
  6
Continuous
 62
     7
100
AcDbLine
 10
195.8054712863604
 20
450.0697426895543
 30
0.0
 11
197.9782458676445
 21
456.0393917891856
 31
0.0
1001
ACME_LAYERS
1000
1
  0
LINE
  5
A7E
330
1F
100
AcDbEntity
  8
P-0000
  6
Continuous
 62
     7
100
AcDbLine
 10
197.9782458676418
 20
451.0697426895521
 30
0.0
 11
197.9782458676445
 21
456.0393917891856
 31
0.0
1001
ACME_LAYERS
1000
1
  0
LINE
  5
A7F
330
1F
100
AcDbEntity
  8
P-0000
  6
Continuous
 62
     7
100
AcDbLine
 10
197.9782458676418
 20
451.0697426895521
 30
0.0
 11
197.9782458676445
 21
456.0393917891856
 31
0.0
1001
ACME_LAYERS
1000
1
  0
ARC
  5
A80
330
1F
100
AcDbEntity
  8
P-0000
  6
Continuous
 62
     7
100
AcDbCircle
 10
196.9782458676426
 20
451.0697426895535
 30
0.0
 40
1.0
100
AcDbArc
 50
269.9999999999479
 51
359.9999999999479
1001
ACME_LAYERS
1000
1
  0
ARC
  5
A81
330
1F
100
AcDbEntity
  8
P-0000
  6
Continuous
 62
     3
100
AcDbCircle
 10
196.9782458676426
 20
451.0697426895535
 30
0.0
 40
1.0
100
AcDbArc
 50
269.9999999999479
 51
359.9999999999479
1001
ACME_LAYERS
1000
1
  0
LINE
  5
A82
330
1F
100
AcDbEntity
  8
P-0000
  6
Continuous
 62
     7
100
AcDbLine
 10
248.9782458676064
 20
414.0697426895061
 30
0.0
 11
182.7025428527417
 21
414.0697426895663
 31
0.0
1001
ACME_LAYERS
1000
1
  0
LINE
  5
A83
330
1F
100
AcDbEntity
  8
P-0000
  6
Continuous
 62
     7
100
AcDbLine
 10
248.9782458676064
 20
414.0697426895061
 30
0.0
 11
182.7025428527417
 21
414.0697426895663
 31
0.0
1001
ACME_LAYERS
1000
1
  0
LINE
  5
A84
330
1F
100
AcDbEntity
  8
P-0000
  6
Continuous
 62
     7
100
AcDbLine
 10
248.9782458676064
 20
414.0697426895061
 30
0.0
 11
182.7025428527417
 21
414.0697426895663
 31
0.0
1001
ACME_LAYERS
1000
1
  0
LINE
  5
A85
330
1F
100
AcDbEntity
  8
P-0000
  6
Continuous
 62
     7
100
AcDbLine
 10
182.7025428527363
 20
408.0697426895661
 30
0.0
 11
248.9782458676018
 21
408.0697426895062
 31
0.0
1001
ACME_LAYERS
1000
1
  0
LINE
  5
A86
330
1F
100
AcDbEntity
  8
P-0000
  6
Continuous
 62
     7
100
AcDbLine
 10
173.0517862403561
 20
429.9496706187173
 30
0.0
 11
165.4782458676027
 21
409.1415394593063
 31
0.0
1001
ACME_LAYERS
1000
1
  0
LINE
  5
A87
330
1F
100
AcDbEntity
  8
P-0000
  6
Continuous
 62
     7
100
AcDbLine
 10
171.4782458676026
 20
408.069742689577
 30
0.0
 11
179.7025428527363
 21
408.0697426895703
 31
0.0
1001
ACME_LAYERS
1000
1
  0
LINE
  5
A88
330
1F
100
AcDbEntity
  8
P-0000
  6
Continuous
 62
     7
100
AcDbLine
 10
179.7025428527363
 20
408.0697426895703
 30
0.0
 11
179.7025428527425
 21
414.0697426895703
 31
0.0
1001
ACME_LAYERS
1000
1
  0
LINE
  5
A89
330
1F
100
AcDbEntity
  8
P-0000
  6
Continuous
 62
     7
100
AcDbLine
 10
182.7025428527363
 20
408.0697426895661
 30
0.0
 11
182.7025428527417
 21
414.0697426895663
 31
0.0
1001
ACME_LAYERS
1000
1
  0
LINE
  5
A8A
330
1F
100
AcDbEntity
  8
P-0000
  6
Continuous
 62
     7
100
AcDbLine
 10
182.7025428527417
 20
414.0697426895663
 30
0.0
 11
179.7025428527425
 21
414.0697426895703
 31
0.0
1001
ACME_LAYERS
1000
1
  0
LINE
  5
A8B
330
1F
100
AcDbEntity
  8
P-0000
  6
Continuous
 62
     7
100
AcDbLine
 10
182.7025428527417
 20
414.0697426895663
 30
0.0
 11
179.7025428527425
 21
414.0697426895703
 31
0.0
1001
ACME_LAYERS
1000
1
  0
LINE
  5
A8C
330
1F
100
AcDbEntity
  8
P-0000
  6
Continuous
 62
     7
100
AcDbLine
 10
179.7025428527363
 20
408.0697426895703
 30
0.0
 11
182.7025428527363
 21
408.0697426895661
 31
0.0
1001
ACME_LAYERS
1000
1
  0
LINE
  5
A8D
330
1F
100
AcDbEntity
  8
P-0000
  6
Continuous
 62
     7
100
AcDbLine
 10
164.9782458675995
 20
405.8697426895832
 30
0.0
 11
164.9782458676027
 21
408.0697426895822
 31
0.0
1001
ACME_LAYERS
1000
1
  0
LINE
  5
A8E
330
1F
100
AcDbEntity
  8
P-0000
  6
Continuous
 62
     7
100
AcDbLine
 10
166.2544761341455
 20
402.1131749207893
 30
0.0
 11
171.4782458676026
 21
408.069742689577
 31
0.0
1001
ACME_LAYERS
1000
1
  0
LINE
  5
A8F
330
1F
100
AcDbEntity
  8
P-0000
  6
Continuous
 62
     7
100
AcDbLine
 10
165.4782458676018
 20
408.0697426895822
 30
0.0
 11
165.4782458676027
 21
409.1415394593063
 31
0.0
1001
ACME_LAYERS
1000
1
  0
LINE
  5
A90
330
1F
100
AcDbEntity
  8
P-0000
  6
Continuous
 62
     7
100
AcDbLine
 10
164.9782458676027
 20
408.0697426895822
 30
0.0
 11
165.4782458676018
 21
408.0697426895822
 31
0.0
1001
ACME_LAYERS
1000
1
  0
LINE
  5
A91
330
1F
100
AcDbEntity
  8
P-0000
  6
Continuous
 62
     7
100
AcDbLine
 10
165.4782458676018
 20
408.0697426895822
 30
0.0
 11
165.4782458676027
 21
409.1415394593063
 31
0.0
1001
ACME_LAYERS
1000
1
  0
LINE
  5
A92
330
1F
100
AcDbEntity
  8
P-0000
  6
Continuous
 62
     7
100
AcDbLine
 10
163.7782458675997
 20
404.3697426895833
 30
0.0
 11
165.3370730596666
 21
402.1722009183823
 31
0.0
1001
ACME_LAYERS
1000
1
  0
LINE
  5
A93
330
1F
100
AcDbEntity
  8
P-0000
  6
Continuous
 62
     7
100
AcDbLine
 10
164.9782458675995
 20
405.8697426895832
 30
0.0
 11
163.7782458675997
 21
405.8697426895841
 31
0.0
1001
ACME_LAYERS
1000
1
  0
LINE
  5
A94
330
1F
100
AcDbEntity
  8
P-0000
  6
Continuous
 62
     7
100
AcDbLine
 10
163.7782458675997
 20
405.8697426895841
 30
0.0
 11
163.7782458675997
 21
404.3697426895833
 31
0.0
1001
ACME_LAYERS
1000
1
  0
ARC
  5
A95
330
1F
100
AcDbEntity
  8
P-0000
  6
Continuous
 62
     7
100
AcDbCircle
 10
165.8264528617515
 20
402.5193426895811
 30
0.0
 40
0.6000000000000229
100
AcDbArc
 50
215.3499999999398
 51
269.9999999999479
1001
ACME_LAYERS
1000
1
  0
ARC
  5
A96
330
1F
100
AcDbEntity
  8
P-0000
  6
Continuous
 62
     7
100
AcDbCircle
 10
165.8266792836893
 20
402.4883426895812
 30
0.0
 40
0.5689999999999894
100
AcDbArc
 50
269.9999999999479
 51
318.7499999999251
1001
ACME_LAYERS
1000
1
  0
LINE
  5
A97
330
1F
100
AcDbEntity
  8
P-0000
  6
Continuous
 62
     7
100
AcDbLine
 10
165.8264528617515
 20
401.9193426895813
 30
0.0
 11
165.8266792836893
 21
401.9193426895813
 31
0.0
1001
ACME_LAYERS
1000
1
  0
HATCH
  5
A98
330
1F
100
AcDbEntity
  8
P-0000
  6
Continuous
 62
     1
100
AcDbHatch
 10
0.0
 20
0.0
 30
0.0
210
0.0
220
0.0
230
1.0
  2
_U
 70
     0
 71
     0
 91
        1
 92
        1
 93
        4
 72
     1
 10
179.7025428527425
 20
414.0697426895703
 11
182.7025428527417
 21
414.0697426895671
 72
     1
 10
182.7025428527417
 20
414.0697426895663
 11
182.7025428527363
 21
408.0697426895661
 72
     1
 10
182.7025428527363
 20
408.0697426895661
 11
179.7025428527363
 21
408.0697426895684
 72
     1
 10
179.7025428527363
 20
408.0697426895703
 11
179.7025428527425
 21
414.0697426895703
 97
        0
 75
     0
 76
     0
 52
44.99999999999999
 41
1.0
 77
     0
 78
     1
 53
45.0
 43
-2342.823868275329
 44
-744.3638425067534
 45
-0.7071067811865475
 46
0.7071067811865476
 79
     0
 98
        1
 10
423.0692731037691
 20
526.5678257213285
1001
GENIUS_GENODEF_13
1002
{
1000
HIER
1070
     0
1002
}
1002
{
1000
MANEDIT
1070
     0
1002
}
1002
{
1000
NOSEL
1070
     0
1002
}
1002
{
1000
BEHIND
1070
     0
1002
}
1002
{
1000
OTHER
1070
     0
1002
}
1002
{
1000
REACTOR
1002
}
1001
GENIUS_GENOBJ-N-HTC_13
1002
{
1000
OWNER
1000
GEN
1002
}
1001
GENIUS_GENHATCH_13
1002
{
1000
DATA
1040
135.0
1042
-1.0
1000
_U
1070
     0
1011
181.9335660372908
1021
408.5283297360865
1031
0.0
1002
}
1002
{
1000
UCS
1010
0.0
1020
0.0
1030
0.0
1010
1.0
1020
0.0
1030
0.0
1010
0.0
1020
1.0
1030
0.0
1002
}
1001
ACAD
1010
0.0
1020
0.0
1030
0.0
  0
HATCH
  5
A99
330
1F
100
AcDbEntity
  8
AM_8
100
AcDbHatch
 10
0.0
 20
0.0
 30
0.0
210
0.0
220
0.0
230
1.0
  2
_U
 70
     0
 71
     0
 91
        1
 92
        1
 93
        5
 72
     1
 10
250.4782458676745
 20
488.0697426895044
 11
249.9869744864395
 21
488.0697426895053
 72
     1
 10
249.9869744864395
 20
488.0697426895053
 11
249.9869744864395
 21
473.0697426895043
 72
     1
 10
249.9869744864395
 20
473.0697426895043
 11
253.5998661613376
 21
473.0697426895043
 72
     1
 10
253.5998661613376
 20
473.0697426895043
 11
253.5998661613376
 21
488.0697426895053
 72
     1
 10
253.5998661613376
 20
488.0697426895053
 11
250.4782458676745
 21
488.0697426895044
 97
        0
 75
     0
 76
     0
 52
45.0
 41
2.5
 77
     0
 78
     1
 53
45.0
 43
-2342.823868275329
 44
-744.3638425067534
 45
-1.767766952966368
 46
1.767766952966368
 79
     0
 98
        1
 10
-2342.823868275329
 20
-744.3638425067534
1001
GENIUS_GENODEF_13
1002
{
1000
HIER
1070
     0
1002
}
1002
{
1000
MANEDIT
1070
     0
1002
}
1002
{
1000
NOSEL
1070
     0
1002
}
1002
{
1000
BEHIND
1070
     0
1002
}
1002
{
1000
OTHER
1070
     0
1002
}
1002
{
1000
REACTOR
1002
}
1001
GENIUS_GENOBJ-N-HTC_13
1002
{
1000
OWNER
1000
GEN
1002
}
1001
GENIUS_GENHATCH_13
1002
{
1000
DATA
1040
45.0
1042
2.5
1000
_U
1070
     0
1011
252.3515013553328
1021
485.6792725526974
1031
0.0
1002
}
1002
{
1000
UCS
1010
0.0
1020
0.0
1030
0.0
1010
1.0
1020
0.0
1030
0.0
1010
0.0
1020
1.0
1030
0.0
1002
}
  0
HATCH
  5
A9A
330
1F
100
AcDbEntity
  8
AM_8
100
AcDbHatch
 10
0.0
 20
0.0
 30
0.0
210
0.0
220
0.0
230
1.0
  2
_U
 70
     0
 71
     0
 91
        1
 92
        1
 93
        8
 72
     1
 10
249.4957031053036
 20
488.0697426895053
 11
246.3740828116415
 21
488.0697426895085
 72
     1
 10
246.3740828116415
 20
488.0697426895093
 11
246.3740828116265
 21
473.0697426895085
 72
     1
 10
246.3740828116265
 20
473.0697426895085
 11
247.9957031053036
 21
473.0697426895052
 72
     1
 10
247.9957031053036
 20
473.0697426895043
 11
248.9782458676605
 21
473.0697426895052
 72
     1
 10
248.9782458676605
 20
473.0697426895052
 11
249.4957031053036
 21
473.0697426895043
 72
     1
 10
249.4957031053036
 20
473.0697426895043
 11
249.9869744864395
 21
473.0697426895043
 72
     1
 10
249.9869744864395
 20
473.0697426895043
 11
249.9869744864395
 21
488.0697426895053
 72
     1
 10
249.9869744864395
 20
488.0697426895053
 11
249.4957031053036
 21
488.0697426895053
 97
        0
 75
     0
 76
     0
 52
45.0
 41
2.5
 77
     0
 78
     1
 53
45.0
 43
-2342.823868275329
 44
-744.3638425067534
 45
-1.767766952966368
 46
1.767766952966368
 79
     0
 98
        1
 10
-2342.823868275329
 20
-744.3638425067534
1001
GENIUS_GENOBJ-N-HTC_13
1002
{
1000
OWNER
1000
GEN
1002
}
1001
GENIUS_GENODEF_13
1002
{
1000
HIER
1070
     0
1002
}
1002
{
1000
MANEDIT
1070
     0
1002
}
1002
{
1000
NOSEL
1070
     0
1002
}
1002
{
1000
BEHIND
1070
     0
1002
}
1002
{
1000
OTHER
1070
     0
1002
}
1002
{
1000
REACTOR
1002
}
1001
GENIUS_GENHATCH_13
1002
{
1000
DATA
1040
45.0
1042
2.5
1000
_U
1070
     0
1011
249.2525976225816
1021
484.3326521833422
1031
0.0
1002
}
1002
{
1000
UCS
1010
0.0
1020
0.0
1030
0.0
1010
1.0
1020
0.0
1030
0.0
1010
0.0
1020
1.0
1030
0.0
1002
}
  0
LINE
  5
A9B
330
1F
100
AcDbEntity
  8
AM_7
  6
AM_DIN_G_W050x2
100
AcDbLine
 10
133.7282458676027
 20
401.1440089874213
 30
0.0
 11
133.7457031052954
 21
389.1245655709181
 31
0.0
1001
GENIUS_GENOBJ-N-CEN_13
1002
{
1000
OWNER
1000
GEN
1002
}
1001
GENIUS_GENODEF_13
1002
{
1000
HIER
1070
     0
1002
}
1002
{
1000
MANEDIT
1070
     0
1002
}
1002
{
1000
NOSEL
1070
     0
1002
}
1002
{
1000
BEHIND
1070
     0
1002
}
1002
{
1000
OTHER
1070
     0
1002
}
1002
{
1000
REACTOR
1002
}
1001
GENIUS_GENCEN_19
1002
{
1040
3.0
1002
}
  0
LINE
  5
A9C
330
1F
100
AcDbEntity
  8
AM_7
  6
AM_DIN_G_W050x2
100
AcDbLine
 10
366.2457031052968
 20
401.1440089873152
 30
0.0
 11
366.2457031052945
 21
389.1245655709181
 31
0.0
1001
GENIUS_GENODEF_13
1002
{
1000
HIER
1070
     0
1002
}
1002
{
1000
MANEDIT
1070
     0
1002
}
1002
{
1000
NOSEL
1070
     0
1002
}
1002
{
1000
BEHIND
1070
     0
1002
}
1002
{
1000
OTHER
1070
     0
1002
}
1002
{
1000
REACTOR
1002
}
1001
GENIUS_GENOBJ-N-CEN_13
1002
{
1000
OWNER
1000
GEN
1002
}
1001
GENIUS_GENCEN_19
1002
{
1040
3.0
1002
}
  0
LINE
  5
A9D
330
1F
100
AcDbEntity
  8
0
100
AcDbLine
 10
119.7457031052954
 20
389.1245655709181
 30
0.0
 11
119.7457031052954
 21
388.6245655710236
 31
0.0
  0
LINE
  5
A9E
330
1F
100
AcDbEntity
  8
0
100
AcDbLine
 10
248.4869744864386
 20
406.1189142724884
 30
0.0
 11
248.4869744864386
 21
388.6245655710236
 31
0.0
  0
LINE
  5
A9F
330
1F
100
AcDbEntity
  8
0
100
AcDbLine
 10
251.4869744864395
 20
406.1189142724884
 30
0.0
 11
251.4869744864386
 21
388.6245655710236
 31
0.0
  0
LINE
  5
AA0
330
1F
100
AcDbEntity
  8
0
100
AcDbLine
 10
165.0435109305254
 20
379.9186456660796
 30
0.0
 11
165.0435109305254
 21
377.8607170904615
 31
0.0
  0
LINE
  5
AA1
102
{ACAD_REACTORS
330
85C
102
}
330
1F
100
AcDbEntity
  8
0
100
AcDbLine
 10
335.0330978690117
 20
379.9876908589972
 30
0.0
 11
335.0347696190834
 21
377.9297629623993
 31
0.0
  0
DIMENSION
  5
AA2
102
{ACAD_XDICTIONARY
360
AA3
102
}
102
{ACAD_REACTORS
330
AA4
102
}
330
1F
100
AcDbEntity
  8
AM_5
100
AcDbDimension
  2
*D4
 10
73.00000088857449
 20
371.9186456660805
 30
0.0
 11
66.50000088857442
 21
186.91864566608
 31
0.0
 70
    32
 71
     5
 42
370.0000000000009
  3
AM_DIN$0
100
AcDbAlignedDimension
 13
250.0435109305404
 23
1.918645666079554
 33
0.0
 14
85.0000008885736
 24
371.9186456660805
 34
0.0
 50
90.0
100
AcDbRotatedDimension
1001
ACAD_DSTYLE_DIMINSPECT
1070
   396
1000
100%
1070
   395
1000

1070
   394
1070
    33
1070
   393
1070
     0
1001
ACAD
1000
DSTYLE
1002
{
1070
    41
1040
5.0
1070
   140
1040
10.0
1070
   271
1070
     0
1002
}
  0
LINE
  5
B0F
330
1F
100
AcDbEntity
  8
P-0000
  6
STRICHLINIE
 62
     2
100
AcDbLine
 10
309.5435109304938
 20
233.9186456660833
 30
0.0
 11
309.5435109304938
 21
226.9186456660841
 31
0.0
1001
ACME_LAYERS
1000
1
  0
LINE
  5
B10
330
1F
100
AcDbEntity
  8
P-0000
  6
STRICHLINIE
 62
     2
100
AcDbLine
 10
316.5435109304937
 20
233.9186456660833
 30
0.0
 11
316.5435109304935
 21
226.9186456660841
 31
0.0
1001
ACME_LAYERS
1000
1
  0
LINE
  5
B11
330
1F
100
AcDbEntity
  8
P-0000
  6
Continuous
 62
     7
100
AcDbLine
 10
192.5435109304955
 20
324.9186456660808
 30
0.0
 11
192.5435109304955
 21
233.9186456660834
 31
0.0
1001
ACME_LAYERS
1000
1
  0
LINE
  5
B12
330
1F
100
AcDbEntity
  8
P-0000
  6
Continuous
 62
     7
100
AcDbLine
 10
198.5435109304955
 20
233.9186456660834
 30
0.0
 11
192.5435109304955
 21
233.9186456660834
 31
0.0
1001
ACME_LAYERS
1000
1
  0
LINE
  5
B13
330
1F
100
AcDbEntity
  8
P-0000
  6
Continuous
 62
     7
100
AcDbLine
 10
301.5435109304955
 20
233.9186456660833
 30
0.0
 11
309.5435109304938
 21
233.9186456660833
 31
0.0
1001
ACME_LAYERS
1000
1
  0
LINE
  5
B14
330
1F
100
AcDbEntity
  8
P-0000
  6
Continuous
 62
     7
100
AcDbLine
 10
180.0435109304945
 20
349.9186456660841
 30
0.0
 11
180.0435109304965
 21
371.9186456660805
 31
0.0
1001
ACME_LAYERS
1000
1
  0
LINE
  5
B15
330
1F
100
AcDbEntity
  8
P-0000
  6
Continuous
 62
     7
100
AcDbLine
 10
147.5435109305067
 20
371.9186456660805
 30
0.0
 11
147.5435109305067
 21
332.9186456660834
 31
0.0
1001
ACME_LAYERS
1000
1
  0
LINE
  5
B16
330
1F
100
AcDbEntity
  8
P-0000
  6
Continuous
 62
     7
100
AcDbLine
 10
320.0435109304948
 20
233.9186456660833
 30
0.0
 11
320.0435109304948
 21
371.9186456660803
 31
0.0
1001
ACME_LAYERS
1000
1
  0
LINE
  5
B17
330
1F
100
AcDbEntity
  8
P-0000
  6
Continuous
 62
     7
100
AcDbLine
 10
352.5435109304888
 20
371.9186456660839
 30
0.0
 11
352.543510930481
 21
221.9186456660841
 31
0.0
1001
ACME_LAYERS
1000
1
  0
LINE
  5
B18
330
1F
100
AcDbEntity
  8
P-0000
  6
Continuous
 62
     7
100
AcDbLine
 10
316.5435109304937
 20
233.9186456660833
 30
0.0
 11
320.0435109304948
 21
233.9186456660833
 31
0.0
1001
ACME_LAYERS
1000
1
  0
LINE
  5
B19
330
1F
100
AcDbEntity
  8
P-0000
  6
Continuous
 62
     7
100
AcDbLine
 10
309.5435109304938
 20
233.9186456660833
 30
0.0
 11
316.5435109304937
 21
233.9186456660833
 31
0.0
1001
ACME_LAYERS
1000
1
  0
LINE
  5
B1A
330
1F
100
AcDbEntity
  8
P-0000
  6
Continuous
 62
     7
100
AcDbLine
 10
180.0435109304945
 20
349.9186456660841
 30
0.0
 11
191.5600023504276
 21
349.9186456660853
 31
0.0
1001
ACME_LAYERS
1000
1
  0
LINE
  5
B1B
330
1F
100
AcDbEntity
  8
P-0000
  6
Continuous
 62
     7
100
AcDbLine
 10
184.0435109304945
 20
349.9186456660846
 30
0.0
 11
184.0435109304945
 21
324.9186456660806
 31
0.0
1001
ACME_LAYERS
1000
1
  0
LINE
  5
B1C
330
1F
100
AcDbEntity
  8
P-0000
  6
Continuous
 62
     7
100
AcDbLine
 10
184.0435109304945
 20
324.9186456660806
 30
0.0
 11
192.5435109304955
 21
324.9186456660808
 31
0.0
1001
ACME_LAYERS
1000
1
  0
LINE
  5
B1D
330
1F
100
AcDbEntity
  8
P-0000
  6
Continuous
 62
     7
100
AcDbLine
 10
352.543510930481
 20
221.9186456660841
 30
0.0
 11
340.0435109304942
 21
221.9186456660841
 31
0.0
1001
ACME_LAYERS
1000
1
  0
LINE
  5
B1E
330
1F
100
AcDbEntity
  8
P-0000
  6
Continuous
 62
     7
100
AcDbLine
 10
340.0435109304942
 20
226.9186456660841
 30
0.0
 11
331.543510930492
 21
226.9186456660841
 31
0.0
1001
ACME_LAYERS
1000
1
  0
LINE
  5
B1F
330
1F
100
AcDbEntity
  8
P-0000
  6
Continuous
 62
     7
100
AcDbLine
 10
198.5435109304939
 20
226.9186456660841
 30
0.0
 11
175.0435109304931
 21
226.9186456660841
 31
0.0
1001
ACME_LAYERS
1000
1
  0
LINE
  5
B20
330
1F
100
AcDbEntity
  8
P-0000
  6
Continuous
 62
     7
100
AcDbLine
 10
340.0435109304942
 20
226.9186456660841
 30
0.0
 11
340.0435109304942
 21
221.9186456660841
 31
0.0
1001
ACME_LAYERS
1000
1
  0
LINE
  5
B21
330
1F
100
AcDbEntity
  8
P-0000
  6
Continuous
 62
     7
100
AcDbLine
 10
331.543510930492
 20
226.9186456660841
 30
0.0
 11
324.5435109304919
 21
226.9186456660841
 31
0.0
1001
ACME_LAYERS
1000
1
  0
LINE
  5
B22
330
1F
100
AcDbEntity
  8
P-0000
  6
Continuous
 62
     7
100
AcDbLine
 10
324.5435109304919
 20
226.9186456660841
 30
0.0
 11
316.5435109304935
 21
226.9186456660841
 31
0.0
1001
ACME_LAYERS
1000
1
  0
LINE
  5
B23
330
1F
100
AcDbEntity
  8
P-0000
  6
Continuous
 62
     7
100
AcDbLine
 10
192.5435109304955
 20
324.9186456660808
 30
0.0
 11
195.0435109304972
 21
324.9186456660808
 31
0.0
1001
ACME_LAYERS
1000
1
  0
LINE
  5
B24
330
1F
100
AcDbEntity
  8
P-0000
  6
Continuous
 62
     7
100
AcDbLine
 10
309.5435109304938
 20
226.9186456660841
 30
0.0
 11
301.5435109304955
 21
226.9186456660841
 31
0.0
1001
ACME_LAYERS
1000
1
  0
LINE
  5
B25
330
1F
100
AcDbEntity
  8
P-0000
  6
Continuous
 62
     7
100
AcDbLine
 10
316.5435109304935
 20
226.9186456660841
 30
0.0
 11
309.5435109304938
 21
226.9186456660841
 31
0.0
1001
ACME_LAYERS
1000
1
  0
LINE
  5
B26
330
1F
100
AcDbEntity
  8
P-0000
  6
Continuous
 62
     7
100
AcDbLine
 10
155.5435109305066
 20
332.9186456660834
 30
0.0
 11
155.5435109305066
 21
221.9186456660841
 31
0.0
1001
ACME_LAYERS
1000
1
  0
LINE
  5
B27
330
1F
100
AcDbEntity
  8
P-0000
  6
Continuous
 62
     7
100
AcDbLine
 10
155.5435109305066
 20
221.9186456660841
 30
0.0
 11
147.5435109305067
 21
221.9186456660841
 31
0.0
1001
ACME_LAYERS
1000
1
  0
LINE
  5
B28
330
1F
100
AcDbEntity
  8
P-0000
  6
Continuous
 62
     7
100
AcDbLine
 10
155.5435109305066
 20
332.9186456660834
 30
0.0
 11
147.5435109305067
 21
332.9186456660834
 31
0.0
1001
ACME_LAYERS
1000
1
  0
LINE
  5
B29
330
1F
100
AcDbEntity
  8
P-0000
  6
Continuous
 62
     7
100
AcDbLine
 10
147.5435109305067
 20
332.9186456660834
 30
0.0
 11
147.5435109305067
 21
221.9186456660841
 31
0.0
1001
ACME_LAYERS
1000
1
  0
LINE
  5
B2A
330
1F
100
AcDbEntity
  8
P-0000
  6
Continuous
 62
     7
100
AcDbLine
 10
344.5435109304806
 20
221.9186456660841
 30
0.0
 11
344.5435109304808
 21
332.9186456660834
 31
0.0
1001
ACME_LAYERS
1000
1
  0
LINE
  5
B2B
330
1F
100
AcDbEntity
  8
P-0000
  6
Continuous
 62
     7
100
AcDbLine
 10
344.5435109304806
 20
221.9186456660841
 30
0.0
 11
344.5435109304808
 21
332.9186456660834
 31
0.0
1001
ACME_LAYERS
1000
1
  0
LINE
  5
B2C
330
1F
100
AcDbEntity
  8
P-0000
  6
Continuous
 62
     7
100
AcDbLine
 10
352.5435109304806
 20
332.9186456660834
 30
0.0
 11
344.5435109304808
 21
332.9186456660834
 31
0.0
1001
ACME_LAYERS
1000
1
  0
LINE
  5
B2D
330
1F
100
AcDbEntity
  8
P-0000
  6
STRICHPUNKT
 62
     3
100
AcDbLine
 10
313.0435109304938
 20
239.9186456660833
 30
0.0
 11
313.0435109304938
 21
220.918645666084
 31
0.0
1001
ACME_LAYERS
1000
1
  0
LINE
  5
B2E
330
1F
100
AcDbEntity
  8
P-0000
  6
Continuous
 62
     7
100
AcDbLine
 10
191.5600023504276
 20
349.9186456660853
 30
0.0
 11
200.0435109304953
 21
349.9186456660853
 31
0.0
1001
ACME_LAYERS
1000
1
  0
LINE
  5
B2F
330
1F
100
AcDbEntity
  8
P-0000
  6
Continuous
 62
     7
100
AcDbLine
 10
195.0435109304972
 20
324.9186456660808
 30
0.0
 11
200.0435109304953
 21
324.9186456660808
 31
0.0
1001
ACME_LAYERS
1000
1
  0
HATCH
  5
B30
330
1F
100
AcDbEntity
  8
P-0000
  6
Continuous
 62
     3
100
AcDbHatch
 10
0.0
 20
0.0
 30
0.0
210
0.0
220
0.0
230
1.0
  2
_U
 70
     0
 71
     0
 91
        1
 92
        1
 93
        4
 72
     1
 10
309.5435109304938
 20
233.9186456660833
 11
309.5435109304938
 21
226.9186456660841
 72
     1
 10
309.5435109304938
 20
226.9186456660841
 11
301.5435109304955
 21
226.9186456660841
 72
     1
 10
301.5435109304955
 20
226.9186456660841
 11
301.5435109304955
 21
233.9186456660833
 72
     1
 10
301.5435109304955
 20
233.9186456660833
 11
309.5435109304938
 21
233.9186456660833
 97
        0
 75
     0
 76
     0
 52
44.99999999999999
 41
5.0
 77
     0
 78
     1
 53
45.0
 43
351.4393755858709
 44
-33.26504982963798
 45
-3.535533905932736
 46
3.535533905932738
 79
     0
 98
        1
 10
351.4393755858709
 20
-33.26504982963798
1001
ACME_LAYERS
1000
1
  0
HATCH
  5
B31
330
1F
100
AcDbEntity
  8
P-0000
  6
Continuous
 62
     3
100
AcDbHatch
 10
0.0
 20
0.0
 30
0.0
210
0.0
220
0.0
230
1.0
  2
_U
 70
     0
 71
     0
 91
        1
 92
        1
 93
        4
 72
     1
 10
309.5435109304938
 20
233.9186456660833
 11
309.5435109304938
 21
226.9186456660841
 72
     1
 10
309.5435109304938
 20
226.9186456660841
 11
301.5435109304955
 21
226.9186456660841
 72
     1
 10
301.5435109304955
 20
226.9186456660841
 11
301.5435109304955
 21
233.9186456660833
 72
     1
 10
301.5435109304955
 20
233.9186456660833
 11
309.5435109304938
 21
233.9186456660833
 97
        0
 75
     0
 76
     0
 52
-45.0
 41
5.0
 77
     0
 78
     1
 53
315.0
 43
351.4393755858709
 44
-33.26504982963798
 45
3.535533905932738
 46
3.535533905932736
 79
     0
 98
        1
 10
351.4393755858709
 20
-33.26504982963798
1001
ACME_LAYERS
1000
1
  0
HATCH
  5
B32
330
1F
100
AcDbEntity
  8
P-0000
  6
Continuous
 62
     3
100
AcDbHatch
 10
0.0
 20
0.0
 30
0.0
210
0.0
220
0.0
230
1.0
  2
_U
 70
     0
 71
     0
 91
        1
 92
        1
 93
       11
 72
     1
 10
316.5435109304937
 20
233.9186456660833
 11
316.5435109304937
 21
226.9186456660841
 72
     1
 10
316.5435109304935
 20
226.9186456660841
 11
340.0435109304941
 21
226.9186456660841
 72
     1
 10
340.0435109304942
 20
226.9186456660841
 11
340.0435109304942
 21
221.9186456660839
 72
     1
 10
340.0435109304942
 20
221.9186456660841
 11
344.5435109304808
 21
221.9186456660841
 72
     1
 10
344.5435109304806
 20
221.9186456660841
 11
344.5435109304806
 21
332.9186456660831
 72
     1
 10
344.5435109304808
 20
332.9186456660834
 11
352.5435109304806
 21
332.9186456660834
 72
     1
 10
352.5435109304806
 20
332.9186456660834
 11
352.5435109304879
 21
352.8579346948319
 72
     1
 10
352.5435109304879
 20
352.8579346948319
 11
352.543510930489
 21
371.9186456660839
 72
     1
 10
352.5435109304888
 20
371.9186456660839
 11
320.0435109304948
 21
371.9186456660803
 72
     1
 10
320.0435109304948
 20
371.9186456660803
 11
320.0435109304948
 21
233.9186456660833
 72
     1
 10
320.0435109304948
 20
233.9186456660833
 11
316.5435109304937
 21
233.9186456660833
 97
        0
 75
     0
 76
     0
 52
44.99999999999999
 41
5.0
 77
     0
 78
     1
 53
45.0
 43
351.4393755858709
 44
-33.26504982963798
 45
-3.535533905932736
 46
3.535533905932738
 79
     0
 98
        1
 10
351.4393755858709
 20
-33.26504982963798
1001
ACME_LAYERS
1000
1
  0
HATCH
  5
B33
330
1F
100
AcDbEntity
  8
P-0000
  6
Continuous
 62
     3
100
AcDbHatch
 10
0.0
 20
0.0
 30
0.0
210
0.0
220
0.0
230
1.0
  2
_U
 70
     0
 71
     0
 91
        1
 92
        1
 93
       11
 72
     1
 10
316.5435109304937
 20
233.9186456660833
 11
316.5435109304937
 21
226.9186456660841
 72
     1
 10
316.5435109304935
 20
226.9186456660841
 11
340.0435109304941
 21
226.9186456660841
 72
     1
 10
340.0435109304942
 20
226.9186456660841
 11
340.0435109304942
 21
221.9186456660839
 72
     1
 10
340.0435109304942
 20
221.9186456660841
 11
344.5435109304808
 21
221.9186456660841
 72
     1
 10
344.5435109304806
 20
221.9186456660841
 11
344.5435109304806
 21
332.9186456660831
 72
     1
 10
344.5435109304808
 20
332.9186456660834
 11
352.5435109304806
 21
332.9186456660834
 72
     1
 10
352.5435109304806
 20
332.9186456660834
 11
352.5435109304879
 21
352.8579346948319
 72
     1
 10
352.5435109304879
 20
352.8579346948319
 11
352.543510930489
 21
371.9186456660839
 72
     1
 10
352.5435109304888
 20
371.9186456660839
 11
320.0435109304948
 21
371.9186456660803
 72
     1
 10
320.0435109304948
 20
371.9186456660803
 11
320.0435109304948
 21
233.9186456660833
 72
     1
 10
320.0435109304948
 20
233.9186456660833
 11
316.5435109304937
 21
233.9186456660833
 97
        0
 75
     0
 76
     0
 52
-45.0
 41
5.0
 77
     0
 78
     1
 53
315.0
 43
351.4393755858709
 44
-33.26504982963798
 45
3.535533905932738
 46
3.535533905932736
 79
     0
 98
        1
 10
351.4393755858709
 20
-33.26504982963798
1001
ACME_LAYERS
1000
1
  0
HATCH
  5
B34
330
1F
100
AcDbEntity
  8
P-0000
  6
Continuous
 62
     3
100
AcDbHatch
 10
0.0
 20
0.0
 30
0.0
210
0.0
220
0.0
230
1.0
  2
_U
 70
     0
 71
     0
 91
        1
 92
        1
 93
       14
 72
     1
 10
198.5435109304955
 20
233.9186456660834
 11
198.5435109304939
 21
226.9186456660841
 72
     1
 10
198.5435109304939
 20
226.9186456660841
 11
175.0435109304934
 21
226.9186456660841
 72
     1
 10
175.0435109304931
 20
226.9186456660841
 11
175.0435109304931
 21
221.9186456660841
 72
     1
 10
175.0435109304931
 20
221.9186456660841
 11
155.5435109305066
 21
221.9186456660841
 72
     1
 10
155.5435109305066
 20
221.9186456660841
 11
155.5435109305066
 21
332.9186456660834
 72
     1
 10
155.5435109305066
 20
332.9186456660834
 11
147.5435109305067
 21
332.9186456660834
 72
     1
 10
147.5435109305067
 20
332.9186456660834
 11
147.5435109305067
 21
371.9186456660805
 72
     1
 10
147.5435109305067
 20
371.9186456660805
 11
180.0435109304964
 21
371.9186456660805
 72
     1
 10
180.0435109304965
 20
371.9186456660805
 11
180.0435109304945
 21
349.9186456660843
 72
     1
 10
180.0435109304945
 20
349.9186456660841
 11
184.0435109304945
 21
349.9186456660845
 72
     1
 10
184.0435109304945
 20
349.9186456660846
 11
184.0435109304945
 21
324.9186456660806
 72
     1
 10
184.0435109304945
 20
324.9186456660806
 11
192.5435109304955
 21
324.9186456660808
 72
     1
 10
192.5435109304955
 20
324.9186456660808
 11
192.5435109304955
 21
233.9186456660836
 72
     1
 10
192.5435109304955
 20
233.9186456660834
 11
198.5435109304955
 21
233.9186456660834
 97
        0
 75
     0
 76
     0
 52
44.99999999999999
 41
5.0
 77
     0
 78
     1
 53
45.0
 43
351.4393755858709
 44
-33.26504982963798
 45
-3.535533905932736
 46
3.535533905932738
 79
     0
 98
        1
 10
351.4393755858709
 20
-33.26504982963798
1001
ACME_LAYERS
1000
1
  0
HATCH
  5
B35
330
1F
100
AcDbEntity
  8
P-0000
  6
Continuous
 62
     3
100
AcDbHatch
 10
0.0
 20
0.0
 30
0.0
210
0.0
220
0.0
230
1.0
  2
_U
 70
     0
 71
     0
 91
        1
 92
        1
 93
       14
 72
     1
 10
198.5435109304955
 20
233.9186456660834
 11
198.5435109304939
 21
226.9186456660841
 72
     1
 10
198.5435109304939
 20
226.9186456660841
 11
175.0435109304934
 21
226.9186456660841
 72
     1
 10
175.0435109304931
 20
226.9186456660841
 11
175.0435109304931
 21
221.9186456660841
 72
     1
 10
175.0435109304931
 20
221.9186456660841
 11
155.5435109305066
 21
221.9186456660841
 72
     1
 10
155.5435109305066
 20
221.9186456660841
 11
155.5435109305066
 21
332.9186456660834
 72
     1
 10
155.5435109305066
 20
332.9186456660834
 11
147.5435109305067
 21
332.9186456660834
 72
     1
 10
147.5435109305067
 20
332.9186456660834
 11
147.5435109305067
 21
371.9186456660805
 72
     1
 10
147.5435109305067
 20
371.9186456660805
 11
180.0435109304964
 21
371.9186456660805
 72
     1
 10
180.0435109304965
 20
371.9186456660805
 11
180.0435109304945
 21
349.9186456660843
 72
     1
 10
180.0435109304945
 20
349.9186456660841
 11
184.0435109304945
 21
349.9186456660845
 72
     1
 10
184.0435109304945
 20
349.9186456660846
 11
184.0435109304945
 21
324.9186456660806
 72
     1
 10
184.0435109304945
 20
324.9186456660806
 11
192.5435109304955
 21
324.9186456660808
 72
     1
 10
192.5435109304955
 20
324.9186456660808
 11
192.5435109304955
 21
233.9186456660836
 72
     1
 10
192.5435109304955
 20
233.9186456660834
 11
198.5435109304955
 21
233.9186456660834
 97
        0
 75
     0
 76
     0
 52
-45.0
 41
5.0
 77
     0
 78
     1
 53
315.0
 43
351.4393755858709
 44
-33.26504982963798
 45
3.535533905932738
 46
3.535533905932736
 79
     0
 98
        1
 10
351.4393755858709
 20
-33.26504982963798
1001
ACME_LAYERS
1000
1
  0
HATCH
  5
B36
330
1F
100
AcDbEntity
  8
P-0000
  6
Continuous
 62
     3
100
AcDbHatch
 10
0.0
 20
0.0
 30
0.0
210
0.0
220
0.0
230
1.0
  2
_U
 70
     0
 71
     0
 91
        1
 92
        1
 93
        4
 72
     1
 10
309.5435109304938
 20
233.9186456660833
 11
316.5435109304937
 21
233.9186456660833
 72
     1
 10
316.5435109304937
 20
233.9186456660833
 11
316.5435109304937
 21
226.9186456660841
 72
     1
 10
316.5435109304935
 20
226.9186456660841
 11
309.5435109304937
 21
226.9186456660841
 72
     1
 10
309.5435109304938
 20
226.9186456660841
 11
309.5435109304938
 21
233.9186456660833
 97
        0
 75
     0
 76
     0
 52
44.99999999999999
 41
5.0
 77
     0
 78
     1
 53
45.0
 43
351.4393755858709
 44
-33.26504982963798
 45
-3.535533905932736
 46
3.535533905932738
 79
     0
 98
        1
 10
351.4393755858709
 20
-33.26504982963798
1001
ACME_LAYERS
1000
1
  0
HATCH
  5
B37
330
1F
100
AcDbEntity
  8
P-0000
  6
Continuous
 62
     3
100
AcDbHatch
 10
0.0
 20
0.0
 30
0.0
210
0.0
220
0.0
230
1.0
  2
_U
 70
     0
 71
     0
 91
        1
 92
        1
 93
        4
 72
     1
 10
309.5435109304938
 20
233.9186456660833
 11
316.5435109304937
 21
233.9186456660833
 72
     1
 10
316.5435109304937
 20
233.9186456660833
 11
316.5435109304937
 21
226.9186456660841
 72
     1
 10
316.5435109304935
 20
226.9186456660841
 11
309.5435109304937
 21
226.9186456660841
 72
     1
 10
309.5435109304938
 20
226.9186456660841
 11
309.5435109304938
 21
233.9186456660833
 97
        0
 75
     0
 76
     0
 52
-45.0
 41
5.0
 77
     0
 78
     1
 53
315.0
 43
351.4393755858709
 44
-33.26504982963798
 45
3.535533905932738
 46
3.535533905932736
 79
     0
 98
        1
 10
351.4393755858709
 20
-33.26504982963798
1001
ACME_LAYERS
1000
1
  0
LINE
  5
B38
330
1F
100
AcDbEntity
  8
P-0000
  6
Continuous
 62
     7
100
AcDbLine
 10
352.543510930494
 20
211.9186456660841
 30
0.0
 11
344.543510930494
 21
211.9186456660841
 31
0.0
1001
ACME_LAYERS
1000
1
  0
LINE
  5
B39
330
1F
100
AcDbEntity
  8
P-0000
  6
Continuous
 62
     7
100
AcDbLine
 10
344.543510930494
 20
121.9186456660839
 30
0.0
 11
344.543510930494
 21
211.9186456660841
 31
0.0
1001
ACME_LAYERS
1000
1
  0
LINE
  5
B3A
330
1F
100
AcDbEntity
  8
P-0000
  6
Continuous
 62
     7
100
AcDbLine
 10
147.5435109305195
 20
211.9186456660841
 30
0.0
 11
147.5435109305195
 21
121.918645666084
 31
0.0
1001
ACME_LAYERS
1000
1
  0
LINE
  5
B3B
330
1F
100
AcDbEntity
  8
P-0000
  6
Continuous
 62
     7
100
AcDbLine
 10
155.5435109305195
 20
211.9186456660841
 30
0.0
 11
147.5435109305195
 21
211.9186456660841
 31
0.0
1001
ACME_LAYERS
1000
1
  0
LINE
  5
B3C
330
1F
100
AcDbEntity
  8
P-0000
  6
Continuous
 62
     7
100
AcDbLine
 10
155.5435109305195
 20
121.918645666084
 30
0.0
 11
147.5435109305195
 21
121.918645666084
 31
0.0
1001
ACME_LAYERS
1000
1
  0
LINE
  5
B3D
330
1F
100
AcDbEntity
  8
P-0000
  6
Continuous
 62
     7
100
AcDbLine
 10
155.5435109305195
 20
211.9186456660841
 30
0.0
 11
155.5435109305195
 21
121.918645666084
 31
0.0
1001
ACME_LAYERS
1000
1
  0
LINE
  5
B3E
330
1F
100
AcDbEntity
  8
P-0000
  6
Continuous
 62
     7
100
AcDbLine
 10
316.5435109305068
 20
121.918645666084
 30
0.0
 11
344.543510930494
 21
121.9186456660839
 31
0.0
1001
ACME_LAYERS
1000
1
  0
LINE
  5
B3F
330
1F
100
AcDbEntity
  8
P-0000
  6
Continuous
 62
     7
100
AcDbLine
 10
309.5435109305067
 20
121.918645666084
 30
0.0
 11
316.5435109305068
 21
121.918645666084
 31
0.0
1001
ACME_LAYERS
1000
1
  0
LINE
  5
B40
330
1F
100
AcDbEntity
  8
P-0000
  6
STRICHLINIE
 62
     2
100
AcDbLine
 10
309.5435109305067
 20
226.9186456660841
 30
0.0
 11
309.5435109305067
 21
121.918645666084
 31
0.0
1001
ACME_LAYERS
1000
1
  0
LINE
  5
B41
330
1F
100
AcDbEntity
  8
P-0000
  6
STRICHLINIE
 62
     2
100
AcDbLine
 10
316.5435109305068
 20
226.9186456660841
 30
0.0
 11
316.5435109305068
 21
121.918645666084
 31
0.0
1001
ACME_LAYERS
1000
1
  0
LINE
  5
B42
330
1F
100
AcDbEntity
  8
P-0000
  6
Continuous
 62
     7
100
AcDbLine
 10
147.5435109305195
 20
221.9186456660841
 30
0.0
 11
147.5435109305195
 21
211.9186456660841
 31
0.0
1001
ACME_LAYERS
1000
1
  0
LINE
  5
B43
330
1F
100
AcDbEntity
  8
P-0000
  6
Continuous
 62
     7
100
AcDbLine
 10
352.543510930494
 20
221.9186456660841
 30
0.0
 11
352.543510930494
 21
211.9186456660841
 31
0.0
1001
ACME_LAYERS
1000
1
  0
LINE
  5
B44
330
1F
100
AcDbEntity
  8
P-0000
  6
Continuous
 62
     7
100
AcDbLine
 10
301.5435109305087
 20
121.918645666084
 30
0.0
 11
309.5435109305067
 21
121.918645666084
 31
0.0
1001
ACME_LAYERS
1000
1
  0
LINE
  5
B45
330
1F
100
AcDbEntity
  8
P-0000
  6
Continuous
 62
     7
100
AcDbLine
 10
198.5435109305085
 20
121.918645666084
 30
0.0
 11
155.5435109305195
 21
121.918645666084
 31
0.0
1001
ACME_LAYERS
1000
1
  0
LINE
  5
B46
330
1F
100
AcDbEntity
  8
P-0000
  6
STRICHPUNKT
 62
     3
100
AcDbLine
 10
313.0435109305068
 20
233.9186456660841
 30
0.0
 11
313.0435109305068
 21
121.918645666084
 31
0.0
1001
ACME_LAYERS
1000
1
  0
LINE
  5
B47
330
1F
100
AcDbEntity
  8
P-0000
  6
Continuous
 62
     7
100
AcDbLine
 10
340.0435109305087
 20
226.9186456660841
 30
0.0
 11
316.5435109305068
 21
226.9186456660841
 31
0.0
1001
ACME_LAYERS
1000
1
  0
LINE
  5
B48
330
1F
100
AcDbEntity
  8
P-0000
  6
Continuous
 62
     7
100
AcDbLine
 10
160.0435109305086
 20
221.9186456660841
 30
0.0
 11
147.5435109305195
 21
221.9186456660841
 31
0.0
1001
ACME_LAYERS
1000
1
  0
LINE
  5
B49
330
1F
100
AcDbEntity
  8
P-0000
  6
Continuous
 62
     7
100
AcDbLine
 10
340.0435109305087
 20
221.9186456660841
 30
0.0
 11
352.543510930494
 21
221.9186456660841
 31
0.0
1001
ACME_LAYERS
1000
1
  0
LINE
  5
B4A
330
1F
100
AcDbEntity
  8
P-0000
  6
Continuous
 62
     7
100
AcDbLine
 10
340.0435109305087
 20
226.9186456660841
 30
0.0
 11
340.0435109305087
 21
221.9186456660841
 31
0.0
1001
ACME_LAYERS
1000
1
  0
LINE
  5
B4B
330
1F
100
AcDbEntity
  8
P-0000
  6
Continuous
 62
     7
100
AcDbLine
 10
160.0435109305086
 20
226.9186456660841
 30
0.0
 11
160.0435109305086
 21
221.9186456660841
 31
0.0
1001
ACME_LAYERS
1000
1
  0
LINE
  5
B4C
330
1F
100
AcDbEntity
  8
P-0000
  6
Continuous
 62
     7
100
AcDbLine
 10
198.5435109305067
 20
226.9186456660841
 30
0.0
 11
160.0435109305086
 21
226.9186456660841
 31
0.0
1001
ACME_LAYERS
1000
1
  0
LINE
  5
B4D
330
1F
100
AcDbEntity
  8
P-0000
  6
Continuous
 62
     7
100
AcDbLine
 10
309.5435109305067
 20
226.9186456660841
 30
0.0
 11
301.5435109305087
 21
226.9186456660841
 31
0.0
1001
ACME_LAYERS
1000
1
  0
LINE
  5
B4E
330
1F
100
AcDbEntity
  8
P-0000
  6
Continuous
 62
     7
100
AcDbLine
 10
316.5435109305068
 20
226.9186456660841
 30
0.0
 11
309.5435109305067
 21
226.9186456660841
 31
0.0
1001
ACME_LAYERS
1000
1
  0
LINE
  5
B4F
330
1F
100
AcDbEntity
  8
P-0000
  6
Continuous
 62
     7
100
AcDbLine
 10
344.543510930494
 20
121.9186456660839
 30
0.0
 11
352.5435109304887
 21
121.9186456660839
 31
0.0
1001
ACME_LAYERS
1000
1
  0
LINE
  5
B50
330
1F
100
AcDbEntity
  8
P-0000
  6
Continuous
 62
     7
100
AcDbLine
 10
352.543510930494
 20
211.9186456660841
 30
0.0
 11
352.5435109304887
 21
121.9186456660839
 31
0.0
1001
ACME_LAYERS
1000
1
  0
HATCH
  5
B51
330
1F
100
AcDbEntity
  8
P-0000
  6
Continuous
 62
     3
100
AcDbHatch
 10
0.0
 20
0.0
 30
0.0
210
0.0
220
0.0
230
1.0
  2
_U
 70
     0
 71
     0
 91
        1
 92
        1
 93
        8
 72
     1
 10
344.543510930494
 20
121.9186456660839
 11
344.543510930494
 21
211.9186456660841
 72
     1
 10
344.543510930494
 20
211.9186456660841
 11
352.543510930494
 21
211.9186456660841
 72
     1
 10
352.543510930494
 20
211.9186456660841
 11
352.543510930494
 21
221.9186456660841
 72
     1
 10
352.543510930494
 20
221.9186456660841
 11
340.0435109305086
 21
221.9186456660841
 72
     1
 10
340.0435109305087
 20
221.9186456660841
 11
340.0435109305087
 21
226.9186456660841
 72
     1
 10
340.0435109305087
 20
226.9186456660841
 11
316.5435109305068
 21
226.9186456660841
 72
     1
 10
316.5435109305068
 20
226.9186456660841
 11
316.5435109305068
 21
121.918645666084
 72
     1
 10
316.5435109305068
 20
121.918645666084
 11
344.543510930494
 21
121.918645666084
 97
        0
 75
     0
 76
     0
 52
44.99999999999999
 41
5.0
 77
     0
 78
     1
 53
45.0
 43
351.4393755858853
 44
407.9316174438431
 45
-3.535533905932736
 46
3.535533905932738
 79
     0
 98
        1
 10
351.4393755858853
 20
407.9316174438431
1001
ACME_LAYERS
1000
1
  0
HATCH
  5
B52
330
1F
100
AcDbEntity
  8
P-0000
  6
Continuous
 62
     3
100
AcDbHatch
 10
0.0
 20
0.0
 30
0.0
210
0.0
220
0.0
230
1.0
  2
_U
 70
     0
 71
     0
 91
        1
 92
        1
 93
        8
 72
     1
 10
344.543510930494
 20
121.9186456660839
 11
344.543510930494
 21
211.9186456660841
 72
     1
 10
344.543510930494
 20
211.9186456660841
 11
352.543510930494
 21
211.9186456660841
 72
     1
 10
352.543510930494
 20
211.9186456660841
 11
352.543510930494
 21
221.9186456660841
 72
     1
 10
352.543510930494
 20
221.9186456660841
 11
340.0435109305086
 21
221.9186456660841
 72
     1
 10
340.0435109305087
 20
221.9186456660841
 11
340.0435109305087
 21
226.9186456660841
 72
     1
 10
340.0435109305087
 20
226.9186456660841
 11
316.5435109305068
 21
226.9186456660841
 72
     1
 10
316.5435109305068
 20
226.9186456660841
 11
316.5435109305068
 21
121.918645666084
 72
     1
 10
316.5435109305068
 20
121.918645666084
 11
344.543510930494
 21
121.918645666084
 97
        0
 75
     0
 76
     0
 52
-45.0
 41
5.0
 77
     0
 78
     1
 53
315.0
 43
351.4393755858853
 44
407.9316174438431
 45
3.535533905932738
 46
3.535533905932736
 79
     0
 98
        1
 10
351.4393755858853
 20
407.9316174438431
1001
ACME_LAYERS
1000
1
  0
HATCH
  5
B53
330
1F
100
AcDbEntity
  8
P-0000
  6
Continuous
 62
     3
100
AcDbHatch
 10
0.0
 20
0.0
 30
0.0
210
0.0
220
0.0
230
1.0
  2
_U
 70
     0
 71
     0
 91
        1
 92
        1
 93
        8
 72
     1
 10
198.5435109305067
 20
226.9186456660841
 11
198.5435109305085
 21
121.918645666084
 72
     1
 10
198.5435109305085
 20
121.918645666084
 11
155.5435109305195
 21
121.918645666084
 72
     1
 10
155.5435109305195
 20
121.918645666084
 11
155.5435109305195
 21
211.9186456660841
 72
     1
 10
155.5435109305195
 20
211.9186456660841
 11
147.5435109305195
 21
211.9186456660841
 72
     1
 10
147.5435109305195
 20
211.9186456660841
 11
147.5435109305195
 21
221.9186456660841
 72
     1
 10
147.5435109305195
 20
221.9186456660841
 11
160.0435109305086
 21
221.9186456660841
 72
     1
 10
160.0435109305086
 20
221.9186456660841
 11
160.0435109305086
 21
226.9186456660841
 72
     1
 10
160.0435109305086
 20
226.9186456660841
 11
198.5435109305067
 21
226.9186456660841
 97
        0
 75
     0
 76
     0
 52
44.99999999999999
 41
5.0
 77
     0
 78
     1
 53
45.0
 43
351.4393755858853
 44
407.9316174438431
 45
-3.535533905932736
 46
3.535533905932738
 79
     0
 98
        1
 10
351.4393755858853
 20
407.9316174438431
1001
ACME_LAYERS
1000
1
  0
HATCH
  5
B54
330
1F
100
AcDbEntity
  8
P-0000
  6
Continuous
 62
     3
100
AcDbHatch
 10
0.0
 20
0.0
 30
0.0
210
0.0
220
0.0
230
1.0
  2
_U
 70
     0
 71
     0
 91
        1
 92
        1
 93
        8
 72
     1
 10
198.5435109305067
 20
226.9186456660841
 11
198.5435109305085
 21
121.918645666084
 72
     1
 10
198.5435109305085
 20
121.918645666084
 11
155.5435109305195
 21
121.918645666084
 72
     1
 10
155.5435109305195
 20
121.918645666084
 11
155.5435109305195
 21
211.9186456660841
 72
     1
 10
155.5435109305195
 20
211.9186456660841
 11
147.5435109305195
 21
211.9186456660841
 72
     1
 10
147.5435109305195
 20
211.9186456660841
 11
147.5435109305195
 21
221.9186456660841
 72
     1
 10
147.5435109305195
 20
221.9186456660841
 11
160.0435109305086
 21
221.9186456660841
 72
     1
 10
160.0435109305086
 20
221.9186456660841
 11
160.0435109305086
 21
226.9186456660841
 72
     1
 10
160.0435109305086
 20
226.9186456660841
 11
198.5435109305067
 21
226.9186456660841
 97
        0
 75
     0
 76
     0
 52
-45.0
 41
5.0
 77
     0
 78
     1
 53
315.0
 43
351.4393755858853
 44
407.9316174438431
 45
3.535533905932738
 46
3.535533905932736
 79
     0
 98
        1
 10
351.4393755858853
 20
407.9316174438431
1001
ACME_LAYERS
1000
1
  0
HATCH
  5
B55
330
1F
100
AcDbEntity
  8
P-0000
  6
Continuous
 62
     3
100
AcDbHatch
 10
0.0
 20
0.0
 30
0.0
210
0.0
220
0.0
230
1.0
  2
_U
 70
     0
 71
     0
 91
        1
 92
        1
 93
        4
 72
     1
 10
309.5435109305067
 20
121.918645666084
 11
316.5435109305068
 21
121.918645666084
 72
     1
 10
316.5435109305068
 20
121.918645666084
 11
316.5435109305068
 21
226.9186456660841
 72
     1
 10
316.5435109305068
 20
226.9186456660841
 11
309.5435109305067
 21
226.9186456660841
 72
     1
 10
309.5435109305067
 20
226.9186456660841
 11
309.5435109305067
 21
121.918645666084
 97
        0
 75
     0
 76
     0
 52
44.99999999999999
 41
5.0
 77
     0
 78
     1
 53
45.0
 43
351.4393755858853
 44
407.9316174438431
 45
-3.535533905932736
 46
3.535533905932738
 79
     0
 98
        1
 10
351.4393755858853
 20
407.9316174438431
1001
ACME_LAYERS
1000
1
  0
HATCH
  5
B56
330
1F
100
AcDbEntity
  8
P-0000
  6
Continuous
 62
     3
100
AcDbHatch
 10
0.0
 20
0.0
 30
0.0
210
0.0
220
0.0
230
1.0
  2
_U
 70
     0
 71
     0
 91
        1
 92
        1
 93
        4
 72
     1
 10
309.5435109305067
 20
121.918645666084
 11
316.5435109305068
 21
121.918645666084
 72
     1
 10
316.5435109305068
 20
121.918645666084
 11
316.5435109305068
 21
226.9186456660841
 72
     1
 10
316.5435109305068
 20
226.9186456660841
 11
309.5435109305067
 21
226.9186456660841
 72
     1
 10
309.5435109305067
 20
226.9186456660841
 11
309.5435109305067
 21
121.918645666084
 97
        0
 75
     0
 76
     0
 52
-45.0
 41
5.0
 77
     0
 78
     1
 53
315.0
 43
351.4393755858853
 44
407.9316174438431
 45
3.535533905932738
 46
3.535533905932736
 79
     0
 98
        1
 10
351.4393755858853
 20
407.9316174438431
1001
ACME_LAYERS
1000
1
  0
HATCH
  5
B57
330
1F
100
AcDbEntity
  8
P-0000
  6
Continuous
 62
     3
100
AcDbHatch
 10
0.0
 20
0.0
 30
0.0
210
0.0
220
0.0
230
1.0
  2
_U
 70
     0
 71
     0
 91
        1
 92
        1
 93
        4
 72
     1
 10
309.5435109305067
 20
226.9186456660841
 11
309.5435109305067
 21
121.918645666084
 72
     1
 10
309.5435109305067
 20
121.918645666084
 11
301.5435109305086
 21
121.918645666084
 72
     1
 10
301.5435109305087
 20
121.918645666084
 11
301.5435109305087
 21
226.9186456660841
 72
     1
 10
301.5435109305087
 20
226.9186456660841
 11
309.5435109305068
 21
226.9186456660841
 97
        0
 75
     0
 76
     0
 52
44.99999999999999
 41
5.0
 77
     0
 78
     1
 53
45.0
 43
351.4393755858853
 44
407.9316174438431
 45
-3.535533905932736
 46
3.535533905932738
 79
     0
 98
        1
 10
351.4393755858853
 20
407.9316174438431
1001
ACME_LAYERS
1000
1
  0
HATCH
  5
B58
330
1F
100
AcDbEntity
  8
P-0000
  6
Continuous
 62
     3
100
AcDbHatch
 10
0.0
 20
0.0
 30
0.0
210
0.0
220
0.0
230
1.0
  2
_U
 70
     0
 71
     0
 91
        1
 92
        1
 93
        4
 72
     1
 10
309.5435109305067
 20
226.9186456660841
 11
309.5435109305067
 21
121.918645666084
 72
     1
 10
309.5435109305067
 20
121.918645666084
 11
301.5435109305086
 21
121.918645666084
 72
     1
 10
301.5435109305087
 20
121.918645666084
 11
301.5435109305087
 21
226.9186456660841
 72
     1
 10
301.5435109305087
 20
226.9186456660841
 11
309.5435109305068
 21
226.9186456660841
 97
        0
 75
     0
 76
     0
 52
-45.0
 41
5.0
 77
     0
 78
     1
 53
315.0
 43
351.4393755858853
 44
407.9316174438431
 45
3.535533905932738
 46
3.535533905932736
 79
     0
 98
        1
 10
351.4393755858853
 20
407.9316174438431
1001
ACME_LAYERS
1000
1
  0
LINE
  5
C36
330
1F
100
AcDbEntity
  8
P-0000
  6
Continuous
 62
     7
100
AcDbLine
 10
309.4749130434152
 20
365.7195769324965
 30
0.0
 11
309.2716628862081
 21
358.7172388383744
 31
0.0
1001
ACME_LAYERS
1000
1
  0
LINE
  5
C37
330
1F
100
AcDbEntity
  8
P-0000
  6
Continuous
 62
     7
100
AcDbLine
 10
308.6241761939382
 20
336.4101430259696
 30
0.0
 11
308.4203782857453
 21
329.3889339127375
 31
0.0
1001
ACME_LAYERS
1000
1
  0
LINE
  5
C38
330
1F
100
AcDbEntity
  8
P-0000
  6
STRICHLINIE
 62
     2
100
AcDbLine
 10
305.3126936393123
 20
354.8334876523215
 30
0.0
 11
194.2689281021271
 21
354.9059202633196
 31
0.0
  0
LINE
  5
C39
330
1F
100
AcDbEntity
  8
P-0000
  6
STRICHLINIE
 62
     2
100
AcDbLine
 10
305.4372502067063
 20
369.8354386945136
 30
0.0
 11
194.4092768371465
 21
369.9079954783176
 31
0.0
  0
LINE
  5
C3A
330
1F
100
AcDbEntity
  8
P-0000
  6
STRICHLINIE
 62
     2
100
AcDbLine
 10
193.4185859918779
 20
325.9072654249405
 30
0.0
 11
304.4554977711314
 21
325.5147135192167
 31
0.0
  0
LINE
  5
C3B
330
1F
100
AcDbEntity
  8
P-0000
  6
STRICHLINIE
 62
     2
100
AcDbLine
 10
193.583324709366
 20
340.9084956103896
 30
0.0
 11
304.6123035341402
 21
340.5158969894085
 31
0.0
  0
ARC
  5
C3C
330
1F
100
AcDbEntity
  8
0
100
AcDbCircle
 10
304.4320016985393
 20
329.5047006976963
 30
0.0
 40
3.990056359233776
100
AcDbArc
 50
270.3373971327485
 51
358.3373971327556
  0
ARC
  5
C3D
330
1F
100
AcDbEntity
  8
0
100
AcDbCircle
 10
304.6357996067332
 20
336.5259098109284
 30
0.0
 40
3.990056359233776
100
AcDbArc
 50
358.3373971327556
 51
90.33739713274853
  0
ARC
  5
C3E
330
1F
100
AcDbEntity
  8
0
100
AcDbCircle
 10
305.4765970016133
 20
365.8356322204784
 30
0.0
 40
4.000000000000071
100
AcDbArc
 50
358.3373971327556
 51
90.56361041085166
  0
ARC
  5
C3F
330
1F
100
AcDbEntity
  8
0
100
AcDbCircle
 10
305.2733468444062
 20
358.8332941263554
 30
0.0
 40
4.000000000000076
100
AcDbArc
 50
270.5636104108517
 51
358.3373971327556
  0
ARC
  5
C40
330
1F
100
AcDbEntity
  8
0
100
AcDbCircle
 10
194.4486236320549
 20
365.9081890042823
 30
0.0
 40
4.000000000000109
100
AcDbArc
 50
90.56361041085166
 51
178.3373971327555
  0
ARC
  5
C41
330
1F
100
AcDbEntity
  8
0
100
AcDbCircle
 10
194.245373474846
 20
358.9058509101594
 30
0.0
 40
3.999999999999976
100
AcDbArc
 50
178.3373971327555
 51
270.5636104108517
  0
ARC
  5
C42
330
1F
100
AcDbEntity
  8
0
100
AcDbCircle
 10
193.6068793366471
 20
336.9085649635492
 30
0.0
 40
3.999999999999893
100
AcDbArc
 50
90.33739713274853
 51
178.3373971327555
  0
ARC
  5
C43
330
1F
100
AcDbEntity
  8
0
100
AcDbCircle
 10
193.3950804262294
 20
329.8988646675746
 30
0.0
 40
3.991668451338988
100
AcDbArc
 50
178.3373971327555
 51
270.3373971327485
  0
LINE
  5
C44
330
1F
100
AcDbEntity
  8
P-0000
  6
Continuous
 62
     7
100
AcDbLine
 10
316.5435109304937
 20
233.9186456660833
 30
0.0
 11
316.3295668594015
 21
65.50338957516647
 31
0.0
1001
ACME_LAYERS
1000
1
  0
LINE
  5
C45
330
1F
100
AcDbEntity
  8
P-0000
  6
Continuous
 62
     7
100
AcDbLine
 10
312.3295945126306
 20
65.5182632117976
 30
0.0
 11
312.2793716243304
 21
52.01180414173245
 31
0.0
1001
ACME_LAYERS
1000
1
  0
LINE
  5
C46
330
1F
100
AcDbEntity
  8
P-0000
  6
Continuous
 62
     7
100
AcDbLine
 10
305.3296429057805
 20
65.54429207589942
 30
0.0
 11
305.2785110695177
 21
51.79338930932044
 31
0.0
1001
ACME_LAYERS
1000
1
  0
LINE
  5
C47
330
1F
100
AcDbEntity
  8
0
100
AcDbLine
 10
316.3295668594015
 20
65.50338957516647
 30
0.0
 11
301.3296705590096
 21
65.55916571253238
 31
0.0
  0
LINE
  5
C4F
330
1F
100
AcDbEntity
  8
0
100
AcDbLine
 10
190.4503075902528
 20
366.0242442922643
 30
0.0
 11
190.247057433044
 21
359.0219061981422
 31
0.0
  0
LINE
  5
C50
330
1F
100
AcDbEntity
  8
0
100
AcDbLine
 10
189.6085632948451
 20
337.0246202515311
 30
0.0
 11
189.4034119748904
 21
329.8988646675746
 31
0.0
  0
ENDSEC
  0
SECTION
  2
OBJECTS
  0
DICTIONARY
  5
C
330
0
100
AcDbDictionary
281
     1
  3
ACAD_2007HEADERVARS_RT
350
C5E
  3
ACAD_COLOR
350
BE
  3
ACAD_GROUP
350
D
  3
ACAD_LAYOUT
350
1A
  3
ACAD_MATERIAL
350
BD
  3
ACAD_MLEADERSTYLE
350
3EF
  3
ACAD_MLINESTYLE
350
17
  3
ACAD_PLOTSETTINGS
350
19
  3
ACAD_PLOTSTYLENAME
350
E
  3
ACAD_SCALELIST
350
3DD
  3
ACAD_TABLESTYLE
350
11A
  3
ACAD_VISUALSTYLE
350
3CC
  3
ACDB_RECOMPOSE_DATA
350
B64
  3
AcDbVariableDictionary
350
94
  3
AcmDictionary
350
5B
  3
AcmSystemVariableManager
350
C6A
  3
AEC_PROPERTY_SET_DEFS
350
C33
  3
AMG
350
41
  3
AMGSNAPSETTINGS
350
26B
  3
DWGPROPS
350
C5D
  0
DICTIONARY
  5
446
330
2
100
AcDbDictionary
280
     1
281
     1
  3
ACAD_LAYERSTATES
360
447
  0
DICTIONARY
  5
B59
330
10
100
AcDbDictionary
280
     1
281
     1
  3
ADSK_XREC_LAYER_RECONCILED
360
B5A
  0
DICTIONARY
  5
435
330
434
100
AcDbDictionary
280
     1
281
     1
  3
ADSK_XREC_LAYER_RECONCILED
360
B5B
  0
DICTIONARY
  5
438
330
437
100
AcDbDictionary
280
     1
281
     1
  3
ADSK_XREC_LAYER_RECONCILED
360
B5C
  0
DICTIONARY
  5
43A
330
439
100
AcDbDictionary
280
     1
281
     1
  3
ADSK_XREC_LAYER_RECONCILED
360
B5D
  0
DICTIONARY
  5
43C
330
43B
100
AcDbDictionary
280
     1
281
     1
  3
ADSK_XREC_LAYER_RECONCILED
360
B5E
  0
DICTIONARY
  5
8F
330
1F
100
AcDbDictionary
280
     1
281
     1
  0
DICTIONARY
  5
8FB
330
8FA
100
AcDbDictionary
280
     1
281
     1
  3
ACAD_DIMASSOC
360
8FC
  0
DICTIONARY
  5
AA3
330
AA2
100
AcDbDictionary
280
     1
281
     1
  3
ACAD_DIMASSOC
360
AA4
  0
DICTIONARY
  5
C5E
102
{ACAD_REACTORS
330
C
102
}
330
C
100
AcDbDictionary
281
     1
  3
DIMJOGANG
350
C5F
  3
DIMLTEX1
350
C61
  3
DIMLTEX2
350
C62
  3
DIMLTYPE
350
C60
  0
DICTIONARY
  5
BE
102
{ACAD_REACTORS
330
C
102
}
330
C
100
AcDbDictionary
281
     1
  0
DICTIONARY
  5
D
102
{ACAD_REACTORS
330
C
102
}
330
C
100
AcDbDictionary
281
     1
  0
DICTIONARY
  5
1A
102
{ACAD_REACTORS
330
C
102
}
330
C
100
AcDbDictionary
281
     1
  3
Layout1
350
1E
  3
Layout2
350
26
  3
Model
350
22
  0
DICTIONARY
  5
BD
102
{ACAD_REACTORS
330
C
102
}
330
C
100
AcDbDictionary
281
     1
  3
ByBlock
350
3BC
  3
ByLayer
350
3B4
  3
Global
350
3C4
  0
DICTIONARY
  5
3EF
102
{ACAD_REACTORS
330
C
102
}
330
C
100
AcDbDictionary
281
     1
  3
Standard
350
3F0
  0
DICTIONARY
  5
17
102
{ACAD_REACTORS
330
C
102
}
330
C
100
AcDbDictionary
281
     1
  3
Standard
350
18
  0
DICTIONARY
  5
19
102
{ACAD_REACTORS
330
C
102
}
330
C
100
AcDbDictionary
281
     1
  0
ACDBDICTIONARYWDFLT
  5
E
102
{ACAD_REACTORS
330
C
102
}
330
C
100
AcDbDictionary
281
     1
  3
Normal
350
F
100
AcDbDictionaryWithDefault
340
F
  0
DICTIONARY
  5
3DD
102
{ACAD_REACTORS
330
C
102
}
330
C
100
AcDbDictionary
281
     1
  3
A0
350
3DE
  3
A1
350
3DF
  3
A2
350
3E0
  3
A3
350
3E1
  3
A4
350
3E2
  3
A5
350
3E3
  3
A6
350
3E4
  3
A7
350
3E5
  3
A8
350
3E6
  3
A9
350
3E7
  3
B0
350
3E8
  3
B1
350
3E9
  3
B2
350
3EA
  3
B3
350
3EB
  3
B4
350
3EC
  3
B5
350
3ED
  3
B6
350
3EE
  0
DICTIONARY
  5
11A
102
{ACAD_REACTORS
330
C
102
}
330
C
100
AcDbDictionary
281
     1
  3
Standard
350
11B
  0
DICTIONARY
  5
3CC
102
{ACAD_REACTORS
330
C
102
}
330
C
100
AcDbDictionary
281
     1
  3
2dWireframe
350
3D2
  3
3D Hidden
350
3D4
  3
3dWireframe
350
3D3
  3
Basic
350
3D1
  3
Brighten
350
3D8
  3
ColorChange
350
3DC
  3
Conceptual
350
3D5
  3
Dim
350
3D7
  3
Facepattern
350
3DB
  3
Flat
350
3CD
  3
FlatWithEdges
350
3CE
  3
Gouraud
350
3CF
  3
GouraudWithEdges
350
3D0
  3
Linepattern
350
3DA
  3
Realistic
350
3D6
  3
Thicken
350
3D9
  0
XRECORD
  5
B64
102
{ACAD_REACTORS
330
C
102
}
330
C
100
AcDbXrecord
280
     1
 90
        1
330
11B
  0
DICTIONARY
  5
94
102
{ACAD_REACTORS
330
C
102
}
330
C
100
AcDbDictionary
281
     1
  3
CANNOSCALE
350
B60
  3
CMLEADERSTYLE
350
B5F
  3
CTABLESTYLE
350
138
  3
DIMASSOC
350
96
  3
INDEXCTL
350
95
  3
SORTENTS
350
B61
  0
DICTIONARY
  5
5B
102
{ACAD_REACTORS
330
C
102
}
330
C
100
AcDbDictionary
281
     1
  3
AcmBOM
350
272
  3
AcmStdDictionary
350
61
  3
AMDTSECTSYM_ARROWCOLOR
350
123
  0
DICTIONARY
  5
C33
102
{ACAD_REACTORS
330
C
102
}
330
C
100
AcDbDictionary
281
     1
  0
DICTIONARY
  5
41
102
{ACAD_REACTORS
330
C
102
}
330
C
100
AcDbDictionary
281
     1
  0
DICTIONARY
  5
26B
102
{ACAD_REACTORS
330
C
102
}
330
C
100
AcDbDictionary
281
     1
  0
XRECORD
  5
C5D
102
{ACAD_REACTORS
330
C
102
}
330
C
100
AcDbXrecord
280
     1
  1
DWGPROPS COOKIE
  2

  3

  4

  6

  7

  8
jamoeller
  9

300
AmdtFileType=84
301
=
302
=
303
=
304
=
305
=
306
=
307
=
308
=
309
=
 40
0.207288275462963
 41
2455782.292722801
 42
2455782.553151933
  1

 90
        1
  0
DICTIONARY
  5
447
102
{ACAD_REACTORS
330
446
102
}
330
446
100
AcDbDictionary
281
     1
  0
XRECORD
  5
B5A
102
{ACAD_REACTORS
330
B59
102
}
330
B59
100
AcDbXrecord
280
     1
290
     1
  0
XRECORD
  5
B5B
102
{ACAD_REACTORS
330
435
102
}
330
435
100
AcDbXrecord
280
     1
290
     1
  0
XRECORD
  5
B5C
102
{ACAD_REACTORS
330
438
102
}
330
438
100
AcDbXrecord
280
     1
290
     1
  0
XRECORD
  5
B5D
102
{ACAD_REACTORS
330
43A
102
}
330
43A
100
AcDbXrecord
280
     1
290
     1
  0
XRECORD
  5
B5E
102
{ACAD_REACTORS
330
43C
102
}
330
43C
100
AcDbXrecord
280
     1
290
     1
  0
DIMASSOC
  5
8FC
102
{ACAD_REACTORS
330
8FB
102
}
330
8FB
100
AcDbDimAssoc
330
8FA
 90
        3
 70
     0
 71
     0
  1
AcDbOsnapPointRef
 72
     2
331
84F
 73
     0
 91
        0
 40
0.0
 10
0.0
 20
0.0
 30
0.0
 75
     0
  1
AcDbOsnapPointRef
 72
     2
331
8E0
 73
     0
 91
        0
 40
0.0
 10
0.0
 20
0.0
 30
0.0
 75
     0
  0
DIMASSOC
  5
AA4
102
{ACAD_REACTORS
330
AA3
102
}
330
AA3
100
AcDbDimAssoc
330
AA2
 90
        3
 70
     0
 71
     0
  1
AcDbOsnapPointRef
 72
     1
331
7CB
 73
     0
 91
        0
 40
0.0
 10
0.0
 20
0.0
 30
2.000000000000000E+50
 75
     0
  1
AcDbOsnapPointRef
 72
    13
331
7D7
 73
     0
 91
        0
 40
0.0
 10
0.0
 20
0.0
 30
2.000000000000000E+50
 75
     0
  0
XRECORD
  5
C5F
102
{ACAD_REACTORS
330
C5E
102
}
330
C5E
100
AcDbXrecord
280
     1
 40
1.570796326794896
  0
XRECORD
  5
C61
102
{ACAD_REACTORS
330
C5E
102
}
330
C5E
100
AcDbXrecord
280
     1
340
14
  0
XRECORD
  5
C62
102
{ACAD_REACTORS
330
C5E
102
}
330
C5E
100
AcDbXrecord
280
     1
340
14
  0
XRECORD
  5
C60
102
{ACAD_REACTORS
330
C5E
102
}
330
C5E
100
AcDbXrecord
280
     1
340
14
  0
LAYOUT
  5
1E
102
{ACAD_XDICTIONARY
360
C63
102
}
102
{ACAD_REACTORS
330
1A
102
}
330
1A
100
AcDbPlotSettings
  1

  2

  4

  6

 40
0.0
 41
0.0
 42
0.0
 43
0.0
 44
0.0
 45
0.0
 46
0.0
 47
0.0
 48
0.0
 49
0.0
140
0.0
141
0.0
142
1.0
143
1.0
 70
   688
 72
     0
 73
     0
 74
     5
  7

 75
    16
147
1.0
148
0.0
149
0.0
100
AcDbLayout
  1
Layout1
 70
     1
 71
     1
 10
0.0
 20
0.0
 11
420.0
 21
297.0
 12
0.0
 22
0.0
 32
0.0
 14
1.000000000000000E+20
 24
1.000000000000000E+20
 34
1.000000000000000E+20
 15
-1.000000000000000E+20
 25
-1.000000000000000E+20
 35
-1.000000000000000E+20
146
0.0
 13
0.0
 23
0.0
 33
0.0
 16
1.0
 26
0.0
 36
0.0
 17
0.0
 27
1.0
 37
0.0
 76
     0
330
1B
  0
LAYOUT
  5
26
102
{ACAD_XDICTIONARY
360
C67
102
}
102
{ACAD_REACTORS
330
1A
102
}
330
1A
100
AcDbPlotSettings
  1

  2

  4

  6

 40
0.0
 41
0.0
 42
0.0
 43
0.0
 44
0.0
 45
0.0
 46
0.0
 47
0.0
 48
0.0
 49
0.0
140
0.0
141
0.0
142
1.0
143
1.0
 70
   688
 72
     0
 73
     0
 74
     5
  7

 75
    16
147
1.0
148
0.0
149
0.0
100
AcDbLayout
  1
Layout2
 70
     1
 71
     2
 10
0.0
 20
0.0
 11
12.0
 21
9.0
 12
0.0
 22
0.0
 32
0.0
 14
0.0
 24
0.0
 34
0.0
 15
0.0
 25
0.0
 35
0.0
146
0.0
 13
0.0
 23
0.0
 33
0.0
 16
1.0
 26
0.0
 36
0.0
 17
0.0
 27
1.0
 37
0.0
 76
     0
330
23
  0
LAYOUT
  5
22
102
{ACAD_XDICTIONARY
360
C65
102
}
102
{ACAD_REACTORS
330
1A
102
}
330
1A
100
AcDbPlotSettings
  1

  2

  4

  6

 40
0.0
 41
0.0
 42
0.0
 43
0.0
 44
0.0
 45
0.0
 46
0.0
 47
0.0
 48
0.0
 49
0.0
140
0.0
141
0.0
142
1.0
143
1.0
 70
  1712
 72
     0
 73
     0
 74
     0
  7

 75
     0
147
1.0
148
0.0
149
0.0
100
AcDbLayout
  1
Model
 70
     1
 71
     0
 10
0.0
 20
0.0
 11
12.0
 21
9.0
 12
0.0
 22
0.0
 32
0.0
 14
0.0
 24
0.0
 34
0.0
 15
0.0
 25
0.0
 35
0.0
146
0.0
 13
0.0
 23
0.0
 33
0.0
 16
1.0
 26
0.0
 36
0.0
 17
0.0
 27
1.0
 37
0.0
 76
     0
330
1F
331
3B2
  0
MATERIAL
  5
3BC
102
{ACAD_XDICTIONARY
360
3BD
102
}
102
{ACAD_REACTORS
330
BD
102
}
330
BD
100
AcDbMaterial
  1
ByBlock
 72
     0
 43
0.0008202099737533
 43
0.0
 43
0.0
 43
0.0
 43
0.0
 43
0.0008202099737533
 43
0.0
 43
0.0
 43
0.0
 43
0.0
 43
1.0
 43
0.0
 43
0.0
 43
0.0
 43
0.0
 43
1.0
 77
     0
 47
0.0008202099737533
 47
0.0
 47
0.0
 47
0.0
 47
0.0
 47
0.0008202099737533
 47
0.0
 47
0.0
 47
0.0
 47
0.0
 47
1.0
 47
0.0
 47
0.0
 47
0.0
 47
0.0
 47
1.0
171
     0
 49
0.0008202099737533
 49
0.0
 49
0.0
 49
0.0
 49
0.0
 49
0.0008202099737533
 49
0.0
 49
0.0
 49
0.0
 49
0.0
 49
1.0
 49
0.0
 49
0.0
 49
0.0
 49
0.0
 49
1.0
175
     0
142
0.0008202099737533
142
0.0
142
0.0
142
0.0
142
0.0
142
0.0008202099737533
142
0.0
142
0.0
142
0.0
142
0.0
142
1.0
142
0.0
142
0.0
142
0.0
142
0.0
142
1.0
179
     0
144
0.0008202099737533
144
0.0
144
0.0
144
0.0
144
0.0
144
0.0008202099737533
144
0.0
144
0.0
144
0.0
144
0.0
144
1.0
144
0.0
144
0.0
144
0.0
144
0.0
144
1.0
147
0.0008202099737533
147
0.0
147
0.0
147
0.0
147
0.0
147
0.0008202099737533
147
0.0
147
0.0
147
0.0
147
0.0
147
1.0
147
0.0
147
0.0
147
0.0
147
0.0
147
1.0
  0
MATERIAL
  5
3B4
102
{ACAD_XDICTIONARY
360
3B5
102
}
102
{ACAD_REACTORS
330
BD
102
}
330
BD
100
AcDbMaterial
  1
ByLayer
 72
     0
 43
0.0008202099737533
 43
0.0
 43
0.0
 43
0.0
 43
0.0
 43
0.0008202099737533
 43
0.0
 43
0.0
 43
0.0
 43
0.0
 43
1.0
 43
0.0
 43
0.0
 43
0.0
 43
0.0
 43
1.0
 77
     0
 47
0.0008202099737533
 47
0.0
 47
0.0
 47
0.0
 47
0.0
 47
0.0008202099737533
 47
0.0
 47
0.0
 47
0.0
 47
0.0
 47
1.0
 47
0.0
 47
0.0
 47
0.0
 47
0.0
 47
1.0
171
     0
 49
0.0008202099737533
 49
0.0
 49
0.0
 49
0.0
 49
0.0
 49
0.0008202099737533
 49
0.0
 49
0.0
 49
0.0
 49
0.0
 49
1.0
 49
0.0
 49
0.0
 49
0.0
 49
0.0
 49
1.0
175
     0
142
0.0008202099737533
142
0.0
142
0.0
142
0.0
142
0.0
142
0.0008202099737533
142
0.0
142
0.0
142
0.0
142
0.0
142
1.0
142
0.0
142
0.0
142
0.0
142
0.0
142
1.0
179
     0
144
0.0008202099737533
144
0.0
144
0.0
144
0.0
144
0.0
144
0.0008202099737533
144
0.0
144
0.0
144
0.0
144
0.0
144
1.0
144
0.0
144
0.0
144
0.0
144
0.0
144
1.0
147
0.0008202099737533
147
0.0
147
0.0
147
0.0
147
0.0
147
0.0008202099737533
147
0.0
147
0.0
147
0.0
147
0.0
147
1.0
147
0.0
147
0.0
147
0.0
147
0.0
147
1.0
  0
MATERIAL
  5
3C4
102
{ACAD_XDICTIONARY
360
3C5
102
}
102
{ACAD_REACTORS
330
BD
102
}
330
BD
100
AcDbMaterial
  1
Global
 72
     0
 43
0.0008202099737533
 43
0.0
 43
0.0
 43
0.0
 43
0.0
 43
0.0008202099737533
 43
0.0
 43
0.0
 43
0.0
 43
0.0
 43
1.0
 43
0.0
 43
0.0
 43
0.0
 43
0.0
 43
1.0
 77
     0
 47
0.0008202099737533
 47
0.0
 47
0.0
 47
0.0
 47
0.0
 47
0.0008202099737533
 47
0.0
 47
0.0
 47
0.0
 47
0.0
 47
1.0
 47
0.0
 47
0.0
 47
0.0
 47
0.0
 47
1.0
171
     0
 49
0.0008202099737533
 49
0.0
 49
0.0
 49
0.0
 49
0.0
 49
0.0008202099737533
 49
0.0
 49
0.0
 49
0.0
 49
0.0
 49
1.0
 49
0.0
 49
0.0
 49
0.0
 49
0.0
 49
1.0
175
     0
142
0.0008202099737533
142
0.0
142
0.0
142
0.0
142
0.0
142
0.0008202099737533
142
0.0
142
0.0
142
0.0
142
0.0
142
1.0
142
0.0
142
0.0
142
0.0
142
0.0
142
1.0
179
     0
144
0.0008202099737533
144
0.0
144
0.0
144
0.0
144
0.0
144
0.0008202099737533
144
0.0
144
0.0
144
0.0
144
0.0
144
1.0
144
0.0
144
0.0
144
0.0
144
0.0
144
1.0
147
0.0008202099737533
147
0.0
147
0.0
147
0.0
147
0.0
147
0.0008202099737533
147
0.0
147
0.0
147
0.0
147
0.0
147
1.0
147
0.0
147
0.0
147
0.0
147
0.0
147
1.0
  0
MLEADERSTYLE
  5
3F0
102
{ACAD_REACTORS
330
3EF
102
}
330
3EF
100
AcDbMLeaderStyle
170
     2
171
     1
172
     0
 90
        2
 40
0.0
 41
0.0
173
     1
 91
-1056964608
340
14
 92
       -2
290
     1
 42
2.0
291
     1
 43
0.36
  3
Standard
 44
4.0
300

342
11
174
     1
178
     6
175
     1
176
     0
 93
-1056964608
 45
4.0
292
     0
297
     0
 46
4.0
 94
-1056964608
 47
1.0
 49
1.0
140
1.0
293
     1
141
0.0
294
     1
177
     0
142
1.0
295
     0
296
     0
143
0.125
1001
ACAD_MLEADERVER
1070
     2
  0
MLINESTYLE
  5
18
102
{ACAD_REACTORS
330
17
102
}
330
17
100
AcDbMlineStyle
  2
STANDARD
 70
     0
  3

 62
   256
 51
90.0
 52
90.0
 71
     2
 49
0.5
 62
   256
  6
BYLAYER
 49
-0.5
 62
   256
  6
BYLAYER
  0
ACDBPLACEHOLDER
  5
F
102
{ACAD_REACTORS
330
E
102
}
330
E
  0
SCALE
  5
3DE
102
{ACAD_REACTORS
330
3DD
102
}
330
3DD
100
AcDbScale
 70
     0
300
1:1
140
1.0
141
1.0
290
     1
  0
SCALE
  5
3DF
102
{ACAD_REACTORS
330
3DD
102
}
330
3DD
100
AcDbScale
 70
     0
300
1:2
140
1.0
141
2.0
290
     0
  0
SCALE
  5
3E0
102
{ACAD_REACTORS
330
3DD
102
}
330
3DD
100
AcDbScale
 70
     0
300
1:4
140
1.0
141
4.0
290
     0
  0
SCALE
  5
3E1
102
{ACAD_REACTORS
330
3DD
102
}
330
3DD
100
AcDbScale
 70
     0
300
1:5
140
1.0
141
5.0
290
     0
  0
SCALE
  5
3E2
102
{ACAD_REACTORS
330
3DD
102
}
330
3DD
100
AcDbScale
 70
     0
300
1:8
140
1.0
141
8.0
290
     0
  0
SCALE
  5
3E3
102
{ACAD_REACTORS
330
3DD
102
}
330
3DD
100
AcDbScale
 70
     0
300
1:10
140
1.0
141
10.0
290
     0
  0
SCALE
  5
3E4
102
{ACAD_REACTORS
330
3DD
102
}
330
3DD
100
AcDbScale
 70
     0
300
1:16
140
1.0
141
16.0
290
     0
  0
SCALE
  5
3E5
102
{ACAD_REACTORS
330
3DD
102
}
330
3DD
100
AcDbScale
 70
     0
300
1:20
140
1.0
141
20.0
290
     0
  0
SCALE
  5
3E6
102
{ACAD_REACTORS
330
3DD
102
}
330
3DD
100
AcDbScale
 70
     0
300
1:30
140
1.0
141
30.0
290
     0
  0
SCALE
  5
3E7
102
{ACAD_REACTORS
330
3DD
102
}
330
3DD
100
AcDbScale
 70
     0
300
1:40
140
1.0
141
40.0
290
     0
  0
SCALE
  5
3E8
102
{ACAD_REACTORS
330
3DD
102
}
330
3DD
100
AcDbScale
 70
     0
300
1:50
140
1.0
141
50.0
290
     0
  0
SCALE
  5
3E9
102
{ACAD_REACTORS
330
3DD
102
}
330
3DD
100
AcDbScale
 70
     0
300
1:100
140
1.0
141
100.0
290
     0
  0
SCALE
  5
3EA
102
{ACAD_REACTORS
330
3DD
102
}
330
3DD
100
AcDbScale
 70
     0
300
2:1
140
2.0
141
1.0
290
     0
  0
SCALE
  5
3EB
102
{ACAD_REACTORS
330
3DD
102
}
330
3DD
100
AcDbScale
 70
     0
300
4:1
140
4.0
141
1.0
290
     0
  0
SCALE
  5
3EC
102
{ACAD_REACTORS
330
3DD
102
}
330
3DD
100
AcDbScale
 70
     0
300
8:1
140
8.0
141
1.0
290
     0
  0
SCALE
  5
3ED
102
{ACAD_REACTORS
330
3DD
102
}
330
3DD
100
AcDbScale
 70
     0
300
10:1
140
10.0
141
1.0
290
     0
  0
SCALE
  5
3EE
102
{ACAD_REACTORS
330
3DD
102
}
330
3DD
100
AcDbScale
 70
     0
300
100:1
140
100.0
141
1.0
290
     0
  0
TABLESTYLE
  5
11B
102
{ACAD_XDICTIONARY
360
B62
102
}
102
{ACAD_REACTORS
330
11A
102
}
330
11A
100
AcDbTableStyle
  3
Standard
 70
     0
 71
     0
 40
1.5
 41
1.5
280
     0
281
     0
  7
STANDARD
140
4.5
170
     2
 62
     0
 63
     7
283
     0
274
    -2
284
     1
 64
     0
275
    -2
285
     1
 65
     0
276
    -2
286
     1
 66
     0
277
    -2
287
     1
 67
     0
278
    -2
288
     1
 68
     0
279
    -2
289
     1
 69
     0
  7
STANDARD
140
6.0
170
     5
 62
     0
 63
     7
283
     0
274
    -2
284
     1
 64
     0
275
    -2
285
     1
 65
     0
276
    -2
286
     1
 66
     0
277
    -2
287
     1
 67
     0
278
    -2
288
     1
 68
     0
279
    -2
289
     1
 69
     0
  7
STANDARD
140
4.5
170
     5
 62
     0
 63
     7
283
     0
274
    -2
284
     1
 64
     0
275
    -2
285
     1
 65
     0
276
    -2
286
     1
 66
     0
277
    -2
287
     1
 67
     0
278
    -2
288
     1
 68
     0
279
    -2
289
     1
 69
     0
  0
VISUALSTYLE
  5
3D2
102
{ACAD_REACTORS
330
3CC
102
}
330
3CC
100
AcDbVisualStyle
  2
2dWireframe
 70
     4
 71
     0
 72
     2
 73
     0
 90
        0
 40
-0.6
 41
-30.0
 62
     5
 63
     7
 74
     1
 91
        4
 64
     7
 65
   257
 75
     1
175
     1
 42
1.0
 92
        0
 66
   257
 43
1.0
 76
     1
 77
     6
 78
     2
 67
     7
 79
     5
170
     0
171
     0
290
     0
174
     0
 93
        1
 44
0.0
173
     0
291
     0
 45
0.0
1001
ACAD
1000
AcDbSavedByObjectVersion
1070
     0
1000
AcDbSavedByObjectVersion
1070
     0
  0
VISUALSTYLE
  5
3D4
102
{ACAD_REACTORS
330
3CC
102
}
330
3CC
100
AcDbVisualStyle
  2
3D Hidden
 70
     6
 71
     1
 72
     2
 73
     2
 90
        0
 40
-0.6
 41
-30.0
 62
     5
 63
     7
 74
     2
 91
        2
 64
     7
 65
   257
 75
     2
175
     1
 42
40.0
 92
        0
 66
   257
 43
1.0
 76
     1
 77
     6
 78
     2
 67
     7
 79
     3
170
     0
171
     0
290
     0
174
     0
 93
        1
 44
0.0
173
     0
291
     0
 45
0.0
1001
ACAD
1000
AcDbSavedByObjectVersion
1070
     0
1000
AcDbSavedByObjectVersion
1070
     0
  0
VISUALSTYLE
  5
3D3
102
{ACAD_REACTORS
330
3CC
102
}
330
3CC
100
AcDbVisualStyle
  2
3dWireframe
 70
     5
 71
     0
 72
     2
 73
     0
 90
        0
 40
-0.6
 41
-30.0
 62
     5
 63
     7
 74
     1
 91
        4
 64
     7
 65
   257
 75
     1
175
     1
 42
1.0
 92
        0
 66
   257
 43
1.0
 76
     1
 77
     6
 78
     2
 67
     7
 79
     5
170
     0
171
     0
290
     0
174
     0
 93
        1
 44
0.0
173
     0
291
     0
 45
0.0
1001
ACAD
1000
AcDbSavedByObjectVersion
1070
     0
1000
AcDbSavedByObjectVersion
1070
     0
  0
VISUALSTYLE
  5
3D1
102
{ACAD_REACTORS
330
3CC
102
}
330
3CC
100
AcDbVisualStyle
  2
Basic
 70
     7
 71
     1
 72
     0
 73
     1
 90
        0
 40
-0.6
 41
-30.0
 62
     5
 63
     7
 74
     0
 91
        4
 64
     7
 65
   257
 75
     1
175
     1
 42
1.0
 92
        8
 66
     7
 43
1.0
 76
     1
 77
     6
 78
     2
 67
     7
 79
     5
170
     0
171
     0
290
     0
174
     0
 93
        1
 44
0.0
173
     0
291
     1
 45
0.0
1001
ACAD
1000
AcDbSavedByObjectVersion
1070
     0
1000
AcDbSavedByObjectVersion
1070
     0
  0
VISUALSTYLE
  5
3D8
102
{ACAD_REACTORS
330
3CC
102
}
330
3CC
100
AcDbVisualStyle
  2
Brighten
 70
    12
 71
     2
 72
     2
 73
     0
 90
        0
 40
-0.6
 41
-30.0
 62
     5
 63
     7
 74
     1
 91
        4
 64
     7
 65
   257
 75
     1
175
     1
 42
1.0
 92
        8
 66
     7
 43
1.0
 76
     1
 77
     6
 78
     2
 67
     7
 79
     5
170
     0
171
     0
290
     0
174
     0
 93
        1
 44
50.0
173
     0
291
     1
 45
0.0
1001
ACAD
1000
AcDbSavedByObjectVersion
1070
     0
1000
AcDbSavedByObjectVersion
1070
     0
  0
VISUALSTYLE
  5
3DC
102
{ACAD_REACTORS
330
3CC
102
}
330
3CC
100
AcDbVisualStyle
  2
ColorChange
 70
    16
 71
     2
 72
     2
 73
     3
 90
        0
 40
-0.6
 41
-30.0
 62
     5
 63
     8
 74
     1
 91
        4
 64
     7
 65
   257
 75
     1
175
     1
 42
1.0
 92
        8
 66
     8
 43
1.0
 76
     1
 77
     6
 78
     2
 67
     7
 79
     5
170
     0
171
     0
290
     0
174
     0
 93
        1
 44
0.0
173
     0
291
     1
 45
0.0
1001
ACAD
1000
AcDbSavedByObjectVersion
1070
     0
1000
AcDbSavedByObjectVersion
1070
     0
  0
VISUALSTYLE
  5
3D5
102
{ACAD_REACTORS
330
3CC
102
}
330
3CC
100
AcDbVisualStyle
  2
Conceptual
 70
     9
 71
     3
 72
     2
 73
     0
 90
        0
 40
-0.6
 41
-30.0
 62
     5
 63
     7
 74
     2
 91
        2
 64
     7
 65
   257
 75
     1
175
     1
 42
40.0
 92
        8
 66
     7
 43
1.0
 76
     1
 77
     6
 78
     2
 67
     7
 79
     3
170
     0
171
     0
290
     0
174
     0
 93
        1
 44
0.0
173
     0
291
     0
 45
0.0
1001
ACAD
1000
AcDbSavedByObjectVersion
1070
     0
1000
AcDbSavedByObjectVersion
1070
     0
  0
VISUALSTYLE
  5
3D7
102
{ACAD_REACTORS
330
3CC
102
}
330
3CC
100
AcDbVisualStyle
  2
Dim
 70
    11
 71
     2
 72
     2
 73
     0
 90
        0
 40
-0.6
 41
-30.0
 62
     5
 63
     7
 74
     1
 91
        4
 64
     7
 65
   257
 75
     1
175
     1
 42
1.0
 92
        8
 66
     7
 43
1.0
 76
     1
 77
     6
 78
     2
 67
     7
 79
     5
170
     0
171
     0
290
     0
174
     0
 93
        1
 44
-50.0
173
     0
291
     1
 45
0.0
1001
ACAD
1000
AcDbSavedByObjectVersion
1070
     0
1000
AcDbSavedByObjectVersion
1070
     0
  0
VISUALSTYLE
  5
3DB
102
{ACAD_REACTORS
330
3CC
102
}
330
3CC
100
AcDbVisualStyle
  2
Facepattern
 70
    15
 71
     2
 72
     2
 73
     0
 90
        0
 40
-0.6
 41
-30.0
 62
     5
 63
     7
 74
     1
 91
        4
 64
     7
 65
   257
 75
     1
175
     1
 42
1.0
 92
        8
 66
     7
 43
1.0
 76
     1
 77
     6
 78
     2
 67
     7
 79
     5
170
     0
171
     0
290
     0
174
     0
 93
        1
 44
0.0
173
     0
291
     1
 45
0.0
1001
ACAD
1000
AcDbSavedByObjectVersion
1070
     0
1000
AcDbSavedByObjectVersion
1070
     0
  0
VISUALSTYLE
  5
3CD
102
{ACAD_REACTORS
330
3CC
102
}
330
3CC
100
AcDbVisualStyle
  2
Flat
 70
     0
 71
     2
 72
     1
 73
     1
 90
        2
 40
-0.6
 41
30.0
 62
     5
 63
     7
 74
     0
 91
        4
 64
     7
 65
   257
 75
     1
175
     1
 42
1.0
 92
        8
 66
     7
 43
1.0
 76
     1
 77
     6
 78
     2
 67
     7
 79
     5
170
     0
171
     0
290
     0
174
     0
 93
       13
 44
0.0
173
     0
291
     1
 45
0.0
1001
ACAD
1000
AcDbSavedByObjectVersion
1070
     0
1000
AcDbSavedByObjectVersion
1070
     0
  0
VISUALSTYLE
  5
3CE
102
{ACAD_REACTORS
330
3CC
102
}
330
3CC
100
AcDbVisualStyle
  2
FlatWithEdges
 70
     1
 71
     2
 72
     1
 73
     1
 90
        2
 40
-0.6
 41
30.0
 62
     5
 63
     7
 74
     1
 91
        4
 64
     7
 65
   257
 75
     1
175
     1
 42
1.0
 92
        0
 66
   257
 43
1.0
 76
     1
 77
     6
 78
     2
 67
     7
 79
     5
170
     0
171
     0
290
     0
174
     0
 93
       13
 44
0.0
173
     0
291
     1
 45
0.0
1001
ACAD
1000
AcDbSavedByObjectVersion
1070
     0
1000
AcDbSavedByObjectVersion
1070
     0
  0
VISUALSTYLE
  5
3CF
102
{ACAD_REACTORS
330
3CC
102
}
330
3CC
100
AcDbVisualStyle
  2
Gouraud
 70
     2
 71
     2
 72
     2
 73
     1
 90
        2
 40
-0.6
 41
30.0
 62
     5
 63
     7
 74
     0
 91
        4
 64
     7
 65
   257
 75
     1
175
     1
 42
1.0
 92
        0
 66
     7
 43
1.0
 76
     1
 77
     6
 78
     2
 67
     7
 79
     5
170
     0
171
     0
290
     0
174
     0
 93
       13
 44
0.0
173
     0
291
     1
 45
0.0
1001
ACAD
1000
AcDbSavedByObjectVersion
1070
     0
1000
AcDbSavedByObjectVersion
1070
     0
  0
VISUALSTYLE
  5
3D0
102
{ACAD_REACTORS
330
3CC
102
}
330
3CC
100
AcDbVisualStyle
  2
GouraudWithEdges
 70
     3
 71
     2
 72
     2
 73
     1
 90
        2
 40
-0.6
 41
30.0
 62
     5
 63
     7
 74
     1
 91
        4
 64
     7
 65
   257
 75
     1
175
     1
 42
1.0
 92
        0
 66
   257
 43
1.0
 76
     1
 77
     6
 78
     2
 67
     7
 79
     5
170
     0
171
     0
290
     0
174
     0
 93
       13
 44
0.0
173
     0
291
     1
 45
0.0
1001
ACAD
1000
AcDbSavedByObjectVersion
1070
     0
1000
AcDbSavedByObjectVersion
1070
     0
  0
VISUALSTYLE
  5
3DA
102
{ACAD_REACTORS
330
3CC
102
}
330
3CC
100
AcDbVisualStyle
  2
Linepattern
 70
    14
 71
     2
 72
     2
 73
     0
 90
        0
 40
-0.6
 41
-30.0
 62
     5
 63
     7
 74
     1
 91
        4
 64
     7
 65
   257
 75
     7
175
     7
 42
1.0
 92
        8
 66
     7
 43
1.0
 76
     1
 77
     6
 78
     2
 67
     7
 79
     5
170
     0
171
     0
290
     0
174
     0
 93
        1
 44
0.0
173
     0
291
     1
 45
0.0
1001
ACAD
1000
AcDbSavedByObjectVersion
1070
     0
1000
AcDbSavedByObjectVersion
1070
     0
  0
VISUALSTYLE
  5
3D6
102
{ACAD_REACTORS
330
3CC
102
}
330
3CC
100
AcDbVisualStyle
  2
Realistic
 70
     8
 71
     2
 72
     2
 73
     0
 90
        0
 40
-0.6
 41
-30.0
 62
     5
 63
     7
 74
     1
 91
        0
 64
     7
 65
   257
 75
     1
175
     1
 42
1.0
 92
        8
 66
     8
 43
1.0
 76
     1
 77
     6
 78
     2
 67
     7
 79
     5
170
     0
171
     0
290
     0
174
     0
 93
       13
 44
0.0
173
     0
291
     0
 45
0.0
1001
ACAD
1000
AcDbSavedByObjectVersion
1070
     0
1000
AcDbSavedByObjectVersion
1070
     0
  0
VISUALSTYLE
  5
3D9
102
{ACAD_REACTORS
330
3CC
102
}
330
3CC
100
AcDbVisualStyle
  2
Thicken
 70
    13
 71
     2
 72
     2
 73
     0
 90
        0
 40
-0.6
 41
-30.0
 62
     5
 63
     7
 74
     1
 91
        4
 64
     7
 65
   257
 75
     1
175
     1
 42
1.0
 92
       12
 66
     7
 43
1.0
 76
     1
 77
     6
 78
     2
 67
     7
 79
     5
170
     0
171
     0
290
     0
174
     0
 93
        1
 44
0.0
173
     0
291
     1
 45
0.0
1001
ACAD
1000
AcDbSavedByObjectVersion
1070
     0
1000
AcDbSavedByObjectVersion
1070
     0
  0
DICTIONARYVAR
  5
B60
102
{ACAD_REACTORS
330
94
102
}
330
94
100
DictionaryVariables
280
     0
  1
1:1
  0
DICTIONARYVAR
  5
B5F
102
{ACAD_REACTORS
330
94
102
}
330
94
100
DictionaryVariables
280
     0
  1
STANDARD
  0
DICTIONARYVAR
  5
138
102
{ACAD_REACTORS
330
94
102
}
330
94
100
DictionaryVariables
280
     0
  1
STANDARD
  0
DICTIONARYVAR
  5
96
102
{ACAD_REACTORS
330
94
102
}
330
94
100
DictionaryVariables
280
     0
  1
2
  0
DICTIONARYVAR
  5
95
102
{ACAD_REACTORS
330
94
102
}
330
94
100
DictionaryVariables
280
     0
  1
0
  0
DICTIONARYVAR
  5
B61
102
{ACAD_REACTORS
330
94
102
}
330
94
100
DictionaryVariables
280
     0
  1
127
  0
DICTIONARY
  5
272
102
{ACAD_REACTORS
330
5B
102
}
330
5B
100
AcDbDictionary
281
     1
  0
DICTIONARY
  5
61
102
{ACAD_REACTORS
330
5B
102
}
330
5B
100
AcDbDictionary
281
     1
  0
XRECORD
  5
123
102
{ACAD_REACTORS
330
5B
102
}
330
5B
100
AcDbXrecord
280
     1
 90
-1023410169
  0
DICTIONARY
  5
C63
330
1E
100
AcDbDictionary
280
     1
281
     1
  3
ACAD_XREC_ROUNDTRIP
360
C64
  0
DICTIONARY
  5
C67
330
26
100
AcDbDictionary
280
     1
281
     1
  3
ACAD_XREC_ROUNDTRIP
360
C68
  0
DICTIONARY
  5
C65
330
22
100
AcDbDictionary
280
     1
281
     1
  3
ACAD_XREC_ROUNDTRIP
360
C66
  0
DICTIONARY
  5
3BD
330
3BC
100
AcDbDictionary
280
     1
281
     1
  3
ACAD_XREC_ROUNDTRIP
360
B70
  3
BUMPTILE
360
3BF
  3
DIFFUSETILE
360
3BE
  3
OPACITYTILE
360
3C2
  3
REFLECTIONTILE
360
3C1
  3
REFRACTIONTILE
360
3C3
  3
SPECULARTILE
360
3C0
  0
DICTIONARY
  5
3B5
330
3B4
100
AcDbDictionary
280
     1
281
     1
  3
ACAD_XREC_ROUNDTRIP
360
B6F
  3
BUMPTILE
360
3B7
  3
DIFFUSETILE
360
3B6
  3
OPACITYTILE
360
3BA
  3
REFLECTIONTILE
360
3B9
  3
REFRACTIONTILE
360
3BB
  3
SPECULARTILE
360
3B8
  0
DICTIONARY
  5
3C5
330
3C4
100
AcDbDictionary
280
     1
281
     1
  3
ACAD_XREC_ROUNDTRIP
360
B71
  3
BUMPTILE
360
3C7
  3
DIFFUSETILE
360
3C6
  3
OPACITYTILE
360
3CA
  3
REFLECTIONTILE
360
3C9
  3
REFRACTIONTILE
360
3CB
  3
SPECULARTILE
360
3C8
  0
DICTIONARY
  5
B62
330
11B
100
AcDbDictionary
280
     1
281
     1
  3
ACAD_ROUNDTRIP_2008_TABLESTYLE_CELLSTYLEMAP
360
C5C
  3
ACAD_XREC_ROUNDTRIP
360
C69
  0
XRECORD
  5
C64
102
{ACAD_REACTORS
330
C63
102
}
330
C63
100
AcDbXrecord
280
     1
102
SHADEPLOT
 70
     0
102
SHADEPLOTRESLEVEL
 70
     2
102
SHADEPLOTCUSTOMDPI
 70
   300
  0
XRECORD
  5
C68
102
{ACAD_REACTORS
330
C67
102
}
330
C67
100
AcDbXrecord
280
     1
102
SHADEPLOT
 70
     0
102
SHADEPLOTRESLEVEL
 70
     2
102
SHADEPLOTCUSTOMDPI
 70
   300
  0
XRECORD
  5
C66
102
{ACAD_REACTORS
330
C65
102
}
330
C65
100
AcDbXrecord
280
     1
102
SHADEPLOT
 70
     0
102
SHADEPLOTRESLEVEL
 70
     2
102
SHADEPLOTCUSTOMDPI
 70
   300
  0
XRECORD
  5
B70
102
{ACAD_REACTORS
330
3BD
102
}
330
3BD
100
AcDbXrecord
280
     1
102
MATERIAL
148
0.0
149
0.0
149
0.0
 93
        0
 94
      127
282
     0
 72
     0
 77
     0
171
     0
175
     0
179
     0
273
     0
  0
XRECORD
  5
3BF
102
{ACAD_REACTORS
330
3BD
102
}
330
3BD
100
AcDbXrecord
280
     1
270
     1
271
     1
  0
XRECORD
  5
3BE
102
{ACAD_REACTORS
330
3BD
102
}
330
3BD
100
AcDbXrecord
280
     1
270
     1
271
     1
  0
XRECORD
  5
3C2
102
{ACAD_REACTORS
330
3BD
102
}
330
3BD
100
AcDbXrecord
280
     1
270
     1
271
     1
  0
XRECORD
  5
3C1
102
{ACAD_REACTORS
330
3BD
102
}
330
3BD
100
AcDbXrecord
280
     1
270
     1
271
     1
  0
XRECORD
  5
3C3
102
{ACAD_REACTORS
330
3BD
102
}
330
3BD
100
AcDbXrecord
280
     1
270
     1
271
     1
  0
XRECORD
  5
3C0
102
{ACAD_REACTORS
330
3BD
102
}
330
3BD
100
AcDbXrecord
280
     1
270
     1
271
     1
  0
XRECORD
  5
B6F
102
{ACAD_REACTORS
330
3B5
102
}
330
3B5
100
AcDbXrecord
280
     1
102
MATERIAL
148
0.0
149
0.0
149
0.0
 93
        0
 94
      127
282
     0
 72
     0
 77
     0
171
     0
175
     0
179
     0
273
     0
  0
XRECORD
  5
3B7
102
{ACAD_REACTORS
330
3B5
102
}
330
3B5
100
AcDbXrecord
280
     1
270
     1
271
     1
  0
XRECORD
  5
3B6
102
{ACAD_REACTORS
330
3B5
102
}
330
3B5
100
AcDbXrecord
280
     1
270
     1
271
     1
  0
XRECORD
  5
3BA
102
{ACAD_REACTORS
330
3B5
102
}
330
3B5
100
AcDbXrecord
280
     1
270
     1
271
     1
  0
XRECORD
  5
3B9
102
{ACAD_REACTORS
330
3B5
102
}
330
3B5
100
AcDbXrecord
280
     1
270
     1
271
     1
  0
XRECORD
  5
3BB
102
{ACAD_REACTORS
330
3B5
102
}
330
3B5
100
AcDbXrecord
280
     1
270
     1
271
     1
  0
XRECORD
  5
3B8
102
{ACAD_REACTORS
330
3B5
102
}
330
3B5
100
AcDbXrecord
280
     1
270
     1
271
     1
  0
XRECORD
  5
B71
102
{ACAD_REACTORS
330
3C5
102
}
330
3C5
100
AcDbXrecord
280
     1
102
MATERIAL
148
0.0
149
0.0
149
0.0
 93
        0
 94
      127
282
     0
 72
     0
 77
     0
171
     0
175
     0
179
     0
273
     0
  0
XRECORD
  5
3C7
102
{ACAD_REACTORS
330
3C5
102
}
330
3C5
100
AcDbXrecord
280
     1
270
     1
271
     1
  0
XRECORD
  5
3C6
102
{ACAD_REACTORS
330
3C5
102
}
330
3C5
100
AcDbXrecord
280
     1
270
     1
271
     1
  0
XRECORD
  5
3CA
102
{ACAD_REACTORS
330
3C5
102
}
330
3C5
100
AcDbXrecord
280
     1
270
     1
271
     1
  0
XRECORD
  5
3C9
102
{ACAD_REACTORS
330
3C5
102
}
330
3C5
100
AcDbXrecord
280
     1
270
     1
271
     1
  0
XRECORD
  5
3CB
102
{ACAD_REACTORS
330
3C5
102
}
330
3C5
100
AcDbXrecord
280
     1
270
     1
271
     1
  0
XRECORD
  5
3C8
102
{ACAD_REACTORS
330
3C5
102
}
330
3C5
100
AcDbXrecord
280
     1
270
     1
271
     1
  0
CELLSTYLEMAP
  5
C5C
102
{ACAD_REACTORS
330
B62
102
}
330
B62
100
AcDbCellStyleMap
 90
        3
300
CELLSTYLE
  1
TABLEFORMAT_BEGIN
 90
        5
170
     1
 91
        0
 92
    32768
 62
   257
 93
        1
300
CONTENTFORMAT
  1
CONTENTFORMAT_BEGIN
 90
        0
 91
        0
 92
        4
 93
        0
300

 40
0.0
140
1.0
 94
        5
 62
     0
340
11
144
6.0
309
CONTENTFORMAT_END
171
     1
301
MARGIN
  1
CELLMARGIN_BEGIN
 40
1.5
 40
1.5
 40
1.5
 40
1.5
 40
0.18
 40
0.18
309
CELLMARGIN_END
 94
        6
 95
        1
302
GRIDFORMAT
  1
GRIDFORMAT_BEGIN
 90
        0
 91
        1
 62
     0
 92
       -2
340
0
 93
        0
 40
0.045
309
GRIDFORMAT_END
 95
        2
302
GRIDFORMAT
  1
GRIDFORMAT_BEGIN
 90
        0
 91
        1
 62
     0
 92
       -2
340
0
 93
        0
 40
0.045
309
GRIDFORMAT_END
 95
        4
302
GRIDFORMAT
  1
GRIDFORMAT_BEGIN
 90
        0
 91
        1
 62
     0
 92
       -2
340
0
 93
        0
 40
0.045
309
GRIDFORMAT_END
 95
        8
302
GRIDFORMAT
  1
GRIDFORMAT_BEGIN
 90
        0
 91
        1
 62
     0
 92
       -2
340
0
 93
        0
 40
0.045
309
GRIDFORMAT_END
 95
       16
302
GRIDFORMAT
  1
GRIDFORMAT_BEGIN
 90
        0
 91
        1
 62
     0
 92
       -2
340
0
 93
        0
 40
0.045
309
GRIDFORMAT_END
 95
       32
302
GRIDFORMAT
  1
GRIDFORMAT_BEGIN
 90
        0
 91
        1
 62
     0
 92
       -2
340
0
 93
        0
 40
0.045
309
GRIDFORMAT_END
309
TABLEFORMAT_END
  1
CELLSTYLE_BEGIN
 90
        1
 91
        1
300
_TITLE
309
CELLSTYLE_END
300
CELLSTYLE
  1
TABLEFORMAT_BEGIN
 90
        5
170
     1
 91
        0
 92
        0
 62
   257
 93
        1
300
CONTENTFORMAT
  1
CONTENTFORMAT_BEGIN
 90
        0
 91
        0
 92
        4
 93
        0
300

 40
0.0
140
1.0
 94
        5
 62
     0
340
11
144
4.5
309
CONTENTFORMAT_END
171
     1
301
MARGIN
  1
CELLMARGIN_BEGIN
 40
1.5
 40
1.5
 40
1.5
 40
1.5
 40
0.18
 40
0.18
309
CELLMARGIN_END
 94
        6
 95
        1
302
GRIDFORMAT
  1
GRIDFORMAT_BEGIN
 90
        0
 91
        1
 62
     0
 92
       -2
340
0
 93
        0
 40
0.045
309
GRIDFORMAT_END
 95
        2
302
GRIDFORMAT
  1
GRIDFORMAT_BEGIN
 90
        0
 91
        1
 62
     0
 92
       -2
340
0
 93
        0
 40
0.045
309
GRIDFORMAT_END
 95
        4
302
GRIDFORMAT
  1
GRIDFORMAT_BEGIN
 90
        0
 91
        1
 62
     0
 92
       -2
340
0
 93
        0
 40
0.045
309
GRIDFORMAT_END
 95
        8
302
GRIDFORMAT
  1
GRIDFORMAT_BEGIN
 90
        0
 91
        1
 62
     0
 92
       -2
340
0
 93
        0
 40
0.045
309
GRIDFORMAT_END
 95
       16
302
GRIDFORMAT
  1
GRIDFORMAT_BEGIN
 90
        0
 91
        1
 62
     0
 92
       -2
340
0
 93
        0
 40
0.045
309
GRIDFORMAT_END
 95
       32
302
GRIDFORMAT
  1
GRIDFORMAT_BEGIN
 90
        0
 91
        1
 62
     0
 92
       -2
340
0
 93
        0
 40
0.045
309
GRIDFORMAT_END
309
TABLEFORMAT_END
  1
CELLSTYLE_BEGIN
 90
        2
 91
        1
300
_HEADER
309
CELLSTYLE_END
300
CELLSTYLE
  1
TABLEFORMAT_BEGIN
 90
        5
170
     1
 91
        0
 92
        0
 62
   257
 93
        1
300
CONTENTFORMAT
  1
CONTENTFORMAT_BEGIN
 90
        0
 91
        0
 92
        4
 93
        0
300

 40
0.0
140
1.0
 94
        2
 62
     0
340
11
144
4.5
309
CONTENTFORMAT_END
171
     1
301
MARGIN
  1
CELLMARGIN_BEGIN
 40
1.5
 40
1.5
 40
1.5
 40
1.5
 40
0.18
 40
0.18
309
CELLMARGIN_END
 94
        6
 95
        1
302
GRIDFORMAT
  1
GRIDFORMAT_BEGIN
 90
        0
 91
        1
 62
     0
 92
       -2
340
0
 93
        0
 40
0.045
309
GRIDFORMAT_END
 95
        2
302
GRIDFORMAT
  1
GRIDFORMAT_BEGIN
 90
        0
 91
        1
 62
     0
 92
       -2
340
0
 93
        0
 40
0.045
309
GRIDFORMAT_END
 95
        4
302
GRIDFORMAT
  1
GRIDFORMAT_BEGIN
 90
        0
 91
        1
 62
     0
 92
       -2
340
0
 93
        0
 40
0.045
309
GRIDFORMAT_END
 95
        8
302
GRIDFORMAT
  1
GRIDFORMAT_BEGIN
 90
        0
 91
        1
 62
     0
 92
       -2
340
0
 93
        0
 40
0.045
309
GRIDFORMAT_END
 95
       16
302
GRIDFORMAT
  1
GRIDFORMAT_BEGIN
 90
        0
 91
        1
 62
     0
 92
       -2
340
0
 93
        0
 40
0.045
309
GRIDFORMAT_END
 95
       32
302
GRIDFORMAT
  1
GRIDFORMAT_BEGIN
 90
        0
 91
        1
 62
     0
 92
       -2
340
0
 93
        0
 40
0.045
309
GRIDFORMAT_END
309
TABLEFORMAT_END
  1
CELLSTYLE_BEGIN
 90
        3
 91
        2
300
_DATA
309
CELLSTYLE_END
  0
XRECORD
  5
C69
102
{ACAD_REACTORS
330
B62
102
}
330
B62
100
AcDbXrecord
280
     1
102
ACAD_ROUNDTRIP_PRE2007_TABLESTYLE
 90
        4
 91
        0
  1

 92
        4
 93
        0
  2

 94
        4
 95
        0
  3

  0
ENDSEC
  0
EOF
