  0
SECTION
  2
HEADER
  9
$ACADVER
  1
AC1015
  9
$ACADMAINTVER
 70
    20
  9
$DWGCODEPAGE
  3
ANSI_1252
  9
$INSBASE
 10
0.0
 20
0.0
 30
0.0
  9
$EXTMIN
 10
55.99914655089287
 20
60.84475853392473
 30
-0.0000000349181948
  9
$EXTMAX
 10
388.3538827769853
 20
571.0869154188396
 30
0.0000000814935747
  9
$LIMMIN
 10
0.0
 20
0.0
  9
$LIMMAX
 10
420.0
 20
594.0
  9
$ORTHOMODE
 70
     1
  9
$REGENMODE
 70
     1
  9
$FILLMODE
 70
     1
  9
$QTEXTMODE
 70
     0
  9
$MIRRTEXT
 70
     1
  9
$LTSCALE
 40
2.0
  9
$ATTMODE
 70
     1
  9
$TEXTSIZE
 40
2.5
  9
$TRACEWID
 40
1.0
  9
$TEXTSTYLE
  7
STANDARD
  9
$CLAYER
  8
0
  9
$CELTYPE
  6
ByLayer
  9
$CECOLOR
 62
   256
  9
$CELTSCALE
 40
1.0
  9
$DISPSILH
 70
     0
  9
$DIMSCALE
 40
2.0
  9
$DIMASZ
 40
2.5
  9
$DIMEXO
 40
1.0
  9
$DIMDLI
 40
10.0
  9
$DIMRND
 40
0.0
  9
$DIMDLE
 40
0.0
  9
$DIMEXE
 40
1.0
  9
$DIMTP
 40
0.1
  9
$DIMTM
 40
0.1
  9
$DIMTXT
 40
3.5
  9
$DIMCEN
 40
0.0
  9
$DIMTSZ
 40
0.0
  9
$DIMTOL
 70
     0
  9
$DIMLIM
 70
     0
  9
$DIMTIH
 70
     0
  9
$DIMTOH
 70
     0
  9
$DIMSE1
 70
     0
  9
$DIMSE2
 70
     0
  9
$DIMTAD
 70
     1
  9
$DIMZIN
 70
     8
  9
$DIMBLK
  1

  9
$DIMASO
 70
     1
  9
$DIMSHO
 70
     1
  9
$DIMPOST
  1

  9
$DIMAPOST
  1
"
  9
$DIMALT
 70
     0
  9
$DIMALTD
 70
     2
  9
$DIMALTF
 40
0.0393701
  9
$DIMLFAC
 40
1.0
  9
$DIMTOFL
 70
     1
  9
$DIMTVP
 40
0.0
  9
$DIMTIX
 70
     0
  9
$DIMSOXD
 70
     0
  9
$DIMSAH
 70
     0
  9
$DIMBLK1
  1

  9
$DIMBLK2
  1

  9
$DIMSTYLE
  2
AM_DIN
  9
$DIMCLRD
 70
   256
  9
$DIMCLRE
 70
   256
  9
$DIMCLRT
 70
     2
  9
$DIMTFAC
 40
0.71
  9
$DIMGAP
 40
1.5
  9
$DIMJUST
 70
     0
  9
$DIMSD1
 70
     0
  9
$DIMSD2
 70
     0
  9
$DIMTOLJ
 70
     0
  9
$DIMTZIN
 70
     8
  9
$DIMALTZ
 70
     0
  9
$DIMALTTZ
 70
     0
  9
$DIMUPT
 70
     0
  9
$DIMDEC
 70
     2
  9
$DIMTDEC
 70
     3
  9
$DIMALTU
 70
     2
  9
$DIMALTTD
 70
     4
  9
$DIMTXSTY
  7
STANDARD
  9
$DIMAUNIT
 70
     0
  9
$DIMADEC
 70
     0
  9
$DIMALTRND
 40
0.0
  9
$DIMAZIN
 70
     2
  9
$DIMDSEP
 70
    46
  9
$DIMATFIT
 70
     3
  9
$DIMFRAC
 70
     0
  9
$DIMLDRBLK
  1

  9
$DIMLUNIT
 70
     2
  9
$DIMLWD
 70
    -1
  9
$DIMLWE
 70
    -1
  9
$DIMTMOVE
 70
     0
  9
$LUNITS
 70
     2
  9
$LUPREC
 70
     2
  9
$SKETCHINC
 40
1.0
  9
$FILLETRAD
 40
5.0
  9
$AUNITS
 70
     0
  9
$AUPREC
 70
     0
  9
$MENU
  1
.
  9
$ELEVATION
 40
0.0
  9
$PELEVATION
 40
0.0
  9
$THICKNESS
 40
0.0
  9
$LIMCHECK
 70
     0
  9
$CHAMFERA
 40
5.0
  9
$CHAMFERB
 40
5.0
  9
$CHAMFERC
 40
20.0
  9
$CHAMFERD
 40
0.0
  9
$SKPOLY
 70
     0
  9
$TDCREATE
 40
2452702.557501690
  9
$TDUCREATE
 40
2452702.474168357
  9
$TDUPDATE
 40
2454019.920428646
  9
$TDUUPDATE
 40
2454019.837095312
  9
$TDINDWG
 40
0.0599386111
  9
$TDUSRTIMER
 40
0.0599386111
  9
$USRTIMER
 70
     1
  9
$ANGBASE
 50
0.0
  9
$ANGDIR
 70
     0
  9
$PDMODE
 70
     0
  9
$PDSIZE
 40
0.0
  9
$PLINEWID
 40
0.0
  9
$SPLFRAME
 70
     0
  9
$SPLINETYPE
 70
     6
  9
$SPLINESEGS
 70
     8
  9
$HANDSEED
  5
BF8
  9
$SURFTAB1
 70
     6
  9
$SURFTAB2
 70
     6
  9
$SURFTYPE
 70
     6
  9
$SURFU
 70
     6
  9
$SURFV
 70
     6
  9
$UCSBASE
  2

  9
$UCSNAME
  2

  9
$UCSORG
 10
0.0
 20
0.0
 30
0.0
  9
$UCSXDIR
 10
1.0
 20
0.0
 30
0.0
  9
$UCSYDIR
 10
0.0
 20
1.0
 30
0.0
  9
$UCSORTHOREF
  2

  9
$UCSORTHOVIEW
 70
     0
  9
$UCSORGTOP
 10
0.0
 20
0.0
 30
0.0
  9
$UCSORGBOTTOM
 10
0.0
 20
0.0
 30
0.0
  9
$UCSORGLEFT
 10
0.0
 20
0.0
 30
0.0
  9
$UCSORGRIGHT
 10
0.0
 20
0.0
 30
0.0
  9
$UCSORGFRONT
 10
0.0
 20
0.0
 30
0.0
  9
$UCSORGBACK
 10
0.0
 20
0.0
 30
0.0
  9
$PUCSBASE
  2

  9
$PUCSNAME
  2

  9
$PUCSORG
 10
0.0
 20
0.0
 30
0.0
  9
$PUCSXDIR
 10
1.0
 20
0.0
 30
0.0
  9
$PUCSYDIR
 10
0.0
 20
1.0
 30
0.0
  9
$PUCSORTHOREF
  2

  9
$PUCSORTHOVIEW
 70
     0
  9
$PUCSORGTOP
 10
0.0
 20
0.0
 30
0.0
  9
$PUCSORGBOTTOM
 10
0.0
 20
0.0
 30
0.0
  9
$PUCSORGLEFT
 10
0.0
 20
0.0
 30
0.0
  9
$PUCSORGRIGHT
 10
0.0
 20
0.0
 30
0.0
  9
$PUCSORGFRONT
 10
0.0
 20
0.0
 30
0.0
  9
$PUCSORGBACK
 10
0.0
 20
0.0
 30
0.0
  9
$USERI1
 70
     0
  9
$USERI2
 70
     0
  9
$USERI3
 70
     0
  9
$USERI4
 70
     0
  9
$USERI5
 70
     0
  9
$USERR1
 40
0.0
  9
$USERR2
 40
0.0
  9
$USERR3
 40
0.0
  9
$USERR4
 40
0.0
  9
$USERR5
 40
0.0
  9
$WORLDVIEW
 70
     1
  9
$SHADEDGE
 70
     3
  9
$SHADEDIF
 70
    70
  9
$TILEMODE
 70
     1
  9
$MAXACTVP
 70
    64
  9
$PINSBASE
 10
0.0
 20
0.0
 30
0.0
  9
$PLIMCHECK
 70
     0
  9
$PEXTMIN
 10
1.000000000000000E+20
 20
1.000000000000000E+20
 30
1.000000000000000E+20
  9
$PEXTMAX
 10
-1.000000000000000E+20
 20
-1.000000000000000E+20
 30
-1.000000000000000E+20
  9
$PLIMMIN
 10
0.0
 20
0.0
  9
$PLIMMAX
 10
420.0
 20
297.0
  9
$UNITMODE
 70
     0
  9
$VISRETAIN
 70
     1
  9
$PLINEGEN
 70
     0
  9
$PSLTSCALE
 70
     1
  9
$TREEDEPTH
 70
  3020
  9
$CMLSTYLE
  2
Standard
  9
$CMLJUST
 70
     0
  9
$CMLSCALE
 40
20.0
  9
$PROXYGRAPHICS
 70
     1
  9
$MEASUREMENT
 70
     1
  9
$CELWEIGHT
370
    -1
  9
$ENDCAPS
280
     0
  9
$JOINSTYLE
280
     0
  9
$LWDISPLAY
290
     0
  9
$INSUNITS
 70
     4
  9
$HYPERLINKBASE
  1

  9
$STYLESHEET
  1

  9
$XEDIT
290
     1
  9
$CEPSNTYPE
380
     0
  9
$PSTYLEMODE
290
     1
  9
$FINGERPRINTGUID
  2
{D5091DE6-A8E7-4749-B1FA-F4240FAEB0F0}
  9
$VERSIONGUID
  2
{742F6687-6C6E-449C-8BA9-5CFAB0EBFAF7}
  9
$EXTNAMES
290
     1
  9
$PSVPSCALE
 40
0.0
  9
$OLESTARTUP
290
     0
  0
ENDSEC
  0
SECTION
  2
CLASSES
  0
CLASS
  1
ACDBDICTIONARYWDFLT
  2
AcDbDictionaryWithDefault
  3
ObjectDBX Classes
 90
        0
280
     0
281
     0
  0
CLASS
  1
ACDBPLACEHOLDER
  2
AcDbPlaceHolder
  3
ObjectDBX Classes
 90
        0
280
     0
281
     0
  0
CLASS
  1
LAYOUT
  2
AcDbLayout
  3
ObjectDBX Classes
 90
        0
280
     0
281
     0
  0
CLASS
  1
AMGSETTINGSOBJ
  2
AmgSettingsObj
  3
"AcadM|Product Description: AutoCAD Mechanical 2000|Company: Autodesk"
 90
        0
280
     0
281
     0
  0
CLASS
  1
ACME_DOCUMENT
  2
AcMeDbDoc
  3
AcMeServices
 90
        0
280
     0
281
     0
  0
CLASS
  1
ACMESCOPE
  2
AcMeScope
  3
AcMeServices
 90
        0
280
     0
281
     0
  0
CLASS
  1
ACMECOMMANDHISTORY
  2
AcMeCommandHistory
  3
AcMeServices
 90
        0
280
     0
281
     0
  0
CLASS
  1
DICTIONARYVAR
  2
AcDbDictionaryVar
  3
ObjectDBX Classes
 90
        0
280
     0
281
     0
  0
CLASS
  1
ACIMSYSVARMAN
  2
AcImSysVarManager
  3
AcMeServices
 90
        0
280
     0
281
     0
  0
CLASS
  1
ACIMREALSYSVAR
  2
AcImRealSysVar
  3
AcMeServices
 90
        0
280
     0
281
     0
  0
CLASS
  1
ACIMINTSYSVAR
  2
AcImIntSysVar
  3
AcMeServices
 90
        0
280
     0
281
     0
  0
CLASS
  1
ACMEDRAWINGMAN
  2
AcMeDrawingMan
  3
AcMeServices
 90
        0
280
     0
281
     0
  0
CLASS
  1
ACMEVIEW
  2
AcMeView
  3
AcMeServices
 90
        0
280
     0
281
     0
  0
CLASS
  1
ACDBENTITYCACHE
  2
AcMeEntityCache
  3
AcMeServices
 90
        0
280
     0
281
     0
  0
CLASS
  1
GSMANAGER
  2
AcMeGSManager
  3
AcMeServices
 90
        0
280
     0
281
     0
  0
CLASS
  1
AMDTINTERNALREACTOR
  2
AmdtInternalReactor
  3
AcMeServices
 90
        0
280
     0
281
     0
  0
CLASS
  1
ACMESTATEMGR
  2
AcMeStateMgr
  3
AcMeServices
 90
        0
280
     0
281
     0
  0
CLASS
  1
ACGREFMASTER
  2
AcGrefMaster
  3
AcAttribServices
 90
        0
280
     0
281
     0
  0
CLASS
  1
ACME_DATABASE
  2
AcMeDbDatabase
  3
AcMeServices
 90
        0
280
     0
281
     0
  0
CLASS
  1
ACRFINSADJUSTERMGR
  2
AcRfInsAdjusterMgr
  3
AcMeServices
 90
        0
280
     0
281
     0
  0
CLASS
  1
ACGREFACADMASTER
  2
AcGrefacadMaster
  3
AcGrefServices
 90
        0
280
     0
281
     0
  0
CLASS
  1
AMIMASTER
  2
AmiMaster
  3
AmiServices
 90
        0
280
     0
281
     0
  0
CLASS
  1
ACMDATADICTIONARY
  2
AcmDataDictionary
  3
"AcmSymBB|Product Description: AutoCAD Mechanical 2004 DX|Company: Autodesk"
 90
        0
280
     0
281
     0
  0
CLASS
  1
ACMDATAENTRYBLOCK
  2
AcmDataEntryBlock
  3
"AcmSymBB|Product Description: AutoCAD Mechanical 2004 DX|Company: Autodesk"
 90
    32768
280
     0
281
     0
  0
CLASS
  1
ACIMSTRSYSVAR
  2
AcImStrSysVar
  3
AcMeServices
 90
        0
280
     0
281
     0
  0
CLASS
  1
ACMSTANDARDDIN
  2
AcmStandardDIN
  3
"Amdt_StdImp|Product Description: AutoCAD Mechanical 2004 DX|Company: Autodesk"
 90
        0
280
     0
281
     0
  0
CLASS
  1
AMGOBJPROPCFG
  2
AmgObjPropCfg
  3
"AmgLay|Product Description: AutoCAD Mechanical 2000|Company: Autodesk"
 90
        1
280
     0
281
     0
  0
CLASS
  1
AMDTEDGESTANDARDDIN
  2
AmdtEdgeStdDIN
  3
"Amdt_StdImp|Product Description: AutoCAD Mechanical 2004 DX|Company: Autodesk"
 90
    32768
280
     0
281
     0
  0
CLASS
  1
ACMSURFSTANDARDDIN
  2
AcmSurfTextStdDIN
  3
"Amdt_StdImp|Product Description: AutoCAD Mechanical 2004 DX|Company: Autodesk"
 90
        0
280
     0
281
     0
  0
CLASS
  1
ACMFCFSTANDARDDIN
  2
AcmFCFStdDIN
  3
"Amdt_StdImp|Product Description: AutoCAD Mechanical 2004 DX|Company: Autodesk"
 90
        0
280
     0
281
     0
  0
CLASS
  1
ACMWELDSTANDARDDIN
  2
AcmWeldingStdDIN
  3
"Amdt_StdImp|Product Description: AutoCAD Mechanical 2004 DX|Company: Autodesk"
 90
        0
280
     0
281
     0
  0
CLASS
  1
ACMIDSTANDARDDIN
  2
AcmIdStdDIN
  3
"Amdt_StdImp|Product Description: AutoCAD Mechanical 2004 DX|Company: Autodesk"
 90
        0
280
     0
281
     0
  0
CLASS
  1
ACMDATUMSTANDARDDIN
  2
AcmDatumStdDIN
  3
"Amdt_StdImp|Product Description: AutoCAD Mechanical 2004 DX|Company: Autodesk"
 90
        0
280
     0
281
     0
  0
CLASS
  1
ACMBOMSTANDARDDIN
  2
AcmBOMStdDIN
  3
"Amdt_StdImp|Product Description: AutoCAD Mechanical 2004 DX|Company: Autodesk"
 90
        0
280
     0
281
     0
  0
CLASS
  1
ACMDETAILSTANDARDDIN
  2
AmdtDetailSymStdDIN
  3
"Amdt_StdImp|Product Description: AutoCAD Mechanical 2004 DX|Company: Autodesk"
 90
        0
280
     0
281
     0
  0
CLASS
  1
ACMSECTIONSTANDARDDIN
  2
AmdtSectionSymStdDIN
  3
"Amdt_StdImp|Product Description: AutoCAD Mechanical 2004 DX|Company: Autodesk"
 90
        0
280
     0
281
     0
  0
CLASS
  1
ACMCENTERLINESTANDARDDIN
  2
AmdtCenterLineStdDIN
  3
"Amdt_StdImp|Product Description: AutoCAD Mechanical 2004 DX|Company: Autodesk"
 90
        0
280
     0
281
     0
  0
CLASS
  1
ACAMGLAYSTD
  2
AcAmgLayStd
  3
"AcAmgLayStd|Product Description: AutoCAD Mechanical 2000|Company: Autodesk"
 90
        0
280
     0
281
     0
  0
CLASS
  1
ACAMGDIMSTD
  2
AcAmgDimStd
  3
"AcAmgDimStd|Product Description: AutoCAD Mechanical 2000|Company: Autodesk"
 90
        0
280
     0
281
     0
  0
CLASS
  1
ACAMGTITLESTD
  2
AcAmgTitleStd
  3
"TITLEAPP"
 90
        0
280
     0
281
     0
  0
CLASS
  1
LAYER_INDEX
  2
AcDbLayerIndex
  3
ObjectDBX Classes
 90
    32768
280
     0
281
     0
  0
CLASS
  1
IDBUFFER
  2
AcDbIdBuffer
  3
ObjectDBX Classes
 90
    32768
280
     0
281
     0
  0
CLASS
  1
ACAMGFILTERDAT
  2
AcAmgFilterDat
  3
"AcadM|Product Description: AutoCAD Mechanical 2000|Company: Autodesk"
 90
    32768
280
     0
281
     0
  0
CLASS
  1
ACMSTANDARDANSI
  2
AcmStandardANSI
  3
"Amdt_StdImp|Product Description: AutoCAD Mechanical 2004 DX|Company: Autodesk"
 90
    32768
280
     0
281
     0
  0
CLASS
  1
ACMSURFSTANDARDANSI
  2
AcmSurfTextStdANSI
  3
"Amdt_StdImp|Product Description: AutoCAD Mechanical 2004 DX|Company: Autodesk"
 90
    32768
280
     0
281
     0
  0
CLASS
  1
ACMFCFSTANDARDANSI
  2
AcmFCFStdANSI
  3
"Amdt_StdImp|Product Description: AutoCAD Mechanical 2004 DX|Company: Autodesk"
 90
    32768
280
     0
281
     0
  0
CLASS
  1
ACMWELDSTANDARDANSI
  2
AcmWeldingStdANSI
  3
"Amdt_StdImp|Product Description: AutoCAD Mechanical 2004 DX|Company: Autodesk"
 90
    32768
280
     0
281
     0
  0
CLASS
  1
ACMIDSTANDARDANSI
  2
AcmIdStdANSI
  3
"Amdt_StdImp|Product Description: AutoCAD Mechanical 2004 DX|Company: Autodesk"
 90
    32768
280
     0
281
     0
  0
CLASS
  1
ACMDATUMSTANDARDANSI
  2
AcmDatumStdANSI
  3
"Amdt_StdImp|Product Description: AutoCAD Mechanical 2004 DX|Company: Autodesk"
 90
    32768
280
     0
281
     0
  0
CLASS
  1
ACMBOMSTANDARDANSI
  2
AcmBOMStdANSI
  3
"Amdt_StdImp|Product Description: AutoCAD Mechanical 2004 DX|Company: Autodesk"
 90
    32768
280
     0
281
     0
  0
CLASS
  1
ACMDETAILSTANDARDANSI
  2
AmdtDetailSymStdANSI
  3
"Amdt_StdImp|Product Description: AutoCAD Mechanical 2004 DX|Company: Autodesk"
 90
    32768
280
     0
281
     0
  0
CLASS
  1
ACMSECTIONSTANDARDANSI
  2
AmdtSectionSymStdANSI
  3
"Amdt_StdImp|Product Description: AutoCAD Mechanical 2004 DX|Company: Autodesk"
 90
    32768
280
     0
281
     0
  0
CLASS
  1
ACMCENTERLINESTANDARDANSI
  2
AmdtCenterLineStdANSI
  3
"Amdt_StdImp|Product Description: AutoCAD Mechanical 2004 DX|Company: Autodesk"
 90
    32768
280
     0
281
     0
  0
CLASS
  1
AMDTFORMULAUPDATEDISPATCHER
  2
AmdtFormulaUpdateDispatcher
  3
AcMeServices
 90
    32768
280
     0
281
     0
  0
CLASS
  1
TABLESTYLE
  2
AcDbTableStyle
  3
ObjectDBX Classes
 90
     2047
280
     0
281
     0
  0
CLASS
  1
AM_DRAWING_MGR
  2
AcDmDwgMgr
  3
AcMechDwgViewMgmt
 90
        0
280
     0
281
     0
  0
CLASS
  1
AM_DWG_DOCUMENT
  2
AcDmDwgDocument
  3
AcMechDwgViewMgmt
 90
        0
280
     0
281
     0
  0
CLASS
  1
AM_DWG_SHEET
  2
AcDmSheet
  3
AcMechDwgViewMgmt
 90
        0
280
     0
281
     0
  0
CLASS
  1
AM_VIEWDIMPARMAP
  2
AcDmViewDimParMap
  3
AcMechDwgViewMgmt
 90
        0
280
     0
281
     0
  0
CLASS
  1
AM_DWGMGR_NAME
  2
AcDmDwgMgrName
  3
AcMechDwgViewMgmt
 90
        0
280
     0
281
     0
  0
CLASS
  1
AMDTMENUSTATEMGR
  2
AmdtMenuStateMgr
  3
McadcomServices
 90
        0
280
     0
281
     0
  0
CLASS
  1
AMDTMCOMMENUSTATE
  2
AmdtMcomMenuState
  3
McadcomServices
 90
        0
280
     0
281
     0
  0
CLASS
  1
MAPIAMMOUDLE
  2
MApiAmModule
  3
MApiAmServices
 90
        0
280
     0
281
     0
  0
CLASS
  1
AMDTADMENUSTATE
  2
AmdtAdMenuState
  3
DesignerServices
 90
        0
280
     0
281
     0
  0
CLASS
  1
ADAPPL
  2
AcAdAppl
  3
DesignerServices
 90
        0
280
     0
281
     0
  0
CLASS
  1
DEPMGR
  2
AcAdDepMgr
  3
DesignerServices
 90
        0
280
     0
281
     0
  0
CLASS
  1
PARAMMGR
  2
AcAdParamMgr
  3
DesignerServices
 90
        0
280
     0
281
     0
  0
CLASS
  1
PARAMSCOPE
  2
AcAdParamScope
  3
DesignerServices
 90
        0
280
     0
281
     0
  0
CLASS
  1
NAMEDAPPL
  2
AcAdNamedAppl
  3
DesignerServices
 90
        0
280
     0
281
     0
  0
CLASS
  1
AMDTDMMENUSTATE
  2
AmdtDmMenuState
  3
AcMechDwgViewMgmt
 90
        0
280
     0
281
     0
  0
CLASS
  1
AMDTAMMENUSTATE
  2
AmdtAmMenuState
  3
DesignerAssemblies
 90
        0
280
     0
281
     0
  0
CLASS
  1
ACAMPROJECT
  2
AcAmProject
  3
DesignerAssemblies
 90
        0
280
     0
281
     0
  0
CLASS
  1
ACAMGRCOMPDEF
  2
AcAmGrCompDef
  3
DesignerAssemblies
 90
        0
280
     0
281
     0
  0
CLASS
  1
ACCMCONTEXT
  2
AcCmContext
  3
DesignerAssemblies
 90
        0
280
     0
281
     0
  0
CLASS
  1
ACAMCOMPDEF
  2
AcAmCompDef
  3
DesignerAssemblies
 90
        0
280
     0
281
     0
  0
CLASS
  1
ACAMCOMPDEFMGR
  2
AcAmCompDefMgr
  3
DesignerAssemblies
 90
        0
280
     0
281
     0
  0
CLASS
  1
AMCONTEXTMGR
  2
AcAmContextMgr
  3
DesignerAssemblies
 90
        0
280
     0
281
     0
  0
CLASS
  1
ACAMCONTEXTMODELER
  2
AcAmContextModeler
  3
DesignerAssemblies
 90
        0
280
     0
281
     0
  0
CLASS
  1
ACMTHREADLINESTANDARDDIN
  2
AmdtThreadLineStdDIN
  3
"Amdt_StdImp|Product Description: AutoCAD Mechanical 2004 DX|Company: Autodesk"
 90
        0
280
     0
281
     0
  0
CLASS
  1
ACMNOTESTANDARDDIN
  2
AmdtNoteStdDIN
  3
"Amdt_StdImp|Product Description: AutoCAD Mechanical 2004 DX|Company: Autodesk"
 90
        0
280
     0
281
     0
  0
CLASS
  1
AMDTNOTETEMPLATEDB
  2
AmdtNoteTemplateDB
  3
AMDT_STDIMP_MODULE_NAME
 90
        0
280
     0
281
     0
  0
CLASS
  1
ACMTHREADLINESTANDARDANSI
  2
AmdtThreadLineStdANSI
  3
"Amdt_StdImp|Product Description: AutoCAD Mechanical 2004 DX|Company: Autodesk"
 90
    32768
280
     0
281
     0
  0
CLASS
  1
ACMNOTESTANDARDANSI
  2
AmdtNoteStdANSI
  3
"Amdt_StdImp|Product Description: AutoCAD Mechanical 2004 DX|Company: Autodesk"
 90
    32768
280
     0
281
     0
  0
CLASS
  1
CATALOGSTATE
  2
AcAmCatalogState
  3
DesignerAssemblies
 90
        0
280
     0
281
     0
  0
CLASS
  1
ACAMGRCOMPDEFSET
  2
AcAmGrCompDefSet
  3
DesignerAssemblies
 90
        0
280
     0
281
     0
  0
CLASS
  1
AMDTBROWSERDBTAB
  2
AmdtBrowserDbTab
  3
McadcomServices
 90
        0
280
     0
281
     0
  0
CLASS
  1
CBROWSERAPPOBJECT
  2
CBrowserAppObject
  3
McadcomServices
 90
        0
280
     0
281
     0
  0
CLASS
  1
DM_PLACEHOLDER
  2
AcDmSelsetPlaceholder
  3
AcMechDwgViewMgmt
 90
        0
280
     0
281
     0
  0
CLASS
  1
EXACXREFPANELOBJECT
  2
ExAcXREFPanelObject
  3
EXAC_ESW
 90
    32768
280
     0
281
     0
  0
CLASS
  1
AMDTEDGESTANDARDDIN13715
  2
AmdtEdgeStdDIN13715
  3
"Amdt_StdImp|Product Description: AutoCAD Mechanical 2004 DX|Company: Autodesk"
 90
        0
280
     0
281
     0
  0
CLASS
  1
ACAMGHOLECHARTSTDDIN
  2
AcAmgHoleChartStdDIN
  3
ACMSYMBB_MODULE_NAME
 90
        0
280
     0
281
     0
  0
ENDSEC
  0
SECTION
  2
TABLES
  0
TABLE
  2
VPORT
  5
8
330
0
100
AcDbSymbolTable
 70
     4
  0
VPORT
  5
BE9
330
8
100
AcDbSymbolTableRecord
100
AcDbViewportTableRecord
  2
*Active
 70
     0
 10
0.0
 20
0.0
 11
1.0
 21
1.0
 12
222.1765146639391
 22
315.9658369763822
 13
0.0
 23
0.0
 14
5.0
 24
5.0
 15
20.0
 25
20.0
 16
0.0
 26
0.0
 36
1.0
 17
0.0
 27
0.0
 37
0.0
 40
513.9485163780257
 41
1.494545454545454
 42
50.0
 43
0.0
 44
0.0
 50
0.0
 51
0.0
 71
    16
 72
   100
 73
     1
 74
     3
 75
     0
 76
     0
 77
     0
 78
     0
281
     0
 65
     0
110
0.0
120
0.0
130
0.0
111
1.0
121
0.0
131
0.0
112
0.0
122
1.0
132
0.0
 79
     0
146
0.0
  0
ENDTAB
  0
TABLE
  2
LTYPE
  5
5
330
0
100
AcDbSymbolTable
 70
    32
  0
LTYPE
  5
14
330
5
100
AcDbSymbolTableRecord
100
AcDbLinetypeTableRecord
  2
ByBlock
 70
     0
  3

 72
    65
 73
     0
 40
0.0
  0
LTYPE
  5
15
330
5
100
AcDbSymbolTableRecord
100
AcDbLinetypeTableRecord
  2
ByLayer
 70
     0
  3

 72
    65
 73
     0
 40
0.0
  0
LTYPE
  5
16
330
5
100
AcDbSymbolTableRecord
100
AcDbLinetypeTableRecord
  2
Continuous
 70
     0
  3
Solid line
 72
    65
 73
     0
 40
0.0
  0
LTYPE
  5
52
330
5
100
AcDbSymbolTableRecord
100
AcDbLinetypeTableRecord
  2
Amconstr
 70
     0
  3
_______________________
 72
    65
 73
     2
 40
9999.0
 49
9999.0
 74
     0
 49
0.0
 74
     0
  0
LTYPE
  5
57
330
5
100
AcDbSymbolTableRecord
100
AcDbLinetypeTableRecord
  2
Amzigzag
 70
     0
  3
/\/-/\/-/\/-/\/-/\/-/\/
 72
    65
 73
     2
 40
11.0001
 49
0.0001
 74
     4
 75
   135
340
56
 46
0.04
 50
0.0
 44
0.0
 45
0.0
 49
-11.0
 74
     0
  0
LTYPE
  5
58
330
5
100
AcDbSymbolTableRecord
100
AcDbLinetypeTableRecord
  2
AM_DIN_F_W050
 70
     0
  3
__ __ __ __ __ __ __ __ __ __ __ __ __ __ __
 72
    65
 73
     2
 40
6.25
 49
4.75
 74
     0
 49
-1.5
 74
     0
  0
LTYPE
  5
59
330
5
100
AcDbSymbolTableRecord
100
AcDbLinetypeTableRecord
  2
AM_DIN_G_W050
 70
     0
  3
____ . ____ . ____ . ____ . ____ . ____ . ____
 72
    65
 73
     4
 40
13.75
 49
9.75
 74
     0
 49
-1.5
 74
     0
 49
1.0
 74
     0
 49
-1.5
 74
     0
  0
LTYPE
  5
5A
330
5
100
AcDbSymbolTableRecord
100
AcDbLinetypeTableRecord
  2
AM_DIN_K_W050
 70
     0
  3
_____ . . _____ . . _____ . . ____ .. ____
 72
    65
 73
     6
 40
16.25
 49
9.75
 74
     0
 49
-1.5
 74
     0
 49
1.0
 74
     0
 49
-1.5
 74
     0
 49
1.0
 74
     0
 49
-1.5
 74
     0
  0
LTYPE
  5
5B
330
5
100
AcDbSymbolTableRecord
100
AcDbLinetypeTableRecord
  2
AM_DIN_G_W050x2
 70
     0
  3
__ . __ . __ . __ . __ . __
 72
    65
 73
     4
 40
6.875
 49
4.75
 74
     0
 49
-0.875
 74
     0
 49
0.375
 74
     0
 49
-0.875
 74
     0
  0
LTYPE
  5
5C
330
5
100
AcDbSymbolTableRecord
100
AcDbLinetypeTableRecord
  2
AM_DIN_F_W050x2
 70
     0
  3
 _ _ _ _ _ _ _ _ _ _ _ _
 72
    65
 73
     2
 40
3.125
 49
2.25
 74
     0
 49
-0.875
 74
     0
  0
LTYPE
  5
69
330
5
100
AcDbSymbolTableRecord
100
AcDbLinetypeTableRecord
  2
ACDINWELD
 70
     0
  3
_ _ _ _ _
 72
    65
 73
     2
 40
2.0
 49
2.0
 74
     0
 49
-1.0
 74
     0
  0
LTYPE
  5
6A
330
5
100
AcDbSymbolTableRecord
100
AcDbLinetypeTableRecord
  2
ACDINTGB
 70
     0
  3
__ . . __ . .
 72
    65
 73
     6
 40
9.0
 49
4.0
 74
     0
 49
-1.0
 74
     0
 49
1.0
 74
     0
 49
-1.0
 74
     0
 49
1.0
 74
     0
 49
-1.0
 74
     0
  0
LTYPE
  5
6B
330
5
100
AcDbSymbolTableRecord
100
AcDbLinetypeTableRecord
  2
ACDINTGL
 70
     0
  3
_ _ _ _ _
 72
    65
 73
     2
 40
3.0
 49
2.0
 74
     0
 49
-1.0
 74
     0
  0
LTYPE
  5
6D
330
5
100
AcDbSymbolTableRecord
100
AcDbLinetypeTableRecord
  2
CENTER
 70
     0
  3
__ . __
 72
    65
 73
     4
 40
7.0
 49
4.0
 74
     0
 49
-1.0
 74
     0
 49
1.0
 74
     0
 49
-1.0
 74
     0
  0
LTYPE
  5
163
330
5
100
AcDbSymbolTableRecord
100
AcDbLinetypeTableRecord
  2
HIDDEN
 70
     0
  3
Hidden __ __ __ __ __ __ __ __ __ __ __ __ __ _
 72
    65
 73
     2
 40
0.375
 49
0.25
 74
     0
 49
-0.125
 74
     0
  0
LTYPE
  5
164
330
5
100
AcDbSymbolTableRecord
100
AcDbLinetypeTableRecord
  2
PHANTOM2
 70
     0
  3
Phantom (.5x) ___ _ _ ___ _ _ ___ _ _ ___ _ _
 72
    65
 73
     6
 40
1.25
 49
0.625
 74
     0
 49
-0.125
 74
     0
 49
0.125
 74
     0
 49
-0.125
 74
     0
 49
0.125
 74
     0
 49
-0.125
 74
     0
  0
ENDTAB
  0
TABLE
  2
LAYER
  5
2
102
{ACAD_XDICTIONARY
360
51E
102
}
330
0
100
AcDbSymbolTable
 70
    20
  0
LAYER
  5
10
330
2
100
AcDbSymbolTableRecord
100
AcDbLayerTableRecord
  2
0
 70
     0
 62
     7
  6
Continuous
370
    -3
390
F
  0
LAYER
  5
C0
330
2
100
AcDbSymbolTableRecord
100
AcDbLayerTableRecord
  2
AM_7
 70
     0
 62
     4
  6
AM_DIN_G_W050
370
    25
390
F
  0
LAYER
  5
FD
330
2
100
AcDbSymbolTableRecord
100
AcDbLayerTableRecord
  2
AM_8
 70
     0
 62
     1
  6
Continuous
370
    25
390
F
  0
LAYER
  5
427
330
2
100
AcDbSymbolTableRecord
100
AcDbLayerTableRecord
  2
AM_5
 70
     0
 62
     3
  6
Continuous
370
    25
390
F
  0
LAYER
  5
437
330
2
100
AcDbSymbolTableRecord
100
AcDbLayerTableRecord
  2
Defpoints
 70
     0
 62
     7
  6
Continuous
290
     0
370
    -3
390
F
  0
ENDTAB
  0
TABLE
  2
STYLE
  5
3
330
0
100
AcDbSymbolTable
 70
    15
  0
STYLE
  5
11
330
3
100
AcDbSymbolTableRecord
100
AcDbTextStyleTableRecord
  2
STANDARD
 70
     0
 40
0.0
 41
1.0
 50
0.0
 71
     0
 42
2.5
  3
ISOCP.SHX
  4

  0
STYLE
  5
56
330
3
100
AcDbSymbolTableRecord
100
AcDbTextStyleTableRecord
  2

 70
     1
 40
0.0
 41
1.0
 50
0.0
 71
     0
 42
2.5
  3
ltypeshp.shx
  4

  0
STYLE
  5
5D
330
3
100
AcDbSymbolTableRecord
100
AcDbTextStyleTableRecord
  2
ACDINTS
 70
     0
 40
1.0
 41
1.0
 50
0.0
 71
     0
 42
2.5
  3
isocp.shx
  4

  0
STYLE
  5
68
330
3
100
AcDbSymbolTableRecord
100
AcDbTextStyleTableRecord
  2
ACDINGDT
 70
     0
 40
0.0
 41
1.0
 50
0.0
 71
     0
 42
2.5
  3
AMGDT
  4

  0
ENDTAB
  0
TABLE
  2
VIEW
  5
6
330
0
100
AcDbSymbolTable
 70
     6
  0
VIEW
  5
3E9
330
6
100
AcDbSymbolTableRecord
100
AcDbViewTableRecord
  2
AM_VIEW1
 70
     0
 40
297.0
 10
245.9059322033898
 20
445.5
 41
491.8118644067796
 11
0.0
 21
0.0
 31
1.0
 12
0.0
 22
0.0
 32
0.0
 42
50.0
 43
0.0
 44
0.0
 50
0.0
 71
    16
281
     0
 72
     0
  0
VIEW
  5
3EA
330
6
100
AcDbSymbolTableRecord
100
AcDbViewTableRecord
  2
AM_VIEW2
 70
     0
 40
297.0
 10
174.0940677966102
 20
445.5
 41
491.8118644067796
 11
0.0
 21
0.0
 31
1.0
 12
0.0
 22
0.0
 32
0.0
 42
50.0
 43
0.0
 44
0.0
 50
0.0
 71
    16
281
     0
 72
     0
  0
VIEW
  5
3EB
330
6
100
AcDbSymbolTableRecord
100
AcDbViewTableRecord
  2
AM_VIEW3
 70
     0
 40
297.0
 10
245.9059322033898
 20
148.5
 41
491.8118644067796
 11
0.0
 21
0.0
 31
1.0
 12
0.0
 22
0.0
 32
0.0
 42
50.0
 43
0.0
 44
0.0
 50
0.0
 71
    16
281
     0
 72
     0
  0
VIEW
  5
3EC
330
6
100
AcDbSymbolTableRecord
100
AcDbViewTableRecord
  2
AM_VIEW4
 70
     0
 40
297.0
 10
174.0940677966102
 20
148.5
 41
491.8118644067796
 11
0.0
 21
0.0
 31
1.0
 12
0.0
 22
0.0
 32
0.0
 42
50.0
 43
0.0
 44
0.0
 50
0.0
 71
    16
281
     0
 72
     0
  0
VIEW
  5
3ED
330
6
100
AcDbSymbolTableRecord
100
AcDbViewTableRecord
  2
AM_VIEW5
 70
     0
 40
297.0
 10
210.0
 20
297.0
 41
491.8118644067797
 11
0.0
 21
0.0
 31
1.0
 12
0.0
 22
0.0
 32
0.0
 42
50.0
 43
0.0
 44
0.0
 50
0.0
 71
    16
281
     0
 72
     0
  0
VIEW
  5
3EE
330
6
100
AcDbSymbolTableRecord
100
AcDbViewTableRecord
  2
AM_VIEW6
 70
     0
 40
593.9940599999999
 10
210.0
 20
297.0
 41
983.613892576271
 11
0.0
 21
0.0
 31
1.0
 12
0.0
 22
0.0
 32
0.0
 42
50.0
 43
0.0
 44
0.0
 50
0.0
 71
    16
281
     0
 72
     0
  0
ENDTAB
  0
TABLE
  2
UCS
  5
7
330
0
100
AcDbSymbolTable
 70
     0
  0
ENDTAB
  0
TABLE
  2
APPID
  5
9
330
0
100
AcDbSymbolTable
 70
    35
  0
APPID
  5
12
330
9
100
AcDbSymbolTableRecord
100
AcDbRegAppTableRecord
  2
ACAD
 70
     0
  0
APPID
  5
30
330
9
100
AcDbSymbolTableRecord
100
AcDbRegAppTableRecord
  2
MCAD_NO_VIS
 70
     0
  0
APPID
  5
31
330
9
100
AcDbSymbolTableRecord
100
AcDbRegAppTableRecord
  2
ACAD_TEMP_GRAPHIC
 70
     0
  0
APPID
  5
44
330
9
100
AcDbSymbolTableRecord
100
AcDbRegAppTableRecord
  2
ACATTRIBSERVICES
 70
     0
  0
APPID
  5
C2
330
9
100
AcDbSymbolTableRecord
100
AcDbRegAppTableRecord
  2
GENIUS_GENOBJ-N-CEN_13
 70
     0
  0
APPID
  5
C3
330
9
100
AcDbSymbolTableRecord
100
AcDbRegAppTableRecord
  2
GENIUS_GENODEF_13
 70
     0
  0
APPID
  5
FE
330
9
100
AcDbSymbolTableRecord
100
AcDbRegAppTableRecord
  2
GENIUS_GENOBJ-N-HTC_13
 70
     0
  0
APPID
  5
FF
330
9
100
AcDbSymbolTableRecord
100
AcDbRegAppTableRecord
  2
GENIUS_GENHATCH_13
 70
     0
  0
APPID
  5
122
330
9
100
AcDbSymbolTableRecord
100
AcDbRegAppTableRecord
  2
GENIUS_GENBLLY_14
 70
     0
  0
APPID
  5
123
330
9
100
AcDbSymbolTableRecord
100
AcDbRegAppTableRecord
  2
GENIUS_GENCFG_13
 70
     0
  0
APPID
  5
124
330
9
100
AcDbSymbolTableRecord
100
AcDbRegAppTableRecord
  2
GENIUS_GENCFG0_13
 70
     0
  0
APPID
  5
125
330
9
100
AcDbSymbolTableRecord
100
AcDbRegAppTableRecord
  2
GENIUS_GENCFG1_13
 70
     0
  0
APPID
  5
126
330
9
100
AcDbSymbolTableRecord
100
AcDbRegAppTableRecord
  2
GENIUS_GENCFG2_13
 70
     0
  0
APPID
  5
127
330
9
100
AcDbSymbolTableRecord
100
AcDbRegAppTableRecord
  2
GENIUS_GENCFG3_13
 70
     0
  0
APPID
  5
128
330
9
100
AcDbSymbolTableRecord
100
AcDbRegAppTableRecord
  2
GENIUS_GENCFG4_13
 70
     0
  0
APPID
  5
129
330
9
100
AcDbSymbolTableRecord
100
AcDbRegAppTableRecord
  2
GENIUS_VERSION2
 70
     0
  0
APPID
  5
12A
330
9
100
AcDbSymbolTableRecord
100
AcDbRegAppTableRecord
  2
GENIUS_GENREC_14
 70
     0
  0
APPID
  5
12B
330
9
100
AcDbSymbolTableRecord
100
AcDbRegAppTableRecord
  2
GENIUS_GENOBJ-N-REC_13
 70
     0
  0
APPID
  5
12C
330
9
100
AcDbSymbolTableRecord
100
AcDbRegAppTableRecord
  2
GENIUS_GENOENT_13
 70
     0
  0
APPID
  5
12D
330
9
100
AcDbSymbolTableRecord
100
AcDbRegAppTableRecord
  2
GENIUS_GENCFG5_13
 70
     0
  0
APPID
  5
12E
330
9
100
AcDbSymbolTableRecord
100
AcDbRegAppTableRecord
  2
GENIUS_GEVCFG0_13
 70
     0
  0
APPID
  5
3C1
330
9
100
AcDbSymbolTableRecord
100
AcDbRegAppTableRecord
  2
GENIUS_GENTRA_14
 70
     0
  0
APPID
  5
3E5
330
9
100
AcDbSymbolTableRecord
100
AcDbRegAppTableRecord
  2
GENIUS_GENOBJ-N-TIT_13
 70
     0
  0
APPID
  5
3E6
330
9
100
AcDbSymbolTableRecord
100
AcDbRegAppTableRecord
  2
GENIUS_GENOLIS_13
 70
     0
  0
APPID
  5
3E7
330
9
100
AcDbSymbolTableRecord
100
AcDbRegAppTableRecord
  2
GENIUS_GENTITLE_13
 70
     0
  0
APPID
  5
3E8
330
9
100
AcDbSymbolTableRecord
100
AcDbRegAppTableRecord
  2
GENIUS_GENOREF_13
 70
     0
  0
APPID
  5
3EF
330
9
100
AcDbSymbolTableRecord
100
AcDbRegAppTableRecord
  2
GENIUS_GENSCREG_15
 70
     0
  0
APPID
  5
3F0
330
9
100
AcDbSymbolTableRecord
100
AcDbRegAppTableRecord
  2
GENIUS_GENOBJ-N-SDF_13
 70
     0
  0
APPID
  5
A57
330
9
100
AcDbSymbolTableRecord
100
AcDbRegAppTableRecord
  2
GENIUS_AMGTXT_16
 70
     0
  0
APPID
  5
AAC
330
9
100
AcDbSymbolTableRecord
100
AcDbRegAppTableRecord
  2
AD_DRAW
 70
     0
  0
APPID
  5
ACA
330
9
100
AcDbSymbolTableRecord
100
AcDbRegAppTableRecord
  2
DESIGNERASSEMBLIES
 70
     0
  0
APPID
  5
AD4
330
9
100
AcDbSymbolTableRecord
100
AcDbRegAppTableRecord
  2
ACAD_DSTYLE_DIMARC_LENGTH_SYMBOL
 70
     0
  0
APPID
  5
AD5
330
9
100
AcDbSymbolTableRecord
100
AcDbRegAppTableRecord
  2
ACAD_DSTYLE_DIMJOGGED_JOGANGLE_SYMBOL
 70
     0
  0
APPID
  5
AF9
330
9
100
AcDbSymbolTableRecord
100
AcDbRegAppTableRecord
  2
ACADM_DIM_EDIT
 70
     0
  0
APPID
  5
AFA
330
9
100
AcDbSymbolTableRecord
100
AcDbRegAppTableRecord
  2
AMDT_DM_ADJ
 70
     0
  0
ENDTAB
  0
TABLE
  2
DIMSTYLE
  5
A
330
0
100
AcDbSymbolTable
 70
    16
100
AcDbDimStyleTable
 71
     1
340
70
  0
DIMSTYLE
105
70
102
{ACAD_REACTORS
330
45B
330
48E
330
436
102
}
330
A
100
AcDbSymbolTableRecord
100
AcDbDimStyleTableRecord
  2
AM_DIN
 70
     0
  4
"
 41
2.5
 42
1.0
 43
10.0
 44
1.0
 47
0.1
 48
0.1
 73
     0
 74
     0
 77
     1
 78
     8
 79
     2
140
3.5
141
0.0
143
0.0393701
146
0.71
147
1.5
172
     1
176
   256
177
   256
178
     2
271
     2
272
     3
274
     4
283
     0
284
     8
340
11
371
    -1
372
    -1
1001
ACAD_DSTYLE_DIMARC_LENGTH_SYMBOL
1070
   379
1070
     0
1001
ACAD_DSTYLE_DIMJOGGED_JOGANGLE_SYMBOL
1070
   384
1040
1.570796326794896
  0
DIMSTYLE
105
71
330
A
100
AcDbSymbolTableRecord
100
AcDbDimStyleTableRecord
  2
AM_DIN$3
 70
     0
  4
"
 41
2.5
 42
1.0
 43
10.0
 44
1.0
 47
0.1
 48
0.1
 73
     0
 77
     1
 78
     8
 79
     2
140
3.5
141
0.0
143
0.0393701
146
0.71
147
1.5
176
   256
177
   256
178
     2
271
     2
272
     3
274
     4
283
     0
284
     8
288
     1
289
     0
340
11
371
    -1
372
    -1
1001
ACAD_DSTYLE_DIMARC_LENGTH_SYMBOL
1070
   379
1070
     0
1001
ACAD_DSTYLE_DIMJOGGED_JOGANGLE_SYMBOL
1070
   384
1040
1.570796326794896
  0
DIMSTYLE
105
72
330
A
100
AcDbSymbolTableRecord
100
AcDbDimStyleTableRecord
  2
AM_DIN$4
 70
     0
  4
"
 41
2.5
 42
1.0
 43
10.0
 44
1.0
 47
0.1
 48
0.1
 73
     0
 77
     1
 78
     8
 79
     2
140
3.5
141
0.0
143
0.0393701
146
0.71
147
1.5
176
   256
177
   256
178
     2
271
     2
272
     3
274
     4
283
     0
284
     8
288
     1
289
     0
340
11
371
    -1
372
    -1
1001
ACAD_DSTYLE_DIMARC_LENGTH_SYMBOL
1070
   379
1070
     0
1001
ACAD_DSTYLE_DIMJOGGED_JOGANGLE_SYMBOL
1070
   384
1040
1.570796326794896
  0
DIMSTYLE
105
73
330
A
100
AcDbSymbolTableRecord
100
AcDbDimStyleTableRecord
  2
AM_DIN$6
 70
     0
  4
"
 41
2.5
 42
1.0
 43
10.0
 44
1.0
 47
0.1
 48
0.1
 73
     0
 74
     0
 78
     8
 79
     2
140
3.5
141
0.0
143
0.0393701
146
0.71
147
1.5
172
     1
176
   256
177
   256
178
     2
271
     2
272
     3
274
     4
283
     0
284
     8
340
11
371
    -1
372
    -1
1001
ACAD_DSTYLE_DIMARC_LENGTH_SYMBOL
1070
   379
1070
     0
1001
ACAD_DSTYLE_DIMJOGGED_JOGANGLE_SYMBOL
1070
   384
1040
1.570796326794896
  0
DIMSTYLE
105
74
330
A
100
AcDbSymbolTableRecord
100
AcDbDimStyleTableRecord
  2
AM_DIN$7
 70
     0
  4
"
 41
2.5
 42
1.0
 43
10.0
 44
1.0
 47
0.1
 48
0.1
 73
     0
 74
     0
 77
     1
 78
     8
 79
     2
140
5.0
141
0.0
143
0.0393701
146
0.71
147
1.5
172
     1
176
   256
177
   256
178
     2
271
     2
272
     3
274
     4
283
     0
284
     8
340
11
371
    -1
372
    -1
1001
ACAD_DSTYLE_DIMARC_LENGTH_SYMBOL
1070
   379
1070
     0
1001
ACAD_DSTYLE_DIMJOGGED_JOGANGLE_SYMBOL
1070
   384
1040
1.570796326794896
  0
DIMSTYLE
105
75
330
A
100
AcDbSymbolTableRecord
100
AcDbDimStyleTableRecord
  2
AM_DIN$SF
 70
     0
  4
"
 41
2.5
 42
1.0
 43
10.0
 44
1.0
 47
0.1
 48
0.1
 73
     0
 74
     0
 75
     1
 76
     1
 77
     1
 78
     8
 79
     2
140
3.5
141
0.0
143
0.0393701
146
0.71
147
1.5
172
     1
176
   256
177
   256
178
     2
271
     2
272
     3
274
     4
283
     0
284
     8
340
11
371
    -1
372
    -1
1001
ACAD_DSTYLE_DIMARC_LENGTH_SYMBOL
1070
   379
1070
     0
1001
ACAD_DSTYLE_DIMJOGGED_JOGANGLE_SYMBOL
1070
   384
1040
1.570796326794896
  0
DIMSTYLE
105
7A
330
A
100
AcDbSymbolTableRecord
100
AcDbDimStyleTableRecord
  2
AM_DIN$SH
 70
     0
  4
"
 41
2.5
 42
1.0
 43
10.0
 44
1.0
 47
0.1
 48
0.1
 73
     0
 74
     0
 75
     1
 76
     1
 77
     1
 78
     8
 79
     2
140
3.5
141
0.0
143
0.0393701
144
2.0
146
0.71
147
1.5
172
     1
173
     1
176
   256
177
   256
178
     2
271
     2
272
     3
274
     4
283
     0
284
     8
340
11
343
76
371
    -1
372
    -1
1001
ACAD_DSTYLE_DIMARC_LENGTH_SYMBOL
1070
   379
1070
     0
1001
ACAD_DSTYLE_DIMJOGGED_JOGANGLE_SYMBOL
1070
   384
1040
1.570796326794896
  0
DIMSTYLE
105
179
330
A
100
AcDbSymbolTableRecord
100
AcDbDimStyleTableRecord
  2
STANDARD
 70
     0
340
11
  0
ENDTAB
  0
TABLE
  2
BLOCK_RECORD
  5
1
330
0
100
AcDbSymbolTable
 70
    11
  0
BLOCK_RECORD
  5
1F
102
{ACAD_XDICTIONARY
360
81
102
}
330
1
100
AcDbSymbolTableRecord
100
AcDbBlockTableRecord
  2
*Model_Space
340
22
  0
BLOCK_RECORD
  5
1B
330
1
100
AcDbSymbolTableRecord
100
AcDbBlockTableRecord
  2
*Paper_Space
340
1E
  0
BLOCK_RECORD
  5
23
330
1
100
AcDbSymbolTableRecord
100
AcDbBlockTableRecord
  2
*Paper_Space0
340
26
  0
BLOCK_RECORD
  5
76
330
1
100
AcDbSymbolTableRecord
100
AcDbBlockTableRecord
  2
GENAXEH
340
0
  0
BLOCK_RECORD
  5
438
330
1
100
AcDbSymbolTableRecord
100
AcDbBlockTableRecord
  2
*D5
340
0
  0
BLOCK_RECORD
  5
45C
330
1
100
AcDbSymbolTableRecord
100
AcDbBlockTableRecord
  2
*D6
340
0
  0
BLOCK_RECORD
  5
48F
330
1
100
AcDbSymbolTableRecord
100
AcDbBlockTableRecord
  2
*D7
340
0
  0
ENDTAB
  0
ENDSEC
  0
SECTION
  2
BLOCKS
  0
BLOCK
  5
20
330
1F
100
AcDbEntity
  8
0
100
AcDbBlockBegin
  2
*Model_Space
 70
     0
 10
0.0
 20
0.0
 30
0.0
  3
*Model_Space
  1

  0
ENDBLK
  5
21
330
1F
100
AcDbEntity
  8
0
100
AcDbBlockEnd
  0
BLOCK
  5
1C
330
1B
100
AcDbEntity
 67
     1
  8
0
100
AcDbBlockBegin
  2
*Paper_Space
 70
     0
 10
0.0
 20
0.0
 30
0.0
  3
*Paper_Space
  1

  0
ENDBLK
  5
1D
330
1B
100
AcDbEntity
 67
     1
  8
0
100
AcDbBlockEnd
  0
BLOCK
  5
24
330
23
100
AcDbEntity
 67
     1
  8
0
100
AcDbBlockBegin
  2
*Paper_Space0
 70
     0
 10
0.0
 20
0.0
 30
0.0
  3
*Paper_Space0
  1

  0
ENDBLK
  5
25
330
23
100
AcDbEntity
 67
     1
  8
0
100
AcDbBlockEnd
  0
BLOCK
  5
78
330
76
100
AcDbEntity
  8
0
100
AcDbBlockBegin
  2
GENAXEH
 70
     0
 10
0.0
 20
0.0
 30
0.0
  3
GENAXEH
  1

  0
LINE
  5
77
330
76
100
AcDbEntity
  8
0
100
AcDbLine
 10
-1.0
 20
0.0
 30
0.0
 11
1.0
 21
0.0
 31
0.0
  0
ENDBLK
  5
79
330
76
100
AcDbEntity
  8
0
100
AcDbBlockEnd
  0
BLOCK
  5
442
330
438
100
AcDbEntity
  8
0
100
AcDbBlockBegin
  2
*D5
 70
     1
 10
0.0
 20
0.0
 30
0.0
  3
*D5
  1

  0
LINE
  5
BDF
330
438
100
AcDbEntity
  8
AM_5
100
AcDbLine
 10
364.0092858488404
 20
490.7478778133848
 30
0.0
 11
388.0092858488404
 21
490.7478778133848
 31
0.0
  0
LINE
  5
BE0
330
438
100
AcDbEntity
  8
AM_5
100
AcDbLine
 10
364.0092858488404
 20
440.7478778133848
 30
0.0
 11
388.0092858488404
 21
440.7478778133848
 31
0.0
  0
LINE
  5
BE1
330
438
100
AcDbEntity
  8
AM_5
100
AcDbLine
 10
386.0092858488404
 20
476.7478778133847
 30
0.0
 11
386.0092858488404
 21
454.7478778133847
 31
0.0
  0
SOLID
  5
BE2
330
438
100
AcDbEntity
  8
AM_5
100
AcDbTrace
 10
383.6759525155071
 20
476.7478778133848
 30
0.0
 11
388.3426191821738
 21
476.7478778133847
 31
0.0
 12
386.0092858488404
 22
490.7478778133848
 32
0.0
 13
386.0092858488404
 23
490.7478778133848
 33
0.0
  0
SOLID
  5
BE3
330
438
100
AcDbEntity
  8
AM_5
100
AcDbTrace
 10
383.6759525155071
 20
454.7478778133848
 30
0.0
 11
388.3426191821738
 21
454.7478778133847
 31
0.0
 12
386.0092858488404
 22
440.7478778133848
 32
0.0
 13
386.0092858488404
 23
440.7478778133848
 33
0.0
  0
MTEXT
  5
BE4
330
438
100
AcDbEntity
  8
AM_5
 62
     2
100
AcDbMText
 10
373.0092858488404
 20
465.7478778133849
 30
0.0
 40
20.0
 41
0.0
 71
     5
 72
     1
  1
50
 11
0.0000000000000001
 21
1.0
 31
0.0
 73
     1
 44
1.0
1001
ACAD
1000
MTEXTBEGIN
1070
    73
1070
     1
1070
    44
1040
1.0
1070
    74
1070
     0
1000
MTEXTEND
  0
POINT
  5
BE5
330
438
100
AcDbEntity
  8
Defpoints
 62
     0
100
AcDbPoint
 10
362.0092858488404
 20
490.7478778133848
 30
0.0
  0
POINT
  5
BE6
330
438
100
AcDbEntity
  8
Defpoints
 62
     0
100
AcDbPoint
 10
362.0092858488404
 20
440.7478778133848
 30
0.0
  0
POINT
  5
BE7
330
438
100
AcDbEntity
  8
Defpoints
 62
     0
100
AcDbPoint
 10
386.0092858488404
 20
440.7478778133848
 30
0.0
  0
ENDBLK
  5
443
330
438
100
AcDbEntity
  8
0
100
AcDbBlockEnd
  0
BLOCK
  5
466
330
45C
100
AcDbEntity
  8
0
100
AcDbBlockBegin
  2
*D6
 70
     1
 10
0.0
 20
0.0
 30
0.0
  3
*D6
  1

  0
LINE
  5
BCD
330
45C
100
AcDbEntity
  8
AM_5
100
AcDbLine
 10
362.0092858488404
 20
492.7478778133848
 30
0.0
 11
362.0092858488404
 21
550.0460304781621
 31
0.0
  0
LINE
  5
BCE
330
45C
100
AcDbEntity
  8
AM_5
100
AcDbLine
 10
62.00928584884036
 20
492.7478778133848
 30
0.0
 11
62.00928584884037
 21
550.0460304781621
 31
0.0
  0
LINE
  5
BCF
330
45C
100
AcDbEntity
  8
AM_5
100
AcDbLine
 10
348.0092858488404
 20
548.0460304781622
 30
0.0
 11
76.00928584884036
 21
548.0460304781622
 31
0.0
  0
SOLID
  5
BD0
330
45C
100
AcDbEntity
  8
AM_5
100
AcDbTrace
 10
348.0092858488404
 20
550.3793638114955
 30
0.0
 11
348.0092858488404
 21
545.7126971448287
 31
0.0
 12
362.0092858488404
 22
548.0460304781622
 32
0.0
 13
362.0092858488404
 23
548.0460304781622
 33
0.0
  0
SOLID
  5
BD1
330
45C
100
AcDbEntity
  8
AM_5
100
AcDbTrace
 10
76.00928584884036
 20
550.3793638114955
 30
0.0
 11
76.00928584884036
 21
545.7126971448287
 31
0.0
 12
62.00928584884036
 22
548.0460304781622
 32
0.0
 13
62.00928584884036
 23
548.0460304781622
 33
0.0
  0
MTEXT
  5
BD2
330
45C
100
AcDbEntity
  8
AM_5
 62
     2
100
AcDbMText
 10
212.0092858488404
 20
561.0460304781621
 30
0.0
 40
20.0
 41
0.0
 71
     5
 72
     1
  1
{\Famgdt|c0;o}300
 73
     1
 44
1.0
1001
ACAD
1000
MTEXTBEGIN
1070
    73
1070
     1
1070
    44
1040
1.0
1070
    74
1070
     0
1000
MTEXTEND
  0
POINT
  5
BD3
330
45C
100
AcDbEntity
  8
Defpoints
 62
     0
100
AcDbPoint
 10
362.0092858488404
 20
490.7478778133848
 30
0.0
  0
POINT
  5
BD4
330
45C
100
AcDbEntity
  8
Defpoints
 62
     0
100
AcDbPoint
 10
62.00928584884036
 20
490.7478778133848
 30
0.0
  0
POINT
  5
BD5
330
45C
100
AcDbEntity
  8
Defpoints
 62
     0
100
AcDbPoint
 10
62.00928584884036
 20
548.0460304781622
 30
0.0
  0
ENDBLK
  5
467
330
45C
100
AcDbEntity
  8
0
100
AcDbBlockEnd
  0
BLOCK
  5
499
330
48F
100
AcDbEntity
  8
0
100
AcDbBlockBegin
  2
*D7
 70
     1
 10
0.0
 20
0.0
 30
0.0
  3
*D7
  1

  0
LINE
  5
BD6
330
48F
100
AcDbEntity
  8
AM_5
100
AcDbLine
 10
284.5092858488404
 20
492.7478778133848
 30
0.0
 11
284.5092858488404
 21
516.7478778133849
 31
0.0
  0
LINE
  5
BD7
330
48F
100
AcDbEntity
  8
AM_5
100
AcDbLine
 10
139.5092858488403
 20
492.7478778133848
 30
0.0
 11
139.5092858488403
 21
516.7478778133849
 31
0.0
  0
LINE
  5
BD8
330
48F
100
AcDbEntity
  8
AM_5
100
AcDbLine
 10
270.5092858488403
 20
514.747877813385
 30
0.0
 11
153.5092858488403
 21
514.747877813385
 31
0.0
  0
SOLID
  5
BD9
330
48F
100
AcDbEntity
  8
AM_5
100
AcDbTrace
 10
270.5092858488403
 20
517.0812111467183
 30
0.0
 11
270.5092858488403
 21
512.4145444800516
 31
0.0
 12
284.5092858488404
 22
514.747877813385
 32
0.0
 13
284.5092858488404
 23
514.747877813385
 33
0.0
  0
SOLID
  5
BDA
330
48F
100
AcDbEntity
  8
AM_5
100
AcDbTrace
 10
153.5092858488403
 20
517.0812111467183
 30
0.0
 11
153.5092858488403
 21
512.4145444800516
 31
0.0
 12
139.5092858488403
 22
514.747877813385
 32
0.0
 13
139.5092858488403
 23
514.747877813385
 33
0.0
  0
MTEXT
  5
BDB
330
48F
100
AcDbEntity
  8
AM_5
 62
     2
100
AcDbMText
 10
212.0092858488404
 20
527.747877813385
 30
0.0
 40
20.0
 41
0.0
 71
     5
 72
     1
  1
%%c145
 73
     1
 44
1.0
1001
ACAD
1000
MTEXTBEGIN
1070
    73
1070
     1
1070
    44
1040
1.0
1070
    74
1070
     0
1000
MTEXTEND
  0
POINT
  5
BDC
330
48F
100
AcDbEntity
  8
Defpoints
 62
     0
100
AcDbPoint
 10
284.5092858488404
 20
490.7478778133848
 30
0.0
  0
POINT
  5
BDD
330
48F
100
AcDbEntity
  8
Defpoints
 62
     0
100
AcDbPoint
 10
139.5092858488403
 20
490.7478778133848
 30
0.0
  0
POINT
  5
BDE
330
48F
100
AcDbEntity
  8
Defpoints
 62
     0
100
AcDbPoint
 10
139.5092858488403
 20
514.747877813385
 30
0.0
  0
ENDBLK
  5
49A
330
48F
100
AcDbEntity
  8
0
100
AcDbBlockEnd
  0
ENDSEC
  0
SECTION
  2
ENTITIES
  0
LINE
  5
B0
330
1F
100
AcDbEntity
  8
0
100
AcDbLine
 10
62.00928584884036
 20
363.8452159490854
 30
0.0
 11
362.0092858488404
 21
363.8452159490854
 31
0.0
  0
LINE
  5
B1
330
1F
100
AcDbEntity
  8
0
100
AcDbLine
 10
62.00928584884036
 20
363.8452159490854
 30
0.0
 11
62.00928584884036
 21
213.8452159490854
 31
0.0
  0
LINE
  5
B2
330
1F
100
AcDbEntity
  8
0
100
AcDbLine
 10
362.0092858488404
 20
363.8452159490854
 30
0.0
 11
362.0092858488404
 21
213.8452159490854
 31
0.0
  0
LINE
  5
C1
330
1F
100
AcDbEntity
  8
AM_7
100
AcDbLine
 10
212.0092858488404
 20
366.8452159490854
 30
0.0
 11
212.0092858488404
 21
213.8452159490854
 31
0.0
1001
GENIUS_GENOBJ-N-CEN_13
1002
{
1000
OWNER
1000
GEN
1002
}
1001
GENIUS_GENODEF_13
1002
{
1000
HIER
1070
     0
1002
}
1002
{
1000
MANEDIT
1070
     0
1002
}
1002
{
1000
NOSEL
1070
     0
1002
}
1002
{
1000
BEHIND
1070
     0
1002
}
1002
{
1000
OTHER
1070
     0
1002
}
1002
{
1000
REACTOR
1002
}
  0
ARC
  5
D9
330
1F
100
AcDbEntity
  8
0
100
AcDbCircle
 10
212.0092858488404
 20
213.8452159490854
 30
0.0
 40
72.5
100
AcDbArc
 50
0.0
 51
180.0
  0
LINE
  5
DA
330
1F
100
AcDbEntity
  8
0
100
AcDbLine
 10
62.00928584884036
 20
440.7478778133848
 30
0.0
 11
62.00928584884036
 21
490.7478778133848
 31
0.0
  0
LINE
  5
DB
330
1F
100
AcDbEntity
  8
0
100
AcDbLine
 10
362.0092858488404
 20
440.7478778133848
 30
0.0
 11
362.0092858488404
 21
490.7478778133848
 31
0.0
  0
LINE
  5
DC
330
1F
100
AcDbEntity
  8
0
100
AcDbLine
 10
62.00928584884036
 20
440.7478778133848
 30
0.0
 11
362.0092858488404
 21
440.7478778133848
 31
0.0
  0
LINE
  5
DD
330
1F
100
AcDbEntity
  8
0
100
AcDbLine
 10
62.00928584884036
 20
490.7478778133848
 30
0.0
 11
362.0092858488404
 21
490.7478778133848
 31
0.0
  0
LINE
  5
EA
330
1F
100
AcDbEntity
  8
AM_7
100
AcDbLine
 10
212.0092858488404
 20
493.7478778133848
 30
0.0
 11
212.0092858488404
 21
437.7478778133848
 31
0.0
1001
GENIUS_GENOBJ-N-CEN_13
1002
{
1000
OWNER
1000
GEN
1002
}
1001
GENIUS_GENODEF_13
1002
{
1000
HIER
1070
     0
1002
}
1002
{
1000
MANEDIT
1070
     0
1002
}
1002
{
1000
NOSEL
1070
     0
1002
}
1002
{
1000
BEHIND
1070
     0
1002
}
1002
{
1000
OTHER
1070
     0
1002
}
1002
{
1000
REACTOR
1002
}
  0
LINE
  5
EB
330
1F
100
AcDbEntity
  8
0
100
AcDbLine
 10
284.5092858488404
 20
490.747877813385
 30
0.0
 11
284.5092858488403
 21
440.7478778133848
 31
0.0
1001
GENIUS_GENOBJ-N-CEN_13
1002
{
1000
OWNER
1000
GEN
1002
}
1001
GENIUS_GENODEF_13
1002
{
1000
HIER
1070
     0
1002
}
1002
{
1000
MANEDIT
1070
     0
1002
}
1002
{
1000
NOSEL
1070
     0
1002
}
1002
{
1000
BEHIND
1070
     0
1002
}
1002
{
1000
OTHER
1070
     0
1002
}
1002
{
1000
REACTOR
1002
}
  0
LINE
  5
EC
330
1F
100
AcDbEntity
  8
0
100
AcDbLine
 10
139.5092858488403
 20
490.7478778133848
 30
0.0
 11
139.5092858488403
 21
440.7478778133848
 31
0.0
1001
GENIUS_GENOBJ-N-CEN_13
1002
{
1000
OWNER
1000
GEN
1002
}
1001
GENIUS_GENODEF_13
1002
{
1000
HIER
1070
     0
1002
}
1002
{
1000
MANEDIT
1070
     0
1002
}
1002
{
1000
NOSEL
1070
     0
1002
}
1002
{
1000
BEHIND
1070
     0
1002
}
1002
{
1000
OTHER
1070
     0
1002
}
1002
{
1000
REACTOR
1002
}
  0
HATCH
  5
10D
330
1F
100
AcDbEntity
  8
AM_8
100
AcDbHatch
 10
0.0
 20
0.0
 30
0.0
210
0.0
220
0.0
230
1.0
  2
_U
 70
     0
 71
     0
 91
        1
 92
        1
 93
        4
 72
     1
 10
362.0092858488404
 20
490.7478778133848
 11
284.5092858488404
 21
490.7478778133848
 72
     1
 10
284.5092858488404
 20
490.7478778133848
 11
284.5092858488403
 21
440.7478778133848
 72
     1
 10
284.5092858488403
 20
440.7478778133848
 11
362.0092858488404
 21
440.7478778133848
 72
     1
 10
362.0092858488404
 20
440.7478778133848
 11
362.0092858488404
 21
490.7478778133848
 97
        0
 75
     0
 76
     0
 52
45.0
 41
5.0
 77
     0
 78
     1
 53
45.0
 43
-32.43978313322215
 44
170.5467702173828
 45
-3.535533905932736
 46
3.535533905932736
 79
     0
 98
        1
 10
-32.43978313322215
 20
170.5467702173828
1001
GENIUS_GENOBJ-N-HTC_13
1002
{
1000
OWNER
1000
GEN
1002
}
1001
GENIUS_GENODEF_13
1002
{
1000
HIER
1070
     0
1002
}
1002
{
1000
MANEDIT
1070
     0
1002
}
1002
{
1000
NOSEL
1070
     0
1002
}
1002
{
1000
BEHIND
1070
     0
1002
}
1002
{
1000
OTHER
1070
     0
1002
}
1002
{
1000
REACTOR
1002
}
1001
GENIUS_GENHATCH_13
1002
{
1000
DATA
1040
45.0
1042
2.5
1000
_U
1070
     0
1011
329.5416022753752
1021
463.9826475788912
1031
0.0
1002
}
1002
{
1000
UCS
1010
0.0
1020
0.0
1030
0.0
1010
1.0
1020
0.0
1030
0.0
1010
0.0
1020
1.0
1030
0.0
1002
}
  0
HATCH
  5
116
330
1F
100
AcDbEntity
  8
AM_8
100
AcDbHatch
 10
0.0
 20
0.0
 30
0.0
210
0.0
220
0.0
230
1.0
  2
_U
 70
     0
 71
     0
 91
        1
 92
        1
 93
        4
 72
     1
 10
139.5092858488404
 20
440.7478778133848
 11
139.5092858488403
 21
490.7478778133848
 72
     1
 10
139.5092858488403
 20
490.7478778133848
 11
62.00928584884035
 21
490.7478778133848
 72
     1
 10
62.00928584884035
 20
490.7478778133848
 11
62.00928584884036
 21
440.7478778133848
 72
     1
 10
62.00928584884036
 20
440.7478778133848
 11
139.5092858488404
 21
440.7478778133848
 97
        0
 75
     0
 76
     0
 52
45.0
 41
5.0
 77
     0
 78
     1
 53
45.0
 43
-32.43978313322215
 44
170.5467702173828
 45
-3.535533905932736
 46
3.535533905932736
 79
     0
 98
        1
 10
-32.43978313322215
 20
170.5467702173828
1001
GENIUS_GENOBJ-N-HTC_13
1002
{
1000
OWNER
1000
GEN
1002
}
1001
GENIUS_GENODEF_13
1002
{
1000
HIER
1070
     0
1002
}
1002
{
1000
MANEDIT
1070
     0
1002
}
1002
{
1000
NOSEL
1070
     0
1002
}
1002
{
1000
BEHIND
1070
     0
1002
}
1002
{
1000
OTHER
1070
     0
1002
}
1002
{
1000
REACTOR
1002
}
1001
GENIUS_GENHATCH_13
1002
{
1000
DATA
1040
45.0
1042
5.0
1000
_U
1070
     0
1011
85.38644202932209
1021
465.5721656510583
1031
0.0
1002
}
1002
{
1000
UCS
1010
0.0
1020
0.0
1030
0.0
1010
1.0
1020
0.0
1030
0.0
1010
0.0
1020
1.0
1030
0.0
1002
}
  0
LINE
  5
412
330
1F
100
AcDbEntity
  8
AM_7
100
AcDbLine
 10
368.0092858488404
 20
213.8452159490854
 30
0.0
 11
56.00928584884036
 21
213.8452159490854
 31
0.0
1001
GENIUS_GENOBJ-N-CEN_13
1002
{
1000
OWNER
1000
GEN
1002
}
1001
GENIUS_GENODEF_13
1002
{
1000
HIER
1070
     0
1002
}
1002
{
1000
MANEDIT
1070
     0
1002
}
1002
{
1000
NOSEL
1070
     0
1002
}
1002
{
1000
BEHIND
1070
     0
1002
}
1002
{
1000
OTHER
1070
     0
1002
}
1002
{
1000
REACTOR
1002
}
  0
DIMENSION
  5
436
330
1F
100
AcDbEntity
  8
AM_5
100
AcDbDimension
  2
*D5
 10
386.0092858488404
 20
440.7478778133848
 30
0.0
 11
373.0092858488404
 21
465.7478778133849
 31
0.0
 70
    32
 71
     5
 42
50.0
  3
AM_DIN
100
AcDbAlignedDimension
 13
362.0092858488404
 23
490.7478778133848
 33
0.0
 14
362.0092858488404
 24
440.7478778133848
 34
0.0
 50
90.00000000000005
100
AcDbRotatedDimension
1001
ACAD
1000
DSTYLE
1002
{
1070
    40
1040
2.0
1070
    41
1040
7.0
1070
   140
1040
10.0
1002
}
  0
DIMENSION
  5
45B
330
1F
100
AcDbEntity
  8
AM_5
100
AcDbDimension
  2
*D6
 10
62.00928584884036
 20
548.0460304781622
 30
0.0
 11
212.0092858488404
 21
561.0460304781621
 31
0.0
 70
    32
  1
{\Famgdt;o}<>
 71
     5
 42
300.0
  3
AM_DIN
100
AcDbAlignedDimension
 13
362.0092858488404
 23
490.7478778133848
 33
0.0
 14
62.00928584884036
 24
490.7478778133848
 34
0.0
 50
0.0000000000000114
100
AcDbRotatedDimension
1001
ACAD
1000
DSTYLE
1002
{
1070
   140
1040
10.0
1070
    41
1040
7.0
1070
    40
1040
2.0
1002
}
  0
DIMENSION
  5
48E
330
1F
100
AcDbEntity
  8
AM_5
100
AcDbDimension
  2
*D7
 10
139.5092858488403
 20
514.747877813385
 30
0.0
 11
212.0092858488404
 21
527.747877813385
 31
0.0
 70
    32
  1
%%c<>
 71
     5
 42
145.0
  3
AM_DIN
100
AcDbAlignedDimension
 13
284.5092858488404
 23
490.7478778133848
 33
0.0
 14
139.5092858488403
 24
490.7478778133848
 34
0.0
 50
0.0000000000000114
100
AcDbRotatedDimension
1001
ACAD
1000
DSTYLE
1002
{
1070
    40
1040
2.0
1070
    41
1040
7.0
1070
   140
1040
10.0
1002
}
  0
LINE
  5
B00
330
1F
100
AcDbEntity
  8
0
100
AcDbLine
 10
62.00928584884036
 20
63.8452159490854
 30
0.0
 11
362.0092858488404
 21
63.8452159490854
 31
0.0
  0
LINE
  5
B01
330
1F
100
AcDbEntity
  8
0
100
AcDbLine
 10
62.00928584884036
 20
63.8452159490854
 30
0.0
 11
62.00928584884036
 21
213.8452159490854
 31
0.0
  0
LINE
  5
B02
330
1F
100
AcDbEntity
  8
0
100
AcDbLine
 10
362.0092858488404
 20
63.8452159490854
 30
0.0
 11
362.0092858488404
 21
213.8452159490854
 31
0.0
  0
LINE
  5
B03
330
1F
100
AcDbEntity
  8
AM_7
100
AcDbLine
 10
212.0092858488404
 20
60.8452159490854
 30
0.0
 11
212.0092858488404
 21
213.8452159490854
 31
0.0
1001
GENIUS_GENOBJ-N-CEN_13
1002
{
1000
OWNER
1000
GEN
1002
}
1001
GENIUS_GENODEF_13
1002
{
1000
HIER
1070
     0
1002
}
1002
{
1000
MANEDIT
1070
     0
1002
}
1002
{
1000
NOSEL
1070
     0
1002
}
1002
{
1000
BEHIND
1070
     0
1002
}
1002
{
1000
OTHER
1070
     0
1002
}
1002
{
1000
REACTOR
1002
}
  0
ARC
  5
B04
330
1F
100
AcDbEntity
  8
0
100
AcDbCircle
 10
212.0092858488404
 20
213.8452159490854
 30
0.0
 40
72.5
100
AcDbArc
 50
180.0
 51
0.0
  0
ENDSEC
  0
SECTION
  2
OBJECTS
  0
DICTIONARY
  5
C
330
0
100
AcDbDictionary
281
     1
  3
ACAD_COLOR
350
A72
  3
ACAD_GROUP
350
D
  3
ACAD_LAYOUT
350
1A
  3
ACAD_MATERIAL
350
A71
  3
ACAD_MLINESTYLE
350
17
  3
ACAD_PLOTSETTINGS
350
19
  3
ACAD_PLOTSTYLENAME
350
E
  3
ACAD_TABLESTYLE
350
A73
  3
ACDBHEADERROUNDTRIPXREC
350
BEB
  3
AcDbVariableDictionary
350
34
  3
AcmDictionary
350
47
  3
AMG
350
2B
  3
AMGSNAPSETTINGS
350
A9
  3
DWGPROPS
350
BEA
  0
DICTIONARY
  5
51E
330
2
100
AcDbDictionary
280
     1
281
     1
  3
ACAD_LAYERFILTERS
360
51F
  3
ACAD_LAYERSTATES
360
A58
  0
DICTIONARY
  5
81
330
1F
100
AcDbDictionary
280
     1
281
     1
  0
DICTIONARY
  5
A72
102
{ACAD_REACTORS
330
C
102
}
330
C
100
AcDbDictionary
281
     1
  0
DICTIONARY
  5
D
102
{ACAD_REACTORS
330
C
102
}
330
C
100
AcDbDictionary
281
     1
  0
DICTIONARY
  5
1A
102
{ACAD_REACTORS
330
C
102
}
330
C
100
AcDbDictionary
281
     1
  3
Layout1
350
1E
  3
Layout2
350
26
  3
Model
350
22
  0
DICTIONARY
  5
A71
102
{ACAD_REACTORS
330
C
102
}
330
C
100
AcDbDictionary
281
     1
  0
DICTIONARY
  5
17
102
{ACAD_REACTORS
330
C
102
}
330
C
100
AcDbDictionary
281
     1
  3
Standard
350
18
  0
DICTIONARY
  5
19
102
{ACAD_REACTORS
330
C
102
}
330
C
100
AcDbDictionary
281
     1
  0
ACDBDICTIONARYWDFLT
  5
E
102
{ACAD_REACTORS
330
C
102
}
330
C
100
AcDbDictionary
281
     1
  3
Normal
350
F
100
AcDbDictionaryWithDefault
340
F
  0
DICTIONARY
  5
A73
102
{ACAD_REACTORS
330
C
102
}
330
C
100
AcDbDictionary
281
     1
  3
Standard
350
A74
  0
DICTIONARY
  5
BEB
102
{ACAD_REACTORS
330
C
102
}
330
C
100
AcDbDictionary
281
     1
  0
DICTIONARY
  5
34
102
{ACAD_REACTORS
330
C
102
}
330
C
100
AcDbDictionary
281
     1
  3
CTABLESTYLE
350
B06
  3
DIMASSOC
350
B29
  3
INDEXCTL
350
35
  3
PROJECTNAME
350
B2A
  0
DICTIONARY
  5
47
102
{ACAD_REACTORS
330
C
102
}
330
C
100
AcDbDictionary
281
     1
  3
AcmStdDictionary
350
4C
  3
AMDTSECTSYM_ARROWCOLOR
350
AD3
  0
DICTIONARY
  5
2B
102
{ACAD_REACTORS
330
C
102
}
330
C
100
AcDbDictionary
281
     1
  0
DICTIONARY
  5
A9
102
{ACAD_REACTORS
330
C
102
}
330
C
100
AcDbDictionary
281
     1
  0
XRECORD
  5
BEA
102
{ACAD_REACTORS
330
C
102
}
330
C
100
AcDbXrecord
280
     1
  1
DWGPROPS COOKIE
  2

  3

  4

  6

  7

  8

  9

300
AmdtFileType=84
301
=
302
=
303
=
304
=
305
=
306
=
307
=
308
=
309
=
 40
0.0599375694444445
 41
2452702.55750169
 42
2454019.920428646
  1

 90
        1
  0
DICTIONARY
  5
51F
102
{ACAD_REACTORS
330
51E
102
}
330
51E
100
AcDbDictionary
280
     1
281
     1
  3
$
360
520
  3
$$$
360
521
  3
(A)15
360
522
  3
-
360
523
  3
-COL-
360
524
  3
-CON-
360
525
  3
-FL_
360
526
  3
-FURN-TEX-
360
527
  3
-np
360
528
  3
-solid
360
529
  3
-ST_
360
52A
  3
-WAL-
360
52B
  3
0
360
52C
  3
00
360
52D
  3
000
360
52E
  3
003T
360
52F
  3
009
360
530
  3
00x
360
531
  3
01
360
532
  3
013
360
533
  3
018
360
534
  3
02
360
535
  3
025
360
536
  3
02planung
360
537
  3
032
360
538
  3
032G
360
539
  3
035
360
53A
  3
04
360
53B
  3
04x
360
53C
  3
05
360
53D
  3
050
360
53E
  3
05S
360
53F
  3
06
360
540
  3
070
360
541
  3
0l
360
542
  3
0sani
360
543
  3
0TEMP
360
544
  3
1
360
545
  3
1 GA
360
546
  3
1.og
360
547
  3
10
360
548
  3
100
360
549
  3
100TEXT
360
54A
  3
1120
360
54B
  3
117
360
54C
  3
12
360
54D
  3
121
360
54E
  3
124
360
54F
  3
132
360
550
  3
1343
360
551
  3
14-6
360
552
  3
15
360
553
  3
150
360
554
  3
170
360
555
  3
1784frst$0$
360
556
  3
1GRID
360
557
  3
2
360
558
  3
2 SPACE PLAN
360
559
  3
20
360
55A
  3
200
360
55B
  3
200TEXT
360
55C
  3
201
360
55D
  3
21
360
55E
  3
210
360
55F
  3
210H
360
560
  3
212
360
561
  3
21A
360
562
  3
22
360
563
  3
220g
360
564
  3
22A
360
565
  3
231
360
566
  3
24
360
567
  3
24A
360
568
  3
25
360
569
  3
25's
360
56A
  3
250
360
56B
  3
26
360
56C
  3
27
360
56D
  3
27A
360
56E
  3
28
360
56F
  3
288SHT
360
570
  3
28A
360
571
  3
2B
360
572
  3
2D
360
573
  3
2DPLAN
360
574
  3
2K
360
575
  3
2kk
360
576
  3
2L
360
577
  3
2l-schraff
360
578
  3
2l_bem
360
579
  3
2S
360
57A
  3
3
360
57B
  3
3 CEILING
360
57C
  3
300
360
57D
  3
300-1
360
57E
  3
3000
360
57F
  3
31
360
580
  3
31A
360
581
  3
32
360
582
  3
32A
360
583
  3
33
360
584
  3
33A
360
585
  3
35
360
586
  3
38
360
587
  3
3845-000
360
588
  3
3D
360
589
  3
3D LAYERS
360
58A
  3
3d view
360
58B
  3
3d_buildc
360
58C
  3
3d_buildd
360
58D
  3
3d_builde
360
58E
  3
3d_buildf
360
58F
  3
3d_buildg
360
590
  3
3d_buildh
360
591
  3
4
360
592
  3
4 ELECTRIC
360
593
  3
40
360
594
  3
440
360
595
  3
443
360
596
  3
443ha
360
597
  3
5
360
598
  3
5 DEMO
360
599
  3
50
360
59A
  3
500
360
59B
  3
50text
360
59C
  3
6
360
59D
  3
6 LAYER 1
360
59E
  3
600
360
59F
  3
7
360
5A0
  3
7 LAYER 2
360
5A1
  3
70
360
5A2
  3
75
360
5A3
  3
767
360
5A4
  3
767SE13-0...$
360
5A5
  3
767SE13-07-99$0$
360
5A6
  3
8
360
5A7
  3
8711
360
5A8
  3
9
360
5A9
  3
90
360
5AA
  3
9651
360
5AB
  3
9C
360
5AC
  3
9G
360
5AD
  3
_all
360
5AE
  3
_Building 3
360
5AF
  3
_External Works
360
5B0
  3
_first
360
5B1
  3
_First Floor
360
5B2
  3
_ground
360
5B3
  3
_Ground Floor
360
5B4
  3
_Hatching
360
5B5
  3
_New
360
5B6
  3
_Removed
360
5B7
  3
_roof
360
5B8
  3
_Text
360
5B9
  3
_Without text
360
5BA
  3
A
360
5BB
  3
A layers
360
5BC
  3
A-
360
5BD
  3
a-1
360
5BE
  3
A-12101
360
5BF
  3
a-2
360
5C0
  3
a-3
360
5C1
  3
a-filter
360
5C2
  3
A-HI
360
5C3
  3
A-INDEX
360
5C4
  3
A-RA-BLOCK
360
5C5
  3
A-SECTION
360
5C6
  3
A-SECTION-FRAME
360
5C7
  3
a-uz
360
5C8
  3
A-VE
360
5C9
  3
A0-FRAME
360
5CA
  3
A00-R
360
5CB
  3
A000D
360
5CC
  3
A032G
360
5CD
  3
a1
360
5CE
  3
A1S1
360
5CF
  3
a2
360
5D0
  3
a2s1
360
5D1
  3
a2s2
360
5D2
  3
a2s3
360
5D3
  3
a3
360
5D4
  3
a321
360
5D5
  3
a3s1
360
5D6
  3
a3s2
360
5D7
  3
a4-solid
360
5D8
  3
a4s1
360
5D9
  3
a5-
360
5DA
  3
a5s1
360
5DB
  3
a5s2
360
5DC
  3
a5s3
360
5DD
  3
a5s4
360
5DE
  3
a6s1
360
5DF
  3
a6s2
360
5E0
  3
a6s3
360
5E1
  3
a7
360
5E2
  3
A_HIL
360
5E3
  3
AA-D
360
5E4
  3
AA_D
360
5E5
  3
aaa
360
5E6
  3
ab
360
5E7
  3
abghängte Decken
360
5E8
  3
ABOVE
360
5E9
  3
ACC
360
5EA
  3
Accesi
360
5EB
  3
achsen
360
5EC
  3
ACTIVE
360
5ED
  3
adja
360
5EE
  3
af
360
5EF
  3
afen
360
5F0
  3
AGRID
360
5F1
  3
aktuell
360
5F2
  3
aktuelle
360
5F3
  3
Aktueller Layer
360
5F4
  3
ALEV07
360
5F5
  3
ALL
360
5F6
  3
ALL FLOORS
360
5F7
  3
ALL FROZEN
360
5F8
  3
ALL OFF
360
5F9
  3
all on
360
5FA
  3
ALL THAWED
360
5FB
  3
ALL_ON
360
5FC
  3
Alle Wände
360
5FD
  3
alle_bgs
360
5FE
  3
alle_K
360
5FF
  3
Allgemein
360
600
  3
apd
360
601
  3
aplm
360
602
  3
APPLICATION
360
603
  3
ar1
360
604
  3
ARBE
360
605
  3
Arch
360
606
  3
ARCH_1ST
360
607
  3
ARCH_2ND
360
608
  3
ARCH_3RD
360
609
  3
ARCH_BASEMENT
360
60A
  3
ARCH_GENERAL
360
60B
  3
ARCH_GROUND
360
60C
  3
ARCH_ROOF
360
60D
  3
ARCHDWG
360
60E
  3
Architecktur
360
60F
  3
Architektur
360
610
  3
AREA
360
611
  3
AREA1
360
612
  3
arr-hatch
360
613
  3
assembly
360
614
  3
ATRIUM50
360
615
  3
att
360
616
  3
Attivi
360
617
  3
ATTRIBUTES
360
618
  3
au
360
619
  3
AUDITORIA
360
61A
  3
aus
360
61B
  3
Auserdecke
360
61C
  3
Ausgeschaltet
360
61D
  3
Ausgeschaltete Layer
360
61E
  3
Außenanlagen
360
61F
  3
B
360
620
  3
B-03
360
621
  3
B2
360
622
  3
BACK BAR
360
623
  3
BACKBAR
360
624
  3
BALUSTRADE
360
625
  3
BANQ'S
360
626
  3
BAR
360
627
  3
bar-top
360
628
  3
BASE
360
629
  3
BASE PLATES
360
62A
  3
basement
360
62B
  3
baustrasse
360
62C
  3
bca
360
62D
  3
bca layers
360
62E
  3
BCHINN
360
62F
  3
bds
360
630
  3
Beam
360
631
  3
beleucht
360
632
  3
below
360
633
  3
BEM
360
634
  3
Bemassung
360
635
  3
BENCH
360
636
  3
beton
360
637
  3
BGF
360
638
  3
bin
360
639
  3
BKB
360
63A
  3
bl
360
63B
  3
BLANK
360
63C
  3
BLD
360
63D
  3
Bldg
360
63E
  3
BLOCCHI
360
63F
  3
BLUE
360
640
  3
board
360
641
  3
boarder
360
642
  3
bob
360
643
  3
Bodenbeläge
360
644
  3
BOLLARDS
360
645
  3
border
360
646
  3
BOUNARY
360
647
  3
bound
360
648
  3
boundary
360
649
  3
bridge
360
64A
  3
BT
360
64B
  3
buffet
360
64C
  3
BUILDERS WORK
360
64D
  3
BUILDERS-WORK
360
64E
  3
Building
360
64F
  3
bulkhead
360
650
  3
BV-LEASE
360
651
  3
bwp-pylon
360
652
  3
BWP_pylon
360
653
  3
C
360
654
  3
c-topo
360
655
  3
c100
360
656
  3
CADKON
360
657
  3
CAFM-Layer
360
658
  3
CANDADO-CONGELADO
360
659
  3
CANOPY
360
65A
  3
car
360
65B
  3
CARCYCLE
360
65C
  3
CATWALK
360
65D
  3
CAV
360
65E
  3
CEIL
360
65F
  3
CEILING
360
660
  3
CEILING LAYOUT
360
661
  3
CEILING PLAN
360
662
  3
CEILINGS XREF
360
663
  3
cen
360
664
  3
CENT
360
665
  3
CENTER
360
666
  3
cfp layers
360
667
  3
ch
360
668
  3
CHAIN
360
669
  3
checkouts
360
66A
  3
CINEMA
360
66B
  3
CLAD
360
66C
  3
cloud
360
66D
  3
cn
360
66E
  3
CO
360
66F
  3
CO1
360
670
  3
co2
360
671
  3
col
360
672
  3
cold beam
360
673
  3
COLOR
360
674
  3
COLOR 9
360
675
  3
COLOR5
360
676
  3
color95
360
677
  3
colour
360
678
  3
colour 7
360
679
  3
con
360
67A
  3
conc
360
67B
  3
CONC01
360
67C
  3
congelados no
360
67D
  3
Congelati
360
67E
  3
CONSERVITORY
360
67F
  3
CONSTRAINTS
360
680
  3
construction
360
681
  3
CONT
360
682
  3
conveyor
360
683
  3
coord
360
684
  3
COORDS
360
685
  3
cross
360
686
  3
CURRENT
360
687
  3
curtain
360
688
  3
curved walkway
360
689
  3
cut
360
68A
  3
cyan
360
68B
  3
cycl
360
68C
  3
CYCLE
360
68D
  3
D__
360
68E
  3
Dach
360
68F
  3
Dachbegrünung
360
690
  3
DATA
360
691
  3
Daten
360
692
  3
DAVE
360
693
  3
DD
360
694
  3
Decke
360
695
  3
Decken
360
696
  3
Deckenspiegel
360
697
  3
Decoration schedule
360
698
  3
DEF
360
699
  3
demo
360
69A
  3
demo items
360
69B
  3
DEMOLISHED
360
69C
  3
DEMOLITION
360
69D
  3
demolition work
360
69E
  3
demont
360
69F
  3
design
360
6A0
  3
Detail
360
6A1
  3
Detaillayer
360
6A2
  3
detref
360
6A3
  3
dgg
360
6A4
  3
DIM
360
6A5
  3
Dim only
360
6A6
  3
Dimensions
360
6A7
  3
DIMS
360
6A8
  3
DISEGNO
360
6A9
  3
DISPLAYED
360
6AA
  3
DOCK
360
6AB
  3
DOM
360
6AC
  3
DOMS
360
6AD
  3
DOOR
360
6AE
  3
DOOREF
360
6AF
  3
DOORREF
360
6B0
  3
DOORS
360
6B1
  3
DR-
360
6B2
  3
DRAIN
360
6B3
  3
DRAIN & LEV
360
6B4
  3
drainage
360
6B5
  3
drains
360
6B6
  3
DRAWING NO-XREF
360
6B7
  3
Drawing01
360
6B8
  3
DRUM
360
6B9
  3
DSD
360
6BA
  3
DT
360
6BB
  3
DUCT
360
6BC
  3
ducts
360
6BD
  3
Ductwork
360
6BE
  3
Durchbrüche
360
6BF
  3
E
360
6C0
  3
E-
360
6C1
  3
EASE
360
6C2
  3
EASEMENT
360
6C3
  3
EDI
360
6C4
  3
ein
360
6C5
  3
Eingesch
360
6C6
  3
el
360
6C7
  3
ELEC
360
6C8
  3
ELECTRICAL
360
6C9
  3
electrics
360
6CA
  3
elektro
360
6CB
  3
elev
360
6CC
  3
ELEVATION
360
6CD
  3
Elevation Layers
360
6CE
  3
ELEVATIONS
360
6CF
  3
embank
360
6D0
  3
encendidos si
360
6D1
  3
ENDSYM
360
6D2
  3
engineer
360
6D3
  3
entrance
360
6D4
  3
EQIP
360
6D5
  3
equip
360
6D6
  3
Equipment-Air
360
6D7
  3
Equipment-Barrel
360
6D8
  3
Equipment-Batter
360
6D9
  3
Equipment-Blanch
360
6DA
  3
Equipment-Boiler
360
6DB
  3
Equipment-Brine
360
6DC
  3
Equipment-Cutting
360
6DD
  3
Equipment-Defect
360
6DE
  3
Equipment-Dry
360
6DF
  3
Equipment-Freeze
360
6E0
  3
Equipment-Fryer
360
6E1
  3
Equipment-Oil Storage
360
6E2
  3
Equipment-Packaging
360
6E3
  3
Equipment-Pallet
360
6E4
  3
Equipment-Peel
360
6E5
  3
Equipment-Preheat
360
6E6
  3
Equipment-Raw
360
6E7
  3
Equipment-Refrigeration
360
6E8
  3
Equipment-Sapp
360
6E9
  3
Equipment-Starch
360
6EA
  3
Equipment-Trim
360
6EB
  3
Equipment-Water
360
6EC
  3
er
360
6ED
  3
escalator
360
6EE
  3
EUTILITY
360
6EF
  3
ex-storm
360
6F0
  3
exg imported
360
6F1
  3
EXISTING
360
6F2
  3
EXPANSION
360
6F3
  3
exstbldg
360
6F4
  3
EXT FIN
360
6F5
  3
Extension
360
6F6
  3
EXTERNALS
360
6F7
  3
F
360
6F8
  3
F PURCHASE
360
6F9
  3
F-LB-SECTION
360
6FA
  3
F-SECTION
360
6FB
  3
F-UB-SECTION
360
6FC
  3
Fach Ing
360
6FD
  3
Fachplaner
360
6FE
  3
fall
360
6FF
  3
Farbe
360
700
  3
Farbe55
360
701
  3
farben
360
702
  3
Fassade
360
703
  3
Fasssade
360
704
  3
fb-130
360
705
  3
FC_CLADDING
360
706
  3
FEATURE
360
707
  3
FENCE
360
708
  3
fenster
360
709
  3
FFL
360
70A
  3
FIEGE
360
70B
  3
FILL
360
70C
  3
Fill Layer
360
70D
  3
FIll Layers
360
70E
  3
fills
360
70F
  3
FINISH
360
710
  3
FINISHES
360
711
  3
FINISHES PLAN
360
712
  3
FINISHES PLANS
360
713
  3
FIRE
360
714
  3
FIRE PLAN
360
715
  3
FIRST FLOOR
360
716
  3
FITTING
360
717
  3
fl
360
718
  3
flch
360
719
  3
fliesen
360
71A
  3
FLOOR
360
71B
  3
FLOOR PLAN
360
71C
  3
Floor Plans
360
71D
  3
Flow
360
71E
  3
Flächen nach DIN
360
71F
  3
Flächenberechnung
360
720
  3
Fonctions
360
721
  3
Fontions
360
722
  3
FOOT
360
723
  3
FOOTPATH
360
724
  3
footway
360
725
  3
FORT
360
726
  3
FOUL
360
727
  3
FOUNDATION
360
728
  3
FOUNDATION PLOT
360
729
  3
FOUNDATIONS
360
72A
  3
founds
360
72B
  3
Fozen Layers off
360
72C
  3
fp01
360
72D
  3
FR
360
72E
  3
frame
360
72F
  3
franklin ellis
360
730
  3
freeze
360
731
  3
FREEZE ALL
360
732
  3
freeze-off
360
733
  3
frier
360
734
  3
FROS CUR VPORT
360
735
  3
froz
360
736
  3
FROZ CUR VPORT
360
737
  3
FROZ IN CURENT
360
738
  3
frozen
360
739
  3
frozen in current vp
360
73A
  3
FROZEN-ACTIVE
360
73B
  3
FROZEN_CURRENTVP
360
73C
  3
FROZZED
360
73D
  3
ft
360
73E
  3
FURN
360
73F
  3
Furniture
360
740
  3
future
360
741
  3
fußboden
360
742
  3
fwmh
360
743
  3
G
360
744
  3
G80
360
745
  3
GA
360
746
  3
ga plan
360
747
  3
GAMCO
360
748
  3
GARAGE
360
749
  3
GAS
360
74A
  3
GC
360
74B
  3
GE
360
74C
  3
GEA
360
74D
  3
gefroren
360
74E
  3
Gefrorene Layer
360
74F
  3
gel
360
750
  3
GEN ARR
360
751
  3
GENERAL
360
752
  3
geplant
360
753
  3
geschnitte
360
754
  3
geschnitten
360
755
  3
gesperrt
360
756
  3
getaut
360
757
  3
GF
360
758
  3
GF OFF
360
759
  3
GIA
360
75A
  3
gipskarton
360
75B
  3
GLASS
360
75C
  3
GLASS RACK
360
75D
  3
glaz
360
75E
  3
go
360
75F
  3
GREEN
360
760
  3
GREET
360
761
  3
grey
360
762
  3
GRID
360
763
  3
GRID-1
360
764
  3
GRID-2
360
765
  3
grids
360
766
  3
gris
360
767
  3
gro
360
768
  3
GROUND FLOOR
360
769
  3
ground floor GA
360
76A
  3
Grundstück
360
76B
  3
gsa
360
76C
  3
GUL
360
76D
  3
GUTTER
360
76E
  3
H
360
76F
  3
h-
360
770
  3
h-db
360
771
  3
H-DB-DIVERSE
360
772
  3
H-DB-ELEKTRO
360
773
  3
H-DB-HEIZUNG
360
774
  3
H-DB-LUEFTUNG
360
775
  3
H-DB-SANITAER
360
776
  3
h-durchbrueche
360
777
  3
H-DURCHBRÜCHE
360
778
  3
HA
360
779
  3
HA-GENE-AR
360
77A
  3
HA5
360
77B
  3
HAIRDRESSER
360
77C
  3
HALLS
360
77D
  3
HAOU
360
77E
  3
HATCH
360
77F
  3
hatch-layers
360
780
  3
HATCH-SKY
360
781
  3
HATCH1
360
782
  3
HATCHES
360
783
  3
HATCHONLY
360
784
  3
Haustechnik
360
785
  3
HEATING
360
786
  3
heiz
360
787
  3
Heizung
360
788
  3
helaba
360
789
  3
HID
360
78A
  3
hidden
360
78B
  3
Hide
360
78C
  3
Hilfalayer
360
78D
  3
Hilfeschraff
360
78E
  3
Hilfslayer
360
78F
  3
hk
360
790
  3
hlb
360
791
  3
hlb-18
360
792
  3
HLK
360
793
  3
HOOD
360
794
  3
hotel
360
795
  3
HOUSE
360
796
  3
HTSV
360
797
  3
hz
360
798
  3
HZ-SYM
360
799
  3
hzg
360
79A
  3
Höhen
360
79B
  3
I
360
79C
  3
ICERINK
360
79D
  3
ID_P_T0-0
360
79E
  3
IMP
360
79F
  3
IMPIANTO
360
7A0
  3
INDICATE THICK LINE OF BULKHEAD
360
7A1
  3
infeed chute
360
7A2
  3
Innenausbau
360
7A3
  3
INS
360
7A4
  3
Insul
360
7A5
  3
Insulation
360
7A6
  3
IOTA
360
7A7
  3
IP
360
7A8
  3
IT
360
7A9
  3
J
360
7AA
  3
J-SECTION
360
7AB
  3
JACKS
360
7AC
  3
JBHGVHG
360
7AD
  3
jcs
360
7AE
  3
jen _
360
7AF
  3
jen_
360
7B0
  3
Jet
360
7B1
  3
JIOL[
360
7B2
  3
JOINERE SETTING OUT
360
7B3
  3
joint
360
7B4
  3
JRP
360
7B5
  3
JSO
360
7B6
  3
K
360
7B7
  3
K_
360
7B8
  3
K_m
360
7B9
  3
K_m_S
360
7BA
  3
K_S
360
7BB
  3
kalf
360
7BC
  3
Kanal
360
7BD
  3
keith
360
7BE
  3
keiths
360
7BF
  3
kek
360
7C0
  3
kelder1e2everd
360
7C1
  3
KER
360
7C2
  3
KERB
360
7C3
  3
Kerne
360
7C4
  3
KITCHEN
360
7C5
  3
KITCHEN PLAN
360
7C6
  3
KITCHEN SETTING OUT
360
7C7
  3
koelie
360
7C8
  3
Kälte
360
7C9
  3
Küche
360
7CA
  3
L
360
7CB
  3
l-bem
360
7CC
  3
L-SECTION
360
7CD
  3
L__
360
7CE
  3
L__3D
360
7CF
  3
L_be_texte
360
7D0
  3
L_texte
360
7D1
  3
labor
360
7D2
  3
LAND
360
7D3
  3
land sale
360
7D4
  3
Landcsape
360
7D5
  3
landscape
360
7D6
  3
landscape2
360
7D7
  3
landscapelayout
360
7D8
  3
layer 8
360
7D9
  3
layer-off
360
7DA
  3
layers on
360
7DB
  3
Layers that are ON
360
7DC
  3
LAYOFF
360
7DD
  3
layon
360
7DE
  3
LAYOUT
360
7DF
  3
laythaw
360
7E0
  3
lca
360
7E1
  3
LEASE
360
7E2
  3
LEDGE
360
7E3
  3
leer
360
7E4
  3
LEGAL
360
7E5
  3
legende
360
7E6
  3
leit-neu
360
7E7
  3
LEVEL
360
7E8
  3
Level 0
360
7E9
  3
level 1 piping
360
7EA
  3
Level 12
360
7EB
  3
level 2 piping
360
7EC
  3
LEVELS
360
7ED
  3
LGD
360
7EE
  3
LIBRARY
360
7EF
  3
licencing
360
7F0
  3
LID
360
7F1
  3
lift
360
7F2
  3
LIGHT
360
7F3
  3
LIGHTING
360
7F4
  3
LINES
360
7F5
  3
Linienpunkte
360
7F6
  3
lo1
360
7F7
  3
LOBBY
360
7F8
  3
LOBBY AND OFFICE
360
7F9
  3
lock
360
7FA
  3
Locked
360
7FB
  3
LOCKED-LAYERS
360
7FC
  3
LREF
360
7FD
  3
LS DETAIL
360
7FE
  3
Lscapephase1
360
7FF
  3
LTA
360
800
  3
lu
360
801
  3
lu-schraff
360
802
  3
luft
360
803
  3
luft-ab
360
804
  3
luft-alt
360
805
  3
luft-alt-text
360
806
  3
luft-au
360
807
  3
luft-bem
360
808
  3
luft-bsk
360
809
  3
luft-er
360
80A
  3
luft-fo
360
80B
  3
luft-g
360
80C
  3
luft-iso
360
80D
  3
Luft-Kan
360
80E
  3
luft-l
360
80F
  3
luft-sch
360
810
  3
luft-sch1
360
811
  3
luft-schraff
360
812
  3
luft-um
360
813
  3
luft-z1
360
814
  3
luft-z3
360
815
  3
luft-z4
360
816
  3
luft-zu0
360
817
  3
luft-zu1
360
818
  3
luft-zu2
360
819
  3
luft-zu3
360
81A
  3
luft-zu4
360
81B
  3
luftsch
360
81C
  3
LV LAYERS
360
81D
  3
LV1PIPING+EQUIPMENT
360
81E
  3
LV2 PIPING
360
81F
  3
lvl
360
820
  3
lüft
360
821
  3
Lüftung
360
822
  3
M
360
823
  3
M-
360
824
  3
M-SDUCT-DETAIL
360
825
  3
M-SECTION
360
826
  3
M-TF-SECTION
360
827
  3
m100
360
828
  3
m50
360
829
  3
magenta
360
82A
  3
magenta-bleu
360
82B
  3
Magneta
360
82C
  3
mark
360
82D
  3
Massen
360
82E
  3
Materialien Rohhoehen
360
82F
  3
Materialien_Belegung
360
830
  3
Materialien_Boden
360
831
  3
Materialien_Decke
360
832
  3
Materialien_Grafik
360
833
  3
Materialien_Lichte_Hoehe
360
834
  3
Materialien_Rohhoehe
360
835
  3
MATT
360
836
  3
MDM1
360
837
  3
me
360
838
  3
Mech.
360
839
  3
medien
360
83A
  3
MEMBRANE
360
83B
  3
MERCEOLOGICO
360
83C
  3
Metal
360
83D
  3
MEZZ
360
83E
  3
MFI
360
83F
  3
MH
360
840
  3
Miscellaneous
360
841
  3
MIT
360
842
  3
mixte
360
843
  3
MN EQUIP PIPING
360
844
  3
MN layers
360
845
  3
model
360
846
  3
Muennich
360
847
  3
MV-Off
360
848
  3
mvgregistreation
360
849
  3
MXAA
360
84A
  3
mz
360
84B
  3
N
360
84C
  3
NAS1NSITE
360
84D
  3
NBF_
360
84E
  3
neal
360
84F
  3
NECADKON
360
850
  3
nelf
360
851
  3
NERO
360
852
  3
net
360
853
  3
neu
360
854
  3
new
360
855
  3
NEW-STORM
360
856
  3
NO CANDADO NO CONGELADO
360
857
  3
NON XREF DEPENDANTS
360
858
  3
NonXref
360
859
  3
NORTH
360
85A
  3
Not required
360
85B
  3
not3d
360
85C
  3
note
360
85D
  3
NotXref
360
85E
  3
np-
360
85F
  3
np-arc
360
860
  3
nur neue Layer
360
861
  3
O
360
862
  3
off
360
863
  3
off layers
360
864
  3
off+thaw
360
865
  3
off_frozen
360
866
  3
OFFACTIVE
360
867
  3
OFFICE
360
868
  3
OFFS
360
869
  3
Offset
360
86A
  3
Ohne Xrefs
360
86B
  3
oi
360
86C
  3
OLD
360
86D
  3
on
360
86E
  3
on and thawed
360
86F
  3
onlayers
360
870
  3
OOPS
360
871
  3
op
360
872
  3
option 1
360
873
  3
option 2
360
874
  3
Option2
360
875
  3
ORIG
360
876
  3
OS Map
360
877
  3
ost
360
878
  3
OU
360
879
  3
ou-area
360
87A
  3
OUT
360
87B
  3
outl
360
87C
  3
OUTLINE
360
87D
  3
OUTSIDE
360
87E
  3
P
360
87F
  3
P1
360
880
  3
P2
360
881
  3
p2-LAYERS
360
882
  3
p2-san
360
883
  3
P2-STORM
360
884
  3
p2a4s1
360
885
  3
p2a5
360
886
  3
pa
360
887
  3
PAN
360
888
  3
parking
360
889
  3
PARTITION
360
88A
  3
PARTY
360
88B
  3
PATH
360
88C
  3
PB
360
88D
  3
pb-nv
360
88E
  3
PBA
360
88F
  3
people
360
890
  3
PF
360
891
  3
Pflanzplan
360
892
  3
PH
360
893
  3
PH-3-PROP_
360
894
  3
ph2
360
895
  3
PHAN
360
896
  3
PHASE
360
897
  3
phase 1
360
898
  3
Phase 2
360
899
  3
phase 3
360
89A
  3
phase 3 & 4
360
89B
  3
phase 4
360
89C
  3
PHIL
360
89D
  3
PILE CAP
360
89E
  3
PILE LAYOUT
360
89F
  3
PILE01
360
8A0
  3
PIN-Communikation
360
8A1
  3
PIN-Elektro
360
8A2
  3
pinze
360
8A3
  3
PIPE
360
8A4
  3
Pipework
360
8A5
  3
PIPING
360
8A6
  3
PIZZA
360
8A7
  3
pk 2d-plan
360
8A8
  3
pl
360
8A9
  3
PLAN
360
8AA
  3
plan1g-col
360
8AB
  3
plan1g-con
360
8AC
  3
plan1g-do
360
8AD
  3
plan1g-gri
360
8AE
  3
plan1g-wal
360
8AF
  3
plan1g-walls
360
8B0
  3
plan1g-win
360
8B1
  3
plan1gr-16-02
360
8B2
  3
plan2g-col
360
8B3
  3
plan2g-con
360
8B4
  3
plan2g-do
360
8B5
  3
plan2g-wal
360
8B6
  3
plan6g
360
8B7
  3
plan6g-16-02
360
8B8
  3
Planes
360
8B9
  3
PLANG4
360
8BA
  3
plans
360
8BB
  3
plant
360
8BC
  3
PLASTER
360
8BD
  3
PLBG
360
8BE
  3
pllayer
360
8BF
  3
PLOT
360
8C0
  3
Plumbing
360
8C1
  3
POINT
360
8C2
  3
polly
360
8C3
  3
Polylinien
360
8C4
  3
porch
360
8C5
  3
pos_txt
360
8C6
  3
POWER
360
8C7
  3
PPM
360
8C8
  3
PR
360
8C9
  3
PRD-Maschinentechnik
360
8CA
  3
presentation
360
8CB
  3
print
360
8CC
  3
Process Control
360
8CD
  3
Profil
360
8CE
  3
projekt
360
8CF
  3
PROP
360
8D0
  3
prop builders work
360
8D1
  3
prop-ph1-
360
8D2
  3
prop-ph2-
360
8D3
  3
proposed
360
8D4
  3
PU
360
8D5
  3
PWG-Architektur
360
8D6
  3
Queens Building
360
8D7
  3
R
360
8D8
  3
R__
360
8D9
  3
RACK
360
8DA
  3
ram_rithuvud
360
8DB
  3
RAMP
360
8DC
  3
Raumblock
360
8DD
  3
Raumblöcke
360
8DE
  3
RaumSchraffur
360
8DF
  3
RCCOUMNS
360
8E0
  3
RCP
360
8E1
  3
rdsmay
360
8E2
  3
Reale
360
8E3
  3
RED
360
8E4
  3
reds
360
8E5
  3
REF
360
8E6
  3
ref ceiling
360
8E7
  3
ref ceiling 1
360
8E8
  3
REFLECTED CEILING PLAN
360
8E9
  3
RELECTED CEILING PLAN 012
360
8EA
  3
relocated
360
8EB
  3
render
360
8EC
  3
REST
360
8ED
  3
restaurant
360
8EE
  3
rev
360
8EF
  3
REVISIONS
360
8F0
  3
RF
360
8F1
  3
RIDE
360
8F2
  3
RIPON
360
8F3
  3
rl_linie
360
8F4
  3
rl_schraf
360
8F5
  3
rlt
360
8F6
  3
RO
360
8F7
  3
ROAD
360
8F8
  3
ROADS
360
8F9
  3
rob
360
8FA
  3
Rohbau
360
8FB
  3
Rolton
360
8FC
  3
ronny
360
8FD
  3
ronny1
360
8FE
  3
ROOF
360
8FF
  3
ROOFLIGHT
360
900
  3
room
360
901
  3
rooms
360
902
  3
rouge
360
903
  3
rr
360
904
  3
rrb
360
905
  3
rsfl
360
906
  3
RSW-Aussenanlagen-Y
360
907
  3
RSW-Fluchtplan
360
908
  3
RSW-Kataster
360
909
  3
rtkl
360
90A
  3
rwo
360
90B
  3
RWP
360
90C
  3
s
360
90D
  3
S-H
360
90E
  3
S38-phase-2
360
90F
  3
S38-phase-3
360
910
  3
s_
360
911
  3
SALES
360
912
  3
san
360
913
  3
SANDSTONE
360
914
  3
sani
360
915
  3
Sanitaer
360
916
  3
sanitary
360
917
  3
sanitaryware
360
918
  3
Sanitär
360
919
  3
sansl'extension
360
91A
  3
sap-spi
360
91B
  3
scale200
360
91C
  3
sch
360
91D
  3
schacht
360
91E
  3
SCHEMATIC
360
91F
  3
schindler
360
920
  3
Schlitz- und Durchbrüche
360
921
  3
Schnitt
360
922
  3
schr-a
360
923
  3
schr-f
360
924
  3
schr-z
360
925
  3
schraff
360
926
  3
Schraffur
360
927
  3
Schraffuren
360
928
  3
screed plan
360
929
  3
Screw
360
92A
  3
sd
360
92B
  3
SD2-P
360
92C
  3
SD2-P(SCONGELATI)
360
92D
  3
SD228SMT
360
92E
  3
se
360
92F
  3
se-
360
930
  3
SE100
360
931
  3
search
360
932
  3
sec
360
933
  3
secl
360
934
  3
SECTION
360
935
  3
SECTIONS
360
936
  3
select all-on
360
937
  3
serv
360
938
  3
servery
360
939
  3
SERVIC
360
93A
  3
service
360
93B
  3
SERVICE PLAN
360
93C
  3
SERVICES
360
93D
  3
SET
360
93E
  3
setout
360
93F
  3
SETTING OUT
360
940
  3
SEWER
360
941
  3
SF
360
942
  3
sgp-
360
943
  3
sgppl6
360
944
  3
sgpstee
360
945
  3
SGPSTEEL
360
946
  3
sgpstub
360
947
  3
SGPSTUBS
360
948
  3
SHADE
360
949
  3
shadow
360
94A
  3
SHOPFRONT
360
94B
  3
Show All Layers On
360
94C
  3
Show All Layers Thawed
360
94D
  3
Show All Layers Unlocked
360
94E
  3
Show all non-Xref layers
360
94F
  3
show all not Xref dependent layers
360
950
  3
Show all visible layers
360
951
  3
Show Connections layers
360
952
  3
Show Controls layers
360
953
  3
SHOW NON-XREF LAYER
360
954
  3
Show not Xref dependent layers
360
955
  3
Show Thawed Layers
360
956
  3
Show Workspace layers
360
957
  3
sibou
360
958
  3
SIGN PLAN
360
959
  3
SIGNAGE
360
95A
  3
SIGNS
360
95B
  3
SITE
360
95C
  3
SITE ONLY
360
95D
  3
SK
360
95E
  3
sky
360
95F
  3
SLAB
360
960
  3
slabs
360
961
  3
slots
360
962
  3
Sni
360
963
  3
SOCO
360
964
  3
SOCO LAYERS
360
965
  3
softbase
360
966
  3
SOLID
360
967
  3
solid fills
360
968
  3
Solids
360
969
  3
SOSTEGNI
360
96A
  3
space planning
360
96B
  3
SPECIFICATIONS
360
96C
  3
SPI & SAP
360
96D
  3
spi-sap
360
96E
  3
SPIRAL
360
96F
  3
SPORTS-BAR
360
970
  3
SPOTLIGHTS
360
971
  3
SPRINKLER
360
972
  3
SSWR
360
973
  3
ST
360
974
  3
STAIR
360
975
  3
stair layer
360
976
  3
STAIRS
360
977
  3
Stand_layout
360
978
  3
STAT
360
979
  3
STEEL
360
97A
  3
stn
360
97B
  3
STONE
360
97C
  3
STORM
360
97D
  3
Strangbezeichnungen
360
97E
  3
STREET
360
97F
  3
STRUCT
360
980
  3
STRUCT-CONC
360
981
  3
struct-steel
360
982
  3
structural
360
983
  3
structure
360
984
  3
STUB
360
985
  3
Stuetzen
360
986
  3
Stützen
360
987
  3
su
360
988
  3
su-
360
989
  3
sub
360
98A
  3
Surface Bed
360
98B
  3
surv-
360
98C
  3
survey
360
98D
  3
survey-2
360
98E
  3
SVP
360
98F
  3
SWEET
360
990
  3
SYM
360
991
  3
SYMB
360
992
  3
symbols
360
993
  3
T-
360
994
  3
T1
360
995
  3
T500
360
996
  3
T_SAN
360
997
  3
ta
360
998
  3
TABS-Layers
360
999
  3
TAG
360
99A
  3
tags
360
99B
  3
TANK
360
99C
  3
TANKS
360
99D
  3
te
360
99E
  3
TEACH
360
99F
  3
TECHNIK
360
9A0
  3
Technikfläche
360
9A1
  3
TEMP
360
9A2
  3
Temporary Filter
360
9A3
  3
TENANT
360
9A4
  3
test
360
9A5
  3
test1
360
9A6
  3
TEXT
360
9A7
  3
TEXT-BEST
360
9A8
  3
TEXT-SA
360
9A9
  3
TEXT2
360
9AA
  3
Textblock
360
9AB
  3
Texte
360
9AC
  3
TexteRaum
360
9AD
  3
TEXTGREEN
360
9AE
  3
tf
360
9AF
  3
TGA
360
9B0
  3
th
360
9B1
  3
thaw
360
9B2
  3
thawed
360
9B3
  3
TILES
360
9B4
  3
TIMBER
360
9B5
  3
TITLE
360
9B6
  3
TITLES
360
9B7
  3
TJP
360
9B8
  3
tmp
360
9B9
  3
TO VIEW @ SCALE 1 TO 5
360
9BA
  3
TOILET
360
9BB
  3
toiture
360
9BC
  3
Totalité
360
9BD
  3
tote
360
9BE
  3
TP-TEXT
360
9BF
  3
TRACKS
360
9C0
  3
tramway
360
9C1
  3
TREE
360
9C2
  3
trees
360
9C3
  3
Treppe
360
9C4
  3
treppen
360
9C5
  3
TRIM
360
9C6
  3
try me
360
9C7
  3
TTFM
360
9C8
  3
TTFM g
360
9C9
  3
TUBE ASSY
360
9CA
  3
TWP
360
9CB
  3
tx
360
9CC
  3
TXT
360
9CD
  3
TYPE
360
9CE
  3
Türen
360
9CF
  3
u
360
9D0
  3
U1
360
9D1
  3
U2
360
9D2
  3
U3
360
9D3
  3
um
360
9D4
  3
UNFROZEN
360
9D5
  3
Unileitungen
360
9D6
  3
UNITA
360
9D7
  3
UNITB
360
9D8
  3
UNITC
360
9D9
  3
UNKN
360
9DA
  3
UNLOCKED
360
9DB
  3
upper
360
9DC
  3
UPPER GRD FLOOR
360
9DD
  3
UT
360
9DE
  3
UT+VZT
360
9DF
  3
UT+VZT+CH
360
9E0
  3
UT-CH
360
9E1
  3
UT-VZT
360
9E2
  3
UTIL
360
9E3
  3
V-ELECTRIC
360
9E4
  3
VDK
360
9E5
  3
VECHILES
360
9E6
  3
veg
360
9E7
  3
VEHICLES
360
9E8
  3
veneer off
360
9E9
  3
VENT
360
9EA
  3
ver
360
9EB
  3
Verbindungsgang
360
9EC
  3
verd
360
9ED
  3
verd3e
360
9EE
  3
VERDECKT
360
9EF
  3
verm
360
9F0
  3
vermas
360
9F1
  3
VIEW
360
9F2
  3
VIEWPORT
360
9F3
  3
VISI
360
9F4
  3
VP
360
9F5
  3
VP LAYERS
360
9F6
  3
VP-FREEZE
360
9F7
  3
VPORT
360
9F8
  3
VZT
360
9F9
  3
VZT+UT
360
9FA
  3
W
360
9FB
  3
WA_Aussp
360
9FC
  3
WA_oeff
360
9FD
  3
WADE
360
9FE
  3
Waende
360
9FF
  3
waiter
360
A00
  3
WALL
360
A01
  3
WALLS
360
A02
  3
walls-masonry
360
A03
  3
wand
360
A04
  3
WATER
360
A05
  3
WC
360
A06
  3
we
360
A07
  3
White
360
A08
  3
WHITE LINING
360
A09
  3
window
360
A0A
  3
WINDOWS
360
A0B
  3
WINEBIN
360
A0C
  3
winebins
360
A0D
  3
WINREF
360
A0E
  3
wolken
360
A0F
  3
Wände
360
A10
  3
X layers
360
A11
  3
x-refed
360
A12
  3
x-topo5
360
A13
  3
XA210G
360
A14
  3
XDEMO
360
A15
  3
XREF
360
A16
  3
xref-off
360
A17
  3
xrefs
360
A18
  3
Y
360
A19
  3
yellow
360
A1A
  3
z
360
A1B
  3
Z ON
360
A1C
  3
Z+P
360
A1D
  3
Z1
360
A1E
  3
Z1-B
360
A1F
  3
Z1-H
360
A20
  3
Z1-K
360
A21
  3
Z1-L
360
A22
  3
Z1-S
360
A23
  3
z4
360
A24
  3
z_wissen
360
A25
  3
Zapnuté
360
A26
  3
zone
360
A27
  3
zu1
360
A28
  3
zu3
360
A29
  3
zu4
360
A2A
  0
DICTIONARY
  5
A58
102
{ACAD_REACTORS
330
51E
102
}
330
51E
100
AcDbDictionary
281
     1
  0
LAYOUT
  5
1E
102
{ACAD_XDICTIONARY
360
BEC
102
}
102
{ACAD_REACTORS
330
1A
102
}
330
1A
100
AcDbPlotSettings
  1

  2
C:\Programme\Acadm 2000i\plotters\PH36.pc3
  4

  6

 40
0.0
 41
0.0
 42
0.0
 43
0.0
 44
0.0
 45
0.0
 46
0.0
 47
0.0
 48
0.0
 49
0.0
140
0.0
141
0.0
142
1.0
143
1.0
 70
   688
 72
     0
 73
     0
 74
     5
  7
monochrome.ctb
 75
    16
147
1.0
148
0.0
149
0.0
100
AcDbLayout
  1
Layout1
 70
     1
 71
     1
 10
0.0
 20
0.0
 11
420.0
 21
297.0
 12
0.0
 22
0.0
 32
0.0
 14
1.000000000000000E+20
 24
1.000000000000000E+20
 34
1.000000000000000E+20
 15
-1.000000000000000E+20
 25
-1.000000000000000E+20
 35
-1.000000000000000E+20
146
0.0
 13
0.0
 23
0.0
 33
0.0
 16
1.0
 26
0.0
 36
0.0
 17
0.0
 27
1.0
 37
0.0
 76
     0
330
1B
  0
LAYOUT
  5
26
102
{ACAD_XDICTIONARY
360
BF0
102
}
102
{ACAD_REACTORS
330
1A
102
}
330
1A
100
AcDbPlotSettings
  1

  2
C:\Programme\Acadm 2000i\plotters\PH36.pc3
  4

  6

 40
0.0
 41
0.0
 42
0.0
 43
0.0
 44
0.0
 45
0.0
 46
0.0
 47
0.0
 48
0.0
 49
0.0
140
0.0
141
0.0
142
1.0
143
1.0
 70
   688
 72
     0
 73
     0
 74
     5
  7
monochrome.ctb
 75
    16
147
1.0
148
0.0
149
0.0
100
AcDbLayout
  1
Layout2
 70
     1
 71
     2
 10
0.0
 20
0.0
 11
12.0
 21
9.0
 12
0.0
 22
0.0
 32
0.0
 14
0.0
 24
0.0
 34
0.0
 15
0.0
 25
0.0
 35
0.0
146
0.0
 13
0.0
 23
0.0
 33
0.0
 16
1.0
 26
0.0
 36
0.0
 17
0.0
 27
1.0
 37
0.0
 76
     0
330
23
  0
LAYOUT
  5
22
102
{ACAD_XDICTIONARY
360
BEE
102
}
102
{ACAD_REACTORS
330
1A
102
}
330
1A
100
AcDbPlotSettings
  1

  2
C:\Programme\Acadm 2000i\plotters\PH36.pc3
  4

  6

 40
0.0
 41
0.0
 42
0.0
 43
0.0
 44
0.0
 45
0.0
 46
0.0
 47
0.0
 48
0.0
 49
0.0
140
0.0
141
0.0
142
1.0
143
1.0
 70
  1712
 72
     0
 73
     0
 74
     0
  7
monochrome.ctb
 75
     0
147
1.0
148
0.0
149
0.0
100
AcDbLayout
  1
Model
 70
     1
 71
     0
 10
0.0
 20
0.0
 11
12.0
 21
9.0
 12
0.0
 22
0.0
 32
0.0
 14
0.0
 24
0.0
 34
0.0
 15
0.0
 25
0.0
 35
0.0
146
0.0
 13
0.0
 23
0.0
 33
0.0
 16
1.0
 26
0.0
 36
0.0
 17
0.0
 27
1.0
 37
0.0
 76
     0
330
1F
  0
MLINESTYLE
  5
18
102
{ACAD_REACTORS
330
17
102
}
330
17
100
AcDbMlineStyle
  2
STANDARD
 70
     0
  3

 62
   256
 51
90.0
 52
90.0
 71
     2
 49
0.5
 62
   256
  6
BYLAYER
 49
-0.5
 62
   256
  6
BYLAYER
  0
ACDBPLACEHOLDER
  5
F
102
{ACAD_REACTORS
330
E
102
}
330
E
  0
TABLESTYLE
  5
A74
102
{ACAD_REACTORS
330
A73
102
}
330
A73
100
AcDbTableStyle
  3
Standard
 70
     0
 71
     0
 40
1.5
 41
1.5
280
     0
281
     0
  7
STANDARD
140
4.5
170
     2
 62
     0
 63
     7
283
     0
274
    -2
284
     1
 64
     0
275
    -2
285
     1
 65
     0
276
    -2
286
     1
 66
     0
277
    -2
287
     1
 67
     0
278
    -2
288
     1
 68
     0
279
    -2
289
     1
 69
     0
  7
STANDARD
140
6.0
170
     5
 62
     0
 63
     7
283
     0
274
    -2
284
     1
 64
     0
275
    -2
285
     1
 65
     0
276
    -2
286
     1
 66
     0
277
    -2
287
     1
 67
     0
278
    -2
288
     1
 68
     0
279
    -2
289
     1
 69
     0
  7
STANDARD
140
4.5
170
     5
 62
     0
 63
     7
283
     0
274
    -2
284
     1
 64
     0
275
    -2
285
     1
 65
     0
276
    -2
286
     1
 66
     0
277
    -2
287
     1
 67
     0
278
    -2
288
     1
 68
     0
279
    -2
289
     1
 69
     0
  0
DICTIONARYVAR
  5
B06
102
{ACAD_REACTORS
330
34
102
}
330
34
100
DictionaryVariables
280
     0
  1
STANDARD
  0
DICTIONARYVAR
  5
B29
102
{ACAD_REACTORS
330
34
102
}
330
34
100
DictionaryVariables
280
     0
  1
1
  0
DICTIONARYVAR
  5
35
102
{ACAD_REACTORS
330
34
102
}
330
34
100
DictionaryVariables
280
     0
  1
0
  0
DICTIONARYVAR
  5
B2A
102
{ACAD_REACTORS
330
34
102
}
330
34
100
DictionaryVariables
280
     0
  1

  0
DICTIONARY
  5
4C
102
{ACAD_REACTORS
330
47
102
}
330
47
100
AcDbDictionary
281
     1
  0
XRECORD
  5
AD3
102
{ACAD_REACTORS
330
47
102
}
330
47
100
AcDbXrecord
280
     1
 90
-1023410169
  0
XRECORD
  5
520
102
{ACAD_REACTORS
330
51F
102
}
330
51F
100
AcDbXrecord
280
     1
  1
$
  1
*$*
  1
*
  1
*
 70
     0
  1
*
  1
*
  0
XRECORD
  5
521
102
{ACAD_REACTORS
330
51F
102
}
330
51F
100
AcDbXrecord
280
     1
  1
$$$
  1
###
  1
*
  1
*
 70
     0
  1
*
  1
*
  0
XRECORD
  5
522
102
{ACAD_REACTORS
330
51F
102
}
330
51F
100
AcDbXrecord
280
     1
  1
(A)15
  1
0,2txt,4txt,ar*,defpoints,gr*,rev,st*,tb*,vp
  1
*
  1
*
 70
     0
  1
*
  1
*
  0
XRECORD
  5
523
102
{ACAD_REACTORS
330
51F
102
}
330
51F
100
AcDbXrecord
280
     1
  1
-
  1
-*
  1
*
  1
*
 70
     0
  1
*
  1
*
  0
XRECORD
  5
524
102
{ACAD_REACTORS
330
51F
102
}
330
51F
100
AcDbXrecord
280
     1
  1
-COL-
  1
*COL*
  1
*
  1
*
 70
     0
  1
*
  1
*
  0
XRECORD
  5
525
102
{ACAD_REACTORS
330
51F
102
}
330
51F
100
AcDbXrecord
280
     1
  1
-CON-
  1
*CON*
  1
*
  1
*
 70
     0
  1
*
  1
*
  0
XRECORD
  5
526
102
{ACAD_REACTORS
330
51F
102
}
330
51F
100
AcDbXrecord
280
     1
  1
-FL_
  1
*-FL_*
  1
*
  1
*
 70
     0
  1
*
  1
*
  0
XRECORD
  5
527
102
{ACAD_REACTORS
330
51F
102
}
330
51F
100
AcDbXrecord
280
     1
  1
-FURN-TEX-
  1
*FURN*TEX*
  1
*
  1
*
 70
     0
  1
*
  1
*
  0
XRECORD
  5
528
102
{ACAD_REACTORS
330
51F
102
}
330
51F
100
AcDbXrecord
280
     1
  1
-np
  1
*-np*
  1
*
  1
*
 70
     0
  1
*
  1
*
  0
XRECORD
  5
529
102
{ACAD_REACTORS
330
51F
102
}
330
51F
100
AcDbXrecord
280
     1
  1
-solid
  1
*
  1
*
  1
*
 70
     0
  1
*
  1
*
  0
XRECORD
  5
52A
102
{ACAD_REACTORS
330
51F
102
}
330
51F
100
AcDbXrecord
280
     1
  1
-ST_
  1
*-ST*
  1
*
  1
*
 70
     0
  1
*
  1
*
  0
XRECORD
  5
52B
102
{ACAD_REACTORS
330
51F
102
}
330
51F
100
AcDbXrecord
280
     1
  1
-WAL-
  1
*WAL*
  1
*
  1
*
 70
     0
  1
*
  1
*
  0
XRECORD
  5
52C
102
{ACAD_REACTORS
330
51F
102
}
330
51F
100
AcDbXrecord
280
     1
  1
0
  1
*0
  1
*
  1
*
 70
     0
  1
*
  1
*
  0
XRECORD
  5
52D
102
{ACAD_REACTORS
330
51F
102
}
330
51F
100
AcDbXrecord
280
     1
  1
00
  1
*00*
  1
*
  1
*
 70
     0
  1
*
  1
*
  0
XRECORD
  5
52E
102
{ACAD_REACTORS
330
51F
102
}
330
51F
100
AcDbXrecord
280
     1
  1
000
  1
*000
  1
*
  1
*
 70
     0
  1
*
  1
*
  0
XRECORD
  5
52F
102
{ACAD_REACTORS
330
51F
102
}
330
51F
100
AcDbXrecord
280
     1
  1
003T
  1
*003T
  1
*
  1
*
 70
     0
  1
*
  1
*
  0
XRECORD
  5
530
102
{ACAD_REACTORS
330
51F
102
}
330
51F
100
AcDbXrecord
280
     1
  1
009
  1
*009
  1
*
  1
*
 70
     0
  1
*
  1
*
  0
XRECORD
  5
531
102
{ACAD_REACTORS
330
51F
102
}
330
51F
100
AcDbXrecord
280
     1
  1
00x
  1
00*
  1
*
  1
*
 70
     0
  1
*
  1
*
  0
XRECORD
  5
532
102
{ACAD_REACTORS
330
51F
102
}
330
51F
100
AcDbXrecord
280
     1
  1
01
  1
01*
  1
*
  1
*
 70
     0
  1
*
  1
*
  0
XRECORD
  5
533
102
{ACAD_REACTORS
330
51F
102
}
330
51F
100
AcDbXrecord
280
     1
  1
013
  1
*013
  1
*
  1
*
 70
     0
  1
*
  1
*
  0
XRECORD
  5
534
102
{ACAD_REACTORS
330
51F
102
}
330
51F
100
AcDbXrecord
280
     1
  1
018
  1
*018
  1
*
  1
*
 70
     0
  1
*
  1
*
  0
XRECORD
  5
535
102
{ACAD_REACTORS
330
51F
102
}
330
51F
100
AcDbXrecord
280
     1
  1
02
  1
02*
  1
*
  1
*
 70
     0
  1
*
  1
*
  0
XRECORD
  5
536
102
{ACAD_REACTORS
330
51F
102
}
330
51F
100
AcDbXrecord
280
     1
  1
025
  1
*025
  1
*
  1
*
 70
     0
  1
*
  1
*
  0
XRECORD
  5
537
102
{ACAD_REACTORS
330
51F
102
}
330
51F
100
AcDbXrecord
280
     1
  1
02planung
  1
02*
  1
*
  1
*
 70
     0
  1
*
  1
*
  0
XRECORD
  5
538
102
{ACAD_REACTORS
330
51F
102
}
330
51F
100
AcDbXrecord
280
     1
  1
032
  1
*032*
  1
*
  1
*
 70
     0
  1
*
  1
*
  0
XRECORD
  5
539
102
{ACAD_REACTORS
330
51F
102
}
330
51F
100
AcDbXrecord
280
     1
  1
032G
  1
*032G*
  1
*
  1
*
 70
     0
  1
*
  1
*
  0
XRECORD
  5
53A
102
{ACAD_REACTORS
330
51F
102
}
330
51F
100
AcDbXrecord
280
     1
  1
035
  1
*035
  1
*
  1
*
 70
     0
  1
*
  1
*
  0
XRECORD
  5
53B
102
{ACAD_REACTORS
330
51F
102
}
330
51F
100
AcDbXrecord
280
     1
  1
04
  1
04*
  1
*
  1
*
 70
     0
  1
*
  1
*
  0
XRECORD
  5
53C
102
{ACAD_REACTORS
330
51F
102
}
330
51F
100
AcDbXrecord
280
     1
  1
04x
  1
04*
  1
*
  1
*
 70
     0
  1
*
  1
*
  0
XRECORD
  5
53D
102
{ACAD_REACTORS
330
51F
102
}
330
51F
100
AcDbXrecord
280
     1
  1
05
  1
*_05s
  1
*
  1
*
 70
     0
  1
*
  1
*
  0
XRECORD
  5
53E
102
{ACAD_REACTORS
330
51F
102
}
330
51F
100
AcDbXrecord
280
     1
  1
050
  1
*050
  1
*
  1
*
 70
     0
  1
*
  1
*
  0
XRECORD
  5
53F
102
{ACAD_REACTORS
330
51F
102
}
330
51F
100
AcDbXrecord
280
     1
  1
05S
  1
*05S
  1
*
  1
*
 70
     0
  1
*
  1
*
  0
XRECORD
  5
540
102
{ACAD_REACTORS
330
51F
102
}
330
51F
100
AcDbXrecord
280
     1
  1
06
  1
06*
  1
*
  1
*
 70
     0
  1
*
  1
*
  0
XRECORD
  5
541
102
{ACAD_REACTORS
330
51F
102
}
330
51F
100
AcDbXrecord
280
     1
  1
070
  1
*070
  1
*
  1
*
 70
     0
  1
*
  1
*
  0
XRECORD
  5
542
102
{ACAD_REACTORS
330
51F
102
}
330
51F
100
AcDbXrecord
280
     1
  1
0l
  1
0l*, 0
  1
*
  1
*
 70
     0
  1
*
  1
*
  0
XRECORD
  5
543
102
{ACAD_REACTORS
330
51F
102
}
330
51F
100
AcDbXrecord
280
     1
  1
0sani
  1
0S*
  1
*
  1
*
 70
     0
  1
*
  1
*
  0
XRECORD
  5
544
102
{ACAD_REACTORS
330
51F
102
}
330
51F
100
AcDbXrecord
280
     1
  1
0TEMP
  1
0S*TX
  1
*
  1
*
 70
     0
  1
*
  1
*
  0
XRECORD
  5
545
102
{ACAD_REACTORS
330
51F
102
}
330
51F
100
AcDbXrecord
280
     1
  1
1
  1
*
  1
*
  1
*
 70
     0
  1
*
  1
*
  0
XRECORD
  5
546
102
{ACAD_REACTORS
330
51F
102
}
330
51F
100
AcDbXrecord
280
     1
  1
1 GA
  1
??????_G??????
  1
*
  1
*
 70
     0
  1
*
  1
*
  0
XRECORD
  5
547
102
{ACAD_REACTORS
330
51F
102
}
330
51F
100
AcDbXrecord
280
     1
  1
1.og
  1
hh502c*
  1
*
  1
*
 70
     0
  1
*
  1
*
  0
XRECORD
  5
548
102
{ACAD_REACTORS
330
51F
102
}
330
51F
100
AcDbXrecord
280
     1
  1
10
  1
*10
  1
*
  1
*
 70
     0
  1
*
  1
*
  0
XRECORD
  5
549
102
{ACAD_REACTORS
330
51F
102
}
330
51F
100
AcDbXrecord
280
     1
  1
100
  1
*100*
  1
*
  1
*
 70
     0
  1
*
  1
*
  0
XRECORD
  5
54A
102
{ACAD_REACTORS
330
51F
102
}
330
51F
100
AcDbXrecord
280
     1
  1
100TEXT
  1
*100
  1
*
  1
*
 70
     0
  1
*
  1
*
  0
XRECORD
  5
54B
102
{ACAD_REACTORS
330
51F
102
}
330
51F
100
AcDbXrecord
280
     1
  1
1120
  1
*
  1
*
  1
*
 70
     0
  1
*
  1
*
  0
XRECORD
  5
54C
102
{ACAD_REACTORS
330
51F
102
}
330
51F
100
AcDbXrecord
280
     1
  1
117
  1
*117*
  1
*
  1
*
 70
     0
  1
*
  1
*
  0
XRECORD
  5
54D
102
{ACAD_REACTORS
330
51F
102
}
330
51F
100
AcDbXrecord
280
     1
  1
12
  1
*OS*
  1
*
  1
*
 70
     0
  1
*
  1
*
  0
XRECORD
  5
54E
102
{ACAD_REACTORS
330
51F
102
}
330
51F
100
AcDbXrecord
280
     1
  1
121
  1
*
  1
*
  1
*
 70
    16
  1
*
  1
*
  0
XRECORD
  5
54F
102
{ACAD_REACTORS
330
51F
102
}
330
51F
100
AcDbXrecord
280
     1
  1
124
  1
*124*
  1
*
  1
*
 70
     0
  1
*
  1
*
  0
XRECORD
  5
550
102
{ACAD_REACTORS
330
51F
102
}
330
51F
100
AcDbXrecord
280
     1
  1
132
  1
*132*
  1
*
  1
*
 70
     0
  1
*
  1
*
  0
XRECORD
  5
551
102
{ACAD_REACTORS
330
51F
102
}
330
51F
100
AcDbXrecord
280
     1
  1
1343
  1
1343-*
  1
*
  1
*
 70
     0
  1
*
  1
*
  0
XRECORD
  5
552
102
{ACAD_REACTORS
330
51F
102
}
330
51F
100
AcDbXrecord
280
     1
  1
14-6
  1
*
  1
*
  1
*
 70
    20
  1
*
  1
*
  0
XRECORD
  5
553
102
{ACAD_REACTORS
330
51F
102
}
330
51F
100
AcDbXrecord
280
     1
  1
15
  1
x-topo|*,x-tree|*,x-util|*
  1
15
  1
*
 70
     0
  1
*
  1
*
  0
XRECORD
  5
554
102
{ACAD_REACTORS
330
51F
102
}
330
51F
100
AcDbXrecord
280
     1
  1
150
  1
*150*
  1
*
  1
*
 70
     0
  1
*
  1
*
  0
XRECORD
  5
555
102
{ACAD_REACTORS
330
51F
102
}
330
51F
100
AcDbXrecord
280
     1
  1
170
  1
*
  1
170
  1
*
 70
     0
  1
*
  1
*
  0
XRECORD
  5
556
102
{ACAD_REACTORS
330
51F
102
}
330
51F
100
AcDbXrecord
280
     1
  1
1784frst$0$
  1
1784frst$0$*
  1
*
  1
*
 70
     0
  1
*
  1
*
  0
XRECORD
  5
557
102
{ACAD_REACTORS
330
51F
102
}
330
51F
100
AcDbXrecord
280
     1
  1
1GRID
  1
*
  1
*
  1
*
 70
    16
  1
*
  1
*
  0
XRECORD
  5
558
102
{ACAD_REACTORS
330
51F
102
}
330
51F
100
AcDbXrecord
280
     1
  1
2
  1
*
  1
8
  1
*
 70
     0
  1
*
  1
*
  0
XRECORD
  5
559
102
{ACAD_REACTORS
330
51F
102
}
330
51F
100
AcDbXrecord
280
     1
  1
2 SPACE PLAN
  1
??????_?S?????
  1
*
  1
*
 70
     0
  1
*
  1
*
  0
XRECORD
  5
55A
102
{ACAD_REACTORS
330
51F
102
}
330
51F
100
AcDbXrecord
280
     1
  1
20
  1
*20*
  1
*
  1
*
 70
     0
  1
*
  1
*
  0
XRECORD
  5
55B
102
{ACAD_REACTORS
330
51F
102
}
330
51F
100
AcDbXrecord
280
     1
  1
200
  1
*
  1
*
  1
*
 70
    16
  1
*
  1
*
  0
XRECORD
  5
55C
102
{ACAD_REACTORS
330
51F
102
}
330
51F
100
AcDbXrecord
280
     1
  1
200TEXT
  1
*200
  1
*
  1
*
 70
     0
  1
*
  1
*
  0
XRECORD
  5
55D
102
{ACAD_REACTORS
330
51F
102
}
330
51F
100
AcDbXrecord
280
     1
  1
201
  1
*201*
  1
*
  1
*
 70
     0
  1
*
  1
*
  0
XRECORD
  5
55E
102
{ACAD_REACTORS
330
51F
102
}
330
51F
100
AcDbXrecord
280
     1
  1
21
  1
*21
  1
*
  1
*
 70
     0
  1
*
  1
*
  0
XRECORD
  5
55F
102
{ACAD_REACTORS
330
51F
102
}
330
51F
100
AcDbXrecord
280
     1
  1
210
  1
*
  1
210
  1
*
 70
     0
  1
*
  1
*
  0
XRECORD
  5
560
102
{ACAD_REACTORS
330
51F
102
}
330
51F
100
AcDbXrecord
280
     1
  1
210H
  1
*210H*
  1
*
  1
*
 70
     0
  1
*
  1
*
  0
XRECORD
  5
561
102
{ACAD_REACTORS
330
51F
102
}
330
51F
100
AcDbXrecord
280
     1
  1
212
  1
*
  1
212
  1
*
 70
     0
  1
*
  1
*
  0
XRECORD
  5
562
102
{ACAD_REACTORS
330
51F
102
}
330
51F
100
AcDbXrecord
280
     1
  1
21A
  1
*21A
  1
*
  1
*
 70
     0
  1
*
  1
*
  0
XRECORD
  5
563
102
{ACAD_REACTORS
330
51F
102
}
330
51F
100
AcDbXrecord
280
     1
  1
22
  1
*22
  1
*
  1
*
 70
     0
  1
*
  1
*
  0
XRECORD
  5
564
102
{ACAD_REACTORS
330
51F
102
}
330
51F
100
AcDbXrecord
280
     1
  1
220g
  1
*220*
  1
*
  1
*
 70
     0
  1
*
  1
*
  0
XRECORD
  5
565
102
{ACAD_REACTORS
330
51F
102
}
330
51F
100
AcDbXrecord
280
     1
  1
22A
  1
*22A
  1
*
  1
*
 70
     0
  1
*
  1
*
  0
XRECORD
  5
566
102
{ACAD_REACTORS
330
51F
102
}
330
51F
100
AcDbXrecord
280
     1
  1
231
  1
*
  1
231
  1
*
 70
  3072
  1
*
  1
*
  0
XRECORD
  5
567
102
{ACAD_REACTORS
330
51F
102
}
330
51F
100
AcDbXrecord
280
     1
  1
24
  1
*24
  1
*
  1
*
 70
     0
  1
*
  1
*
  0
XRECORD
  5
568
102
{ACAD_REACTORS
330
51F
102
}
330
51F
100
AcDbXrecord
280
     1
  1
24A
  1
*24A
  1
*
  1
*
 70
     0
  1
*
  1
*
  0
XRECORD
  5
569
102
{ACAD_REACTORS
330
51F
102
}
330
51F
100
AcDbXrecord
280
     1
  1
25
  1
*25*
  1
*
  1
*
 70
     0
  1
*
  1
*
  0
XRECORD
  5
56A
102
{ACAD_REACTORS
330
51F
102
}
330
51F
100
AcDbXrecord
280
     1
  1
25's
  1
*25*
  1
*
  1
*
 70
     0
  1
*
  1
*
  0
XRECORD
  5
56B
102
{ACAD_REACTORS
330
51F
102
}
330
51F
100
AcDbXrecord
280
     1
  1
250
  1
*250*
  1
*
  1
*
 70
     0
  1
*
  1
*
  0
XRECORD
  5
56C
102
{ACAD_REACTORS
330
51F
102
}
330
51F
100
AcDbXrecord
280
     1
  1
26
  1
*26*
  1
*
  1
*
 70
     0
  1
*
  1
*
  0
XRECORD
  5
56D
102
{ACAD_REACTORS
330
51F
102
}
330
51F
100
AcDbXrecord
280
     1
  1
27
  1
*27
  1
*
  1
*
 70
     0
  1
*
  1
*
  0
XRECORD
  5
56E
102
{ACAD_REACTORS
330
51F
102
}
330
51F
100
AcDbXrecord
280
     1
  1
27A
  1
*27A
  1
*
  1
*
 70
     0
  1
*
  1
*
  0
XRECORD
  5
56F
102
{ACAD_REACTORS
330
51F
102
}
330
51F
100
AcDbXrecord
280
     1
  1
28
  1
*28
  1
*
  1
*
 70
     0
  1
*
  1
*
  0
XRECORD
  5
570
102
{ACAD_REACTORS
330
51F
102
}
330
51F
100
AcDbXrecord
280
     1
  1
288SHT
  1
288SH*
  1
*
  1
*
 70
     0
  1
*
  1
*
  0
XRECORD
  5
571
102
{ACAD_REACTORS
330
51F
102
}
330
51F
100
AcDbXrecord
280
     1
  1
28A
  1
*28A
  1
*
  1
*
 70
     0
  1
*
  1
*
  0
XRECORD
  5
572
102
{ACAD_REACTORS
330
51F
102
}
330
51F
100
AcDbXrecord
280
     1
  1
2B
  1
2B*
  1
*
  1
*
 70
     0
  1
*
  1
*
  0
XRECORD
  5
573
102
{ACAD_REACTORS
330
51F
102
}
330
51F
100
AcDbXrecord
280
     1
  1
2D
  1
*2*
  1
*
  1
*
 70
     0
  1
*
  1
*
  0
XRECORD
  5
574
102
{ACAD_REACTORS
330
51F
102
}
330
51F
100
AcDbXrecord
280
     1
  1
2DPLAN
  1
2D*
  1
*
  1
*
 70
     0
  1
*
  1
*
  0
XRECORD
  5
575
102
{ACAD_REACTORS
330
51F
102
}
330
51F
100
AcDbXrecord
280
     1
  1
2K
  1
2K*
  1
grün
  1
*
 70
     0
  1
*
  1
*
  0
XRECORD
  5
576
102
{ACAD_REACTORS
330
51F
102
}
330
51F
100
AcDbXrecord
280
     1
  1
2kk
  1
*
  1
grün
  1
*
 70
     0
  1
*
  1
*
  0
XRECORD
  5
577
102
{ACAD_REACTORS
330
51F
102
}
330
51F
100
AcDbXrecord
280
     1
  1
2L
  1
2l*
  1
*
  1
*
 70
     0
  1
*
  1
*
  0
XRECORD
  5
578
102
{ACAD_REACTORS
330
51F
102
}
330
51F
100
AcDbXrecord
280
     1
  1
2l-schraff
  1
2ls*
  1
*
  1
*
 70
     0
  1
*
  1
*
  0
XRECORD
  5
579
102
{ACAD_REACTORS
330
51F
102
}
330
51F
100
AcDbXrecord
280
     1
  1
2l_bem
  1
2l_*bem
  1
*
  1
*
 70
     0
  1
*
  1
*
  0
XRECORD
  5
57A
102
{ACAD_REACTORS
330
51F
102
}
330
51F
100
AcDbXrecord
280
     1
  1
2S
  1
2S*
  1
*
  1
*
 70
     0
  1
*
  1
*
  0
XRECORD
  5
57B
102
{ACAD_REACTORS
330
51F
102
}
330
51F
100
AcDbXrecord
280
     1
  1
3
  1
*3
  1
*
  1
*
 70
     0
  1
*
  1
*
  0
XRECORD
  5
57C
102
{ACAD_REACTORS
330
51F
102
}
330
51F
100
AcDbXrecord
280
     1
  1
3 CEILING
  1
??????_??C????
  1
*
  1
*
 70
     0
  1
*
  1
*
  0
XRECORD
  5
57D
102
{ACAD_REACTORS
330
51F
102
}
330
51F
100
AcDbXrecord
280
     1
  1
300
  1
*
  1
*
  1
*
 70
    16
  1
*
  1
*
  0
XRECORD
  5
57E
102
{ACAD_REACTORS
330
51F
102
}
330
51F
100
AcDbXrecord
280
     1
  1
300-1
  1
*
  1
*
  1
*
 70
    16
  1
*
  1
*
  0
XRECORD
  5
57F
102
{ACAD_REACTORS
330
51F
102
}
330
51F
100
AcDbXrecord
280
     1
  1
3000
  1
*3000*
  1
*GREEN*
  1
*
 70
     0
  1
*
  1
*
  0
XRECORD
  5
580
102
{ACAD_REACTORS
330
51F
102
}
330
51F
100
AcDbXrecord
280
     1
  1
31
  1
*31
  1
*
  1
*
 70
     0
  1
*
  1
*
  0
XRECORD
  5
581
102
{ACAD_REACTORS
330
51F
102
}
330
51F
100
AcDbXrecord
280
     1
  1
31A
  1
*31A
  1
*
  1
*
 70
     0
  1
*
  1
*
  0
XRECORD
  5
582
102
{ACAD_REACTORS
330
51F
102
}
330
51F
100
AcDbXrecord
280
     1
  1
32
  1
*32
  1
*
  1
*
 70
     0
  1
*
  1
*
  0
XRECORD
  5
583
102
{ACAD_REACTORS
330
51F
102
}
330
51F
100
AcDbXrecord
280
     1
  1
32A
  1
*32A
  1
*
  1
*
 70
     0
  1
*
  1
*
  0
XRECORD
  5
584
102
{ACAD_REACTORS
330
51F
102
}
330
51F
100
AcDbXrecord
280
     1
  1
33
  1
*33
  1
*
  1
*
 70
     0
  1
*
  1
*
  0
XRECORD
  5
585
102
{ACAD_REACTORS
330
51F
102
}
330
51F
100
AcDbXrecord
280
     1
  1
33A
  1
*33A
  1
*
  1
*
 70
     0
  1
*
  1
*
  0
XRECORD
  5
586
102
{ACAD_REACTORS
330
51F
102
}
330
51F
100
AcDbXrecord
280
     1
  1
35
  1
*35
  1
*
  1
*
 70
     0
  1
*
  1
*
  0
XRECORD
  5
587
102
{ACAD_REACTORS
330
51F
102
}
330
51F
100
AcDbXrecord
280
     1
  1
38
  1
*38*
  1
*
  1
*
 70
     0
  1
*
  1
*
  0
XRECORD
  5
588
102
{ACAD_REACTORS
330
51F
102
}
330
51F
100
AcDbXrecord
280
     1
  1
3845-000
  1
22-external-walls----------------------------------------
  1
*
  1
*
 70
     1
  1
*
  1
*
  0
XRECORD
  5
589
102
{ACAD_REACTORS
330
51F
102
}
330
51F
100
AcDbXrecord
280
     1
  1
3D
  1
3D*
  1
*
  1
*
 70
     0
  1
*
  1
*
  0
XRECORD
  5
58A
102
{ACAD_REACTORS
330
51F
102
}
330
51F
100
AcDbXrecord
280
     1
  1
3D LAYERS
  1
*3D*
  1
*
  1
*
 70
     0
  1
*
  1
*
  0
XRECORD
  5
58B
102
{ACAD_REACTORS
330
51F
102
}
330
51F
100
AcDbXrecord
280
     1
  1
3d view
  1
3d*
  1
*
  1
*
 70
     5
  1
*
  1
*
  0
XRECORD
  5
58C
102
{ACAD_REACTORS
330
51F
102
}
330
51F
100
AcDbXrecord
280
     1
  1
3d_buildc
  1
*
  1
*
  1
*
 70
     0
  1
*
  1
*
  0
XRECORD
  5
58D
102
{ACAD_REACTORS
330
51F
102
}
330
51F
100
AcDbXrecord
280
     1
  1
3d_buildd
  1
*
  1
*
  1
*
 70
     0
  1
*
  1
*
  0
XRECORD
  5
58E
102
{ACAD_REACTORS
330
51F
102
}
330
51F
100
AcDbXrecord
280
     1
  1
3d_builde
  1
*
  1
*
  1
*
 70
     0
  1
*
  1
*
  0
XRECORD
  5
58F
102
{ACAD_REACTORS
330
51F
102
}
330
51F
100
AcDbXrecord
280
     1
  1
3d_buildf
  1
*
  1
*
  1
*
 70
     0
  1
*
  1
*
  0
XRECORD
  5
590
102
{ACAD_REACTORS
330
51F
102
}
330
51F
100
AcDbXrecord
280
     1
  1
3d_buildg
  1
*
  1
*
  1
*
 70
     0
  1
*
  1
*
  0
XRECORD
  5
591
102
{ACAD_REACTORS
330
51F
102
}
330
51F
100
AcDbXrecord
280
     1
  1
3d_buildh
  1
*
  1
*
  1
*
 70
     0
  1
*
  1
*
  0
XRECORD
  5
592
102
{ACAD_REACTORS
330
51F
102
}
330
51F
100
AcDbXrecord
280
     1
  1
4
  1
*928*
  1
*
  1
*
 70
     0
  1
*
  1
*
  0
XRECORD
  5
593
102
{ACAD_REACTORS
330
51F
102
}
330
51F
100
AcDbXrecord
280
     1
  1
4 ELECTRIC
  1
??????_???E???
  1
*
  1
*
 70
     0
  1
*
  1
*
  0
XRECORD
  5
594
102
{ACAD_REACTORS
330
51F
102
}
330
51F
100
AcDbXrecord
280
     1
  1
40
  1
*40
  1
*
  1
*
 70
     0
  1
*
  1
*
  0
XRECORD
  5
595
102
{ACAD_REACTORS
330
51F
102
}
330
51F
100
AcDbXrecord
280
     1
  1
440
  1
440*
  1
*
  1
*
 70
     0
  1
*
  1
*
  0
XRECORD
  5
596
102
{ACAD_REACTORS
330
51F
102
}
330
51F
100
AcDbXrecord
280
     1
  1
443
  1
443*
  1
*
  1
*
 70
     0
  1
*
  1
*
  0
XRECORD
  5
597
102
{ACAD_REACTORS
330
51F
102
}
330
51F
100
AcDbXrecord
280
     1
  1
443ha
  1
443*ha*
  1
*
  1
*
 70
     0
  1
*
  1
*
  0
XRECORD
  5
598
102
{ACAD_REACTORS
330
51F
102
}
330
51F
100
AcDbXrecord
280
     1
  1
5
  1
*9651*
  1
*
  1
*
 70
     0
  1
*
  1
*
  0
XRECORD
  5
599
102
{ACAD_REACTORS
330
51F
102
}
330
51F
100
AcDbXrecord
280
     1
  1
5 DEMO
  1
??????_????D??
  1
*
  1
*
 70
     0
  1
*
  1
*
  0
XRECORD
  5
59A
102
{ACAD_REACTORS
330
51F
102
}
330
51F
100
AcDbXrecord
280
     1
  1
50
  1
*50
  1
*
  1
*
 70
     0
  1
*
  1
*
  0
XRECORD
  5
59B
102
{ACAD_REACTORS
330
51F
102
}
330
51F
100
AcDbXrecord
280
     1
  1
500
  1
*500*
  1
*
  1
*
 70
     0
  1
*
  1
*
  0
XRECORD
  5
59C
102
{ACAD_REACTORS
330
51F
102
}
330
51F
100
AcDbXrecord
280
     1
  1
50text
  1
*50*
  1
*
  1
*
 70
     0
  1
*
  1
*
  0
XRECORD
  5
59D
102
{ACAD_REACTORS
330
51F
102
}
330
51F
100
AcDbXrecord
280
     1
  1
6
  1
*water*
  1
*
  1
*
 70
     0
  1
*
  1
*
  0
XRECORD
  5
59E
102
{ACAD_REACTORS
330
51F
102
}
330
51F
100
AcDbXrecord
280
     1
  1
6 LAYER 1
  1
??????_?????1?
  1
*
  1
*
 70
     0
  1
*
  1
*
  0
XRECORD
  5
59F
102
{ACAD_REACTORS
330
51F
102
}
330
51F
100
AcDbXrecord
280
     1
  1
600
  1
*600*
  1
*
  1
*
 70
     0
  1
*
  1
*
  0
XRECORD
  5
5A0
102
{ACAD_REACTORS
330
51F
102
}
330
51F
100
AcDbXrecord
280
     1
  1
7
  1
*
  1
7
  1
*
 70
     0
  1
*
  1
*
  0
XRECORD
  5
5A1
102
{ACAD_REACTORS
330
51F
102
}
330
51F
100
AcDbXrecord
280
     1
  1
7 LAYER 2
  1
??????_??????2
  1
*
  1
*
 70
     0
  1
*
  1
*
  0
XRECORD
  5
5A2
102
{ACAD_REACTORS
330
51F
102
}
330
51F
100
AcDbXrecord
280
     1
  1
70
  1
*70
  1
*
  1
*
 70
     0
  1
*
  1
*
  0
XRECORD
  5
5A3
102
{ACAD_REACTORS
330
51F
102
}
330
51F
100
AcDbXrecord
280
     1
  1
75
  1
*
  1
75
  1
*
 70
     0
  1
*
  1
*
  0
XRECORD
  5
5A4
102
{ACAD_REACTORS
330
51F
102
}
330
51F
100
AcDbXrecord
280
     1
  1
767
  1
*
  1
*
  1
*
 70
     0
  1
*
  1
*
  0
XRECORD
  5
5A5
102
{ACAD_REACTORS
330
51F
102
}
330
51F
100
AcDbXrecord
280
     1
  1
767SE13-0...$
  1
*
  1
*
  1
*
 70
     0
  1
*
  1
*
  0
XRECORD
  5
5A6
102
{ACAD_REACTORS
330
51F
102
}
330
51F
100
AcDbXrecord
280
     1
  1
767SE13-07-99$0$
  1
*
  1
*
  1
*
 70
     0
  1
*
  1
*
  0
XRECORD
  5
5A7
102
{ACAD_REACTORS
330
51F
102
}
330
51F
100
AcDbXrecord
280
     1
  1
8
  1
*
  1
8
  1
*
 70
     0
  1
*
  1
*
  0
XRECORD
  5
5A8
102
{ACAD_REACTORS
330
51F
102
}
330
51F
100
AcDbXrecord
280
     1
  1
8711
  1
*8711*
  1
*
  1
*
 70
     0
  1
*
  1
*
  0
XRECORD
  5
5A9
102
{ACAD_REACTORS
330
51F
102
}
330
51F
100
AcDbXrecord
280
     1
  1
9
  1
*
  1
9
  1
*
 70
     0
  1
*
  1
*
  0
XRECORD
  5
5AA
102
{ACAD_REACTORS
330
51F
102
}
330
51F
100
AcDbXrecord
280
     1
  1
90
  1
*90
  1
*
  1
*
 70
     0
  1
*
  1
*
  0
XRECORD
  5
5AB
102
{ACAD_REACTORS
330
51F
102
}
330
51F
100
AcDbXrecord
280
     1
  1
9651
  1
*9651*
  1
*
  1
*
 70
     0
  1
*
  1
*
  0
XRECORD
  5
5AC
102
{ACAD_REACTORS
330
51F
102
}
330
51F
100
AcDbXrecord
280
     1
  1
9C
  1
*9C*
  1
*
  1
*
 70
     0
  1
*
  1
*
  0
XRECORD
  5
5AD
102
{ACAD_REACTORS
330
51F
102
}
330
51F
100
AcDbXrecord
280
     1
  1
9G
  1
*9G*
  1
*
  1
*
 70
     0
  1
*
  1
*
  0
XRECORD
  5
5AE
102
{ACAD_REACTORS
330
51F
102
}
330
51F
100
AcDbXrecord
280
     1
  1
_all
  1
*
  1
*
  1
*
 70
     0
  1
*
  1
*
  0
XRECORD
  5
5AF
102
{ACAD_REACTORS
330
51F
102
}
330
51F
100
AcDbXrecord
280
     1
  1
_Building 3
  1
*bld3*
  1
*
  1
*
 70
     0
  1
*
  1
*
  0
XRECORD
  5
5B0
102
{ACAD_REACTORS
330
51F
102
}
330
51F
100
AcDbXrecord
280
     1
  1
_External Works
  1
*o-*
  1
*
  1
*
 70
     0
  1
*
  1
*
  0
XRECORD
  5
5B1
102
{ACAD_REACTORS
330
51F
102
}
330
51F
100
AcDbXrecord
280
     1
  1
_first
  1
*01*
  1
*
  1
*
 70
     0
  1
*
  1
*
  0
XRECORD
  5
5B2
102
{ACAD_REACTORS
330
51F
102
}
330
51F
100
AcDbXrecord
280
     1
  1
_First Floor
  1
*01*
  1
*
  1
*
 70
     0
  1
*
  1
*
  0
XRECORD
  5
5B3
102
{ACAD_REACTORS
330
51F
102
}
330
51F
100
AcDbXrecord
280
     1
  1
_ground
  1
*00*
  1
*
  1
*
 70
     0
  1
*
  1
*
  0
XRECORD
  5
5B4
102
{ACAD_REACTORS
330
51F
102
}
330
51F
100
AcDbXrecord
280
     1
  1
_Ground Floor
  1
*-00*
  1
*
  1
*
 70
     0
  1
*
  1
*
  0
XRECORD
  5
5B5
102
{ACAD_REACTORS
330
51F
102
}
330
51F
100
AcDbXrecord
280
     1
  1
_Hatching
  1
*hat*
  1
*
  1
*
 70
     0
  1
*
  1
*
  0
XRECORD
  5
5B6
102
{ACAD_REACTORS
330
51F
102
}
330
51F
100
AcDbXrecord
280
     1
  1
_New
  1
*-N
  1
*
  1
*
 70
     0
  1
*
  1
*
  0
XRECORD
  5
5B7
102
{ACAD_REACTORS
330
51F
102
}
330
51F
100
AcDbXrecord
280
     1
  1
_Removed
  1
*Rem*
  1
*
  1
*
 70
     0
  1
*
  1
*
  0
XRECORD
  5
5B8
102
{ACAD_REACTORS
330
51F
102
}
330
51F
100
AcDbXrecord
280
     1
  1
_roof
  1
*roof*
  1
*
  1
*
 70
     0
  1
*
  1
*
  0
XRECORD
  5
5B9
102
{ACAD_REACTORS
330
51F
102
}
330
51F
100
AcDbXrecord
280
     1
  1
_Text
  1
*Text*
  1
*
  1
*
 70
     0
  1
*
  1
*
  0
XRECORD
  5
5BA
102
{ACAD_REACTORS
330
51F
102
}
330
51F
100
AcDbXrecord
280
     1
  1
_Without text
  1
*text*
  1
*
  1
*
 70
     0
  1
*
  1
*
  0
XRECORD
  5
5BB
102
{ACAD_REACTORS
330
51F
102
}
330
51F
100
AcDbXrecord
280
     1
  1
A
  1
*1A*
  1
*
  1
*
 70
     0
  1
*
  1
*
  0
XRECORD
  5
5BC
102
{ACAD_REACTORS
330
51F
102
}
330
51F
100
AcDbXrecord
280
     1
  1
A layers
  1
A*
  1
*
  1
*
 70
     0
  1
*
  1
*
  0
XRECORD
  5
5BD
102
{ACAD_REACTORS
330
51F
102
}
330
51F
100
AcDbXrecord
280
     1
  1
A-
  1
*
  1
*
  1
*
 70
     0
  1
*
  1
*
  0
XRECORD
  5
5BE
102
{ACAD_REACTORS
330
51F
102
}
330
51F
100
AcDbXrecord
280
     1
  1
a-1
  1
*
  1
*
  1
*
 70
    13
  1
*
  1
*
  0
XRECORD
  5
5BF
102
{ACAD_REACTORS
330
51F
102
}
330
51F
100
AcDbXrecord
280
     1
  1
A-12101
  1
*
  1
*
  1
*
 70
    13
  1
*
  1
*
  0
XRECORD
  5
5C0
102
{ACAD_REACTORS
330
51F
102
}
330
51F
100
AcDbXrecord
280
     1
  1
a-2
  1
*
  1
*
  1
*
 70
   317
  1
*
  1
*
  0
XRECORD
  5
5C1
102
{ACAD_REACTORS
330
51F
102
}
330
51F
100
AcDbXrecord
280
     1
  1
a-3
  1
*
  1
*
  1
*
 70
     7
  1
*
  1
*
  0
XRECORD
  5
5C2
102
{ACAD_REACTORS
330
51F
102
}
330
51F
100
AcDbXrecord
280
     1
  1
a-filter
  1
a*
  1
*
  1
*
 70
     0
  1
*
  1
*
  0
XRECORD
  5
5C3
102
{ACAD_REACTORS
330
51F
102
}
330
51F
100
AcDbXrecord
280
     1
  1
A-HI
  1
A-HI*
  1
*
  1
*
 70
     0
  1
*
  1
*
  0
XRECORD
  5
5C4
102
{ACAD_REACTORS
330
51F
102
}
330
51F
100
AcDbXrecord
280
     1
  1
A-INDEX
  1
A-IN*
  1
*
  1
*
 70
     0
  1
*
  1
*
  0
XRECORD
  5
5C5
102
{ACAD_REACTORS
330
51F
102
}
330
51F
100
AcDbXrecord
280
     1
  1
A-RA-BLOCK
  1
a-ra*
  1
*
  1
*
 70
     0
  1
*
  1
*
  0
XRECORD
  5
5C6
102
{ACAD_REACTORS
330
51F
102
}
330
51F
100
AcDbXrecord
280
     1
  1
A-SECTION
  1
A*
  1
*
  1
*
 70
     0
  1
*
  1
*
  0
XRECORD
  5
5C7
102
{ACAD_REACTORS
330
51F
102
}
330
51F
100
AcDbXrecord
280
     1
  1
A-SECTION-FRAME
  1
A-1825A2*
  1
*
  1
*
 70
     0
  1
*
  1
*
  0
XRECORD
  5
5C8
102
{ACAD_REACTORS
330
51F
102
}
330
51F
100
AcDbXrecord
280
     1
  1
a-uz
  1
a-uz*
  1
*
  1
*
 70
     0
  1
*
  1
*
  0
XRECORD
  5
5C9
102
{ACAD_REACTORS
330
51F
102
}
330
51F
100
AcDbXrecord
280
     1
  1
A-VE
  1
a-ve*
  1
*
  1
*
 70
     0
  1
*
  1
*
  0
XRECORD
  5
5CA
102
{ACAD_REACTORS
330
51F
102
}
330
51F
100
AcDbXrecord
280
     1
  1
A0-FRAME
  1
A0*
  1
*
  1
*
 70
     0
  1
*
  1
*
  0
XRECORD
  5
5CB
102
{ACAD_REACTORS
330
51F
102
}
330
51F
100
AcDbXrecord
280
     1
  1
A00-R
  1
A00-R*
  1
*
  1
*
 70
     0
  1
*
  1
*
  0
XRECORD
  5
5CC
102
{ACAD_REACTORS
330
51F
102
}
330
51F
100
AcDbXrecord
280
     1
  1
A000D
  1
A000D*
  1
*
  1
*
 70
     0
  1
*
  1
*
  0
XRECORD
  5
5CD
102
{ACAD_REACTORS
330
51F
102
}
330
51F
100
AcDbXrecord
280
     1
  1
A032G
  1
*a032G
  1
*
  1
*
 70
     0
  1
*
  1
*
  0
XRECORD
  5
5CE
102
{ACAD_REACTORS
330
51F
102
}
330
51F
100
AcDbXrecord
280
     1
  1
a1
  1
*
  1
*
  1
*
 70
     1
  1
*
  1
*
  0
XRECORD
  5
5CF
102
{ACAD_REACTORS
330
51F
102
}
330
51F
100
AcDbXrecord
280
     1
  1
A1S1
  1
*A1S1*
  1
*
  1
*
 70
     0
  1
*
  1
*
  0
XRECORD
  5
5D0
102
{ACAD_REACTORS
330
51F
102
}
330
51F
100
AcDbXrecord
280
     1
  1
a2
  1
*
  1
*
  1
*
 70
     1
  1
*
  1
*
  0
XRECORD
  5
5D1
102
{ACAD_REACTORS
330
51F
102
}
330
51F
100
AcDbXrecord
280
     1
  1
a2s1
  1
c-p2a2s1-*
  1
*
  1
*
 70
     0
  1
*
  1
*
  0
XRECORD
  5
5D2
102
{ACAD_REACTORS
330
51F
102
}
330
51F
100
AcDbXrecord
280
     1
  1
a2s2
  1
c-p2a2s2-*
  1
*
  1
*
 70
     0
  1
*
  1
*
  0
XRECORD
  5
5D3
102
{ACAD_REACTORS
330
51F
102
}
330
51F
100
AcDbXrecord
280
     1
  1
a2s3
  1
c-p2a2s3-*
  1
*
  1
*
 70
     0
  1
*
  1
*
  0
XRECORD
  5
5D4
102
{ACAD_REACTORS
330
51F
102
}
330
51F
100
AcDbXrecord
280
     1
  1
a3
  1
*
  1
*
  1
*
 70
     4
  1
*
  1
*
  0
XRECORD
  5
5D5
102
{ACAD_REACTORS
330
51F
102
}
330
51F
100
AcDbXrecord
280
     1
  1
a321
  1
*a321*
  1
*
  1
*
 70
     0
  1
*
  1
*
  0
XRECORD
  5
5D6
102
{ACAD_REACTORS
330
51F
102
}
330
51F
100
AcDbXrecord
280
     1
  1
a3s1
  1
c-p2a3s1-*
  1
*
  1
*
 70
     0
  1
*
  1
*
  0
XRECORD
  5
5D7
102
{ACAD_REACTORS
330
51F
102
}
330
51F
100
AcDbXrecord
280
     1
  1
a3s2
  1
c-p2a3s2-*
  1
*
  1
*
 70
     0
  1
*
  1
*
  0
XRECORD
  5
5D8
102
{ACAD_REACTORS
330
51F
102
}
330
51F
100
AcDbXrecord
280
     1
  1
a4-solid
  1
*
  1
*
  1
*
 70
   257
  1
*
  1
*
  0
XRECORD
  5
5D9
102
{ACAD_REACTORS
330
51F
102
}
330
51F
100
AcDbXrecord
280
     1
  1
a4s1
  1
c-p2a4s1*
  1
*
  1
*
 70
     0
  1
*
  1
*
  0
XRECORD
  5
5DA
102
{ACAD_REACTORS
330
51F
102
}
330
51F
100
AcDbXrecord
280
     1
  1
a5-
  1
*
  1
*
  1
*
 70
     5
  1
*
  1
*
  0
XRECORD
  5
5DB
102
{ACAD_REACTORS
330
51F
102
}
330
51F
100
AcDbXrecord
280
     1
  1
a5s1
  1
c-p2a5s1-*
  1
*
  1
*
 70
     0
  1
*
  1
*
  0
XRECORD
  5
5DC
102
{ACAD_REACTORS
330
51F
102
}
330
51F
100
AcDbXrecord
280
     1
  1
a5s2
  1
c-p2a5s2-*
  1
*
  1
*
 70
     0
  1
*
  1
*
  0
XRECORD
  5
5DD
102
{ACAD_REACTORS
330
51F
102
}
330
51F
100
AcDbXrecord
280
     1
  1
a5s3
  1
c-p2a5s3-*
  1
*
  1
*
 70
     0
  1
*
  1
*
  0
XRECORD
  5
5DE
102
{ACAD_REACTORS
330
51F
102
}
330
51F
100
AcDbXrecord
280
     1
  1
a5s4
  1
c-p2a5s4-*
  1
*
  1
*
 70
     0
  1
*
  1
*
  0
XRECORD
  5
5DF
102
{ACAD_REACTORS
330
51F
102
}
330
51F
100
AcDbXrecord
280
     1
  1
a6s1
  1
c-p3a6s1-*
  1
*
  1
*
 70
     0
  1
*
  1
*
  0
XRECORD
  5
5E0
102
{ACAD_REACTORS
330
51F
102
}
330
51F
100
AcDbXrecord
280
     1
  1
a6s2
  1
c-p3a6s2-*
  1
*
  1
*
 70
     0
  1
*
  1
*
  0
XRECORD
  5
5E1
102
{ACAD_REACTORS
330
51F
102
}
330
51F
100
AcDbXrecord
280
     1
  1
a6s3
  1
c-p3a6s3-*
  1
*
  1
*
 70
     0
  1
*
  1
*
  0
XRECORD
  5
5E2
102
{ACAD_REACTORS
330
51F
102
}
330
51F
100
AcDbXrecord
280
     1
  1
a7
  1
*A7*
  1
*
  1
*
 70
     0
  1
*
  1
*
  0
XRECORD
  5
5E3
102
{ACAD_REACTORS
330
51F
102
}
330
51F
100
AcDbXrecord
280
     1
  1
A_HIL
  1
*A_HIL
  1
*
  1
*
 70
     0
  1
*
  1
*
  0
XRECORD
  5
5E4
102
{ACAD_REACTORS
330
51F
102
}
330
51F
100
AcDbXrecord
280
     1
  1
AA-D
  1
*aa--z-*
  1
*
  1
*
 70
     0
  1
*
  1
*
  0
XRECORD
  5
5E5
102
{ACAD_REACTORS
330
51F
102
}
330
51F
100
AcDbXrecord
280
     1
  1
AA_D
  1
AAAKG02X|AA--Z*
  1
*
  1
*
 70
     0
  1
*
  1
*
  0
XRECORD
  5
5E6
102
{ACAD_REACTORS
330
51F
102
}
330
51F
100
AcDbXrecord
280
     1
  1
aaa
  1
*
  1
*
  1
*
 70
     0
  1
*
  1
*
  0
XRECORD
  5
5E7
102
{ACAD_REACTORS
330
51F
102
}
330
51F
100
AcDbXrecord
280
     1
  1
ab
  1
*ab*
  1
*
  1
*
 70
     0
  1
*
  1
*
  0
XRECORD
  5
5E8
102
{ACAD_REACTORS
330
51F
102
}
330
51F
100
AcDbXrecord
280
     1
  1
abghängte Decken
  1
A-AD*
  1
*
  1
*
 70
     0
  1
*
  1
*
  0
XRECORD
  5
5E9
102
{ACAD_REACTORS
330
51F
102
}
330
51F
100
AcDbXrecord
280
     1
  1
ABOVE
  1
*ABOVE*
  1
*
  1
*
 70
     0
  1
*
  1
*
  0
XRECORD
  5
5EA
102
{ACAD_REACTORS
330
51F
102
}
330
51F
100
AcDbXrecord
280
     1
  1
ACC
  1
*ACC*
  1
*
  1
*
 70
     0
  1
*
  1
*
  0
XRECORD
  5
5EB
102
{ACAD_REACTORS
330
51F
102
}
330
51F
100
AcDbXrecord
280
     1
  1
Accesi
  1
*
  1
*
  1
*
 70
     1
  1
*
  1
*
  0
XRECORD
  5
5EC
102
{ACAD_REACTORS
330
51F
102
}
330
51F
100
AcDbXrecord
280
     1
  1
achsen
  1
a-hi*
  1
*
  1
*
 70
     0
  1
*
  1
*
  0
XRECORD
  5
5ED
102
{ACAD_REACTORS
330
51F
102
}
330
51F
100
AcDbXrecord
280
     1
  1
ACTIVE
  1
*
  1
*
  1
*
 70
    13
  1
*
  1
*
  0
XRECORD
  5
5EE
102
{ACAD_REACTORS
330
51F
102
}
330
51F
100
AcDbXrecord
280
     1
  1
adja
  1
ADJA-*
  1
*
  1
*
 70
     0
  1
*
  1
*
  0
XRECORD
  5
5EF
102
{ACAD_REACTORS
330
51F
102
}
330
51F
100
AcDbXrecord
280
     1
  1
af
  1
a*
  1
*
  1
*
 70
     0
  1
*
  1
*
  0
XRECORD
  5
5F0
102
{ACAD_REACTORS
330
51F
102
}
330
51F
100
AcDbXrecord
280
     1
  1
afen
  1
*
  1
*
  1
*
 70
    16
  1
*
  1
*
  0
XRECORD
  5
5F1
102
{ACAD_REACTORS
330
51F
102
}
330
51F
100
AcDbXrecord
280
     1
  1
AGRID
  1
*A032*
  1
*
  1
*
 70
     0
  1
*
  1
*
  0
XRECORD
  5
5F2
102
{ACAD_REACTORS
330
51F
102
}
330
51F
100
AcDbXrecord
280
     1
  1
aktuell
  1
0-*
  1
*
  1
*
 70
     0
  1
*
  1
*
  0
XRECORD
  5
5F3
102
{ACAD_REACTORS
330
51F
102
}
330
51F
100
AcDbXrecord
280
     1
  1
aktuelle
  1
--BH*
  1
*
  1
*
 70
     0
  1
*
  1
*
  0
XRECORD
  5
5F4
102
{ACAD_REACTORS
330
51F
102
}
330
51F
100
AcDbXrecord
280
     1
  1
Aktueller Layer
  1
*
  1
*
  1
*
 70
     0
  1
*
  1
*
  0
XRECORD
  5
5F5
102
{ACAD_REACTORS
330
51F
102
}
330
51F
100
AcDbXrecord
280
     1
  1
ALEV07
  1
ALEV07*
  1
*
  1
*
 70
     0
  1
*
  1
*
  0
XRECORD
  5
5F6
102
{ACAD_REACTORS
330
51F
102
}
330
51F
100
AcDbXrecord
280
     1
  1
ALL
  1
*
  1
*
  1
*
 70
     0
  1
*
  1
*
  0
XRECORD
  5
5F7
102
{ACAD_REACTORS
330
51F
102
}
330
51F
100
AcDbXrecord
280
     1
  1
ALL FLOORS
  1
AF-*
  1
*
  1
*
 70
     0
  1
*
  1
*
  0
XRECORD
  5
5F8
102
{ACAD_REACTORS
330
51F
102
}
330
51F
100
AcDbXrecord
280
     1
  1
ALL FROZEN
  1
*
  1
*
  1
*
 70
     4
  1
*
  1
*
  0
XRECORD
  5
5F9
102
{ACAD_REACTORS
330
51F
102
}
330
51F
100
AcDbXrecord
280
     1
  1
ALL OFF
  1
*
  1
*
  1
*
 70
  3415
  1
*
  1
*
  0
XRECORD
  5
5FA
102
{ACAD_REACTORS
330
51F
102
}
330
51F
100
AcDbXrecord
280
     1
  1
all on
  1
*
  1
*
  1
*
 70
     1
  1
*
  1
*
  0
XRECORD
  5
5FB
102
{ACAD_REACTORS
330
51F
102
}
330
51F
100
AcDbXrecord
280
     1
  1
ALL THAWED
  1
*
  1
*
  1
*
 70
    48
  1
*
  1
*
  0
XRECORD
  5
5FC
102
{ACAD_REACTORS
330
51F
102
}
330
51F
100
AcDbXrecord
280
     1
  1
ALL_ON
  1
*
  1
*
  1
*
 70
     1
  1
*
  1
*
  0
XRECORD
  5
5FD
102
{ACAD_REACTORS
330
51F
102
}
330
51F
100
AcDbXrecord
280
     1
  1
Alle Wände
  1
A-WA*
  1
*
  1
*
 70
     0
  1
*
  1
*
  0
XRECORD
  5
5FE
102
{ACAD_REACTORS
330
51F
102
}
330
51F
100
AcDbXrecord
280
     1
  1
alle_bgs
  1
BGS_*
  1
*
  1
*
 70
     0
  1
*
  1
*
  0
XRECORD
  5
5FF
102
{ACAD_REACTORS
330
51F
102
}
330
51F
100
AcDbXrecord
280
     1
  1
alle_K
  1
K*
  1
*
  1
*
 70
     0
  1
*
  1
*
  0
XRECORD
  5
600
102
{ACAD_REACTORS
330
51F
102
}
330
51F
100
AcDbXrecord
280
     1
  1
Allgemein
  1
A*
  1
*
  1
*
 70
     0
  1
*
  1
*
  0
XRECORD
  5
601
102
{ACAD_REACTORS
330
51F
102
}
330
51F
100
AcDbXrecord
280
     1
  1
apd
  1
x-topo*
  1
5
  1
*
 70
     0
  1
*
  1
*
  0
XRECORD
  5
602
102
{ACAD_REACTORS
330
51F
102
}
330
51F
100
AcDbXrecord
280
     1
  1
aplm
  1
a*
  1
*
  1
*
 70
     0
  1
*
  1
*
  0
XRECORD
  5
603
102
{ACAD_REACTORS
330
51F
102
}
330
51F
100
AcDbXrecord
280
     1
  1
APPLICATION
  1
*
  1
*
  1
*
 70
     0
  1
*
  1
*
  0
XRECORD
  5
604
102
{ACAD_REACTORS
330
51F
102
}
330
51F
100
AcDbXrecord
280
     1
  1
ar1
  1
*ar1*
  1
*
  1
*
 70
     0
  1
*
  1
*
  0
XRECORD
  5
605
102
{ACAD_REACTORS
330
51F
102
}
330
51F
100
AcDbXrecord
280
     1
  1
ARBE
  1
F???-*
  1
*
  1
*
 70
     0
  1
*
  1
*
  0
XRECORD
  5
606
102
{ACAD_REACTORS
330
51F
102
}
330
51F
100
AcDbXrecord
280
     1
  1
Arch
  1
A-*
  1
*
  1
*
 70
     0
  1
*
  1
*
  0
XRECORD
  5
607
102
{ACAD_REACTORS
330
51F
102
}
330
51F
100
AcDbXrecord
280
     1
  1
ARCH_1ST
  1
1ST.*
  1
*
  1
*
 70
     0
  1
*
  1
*
  0
XRECORD
  5
608
102
{ACAD_REACTORS
330
51F
102
}
330
51F
100
AcDbXrecord
280
     1
  1
ARCH_2ND
  1
2ND.*
  1
*
  1
*
 70
     0
  1
*
  1
*
  0
XRECORD
  5
609
102
{ACAD_REACTORS
330
51F
102
}
330
51F
100
AcDbXrecord
280
     1
  1
ARCH_3RD
  1
3RD.*
  1
*
  1
*
 70
     0
  1
*
  1
*
  0
XRECORD
  5
60A
102
{ACAD_REACTORS
330
51F
102
}
330
51F
100
AcDbXrecord
280
     1
  1
ARCH_BASEMENT
  1
B.*
  1
*
  1
*
 70
     0
  1
*
  1
*
  0
XRECORD
  5
60B
102
{ACAD_REACTORS
330
51F
102
}
330
51F
100
AcDbXrecord
280
     1
  1
ARCH_GENERAL
  1
A.*
  1
*
  1
*
 70
     0
  1
*
  1
*
  0
XRECORD
  5
60C
102
{ACAD_REACTORS
330
51F
102
}
330
51F
100
AcDbXrecord
280
     1
  1
ARCH_GROUND
  1
GR.*
  1
*
  1
*
 70
     0
  1
*
  1
*
  0
XRECORD
  5
60D
102
{ACAD_REACTORS
330
51F
102
}
330
51F
100
AcDbXrecord
280
     1
  1
ARCH_ROOF
  1
R.*
  1
*
  1
*
 70
     0
  1
*
  1
*
  0
XRECORD
  5
60E
102
{ACAD_REACTORS
330
51F
102
}
330
51F
100
AcDbXrecord
280
     1
  1
ARCHDWG
  1
9950*
  1
*
  1
*
 70
     0
  1
*
  1
*
  0
XRECORD
  5
60F
102
{ACAD_REACTORS
330
51F
102
}
330
51F
100
AcDbXrecord
280
     1
  1
Architecktur
  1
AA*
  1
*
  1
*
 70
     0
  1
*
  1
*
  0
XRECORD
  5
610
102
{ACAD_REACTORS
330
51F
102
}
330
51F
100
AcDbXrecord
280
     1
  1
Architektur
  1
A*
  1
*
  1
*
 70
     0
  1
*
  1
*
  0
XRECORD
  5
611
102
{ACAD_REACTORS
330
51F
102
}
330
51F
100
AcDbXrecord
280
     1
  1
AREA
  1
*AREA*
  1
*
  1
*
 70
     0
  1
*
  1
*
  0
XRECORD
  5
612
102
{ACAD_REACTORS
330
51F
102
}
330
51F
100
AcDbXrecord
280
     1
  1
AREA1
  1
C-P2A1S1-*
  1
*
  1
*
 70
     0
  1
*
  1
*
  0
XRECORD
  5
613
102
{ACAD_REACTORS
330
51F
102
}
330
51F
100
AcDbXrecord
280
     1
  1
arr-hatch
  1
arr*hatch*
  1
*
  1
*
 70
     0
  1
*
  1
*
  0
XRECORD
  5
614
102
{ACAD_REACTORS
330
51F
102
}
330
51F
100
AcDbXrecord
280
     1
  1
assembly
  1
*assembly*
  1
*
  1
*
 70
     0
  1
*
  1
*
  0
XRECORD
  5
615
102
{ACAD_REACTORS
330
51F
102
}
330
51F
100
AcDbXrecord
280
     1
  1
ATRIUM50
  1
*.50
  1
*
  1
*
 70
     0
  1
*
  1
*
  0
XRECORD
  5
616
102
{ACAD_REACTORS
330
51F
102
}
330
51F
100
AcDbXrecord
280
     1
  1
att
  1
att*
  1
*
  1
*
 70
     0
  1
*
  1
*
  0
XRECORD
  5
617
102
{ACAD_REACTORS
330
51F
102
}
330
51F
100
AcDbXrecord
280
     1
  1
Attivi
  1
*
  1
*
  1
*
 70
    12
  1
*
  1
*
  0
XRECORD
  5
618
102
{ACAD_REACTORS
330
51F
102
}
330
51F
100
AcDbXrecord
280
     1
  1
ATTRIBUTES
  1
PH-SAN-ATTR*
  1
*
  1
*
 70
     0
  1
*
  1
*
  0
XRECORD
  5
619
102
{ACAD_REACTORS
330
51F
102
}
330
51F
100
AcDbXrecord
280
     1
  1
au
  1
*au*
  1
*
  1
*
 70
     0
  1
*
  1
*
  0
XRECORD
  5
61A
102
{ACAD_REACTORS
330
51F
102
}
330
51F
100
AcDbXrecord
280
     1
  1
AUDITORIA
  1
AUD*
  1
*
  1
*
 70
     0
  1
*
  1
*
  0
XRECORD
  5
61B
102
{ACAD_REACTORS
330
51F
102
}
330
51F
100
AcDbXrecord
280
     1
  1
aus
  1
*
  1
*
  1
*
 70
     3
  1
*
  1
*
  0
XRECORD
  5
61C
102
{ACAD_REACTORS
330
51F
102
}
330
51F
100
AcDbXrecord
280
     1
  1
Auserdecke
  1
*
  1
*
  1
*
 70
    12
  1
*
  1
*
  0
XRECORD
  5
61D
102
{ACAD_REACTORS
330
51F
102
}
330
51F
100
AcDbXrecord
280
     1
  1
Ausgeschaltet
  1
*
  1
*
  1
*
 70
     3
  1
*
  1
*
  0
XRECORD
  5
61E
102
{ACAD_REACTORS
330
51F
102
}
330
51F
100
AcDbXrecord
280
     1
  1
Ausgeschaltete Layer
  1
*
  1
*
  1
*
 70
     3
  1
*
  1
*
  0
XRECORD
  5
61F
102
{ACAD_REACTORS
330
51F
102
}
330
51F
100
AcDbXrecord
280
     1
  1
Außenanlagen
  1
a-aa*
  1
*
  1
*
 70
     0
  1
*
  1
*
  0
XRECORD
  5
620
102
{ACAD_REACTORS
330
51F
102
}
330
51F
100
AcDbXrecord
280
     1
  1
B
  1
B*
  1
*
  1
*
 70
     0
  1
*
  1
*
  0
XRECORD
  5
621
102
{ACAD_REACTORS
330
51F
102
}
330
51F
100
AcDbXrecord
280
     1
  1
B-03
  1
*B-03*
  1
*
  1
*
 70
     0
  1
*
  1
*
  0
XRECORD
  5
622
102
{ACAD_REACTORS
330
51F
102
}
330
51F
100
AcDbXrecord
280
     1
  1
B2
  1
*B2*
  1
*
  1
*
 70
     0
  1
*
  1
*
  0
XRECORD
  5
623
102
{ACAD_REACTORS
330
51F
102
}
330
51F
100
AcDbXrecord
280
     1
  1
BACK BAR
  1
BACK*
  1
*
  1
*
 70
     0
  1
*
  1
*
  0
XRECORD
  5
624
102
{ACAD_REACTORS
330
51F
102
}
330
51F
100
AcDbXrecord
280
     1
  1
BACKBAR
  1
BACKBAR*,2D*
  1
*
  1
*
 70
     0
  1
*
  1
*
  0
XRECORD
  5
625
102
{ACAD_REACTORS
330
51F
102
}
330
51F
100
AcDbXrecord
280
     1
  1
BALUSTRADE
  1
*BALUSTRADE*
  1
*
  1
*
 70
     0
  1
*
  1
*
  0
XRECORD
  5
626
102
{ACAD_REACTORS
330
51F
102
}
330
51F
100
AcDbXrecord
280
     1
  1
BANQ'S
  1
BANQ*
  1
*
  1
*
 70
     0
  1
*
  1
*
  0
XRECORD
  5
627
102
{ACAD_REACTORS
330
51F
102
}
330
51F
100
AcDbXrecord
280
     1
  1
BAR
  1
BAR*
  1
*
  1
*
 70
     0
  1
*
  1
*
  0
XRECORD
  5
628
102
{ACAD_REACTORS
330
51F
102
}
330
51F
100
AcDbXrecord
280
     1
  1
bar-top
  1
*
  1
*
  1
*
 70
    16
  1
*
  1
*
  0
XRECORD
  5
629
102
{ACAD_REACTORS
330
51F
102
}
330
51F
100
AcDbXrecord
280
     1
  1
BASE
  1
BS*
  1
*
  1
*
 70
     0
  1
*
  1
*
  0
XRECORD
  5
62A
102
{ACAD_REACTORS
330
51F
102
}
330
51F
100
AcDbXrecord
280
     1
  1
BASE PLATES
  1
AF*,BP*,0,VIEW*,DETA*
  1
*
  1
*
 70
     0
  1
*
  1
*
  0
XRECORD
  5
62B
102
{ACAD_REACTORS
330
51F
102
}
330
51F
100
AcDbXrecord
280
     1
  1
basement
  1
*a-01*
  1
*
  1
*
 70
     0
  1
*
  1
*
  0
XRECORD
  5
62C
102
{ACAD_REACTORS
330
51F
102
}
330
51F
100
AcDbXrecord
280
     1
  1
baustrasse
  1
*baustr*
  1
*
  1
*
 70
     0
  1
*
  1
*
  0
XRECORD
  5
62D
102
{ACAD_REACTORS
330
51F
102
}
330
51F
100
AcDbXrecord
280
     1
  1
bca
  1
bca*
  1
*
  1
*
 70
     0
  1
*
  1
*
  0
XRECORD
  5
62E
102
{ACAD_REACTORS
330
51F
102
}
330
51F
100
AcDbXrecord
280
     1
  1
bca layers
  1
L_
  1
*
  1
*
 70
     0
  1
*
  1
*
  0
XRECORD
  5
62F
102
{ACAD_REACTORS
330
51F
102
}
330
51F
100
AcDbXrecord
280
     1
  1
BCHINN
  1
BC-*
  1
*
  1
*
 70
     0
  1
*
  1
*
  0
XRECORD
  5
630
102
{ACAD_REACTORS
330
51F
102
}
330
51F
100
AcDbXrecord
280
     1
  1
bds
  1
bds-*
  1
*
  1
*
 70
     0
  1
*
  1
*
  0
XRECORD
  5
631
102
{ACAD_REACTORS
330
51F
102
}
330
51F
100
AcDbXrecord
280
     1
  1
Beam
  1
S-HATCH-LBWalls-HIDDEN,S-HATCH-LBWalls,S-BEAMS,A-WALLS
  1
*
  1
*
 70
     0
  1
*
  1
*
  0
XRECORD
  5
632
102
{ACAD_REACTORS
330
51F
102
}
330
51F
100
AcDbXrecord
280
     1
  1
beleucht
  1
*bel*
  1
*
  1
*
 70
     0
  1
*
  1
*
  0
XRECORD
  5
633
102
{ACAD_REACTORS
330
51F
102
}
330
51F
100
AcDbXrecord
280
     1
  1
below
  1
*below*
  1
*
  1
*
 70
     0
  1
*
  1
*
  0
XRECORD
  5
634
102
{ACAD_REACTORS
330
51F
102
}
330
51F
100
AcDbXrecord
280
     1
  1
BEM
  1
2l*bem*
  1
*
  1
*
 70
     0
  1
*
  1
*
  0
XRECORD
  5
635
102
{ACAD_REACTORS
330
51F
102
}
330
51F
100
AcDbXrecord
280
     1
  1
Bemassung
  1
*bema*
  1
*
  1
*
 70
     0
  1
*
  1
*
  0
XRECORD
  5
636
102
{ACAD_REACTORS
330
51F
102
}
330
51F
100
AcDbXrecord
280
     1
  1
BENCH
  1
BENCH*
  1
*
  1
*
 70
     0
  1
*
  1
*
  0
XRECORD
  5
637
102
{ACAD_REACTORS
330
51F
102
}
330
51F
100
AcDbXrecord
280
     1
  1
beton
  1
*wan_bet_sch
  1
*
  1
*
 70
     0
  1
*
  1
*
  0
XRECORD
  5
638
102
{ACAD_REACTORS
330
51F
102
}
330
51F
100
AcDbXrecord
280
     1
  1
BGF
  1
*BGF*
  1
*
  1
*
 70
     0
  1
*
  1
*
  0
XRECORD
  5
639
102
{ACAD_REACTORS
330
51F
102
}
330
51F
100
AcDbXrecord
280
     1
  1
bin
  1
*bin*
  1
*
  1
*
 70
     0
  1
*
  1
*
  0
XRECORD
  5
63A
102
{ACAD_REACTORS
330
51F
102
}
330
51F
100
AcDbXrecord
280
     1
  1
BKB
  1
*BKB*
  1
*
  1
*
 70
     0
  1
*
  1
*
  0
XRECORD
  5
63B
102
{ACAD_REACTORS
330
51F
102
}
330
51F
100
AcDbXrecord
280
     1
  1
bl
  1
*bl
  1
*
  1
*
 70
     0
  1
*
  1
*
  0
XRECORD
  5
63C
102
{ACAD_REACTORS
330
51F
102
}
330
51F
100
AcDbXrecord
280
     1
  1
BLANK
  1
*BLANK*
  1
*
  1
*
 70
     0
  1
*
  1
*
  0
XRECORD
  5
63D
102
{ACAD_REACTORS
330
51F
102
}
330
51F
100
AcDbXrecord
280
     1
  1
BLD
  1
BLD*
  1
*
  1
*
 70
     0
  1
*
  1
*
  0
XRECORD
  5
63E
102
{ACAD_REACTORS
330
51F
102
}
330
51F
100
AcDbXrecord
280
     1
  1
Bldg
  1
*Bldg*
  1
*
  1
*
 70
     0
  1
*
  1
*
  0
XRECORD
  5
63F
102
{ACAD_REACTORS
330
51F
102
}
330
51F
100
AcDbXrecord
280
     1
  1
BLOCCHI
  1
MQA*
  1
*
  1
*
 70
     0
  1
*
  1
*
  0
XRECORD
  5
640
102
{ACAD_REACTORS
330
51F
102
}
330
51F
100
AcDbXrecord
280
     1
  1
BLUE
  1
*
  1
BLUE
  1
*
 70
     0
  1
*
  1
*
  0
XRECORD
  5
641
102
{ACAD_REACTORS
330
51F
102
}
330
51F
100
AcDbXrecord
280
     1
  1
board
  1
*border*
  1
*
  1
*
 70
     0
  1
*
  1
*
  0
XRECORD
  5
642
102
{ACAD_REACTORS
330
51F
102
}
330
51F
100
AcDbXrecord
280
     1
  1
boarder
  1
*boarder*
  1
*
  1
*
 70
     0
  1
*
  1
*
  0
XRECORD
  5
643
102
{ACAD_REACTORS
330
51F
102
}
330
51F
100
AcDbXrecord
280
     1
  1
bob
  1
c-p2a?s?-*
  1
*
  1
*
 70
     0
  1
*
  1
*
  0
XRECORD
  5
644
102
{ACAD_REACTORS
330
51F
102
}
330
51F
100
AcDbXrecord
280
     1
  1
Bodenbeläge
  1
?4??-*
  1
*
  1
*
 70
     0
  1
*
  1
*
  0
XRECORD
  5
645
102
{ACAD_REACTORS
330
51F
102
}
330
51F
100
AcDbXrecord
280
     1
  1
BOLLARDS
  1
*BOLLARD*
  1
*
  1
*
 70
     0
  1
*
  1
*
  0
XRECORD
  5
646
102
{ACAD_REACTORS
330
51F
102
}
330
51F
100
AcDbXrecord
280
     1
  1
border
  1
*border*
  1
*
  1
*
 70
     0
  1
*
  1
*
  0
XRECORD
  5
647
102
{ACAD_REACTORS
330
51F
102
}
330
51F
100
AcDbXrecord
280
     1
  1
BOUNARY
  1
*BOUND*
  1
*
  1
*
 70
     0
  1
*
  1
*
  0
XRECORD
  5
648
102
{ACAD_REACTORS
330
51F
102
}
330
51F
100
AcDbXrecord
280
     1
  1
bound
  1
*bound*
  1
*
  1
*
 70
     0
  1
*
  1
*
  0
XRECORD
  5
649
102
{ACAD_REACTORS
330
51F
102
}
330
51F
100
AcDbXrecord
280
     1
  1
boundary
  1
*bound*
  1
*
  1
*
 70
     0
  1
*
  1
*
  0
XRECORD
  5
64A
102
{ACAD_REACTORS
330
51F
102
}
330
51F
100
AcDbXrecord
280
     1
  1
bridge
  1
*bridgeonly*
  1
*
  1
*
 70
     0
  1
*
  1
*
  0
XRECORD
  5
64B
102
{ACAD_REACTORS
330
51F
102
}
330
51F
100
AcDbXrecord
280
     1
  1
BT
  1
*BT*
  1
*
  1
*
 70
     0
  1
*
  1
*
  0
XRECORD
  5
64C
102
{ACAD_REACTORS
330
51F
102
}
330
51F
100
AcDbXrecord
280
     1
  1
buffet
  1
*buffet*
  1
*
  1
*
 70
     0
  1
*
  1
*
  0
XRECORD
  5
64D
102
{ACAD_REACTORS
330
51F
102
}
330
51F
100
AcDbXrecord
280
     1
  1
BUILDERS WORK
  1
*
  1
*
  1
*
 70
    16
  1
*
  1
*
  0
XRECORD
  5
64E
102
{ACAD_REACTORS
330
51F
102
}
330
51F
100
AcDbXrecord
280
     1
  1
BUILDERS-WORK
  1
*
  1
*
  1
*
 70
    16
  1
*
  1
*
  0
XRECORD
  5
64F
102
{ACAD_REACTORS
330
51F
102
}
330
51F
100
AcDbXrecord
280
     1
  1
Building
  1
Building*
  1
*
  1
*
 70
     0
  1
*
  1
*
  0
XRECORD
  5
650
102
{ACAD_REACTORS
330
51F
102
}
330
51F
100
AcDbXrecord
280
     1
  1
bulkhead
  1
bulk*
  1
*
  1
*
 70
     0
  1
*
  1
*
  0
XRECORD
  5
651
102
{ACAD_REACTORS
330
51F
102
}
330
51F
100
AcDbXrecord
280
     1
  1
BV-LEASE
  1
*
  1
*
  1
*
 70
     0
  1
*
  1
*
  0
XRECORD
  5
652
102
{ACAD_REACTORS
330
51F
102
}
330
51F
100
AcDbXrecord
280
     1
  1
bwp-pylon
  1
bwp_pylon*
  1
*
  1
*
 70
     0
  1
*
  1
*
  0
XRECORD
  5
653
102
{ACAD_REACTORS
330
51F
102
}
330
51F
100
AcDbXrecord
280
     1
  1
BWP_pylon
  1
BWP_pylon*
  1
*
  1
*
 70
     0
  1
*
  1
*
  0
XRECORD
  5
654
102
{ACAD_REACTORS
330
51F
102
}
330
51F
100
AcDbXrecord
280
     1
  1
C
  1
C_PROP*
  1
*
  1
*
 70
     0
  1
*
  1
*
  0
XRECORD
  5
655
102
{ACAD_REACTORS
330
51F
102
}
330
51F
100
AcDbXrecord
280
     1
  1
c-topo
  1
c-topo-*
  1
*
  1
*
 70
     0
  1
*
  1
*
  0
XRECORD
  5
656
102
{ACAD_REACTORS
330
51F
102
}
330
51F
100
AcDbXrecord
280
     1
  1
c100
  1
*c100*
  1
*
  1
*
 70
     0
  1
*
  1
*
  0
XRECORD
  5
657
102
{ACAD_REACTORS
330
51F
102
}
330
51F
100
AcDbXrecord
280
     1
  1
CADKON
  1
?[KAHBSM]?????[23M],?[KAHBSM]?????[23M][1456A-DGHILN-SU-Z]
  1
*
  1
*
 70
     0
  1
*
  1
*
  0
XRECORD
  5
658
102
{ACAD_REACTORS
330
51F
102
}
330
51F
100
AcDbXrecord
280
     1
  1
CAFM-Layer
  1
A*
  1
*
  1
*
 70
     0
  1
*
  1
*
  0
XRECORD
  5
659
102
{ACAD_REACTORS
330
51F
102
}
330
51F
100
AcDbXrecord
280
     1
  1
CANDADO-CONGELADO
  1
*
  1
*
  1
*
 70
   780
  1
*
  1
*
  0
XRECORD
  5
65A
102
{ACAD_REACTORS
330
51F
102
}
330
51F
100
AcDbXrecord
280
     1
  1
CANOPY
  1
*CAN*
  1
*
  1
*
 70
     0
  1
*
  1
*
  0
XRECORD
  5
65B
102
{ACAD_REACTORS
330
51F
102
}
330
51F
100
AcDbXrecord
280
     1
  1
car
  1
*car*
  1
*
  1
*
 70
     0
  1
*
  1
*
  0
XRECORD
  5
65C
102
{ACAD_REACTORS
330
51F
102
}
330
51F
100
AcDbXrecord
280
     1
  1
CARCYCLE
  1
*CARCYCLE*
  1
*
  1
*
 70
     0
  1
*
  1
*
  0
XRECORD
  5
65D
102
{ACAD_REACTORS
330
51F
102
}
330
51F
100
AcDbXrecord
280
     1
  1
CATWALK
  1
*CAT*
  1
*
  1
*
 70
     0
  1
*
  1
*
  0
XRECORD
  5
65E
102
{ACAD_REACTORS
330
51F
102
}
330
51F
100
AcDbXrecord
280
     1
  1
CAV
  1
*CAV*
  1
*
  1
*
 70
     0
  1
*
  1
*
  0
XRECORD
  5
65F
102
{ACAD_REACTORS
330
51F
102
}
330
51F
100
AcDbXrecord
280
     1
  1
CEIL
  1
*CEIL*
  1
*
  1
*
 70
     0
  1
*
  1
*
  0
XRECORD
  5
660
102
{ACAD_REACTORS
330
51F
102
}
330
51F
100
AcDbXrecord
280
     1
  1
CEILING
  1
*ARC*
  1
*
  1
*
 70
     0
  1
*
  1
*
  0
XRECORD
  5
661
102
{ACAD_REACTORS
330
51F
102
}
330
51F
100
AcDbXrecord
280
     1
  1
CEILING LAYOUT
  1
A-CLG-*
  1
*
  1
*
 70
     0
  1
*
  1
*
  0
XRECORD
  5
662
102
{ACAD_REACTORS
330
51F
102
}
330
51F
100
AcDbXrecord
280
     1
  1
CEILING PLAN
  1
*
  1
*
  1
*
 70
    16
  1
*
  1
*
  0
XRECORD
  5
663
102
{ACAD_REACTORS
330
51F
102
}
330
51F
100
AcDbXrecord
280
     1
  1
CEILINGS XREF
  1
*CE-SUSPENDED-CEILINGS
  1
*
  1
*
 70
     0
  1
*
  1
*
  0
XRECORD
  5
664
102
{ACAD_REACTORS
330
51F
102
}
330
51F
100
AcDbXrecord
280
     1
  1
cen
  1
*cen*
  1
*
  1
*
 70
     0
  1
*
  1
*
  0
XRECORD
  5
665
102
{ACAD_REACTORS
330
51F
102
}
330
51F
100
AcDbXrecord
280
     1
  1
CENT
  1
*CENT*
  1
*
  1
*
 70
     0
  1
*
  1
*
  0
XRECORD
  5
666
102
{ACAD_REACTORS
330
51F
102
}
330
51F
100
AcDbXrecord
280
     1
  1
CENTER
  1
*CENTER*
  1
*
  1
*
 70
     0
  1
*
  1
*
  0
XRECORD
  5
667
102
{ACAD_REACTORS
330
51F
102
}
330
51F
100
AcDbXrecord
280
     1
  1
cfp layers
  1
A*
  1
*
  1
*
 70
     0
  1
*
  1
*
  0
XRECORD
  5
668
102
{ACAD_REACTORS
330
51F
102
}
330
51F
100
AcDbXrecord
280
     1
  1
ch
  1
ch*
  1
*
  1
*
 70
     0
  1
*
  1
*
  0
XRECORD
  5
669
102
{ACAD_REACTORS
330
51F
102
}
330
51F
100
AcDbXrecord
280
     1
  1
CHAIN
  1
*CHAIN*
  1
*
  1
*
 70
     0
  1
*
  1
*
  0
XRECORD
  5
66A
102
{ACAD_REACTORS
330
51F
102
}
330
51F
100
AcDbXrecord
280
     1
  1
checkouts
  1
A700G100
  1
*
  1
*
 70
     0
  1
*
  1
*
  0
XRECORD
  5
66B
102
{ACAD_REACTORS
330
51F
102
}
330
51F
100
AcDbXrecord
280
     1
  1
CINEMA
  1
*7GSV*
  1
*
  1
*
 70
     0
  1
*
  1
*
  0
XRECORD
  5
66C
102
{ACAD_REACTORS
330
51F
102
}
330
51F
100
AcDbXrecord
280
     1
  1
CLAD
  1
*CLAD*
  1
*
  1
*
 70
     0
  1
*
  1
*
  0
XRECORD
  5
66D
102
{ACAD_REACTORS
330
51F
102
}
330
51F
100
AcDbXrecord
280
     1
  1
cloud
  1
*cloud*
  1
*
  1
*
 70
     0
  1
*
  1
*
  0
XRECORD
  5
66E
102
{ACAD_REACTORS
330
51F
102
}
330
51F
100
AcDbXrecord
280
     1
  1
cn
  1
*cn
  1
*
  1
*
 70
     0
  1
*
  1
*
  0
XRECORD
  5
66F
102
{ACAD_REACTORS
330
51F
102
}
330
51F
100
AcDbXrecord
280
     1
  1
CO
  1
*CO*
  1
*
  1
*
 70
     0
  1
*
  1
*
  0
XRECORD
  5
670
102
{ACAD_REACTORS
330
51F
102
}
330
51F
100
AcDbXrecord
280
     1
  1
CO1
  1
*C01*
  1
*
  1
*
 70
     0
  1
*
  1
*
  0
XRECORD
  5
671
102
{ACAD_REACTORS
330
51F
102
}
330
51F
100
AcDbXrecord
280
     1
  1
co2
  1
co2*
  1
*
  1
*
 70
     0
  1
*
  1
*
  0
XRECORD
  5
672
102
{ACAD_REACTORS
330
51F
102
}
330
51F
100
AcDbXrecord
280
     1
  1
col
  1
*col
  1
*
  1
*
 70
     0
  1
*
  1
*
  0
XRECORD
  5
673
102
{ACAD_REACTORS
330
51F
102
}
330
51F
100
AcDbXrecord
280
     1
  1
cold beam
  1
*cold*
  1
*
  1
*
 70
     0
  1
*
  1
*
  0
XRECORD
  5
674
102
{ACAD_REACTORS
330
51F
102
}
330
51F
100
AcDbXrecord
280
     1
  1
COLOR
  1
*
  1
WHITE
  1
*
 70
     0
  1
*
  1
*
  0
XRECORD
  5
675
102
{ACAD_REACTORS
330
51F
102
}
330
51F
100
AcDbXrecord
280
     1
  1
COLOR 9
  1
*
  1
9
  1
*
 70
     0
  1
*
  1
*
  0
XRECORD
  5
676
102
{ACAD_REACTORS
330
51F
102
}
330
51F
100
AcDbXrecord
280
     1
  1
COLOR5
  1
*
  1
5
  1
*
 70
     0
  1
*
  1
*
  0
XRECORD
  5
677
102
{ACAD_REACTORS
330
51F
102
}
330
51F
100
AcDbXrecord
280
     1
  1
color95
  1
*
  1
95
  1
*
 70
     0
  1
*
  1
*
  0
XRECORD
  5
678
102
{ACAD_REACTORS
330
51F
102
}
330
51F
100
AcDbXrecord
280
     1
  1
colour
  1
*
  1
9
  1
*
 70
     0
  1
*
  1
*
  0
XRECORD
  5
679
102
{ACAD_REACTORS
330
51F
102
}
330
51F
100
AcDbXrecord
280
     1
  1
colour 7
  1
*
  1
7
  1
*
 70
     0
  1
*
  1
*
  0
XRECORD
  5
67A
102
{ACAD_REACTORS
330
51F
102
}
330
51F
100
AcDbXrecord
280
     1
  1
con
  1
*con*
  1
*
  1
*
 70
     0
  1
*
  1
*
  0
XRECORD
  5
67B
102
{ACAD_REACTORS
330
51F
102
}
330
51F
100
AcDbXrecord
280
     1
  1
conc
  1
*conc*
  1
*
  1
*
 70
     0
  1
*
  1
*
  0
XRECORD
  5
67C
102
{ACAD_REACTORS
330
51F
102
}
330
51F
100
AcDbXrecord
280
     1
  1
CONC01
  1
*CONC01*
  1
*
  1
*
 70
     0
  1
*
  1
*
  0
XRECORD
  5
67D
102
{ACAD_REACTORS
330
51F
102
}
330
51F
100
AcDbXrecord
280
     1
  1
congelados no
  1
*
  1
*
  1
*
 70
     4
  1
*
  1
*
  0
XRECORD
  5
67E
102
{ACAD_REACTORS
330
51F
102
}
330
51F
100
AcDbXrecord
280
     1
  1
Congelati
  1
*
  1
*
  1
*
 70
     4
  1
*
  1
*
  0
XRECORD
  5
67F
102
{ACAD_REACTORS
330
51F
102
}
330
51F
100
AcDbXrecord
280
     1
  1
CONSERVITORY
  1
CON*,2D*
  1
*
  1
*
 70
     0
  1
*
  1
*
  0
XRECORD
  5
680
102
{ACAD_REACTORS
330
51F
102
}
330
51F
100
AcDbXrecord
280
     1
  1
CONSTRAINTS
  1
*CT-*
  1
*
  1
*
 70
     0
  1
*
  1
*
  0
XRECORD
  5
681
102
{ACAD_REACTORS
330
51F
102
}
330
51F
100
AcDbXrecord
280
     1
  1
construction
  1
*construction*
  1
*
  1
*
 70
     0
  1
*
  1
*
  0
XRECORD
  5
682
102
{ACAD_REACTORS
330
51F
102
}
330
51F
100
AcDbXrecord
280
     1
  1
CONT
  1
*CONT*
  1
*
  1
*
 70
     0
  1
*
  1
*
  0
XRECORD
  5
683
102
{ACAD_REACTORS
330
51F
102
}
330
51F
100
AcDbXrecord
280
     1
  1
conveyor
  1
con*
  1
*
  1
*
 70
     0
  1
*
  1
*
  0
XRECORD
  5
684
102
{ACAD_REACTORS
330
51F
102
}
330
51F
100
AcDbXrecord
280
     1
  1
coord
  1
*coord*
  1
*
  1
*
 70
     0
  1
*
  1
*
  0
XRECORD
  5
685
102
{ACAD_REACTORS
330
51F
102
}
330
51F
100
AcDbXrecord
280
     1
  1
COORDS
  1
*COORDS*
  1
*
  1
*
 70
     0
  1
*
  1
*
  0
XRECORD
  5
686
102
{ACAD_REACTORS
330
51F
102
}
330
51F
100
AcDbXrecord
280
     1
  1
cross
  1
*cross*
  1
*
  1
*
 70
     0
  1
*
  1
*
  0
XRECORD
  5
687
102
{ACAD_REACTORS
330
51F
102
}
330
51F
100
AcDbXrecord
280
     1
  1
CURRENT
  1
*
  1
*
  1
*
 70
    16
  1
*
  1
*
  0
XRECORD
  5
688
102
{ACAD_REACTORS
330
51F
102
}
330
51F
100
AcDbXrecord
280
     1
  1
curtain
  1
*curt*
  1
*
  1
*
 70
     0
  1
*
  1
*
  0
XRECORD
  5
689
102
{ACAD_REACTORS
330
51F
102
}
330
51F
100
AcDbXrecord
280
     1
  1
curved walkway
  1
curved*
  1
*
  1
*
 70
     0
  1
*
  1
*
  0
XRECORD
  5
68A
102
{ACAD_REACTORS
330
51F
102
}
330
51F
100
AcDbXrecord
280
     1
  1
cut
  1
*cut*
  1
*
  1
*
 70
     0
  1
*
  1
*
  0
XRECORD
  5
68B
102
{ACAD_REACTORS
330
51F
102
}
330
51F
100
AcDbXrecord
280
     1
  1
cyan
  1
*
  1
4
  1
*
 70
     0
  1
*
  1
*
  0
XRECORD
  5
68C
102
{ACAD_REACTORS
330
51F
102
}
330
51F
100
AcDbXrecord
280
     1
  1
cycl
  1
*cycl*
  1
*
  1
*
 70
     0
  1
*
  1
*
  0
XRECORD
  5
68D
102
{ACAD_REACTORS
330
51F
102
}
330
51F
100
AcDbXrecord
280
     1
  1
CYCLE
  1
*CYCL*
  1
*
  1
*
 70
     0
  1
*
  1
*
  0
XRECORD
  5
68E
102
{ACAD_REACTORS
330
51F
102
}
330
51F
100
AcDbXrecord
280
     1
  1
D__
  1
D__*
  1
*
  1
*
 70
     0
  1
*
  1
*
  0
XRECORD
  5
68F
102
{ACAD_REACTORS
330
51F
102
}
330
51F
100
AcDbXrecord
280
     1
  1
Dach
  1
A-DA*
  1
*
  1
*
 70
     0
  1
*
  1
*
  0
XRECORD
  5
690
102
{ACAD_REACTORS
330
51F
102
}
330
51F
100
AcDbXrecord
280
     1
  1
Dachbegrünung
  1
*
  1
101
  1
*
 70
     0
  1
*
  1
*
  0
XRECORD
  5
691
102
{ACAD_REACTORS
330
51F
102
}
330
51F
100
AcDbXrecord
280
     1
  1
DATA
  1
*DATA*
  1
*
  1
*
 70
     0
  1
*
  1
*
  0
XRECORD
  5
692
102
{ACAD_REACTORS
330
51F
102
}
330
51F
100
AcDbXrecord
280
     1
  1
Daten
  1
3*,1*,4*,*p,hl,*abf*,area*,sto*
  1
*
  1
*
 70
     0
  1
*
  1
*
  0
XRECORD
  5
693
102
{ACAD_REACTORS
330
51F
102
}
330
51F
100
AcDbXrecord
280
     1
  1
DAVE
  1
*
  1
*
  1
*
 70
     0
  1
*
  1
*
  0
XRECORD
  5
694
102
{ACAD_REACTORS
330
51F
102
}
330
51F
100
AcDbXrecord
280
     1
  1
DD
  1
*OUTLINE,*BOUNDARY
  1
*
  1
*
 70
     0
  1
*
  1
*
  0
XRECORD
  5
695
102
{ACAD_REACTORS
330
51F
102
}
330
51F
100
AcDbXrecord
280
     1
  1
Decke
  1
*_DE_*
  1
*
  1
*
 70
     0
  1
*
  1
*
  0
XRECORD
  5
696
102
{ACAD_REACTORS
330
51F
102
}
330
51F
100
AcDbXrecord
280
     1
  1
Decken
  1
A-DE*
  1
*
  1
*
 70
     0
  1
*
  1
*
  0
XRECORD
  5
697
102
{ACAD_REACTORS
330
51F
102
}
330
51F
100
AcDbXrecord
280
     1
  1
Deckenspiegel
  1
?35?-*
  1
*
  1
*
 70
     0
  1
*
  1
*
  0
XRECORD
  5
698
102
{ACAD_REACTORS
330
51F
102
}
330
51F
100
AcDbXrecord
280
     1
  1
Decoration schedule
  1
Dec*
  1
*
  1
*
 70
     0
  1
*
  1
*
  0
XRECORD
  5
699
102
{ACAD_REACTORS
330
51F
102
}
330
51F
100
AcDbXrecord
280
     1
  1
DEF
  1
*DEF*
  1
*
  1
*
 70
     0
  1
*
  1
*
  0
XRECORD
  5
69A
102
{ACAD_REACTORS
330
51F
102
}
330
51F
100
AcDbXrecord
280
     1
  1
demo
  1
*demo
  1
*
  1
*
 70
     0
  1
*
  1
*
  0
XRECORD
  5
69B
102
{ACAD_REACTORS
330
51F
102
}
330
51F
100
AcDbXrecord
280
     1
  1
demo items
  1
*demo*
  1
*
  1
*
 70
     0
  1
*
  1
*
  0
XRECORD
  5
69C
102
{ACAD_REACTORS
330
51F
102
}
330
51F
100
AcDbXrecord
280
     1
  1
DEMOLISHED
  1
*DEM*
  1
*
  1
*
 70
     0
  1
*
  1
*
  0
XRECORD
  5
69D
102
{ACAD_REACTORS
330
51F
102
}
330
51F
100
AcDbXrecord
280
     1
  1
DEMOLITION
  1
*
  1
*
  1
*
 70
    16
  1
*
  1
*
  0
XRECORD
  5
69E
102
{ACAD_REACTORS
330
51F
102
}
330
51F
100
AcDbXrecord
280
     1
  1
demolition work
  1
*
  1
*
  1
*
 70
    16
  1
*
  1
*
  0
XRECORD
  5
69F
102
{ACAD_REACTORS
330
51F
102
}
330
51F
100
AcDbXrecord
280
     1
  1
demont
  1
*demo*
  1
*
  1
*
 70
     0
  1
*
  1
*
  0
XRECORD
  5
6A0
102
{ACAD_REACTORS
330
51F
102
}
330
51F
100
AcDbXrecord
280
     1
  1
design
  1
des-*
  1
*
  1
*
 70
     0
  1
*
  1
*
  0
XRECORD
  5
6A1
102
{ACAD_REACTORS
330
51F
102
}
330
51F
100
AcDbXrecord
280
     1
  1
Detail
  1
D---*
  1
*
  1
*
 70
     0
  1
*
  1
*
  0
XRECORD
  5
6A2
102
{ACAD_REACTORS
330
51F
102
}
330
51F
100
AcDbXrecord
280
     1
  1
Detaillayer
  1
*_det*
  1
*
  1
*
 70
     0
  1
*
  1
*
  0
XRECORD
  5
6A3
102
{ACAD_REACTORS
330
51F
102
}
330
51F
100
AcDbXrecord
280
     1
  1
detref
  1
*detref*
  1
*
  1
*
 70
     0
  1
*
  1
*
  0
XRECORD
  5
6A4
102
{ACAD_REACTORS
330
51F
102
}
330
51F
100
AcDbXrecord
280
     1
  1
dgg
  1
stb
  1
*
  1
*
 70
     0
  1
*
  1
*
  0
XRECORD
  5
6A5
102
{ACAD_REACTORS
330
51F
102
}
330
51F
100
AcDbXrecord
280
     1
  1
DIM
  1
*A000D*
  1
*
  1
*
 70
     0
  1
*
  1
*
  0
XRECORD
  5
6A6
102
{ACAD_REACTORS
330
51F
102
}
330
51F
100
AcDbXrecord
280
     1
  1
Dim only
  1
*dim*
  1
*
  1
*
 70
     0
  1
*
  1
*
  0
XRECORD
  5
6A7
102
{ACAD_REACTORS
330
51F
102
}
330
51F
100
AcDbXrecord
280
     1
  1
Dimensions
  1
?????d*
  1
*
  1
*
 70
     1
  1
*
  1
*
  0
XRECORD
  5
6A8
102
{ACAD_REACTORS
330
51F
102
}
330
51F
100
AcDbXrecord
280
     1
  1
DIMS
  1
*A000D*
  1
*
  1
*
 70
     0
  1
*
  1
*
  0
XRECORD
  5
6A9
102
{ACAD_REACTORS
330
51F
102
}
330
51F
100
AcDbXrecord
280
     1
  1
DISEGNO
  1
BEN*
  1
*
  1
*
 70
     0
  1
*
  1
*
  0
XRECORD
  5
6AA
102
{ACAD_REACTORS
330
51F
102
}
330
51F
100
AcDbXrecord
280
     1
  1
DISPLAYED
  1
*
  1
*
  1
*
 70
    13
  1
*
  1
*
  0
XRECORD
  5
6AB
102
{ACAD_REACTORS
330
51F
102
}
330
51F
100
AcDbXrecord
280
     1
  1
DOCK
  1
*DOCK*
  1
*
  1
*
 70
     0
  1
*
  1
*
  0
XRECORD
  5
6AC
102
{ACAD_REACTORS
330
51F
102
}
330
51F
100
AcDbXrecord
280
     1
  1
DOM
  1
*DOM*
  1
*
  1
*
 70
     0
  1
*
  1
*
  0
XRECORD
  5
6AD
102
{ACAD_REACTORS
330
51F
102
}
330
51F
100
AcDbXrecord
280
     1
  1
DOMS
  1
DOMS*
  1
*
  1
*
 70
     0
  1
*
  1
*
  0
XRECORD
  5
6AE
102
{ACAD_REACTORS
330
51F
102
}
330
51F
100
AcDbXrecord
280
     1
  1
DOOR
  1
*DOOR*
  1
*
  1
*
 70
     0
  1
*
  1
*
  0
XRECORD
  5
6AF
102
{ACAD_REACTORS
330
51F
102
}
330
51F
100
AcDbXrecord
280
     1
  1
DOOREF
  1
*DOOREF*
  1
*
  1
*
 70
     0
  1
*
  1
*
  0
XRECORD
  5
6B0
102
{ACAD_REACTORS
330
51F
102
}
330
51F
100
AcDbXrecord
280
     1
  1
DOORREF
  1
*DOORREF*
  1
*
  1
*
 70
     0
  1
*
  1
*
  0
XRECORD
  5
6B1
102
{ACAD_REACTORS
330
51F
102
}
330
51F
100
AcDbXrecord
280
     1
  1
DOORS
  1
*DOOR*
  1
*
  1
*
 70
     0
  1
*
  1
*
  0
XRECORD
  5
6B2
102
{ACAD_REACTORS
330
51F
102
}
330
51F
100
AcDbXrecord
280
     1
  1
DR-
  1
*DR-*
  1
*
  1
*
 70
     0
  1
*
  1
*
  0
XRECORD
  5
6B3
102
{ACAD_REACTORS
330
51F
102
}
330
51F
100
AcDbXrecord
280
     1
  1
DRAIN
  1
*DRAIN*
  1
*
  1
*
 70
     0
  1
*
  1
*
  0
XRECORD
  5
6B4
102
{ACAD_REACTORS
330
51F
102
}
330
51F
100
AcDbXrecord
280
     1
  1
DRAIN & LEV
  1
DRAIN*
  1
*
  1
*
 70
     0
  1
*
  1
*
  0
XRECORD
  5
6B5
102
{ACAD_REACTORS
330
51F
102
}
330
51F
100
AcDbXrecord
280
     1
  1
drainage
  1
p*,e*
  1
*
  1
*
 70
     0
  1
*
  1
*
  0
XRECORD
  5
6B6
102
{ACAD_REACTORS
330
51F
102
}
330
51F
100
AcDbXrecord
280
     1
  1
drains
  1
*dra*
  1
*
  1
*
 70
     0
  1
*
  1
*
  0
XRECORD
  5
6B7
102
{ACAD_REACTORS
330
51F
102
}
330
51F
100
AcDbXrecord
280
     1
  1
DRAWING NO-XREF
  1
*
  1
*
  1
*
 70
     0
  1
*
  1
*
  0
XRECORD
  5
6B8
102
{ACAD_REACTORS
330
51F
102
}
330
51F
100
AcDbXrecord
280
     1
  1
Drawing01
  1
Drg01*
  1
*
  1
*
 70
     0
  1
*
  1
*
  0
XRECORD
  5
6B9
102
{ACAD_REACTORS
330
51F
102
}
330
51F
100
AcDbXrecord
280
     1
  1
DRUM
  1
DRUM*
  1
*
  1
*
 70
     0
  1
*
  1
*
  0
XRECORD
  5
6BA
102
{ACAD_REACTORS
330
51F
102
}
330
51F
100
AcDbXrecord
280
     1
  1
DSD
  1
*720G*
  1
*
  1
*
 70
     0
  1
*
  1
*
  0
XRECORD
  5
6BB
102
{ACAD_REACTORS
330
51F
102
}
330
51F
100
AcDbXrecord
280
     1
  1
DT
  1
DT*
  1
*
  1
*
 70
     0
  1
*
  1
*
  0
XRECORD
  5
6BC
102
{ACAD_REACTORS
330
51F
102
}
330
51F
100
AcDbXrecord
280
     1
  1
DUCT
  1
DUCT*
  1
*
  1
*
 70
     0
  1
*
  1
*
  0
XRECORD
  5
6BD
102
{ACAD_REACTORS
330
51F
102
}
330
51F
100
AcDbXrecord
280
     1
  1
ducts
  1
*duct*
  1
*
  1
*
 70
     0
  1
*
  1
*
  0
XRECORD
  5
6BE
102
{ACAD_REACTORS
330
51F
102
}
330
51F
100
AcDbXrecord
280
     1
  1
Ductwork
  1
*Duct*
  1
*
  1
*
 70
     0
  1
*
  1
*
  0
XRECORD
  5
6BF
102
{ACAD_REACTORS
330
51F
102
}
330
51F
100
AcDbXrecord
280
     1
  1
Durchbrüche
  1
K1*
  1
*
  1
*
 70
     0
  1
*
  1
*
  0
XRECORD
  5
6C0
102
{ACAD_REACTORS
330
51F
102
}
330
51F
100
AcDbXrecord
280
     1
  1
E
  1
*E*
  1
*
  1
*
 70
     0
  1
*
  1
*
  0
XRECORD
  5
6C1
102
{ACAD_REACTORS
330
51F
102
}
330
51F
100
AcDbXrecord
280
     1
  1
E-
  1
E-*
  1
*
  1
*
 70
     0
  1
*
  1
*
  0
XRECORD
  5
6C2
102
{ACAD_REACTORS
330
51F
102
}
330
51F
100
AcDbXrecord
280
     1
  1
EASE
  1
*EASE*
  1
*
  1
*
 70
     0
  1
*
  1
*
  0
XRECORD
  5
6C3
102
{ACAD_REACTORS
330
51F
102
}
330
51F
100
AcDbXrecord
280
     1
  1
EASEMENT
  1
*EASE*
  1
*
  1
*
 70
     0
  1
*
  1
*
  0
XRECORD
  5
6C4
102
{ACAD_REACTORS
330
51F
102
}
330
51F
100
AcDbXrecord
280
     1
  1
EDI
  1
Edi-*
  1
*
  1
*
 70
     0
  1
*
  1
*
  0
XRECORD
  5
6C5
102
{ACAD_REACTORS
330
51F
102
}
330
51F
100
AcDbXrecord
280
     1
  1
ein
  1
*
  1
*
  1
*
 70
     5
  1
*
  1
*
  0
XRECORD
  5
6C6
102
{ACAD_REACTORS
330
51F
102
}
330
51F
100
AcDbXrecord
280
     1
  1
Eingesch
  1
*
  1
*
  1
*
 70
     1
  1
*
  1
*
  0
XRECORD
  5
6C7
102
{ACAD_REACTORS
330
51F
102
}
330
51F
100
AcDbXrecord
280
     1
  1
el
  1
el*
  1
*
  1
*
 70
     0
  1
*
  1
*
  0
XRECORD
  5
6C8
102
{ACAD_REACTORS
330
51F
102
}
330
51F
100
AcDbXrecord
280
     1
  1
ELEC
  1
E*
  1
*
  1
*
 70
     0
  1
*
  1
*
  0
XRECORD
  5
6C9
102
{ACAD_REACTORS
330
51F
102
}
330
51F
100
AcDbXrecord
280
     1
  1
ELECTRICAL
  1
*ELEC*
  1
*
  1
*
 70
     0
  1
*
  1
*
  0
XRECORD
  5
6CA
102
{ACAD_REACTORS
330
51F
102
}
330
51F
100
AcDbXrecord
280
     1
  1
electrics
  1
ee*
  1
*
  1
*
 70
     0
  1
*
  1
*
  0
XRECORD
  5
6CB
102
{ACAD_REACTORS
330
51F
102
}
330
51F
100
AcDbXrecord
280
     1
  1
elektro
  1
2e*
  1
*
  1
*
 70
     0
  1
*
  1
*
  0
XRECORD
  5
6CC
102
{ACAD_REACTORS
330
51F
102
}
330
51F
100
AcDbXrecord
280
     1
  1
elev
  1
(--)20*.*
  1
*
  1
*
 70
     0
  1
*
  1
*
  0
XRECORD
  5
6CD
102
{ACAD_REACTORS
330
51F
102
}
330
51F
100
AcDbXrecord
280
     1
  1
ELEVATION
  1
ELE*
  1
*
  1
*
 70
     0
  1
*
  1
*
  0
XRECORD
  5
6CE
102
{ACAD_REACTORS
330
51F
102
}
330
51F
100
AcDbXrecord
280
     1
  1
Elevation Layers
  1
Elevation*
  1
*
  1
*
 70
     0
  1
*
  1
*
  0
XRECORD
  5
6CF
102
{ACAD_REACTORS
330
51F
102
}
330
51F
100
AcDbXrecord
280
     1
  1
ELEVATIONS
  1
ELEV*,0,VIE*,DETA*
  1
*
  1
*
 70
     0
  1
*
  1
*
  0
XRECORD
  5
6D0
102
{ACAD_REACTORS
330
51F
102
}
330
51F
100
AcDbXrecord
280
     1
  1
embank
  1
*embank*
  1
*
  1
*
 70
     0
  1
*
  1
*
  0
XRECORD
  5
6D1
102
{ACAD_REACTORS
330
51F
102
}
330
51F
100
AcDbXrecord
280
     1
  1
encendidos si
  1
*
  1
*
  1
*
 70
     5
  1
*
  1
*
  0
XRECORD
  5
6D2
102
{ACAD_REACTORS
330
51F
102
}
330
51F
100
AcDbXrecord
280
     1
  1
ENDSYM
  1
*endsym
  1
*
  1
*
 70
     0
  1
*
  1
*
  0
XRECORD
  5
6D3
102
{ACAD_REACTORS
330
51F
102
}
330
51F
100
AcDbXrecord
280
     1
  1
engineer
  1
pl*
  1
*
  1
*
 70
     0
  1
*
  1
*
  0
XRECORD
  5
6D4
102
{ACAD_REACTORS
330
51F
102
}
330
51F
100
AcDbXrecord
280
     1
  1
entrance
  1
ent*
  1
*
  1
*
 70
     0
  1
*
  1
*
  0
XRECORD
  5
6D5
102
{ACAD_REACTORS
330
51F
102
}
330
51F
100
AcDbXrecord
280
     1
  1
EQIP
  1
EQUIP*
  1
*
  1
*
 70
     0
  1
*
  1
*
  0
XRECORD
  5
6D6
102
{ACAD_REACTORS
330
51F
102
}
330
51F
100
AcDbXrecord
280
     1
  1
equip
  1
*equip*
  1
*
  1
*
 70
     0
  1
*
  1
*
  0
XRECORD
  5
6D7
102
{ACAD_REACTORS
330
51F
102
}
330
51F
100
AcDbXrecord
280
     1
  1
Equipment-Air
  1
Equip-Air*
  1
*
  1
*
 70
     0
  1
*
  1
*
  0
XRECORD
  5
6D8
102
{ACAD_REACTORS
330
51F
102
}
330
51F
100
AcDbXrecord
280
     1
  1
Equipment-Barrel
  1
Equip-Barrel*
  1
*
  1
*
 70
     0
  1
*
  1
*
  0
XRECORD
  5
6D9
102
{ACAD_REACTORS
330
51F
102
}
330
51F
100
AcDbXrecord
280
     1
  1
Equipment-Batter
  1
Equip-Batter*
  1
*
  1
*
 70
     0
  1
*
  1
*
  0
XRECORD
  5
6DA
102
{ACAD_REACTORS
330
51F
102
}
330
51F
100
AcDbXrecord
280
     1
  1
Equipment-Blanch
  1
Equip-Blanch*
  1
*
  1
*
 70
     0
  1
*
  1
*
  0
XRECORD
  5
6DB
102
{ACAD_REACTORS
330
51F
102
}
330
51F
100
AcDbXrecord
280
     1
  1
Equipment-Boiler
  1
Equip-Boiler*
  1
*
  1
*
 70
     0
  1
*
  1
*
  0
XRECORD
  5
6DC
102
{ACAD_REACTORS
330
51F
102
}
330
51F
100
AcDbXrecord
280
     1
  1
Equipment-Brine
  1
Equip-Brine*
  1
*
  1
*
 70
     0
  1
*
  1
*
  0
XRECORD
  5
6DD
102
{ACAD_REACTORS
330
51F
102
}
330
51F
100
AcDbXrecord
280
     1
  1
Equipment-Cutting
  1
Equip-Cutting*
  1
*
  1
*
 70
     0
  1
*
  1
*
  0
XRECORD
  5
6DE
102
{ACAD_REACTORS
330
51F
102
}
330
51F
100
AcDbXrecord
280
     1
  1
Equipment-Defect
  1
Equip-Defect*
  1
*
  1
*
 70
     0
  1
*
  1
*
  0
XRECORD
  5
6DF
102
{ACAD_REACTORS
330
51F
102
}
330
51F
100
AcDbXrecord
280
     1
  1
Equipment-Dry
  1
Equip-Dry*
  1
*
  1
*
 70
     0
  1
*
  1
*
  0
XRECORD
  5
6E0
102
{ACAD_REACTORS
330
51F
102
}
330
51F
100
AcDbXrecord
280
     1
  1
Equipment-Freeze
  1
Equip-Freeze*
  1
*
  1
*
 70
     0
  1
*
  1
*
  0
XRECORD
  5
6E1
102
{ACAD_REACTORS
330
51F
102
}
330
51F
100
AcDbXrecord
280
     1
  1
Equipment-Fryer
  1
Equip-Fryer*
  1
*
  1
*
 70
     0
  1
*
  1
*
  0
XRECORD
  5
6E2
102
{ACAD_REACTORS
330
51F
102
}
330
51F
100
AcDbXrecord
280
     1
  1
Equipment-Oil Storage
  1
Equip-Oilstg*
  1
*
  1
*
 70
     0
  1
*
  1
*
  0
XRECORD
  5
6E3
102
{ACAD_REACTORS
330
51F
102
}
330
51F
100
AcDbXrecord
280
     1
  1
Equipment-Packaging
  1
Equip-Pkg*
  1
*
  1
*
 70
     0
  1
*
  1
*
  0
XRECORD
  5
6E4
102
{ACAD_REACTORS
330
51F
102
}
330
51F
100
AcDbXrecord
280
     1
  1
Equipment-Pallet
  1
Equip-Pallet*
  1
*
  1
*
 70
     0
  1
*
  1
*
  0
XRECORD
  5
6E5
102
{ACAD_REACTORS
330
51F
102
}
330
51F
100
AcDbXrecord
280
     1
  1
Equipment-Peel
  1
Equip-Peel*
  1
*
  1
*
 70
     0
  1
*
  1
*
  0
XRECORD
  5
6E6
102
{ACAD_REACTORS
330
51F
102
}
330
51F
100
AcDbXrecord
280
     1
  1
Equipment-Preheat
  1
Equip-Preheat*
  1
*
  1
*
 70
     0
  1
*
  1
*
  0
XRECORD
  5
6E7
102
{ACAD_REACTORS
330
51F
102
}
330
51F
100
AcDbXrecord
280
     1
  1
Equipment-Raw
  1
Equip-Raw*
  1
*
  1
*
 70
     0
  1
*
  1
*
  0
XRECORD
  5
6E8
102
{ACAD_REACTORS
330
51F
102
}
330
51F
100
AcDbXrecord
280
     1
  1
Equipment-Refrigeration
  1
Equip-Refrig*
  1
*
  1
*
 70
     0
  1
*
  1
*
  0
XRECORD
  5
6E9
102
{ACAD_REACTORS
330
51F
102
}
330
51F
100
AcDbXrecord
280
     1
  1
Equipment-Sapp
  1
Equip-Sapp*
  1
*
  1
*
 70
     0
  1
*
  1
*
  0
XRECORD
  5
6EA
102
{ACAD_REACTORS
330
51F
102
}
330
51F
100
AcDbXrecord
280
     1
  1
Equipment-Starch
  1
Equip-Starch*
  1
*
  1
*
 70
     0
  1
*
  1
*
  0
XRECORD
  5
6EB
102
{ACAD_REACTORS
330
51F
102
}
330
51F
100
AcDbXrecord
280
     1
  1
Equipment-Trim
  1
Equip-Trim*
  1
*
  1
*
 70
     0
  1
*
  1
*
  0
XRECORD
  5
6EC
102
{ACAD_REACTORS
330
51F
102
}
330
51F
100
AcDbXrecord
280
     1
  1
Equipment-Water
  1
Equip-Water*
  1
*
  1
*
 70
     0
  1
*
  1
*
  0
XRECORD
  5
6ED
102
{ACAD_REACTORS
330
51F
102
}
330
51F
100
AcDbXrecord
280
     1
  1
er
  1
*er*
  1
*
  1
*
 70
     0
  1
*
  1
*
  0
XRECORD
  5
6EE
102
{ACAD_REACTORS
330
51F
102
}
330
51F
100
AcDbXrecord
280
     1
  1
escalator
  1
*esc*
  1
*
  1
*
 70
     0
  1
*
  1
*
  0
XRECORD
  5
6EF
102
{ACAD_REACTORS
330
51F
102
}
330
51F
100
AcDbXrecord
280
     1
  1
EUTILITY
  1
*
  1
*
  1
*
 70
     0
  1
*
  1
*
  0
XRECORD
  5
6F0
102
{ACAD_REACTORS
330
51F
102
}
330
51F
100
AcDbXrecord
280
     1
  1
ex-storm
  1
x-util|c-*-strm
  1
*
  1
*
 70
     0
  1
*
  1
*
  0
XRECORD
  5
6F1
102
{ACAD_REACTORS
330
51F
102
}
330
51F
100
AcDbXrecord
280
     1
  1
exg imported
  1
B*
  1
*
  1
*
 70
     0
  1
*
  1
*
  0
XRECORD
  5
6F2
102
{ACAD_REACTORS
330
51F
102
}
330
51F
100
AcDbXrecord
280
     1
  1
EXISTING
  1
EX_PLN_0
  1
*
  1
*
 70
     0
  1
*
  1
*
  0
XRECORD
  5
6F3
102
{ACAD_REACTORS
330
51F
102
}
330
51F
100
AcDbXrecord
280
     1
  1
EXPANSION
  1
*EXP*
  1
*
  1
*
 70
     0
  1
*
  1
*
  0
XRECORD
  5
6F4
102
{ACAD_REACTORS
330
51F
102
}
330
51F
100
AcDbXrecord
280
     1
  1
exstbldg
  1
*
  1
*WHITE
  1
*
 70
     0
  1
*
  1
*
  0
XRECORD
  5
6F5
102
{ACAD_REACTORS
330
51F
102
}
330
51F
100
AcDbXrecord
280
     1
  1
EXT FIN
  1
EF-*
  1
*
  1
*
 70
     0
  1
*
  1
*
  0
XRECORD
  5
6F6
102
{ACAD_REACTORS
330
51F
102
}
330
51F
100
AcDbXrecord
280
     1
  1
Extension
  1
*Exten*
  1
*
  1
*
 70
     0
  1
*
  1
*
  0
XRECORD
  5
6F7
102
{ACAD_REACTORS
330
51F
102
}
330
51F
100
AcDbXrecord
280
     1
  1
EXTERNALS
  1
*EXTERNAL*
  1
*
  1
*
 70
     0
  1
*
  1
*
  0
XRECORD
  5
6F8
102
{ACAD_REACTORS
330
51F
102
}
330
51F
100
AcDbXrecord
280
     1
  1
F
  1
*F*
  1
*
  1
*
 70
     0
  1
*
  1
*
  0
XRECORD
  5
6F9
102
{ACAD_REACTORS
330
51F
102
}
330
51F
100
AcDbXrecord
280
     1
  1
F PURCHASE
  1
F-*B-F*
  1
*
  1
*
 70
     0
  1
*
  1
*
  0
XRECORD
  5
6FA
102
{ACAD_REACTORS
330
51F
102
}
330
51F
100
AcDbXrecord
280
     1
  1
F-LB-SECTION
  1
F-LB*
  1
*
  1
*
 70
     0
  1
*
  1
*
  0
XRECORD
  5
6FB
102
{ACAD_REACTORS
330
51F
102
}
330
51F
100
AcDbXrecord
280
     1
  1
F-SECTION
  1
F*
  1
*
  1
*
 70
     0
  1
*
  1
*
  0
XRECORD
  5
6FC
102
{ACAD_REACTORS
330
51F
102
}
330
51F
100
AcDbXrecord
280
     1
  1
F-UB-SECTION
  1
F-UB*
  1
*
  1
*
 70
     0
  1
*
  1
*
  0
XRECORD
  5
6FD
102
{ACAD_REACTORS
330
51F
102
}
330
51F
100
AcDbXrecord
280
     1
  1
Fach Ing
  1
RR*
  1
*
  1
*
 70
     0
  1
*
  1
*
  0
XRECORD
  5
6FE
102
{ACAD_REACTORS
330
51F
102
}
330
51F
100
AcDbXrecord
280
     1
  1
Fachplaner
  1
K_XREF*
  1
*
  1
*
 70
     0
  1
*
  1
*
  0
XRECORD
  5
6FF
102
{ACAD_REACTORS
330
51F
102
}
330
51F
100
AcDbXrecord
280
     1
  1
fall
  1
*fall*
  1
*
  1
*
 70
     0
  1
*
  1
*
  0
XRECORD
  5
700
102
{ACAD_REACTORS
330
51F
102
}
330
51F
100
AcDbXrecord
280
     1
  1
Farbe
  1
A---FA*
  1
*
  1
*
 70
     0
  1
*
  1
*
  0
XRECORD
  5
701
102
{ACAD_REACTORS
330
51F
102
}
330
51F
100
AcDbXrecord
280
     1
  1
Farbe55
  1
*
  1
55
  1
*
 70
     0
  1
*
  1
*
  0
XRECORD
  5
702
102
{ACAD_REACTORS
330
51F
102
}
330
51F
100
AcDbXrecord
280
     1
  1
farben
  1
*fb-*
  1
*
  1
*
 70
     0
  1
*
  1
*
  0
XRECORD
  5
703
102
{ACAD_REACTORS
330
51F
102
}
330
51F
100
AcDbXrecord
280
     1
  1
Fassade
  1
F---*
  1
*
  1
*
 70
     0
  1
*
  1
*
  0
XRECORD
  5
704
102
{ACAD_REACTORS
330
51F
102
}
330
51F
100
AcDbXrecord
280
     1
  1
Fasssade
  1
F*
  1
*
  1
*
 70
     0
  1
*
  1
*
  0
XRECORD
  5
705
102
{ACAD_REACTORS
330
51F
102
}
330
51F
100
AcDbXrecord
280
     1
  1
fb-130
  1
*
  1
130
  1
*
 70
     0
  1
*
  1
*
  0
XRECORD
  5
706
102
{ACAD_REACTORS
330
51F
102
}
330
51F
100
AcDbXrecord
280
     1
  1
FC_CLADDING
  1
*FC*
  1
*
  1
*
 70
     0
  1
*
  1
*
  0
XRECORD
  5
707
102
{ACAD_REACTORS
330
51F
102
}
330
51F
100
AcDbXrecord
280
     1
  1
FEATURE
  1
FEATURE*
  1
*
  1
*
 70
     0
  1
*
  1
*
  0
XRECORD
  5
708
102
{ACAD_REACTORS
330
51F
102
}
330
51F
100
AcDbXrecord
280
     1
  1
FENCE
  1
FENCE*
  1
*
  1
*
 70
     0
  1
*
  1
*
  0
XRECORD
  5
709
102
{ACAD_REACTORS
330
51F
102
}
330
51F
100
AcDbXrecord
280
     1
  1
fenster
  1
A_Fenster
  1
*
  1
*
 70
     0
  1
.18
  1
*
  0
XRECORD
  5
70A
102
{ACAD_REACTORS
330
51F
102
}
330
51F
100
AcDbXrecord
280
     1
  1
FFL
  1
*FFL*
  1
*
  1
*
 70
     0
  1
*
  1
*
  0
XRECORD
  5
70B
102
{ACAD_REACTORS
330
51F
102
}
330
51F
100
AcDbXrecord
280
     1
  1
FIEGE
  1
*FIEGE*
  1
*
  1
*
 70
     0
  1
*
  1
*
  0
XRECORD
  5
70C
102
{ACAD_REACTORS
330
51F
102
}
330
51F
100
AcDbXrecord
280
     1
  1
FILL
  1
*FILL*
  1
*
  1
*
 70
     0
  1
*
  1
*
  0
XRECORD
  5
70D
102
{ACAD_REACTORS
330
51F
102
}
330
51F
100
AcDbXrecord
280
     1
  1
Fill Layer
  1
F*
  1
*
  1
*
 70
     0
  1
*
  1
*
  0
XRECORD
  5
70E
102
{ACAD_REACTORS
330
51F
102
}
330
51F
100
AcDbXrecord
280
     1
  1
FIll Layers
  1
*f???-*
  1
*
  1
*
 70
     0
  1
*
  1
*
  0
XRECORD
  5
70F
102
{ACAD_REACTORS
330
51F
102
}
330
51F
100
AcDbXrecord
280
     1
  1
fills
  1
*stone*
  1
*
  1
*
 70
     0
  1
*
  1
*
  0
XRECORD
  5
710
102
{ACAD_REACTORS
330
51F
102
}
330
51F
100
AcDbXrecord
280
     1
  1
FINISH
  1
*FINISH*
  1
*
  1
*
 70
     0
  1
*
  1
*
  0
XRECORD
  5
711
102
{ACAD_REACTORS
330
51F
102
}
330
51F
100
AcDbXrecord
280
     1
  1
FINISHES
  1
*
  1
*
  1
*
 70
    16
  1
*
  1
*
  0
XRECORD
  5
712
102
{ACAD_REACTORS
330
51F
102
}
330
51F
100
AcDbXrecord
280
     1
  1
FINISHES PLAN
  1
*
  1
*
  1
*
 70
    16
  1
*
  1
*
  0
XRECORD
  5
713
102
{ACAD_REACTORS
330
51F
102
}
330
51F
100
AcDbXrecord
280
     1
  1
FINISHES PLANS
  1
*
  1
*
  1
*
 70
    16
  1
*
  1
*
  0
XRECORD
  5
714
102
{ACAD_REACTORS
330
51F
102
}
330
51F
100
AcDbXrecord
280
     1
  1
FIRE
  1
*FIRE*
  1
*
  1
*
 70
     0
  1
*
  1
*
  0
XRECORD
  5
715
102
{ACAD_REACTORS
330
51F
102
}
330
51F
100
AcDbXrecord
280
     1
  1
FIRE PLAN
  1
*
  1
*
  1
*
 70
     4
  1
*
  1
*
  0
XRECORD
  5
716
102
{ACAD_REACTORS
330
51F
102
}
330
51F
100
AcDbXrecord
280
     1
  1
FIRST FLOOR
  1
AF*,FIR*,0,VIE*,DETA*
  1
*
  1
*
 70
     0
  1
*
  1
*
  0
XRECORD
  5
717
102
{ACAD_REACTORS
330
51F
102
}
330
51F
100
AcDbXrecord
280
     1
  1
FITTING
  1
*FIT*
  1
*
  1
*
 70
     0
  1
*
  1
*
  0
XRECORD
  5
718
102
{ACAD_REACTORS
330
51F
102
}
330
51F
100
AcDbXrecord
280
     1
  1
fl
  1
*FL*
  1
*
  1
*
 70
     0
  1
*
  1
*
  0
XRECORD
  5
719
102
{ACAD_REACTORS
330
51F
102
}
330
51F
100
AcDbXrecord
280
     1
  1
flch
  1
*flch*
  1
*
  1
*
 70
     0
  1
*
  1
*
  0
XRECORD
  5
71A
102
{ACAD_REACTORS
330
51F
102
}
330
51F
100
AcDbXrecord
280
     1
  1
fliesen
  1
*flie*
  1
*
  1
*
 70
     0
  1
*
  1
*
  0
XRECORD
  5
71B
102
{ACAD_REACTORS
330
51F
102
}
330
51F
100
AcDbXrecord
280
     1
  1
FLOOR
  1
FLOOR*
  1
*
  1
*
 70
     0
  1
*
  1
*
  0
XRECORD
  5
71C
102
{ACAD_REACTORS
330
51F
102
}
330
51F
100
AcDbXrecord
280
     1
  1
FLOOR PLAN
  1
A-FLR-*
  1
*
  1
*
 70
     0
  1
*
  1
*
  0
XRECORD
  5
71D
102
{ACAD_REACTORS
330
51F
102
}
330
51F
100
AcDbXrecord
280
     1
  1
Floor Plans
  1
*
  1
*
  1
*
 70
     0
  1
*
  1
*
  0
XRECORD
  5
71E
102
{ACAD_REACTORS
330
51F
102
}
330
51F
100
AcDbXrecord
280
     1
  1
Flow
  1
CP_Air
  1
*
  1
*
 70
     0
  1
*
  1
*
  0
XRECORD
  5
71F
102
{ACAD_REACTORS
330
51F
102
}
330
51F
100
AcDbXrecord
280
     1
  1
Flächen nach DIN
  1
*_FLA_*
  1
*
  1
*
 70
     0
  1
*
  1
*
  0
XRECORD
  5
720
102
{ACAD_REACTORS
330
51F
102
}
330
51F
100
AcDbXrecord
280
     1
  1
Flächenberechnung
  1
A---FBG*
  1
*
  1
*
 70
     0
  1
*
  1
*
  0
XRECORD
  5
721
102
{ACAD_REACTORS
330
51F
102
}
330
51F
100
AcDbXrecord
280
     1
  1
Fonctions
  1
H-F*
  1
*
  1
*
 70
     0
  1
*
  1
*
  0
XRECORD
  5
722
102
{ACAD_REACTORS
330
51F
102
}
330
51F
100
AcDbXrecord
280
     1
  1
Fontions
  1
H-F*
  1
*
  1
*
 70
     0
  1
*
  1
*
  0
XRECORD
  5
723
102
{ACAD_REACTORS
330
51F
102
}
330
51F
100
AcDbXrecord
280
     1
  1
FOOT
  1
*FOOT*
  1
*
  1
*
 70
     0
  1
*
  1
*
  0
XRECORD
  5
724
102
{ACAD_REACTORS
330
51F
102
}
330
51F
100
AcDbXrecord
280
     1
  1
FOOTPATH
  1
*FOOTPATH*
  1
*
  1
*
 70
     0
  1
*
  1
*
  0
XRECORD
  5
725
102
{ACAD_REACTORS
330
51F
102
}
330
51F
100
AcDbXrecord
280
     1
  1
footway
  1
*foot*
  1
*
  1
*
 70
     0
  1
*
  1
*
  0
XRECORD
  5
726
102
{ACAD_REACTORS
330
51F
102
}
330
51F
100
AcDbXrecord
280
     1
  1
FORT
  1
*PLAN10G*
  1
*
  1
*
 70
     0
  1
*
  1
*
  0
XRECORD
  5
727
102
{ACAD_REACTORS
330
51F
102
}
330
51F
100
AcDbXrecord
280
     1
  1
FOUL
  1
*FW*
  1
*
  1
*
 70
     0
  1
*
  1
*
  0
XRECORD
  5
728
102
{ACAD_REACTORS
330
51F
102
}
330
51F
100
AcDbXrecord
280
     1
  1
FOUNDATION
  1
*FOUND*
  1
*
  1
*
 70
     0
  1
*
  1
*
  0
XRECORD
  5
729
102
{ACAD_REACTORS
330
51F
102
}
330
51F
100
AcDbXrecord
280
     1
  1
FOUNDATION PLOT
  1
*
  1
*
  1
*
 70
     0
  1
*
  1
*
  0
XRECORD
  5
72A
102
{ACAD_REACTORS
330
51F
102
}
330
51F
100
AcDbXrecord
280
     1
  1
FOUNDATIONS
  1
AF*,FND*,0,VIEW*,DETA*
  1
*
  1
*
 70
     0
  1
*
  1
*
  0
XRECORD
  5
72B
102
{ACAD_REACTORS
330
51F
102
}
330
51F
100
AcDbXrecord
280
     1
  1
founds
  1
*foun*
  1
*
  1
*
 70
     0
  1
*
  1
*
  0
XRECORD
  5
72C
102
{ACAD_REACTORS
330
51F
102
}
330
51F
100
AcDbXrecord
280
     1
  1
Fozen Layers off
  1
*
  1
*
  1
*
 70
    12
  1
*
  1
*
  0
XRECORD
  5
72D
102
{ACAD_REACTORS
330
51F
102
}
330
51F
100
AcDbXrecord
280
     1
  1
fp01
  1
a-fp01|*
  1
*
  1
*
 70
     0
  1
*
  1
*
  0
XRECORD
  5
72E
102
{ACAD_REACTORS
330
51F
102
}
330
51F
100
AcDbXrecord
280
     1
  1
FR
  1
*
  1
*
  1
*
 70
     4
  1
*
  1
*
  0
XRECORD
  5
72F
102
{ACAD_REACTORS
330
51F
102
}
330
51F
100
AcDbXrecord
280
     1
  1
frame
  1
frame-*,grid,ng
  1
*
  1
*
 70
     0
  1
*
  1
*
  0
XRECORD
  5
730
102
{ACAD_REACTORS
330
51F
102
}
330
51F
100
AcDbXrecord
280
     1
  1
franklin ellis
  1
frank-*
  1
*
  1
*
 70
     0
  1
*
  1
*
  0
XRECORD
  5
731
102
{ACAD_REACTORS
330
51F
102
}
330
51F
100
AcDbXrecord
280
     1
  1
freeze
  1
*
  1
*
  1
*
 70
     4
  1
*
  1
*
  0
XRECORD
  5
732
102
{ACAD_REACTORS
330
51F
102
}
330
51F
100
AcDbXrecord
280
     1
  1
FREEZE ALL
  1
ALL
  1
*
  1
*
 70
     5
  1
*
  1
*
  0
XRECORD
  5
733
102
{ACAD_REACTORS
330
51F
102
}
330
51F
100
AcDbXrecord
280
     1
  1
freeze-off
  1
*
  1
*
  1
*
 70
     4
  1
*
  1
*
  0
XRECORD
  5
734
102
{ACAD_REACTORS
330
51F
102
}
330
51F
100
AcDbXrecord
280
     1
  1
frier
  1
*
  1
*
  1
*
 70
     4
  1
*
  1
*
  0
XRECORD
  5
735
102
{ACAD_REACTORS
330
51F
102
}
330
51F
100
AcDbXrecord
280
     1
  1
FROS CUR VPORT
  1
LUCIEN
  1
*
  1
*
 70
    16
  1
*
  1
*
  0
XRECORD
  5
736
102
{ACAD_REACTORS
330
51F
102
}
330
51F
100
AcDbXrecord
280
     1
  1
froz
  1
*
  1
*
  1
*
 70
     4
  1
*
  1
*
  0
XRECORD
  5
737
102
{ACAD_REACTORS
330
51F
102
}
330
51F
100
AcDbXrecord
280
     1
  1
FROZ CUR VPORT
  1
*
  1
*
  1
*
 70
    16
  1
*
  1
*
  0
XRECORD
  5
738
102
{ACAD_REACTORS
330
51F
102
}
330
51F
100
AcDbXrecord
280
     1
  1
FROZ IN CURENT
  1
*
  1
*
  1
*
 70
    16
  1
*
  1
*
  0
XRECORD
  5
739
102
{ACAD_REACTORS
330
51F
102
}
330
51F
100
AcDbXrecord
280
     1
  1
frozen
  1
*
  1
*
  1
*
 70
     4
  1
*
  1
*
  0
XRECORD
  5
73A
102
{ACAD_REACTORS
330
51F
102
}
330
51F
100
AcDbXrecord
280
     1
  1
frozen in current vp
  1
*
  1
*
  1
*
 70
    16
  1
*
  1
*
  0
XRECORD
  5
73B
102
{ACAD_REACTORS
330
51F
102
}
330
51F
100
AcDbXrecord
280
     1
  1
FROZEN-ACTIVE
  1
*
  1
*
  1
*
 70
    16
  1
*
  1
*
  0
XRECORD
  5
73C
102
{ACAD_REACTORS
330
51F
102
}
330
51F
100
AcDbXrecord
280
     1
  1
FROZEN_CURRENTVP
  1
*
  1
*
  1
*
 70
    16
  1
*
  1
*
  0
XRECORD
  5
73D
102
{ACAD_REACTORS
330
51F
102
}
330
51F
100
AcDbXrecord
280
     1
  1
FROZZED
  1
*
  1
*
  1
*
 70
     4
  1
*
  1
*
  0
XRECORD
  5
73E
102
{ACAD_REACTORS
330
51F
102
}
330
51F
100
AcDbXrecord
280
     1
  1
ft
  1
*
  1
*
  1
*
 70
     3
  1
*
  1
*
  0
XRECORD
  5
73F
102
{ACAD_REACTORS
330
51F
102
}
330
51F
100
AcDbXrecord
280
     1
  1
FURN
  1
*FURN*
  1
*
  1
*
 70
     0
  1
*
  1
*
  0
XRECORD
  5
740
102
{ACAD_REACTORS
330
51F
102
}
330
51F
100
AcDbXrecord
280
     1
  1
Furniture
  1
f*
  1
*
  1
*
 70
     0
  1
*
  1
*
  0
XRECORD
  5
741
102
{ACAD_REACTORS
330
51F
102
}
330
51F
100
AcDbXrecord
280
     1
  1
future
  1
*futr
  1
*
  1
*
 70
     0
  1
*
  1
*
  0
XRECORD
  5
742
102
{ACAD_REACTORS
330
51F
102
}
330
51F
100
AcDbXrecord
280
     1
  1
fußboden
  1
a-fb*
  1
*
  1
*
 70
     0
  1
*
  1
*
  0
XRECORD
  5
743
102
{ACAD_REACTORS
330
51F
102
}
330
51F
100
AcDbXrecord
280
     1
  1
fwmh
  1
*fwmh*-
  1
*
  1
*
 70
     0
  1
*
  1
*
  0
XRECORD
  5
744
102
{ACAD_REACTORS
330
51F
102
}
330
51F
100
AcDbXrecord
280
     1
  1
G
  1
*G*
  1
*
  1
*
 70
     0
  1
*
  1
*
  0
XRECORD
  5
745
102
{ACAD_REACTORS
330
51F
102
}
330
51F
100
AcDbXrecord
280
     1
  1
G80
  1
*G80*
  1
*
  1
*
 70
     0
  1
*
  1
*
  0
XRECORD
  5
746
102
{ACAD_REACTORS
330
51F
102
}
330
51F
100
AcDbXrecord
280
     1
  1
GA
  1
*
  1
*
  1
*
 70
    16
  1
*
  1
*
  0
XRECORD
  5
747
102
{ACAD_REACTORS
330
51F
102
}
330
51F
100
AcDbXrecord
280
     1
  1
ga plan
  1
*
  1
*
  1
*
 70
    16
  1
*
  1
*
  0
XRECORD
  5
748
102
{ACAD_REACTORS
330
51F
102
}
330
51F
100
AcDbXrecord
280
     1
  1
GAMCO
  1
GAM*
  1
*
  1
*
 70
     0
  1
*
  1
*
  0
XRECORD
  5
749
102
{ACAD_REACTORS
330
51F
102
}
330
51F
100
AcDbXrecord
280
     1
  1
GARAGE
  1
TG*
  1
*
  1
*
 70
     0
  1
*
  1
*
  0
XRECORD
  5
74A
102
{ACAD_REACTORS
330
51F
102
}
330
51F
100
AcDbXrecord
280
     1
  1
GAS
  1
C-P?A?S?-GAS*
  1
*
  1
*
 70
     0
  1
*
  1
*
  0
XRECORD
  5
74B
102
{ACAD_REACTORS
330
51F
102
}
330
51F
100
AcDbXrecord
280
     1
  1
GC
  1
GC*
  1
*
  1
*
 70
     4
  1
*
  1
*
  0
XRECORD
  5
74C
102
{ACAD_REACTORS
330
51F
102
}
330
51F
100
AcDbXrecord
280
     1
  1
GE
  1
GE.*
  1
*
  1
*
 70
     0
  1
*
  1
*
  0
XRECORD
  5
74D
102
{ACAD_REACTORS
330
51F
102
}
330
51F
100
AcDbXrecord
280
     1
  1
GEA
  1
*GEA*
  1
*
  1
*
 70
     0
  1
*
  1
*
  0
XRECORD
  5
74E
102
{ACAD_REACTORS
330
51F
102
}
330
51F
100
AcDbXrecord
280
     1
  1
gefroren
  1
*
  1
*
  1
*
 70
     4
  1
*
  1
*
  0
XRECORD
  5
74F
102
{ACAD_REACTORS
330
51F
102
}
330
51F
100
AcDbXrecord
280
     1
  1
Gefrorene Layer
  1
*
  1
*
  1
*
 70
     4
  1
*
  1
*
  0
XRECORD
  5
750
102
{ACAD_REACTORS
330
51F
102
}
330
51F
100
AcDbXrecord
280
     1
  1
gel
  1
*ILLUMI*
  1
*
  1
*
 70
     0
  1
*
  1
*
  0
XRECORD
  5
751
102
{ACAD_REACTORS
330
51F
102
}
330
51F
100
AcDbXrecord
280
     1
  1
GEN ARR
  1
GA-*
  1
*
  1
*
 70
     0
  1
*
  1
*
  0
XRECORD
  5
752
102
{ACAD_REACTORS
330
51F
102
}
330
51F
100
AcDbXrecord
280
     1
  1
GENERAL
  1
*GE*
  1
*
  1
*
 70
     0
  1
*
  1
*
  0
XRECORD
  5
753
102
{ACAD_REACTORS
330
51F
102
}
330
51F
100
AcDbXrecord
280
     1
  1
geplant
  1
*gepl*
  1
*
  1
*
 70
     0
  1
*
  1
*
  0
XRECORD
  5
754
102
{ACAD_REACTORS
330
51F
102
}
330
51F
100
AcDbXrecord
280
     1
  1
geschnitte
  1
*s*
  1
*
  1
*
 70
     0
  1
*
  1
*
  0
XRECORD
  5
755
102
{ACAD_REACTORS
330
51F
102
}
330
51F
100
AcDbXrecord
280
     1
  1
geschnitten
  1
*s
  1
*
  1
*
 70
     0
  1
*
  1
*
  0
XRECORD
  5
756
102
{ACAD_REACTORS
330
51F
102
}
330
51F
100
AcDbXrecord
280
     1
  1
gesperrt
  1
*
  1
*
  1
*
 70
   256
  1
*
  1
*
  0
XRECORD
  5
757
102
{ACAD_REACTORS
330
51F
102
}
330
51F
100
AcDbXrecord
280
     1
  1
getaut
  1
*
  1
*
  1
*
 70
    12
  1
*
  1
*
  0
XRECORD
  5
758
102
{ACAD_REACTORS
330
51F
102
}
330
51F
100
AcDbXrecord
280
     1
  1
GF
  1
M-GF*
  1
*
  1
*
 70
     4
  1
*
  1
*
  0
XRECORD
  5
759
102
{ACAD_REACTORS
330
51F
102
}
330
51F
100
AcDbXrecord
280
     1
  1
GF OFF
  1
M-GF*
  1
*
  1
*
 70
     0
  1
*
  1
*
  0
XRECORD
  5
75A
102
{ACAD_REACTORS
330
51F
102
}
330
51F
100
AcDbXrecord
280
     1
  1
GIA
  1
*GIA*
  1
*
  1
*
 70
     0
  1
*
  1
*
  0
XRECORD
  5
75B
102
{ACAD_REACTORS
330
51F
102
}
330
51F
100
AcDbXrecord
280
     1
  1
gipskarton
  1
*gk*
  1
*
  1
*
 70
     0
  1
*
  1
*
  0
XRECORD
  5
75C
102
{ACAD_REACTORS
330
51F
102
}
330
51F
100
AcDbXrecord
280
     1
  1
GLASS
  1
GLASS*
  1
*
  1
*
 70
     0
  1
*
  1
*
  0
XRECORD
  5
75D
102
{ACAD_REACTORS
330
51F
102
}
330
51F
100
AcDbXrecord
280
     1
  1
GLASS RACK
  1
GLASSRACK*
  1
*
  1
*
 70
     0
  1
*
  1
*
  0
XRECORD
  5
75E
102
{ACAD_REACTORS
330
51F
102
}
330
51F
100
AcDbXrecord
280
     1
  1
glaz
  1
*glaz*
  1
*
  1
*
 70
     0
  1
*
  1
*
  0
XRECORD
  5
75F
102
{ACAD_REACTORS
330
51F
102
}
330
51F
100
AcDbXrecord
280
     1
  1
go
  1
*
  1
*
  1
*
 70
     0
  1
*
  1
*
  0
XRECORD
  5
760
102
{ACAD_REACTORS
330
51F
102
}
330
51F
100
AcDbXrecord
280
     1
  1
GREEN
  1
*
  1
GREEN
  1
*
 70
     0
  1
*
  1
*
  0
XRECORD
  5
761
102
{ACAD_REACTORS
330
51F
102
}
330
51F
100
AcDbXrecord
280
     1
  1
GREET
  1
GREET*
  1
*
  1
*
 70
     0
  1
*
  1
*
  0
XRECORD
  5
762
102
{ACAD_REACTORS
330
51F
102
}
330
51F
100
AcDbXrecord
280
     1
  1
grey
  1
*grey*
  1
*
  1
*
 70
     0
  1
*
  1
*
  0
XRECORD
  5
763
102
{ACAD_REACTORS
330
51F
102
}
330
51F
100
AcDbXrecord
280
     1
  1
GRID
  1
*GRID*
  1
*
  1
*
 70
     0
  1
*
  1
*
  0
XRECORD
  5
764
102
{ACAD_REACTORS
330
51F
102
}
330
51F
100
AcDbXrecord
280
     1
  1
GRID-1
  1
*GRID*
  1
*
  1
*
 70
     0
  1
*
  1
*
  0
XRECORD
  5
765
102
{ACAD_REACTORS
330
51F
102
}
330
51F
100
AcDbXrecord
280
     1
  1
GRID-2
  1
*TXM*
  1
*
  1
*
 70
     0
  1
*
  1
*
  0
XRECORD
  5
766
102
{ACAD_REACTORS
330
51F
102
}
330
51F
100
AcDbXrecord
280
     1
  1
grids
  1
*grid*
  1
*
  1
*
 70
     0
  1
*
  1
*
  0
XRECORD
  5
767
102
{ACAD_REACTORS
330
51F
102
}
330
51F
100
AcDbXrecord
280
     1
  1
gris
  1
*
  1
*
  1
*
 70
     0
  1
*
  1
*
  0
XRECORD
  5
768
102
{ACAD_REACTORS
330
51F
102
}
330
51F
100
AcDbXrecord
280
     1
  1
gro
  1
*gro*
  1
*
  1
*
 70
     0
  1
*
  1
*
  0
XRECORD
  5
769
102
{ACAD_REACTORS
330
51F
102
}
330
51F
100
AcDbXrecord
280
     1
  1
GROUND FLOOR
  1
AF*,GF*,0,VIEW*,DETA*
  1
*
  1
*
 70
     0
  1
*
  1
*
  0
XRECORD
  5
76A
102
{ACAD_REACTORS
330
51F
102
}
330
51F
100
AcDbXrecord
280
     1
  1
ground floor GA
  1
*
  1
*
  1
*
 70
  3072
  1
*
  1
*
  0
XRECORD
  5
76B
102
{ACAD_REACTORS
330
51F
102
}
330
51F
100
AcDbXrecord
280
     1
  1
Grundstück
  1
G*
  1
*
  1
*
 70
     0
  1
*
  1
*
  0
XRECORD
  5
76C
102
{ACAD_REACTORS
330
51F
102
}
330
51F
100
AcDbXrecord
280
     1
  1
gsa
  1
gsa*
  1
*
  1
*
 70
     0
  1
*
  1
*
  0
XRECORD
  5
76D
102
{ACAD_REACTORS
330
51F
102
}
330
51F
100
AcDbXrecord
280
     1
  1
GUL
  1
*GUL*
  1
*
  1
*
 70
     0
  1
*
  1
*
  0
XRECORD
  5
76E
102
{ACAD_REACTORS
330
51F
102
}
330
51F
100
AcDbXrecord
280
     1
  1
GUTTER
  1
*GUTTER*
  1
*
  1
*
 70
     0
  1
*
  1
*
  0
XRECORD
  5
76F
102
{ACAD_REACTORS
330
51F
102
}
330
51F
100
AcDbXrecord
280
     1
  1
H
  1
*H*
  1
*
  1
*
 70
     0
  1
*
  1
*
  0
XRECORD
  5
770
102
{ACAD_REACTORS
330
51F
102
}
330
51F
100
AcDbXrecord
280
     1
  1
h-
  1
h-*
  1
*
  1
*
 70
     0
  1
*
  1
*
  0
XRECORD
  5
771
102
{ACAD_REACTORS
330
51F
102
}
330
51F
100
AcDbXrecord
280
     1
  1
h-db
  1
h-db*
  1
*
  1
*
 70
     0
  1
*
  1
*
  0
XRECORD
  5
772
102
{ACAD_REACTORS
330
51F
102
}
330
51F
100
AcDbXrecord
280
     1
  1
H-DB-DIVERSE
  1
H-DB-D*
  1
*
  1
*
 70
     0
  1
*
  1
*
  0
XRECORD
  5
773
102
{ACAD_REACTORS
330
51F
102
}
330
51F
100
AcDbXrecord
280
     1
  1
H-DB-ELEKTRO
  1
H-DB-E*
  1
*
  1
*
 70
     0
  1
*
  1
*
  0
XRECORD
  5
774
102
{ACAD_REACTORS
330
51F
102
}
330
51F
100
AcDbXrecord
280
     1
  1
H-DB-HEIZUNG
  1
H-DB-H*
  1
*
  1
*
 70
     0
  1
*
  1
*
  0
XRECORD
  5
775
102
{ACAD_REACTORS
330
51F
102
}
330
51F
100
AcDbXrecord
280
     1
  1
H-DB-LUEFTUNG
  1
H-DB-L*
  1
*
  1
*
 70
     0
  1
*
  1
*
  0
XRECORD
  5
776
102
{ACAD_REACTORS
330
51F
102
}
330
51F
100
AcDbXrecord
280
     1
  1
H-DB-SANITAER
  1
H-DB-S*
  1
*
  1
*
 70
     0
  1
*
  1
*
  0
XRECORD
  5
777
102
{ACAD_REACTORS
330
51F
102
}
330
51F
100
AcDbXrecord
280
     1
  1
h-durchbrueche
  1
h-*
  1
*
  1
*
 70
     0
  1
*
  1
*
  0
XRECORD
  5
778
102
{ACAD_REACTORS
330
51F
102
}
330
51F
100
AcDbXrecord
280
     1
  1
H-DURCHBRÜCHE
  1
H-*
  1
*
  1
*
 70
     0
  1
*
  1
*
  0
XRECORD
  5
779
102
{ACAD_REACTORS
330
51F
102
}
330
51F
100
AcDbXrecord
280
     1
  1
HA
  1
*HA*
  1
*
  1
*
 70
     0
  1
*
  1
*
  0
XRECORD
  5
77A
102
{ACAD_REACTORS
330
51F
102
}
330
51F
100
AcDbXrecord
280
     1
  1
HA-GENE-AR
  1
*HA-GENE-AR
  1
*
  1
*
 70
     0
  1
*
  1
*
  0
XRECORD
  5
77B
102
{ACAD_REACTORS
330
51F
102
}
330
51F
100
AcDbXrecord
280
     1
  1
HA5
  1
HA-*5-AR
  1
*
  1
*
 70
     0
  1
*
  1
*
  0
XRECORD
  5
77C
102
{ACAD_REACTORS
330
51F
102
}
330
51F
100
AcDbXrecord
280
     1
  1
HAIRDRESSER
  1
HD*
  1
*
  1
*
 70
     0
  1
*
  1
*
  0
XRECORD
  5
77D
102
{ACAD_REACTORS
330
51F
102
}
330
51F
100
AcDbXrecord
280
     1
  1
HALLS
  1
*HAL*
  1
*
  1
*
 70
     0
  1
*
  1
*
  0
XRECORD
  5
77E
102
{ACAD_REACTORS
330
51F
102
}
330
51F
100
AcDbXrecord
280
     1
  1
HAOU
  1
HA*,OU-AREA*
  1
*
  1
*
 70
     0
  1
*
  1
*
  0
XRECORD
  5
77F
102
{ACAD_REACTORS
330
51F
102
}
330
51F
100
AcDbXrecord
280
     1
  1
HATCH
  1
*Hatch*
  1
*
  1
*
 70
     0
  1
*
  1
*
  0
XRECORD
  5
780
102
{ACAD_REACTORS
330
51F
102
}
330
51F
100
AcDbXrecord
280
     1
  1
hatch-layers
  1
*hatch
  1
*
  1
*
 70
     0
  1
*
  1
*
  0
XRECORD
  5
781
102
{ACAD_REACTORS
330
51F
102
}
330
51F
100
AcDbXrecord
280
     1
  1
HATCH-SKY
  1
*OU-HA*
  1
*
  1
*
 70
     0
  1
*
  1
*
  0
XRECORD
  5
782
102
{ACAD_REACTORS
330
51F
102
}
330
51F
100
AcDbXrecord
280
     1
  1
HATCH1
  1
*HA*
  1
*
  1
*
 70
     0
  1
*
  1
*
  0
XRECORD
  5
783
102
{ACAD_REACTORS
330
51F
102
}
330
51F
100
AcDbXrecord
280
     1
  1
HATCHES
  1
*HATCH*
  1
*
  1
*
 70
     0
  1
*
  1
*
  0
XRECORD
  5
784
102
{ACAD_REACTORS
330
51F
102
}
330
51F
100
AcDbXrecord
280
     1
  1
HATCHONLY
  1
*HATCH*
  1
*
  1
*
 70
     0
  1
*
  1
*
  0
XRECORD
  5
785
102
{ACAD_REACTORS
330
51F
102
}
330
51F
100
AcDbXrecord
280
     1
  1
Haustechnik
  1
H*
  1
*
  1
*
 70
     0
  1
*
  1
*
  0
XRECORD
  5
786
102
{ACAD_REACTORS
330
51F
102
}
330
51F
100
AcDbXrecord
280
     1
  1
HEATING
  1
HTG*
  1
*
  1
*
 70
     0
  1
*
  1
*
  0
XRECORD
  5
787
102
{ACAD_REACTORS
330
51F
102
}
330
51F
100
AcDbXrecord
280
     1
  1
heiz
  1
h_*
  1
*
  1
*
 70
     0
  1
*
  1
*
  0
XRECORD
  5
788
102
{ACAD_REACTORS
330
51F
102
}
330
51F
100
AcDbXrecord
280
     1
  1
Heizung
  1
H1-H*
  1
*
  1
*
 70
     0
  1
*
  1
*
  0
XRECORD
  5
789
102
{ACAD_REACTORS
330
51F
102
}
330
51F
100
AcDbXrecord
280
     1
  1
helaba
  1
hlb-*
  1
*
  1
*
 70
     0
  1
*
  1
*
  0
XRECORD
  5
78A
102
{ACAD_REACTORS
330
51F
102
}
330
51F
100
AcDbXrecord
280
     1
  1
HID
  1
*HID*
  1
*
  1
*
 70
     0
  1
*
  1
*
  0
XRECORD
  5
78B
102
{ACAD_REACTORS
330
51F
102
}
330
51F
100
AcDbXrecord
280
     1
  1
hidden
  1
*hid*
  1
*
  1
*
 70
     0
  1
*
  1
*
  0
XRECORD
  5
78C
102
{ACAD_REACTORS
330
51F
102
}
330
51F
100
AcDbXrecord
280
     1
  1
Hide
  1
*hide*
  1
*
  1
*
 70
     0
  1
*
  1
*
  0
XRECORD
  5
78D
102
{ACAD_REACTORS
330
51F
102
}
330
51F
100
AcDbXrecord
280
     1
  1
Hilfalayer
  1
A---????H*
  1
*
  1
*
 70
     0
  1
*
  1
*
  0
XRECORD
  5
78E
102
{ACAD_REACTORS
330
51F
102
}
330
51F
100
AcDbXrecord
280
     1
  1
Hilfeschraff
  1
*02GFS000
  1
*
  1
*
 70
     0
  1
*
  1
*
  0
XRECORD
  5
78F
102
{ACAD_REACTORS
330
51F
102
}
330
51F
100
AcDbXrecord
280
     1
  1
Hilfslayer
  1
A---????H*
  1
*
  1
*
 70
     0
  1
*
  1
*
  0
XRECORD
  5
790
102
{ACAD_REACTORS
330
51F
102
}
330
51F
100
AcDbXrecord
280
     1
  1
hk
  1
2h*
  1
*
  1
*
 70
     0
  1
*
  1
*
  0
XRECORD
  5
791
102
{ACAD_REACTORS
330
51F
102
}
330
51F
100
AcDbXrecord
280
     1
  1
hlb
  1
hlb-*
  1
*
  1
*
 70
     0
  1
*
  1
*
  0
XRECORD
  5
792
102
{ACAD_REACTORS
330
51F
102
}
330
51F
100
AcDbXrecord
280
     1
  1
hlb-18
  1
hlb-18*
  1
*
  1
*
 70
     0
  1
*
  1
*
  0
XRECORD
  5
793
102
{ACAD_REACTORS
330
51F
102
}
330
51F
100
AcDbXrecord
280
     1
  1
HLK
  1
H1*
  1
*
  1
*
 70
     0
  1
*
  1
*
  0
XRECORD
  5
794
102
{ACAD_REACTORS
330
51F
102
}
330
51F
100
AcDbXrecord
280
     1
  1
HOOD
  1
HD*
  1
*
  1
*
 70
     0
  1
*
  1
*
  0
XRECORD
  5
795
102
{ACAD_REACTORS
330
51F
102
}
330
51F
100
AcDbXrecord
280
     1
  1
hotel
  1
*hotel*
  1
*
  1
*
 70
     0
  1
*
  1
*
  0
XRECORD
  5
796
102
{ACAD_REACTORS
330
51F
102
}
330
51F
100
AcDbXrecord
280
     1
  1
HOUSE
  1
*HOUSE*
  1
*
  1
*
 70
     0
  1
*
  1
*
  0
XRECORD
  5
797
102
{ACAD_REACTORS
330
51F
102
}
330
51F
100
AcDbXrecord
280
     1
  1
HTSV
  1
HTSV_P1*
  1
*
  1
*
 70
     0
  1
*
  1
*
  0
XRECORD
  5
798
102
{ACAD_REACTORS
330
51F
102
}
330
51F
100
AcDbXrecord
280
     1
  1
hz
  1
*2h*
  1
*
  1
*
 70
     0
  1
*
  1
*
  0
XRECORD
  5
799
102
{ACAD_REACTORS
330
51F
102
}
330
51F
100
AcDbXrecord
280
     1
  1
HZ-SYM
  1
2h*sym*
  1
*
  1
*
 70
     0
  1
*
  1
*
  0
XRECORD
  5
79A
102
{ACAD_REACTORS
330
51F
102
}
330
51F
100
AcDbXrecord
280
     1
  1
hzg
  1
T_*
  1
*
  1
*
 70
     0
  1
*
  1
*
  0
XRECORD
  5
79B
102
{ACAD_REACTORS
330
51F
102
}
330
51F
100
AcDbXrecord
280
     1
  1
Höhen
  1
4*
  1
*
  1
*
 70
     0
  1
*
  1
*
  0
XRECORD
  5
79C
102
{ACAD_REACTORS
330
51F
102
}
330
51F
100
AcDbXrecord
280
     1
  1
I
  1
*I*
  1
*
  1
*
 70
     0
  1
*
  1
*
  0
XRECORD
  5
79D
102
{ACAD_REACTORS
330
51F
102
}
330
51F
100
AcDbXrecord
280
     1
  1
ICERINK
  1
*ICERINK*
  1
*
  1
*
 70
     0
  1
*
  1
*
  0
XRECORD
  5
79E
102
{ACAD_REACTORS
330
51F
102
}
330
51F
100
AcDbXrecord
280
     1
  1
ID_P_T0-0
  1
*ID_P_T0-0*
  1
*
  1
*
 70
     0
  1
*
  1
*
  0
XRECORD
  5
79F
102
{ACAD_REACTORS
330
51F
102
}
330
51F
100
AcDbXrecord
280
     1
  1
IMP
  1
18,13,14,15,4,8
  1
*
  1
*
 70
     0
  1
*
  1
*
  0
XRECORD
  5
7A0
102
{ACAD_REACTORS
330
51F
102
}
330
51F
100
AcDbXrecord
280
     1
  1
IMPIANTO
  1
13,14,15,18,8,4
  1
*
  1
*
 70
     0
  1
*
  1
*
  0
XRECORD
  5
7A1
102
{ACAD_REACTORS
330
51F
102
}
330
51F
100
AcDbXrecord
280
     1
  1
INDICATE THICK LINE OF BULKHEAD
  1
*
  1
*
  1
*
 70
    16
  1
*
  1
*
  0
XRECORD
  5
7A2
102
{ACAD_REACTORS
330
51F
102
}
330
51F
100
AcDbXrecord
280
     1
  1
infeed chute
  1
*ic-*
  1
*
  1
*
 70
     0
  1
*
  1
*
  0
XRECORD
  5
7A3
102
{ACAD_REACTORS
330
51F
102
}
330
51F
100
AcDbXrecord
280
     1
  1
Innenausbau
  1
I*
  1
*
  1
*
 70
     0
  1
*
  1
*
  0
XRECORD
  5
7A4
102
{ACAD_REACTORS
330
51F
102
}
330
51F
100
AcDbXrecord
280
     1
  1
INS
  1
*INS*
  1
*
  1
*
 70
     0
  1
*
  1
*
  0
XRECORD
  5
7A5
102
{ACAD_REACTORS
330
51F
102
}
330
51F
100
AcDbXrecord
280
     1
  1
Insul
  1
*Insul*
  1
*
  1
*
 70
     0
  1
*
  1
*
  0
XRECORD
  5
7A6
102
{ACAD_REACTORS
330
51F
102
}
330
51F
100
AcDbXrecord
280
     1
  1
Insulation
  1
*insulation*
  1
*
  1
*
 70
     0
  1
*
  1
*
  0
XRECORD
  5
7A7
102
{ACAD_REACTORS
330
51F
102
}
330
51F
100
AcDbXrecord
280
     1
  1
IOTA
  1
IOTA*
  1
*
  1
*
 70
     0
  1
*
  1
*
  0
XRECORD
  5
7A8
102
{ACAD_REACTORS
330
51F
102
}
330
51F
100
AcDbXrecord
280
     1
  1
IP
  1
*
  1
*
  1
*
 70
     0
  1
*
  1
*
  0
XRECORD
  5
7A9
102
{ACAD_REACTORS
330
51F
102
}
330
51F
100
AcDbXrecord
280
     1
  1
IT
  1
*IT*
  1
*
  1
*
 70
     0
  1
*
  1
*
  0
XRECORD
  5
7AA
102
{ACAD_REACTORS
330
51F
102
}
330
51F
100
AcDbXrecord
280
     1
  1
J
  1
*J*
  1
*
  1
*
 70
     0
  1
*
  1
*
  0
XRECORD
  5
7AB
102
{ACAD_REACTORS
330
51F
102
}
330
51F
100
AcDbXrecord
280
     1
  1
J-SECTION
  1
J*
  1
*
  1
*
 70
     0
  1
*
  1
*
  0
XRECORD
  5
7AC
102
{ACAD_REACTORS
330
51F
102
}
330
51F
100
AcDbXrecord
280
     1
  1
JACKS
  1
JK*
  1
*
  1
*
 70
     0
  1
*
  1
*
  0
XRECORD
  5
7AD
102
{ACAD_REACTORS
330
51F
102
}
330
51F
100
AcDbXrecord
280
     1
  1
JBHGVHG
  1
BAR*
  1
*
  1
*
 70
     0
  1
*
  1
*
  0
XRECORD
  5
7AE
102
{ACAD_REACTORS
330
51F
102
}
330
51F
100
AcDbXrecord
280
     1
  1
jcs
  1
*sect*
  1
*
  1
*
 70
     0
  1
*
  1
*
  0
XRECORD
  5
7AF
102
{ACAD_REACTORS
330
51F
102
}
330
51F
100
AcDbXrecord
280
     1
  1
jen _
  1
_*
  1
*
  1
*
 70
     0
  1
*
  1
*
  0
XRECORD
  5
7B0
102
{ACAD_REACTORS
330
51F
102
}
330
51F
100
AcDbXrecord
280
     1
  1
jen_
  1
_*
  1
*
  1
*
 70
     0
  1
*
  1
*
  0
XRECORD
  5
7B1
102
{ACAD_REACTORS
330
51F
102
}
330
51F
100
AcDbXrecord
280
     1
  1
Jet
  1
_*
  1
*
  1
*
 70
     0
  1
*
  1
*
  0
XRECORD
  5
7B2
102
{ACAD_REACTORS
330
51F
102
}
330
51F
100
AcDbXrecord
280
     1
  1
JIOL[
  1
*
  1
*
  1
*
 70
    13
  1
*
  1
*
  0
XRECORD
  5
7B3
102
{ACAD_REACTORS
330
51F
102
}
330
51F
100
AcDbXrecord
280
     1
  1
JOINERE SETTING OUT
  1
*
  1
*
  1
*
 70
    16
  1
*
  1
*
  0
XRECORD
  5
7B4
102
{ACAD_REACTORS
330
51F
102
}
330
51F
100
AcDbXrecord
280
     1
  1
joint
  1
*jt*
  1
*
  1
*
 70
     0
  1
*
  1
*
  0
XRECORD
  5
7B5
102
{ACAD_REACTORS
330
51F
102
}
330
51F
100
AcDbXrecord
280
     1
  1
JRP
  1
JRP*
  1
*
  1
*
 70
     0
  1
*
  1
*
  0
XRECORD
  5
7B6
102
{ACAD_REACTORS
330
51F
102
}
330
51F
100
AcDbXrecord
280
     1
  1
JSO
  1
JSO LINE
  1
*
  1
*
 70
     0
  1
*
  1
*
  0
XRECORD
  5
7B7
102
{ACAD_REACTORS
330
51F
102
}
330
51F
100
AcDbXrecord
280
     1
  1
K
  1
*K*
  1
*
  1
*
 70
     0
  1
*
  1
*
  0
XRECORD
  5
7B8
102
{ACAD_REACTORS
330
51F
102
}
330
51F
100
AcDbXrecord
280
     1
  1
K_
  1
K_*
  1
*
  1
*
 70
     0
  1
*
  1
*
  0
XRECORD
  5
7B9
102
{ACAD_REACTORS
330
51F
102
}
330
51F
100
AcDbXrecord
280
     1
  1
K_m
  1
CS*,TZB*,POP*
  1
*
  1
*
 70
     0
  1
*
  1
*
  0
XRECORD
  5
7BA
102
{ACAD_REACTORS
330
51F
102
}
330
51F
100
AcDbXrecord
280
     1
  1
K_m_S
  1
TZB*,POP*
  1
*
  1
*
 70
     0
  1
*
  1
*
  0
XRECORD
  5
7BB
102
{ACAD_REACTORS
330
51F
102
}
330
51F
100
AcDbXrecord
280
     1
  1
K_S
  1
CA*,TZB*,POP*
  1
*
  1
*
 70
     0
  1
*
  1
*
  0
XRECORD
  5
7BC
102
{ACAD_REACTORS
330
51F
102
}
330
51F
100
AcDbXrecord
280
     1
  1
kalf
  1
positiekalf
  1
*
  1
*
 70
     1
  1
*
  1
*
  0
XRECORD
  5
7BD
102
{ACAD_REACTORS
330
51F
102
}
330
51F
100
AcDbXrecord
280
     1
  1
Kanal
  1
2L_RE*
  1
*
  1
*
 70
     1
  1
*
  1
*
  0
XRECORD
  5
7BE
102
{ACAD_REACTORS
330
51F
102
}
330
51F
100
AcDbXrecord
280
     1
  1
keith
  1
*
  1
*
  1
*
 70
    13
  1
*
  1
*
  0
XRECORD
  5
7BF
102
{ACAD_REACTORS
330
51F
102
}
330
51F
100
AcDbXrecord
280
     1
  1
keiths
  1
kn-*
  1
*
  1
*
 70
     0
  1
*
  1
*
  0
XRECORD
  5
7C0
102
{ACAD_REACTORS
330
51F
102
}
330
51F
100
AcDbXrecord
280
     1
  1
kek
  1
kek*
  1
*
  1
*
 70
     0
  1
*
  1
*
  0
XRECORD
  5
7C1
102
{ACAD_REACTORS
330
51F
102
}
330
51F
100
AcDbXrecord
280
     1
  1
kelder1e2everd
  1
*
  1
*
  1
*
 70
     4
  1
*
  1
*
  0
XRECORD
  5
7C2
102
{ACAD_REACTORS
330
51F
102
}
330
51F
100
AcDbXrecord
280
     1
  1
KER
  1
*KER*
  1
*
  1
*
 70
     0
  1
*
  1
*
  0
XRECORD
  5
7C3
102
{ACAD_REACTORS
330
51F
102
}
330
51F
100
AcDbXrecord
280
     1
  1
KERB
  1
*KERB*
  1
*
  1
*
 70
     0
  1
*
  1
*
  0
XRECORD
  5
7C4
102
{ACAD_REACTORS
330
51F
102
}
330
51F
100
AcDbXrecord
280
     1
  1
Kerne
  1
KEK*
  1
*
  1
*
 70
     0
  1
*
  1
*
  0
XRECORD
  5
7C5
102
{ACAD_REACTORS
330
51F
102
}
330
51F
100
AcDbXrecord
280
     1
  1
KITCHEN
  1
KITCHEN*
  1
*
  1
*
 70
     0
  1
*
  1
*
  0
XRECORD
  5
7C6
102
{ACAD_REACTORS
330
51F
102
}
330
51F
100
AcDbXrecord
280
     1
  1
KITCHEN PLAN
  1
*
  1
*
  1
*
 70
    16
  1
*
  1
*
  0
XRECORD
  5
7C7
102
{ACAD_REACTORS
330
51F
102
}
330
51F
100
AcDbXrecord
280
     1
  1
KITCHEN SETTING OUT
  1
*
  1
*
  1
*
 70
    16
  1
*
  1
*
  0
XRECORD
  5
7C8
102
{ACAD_REACTORS
330
51F
102
}
330
51F
100
AcDbXrecord
280
     1
  1
koelie
  1
*koel*
  1
*
  1
*
 70
     0
  1
*
  1
*
  0
XRECORD
  5
7C9
102
{ACAD_REACTORS
330
51F
102
}
330
51F
100
AcDbXrecord
280
     1
  1
Kälte
  1
H1-K*
  1
*
  1
*
 70
     0
  1
*
  1
*
  0
XRECORD
  5
7CA
102
{ACAD_REACTORS
330
51F
102
}
330
51F
100
AcDbXrecord
280
     1
  1
Küche
  1
T_kuc*
  1
*
  1
*
 70
     0
  1
*
  1
*
  0
XRECORD
  5
7CB
102
{ACAD_REACTORS
330
51F
102
}
330
51F
100
AcDbXrecord
280
     1
  1
L
  1
LUCIEN
  1
*
  1
*
 70
     0
  1
*
  1
*
  0
XRECORD
  5
7CC
102
{ACAD_REACTORS
330
51F
102
}
330
51F
100
AcDbXrecord
280
     1
  1
l-bem
  1
2l*bem
  1
*
  1
*
 70
     0
  1
*
  1
*
  0
XRECORD
  5
7CD
102
{ACAD_REACTORS
330
51F
102
}
330
51F
100
AcDbXrecord
280
     1
  1
L-SECTION
  1
L*
  1
*
  1
*
 70
     0
  1
*
  1
*
  0
XRECORD
  5
7CE
102
{ACAD_REACTORS
330
51F
102
}
330
51F
100
AcDbXrecord
280
     1
  1
L__
  1
L__*
  1
*
  1
*
 70
     0
  1
*
  1
*
  0
XRECORD
  5
7CF
102
{ACAD_REACTORS
330
51F
102
}
330
51F
100
AcDbXrecord
280
     1
  1
L__3D
  1
L__3D*
  1
*
  1
*
 70
     0
  1
*
  1
*
  0
XRECORD
  5
7D0
102
{ACAD_REACTORS
330
51F
102
}
330
51F
100
AcDbXrecord
280
     1
  1
L_be_texte
  1
L_be_texte*
  1
*
  1
*
 70
     0
  1
*
  1
*
  0
XRECORD
  5
7D1
102
{ACAD_REACTORS
330
51F
102
}
330
51F
100
AcDbXrecord
280
     1
  1
L_texte
  1
L_texte*
  1
*
  1
*
 70
     0
  1
*
  1
*
  0
XRECORD
  5
7D2
102
{ACAD_REACTORS
330
51F
102
}
330
51F
100
AcDbXrecord
280
     1
  1
labor
  1
labor*
  1
*
  1
*
 70
     0
  1
*
  1
*
  0
XRECORD
  5
7D3
102
{ACAD_REACTORS
330
51F
102
}
330
51F
100
AcDbXrecord
280
     1
  1
LAND
  1
*LAND*
  1
*
  1
*
 70
     0
  1
*
  1
*
  0
XRECORD
  5
7D4
102
{ACAD_REACTORS
330
51F
102
}
330
51F
100
AcDbXrecord
280
     1
  1
land sale
  1
land-sale-*
  1
*
  1
*
 70
     0
  1
*
  1
*
  0
XRECORD
  5
7D5
102
{ACAD_REACTORS
330
51F
102
}
330
51F
100
AcDbXrecord
280
     1
  1
Landcsape
  1
L-*
  1
*
  1
*
 70
     0
  1
*
  1
*
  0
XRECORD
  5
7D6
102
{ACAD_REACTORS
330
51F
102
}
330
51F
100
AcDbXrecord
280
     1
  1
landscape
  1
L-*
  1
*
  1
*
 70
     0
  1
*
  1
*
  0
XRECORD
  5
7D7
102
{ACAD_REACTORS
330
51F
102
}
330
51F
100
AcDbXrecord
280
     1
  1
landscape2
  1
L_*
  1
*
  1
*
 70
     0
  1
*
  1
*
  0
XRECORD
  5
7D8
102
{ACAD_REACTORS
330
51F
102
}
330
51F
100
AcDbXrecord
280
     1
  1
landscapelayout
  1
b_homerd_dlayt|L_*
  1
*
  1
*
 70
     0
  1
*
  1
*
  0
XRECORD
  5
7D9
102
{ACAD_REACTORS
330
51F
102
}
330
51F
100
AcDbXrecord
280
     1
  1
layer 8
  1
*
  1
8
  1
*
 70
     0
  1
*
  1
*
  0
XRECORD
  5
7DA
102
{ACAD_REACTORS
330
51F
102
}
330
51F
100
AcDbXrecord
280
     1
  1
layer-off
  1
*
  1
*
  1
*
 70
    64
  1
*
  1
*
  0
XRECORD
  5
7DB
102
{ACAD_REACTORS
330
51F
102
}
330
51F
100
AcDbXrecord
280
     1
  1
layers on
  1
*
  1
*
  1
*
 70
     3
  1
*
  1
*
  0
XRECORD
  5
7DC
102
{ACAD_REACTORS
330
51F
102
}
330
51F
100
AcDbXrecord
280
     1
  1
Layers that are ON
  1
*
  1
*
  1
*
 70
    13
  1
*
  1
*
  0
XRECORD
  5
7DD
102
{ACAD_REACTORS
330
51F
102
}
330
51F
100
AcDbXrecord
280
     1
  1
LAYOFF
  1
*
  1
*
  1
*
 70
     3
  1
*
  1
*
  0
XRECORD
  5
7DE
102
{ACAD_REACTORS
330
51F
102
}
330
51F
100
AcDbXrecord
280
     1
  1
layon
  1
*
  1
*
  1
*
 70
     1
  1
*
  1
*
  0
XRECORD
  5
7DF
102
{ACAD_REACTORS
330
51F
102
}
330
51F
100
AcDbXrecord
280
     1
  1
LAYOUT
  1
*LA_*
  1
*
  1
*
 70
     0
  1
*
  1
*
  0
XRECORD
  5
7E0
102
{ACAD_REACTORS
330
51F
102
}
330
51F
100
AcDbXrecord
280
     1
  1
laythaw
  1
*
  1
*
  1
*
 70
    12
  1
*
  1
*
  0
XRECORD
  5
7E1
102
{ACAD_REACTORS
330
51F
102
}
330
51F
100
AcDbXrecord
280
     1
  1
lca
  1
*lca-*
  1
*
  1
*
 70
     0
  1
*
  1
*
  0
XRECORD
  5
7E2
102
{ACAD_REACTORS
330
51F
102
}
330
51F
100
AcDbXrecord
280
     1
  1
LEASE
  1
*LEAS*
  1
*
  1
*
 70
     0
  1
*
  1
*
  0
XRECORD
  5
7E3
102
{ACAD_REACTORS
330
51F
102
}
330
51F
100
AcDbXrecord
280
     1
  1
LEDGE
  1
*LEDGE*
  1
*
  1
*
 70
     0
  1
*
  1
*
  0
XRECORD
  5
7E4
102
{ACAD_REACTORS
330
51F
102
}
330
51F
100
AcDbXrecord
280
     1
  1
leer
  1
*leer
  1
*
  1
*
 70
     0
  1
*
  1
*
  0
XRECORD
  5
7E5
102
{ACAD_REACTORS
330
51F
102
}
330
51F
100
AcDbXrecord
280
     1
  1
LEGAL
  1
*LD*
  1
*
  1
*
 70
     0
  1
*
  1
*
  0
XRECORD
  5
7E6
102
{ACAD_REACTORS
330
51F
102
}
330
51F
100
AcDbXrecord
280
     1
  1
legende
  1
*leg*
  1
*
  1
*
 70
     0
  1
*
  1
*
  0
XRECORD
  5
7E7
102
{ACAD_REACTORS
330
51F
102
}
330
51F
100
AcDbXrecord
280
     1
  1
leit-neu
  1
*leit*neu*
  1
*
  1
*
 70
     0
  1
*
  1
*
  0
XRECORD
  5
7E8
102
{ACAD_REACTORS
330
51F
102
}
330
51F
100
AcDbXrecord
280
     1
  1
LEVEL
  1
*LEVEL*
  1
*
  1
*
 70
     0
  1
*
  1
*
  0
XRECORD
  5
7E9
102
{ACAD_REACTORS
330
51F
102
}
330
51F
100
AcDbXrecord
280
     1
  1
Level 0
  1
*-12
  1
*
  1
*
 70
     0
  1
*
  1
*
  0
XRECORD
  5
7EA
102
{ACAD_REACTORS
330
51F
102
}
330
51F
100
AcDbXrecord
280
     1
  1
level 1 piping
  1
lv1*
  1
*
  1
*
 70
     0
  1
*
  1
*
  0
XRECORD
  5
7EB
102
{ACAD_REACTORS
330
51F
102
}
330
51F
100
AcDbXrecord
280
     1
  1
Level 12
  1
*-0
  1
*
  1
*
 70
     0
  1
*
  1
*
  0
XRECORD
  5
7EC
102
{ACAD_REACTORS
330
51F
102
}
330
51F
100
AcDbXrecord
280
     1
  1
level 2 piping
  1
lv2*
  1
*
  1
*
 70
     0
  1
*
  1
*
  0
XRECORD
  5
7ED
102
{ACAD_REACTORS
330
51F
102
}
330
51F
100
AcDbXrecord
280
     1
  1
LEVELS
  1
*LEVEL*
  1
*
  1
*
 70
     0
  1
*
  1
*
  0
XRECORD
  5
7EE
102
{ACAD_REACTORS
330
51F
102
}
330
51F
100
AcDbXrecord
280
     1
  1
LGD
  1
*LGD*
  1
*
  1
*
 70
     0
  1
*
  1
*
  0
XRECORD
  5
7EF
102
{ACAD_REACTORS
330
51F
102
}
330
51F
100
AcDbXrecord
280
     1
  1
LIBRARY
  1
LIBRARY*
  1
*
  1
*
 70
     0
  1
*
  1
*
  0
XRECORD
  5
7F0
102
{ACAD_REACTORS
330
51F
102
}
330
51F
100
AcDbXrecord
280
     1
  1
licencing
  1
*
  1
*
  1
*
 70
    16
  1
*
  1
*
  0
XRECORD
  5
7F1
102
{ACAD_REACTORS
330
51F
102
}
330
51F
100
AcDbXrecord
280
     1
  1
LID
  1
*LID*
  1
*
  1
*
 70
     0
  1
*
  1
*
  0
XRECORD
  5
7F2
102
{ACAD_REACTORS
330
51F
102
}
330
51F
100
AcDbXrecord
280
     1
  1
lift
  1
lift*
  1
*
  1
*
 70
     0
  1
*
  1
*
  0
XRECORD
  5
7F3
102
{ACAD_REACTORS
330
51F
102
}
330
51F
100
AcDbXrecord
280
     1
  1
LIGHT
  1
LIGHT*
  1
*
  1
*
 70
     0
  1
*
  1
*
  0
XRECORD
  5
7F4
102
{ACAD_REACTORS
330
51F
102
}
330
51F
100
AcDbXrecord
280
     1
  1
LIGHTING
  1
*
  1
*
  1
*
 70
    16
  1
*
  1
*
  0
XRECORD
  5
7F5
102
{ACAD_REACTORS
330
51F
102
}
330
51F
100
AcDbXrecord
280
     1
  1
LINES
  1
04*
  1
*
  1
*
 70
     4
  1
*
  1
*
  0
XRECORD
  5
7F6
102
{ACAD_REACTORS
330
51F
102
}
330
51F
100
AcDbXrecord
280
     1
  1
Linienpunkte
  1
*p
  1
*
  1
*
 70
     0
  1
*
  1
*
  0
XRECORD
  5
7F7
102
{ACAD_REACTORS
330
51F
102
}
330
51F
100
AcDbXrecord
280
     1
  1
lo1
  1
2S_AW_AW-ENDSYM
  1
*
  1
*
 70
     0
  1
*
  1
*
  0
XRECORD
  5
7F8
102
{ACAD_REACTORS
330
51F
102
}
330
51F
100
AcDbXrecord
280
     1
  1
LOBBY
  1
LOBBY*
  1
*
  1
*
 70
     0
  1
*
  1
*
  0
XRECORD
  5
7F9
102
{ACAD_REACTORS
330
51F
102
}
330
51F
100
AcDbXrecord
280
     1
  1
LOBBY AND OFFICE
  1
LOBBY*,OFFICE
  1
*
  1
*
 70
     0
  1
*
  1
*
  0
XRECORD
  5
7FA
102
{ACAD_REACTORS
330
51F
102
}
330
51F
100
AcDbXrecord
280
     1
  1
lock
  1
*
  1
*
  1
*
 70
   256
  1
*
  1
*
  0
XRECORD
  5
7FB
102
{ACAD_REACTORS
330
51F
102
}
330
51F
100
AcDbXrecord
280
     1
  1
Locked
  1
*
  1
*
  1
*
 70
   256
  1
*
  1
*
  0
XRECORD
  5
7FC
102
{ACAD_REACTORS
330
51F
102
}
330
51F
100
AcDbXrecord
280
     1
  1
LOCKED-LAYERS
  1
*
  1
*
  1
*
 70
   256
  1
*
  1
*
  0
XRECORD
  5
7FD
102
{ACAD_REACTORS
330
51F
102
}
330
51F
100
AcDbXrecord
280
     1
  1
LREF
  1
*LREF*
  1
*
  1
*
 70
     0
  1
*
  1
*
  0
XRECORD
  5
7FE
102
{ACAD_REACTORS
330
51F
102
}
330
51F
100
AcDbXrecord
280
     1
  1
LS DETAIL
  1
L-DET*
  1
*
  1
*
 70
     0
  1
*
  1
*
  0
XRECORD
  5
7FF
102
{ACAD_REACTORS
330
51F
102
}
330
51F
100
AcDbXrecord
280
     1
  1
Lscapephase1
  1
Lph-*
  1
*
  1
*
 70
     0
  1
*
  1
*
  0
XRECORD
  5
800
102
{ACAD_REACTORS
330
51F
102
}
330
51F
100
AcDbXrecord
280
     1
  1
LTA
  1
*
  1
*
  1
*
 70
   768
  1
*
  1
*
  0
XRECORD
  5
801
102
{ACAD_REACTORS
330
51F
102
}
330
51F
100
AcDbXrecord
280
     1
  1
lu
  1
a-at*
  1
*
  1
*
 70
     3
  1
*
  1
*
  0
XRECORD
  5
802
102
{ACAD_REACTORS
330
51F
102
}
330
51F
100
AcDbXrecord
280
     1
  1
lu-schraff
  1
*05s
  1
*
  1
*
 70
     0
  1
*
  1
*
  0
XRECORD
  5
803
102
{ACAD_REACTORS
330
51F
102
}
330
51F
100
AcDbXrecord
280
     1
  1
luft
  1
2l*
  1
*
  1
*
 70
     0
  1
*
  1
*
  0
XRECORD
  5
804
102
{ACAD_REACTORS
330
51F
102
}
330
51F
100
AcDbXrecord
280
     1
  1
luft-ab
  1
2l*ab*
  1
*
  1
*
 70
     0
  1
*
  1
*
  0
XRECORD
  5
805
102
{ACAD_REACTORS
330
51F
102
}
330
51F
100
AcDbXrecord
280
     1
  1
luft-alt
  1
l*
  1
*
  1
*
 70
     0
  1
*
  1
*
  0
XRECORD
  5
806
102
{ACAD_REACTORS
330
51F
102
}
330
51F
100
AcDbXrecord
280
     1
  1
luft-alt-text
  1
*text*
  1
*
  1
*
 70
     0
  1
*
  1
*
  0
XRECORD
  5
807
102
{ACAD_REACTORS
330
51F
102
}
330
51F
100
AcDbXrecord
280
     1
  1
luft-au
  1
2l*au*
  1
*
  1
*
 70
     0
  1
*
  1
*
  0
XRECORD
  5
808
102
{ACAD_REACTORS
330
51F
102
}
330
51F
100
AcDbXrecord
280
     1
  1
luft-bem
  1
2l*bem*
  1
*
  1
*
 70
     0
  1
*
  1
*
  0
XRECORD
  5
809
102
{ACAD_REACTORS
330
51F
102
}
330
51F
100
AcDbXrecord
280
     1
  1
luft-bsk
  1
2l*bsk*
  1
*
  1
*
 70
     0
  1
*
  1
*
  0
XRECORD
  5
80A
102
{ACAD_REACTORS
330
51F
102
}
330
51F
100
AcDbXrecord
280
     1
  1
luft-er
  1
2l*er*
  1
*
  1
*
 70
     0
  1
*
  1
*
  0
XRECORD
  5
80B
102
{ACAD_REACTORS
330
51F
102
}
330
51F
100
AcDbXrecord
280
     1
  1
luft-fo
  1
2l*fo*
  1
*
  1
*
 70
     0
  1
*
  1
*
  0
XRECORD
  5
80C
102
{ACAD_REACTORS
330
51F
102
}
330
51F
100
AcDbXrecord
280
     1
  1
luft-g
  1
2l*g*
  1
*
  1
*
 70
     0
  1
*
  1
*
  0
XRECORD
  5
80D
102
{ACAD_REACTORS
330
51F
102
}
330
51F
100
AcDbXrecord
280
     1
  1
luft-iso
  1
2l*iso
  1
*
  1
*
 70
     0
  1
*
  1
*
  0
XRECORD
  5
80E
102
{ACAD_REACTORS
330
51F
102
}
330
51F
100
AcDbXrecord
280
     1
  1
Luft-Kan
  1
2L_Re-*
  1
*
  1
*
 70
    12
  1
*
  1
*
  0
XRECORD
  5
80F
102
{ACAD_REACTORS
330
51F
102
}
330
51F
100
AcDbXrecord
280
     1
  1
luft-l
  1
2l*l
  1
*
  1
*
 70
     0
  1
*
  1
*
  0
XRECORD
  5
810
102
{ACAD_REACTORS
330
51F
102
}
330
51F
100
AcDbXrecord
280
     1
  1
luft-sch
  1
2ls*
  1
*
  1
*
 70
     0
  1
*
  1
*
  0
XRECORD
  5
811
102
{ACAD_REACTORS
330
51F
102
}
330
51F
100
AcDbXrecord
280
     1
  1
luft-sch1
  1
2ls*
  1
*
  1
*
 70
     0
  1
*
  1
*
  0
XRECORD
  5
812
102
{ACAD_REACTORS
330
51F
102
}
330
51F
100
AcDbXrecord
280
     1
  1
luft-schraff
  1
2L_*05S
  1
*
  1
*
 70
     0
  1
*
  1
*
  0
XRECORD
  5
813
102
{ACAD_REACTORS
330
51F
102
}
330
51F
100
AcDbXrecord
280
     1
  1
luft-um
  1
2l*um*
  1
*
  1
*
 70
     0
  1
*
  1
*
  0
XRECORD
  5
814
102
{ACAD_REACTORS
330
51F
102
}
330
51F
100
AcDbXrecord
280
     1
  1
luft-z1
  1
2l*z1*
  1
*
  1
*
 70
     0
  1
*
  1
*
  0
XRECORD
  5
815
102
{ACAD_REACTORS
330
51F
102
}
330
51F
100
AcDbXrecord
280
     1
  1
luft-z3
  1
2l*z3*
  1
*
  1
*
 70
     0
  1
*
  1
*
  0
XRECORD
  5
816
102
{ACAD_REACTORS
330
51F
102
}
330
51F
100
AcDbXrecord
280
     1
  1
luft-z4
  1
2l*z4*
  1
*
  1
*
 70
     0
  1
*
  1
*
  0
XRECORD
  5
817
102
{ACAD_REACTORS
330
51F
102
}
330
51F
100
AcDbXrecord
280
     1
  1
luft-zu0
  1
2l*zu0*
  1
*
  1
*
 70
     0
  1
*
  1
*
  0
XRECORD
  5
818
102
{ACAD_REACTORS
330
51F
102
}
330
51F
100
AcDbXrecord
280
     1
  1
luft-zu1
  1
2l*zu1*
  1
*
  1
*
 70
     0
  1
*
  1
*
  0
XRECORD
  5
819
102
{ACAD_REACTORS
330
51F
102
}
330
51F
100
AcDbXrecord
280
     1
  1
luft-zu2
  1
2l*zu2*
  1
*
  1
*
 70
     0
  1
*
  1
*
  0
XRECORD
  5
81A
102
{ACAD_REACTORS
330
51F
102
}
330
51F
100
AcDbXrecord
280
     1
  1
luft-zu3
  1
2l*zu3*
  1
*
  1
*
 70
     0
  1
*
  1
*
  0
XRECORD
  5
81B
102
{ACAD_REACTORS
330
51F
102
}
330
51F
100
AcDbXrecord
280
     1
  1
luft-zu4
  1
2l*zu4*
  1
*
  1
*
 70
     0
  1
*
  1
*
  0
XRECORD
  5
81C
102
{ACAD_REACTORS
330
51F
102
}
330
51F
100
AcDbXrecord
280
     1
  1
luftsch
  1
2l_*s
  1
*
  1
*
 70
     0
  1
*
  1
*
  0
XRECORD
  5
81D
102
{ACAD_REACTORS
330
51F
102
}
330
51F
100
AcDbXrecord
280
     1
  1
LV LAYERS
  1
LV*
  1
*
  1
*
 70
     0
  1
*
  1
*
  0
XRECORD
  5
81E
102
{ACAD_REACTORS
330
51F
102
}
330
51F
100
AcDbXrecord
280
     1
  1
LV1PIPING+EQUIPMENT
  1
LV1*
  1
*
  1
*
 70
     0
  1
*
  1
*
  0
XRECORD
  5
81F
102
{ACAD_REACTORS
330
51F
102
}
330
51F
100
AcDbXrecord
280
     1
  1
LV2 PIPING
  1
LV2*
  1
*
  1
*
 70
     0
  1
*
  1
*
  0
XRECORD
  5
820
102
{ACAD_REACTORS
330
51F
102
}
330
51F
100
AcDbXrecord
280
     1
  1
lvl
  1
*lvl*
  1
*
  1
*
 70
     0
  1
*
  1
*
  0
XRECORD
  5
821
102
{ACAD_REACTORS
330
51F
102
}
330
51F
100
AcDbXrecord
280
     1
  1
lüft
  1
l*
  1
*
  1
*
 70
     0
  1
*
  1
*
  0
XRECORD
  5
822
102
{ACAD_REACTORS
330
51F
102
}
330
51F
100
AcDbXrecord
280
     1
  1
Lüftung
  1
H1-L*
  1
*
  1
*
 70
     0
  1
*
  1
*
  0
XRECORD
  5
823
102
{ACAD_REACTORS
330
51F
102
}
330
51F
100
AcDbXrecord
280
     1
  1
M
  1
*M*
  1
*
  1
*
 70
     0
  1
*
  1
*
  0
XRECORD
  5
824
102
{ACAD_REACTORS
330
51F
102
}
330
51F
100
AcDbXrecord
280
     1
  1
M-
  1
M-*
  1
*
  1
*
 70
     0
  1
*
  1
*
  0
XRECORD
  5
825
102
{ACAD_REACTORS
330
51F
102
}
330
51F
100
AcDbXrecord
280
     1
  1
M-SDUCT-DETAIL
  1
M-SDUCT-DETAIL
  1
*
  1
*
 70
     1
  1
*
  1
*
  0
XRECORD
  5
826
102
{ACAD_REACTORS
330
51F
102
}
330
51F
100
AcDbXrecord
280
     1
  1
M-SECTION
  1
M*
  1
*
  1
*
 70
     0
  1
*
  1
*
  0
XRECORD
  5
827
102
{ACAD_REACTORS
330
51F
102
}
330
51F
100
AcDbXrecord
280
     1
  1
M-TF-SECTION
  1
M-TF*
  1
*
  1
*
 70
     0
  1
*
  1
*
  0
XRECORD
  5
828
102
{ACAD_REACTORS
330
51F
102
}
330
51F
100
AcDbXrecord
280
     1
  1
m100
  1
m100*
  1
*
  1
*
 70
     0
  1
*
  1
*
  0
XRECORD
  5
829
102
{ACAD_REACTORS
330
51F
102
}
330
51F
100
AcDbXrecord
280
     1
  1
m50
  1
m50*
  1
*
  1
*
 70
     0
  1
*
  1
*
  0
XRECORD
  5
82A
102
{ACAD_REACTORS
330
51F
102
}
330
51F
100
AcDbXrecord
280
     1
  1
magenta
  1
*
  1
6
  1
*
 70
     0
  1
*
  1
*
  0
XRECORD
  5
82B
102
{ACAD_REACTORS
330
51F
102
}
330
51F
100
AcDbXrecord
280
     1
  1
magenta-bleu
  1
*
  1
magenta,bleu
  1
*
 70
     0
  1
*
  1
*
  0
XRECORD
  5
82C
102
{ACAD_REACTORS
330
51F
102
}
330
51F
100
AcDbXrecord
280
     1
  1
Magneta
  1
*
  1
Magneta
  1
*
 70
     0
  1
*
  1
*
  0
XRECORD
  5
82D
102
{ACAD_REACTORS
330
51F
102
}
330
51F
100
AcDbXrecord
280
     1
  1
mark
  1
SE*
  1
*
  1
*
 70
     0
  1
*
  1
*
  0
XRECORD
  5
82E
102
{ACAD_REACTORS
330
51F
102
}
330
51F
100
AcDbXrecord
280
     1
  1
Massen
  1
M*
  1
*
  1
*
 70
     0
  1
*
  1
*
  0
XRECORD
  5
82F
102
{ACAD_REACTORS
330
51F
102
}
330
51F
100
AcDbXrecord
280
     1
  1
Materialien Rohhoehen
  1
RH_*
  1
*
  1
*
 70
     0
  1
*
  1
*
  0
XRECORD
  5
830
102
{ACAD_REACTORS
330
51F
102
}
330
51F
100
AcDbXrecord
280
     1
  1
Materialien_Belegung
  1
A_gra_bur,A_gra_dbg,A_gra_elt,A_gra_hnf,A_gra_lft,A_gra_nnf,A_gra_tec,A_gra_vf1
  1
*
  1
*
 70
     0
  1
*
  1
*
  0
XRECORD
  5
831
102
{ACAD_REACTORS
330
51F
102
}
330
51F
100
AcDbXrecord
280
     1
  1
Materialien_Boden
  1
A_gra_ans,A_gra_bad,A_gra_dbe,A_gra_dbl,A_gra_dbt,A_gra_fli,A_gra_hbt,A_gra_kst,A_gra_lft_b,A_gra_pak,A_gra_git
  1
*
  1
*
 70
     0
  1
*
  1
*
  0
XRECORD
  5
832
102
{ACAD_REACTORS
330
51F
102
}
330
51F
100
AcDbXrecord
280
     1
  1
Materialien_Decke
  1
A_gra_bea,A_gra_bep,A_gra_bta,A_gra_gkt,A_gra_lft_d,A_gra_mek,A_gra_mkk,A_gra_mkl,A_gra_son
  1
*
  1
*
 70
     0
  1
*
  1
*
  0
XRECORD
  5
833
102
{ACAD_REACTORS
330
51F
102
}
330
51F
100
AcDbXrecord
280
     1
  1
Materialien_Grafik
  1
A_gra*
  1
*
  1
*
 70
     0
  1
*
  1
*
  0
XRECORD
  5
834
102
{ACAD_REACTORS
330
51F
102
}
330
51F
100
AcDbXrecord
280
     1
  1
Materialien_Lichte_Hoehe
  1
A_gra_lih*
  1
*
  1
*
 70
     0
  1
*
  1
*
  0
XRECORD
  5
835
102
{ACAD_REACTORS
330
51F
102
}
330
51F
100
AcDbXrecord
280
     1
  1
Materialien_Rohhoehe
  1
A_gra_roh*
  1
*
  1
*
 70
     0
  1
*
  1
*
  0
XRECORD
  5
836
102
{ACAD_REACTORS
330
51F
102
}
330
51F
100
AcDbXrecord
280
     1
  1
MATT
  1
*MATT*
  1
*
  1
*
 70
     0
  1
*
  1
*
  0
XRECORD
  5
837
102
{ACAD_REACTORS
330
51F
102
}
330
51F
100
AcDbXrecord
280
     1
  1
MDM1
  1
X0*
  1
*
  1
*
 70
   775
  1
*
  1
*
  0
XRECORD
  5
838
102
{ACAD_REACTORS
330
51F
102
}
330
51F
100
AcDbXrecord
280
     1
  1
me
  1
*me*
  1
*
  1
*
 70
     0
  1
*
  1
*
  0
XRECORD
  5
839
102
{ACAD_REACTORS
330
51F
102
}
330
51F
100
AcDbXrecord
280
     1
  1
Mech.
  1
m-*
  1
*
  1
*
 70
     0
  1
*
  1
*
  0
XRECORD
  5
83A
102
{ACAD_REACTORS
330
51F
102
}
330
51F
100
AcDbXrecord
280
     1
  1
medien
  1
*med*
  1
*
  1
*
 70
     0
  1
*
  1
*
  0
XRECORD
  5
83B
102
{ACAD_REACTORS
330
51F
102
}
330
51F
100
AcDbXrecord
280
     1
  1
MEMBRANE
  1
*
  1
*
  1
*
 70
     0
  1
*
  1
*
  0
XRECORD
  5
83C
102
{ACAD_REACTORS
330
51F
102
}
330
51F
100
AcDbXrecord
280
     1
  1
MERCEOLOGICO
  1
MQ*
  1
*
  1
*
 70
     0
  1
*
  1
*
  0
XRECORD
  5
83D
102
{ACAD_REACTORS
330
51F
102
}
330
51F
100
AcDbXrecord
280
     1
  1
Metal
  1
*metal*
  1
*
  1
*
 70
     0
  1
*
  1
*
  0
XRECORD
  5
83E
102
{ACAD_REACTORS
330
51F
102
}
330
51F
100
AcDbXrecord
280
     1
  1
MEZZ
  1
*MEZZ*
  1
*
  1
*
 70
     0
  1
*
  1
*
  0
XRECORD
  5
83F
102
{ACAD_REACTORS
330
51F
102
}
330
51F
100
AcDbXrecord
280
     1
  1
MFI
  1
*MFI*
  1
*
  1
*
 70
     0
  1
*
  1
*
  0
XRECORD
  5
840
102
{ACAD_REACTORS
330
51F
102
}
330
51F
100
AcDbXrecord
280
     1
  1
MH
  1
*MH*
  1
*
  1
*
 70
     0
  1
*
  1
*
  0
XRECORD
  5
841
102
{ACAD_REACTORS
330
51F
102
}
330
51F
100
AcDbXrecord
280
     1
  1
Miscellaneous
  1
Misc*
  1
*
  1
*
 70
     0
  1
*
  1
*
  0
XRECORD
  5
842
102
{ACAD_REACTORS
330
51F
102
}
330
51F
100
AcDbXrecord
280
     1
  1
MIT
  1
*MIT
  1
*
  1
*
 70
     0
  1
*
  1
*
  0
XRECORD
  5
843
102
{ACAD_REACTORS
330
51F
102
}
330
51F
100
AcDbXrecord
280
     1
  1
mixte
  1
*
  1
*
  1
mixte
 70
     0
  1
*
  1
*
  0
XRECORD
  5
844
102
{ACAD_REACTORS
330
51F
102
}
330
51F
100
AcDbXrecord
280
     1
  1
MN EQUIP PIPING
  1
MN*
  1
*
  1
*
 70
     0
  1
*
  1
*
  0
XRECORD
  5
845
102
{ACAD_REACTORS
330
51F
102
}
330
51F
100
AcDbXrecord
280
     1
  1
MN layers
  1
MN*
  1
*
  1
*
 70
     0
  1
*
  1
*
  0
XRECORD
  5
846
102
{ACAD_REACTORS
330
51F
102
}
330
51F
100
AcDbXrecord
280
     1
  1
model
  1
AAMODEL*
  1
*
  1
*
 70
     0
  1
*
  1
*
  0
XRECORD
  5
847
102
{ACAD_REACTORS
330
51F
102
}
330
51F
100
AcDbXrecord
280
     1
  1
Muennich
  1
M*
  1
*
  1
*
 70
     0
  1
*
  1
*
  0
XRECORD
  5
848
102
{ACAD_REACTORS
330
51F
102
}
330
51F
100
AcDbXrecord
280
     1
  1
MV-Off
  1
*
  1
*
  1
*
 70
    16
  1
*
  1
*
  0
XRECORD
  5
849
102
{ACAD_REACTORS
330
51F
102
}
330
51F
100
AcDbXrecord
280
     1
  1
mvgregistreation
  1
*mvgreistration*
  1
*
  1
*
 70
     0
  1
*
  1
*
  0
XRECORD
  5
84A
102
{ACAD_REACTORS
330
51F
102
}
330
51F
100
AcDbXrecord
280
     1
  1
MXAA
  1
*
  1
*
  1
*
 70
     0
  1
*
  1
*
  0
XRECORD
  5
84B
102
{ACAD_REACTORS
330
51F
102
}
330
51F
100
AcDbXrecord
280
     1
  1
mz
  1
*mz
  1
*
  1
*
 70
     0
  1
*
  1
*
  0
XRECORD
  5
84C
102
{ACAD_REACTORS
330
51F
102
}
330
51F
100
AcDbXrecord
280
     1
  1
N
  1
*DEMO*
  1
*
  1
*
 70
     0
  1
*
  1
*
  0
XRECORD
  5
84D
102
{ACAD_REACTORS
330
51F
102
}
330
51F
100
AcDbXrecord
280
     1
  1
NAS1NSITE
  1
*
  1
*
  1
*
 70
     0
  1
*
  1
*
  0
XRECORD
  5
84E
102
{ACAD_REACTORS
330
51F
102
}
330
51F
100
AcDbXrecord
280
     1
  1
NBF_
  1
NBF_
  1
*
  1
*
 70
     0
  1
*
  1
*
  0
XRECORD
  5
84F
102
{ACAD_REACTORS
330
51F
102
}
330
51F
100
AcDbXrecord
280
     1
  1
neal
  1
neal*|*
  1
*
  1
*
 70
     0
  1
*
  1
*
  0
XRECORD
  5
850
102
{ACAD_REACTORS
330
51F
102
}
330
51F
100
AcDbXrecord
280
     1
  1
NECADKON
  1
~*?[KAHBSM]?????[23M]*
  1
*
  1
*
 70
     0
  1
*
  1
*
  0
XRECORD
  5
851
102
{ACAD_REACTORS
330
51F
102
}
330
51F
100
AcDbXrecord
280
     1
  1
nelf
  1
*nelf*
  1
*
  1
*
 70
     0
  1
*
  1
*
  0
XRECORD
  5
852
102
{ACAD_REACTORS
330
51F
102
}
330
51F
100
AcDbXrecord
280
     1
  1
NERO
  1
NERO*
  1
*
  1
*
 70
     0
  1
*
  1
*
  0
XRECORD
  5
853
102
{ACAD_REACTORS
330
51F
102
}
330
51F
100
AcDbXrecord
280
     1
  1
net
  1
*net*
  1
*
  1
*
 70
     0
  1
*
  1
*
  0
XRECORD
  5
854
102
{ACAD_REACTORS
330
51F
102
}
330
51F
100
AcDbXrecord
280
     1
  1
neu
  1
*neu*
  1
*
  1
*
 70
     0
  1
*
  1
*
  0
XRECORD
  5
855
102
{ACAD_REACTORS
330
51F
102
}
330
51F
100
AcDbXrecord
280
     1
  1
new
  1
*new
  1
*
  1
*
 70
     0
  1
*
  1
*
  0
XRECORD
  5
856
102
{ACAD_REACTORS
330
51F
102
}
330
51F
100
AcDbXrecord
280
     1
  1
NEW-STORM
  1
x-nutils|C-P2A?S?-STORM*
  1
*
  1
*
 70
     0
  1
*
  1
*
  0
XRECORD
  5
857
102
{ACAD_REACTORS
330
51F
102
}
330
51F
100
AcDbXrecord
280
     1
  1
NO CANDADO NO CONGELADO
  1
*
  1
*
  1
*
 70
   260
  1
*
  1
*
  0
XRECORD
  5
858
102
{ACAD_REACTORS
330
51F
102
}
330
51F
100
AcDbXrecord
280
     1
  1
NON XREF DEPENDANTS
  1
*DEMO*
  1
*
  1
*
 70
     0
  1
*
  1
*
  0
XRECORD
  5
859
102
{ACAD_REACTORS
330
51F
102
}
330
51F
100
AcDbXrecord
280
     1
  1
NonXref
  1
x-*
  1
*
  1
*
 70
     0
  1
*
  1
*
  0
XRECORD
  5
85A
102
{ACAD_REACTORS
330
51F
102
}
330
51F
100
AcDbXrecord
280
     1
  1
NORTH
  1
*NORTH*
  1
*
  1
*
 70
     0
  1
*
  1
*
  0
XRECORD
  5
85B
102
{ACAD_REACTORS
330
51F
102
}
330
51F
100
AcDbXrecord
280
     1
  1
Not required
  1
*
  1
*
  1
*
 70
     0
  1
*
  1
*
  0
XRECORD
  5
85C
102
{ACAD_REACTORS
330
51F
102
}
330
51F
100
AcDbXrecord
280
     1
  1
not3d
  1
~3d*
  1
*
  1
*
 70
     0
  1
*
  1
*
  0
XRECORD
  5
85D
102
{ACAD_REACTORS
330
51F
102
}
330
51F
100
AcDbXrecord
280
     1
  1
note
  1
*not*
  1
*
  1
*
 70
     0
  1
*
  1
*
  0
XRECORD
  5
85E
102
{ACAD_REACTORS
330
51F
102
}
330
51F
100
AcDbXrecord
280
     1
  1
NotXref
  1
x-*
  1
*
  1
*
 70
     0
  1
*
  1
*
  0
XRECORD
  5
85F
102
{ACAD_REACTORS
330
51F
102
}
330
51F
100
AcDbXrecord
280
     1
  1
np-
  1
*np*
  1
*
  1
*
 70
     0
  1
*
  1
*
  0
XRECORD
  5
860
102
{ACAD_REACTORS
330
51F
102
}
330
51F
100
AcDbXrecord
280
     1
  1
np-arc
  1
*np-arch
  1
*
  1
*
 70
     0
  1
*
  1
*
  0
XRECORD
  5
861
102
{ACAD_REACTORS
330
51F
102
}
330
51F
100
AcDbXrecord
280
     1
  1
nur neue Layer
  1
Ab*
  1
*
  1
*
 70
     0
  1
*
  1
*
  0
XRECORD
  5
862
102
{ACAD_REACTORS
330
51F
102
}
330
51F
100
AcDbXrecord
280
     1
  1
O
  1
*O*
  1
*
  1
*
 70
     0
  1
*
  1
*
  0
XRECORD
  5
863
102
{ACAD_REACTORS
330
51F
102
}
330
51F
100
AcDbXrecord
280
     1
  1
off
  1
*
  1
*
  1
*
 70
     3
  1
*
  1
*
  0
XRECORD
  5
864
102
{ACAD_REACTORS
330
51F
102
}
330
51F
100
AcDbXrecord
280
     1
  1
off layers
  1
*
  1
*
  1
*
 70
     3
  1
*
  1
*
  0
XRECORD
  5
865
102
{ACAD_REACTORS
330
51F
102
}
330
51F
100
AcDbXrecord
280
     1
  1
off+thaw
  1
*
  1
*
  1
*
 70
    15
  1
*
  1
*
  0
XRECORD
  5
866
102
{ACAD_REACTORS
330
51F
102
}
330
51F
100
AcDbXrecord
280
     1
  1
off_frozen
  1
*
  1
*
  1
*
 70
     7
  1
*
  1
*
  0
XRECORD
  5
867
102
{ACAD_REACTORS
330
51F
102
}
330
51F
100
AcDbXrecord
280
     1
  1
OFFACTIVE
  1
*
  1
*
  1
*
 70
    16
  1
*
  1
*
  0
XRECORD
  5
868
102
{ACAD_REACTORS
330
51F
102
}
330
51F
100
AcDbXrecord
280
     1
  1
OFFICE
  1
*OFFICE*
  1
*
  1
*
 70
     0
  1
*
  1
*
  0
XRECORD
  5
869
102
{ACAD_REACTORS
330
51F
102
}
330
51F
100
AcDbXrecord
280
     1
  1
OFFS
  1
*SO-*
  1
*
  1
*
 70
     0
  1
*
  1
*
  0
XRECORD
  5
86A
102
{ACAD_REACTORS
330
51F
102
}
330
51F
100
AcDbXrecord
280
     1
  1
Offset
  1
1*
  1
*
  1
*
 70
     0
  1
*
  1
*
  0
XRECORD
  5
86B
102
{ACAD_REACTORS
330
51F
102
}
330
51F
100
AcDbXrecord
280
     1
  1
Ohne Xrefs
  1
~*|*
  1
*
  1
*
 70
     0
  1
*
  1
*
  0
XRECORD
  5
86C
102
{ACAD_REACTORS
330
51F
102
}
330
51F
100
AcDbXrecord
280
     1
  1
oi
  1
*stai*
  1
*
  1
*
 70
     0
  1
*
  1
*
  0
XRECORD
  5
86D
102
{ACAD_REACTORS
330
51F
102
}
330
51F
100
AcDbXrecord
280
     1
  1
OLD
  1
*OLD*
  1
*
  1
*
 70
     0
  1
*
  1
*
  0
XRECORD
  5
86E
102
{ACAD_REACTORS
330
51F
102
}
330
51F
100
AcDbXrecord
280
     1
  1
on
  1
*
  1
*
  1
*
 70
     1
  1
*
  1
*
  0
XRECORD
  5
86F
102
{ACAD_REACTORS
330
51F
102
}
330
51F
100
AcDbXrecord
280
     1
  1
on and thawed
  1
*
  1
*
  1
*
 70
    13
  1
*
  1
*
  0
XRECORD
  5
870
102
{ACAD_REACTORS
330
51F
102
}
330
51F
100
AcDbXrecord
280
     1
  1
onlayers
  1
*
  1
*
  1
*
 70
    13
  1
*
  1
*
  0
XRECORD
  5
871
102
{ACAD_REACTORS
330
51F
102
}
330
51F
100
AcDbXrecord
280
     1
  1
OOPS
  1
443C*
  1
*
  1
*
 70
     0
  1
*
  1
*
  0
XRECORD
  5
872
102
{ACAD_REACTORS
330
51F
102
}
330
51F
100
AcDbXrecord
280
     1
  1
op
  1
*op
  1
*
  1
*
 70
     0
  1
*
  1
*
  0
XRECORD
  5
873
102
{ACAD_REACTORS
330
51F
102
}
330
51F
100
AcDbXrecord
280
     1
  1
option 1
  1
1*
  1
*
  1
*
 70
     0
  1
*
  1
*
  0
XRECORD
  5
874
102
{ACAD_REACTORS
330
51F
102
}
330
51F
100
AcDbXrecord
280
     1
  1
option 2
  1
2*
  1
*
  1
*
 70
     0
  1
*
  1
*
  0
XRECORD
  5
875
102
{ACAD_REACTORS
330
51F
102
}
330
51F
100
AcDbXrecord
280
     1
  1
Option2
  1
Optn2*
  1
*
  1
*
 70
     0
  1
*
  1
*
  0
XRECORD
  5
876
102
{ACAD_REACTORS
330
51F
102
}
330
51F
100
AcDbXrecord
280
     1
  1
ORIG
  1
*
  1
*
  1
*
 70
     0
  1
*
  1
*
  0
XRECORD
  5
877
102
{ACAD_REACTORS
330
51F
102
}
330
51F
100
AcDbXrecord
280
     1
  1
OS Map
  1
g*
  1
*
  1
*
 70
     0
  1
*
  1
*
  0
XRECORD
  5
878
102
{ACAD_REACTORS
330
51F
102
}
330
51F
100
AcDbXrecord
280
     1
  1
ost
  1
*
  1
*
  1
*
 70
     0
  1
*
  1
*
  0
XRECORD
  5
879
102
{ACAD_REACTORS
330
51F
102
}
330
51F
100
AcDbXrecord
280
     1
  1
OU
  1
OU-AREA*,*grid*
  1
*
  1
*
 70
     0
  1
*
  1
*
  0
XRECORD
  5
87A
102
{ACAD_REACTORS
330
51F
102
}
330
51F
100
AcDbXrecord
280
     1
  1
ou-area
  1
ou-area*
  1
*
  1
*
 70
     0
  1
*
  1
*
  0
XRECORD
  5
87B
102
{ACAD_REACTORS
330
51F
102
}
330
51F
100
AcDbXrecord
280
     1
  1
OUT
  1
*OUT*
  1
*
  1
*
 70
     0
  1
*
  1
*
  0
XRECORD
  5
87C
102
{ACAD_REACTORS
330
51F
102
}
330
51F
100
AcDbXrecord
280
     1
  1
outl
  1
*
  1
green
  1
*
 70
     0
  1
*
  1
*
  0
XRECORD
  5
87D
102
{ACAD_REACTORS
330
51F
102
}
330
51F
100
AcDbXrecord
280
     1
  1
OUTLINE
  1
*OU-*
  1
*
  1
*
 70
     0
  1
*
  1
*
  0
XRECORD
  5
87E
102
{ACAD_REACTORS
330
51F
102
}
330
51F
100
AcDbXrecord
280
     1
  1
OUTSIDE
  1
*
  1
*
  1
*
 70
     0
  1
*
  1
*
  0
XRECORD
  5
87F
102
{ACAD_REACTORS
330
51F
102
}
330
51F
100
AcDbXrecord
280
     1
  1
P
  1
*
  1
50
  1
*
 70
     4
  1
*
  1
*
  0
XRECORD
  5
880
102
{ACAD_REACTORS
330
51F
102
}
330
51F
100
AcDbXrecord
280
     1
  1
P1
  1
*P1*
  1
*
  1
*
 70
     0
  1
*
  1
*
  0
XRECORD
  5
881
102
{ACAD_REACTORS
330
51F
102
}
330
51F
100
AcDbXrecord
280
     1
  1
P2
  1
*P2*
  1
*
  1
*
 70
     0
  1
*
  1
*
  0
XRECORD
  5
882
102
{ACAD_REACTORS
330
51F
102
}
330
51F
100
AcDbXrecord
280
     1
  1
p2-LAYERS
  1
c-p2a?s?-*
  1
*
  1
*
 70
     0
  1
*
  1
*
  0
XRECORD
  5
883
102
{ACAD_REACTORS
330
51F
102
}
330
51F
100
AcDbXrecord
280
     1
  1
p2-san
  1
c-p2a?s?-sswr*
  1
*
  1
*
 70
     0
  1
*
  1
*
  0
XRECORD
  5
884
102
{ACAD_REACTORS
330
51F
102
}
330
51F
100
AcDbXrecord
280
     1
  1
P2-STORM
  1
C-P2A?S?-STRM*
  1
*
  1
*
 70
     0
  1
*
  1
*
  0
XRECORD
  5
885
102
{ACAD_REACTORS
330
51F
102
}
330
51F
100
AcDbXrecord
280
     1
  1
p2a4s1
  1
c-p2a4s1*
  1
*
  1
*
 70
     0
  1
*
  1
*
  0
XRECORD
  5
886
102
{ACAD_REACTORS
330
51F
102
}
330
51F
100
AcDbXrecord
280
     1
  1
p2a5
  1
c-p2a5s*
  1
*
  1
*
 70
     0
  1
*
  1
*
  0
XRECORD
  5
887
102
{ACAD_REACTORS
330
51F
102
}
330
51F
100
AcDbXrecord
280
     1
  1
pa
  1
*pa*
  1
*
  1
*
 70
     0
  1
*
  1
*
  0
XRECORD
  5
888
102
{ACAD_REACTORS
330
51F
102
}
330
51F
100
AcDbXrecord
280
     1
  1
PAN
  1
PN*
  1
*
  1
*
 70
     0
  1
*
  1
*
  0
XRECORD
  5
889
102
{ACAD_REACTORS
330
51F
102
}
330
51F
100
AcDbXrecord
280
     1
  1
parking
  1
*parking*
  1
*
  1
*
 70
     0
  1
*
  1
*
  0
XRECORD
  5
88A
102
{ACAD_REACTORS
330
51F
102
}
330
51F
100
AcDbXrecord
280
     1
  1
PARTITION
  1
*PARTITION*
  1
*
  1
*
 70
     0
  1
*
  1
*
  0
XRECORD
  5
88B
102
{ACAD_REACTORS
330
51F
102
}
330
51F
100
AcDbXrecord
280
     1
  1
PARTY
  1
*PARTY*
  1
*
  1
*
 70
     0
  1
*
  1
*
  0
XRECORD
  5
88C
102
{ACAD_REACTORS
330
51F
102
}
330
51F
100
AcDbXrecord
280
     1
  1
PATH
  1
*PATH*
  1
*
  1
*
 70
     0
  1
*
  1
*
  0
XRECORD
  5
88D
102
{ACAD_REACTORS
330
51F
102
}
330
51F
100
AcDbXrecord
280
     1
  1
PB
  1
PB*
  1
*
  1
*
 70
     0
  1
*
  1
*
  0
XRECORD
  5
88E
102
{ACAD_REACTORS
330
51F
102
}
330
51F
100
AcDbXrecord
280
     1
  1
pb-nv
  1
pb*nv*
  1
*
  1
*
 70
     0
  1
*
  1
*
  0
XRECORD
  5
88F
102
{ACAD_REACTORS
330
51F
102
}
330
51F
100
AcDbXrecord
280
     1
  1
PBA
  1
A*
  1
*
  1
*
 70
     0
  1
*
  1
*
  0
XRECORD
  5
890
102
{ACAD_REACTORS
330
51F
102
}
330
51F
100
AcDbXrecord
280
     1
  1
people
  1
*peo*
  1
*
  1
*
 70
     0
  1
*
  1
*
  0
XRECORD
  5
891
102
{ACAD_REACTORS
330
51F
102
}
330
51F
100
AcDbXrecord
280
     1
  1
PF
  1
PF*
  1
*
  1
*
 70
     0
  1
*
  1
*
  0
XRECORD
  5
892
102
{ACAD_REACTORS
330
51F
102
}
330
51F
100
AcDbXrecord
280
     1
  1
Pflanzplan
  1
*
  1
*
  1
*
 70
     0
  1
*
  1
*
  0
XRECORD
  5
893
102
{ACAD_REACTORS
330
51F
102
}
330
51F
100
AcDbXrecord
280
     1
  1
PH
  1
PH*
  1
*
  1
*
 70
     0
  1
*
  1
*
  0
XRECORD
  5
894
102
{ACAD_REACTORS
330
51F
102
}
330
51F
100
AcDbXrecord
280
     1
  1
PH-3-PROP_
  1
PH-3-PROP_*
  1
*
  1
*
 70
     0
  1
*
  1
*
  0
XRECORD
  5
895
102
{ACAD_REACTORS
330
51F
102
}
330
51F
100
AcDbXrecord
280
     1
  1
ph2
  1
ph2-*
  1
*
  1
*
 70
     0
  1
*
  1
*
  0
XRECORD
  5
896
102
{ACAD_REACTORS
330
51F
102
}
330
51F
100
AcDbXrecord
280
     1
  1
PHAN
  1
*PHAN*
  1
*
  1
*
 70
     0
  1
*
  1
*
  0
XRECORD
  5
897
102
{ACAD_REACTORS
330
51F
102
}
330
51F
100
AcDbXrecord
280
     1
  1
PHASE
  1
*PHASE*
  1
*
  1
*
 70
     0
  1
*
  1
*
  0
XRECORD
  5
898
102
{ACAD_REACTORS
330
51F
102
}
330
51F
100
AcDbXrecord
280
     1
  1
phase 1
  1
c-p1*
  1
*
  1
*
 70
     0
  1
*
  1
*
  0
XRECORD
  5
899
102
{ACAD_REACTORS
330
51F
102
}
330
51F
100
AcDbXrecord
280
     1
  1
Phase 2
  1
*
  1
*
  1
*
 70
    13
  1
*
  1
*
  0
XRECORD
  5
89A
102
{ACAD_REACTORS
330
51F
102
}
330
51F
100
AcDbXrecord
280
     1
  1
phase 3
  1
phase-3-*
  1
*
  1
*
 70
     0
  1
*
  1
*
  0
XRECORD
  5
89B
102
{ACAD_REACTORS
330
51F
102
}
330
51F
100
AcDbXrecord
280
     1
  1
phase 3 & 4
  1
phase-*
  1
*
  1
*
 70
     0
  1
*
  1
*
  0
XRECORD
  5
89C
102
{ACAD_REACTORS
330
51F
102
}
330
51F
100
AcDbXrecord
280
     1
  1
phase 4
  1
phase-4-*
  1
*
  1
*
 70
     0
  1
*
  1
*
  0
XRECORD
  5
89D
102
{ACAD_REACTORS
330
51F
102
}
330
51F
100
AcDbXrecord
280
     1
  1
PHIL
  1
*
  1
*
  1
*
 70
    16
  1
*
  1
*
  0
XRECORD
  5
89E
102
{ACAD_REACTORS
330
51F
102
}
330
51F
100
AcDbXrecord
280
     1
  1
PILE CAP
  1
AF*,PCAP*,0,VIEW*,DETA*
  1
*
  1
*
 70
     0
  1
*
  1
*
  0
XRECORD
  5
89F
102
{ACAD_REACTORS
330
51F
102
}
330
51F
100
AcDbXrecord
280
     1
  1
PILE LAYOUT
  1
AF-GR*,PILE*,0,VIEW*,DETA*
  1
*
  1
*
 70
     0
  1
*
  1
*
  0
XRECORD
  5
8A0
102
{ACAD_REACTORS
330
51F
102
}
330
51F
100
AcDbXrecord
280
     1
  1
PILE01
  1
*PILE0*
  1
*
  1
*
 70
     0
  1
*
  1
*
  0
XRECORD
  5
8A1
102
{ACAD_REACTORS
330
51F
102
}
330
51F
100
AcDbXrecord
280
     1
  1
PIN-Communikation
  1
C_*
  1
*
  1
*
 70
     0
  1
*
  1
*
  0
XRECORD
  5
8A2
102
{ACAD_REACTORS
330
51F
102
}
330
51F
100
AcDbXrecord
280
     1
  1
PIN-Elektro
  1
E_*
  1
*
  1
*
 70
     0
  1
*
  1
*
  0
XRECORD
  5
8A3
102
{ACAD_REACTORS
330
51F
102
}
330
51F
100
AcDbXrecord
280
     1
  1
pinze
  1
*pinz*
  1
*
  1
*
 70
     0
  1
*
  1
*
  0
XRECORD
  5
8A4
102
{ACAD_REACTORS
330
51F
102
}
330
51F
100
AcDbXrecord
280
     1
  1
PIPE
  1
P-*
  1
*
  1
*
 70
     0
  1
*
  1
*
  0
XRECORD
  5
8A5
102
{ACAD_REACTORS
330
51F
102
}
330
51F
100
AcDbXrecord
280
     1
  1
Pipework
  1
*Pipe*
  1
*
  1
*
 70
     0
  1
*
  1
*
  0
XRECORD
  5
8A6
102
{ACAD_REACTORS
330
51F
102
}
330
51F
100
AcDbXrecord
280
     1
  1
PIPING
  1
MNPR*
  1
*
  1
*
 70
     0
  1
*
  1
*
  0
XRECORD
  5
8A7
102
{ACAD_REACTORS
330
51F
102
}
330
51F
100
AcDbXrecord
280
     1
  1
PIZZA
  1
PIZZA*,2D*
  1
*
  1
*
 70
     0
  1
*
  1
*
  0
XRECORD
  5
8A8
102
{ACAD_REACTORS
330
51F
102
}
330
51F
100
AcDbXrecord
280
     1
  1
pk 2d-plan
  1
*
  1
*
  1
*
 70
     3
  1
*
  1
*
  0
XRECORD
  5
8A9
102
{ACAD_REACTORS
330
51F
102
}
330
51F
100
AcDbXrecord
280
     1
  1
pl
  1
site-01:pl*
  1
*
  1
*
 70
     0
  1
*
  1
*
  0
XRECORD
  5
8AA
102
{ACAD_REACTORS
330
51F
102
}
330
51F
100
AcDbXrecord
280
     1
  1
PLAN
  1
*PLAN*
  1
*
  1
*
 70
     0
  1
*
  1
*
  0
XRECORD
  5
8AB
102
{ACAD_REACTORS
330
51F
102
}
330
51F
100
AcDbXrecord
280
     1
  1
plan1g-col
  1
plan1g*col*
  1
*
  1
*
 70
     0
  1
*
  1
*
  0
XRECORD
  5
8AC
102
{ACAD_REACTORS
330
51F
102
}
330
51F
100
AcDbXrecord
280
     1
  1
plan1g-con
  1
plan1g*con*
  1
*
  1
*
 70
     0
  1
*
  1
*
  0
XRECORD
  5
8AD
102
{ACAD_REACTORS
330
51F
102
}
330
51F
100
AcDbXrecord
280
     1
  1
plan1g-do
  1
plan1g*do*
  1
*
  1
*
 70
     0
  1
*
  1
*
  0
XRECORD
  5
8AE
102
{ACAD_REACTORS
330
51F
102
}
330
51F
100
AcDbXrecord
280
     1
  1
plan1g-gri
  1
plan1g*gri*
  1
*
  1
*
 70
     0
  1
*
  1
*
  0
XRECORD
  5
8AF
102
{ACAD_REACTORS
330
51F
102
}
330
51F
100
AcDbXrecord
280
     1
  1
plan1g-wal
  1
plan1g*wal*
  1
*
  1
*
 70
     0
  1
*
  1
*
  0
XRECORD
  5
8B0
102
{ACAD_REACTORS
330
51F
102
}
330
51F
100
AcDbXrecord
280
     1
  1
plan1g-walls
  1
plan1g*wal*
  1
*
  1
*
 70
     0
  1
*
  1
*
  0
XRECORD
  5
8B1
102
{ACAD_REACTORS
330
51F
102
}
330
51F
100
AcDbXrecord
280
     1
  1
plan1g-win
  1
plan1g*win*
  1
*
  1
*
 70
     0
  1
*
  1
*
  0
XRECORD
  5
8B2
102
{ACAD_REACTORS
330
51F
102
}
330
51F
100
AcDbXrecord
280
     1
  1
plan1gr-16-02
  1
*plan1gr-16-02*
  1
*
  1
*
 70
     0
  1
*
  1
*
  0
XRECORD
  5
8B3
102
{ACAD_REACTORS
330
51F
102
}
330
51F
100
AcDbXrecord
280
     1
  1
plan2g-col
  1
plan2g*col*
  1
*
  1
*
 70
     0
  1
*
  1
*
  0
XRECORD
  5
8B4
102
{ACAD_REACTORS
330
51F
102
}
330
51F
100
AcDbXrecord
280
     1
  1
plan2g-con
  1
plan2g*con*
  1
*
  1
*
 70
     0
  1
*
  1
*
  0
XRECORD
  5
8B5
102
{ACAD_REACTORS
330
51F
102
}
330
51F
100
AcDbXrecord
280
     1
  1
plan2g-do
  1
plan2g*do*
  1
*
  1
*
 70
     0
  1
*
  1
*
  0
XRECORD
  5
8B6
102
{ACAD_REACTORS
330
51F
102
}
330
51F
100
AcDbXrecord
280
     1
  1
plan2g-wal
  1
plan2g*wal*
  1
*
  1
*
 70
     0
  1
*
  1
*
  0
XRECORD
  5
8B7
102
{ACAD_REACTORS
330
51F
102
}
330
51F
100
AcDbXrecord
280
     1
  1
plan6g
  1
plan6g*dim*
  1
*
  1
*
 70
     0
  1
*
  1
*
  0
XRECORD
  5
8B8
102
{ACAD_REACTORS
330
51F
102
}
330
51F
100
AcDbXrecord
280
     1
  1
plan6g-16-02
  1
plan6g*text.*
  1
*
  1
*
 70
     0
  1
*
  1
*
  0
XRECORD
  5
8B9
102
{ACAD_REACTORS
330
51F
102
}
330
51F
100
AcDbXrecord
280
     1
  1
Planes
  1
AP*
  1
*
  1
*
 70
     0
  1
*
  1
*
  0
XRECORD
  5
8BA
102
{ACAD_REACTORS
330
51F
102
}
330
51F
100
AcDbXrecord
280
     1
  1
PLANG4
  1
PLANG4*COL*
  1
*
  1
*
 70
     0
  1
*
  1
*
  0
XRECORD
  5
8BB
102
{ACAD_REACTORS
330
51F
102
}
330
51F
100
AcDbXrecord
280
     1
  1
plans
  1
plans*
  1
*
  1
*
 70
     0
  1
*
  1
*
  0
XRECORD
  5
8BC
102
{ACAD_REACTORS
330
51F
102
}
330
51F
100
AcDbXrecord
280
     1
  1
plant
  1
*-plant
  1
*
  1
*
 70
     0
  1
*
  1
*
  0
XRECORD
  5
8BD
102
{ACAD_REACTORS
330
51F
102
}
330
51F
100
AcDbXrecord
280
     1
  1
PLASTER
  1
*PLAS*
  1
*
  1
*
 70
     0
  1
*
  1
*
  0
XRECORD
  5
8BE
102
{ACAD_REACTORS
330
51F
102
}
330
51F
100
AcDbXrecord
280
     1
  1
PLBG
  1
P_*
  1
*
  1
*
 70
     0
  1
*
  1
*
  0
XRECORD
  5
8BF
102
{ACAD_REACTORS
330
51F
102
}
330
51F
100
AcDbXrecord
280
     1
  1
pllayer
  1
pl*
  1
*
  1
*
 70
     0
  1
*
  1
*
  0
XRECORD
  5
8C0
102
{ACAD_REACTORS
330
51F
102
}
330
51F
100
AcDbXrecord
280
     1
  1
PLOT
  1
*PLOT*
  1
*
  1
*
 70
     0
  1
*
  1
*
  0
XRECORD
  5
8C1
102
{ACAD_REACTORS
330
51F
102
}
330
51F
100
AcDbXrecord
280
     1
  1
Plumbing
  1
p-*
  1
*
  1
*
 70
     0
  1
*
  1
*
  0
XRECORD
  5
8C2
102
{ACAD_REACTORS
330
51F
102
}
330
51F
100
AcDbXrecord
280
     1
  1
POINT
  1
*POINT*
  1
*
  1
*
 70
     0
  1
*
  1
*
  0
XRECORD
  5
8C3
102
{ACAD_REACTORS
330
51F
102
}
330
51F
100
AcDbXrecord
280
     1
  1
polly
  1
*polly*
  1
*
  1
*
 70
     0
  1
*
  1
*
  0
XRECORD
  5
8C4
102
{ACAD_REACTORS
330
51F
102
}
330
51F
100
AcDbXrecord
280
     1
  1
Polylinien
  1
*POL*
  1
*
  1
*
 70
     0
  1
*
  1
*
  0
XRECORD
  5
8C5
102
{ACAD_REACTORS
330
51F
102
}
330
51F
100
AcDbXrecord
280
     1
  1
porch
  1
porch*
  1
*
  1
*
 70
     0
  1
*
  1
*
  0
XRECORD
  5
8C6
102
{ACAD_REACTORS
330
51F
102
}
330
51F
100
AcDbXrecord
280
     1
  1
pos_txt
  1
*pos_txt
  1
*
  1
*
 70
     0
  1
*
  1
*
  0
XRECORD
  5
8C7
102
{ACAD_REACTORS
330
51F
102
}
330
51F
100
AcDbXrecord
280
     1
  1
POWER
  1
E_POWR*
  1
*
  1
*
 70
     0
  1
*
  1
*
  0
XRECORD
  5
8C8
102
{ACAD_REACTORS
330
51F
102
}
330
51F
100
AcDbXrecord
280
     1
  1
PPM
  1
*PPM
  1
*
  1
*
 70
     0
  1
*
  1
*
  0
XRECORD
  5
8C9
102
{ACAD_REACTORS
330
51F
102
}
330
51F
100
AcDbXrecord
280
     1
  1
PR
  1
X-NIVEL1*
  1
10
  1
*
 70
    13
  1
*
  1
*
  0
XRECORD
  5
8CA
102
{ACAD_REACTORS
330
51F
102
}
330
51F
100
AcDbXrecord
280
     1
  1
PRD-Maschinentechnik
  1
M_*
  1
*
  1
*
 70
     0
  1
*
  1
*
  0
XRECORD
  5
8CB
102
{ACAD_REACTORS
330
51F
102
}
330
51F
100
AcDbXrecord
280
     1
  1
presentation
  1
*
  1
*
  1
*
 70
     0
  1
*
  1
*
  0
XRECORD
  5
8CC
102
{ACAD_REACTORS
330
51F
102
}
330
51F
100
AcDbXrecord
280
     1
  1
print
  1
*
  1
*
  1
*
 70
  1024
  1
*
  1
*
  0
XRECORD
  5
8CD
102
{ACAD_REACTORS
330
51F
102
}
330
51F
100
AcDbXrecord
280
     1
  1
Process Control
  1
PrcCtl*
  1
*
  1
*
 70
     0
  1
*
  1
*
  0
XRECORD
  5
8CE
102
{ACAD_REACTORS
330
51F
102
}
330
51F
100
AcDbXrecord
280
     1
  1
Profil
  1
K_*
  1
*
  1
*
 70
     0
  1
*
  1
*
  0
XRECORD
  5
8CF
102
{ACAD_REACTORS
330
51F
102
}
330
51F
100
AcDbXrecord
280
     1
  1
projekt
  1
proj*
  1
*
  1
*
 70
     0
  1
*
  1
*
  0
XRECORD
  5
8D0
102
{ACAD_REACTORS
330
51F
102
}
330
51F
100
AcDbXrecord
280
     1
  1
PROP
  1
PROP *
  1
*
  1
*
 70
     0
  1
*
  1
*
  0
XRECORD
  5
8D1
102
{ACAD_REACTORS
330
51F
102
}
330
51F
100
AcDbXrecord
280
     1
  1
prop builders work
  1
*
  1
*
  1
*
 70
    16
  1
*
  1
*
  0
XRECORD
  5
8D2
102
{ACAD_REACTORS
330
51F
102
}
330
51F
100
AcDbXrecord
280
     1
  1
prop-ph1-
  1
prop-ph1-*
  1
*
  1
*
 70
     0
  1
*
  1
*
  0
XRECORD
  5
8D3
102
{ACAD_REACTORS
330
51F
102
}
330
51F
100
AcDbXrecord
280
     1
  1
prop-ph2-
  1
prop-ph2-*
  1
*
  1
*
 70
     0
  1
*
  1
*
  0
XRECORD
  5
8D4
102
{ACAD_REACTORS
330
51F
102
}
330
51F
100
AcDbXrecord
280
     1
  1
proposed
  1
p*
  1
*
  1
*
 70
     0
  1
*
  1
*
  0
XRECORD
  5
8D5
102
{ACAD_REACTORS
330
51F
102
}
330
51F
100
AcDbXrecord
280
     1
  1
PU
  1
PU *
  1
*
  1
*
 70
     0
  1
*
  1
*
  0
XRECORD
  5
8D6
102
{ACAD_REACTORS
330
51F
102
}
330
51F
100
AcDbXrecord
280
     1
  1
PWG-Architektur
  1
A_*
  1
*
  1
*
 70
     0
  1
*
  1
*
  0
XRECORD
  5
8D7
102
{ACAD_REACTORS
330
51F
102
}
330
51F
100
AcDbXrecord
280
     1
  1
Queens Building
  1
*q*
  1
*
  1
*
 70
     0
  1
*
  1
*
  0
XRECORD
  5
8D8
102
{ACAD_REACTORS
330
51F
102
}
330
51F
100
AcDbXrecord
280
     1
  1
R
  1
*ZONE*
  1
*
  1
*
 70
     0
  1
*
  1
*
  0
XRECORD
  5
8D9
102
{ACAD_REACTORS
330
51F
102
}
330
51F
100
AcDbXrecord
280
     1
  1
R__
  1
R__*
  1
*
  1
*
 70
     0
  1
*
  1
*
  0
XRECORD
  5
8DA
102
{ACAD_REACTORS
330
51F
102
}
330
51F
100
AcDbXrecord
280
     1
  1
RACK
  1
*
  1
*
  1
*
 70
     0
  1
*
  1
*
  0
XRECORD
  5
8DB
102
{ACAD_REACTORS
330
51F
102
}
330
51F
100
AcDbXrecord
280
     1
  1
ram_rithuvud
  1
*
  1
*
  1
*
 70
    13
  1
*
  1
*
  0
XRECORD
  5
8DC
102
{ACAD_REACTORS
330
51F
102
}
330
51F
100
AcDbXrecord
280
     1
  1
RAMP
  1
*ramp*
  1
*
  1
*
 70
     0
  1
*
  1
*
  0
XRECORD
  5
8DD
102
{ACAD_REACTORS
330
51F
102
}
330
51F
100
AcDbXrecord
280
     1
  1
Raumblock
  1
a-ra*
  1
*
  1
*
 70
     0
  1
*
  1
*
  0
XRECORD
  5
8DE
102
{ACAD_REACTORS
330
51F
102
}
330
51F
100
AcDbXrecord
280
     1
  1
Raumblöcke
  1
a---rm*
  1
*
  1
*
 70
     0
  1
*
  1
*
  0
XRECORD
  5
8DF
102
{ACAD_REACTORS
330
51F
102
}
330
51F
100
AcDbXrecord
280
     1
  1
RaumSchraffur
  1
*gra_rnr*
  1
*
  1
*
 70
     0
  1
*
  1
*
  0
XRECORD
  5
8E0
102
{ACAD_REACTORS
330
51F
102
}
330
51F
100
AcDbXrecord
280
     1
  1
RCCOUMNS
  1
*COL*
  1
*
  1
*
 70
     0
  1
*
  1
*
  0
XRECORD
  5
8E1
102
{ACAD_REACTORS
330
51F
102
}
330
51F
100
AcDbXrecord
280
     1
  1
RCP
  1
A-CLG-*
  1
*
  1
*
 70
     0
  1
*
  1
*
  0
XRECORD
  5
8E2
102
{ACAD_REACTORS
330
51F
102
}
330
51F
100
AcDbXrecord
280
     1
  1
rdsmay
  1
rdsmay
  1
*
  1
*
 70
     0
  1
*
  1
*
  0
XRECORD
  5
8E3
102
{ACAD_REACTORS
330
51F
102
}
330
51F
100
AcDbXrecord
280
     1
  1
Reale
  1
--BH*
  1
*
  1
*
 70
     0
  1
*
  1
*
  0
XRECORD
  5
8E4
102
{ACAD_REACTORS
330
51F
102
}
330
51F
100
AcDbXrecord
280
     1
  1
RED
  1
*RED*
  1
*
  1
*
 70
     0
  1
*
  1
*
  0
XRECORD
  5
8E5
102
{ACAD_REACTORS
330
51F
102
}
330
51F
100
AcDbXrecord
280
     1
  1
reds
  1
*
  1
red
  1
*
 70
     0
  1
*
  1
*
  0
XRECORD
  5
8E6
102
{ACAD_REACTORS
330
51F
102
}
330
51F
100
AcDbXrecord
280
     1
  1
REF
  1
*REF*
  1
*
  1
*
 70
     0
  1
*
  1
*
  0
XRECORD
  5
8E7
102
{ACAD_REACTORS
330
51F
102
}
330
51F
100
AcDbXrecord
280
     1
  1
ref ceiling
  1
*
  1
*
  1
*
 70
    16
  1
*
  1
*
  0
XRECORD
  5
8E8
102
{ACAD_REACTORS
330
51F
102
}
330
51F
100
AcDbXrecord
280
     1
  1
ref ceiling 1
  1
*
  1
*
  1
*
 70
    16
  1
*
  1
*
  0
XRECORD
  5
8E9
102
{ACAD_REACTORS
330
51F
102
}
330
51F
100
AcDbXrecord
280
     1
  1
REFLECTED CEILING PLAN
  1
*
  1
*
  1
*
 70
    16
  1
*
  1
*
  0
XRECORD
  5
8EA
102
{ACAD_REACTORS
330
51F
102
}
330
51F
100
AcDbXrecord
280
     1
  1
RELECTED CEILING PLAN 012
  1
*
  1
*
  1
*
 70
    16
  1
*
  1
*
  0
XRECORD
  5
8EB
102
{ACAD_REACTORS
330
51F
102
}
330
51F
100
AcDbXrecord
280
     1
  1
relocated
  1
*rloc
  1
*
  1
*
 70
     0
  1
*
  1
*
  0
XRECORD
  5
8EC
102
{ACAD_REACTORS
330
51F
102
}
330
51F
100
AcDbXrecord
280
     1
  1
render
  1
*rn*
  1
*
  1
*
 70
     0
  1
*
  1
*
  0
XRECORD
  5
8ED
102
{ACAD_REACTORS
330
51F
102
}
330
51F
100
AcDbXrecord
280
     1
  1
REST
  1
REST*
  1
*
  1
*
 70
     0
  1
*
  1
*
  0
XRECORD
  5
8EE
102
{ACAD_REACTORS
330
51F
102
}
330
51F
100
AcDbXrecord
280
     1
  1
restaurant
  1
rest*
  1
*
  1
*
 70
     0
  1
*
  1
*
  0
XRECORD
  5
8EF
102
{ACAD_REACTORS
330
51F
102
}
330
51F
100
AcDbXrecord
280
     1
  1
rev
  1
*rev*
  1
*
  1
*
 70
     0
  1
*
  1
*
  0
XRECORD
  5
8F0
102
{ACAD_REACTORS
330
51F
102
}
330
51F
100
AcDbXrecord
280
     1
  1
REVISIONS
  1
*REV*
  1
*
  1
*
 70
     0
  1
*
  1
*
  0
XRECORD
  5
8F1
102
{ACAD_REACTORS
330
51F
102
}
330
51F
100
AcDbXrecord
280
     1
  1
RF
  1
*.RF
  1
*
  1
*
 70
     0
  1
*
  1
*
  0
XRECORD
  5
8F2
102
{ACAD_REACTORS
330
51F
102
}
330
51F
100
AcDbXrecord
280
     1
  1
RIDE
  1
*RIDE*
  1
*
  1
*
 70
     0
  1
*
  1
*
  0
XRECORD
  5
8F3
102
{ACAD_REACTORS
330
51F
102
}
330
51F
100
AcDbXrecord
280
     1
  1
RIPON
  1
*RIPON*
  1
*
  1
*
 70
     0
  1
*
  1
*
  0
XRECORD
  5
8F4
102
{ACAD_REACTORS
330
51F
102
}
330
51F
100
AcDbXrecord
280
     1
  1
rl_linie
  1
2l*
  1
*
  1
*
 70
     0
  1
*
  1
*
  0
XRECORD
  5
8F5
102
{ACAD_REACTORS
330
51F
102
}
330
51F
100
AcDbXrecord
280
     1
  1
rl_schraf
  1
2l*S
  1
*
  1
*
 70
     0
  1
*
  1
*
  0
XRECORD
  5
8F6
102
{ACAD_REACTORS
330
51F
102
}
330
51F
100
AcDbXrecord
280
     1
  1
rlt
  1
2l*
  1
*
  1
*
 70
     0
  1
*
  1
*
  0
XRECORD
  5
8F7
102
{ACAD_REACTORS
330
51F
102
}
330
51F
100
AcDbXrecord
280
     1
  1
RO
  1
*
  1
*
  1
*
 70
     0
  1
*
  1
*
  0
XRECORD
  5
8F8
102
{ACAD_REACTORS
330
51F
102
}
330
51F
100
AcDbXrecord
280
     1
  1
ROAD
  1
*ROAD*
  1
*
  1
*
 70
     0
  1
*
  1
*
  0
XRECORD
  5
8F9
102
{ACAD_REACTORS
330
51F
102
}
330
51F
100
AcDbXrecord
280
     1
  1
ROADS
  1
*ROADS*
  1
*
  1
*
 70
     0
  1
*
  1
*
  0
XRECORD
  5
8FA
102
{ACAD_REACTORS
330
51F
102
}
330
51F
100
AcDbXrecord
280
     1
  1
rob
  1
*
  1
*
  1
*
 70
     4
  1
*
  1
*
  0
XRECORD
  5
8FB
102
{ACAD_REACTORS
330
51F
102
}
330
51F
100
AcDbXrecord
280
     1
  1
Rohbau
  1
R*
  1
*
  1
*
 70
     0
  1
*
  1
*
  0
XRECORD
  5
8FC
102
{ACAD_REACTORS
330
51F
102
}
330
51F
100
AcDbXrecord
280
     1
  1
Rolton
  1
RG*
  1
*
  1
*
 70
     0
  1
*
  1
*
  0
XRECORD
  5
8FD
102
{ACAD_REACTORS
330
51F
102
}
330
51F
100
AcDbXrecord
280
     1
  1
ronny
  1
toe
  1
18
  1
*
 70
  3415
  1
*
  1
*
  0
XRECORD
  5
8FE
102
{ACAD_REACTORS
330
51F
102
}
330
51F
100
AcDbXrecord
280
     1
  1
ronny1
  1
toe
  1
*
  1
*
 70
    23
  1
*
  1
*
  0
XRECORD
  5
8FF
102
{ACAD_REACTORS
330
51F
102
}
330
51F
100
AcDbXrecord
280
     1
  1
ROOF
  1
AF*,ROO*,0,VIE*,DETA*
  1
*
  1
*
 70
     0
  1
*
  1
*
  0
XRECORD
  5
900
102
{ACAD_REACTORS
330
51F
102
}
330
51F
100
AcDbXrecord
280
     1
  1
ROOFLIGHT
  1
ROOFLIGHT*
  1
*
  1
*
 70
     0
  1
*
  1
*
  0
XRECORD
  5
901
102
{ACAD_REACTORS
330
51F
102
}
330
51F
100
AcDbXrecord
280
     1
  1
room
  1
*room*
  1
*
  1
*
 70
     0
  1
*
  1
*
  0
XRECORD
  5
902
102
{ACAD_REACTORS
330
51F
102
}
330
51F
100
AcDbXrecord
280
     1
  1
rooms
  1
*rooms
  1
*
  1
*
 70
     0
  1
*
  1
*
  0
XRECORD
  5
903
102
{ACAD_REACTORS
330
51F
102
}
330
51F
100
AcDbXrecord
280
     1
  1
rouge
  1
*
  1
1
  1
*
 70
     1
  1
*
  1
*
  0
XRECORD
  5
904
102
{ACAD_REACTORS
330
51F
102
}
330
51F
100
AcDbXrecord
280
     1
  1
rr
  1
rr*
  1
*
  1
*
 70
     0
  1
*
  1
*
  0
XRECORD
  5
905
102
{ACAD_REACTORS
330
51F
102
}
330
51F
100
AcDbXrecord
280
     1
  1
rrb
  1
*rr-b*
  1
*
  1
*
 70
     0
  1
*
  1
*
  0
XRECORD
  5
906
102
{ACAD_REACTORS
330
51F
102
}
330
51F
100
AcDbXrecord
280
     1
  1
rsfl
  1
a33*
  1
*
  1
*
 70
     0
  1
*
  1
*
  0
XRECORD
  5
907
102
{ACAD_REACTORS
330
51F
102
}
330
51F
100
AcDbXrecord
280
     1
  1
RSW-Aussenanlagen-Y
  1
Y_*
  1
*
  1
*
 70
     0
  1
*
  1
*
  0
XRECORD
  5
908
102
{ACAD_REACTORS
330
51F
102
}
330
51F
100
AcDbXrecord
280
     1
  1
RSW-Fluchtplan
  1
F_*
  1
*
  1
*
 70
     0
  1
*
  1
*
  0
XRECORD
  5
909
102
{ACAD_REACTORS
330
51F
102
}
330
51F
100
AcDbXrecord
280
     1
  1
RSW-Kataster
  1
K_*
  1
*
  1
*
 70
     0
  1
*
  1
*
  0
XRECORD
  5
90A
102
{ACAD_REACTORS
330
51F
102
}
330
51F
100
AcDbXrecord
280
     1
  1
rtkl
  1
*rtkl*
  1
*
  1
*
 70
     0
  1
*
  1
*
  0
XRECORD
  5
90B
102
{ACAD_REACTORS
330
51F
102
}
330
51F
100
AcDbXrecord
280
     1
  1
rwo
  1
*rwo*
  1
*
  1
*
 70
     0
  1
*
  1
*
  0
XRECORD
  5
90C
102
{ACAD_REACTORS
330
51F
102
}
330
51F
100
AcDbXrecord
280
     1
  1
RWP
  1
*RWP*
  1
*
  1
*
 70
     0
  1
*
  1
*
  0
XRECORD
  5
90D
102
{ACAD_REACTORS
330
51F
102
}
330
51F
100
AcDbXrecord
280
     1
  1
s
  1
s_*
  1
*
  1
*
 70
     0
  1
*
  1
*
  0
XRECORD
  5
90E
102
{ACAD_REACTORS
330
51F
102
}
330
51F
100
AcDbXrecord
280
     1
  1
S-H
  1
S-*,H-*
  1
*
  1
*
 70
     0
  1
*
  1
*
  0
XRECORD
  5
90F
102
{ACAD_REACTORS
330
51F
102
}
330
51F
100
AcDbXrecord
280
     1
  1
S38-phase-2
  1
S38-phase-2-*
  1
*
  1
*
 70
     0
  1
*
  1
*
  0
XRECORD
  5
910
102
{ACAD_REACTORS
330
51F
102
}
330
51F
100
AcDbXrecord
280
     1
  1
S38-phase-3
  1
S38-phase-3-*
  1
*
  1
*
 70
     0
  1
*
  1
*
  0
XRECORD
  5
911
102
{ACAD_REACTORS
330
51F
102
}
330
51F
100
AcDbXrecord
280
     1
  1
s_
  1
s_*
  1
*
  1
*
 70
     0
  1
*
  1
*
  0
XRECORD
  5
912
102
{ACAD_REACTORS
330
51F
102
}
330
51F
100
AcDbXrecord
280
     1
  1
SALES
  1
MO*
  1
*
  1
*
 70
     0
  1
*
  1
*
  0
XRECORD
  5
913
102
{ACAD_REACTORS
330
51F
102
}
330
51F
100
AcDbXrecord
280
     1
  1
san
  1
*san*
  1
*
  1
*
 70
     0
  1
*
  1
*
  0
XRECORD
  5
914
102
{ACAD_REACTORS
330
51F
102
}
330
51F
100
AcDbXrecord
280
     1
  1
SANDSTONE
  1
SAND*
  1
*
  1
*
 70
     0
  1
*
  1
*
  0
XRECORD
  5
915
102
{ACAD_REACTORS
330
51F
102
}
330
51F
100
AcDbXrecord
280
     1
  1
sani
  1
s_*
  1
*
  1
*
 70
     0
  1
*
  1
*
  0
XRECORD
  5
916
102
{ACAD_REACTORS
330
51F
102
}
330
51F
100
AcDbXrecord
280
     1
  1
Sanitaer
  1
S1-*
  1
*
  1
*
 70
     0
  1
*
  1
*
  0
XRECORD
  5
917
102
{ACAD_REACTORS
330
51F
102
}
330
51F
100
AcDbXrecord
280
     1
  1
sanitary
  1
*sanitary*
  1
*
  1
*
 70
     0
  1
*
  1
*
  0
XRECORD
  5
918
102
{ACAD_REACTORS
330
51F
102
}
330
51F
100
AcDbXrecord
280
     1
  1
sanitaryware
  1
*san*
  1
*
  1
*
 70
     0
  1
*
  1
*
  0
XRECORD
  5
919
102
{ACAD_REACTORS
330
51F
102
}
330
51F
100
AcDbXrecord
280
     1
  1
Sanitär
  1
s__*
  1
*
  1
*
 70
     0
  1
*
  1
*
  0
XRECORD
  5
91A
102
{ACAD_REACTORS
330
51F
102
}
330
51F
100
AcDbXrecord
280
     1
  1
sansl'extension
  1
*A*,*B*,C*,*D*,*I*,*P*,*S*,*T*
  1
*
  1
*
 70
     0
  1
*
  1
*
  0
XRECORD
  5
91B
102
{ACAD_REACTORS
330
51F
102
}
330
51F
100
AcDbXrecord
280
     1
  1
sap-spi
  1
*sap*,*spi*
  1
*
  1
*
 70
     0
  1
*
  1
*
  0
XRECORD
  5
91C
102
{ACAD_REACTORS
330
51F
102
}
330
51F
100
AcDbXrecord
280
     1
  1
scale200
  1
*wind*,*clad*,*stone*,*stee*
  1
*
  1
*
 70
     0
  1
*
  1
*
  0
XRECORD
  5
91D
102
{ACAD_REACTORS
330
51F
102
}
330
51F
100
AcDbXrecord
280
     1
  1
sch
  1
*sch
  1
*
  1
*
 70
     0
  1
*
  1
*
  0
XRECORD
  5
91E
102
{ACAD_REACTORS
330
51F
102
}
330
51F
100
AcDbXrecord
280
     1
  1
schacht
  1
*schacht*
  1
*
  1
*
 70
     0
  1
*
  1
*
  0
XRECORD
  5
91F
102
{ACAD_REACTORS
330
51F
102
}
330
51F
100
AcDbXrecord
280
     1
  1
SCHEMATIC
  1
*SCHEMATIC*
  1
*
  1
*
 70
     0
  1
*
  1
*
  0
XRECORD
  5
920
102
{ACAD_REACTORS
330
51F
102
}
330
51F
100
AcDbXrecord
280
     1
  1
schindler
  1
*
  1
*
  1
*
 70
     0
  1
*
  1
*
  0
XRECORD
  5
921
102
{ACAD_REACTORS
330
51F
102
}
330
51F
100
AcDbXrecord
280
     1
  1
Schlitz- und Durchbrüche
  1
A-SD*
  1
*
  1
*
 70
     0
  1
*
  1
*
  0
XRECORD
  5
922
102
{ACAD_REACTORS
330
51F
102
}
330
51F
100
AcDbXrecord
280
     1
  1
Schnitt
  1
SCH*
  1
*
  1
*
 70
     0
  1
*
  1
*
  0
XRECORD
  5
923
102
{ACAD_REACTORS
330
51F
102
}
330
51F
100
AcDbXrecord
280
     1
  1
schr-a
  1
*schraff__a*
  1
*
  1
*
 70
     1
  1
*
  1
*
  0
XRECORD
  5
924
102
{ACAD_REACTORS
330
51F
102
}
330
51F
100
AcDbXrecord
280
     1
  1
schr-f
  1
*schraff__f*
  1
*
  1
*
 70
     1
  1
*
  1
*
  0
XRECORD
  5
925
102
{ACAD_REACTORS
330
51F
102
}
330
51F
100
AcDbXrecord
280
     1
  1
schr-z
  1
*schraff__z*
  1
*
  1
*
 70
     1
  1
*
  1
*
  0
XRECORD
  5
926
102
{ACAD_REACTORS
330
51F
102
}
330
51F
100
AcDbXrecord
280
     1
  1
schraff
  1
*schraff*
  1
*
  1
*
 70
     0
  1
*
  1
*
  0
XRECORD
  5
927
102
{ACAD_REACTORS
330
51F
102
}
330
51F
100
AcDbXrecord
280
     1
  1
Schraffur
  1
*05S
  1
*
  1
*
 70
     0
  1
*
  1
*
  0
XRECORD
  5
928
102
{ACAD_REACTORS
330
51F
102
}
330
51F
100
AcDbXrecord
280
     1
  1
Schraffuren
  1
*schraf*
  1
*
  1
*
 70
     0
  1
*
  1
*
  0
XRECORD
  5
929
102
{ACAD_REACTORS
330
51F
102
}
330
51F
100
AcDbXrecord
280
     1
  1
screed plan
  1
*
  1
*
  1
*
 70
    16
  1
*
  1
*
  0
XRECORD
  5
92A
102
{ACAD_REACTORS
330
51F
102
}
330
51F
100
AcDbXrecord
280
     1
  1
Screw
  1
*screw*
  1
*
  1
*
 70
     0
  1
*
  1
*
  0
XRECORD
  5
92B
102
{ACAD_REACTORS
330
51F
102
}
330
51F
100
AcDbXrecord
280
     1
  1
sd
  1
*sd*
  1
*
  1
*
 70
     0
  1
*
  1
*
  0
XRECORD
  5
92C
102
{ACAD_REACTORS
330
51F
102
}
330
51F
100
AcDbXrecord
280
     1
  1
SD2-P
  1
SD*
  1
*
  1
*
 70
     0
  1
*
  1
*
  0
XRECORD
  5
92D
102
{ACAD_REACTORS
330
51F
102
}
330
51F
100
AcDbXrecord
280
     1
  1
SD2-P(SCONGELATI)
  1
SD*
  1
*
  1
*
 70
    12
  1
*
  1
*
  0
XRECORD
  5
92E
102
{ACAD_REACTORS
330
51F
102
}
330
51F
100
AcDbXrecord
280
     1
  1
SD228SMT
  1
*SD228*
  1
*
  1
*
 70
     0
  1
*
  1
*
  0
XRECORD
  5
92F
102
{ACAD_REACTORS
330
51F
102
}
330
51F
100
AcDbXrecord
280
     1
  1
se
  1
*se*
  1
*
  1
*
 70
     0
  1
*
  1
*
  0
XRECORD
  5
930
102
{ACAD_REACTORS
330
51F
102
}
330
51F
100
AcDbXrecord
280
     1
  1
se-
  1
se*
  1
*
  1
*
 70
     0
  1
*
  1
*
  0
XRECORD
  5
931
102
{ACAD_REACTORS
330
51F
102
}
330
51F
100
AcDbXrecord
280
     1
  1
SE100
  1
SE-100*
  1
*
  1
*
 70
     0
  1
*
  1
*
  0
XRECORD
  5
932
102
{ACAD_REACTORS
330
51F
102
}
330
51F
100
AcDbXrecord
280
     1
  1
search
  1
*comments*
  1
red
  1
*
 70
     0
  1
*
  1
*
  0
XRECORD
  5
933
102
{ACAD_REACTORS
330
51F
102
}
330
51F
100
AcDbXrecord
280
     1
  1
sec
  1
*sec*
  1
*
  1
*
 70
     0
  1
*
  1
*
  0
XRECORD
  5
934
102
{ACAD_REACTORS
330
51F
102
}
330
51F
100
AcDbXrecord
280
     1
  1
secl
  1
*secl*
  1
*
  1
*
 70
     0
  1
*
  1
*
  0
XRECORD
  5
935
102
{ACAD_REACTORS
330
51F
102
}
330
51F
100
AcDbXrecord
280
     1
  1
SECTION
  1
*SECTION*TEXT*
  1
*
  1
*
 70
     0
  1
*
  1
*
  0
XRECORD
  5
936
102
{ACAD_REACTORS
330
51F
102
}
330
51F
100
AcDbXrecord
280
     1
  1
SECTIONS
  1
SEC*,0,VIE*,DETA*
  1
*
  1
*
 70
     0
  1
*
  1
*
  0
XRECORD
  5
937
102
{ACAD_REACTORS
330
51F
102
}
330
51F
100
AcDbXrecord
280
     1
  1
select all-on
  1
*
  1
*
  1
*
 70
     1
  1
*
  1
*
  0
XRECORD
  5
938
102
{ACAD_REACTORS
330
51F
102
}
330
51F
100
AcDbXrecord
280
     1
  1
serv
  1
serv-*
  1
*
  1
*
 70
     0
  1
*
  1
*
  0
XRECORD
  5
939
102
{ACAD_REACTORS
330
51F
102
}
330
51F
100
AcDbXrecord
280
     1
  1
servery
  1
servery*
  1
*
  1
*
 70
     0
  1
*
  1
*
  0
XRECORD
  5
93A
102
{ACAD_REACTORS
330
51F
102
}
330
51F
100
AcDbXrecord
280
     1
  1
SERVIC
  1
*SERVIC*
  1
*
  1
*
 70
     0
  1
*
  1
*
  0
XRECORD
  5
93B
102
{ACAD_REACTORS
330
51F
102
}
330
51F
100
AcDbXrecord
280
     1
  1
service
  1
*service*
  1
*
  1
*
 70
     0
  1
*
  1
*
  0
XRECORD
  5
93C
102
{ACAD_REACTORS
330
51F
102
}
330
51F
100
AcDbXrecord
280
     1
  1
SERVICE PLAN
  1
SP-*
  1
*
  1
*
 70
     0
  1
*
  1
*
  0
XRECORD
  5
93D
102
{ACAD_REACTORS
330
51F
102
}
330
51F
100
AcDbXrecord
280
     1
  1
SERVICES
  1
*SERVICE*
  1
*
  1
*
 70
     0
  1
*
  1
*
  0
XRECORD
  5
93E
102
{ACAD_REACTORS
330
51F
102
}
330
51F
100
AcDbXrecord
280
     1
  1
SET
  1
*SET*
  1
*
  1
*
 70
     0
  1
*
  1
*
  0
XRECORD
  5
93F
102
{ACAD_REACTORS
330
51F
102
}
330
51F
100
AcDbXrecord
280
     1
  1
setout
  1
*setout
  1
*
  1
*
 70
     0
  1
*
  1
*
  0
XRECORD
  5
940
102
{ACAD_REACTORS
330
51F
102
}
330
51F
100
AcDbXrecord
280
     1
  1
SETTING OUT
  1
SO-*
  1
*
  1
*
 70
     0
  1
*
  1
*
  0
XRECORD
  5
941
102
{ACAD_REACTORS
330
51F
102
}
330
51F
100
AcDbXrecord
280
     1
  1
SEWER
  1
*SEWER*
  1
*
  1
*
 70
     0
  1
*
  1
*
  0
XRECORD
  5
942
102
{ACAD_REACTORS
330
51F
102
}
330
51F
100
AcDbXrecord
280
     1
  1
SF
  1
SF*
  1
*
  1
*
 70
     0
  1
*
  1
*
  0
XRECORD
  5
943
102
{ACAD_REACTORS
330
51F
102
}
330
51F
100
AcDbXrecord
280
     1
  1
sgp-
  1
sgp-*
  1
*
  1
*
 70
     0
  1
*
  1
*
  0
XRECORD
  5
944
102
{ACAD_REACTORS
330
51F
102
}
330
51F
100
AcDbXrecord
280
     1
  1
sgppl6
  1
sgppl6-*
  1
*
  1
*
 70
     0
  1
*
  1
*
  0
XRECORD
  5
945
102
{ACAD_REACTORS
330
51F
102
}
330
51F
100
AcDbXrecord
280
     1
  1
sgpstee
  1
*stee*
  1
*
  1
*
 70
     0
  1
*
  1
*
  0
XRECORD
  5
946
102
{ACAD_REACTORS
330
51F
102
}
330
51F
100
AcDbXrecord
280
     1
  1
SGPSTEEL
  1
*STEE*
  1
*
  1
*
 70
     0
  1
*
  1
*
  0
XRECORD
  5
947
102
{ACAD_REACTORS
330
51F
102
}
330
51F
100
AcDbXrecord
280
     1
  1
sgpstub
  1
*stub*
  1
*
  1
*
 70
     0
  1
*
  1
*
  0
XRECORD
  5
948
102
{ACAD_REACTORS
330
51F
102
}
330
51F
100
AcDbXrecord
280
     1
  1
SGPSTUBS
  1
*STUB*
  1
*
  1
*
 70
     0
  1
*
  1
*
  0
XRECORD
  5
949
102
{ACAD_REACTORS
330
51F
102
}
330
51F
100
AcDbXrecord
280
     1
  1
SHADE
  1
*SHADE*
  1
*
  1
*
 70
     0
  1
*
  1
*
  0
XRECORD
  5
94A
102
{ACAD_REACTORS
330
51F
102
}
330
51F
100
AcDbXrecord
280
     1
  1
shadow
  1
*shad*
  1
*
  1
*
 70
     0
  1
*
  1
*
  0
XRECORD
  5
94B
102
{ACAD_REACTORS
330
51F
102
}
330
51F
100
AcDbXrecord
280
     1
  1
SHOPFRONT
  1
*SHOPFRONT*
  1
*
  1
*
 70
     0
  1
*
  1
*
  0
XRECORD
  5
94C
102
{ACAD_REACTORS
330
51F
102
}
330
51F
100
AcDbXrecord
280
     1
  1
Show All Layers On
  1
*
  1
*
  1
*
 70
     1
  1
*
  1
*
  0
XRECORD
  5
94D
102
{ACAD_REACTORS
330
51F
102
}
330
51F
100
AcDbXrecord
280
     1
  1
Show All Layers Thawed
  1
*
  1
*
  1
*
 70
    12
  1
*
  1
*
  0
XRECORD
  5
94E
102
{ACAD_REACTORS
330
51F
102
}
330
51F
100
AcDbXrecord
280
     1
  1
Show All Layers Unlocked
  1
*
  1
*
  1
*
 70
   768
  1
*
  1
*
  0
XRECORD
  5
94F
102
{ACAD_REACTORS
330
51F
102
}
330
51F
100
AcDbXrecord
280
     1
  1
Show all non-Xref layers
  1
~*|*
  1
*
  1
*
 70
     0
  1
*
  1
*
  0
XRECORD
  5
950
102
{ACAD_REACTORS
330
51F
102
}
330
51F
100
AcDbXrecord
280
     1
  1
show all not Xref dependent layers
  1
*
  1
*
  1
*
 70
     0
  1
*
  1
*
  0
XRECORD
  5
951
102
{ACAD_REACTORS
330
51F
102
}
330
51F
100
AcDbXrecord
280
     1
  1
Show all visible layers
  1
*
  1
*
  1
*
 70
     1
  1
*
  1
*
  0
XRECORD
  5
952
102
{ACAD_REACTORS
330
51F
102
}
330
51F
100
AcDbXrecord
280
     1
  1
Show Connections layers
  1
*connections*
  1
*
  1
*
 70
     0
  1
*
  1
*
  0
XRECORD
  5
953
102
{ACAD_REACTORS
330
51F
102
}
330
51F
100
AcDbXrecord
280
     1
  1
Show Controls layers
  1
*controls*
  1
*
  1
*
 70
     0
  1
*
  1
*
  0
XRECORD
  5
954
102
{ACAD_REACTORS
330
51F
102
}
330
51F
100
AcDbXrecord
280
     1
  1
SHOW NON-XREF LAYER
  1
*
  1
*
  1
*
 70
     0
  1
*
  1
*
  0
XRECORD
  5
955
102
{ACAD_REACTORS
330
51F
102
}
330
51F
100
AcDbXrecord
280
     1
  1
Show not Xref dependent layers
  1
*
  1
*
  1
*
 70
     0
  1
*
  1
*
  0
XRECORD
  5
956
102
{ACAD_REACTORS
330
51F
102
}
330
51F
100
AcDbXrecord
280
     1
  1
Show Thawed Layers
  1
*
  1
*
  1
*
 70
     0
  1
*
  1
*
  0
XRECORD
  5
957
102
{ACAD_REACTORS
330
51F
102
}
330
51F
100
AcDbXrecord
280
     1
  1
Show Workspace layers
  1
*workspace*
  1
*
  1
*
 70
     0
  1
*
  1
*
  0
XRECORD
  5
958
102
{ACAD_REACTORS
330
51F
102
}
330
51F
100
AcDbXrecord
280
     1
  1
sibou
  1
*sibou*
  1
*
  1
*
 70
     0
  1
*
  1
*
  0
XRECORD
  5
959
102
{ACAD_REACTORS
330
51F
102
}
330
51F
100
AcDbXrecord
280
     1
  1
SIGN PLAN
  1
SIGNS-*
  1
*
  1
*
 70
     0
  1
*
  1
*
  0
XRECORD
  5
95A
102
{ACAD_REACTORS
330
51F
102
}
330
51F
100
AcDbXrecord
280
     1
  1
SIGNAGE
  1
E3*
  1
*
  1
*
 70
     0
  1
*
  1
*
  0
XRECORD
  5
95B
102
{ACAD_REACTORS
330
51F
102
}
330
51F
100
AcDbXrecord
280
     1
  1
SIGNS
  1
*SIGNS
  1
*
  1
*
 70
     0
  1
*
  1
*
  0
XRECORD
  5
95C
102
{ACAD_REACTORS
330
51F
102
}
330
51F
100
AcDbXrecord
280
     1
  1
SITE
  1
SITE*
  1
*
  1
*
 70
     0
  1
*
  1
*
  0
XRECORD
  5
95D
102
{ACAD_REACTORS
330
51F
102
}
330
51F
100
AcDbXrecord
280
     1
  1
SITE ONLY
  1
SITE*
  1
*
  1
*
 70
     0
  1
*
  1
*
  0
XRECORD
  5
95E
102
{ACAD_REACTORS
330
51F
102
}
330
51F
100
AcDbXrecord
280
     1
  1
SK
  1
SK*,E*
  1
*
  1
*
 70
     0
  1
*
  1
*
  0
XRECORD
  5
95F
102
{ACAD_REACTORS
330
51F
102
}
330
51F
100
AcDbXrecord
280
     1
  1
sky
  1
*sky*
  1
*
  1
*
 70
     0
  1
*
  1
*
  0
XRECORD
  5
960
102
{ACAD_REACTORS
330
51F
102
}
330
51F
100
AcDbXrecord
280
     1
  1
SLAB
  1
*SLAB*
  1
*
  1
*
 70
     0
  1
*
  1
*
  0
XRECORD
  5
961
102
{ACAD_REACTORS
330
51F
102
}
330
51F
100
AcDbXrecord
280
     1
  1
slabs
  1
*230*
  1
*
  1
*
 70
     0
  1
*
  1
*
  0
XRECORD
  5
962
102
{ACAD_REACTORS
330
51F
102
}
330
51F
100
AcDbXrecord
280
     1
  1
slots
  1
*slot*
  1
*
  1
*
 70
     0
  1
*
  1
*
  0
XRECORD
  5
963
102
{ACAD_REACTORS
330
51F
102
}
330
51F
100
AcDbXrecord
280
     1
  1
Sni
  1
s*
  1
*
  1
*
 70
     0
  1
*
  1
*
  0
XRECORD
  5
964
102
{ACAD_REACTORS
330
51F
102
}
330
51F
100
AcDbXrecord
280
     1
  1
SOCO
  1
-*
  1
*
  1
*
 70
     0
  1
*
  1
*
  0
XRECORD
  5
965
102
{ACAD_REACTORS
330
51F
102
}
330
51F
100
AcDbXrecord
280
     1
  1
SOCO LAYERS
  1
-*
  1
*
  1
*
 70
     0
  1
*
  1
*
  0
XRECORD
  5
966
102
{ACAD_REACTORS
330
51F
102
}
330
51F
100
AcDbXrecord
280
     1
  1
softbase
  1
*
  1
*
  1
*
 70
     0
  1
*
  1
*
  0
XRECORD
  5
967
102
{ACAD_REACTORS
330
51F
102
}
330
51F
100
AcDbXrecord
280
     1
  1
SOLID
  1
*_SOLID
  1
*
  1
*
 70
     0
  1
*
  1
*
  0
XRECORD
  5
968
102
{ACAD_REACTORS
330
51F
102
}
330
51F
100
AcDbXrecord
280
     1
  1
solid fills
  1
*-h
  1
*
  1
*
 70
     0
  1
*
  1
*
  0
XRECORD
  5
969
102
{ACAD_REACTORS
330
51F
102
}
330
51F
100
AcDbXrecord
280
     1
  1
Solids
  1
s*
  1
*
  1
*
 70
     0
  1
*
  1
*
  0
XRECORD
  5
96A
102
{ACAD_REACTORS
330
51F
102
}
330
51F
100
AcDbXrecord
280
     1
  1
SOSTEGNI
  1
SOSTEGNI*
  1
*
  1
*
 70
     0
  1
*
  1
*
  0
XRECORD
  5
96B
102
{ACAD_REACTORS
330
51F
102
}
330
51F
100
AcDbXrecord
280
     1
  1
space planning
  1
*sp*
  1
*
  1
*
 70
     0
  1
*
  1
*
  0
XRECORD
  5
96C
102
{ACAD_REACTORS
330
51F
102
}
330
51F
100
AcDbXrecord
280
     1
  1
SPECIFICATIONS
  1
*SPEC*
  1
*
  1
*
 70
     0
  1
*
  1
*
  0
XRECORD
  5
96D
102
{ACAD_REACTORS
330
51F
102
}
330
51F
100
AcDbXrecord
280
     1
  1
SPI & SAP
  1
*spi*,*sap*
  1
*
  1
*
 70
     0
  1
*
  1
*
  0
XRECORD
  5
96E
102
{ACAD_REACTORS
330
51F
102
}
330
51F
100
AcDbXrecord
280
     1
  1
spi-sap
  1
*spi*,*sap*
  1
*
  1
*
 70
     0
  1
*
  1
*
  0
XRECORD
  5
96F
102
{ACAD_REACTORS
330
51F
102
}
330
51F
100
AcDbXrecord
280
     1
  1
SPIRAL
  1
SPIRAL*
  1
*
  1
*
 70
     0
  1
*
  1
*
  0
XRECORD
  5
970
102
{ACAD_REACTORS
330
51F
102
}
330
51F
100
AcDbXrecord
280
     1
  1
SPORTS-BAR
  1
*SPORTS-BAR*
  1
*
  1
*
 70
     0
  1
*
  1
*
  0
XRECORD
  5
971
102
{ACAD_REACTORS
330
51F
102
}
330
51F
100
AcDbXrecord
280
     1
  1
SPOTLIGHTS
  1
SPOT*
  1
*
  1
*
 70
     0
  1
*
  1
*
  0
XRECORD
  5
972
102
{ACAD_REACTORS
330
51F
102
}
330
51F
100
AcDbXrecord
280
     1
  1
SPRINKLER
  1
*SPRIN*
  1
*
  1
*
 70
     0
  1
*
  1
*
  0
XRECORD
  5
973
102
{ACAD_REACTORS
330
51F
102
}
330
51F
100
AcDbXrecord
280
     1
  1
SSWR
  1
X-NUTILS|C-??????-SSWR,X-NUTILS|C-??????-SSWR-TEMP
  1
*
  1
*
 70
     0
  1
*
  1
*
  0
XRECORD
  5
974
102
{ACAD_REACTORS
330
51F
102
}
330
51F
100
AcDbXrecord
280
     1
  1
ST
  1
*ST*
  1
*
  1
*
 70
     0
  1
*
  1
*
  0
XRECORD
  5
975
102
{ACAD_REACTORS
330
51F
102
}
330
51F
100
AcDbXrecord
280
     1
  1
STAIR
  1
*STAIR*
  1
*
  1
*
 70
     0
  1
*
  1
*
  0
XRECORD
  5
976
102
{ACAD_REACTORS
330
51F
102
}
330
51F
100
AcDbXrecord
280
     1
  1
stair layer
  1
*stair*
  1
*
  1
*
 70
     0
  1
*
  1
*
  0
XRECORD
  5
977
102
{ACAD_REACTORS
330
51F
102
}
330
51F
100
AcDbXrecord
280
     1
  1
STAIRS
  1
*STAIR*
  1
*
  1
*
 70
     0
  1
*
  1
*
  0
XRECORD
  5
978
102
{ACAD_REACTORS
330
51F
102
}
330
51F
100
AcDbXrecord
280
     1
  1
Stand_layout
  1
*
  1
*
  1
*
 70
     0
  1
*
  1
*
  0
XRECORD
  5
979
102
{ACAD_REACTORS
330
51F
102
}
330
51F
100
AcDbXrecord
280
     1
  1
STAT
  1
*STAT*
  1
*
  1
*
 70
     0
  1
*
  1
*
  0
XRECORD
  5
97A
102
{ACAD_REACTORS
330
51F
102
}
330
51F
100
AcDbXrecord
280
     1
  1
STEEL
  1
STEEL*
  1
*
  1
*
 70
     0
  1
*
  1
*
  0
XRECORD
  5
97B
102
{ACAD_REACTORS
330
51F
102
}
330
51F
100
AcDbXrecord
280
     1
  1
stn
  1
*
  1
*
  1
*
 70
     0
  1
*
  1
*
  0
XRECORD
  5
97C
102
{ACAD_REACTORS
330
51F
102
}
330
51F
100
AcDbXrecord
280
     1
  1
STONE
  1
*STON*
  1
*
  1
*
 70
     0
  1
*
  1
*
  0
XRECORD
  5
97D
102
{ACAD_REACTORS
330
51F
102
}
330
51F
100
AcDbXrecord
280
     1
  1
STORM
  1
*SW*
  1
*
  1
*
 70
     0
  1
*
  1
*
  0
XRECORD
  5
97E
102
{ACAD_REACTORS
330
51F
102
}
330
51F
100
AcDbXrecord
280
     1
  1
Strangbezeichnungen
  1
*sbz*
  1
*
  1
*
 70
     0
  1
*
  1
*
  0
XRECORD
  5
97F
102
{ACAD_REACTORS
330
51F
102
}
330
51F
100
AcDbXrecord
280
     1
  1
STREET
  1
*STREET*
  1
*
  1
*
 70
     0
  1
*
  1
*
  0
XRECORD
  5
980
102
{ACAD_REACTORS
330
51F
102
}
330
51F
100
AcDbXrecord
280
     1
  1
STRUCT
  1
0,1,2,3,4,5,6,7,8,BACKGROUNND,BEAMS,BWK,BWK-SECT,CL,CONC,CONC-BGRND,CONC-HID,CONC-COL,EJ,CONC-RW,D,EX-BUILD,EX-GEN,GRID,H,T2,T3,T5,PARKING,REBAR,TROUGHS
  1
*
  1
*
 70
     0
  1
*
  1
*
  0
XRECORD
  5
981
102
{ACAD_REACTORS
330
51F
102
}
330
51F
100
AcDbXrecord
280
     1
  1
STRUCT-CONC
  1
*STRUCT*
  1
*
  1
*
 70
     0
  1
*
  1
*
  0
XRECORD
  5
982
102
{ACAD_REACTORS
330
51F
102
}
330
51F
100
AcDbXrecord
280
     1
  1
struct-steel
  1
*struct-steel*
  1
*
  1
*
 70
     0
  1
*
  1
*
  0
XRECORD
  5
983
102
{ACAD_REACTORS
330
51F
102
}
330
51F
100
AcDbXrecord
280
     1
  1
structural
  1
s*
  1
*
  1
*
 70
     0
  1
*
  1
*
  0
XRECORD
  5
984
102
{ACAD_REACTORS
330
51F
102
}
330
51F
100
AcDbXrecord
280
     1
  1
structure
  1
eng_*
  1
*
  1
*
 70
     0
  1
*
  1
*
  0
XRECORD
  5
985
102
{ACAD_REACTORS
330
51F
102
}
330
51F
100
AcDbXrecord
280
     1
  1
STUB
  1
*STUB*
  1
*
  1
*
 70
     0
  1
*
  1
*
  0
XRECORD
  5
986
102
{ACAD_REACTORS
330
51F
102
}
330
51F
100
AcDbXrecord
280
     1
  1
Stuetzen
  1
STU*
  1
*
  1
*
 70
     0
  1
*
  1
*
  0
XRECORD
  5
987
102
{ACAD_REACTORS
330
51F
102
}
330
51F
100
AcDbXrecord
280
     1
  1
Stützen
  1
a---stz*
  1
*
  1
*
 70
     0
  1
*
  1
*
  0
XRECORD
  5
988
102
{ACAD_REACTORS
330
51F
102
}
330
51F
100
AcDbXrecord
280
     1
  1
su
  1
su*
  1
*
  1
*
 70
     0
  1
*
  1
*
  0
XRECORD
  5
989
102
{ACAD_REACTORS
330
51F
102
}
330
51F
100
AcDbXrecord
280
     1
  1
su-
  1
su-*
  1
*
  1
*
 70
     0
  1
*
  1
*
  0
XRECORD
  5
98A
102
{ACAD_REACTORS
330
51F
102
}
330
51F
100
AcDbXrecord
280
     1
  1
sub
  1
*sub*
  1
*
  1
*
 70
     0
  1
*
  1
*
  0
XRECORD
  5
98B
102
{ACAD_REACTORS
330
51F
102
}
330
51F
100
AcDbXrecord
280
     1
  1
Surface Bed
  1
S-CONC-COL,S-SLAB,S-SAWCUTJOINT,S-ISOLATION JOINT,S-JOINTEX,S-CONSTRUCTION JOINT,S-DOWELS,S- DETAILS,S-LOAD BEARING WALLS,S-HATCH,S-EJ
  1
*
  1
*
 70
     0
  1
*
  1
*
  0
XRECORD
  5
98C
102
{ACAD_REACTORS
330
51F
102
}
330
51F
100
AcDbXrecord
280
     1
  1
surv-
  1
surv-*
  1
*
  1
*
 70
     0
  1
*
  1
*
  0
XRECORD
  5
98D
102
{ACAD_REACTORS
330
51F
102
}
330
51F
100
AcDbXrecord
280
     1
  1
survey
  1
All *
  1
*
  1
*
 70
     0
  1
*
  1
*
  0
XRECORD
  5
98E
102
{ACAD_REACTORS
330
51F
102
}
330
51F
100
AcDbXrecord
280
     1
  1
survey-2
  1
survey-2*
  1
*
  1
*
 70
     0
  1
*
  1
*
  0
XRECORD
  5
98F
102
{ACAD_REACTORS
330
51F
102
}
330
51F
100
AcDbXrecord
280
     1
  1
SVP
  1
*SVP*
  1
*
  1
*
 70
     0
  1
*
  1
*
  0
XRECORD
  5
990
102
{ACAD_REACTORS
330
51F
102
}
330
51F
100
AcDbXrecord
280
     1
  1
SWEET
  1
SWEET*
  1
*
  1
*
 70
     0
  1
*
  1
*
  0
XRECORD
  5
991
102
{ACAD_REACTORS
330
51F
102
}
330
51F
100
AcDbXrecord
280
     1
  1
SYM
  1
*SYM*
  1
*
  1
*
 70
     0
  1
*
  1
*
  0
XRECORD
  5
992
102
{ACAD_REACTORS
330
51F
102
}
330
51F
100
AcDbXrecord
280
     1
  1
SYMB
  1
*SYMB*
  1
*
  1
*
 70
     0
  1
*
  1
*
  0
XRECORD
  5
993
102
{ACAD_REACTORS
330
51F
102
}
330
51F
100
AcDbXrecord
280
     1
  1
symbols
  1
*sym*
  1
*
  1
*
 70
     0
  1
*
  1
*
  0
XRECORD
  5
994
102
{ACAD_REACTORS
330
51F
102
}
330
51F
100
AcDbXrecord
280
     1
  1
T-
  1
*
  1
*
  1
*
 70
     0
  1
*
  1
*
  0
XRECORD
  5
995
102
{ACAD_REACTORS
330
51F
102
}
330
51F
100
AcDbXrecord
280
     1
  1
T1
  1
00#
  1
*
  1
*
 70
     0
  1
*
  1
*
  0
XRECORD
  5
996
102
{ACAD_REACTORS
330
51F
102
}
330
51F
100
AcDbXrecord
280
     1
  1
T500
  1
*500*
  1
*
  1
*
 70
     0
  1
*
  1
*
  0
XRECORD
  5
997
102
{ACAD_REACTORS
330
51F
102
}
330
51F
100
AcDbXrecord
280
     1
  1
T_SAN
  1
*
  1
*
  1
*
 70
     0
  1
*
  1
*
  0
XRECORD
  5
998
102
{ACAD_REACTORS
330
51F
102
}
330
51F
100
AcDbXrecord
280
     1
  1
ta
  1
ta*
  1
*
  1
*
 70
     0
  1
*
  1
*
  0
XRECORD
  5
999
102
{ACAD_REACTORS
330
51F
102
}
330
51F
100
AcDbXrecord
280
     1
  1
TABS-Layers
  1
*
  1
*
  1
*
 70
     1
  1
*
  1
*
  0
XRECORD
  5
99A
102
{ACAD_REACTORS
330
51F
102
}
330
51F
100
AcDbXrecord
280
     1
  1
TAG
  1
TAG*
  1
*
  1
*
 70
     0
  1
*
  1
*
  0
XRECORD
  5
99B
102
{ACAD_REACTORS
330
51F
102
}
330
51F
100
AcDbXrecord
280
     1
  1
tags
  1
*tags
  1
*
  1
*
 70
     0
  1
*
  1
*
  0
XRECORD
  5
99C
102
{ACAD_REACTORS
330
51F
102
}
330
51F
100
AcDbXrecord
280
     1
  1
TANK
  1
*TANK*
  1
*
  1
*
 70
     0
  1
*
  1
*
  0
XRECORD
  5
99D
102
{ACAD_REACTORS
330
51F
102
}
330
51F
100
AcDbXrecord
280
     1
  1
TANKS
  1
*TANK*
  1
*
  1
*
 70
     0
  1
*
  1
*
  0
XRECORD
  5
99E
102
{ACAD_REACTORS
330
51F
102
}
330
51F
100
AcDbXrecord
280
     1
  1
te
  1
te*
  1
*
  1
*
 70
     0
  1
*
  1
*
  0
XRECORD
  5
99F
102
{ACAD_REACTORS
330
51F
102
}
330
51F
100
AcDbXrecord
280
     1
  1
TEACH
  1
TEACH*
  1
*
  1
*
 70
     0
  1
*
  1
*
  0
XRECORD
  5
9A0
102
{ACAD_REACTORS
330
51F
102
}
330
51F
100
AcDbXrecord
280
     1
  1
TECHNIK
  1
a-TE*
  1
*
  1
*
 70
     0
  1
*
  1
*
  0
XRECORD
  5
9A1
102
{ACAD_REACTORS
330
51F
102
}
330
51F
100
AcDbXrecord
280
     1
  1
Technikfläche
  1
t__*
  1
*
  1
*
 70
     0
  1
*
  1
*
  0
XRECORD
  5
9A2
102
{ACAD_REACTORS
330
51F
102
}
330
51F
100
AcDbXrecord
280
     1
  1
TEMP
  1
*TEMP*
  1
*
  1
*
 70
     0
  1
*
  1
*
  0
XRECORD
  5
9A3
102
{ACAD_REACTORS
330
51F
102
}
330
51F
100
AcDbXrecord
280
     1
  1
Temporary Filter
  1
ROOF*
  1
*
  1
*
 70
     0
  1
*
  1
*
  0
XRECORD
  5
9A4
102
{ACAD_REACTORS
330
51F
102
}
330
51F
100
AcDbXrecord
280
     1
  1
TENANT
  1
*TEN*
  1
*
  1
*
 70
     0
  1
*
  1
*
  0
XRECORD
  5
9A5
102
{ACAD_REACTORS
330
51F
102
}
330
51F
100
AcDbXrecord
280
     1
  1
test
  1
*_Beschriftung
  1
*
  1
*
 70
     0
  1
*
  1
*
  0
XRECORD
  5
9A6
102
{ACAD_REACTORS
330
51F
102
}
330
51F
100
AcDbXrecord
280
     1
  1
test1
  1
H*
  1
*
  1
*
 70
     0
  1
*
  1
*
  0
XRECORD
  5
9A7
102
{ACAD_REACTORS
330
51F
102
}
330
51F
100
AcDbXrecord
280
     1
  1
TEXT
  1
*A0000T*
  1
*
  1
*
 70
     0
  1
*
  1
*
  0
XRECORD
  5
9A8
102
{ACAD_REACTORS
330
51F
102
}
330
51F
100
AcDbXrecord
280
     1
  1
TEXT-BEST
  1
*txt*
  1
*
  1
*
 70
     0
  1
*
  1
*
  0
XRECORD
  5
9A9
102
{ACAD_REACTORS
330
51F
102
}
330
51F
100
AcDbXrecord
280
     1
  1
TEXT-SA
  1
*txt
  1
*
  1
*
 70
     0
  1
*
  1
*
  0
XRECORD
  5
9AA
102
{ACAD_REACTORS
330
51F
102
}
330
51F
100
AcDbXrecord
280
     1
  1
TEXT2
  1
*TEXT*
  1
*
  1
*
 70
     0
  1
*
  1
*
  0
XRECORD
  5
9AB
102
{ACAD_REACTORS
330
51F
102
}
330
51F
100
AcDbXrecord
280
     1
  1
Textblock
  1
*TS*
  1
*
  1
*
 70
     0
  1
*
  1
*
  0
XRECORD
  5
9AC
102
{ACAD_REACTORS
330
51F
102
}
330
51F
100
AcDbXrecord
280
     1
  1
Texte
  1
*-T*
  1
*
  1
*
 70
     0
  1
*
  1
*
  0
XRECORD
  5
9AD
102
{ACAD_REACTORS
330
51F
102
}
330
51F
100
AcDbXrecord
280
     1
  1
TexteRaum
  1
S20_B?_L45_D1
  1
*
  1
*
 70
     0
  1
*
  1
*
  0
XRECORD
  5
9AE
102
{ACAD_REACTORS
330
51F
102
}
330
51F
100
AcDbXrecord
280
     1
  1
TEXTGREEN
  1
*A000T*
  1
*GREEN*
  1
*
 70
     0
  1
*
  1
*
  0
XRECORD
  5
9AF
102
{ACAD_REACTORS
330
51F
102
}
330
51F
100
AcDbXrecord
280
     1
  1
tf
  1
*
  1
*
  1
*
 70
     7
  1
*
  1
*
  0
XRECORD
  5
9B0
102
{ACAD_REACTORS
330
51F
102
}
330
51F
100
AcDbXrecord
280
     1
  1
TGA
  1
T-*
  1
*
  1
*
 70
     0
  1
*
  1
*
  0
XRECORD
  5
9B1
102
{ACAD_REACTORS
330
51F
102
}
330
51F
100
AcDbXrecord
280
     1
  1
th
  1
th*
  1
*
  1
*
 70
     0
  1
*
  1
*
  0
XRECORD
  5
9B2
102
{ACAD_REACTORS
330
51F
102
}
330
51F
100
AcDbXrecord
280
     1
  1
thaw
  1
*
  1
*
  1
*
 70
    12
  1
*
  1
*
  0
XRECORD
  5
9B3
102
{ACAD_REACTORS
330
51F
102
}
330
51F
100
AcDbXrecord
280
     1
  1
thawed
  1
*
  1
*
  1
*
 70
    12
  1
*
  1
*
  0
XRECORD
  5
9B4
102
{ACAD_REACTORS
330
51F
102
}
330
51F
100
AcDbXrecord
280
     1
  1
TILES
  1
*TILES*
  1
*
  1
*
 70
     0
  1
*
  1
*
  0
XRECORD
  5
9B5
102
{ACAD_REACTORS
330
51F
102
}
330
51F
100
AcDbXrecord
280
     1
  1
TIMBER
  1
*TIMBER*
  1
*
  1
*
 70
     0
  1
*
  1
*
  0
XRECORD
  5
9B6
102
{ACAD_REACTORS
330
51F
102
}
330
51F
100
AcDbXrecord
280
     1
  1
TITLE
  1
*TITLE*
  1
*
  1
*
 70
     0
  1
*
  1
*
  0
XRECORD
  5
9B7
102
{ACAD_REACTORS
330
51F
102
}
330
51F
100
AcDbXrecord
280
     1
  1
TITLES
  1
TITLE*
  1
*
  1
*
 70
     0
  1
*
  1
*
  0
XRECORD
  5
9B8
102
{ACAD_REACTORS
330
51F
102
}
330
51F
100
AcDbXrecord
280
     1
  1
TJP
  1
*
  1
*
  1
*
 70
     0
  1
*
  1
*
  0
XRECORD
  5
9B9
102
{ACAD_REACTORS
330
51F
102
}
330
51F
100
AcDbXrecord
280
     1
  1
tmp
  1
*tmp*
  1
*
  1
*
 70
     0
  1
*
  1
*
  0
XRECORD
  5
9BA
102
{ACAD_REACTORS
330
51F
102
}
330
51F
100
AcDbXrecord
280
     1
  1
TO VIEW @ SCALE 1 TO 5
  1
*05*
  1
*
  1
*
 70
     0
  1
*
  1
*
  0
XRECORD
  5
9BB
102
{ACAD_REACTORS
330
51F
102
}
330
51F
100
AcDbXrecord
280
     1
  1
TOILET
  1
*TOILET*
  1
*
  1
*
 70
     0
  1
*
  1
*
  0
XRECORD
  5
9BC
102
{ACAD_REACTORS
330
51F
102
}
330
51F
100
AcDbXrecord
280
     1
  1
toiture
  1
*
  1
*
  1
*
 70
     0
  1
*
  1
*
  0
XRECORD
  5
9BD
102
{ACAD_REACTORS
330
51F
102
}
330
51F
100
AcDbXrecord
280
     1
  1
Totalité
  1
*
  1
*
  1
*
 70
     0
  1
*
  1
*
  0
XRECORD
  5
9BE
102
{ACAD_REACTORS
330
51F
102
}
330
51F
100
AcDbXrecord
280
     1
  1
tote
  1
tot*
  1
*
  1
*
 70
     0
  1
*
  1
*
  0
XRECORD
  5
9BF
102
{ACAD_REACTORS
330
51F
102
}
330
51F
100
AcDbXrecord
280
     1
  1
TP-TEXT
  1
A310T001
  1
*
  1
*
 70
    20
  1
*
  1
*
  0
XRECORD
  5
9C0
102
{ACAD_REACTORS
330
51F
102
}
330
51F
100
AcDbXrecord
280
     1
  1
TRACKS
  1
*TRACKS*
  1
*
  1
*
 70
     0
  1
*
  1
*
  0
XRECORD
  5
9C1
102
{ACAD_REACTORS
330
51F
102
}
330
51F
100
AcDbXrecord
280
     1
  1
tramway
  1
tramway
  1
*
  1
*
 70
     0
  1
*
  1
*
  0
XRECORD
  5
9C2
102
{ACAD_REACTORS
330
51F
102
}
330
51F
100
AcDbXrecord
280
     1
  1
TREE
  1
*TREE*
  1
*
  1
*
 70
     0
  1
*
  1
*
  0
XRECORD
  5
9C3
102
{ACAD_REACTORS
330
51F
102
}
330
51F
100
AcDbXrecord
280
     1
  1
trees
  1
*trees*
  1
*
  1
*
 70
     0
  1
*
  1
*
  0
XRECORD
  5
9C4
102
{ACAD_REACTORS
330
51F
102
}
330
51F
100
AcDbXrecord
280
     1
  1
Treppe
  1
A-TR*
  1
*
  1
*
 70
     0
  1
*
  1
*
  0
XRECORD
  5
9C5
102
{ACAD_REACTORS
330
51F
102
}
330
51F
100
AcDbXrecord
280
     1
  1
treppen
  1
*trep*
  1
*
  1
*
 70
     0
  1
*
  1
*
  0
XRECORD
  5
9C6
102
{ACAD_REACTORS
330
51F
102
}
330
51F
100
AcDbXrecord
280
     1
  1
TRIM
  1
TR*
  1
*
  1
*
 70
     0
  1
*
  1
*
  0
XRECORD
  5
9C7
102
{ACAD_REACTORS
330
51F
102
}
330
51F
100
AcDbXrecord
280
     1
  1
try me
  1
supports
  1
*
  1
*
 70
   781
  1
*
  1
*
  0
XRECORD
  5
9C8
102
{ACAD_REACTORS
330
51F
102
}
330
51F
100
AcDbXrecord
280
     1
  1
TTFM
  1
TTFM*
  1
*
  1
*
 70
     0
  1
*
  1
*
  0
XRECORD
  5
9C9
102
{ACAD_REACTORS
330
51F
102
}
330
51F
100
AcDbXrecord
280
     1
  1
TTFM g
  1
*
  1
*
  1
*
 70
     0
  1
*
  1
*
  0
XRECORD
  5
9CA
102
{ACAD_REACTORS
330
51F
102
}
330
51F
100
AcDbXrecord
280
     1
  1
TUBE ASSY
  1
T*
  1
*
  1
*
 70
     0
  1
*
  1
*
  0
XRECORD
  5
9CB
102
{ACAD_REACTORS
330
51F
102
}
330
51F
100
AcDbXrecord
280
     1
  1
TWP
  1
S_*
  1
*
  1
*
 70
     0
  1
*
  1
*
  0
XRECORD
  5
9CC
102
{ACAD_REACTORS
330
51F
102
}
330
51F
100
AcDbXrecord
280
     1
  1
tx
  1
*tx*
  1
*
  1
*
 70
     0
  1
*
  1
*
  0
XRECORD
  5
9CD
102
{ACAD_REACTORS
330
51F
102
}
330
51F
100
AcDbXrecord
280
     1
  1
TXT
  1
*txt
  1
*
  1
*
 70
     0
  1
*
  1
*
  0
XRECORD
  5
9CE
102
{ACAD_REACTORS
330
51F
102
}
330
51F
100
AcDbXrecord
280
     1
  1
TYPE
  1
*TYPE*
  1
*
  1
*
 70
     0
  1
*
  1
*
  0
XRECORD
  5
9CF
102
{ACAD_REACTORS
330
51F
102
}
330
51F
100
AcDbXrecord
280
     1
  1
Türen
  1
A-TU*
  1
*
  1
*
 70
     0
  1
*
  1
*
  0
XRECORD
  5
9D0
102
{ACAD_REACTORS
330
51F
102
}
330
51F
100
AcDbXrecord
280
     1
  1
u
  1
*u
  1
*
  1
*
 70
     0
  1
*
  1
*
  0
XRECORD
  5
9D1
102
{ACAD_REACTORS
330
51F
102
}
330
51F
100
AcDbXrecord
280
     1
  1
U1
  1
*U1*
  1
*
  1
*
 70
     0
  1
*
  1
*
  0
XRECORD
  5
9D2
102
{ACAD_REACTORS
330
51F
102
}
330
51F
100
AcDbXrecord
280
     1
  1
U2
  1
*U2*
  1
*
  1
*
 70
     0
  1
*
  1
*
  0
XRECORD
  5
9D3
102
{ACAD_REACTORS
330
51F
102
}
330
51F
100
AcDbXrecord
280
     1
  1
U3
  1
*U3*
  1
*
  1
*
 70
     0
  1
*
  1
*
  0
XRECORD
  5
9D4
102
{ACAD_REACTORS
330
51F
102
}
330
51F
100
AcDbXrecord
280
     1
  1
um
  1
*um*
  1
*
  1
*
 70
     0
  1
*
  1
*
  0
XRECORD
  5
9D5
102
{ACAD_REACTORS
330
51F
102
}
330
51F
100
AcDbXrecord
280
     1
  1
UNFROZEN
  1
*
  1
*
  1
*
 70
    12
  1
*
  1
*
  0
XRECORD
  5
9D6
102
{ACAD_REACTORS
330
51F
102
}
330
51F
100
AcDbXrecord
280
     1
  1
Unileitungen
  1
a-aa-uni*
  1
*
  1
*
 70
     0
  1
*
  1
*
  0
XRECORD
  5
9D7
102
{ACAD_REACTORS
330
51F
102
}
330
51F
100
AcDbXrecord
280
     1
  1
UNITA
  1
*a
  1
*
  1
*
 70
     0
  1
*
  1
*
  0
XRECORD
  5
9D8
102
{ACAD_REACTORS
330
51F
102
}
330
51F
100
AcDbXrecord
280
     1
  1
UNITB
  1
*B
  1
*
  1
*
 70
     0
  1
*
  1
*
  0
XRECORD
  5
9D9
102
{ACAD_REACTORS
330
51F
102
}
330
51F
100
AcDbXrecord
280
     1
  1
UNITC
  1
*C
  1
*
  1
*
 70
     0
  1
*
  1
*
  0
XRECORD
  5
9DA
102
{ACAD_REACTORS
330
51F
102
}
330
51F
100
AcDbXrecord
280
     1
  1
UNKN
  1
*UNKN*
  1
*
  1
*
 70
     0
  1
*
  1
*
  0
XRECORD
  5
9DB
102
{ACAD_REACTORS
330
51F
102
}
330
51F
100
AcDbXrecord
280
     1
  1
UNLOCKED
  1
*
  1
*
  1
*
 70
   768
  1
*
  1
*
  0
XRECORD
  5
9DC
102
{ACAD_REACTORS
330
51F
102
}
330
51F
100
AcDbXrecord
280
     1
  1
upper
  1
*
  1
*
  1
*
 70
    16
  1
*
  1
*
  0
XRECORD
  5
9DD
102
{ACAD_REACTORS
330
51F
102
}
330
51F
100
AcDbXrecord
280
     1
  1
UPPER GRD FLOOR
  1
AF*,UGF*,0,VIE*,DETA*
  1
*
  1
*
 70
     0
  1
*
  1
*
  0
XRECORD
  5
9DE
102
{ACAD_REACTORS
330
51F
102
}
330
51F
100
AcDbXrecord
280
     1
  1
UT
  1
UT*
  1
*
  1
*
 70
     0
  1
*
  1
*
  0
XRECORD
  5
9DF
102
{ACAD_REACTORS
330
51F
102
}
330
51F
100
AcDbXrecord
280
     1
  1
UT+VZT
  1
94*,96*
  1
*
  1
*
 70
     0
  1
*
  1
*
  0
XRECORD
  5
9E0
102
{ACAD_REACTORS
330
51F
102
}
330
51F
100
AcDbXrecord
280
     1
  1
UT+VZT+CH
  1
UT*,VZT*,CH*
  1
*
  1
*
 70
     0
  1
*
  1
*
  0
XRECORD
  5
9E1
102
{ACAD_REACTORS
330
51F
102
}
330
51F
100
AcDbXrecord
280
     1
  1
UT-CH
  1
UT-*,0*,CH-*
  1
*
  1
*
 70
     0
  1
*
  1
*
  0
XRECORD
  5
9E2
102
{ACAD_REACTORS
330
51F
102
}
330
51F
100
AcDbXrecord
280
     1
  1
UT-VZT
  1
94-*,96-*
  1
*
  1
*
 70
     0
  1
*
  1
*
  0
XRECORD
  5
9E3
102
{ACAD_REACTORS
330
51F
102
}
330
51F
100
AcDbXrecord
280
     1
  1
UTIL
  1
x-util|C-P2A?S?-SSWR
  1
*
  1
*
 70
     0
  1
*
  1
*
  0
XRECORD
  5
9E4
102
{ACAD_REACTORS
330
51F
102
}
330
51F
100
AcDbXrecord
280
     1
  1
V-ELECTRIC
  1
*V*
  1
*
  1
*
 70
     0
  1
*
  1
*
  0
XRECORD
  5
9E5
102
{ACAD_REACTORS
330
51F
102
}
330
51F
100
AcDbXrecord
280
     1
  1
VDK
  1
*VDK
  1
*
  1
*
 70
     0
  1
*
  1
*
  0
XRECORD
  5
9E6
102
{ACAD_REACTORS
330
51F
102
}
330
51F
100
AcDbXrecord
280
     1
  1
VECHILES
  1
*VEC*
  1
*
  1
*
 70
     0
  1
*
  1
*
  0
XRECORD
  5
9E7
102
{ACAD_REACTORS
330
51F
102
}
330
51F
100
AcDbXrecord
280
     1
  1
veg
  1
*veget*
  1
*
  1
*
 70
     0
  1
*
  1
*
  0
XRECORD
  5
9E8
102
{ACAD_REACTORS
330
51F
102
}
330
51F
100
AcDbXrecord
280
     1
  1
VEHICLES
  1
*VE*
  1
*
  1
*
 70
     0
  1
*
  1
*
  0
XRECORD
  5
9E9
102
{ACAD_REACTORS
330
51F
102
}
330
51F
100
AcDbXrecord
280
     1
  1
veneer off
  1
a-wall-vnr
  1
*
  1
*
 70
     3
  1
*
  1
*
  0
XRECORD
  5
9EA
102
{ACAD_REACTORS
330
51F
102
}
330
51F
100
AcDbXrecord
280
     1
  1
VENT
  1
VENT*
  1
*
  1
*
 70
     0
  1
*
  1
*
  0
XRECORD
  5
9EB
102
{ACAD_REACTORS
330
51F
102
}
330
51F
100
AcDbXrecord
280
     1
  1
ver
  1
*ver
  1
*
  1
*
 70
     0
  1
*
  1
*
  0
XRECORD
  5
9EC
102
{ACAD_REACTORS
330
51F
102
}
330
51F
100
AcDbXrecord
280
     1
  1
Verbindungsgang
  1
*VBG*
  1
*
  1
*
 70
     0
  1
*
  1
*
  0
XRECORD
  5
9ED
102
{ACAD_REACTORS
330
51F
102
}
330
51F
100
AcDbXrecord
280
     1
  1
verd
  1
*vdk,*l90*
  1
*
  1
*
 70
     0
  1
*
  1
*
  0
XRECORD
  5
9EE
102
{ACAD_REACTORS
330
51F
102
}
330
51F
100
AcDbXrecord
280
     1
  1
verd3e
  1
*verd
  1
*
  1
*
 70
     3
  1
*
  1
*
  0
XRECORD
  5
9EF
102
{ACAD_REACTORS
330
51F
102
}
330
51F
100
AcDbXrecord
280
     1
  1
VERDECKT
  1
*verd*
  1
*
  1
*
 70
     0
  1
*
  1
*
  0
XRECORD
  5
9F0
102
{ACAD_REACTORS
330
51F
102
}
330
51F
100
AcDbXrecord
280
     1
  1
verm
  1
*ver*
  1
*
  1
*
 70
     0
  1
*
  1
*
  0
XRECORD
  5
9F1
102
{ACAD_REACTORS
330
51F
102
}
330
51F
100
AcDbXrecord
280
     1
  1
vermas
  1
*ver
  1
*
  1
*
 70
     0
  1
*
  1
*
  0
XRECORD
  5
9F2
102
{ACAD_REACTORS
330
51F
102
}
330
51F
100
AcDbXrecord
280
     1
  1
VIEW
  1
*V*
  1
*
  1
*
 70
     0
  1
*
  1
*
  0
XRECORD
  5
9F3
102
{ACAD_REACTORS
330
51F
102
}
330
51F
100
AcDbXrecord
280
     1
  1
VIEWPORT
  1
*VIEWPORT*
  1
*
  1
*
 70
     0
  1
*
  1
*
  0
XRECORD
  5
9F4
102
{ACAD_REACTORS
330
51F
102
}
330
51F
100
AcDbXrecord
280
     1
  1
VISI
  1
*VISI*
  1
*
  1
*
 70
     0
  1
*
  1
*
  0
XRECORD
  5
9F5
102
{ACAD_REACTORS
330
51F
102
}
330
51F
100
AcDbXrecord
280
     1
  1
VP
  1
*VP*
  1
*
  1
*
 70
     0
  1
*
  1
*
  0
XRECORD
  5
9F6
102
{ACAD_REACTORS
330
51F
102
}
330
51F
100
AcDbXrecord
280
     1
  1
VP LAYERS
  1
VP*
  1
*
  1
*
 70
     0
  1
*
  1
*
  0
XRECORD
  5
9F7
102
{ACAD_REACTORS
330
51F
102
}
330
51F
100
AcDbXrecord
280
     1
  1
VP-FREEZE
  1
*
  1
*
  1
*
 70
    80
  1
*
  1
*
  0
XRECORD
  5
9F8
102
{ACAD_REACTORS
330
51F
102
}
330
51F
100
AcDbXrecord
280
     1
  1
VPORT
  1
*VPORT*
  1
*
  1
*
 70
     0
  1
*
  1
*
  0
XRECORD
  5
9F9
102
{ACAD_REACTORS
330
51F
102
}
330
51F
100
AcDbXrecord
280
     1
  1
VZT
  1
VZT*
  1
*
  1
*
 70
     0
  1
*
  1
*
  0
XRECORD
  5
9FA
102
{ACAD_REACTORS
330
51F
102
}
330
51F
100
AcDbXrecord
280
     1
  1
VZT+UT
  1
VZT-*,UT-*
  1
*
  1
*
 70
     0
  1
*
  1
*
  0
XRECORD
  5
9FB
102
{ACAD_REACTORS
330
51F
102
}
330
51F
100
AcDbXrecord
280
     1
  1
W
  1
*SYMB*
  1
*
  1
*
 70
     0
  1
*
  1
*
  0
XRECORD
  5
9FC
102
{ACAD_REACTORS
330
51F
102
}
330
51F
100
AcDbXrecord
280
     1
  1
WA_Aussp
  1
Htsv_bt_oewa*
  1
*
  1
*
 70
     0
  1
*
  1
*
  0
XRECORD
  5
9FD
102
{ACAD_REACTORS
330
51F
102
}
330
51F
100
AcDbXrecord
280
     1
  1
WA_oeff
  1
Htsv_bt_oeff*
  1
*
  1
*
 70
     0
  1
*
  1
*
  0
XRECORD
  5
9FE
102
{ACAD_REACTORS
330
51F
102
}
330
51F
100
AcDbXrecord
280
     1
  1
WADE
  1
*DEMO*
  1
*
  1
*
 70
     0
  1
*
  1
*
  0
XRECORD
  5
9FF
102
{ACAD_REACTORS
330
51F
102
}
330
51F
100
AcDbXrecord
280
     1
  1
Waende
  1
*A-WA*
  1
*
  1
*
 70
     0
  1
*
  1
*
  0
XRECORD
  5
A00
102
{ACAD_REACTORS
330
51F
102
}
330
51F
100
AcDbXrecord
280
     1
  1
waiter
  1
waiter*
  1
*
  1
*
 70
     0
  1
*
  1
*
  0
XRECORD
  5
A01
102
{ACAD_REACTORS
330
51F
102
}
330
51F
100
AcDbXrecord
280
     1
  1
WALL
  1
*WALL*
  1
*
  1
*
 70
     0
  1
*
  1
*
  0
XRECORD
  5
A02
102
{ACAD_REACTORS
330
51F
102
}
330
51F
100
AcDbXrecord
280
     1
  1
WALLS
  1
*WALL*
  1
*
  1
*
 70
     0
  1
*
  1
*
  0
XRECORD
  5
A03
102
{ACAD_REACTORS
330
51F
102
}
330
51F
100
AcDbXrecord
280
     1
  1
walls-masonry
  1
*walls*
  1
*
  1
*
 70
     0
  1
*
  1
*
  0
XRECORD
  5
A04
102
{ACAD_REACTORS
330
51F
102
}
330
51F
100
AcDbXrecord
280
     1
  1
wand
  1
S20_B?_L555_D100
  1
*
  1
*
 70
     0
  1
*
  1
*
  0
XRECORD
  5
A05
102
{ACAD_REACTORS
330
51F
102
}
330
51F
100
AcDbXrecord
280
     1
  1
WATER
  1
C-P?A?S?-WATR*
  1
*
  1
*
 70
     0
  1
*
  1
*
  0
XRECORD
  5
A06
102
{ACAD_REACTORS
330
51F
102
}
330
51F
100
AcDbXrecord
280
     1
  1
WC
  1
*WC*
  1
*
  1
*
 70
     0
  1
*
  1
*
  0
XRECORD
  5
A07
102
{ACAD_REACTORS
330
51F
102
}
330
51F
100
AcDbXrecord
280
     1
  1
we
  1
*sym*
  1
*
  1
*
 70
     0
  1
*
  1
*
  0
XRECORD
  5
A08
102
{ACAD_REACTORS
330
51F
102
}
330
51F
100
AcDbXrecord
280
     1
  1
White
  1
*
  1
white
  1
*
 70
     0
  1
*
  1
*
  0
XRECORD
  5
A09
102
{ACAD_REACTORS
330
51F
102
}
330
51F
100
AcDbXrecord
280
     1
  1
WHITE LINING
  1
WL-*
  1
*
  1
*
 70
     0
  1
*
  1
*
  0
XRECORD
  5
A0A
102
{ACAD_REACTORS
330
51F
102
}
330
51F
100
AcDbXrecord
280
     1
  1
window
  1
window*
  1
*
  1
*
 70
     0
  1
*
  1
*
  0
XRECORD
  5
A0B
102
{ACAD_REACTORS
330
51F
102
}
330
51F
100
AcDbXrecord
280
     1
  1
WINDOWS
  1
*WIN*
  1
*
  1
*
 70
     0
  1
*
  1
*
  0
XRECORD
  5
A0C
102
{ACAD_REACTORS
330
51F
102
}
330
51F
100
AcDbXrecord
280
     1
  1
WINEBIN
  1
WINE*,2D*
  1
*
  1
*
 70
     0
  1
*
  1
*
  0
XRECORD
  5
A0D
102
{ACAD_REACTORS
330
51F
102
}
330
51F
100
AcDbXrecord
280
     1
  1
winebins
  1
wine*
  1
*
  1
*
 70
     0
  1
*
  1
*
  0
XRECORD
  5
A0E
102
{ACAD_REACTORS
330
51F
102
}
330
51F
100
AcDbXrecord
280
     1
  1
WINREF
  1
*WINREF*
  1
*
  1
*
 70
     0
  1
*
  1
*
  0
XRECORD
  5
A0F
102
{ACAD_REACTORS
330
51F
102
}
330
51F
100
AcDbXrecord
280
     1
  1
wolken
  1
*wolk*
  1
*
  1
*
 70
     0
  1
*
  1
*
  0
XRECORD
  5
A10
102
{ACAD_REACTORS
330
51F
102
}
330
51F
100
AcDbXrecord
280
     1
  1
Wände
  1
A-WA*
  1
*
  1
*
 70
     0
  1
*
  1
*
  0
XRECORD
  5
A11
102
{ACAD_REACTORS
330
51F
102
}
330
51F
100
AcDbXrecord
280
     1
  1
X layers
  1
x*
  1
*
  1
*
 70
     0
  1
*
  1
*
  0
XRECORD
  5
A12
102
{ACAD_REACTORS
330
51F
102
}
330
51F
100
AcDbXrecord
280
     1
  1
x-refed
  1
xr*
  1
*
  1
*
 70
     0
  1
*
  1
*
  0
XRECORD
  5
A13
102
{ACAD_REACTORS
330
51F
102
}
330
51F
100
AcDbXrecord
280
     1
  1
x-topo5
  1
x-topo*
  1
5
  1
*
 70
     0
  1
*
  1
*
  0
XRECORD
  5
A14
102
{ACAD_REACTORS
330
51F
102
}
330
51F
100
AcDbXrecord
280
     1
  1
XA210G
  1
*A210*
  1
*
  1
*
 70
     0
  1
*
  1
*
  0
XRECORD
  5
A15
102
{ACAD_REACTORS
330
51F
102
}
330
51F
100
AcDbXrecord
280
     1
  1
XDEMO
  1
*X-*DEMO
  1
*
  1
*
 70
     0
  1
*
  1
*
  0
XRECORD
  5
A16
102
{ACAD_REACTORS
330
51F
102
}
330
51F
100
AcDbXrecord
280
     1
  1
XREF
  1
Xref*
  1
*
  1
*
 70
     0
  1
*
  1
*
  0
XRECORD
  5
A17
102
{ACAD_REACTORS
330
51F
102
}
330
51F
100
AcDbXrecord
280
     1
  1
xref-off
  1
1-L1-opt*
  1
*
  1
*
 70
     0
  1
*
  1
*
  0
XRECORD
  5
A18
102
{ACAD_REACTORS
330
51F
102
}
330
51F
100
AcDbXrecord
280
     1
  1
xrefs
  1
*xrefs*
  1
*
  1
*
 70
     0
  1
*
  1
*
  0
XRECORD
  5
A19
102
{ACAD_REACTORS
330
51F
102
}
330
51F
100
AcDbXrecord
280
     1
  1
Y
  1
*Y
  1
*
  1
*
 70
     0
  1
*
  1
*
  0
XRECORD
  5
A1A
102
{ACAD_REACTORS
330
51F
102
}
330
51F
100
AcDbXrecord
280
     1
  1
yellow
  1
*
  1
yellow
  1
*
 70
     0
  1
*
  1
*
  0
XRECORD
  5
A1B
102
{ACAD_REACTORS
330
51F
102
}
330
51F
100
AcDbXrecord
280
     1
  1
z
  1
*
  1
*
  1
*
 70
     3
  1
*
  1
*
  0
XRECORD
  5
A1C
102
{ACAD_REACTORS
330
51F
102
}
330
51F
100
AcDbXrecord
280
     1
  1
Z ON
  1
Z*
  1
*
  1
*
 70
     0
  1
*
  1
*
  0
XRECORD
  5
A1D
102
{ACAD_REACTORS
330
51F
102
}
330
51F
100
AcDbXrecord
280
     1
  1
Z+P
  1
Z*
  1
*
  1
*
 70
     0
  1
*
  1
*
  0
XRECORD
  5
A1E
102
{ACAD_REACTORS
330
51F
102
}
330
51F
100
AcDbXrecord
280
     1
  1
Z1
  1
Z1*
  1
*
  1
*
 70
     0
  1
*
  1
*
  0
XRECORD
  5
A1F
102
{ACAD_REACTORS
330
51F
102
}
330
51F
100
AcDbXrecord
280
     1
  1
Z1-B
  1
Z1-B*
  1
*
  1
*
 70
     0
  1
*
  1
*
  0
XRECORD
  5
A20
102
{ACAD_REACTORS
330
51F
102
}
330
51F
100
AcDbXrecord
280
     1
  1
Z1-H
  1
Z1-H*
  1
*
  1
*
 70
     0
  1
*
  1
*
  0
XRECORD
  5
A21
102
{ACAD_REACTORS
330
51F
102
}
330
51F
100
AcDbXrecord
280
     1
  1
Z1-K
  1
Z1-K*
  1
*
  1
*
 70
     0
  1
*
  1
*
  0
XRECORD
  5
A22
102
{ACAD_REACTORS
330
51F
102
}
330
51F
100
AcDbXrecord
280
     1
  1
Z1-L
  1
Z1-L*
  1
*
  1
*
 70
     0
  1
*
  1
*
  0
XRECORD
  5
A23
102
{ACAD_REACTORS
330
51F
102
}
330
51F
100
AcDbXrecord
280
     1
  1
Z1-S
  1
Z1-S*
  1
*
  1
*
 70
     0
  1
*
  1
*
  0
XRECORD
  5
A24
102
{ACAD_REACTORS
330
51F
102
}
330
51F
100
AcDbXrecord
280
     1
  1
z4
  1
*z4*
  1
*
  1
*
 70
     0
  1
*
  1
*
  0
XRECORD
  5
A25
102
{ACAD_REACTORS
330
51F
102
}
330
51F
100
AcDbXrecord
280
     1
  1
z_wissen
  1
z*
  1
*
  1
*
 70
     0
  1
*
  1
*
  0
XRECORD
  5
A26
102
{ACAD_REACTORS
330
51F
102
}
330
51F
100
AcDbXrecord
280
     1
  1
Zapnuté
  1
*
  1
*
  1
*
 70
    12
  1
*
  1
*
  0
XRECORD
  5
A27
102
{ACAD_REACTORS
330
51F
102
}
330
51F
100
AcDbXrecord
280
     1
  1
zone
  1
*zones*
  1
*
  1
*
 70
     0
  1
*
  1
*
  0
XRECORD
  5
A28
102
{ACAD_REACTORS
330
51F
102
}
330
51F
100
AcDbXrecord
280
     1
  1
zu1
  1
*zu1*
  1
*
  1
*
 70
     0
  1
*
  1
*
  0
XRECORD
  5
A29
102
{ACAD_REACTORS
330
51F
102
}
330
51F
100
AcDbXrecord
280
     1
  1
zu3
  1
*zu3*
  1
*
  1
*
 70
     0
  1
*
  1
*
  0
XRECORD
  5
A2A
102
{ACAD_REACTORS
330
51F
102
}
330
51F
100
AcDbXrecord
280
     1
  1
zu4
  1
*zu4*
  1
*
  1
*
 70
     0
  1
*
  1
*
  0
DICTIONARY
  5
BEC
330
1E
100
AcDbDictionary
280
     1
281
     1
  3
ACAD_XREC_ROUNDTRIP
360
BED
  0
DICTIONARY
  5
BF0
330
26
100
AcDbDictionary
280
     1
281
     1
  3
ACAD_XREC_ROUNDTRIP
360
BF1
  0
DICTIONARY
  5
BEE
330
22
100
AcDbDictionary
280
     1
281
     1
  3
ACAD_XREC_ROUNDTRIP
360
BEF
  0
XRECORD
  5
BED
102
{ACAD_REACTORS
330
BEC
102
}
330
BEC
100
AcDbXrecord
280
     1
102
SHADEPLOT
 70
     0
102
SHADEPLOTRESLEVEL
 70
     2
102
SHADEPLOTCUSTOMDPI
 70
   300
  0
XRECORD
  5
BF1
102
{ACAD_REACTORS
330
BF0
102
}
330
BF0
100
AcDbXrecord
280
     1
102
SHADEPLOT
 70
     0
102
SHADEPLOTRESLEVEL
 70
     2
102
SHADEPLOTCUSTOMDPI
 70
   300
  0
XRECORD
  5
BEF
102
{ACAD_REACTORS
330
BEE
102
}
330
BEE
100
AcDbXrecord
280
     1
102
SHADEPLOT
 70
     0
102
SHADEPLOTRESLEVEL
 70
     2
102
SHADEPLOTCUSTOMDPI
 70
   300
  0
ENDSEC
  0
EOF
