  0
SECTION
  2
HEADER
  9
$ACADVER
  1
AC1015
  9
$ACADMAINTVER
 70
    20
  9
$DWGCODEPAGE
  3
ANSI_1252
  9
$INSBASE
 10
0.0
 20
0.0
 30
0.0
  9
$EXTMIN
 10
66.99965631805184
 20
-6.257488327722285
 30
-0.0015258207003583
  9
$EXTMAX
 10
226.7073587929916
 20
308.4184990699007
 30
0.0000000349246037
  9
$LIMMIN
 10
0.0
 20
0.0
  9
$LIMMAX
 10
420.0
 20
297.0
  9
$ORTHOMODE
 70
     1
  9
$REGENMODE
 70
     1
  9
$FILLMODE
 70
     1
  9
$QTEXTMODE
 70
     0
  9
$MIRRTEXT
 70
     1
  9
$LTSCALE
 40
1.0
  9
$ATTMODE
 70
     1
  9
$TEXTSIZE
 40
3.5
  9
$TRACEWID
 40
1.0
  9
$TEXTSTYLE
  7
STANDARD
  9
$CLAYER
  8
0
  9
$CELTYPE
  6
ByLayer
  9
$CECOLOR
 62
   256
  9
$CELTSCALE
 40
1.0
  9
$DISPSILH
 70
     0
  9
$DIMSCALE
 40
1.0
  9
$DIMASZ
 40
2.5
  9
$DIMEXO
 40
1.0
  9
$DIMDLI
 40
10.0
  9
$DIMRND
 40
0.0
  9
$DIMDLE
 40
0.0
  9
$DIMEXE
 40
1.0
  9
$DIMTP
 40
0.1
  9
$DIMTM
 40
0.1
  9
$DIMTXT
 40
3.5
  9
$DIMCEN
 40
0.0
  9
$DIMTSZ
 40
0.0
  9
$DIMTOL
 70
     0
  9
$DIMLIM
 70
     0
  9
$DIMTIH
 70
     0
  9
$DIMTOH
 70
     0
  9
$DIMSE1
 70
     0
  9
$DIMSE2
 70
     0
  9
$DIMTAD
 70
     1
  9
$DIMZIN
 70
     8
  9
$DIMBLK
  1

  9
$DIMASO
 70
     1
  9
$DIMSHO
 70
     1
  9
$DIMPOST
  1

  9
$DIMAPOST
  1
"
  9
$DIMALT
 70
     0
  9
$DIMALTD
 70
     2
  9
$DIMALTF
 40
0.0393701
  9
$DIMLFAC
 40
1.0
  9
$DIMTOFL
 70
     1
  9
$DIMTVP
 40
0.0
  9
$DIMTIX
 70
     0
  9
$DIMSOXD
 70
     0
  9
$DIMSAH
 70
     0
  9
$DIMBLK1
  1

  9
$DIMBLK2
  1

  9
$DIMSTYLE
  2
AM_DIN
  9
$DIMCLRD
 70
   256
  9
$DIMCLRE
 70
   256
  9
$DIMCLRT
 70
     2
  9
$DIMTFAC
 40
0.71
  9
$DIMGAP
 40
1.5
  9
$DIMJUST
 70
     0
  9
$DIMSD1
 70
     0
  9
$DIMSD2
 70
     0
  9
$DIMTOLJ
 70
     0
  9
$DIMTZIN
 70
     8
  9
$DIMALTZ
 70
     0
  9
$DIMALTTZ
 70
     0
  9
$DIMUPT
 70
     0
  9
$DIMDEC
 70
     2
  9
$DIMTDEC
 70
     3
  9
$DIMALTU
 70
     2
  9
$DIMALTTD
 70
     4
  9
$DIMTXSTY
  7
STANDARD
  9
$DIMAUNIT
 70
     0
  9
$DIMADEC
 70
     0
  9
$DIMALTRND
 40
0.0
  9
$DIMAZIN
 70
     2
  9
$DIMDSEP
 70
    46
  9
$DIMATFIT
 70
     3
  9
$DIMFRAC
 70
     0
  9
$DIMLDRBLK
  1

  9
$DIMLUNIT
 70
     2
  9
$DIMLWD
 70
    -1
  9
$DIMLWE
 70
    -1
  9
$DIMTMOVE
 70
     0
  9
$LUNITS
 70
     2
  9
$LUPREC
 70
     2
  9
$SKETCHINC
 40
1.0
  9
$FILLETRAD
 40
2.668560019771055
  9
$AUNITS
 70
     0
  9
$AUPREC
 70
     0
  9
$MENU
  1
.
  9
$ELEVATION
 40
0.0
  9
$PELEVATION
 40
0.0
  9
$THICKNESS
 40
0.0
  9
$LIMCHECK
 70
     0
  9
$CHAMFERA
 40
2.5
  9
$CHAMFERB
 40
2.5
  9
$CHAMFERC
 40
20.0
  9
$CHAMFERD
 40
0.0
  9
$SKPOLY
 70
     0
  9
$TDCREATE
 40
2453558.294994097
  9
$TDUCREATE
 40
2453558.211660764
  9
$TDUPDATE
 40
2454020.026952998
  9
$TDUUPDATE
 40
2454019.943619664
  9
$TDINDWG
 40
1.4299188194
  9
$TDUSRTIMER
 40
1.4299144213
  9
$USRTIMER
 70
     1
  9
$ANGBASE
 50
0.0
  9
$ANGDIR
 70
     0
  9
$PDMODE
 70
     0
  9
$PDSIZE
 40
0.0
  9
$PLINEWID
 40
0.0
  9
$SPLFRAME
 70
     0
  9
$SPLINETYPE
 70
     6
  9
$SPLINESEGS
 70
     8
  9
$HANDSEED
  5
5938
  9
$SURFTAB1
 70
     6
  9
$SURFTAB2
 70
     6
  9
$SURFTYPE
 70
     6
  9
$SURFU
 70
     6
  9
$SURFV
 70
     6
  9
$UCSBASE
  2

  9
$UCSNAME
  2

  9
$UCSORG
 10
0.0
 20
0.0
 30
0.0
  9
$UCSXDIR
 10
1.0
 20
0.0
 30
0.0
  9
$UCSYDIR
 10
0.0
 20
1.0
 30
0.0
  9
$UCSORTHOREF
  2

  9
$UCSORTHOVIEW
 70
     0
  9
$UCSORGTOP
 10
0.0
 20
0.0
 30
0.0
  9
$UCSORGBOTTOM
 10
0.0
 20
0.0
 30
0.0
  9
$UCSORGLEFT
 10
0.0
 20
0.0
 30
0.0
  9
$UCSORGRIGHT
 10
0.0
 20
0.0
 30
0.0
  9
$UCSORGFRONT
 10
0.0
 20
0.0
 30
0.0
  9
$UCSORGBACK
 10
0.0
 20
0.0
 30
0.0
  9
$PUCSBASE
  2

  9
$PUCSNAME
  2

  9
$PUCSORG
 10
0.0
 20
0.0
 30
0.0
  9
$PUCSXDIR
 10
1.0
 20
0.0
 30
0.0
  9
$PUCSYDIR
 10
0.0
 20
1.0
 30
0.0
  9
$PUCSORTHOREF
  2

  9
$PUCSORTHOVIEW
 70
     0
  9
$PUCSORGTOP
 10
0.0
 20
0.0
 30
0.0
  9
$PUCSORGBOTTOM
 10
0.0
 20
0.0
 30
0.0
  9
$PUCSORGLEFT
 10
0.0
 20
0.0
 30
0.0
  9
$PUCSORGRIGHT
 10
0.0
 20
0.0
 30
0.0
  9
$PUCSORGFRONT
 10
0.0
 20
0.0
 30
0.0
  9
$PUCSORGBACK
 10
0.0
 20
0.0
 30
0.0
  9
$USERI1
 70
     0
  9
$USERI2
 70
     0
  9
$USERI3
 70
     0
  9
$USERI4
 70
     0
  9
$USERI5
 70
     0
  9
$USERR1
 40
0.0
  9
$USERR2
 40
0.0
  9
$USERR3
 40
0.0
  9
$USERR4
 40
0.0
  9
$USERR5
 40
0.0
  9
$WORLDVIEW
 70
     1
  9
$SHADEDGE
 70
     3
  9
$SHADEDIF
 70
    70
  9
$TILEMODE
 70
     1
  9
$MAXACTVP
 70
    64
  9
$PINSBASE
 10
0.0
 20
0.0
 30
0.0
  9
$PLIMCHECK
 70
     0
  9
$PEXTMIN
 10
1.000000000000000E+20
 20
1.000000000000000E+20
 30
1.000000000000000E+20
  9
$PEXTMAX
 10
-1.000000000000000E+20
 20
-1.000000000000000E+20
 30
-1.000000000000000E+20
  9
$PLIMMIN
 10
0.0
 20
0.0
  9
$PLIMMAX
 10
420.0
 20
297.0
  9
$UNITMODE
 70
     0
  9
$VISRETAIN
 70
     1
  9
$PLINEGEN
 70
     0
  9
$PSLTSCALE
 70
     1
  9
$TREEDEPTH
 70
  3020
  9
$CMLSTYLE
  2
Standard
  9
$CMLJUST
 70
     0
  9
$CMLSCALE
 40
20.0
  9
$PROXYGRAPHICS
 70
     1
  9
$MEASUREMENT
 70
     1
  9
$CELWEIGHT
370
    -1
  9
$ENDCAPS
280
     0
  9
$JOINSTYLE
280
     0
  9
$LWDISPLAY
290
     0
  9
$INSUNITS
 70
     4
  9
$HYPERLINKBASE
  1

  9
$STYLESHEET
  1
monochrome.ctb
  9
$XEDIT
290
     1
  9
$CEPSNTYPE
380
     0
  9
$PSTYLEMODE
290
     1
  9
$FINGERPRINTGUID
  2
{789B4680-EDDB-11D9-BE8D-000476CCE432}
  9
$VERSIONGUID
  2
{3854C446-06A3-48FB-92BF-7673BAB141D3}
  9
$EXTNAMES
290
     1
  9
$PSVPSCALE
 40
0.0
  9
$OLESTARTUP
290
     0
  0
ENDSEC
  0
SECTION
  2
CLASSES
  0
CLASS
  1
ACDBDICTIONARYWDFLT
  2
AcDbDictionaryWithDefault
  3
ObjectDBX Classes
 90
        0
280
     0
281
     0
  0
CLASS
  1
ACDBPLACEHOLDER
  2
AcDbPlaceHolder
  3
ObjectDBX Classes
 90
        0
280
     0
281
     0
  0
CLASS
  1
LAYOUT
  2
AcDbLayout
  3
ObjectDBX Classes
 90
        0
280
     0
281
     0
  0
CLASS
  1
ACME_DOCUMENT
  2
AcMeDbDoc
  3
AcMeServices
 90
        0
280
     0
281
     0
  0
CLASS
  1
ACMESCOPE
  2
AcMeScope
  3
AcMeServices
 90
        0
280
     0
281
     0
  0
CLASS
  1
ACMECOMMANDHISTORY
  2
AcMeCommandHistory
  3
AcMeServices
 90
        0
280
     0
281
     0
  0
CLASS
  1
DICTIONARYVAR
  2
AcDbDictionaryVar
  3
ObjectDBX Classes
 90
        0
280
     0
281
     0
  0
CLASS
  1
ACIMSYSVARMAN
  2
AcImSysVarManager
  3
AcMeServices
 90
        0
280
     0
281
     0
  0
CLASS
  1
ACIMREALSYSVAR
  2
AcImRealSysVar
  3
AcMeServices
 90
        0
280
     0
281
     0
  0
CLASS
  1
ACIMINTSYSVAR
  2
AcImIntSysVar
  3
AcMeServices
 90
        0
280
     0
281
     0
  0
CLASS
  1
ACMEDRAWINGMAN
  2
AcMeDrawingMan
  3
AcMeServices
 90
        0
280
     0
281
     0
  0
CLASS
  1
ACMEVIEW
  2
AcMeView
  3
AcMeServices
 90
        0
280
     0
281
     0
  0
CLASS
  1
ACDBENTITYCACHE
  2
AcMeEntityCache
  3
AcMeServices
 90
        0
280
     0
281
     0
  0
CLASS
  1
GSMANAGER
  2
AcMeGSManager
  3
AcMeServices
 90
        0
280
     0
281
     0
  0
CLASS
  1
AMDTINTERNALREACTOR
  2
AmdtInternalReactor
  3
AcMeServices
 90
        0
280
     0
281
     0
  0
CLASS
  1
ACMESTATEMGR
  2
AcMeStateMgr
  3
AcMeServices
 90
        0
280
     0
281
     0
  0
CLASS
  1
ACGREFMASTER
  2
AcGrefMaster
  3
AcAttribServices
 90
        0
280
     0
281
     0
  0
CLASS
  1
ACME_DATABASE
  2
AcMeDbDatabase
  3
AcMeServices
 90
        0
280
     0
281
     0
  0
CLASS
  1
ACRFINSADJUSTERMGR
  2
AcRfInsAdjusterMgr
  3
AcMeServices
 90
        0
280
     0
281
     0
  0
CLASS
  1
ACGREFACADMASTER
  2
AcGrefacadMaster
  3
AcGrefServices
 90
        0
280
     0
281
     0
  0
CLASS
  1
AMIMASTER
  2
AmiMaster
  3
AmiServices
 90
        0
280
     0
281
     0
  0
CLASS
  1
AMGSETTINGSOBJ
  2
AmgSettingsObj
  3
"AcadM|Product Description: AutoCAD Mechanical 2000|Company: Autodesk"
 90
        0
280
     0
281
     0
  0
CLASS
  1
ACMDATADICTIONARY
  2
AcmDataDictionary
  3
"AcmSymBB|Product Description: AutoCAD Mechanical 2004 DX|Company: Autodesk"
 90
        0
280
     0
281
     0
  0
CLASS
  1
ACMDATAENTRYBLOCK
  2
AcmDataEntryBlock
  3
"AcmSymBB|Product Description: AutoCAD Mechanical 2004 DX|Company: Autodesk"
 90
        0
280
     0
281
     0
  0
CLASS
  1
ACIMSTRSYSVAR
  2
AcImStrSysVar
  3
AcMeServices
 90
        0
280
     0
281
     0
  0
CLASS
  1
ACMSTANDARDDIN
  2
AcmStandardDIN
  3
"Amdt_StdImp|Product Description: AutoCAD Mechanical 2004 DX|Company: Autodesk"
 90
        0
280
     0
281
     0
  0
CLASS
  1
AMGOBJPROPCFG
  2
AmgObjPropCfg
  3
"AmgLay|Product Description: AutoCAD Mechanical 2000|Company: Autodesk"
 90
        1
280
     0
281
     0
  0
CLASS
  1
AMDTEDGESTANDARDDIN
  2
AmdtEdgeStdDIN
  3
"Amdt_StdImp|Product Description: AutoCAD Mechanical 2004 DX|Company: Autodesk"
 90
        0
280
     0
281
     0
  0
CLASS
  1
ACMSURFSTANDARDDIN
  2
AcmSurfTextStdDIN
  3
"Amdt_StdImp|Product Description: AutoCAD Mechanical 2004 DX|Company: Autodesk"
 90
        0
280
     0
281
     0
  0
CLASS
  1
ACMFCFSTANDARDDIN
  2
AcmFCFStdDIN
  3
"Amdt_StdImp|Product Description: AutoCAD Mechanical 2004 DX|Company: Autodesk"
 90
        0
280
     0
281
     0
  0
CLASS
  1
ACMWELDSTANDARDDIN
  2
AcmWeldingStdDIN
  3
"Amdt_StdImp|Product Description: AutoCAD Mechanical 2004 DX|Company: Autodesk"
 90
        0
280
     0
281
     0
  0
CLASS
  1
ACMIDSTANDARDDIN
  2
AcmIdStdDIN
  3
"Amdt_StdImp|Product Description: AutoCAD Mechanical 2004 DX|Company: Autodesk"
 90
        0
280
     0
281
     0
  0
CLASS
  1
ACMDATUMSTANDARDDIN
  2
AcmDatumStdDIN
  3
"Amdt_StdImp|Product Description: AutoCAD Mechanical 2004 DX|Company: Autodesk"
 90
        0
280
     0
281
     0
  0
CLASS
  1
ACMBOMSTANDARDDIN
  2
AcmBOMStdDIN
  3
"Amdt_StdImp|Product Description: AutoCAD Mechanical 2004 DX|Company: Autodesk"
 90
        0
280
     0
281
     0
  0
CLASS
  1
ACMDETAILSTANDARDDIN
  2
AmdtDetailSymStdDIN
  3
"Amdt_StdImp|Product Description: AutoCAD Mechanical 2004 DX|Company: Autodesk"
 90
        0
280
     0
281
     0
  0
CLASS
  1
ACMSECTIONSTANDARDDIN
  2
AmdtSectionSymStdDIN
  3
"Amdt_StdImp|Product Description: AutoCAD Mechanical 2004 DX|Company: Autodesk"
 90
        0
280
     0
281
     0
  0
CLASS
  1
ACMCENTERLINESTANDARDDIN
  2
AmdtCenterLineStdDIN
  3
"Amdt_StdImp|Product Description: AutoCAD Mechanical 2004 DX|Company: Autodesk"
 90
        0
280
     0
281
     0
  0
CLASS
  1
ACAMGLAYSTD
  2
AcAmgLayStd
  3
"AcAmgLayStd|Product Description: AutoCAD Mechanical 2000|Company: Autodesk"
 90
        0
280
     0
281
     0
  0
CLASS
  1
ACAMGDIMSTD
  2
AcAmgDimStd
  3
"AcAmgDimStd|Product Description: AutoCAD Mechanical 2000|Company: Autodesk"
 90
        0
280
     0
281
     0
  0
CLASS
  1
ACAMGTITLESTD
  2
AcAmgTitleStd
  3
"TITLEAPP"
 90
        0
280
     0
281
     0
  0
CLASS
  1
ACAMGFILTERDAT
  2
AcAmgFilterDat
  3
"AcadM|Product Description: AutoCAD Mechanical 2000|Company: Autodesk"
 90
        0
280
     0
281
     0
  0
CLASS
  1
LAYER_INDEX
  2
AcDbLayerIndex
  3
ObjectDBX Classes
 90
    32768
280
     0
281
     0
  0
CLASS
  1
IDBUFFER
  2
AcDbIdBuffer
  3
ObjectDBX Classes
 90
    32768
280
     0
281
     0
  0
CLASS
  1
STDPART2D
  2
AmgStdPart
  3
"AmgStdPart|Product Description: AutoCAD Mechanical 2000|Company: Autodesk"
 90
     1023
280
     0
281
     1
  0
CLASS
  1
ACMDATAENTRYPART
  2
AcmDataEntryPart
  3
"AcmSymBB|Product Description: AutoCAD Mechanical 2004 DX|Company: Autodesk"
 90
    32768
280
     0
281
     0
  0
CLASS
  1
ACMPARTREF
  2
AcmPartRef
  3
"AcmSymBB|Product Description: AutoCAD Mechanical 2004 DX|Company: Autodesk"
 90
    33791
280
     0
281
     1
  0
CLASS
  1
ACDBLINERES
  2
AcDbLineRes
  3
AcGrefServices
 90
        0
280
     0
281
     0
  0
CLASS
  1
ACRFINSADJ
  2
AcRfInsAdjuster
  3
AcMeServices
 90
        0
280
     0
281
     0
  0
CLASS
  1
ACDBSTDPARTRES_LINE
  2
AcDbStdPartRes_Line
  3
"AcDbStdPartRes_Line|Product Description: AutoCAD Mechanical 2000|Company: Autodesk"
 90
        0
280
     0
281
     0
  0
CLASS
  1
AMDTFORMULAUPDATEDISPATCHER
  2
AmdtFormulaUpdateDispatcher
  3
AcMeServices
 90
        0
280
     0
281
     0
  0
CLASS
  1
TABLESTYLE
  2
AcDbTableStyle
  3
ObjectDBX Classes
 90
     2047
280
     0
281
     0
  0
CLASS
  1
AM_DRAWING_MGR
  2
AcDmDwgMgr
  3
AcMechDwgViewMgmt
 90
        0
280
     0
281
     0
  0
CLASS
  1
AM_DWG_DOCUMENT
  2
AcDmDwgDocument
  3
AcMechDwgViewMgmt
 90
        0
280
     0
281
     0
  0
CLASS
  1
AM_DWG_SHEET
  2
AcDmSheet
  3
AcMechDwgViewMgmt
 90
        0
280
     0
281
     0
  0
CLASS
  1
AM_VIEWDIMPARMAP
  2
AcDmViewDimParMap
  3
AcMechDwgViewMgmt
 90
        0
280
     0
281
     0
  0
CLASS
  1
AM_DWGMGR_NAME
  2
AcDmDwgMgrName
  3
AcMechDwgViewMgmt
 90
        0
280
     0
281
     0
  0
CLASS
  1
AMDTMENUSTATEMGR
  2
AmdtMenuStateMgr
  3
McadcomServices
 90
        0
280
     0
281
     0
  0
CLASS
  1
AMDTMCOMMENUSTATE
  2
AmdtMcomMenuState
  3
McadcomServices
 90
        0
280
     0
281
     0
  0
CLASS
  1
MAPIAMMOUDLE
  2
MApiAmModule
  3
MApiAmServices
 90
        0
280
     0
281
     0
  0
CLASS
  1
AMDTADMENUSTATE
  2
AmdtAdMenuState
  3
DesignerServices
 90
        0
280
     0
281
     0
  0
CLASS
  1
ADAPPL
  2
AcAdAppl
  3
DesignerServices
 90
        0
280
     0
281
     0
  0
CLASS
  1
DEPMGR
  2
AcAdDepMgr
  3
DesignerServices
 90
        0
280
     0
281
     0
  0
CLASS
  1
PARAMMGR
  2
AcAdParamMgr
  3
DesignerServices
 90
        0
280
     0
281
     0
  0
CLASS
  1
PARAMSCOPE
  2
AcAdParamScope
  3
DesignerServices
 90
        0
280
     0
281
     0
  0
CLASS
  1
NAMEDAPPL
  2
AcAdNamedAppl
  3
DesignerServices
 90
        0
280
     0
281
     0
  0
CLASS
  1
AMDTDMMENUSTATE
  2
AmdtDmMenuState
  3
AcMechDwgViewMgmt
 90
        0
280
     0
281
     0
  0
CLASS
  1
AMDTAMMENUSTATE
  2
AmdtAmMenuState
  3
DesignerAssemblies
 90
        0
280
     0
281
     0
  0
CLASS
  1
ACAMPROJECT
  2
AcAmProject
  3
DesignerAssemblies
 90
        0
280
     0
281
     0
  0
CLASS
  1
ACAMGRCOMPDEF
  2
AcAmGrCompDef
  3
DesignerAssemblies
 90
        0
280
     0
281
     0
  0
CLASS
  1
ACCMCONTEXT
  2
AcCmContext
  3
DesignerAssemblies
 90
        0
280
     0
281
     0
  0
CLASS
  1
ACAMCOMPDEF
  2
AcAmCompDef
  3
DesignerAssemblies
 90
        0
280
     0
281
     0
  0
CLASS
  1
ACAMCOMPDEFMGR
  2
AcAmCompDefMgr
  3
DesignerAssemblies
 90
        0
280
     0
281
     0
  0
CLASS
  1
AMCONTEXTMGR
  2
AcAmContextMgr
  3
DesignerAssemblies
 90
        0
280
     0
281
     0
  0
CLASS
  1
ACAMCONTEXTMODELER
  2
AcAmContextModeler
  3
DesignerAssemblies
 90
        0
280
     0
281
     0
  0
CLASS
  1
ACMTHREADLINESTANDARDDIN
  2
AmdtThreadLineStdDIN
  3
"Amdt_StdImp|Product Description: AutoCAD Mechanical 2004 DX|Company: Autodesk"
 90
        0
280
     0
281
     0
  0
CLASS
  1
ACMNOTESTANDARDDIN
  2
AmdtNoteStdDIN
  3
"Amdt_StdImp|Product Description: AutoCAD Mechanical 2004 DX|Company: Autodesk"
 90
        0
280
     0
281
     0
  0
CLASS
  1
AMDTNOTETEMPLATEDB
  2
AmdtNoteTemplateDB
  3
AMDT_STDIMP_MODULE_NAME
 90
        0
280
     0
281
     0
  0
CLASS
  1
CATALOGSTATE
  2
AcAmCatalogState
  3
DesignerAssemblies
 90
        0
280
     0
281
     0
  0
CLASS
  1
ACAMGRCOMPDEFSET
  2
AcAmGrCompDefSet
  3
DesignerAssemblies
 90
        0
280
     0
281
     0
  0
CLASS
  1
AMDTBROWSERDBTAB
  2
AmdtBrowserDbTab
  3
McadcomServices
 90
        0
280
     0
281
     0
  0
CLASS
  1
CBROWSERAPPOBJECT
  2
CBrowserAppObject
  3
McadcomServices
 90
        0
280
     0
281
     0
  0
CLASS
  1
DM_PLACEHOLDER
  2
AcDmSelsetPlaceholder
  3
AcMechDwgViewMgmt
 90
        0
280
     0
281
     0
  0
CLASS
  1
SORTENTSTABLE
  2
AcDbSortentsTable
  3
ObjectDBX Classes
 90
        0
280
     0
281
     0
  0
CLASS
  1
AC_AM_MVD_DEP_MGR
  2
AcAmMVDdepMgr
  3
DesignerAssemblies
 90
        0
280
     0
281
     0
  0
CLASS
  1
AC_AM_MASTER_VIEW_DEF
  2
AcAmMasterViewDef
  3
DesignerAssemblies
 90
        0
280
     0
281
     0
  0
CLASS
  1
AC_AM_DIRTY_NODES
  2
AcAmDirtyNodes
  3
DesignerAssemblies
 90
        0
280
     0
281
     0
  0
CLASS
  1
AC_AM_MAPPER_CACHE
  2
AcAmMapperCache
  3
DesignerAssemblies
 90
        0
280
     0
281
     0
  0
CLASS
  1
ACAMMVDBACKUPOBJECT
  2
AcAmMVDBackupObject
  3
DesignerAssemblies
 90
        0
280
     0
281
     0
  0
CLASS
  1
ACAMSTDPCOMPDEF
  2
AcAmStdpCompDef
  3
DesignerAssemblies
 90
        0
280
     0
281
     0
  0
CLASS
  1
ACRFATTGENMGR
  2
AcRfAttGeneralMgr
  3
AcAttribServices
 90
        0
280
     0
281
     0
  0
CLASS
  1
ACRFOBJATTMGR
  2
AcRfObjAttGroupMgr
  3
AcAttribServices
 90
        0
280
     0
281
     0
  0
CLASS
  1
ACRFMCADAPIATTHOLDER
  2
AcRfMCADAPIAttHolder
  3
AcAttribServices
 90
        0
280
     0
281
     0
  0
CLASS
  1
AMDTSYSATTR
  2
AmdtSystemAttribute
  3
AcAttribServices
 90
        0
280
     0
281
     0
  0
CLASS
  1
ACAMCOMP
  2
AcAmComp
  3
DesignerAssemblies
 90
        0
280
     0
281
     0
  0
CLASS
  1
AC_AM_STDP_VIEW_DEF
  2
AcAmStdpViewDef
  3
DesignerAssemblies
 90
        0
280
     0
281
     0
  0
CLASS
  1
AC_AM_COMP_VIEW_INST
  2
AcAmCompView
  3
DesignerAssemblies
 90
        0
280
     0
281
     0
  0
CLASS
  1
AC_AM_2D_XREF_MGR
  2
AcAmXrefMgr2d
  3
DesignerAssemblies
 90
        0
280
     0
281
     0
  0
CLASS
  1
AC_AM_HIDE_SITUATION
  2
AcAmHideSituation
  3
DesignerAssemblies
 90
        0
280
     0
281
     0
  0
CLASS
  1
ACMSTANDARDANSI
  2
AcmStandardANSI
  3
"Amdt_StdImp|Product Description: AutoCAD Mechanical 2004 DX|Company: Autodesk"
 90
        0
280
     0
281
     0
  0
CLASS
  1
ACMSURFSTANDARDANSI
  2
AcmSurfTextStdANSI
  3
"Amdt_StdImp|Product Description: AutoCAD Mechanical 2004 DX|Company: Autodesk"
 90
        0
280
     0
281
     0
  0
CLASS
  1
ACMFCFSTANDARDANSI
  2
AcmFCFStdANSI
  3
"Amdt_StdImp|Product Description: AutoCAD Mechanical 2004 DX|Company: Autodesk"
 90
        0
280
     0
281
     0
  0
CLASS
  1
ACMWELDSTANDARDANSI
  2
AcmWeldingStdANSI
  3
"Amdt_StdImp|Product Description: AutoCAD Mechanical 2004 DX|Company: Autodesk"
 90
        0
280
     0
281
     0
  0
CLASS
  1
ACMIDSTANDARDANSI
  2
AcmIdStdANSI
  3
"Amdt_StdImp|Product Description: AutoCAD Mechanical 2004 DX|Company: Autodesk"
 90
        0
280
     0
281
     0
  0
CLASS
  1
ACMDATUMSTANDARDANSI
  2
AcmDatumStdANSI
  3
"Amdt_StdImp|Product Description: AutoCAD Mechanical 2004 DX|Company: Autodesk"
 90
        0
280
     0
281
     0
  0
CLASS
  1
ACMBOMSTANDARDANSI
  2
AcmBOMStdANSI
  3
"Amdt_StdImp|Product Description: AutoCAD Mechanical 2004 DX|Company: Autodesk"
 90
        0
280
     0
281
     0
  0
CLASS
  1
ACMDETAILSTANDARDANSI
  2
AmdtDetailSymStdANSI
  3
"Amdt_StdImp|Product Description: AutoCAD Mechanical 2004 DX|Company: Autodesk"
 90
        0
280
     0
281
     0
  0
CLASS
  1
ACMSECTIONSTANDARDANSI
  2
AmdtSectionSymStdANSI
  3
"Amdt_StdImp|Product Description: AutoCAD Mechanical 2004 DX|Company: Autodesk"
 90
        0
280
     0
281
     0
  0
CLASS
  1
ACMCENTERLINESTANDARDANSI
  2
AmdtCenterLineStdANSI
  3
"Amdt_StdImp|Product Description: AutoCAD Mechanical 2004 DX|Company: Autodesk"
 90
        0
280
     0
281
     0
  0
CLASS
  1
ACMTHREADLINESTANDARDANSI
  2
AmdtThreadLineStdANSI
  3
"Amdt_StdImp|Product Description: AutoCAD Mechanical 2004 DX|Company: Autodesk"
 90
        0
280
     0
281
     0
  0
CLASS
  1
ACMNOTESTANDARDANSI
  2
AmdtNoteStdANSI
  3
"Amdt_StdImp|Product Description: AutoCAD Mechanical 2004 DX|Company: Autodesk"
 90
        0
280
     0
281
     0
  0
CLASS
  1
ACMBOM
  2
AcmBom
  3
"AcmSymBB|Product Description: AutoCAD Mechanical 2004 DX|Company: Autodesk"
 90
        0
280
     0
281
     0
  0
CLASS
  1
ACMBOMROW
  2
AcmBomRow
  3
"AcmSymBB|Product Description: AutoCAD Mechanical 2004 DX|Company: Autodesk"
 90
        0
280
     0
281
     0
  0
CLASS
  1
ACMDATAENTRY
  2
AcmDataEntry
  3
"AcmSymBB|Product Description: AutoCAD Mechanical 2004 DX|Company: Autodesk"
 90
        0
280
     0
281
     0
  0
CLASS
  1
ACMPARTLIST
  2
AcmPartList
  3
"AcmSymBB|Product Description: AutoCAD Mechanical 2004 DX|Company: Autodesk"
 90
    33791
280
     0
281
     1
  0
CLASS
  1
ACMPICKOBJ
  2
AcmPickEnt
  3
"AcmSymBB|Product Description: AutoCAD Mechanical 2004 DX|Company: Autodesk"
 90
    32768
280
     0
281
     1
  0
CLASS
  1
ACMBALLOON
  2
AcmBalloon
  3
"AcmSymBB|Product Description: AutoCAD Mechanical 2004 DX|Company: Autodesk"
 90
    33791
280
     0
281
     1
  0
CLASS
  1
AMDTNOTE
  2
AmdtNote
  3
"AcmSymBB|Product Description: AutoCAD Mechanical 2004 DX|Company: Autodesk"
 90
    33791
280
     0
281
     1
  0
CLASS
  1
ACDBCIRCARCRES
  2
AcDbCircArcRes
  3
AcGrefServices
 90
    32768
280
     0
281
     0
  0
CLASS
  1
DIMASSOC
  2
AcDbDimAssoc
  3
"AcDbDimAssoc|Product Desc:     AcDim ARX App For Dimension|Company:          Autodesk, Inc.|WEB Address:      www.autodesk.com"
 90
    32768
280
     0
281
     0
  0
CLASS
  1
ACAMWBLOCKTEMPENTS
  2
AcAmStructInOutTempObjsHolder
  3
DesignerAssemblies
 90
    32768
280
     0
281
     0
  0
ENDSEC
  0
SECTION
  2
TABLES
  0
TABLE
  2
VPORT
  5
8
330
0
100
AcDbSymbolTable
 70
    15
  0
VPORT
  5
5929
330
8
100
AcDbSymbolTableRecord
100
AcDbViewportTableRecord
  2
*Active
 70
     0
 10
0.0
 20
0.0
 11
1.0
 21
1.0
 12
146.8535075555217
 22
151.0805053710892
 13
0.0
 23
0.0
 14
2.5
 24
2.5
 15
10.0
 25
10.0
 16
0.0
 26
0.0
 36
1.0
 17
0.0
 27
0.0
 37
0.0
 40
316.9617693884047
 41
1.494545454545454
 42
50.0
 43
0.0
 44
0.0
 50
0.0
 51
0.0
 71
     0
 72
   100
 73
     1
 74
     3
 75
     0
 76
     0
 77
     0
 78
     0
281
     0
 65
     1
110
0.0
120
0.0
130
0.0
111
1.0
121
0.0
131
0.0
112
0.0
122
1.0
132
0.0
 79
     0
146
0.0
  0
ENDTAB
  0
TABLE
  2
LTYPE
  5
5
330
0
100
AcDbSymbolTable
 70
    32
  0
LTYPE
  5
14
330
5
100
AcDbSymbolTableRecord
100
AcDbLinetypeTableRecord
  2
ByBlock
 70
     0
  3

 72
    65
 73
     0
 40
0.0
  0
LTYPE
  5
15
330
5
100
AcDbSymbolTableRecord
100
AcDbLinetypeTableRecord
  2
ByLayer
 70
     0
  3

 72
    65
 73
     0
 40
0.0
  0
LTYPE
  5
16
330
5
100
AcDbSymbolTableRecord
100
AcDbLinetypeTableRecord
  2
Continuous
 70
     0
  3
Solid line
 72
    65
 73
     0
 40
0.0
  0
LTYPE
  5
52
330
5
100
AcDbSymbolTableRecord
100
AcDbLinetypeTableRecord
  2
Amconstr
 70
     0
  3
_______________________
 72
    65
 73
     2
 40
9999.0
 49
9999.0
 74
     0
 49
0.0
 74
     0
  0
LTYPE
  5
57
330
5
100
AcDbSymbolTableRecord
100
AcDbLinetypeTableRecord
  2
Amzigzag
 70
     0
  3
/\/-/\/-/\/-/\/-/\/-/\/
 72
    65
 73
     2
 40
11.0001
 49
0.0001
 74
     4
 75
   135
340
56
 46
0.04
 50
0.0
 44
0.0
 45
0.0
 49
-11.0
 74
     0
  0
LTYPE
  5
58
330
5
100
AcDbSymbolTableRecord
100
AcDbLinetypeTableRecord
  2
AM_DIN_F_W050
 70
     0
  3
__ __ __ __ __ __ __ __ __ __ __ __ __ __ __
 72
    65
 73
     2
 40
6.25
 49
4.75
 74
     0
 49
-1.5
 74
     0
  0
LTYPE
  5
59
330
5
100
AcDbSymbolTableRecord
100
AcDbLinetypeTableRecord
  2
AM_DIN_G_W050
 70
     0
  3
____ . ____ . ____ . ____ . ____ . ____ . ____
 72
    65
 73
     4
 40
13.75
 49
9.75
 74
     0
 49
-1.5
 74
     0
 49
1.0
 74
     0
 49
-1.5
 74
     0
  0
LTYPE
  5
5A
330
5
100
AcDbSymbolTableRecord
100
AcDbLinetypeTableRecord
  2
AM_DIN_K_W050
 70
     0
  3
_____ . . _____ . . _____ . . ____ .. ____
 72
    65
 73
     6
 40
16.25
 49
9.75
 74
     0
 49
-1.5
 74
     0
 49
1.0
 74
     0
 49
-1.5
 74
     0
 49
1.0
 74
     0
 49
-1.5
 74
     0
  0
LTYPE
  5
5B
330
5
100
AcDbSymbolTableRecord
100
AcDbLinetypeTableRecord
  2
AM_DIN_G_W050x2
 70
     0
  3
__ . __ . __ . __ . __ . __
 72
    65
 73
     4
 40
6.875
 49
4.75
 74
     0
 49
-0.875
 74
     0
 49
0.375
 74
     0
 49
-0.875
 74
     0
  0
LTYPE
  5
5C
330
5
100
AcDbSymbolTableRecord
100
AcDbLinetypeTableRecord
  2
AM_DIN_F_W050x2
 70
     0
  3
 _ _ _ _ _ _ _ _ _ _ _ _
 72
    65
 73
     2
 40
3.125
 49
2.25
 74
     0
 49
-0.875
 74
     0
  0
LTYPE
  5
69
330
5
100
AcDbSymbolTableRecord
100
AcDbLinetypeTableRecord
  2
ACDINWELD
 70
     0
  3
_ _ _ _ _
 72
    65
 73
     2
 40
2.0
 49
2.0
 74
     0
 49
-1.0
 74
     0
  0
LTYPE
  5
6A
330
5
100
AcDbSymbolTableRecord
100
AcDbLinetypeTableRecord
  2
ACDINTGB
 70
     0
  3
__ . . __ . .
 72
    65
 73
     6
 40
9.0
 49
4.0
 74
     0
 49
-1.0
 74
     0
 49
1.0
 74
     0
 49
-1.0
 74
     0
 49
1.0
 74
     0
 49
-1.0
 74
     0
  0
LTYPE
  5
6B
330
5
100
AcDbSymbolTableRecord
100
AcDbLinetypeTableRecord
  2
ACDINTGL
 70
     0
  3
_ _ _ _ _
 72
    65
 73
     2
 40
3.0
 49
2.0
 74
     0
 49
-1.0
 74
     0
  0
LTYPE
  5
6D
330
5
100
AcDbSymbolTableRecord
100
AcDbLinetypeTableRecord
  2
CENTER
 70
     0
  3
__ . __
 72
    65
 73
     4
 40
7.0
 49
4.0
 74
     0
 49
-1.0
 74
     0
 49
1.0
 74
     0
 49
-1.0
 74
     0
  0
LTYPE
  5
2AD7
330
5
100
AcDbSymbolTableRecord
100
AcDbLinetypeTableRecord
  2
GEN7
 70
     0
  3
____ _ ____ _ ____ _ ____ _ ____ _ ____ _ ____ _ ____ _ ____ _
 72
    65
 73
     4
 40
22.0
 49
10.75
 74
     0
 49
-3.75
 74
     0
 49
3.75
 74
     0
 49
-3.75
 74
     0
  0
LTYPE
  5
3394
330
5
100
AcDbSymbolTableRecord
100
AcDbLinetypeTableRecord
  2
HIDDEN
 70
     0
  3
Verdeckt
 72
    65
 73
     2
 40
9.525
 49
6.349999999999999
 74
     0
 49
-3.174999999999999
 74
     0
  0
LTYPE
  5
3395
330
5
100
AcDbSymbolTableRecord
100
AcDbLinetypeTableRecord
  2
PHANTOM2
 70
     0
  3
Phantom (.5x) ___ _ _ ___ _ _ ___ _ _ ___ _ _
 72
    65
 73
     6
 40
31.75
 49
15.875
 74
     0
 49
-3.174999999999999
 74
     0
 49
3.174999999999999
 74
     0
 49
-3.174999999999999
 74
     0
 49
3.174999999999999
 74
     0
 49
-3.174999999999999
 74
     0
  0
LTYPE
  5
3895
330
5
100
AcDbSymbolTableRecord
100
AcDbLinetypeTableRecord
  2
ACANSTGB
 70
     0
  3
__ . . __ . .
 72
    65
 73
     6
 40
0.35433070866
 49
0.15748031496
 74
     0
 49
-0.03937007874
 74
     0
 49
0.03937007874
 74
     0
 49
-0.03937007874
 74
     0
 49
0.03937007874
 74
     0
 49
-0.03937007874
 74
     0
  0
LTYPE
  5
3896
330
5
100
AcDbSymbolTableRecord
100
AcDbLinetypeTableRecord
  2
ACANSTGL
 70
     0
  3
_ _ _ _ _
 72
    65
 73
     2
 40
0.11811023622
 49
0.07874015748
 74
     0
 49
-0.03937007874
 74
     0
  0
ENDTAB
  0
TABLE
  2
LAYER
  5
2
102
{ACAD_XDICTIONARY
360
38AE
102
}
330
0
100
AcDbSymbolTable
 70
    37
  0
LAYER
  5
10
330
2
100
AcDbSymbolTableRecord
100
AcDbLayerTableRecord
  2
0
 70
     0
 62
     7
  6
Continuous
370
    -3
390
F
  0
LAYER
  5
A5
330
2
100
AcDbSymbolTableRecord
100
AcDbLayerTableRecord
  2
AM_7
 70
     0
 62
     4
  6
AM_DIN_G_W050
370
    25
390
F
  0
LAYER
  5
C7
330
2
100
AcDbSymbolTableRecord
100
AcDbLayerTableRecord
  2
AM_5
 70
     0
 62
     3
  6
Continuous
370
    25
390
F
  0
LAYER
  5
D7
330
2
100
AcDbSymbolTableRecord
100
AcDbLayerTableRecord
  2
Defpoints
 70
     0
 62
     7
  6
Continuous
290
     0
370
    -3
390
F
  0
LAYER
  5
268
330
2
100
AcDbSymbolTableRecord
100
AcDbLayerTableRecord
  2
AM_0
 70
     0
 62
     7
  6
Continuous
370
    70
390
F
  0
LAYER
  5
28F
330
2
100
AcDbSymbolTableRecord
100
AcDbLayerTableRecord
  2
AM_8
 70
     0
 62
     1
  6
Continuous
370
    25
390
F
  0
LAYER
  5
4A4
330
2
100
AcDbSymbolTableRecord
100
AcDbLayerTableRecord
  2
AM_9
 70
     0
 62
  -253
  6
Continuous
370
     0
390
F
  0
LAYER
  5
4B9
330
2
100
AcDbSymbolTableRecord
100
AcDbLayerTableRecord
  2
AM_INV
 70
     0
 62
  -253
  6
Continuous
370
     0
390
F
  0
LAYER
  5
DDA
330
2
100
AcDbSymbolTableRecord
100
AcDbLayerTableRecord
  2
AM_0N
 70
     0
 62
     7
  6
Continuous
370
    70
390
F
  0
LAYER
  5
DE8
330
2
100
AcDbSymbolTableRecord
100
AcDbLayerTableRecord
  2
AM_7N
 70
     0
 62
     4
  6
AM_DIN_G_W050
370
    25
390
F
  0
LAYER
  5
2AE0
330
2
100
AcDbSymbolTableRecord
100
AcDbLayerTableRecord
  2
7
 70
     0
 62
     4
  6
GEN7
370
    -3
390
F
  0
LAYER
  5
2AE1
330
2
100
AcDbSymbolTableRecord
100
AcDbLayerTableRecord
  2
8
 70
     0
 62
     1
  6
Continuous
370
    -3
390
F
  0
LAYER
  5
2AE2
330
2
100
AcDbSymbolTableRecord
100
AcDbLayerTableRecord
  2
SCHRAFFUR_RAND
 70
     0
 62
     1
  6
Continuous
370
    -3
390
F
  0
LAYER
  5
389F
330
2
100
AcDbSymbolTableRecord
100
AcDbLayerTableRecord
  2
0N
 70
     0
 62
     7
  6
Continuous
370
    -3
390
F
  0
ENDTAB
  0
TABLE
  2
STYLE
  5
3
330
0
100
AcDbSymbolTable
 70
    15
  0
STYLE
  5
11
330
3
100
AcDbSymbolTableRecord
100
AcDbTextStyleTableRecord
  2
STANDARD
 70
     0
 40
0.0
 41
1.0
 50
0.0
 71
     0
 42
3.5
  3
ISOCP.SHX
  4

  0
STYLE
  5
56
330
3
100
AcDbSymbolTableRecord
100
AcDbTextStyleTableRecord
  2

 70
     1
 40
0.0
 41
1.0
 50
0.0
 71
     0
 42
2.5
  3
ltypeshp.shx
  4

  0
STYLE
  5
5D
330
3
100
AcDbSymbolTableRecord
100
AcDbTextStyleTableRecord
  2
ACDINTS
 70
     0
 40
1.0
 41
1.0
 50
0.0
 71
     0
 42
2.5
  3
isocp.shx
  4

  0
STYLE
  5
68
330
3
100
AcDbSymbolTableRecord
100
AcDbTextStyleTableRecord
  2
ACDINGDT
 70
     0
 40
0.0
 41
1.0
 50
0.0
 71
     0
 42
2.5
  3
amgdt.shx
  4

  0
STYLE
  5
38A4
330
3
100
AcDbSymbolTableRecord
100
AcDbTextStyleTableRecord
  2
ACANSTS
 70
     0
 40
1.0
 41
1.0
 50
0.0
 71
     0
 42
2.0
  3
romans.shx
  4

  0
STYLE
  5
38A5
330
3
100
AcDbSymbolTableRecord
100
AcDbTextStyleTableRecord
  2
ACANSGDT
 70
     0
 40
0.0
 41
1.0
 50
0.0
 71
     0
 42
2.0
  3
amgdtans.shx
  4

  0
ENDTAB
  0
TABLE
  2
VIEW
  5
6
330
0
100
AcDbSymbolTable
 70
     0
  0
ENDTAB
  0
TABLE
  2
UCS
  5
7
330
0
100
AcDbSymbolTable
 70
     0
  0
ENDTAB
  0
TABLE
  2
APPID
  5
9
330
0
100
AcDbSymbolTable
 70
    81
  0
APPID
  5
12
330
9
100
AcDbSymbolTableRecord
100
AcDbRegAppTableRecord
  2
ACAD
 70
     0
  0
APPID
  5
2C
330
9
100
AcDbSymbolTableRecord
100
AcDbRegAppTableRecord
  2
MCAD_NO_VIS
 70
     0
  0
APPID
  5
2D
330
9
100
AcDbSymbolTableRecord
100
AcDbRegAppTableRecord
  2
ACAD_TEMP_GRAPHIC
 70
     0
  0
APPID
  5
40
330
9
100
AcDbSymbolTableRecord
100
AcDbRegAppTableRecord
  2
ACATTRIBSERVICES
 70
     0
  0
APPID
  5
A7
330
9
100
AcDbSymbolTableRecord
100
AcDbRegAppTableRecord
  2
GENIUS_GENODEF_13
 70
     0
  0
APPID
  5
A8
330
9
100
AcDbSymbolTableRecord
100
AcDbRegAppTableRecord
  2
GENIUS_GENOBJ-N-CEN_13
 70
     0
  0
APPID
  5
219
330
9
100
AcDbSymbolTableRecord
100
AcDbRegAppTableRecord
  2
GENIUS_GENOLIS_13
 70
     0
  0
APPID
  5
21A
330
9
100
AcDbSymbolTableRecord
100
AcDbRegAppTableRecord
  2
GENIUS_GENOENT_13
 70
     0
  0
APPID
  5
21B
330
9
100
AcDbSymbolTableRecord
100
AcDbRegAppTableRecord
  2
GENIUS_GENOBJ-N-CRS_13
 70
     0
  0
APPID
  5
21C
330
9
100
AcDbSymbolTableRecord
100
AcDbRegAppTableRecord
  2
GENIUS_GENOREF_13
 70
     0
  0
APPID
  5
290
330
9
100
AcDbSymbolTableRecord
100
AcDbRegAppTableRecord
  2
GENIUS_GENOBJ-N-HTC_13
 70
     0
  0
APPID
  5
291
330
9
100
AcDbSymbolTableRecord
100
AcDbRegAppTableRecord
  2
GENIUS_GENHATCH_13
 70
     0
  0
APPID
  5
499
330
9
100
AcDbSymbolTableRecord
100
AcDbRegAppTableRecord
  2
GEVID1120634744
 70
     0
  0
APPID
  5
49A
330
9
100
AcDbSymbolTableRecord
100
AcDbRegAppTableRecord
  2
GEVDC
 70
     0
  0
APPID
  5
49E
330
9
100
AcDbSymbolTableRecord
100
AcDbRegAppTableRecord
  2
GENIUS_GENBH_13
 70
     0
  0
APPID
  5
4A1
330
9
100
AcDbSymbolTableRecord
100
AcDbRegAppTableRecord
  2
GENIUS_GENOBJ-NBEHI-BHF_13
 70
     0
  0
APPID
  5
4A3
330
9
100
AcDbSymbolTableRecord
100
AcDbRegAppTableRecord
  2
GENIUS_GENOBJ-NBEHI-BHB_13
 70
     0
  0
APPID
  5
4B3
330
9
100
AcDbSymbolTableRecord
100
AcDbRegAppTableRecord
  2
GEVID1120634745
 70
     0
  0
APPID
  5
4C9
330
9
100
AcDbSymbolTableRecord
100
AcDbRegAppTableRecord
  2
GEVID1120634746
 70
     0
  0
APPID
  5
4E3
330
9
100
AcDbSymbolTableRecord
100
AcDbRegAppTableRecord
  2
GEVID1120634747
 70
     0
  0
APPID
  5
4E5
330
9
100
AcDbSymbolTableRecord
100
AcDbRegAppTableRecord
  2
GEVRADREF
 70
     0
  0
APPID
  5
4F7
330
9
100
AcDbSymbolTableRecord
100
AcDbRegAppTableRecord
  2
GEVID1120634748
 70
     0
  0
APPID
  5
50B
330
9
100
AcDbSymbolTableRecord
100
AcDbRegAppTableRecord
  2
GEVID1120634749
 70
     0
  0
APPID
  5
51F
330
9
100
AcDbSymbolTableRecord
100
AcDbRegAppTableRecord
  2
GEVID1120634750
 70
     0
  0
APPID
  5
6C1
330
9
100
AcDbSymbolTableRecord
100
AcDbRegAppTableRecord
  2
GEVID1120637726
 70
     0
  0
APPID
  5
6D7
330
9
100
AcDbSymbolTableRecord
100
AcDbRegAppTableRecord
  2
GEVID1120637727
 70
     0
  0
APPID
  5
DB4
330
9
100
AcDbSymbolTableRecord
100
AcDbRegAppTableRecord
  2
GEVID1120720268
 70
     0
  0
APPID
  5
DB6
330
9
100
AcDbSymbolTableRecord
100
AcDbRegAppTableRecord
  2
GEVCON
 70
     0
  0
APPID
  5
DC4
330
9
100
AcDbSymbolTableRecord
100
AcDbRegAppTableRecord
  2
GEVID1120720269
 70
     0
  0
APPID
  5
DD6
330
9
100
AcDbSymbolTableRecord
100
AcDbRegAppTableRecord
  2
GEVID1120720270
 70
     0
  0
APPID
  5
DFD
330
9
100
AcDbSymbolTableRecord
100
AcDbRegAppTableRecord
  2
GEVID1120720271
 70
     0
  0
APPID
  5
FA2
330
9
100
AcDbSymbolTableRecord
100
AcDbRegAppTableRecord
  2
GEVID1120720297
 70
     0
  0
APPID
  5
157F
330
9
100
AcDbSymbolTableRecord
100
AcDbRegAppTableRecord
  2
GENIUS_GENOBJ-F-SPR_13
 70
     0
  0
APPID
  5
1586
330
9
100
AcDbSymbolTableRecord
100
AcDbRegAppTableRecord
  2
GENIUS_GEFMYPART_15
 70
     0
  0
APPID
  5
1587
330
9
100
AcDbSymbolTableRecord
100
AcDbRegAppTableRecord
  2
GENIUS_GEFSPRING_13
 70
     0
  0
APPID
  5
1588
330
9
100
AcDbSymbolTableRecord
100
AcDbRegAppTableRecord
  2
GENIUS_GEFSPRINGP_13
 70
     0
  0
APPID
  5
1CB5
330
9
100
AcDbSymbolTableRecord
100
AcDbRegAppTableRecord
  2
GEVID1120720300
 70
     0
  0
APPID
  5
1CCD
330
9
100
AcDbSymbolTableRecord
100
AcDbRegAppTableRecord
  2
GEVID1120720301
 70
     0
  0
APPID
  5
1CE3
330
9
100
AcDbSymbolTableRecord
100
AcDbRegAppTableRecord
  2
GEVID1120720302
 70
     0
  0
APPID
  5
1CFB
330
9
100
AcDbSymbolTableRecord
100
AcDbRegAppTableRecord
  2
GEVID1120720303
 70
     0
  0
APPID
  5
1D12
330
9
100
AcDbSymbolTableRecord
100
AcDbRegAppTableRecord
  2
GEVID1120720304
 70
     0
  0
APPID
  5
1D3F
330
9
100
AcDbSymbolTableRecord
100
AcDbRegAppTableRecord
  2
GEVID1120720306
 70
     0
  0
APPID
  5
1D54
330
9
100
AcDbSymbolTableRecord
100
AcDbRegAppTableRecord
  2
GEVID1120720307
 70
     0
  0
APPID
  5
238D
330
9
100
AcDbSymbolTableRecord
100
AcDbRegAppTableRecord
  2
GEVID1120802977
 70
     0
  0
APPID
  5
239D
330
9
100
AcDbSymbolTableRecord
100
AcDbRegAppTableRecord
  2
GEVID1120802978
 70
     0
  0
APPID
  5
23B3
330
9
100
AcDbSymbolTableRecord
100
AcDbRegAppTableRecord
  2
GEVID1120802979
 70
     0
  0
APPID
  5
292D
330
9
100
AcDbSymbolTableRecord
100
AcDbRegAppTableRecord
  2
GEVID1120808813
 70
     0
  0
APPID
  5
2942
330
9
100
AcDbSymbolTableRecord
100
AcDbRegAppTableRecord
  2
GEVID1120808814
 70
     0
  0
APPID
  5
2957
330
9
100
AcDbSymbolTableRecord
100
AcDbRegAppTableRecord
  2
GEVID1120808815
 70
     0
  0
APPID
  5
296B
330
9
100
AcDbSymbolTableRecord
100
AcDbRegAppTableRecord
  2
GEVID1120808816
 70
     0
  0
APPID
  5
2987
330
9
100
AcDbSymbolTableRecord
100
AcDbRegAppTableRecord
  2
GEVID1120808817
 70
     0
  0
APPID
  5
2AE5
330
9
100
AcDbSymbolTableRecord
100
AcDbRegAppTableRecord
  2
GENIUS_GENDTOL_13
 70
     0
  0
APPID
  5
2AE6
330
9
100
AcDbSymbolTableRecord
100
AcDbRegAppTableRecord
  2
GENIUS_GENOBJ-N-FIL_13
 70
     0
  0
APPID
  5
3397
330
9
100
AcDbSymbolTableRecord
100
AcDbRegAppTableRecord
  2
AD_DRAW
 70
     0
  0
APPID
  5
33B5
330
9
100
AcDbSymbolTableRecord
100
AcDbRegAppTableRecord
  2
DESIGNERASSEMBLIES
 70
     0
  0
APPID
  5
33CB
330
9
100
AcDbSymbolTableRecord
100
AcDbRegAppTableRecord
  2
ACADM_DIM_EDIT
 70
     0
  0
APPID
  5
33CC
330
9
100
AcDbSymbolTableRecord
100
AcDbRegAppTableRecord
  2
AMDT_DM_ADJ
 70
     0
  0
APPID
  5
3415
330
9
100
AcDbSymbolTableRecord
100
AcDbRegAppTableRecord
  2
GENIUS_GENCEN_19
 70
     0
  0
APPID
  5
3430
330
9
100
AcDbSymbolTableRecord
100
AcDbRegAppTableRecord
  2
AMG_2DHIDE
 70
     0
  0
APPID
  5
3431
330
9
100
AcDbSymbolTableRecord
100
AcDbRegAppTableRecord
  2
AMG_2DSTRUCT_BTR
 70
     0
  0
APPID
  5
3443
330
9
100
AcDbSymbolTableRecord
100
AcDbRegAppTableRecord
  2
GEVID1121264057
 70
     0
  0
APPID
  5
346C
330
9
100
AcDbSymbolTableRecord
100
AcDbRegAppTableRecord
  2
ACADM_2DVIEW_IGN_NOTIFY
 70
     0
  0
APPID
  5
353C
330
9
100
AcDbSymbolTableRecord
100
AcDbRegAppTableRecord
  2
GEVID1121264058
 70
     0
  0
APPID
  5
37B0
330
9
100
AcDbSymbolTableRecord
100
AcDbRegAppTableRecord
  2
GENIUS_GENBLLY_14
 70
     0
  0
APPID
  5
37B1
330
9
100
AcDbSymbolTableRecord
100
AcDbRegAppTableRecord
  2
GENIUS_GENCFG_13
 70
     0
  0
APPID
  5
37B2
330
9
100
AcDbSymbolTableRecord
100
AcDbRegAppTableRecord
  2
GENIUS_GENCFG0_13
 70
     0
  0
APPID
  5
37B3
330
9
100
AcDbSymbolTableRecord
100
AcDbRegAppTableRecord
  2
GENIUS_GENCFG1_13
 70
     0
  0
APPID
  5
37B4
330
9
100
AcDbSymbolTableRecord
100
AcDbRegAppTableRecord
  2
GENIUS_GENCFG2_13
 70
     0
  0
APPID
  5
37B5
330
9
100
AcDbSymbolTableRecord
100
AcDbRegAppTableRecord
  2
GENIUS_GENCFG3_13
 70
     0
  0
APPID
  5
37B6
330
9
100
AcDbSymbolTableRecord
100
AcDbRegAppTableRecord
  2
GENIUS_GENCFG4_13
 70
     0
  0
APPID
  5
37B7
330
9
100
AcDbSymbolTableRecord
100
AcDbRegAppTableRecord
  2
GENIUS_VERSION2
 70
     0
  0
APPID
  5
37B8
330
9
100
AcDbSymbolTableRecord
100
AcDbRegAppTableRecord
  2
GENIUS_GENCFG5_13
 70
     0
  0
APPID
  5
37B9
330
9
100
AcDbSymbolTableRecord
100
AcDbRegAppTableRecord
  2
GENIUS_GEVCFG0_13
 70
     0
  0
APPID
  5
37BA
330
9
100
AcDbSymbolTableRecord
100
AcDbRegAppTableRecord
  2
GENIUS_GENREC_14
 70
     0
  0
APPID
  5
37BB
330
9
100
AcDbSymbolTableRecord
100
AcDbRegAppTableRecord
  2
GENIUS_GENOBJ-N-REC_13
 70
     0
  0
APPID
  5
3D4E
330
9
100
AcDbSymbolTableRecord
100
AcDbRegAppTableRecord
  2
DCO15
 70
     0
  0
APPID
  5
4351
330
9
100
AcDbSymbolTableRecord
100
AcDbRegAppTableRecord
  2
ACAD_PSEXT
 70
     0
  0
APPID
  5
43A4
330
9
100
AcDbSymbolTableRecord
100
AcDbRegAppTableRecord
  2
GEVID1126592688
 70
     0
  0
APPID
  5
47CF
330
9
100
AcDbSymbolTableRecord
100
AcDbRegAppTableRecord
  2
ACAD_DSTYLE_DIMARC_LENGTH_SYMBOL
 70
     0
  0
APPID
  5
47D0
330
9
100
AcDbSymbolTableRecord
100
AcDbRegAppTableRecord
  2
ACAD_DSTYLE_DIMJOGGED_JOGANGLE_SYMBOL
 70
     0
  0
APPID
  5
51D0
330
9
100
AcDbSymbolTableRecord
100
AcDbRegAppTableRecord
  2
GENIUS_GENDIMSH_14
 70
     0
  0
ENDTAB
  0
TABLE
  2
DIMSTYLE
  5
A
330
0
100
AcDbSymbolTable
 70
    19
100
AcDbDimStyleTable
 71
     1
340
70
  0
DIMSTYLE
105
70
330
A
100
AcDbSymbolTableRecord
100
AcDbDimStyleTableRecord
  2
AM_DIN
 70
     0
  4
"
 41
2.5
 42
1.0
 43
10.0
 44
1.0
 47
0.1
 48
0.1
 73
     0
 74
     0
 77
     1
 78
     8
 79
     2
140
3.5
141
0.0
143
0.0393701
146
0.71
147
1.5
172
     1
176
   256
177
   256
178
     2
271
     2
272
     3
274
     4
283
     0
284
     8
340
11
371
    -1
372
    -1
1001
ACAD_DSTYLE_DIMARC_LENGTH_SYMBOL
1070
   379
1070
     0
1001
ACAD_DSTYLE_DIMJOGGED_JOGANGLE_SYMBOL
1070
   384
1040
1.570796326794896
  0
DIMSTYLE
105
71
330
A
100
AcDbSymbolTableRecord
100
AcDbDimStyleTableRecord
  2
AM_DIN$3
 70
     0
  4
"
 41
2.5
 42
1.0
 43
10.0
 44
1.0
 47
0.1
 48
0.1
 73
     0
 77
     1
 78
     8
 79
     2
140
3.5
141
0.0
143
0.0393701
146
0.71
147
1.5
176
   256
177
   256
178
     2
271
     2
272
     3
274
     4
283
     0
284
     8
288
     1
289
     0
340
11
371
    -1
372
    -1
1001
ACAD_DSTYLE_DIMARC_LENGTH_SYMBOL
1070
   379
1070
     0
1001
ACAD_DSTYLE_DIMJOGGED_JOGANGLE_SYMBOL
1070
   384
1040
1.570796326794896
  0
DIMSTYLE
105
72
330
A
100
AcDbSymbolTableRecord
100
AcDbDimStyleTableRecord
  2
AM_DIN$4
 70
     0
  4
"
 41
2.5
 42
1.0
 43
10.0
 44
1.0
 47
0.1
 48
0.1
 73
     0
 77
     1
 78
     8
 79
     2
140
3.5
141
0.0
143
0.0393701
146
0.71
147
1.5
176
   256
177
   256
178
     2
271
     2
272
     3
274
     4
283
     0
284
     8
288
     1
289
     0
340
11
371
    -1
372
    -1
1001
ACAD_DSTYLE_DIMARC_LENGTH_SYMBOL
1070
   379
1070
     0
1001
ACAD_DSTYLE_DIMJOGGED_JOGANGLE_SYMBOL
1070
   384
1040
1.570796326794896
  0
DIMSTYLE
105
73
330
A
100
AcDbSymbolTableRecord
100
AcDbDimStyleTableRecord
  2
AM_DIN$6
 70
     0
  4
"
 41
2.5
 42
1.0
 43
10.0
 44
1.0
 47
0.1
 48
0.1
 73
     0
 74
     0
 78
     8
 79
     2
140
3.5
141
0.0
143
0.0393701
146
0.71
147
1.5
172
     1
176
   256
177
   256
178
     2
271
     2
272
     3
274
     4
283
     0
284
     8
340
11
371
    -1
372
    -1
1001
ACAD_DSTYLE_DIMARC_LENGTH_SYMBOL
1070
   379
1070
     0
1001
ACAD_DSTYLE_DIMJOGGED_JOGANGLE_SYMBOL
1070
   384
1040
1.570796326794896
  0
DIMSTYLE
105
74
330
A
100
AcDbSymbolTableRecord
100
AcDbDimStyleTableRecord
  2
AM_DIN$7
 70
     0
  4
"
 41
2.5
 42
1.0
 43
10.0
 44
1.0
 47
0.1
 48
0.1
 73
     0
 74
     0
 77
     1
 78
     8
 79
     2
140
5.0
141
0.0
143
0.0393701
146
0.71
147
1.5
172
     1
176
   256
177
   256
178
     2
271
     2
272
     3
274
     4
283
     0
284
     8
340
11
371
    -1
372
    -1
1001
ACAD_DSTYLE_DIMARC_LENGTH_SYMBOL
1070
   379
1070
     0
1001
ACAD_DSTYLE_DIMJOGGED_JOGANGLE_SYMBOL
1070
   384
1040
1.570796326794896
  0
DIMSTYLE
105
75
330
A
100
AcDbSymbolTableRecord
100
AcDbDimStyleTableRecord
  2
AM_DIN$SF
 70
     0
  4
"
 41
2.5
 42
1.0
 43
10.0
 44
1.0
 47
0.1
 48
0.1
 73
     0
 74
     0
 75
     1
 76
     1
 77
     1
 78
     8
 79
     2
140
3.5
141
0.0
143
0.0393701
146
0.71
147
1.5
172
     1
176
   256
177
   256
178
     2
271
     2
272
     3
274
     4
283
     0
284
     8
340
11
371
    -1
372
    -1
1001
ACAD_DSTYLE_DIMARC_LENGTH_SYMBOL
1070
   379
1070
     0
1001
ACAD_DSTYLE_DIMJOGGED_JOGANGLE_SYMBOL
1070
   384
1040
1.570796326794896
  0
DIMSTYLE
105
7A
330
A
100
AcDbSymbolTableRecord
100
AcDbDimStyleTableRecord
  2
AM_DIN$SH
 70
     0
  4
"
 41
2.5
 42
1.0
 43
10.0
 44
1.0
 47
0.1
 48
0.1
 73
     0
 74
     0
 75
     1
 76
     1
 77
     1
 78
     8
 79
     2
140
3.5
141
0.0
143
0.0393701
144
2.0
146
0.71
147
1.5
172
     1
173
     1
176
   256
177
   256
178
     2
271
     2
272
     3
274
     4
283
     0
284
     8
340
11
343
76
371
    -1
372
    -1
1001
ACAD_DSTYLE_DIMARC_LENGTH_SYMBOL
1070
   379
1070
     0
1001
ACAD_DSTYLE_DIMJOGGED_JOGANGLE_SYMBOL
1070
   384
1040
1.570796326794896
  0
DIMSTYLE
105
38A7
330
A
100
AcDbSymbolTableRecord
100
AcDbDimStyleTableRecord
  2
STANDARD
 70
     0
340
11
  0
DIMSTYLE
105
38A8
330
A
100
AcDbSymbolTableRecord
100
AcDbDimStyleTableRecord
  2
AM_ANSI
 70
     0
  4
mm
 41
0.1
 42
0.05
 43
0.5
 44
0.1
 47
0.1
 48
0.1
 78
     7
 79
     2
140
0.12
141
0.0
146
0.71
147
0.06
176
   256
177
   256
178
     2
274
     4
284
     7
340
11
371
    -1
372
    -1
1001
ACAD_DSTYLE_DIMARC_LENGTH_SYMBOL
1070
   379
1070
     1
1001
ACAD_DSTYLE_DIMJOGGED_JOGANGLE_SYMBOL
1070
   384
1040
0.7853981633974483
  0
DIMSTYLE
105
38A9
330
A
100
AcDbSymbolTableRecord
100
AcDbDimStyleTableRecord
  2
AM_ANSI$3
 70
     0
  4
mm
 41
0.1
 42
0.05
 43
0.5
 44
0.1
 47
0.1
 48
0.1
 78
     7
 79
     2
140
0.12
141
0.0
146
0.71
147
0.06
176
   256
177
   256
178
     2
274
     4
284
     7
288
     1
289
     0
340
11
371
    -1
372
    -1
1001
ACAD_DSTYLE_DIMARC_LENGTH_SYMBOL
1070
   379
1070
     1
1001
ACAD_DSTYLE_DIMJOGGED_JOGANGLE_SYMBOL
1070
   384
1040
0.7853981633974483
  0
DIMSTYLE
105
38AA
330
A
100
AcDbSymbolTableRecord
100
AcDbDimStyleTableRecord
  2
AM_ANSI$4
 70
     0
  4
mm
 41
0.1
 42
0.05
 43
0.5
 44
0.1
 47
0.1
 48
0.1
 78
     7
 79
     2
140
0.12
141
0.0
146
0.71
147
0.06
176
   256
177
   256
178
     2
274
     4
284
     7
288
     1
289
     0
340
11
371
    -1
372
    -1
1001
ACAD_DSTYLE_DIMARC_LENGTH_SYMBOL
1070
   379
1070
     1
1001
ACAD_DSTYLE_DIMJOGGED_JOGANGLE_SYMBOL
1070
   384
1040
0.7853981633974483
  0
DIMSTYLE
105
38AB
330
A
100
AcDbSymbolTableRecord
100
AcDbDimStyleTableRecord
  2
AM_ANSI$7
 70
     0
  4
mm
 41
0.1
 42
0.05
 43
0.5
 44
0.1
 47
0.1
 48
0.1
 78
     7
 79
     2
140
0.24
141
0.0
146
0.71
147
0.06
176
   256
177
   256
178
     2
274
     4
284
     7
340
11
371
    -1
372
    -1
1001
ACAD_DSTYLE_DIMARC_LENGTH_SYMBOL
1070
   379
1070
     1
1001
ACAD_DSTYLE_DIMJOGGED_JOGANGLE_SYMBOL
1070
   384
1040
0.7853981633974483
  0
DIMSTYLE
105
38AC
330
A
100
AcDbSymbolTableRecord
100
AcDbDimStyleTableRecord
  2
AM_ANSI$SF
 70
     0
  4
mm
 41
0.1
 42
0.05
 43
0.5
 44
0.1
 47
0.1
 48
0.1
 75
     1
 76
     1
 78
     7
 79
     2
140
0.12
141
0.0
146
0.71
147
0.06
176
   256
177
   256
178
     2
274
     4
284
     7
340
11
371
    -1
372
    -1
1001
ACAD_DSTYLE_DIMARC_LENGTH_SYMBOL
1070
   379
1070
     1
1001
ACAD_DSTYLE_DIMJOGGED_JOGANGLE_SYMBOL
1070
   384
1040
0.7853981633974483
  0
DIMSTYLE
105
38AD
330
A
100
AcDbSymbolTableRecord
100
AcDbDimStyleTableRecord
  2
AM_ANSI$SH
 70
     0
  4
mm
 41
0.1
 42
0.05
 43
0.5
 44
0.1
 47
0.1
 48
0.1
 75
     1
 76
     1
 78
     7
 79
     2
140
0.12
141
0.0
146
0.71
147
0.06
173
     1
176
   256
177
   256
178
     2
274
     4
284
     7
340
11
343
76
371
    -1
372
    -1
1001
ACAD_DSTYLE_DIMARC_LENGTH_SYMBOL
1070
   379
1070
     1
1001
ACAD_DSTYLE_DIMJOGGED_JOGANGLE_SYMBOL
1070
   384
1040
0.7853981633974483
  0
DIMSTYLE
105
4853
102
{ACAD_REACTORS
330
55AA
330
55A9
102
}
330
A
100
AcDbSymbolTableRecord
100
AcDbDimStyleTableRecord
  2
AM_DIN$0
 70
     0
  4
"
 41
2.5
 42
1.0
 43
10.0
 44
1.0
 47
0.1
 48
0.1
 73
     0
 74
     0
 77
     1
 78
     8
 79
     2
140
3.5
141
0.0
143
0.0393701
146
0.71
147
1.5
172
     1
176
   256
177
   256
178
     2
271
     2
272
     3
274
     4
283
     0
284
     8
340
11
371
    -1
372
    -1
1001
ACAD_DSTYLE_DIMARC_LENGTH_SYMBOL
1070
   379
1070
     0
1001
ACAD_DSTYLE_DIMJOGGED_JOGANGLE_SYMBOL
1070
   384
1040
1.570796326794896
  0
ENDTAB
  0
TABLE
  2
BLOCK_RECORD
  5
1
330
0
100
AcDbSymbolTable
 70
    19
  0
BLOCK_RECORD
  5
1F
102
{ACAD_XDICTIONARY
360
38D
102
}
330
1
100
AcDbSymbolTableRecord
100
AcDbBlockTableRecord
  2
*Model_Space
340
22
  0
BLOCK_RECORD
  5
1B
330
1
100
AcDbSymbolTableRecord
100
AcDbBlockTableRecord
  2
*Paper_Space
340
1E
  0
BLOCK_RECORD
  5
23
330
1
100
AcDbSymbolTableRecord
100
AcDbBlockTableRecord
  2
*Paper_Space0
340
26
  0
BLOCK_RECORD
  5
76
330
1
100
AcDbSymbolTableRecord
100
AcDbBlockTableRecord
  2
GENAXEH
340
0
  0
BLOCK_RECORD
  5
346F
330
1
100
AcDbSymbolTableRecord
100
AcDbBlockTableRecord
  2
*U6
340
0
  0
BLOCK_RECORD
  5
564F
330
1
100
AcDbSymbolTableRecord
100
AcDbBlockTableRecord
  2
*D16
340
0
  0
BLOCK_RECORD
  5
565B
330
1
100
AcDbSymbolTableRecord
100
AcDbBlockTableRecord
  2
*D17
340
0
  0
ENDTAB
  0
ENDSEC
  0
SECTION
  2
BLOCKS
  0
BLOCK
  5
20
330
1F
100
AcDbEntity
  8
0
100
AcDbBlockBegin
  2
*Model_Space
 70
     0
 10
0.0
 20
0.0
 30
0.0
  3
*Model_Space
  1

  0
ENDBLK
  5
21
330
1F
100
AcDbEntity
  8
0
100
AcDbBlockEnd
  0
BLOCK
  5
1C
330
1B
100
AcDbEntity
 67
     1
  8
0
100
AcDbBlockBegin
  2
*Paper_Space
 70
     0
 10
0.0
 20
0.0
 30
0.0
  3
*Paper_Space
  1

  0
ENDBLK
  5
1D
330
1B
100
AcDbEntity
 67
     1
  8
0
100
AcDbBlockEnd
  0
BLOCK
  5
24
330
23
100
AcDbEntity
 67
     1
  8
0
100
AcDbBlockBegin
  2
*Paper_Space0
 70
     0
 10
0.0
 20
0.0
 30
0.0
  3
*Paper_Space0
  1

  0
ENDBLK
  5
25
330
23
100
AcDbEntity
 67
     1
  8
0
100
AcDbBlockEnd
  0
BLOCK
  5
78
330
76
100
AcDbEntity
  8
0
100
AcDbBlockBegin
  2
GENAXEH
 70
     0
 10
0.0
 20
0.0
 30
0.0
  3
GENAXEH
  1

  0
LINE
  5
77
330
76
100
AcDbEntity
  8
0
100
AcDbLine
 10
-1.0
 20
0.0
 30
0.0
 11
1.0
 21
0.0
 31
0.0
  0
ENDBLK
  5
79
330
76
100
AcDbEntity
  8
0
100
AcDbBlockEnd
  0
BLOCK
  5
3470
330
346F
100
AcDbEntity
  8
0
100
AcDbBlockBegin
  2
*U6
 70
     1
 10
0.0
 20
0.0
 30
0.0
  3
*U6
  1

  0
ENDBLK
  5
3471
330
346F
100
AcDbEntity
  8
0
100
AcDbBlockEnd
  0
BLOCK
  5
5659
330
564F
100
AcDbEntity
  8
0
100
AcDbBlockBegin
  2
*D16
 70
     1
 10
0.0
 20
0.0
 30
0.0
  3
*D16
  1

  0
LINE
  5
591D
330
564F
100
AcDbEntity
  8
AM_5
100
AcDbLine
 10
179.0225660824007
 20
149.252079750179
 30
0.0
 11
226.5324307375181
 21
149.2520797501789
 31
0.0
  0
LINE
  5
591E
330
564F
100
AcDbEntity
  8
AM_5
100
AcDbLine
 10
195.0225660824007
 20
276.2520797501796
 30
0.0
 11
226.5324307375181
 21
276.2520797501796
 31
0.0
  0
LINE
  5
591F
330
564F
100
AcDbEntity
  8
AM_5
100
AcDbLine
 10
225.5324307375181
 20
156.252079750179
 30
0.0
 11
225.5324307375182
 21
269.2520797501796
 31
0.0
  0
SOLID
  5
5920
330
564F
100
AcDbEntity
  8
AM_5
100
AcDbTrace
 10
224.3657640708515
 20
156.252079750179
 30
0.0
 11
226.6990974041848
 21
156.252079750179
 31
0.0
 12
225.5324307375181
 22
149.2520797501789
 32
0.0
 13
225.5324307375181
 23
149.2520797501789
 33
0.0
  0
SOLID
  5
5921
330
564F
100
AcDbEntity
  8
AM_5
100
AcDbTrace
 10
224.3657640708515
 20
269.2520797501796
 30
0.0
 11
226.6990974041848
 21
269.2520797501796
 31
0.0
 12
225.5324307375182
 22
276.2520797501796
 32
0.0
 13
225.5324307375182
 23
276.2520797501796
 33
0.0
  0
MTEXT
  5
5922
330
564F
100
AcDbEntity
  8
AM_5
 62
     2
100
AcDbMText
 10
219.0314464855496
 20
212.7520797501794
 30
0.0
 40
10.0
 41
0.0
 71
     5
 72
     1
  1
127
 11
0.0000000000000001
 21
1.0
 31
0.0
 73
     1
 44
1.0
1001
ACAD
1000
MTEXTBEGIN
1070
    73
1070
     1
1070
    44
1040
1.0
1070
    74
1070
     0
1000
MTEXTEND
  0
POINT
  5
5923
330
564F
100
AcDbEntity
  8
Defpoints
 62
     0
100
AcDbPoint
 10
178.0225660824007
 20
149.252079750179
 30
0.0
  0
POINT
  5
5924
330
564F
100
AcDbEntity
  8
Defpoints
 62
     0
100
AcDbPoint
 10
194.0225660824007
 20
276.2520797501796
 30
0.0
  0
POINT
  5
5925
330
564F
100
AcDbEntity
  8
Defpoints
 62
     0
100
AcDbPoint
 10
225.5324307375182
 20
276.2520797501796
 30
0.0
  0
ENDBLK
  5
565A
330
564F
100
AcDbEntity
  8
0
100
AcDbBlockEnd
  0
BLOCK
  5
5665
330
565B
100
AcDbEntity
  8
0
100
AcDbBlockBegin
  2
*D17
 70
     1
 10
0.0
 20
0.0
 30
0.0
  3
*D17
  1

  0
LINE
  5
590B
330
565B
100
AcDbEntity
  8
AM_5
100
AcDbLine
 10
195.0225660824007
 20
275.2520797501796
 30
0.0
 11
195.0225660824007
 21
298.4125909177758
 31
0.0
  0
LINE
  5
590C
330
565B
100
AcDbEntity
  8
AM_5
100
AcDbLine
 10
68.02256608240071
 20
275.2520797501784
 30
0.0
 11
68.02256608240071
 21
298.4125909177758
 31
0.0
  0
LINE
  5
590D
330
565B
100
AcDbEntity
  8
AM_5
100
AcDbLine
 10
188.0225660824007
 20
297.4125909177758
 30
0.0
 11
75.02256608240071
 21
297.4125909177758
 31
0.0
  0
SOLID
  5
590E
330
565B
100
AcDbEntity
  8
AM_5
100
AcDbTrace
 10
188.0225660824007
 20
298.5792575844424
 30
0.0
 11
188.0225660824007
 21
296.2459242511091
 31
0.0
 12
195.0225660824007
 22
297.4125909177758
 32
0.0
 13
195.0225660824007
 23
297.4125909177758
 33
0.0
  0
SOLID
  5
590F
330
565B
100
AcDbEntity
  8
AM_5
100
AcDbTrace
 10
75.02256608240071
 20
298.5792575844424
 30
0.0
 11
75.02256608240071
 21
296.2459242511091
 31
0.0
 12
68.02256608240071
 22
297.4125909177758
 32
0.0
 13
68.02256608240071
 23
297.4125909177758
 33
0.0
  0
MTEXT
  5
5910
330
565B
100
AcDbEntity
  8
AM_5
 62
     2
100
AcDbMText
 10
131.8280394389576
 20
303.9135751697443
 30
0.0
 40
10.0
 41
0.0
 71
     5
 72
     1
  1
%%c127
 73
     1
 44
1.0
1001
ACAD
1000
MTEXTBEGIN
1070
    73
1070
     1
1070
    44
1040
1.0
1070
    74
1070
     0
1000
MTEXTEND
  0
POINT
  5
5911
330
565B
100
AcDbEntity
  8
Defpoints
 62
     0
100
AcDbPoint
 10
195.0225660824007
 20
274.2520797501796
 30
0.0
  0
POINT
  5
5912
330
565B
100
AcDbEntity
  8
Defpoints
 62
     0
100
AcDbPoint
 10
68.02256608240071
 20
274.2520797501784
 30
0.0
  0
POINT
  5
5913
330
565B
100
AcDbEntity
  8
Defpoints
 62
     0
100
AcDbPoint
 10
68.02256608240071
 20
297.4125909177758
 30
0.0
  0
ENDBLK
  5
5666
330
565B
100
AcDbEntity
  8
0
100
AcDbBlockEnd
  0
ENDSEC
  0
SECTION
  2
ENTITIES
  0
LINE
  5
5442
330
1F
100
AcDbEntity
  8
AM_INV
100
AcDbLine
 10
101.1373272894106
 20
39.50981616126183
 30
0.0
 11
98.6785931667759
 21
39.50981616126183
 31
0.0
1001
GENIUS_GENBH_13
1002
{
1000
ML
1040
10.14159265359
1002
}
1002
{
1000
OA
1000
0
1070
   256
1000
ByLayer
1005
10
1005
15
1071
       -1
1002
}
1001
GENIUS_GENOREF_13
1005
5647
1005
5646
  0
LINE
  5
5443
330
1F
100
AcDbEntity
  8
AM_INV
100
AcDbLine
 10
163.7771708396622
 20
39.50981616126183
 30
0.0
 11
161.3184367170275
 21
39.50981616126183
 31
0.0
1001
GENIUS_GENBH_13
1002
{
1000
ML
1040
11.14159265359
1002
}
1002
{
1000
OA
1000
0
1070
   256
1000
ByLayer
1005
10
1005
15
1071
       -1
1002
}
1001
GENIUS_GENOREF_13
1005
5647
1005
5645
1005
5644
  0
LINE
  5
5444
330
1F
100
AcDbEntity
  8
AM_INV
100
AcDbLine
 10
125.727882003219
 20
246.6225013396221
 30
0.0
 11
125.727882003219
 21
250.6100657743239
 31
0.0
1001
GENIUS_GENBH_13
1002
{
1000
OA
1000
0
1070
   256
1000
ByLayer
1005
10
1005
15
1071
       -1
1002
}
1001
GENIUS_GENOREF_13
1005
5643
  0
LINE
  5
5445
330
1F
100
AcDbEntity
  8
AM_INV
100
AcDbLine
 10
136.727882003219
 20
246.6225013396221
 30
0.0
 11
136.727882003219
 21
250.6100657743239
 31
0.0
1001
GENIUS_GENBH_13
1002
{
1000
OA
1000
0
1070
   256
1000
ByLayer
1005
10
1005
15
1071
       -1
1002
}
1001
GENIUS_GENOREF_13
1005
5643
  0
LINE
  5
5446
330
1F
100
AcDbEntity
  8
AM_INV
100
AcDbLine
 10
131.227882003219
 20
276.1447106817192
 30
0.0
 11
131.227882003219
 21
279.1447106817195
 31
0.0
1001
GENIUS_GENBH_13
1002
{
1000
OA
1000
0
1070
   256
1000
ByLayer
1005
10
1005
15
1071
       -1
1002
}
1001
GENIUS_GENOREF_13
1005
5642
  0
LINE
  5
5447
330
1F
100
AcDbEntity
  8
AM_INV
100
AcDbLine
 10
133.977882003219
 20
277.1447106817195
 30
0.0
 11
128.477882003219
 21
277.1447106817195
 31
0.0
1001
GENIUS_GENBH_13
1002
{
1000
OA
1000
0
1070
   256
1000
ByLayer
1005
10
1005
15
1071
       -1
1002
}
1001
GENIUS_GENOREF_13
1005
5642
  0
LINE
  5
5448
330
1F
100
AcDbEntity
  8
AM_INV
100
AcDbLine
 10
73.72788200321903
 20
259.4507484954207
 30
0.0
 11
73.72788200321903
 21
275.1447106817187
 31
0.0
1001
GENIUS_GENBH_13
1002
{
1000
ML
1040
12.14159265359
1002
}
1002
{
1000
OA
1000
0
1070
   256
1000
ByLayer
1005
10
1005
15
1071
       -1
1002
}
  0
LINE
  5
5449
330
1F
100
AcDbEntity
  8
AM_INV
100
AcDbLine
 10
73.72788200321903
 20
275.1447106817187
 30
0.0
 11
73.72788200321903
 21
279.1447106817188
 31
0.0
1001
GENIUS_GENBH_13
1002
{
1000
OA
1000
0
1070
   256
1000
ByLayer
1005
10
1005
15
1071
       -1
1002
}
  0
LINE
  5
544A
330
1F
100
AcDbEntity
  8
AM_INV
100
AcDbLine
 10
188.727882003219
 20
266.7485682585813
 30
0.0
 11
188.727882003219
 21
275.1447106817199
 31
0.0
1001
GENIUS_GENBH_13
1002
{
1000
ML
1040
13.14159265359
1002
}
1002
{
1000
OA
1000
0
1070
   256
1000
ByLayer
1005
10
1005
15
1071
       -1
1002
}
  0
LINE
  5
544B
330
1F
100
AcDbEntity
  8
AM_INV
100
AcDbLine
 10
188.727882003219
 20
275.1447106817199
 30
0.0
 11
188.727882003219
 21
279.1447106817198
 31
0.0
1001
GENIUS_GENBH_13
1002
{
1000
OA
1000
0
1070
   256
1000
ByLayer
1005
10
1005
15
1071
       -1
1002
}
  0
LINE
  5
544C
330
1F
100
AcDbEntity
  8
AM_INV
100
AcDbLine
 10
188.727882003219
 20
259.4535226089406
 30
0.0
 11
188.727882003219
 21
266.7485682585813
 31
0.0
1001
GENIUS_GENBH_13
1002
{
1000
ML
1040
14.14159265359
1002
}
1002
{
1000
OA
1000
0
1070
   256
1000
ByLayer
1005
10
1005
15
1071
       -1
1002
}
  0
LINE
  5
544D
330
1F
100
AcDbEntity
  8
AM_INV
100
AcDbLine
 10
72.22788200321904
 20
275.1447106817187
 30
0.0
 11
75.22788200321904
 21
275.1447106817187
 31
0.0
1001
GENIUS_GENBH_13
1002
{
1000
OA
1000
0
1070
   256
1000
ByLayer
1005
10
1005
15
1071
       -1
1002
}
1001
GENIUS_GENOREF_13
1005
0
1005
0
  0
LINE
  5
544E
330
1F
100
AcDbEntity
  8
AM_INV
100
AcDbLine
 10
70.97788200321904
 20
277.1447106817187
 30
0.0
 11
76.47788200321904
 21
277.1447106817188
 31
0.0
1001
GENIUS_GENBH_13
1002
{
1000
OA
1000
0
1070
   256
1000
ByLayer
1005
10
1005
15
1071
       -1
1002
}
  0
LINE
  5
544F
330
1F
100
AcDbEntity
  8
AM_INV
100
AcDbLine
 10
187.227882003219
 20
275.1447106817199
 30
0.0
 11
190.227882003219
 21
275.1447106817199
 31
0.0
1001
GENIUS_GENBH_13
1002
{
1000
OA
1000
0
1070
   256
1000
ByLayer
1005
10
1005
15
1071
       -1
1002
}
1001
GENIUS_GENOREF_13
1005
0
1005
0
  0
LINE
  5
5450
330
1F
100
AcDbEntity
  8
AM_INV
100
AcDbLine
 10
185.977882003219
 20
277.1447106817198
 30
0.0
 11
191.477882003219
 21
277.1447106817198
 31
0.0
1001
GENIUS_GENBH_13
1002
{
1000
OA
1000
0
1070
   256
1000
ByLayer
1005
10
1005
15
1071
       -1
1002
}
1001
GENIUS_GENOREF_13
1005
0
1005
0
  0
LINE
  5
5455
330
1F
100
AcDbEntity
  8
AM_0
100
AcDbLine
 10
126.227882334202
 20
245.8162836183098
 30
0.0
 11
128.227882334202
 21
245.8162836183098
 31
0.0
  0
CIRCLE
  5
5456
330
1F
100
AcDbEntity
  8
0
100
AcDbCircle
 10
131.227882003219
 20
57.25981616126182
 30
0.0
 40
63.5
  0
ELLIPSE
  5
5459
330
1F
100
AcDbEntity
  8
0
100
AcDbEllipse
 10
73.72788200321906
 20
57.25981616126182
 30
0.0
 11
0.1392991674613597
 21
4.0
 31
0.0
210
0.0
220
0.0
230
1.0
 40
0.9943971970899236
 41
0.0
 42
6.283185307179586
  0
ELLIPSE
  5
545A
330
1F
100
AcDbEntity
  8
0
100
AcDbEllipse
 10
131.2278820032191
 20
114.7598161612618
 30
0.0
 11
4.0
 21
-0.1392991674613597
 31
0.0
210
0.0
220
0.0
230
1.0
 40
0.9943971970899236
 41
0.0
 42
6.283185307179586
  0
ELLIPSE
  5
545B
330
1F
100
AcDbEntity
  8
0
100
AcDbEllipse
 10
188.727882003219
 20
57.25981616126182
 30
0.0
 11
-0.1392991674613597
 21
4.0
 31
0.0
210
0.0
220
0.0
230
1.0
 40
0.9943971970899236
 41
0.0
 42
6.283185307179586
  0
ELLIPSE
  5
545C
330
1F
100
AcDbEntity
  8
0
100
AcDbEllipse
 10
131.227882003219
 20
-0.2401838387381758
 30
0.0
 11
4.0
 21
0.1392991674613526
 31
0.0
210
0.0
220
0.0
230
1.0
 40
0.9943971970899236
 41
0.0
 42
6.283185307179586
  0
LINE
  5
5515
330
1F
100
AcDbEntity
  8
0
100
AcDbLine
 10
131.5225660824007
 20
275.252079750179
 30
0.0
 11
131.5225660824007
 21
278.2520797501792
 31
0.0
  0
LINE
  5
5516
330
1F
100
AcDbEntity
  8
0
100
AcDbLine
 10
76.5225660824007
 20
239.2520797501783
 30
0.0
 11
127.6984138463508
 21
239.2520797501789
 31
0.0
  0
LINE
  5
5517
330
1F
100
AcDbEntity
  8
0
100
AcDbLine
 10
162.7706461714867
 20
239.2520797501794
 30
0.0
 11
186.5264059042288
 21
239.2520797501797
 31
0.0
  0
LINE
  5
5518
330
1F
100
AcDbEntity
  8
SCHRAFFUR_RAND
100
AcDbLine
 10
171.5235660824007
 20
237.5023939683249
 30
0.0
 11
171.5235660824007
 21
200.752079750179
 31
0.0
  0
LINE
  5
5519
330
1F
100
AcDbEntity
  8
SCHRAFFUR_RAND
100
AcDbLine
 10
174.6885660824006
 20
224.426079750179
 30
0.0
 11
175.3535660824006
 21
225.4220797501791
 31
0.0
  0
LINE
  5
551A
330
1F
100
AcDbEntity
  8
SCHRAFFUR_RAND
100
AcDbLine
 10
91.52356608240069
 20
200.752079750179
 30
0.0
 11
91.52356608240067
 21
237.5022189909962
 31
0.0
  0
LINE
  5
551B
330
1F
100
AcDbEntity
  8
SCHRAFFUR_RAND
100
AcDbLine
 10
87.69656608240069
 20
225.425079750179
 30
0.0
 11
88.36256608240063
 21
224.4280797501789
 31
0.0
  0
ARC
  5
551C
330
1F
100
AcDbEntity
  8
0
100
AcDbCircle
 10
177.5225660824007
 20
223.252079750179
 30
0.0
 40
3.0
100
AcDbArc
 50
90.0
 51
180.0
  0
ARC
  5
551D
330
1F
100
AcDbEntity
  8
0
100
AcDbCircle
 10
85.52256608240071
 20
223.252079750179
 30
0.0
 40
3.0
100
AcDbArc
 50
0.0
 51
90.0
  0
LINE
  5
551E
330
1F
100
AcDbEntity
  8
7
100
AcDbLine
 10
131.5225664133836
 20
278.252079811516
 30
0.0
 11
131.5225664133836
 21
194.8266534050995
 31
0.0
  0
LINE
  5
551F
330
1F
100
AcDbEntity
  8
0
100
AcDbLine
 10
91.52256608240071
 20
237.541079750179
 30
0.0
 11
91.52256608240071
 21
200.752079750179
 31
0.0
  0
LINE
  5
5520
330
1F
100
AcDbEntity
  8
0
100
AcDbLine
 10
171.5225660824007
 20
237.5023939683249
 30
0.0
 11
171.5225660824007
 21
200.752079750179
 31
0.0
  0
LINE
  5
5521
330
1F
100
AcDbEntity
  8
0
100
AcDbLine
 10
84.02256641338363
 20
198.2520798115158
 30
0.0
 11
130.9022780615348
 21
198.2520798115158
 31
0.0
  0
LINE
  5
5522
330
1F
100
AcDbEntity
  8
0
100
AcDbLine
 10
135.4867717982993
 20
198.252079750179
 30
0.0
 11
179.0225660824007
 21
198.252079750179
 31
0.0
  0
LINE
  5
5523
330
1F
100
AcDbEntity
  8
0
100
AcDbLine
 10
84.02256641338363
 20
198.2520798115158
 30
0.0
 11
130.9022780615348
 21
198.2520798115158
 31
0.0
  0
LINE
  5
5524
330
1F
100
AcDbEntity
  8
0
100
AcDbLine
 10
135.4867717982993
 20
198.252079750179
 30
0.0
 11
179.0225660824007
 21
198.252079750179
 31
0.0
  0
HATCH
  5
5525
330
1F
100
AcDbEntity
  8
8
100
AcDbHatch
 10
0.0
 20
0.0
 30
0.0
210
0.0
220
0.0
230
1.0
  2
_U
 70
     0
 71
     0
 91
        1
 92
        1
 93
        4
 72
     1
 10
88.0225660824006
 20
196.252079750179
 11
88.02256608240064
 21
151.252079750179
 72
     1
 10
88.02256608240071
 20
151.252079750179
 11
90.52256608240069
 21
151.252079750179
 72
     1
 10
90.52256608240071
 20
151.252079750179
 11
90.52256608240069
 21
196.252079750179
 72
     1
 10
90.52256608240071
 20
196.252079750179
 11
88.02256608240069
 21
196.252079750179
 97
        0
 75
     0
 76
     0
 52
45.0
 41
2.0
 77
     0
 78
     1
 53
45.0
 43
-11.06851566111987
 44
-8.628920249821021
 45
-1.414213562373094
 46
1.414213562373095
 79
     0
 98
        1
 10
-11.06851566111987
 20
-8.628920249821021
1001
GENIUS_GENODEF_13
1002
{
1000
HIER
1070
     0
1002
}
1002
{
1000
MANEDIT
1070
     0
1002
}
1002
{
1000
NOSEL
1070
     0
1002
}
1002
{
1000
BEHIND
1070
     0
1002
}
1002
{
1000
REACTOR
1002
}
1001
GENIUS_GENOBJ-N-HTC_13
1002
{
1000
OWNER
1000
GEN
1002
}
1001
GENIUS_GENHATCH_13
1002
{
1000
DATA
1040
45.0
1042
2.0
1000
_U
1070
     0
1011
89.37094767272624
1021
183.6757538845811
1031
0.0
1002
}
1002
{
1000
UCS
1010
0.0
1020
0.0
1030
0.0
1010
1.0
1020
0.0
1030
0.0
1010
0.0
1020
1.0
1030
0.0
1002
}
  0
HATCH
  5
5526
330
1F
100
AcDbEntity
  8
8
100
AcDbHatch
 10
0.0
 20
0.0
 30
0.0
210
0.0
220
0.0
230
1.0
  2
_U
 70
     0
 71
     0
 91
        1
 92
        1
 93
        4
 72
     1
 10
88.02256608240071
 20
151.252079750179
 11
88.02256608240067
 21
196.252079750179
 72
     1
 10
88.0225660824006
 20
196.252079750179
 11
85.52256608240059
 21
196.252079750179
 72
     1
 10
85.5225660824006
 20
196.252079750179
 11
85.52256608240066
 21
151.252079750179
 72
     1
 10
85.52256608240071
 20
151.252079750179
 11
88.02256608240071
 21
151.252079750179
 97
        0
 75
     0
 76
     0
 52
135.0
 41
2.0
 77
     0
 78
     1
 53
135.0
 43
-11.06851566111987
 44
-8.628920249821021
 45
-1.414213562373095
 46
-1.414213562373094
 79
     0
 98
        1
 10
-11.06851566111987
 20
-8.628920249821021
1001
GENIUS_GENODEF_13
1002
{
1000
HIER
1070
     0
1002
}
1002
{
1000
MANEDIT
1070
     0
1002
}
1002
{
1000
NOSEL
1070
     0
1002
}
1002
{
1000
BEHIND
1070
     0
1002
}
1002
{
1000
REACTOR
1002
}
1001
GENIUS_GENOBJ-N-HTC_13
1002
{
1000
OWNER
1000
GEN
1002
}
1001
GENIUS_GENHATCH_13
1002
{
1000
DATA
1040
135.0
1042
2.7
1000
_U
1070
     0
1011
86.47078402651317
1021
176.617980768618
1031
0.0
1002
}
1002
{
1000
UCS
1010
0.0
1020
0.0
1030
0.0
1010
1.0
1020
0.0
1030
0.0
1010
0.0
1020
1.0
1030
0.0
1002
}
  0
HATCH
  5
5527
330
1F
100
AcDbEntity
  8
8
100
AcDbHatch
 10
0.0
 20
0.0
 30
0.0
210
0.0
220
0.0
230
1.0
  2
_U
 70
     0
 71
     0
 91
        1
 92
        1
 93
        6
 72
     2
 10
92.52256608240072
 20
151.752079750179
 40
0.5
 50
270.0000000000017
 51
360.0
 73
     1
 72
     1
 10
93.02256608240071
 20
151.752079750179
 11
93.02256608240069
 21
195.752079750179
 72
     2
 10
92.52256608240072
 20
195.752079750179
 40
0.5
 50
0.0
 51
90.00000000000161
 73
     1
 72
     1
 10
92.5225660824006
 20
196.252079750179
 11
90.52256608240062
 21
196.252079750179
 72
     1
 10
90.52256608240071
 20
196.252079750179
 11
90.52256608240073
 21
151.252079750179
 72
     1
 10
90.52256608240071
 20
151.252079750179
 11
92.52256608240072
 21
151.252079750179
 97
        0
 75
     0
 76
     0
 52
135.0
 41
2.0
 77
     0
 78
     1
 53
135.0
 43
-11.06851566111987
 44
-8.628920249821021
 45
-1.414213562373095
 46
-1.414213562373094
 79
     0
 98
        1
 10
-11.06851566111987
 20
-8.628920249821021
1001
GENIUS_GENODEF_13
1002
{
1000
HIER
1070
     0
1002
}
1002
{
1000
MANEDIT
1070
     0
1002
}
1002
{
1000
NOSEL
1070
     0
1002
}
1002
{
1000
BEHIND
1070
     0
1002
}
1002
{
1000
REACTOR
1002
}
1001
GENIUS_GENOBJ-N-HTC_13
1002
{
1000
OWNER
1000
GEN
1002
}
1001
GENIUS_GENHATCH_13
1002
{
1000
DATA
1040
135.0
1042
2.5
1000
_U
1070
     0
1011
91.6406445617626
1021
181.5332159599649
1031
0.0
1002
}
1002
{
1000
UCS
1010
0.0
1020
0.0
1030
0.0
1010
1.0
1020
0.0
1030
0.0
1010
0.0
1020
1.0
1030
0.0
1002
}
  0
LINE
  5
5528
330
1F
100
AcDbEntity
  8
0
100
AcDbLine
 10
85.52256608240071
 20
151.252079750179
 30
0.0
 11
85.5225660824006
 21
196.252079750179
 31
0.0
  0
LINE
  5
5529
330
1F
100
AcDbEntity
  8
0
100
AcDbLine
 10
88.02256608240071
 20
151.252079750179
 30
0.0
 11
88.0225660824006
 21
196.252079750179
 31
0.0
  0
LINE
  5
552A
330
1F
100
AcDbEntity
  8
0
100
AcDbLine
 10
90.52256608240071
 20
151.252079750179
 30
0.0
 11
90.52256608240071
 21
196.252079750179
 31
0.0
  0
LINE
  5
552B
330
1F
100
AcDbEntity
  8
0
100
AcDbLine
 10
95.02256608240072
 20
151.252079750179
 30
0.0
 11
95.02256608240072
 21
196.252079750179
 31
0.0
  0
LINE
  5
552C
330
1F
100
AcDbEntity
  8
0
100
AcDbLine
 10
93.02256608240071
 20
151.752079750179
 30
0.0
 11
93.02256608240071
 21
195.752079750179
 31
0.0
  0
HATCH
  5
552D
330
1F
100
AcDbEntity
  8
8
100
AcDbHatch
 10
0.0
 20
0.0
 30
0.0
210
0.0
220
0.0
230
1.0
  2
_U
 70
     0
 71
     0
 91
        1
 92
        1
 93
       12
 72
     1
 10
92.52256608240072
 20
151.252079750179
 11
85.02256608240072
 21
151.252079750179
 72
     1
 10
85.02256608240072
 20
151.252079750179
 11
85.02256608240072
 21
149.252079750179
 72
     1
 10
85.02256608240072
 20
149.252079750179
 11
93.02256608240071
 21
149.252079750179
 72
     2
 10
93.02256608240071
 20
151.252079750179
 40
2.0
 50
270.0
 51
360.0
 73
     1
 72
     1
 10
95.02256608240072
 20
151.252079750179
 11
95.02256608240072
 21
196.252079750179
 72
     2
 10
93.02256608240071
 20
196.252079750179
 40
2.0
 50
360.0
 51
450.0
 73
     1
 72
     1
 10
93.02256608240071
 20
198.252079750179
 11
84.02256608240071
 21
198.252079750179
 72
     1
 10
84.02256608240071
 20
198.252079750179
 11
84.02256608240071
 21
196.252079750179
 72
     1
 10
84.02256608240071
 20
196.252079750179
 11
92.52256608240069
 21
196.252079750179
 72
     2
 10
92.52256608240072
 20
195.752079750179
 40
0.5
 50
270.0
 51
360.0
 73
     0
 72
     1
 10
93.02256608240071
 20
195.752079750179
 11
93.02256608240075
 21
151.752079750179
 72
     2
 10
92.52256608240072
 20
151.752079750179
 40
0.5
 50
0.0
 51
90.0
 73
     0
 97
        0
 75
     0
 76
     0
 52
225.0
 41
2.7
 77
     0
 78
     1
 53
225.0
 43
156.3132734077488
 44
-20.55816735316552
 45
1.909188309203678
 46
-1.909188309203678
 79
     0
 98
        1
 10
156.3132734077488
 20
-20.55816735316552
1001
GENIUS_GENODEF_13
1002
{
1000
HIER
1070
     0
1002
}
1002
{
1000
MANEDIT
1070
     0
1002
}
1002
{
1000
NOSEL
1070
     0
1002
}
1002
{
1000
BEHIND
1070
     0
1002
}
1002
{
1000
REACTOR
1002
}
1001
GENIUS_GENOBJ-N-HTC_13
1002
{
1000
OWNER
1000
GEN
1002
}
1001
GENIUS_GENHATCH_13
1002
{
1000
DATA
1040
135.0
1042
2.7
1000
_U
1070
     0
1011
93.8836061215672
1021
165.4147688943569
1031
0.0
1002
}
1002
{
1000
UCS
1010
0.0
1020
0.0
1030
0.0
1010
1.0
1020
0.0
1030
0.0
1010
0.0
1020
1.0
1030
0.0
1002
}
  0
LINE
  5
552E
330
1F
100
AcDbEntity
  8
0
100
AcDbLine
 10
85.02256608240072
 20
151.252079750179
 30
0.0
 11
92.52256608240072
 21
151.252079750179
 31
0.0
  0
ARC
  5
552F
330
1F
100
AcDbEntity
  8
0
100
AcDbCircle
 10
93.02256608240071
 20
151.252079750179
 30
0.0
 40
2.0
100
AcDbArc
 50
270.0
 51
0.0
1001
GENIUS_GENODEF_13
1002
{
1000
HIER
1070
     0
1002
}
1002
{
1000
MANEDIT
1070
     0
1002
}
1002
{
1000
NOSEL
1070
     0
1002
}
1002
{
1000
BEHIND
1070
     0
1002
}
1002
{
1000
REACTOR
1002
}
1001
GENIUS_GENOBJ-N-FIL_13
1002
{
1000
OWNER
1000
GEN
1002
}
  0
ARC
  5
5530
330
1F
100
AcDbEntity
  8
0
100
AcDbCircle
 10
92.52256608240072
 20
151.752079750179
 30
0.0
 40
0.5
100
AcDbArc
 50
270.0
 51
0.0
1001
GENIUS_GENODEF_13
1002
{
1000
HIER
1070
     0
1002
}
1002
{
1000
MANEDIT
1070
     0
1002
}
1002
{
1000
NOSEL
1070
     0
1002
}
1002
{
1000
BEHIND
1070
     0
1002
}
1002
{
1000
REACTOR
1002
}
1001
GENIUS_GENOBJ-N-FIL_13
1002
{
1000
OWNER
1000
GEN
1002
}
  0
LINE
  5
5533
330
1F
100
AcDbEntity
  8
SCHRAFFUR_RAND
100
AcDbLine
 10
85.95456608240073
 20
201.800079750179
 30
0.0
 11
84.02356608240069
 21
201.252079750179
 31
0.0
  0
ARC
  5
5534
330
1F
100
AcDbEntity
  8
0
100
AcDbCircle
 10
83.52256608240072
 20
206.252079750179
 30
0.0
 40
5.0
100
AcDbArc
 50
275.7389999999998
 51
53.13000000000052
  0
LINE
  5
5535
330
1F
100
AcDbEntity
  8
0
100
AcDbLine
 10
84.02256608240071
 20
196.252079750179
 30
0.0
 11
92.52256608240072
 21
196.252079750179
 31
0.0
  0
ARC
  5
5536
330
1F
100
AcDbEntity
  8
0
100
AcDbCircle
 10
89.02256608240071
 20
200.752079750179
 30
0.0
 40
2.5
100
AcDbArc
 50
270.0
 51
0.0
  0
LINE
  5
5537
330
1F
100
AcDbEntity
  8
SCHRAFFUR_RAND
100
AcDbLine
 10
84.02356608240069
 20
198.252079750179
 30
0.0
 11
89.02356608240069
 21
198.252079750179
 31
0.0
  0
LINE
  5
5538
330
1F
100
AcDbEntity
  8
0
100
AcDbLine
 10
84.02256608240071
 20
198.252079750179
 30
0.0
 11
89.02256608240071
 21
198.252079750179
 31
0.0
  0
LINE
  5
5539
330
1F
100
AcDbEntity
  8
SCHRAFFUR_RAND
100
AcDbLine
 10
84.02356608240069
 20
201.252079750179
 30
0.0
 11
84.02356608240069
 21
198.252079750179
 31
0.0
  0
LINE
  5
553A
330
1F
100
AcDbEntity
  8
0
100
AcDbLine
 10
84.02256608240071
 20
198.252079750179
 30
0.0
 11
84.02256608240071
 21
201.252079750179
 31
0.0
  0
LINE
  5
553B
330
1F
100
AcDbEntity
  8
0
100
AcDbLine
 10
84.02256608240071
 20
196.252079750179
 30
0.0
 11
84.02256608240071
 21
198.252079750179
 31
0.0
  0
LINE
  5
553C
330
1F
100
AcDbEntity
  8
SCHRAFFUR_RAND
100
AcDbLine
 10
90.30956608240074
 20
198.5240797501789
 30
0.0
 11
91.25156608240075
 21
199.4660797501789
 31
0.0
  0
LINE
  5
553D
330
1F
100
AcDbEntity
  8
SCHRAFFUR_RAND
100
AcDbLine
 10
89.02356608240069
 20
198.252079750179
 30
0.0
 11
90.30956608240074
 21
198.5240797501789
 31
0.0
  0
LINE
  5
553E
330
1F
100
AcDbEntity
  8
SCHRAFFUR_RAND
100
AcDbLine
 10
91.25156608240075
 20
199.4660797501789
 30
0.0
 11
91.52356608240069
 21
200.752079750179
 31
0.0
  0
ARC
  5
553F
330
1F
100
AcDbEntity
  8
0
100
AcDbCircle
 10
92.5225660824006
 20
195.752079750179
 30
0.0
 40
0.5
100
AcDbArc
 50
0.0
 51
90.0
1001
GENIUS_GENODEF_13
1002
{
1000
HIER
1070
     0
1002
}
1002
{
1000
MANEDIT
1070
     0
1002
}
1002
{
1000
NOSEL
1070
     0
1002
}
1002
{
1000
BEHIND
1070
     0
1002
}
1002
{
1000
REACTOR
1002
}
1001
GENIUS_GENOBJ-N-FIL_13
1002
{
1000
OWNER
1000
GEN
1002
}
  0
ARC
  5
5540
330
1F
100
AcDbEntity
  8
0
100
AcDbCircle
 10
93.02256608240071
 20
196.252079750179
 30
0.0
 40
2.0
100
AcDbArc
 50
0.0
 51
90.0
1001
GENIUS_GENODEF_13
1002
{
1000
HIER
1070
     0
1002
}
1002
{
1000
MANEDIT
1070
     0
1002
}
1002
{
1000
NOSEL
1070
     0
1002
}
1002
{
1000
BEHIND
1070
     0
1002
}
1002
{
1000
REACTOR
1002
}
1001
GENIUS_GENOBJ-N-FIL_13
1002
{
1000
OWNER
1000
GEN
1002
}
  0
LINE
  5
5541
330
1F
100
AcDbEntity
  8
0
100
AcDbLine
 10
83.52256608240072
 20
201.7978019082761
 30
0.0
 11
85.94653959934527
 21
201.7978019082761
 31
0.0
  0
LINE
  5
5542
330
1F
100
AcDbEntity
  8
0
100
AcDbLine
 10
83.52256608240072
 20
210.7063575920818
 30
0.0
 11
86.52256608240071
 21
210.7063575920818
 31
0.0
  0
HATCH
  5
5543
330
1F
100
AcDbEntity
  8
8
100
AcDbHatch
 10
0.0
 20
0.0
 30
0.0
210
0.0
220
0.0
230
1.0
  2
_U
 70
     0
 71
     0
 91
        1
 92
        1
 93
        2
 72
     2
 10
83.52256608240059
 20
206.2520797501792
 40
4.454277841902744
 50
191.4591559026199
 51
549.5410683445268
 73
     1
 72
     2
 10
83.52256608240059
 20
206.2520797501792
 40
4.454277841902833
 50
189.541068344527
 51
191.45915590262
 73
     1
 97
        0
 75
     0
 76
     0
 52
45.0
 41
2.299999999999999
 77
     1
 78
     2
 53
45.0
 43
21.23513512211679
 44
76.48558273774597
 45
-1.626345596729059
 46
1.626345596729059
 79
     0
 53
135.0
 43
21.23513512211679
 44
76.48558273774597
 45
-1.626345596729059
 46
-1.626345596729058
 79
     0
 98
        1
 10
21.23513512211679
 20
76.48558273774597
1001
GENIUS_GENODEF_13
1002
{
1000
HIER
1070
     0
1002
}
1002
{
1000
MANEDIT
1070
     0
1002
}
1002
{
1000
NOSEL
1070
     0
1002
}
1002
{
1000
BEHIND
1070
     0
1002
}
1002
{
1000
REACTOR
1002
}
1001
GENIUS_GENOBJ-N-HTC_13
1002
{
1000
OWNER
1000
GEN
1002
}
1001
GENIUS_GENHATCH_13
1002
{
1000
DATA
1040
45.0
1042
2.299999999999999
1000
_U
1070
     1
1011
82.62272979434323
1021
206.1008356738288
1031
0.0
1002
}
1002
{
1000
UCS
1010
0.0
1020
0.0
1030
0.0
1010
1.0
1020
0.0
1030
0.0
1010
0.0
1020
1.0
1030
0.0
1002
}
  0
CIRCLE
  5
5544
330
1F
100
AcDbEntity
  8
0
100
AcDbCircle
 10
83.52256608240072
 20
206.252079750179
 30
0.0
 40
4.454277841902841
  0
LINE
  5
5545
330
1F
100
AcDbEntity
  8
SCHRAFFUR_RAND
100
AcDbLine
 10
86.52356608240069
 20
217.252079750179
 30
0.0
 11
86.52356608240069
 21
210.252079750179
 31
0.0
  0
LINE
  5
5546
330
1F
100
AcDbEntity
  8
0
100
AcDbLine
 10
86.52256608240071
 20
217.252079750179
 30
0.0
 11
86.52256608240071
 21
210.252079750179
 31
0.0
  0
LINE
  5
5547
330
1F
100
AcDbEntity
  8
SCHRAFFUR_RAND
100
AcDbLine
 10
87.90656608240073
 20
208.8060797501791
 30
0.0
 11
88.55456608240064
 21
206.9000797501789
 31
0.0
  0
LINE
  5
5548
330
1F
100
AcDbEntity
  8
SCHRAFFUR_RAND
100
AcDbLine
 10
88.41056608240064
 20
204.8910797501789
 30
0.0
 11
87.49556608240068
 21
203.0960797501791
 31
0.0
  0
LINE
  5
5549
330
1F
100
AcDbEntity
  8
SCHRAFFUR_RAND
100
AcDbLine
 10
87.49556608240068
 20
203.0960797501791
 30
0.0
 11
85.95456608240073
 21
201.800079750179
 31
0.0
  0
LINE
  5
554A
330
1F
100
AcDbEntity
  8
SCHRAFFUR_RAND
100
AcDbLine
 10
88.55456608240064
 20
206.9000797501789
 30
0.0
 11
88.41056608240064
 21
204.8910797501789
 31
0.0
  0
LINE
  5
554B
330
1F
100
AcDbEntity
  8
SCHRAFFUR_RAND
100
AcDbLine
 10
86.52356608240069
 20
210.252079750179
 30
0.0
 11
87.90656608240073
 21
208.8060797501791
 31
0.0
  0
LINE
  5
554C
330
1F
100
AcDbEntity
  8
SCHRAFFUR_RAND
100
AcDbLine
 10
88.5235660824007
 20
219.252079750179
 30
0.0
 11
86.52356608240069
 21
217.252079750179
 31
0.0
  0
LINE
  5
554D
330
1F
100
AcDbEntity
  8
0
100
AcDbLine
 10
86.52256608240071
 20
217.252079750179
 30
0.0
 11
88.52256608240072
 21
219.252079750179
 31
0.0
  0
LINE
  5
554E
330
1F
100
AcDbEntity
  8
SCHRAFFUR_RAND
100
AcDbLine
 10
88.5235660824007
 20
223.252079750179
 30
0.0
 11
88.5235660824007
 21
219.252079750179
 31
0.0
  0
LINE
  5
554F
330
1F
100
AcDbEntity
  8
0
100
AcDbLine
 10
88.52256608240072
 20
223.252079750179
 30
0.0
 11
88.52256608240072
 21
219.252079750179
 31
0.0
  0
LINE
  5
5550
330
1F
100
AcDbEntity
  8
SCHRAFFUR_RAND
100
AcDbLine
 10
88.36256608240063
 20
224.4280797501789
 30
0.0
 11
88.5235660824007
 21
223.252079750179
 31
0.0
  0
LINE
  5
5551
330
1F
100
AcDbEntity
  8
7
100
AcDbLine
 10
131.5225664133836
 20
148.2103009648412
 30
0.0
 11
131.5225664133836
 21
199.8944299925876
 31
0.0
  0
HATCH
  5
5552
330
1F
100
AcDbEntity
  8
8
100
AcDbHatch
 10
0.0
 20
0.0
 30
0.0
210
0.0
220
0.0
230
1.0
  2
_U
 70
     0
 71
     0
 91
        1
 92
        1
 93
        4
 72
     1
 10
175.0225660824007
 20
196.252079750179
 11
175.0225660824007
 21
151.252079750179
 72
     1
 10
175.0225660824007
 20
151.252079750179
 11
177.5225660824007
 21
151.252079750179
 72
     1
 10
177.5225660824007
 20
151.252079750179
 11
177.5225660824006
 21
196.252079750179
 72
     1
 10
177.5225660824007
 20
196.252079750179
 11
175.0225660824007
 21
196.252079750179
 97
        0
 75
     0
 76
     0
 52
135.0
 41
2.0
 77
     0
 78
     1
 53
135.0
 43
-11.06851566111987
 44
-8.628920249821021
 45
-1.414213562373095
 46
-1.414213562373094
 79
     0
 98
        1
 10
-11.06851566111987
 20
-8.628920249821021
1001
GENIUS_GENODEF_13
1002
{
1000
HIER
1070
     0
1002
}
1002
{
1000
MANEDIT
1070
     0
1002
}
1002
{
1000
NOSEL
1070
     0
1002
}
1002
{
1000
BEHIND
1070
     0
1002
}
1002
{
1000
REACTOR
1002
}
1001
GENIUS_GENOBJ-N-HTC_13
1002
{
1000
OWNER
1000
GEN
1002
}
1001
GENIUS_GENHATCH_13
1002
{
1000
DATA
1040
135.0
1042
2.0
1000
_U
1070
     0
1011
176.6280985125617
1021
181.911310974684
1031
0.0
1002
}
1002
{
1000
UCS
1010
0.0
1020
0.0
1030
0.0
1010
1.0
1020
0.0
1030
0.0
1010
0.0
1020
1.0
1030
0.0
1002
}
  0
HATCH
  5
5553
330
1F
100
AcDbEntity
  8
8
100
AcDbHatch
 10
0.0
 20
0.0
 30
0.0
210
0.0
220
0.0
230
1.0
  2
_U
 70
     0
 71
     0
 91
        1
 92
        1
 93
        6
 72
     2
 10
170.5225660824007
 20
195.752079750179
 40
0.5
 50
90.0
 51
180.0
 73
     1
 72
     1
 10
170.0225660824007
 20
195.752079750179
 11
170.0225660824007
 21
151.752079750179
 72
     2
 10
170.5225660824007
 20
151.752079750179
 40
0.5
 50
180.0
 51
270.0
 73
     1
 72
     1
 10
170.5225660824007
 20
151.252079750179
 11
172.5225660824007
 21
151.252079750179
 72
     1
 10
172.5225660824007
 20
151.252079750179
 11
172.5225660824007
 21
196.252079750179
 72
     1
 10
172.5225660824007
 20
196.252079750179
 11
170.5225660824007
 21
196.252079750179
 97
        0
 75
     0
 76
     0
 52
135.0
 41
2.0
 77
     0
 78
     1
 53
135.0
 43
-11.06851566111987
 44
-8.628920249821021
 45
-1.414213562373095
 46
-1.414213562373094
 79
     0
 98
        1
 10
-11.06851566111987
 20
-8.628920249821021
1001
GENIUS_GENODEF_13
1002
{
1000
HIER
1070
     0
1002
}
1002
{
1000
MANEDIT
1070
     0
1002
}
1002
{
1000
NOSEL
1070
     0
1002
}
1002
{
1000
BEHIND
1070
     0
1002
}
1002
{
1000
REACTOR
1002
}
1001
GENIUS_GENOBJ-N-HTC_13
1002
{
1000
OWNER
1000
GEN
1002
}
1001
GENIUS_GENHATCH_13
1002
{
1000
DATA
1040
135.0
1042
2.7
1000
_U
1070
     0
1011
171.3321437056992
1021
175.8617907391801
1031
0.0
1002
}
1002
{
1000
UCS
1010
0.0
1020
0.0
1030
0.0
1010
1.0
1020
0.0
1030
0.0
1010
0.0
1020
1.0
1030
0.0
1002
}
  0
HATCH
  5
5554
330
1F
100
AcDbEntity
  8
8
100
AcDbHatch
 10
0.0
 20
0.0
 30
0.0
210
0.0
220
0.0
230
1.0
  2
_U
 70
     0
 71
     0
 91
        1
 92
        1
 93
        4
 72
     1
 10
175.0225660824007
 20
151.252079750179
 11
175.0225660824007
 21
196.252079750179
 72
     1
 10
175.0225660824007
 20
196.252079750179
 11
172.5225660824007
 21
196.252079750179
 72
     1
 10
172.5225660824007
 20
196.252079750179
 11
172.5225660824007
 21
151.252079750179
 72
     1
 10
172.5225660824007
 20
151.252079750179
 11
175.0225660824007
 21
151.252079750179
 97
        0
 75
     0
 76
     0
 52
45.0
 41
2.5
 77
     0
 78
     1
 53
45.0
 43
-11.06851566111987
 44
-8.628920249821021
 45
-1.767766952966368
 46
1.767766952966368
 79
     0
 98
        1
 10
-11.06851566111987
 20
-8.628920249821021
1001
GENIUS_GENODEF_13
1002
{
1000
HIER
1070
     0
1002
}
1002
{
1000
MANEDIT
1070
     0
1002
}
1002
{
1000
NOSEL
1070
     0
1002
}
1002
{
1000
BEHIND
1070
     0
1002
}
1002
{
1000
REACTOR
1002
}
1001
GENIUS_GENOBJ-N-HTC_13
1002
{
1000
OWNER
1000
GEN
1002
}
1001
GENIUS_GENHATCH_13
1002
{
1000
DATA
1040
45.0
1042
2.5
1000
_U
1070
     0
1011
173.475744022678
1021
180.2728987521101
1031
0.0
1002
}
1002
{
1000
UCS
1010
0.0
1020
0.0
1030
0.0
1010
1.0
1020
0.0
1030
0.0
1010
0.0
1020
1.0
1030
0.0
1002
}
  0
LINE
  5
5555
330
1F
100
AcDbEntity
  8
0
100
AcDbLine
 10
172.5225660824007
 20
151.252079750179
 30
0.0
 11
172.5225660824007
 21
196.252079750179
 31
0.0
  0
LINE
  5
5556
330
1F
100
AcDbEntity
  8
0
100
AcDbLine
 10
175.0225660824007
 20
151.252079750179
 30
0.0
 11
175.0225660824007
 21
196.252079750179
 31
0.0
  0
LINE
  5
5557
330
1F
100
AcDbEntity
  8
0
100
AcDbLine
 10
177.5225660824007
 20
151.252079750179
 30
0.0
 11
177.5225660824007
 21
196.252079750179
 31
0.0
  0
LINE
  5
5558
330
1F
100
AcDbEntity
  8
0
100
AcDbLine
 10
168.0225660824007
 20
151.252079750179
 30
0.0
 11
168.0225660824007
 21
196.252079750179
 31
0.0
  0
LINE
  5
5559
330
1F
100
AcDbEntity
  8
0
100
AcDbLine
 10
170.0225660824007
 20
151.752079750179
 30
0.0
 11
170.0225660824007
 21
195.752079750179
 31
0.0
  0
HATCH
  5
555A
330
1F
100
AcDbEntity
  8
8
100
AcDbHatch
 10
0.0
 20
0.0
 30
0.0
210
0.0
220
0.0
230
1.0
  2
_U
 70
     0
 71
     0
 91
        1
 92
        1
 93
       12
 72
     1
 10
170.5225660824007
 20
196.252079750179
 11
179.0225660824007
 21
196.252079750179
 72
     1
 10
179.0225660824007
 20
196.252079750179
 11
179.0225660824007
 21
198.252079750179
 72
     1
 10
179.0225660824007
 20
198.252079750179
 11
170.0225660824007
 21
198.252079750179
 72
     2
 10
170.0225660824007
 20
196.252079750179
 40
2.0
 50
90.0
 51
180.0
 73
     1
 72
     1
 10
168.0225660824007
 20
196.252079750179
 11
168.0225660824007
 21
151.252079750179
 72
     2
 10
170.0225660824007
 20
151.252079750179
 40
2.0
 50
180.0
 51
270.0
 73
     1
 72
     1
 10
170.0225660824007
 20
149.252079750179
 11
178.0225660824007
 21
149.252079750179
 72
     1
 10
178.0225660824007
 20
149.252079750179
 11
178.0225660824007
 21
151.252079750179
 72
     1
 10
178.0225660824007
 20
151.252079750179
 11
170.5225660824007
 21
151.252079750179
 72
     2
 10
170.5225660824007
 20
151.752079750179
 40
0.5
 50
90.0
 51
180.0
 73
     0
 72
     1
 10
170.0225660824007
 20
151.752079750179
 11
170.0225660824007
 21
195.752079750179
 72
     2
 10
170.5225660824007
 20
195.752079750179
 40
0.5
 50
180.0
 51
270.0000000000002
 73
     0
 97
        0
 75
     0
 76
     0
 52
225.0
 41
2.7
 77
     0
 78
     1
 53
225.0
 43
156.3132734077488
 44
-20.55816735316552
 45
1.909188309203678
 46
-1.909188309203678
 79
     0
 98
        1
 10
156.3132734077488
 20
-20.55816735316552
1001
GENIUS_GENODEF_13
1002
{
1000
HIER
1070
     0
1002
}
1002
{
1000
MANEDIT
1070
     0
1002
}
1002
{
1000
NOSEL
1070
     0
1002
}
1002
{
1000
BEHIND
1070
     0
1002
}
1002
{
1000
REACTOR
1002
}
1001
GENIUS_GENOBJ-N-HTC_13
1002
{
1000
OWNER
1000
GEN
1002
}
1001
GENIUS_GENHATCH_13
1002
{
1000
DATA
1040
135.0
1042
2.7
1000
_U
1070
     0
1011
169.1004770354445
1021
173.2685803844314
1031
0.0
1002
}
1002
{
1000
UCS
1010
0.0
1020
0.0
1030
0.0
1010
1.0
1020
0.0
1030
0.0
1010
0.0
1020
1.0
1030
0.0
1002
}
  0
LINE
  5
555B
330
1F
100
AcDbEntity
  8
0
100
AcDbLine
 10
170.5225660824007
 20
151.252079750179
 30
0.0
 11
178.0225660824007
 21
151.252079750179
 31
0.0
  0
ARC
  5
555C
330
1F
100
AcDbEntity
  8
0
100
AcDbCircle
 10
170.0225660824007
 20
151.252079750179
 30
0.0
 40
2.0
100
AcDbArc
 50
180.0
 51
270.0
1001
GENIUS_GENODEF_13
1002
{
1000
HIER
1070
     0
1002
}
1002
{
1000
MANEDIT
1070
     0
1002
}
1002
{
1000
NOSEL
1070
     0
1002
}
1002
{
1000
BEHIND
1070
     0
1002
}
1002
{
1000
REACTOR
1002
}
1001
GENIUS_GENOBJ-N-FIL_13
1002
{
1000
OWNER
1000
GEN
1002
}
  0
ARC
  5
555D
330
1F
100
AcDbEntity
  8
0
100
AcDbCircle
 10
170.5225660824007
 20
151.752079750179
 30
0.0
 40
0.5
100
AcDbArc
 50
180.0
 51
270.0
1001
GENIUS_GENODEF_13
1002
{
1000
HIER
1070
     0
1002
}
1002
{
1000
MANEDIT
1070
     0
1002
}
1002
{
1000
NOSEL
1070
     0
1002
}
1002
{
1000
BEHIND
1070
     0
1002
}
1002
{
1000
REACTOR
1002
}
1001
GENIUS_GENOBJ-N-FIL_13
1002
{
1000
OWNER
1000
GEN
1002
}
  0
LINE
  5
555E
330
1F
100
AcDbEntity
  8
SCHRAFFUR_RAND
100
AcDbLine
 10
179.0235660824007
 20
201.252079750179
 30
0.0
 11
177.0945660824006
 21
201.8040797501789
 31
0.0
  0
ARC
  5
555F
330
1F
100
AcDbEntity
  8
0
100
AcDbCircle
 10
179.5225660824007
 20
206.252079750179
 30
0.0
 40
5.0
100
AcDbArc
 50
126.8699999999995
 51
264.2610000000001
  0
LINE
  5
5560
330
1F
100
AcDbEntity
  8
SCHRAFFUR_RAND
100
AcDbLine
 10
172.7385660824008
 20
198.5280797501791
 30
0.0
 11
174.0235660824007
 21
198.252079750179
 31
0.0
  0
LINE
  5
5561
330
1F
100
AcDbEntity
  8
0
100
AcDbLine
 10
170.5225660824007
 20
196.252079750179
 30
0.0
 11
179.0225660824007
 21
196.252079750179
 31
0.0
  0
ARC
  5
5562
330
1F
100
AcDbEntity
  8
0
100
AcDbCircle
 10
174.0225660824007
 20
200.752079750179
 30
0.0
 40
2.5
100
AcDbArc
 50
180.0
 51
270.0
  0
ARC
  5
5563
330
1F
100
AcDbEntity
  8
0
100
AcDbCircle
 10
170.5225660824007
 20
195.752079750179
 30
0.0
 40
0.5
100
AcDbArc
 50
90.0
 51
180.0
1001
GENIUS_GENODEF_13
1002
{
1000
HIER
1070
     0
1002
}
1002
{
1000
MANEDIT
1070
     0
1002
}
1002
{
1000
NOSEL
1070
     0
1002
}
1002
{
1000
BEHIND
1070
     0
1002
}
1002
{
1000
REACTOR
1002
}
1001
GENIUS_GENOBJ-N-FIL_13
1002
{
1000
OWNER
1000
GEN
1002
}
  0
ARC
  5
5564
330
1F
100
AcDbEntity
  8
0
100
AcDbCircle
 10
170.0225660824007
 20
196.252079750179
 30
0.0
 40
2.0
100
AcDbArc
 50
90.0
 51
180.0
1001
GENIUS_GENODEF_13
1002
{
1000
HIER
1070
     0
1002
}
1002
{
1000
MANEDIT
1070
     0
1002
}
1002
{
1000
NOSEL
1070
     0
1002
}
1002
{
1000
BEHIND
1070
     0
1002
}
1002
{
1000
REACTOR
1002
}
1001
GENIUS_GENOBJ-N-FIL_13
1002
{
1000
OWNER
1000
GEN
1002
}
  0
LINE
  5
5565
330
1F
100
AcDbEntity
  8
SCHRAFFUR_RAND
100
AcDbLine
 10
171.7985660824008
 20
199.4680797501789
 30
0.0
 11
172.7385660824008
 21
198.5280797501791
 31
0.0
  0
LINE
  5
5566
330
1F
100
AcDbEntity
  8
SCHRAFFUR_RAND
100
AcDbLine
 10
171.5235660824007
 20
200.752079750179
 30
0.0
 11
171.7985660824008
 21
199.4680797501789
 31
0.0
  0
LINE
  5
5567
330
1F
100
AcDbEntity
  8
SCHRAFFUR_RAND
100
AcDbLine
 10
174.0235660824007
 20
198.252079750179
 30
0.0
 11
179.0235660824007
 21
198.252079750179
 31
0.0
  0
LINE
  5
5568
330
1F
100
AcDbEntity
  8
0
100
AcDbLine
 10
174.0225660824007
 20
198.252079750179
 30
0.0
 11
179.0225660824007
 21
198.252079750179
 31
0.0
  0
LINE
  5
5569
330
1F
100
AcDbEntity
  8
SCHRAFFUR_RAND
100
AcDbLine
 10
179.0235660824007
 20
198.252079750179
 30
0.0
 11
179.0235660824007
 21
201.252079750179
 31
0.0
  0
LINE
  5
556A
330
1F
100
AcDbEntity
  8
0
100
AcDbLine
 10
179.0225660824007
 20
198.252079750179
 30
0.0
 11
179.0225660824007
 21
201.252079750179
 31
0.0
  0
LINE
  5
556B
330
1F
100
AcDbEntity
  8
0
100
AcDbLine
 10
179.0225660824007
 20
196.252079750179
 30
0.0
 11
179.0225660824007
 21
198.252079750179
 31
0.0
  0
LINE
  5
556C
330
1F
100
AcDbEntity
  8
SCHRAFFUR_RAND
100
AcDbLine
 10
87.32557505454948
 20
158.5599779125907
 30
0.0
 11
87.32557505454948
 21
158.5599779125907
 31
0.0
  0
CIRCLE
  5
556D
330
1F
100
AcDbEntity
  8
0
100
AcDbCircle
 10
179.5225660824007
 20
206.252079750179
 30
0.0
 40
4.454277841902841
  0
HATCH
  5
556E
330
1F
100
AcDbEntity
  8
8
100
AcDbHatch
 10
0.0
 20
0.0
 30
0.0
210
0.0
220
0.0
230
1.0
  2
_U
 70
     0
 71
     0
 91
        1
 92
        1
 93
        2
 72
     2
 10
179.5225660824008
 20
206.2520797501792
 40
4.454277841902744
 50
11.45915590261986
 51
369.5410683445268
 73
     0
 72
     2
 10
179.5225660824008
 20
206.2520797501792
 40
4.454277841902833
 50
9.54106834452696
 51
11.45915590262001
 73
     0
 97
        0
 75
     0
 76
     0
 52
45.0
 41
2.299999999999999
 77
     1
 78
     2
 53
135.0
 43
241.8099970426847
 44
76.48558273774597
 45
1.626345596729059
 46
1.626345596729059
 79
     0
 53
45.0
 43
241.8099970426847
 44
76.48558273774597
 45
1.626345596729059
 46
-1.626345596729058
 79
     0
 98
        1
 10
241.8099970426847
 20
76.48558273774597
1001
GENIUS_GENODEF_13
1002
{
1000
HIER
1070
     0
1002
}
1002
{
1000
MANEDIT
1070
     0
1002
}
1002
{
1000
NOSEL
1070
     0
1002
}
1002
{
1000
BEHIND
1070
     0
1002
}
1002
{
1000
REACTOR
1002
}
1001
GENIUS_GENOBJ-N-HTC_13
1002
{
1000
OWNER
1000
GEN
1002
}
1001
GENIUS_GENHATCH_13
1002
{
1000
DATA
1040
45.0
1042
2.299999999999999
1000
_U
1070
     1
1011
180.4224023704582
1021
206.1008356738288
1031
0.0
1002
}
1002
{
1000
UCS
1010
0.0
1020
0.0
1030
0.0
1010
1.0
1020
0.0
1030
0.0
1010
0.0
1020
1.0
1030
0.0
1002
}
  0
LINE
  5
556F
330
1F
100
AcDbEntity
  8
SCHRAFFUR_RAND
100
AcDbLine
 10
176.5235660824007
 20
210.252079750179
 30
0.0
 11
176.5235660824007
 21
217.252079750179
 31
0.0
  0
LINE
  5
5570
330
1F
100
AcDbEntity
  8
0
100
AcDbLine
 10
176.5225660824007
 20
217.252079750179
 30
0.0
 11
176.5225660824007
 21
210.252079750179
 31
0.0
  0
LINE
  5
5571
330
1F
100
AcDbEntity
  8
SCHRAFFUR_RAND
100
AcDbLine
 10
174.4965660824006
 20
206.8990797501789
 30
0.0
 11
175.1445660824008
 21
208.8040797501789
 31
0.0
  0
LINE
  5
5572
330
1F
100
AcDbEntity
  8
0
100
AcDbLine
 10
179.5225660824007
 20
201.7978019082761
 30
0.0
 11
177.0985925654561
 21
201.7978019082761
 31
0.0
  0
LINE
  5
5573
330
1F
100
AcDbEntity
  8
SCHRAFFUR_RAND
100
AcDbLine
 10
175.5545660824006
 20
203.099079750179
 30
0.0
 11
174.6405660824006
 21
204.8920797501789
 31
0.0
  0
LINE
  5
5574
330
1F
100
AcDbEntity
  8
SCHRAFFUR_RAND
100
AcDbLine
 10
177.0945660824006
 20
201.8040797501789
 30
0.0
 11
175.5545660824006
 21
203.099079750179
 31
0.0
  0
LINE
  5
5575
330
1F
100
AcDbEntity
  8
SCHRAFFUR_RAND
100
AcDbLine
 10
174.6405660824006
 20
204.8920797501789
 30
0.0
 11
174.4965660824006
 21
206.8990797501789
 31
0.0
  0
LINE
  5
5576
330
1F
100
AcDbEntity
  8
0
100
AcDbLine
 10
179.5225660824007
 20
210.7063575920818
 30
0.0
 11
176.5225660824007
 21
210.7063575920818
 31
0.0
  0
LINE
  5
5577
330
1F
100
AcDbEntity
  8
SCHRAFFUR_RAND
100
AcDbLine
 10
175.1445660824008
 20
208.8040797501789
 30
0.0
 11
176.5235660824007
 21
210.252079750179
 31
0.0
  0
LINE
  5
5578
330
1F
100
AcDbEntity
  8
SCHRAFFUR_RAND
100
AcDbLine
 10
176.5235660824007
 20
217.252079750179
 30
0.0
 11
174.5235660824007
 21
219.252079750179
 31
0.0
  0
LINE
  5
5579
330
1F
100
AcDbEntity
  8
0
100
AcDbLine
 10
176.5225660824007
 20
217.252079750179
 30
0.0
 11
174.5225660824007
 21
219.252079750179
 31
0.0
  0
LINE
  5
557A
330
1F
100
AcDbEntity
  8
SCHRAFFUR_RAND
100
AcDbLine
 10
174.5235660824007
 20
219.252079750179
 30
0.0
 11
174.5235660824007
 21
223.252079750179
 31
0.0
  0
LINE
  5
557B
330
1F
100
AcDbEntity
  8
0
100
AcDbLine
 10
174.5225660824007
 20
223.252079750179
 30
0.0
 11
174.5225660824007
 21
219.252079750179
 31
0.0
  0
LINE
  5
557C
330
1F
100
AcDbEntity
  8
SCHRAFFUR_RAND
100
AcDbLine
 10
174.5235660824007
 20
223.252079750179
 30
0.0
 11
174.6885660824006
 21
224.426079750179
 31
0.0
  0
LINE
  5
557D
330
1F
100
AcDbEntity
  8
SCHRAFFUR_RAND
100
AcDbLine
 10
83.16056608240064
 20
226.9660797501789
 30
0.0
 11
83.73656608240066
 21
226.3900797501789
 31
0.0
  0
LINE
  5
557E
330
1F
100
AcDbEntity
  8
SCHRAFFUR_RAND
100
AcDbLine
 10
83.73656608240066
 20
229.1140797501791
 30
0.0
 11
83.16056608240064
 21
228.539079750179
 31
0.0
  0
LINE
  5
557F
330
1F
100
AcDbEntity
  8
SCHRAFFUR_RAND
100
AcDbLine
 10
86.82256608240066
 20
239.252079750179
 30
0.0
 11
76.5225660824007
 21
239.252079750179
 31
0.0
  0
ARC
  5
5580
330
1F
100
AcDbEntity
  8
0
100
AcDbCircle
 10
84.52256608240071
 20
227.752079750179
 30
0.0
 40
1.5
100
AcDbArc
 50
180.0
 51
270.0
  0
ARC
  5
5581
330
1F
100
AcDbEntity
  8
0
100
AcDbCircle
 10
84.52256608240071
 20
227.752079750179
 30
0.0
 40
1.5
100
AcDbArc
 50
90.0
 51
180.0
  0
LINE
  5
5582
330
1F
100
AcDbEntity
  8
0
100
AcDbLine
 10
86.82156608240068
 20
239.252079750179
 30
0.0
 11
76.5225660824007
 21
239.252079750179
 31
0.0
  0
LINE
  5
5583
330
1F
100
AcDbEntity
  8
0
100
AcDbLine
 10
72.32756608240059
 20
236.252079750179
 30
0.0
 11
85.86408830843408
 21
235.0677875118343
 31
0.0
  0
LINE
  5
5584
330
1F
100
AcDbEntity
  8
SCHRAFFUR_RAND
100
AcDbLine
 10
71.52356608240069
 20
239.2520797501782
 30
0.0
 11
72.32756608240078
 21
236.2520797501782
 31
0.0
  0
LINE
  5
5585
330
1F
100
AcDbEntity
  8
SCHRAFFUR_RAND
100
AcDbLine
 10
83.16056608240064
 20
228.539079750179
 30
0.0
 11
83.02356608240069
 21
227.752079750179
 31
0.0
  0
LINE
  5
5586
330
1F
100
AcDbEntity
  8
SCHRAFFUR_RAND
100
AcDbLine
 10
83.02356608240069
 20
227.752079750179
 30
0.0
 11
83.16056608240064
 21
226.9660797501789
 31
0.0
  0
LINE
  5
5587
330
1F
100
AcDbEntity
  8
SCHRAFFUR_RAND
100
AcDbLine
 10
86.69956608240061
 20
226.0910797501789
 30
0.0
 11
87.69656608240069
 21
225.425079750179
 31
0.0
  0
LINE
  5
5588
330
1F
100
AcDbEntity
  8
SCHRAFFUR_RAND
100
AcDbLine
 10
85.52356608240069
 20
226.252079750179
 30
0.0
 11
86.69956608240061
 21
226.0910797501789
 31
0.0
  0
LINE
  5
5589
330
1F
100
AcDbEntity
  8
SCHRAFFUR_RAND
100
AcDbLine
 10
84.52356608240069
 20
226.252079750179
 30
0.0
 11
85.52356608240069
 21
226.252079750179
 31
0.0
  0
LINE
  5
558A
330
1F
100
AcDbEntity
  8
0
100
AcDbLine
 10
84.52256608240071
 20
226.252079750179
 30
0.0
 11
85.52256608240071
 21
226.252079750179
 31
0.0
  0
LINE
  5
558B
330
1F
100
AcDbEntity
  8
SCHRAFFUR_RAND
100
AcDbLine
 10
83.73656608240066
 20
226.3900797501789
 30
0.0
 11
84.52356608240069
 21
226.252079750179
 31
0.0
  0
LINE
  5
558C
330
1F
100
AcDbEntity
  8
SCHRAFFUR_RAND
100
AcDbLine
 10
85.52356608240069
 20
229.252079750179
 30
0.0
 11
84.52356608240069
 21
229.252079750179
 31
0.0
  0
LINE
  5
558D
330
1F
100
AcDbEntity
  8
0
100
AcDbLine
 10
84.52256608240071
 20
229.252079750179
 30
0.0
 11
85.61016902387986
 21
229.252079750179
 31
0.0
  0
LINE
  5
558E
330
1F
100
AcDbEntity
  8
SCHRAFFUR_RAND
100
AcDbLine
 10
84.52356608240069
 20
229.252079750179
 30
0.0
 11
83.73656608240066
 21
229.1140797501791
 31
0.0
  0
LINE
  5
558F
330
1F
100
AcDbEntity
  8
0
100
AcDbLine
 10
190.7185660824006
 20
236.252079750179
 30
0.0
 11
177.1820438563673
 21
235.0677875118343
 31
0.0
  0
LINE
  5
5590
330
1F
100
AcDbEntity
  8
SCHRAFFUR_RAND
100
AcDbLine
 10
178.5235660824007
 20
229.252079750179
 30
0.0
 11
177.5235660824007
 21
229.252079750179
 31
0.0
  0
LINE
  5
5591
330
1F
100
AcDbEntity
  8
SCHRAFFUR_RAND
100
AcDbLine
 10
177.5235660824007
 20
226.252079750179
 30
0.0
 11
178.5235660824007
 21
226.252079750179
 31
0.0
  0
LINE
  5
5592
330
1F
100
AcDbEntity
  8
0
100
AcDbLine
 10
178.5225660824007
 20
229.252079750179
 30
0.0
 11
177.4359631409215
 21
229.252079750179
 31
0.0
  0
LINE
  5
5593
330
1F
100
AcDbEntity
  8
0
100
AcDbLine
 10
178.5225660824007
 20
226.252079750179
 30
0.0
 11
177.5225660824007
 21
226.252079750179
 31
0.0
  0
LINE
  5
5594
330
1F
100
AcDbEntity
  8
SCHRAFFUR_RAND
100
AcDbLine
 10
175.3535660824006
 20
225.4220797501791
 30
0.0
 11
176.3495660824007
 21
226.087079750179
 31
0.0
  0
LINE
  5
5595
330
1F
100
AcDbEntity
  8
SCHRAFFUR_RAND
100
AcDbLine
 10
176.3495660824007
 20
226.087079750179
 30
0.0
 11
177.5235660824007
 21
226.252079750179
 31
0.0
  0
LINE
  5
5596
330
1F
100
AcDbEntity
  8
SCHRAFFUR_RAND
100
AcDbLine
 10
180.0235660824007
 20
227.752079750179
 30
0.0
 11
179.8815660824006
 21
228.5360797501791
 31
0.0
  0
ARC
  5
5597
330
1F
100
AcDbEntity
  8
0
100
AcDbCircle
 10
178.5225660824007
 20
227.752079750179
 30
0.0
 40
1.5
100
AcDbArc
 50
0.0
 51
90.0
  0
LINE
  5
5598
330
1F
100
AcDbEntity
  8
SCHRAFFUR_RAND
100
AcDbLine
 10
179.8815660824006
 20
226.9680797501789
 30
0.0
 11
180.0235660824007
 21
227.752079750179
 31
0.0
  0
ARC
  5
5599
330
1F
100
AcDbEntity
  8
0
100
AcDbCircle
 10
178.5225660824007
 20
227.752079750179
 30
0.0
 40
1.5
100
AcDbArc
 50
270.0
 51
0.0
  0
LINE
  5
559A
330
1F
100
AcDbEntity
  8
SCHRAFFUR_RAND
100
AcDbLine
 10
179.3075660824008
 20
226.3940797501791
 30
0.0
 11
179.8815660824006
 21
226.9680797501789
 31
0.0
  0
LINE
  5
559B
330
1F
100
AcDbEntity
  8
SCHRAFFUR_RAND
100
AcDbLine
 10
178.5235660824007
 20
226.252079750179
 30
0.0
 11
179.3075660824008
 21
226.3940797501791
 31
0.0
  0
LINE
  5
559C
330
1F
100
AcDbEntity
  8
SCHRAFFUR_RAND
100
AcDbLine
 10
179.3075660824008
 20
229.110079750179
 30
0.0
 11
178.5235660824007
 21
229.252079750179
 31
0.0
  0
LINE
  5
559D
330
1F
100
AcDbEntity
  8
SCHRAFFUR_RAND
100
AcDbLine
 10
179.8815660824006
 20
228.5360797501791
 30
0.0
 11
179.3075660824008
 21
229.110079750179
 31
0.0
  0
LINE
  5
559E
330
1F
100
AcDbEntity
  8
SCHRAFFUR_RAND
100
AcDbLine
 10
190.7185660824006
 20
236.252079750179
 30
0.0
 11
191.5225660824006
 21
239.252079750179
 31
0.0
  0
LINE
  5
559F
330
1F
100
AcDbEntity
  8
0
100
AcDbLine
 10
76.52256641338361
 20
239.2520798115158
 30
0.0
 11
131.5225664133836
 21
239.2520798115158
 31
0.0
  0
LINE
  5
55A0
330
1F
100
AcDbEntity
  8
0
100
AcDbLine
 10
131.5225664133836
 20
239.2520798115158
 30
0.0
 11
186.5264062352117
 21
239.2520798115158
 31
0.0
  0
LINE
  5
55A1
330
1F
100
AcDbEntity
  8
0
100
AcDbLine
 10
71.5225660824007
 20
239.2520797501782
 30
0.0
 11
91.52356608240067
 21
237.5022189909962
 31
0.0
  0
LINE
  5
55A2
330
1F
100
AcDbEntity
  8
0
100
AcDbLine
 10
171.5235660824007
 20
237.5023939683247
 30
0.0
 11
191.5225660824006
 21
239.2520797501797
 31
0.0
  0
LINE
  5
55A3
330
1F
100
AcDbEntity
  8
0
100
AcDbLine
 10
171.5235664133836
 20
237.5023940296616
 30
0.0
 11
131.5225664133836
 21
237.5023502847823
 31
0.0
  0
LINE
  5
55A4
330
1F
100
AcDbEntity
  8
0
100
AcDbLine
 10
131.5225664133836
 20
237.5023502847823
 30
0.0
 11
91.52256641338363
 21
237.5023065409966
 31
0.0
  0
DIMENSION
  5
55A9
330
1F
100
AcDbEntity
  8
AM_5
100
AcDbDimension
  2
*D16
 10
225.5324307375182
 20
276.2520797501796
 30
0.0
 11
225.5324307375181
 21
212.7520797501794
 31
0.0
 70
   160
 71
     5
 42
127.0000000000006
  3
AM_DIN$0
100
AcDbAlignedDimension
 13
178.0225660824007
 23
149.252079750179
 33
0.0
 14
194.0225660824007
 24
276.2520797501796
 34
0.0
 50
90.0
100
AcDbRotatedDimension
1001
ACAD
1000
DSTYLE
1002
{
1070
    41
1040
7.0
1070
   140
1040
10.0
1002
}
  0
DIMENSION
  5
55AA
330
1F
100
AcDbEntity
  8
AM_5
100
AcDbDimension
  2
*D17
 10
68.02256608240071
 20
297.4125909177758
 30
0.0
 11
131.8280394389576
 21
297.4125909177758
 31
0.0
 70
   160
  1
%%c<>
 71
     5
 42
127.0
  3
AM_DIN$0
100
AcDbAlignedDimension
 13
195.0225660824007
 23
274.2520797501796
 33
0.0
 14
68.02256608240071
 24
274.2520797501784
 34
0.0
100
AcDbRotatedDimension
1001
ACAD
1000
DSTYLE
1002
{
1070
   140
1040
10.0
1070
    41
1040
7.0
1002
}
  0
ARC
  5
55AC
330
1F
100
AcDbEntity
  8
0
100
AcDbCircle
 10
177.4359631409215
 20
232.1654768086998
 30
0.0
 40
2.913397058520801
100
AcDbArc
 50
94.9999999999995
 51
270.0
  0
ARC
  5
55AD
330
1F
100
AcDbEntity
  8
0
100
AcDbCircle
 10
85.61016902387986
 20
232.1654768086998
 30
0.0
 40
2.913397058520843
100
AcDbArc
 50
270.0
 51
85.00000000000026
  0
HATCH
  5
55AE
330
1F
100
AcDbEntity
  8
AM_8
100
AcDbHatch
 10
0.0
 20
0.0
 30
0.0
210
0.0
220
0.0
230
1.0
  2
_USER
 70
     0
 71
     0
 91
        1
 92
        1
 93
       51
 72
     1
 10
71.52359009232222
 20
239.2519901609187
 11
72.32756608240078
 21
236.2520797501782
 72
     1
 10
72.32756608240078
 20
236.2520797501782
 11
85.86408830843408
 21
235.0677875118343
 72
     2
 10
85.61016902387986
 20
232.1654768086998
 40
2.913397058520824
 50
275.0000000000001
 51
450.0
 73
     0
 72
     1
 10
85.61016902387986
 20
229.252079750179
 11
84.52356608240069
 21
229.252079750179
 72
     1
 10
84.52356608240069
 20
229.252079750179
 11
84.01127148785086
 21
229.1622491859505
 72
     2
 10
84.52256608240073
 20
227.752079750179
 40
1.499999999999988
 50
109.9294652492599
 51
160.0328889012436
 73
     1
 72
     1
 10
83.11273289405251
 20
228.2643007776973
 11
83.02356608240069
 21
227.752079750179
 72
     1
 10
83.02356608240069
 20
227.752079750179
 11
83.11295081423322
 21
227.2392593179134
 72
     2
 10
84.52256608240073
 20
227.7520797501789
 40
1.500000000000001
 50
199.991472857625
 51
250.070534750721
 73
     1
 72
     1
 10
84.0112714878504
 20
226.3419103144076
 11
84.52356608240069
 21
226.2520797501789
 72
     1
 10
84.52356608240069
 20
226.252079750179
 11
85.52356608240069
 21
226.252079750179
 72
     1
 10
85.52356608240069
 20
226.252079750179
 11
85.52356730276519
 21
226.2520795831053
 72
     2
 10
85.52256608240083
 20
223.2520797501789
 40
3.000000000000014
 50
270.0191219007684
 51
285.5720821404547
 73
     0
 72
     1
 10
86.32791752088902
 20
226.1419602080049
 11
86.69956608240061
 21
226.0910797501789
 72
     1
 10
86.69956608240061
 20
226.0910797501789
 11
87.69656608240069
 21
225.4250797501789
 72
     1
 10
87.69656608240069
 20
225.425079750179
 11
88.36256608240063
 21
224.4280797501791
 72
     1
 10
88.36256608240063
 20
224.4280797501789
 11
88.41414985905146
 21
224.0512939033382
 72
     2
 10
85.52256608240071
 20
223.2520797501789
 40
3.0
 50
344.5495619277826
 51
359.85923403098
 73
     0
 72
     1
 10
88.5225570283875
 20
223.2594502316667
 11
88.5235660824007
 21
223.2520797501789
 72
     1
 10
88.5235660824007
 20
223.252079750179
 11
88.5235660824007
 21
219.252079750179
 72
     1
 10
88.5235660824007
 20
219.252079750179
 11
86.52356608240069
 21
217.252079750179
 72
     1
 10
86.52356608240069
 20
217.252079750179
 11
86.52356608240069
 21
210.252079750179
 72
     1
 10
86.52356608240069
 20
210.252079750179
 11
86.52611201172193
 21
210.2494178457694
 72
     2
 10
83.52256608240073
 20
206.2520797501789
 40
5.00000000000001
 50
306.9207062446088
 51
325.6307519281042
 73
     0
 72
     1
 10
87.64964913171223
 20
209.0747000760615
 11
87.90656608240073
 21
208.806079750179
 72
     1
 10
87.90656608240073
 20
208.8060797501791
 11
88.06295040478692
 21
208.3460974685925
 72
     2
 10
83.52256608240072
 20
206.252079750179
 40
4.99999999999999
 50
335.2409267764911
 51
347.205162457149
 73
     0
 72
     1
 10
88.39841264381179
 20
207.3593829198555
 11
88.55456608240064
 21
206.9000797501789
 72
     1
 10
88.55456608240064
 20
206.9000797501789
 11
88.51987526781236
 21
206.4160947049857
 72
     2
 10
83.52256608240072
 20
206.2520797501789
 40
4.999999999999996
 50
358.1201898357002
 51
370.079418004291
 73
     0
 72
     1
 10
88.44539664398759
 20
205.377014460097
 11
88.41056608240064
 21
204.891079750179
 72
     1
 10
88.41056608240064
 20
204.8910797501789
 11
88.18900462338124
 21
204.4564318606272
 72
     2
 10
83.52256608240072
 20
206.2520797501789
 40
4.99999999999999
 50
21.04675004907127
 51
32.97361287644211
 73
     0
 72
     1
 10
87.71717262363972
 20
203.5308160797135
 11
87.49556608240068
 21
203.0960797501789
 72
     1
 10
87.49556608240068
 20
203.0960797501791
 11
87.12344391141682
 21
202.7831204162432
 72
     2
 10
83.52256608240065
 20
206.2520797501789
 40
5.000000000000002
 50
43.93102262261127
 51
55.94047887774967
 73
     0
 72
     1
 10
86.32283527542098
 20
202.1097986821415
 11
85.95456608240073
 21
201.800079750179
 72
     1
 10
85.95456608240073
 20
201.800079750179
 11
85.57268393169684
 21
201.6917051160072
 72
     2
 10
83.52256608240066
 20
206.2520797501789
 40
4.999999999999989
 50
65.7936845684157
 51
82.51940903251304
 73
     0
 72
     1
 10
84.17351773880874
 20
201.2946346480099
 11
84.02356608240069
 21
201.2520797501789
 72
     1
 10
84.02356608240069
 20
201.252079750179
 11
84.02356608240069
 21
198.252079750179
 72
     1
 10
84.02356608240069
 20
198.252079750179
 11
89.02256608240071
 21
198.252079750179
 72
     2
 10
89.02256608241604
 20
200.7520797501821
 40
2.500000000003126
 50
269.9999999996489
 51
270.0229400244363
 73
     1
 72
     1
 10
89.02356702978154
 20
198.2520799505581
 11
90.0339092806867
 21
198.4657759787433
 72
     2
 10
89.02256608240074
 20
200.752079750179
 40
2.500000000000007
 50
293.8621339341813
 51
308.8218801509786
 73
     1
 72
     1
 10
90.58981953184058
 20
198.8043331996188
 11
90.97031263296083
 21
199.1848263007391
 72
     2
 10
89.02256608240071
 20
200.7520797501789
 40
2.499999999999993
 50
321.1781198490212
 51
336.2237713450284
 73
     1
 72
     1
 10
91.31038362063844
 20
199.7441656111115
 11
91.52256157128455
 21
200.7473304807106
 72
     2
 10
89.02256608240049
 20
200.7520797501754
 40
2.500000000000213
 50
359.8911546960918
 51
360.0000000000814
 73
     1
 72
     1
 10
91.52256608240071
 20
200.752079750179
 11
91.52256608240071
 21
237.5023064796598
 72
     1
 10
91.52256608240071
 20
237.5023064796598
 11
71.52359009232222
 21
239.2519901609188
 97
        0
 75
     0
 76
     0
 52
45.0
 41
3.0
 77
     0
 78
     1
 53
45.0
 43
0.2946845252683658
 44
18.71026205775405
 45
-2.121320343559642
 46
2.121320343559642
 79
     0
 98
        1
 10
0.2946845252683658
 20
18.71026205775405
1001
GENIUS_GENOBJ-N-HTC_13
1002
{
1000
OWNER
1000
GEN
1002
}
1001
GENIUS_GENODEF_13
1002
{
1000
HIER
1070
     0
1002
}
1002
{
1000
MANEDIT
1070
     0
1002
}
1002
{
1000
NOSEL
1070
     0
1002
}
1002
{
1000
BEHIND
1070
     0
1002
}
1002
{
1000
OTHER
1070
     0
1002
}
1002
{
1000
REACTOR
1002
}
1001
GENIUS_GENHATCH_13
1002
{
1000
DATA
1040
45.0
1042
2.5
1000
_U
1070
     0
1011
89.25998175006654
1021
227.9900975340005
1031
0.0
1002
}
1002
{
1000
UCS
1010
0.0
1020
0.0
1030
0.0
1010
1.0
1020
0.0
1030
0.0
1010
0.0
1020
1.0
1030
0.0
1002
}
  0
HATCH
  5
55AF
330
1F
100
AcDbEntity
  8
AM_8
100
AcDbHatch
 10
0.0
 20
0.0
 30
0.0
210
0.0
220
0.0
230
1.0
  2
_USER
 70
     0
 71
     0
 91
        1
 92
        1
 93
       50
 72
     1
 10
176.5225660824007
 20
210.7063575920818
 11
176.5225660824007
 21
217.252079750179
 72
     1
 10
176.5225660824007
 20
217.252079750179
 11
174.5225660824007
 21
219.252079750179
 72
     1
 10
174.5225660824007
 20
219.252079750179
 11
174.5225660824007
 21
223.252079750179
 72
     2
 10
177.5225660824007
 20
223.252079750179
 40
3.0
 50
179.9999999999994
 51
196.1352462159455
 73
     0
 72
     1
 10
174.6407409460102
 20
224.0857966585287
 11
174.6885660824006
 21
224.426079750179
 72
     1
 10
174.6885660824006
 20
224.426079750179
 11
175.3535660824006
 21
225.4220797501791
 72
     1
 10
175.3535660824006
 20
225.4220797501791
 11
176.3495660824007
 21
226.087079750179
 72
     1
 10
176.3495660824007
 20
226.087079750179
 11
176.6946695613627
 21
226.1355823686022
 72
     2
 10
177.5225660824007
 20
223.252079750179
 40
3.000000000000003
 50
253.9804396666195
 51
269.9999999999989
 73
     0
 72
     1
 10
177.5225660824007
 20
226.252079750179
 11
178.5225660824007
 21
226.252079750179
 72
     2
 10
178.5225660824134
 20
227.7520797501783
 40
1.499999999999374
 50
269.9999999995147
 51
270.0382677458237
 73
     1
 72
     1
 10
178.5235679295818
 20
226.2520800847449
 11
179.0477359500365
 21
226.3470186802865
 72
     2
 10
178.5225660824007
 20
227.752079750179
 40
1.499999999999994
 50
290.4942418447781
 51
339.6805699584739
 73
     1
 72
     1
 10
179.9292229251385
 20
227.231199219943
 11
180.0225557095282
 21
227.7465013534749
 72
     2
 10
178.5225660824007
 20
227.752079750179
 40
1.500000000000009
 50
359.7869204504354
 51
360.2130795495658
 73
     1
 72
     1
 10
180.0225557095282
 20
227.7576581468831
 11
179.9292229251385
 21
228.2729602804147
 72
     2
 10
178.5225660824007
 20
227.752079750179
 40
1.499999999999992
 50
20.31943004152025
 51
69.50575815523463
 73
     1
 72
     1
 10
179.0477359500362
 20
229.1571408200716
 11
178.5235679295817
 21
229.252079415613
 72
     2
 10
178.5225660824133
 20
227.7520797501785
 40
1.500000000000369
 50
89.9617322541763
 51
90.00000000048201
 73
     1
 72
     1
 10
178.5225660824007
 20
229.252079750179
 11
177.4359631409215
 21
229.252079750179
 72
     2
 10
177.4359631409215
 20
232.1654768086998
 40
2.913397058520814
 50
90.0
 51
265.0
 73
     0
 72
     1
 10
177.1820438563673
 20
235.0677875118343
 11
190.7185660824006
 21
236.2520797501789
 72
     1
 10
190.7185660824006
 20
236.252079750179
 11
191.5225660824006
 21
239.252079750179
 72
     1
 10
191.5225660824006
 20
239.252079750179
 11
171.5235660824007
 21
237.5023939683248
 72
     1
 10
171.5235660824007
 20
237.5023939683247
 11
171.5235660824007
 21
200.7520797501789
 72
     1
 10
171.5235660824007
 20
200.752079750179
 11
171.7437683451639
 21
199.7239353669505
 72
     2
 10
174.0225660824007
 20
200.752079750179
 40
2.499999999999998
 50
204.2838694158251
 51
217.8447256374929
 73
     1
 72
     1
 10
172.0483752560701
 20
199.2182705765096
 11
172.4887569087317
 21
198.7778889238481
 72
     2
 10
174.0225660824007
 20
200.752079750179
 40
2.500000000000004
 50
232.1552743625154
 51
245.7327836505026
 73
     1
 72
     1
 10
172.9950840770625
 20
198.4729832781738
 11
174.0235660824007
 21
198.2520797501789
 72
     1
 10
174.0235660824007
 20
198.252079750179
 11
179.0235660824007
 21
198.252079750179
 72
     1
 10
179.0235660824007
 20
198.252079750179
 11
179.0235660824007
 21
201.252079750179
 72
     1
 10
179.0235660824007
 20
201.252079750179
 11
178.8775797179728
 21
201.293855008429
 72
     2
 10
179.5225660824007
 20
206.252079750179
 40
5.000000000000002
 50
97.41165240495389
 51
114.5262092480235
 73
     0
 72
     1
 10
177.4470188332987
 20
201.7032223533435
 11
177.0945660824006
 21
201.804079750179
 72
     1
 10
177.0945660824006
 20
201.8040797501789
 11
176.7648101696796
 21
202.081374494967
 72
     2
 10
179.5225660824007
 20
206.252079750179
 40
5.000000000000004
 50
123.4734957868069
 51
136.648073128939
 73
     0
 72
     1
 10
175.8868115563925
 20
202.8196915106857
 11
175.5545660824006
 21
203.0990797501789
 72
     1
 10
175.5545660824006
 20
203.099079750179
 11
175.35717383738
 21
203.4863054562206
 72
     2
 10
179.5225660824007
 20
206.2520797501789
 40
4.999999999999985
 50
146.4162801517
 51
159.5623677842429
 73
     0
 72
     1
 10
174.8373018668861
 20
204.506141827222
 11
174.6405660824006
 21
204.8920797501789
 72
     1
 10
174.6405660824006
 20
204.8920797501789
 11
174.6096509681418
 21
205.3229591551608
 72
     2
 10
179.5225660824007
 20
206.2520797501789
 40
4.999999999999998
 50
169.2908158846435
 51
182.5014331700847
 73
     0
 72
     1
 10
174.5273304314298
 20
206.4703016355842
 11
174.4965660824006
 21
206.8990797501791
 72
     1
 10
174.4965660824006
 20
206.8990797501789
 11
174.6347640363944
 21
207.3053561427069
 72
     2
 10
179.5225660824007
 20
206.2520797501789
 40
5.000000000000001
 50
192.1607559935511
 51
205.4114856473111
 73
     0
 72
     1
 10
175.0063196355835
 20
208.3976607977302
 11
175.1445660824008
 21
208.8040797501789
 72
     1
 10
175.1445660824008
 20
208.8040797501789
 11
176.5235660824007
 21
210.2520797501789
 72
     1
 10
176.5235660824007
 20
210.252079750179
 11
176.5235660824007
 21
210.7063575920818
 72
     1
 10
176.5235660824007
 20
210.7063575920818
 11
176.5225660824007
 21
210.7063575920818
 97
        0
 75
     0
 76
     0
 52
45.0
 41
3.0
 77
     0
 78
     1
 53
45.0
 43
0.2946845252683658
 44
18.71026205775405
 45
-2.121320343559642
 46
2.121320343559642
 79
     0
 98
        1
 10
0.2946845252683658
 20
18.71026205775405
1001
GENIUS_GENOBJ-N-HTC_13
1002
{
1000
OWNER
1000
GEN
1002
}
1001
GENIUS_GENODEF_13
1002
{
1000
HIER
1070
     0
1002
}
1002
{
1000
MANEDIT
1070
     0
1002
}
1002
{
1000
NOSEL
1070
     0
1002
}
1002
{
1000
BEHIND
1070
     0
1002
}
1002
{
1000
OTHER
1070
     0
1002
}
1002
{
1000
REACTOR
1002
}
1001
GENIUS_GENHATCH_13
1002
{
1000
DATA
1040
45.0
1042
2.5
1000
_U
1070
     0
1011
174.2015909165938
1021
214.524955567807
1031
0.0
1002
}
1002
{
1000
UCS
1010
0.0
1020
0.0
1030
0.0
1010
1.0
1020
0.0
1030
0.0
1010
0.0
1020
1.0
1030
0.0
1002
}
  0
ARC
  5
55B0
330
1F
100
AcDbEntity
  8
0
100
AcDbCircle
 10
74.02960920331011
 20
273.252079750179
 30
0.0
 40
4.0
100
AcDbArc
 50
30.00000000000003
 51
150.0
  0
LINE
  5
55BB
330
1F
100
AcDbEntity
  8
0
100
AcDbLine
 10
75.52960920331014
 20
275.252079750179
 30
0.0
 11
75.52960920331014
 21
274.252079750179
 31
0.0
  0
LINE
  5
55BC
330
1F
100
AcDbEntity
  8
0
100
AcDbLine
 10
72.52960920331014
 20
275.252079750179
 30
0.0
 11
72.52960920331014
 21
274.252079750179
 31
0.0
  0
LINE
  5
55BD
330
1F
100
AcDbEntity
  8
AM_7
  6
AM_DIN_G_W050x2
100
AcDbLine
 10
74.02960920331015
 20
278.252079750179
 30
0.0
 11
74.02960920331015
 21
238.1678620113382
 31
0.0
1001
GENIUS_GENODEF_13
1002
{
1000
HIER
1070
     0
1002
}
1002
{
1000
MANEDIT
1070
     0
1002
}
1002
{
1000
NOSEL
1070
     0
1002
}
1002
{
1000
BEHIND
1070
     0
1002
}
1002
{
1000
OTHER
1070
     0
1002
}
1002
{
1000
REACTOR
1002
}
1001
GENIUS_GENOBJ-N-CEN_13
1002
{
1000
OWNER
1000
GEN
1002
}
1001
GENIUS_GENCEN_19
1002
{
1040
3.0
1002
}
  0
LINE
  5
55BE
330
1F
100
AcDbEntity
  8
0
100
AcDbLine
 10
71.52256612047763
 20
239.2520884767137
 30
0.0
 11
71.8280064169989
 21
274.252079750179
 31
0.0
  0
LINE
  5
55BF
330
1F
100
AcDbEntity
  8
0
100
AcDbLine
 10
76.5225660824007
 20
239.2520797501782
 30
0.0
 11
76.21712570972414
 21
274.252079750179
 31
0.0
  0
LINE
  5
55C0
330
1F
100
AcDbEntity
  8
0
100
AcDbLine
 10
76.5225660824007
 20
239.2520797501782
 30
0.0
 11
76.5225660824007
 21
238.8146364325486
 31
0.0
  0
LINE
  5
55C1
330
1F
100
AcDbEntity
  8
0
100
AcDbLine
 10
186.5264059042288
 20
239.252079750179
 30
0.0
 11
186.8318462769054
 21
274.2520797501795
 31
0.0
  0
LINE
  5
55C2
330
1F
100
AcDbEntity
  8
0
100
AcDbLine
 10
191.5225660824009
 20
239.252079750179
 30
0.0
 11
191.2171257097243
 21
274.2520797501795
 31
0.0
  0
LINE
  5
55C3
330
1F
100
AcDbEntity
  8
AM_7
100
AcDbLine
 10
189.0244859933149
 20
236.0320797501798
 30
0.0
 11
189.0244859933149
 21
277.2520797501794
 31
0.0
1001
GENIUS_GENOBJ-N-CEN_13
1002
{
1000
OWNER
1000
GEN
1002
}
1001
GENIUS_GENODEF_13
1002
{
1000
HIER
1070
     0
1002
}
1002
{
1000
MANEDIT
1070
     0
1002
}
1002
{
1000
NOSEL
1070
     0
1002
}
1002
{
1000
BEHIND
1070
     0
1002
}
1002
{
1000
OTHER
1070
     0
1002
}
1002
{
1000
REACTOR
1002
}
1001
GENIUS_GENCEN_19
1002
{
1040
3.0
1002
}
  0
ARC
  5
55C4
330
1F
100
AcDbEntity
  8
0
100
AcDbCircle
 10
189.0244859933149
 20
273.2520797501795
 30
0.0
 40
4.0
100
AcDbArc
 50
30.00000000000003
 51
150.0
  0
LINE
  5
55C5
330
1F
100
AcDbEntity
  8
0
100
AcDbLine
 10
186.5264059042288
 20
239.252079750179
 30
0.0
 11
186.5264059042288
 21
238.8149723734299
 31
0.0
  0
LINE
  5
55C7
330
1F
100
AcDbEntity
  8
0
100
AcDbLine
 10
129.262735114265
 20
266.5527249143756
 30
0.0
 11
129.3299263659912
 21
274.252079750179
 31
0.0
  0
LINE
  5
55C9
330
1F
100
AcDbEntity
  8
0
100
AcDbLine
 10
133.7823999620565
 20
266.5523912871994
 30
0.0
 11
133.7152057988101
 21
274.252079750179
 31
0.0
  0
LINE
  5
55CA
330
1F
100
AcDbEntity
  8
AM_7
100
AcDbLine
 10
131.5225664133836
 20
236.0320798115167
 30
0.0
 11
131.5225664133836
 21
277.2520798115162
 31
0.0
1001
GENIUS_GENOBJ-N-CEN_13
1002
{
1000
OWNER
1000
GEN
1002
}
1001
GENIUS_GENODEF_13
1002
{
1000
HIER
1070
     0
1002
}
1002
{
1000
MANEDIT
1070
     0
1002
}
1002
{
1000
NOSEL
1070
     0
1002
}
1002
{
1000
BEHIND
1070
     0
1002
}
1002
{
1000
OTHER
1070
     0
1002
}
1002
{
1000
REACTOR
1002
}
1001
GENIUS_GENCEN_19
1002
{
1040
3.0
1002
}
  0
ARC
  5
55CB
330
1F
100
AcDbEntity
  8
0
100
AcDbCircle
 10
131.5225660824007
 20
273.2520797501795
 30
0.0
 40
4.0
100
AcDbArc
 50
30.00000000000003
 51
150.0
  0
LINE
  5
55CC
330
1F
100
AcDbEntity
  8
0
100
AcDbLine
 10
187.5244859933149
 20
274.252079750179
 30
0.0
 11
187.5244859933149
 21
275.252079750179
 31
0.0
  0
LINE
  5
55CD
330
1F
100
AcDbEntity
  8
0
100
AcDbLine
 10
190.5244859933149
 20
274.252079750179
 30
0.0
 11
190.5244859933149
 21
275.252079750179
 31
0.0
  0
ARC
  5
55CE
330
1F
100
AcDbEntity
  8
0
100
AcDbCircle
 10
131.5223242384079
 20
263.2520798115159
 30
0.0
 40
4.000000001763516
100
AcDbArc
 50
101.409622112445
 51
60.00000000972308
  0
ARC
  5
55CF
330
1F
100
AcDbEntity
  8
0
100
AcDbCircle
 10
134.522323907425
 20
268.4482321749223
 30
0.0
 40
2.0
100
AcDbArc
 50
180.0
 51
240.0000000097231
  0
ARC
  5
55D0
330
1F
100
AcDbEntity
  8
0
100
AcDbCircle
 10
131.5223242384079
 20
263.2520798115159
 30
0.0
 40
2.0
100
AcDbArc
 50
101.4096221124524
 51
59.99999999999875
  0
ARC
  5
55D1
330
1F
100
AcDbEntity
  8
0
100
AcDbCircle
 10
134.522323907425
 20
268.4482321728857
 30
0.0
 40
4.0
100
AcDbArc
 50
180.0
 51
239.9999999999987
  0
LINE
  5
55D6
330
1F
100
AcDbEntity
  8
0
100
AcDbLine
 10
130.522323907425
 20
268.4482321728857
 30
0.0
 11
130.522323907425
 21
274.252079750179
 31
0.0
  0
LINE
  5
55D7
330
1F
100
AcDbEntity
  8
0
100
AcDbLine
 10
132.522323907425
 20
268.4482321749223
 30
0.0
 11
132.522323907425
 21
274.252079750179
 31
0.0
  0
LINE
  5
55D8
330
1F
100
AcDbEntity
  8
0
100
AcDbLine
 10
130.7310360593805
 20
267.1730316187495
 30
0.0
 11
131.1266799835771
 21
265.2125556835999
 31
0.0
  0
LINE
  5
55D9
330
1F
100
AcDbEntity
  8
0
100
AcDbLine
 10
83.02256608240071
 20
161.752079750179
 30
0.0
 11
85.02256608240072
 21
161.752079750179
 31
0.0
  0
LINE
  5
55DA
330
1F
100
AcDbEntity
  8
0
100
AcDbLine
 10
87.02256608240071
 20
149.252079750179
 30
0.0
 11
125.8436577366004
 21
149.252079750179
 31
0.0
  0
LINE
  5
55DB
330
1F
100
AcDbEntity
  8
0
100
AcDbLine
 10
137.201474428201
 20
149.2520797501789
 30
0.0
 11
176.0225660824007
 21
149.252079750179
 31
0.0
  0
LINE
  5
55DC
330
1F
100
AcDbEntity
  8
0
100
AcDbLine
 10
87.02256608240071
 20
147.252079750179
 30
0.0
 11
125.8436577366005
 21
147.252079750179
 31
0.0
  0
ARC
  5
55DD
330
1F
100
AcDbEntity
  8
0
100
AcDbCircle
 10
87.02256608240071
 20
151.252079750179
 30
0.0
 40
4.0
100
AcDbArc
 50
180.0
 51
270.0
  0
LINE
  5
55DE
330
1F
100
AcDbEntity
  8
0
100
AcDbLine
 10
137.201474428201
 20
147.252079750179
 30
0.0
 11
176.0225660824007
 21
147.252079750179
 31
0.0
  0
LINE
  5
55DF
330
1F
100
AcDbEntity
  8
0
100
AcDbLine
 10
178.0225660824007
 20
161.752079750179
 30
0.0
 11
180.0225660824007
 21
161.752079750179
 31
0.0
  0
LINE
  5
55E0
330
1F
100
AcDbEntity
  8
0
100
AcDbLine
 10
85.02256608240072
 20
151.252079750179
 30
0.0
 11
85.02256608240072
 21
161.752079750179
 31
0.0
  0
ARC
  5
55E1
330
1F
100
AcDbEntity
  8
0
100
AcDbCircle
 10
87.02256608240071
 20
151.252079750179
 30
0.0
 40
2.0
100
AcDbArc
 50
180.0
 51
270.0
  0
LINE
  5
55E2
330
1F
100
AcDbEntity
  8
0
100
AcDbLine
 10
83.02256608240071
 20
151.252079750179
 30
0.0
 11
83.02256608240071
 21
161.752079750179
 31
0.0
  0
LINE
  5
55E3
330
1F
100
AcDbEntity
  8
0
100
AcDbLine
 10
178.0225660824007
 20
151.252079750179
 30
0.0
 11
178.0225660824007
 21
161.752079750179
 31
0.0
  0
ARC
  5
55E4
330
1F
100
AcDbEntity
  8
0
100
AcDbCircle
 10
176.0225660824007
 20
151.252079750179
 30
0.0
 40
2.0
100
AcDbArc
 50
270.0
 51
0.0
  0
LINE
  5
55E5
330
1F
100
AcDbEntity
  8
0
100
AcDbLine
 10
180.0225660824007
 20
151.252079750179
 30
0.0
 11
180.0225660824007
 21
161.752079750179
 31
0.0
  0
ARC
  5
55E6
330
1F
100
AcDbEntity
  8
0
100
AcDbCircle
 10
176.0225660824007
 20
151.252079750179
 30
0.0
 40
4.0
100
AcDbArc
 50
270.0
 51
0.0
  0
LINE
  5
55E7
330
1F
100
AcDbEntity
  8
SCHRAFFUR_RAND
100
AcDbLine
 10
87.32557505454948
 20
158.5599779125907
 30
0.0
 11
87.32557505454948
 21
158.5599779125907
 31
0.0
  0
ARC
  5
55EC
330
1F
100
AcDbEntity
  8
0
100
AcDbCircle
 10
131.5225664133836
 20
147.3770798115157
 30
0.0
 40
4.875
100
AcDbArc
 50
34.30765145579537
 51
145.6923485442046
  0
ARC
  5
55ED
330
1F
100
AcDbEntity
  8
0
100
AcDbCircle
 10
137.201474428201
 20
151.252079750179
 30
0.0
 40
2.0
100
AcDbArc
 50
214.3076514557954
 51
269.9999999999992
  0
ARC
  5
55EE
330
1F
100
AcDbEntity
  8
0
100
AcDbCircle
 10
125.8436577366004
 20
151.252079750179
 30
0.0
 40
2.0
100
AcDbArc
 50
270.0
 51
325.6923485442046
  0
ARC
  5
55F2
330
1F
100
AcDbEntity
  8
0
100
AcDbCircle
 10
131.5225664133836
 20
147.3770798115157
 30
0.0
 40
2.875
100
AcDbArc
 50
34.30765145579537
 51
145.6923485442046
  0
ARC
  5
55F3
330
1F
100
AcDbEntity
  8
0
100
AcDbCircle
 10
125.8436577366005
 20
151.252079750179
 30
0.0
 40
4.0
100
AcDbArc
 50
270.0
 51
325.6923485442046
  0
ARC
  5
55F4
330
1F
100
AcDbEntity
  8
0
100
AcDbCircle
 10
137.201474428201
 20
151.252079750179
 30
0.0
 40
4.0
100
AcDbArc
 50
214.3076514557954
 51
270.0
  0
LINE
  5
55FF
330
1F
100
AcDbEntity
  8
AM_7
100
AcDbLine
 10
131.5225660824007
 20
280.2442886197658
 30
0.0
 11
131.5225660824007
 21
270.721138208165
 31
0.0
1001
GENIUS_GENODEF_13
1002
{
1000
HIER
1070
     0
1002
}
1002
{
1000
MANEDIT
1070
     0
1002
}
1002
{
1000
NOSEL
1070
     0
1002
}
1002
{
1000
BEHIND
1070
     0
1002
}
1002
{
1000
OTHER
1070
     0
1002
}
1002
{
1000
REACTOR
1002
}
1001
GENIUS_GENOBJ-N-CEN_13
1002
{
1000
OWNER
1000
GEN
1002
}
  0
LINE
  5
5600
330
1F
100
AcDbEntity
  8
0
100
AcDbLine
 10
132.5225660824007
 20
274.2520797501791
 30
0.0
 11
130.5225660824007
 21
274.2520797501791
 31
0.0
  0
LINE
  5
5601
330
1F
100
AcDbEntity
  8
0
100
AcDbLine
 10
72.52256608240071
 20
275.2520797501791
 30
0.0
 11
72.52256608240071
 21
274.2520797501791
 31
0.0
  0
LINE
  5
5602
330
1F
100
AcDbEntity
  8
0
100
AcDbLine
 10
75.52256608240071
 20
275.2520797501791
 30
0.0
 11
75.52256608240071
 21
274.2520797501791
 31
0.0
  0
LINE
  5
5603
330
1F
100
AcDbEntity
  8
AM_7
  6
AM_DIN_G_W050x2
100
AcDbLine
 10
74.02256608240072
 20
278.2520797501791
 30
0.0
 11
74.02256608240072
 21
271.2520797501791
 31
0.0
1001
GENIUS_GENODEF_13
1002
{
1000
HIER
1070
     0
1002
}
1002
{
1000
MANEDIT
1070
     0
1002
}
1002
{
1000
NOSEL
1070
     0
1002
}
1002
{
1000
BEHIND
1070
     0
1002
}
1002
{
1000
OTHER
1070
     0
1002
}
1002
{
1000
REACTOR
1002
}
1001
GENIUS_GENOBJ-N-CEN_13
1002
{
1000
OWNER
1000
GEN
1002
}
1001
GENIUS_GENCEN_19
1002
{
1040
3.0
1002
}
  0
LINE
  5
5604
330
1F
100
AcDbEntity
  8
0
100
AcDbLine
 10
187.5225660824007
 20
275.252079750179
 30
0.0
 11
187.5225660824007
 21
274.252079750179
 31
0.0
  0
LINE
  5
5605
330
1F
100
AcDbEntity
  8
0
100
AcDbLine
 10
190.5225660824007
 20
275.252079750179
 30
0.0
 11
190.5225660824007
 21
274.252079750179
 31
0.0
  0
LINE
  5
5606
330
1F
100
AcDbEntity
  8
AM_7
  6
AM_DIN_G_W050x2
100
AcDbLine
 10
189.0225660824007
 20
278.252079750179
 30
0.0
 11
189.0225660824007
 21
271.252079750179
 31
0.0
1001
GENIUS_GENODEF_13
1002
{
1000
HIER
1070
     0
1002
}
1002
{
1000
MANEDIT
1070
     0
1002
}
1002
{
1000
NOSEL
1070
     0
1002
}
1002
{
1000
BEHIND
1070
     0
1002
}
1002
{
1000
OTHER
1070
     0
1002
}
1002
{
1000
REACTOR
1002
}
1001
GENIUS_GENOBJ-N-CEN_13
1002
{
1000
OWNER
1000
GEN
1002
}
1001
GENIUS_GENCEN_19
1002
{
1040
3.0
1002
}
  0
LINE
  5
5607
330
1F
100
AcDbEntity
  8
0
100
AcDbLine
 10
130.0155229614913
 20
275.2520797501791
 30
0.0
 11
130.0155229614913
 21
274.252079750179
 31
0.0
  0
LINE
  5
5608
330
1F
100
AcDbEntity
  8
0
100
AcDbLine
 10
133.0155229614913
 20
275.2520797501791
 30
0.0
 11
133.0155229614913
 21
274.252079750179
 31
0.0
  0
CIRCLE
  5
5609
330
1F
100
AcDbEntity
  8
0
100
AcDbCircle
 10
131.227882003219
 20
57.25981616126182
 30
0.0
 40
41.96544939441252
  0
CIRCLE
  5
560A
330
1F
100
AcDbEntity
  8
0
100
AcDbCircle
 10
131.227882003219
 20
57.25981616126182
 30
0.0
 40
48.03455060558737
  0
HATCH
  5
560C
330
1F
100
AcDbEntity
  8
AM_8
100
AcDbHatch
 10
0.0
 20
0.0
 30
0.0
210
0.0
220
0.0
230
1.0
  2
ANSI31
 70
     0
 71
     0
 91
        1
 92
        7
 72
     1
 73
     1
 93
        8
 10
69.02960920331017
 20
274.2520797501791
 42
0.0
 10
72.52256608240071
 20
274.2520797501791
 42
0.0
 10
72.52256608240071
 20
275.2520797501792
 42
0.0
 10
69.02960920331017
 20
275.2520797501791
 42
0.4142135623730953
 10
67.02960920331017
 20
273.2520797501791
 42
0.0
 10
67.02960920331017
 20
270.252079750179
 42
0.0
 10
68.02960920331017
 20
270.252079750179
 42
0.0
 10
68.02960920331017
 20
273.2520797501791
 42
-0.4142135623730953
 97
        0
 75
     0
 76
     1
 52
0.0
 41
0.2
 77
     0
 78
     1
 53
45.0
 43
-3.52196974407451
 44
32.29357660594593
 45
-0.4490128060534576
 46
0.4490128060534577
 79
     0
 47
0.0212607975130752
 98
        1
 10
68.31331893209977
 20
274.3400750172647
  0
LINE
  5
560D
330
1F
100
AcDbEntity
  8
0
100
AcDbLine
 10
69.02960920331017
 20
275.2520797501791
 30
0.0
 11
75.52256608240071
 21
275.2520797501791
 31
0.0
  0
HATCH
  5
560E
330
1F
100
AcDbEntity
  8
AM_8
100
AcDbHatch
 10
0.0
 20
0.0
 30
0.0
210
0.0
220
0.0
230
1.0
  2
ANSI31
 70
     0
 71
     0
 91
        1
 92
        7
 72
     1
 73
     1
 93
       12
 10
84.85960724383454
 20
275.3631908612902
 42
-0.2504916501726684
 10
86.52256608240071
 20
276.2520797501791
 42
-0.2504916501726663
 10
88.18552492096689
 20
275.3631908612903
 42
0.2504916501726742
 10
90.26422346917462
 20
274.2520797501791
 42
0.0
 10
90.26422346917462
 20
275.2520797501792
 42
-0.2504916501726663
 10
89.01700434025
 20
275.9187464168458
 42
0.2504916501726702
 10
86.52256608240071
 20
277.2520797501791
 42
0.250491650172669
 10
84.02812782455145
 20
275.9187464168458
 42
-0.2504916501726744
 10
82.7809086956268
 20
275.2520797501791
 42
0.0
 10
75.52256608240071
 20
275.2520797501791
 42
0.0
 10
75.52256608240071
 20
274.2520797501791
 42
0.0
 10
82.78090869562682
 20
274.2520797501791
 42
0.2504916501726729
 97
        0
 75
     0
 76
     1
 52
0.0
 41
0.2
 77
     0
 78
     1
 53
45.0
 43
-3.52196974407451
 44
32.29357660594593
 45
-0.4490128060534576
 46
0.4490128060534577
 79
     0
 47
0.0279660330808365
 98
        1
 10
82.09065857556794
 20
274.8380746084253
  0
LINE
  5
560F
330
1F
100
AcDbEntity
  8
0
100
AcDbLine
 10
75.52256608240071
 20
275.2520797501791
 30
0.0
 11
82.7809086956268
 21
275.2520797501791
 31
0.0
  0
HATCH
  5
5610
330
1F
100
AcDbEntity
  8
AM_8
100
AcDbHatch
 10
0.0
 20
0.0
 30
0.0
210
0.0
220
0.0
230
1.0
  2
ANSI31
 70
     0
 71
     0
 91
        1
 92
        1
 93
        4
 72
     1
 10
90.26422346917462
 20
274.2520797501791
 11
130.0155229614913
 21
274.2520797501791
 72
     1
 10
130.0155229614913
 20
274.252079750179
 11
130.0155229614913
 21
275.2520797501791
 72
     1
 10
130.0155229614913
 20
275.2520797501791
 11
90.26422346917462
 21
275.2520797501791
 72
     1
 10
90.26422346917462
 20
275.2520797501792
 11
90.26422346917462
 21
274.2520797501792
 97
        0
 75
     0
 76
     1
 52
0.0
 41
0.2
 77
     0
 78
     1
 53
45.0
 43
-3.52196974407451
 44
32.29357660594593
 45
-0.4490128060534576
 46
0.4490128060534577
 79
     0
 98
        1
 10
-3.52196974407451
 20
32.29357660594593
  0
LINE
  5
5611
330
1F
100
AcDbEntity
  8
0
100
AcDbLine
 10
90.26422346917462
 20
275.2520797501791
 30
0.0
 11
130.0155229614913
 21
275.2520797501791
 31
0.0
  0
HATCH
  5
5612
330
1F
100
AcDbEntity
  8
AM_8
100
AcDbHatch
 10
0.0
 20
0.0
 30
0.0
210
0.0
220
0.0
230
1.0
  2
ANSI31
 70
     0
 71
     0
 91
        1
 92
        7
 72
     0
 73
     1
 93
        4
 10
172.7809086956268
 20
275.2520797501791
 10
133.0155229614913
 20
275.2520797501791
 10
133.0155229614913
 20
274.252079750179
 10
172.7809086956268
 20
274.252079750179
 97
        0
 75
     0
 76
     1
 52
0.0
 41
0.2
 77
     0
 78
     1
 53
45.0
 43
-3.52196974407451
 44
32.29357660594593
 45
-0.4490128060534576
 46
0.4490128060534577
 79
     0
 47
0.0582426649357598
 98
        1
 10
158.3142636366327
 20
274.8421201105509
  0
LINE
  5
5613
330
1F
100
AcDbEntity
  8
0
100
AcDbLine
 10
130.0155229614913
 20
275.2520797501791
 30
0.0
 11
172.7809086956268
 21
275.2520797501791
 31
0.0
  0
HATCH
  5
5614
330
1F
100
AcDbEntity
  8
AM_8
100
AcDbHatch
 10
0.0
 20
0.0
 30
0.0
210
0.0
220
0.0
230
1.0
  2
ANSI31
 70
     0
 71
     0
 91
        1
 92
        7
 72
     1
 73
     1
 93
        8
 10
187.5225660824007
 20
275.2520797501791
 42
0.0
 10
180.2642234691746
 20
275.2520797501791
 42
-0.2504916501726804
 10
179.0170043402499
 20
275.9187464168458
 42
0.2504916501726702
 10
176.5225660824007
 20
277.2520797501791
 42
0.0
 10
176.5225660824007
 20
276.2520797501791
 42
-0.2504916501726702
 10
178.1855249209669
 20
275.3631908612903
 42
0.2504916501726804
 10
180.2642234691746
 20
274.252079750179
 42
0.0
 10
187.5225660824007
 20
274.252079750179
 42
0.0
 97
        0
 75
     0
 76
     1
 52
0.0
 41
0.2
 77
     0
 78
     1
 53
45.0
 43
-3.52196974407451
 44
32.29357660594593
 45
-0.4490128060534576
 46
0.4490128060534577
 79
     0
 47
0.0246935008655302
 98
        1
 10
180.8824628913808
 20
274.7880774975828
  0
HATCH
  5
5615
330
1F
100
AcDbEntity
  8
AM_8
100
AcDbHatch
 10
0.0
 20
0.0
 30
0.0
210
0.0
220
0.0
230
1.0
  2
ANSI31
 70
     0
 71
     0
 91
        1
 92
        7
 72
     1
 73
     1
 93
        8
 10
194.0296092033102
 20
275.252079750179
 42
0.0
 10
190.5225660824007
 20
275.252079750179
 42
0.0
 10
190.5225660824006
 20
274.2520797501791
 42
0.0
 10
194.0296092033102
 20
274.252079750179
 42
-0.4142135623730951
 10
195.0296092033102
 20
273.252079750179
 42
0.0
 10
195.0296092033102
 20
270.252079750179
 42
0.0
 10
196.0296092033102
 20
270.252079750179
 42
0.0
 10
196.0296092033102
 20
273.252079750179
 42
0.4142135623730951
 97
        0
 75
     0
 76
     1
 52
0.0
 41
0.2
 77
     0
 78
     1
 53
45.0
 43
-3.52196974407451
 44
32.29357660594593
 45
-0.4490128060534576
 46
0.4490128060534577
 79
     0
 47
0.0192756923233555
 98
        1
 10
194.9460829785769
 20
274.3319467030985
  0
LINE
  5
5616
330
1F
100
AcDbEntity
  8
0
100
AcDbLine
 10
180.2642234691746
 20
275.2520797501791
 30
0.0
 11
194.0296092033102
 21
275.252079750179
 31
0.0
  0
LINE
  5
5617
330
1F
100
AcDbEntity
  8
0
100
AcDbLine
 10
69.02960920331017
 20
274.2520797501791
 30
0.0
 11
90.26422346917462
 21
274.2520797501791
 31
0.0
  0
LINE
  5
5618
330
1F
100
AcDbEntity
  8
0
100
AcDbLine
 10
90.26422346917462
 20
274.2520797501791
 30
0.0
 11
130.0155229614913
 21
274.2520797501791
 31
0.0
  0
LINE
  5
5619
330
1F
100
AcDbEntity
  8
0
100
AcDbLine
 10
131.5225660824007
 20
274.252079750179
 30
0.0
 11
176.5225660824006
 21
274.252079750179
 31
0.0
  0
LINE
  5
561A
330
1F
100
AcDbEntity
  8
0
100
AcDbLine
 10
176.5225660824007
 20
274.252079750179
 30
0.0
 11
194.0296092033102
 21
274.252079750179
 31
0.0
  0
ARC
  5
561B
330
1F
100
AcDbEntity
  8
0N
100
AcDbCircle
 10
86.52256608240071
 20
274.2520797501791
 30
0.0
 40
3.0
100
AcDbArc
 50
90.0
 51
146.2510114041084
  0
ARC
  5
561C
330
1F
100
AcDbEntity
  8
0N
100
AcDbCircle
 10
86.52256608240071
 20
274.2520797501791
 30
0.0
 40
2.0
100
AcDbArc
 50
90.0
 51
146.2510114041084
  0
ARC
  5
561D
330
1F
100
AcDbEntity
  8
0N
100
AcDbCircle
 10
82.7809086956268
 20
276.7520797501791
 30
0.0
 40
1.5
100
AcDbArc
 50
270.0
 51
326.2510114041084
  0
ARC
  5
561E
330
1F
100
AcDbEntity
  8
0N
100
AcDbCircle
 10
82.7809086956268
 20
276.7520797501791
 30
0.0
 40
2.5
100
AcDbArc
 50
270.0
 51
326.2510114041084
  0
ARC
  5
561F
330
1F
100
AcDbEntity
  8
0N
100
AcDbCircle
 10
86.52256608240071
 20
274.2520797501791
 30
0.0
 40
3.0
100
AcDbArc
 50
33.74898859589158
 51
90.0
  0
ARC
  5
5620
330
1F
100
AcDbEntity
  8
0N
100
AcDbCircle
 10
86.52256608240071
 20
274.2520797501791
 30
0.0
 40
2.0
100
AcDbArc
 50
33.74898859589158
 51
90.0
  0
ARC
  5
5621
330
1F
100
AcDbEntity
  8
0N
100
AcDbCircle
 10
90.26422346917462
 20
276.7520797501792
 30
0.0
 40
1.5
100
AcDbArc
 50
213.7489885958916
 51
270.0
  0
ARC
  5
5622
330
1F
100
AcDbEntity
  8
0N
100
AcDbCircle
 10
90.26422346917462
 20
276.7520797501792
 30
0.0
 40
2.5
100
AcDbArc
 50
213.7489885958916
 51
270.0
  0
ARC
  5
5623
330
1F
100
AcDbEntity
  8
0N
100
AcDbCircle
 10
176.5225660824007
 20
274.2520797501791
 30
0.0
 40
3.0
100
AcDbArc
 50
33.74898859589158
 51
90.0
  0
ARC
  5
5624
330
1F
100
AcDbEntity
  8
0N
100
AcDbCircle
 10
176.5225660824007
 20
274.2520797501791
 30
0.0
 40
2.0
100
AcDbArc
 50
33.74898859589158
 51
90.0
  0
ARC
  5
5625
330
1F
100
AcDbEntity
  8
0N
100
AcDbCircle
 10
180.2642234691746
 20
276.7520797501791
 30
0.0
 40
1.5
100
AcDbArc
 50
213.7489885958877
 51
270.0
  0
ARC
  5
5626
330
1F
100
AcDbEntity
  8
0N
100
AcDbCircle
 10
180.2642234691746
 20
276.7520797501791
 30
0.0
 40
2.5
100
AcDbArc
 50
213.7489885958916
 51
270.0
  0
ARC
  5
5627
330
1F
100
AcDbEntity
  8
0N
100
AcDbCircle
 10
176.5225660824007
 20
274.2520797501791
 30
0.0
 40
3.0
100
AcDbArc
 50
90.0
 51
146.2510114041084
  0
ARC
  5
5628
330
1F
100
AcDbEntity
  8
0N
100
AcDbCircle
 10
176.5225660824007
 20
274.2520797501791
 30
0.0
 40
2.0
100
AcDbArc
 50
90.0
 51
146.2510114041084
  0
ARC
  5
5629
330
1F
100
AcDbEntity
  8
0N
100
AcDbCircle
 10
172.7809086956268
 20
276.7520797501792
 30
0.0
 40
2.5
100
AcDbArc
 50
270.0
 51
326.2510114041084
  0
LINE
  5
562A
330
1F
100
AcDbEntity
  8
0N
100
AcDbLine
 10
86.52256608240071
 20
277.2520797501791
 30
0.0
 11
176.5225660824007
 21
277.2520797501791
 31
0.0
  0
ARC
  5
562B
330
1F
100
AcDbEntity
  8
0N
100
AcDbCircle
 10
172.7809086956268
 20
276.7520797501792
 30
0.0
 40
1.5
100
AcDbArc
 50
270.0
 51
326.2510114041084
  0
LINE
  5
562C
330
1F
100
AcDbEntity
  8
AM_7
  6
AM_DIN_G_W050x2
100
AcDbLine
 10
74.02256608240072
 20
278.2520797501791
 30
0.0
 11
74.02256608240072
 21
271.2520797501791
 31
0.0
1001
GENIUS_GENODEF_13
1002
{
1000
HIER
1070
     0
1002
}
1002
{
1000
MANEDIT
1070
     0
1002
}
1002
{
1000
NOSEL
1070
     0
1002
}
1002
{
1000
BEHIND
1070
     0
1002
}
1002
{
1000
OTHER
1070
     0
1002
}
1002
{
1000
REACTOR
1002
}
1001
GENIUS_GENOBJ-N-CEN_13
1002
{
1000
OWNER
1000
GEN
1002
}
1001
GENIUS_GENCEN_19
1002
{
1040
3.0
1002
}
  0
LINE
  5
562D
330
1F
100
AcDbEntity
  8
AM_7
  6
AM_DIN_G_W050x2
100
AcDbLine
 10
189.0225660824007
 20
278.252079750179
 30
0.0
 11
189.0225660824007
 21
271.252079750179
 31
0.0
1001
GENIUS_GENODEF_13
1002
{
1000
HIER
1070
     0
1002
}
1002
{
1000
MANEDIT
1070
     0
1002
}
1002
{
1000
NOSEL
1070
     0
1002
}
1002
{
1000
BEHIND
1070
     0
1002
}
1002
{
1000
OTHER
1070
     0
1002
}
1002
{
1000
REACTOR
1002
}
1001
GENIUS_GENOBJ-N-CEN_13
1002
{
1000
OWNER
1000
GEN
1002
}
1001
GENIUS_GENCEN_19
1002
{
1040
3.0
1002
}
  0
LINE
  5
562E
330
1F
100
AcDbEntity
  8
0
100
AcDbLine
 10
195.0296092033102
 20
273.252079750179
 30
0.0
 11
195.0296092033102
 21
270.252079750179
 31
0.0
  0
ARC
  5
562F
330
1F
100
AcDbEntity
  8
0
100
AcDbCircle
 10
194.0296092033102
 20
273.252079750179
 30
0.0
 40
1.0
100
AcDbArc
 50
0.0
 51
90.0
  0
ARC
  5
5630
330
1F
100
AcDbEntity
  8
0
100
AcDbCircle
 10
194.0296092033102
 20
273.252079750179
 30
0.0
 40
1.999999999999998
100
AcDbArc
 50
0.0
 51
90.0
  0
LINE
  5
5631
330
1F
100
AcDbEntity
  8
0
100
AcDbLine
 10
195.0296092033102
 20
270.252079750179
 30
0.0
 11
196.0296092033102
 21
270.252079750179
 31
0.0
  0
LINE
  5
5632
330
1F
100
AcDbEntity
  8
0
100
AcDbLine
 10
196.0296092033102
 20
270.252079750179
 30
0.0
 11
196.0296092033102
 21
273.252079750179
 31
0.0
  0
LINE
  5
5633
330
1F
100
AcDbEntity
  8
0
100
AcDbLine
 10
67.02960920331017
 20
273.2520797501791
 30
0.0
 11
67.02960920331017
 21
270.252079750179
 31
0.0
  0
LINE
  5
5634
330
1F
100
AcDbEntity
  8
0
100
AcDbLine
 10
67.02960920331017
 20
270.252079750179
 30
0.0
 11
68.02960920331017
 21
270.252079750179
 31
0.0
  0
LINE
  5
5635
330
1F
100
AcDbEntity
  8
0
100
AcDbLine
 10
68.02960920331017
 20
270.252079750179
 30
0.0
 11
68.02960920331017
 21
273.2520797501791
 31
0.0
  0
ARC
  5
5636
330
1F
100
AcDbEntity
  8
0
100
AcDbCircle
 10
69.02960920331017
 20
273.2520797501791
 30
0.0
 40
1.0
100
AcDbArc
 50
90.0
 51
180.0
  0
ARC
  5
5637
330
1F
100
AcDbEntity
  8
0
100
AcDbCircle
 10
69.02960920331017
 20
273.2520797501791
 30
0.0
 40
2.0
100
AcDbArc
 50
90.0
 51
180.0
  0
HATCH
  5
5639
330
1F
100
AcDbEntity
  8
AM_8
100
AcDbHatch
 10
0.0
 20
0.0
 30
0.0
210
0.0
220
0.0
230
1.0
  2
ANSI31
 70
     0
 71
     0
 91
        1
 92
        7
 72
     1
 73
     1
 93
        6
 10
176.5225656046587
 20
277.2500048975257
 42
0.2504916501726639
 10
174.0281273468095
 20
275.9166715641924
 42
-0.2504916501726692
 10
172.7809082178849
 20
275.2500048975257
 42
0.0
 10
172.7809082178849
 20
274.2500048975256
 42
0.2504916501726713
 10
174.8596067660926
 20
275.3611160086368
 42
-0.2504916501726704
 10
176.5225656046588
 20
276.2500048975257
 42
0.0
 97
        0
 75
     0
 76
     1
 52
0.0
 41
0.2
 77
     0
 78
     1
 53
45.0
 43
-3.521970221816388
 44
32.29150175329244
 45
-0.4490128060534576
 46
0.4490128060534577
 79
     0
 47
0.0110408182338866
 98
        1
 10
175.2021306119491
 20
276.2541898117983
  0
CIRCLE
  5
563A
330
1F
100
AcDbEntity
  8
0
100
AcDbCircle
 10
153.3261501241133
 20
78.29819643753683
 30
0.0
 40
5.399362799999996
  0
CIRCLE
  5
563B
330
1F
100
AcDbEntity
  8
0
100
AcDbCircle
 10
153.3261501241133
 20
78.29819643753683
 30
0.0
 40
7.799079599999999
  0
LWPOLYLINE
  5
563C
330
1F
100
AcDbEntity
  8
0
100
AcDbPolyline
 90
        9
 70
     0
 43
0.0
 10
110.3260538823256
 20
72.55851524033267
 10
114.3777415174474
 20
72.55851524033267
 42
-0.0323236910300515
 10
114.5287634433296
 20
70.39414888445697
 10
116.9285068984813
 20
70.39414888445697
 42
0.2369604974400691
 10
109.1296138823247
 20
85.75695764033184
 42
0.2369604974400691
 10
101.3307208661687
 20
70.39414888445697
 10
103.7304643213203
 20
70.39414888445697
 42
-0.0323236910300514
 10
103.8814862472032
 20
72.55851524033267
 10
107.9331738823256
 20
72.55851524033267
  0
LWPOLYLINE
  5
563D
330
1F
100
AcDbEntity
  8
0
100
AcDbPolyline
 90
        4
 70
     1
 43
0.0
 10
135.9038673522678
 20
75.59851503753674
 42
-3.664441495333134
 10
135.8533287422755
 20
81.08357991386094
 10
137.9317887449105
 20
82.28357935588212
 42
3.685001202565794
 10
137.9820830629564
 20
74.39865663753664
  0
LINE
  5
563E
330
1F
100
AcDbEntity
  8
0
100
AcDbLine
 10
107.9331738823256
 20
74.95823204033269
 30
0.0
 11
110.3260538823256
 21
74.95823204033269
 31
0.0
  0
LWPOLYLINE
  5
563F
330
1F
100
AcDbEntity
  8
0
100
AcDbPolyline
 90
        5
 70
     0
 43
0.0
 10
107.9331738823256
 20
74.95823204033269
 10
104.386311930591
 20
74.95823204033269
 42
-0.136991917413112
 10
109.1296138823253
 20
82.64823096659171
 42
-0.1369919174131031
 10
113.8729158340602
 20
74.95823204033269
 10
110.3260538823256
 20
74.95823204033269
  0
LINE
  5
5640
330
1F
100
AcDbEntity
  8
0
100
AcDbLine
 10
110.3260538823256
 20
72.55851524033267
 30
0.0
 11
107.9331738823256
 21
72.55851524033267
 31
0.0
  0
LWPOLYLINE
  5
5641
330
1F
100
AcDbEntity
  8
0
100
AcDbPolyline
 90
        4
 70
     1
 43
0.0
 10
104.6810930044494
 20
53.72220824958834
 10
158.0592516487118
 20
53.72220824958834
 10
158.0592516487118
 20
27.57154372474599
 10
104.6810930044494
 20
27.57154372474599
  0
POINT
  5
5642
330
1F
100
AcDbEntity
  8
0
 60
     1
100
AcDbPoint
 10
0.0000004460866876
 20
0.0000001288062776
 30
0.0
1001
GENIUS_GENOBJ-NBEHI-BHB_13
1002
{
1000
OWNER
1000
genbehi
1002
}
1001
GENIUS_GENOENT_13
1002
{
1000
MYREF
1005
5642
1002
}
1002
{
1000
GRP
1005
0
1002
}
1001
GENIUS_GENOLIS_13
1002
{
1000
ENT
1005
5447
1005
5446
1005
0
1005
0
1005
0
1005
0
1002
}
1001
GENIUS_GENBH_13
1002
{
1000
FGO
1005
0
1002
}
1001
GENIUS_GENODEF_13
1002
{
1000
HIER
1070
     1
1002
}
1002
{
1000
MANEDIT
1070
     1
1002
}
1002
{
1000
NOSEL
1070
     1
1002
}
1002
{
1000
BEHIND
1070
     0
1002
}
1002
{
1000
OTHER
1070
     1
1002
}
1002
{
1000
REACTOR
1002
}
  0
POINT
  5
5643
330
1F
100
AcDbEntity
  8
0
 60
     1
100
AcDbPoint
 10
0.0000004460866876
 20
0.0000001288062776
 30
0.0
1001
GENIUS_GENOLIS_13
1002
{
1000
ENT
1005
0
1005
5445
1005
0
1005
5444
1005
0
1005
0
1005
0
1002
}
1001
GENIUS_GENOENT_13
1002
{
1000
MYREF
1005
5643
1002
}
1002
{
1000
GRP
1005
0
1002
}
1001
GENIUS_GENOBJ-NBEHI-BHB_13
1002
{
1000
OWNER
1000
genbehi
1002
}
1001
GENIUS_GENBH_13
1002
{
1000
FGO
1005
0
1002
}
1001
GENIUS_GENODEF_13
1002
{
1000
HIER
1070
     1
1002
}
1002
{
1000
MANEDIT
1070
     1
1002
}
1002
{
1000
NOSEL
1070
     1
1002
}
1002
{
1000
BEHIND
1070
     0
1002
}
1002
{
1000
OTHER
1070
     1
1002
}
1002
{
1000
REACTOR
1002
}
  0
POINT
  5
5644
330
1F
100
AcDbEntity
  8
0
 60
     1
100
AcDbPoint
 10
0.0000004460866876
 20
0.0000001288062776
 30
0.0
1001
GENIUS_GENOBJ-NBEHI-BHB_13
1002
{
1000
OWNER
1000
genbehi
1002
}
1001
GENIUS_GENOLIS_13
1002
{
1000
ENT
1005
5443
1002
}
1001
GENIUS_GENODEF_13
1002
{
1000
HIER
1070
     1
1002
}
1002
{
1000
MANEDIT
1070
     0
1002
}
1002
{
1000
NOSEL
1070
     1
1002
}
1002
{
1000
BEHIND
1070
     0
1002
}
1002
{
1000
OTHER
1070
     1
1002
}
1002
{
1000
REACTOR
1002
}
1001
GENIUS_GENOENT_13
1002
{
1000
MYREF
1005
5644
1002
}
1002
{
1000
GRP
1005
0
1002
}
1001
GENIUS_GENBH_13
1002
{
1000
FGO
1005
0
1002
}
  0
POINT
  5
5645
330
1F
100
AcDbEntity
  8
0
 60
     1
100
AcDbPoint
 10
0.0000004460866876
 20
0.0000001288062776
 30
0.0
1001
GENIUS_GENOLIS_13
1002
{
1000
ENT
1005
0
1005
5443
1005
0
1002
}
1001
GENIUS_GENOENT_13
1002
{
1000
MYREF
1005
5645
1002
}
1002
{
1000
GRP
1005
0
1002
}
1001
GENIUS_GENOBJ-NBEHI-BHB_13
1002
{
1000
OWNER
1000
genbehi
1002
}
1001
GENIUS_GENBH_13
1002
{
1000
FGO
1005
0
1002
}
1001
GENIUS_GENODEF_13
1002
{
1000
HIER
1070
     1
1002
}
1002
{
1000
MANEDIT
1070
     1
1002
}
1002
{
1000
NOSEL
1070
     1
1002
}
1002
{
1000
BEHIND
1070
     0
1002
}
1002
{
1000
OTHER
1070
     1
1002
}
1002
{
1000
REACTOR
1002
}
  0
POINT
  5
5646
330
1F
100
AcDbEntity
  8
0
 60
     1
100
AcDbPoint
 10
0.0000004460866876
 20
0.0000001288062776
 30
0.0
1001
GENIUS_GENOLIS_13
1002
{
1000
ENT
1005
5442
1002
}
1001
GENIUS_GENOBJ-NBEHI-BHB_13
1002
{
1000
OWNER
1000
genbehi
1002
}
1001
GENIUS_GENOENT_13
1002
{
1000
MYREF
1005
5646
1002
}
1002
{
1000
GRP
1005
0
1002
}
1001
GENIUS_GENODEF_13
1002
{
1000
HIER
1070
     1
1002
}
1002
{
1000
MANEDIT
1070
     0
1002
}
1002
{
1000
NOSEL
1070
     1
1002
}
1002
{
1000
BEHIND
1070
     0
1002
}
1002
{
1000
OTHER
1070
     1
1002
}
1002
{
1000
REACTOR
1002
}
1001
GENIUS_GENBH_13
1002
{
1000
FGO
1005
0
1002
}
  0
POINT
  5
5647
330
1F
100
AcDbEntity
  8
0
 60
     1
100
AcDbPoint
 10
0.0000004460866876
 20
0.0000001288062776
 30
0.0
1001
GENIUS_GENOBJ-NBEHI-BHB_13
1002
{
1000
OWNER
1000
genbehi
1002
}
1001
GENIUS_GENOLIS_13
1002
{
1000
ENT
1005
0
1005
5443
1005
0
1005
5442
1005
0
1002
}
1001
GENIUS_GENOENT_13
1002
{
1000
MYREF
1005
5647
1002
}
1002
{
1000
GRP
1005
0
1002
}
1001
GENIUS_GENBH_13
1002
{
1000
FGO
1005
0
1002
}
1001
GENIUS_GENODEF_13
1002
{
1000
HIER
1070
     1
1002
}
1002
{
1000
MANEDIT
1070
     1
1002
}
1002
{
1000
NOSEL
1070
     1
1002
}
1002
{
1000
BEHIND
1070
     1
1002
}
1002
{
1000
OTHER
1070
     1
1002
}
1002
{
1000
REACTOR
1002
}
  0
LINE
  5
583D
330
1F
100
AcDbEntity
  8
AM_7N
  6
AM_DIN_G_W050x2
100
AcDbLine
 10
131.5225664133836
 20
265.2520798261781
 30
0.0
 11
131.5225664133836
 21
146.2520798115158
 31
0.0
  0
LINE
  5
583E
330
1F
100
AcDbEntity
  8
AM_7N
  6
AM_DIN_G_W050x2
100
AcDbLine
 10
135.0225664133836
 20
257.2520798261781
 30
0.0
 11
128.0225664133836
 21
257.2520798261781
 31
0.0
  0
LINE
  5
5841
330
1F
100
AcDbEntity
  8
AM_7N
  6
AM_DIN_G_W050x2
100
AcDbLine
 10
128.0225664133836
 20
154.2520798115158
 30
0.0
 11
135.0225664133836
 21
154.2520798115158
 31
0.0
  0
LINE
  5
5842
330
1F
100
AcDbEntity
  8
AM_0N
100
AcDbLine
 10
131.0225664133836
 20
253.5651621769052
 30
0.0
 11
131.0225664133836
 21
253.9989101283504
 31
0.0
  0
LINE
  5
5843
330
1F
100
AcDbEntity
  8
AM_0N
100
AcDbLine
 10
132.0225664133836
 20
256.6821917013501
 30
0.0
 11
132.0225664133836
 21
253.5651621769052
 31
0.0
  0
ARC
  5
5844
330
1F
100
AcDbEntity
  8
AM_0N
100
AcDbCircle
 10
136.0225664133836
 20
158.6815062437459
 30
0.0
 40
0.5000000000000038
100
AcDbArc
 50
0.0
 51
78.40983528276469
  0
LINE
  5
5845
330
1F
100
AcDbEntity
  8
AM_0N
100
AcDbLine
 10
136.1230254899074
 20
159.1713102595971
 30
0.0
 11
129.5111419473296
 21
160.5274112576995
 31
0.0
  0
LINE
  5
5846
330
1F
100
AcDbEntity
  8
AM_0N
100
AcDbLine
 10
126.9221073368598
 20
160.0376072418483
 30
0.0
 11
133.6658572276135
 21
158.6544603822714
 31
0.0
  0
LINE
  5
5847
330
1F
100
AcDbEntity
  8
AM_0N
100
AcDbLine
 10
136.1230254899074
 20
251.4665609572815
 30
0.0
 11
129.3792902291551
 21
252.849704816237
 31
0.0
  0
LINE
  5
5848
330
1F
100
AcDbEntity
  8
AM_0N
100
AcDbLine
 10
126.9221073368598
 20
252.3328579395328
 30
0.0
 11
133.5339908794376
 21
250.9767569414303
 31
0.0
  0
LINE
  5
5849
330
1F
100
AcDbEntity
  8
AM_0N
100
AcDbLine
 10
136.1230254899074
 20
162.8631202875044
 30
0.0
 11
129.5111419473296
 21
164.2192212856069
 31
0.0
  0
LINE
  5
584A
330
1F
100
AcDbEntity
  8
AM_0N
100
AcDbLine
 10
126.9221073368598
 20
163.7294172697557
 30
0.0
 11
133.5339908794376
 21
162.3733162716532
 31
0.0
  0
LINE
  5
584B
330
1F
100
AcDbEntity
  8
AM_0N
100
AcDbLine
 10
136.1230254899074
 20
166.5549303154118
 30
0.0
 11
129.5111419473296
 21
167.9110313135143
 31
0.0
  0
LINE
  5
584C
330
1F
100
AcDbEntity
  8
AM_0N
100
AcDbLine
 10
126.9221073368598
 20
167.4212272976631
 30
0.0
 11
133.5339908794376
 21
166.0651262995606
 31
0.0
  0
LINE
  5
584D
330
1F
100
AcDbEntity
  8
AM_0N
100
AcDbLine
 10
136.1230254899074
 20
170.2467403433192
 30
0.0
 11
129.5111419473296
 21
171.6028413414217
 31
0.0
  0
LINE
  5
584E
330
1F
100
AcDbEntity
  8
AM_0N
100
AcDbLine
 10
126.9221073368598
 20
171.1130373255704
 30
0.0
 11
133.5339908794376
 21
169.756936327468
 31
0.0
  0
LINE
  5
584F
330
1F
100
AcDbEntity
  8
AM_0N
100
AcDbLine
 10
136.1230254899074
 20
173.9385503712266
 30
0.0
 11
129.5111419473296
 21
175.294651369329
 31
0.0
  0
LINE
  5
5850
330
1F
100
AcDbEntity
  8
AM_0N
100
AcDbLine
 10
126.9221073368598
 20
174.8048473534778
 30
0.0
 11
133.5339908794376
 21
173.4487463553754
 31
0.0
  0
LINE
  5
5851
330
1F
100
AcDbEntity
  8
AM_0N
100
AcDbLine
 10
136.1230254899074
 20
177.6303603991339
 30
0.0
 11
129.5111419473296
 21
178.9864613972364
 31
0.0
  0
LINE
  5
5852
330
1F
100
AcDbEntity
  8
AM_0N
100
AcDbLine
 10
126.9221073368598
 20
178.4966573813852
 30
0.0
 11
133.5339908794376
 21
177.1405563832827
 31
0.0
  0
LINE
  5
5853
330
1F
100
AcDbEntity
  8
AM_0N
100
AcDbLine
 10
136.1230254899074
 20
181.3221704270413
 30
0.0
 11
129.5111419473296
 21
182.6782714251438
 31
0.0
  0
LINE
  5
5854
330
1F
100
AcDbEntity
  8
AM_0N
100
AcDbLine
 10
126.9221073368598
 20
182.1884674092926
 30
0.0
 11
133.5339908794376
 21
180.8323664111901
 31
0.0
  0
LINE
  5
5855
330
1F
100
AcDbEntity
  8
AM_0N
100
AcDbLine
 10
136.1230254899074
 20
185.0139804549487
 30
0.0
 11
129.5111419473296
 21
186.3700814530512
 31
0.0
  0
LINE
  5
5856
330
1F
100
AcDbEntity
  8
AM_0N
100
AcDbLine
 10
126.9221073368598
 20
185.8802774371999
 30
0.0
 11
133.5339908794376
 21
184.5241764390975
 31
0.0
  0
LINE
  5
5857
330
1F
100
AcDbEntity
  8
AM_0N
100
AcDbLine
 10
136.1230254899074
 20
188.7057904828561
 30
0.0
 11
129.5111419473296
 21
190.0618914809586
 31
0.0
  0
LINE
  5
5858
330
1F
100
AcDbEntity
  8
AM_0N
100
AcDbLine
 10
126.9221073368598
 20
189.5720874651073
 30
0.0
 11
133.5339908794376
 21
188.2159864670049
 31
0.0
  0
LINE
  5
5859
330
1F
100
AcDbEntity
  8
AM_0N
100
AcDbLine
 10
136.1230254899074
 20
192.3976005107635
 30
0.0
 11
129.5111419473296
 21
193.7537015088659
 31
0.0
  0
LINE
  5
585A
330
1F
100
AcDbEntity
  8
AM_0N
100
AcDbLine
 10
126.9221073368598
 20
193.2638974930147
 30
0.0
 11
133.5339908794376
 21
191.9077964949122
 31
0.0
  0
LINE
  5
585B
330
1F
100
AcDbEntity
  8
AM_0N
100
AcDbLine
 10
136.1230254899074
 20
196.0894105386708
 30
0.0
 11
129.5111419473297
 21
197.4455115367733
 31
0.0
  0
LINE
  5
585C
330
1F
100
AcDbEntity
  8
AM_0N
100
AcDbLine
 10
126.9221073368598
 20
196.9557075209221
 30
0.0
 11
133.5339908794376
 21
195.5996065228196
 31
0.0
  0
LINE
  5
585D
330
1F
100
AcDbEntity
  8
AM_0N
100
AcDbLine
 10
136.1230254899074
 20
199.7812205665782
 30
0.0
 11
129.5111419473296
 21
201.1373215646807
 31
0.0
  0
LINE
  5
585E
330
1F
100
AcDbEntity
  8
AM_0N
100
AcDbLine
 10
126.9221073368598
 20
200.6475175488295
 30
0.0
 11
133.5339908794376
 21
199.291416550727
 31
0.0
  0
LINE
  5
585F
330
1F
100
AcDbEntity
  8
AM_0N
100
AcDbLine
 10
136.1230254899074
 20
203.4730305944856
 30
0.0
 11
129.5111419473296
 21
204.8291315925881
 31
0.0
  0
LINE
  5
5860
330
1F
100
AcDbEntity
  8
AM_0N
100
AcDbLine
 10
126.9221073368598
 20
204.3393275767369
 30
0.0
 11
133.5339908794376
 21
202.9832265786344
 31
0.0
  0
LINE
  5
5861
330
1F
100
AcDbEntity
  8
AM_0N
100
AcDbLine
 10
136.1230254899074
 20
207.164840622393
 30
0.0
 11
129.5111419473296
 21
208.5209416204955
 31
0.0
  0
LINE
  5
5862
330
1F
100
AcDbEntity
  8
AM_0N
100
AcDbLine
 10
126.9221073368598
 20
208.0311376046442
 30
0.0
 11
133.5339908794376
 21
206.6750366065418
 31
0.0
  0
LINE
  5
5863
330
1F
100
AcDbEntity
  8
AM_0N
100
AcDbLine
 10
136.1230254899074
 20
210.8566506503004
 30
0.0
 11
129.5111419473296
 21
212.2127516484028
 31
0.0
  0
LINE
  5
5864
330
1F
100
AcDbEntity
  8
AM_0N
100
AcDbLine
 10
126.9221073368598
 20
211.7229476325516
 30
0.0
 11
133.5339908794376
 21
210.3668466344492
 31
0.0
  0
LINE
  5
5865
330
1F
100
AcDbEntity
  8
AM_0N
100
AcDbLine
 10
136.1230254899074
 20
214.5484606782077
 30
0.0
 11
129.5111419473296
 21
215.9045616763102
 31
0.0
  0
LINE
  5
5866
330
1F
100
AcDbEntity
  8
AM_0N
100
AcDbLine
 10
126.9221073368598
 20
215.414757660459
 30
0.0
 11
133.5339908794376
 21
214.0586566623565
 31
0.0
  0
LINE
  5
5867
330
1F
100
AcDbEntity
  8
AM_0N
100
AcDbLine
 10
136.1230254899074
 20
218.2402707061151
 30
0.0
 11
129.5111419473296
 21
219.5963717042176
 31
0.0
  0
LINE
  5
5868
330
1F
100
AcDbEntity
  8
AM_0N
100
AcDbLine
 10
126.9221073368598
 20
219.1065676883664
 30
0.0
 11
133.5339908794376
 21
217.7504666902639
 31
0.0
  0
LINE
  5
5869
330
1F
100
AcDbEntity
  8
AM_0N
100
AcDbLine
 10
136.1230254899074
 20
221.9320807340225
 30
0.0
 11
129.5111419473296
 21
223.288181732125
 31
0.0
  0
LINE
  5
586A
330
1F
100
AcDbEntity
  8
AM_0N
100
AcDbLine
 10
126.9221073368598
 20
222.7983777162738
 30
0.0
 11
133.5339908794376
 21
221.4422767181713
 31
0.0
  0
LINE
  5
586B
330
1F
100
AcDbEntity
  8
AM_0N
100
AcDbLine
 10
136.1230254899074
 20
225.6238907619299
 30
0.0
 11
129.5111419473296
 21
226.9799917600324
 31
0.0
  0
LINE
  5
586C
330
1F
100
AcDbEntity
  8
AM_0N
100
AcDbLine
 10
126.9221073368598
 20
226.4901877441811
 30
0.0
 11
133.5339908794376
 21
225.1340867460787
 31
0.0
  0
LINE
  5
586D
330
1F
100
AcDbEntity
  8
AM_0N
100
AcDbLine
 10
136.1230254899074
 20
229.3157007898372
 30
0.0
 11
129.5111419473296
 21
230.6718017879397
 31
0.0
  0
LINE
  5
586E
330
1F
100
AcDbEntity
  8
AM_0N
100
AcDbLine
 10
126.9221073368598
 20
230.1819977720885
 30
0.0
 11
133.5339908794376
 21
228.8258967739861
 31
0.0
  0
LINE
  5
586F
330
1F
100
AcDbEntity
  8
AM_0N
100
AcDbLine
 10
136.1230254899074
 20
233.0075108177446
 30
0.0
 11
129.5111419473296
 21
234.3636118158471
 31
0.0
  0
LINE
  5
5870
330
1F
100
AcDbEntity
  8
AM_0N
100
AcDbLine
 10
126.9221073368598
 20
233.8738077999959
 30
0.0
 11
133.5339908794376
 21
232.5177068018934
 31
0.0
  0
LINE
  5
5871
330
1F
100
AcDbEntity
  8
AM_0N
100
AcDbLine
 10
136.1230254899074
 20
236.699320845652
 30
0.0
 11
129.5111419473296
 21
238.0554218437545
 31
0.0
  0
LINE
  5
5872
330
1F
100
AcDbEntity
  8
AM_0N
100
AcDbLine
 10
126.9221073368598
 20
237.5656178279033
 30
0.0
 11
133.5339908794376
 21
236.2095168298008
 31
0.0
  0
LINE
  5
5873
330
1F
100
AcDbEntity
  8
AM_0N
100
AcDbLine
 10
136.1230254899074
 20
240.3911308735594
 30
0.0
 11
129.5111419473296
 21
241.7472318716618
 31
0.0
  0
LINE
  5
5874
330
1F
100
AcDbEntity
  8
AM_0N
100
AcDbLine
 10
126.9221073368598
 20
241.2574278558107
 30
0.0
 11
133.5339908794376
 21
239.9013268577082
 31
0.0
  0
LINE
  5
5875
330
1F
100
AcDbEntity
  8
AM_0N
100
AcDbLine
 10
136.1230254899074
 20
244.0829409014668
 30
0.0
 11
129.5111419473296
 21
245.4390418995692
 31
0.0
  0
LINE
  5
5876
330
1F
100
AcDbEntity
  8
AM_0N
100
AcDbLine
 10
126.9221073368598
 20
244.949237883718
 30
0.0
 11
133.5339908794376
 21
243.5931368856156
 31
0.0
  0
LINE
  5
5877
330
1F
100
AcDbEntity
  8
AM_0N
100
AcDbLine
 10
136.1230254899074
 20
247.7747509293741
 30
0.0
 11
129.5111419473296
 21
249.1308519274766
 31
0.0
  0
LINE
  5
5878
330
1F
100
AcDbEntity
  8
AM_0N
100
AcDbLine
 10
126.9221073368598
 20
248.6410479116254
 30
0.0
 11
133.5339908794376
 21
247.2849469135229
 31
0.0
  0
LINE
  5
5879
330
1F
100
AcDbEntity
  8
AM_0N
100
AcDbLine
 10
132.0225664133836
 20
157.9389974607886
 30
0.0
 11
132.0225664133836
 21
157.5052495093435
 31
0.0
  0
LINE
  5
587A
330
1F
100
AcDbEntity
  8
AM_0N
100
AcDbLine
 10
131.0225664133836
 20
154.8219679363437
 30
0.0
 11
131.0225664133836
 21
157.9389973476198
 31
0.0
  0
ELLIPSE
  5
587B
330
1F
100
AcDbEntity
  8
AM_0N
100
AcDbEllipse
 10
131.5225664133836
 20
253.5651621769052
 30
0.0
 11
-0.5
 21
0.0
 31
0.0
210
0.0
220
0.0
230
1.0
 40
0.8193150331717458
 41
0.0
 42
6.283185307179586
  0
ELLIPSE
  5
587C
330
1F
100
AcDbEntity
  8
AM_0N
100
AcDbEllipse
 10
131.5225664133836
 20
157.9389974607886
 30
0.0
 11
0.5
 21
0.0
 31
0.0
210
0.0
220
0.0
230
1.0
 40
0.8193150331717335
 41
0.0
 42
6.283185307179586
  0
LINE
  5
587D
330
1F
100
AcDbEntity
  8
AM_0N
100
AcDbLine
 10
132.0225664133836
 20
261.7520798261781
 30
0.0
 11
132.0225664133836
 21
256.6821917013501
 31
0.0
  0
ARC
  5
587E
330
1F
100
AcDbEntity
  8
AM_0N
100
AcDbCircle
 10
127.9225664133836
 20
256.6821917013501
 30
0.0
 40
4.100000000000001
100
AcDbArc
 50
281.5906552512963
 51
359.9999999999999
  0
LINE
  5
587F
330
1F
100
AcDbEntity
  8
AM_0N
100
AcDbLine
 10
128.746330840879
 20
252.6657987713701
 30
0.0
 11
127.1230254899074
 21
252.3328579395328
 31
0.0
  0
ARC
  5
5880
330
1F
100
AcDbEntity
  8
AM_0N
100
AcDbCircle
 10
127.0225664133836
 20
252.822661955384
 30
0.0
 40
0.5000000000000009
100
AcDbArc
 50
101.5906552512958
 51
281.5906552512958
  0
LINE
  5
5881
330
1F
100
AcDbEntity
  8
AM_0N
100
AcDbLine
 10
126.9221073368598
 20
253.3124659712352
 30
0.0
 11
128.5454126878313
 21
253.6454068030726
 31
0.0
  0
ARC
  5
5882
330
1F
100
AcDbEntity
  8
AM_0N
100
AcDbCircle
 10
127.9225664133836
 20
256.6821917013501
 30
0.0
 40
3.099999999999993
100
AcDbArc
 50
281.5906552512964
 51
360.0
  0
LINE
  5
5883
330
1F
100
AcDbEntity
  8
AM_0N
100
AcDbLine
 10
131.0225664133836
 20
256.6821917013501
 30
0.0
 11
131.0225664133836
 21
261.7520798261781
 31
0.0
  0
ARC
  5
5884
330
1F
100
AcDbEntity
  8
AM_0N
100
AcDbCircle
 10
131.5225664133836
 20
261.7520798261781
 30
0.0
 40
0.5
100
AcDbArc
 50
0.0
 51
180.0
  0
ARC
  5
5885
330
1F
100
AcDbEntity
  8
AM_0N
100
AcDbCircle
 10
136.0225664133836
 20
162.3733162716532
 30
0.0
 40
0.5000000000000038
100
AcDbArc
 50
281.5906552512974
 51
101.5906552512974
  0
LINE
  5
5886
330
1F
100
AcDbEntity
  8
AM_0N
100
AcDbLine
 10
135.9221073368598
 20
162.8631202875044
 30
0.0
 11
126.9221073368598
 21
161.0172152735507
 31
0.0
  0
ARC
  5
5887
330
1F
100
AcDbEntity
  8
AM_0N
100
AcDbCircle
 10
127.0225664133836
 20
160.5274112576995
 30
0.0
 40
0.5000000000000009
100
AcDbArc
 50
101.5906552512958
 51
281.5906552512958
  0
LINE
  5
5888
330
1F
100
AcDbEntity
  8
AM_0N
100
AcDbLine
 10
127.1230254899074
 20
160.0376072418483
 30
0.0
 11
136.1230254899074
 21
161.883512255802
 31
0.0
  0
ARC
  5
5889
330
1F
100
AcDbEntity
  8
AM_0N
100
AcDbCircle
 10
136.0225664133836
 20
166.0651262995606
 30
0.0
 40
0.5000000000000038
100
AcDbArc
 50
281.5906552512974
 51
101.5906552512974
  0
LINE
  5
588A
330
1F
100
AcDbEntity
  8
AM_0N
100
AcDbLine
 10
135.9221073368598
 20
166.5549303154118
 30
0.0
 11
126.9221073368598
 21
164.7090253014581
 31
0.0
  0
ARC
  5
588B
330
1F
100
AcDbEntity
  8
AM_0N
100
AcDbCircle
 10
127.0225664133836
 20
164.2192212856069
 30
0.0
 40
0.5000000000000009
100
AcDbArc
 50
101.5906552512958
 51
281.5906552512958
  0
LINE
  5
588C
330
1F
100
AcDbEntity
  8
AM_0N
100
AcDbLine
 10
127.1230254899074
 20
163.7294172697557
 30
0.0
 11
136.1230254899074
 21
165.5753222837094
 31
0.0
  0
ARC
  5
588D
330
1F
100
AcDbEntity
  8
AM_0N
100
AcDbCircle
 10
136.0225664133836
 20
169.756936327468
 30
0.0
 40
0.5000000000000038
100
AcDbArc
 50
281.5906552512974
 51
101.5906552512974
  0
LINE
  5
588E
330
1F
100
AcDbEntity
  8
AM_0N
100
AcDbLine
 10
135.9221073368598
 20
170.2467403433192
 30
0.0
 11
126.9221073368598
 21
168.4008353293655
 31
0.0
  0
ARC
  5
588F
330
1F
100
AcDbEntity
  8
AM_0N
100
AcDbCircle
 10
127.0225664133836
 20
167.9110313135143
 30
0.0
 40
0.5000000000000009
100
AcDbArc
 50
101.5906552512958
 51
281.5906552512958
  0
LINE
  5
5890
330
1F
100
AcDbEntity
  8
AM_0N
100
AcDbLine
 10
127.1230254899074
 20
167.4212272976631
 30
0.0
 11
136.1230254899074
 21
169.2671323116167
 31
0.0
  0
ARC
  5
5891
330
1F
100
AcDbEntity
  8
AM_0N
100
AcDbCircle
 10
136.0225664133836
 20
173.4487463553753
 30
0.0
 40
0.5000000000000038
100
AcDbArc
 50
281.5906552512974
 51
101.5906552512974
  0
LINE
  5
5892
330
1F
100
AcDbEntity
  8
AM_0N
100
AcDbLine
 10
135.9221073368598
 20
173.9385503712266
 30
0.0
 11
126.9221073368598
 21
172.0926453572729
 31
0.0
  0
ARC
  5
5893
330
1F
100
AcDbEntity
  8
AM_0N
100
AcDbCircle
 10
127.0225664133836
 20
171.6028413414217
 30
0.0
 40
0.5000000000000009
100
AcDbArc
 50
101.5906552512958
 51
281.5906552512958
  0
LINE
  5
5894
330
1F
100
AcDbEntity
  8
AM_0N
100
AcDbLine
 10
127.1230254899074
 20
171.1130373255705
 30
0.0
 11
136.1230254899074
 21
172.9589423395241
 31
0.0
  0
ARC
  5
5895
330
1F
100
AcDbEntity
  8
AM_0N
100
AcDbCircle
 10
136.0225664133836
 20
177.1405563832827
 30
0.0
 40
0.5000000000000038
100
AcDbArc
 50
281.5906552512974
 51
101.5906552512974
  0
LINE
  5
5896
330
1F
100
AcDbEntity
  8
AM_0N
100
AcDbLine
 10
135.9221073368598
 20
177.6303603991339
 30
0.0
 11
126.9221073368598
 21
175.7844553851803
 31
0.0
  0
ARC
  5
5897
330
1F
100
AcDbEntity
  8
AM_0N
100
AcDbCircle
 10
127.0225664133836
 20
175.294651369329
 30
0.0
 40
0.5000000000000009
100
AcDbArc
 50
101.5906552512958
 51
281.5906552512958
  0
LINE
  5
5898
330
1F
100
AcDbEntity
  8
AM_0N
100
AcDbLine
 10
127.1230254899074
 20
174.8048473534778
 30
0.0
 11
136.1230254899074
 21
176.6507523674315
 31
0.0
  0
ARC
  5
5899
330
1F
100
AcDbEntity
  8
AM_0N
100
AcDbCircle
 10
136.0225664133836
 20
180.8323664111901
 30
0.0
 40
0.5000000000000038
100
AcDbArc
 50
281.5906552512974
 51
101.5906552512974
  0
LINE
  5
589A
330
1F
100
AcDbEntity
  8
AM_0N
100
AcDbLine
 10
135.9221073368598
 20
181.3221704270413
 30
0.0
 11
126.9221073368598
 21
179.4762654130876
 31
0.0
  0
ARC
  5
589B
330
1F
100
AcDbEntity
  8
AM_0N
100
AcDbCircle
 10
127.0225664133836
 20
178.9864613972364
 30
0.0
 40
0.5000000000000009
100
AcDbArc
 50
101.5906552512958
 51
281.5906552512958
  0
LINE
  5
589C
330
1F
100
AcDbEntity
  8
AM_0N
100
AcDbLine
 10
127.1230254899074
 20
178.4966573813852
 30
0.0
 11
136.1230254899074
 21
180.3425623953389
 31
0.0
  0
ARC
  5
589D
330
1F
100
AcDbEntity
  8
AM_0N
100
AcDbCircle
 10
136.0225664133836
 20
184.5241764390975
 30
0.0
 40
0.5000000000000038
100
AcDbArc
 50
281.5906552512974
 51
101.5906552512974
  0
LINE
  5
589E
330
1F
100
AcDbEntity
  8
AM_0N
100
AcDbLine
 10
135.9221073368598
 20
185.0139804549487
 30
0.0
 11
126.9221073368598
 21
183.168075440995
 31
0.0
  0
ARC
  5
589F
330
1F
100
AcDbEntity
  8
AM_0N
100
AcDbCircle
 10
127.0225664133836
 20
182.6782714251438
 30
0.0
 40
0.5000000000000009
100
AcDbArc
 50
101.5906552512958
 51
281.5906552512958
  0
LINE
  5
58A0
330
1F
100
AcDbEntity
  8
AM_0N
100
AcDbLine
 10
127.1230254899074
 20
182.1884674092926
 30
0.0
 11
136.1230254899074
 21
184.0343724232463
 31
0.0
  0
ARC
  5
58A1
330
1F
100
AcDbEntity
  8
AM_0N
100
AcDbCircle
 10
136.0225664133836
 20
188.2159864670048
 30
0.0
 40
0.5000000000000038
100
AcDbArc
 50
281.5906552512974
 51
101.5906552512974
  0
LINE
  5
58A2
330
1F
100
AcDbEntity
  8
AM_0N
100
AcDbLine
 10
135.9221073368598
 20
188.7057904828561
 30
0.0
 11
126.9221073368598
 21
186.8598854689024
 31
0.0
  0
ARC
  5
58A3
330
1F
100
AcDbEntity
  8
AM_0N
100
AcDbCircle
 10
127.0225664133836
 20
186.3700814530512
 30
0.0
 40
0.5000000000000009
100
AcDbArc
 50
101.5906552512958
 51
281.5906552512958
  0
LINE
  5
58A4
330
1F
100
AcDbEntity
  8
AM_0N
100
AcDbLine
 10
127.1230254899074
 20
185.8802774371999
 30
0.0
 11
136.1230254899074
 21
187.7261824511536
 31
0.0
  0
ARC
  5
58A5
330
1F
100
AcDbEntity
  8
AM_0N
100
AcDbCircle
 10
136.0225664133836
 20
191.9077964949122
 30
0.0
 40
0.5000000000000038
100
AcDbArc
 50
281.5906552512974
 51
101.5906552512974
  0
LINE
  5
58A6
330
1F
100
AcDbEntity
  8
AM_0N
100
AcDbLine
 10
135.9221073368598
 20
192.3976005107635
 30
0.0
 11
126.9221073368598
 21
190.5516954968098
 31
0.0
  0
ARC
  5
58A7
330
1F
100
AcDbEntity
  8
AM_0N
100
AcDbCircle
 10
127.0225664133836
 20
190.0618914809586
 30
0.0
 40
0.5000000000000009
100
AcDbArc
 50
101.5906552512958
 51
281.5906552512958
  0
LINE
  5
58A8
330
1F
100
AcDbEntity
  8
AM_0N
100
AcDbLine
 10
127.1230254899074
 20
189.5720874651073
 30
0.0
 11
136.1230254899074
 21
191.417992479061
 31
0.0
  0
ARC
  5
58A9
330
1F
100
AcDbEntity
  8
AM_0N
100
AcDbCircle
 10
136.0225664133836
 20
195.5996065228196
 30
0.0
 40
0.5000000000000038
100
AcDbArc
 50
281.5906552512974
 51
101.5906552512974
  0
LINE
  5
58AA
330
1F
100
AcDbEntity
  8
AM_0N
100
AcDbLine
 10
135.9221073368598
 20
196.0894105386708
 30
0.0
 11
126.9221073368598
 21
194.2435055247171
 31
0.0
  0
ARC
  5
58AB
330
1F
100
AcDbEntity
  8
AM_0N
100
AcDbCircle
 10
127.0225664133836
 20
193.7537015088659
 30
0.0
 40
0.5000000000000009
100
AcDbArc
 50
101.5906552512958
 51
281.5906552512958
  0
LINE
  5
58AC
330
1F
100
AcDbEntity
  8
AM_0N
100
AcDbLine
 10
127.1230254899074
 20
193.2638974930147
 30
0.0
 11
136.1230254899074
 21
195.1098025069684
 31
0.0
  0
ARC
  5
58AD
330
1F
100
AcDbEntity
  8
AM_0N
100
AcDbCircle
 10
136.0225664133836
 20
199.291416550727
 30
0.0
 40
0.5000000000000038
100
AcDbArc
 50
281.5906552512974
 51
101.5906552512974
  0
LINE
  5
58AE
330
1F
100
AcDbEntity
  8
AM_0N
100
AcDbLine
 10
135.9221073368598
 20
199.7812205665782
 30
0.0
 11
126.9221073368598
 21
197.9353155526245
 31
0.0
  0
ARC
  5
58AF
330
1F
100
AcDbEntity
  8
AM_0N
100
AcDbCircle
 10
127.0225664133836
 20
197.4455115367733
 30
0.0
 40
0.500000000000015
100
AcDbArc
 50
101.5906552512955
 51
281.5906552512955
  0
LINE
  5
58B0
330
1F
100
AcDbEntity
  8
AM_0N
100
AcDbLine
 10
127.1230254899074
 20
196.9557075209221
 30
0.0
 11
136.1230254899074
 21
198.8016125348758
 31
0.0
  0
ARC
  5
58B1
330
1F
100
AcDbEntity
  8
AM_0N
100
AcDbCircle
 10
136.0225664133836
 20
202.9832265786344
 30
0.0
 40
0.5000000000000038
100
AcDbArc
 50
281.5906552512974
 51
101.5906552512973
  0
LINE
  5
58B2
330
1F
100
AcDbEntity
  8
AM_0N
100
AcDbLine
 10
135.9221073368598
 20
203.4730305944856
 30
0.0
 11
126.9221073368598
 21
201.6271255805319
 31
0.0
  0
ARC
  5
58B3
330
1F
100
AcDbEntity
  8
AM_0N
100
AcDbCircle
 10
127.0225664133836
 20
201.1373215646807
 30
0.0
 40
0.5000000000000009
100
AcDbArc
 50
101.5906552512958
 51
281.5906552512958
  0
LINE
  5
58B4
330
1F
100
AcDbEntity
  8
AM_0N
100
AcDbLine
 10
127.1230254899074
 20
200.6475175488295
 30
0.0
 11
136.1230254899074
 21
202.4934225627831
 31
0.0
  0
ARC
  5
58B5
330
1F
100
AcDbEntity
  8
AM_0N
100
AcDbCircle
 10
136.0225664133836
 20
206.6750366065418
 30
0.0
 40
0.5000000000000038
100
AcDbArc
 50
281.5906552512974
 51
101.5906552512973
  0
LINE
  5
58B6
330
1F
100
AcDbEntity
  8
AM_0N
100
AcDbLine
 10
135.9221073368598
 20
207.164840622393
 30
0.0
 11
126.9221073368598
 21
205.3189356084393
 31
0.0
  0
ARC
  5
58B7
330
1F
100
AcDbEntity
  8
AM_0N
100
AcDbCircle
 10
127.0225664133836
 20
204.8291315925881
 30
0.0
 40
0.4999999999999871
100
AcDbArc
 50
101.5906552512961
 51
281.5906552512961
  0
LINE
  5
58B8
330
1F
100
AcDbEntity
  8
AM_0N
100
AcDbLine
 10
127.1230254899074
 20
204.3393275767369
 30
0.0
 11
136.1230254899074
 21
206.1852325906905
 31
0.0
  0
ARC
  5
58B9
330
1F
100
AcDbEntity
  8
AM_0N
100
AcDbCircle
 10
136.0225664133836
 20
210.3668466344491
 30
0.0
 40
0.5000000000000038
100
AcDbArc
 50
281.5906552512974
 51
101.5906552512973
  0
LINE
  5
58BA
330
1F
100
AcDbEntity
  8
AM_0N
100
AcDbLine
 10
135.9221073368598
 20
210.8566506503004
 30
0.0
 11
126.9221073368598
 21
209.0107456363467
 31
0.0
  0
ARC
  5
58BB
330
1F
100
AcDbEntity
  8
AM_0N
100
AcDbCircle
 10
127.0225664133836
 20
208.5209416204955
 30
0.0
 40
0.5000000000000009
100
AcDbArc
 50
101.5906552512958
 51
281.5906552512958
  0
LINE
  5
58BC
330
1F
100
AcDbEntity
  8
AM_0N
100
AcDbLine
 10
127.1230254899074
 20
208.0311376046442
 30
0.0
 11
136.1230254899074
 21
209.8770426185979
 31
0.0
  0
ARC
  5
58BD
330
1F
100
AcDbEntity
  8
AM_0N
100
AcDbCircle
 10
136.0225664133836
 20
214.0586566623565
 30
0.0
 40
0.4999999999999899
100
AcDbArc
 50
281.5906552512977
 51
101.5906552512977
  0
LINE
  5
58BE
330
1F
100
AcDbEntity
  8
AM_0N
100
AcDbLine
 10
135.9221073368598
 20
214.5484606782077
 30
0.0
 11
126.9221073368598
 21
212.7025556642541
 31
0.0
  0
ARC
  5
58BF
330
1F
100
AcDbEntity
  8
AM_0N
100
AcDbCircle
 10
127.0225664133836
 20
212.2127516484028
 30
0.0
 40
0.5000000000000009
100
AcDbArc
 50
101.5906552512958
 51
281.5906552512958
  0
LINE
  5
58C0
330
1F
100
AcDbEntity
  8
AM_0N
100
AcDbLine
 10
127.1230254899074
 20
211.7229476325516
 30
0.0
 11
136.1230254899074
 21
213.5688526465053
 31
0.0
  0
ARC
  5
58C1
330
1F
100
AcDbEntity
  8
AM_0N
100
AcDbCircle
 10
136.0225664133836
 20
217.7504666902639
 30
0.0
 40
0.5000000000000038
100
AcDbArc
 50
281.5906552512974
 51
101.5906552512973
  0
LINE
  5
58C2
330
1F
100
AcDbEntity
  8
AM_0N
100
AcDbLine
 10
135.9221073368598
 20
218.2402707061151
 30
0.0
 11
126.9221073368598
 21
216.3943656921615
 31
0.0
  0
ARC
  5
58C3
330
1F
100
AcDbEntity
  8
AM_0N
100
AcDbCircle
 10
127.0225664133836
 20
215.9045616763102
 30
0.0
 40
0.5000000000000009
100
AcDbArc
 50
101.5906552512958
 51
281.5906552512958
  0
LINE
  5
58C4
330
1F
100
AcDbEntity
  8
AM_0N
100
AcDbLine
 10
127.1230254899074
 20
215.414757660459
 30
0.0
 11
136.1230254899074
 21
217.2606626744127
 31
0.0
  0
ARC
  5
58C5
330
1F
100
AcDbEntity
  8
AM_0N
100
AcDbCircle
 10
136.0225664133836
 20
221.4422767181713
 30
0.0
 40
0.5000000000000038
100
AcDbArc
 50
281.5906552512974
 51
101.5906552512973
  0
LINE
  5
58C6
330
1F
100
AcDbEntity
  8
AM_0N
100
AcDbLine
 10
135.9221073368598
 20
221.9320807340225
 30
0.0
 11
126.9221073368598
 21
220.0861757200688
 31
0.0
  0
ARC
  5
58C7
330
1F
100
AcDbEntity
  8
AM_0N
100
AcDbCircle
 10
127.0225664133836
 20
219.5963717042176
 30
0.0
 40
0.5000000000000009
100
AcDbArc
 50
101.5906552512958
 51
281.5906552512958
  0
LINE
  5
58C8
330
1F
100
AcDbEntity
  8
AM_0N
100
AcDbLine
 10
127.1230254899074
 20
219.1065676883664
 30
0.0
 11
136.1230254899074
 21
220.95247270232
 31
0.0
  0
ARC
  5
58C9
330
1F
100
AcDbEntity
  8
AM_0N
100
AcDbCircle
 10
136.0225664133836
 20
225.1340867460787
 30
0.0
 40
0.5000000000000038
100
AcDbArc
 50
281.5906552512974
 51
101.5906552512973
  0
LINE
  5
58CA
330
1F
100
AcDbEntity
  8
AM_0N
100
AcDbLine
 10
135.9221073368598
 20
225.6238907619299
 30
0.0
 11
126.9221073368598
 21
223.7779857479762
 31
0.0
  0
ARC
  5
58CB
330
1F
100
AcDbEntity
  8
AM_0N
100
AcDbCircle
 10
127.0225664133836
 20
223.288181732125
 30
0.0
 40
0.4999999999999871
100
AcDbArc
 50
101.5906552512961
 51
281.5906552512961
  0
LINE
  5
58CC
330
1F
100
AcDbEntity
  8
AM_0N
100
AcDbLine
 10
127.1230254899074
 20
222.7983777162738
 30
0.0
 11
136.1230254899074
 21
224.6442827302274
 31
0.0
  0
ARC
  5
58CD
330
1F
100
AcDbEntity
  8
AM_0N
100
AcDbCircle
 10
136.0225664133836
 20
228.825896773986
 30
0.0
 40
0.5000000000000038
100
AcDbArc
 50
281.5906552512974
 51
101.5906552512973
  0
LINE
  5
58CE
330
1F
100
AcDbEntity
  8
AM_0N
100
AcDbLine
 10
135.9221073368598
 20
229.3157007898372
 30
0.0
 11
126.9221073368598
 21
227.4697957758835
 31
0.0
  0
ARC
  5
58CF
330
1F
100
AcDbEntity
  8
AM_0N
100
AcDbCircle
 10
127.0225664133836
 20
226.9799917600324
 30
0.0
 40
0.5000000000000009
100
AcDbArc
 50
101.5906552512958
 51
281.5906552512958
  0
LINE
  5
58D0
330
1F
100
AcDbEntity
  8
AM_0N
100
AcDbLine
 10
127.1230254899074
 20
226.4901877441811
 30
0.0
 11
136.1230254899074
 21
228.3360927581348
 31
0.0
  0
ARC
  5
58D1
330
1F
100
AcDbEntity
  8
AM_0N
100
AcDbCircle
 10
136.0225664133836
 20
232.5177068018934
 30
0.0
 40
0.4999999999999899
100
AcDbArc
 50
281.5906552512977
 51
101.5906552512977
  0
LINE
  5
58D2
330
1F
100
AcDbEntity
  8
AM_0N
100
AcDbLine
 10
135.9221073368598
 20
233.0075108177446
 30
0.0
 11
126.9221073368598
 21
231.1616058037909
 31
0.0
  0
ARC
  5
58D3
330
1F
100
AcDbEntity
  8
AM_0N
100
AcDbCircle
 10
127.0225664133836
 20
230.6718017879397
 30
0.0
 40
0.5000000000000009
100
AcDbArc
 50
101.5906552512958
 51
281.5906552512958
  0
LINE
  5
58D4
330
1F
100
AcDbEntity
  8
AM_0N
100
AcDbLine
 10
127.1230254899074
 20
230.1819977720885
 30
0.0
 11
136.1230254899074
 21
232.0279027860422
 31
0.0
  0
ARC
  5
58D5
330
1F
100
AcDbEntity
  8
AM_0N
100
AcDbCircle
 10
136.0225664133836
 20
236.2095168298008
 30
0.0
 40
0.5000000000000038
100
AcDbArc
 50
281.5906552512974
 51
101.5906552512974
  0
LINE
  5
58D6
330
1F
100
AcDbEntity
  8
AM_0N
100
AcDbLine
 10
135.9221073368598
 20
236.699320845652
 30
0.0
 11
126.9221073368598
 21
234.8534158316983
 31
0.0
  0
ARC
  5
58D7
330
1F
100
AcDbEntity
  8
AM_0N
100
AcDbCircle
 10
127.0225664133836
 20
234.3636118158471
 30
0.0
 40
0.5000000000000009
100
AcDbArc
 50
101.5906552512958
 51
281.5906552512958
  0
LINE
  5
58D8
330
1F
100
AcDbEntity
  8
AM_0N
100
AcDbLine
 10
127.1230254899074
 20
233.8738077999959
 30
0.0
 11
136.1230254899074
 21
235.7197128139496
 31
0.0
  0
ARC
  5
58D9
330
1F
100
AcDbEntity
  8
AM_0N
100
AcDbCircle
 10
136.0225664133836
 20
239.9013268577081
 30
0.0
 40
0.5000000000000038
100
AcDbArc
 50
281.5906552512974
 51
101.5906552512974
  0
LINE
  5
58DA
330
1F
100
AcDbEntity
  8
AM_0N
100
AcDbLine
 10
135.9221073368598
 20
240.3911308735594
 30
0.0
 11
126.9221073368598
 21
238.5452258596057
 31
0.0
  0
ARC
  5
58DB
330
1F
100
AcDbEntity
  8
AM_0N
100
AcDbCircle
 10
127.0225664133836
 20
238.0554218437545
 30
0.0
 40
0.5000000000000009
100
AcDbArc
 50
101.5906552512958
 51
281.5906552512958
  0
LINE
  5
58DC
330
1F
100
AcDbEntity
  8
AM_0N
100
AcDbLine
 10
127.1230254899074
 20
237.5656178279033
 30
0.0
 11
136.1230254899074
 21
239.411522841857
 31
0.0
  0
ARC
  5
58DD
330
1F
100
AcDbEntity
  8
AM_0N
100
AcDbCircle
 10
136.0225664133836
 20
243.5931368856155
 30
0.0
 40
0.5000000000000038
100
AcDbArc
 50
281.5906552512974
 51
101.5906552512974
  0
LINE
  5
58DE
330
1F
100
AcDbEntity
  8
AM_0N
100
AcDbLine
 10
135.9221073368598
 20
244.0829409014668
 30
0.0
 11
126.9221073368598
 21
242.2370358875131
 31
0.0
  0
ARC
  5
58DF
330
1F
100
AcDbEntity
  8
AM_0N
100
AcDbCircle
 10
127.0225664133836
 20
241.7472318716619
 30
0.0
 40
0.5000000000000009
100
AcDbArc
 50
101.5906552512958
 51
281.5906552512958
  0
LINE
  5
58E0
330
1F
100
AcDbEntity
  8
AM_0N
100
AcDbLine
 10
127.1230254899074
 20
241.2574278558107
 30
0.0
 11
136.1230254899074
 21
243.1033328697643
 31
0.0
  0
ARC
  5
58E1
330
1F
100
AcDbEntity
  8
AM_0N
100
AcDbCircle
 10
136.0225664133836
 20
247.2849469135229
 30
0.0
 40
0.5000000000000038
100
AcDbArc
 50
281.5906552512974
 51
101.5906552512974
  0
LINE
  5
58E2
330
1F
100
AcDbEntity
  8
AM_0N
100
AcDbLine
 10
135.9221073368598
 20
247.7747509293741
 30
0.0
 11
126.9221073368598
 21
245.9288459154205
 31
0.0
  0
ARC
  5
58E3
330
1F
100
AcDbEntity
  8
AM_0N
100
AcDbCircle
 10
127.0225664133836
 20
245.4390418995692
 30
0.0
 40
0.5000000000000009
100
AcDbArc
 50
101.5906552512958
 51
281.5906552512958
  0
LINE
  5
58E4
330
1F
100
AcDbEntity
  8
AM_0N
100
AcDbLine
 10
127.1230254899074
 20
244.949237883718
 30
0.0
 11
136.1230254899074
 21
246.7951428976717
 31
0.0
  0
ARC
  5
58E5
330
1F
100
AcDbEntity
  8
AM_0N
100
AcDbCircle
 10
136.0225664133836
 20
250.9767569414303
 30
0.0
 40
0.5000000000000038
100
AcDbArc
 50
281.5906552512974
 51
101.5906552512974
  0
LINE
  5
58E6
330
1F
100
AcDbEntity
  8
AM_0N
100
AcDbLine
 10
135.9221073368598
 20
251.4665609572815
 30
0.0
 11
126.9221073368598
 21
249.6206559433278
 31
0.0
  0
ARC
  5
58E7
330
1F
100
AcDbEntity
  8
AM_0N
100
AcDbCircle
 10
127.0225664133836
 20
249.1308519274766
 30
0.0
 40
0.5000000000000009
100
AcDbArc
 50
101.5906552512958
 51
281.5906552512958
  0
LINE
  5
58E8
330
1F
100
AcDbEntity
  8
AM_0N
100
AcDbLine
 10
127.1230254899074
 20
248.6410479116254
 30
0.0
 11
136.1230254899074
 21
250.4869529255791
 31
0.0
  0
LINE
  5
58E9
330
1F
100
AcDbEntity
  8
AM_0N
100
AcDbLine
 10
131.0225664133836
 20
149.7520798115158
 30
0.0
 11
131.0225664133836
 21
154.8219679363437
 31
0.0
  0
ARC
  5
58EA
330
1F
100
AcDbEntity
  8
AM_0N
100
AcDbCircle
 10
135.1225664133836
 20
154.8219679363437
 30
0.0
 40
4.100000000000006
100
AcDbArc
 50
101.5906552512964
 51
179.9999999999998
  0
LINE
  5
58EB
330
1F
100
AcDbEntity
  8
AM_0N
100
AcDbLine
 10
134.2988019858883
 20
158.8383608663237
 30
0.0
 11
135.9221073368598
 21
159.1713016981611
 31
0.0
  0
ARC
  5
58EC
330
1F
100
AcDbEntity
  8
AM_0N
100
AcDbCircle
 10
136.0225664133836
 20
158.6814976823099
 30
0.0
 40
0.5000000000000038
100
AcDbArc
 50
281.5906552512976
 51
101.5906552512976
  0
LINE
  5
58ED
330
1F
100
AcDbEntity
  8
AM_0N
100
AcDbLine
 10
136.1230254899074
 20
158.1916936664586
 30
0.0
 11
134.4997201389359
 21
157.8587528346213
 31
0.0
  0
ARC
  5
58EE
330
1F
100
AcDbEntity
  8
AM_0N
100
AcDbCircle
 10
135.1225664133836
 20
154.8219679363438
 30
0.0
 40
3.099999999999988
100
AcDbArc
 50
101.5906552512963
 51
180.0000000000006
  0
LINE
  5
58EF
330
1F
100
AcDbEntity
  8
AM_0N
100
AcDbLine
 10
132.0225664133836
 20
154.8219679363437
 30
0.0
 11
132.0225664133836
 21
149.7520798115158
 31
0.0
  0
ARC
  5
58F0
330
1F
100
AcDbEntity
  8
AM_0N
100
AcDbCircle
 10
131.5225664133836
 20
149.7520798115158
 30
0.0
 40
0.5
100
AcDbArc
 50
180.0
 51
0.0
  0
ENDSEC
  0
SECTION
  2
OBJECTS
  0
DICTIONARY
  5
C
330
0
100
AcDbDictionary
281
     1
  3
ACAD_COLOR
350
3362
  3
ACAD_GROUP
350
D
  3
ACAD_LAYOUT
350
1A
  3
ACAD_MATERIAL
350
3361
  3
ACAD_MLINESTYLE
350
17
  3
ACAD_PLOTSETTINGS
350
19
  3
ACAD_PLOTSTYLENAME
350
E
  3
ACAD_TABLESTYLE
350
3363
  3
ACDBHEADERROUNDTRIPXREC
350
592B
  3
AcDbVariableDictionary
350
30
  3
AcmDictionary
350
47
  3
AMG
350
43
  3
AMGSNAPSETTINGS
350
81
  3
ASE_INDEX_DICTIONARY
350
3D4D
  3
DWGPROPS
350
592A
  0
DICTIONARY
  5
38AE
330
2
100
AcDbDictionary
280
     1
281
     1
  3
ACAD_LAYERSTATES
360
38AF
  3
AMLAYER_GROUPCOLORS
360
3D46
  0
DICTIONARY
  5
38D
330
1F
100
AcDbDictionary
280
     1
281
     1
  3
ACAD_SORTENTS
360
33FE
  0
DICTIONARY
  5
3362
102
{ACAD_REACTORS
330
C
102
}
330
C
100
AcDbDictionary
281
     1
  0
DICTIONARY
  5
D
102
{ACAD_REACTORS
330
C
102
}
330
C
100
AcDbDictionary
281
     1
  0
DICTIONARY
  5
1A
102
{ACAD_REACTORS
330
C
102
}
330
C
100
AcDbDictionary
281
     1
  3
Layout1
350
1E
  3
Layout2
350
26
  3
Model
350
22
  0
DICTIONARY
  5
3361
102
{ACAD_REACTORS
330
C
102
}
330
C
100
AcDbDictionary
281
     1
  0
DICTIONARY
  5
17
102
{ACAD_REACTORS
330
C
102
}
330
C
100
AcDbDictionary
281
     1
  3
Standard
350
18
  0
DICTIONARY
  5
19
102
{ACAD_REACTORS
330
C
102
}
330
C
100
AcDbDictionary
281
     1
  0
ACDBDICTIONARYWDFLT
  5
E
102
{ACAD_REACTORS
330
C
102
}
330
C
100
AcDbDictionary
281
     1
  3
Normal
350
F
100
AcDbDictionaryWithDefault
340
F
  0
DICTIONARY
  5
3363
102
{ACAD_REACTORS
330
C
102
}
330
C
100
AcDbDictionary
281
     1
  3
Standard
350
3364
  0
DICTIONARY
  5
592B
102
{ACAD_REACTORS
330
C
102
}
330
C
100
AcDbDictionary
281
     1
  0
DICTIONARY
  5
30
102
{ACAD_REACTORS
330
C
102
}
330
C
100
AcDbDictionary
281
     1
  3
CTABLESTYLE
350
33D3
  3
DIMASSOC
350
5927
  3
INDEXCTL
350
31
  3
PROJECTNAME
350
5928
  0
DICTIONARY
  5
47
102
{ACAD_REACTORS
330
C
102
}
330
C
100
AcDbDictionary
281
     1
  3
AcmBOM
350
3B1F
  3
AcmStdDictionary
350
4C
  3
AMDTSECTSYM_ARROWCOLOR
350
336D
  0
DICTIONARY
  5
43
102
{ACAD_REACTORS
330
C
102
}
330
C
100
AcDbDictionary
281
     1
  0
DICTIONARY
  5
81
102
{ACAD_REACTORS
330
C
102
}
330
C
100
AcDbDictionary
281
     1
  0
DICTIONARY
  5
3D4D
102
{ACAD_REACTORS
330
C
102
}
330
C
100
AcDbDictionary
281
     1
  3
ASEBlockHierarchyIndexRecord
350
3D4F
1001
DCO15
1040
1535184699.138
  0
XRECORD
  5
592A
102
{ACAD_REACTORS
330
C
102
}
330
C
100
AcDbXrecord
280
     1
  1
DWGPROPS COOKIE
  2

  3

  4

  6

  7

  8
jreckzehpc
  9

300
AmdtFileType=84
301
=
302
=
303
=
304
=
305
=
306
=
307
=
308
=
309
=
 40
1.429917430555555
 41
2453558.294994097
 42
2454020.026952998
  1

 90
        1
  0
DICTIONARY
  5
38AF
102
{ACAD_REACTORS
330
38AE
102
}
330
38AE
100
AcDbDictionary
281
     1
  0
DICTIONARY
  5
3D46
102
{ACAD_REACTORS
330
38AE
102
}
330
38AE
100
AcDbDictionary
280
     1
281
     1
  0
SORTENTSTABLE
  5
33FE
102
{ACAD_REACTORS
330
38D
102
}
330
38D
100
AcDbSortentsTable
330
1F
331
58D4
  5
58D4
331
589D
  5
589D
331
585E
  5
585E
331
58DC
  5
58DC
331
58A5
  5
58A5
331
5866
  5
5866
331
58E4
  5
58E4
331
586E
  5
586E
331
5535
  5
5579
331
5574
  5
55E8
331
553D
  5
5581
331
557C
  5
55F0
331
5621
  5
5818
331
5545
  5
5589
331
5584
  5
55F8
331
554D
  5
5591
331
5516
  5
5517
331
558C
  5
5600
331
55F2
  5
56D3
331
5629
  5
5820
331
55BB
  5
5632
331
5631
  5
5828
331
5602
  5
57FA
331
55C3
  5
563A
331
5639
  5
5830
331
58EC
  5
58EC
331
58AD
  5
58AD
331
5876
  5
5876
331
58B5
  5
58B5
331
587E
  5
587E
331
58BD
  5
58BD
331
5886
  5
5886
331
5847
  5
5847
331
58C5
  5
58C5
331
588E
  5
588E
331
584F
  5
584F
331
5555
  5
55C9
331
551E
  5
551F
331
5594
  5
5608
331
559C
  5
5610
331
5526
  5
556A
331
555D
  5
55D1
331
5447
  5
5447
331
5641
  5
5838
331
560A
  5
5802
331
55A4
  5
561B
331
552E
  5
5572
331
5565
  5
55D9
331
55CB
  5
56A6
331
544F
  5
544F
331
556D
  5
55E1
331
5612
  5
5809
331
55DB
  5
56BA
331
561A
  5
5811
331
55E3
  5
56C2
331
58CD
  5
58CD
331
5896
  5
5896
331
5857
  5
5857
331
58D5
  5
58D5
331
589E
  5
589E
331
585F
  5
585F
331
58DD
  5
58DD
331
58A6
  5
58A6
331
5867
  5
5867
331
58E5
  5
58E5
331
586F
  5
586F
331
5536
  5
557A
331
5575
  5
55E9
331
553E
  5
5582
331
557D
  5
55F1
331
5622
  5
5819
331
5546
  5
558A
331
5585
  5
55F9
331
55AC
  5
5624
331
554E
  5
5592
331
5517
  5
5518
331
558D
  5
5601
331
55F3
  5
56D6
331
562A
  5
5821
331
55BC
  5
5633
331
5632
  5
5829
331
5603
  5
57FB
331
55C4
  5
563B
331
563A
  5
5831
331
58ED
  5
58ED
331
58AE
  5
58AE
331
5877
  5
5877
331
58B6
  5
58B6
331
587F
  5
587F
331
58BE
  5
58BE
331
5887
  5
5887
331
5848
  5
5848
331
58C6
  5
58C6
331
588F
  5
588F
331
5556
  5
55CA
331
551F
  5
5561
331
5595
  5
5609
331
559D
  5
5611
331
5527
  5
556B
331
555E
  5
55D2
331
5448
  5
5448
331
552F
  5
5573
331
5566
  5
55DA
331
55CC
  5
56A7
331
5450
  5
5450
331
556E
  5
55E2
331
5613
  5
580A
331
55DC
  5
56BB
331
561B
  5
5812
331
55E4
  5
56C3
331
5850
  5
5850
331
58CE
  5
58CE
331
5897
  5
5897
331
5858
  5
5858
331
58D6
  5
58D6
331
589F
  5
589F
331
5860
  5
5860
331
58DE
  5
58DE
331
58A7
  5
58A7
331
5868
  5
5868
331
58E6
  5
58E6
331
5537
  5
557B
331
5576
  5
55EA
331
553F
  5
5583
331
557E
  5
55F2
331
5623
  5
581A
331
5547
  5
558B
331
5586
  5
55FA
331
55AD
  5
5625
331
55EC
  5
56CB
331
554F
  5
5593
331
558E
  5
5602
331
55F4
  5
56D7
331
562B
  5
5822
331
55BD
  5
5634
331
5633
  5
582A
331
5604
  5
57FC
331
55C5
  5
563C
331
563B
  5
5832
331
5870
  5
5870
331
58EE
  5
58EE
331
58AF
  5
58AF
331
5878
  5
5878
331
58B7
  5
58B7
331
5880
  5
5880
331
5841
  5
5841
331
58BF
  5
58BF
331
5888
  5
5888
331
5849
  5
5849
331
58C7
  5
58C7
331
5518
  5
5519
331
5520
  5
5562
331
5557
  5
55CB
331
5596
  5
560A
331
559E
  5
5612
331
5528
  5
556C
331
555F
  5
55D3
331
5449
  5
5449
331
560C
  5
5803
331
5567
  5
55DB
331
55CD
  5
56A8
331
556F
  5
55E3
331
5614
  5
580B
331
55DD
  5
56BC
331
561C
  5
5813
331
55E5
  5
56C4
331
5890
  5
5890
331
5851
  5
5851
331
58CF
  5
58CF
331
5898
  5
5898
331
5859
  5
5859
331
58D7
  5
58D7
331
58A0
  5
58A0
331
5861
  5
5861
331
58DF
  5
58DF
331
5869
  5
5869
331
58E7
  5
58E7
331
5530
  5
5574
331
5459
  5
545A
331
5538
  5
557C
331
5577
  5
55EB
331
5540
  5
5584
331
557F
  5
55F3
331
5548
  5
558C
331
5587
  5
55FB
331
55AE
  5
5626
331
55ED
  5
56CE
331
5624
  5
581B
331
558F
  5
5603
331
562C
  5
5823
331
55BE
  5
5635
331
5634
  5
582B
331
5605
  5
57FD
331
563C
  5
5833
331
58A8
  5
58A8
331
5871
  5
5871
331
58EF
  5
58EF
331
58B0
  5
58B0
331
5879
  5
5879
331
58B8
  5
58B8
331
5881
  5
5881
331
5842
  5
5842
331
58C0
  5
58C0
331
5889
  5
5889
331
584A
  5
584A
331
5550
  5
5594
331
5519
  5
551A
331
5521
  5
5563
331
5558
  5
55CC
331
5597
  5
560B
331
5442
  5
5442
331
559F
  5
5613
331
5529
  5
556D
331
5560
  5
55D4
331
544A
  5
544A
331
560D
  5
5804
331
5568
  5
55DC
331
55CE
  5
56A9
331
55D6
  5
56B5
331
5615
  5
580C
331
55DE
  5
56BD
331
561D
  5
5814
331
55E6
  5
56C5
331
58C8
  5
58C8
331
5891
  5
5891
331
5852
  5
5852
331
58D0
  5
58D0
331
5899
  5
5899
331
585A
  5
585A
331
58D8
  5
58D8
331
58A1
  5
58A1
331
5862
  5
5862
331
58E0
  5
58E0
331
586A
  5
586A
331
5570
  5
55E4
331
545A
  5
545B
331
5539
  5
557D
331
5578
  5
55EC
331
5541
  5
5585
331
5580
  5
55F4
331
5549
  5
558D
331
5588
  5
55FC
331
55AF
  5
5627
331
55EE
  5
56CF
331
5625
  5
581C
331
562D
  5
5824
331
55BF
  5
5636
331
5635
  5
582C
331
5606
  5
57FE
331
55C7
  5
569B
331
563D
  5
5834
331
58E8
  5
58E8
331
58A9
  5
58A9
331
5872
  5
5872
331
58F0
  5
58F0
331
58B1
  5
58B1
331
587A
  5
587A
331
58B9
  5
58B9
331
5882
  5
5882
331
5843
  5
5843
331
58C1
  5
58C1
331
588A
  5
588A
331
584B
  5
584B
331
5551
  5
5595
331
551A
  5
551B
331
5590
  5
5604
331
5598
  5
560C
331
5522
  5
5565
331
5559
  5
55CD
331
5443
  5
5443
331
55A0
  5
5615
331
552A
  5
556E
331
5561
  5
55D5
331
544B
  5
544B
331
5569
  5
55DD
331
55CF
  5
56AC
331
560E
  5
5805
331
55D7
  5
56B6
331
5616
  5
580D
331
55DF
  5
56BE
331
561E
  5
5815
331
55E7
  5
56C6
331
58C9
  5
58C9
331
5892
  5
5892
331
5853
  5
5853
331
58D1
  5
58D1
331
589A
  5
589A
331
585B
  5
585B
331
58D9
  5
58D9
331
58A2
  5
58A2
331
5863
  5
5863
331
58E1
  5
58E1
331
586B
  5
586B
331
5571
  5
55E5
331
545B
  5
545C
331
553A
  5
557E
331
5579
  5
55ED
331
5542
  5
5586
331
5581
  5
55F5
331
554A
  5
558E
331
5589
  5
55FD
331
55B0
  5
5628
331
5626
  5
581D
331
562E
  5
5825
331
55FF
  5
57F7
331
55C0
  5
5637
331
5636
  5
582D
331
5607
  5
57FF
331
563E
  5
5835
331
58E9
  5
58E9
331
58AA
  5
58AA
331
5873
  5
5873
331
58B2
  5
58B2
331
587B
  5
587B
331
58BA
  5
58BA
331
5883
  5
5883
331
5844
  5
5844
331
58C2
  5
58C2
331
588B
  5
588B
331
584C
  5
584C
331
5552
  5
55C6
331
551B
  5
551C
331
5591
  5
5605
331
5599
  5
560D
331
5523
  5
5566
331
555A
  5
55CE
331
5444
  5
5444
331
55A1
  5
5617
331
552B
  5
556F
331
5562
  5
55D6
331
544C
  5
544C
331
556A
  5
55DE
331
55D0
  5
56AD
331
560F
  5
5806
331
55D8
  5
56B7
331
5617
  5
580E
331
55E0
  5
56BF
331
561F
  5
5816
331
58CA
  5
58CA
331
5893
  5
5893
331
5854
  5
5854
331
58D2
  5
58D2
331
589B
  5
589B
331
585C
  5
585C
331
58DA
  5
58DA
331
58A3
  5
58A3
331
5864
  5
5864
331
58E2
  5
58E2
331
586C
  5
586C
331
5533
  5
5577
331
5572
  5
55E6
331
545C
  5
545D
331
553B
  5
557F
331
557A
  5
55EE
331
5543
  5
5587
331
5582
  5
55F6
331
55A9
  5
5621
331
554B
  5
558F
331
558A
  5
55FE
331
5627
  5
581E
331
562F
  5
5826
331
5600
  5
57F8
331
55C1
  5
5638
331
5637
  5
582E
331
563F
  5
5836
331
58EA
  5
58EA
331
58AB
  5
58AB
331
5874
  5
5874
331
58B3
  5
58B3
331
587C
  5
587C
331
583D
  5
583D
331
58BB
  5
58BB
331
5884
  5
5884
331
5845
  5
5845
331
58C3
  5
58C3
331
588C
  5
588C
331
584D
  5
584D
331
5553
  5
55C7
331
551C
  5
551D
331
5592
  5
5606
331
559A
  5
560E
331
5524
  5
5568
331
555B
  5
55CF
331
5445
  5
5445
331
5608
  5
5800
331
55A2
  5
5618
331
552C
  5
5570
331
5563
  5
55D7
331
55C9
  5
56A4
331
544D
  5
544D
331
556B
  5
55DF
331
55D1
  5
56B0
331
5610
  5
5807
331
5455
  5
5455
331
55D9
  5
56B8
331
5618
  5
580F
331
55E1
  5
56C0
331
58CB
  5
58CB
331
5894
  5
5894
331
5855
  5
5855
331
58D3
  5
58D3
331
589C
  5
589C
331
585D
  5
585D
331
58DB
  5
58DB
331
58A4
  5
58A4
331
5865
  5
5865
331
58E3
  5
58E3
331
586D
  5
586D
331
5534
  5
5578
331
5573
  5
55E7
331
553C
  5
5580
331
557B
  5
55EF
331
5620
  5
5817
331
5544
  5
5588
331
5583
  5
55F7
331
55AA
  5
5622
331
554C
  5
5590
331
5515
  5
5516
331
558B
  5
55FF
331
5628
  5
581F
331
5630
  5
5827
331
5601
  5
57F9
331
55C2
  5
5639
331
58EB
  5
58EB
331
58AC
  5
58AC
331
5875
  5
5875
331
58B4
  5
58B4
331
587D
  5
587D
331
583E
  5
583E
331
58BC
  5
58BC
331
5885
  5
5885
331
5846
  5
5846
331
58C4
  5
58C4
331
588D
  5
588D
331
584E
  5
584E
331
5554
  5
55C8
331
551D
  5
551E
331
5593
  5
5607
331
555C
  5
55D0
331
559B
  5
560F
331
5446
  5
5446
331
5525
  5
5569
331
5640
  5
5837
331
5609
  5
5801
331
55CA
  5
56A5
331
55A3
  5
5619
331
544E
  5
544E
331
552D
  5
5571
331
5564
  5
55D8
331
5611
  5
5808
331
5456
  5
5457
331
556C
  5
55E0
331
55DA
  5
56B9
331
5619
  5
5810
331
55E2
  5
56C1
331
58CC
  5
58CC
331
5895
  5
5895
331
5856
  5
5856
  0
LAYOUT
  5
1E
102
{ACAD_XDICTIONARY
360
592C
102
}
102
{ACAD_REACTORS
330
1A
102
}
330
1A
100
AcDbPlotSettings
  1

  2
LMEKU
  4

  6

 40
0.0
 41
0.0
 42
0.0
 43
0.0
 44
0.0
 45
0.0
 46
0.0
 47
0.0
 48
0.0
 49
0.0
140
0.0
141
0.0
142
1.0
143
1.0
 70
   688
 72
     0
 73
     0
 74
     5
  7
monochrome.ctb
 75
    16
147
1.0
148
0.0
149
0.0
100
AcDbLayout
  1
Layout1
 70
     1
 71
     1
 10
0.0
 20
0.0
 11
420.0
 21
297.0
 12
0.0
 22
0.0
 32
0.0
 14
1.000000000000000E+20
 24
1.000000000000000E+20
 34
1.000000000000000E+20
 15
-1.000000000000000E+20
 25
-1.000000000000000E+20
 35
-1.000000000000000E+20
146
0.0
 13
0.0
 23
0.0
 33
0.0
 16
1.0
 26
0.0
 36
0.0
 17
0.0
 27
1.0
 37
0.0
 76
     0
330
1B
  0
LAYOUT
  5
26
102
{ACAD_XDICTIONARY
360
5930
102
}
102
{ACAD_REACTORS
330
1A
102
}
330
1A
100
AcDbPlotSettings
  1

  2
LMEKU
  4

  6

 40
0.0
 41
0.0
 42
0.0
 43
0.0
 44
0.0
 45
0.0
 46
0.0
 47
0.0
 48
0.0
 49
0.0
140
0.0
141
0.0
142
1.0
143
1.0
 70
   688
 72
     0
 73
     0
 74
     5
  7
monochrome.ctb
 75
    16
147
1.0
148
0.0
149
0.0
100
AcDbLayout
  1
Layout2
 70
     1
 71
     2
 10
0.0
 20
0.0
 11
12.0
 21
9.0
 12
0.0
 22
0.0
 32
0.0
 14
0.0
 24
0.0
 34
0.0
 15
0.0
 25
0.0
 35
0.0
146
0.0
 13
0.0
 23
0.0
 33
0.0
 16
1.0
 26
0.0
 36
0.0
 17
0.0
 27
1.0
 37
0.0
 76
     0
330
23
  0
LAYOUT
  5
22
102
{ACAD_XDICTIONARY
360
592E
102
}
102
{ACAD_REACTORS
330
1A
102
}
330
1A
100
AcDbPlotSettings
  1

  2
\\PH-SR-200\PH-PR-021 (ph36)
  4
A3
  6

 40
5.746749877929687
 41
5.704421997070312
 42
5.746734619140625
 43
5.74676513671875
 44
297.0530090332031
 45
420.1583251953125
 46
0.0
 47
2.442794106223402
 48
0.0000000000000182
 49
0.0
140
419.9999999999999
141
297.0
142
1.0
143
1.040063365011029
 70
 11956
 72
     1
 73
     1
 74
     4
  7
monochrome.ctb
 75
     0
147
0.9614798805930398
148
-0.0000000000000182
149
0.0
100
AcDbLayout
  1
Model
 70
     1
 71
     0
 10
0.0
 20
0.0
 11
12.0
 21
9.0
 12
0.0
 22
0.0
 32
0.0
 14
0.0
 24
0.0
 34
0.0
 15
0.0
 25
0.0
 35
0.0
146
0.0
 13
0.0
 23
0.0
 33
0.0
 16
1.0
 26
0.0
 36
0.0
 17
0.0
 27
1.0
 37
0.0
 76
     0
330
1F
1001
ACAD_PSEXT
1000
\\PH-SR-200\PH-PR-021 (ph36)
1000
HP LaserJet 5000 Series PS
1000
PH Konstruktion
1000
HPLJ5000N^M^J
1070
     0
  0
MLINESTYLE
  5
18
102
{ACAD_REACTORS
330
17
102
}
330
17
100
AcDbMlineStyle
  2
STANDARD
 70
     0
  3

 62
   256
 51
90.0
 52
90.0
 71
     2
 49
0.5
 62
   256
  6
BYLAYER
 49
-0.5
 62
   256
  6
BYLAYER
  0
ACDBPLACEHOLDER
  5
F
102
{ACAD_REACTORS
330
E
102
}
330
E
  0
TABLESTYLE
  5
3364
102
{ACAD_REACTORS
330
3363
102
}
330
3363
100
AcDbTableStyle
  3
Standard
 70
     0
 71
     0
 40
1.5
 41
1.5
280
     0
281
     0
  7
STANDARD
140
4.5
170
     2
 62
     0
 63
     7
283
     0
274
    -2
284
     1
 64
     0
275
    -2
285
     1
 65
     0
276
    -2
286
     1
 66
     0
277
    -2
287
     1
 67
     0
278
    -2
288
     1
 68
     0
279
    -2
289
     1
 69
     0
  7
STANDARD
140
6.0
170
     5
 62
     0
 63
     7
283
     0
274
    -2
284
     1
 64
     0
275
    -2
285
     1
 65
     0
276
    -2
286
     1
 66
     0
277
    -2
287
     1
 67
     0
278
    -2
288
     1
 68
     0
279
    -2
289
     1
 69
     0
  7
STANDARD
140
4.5
170
     5
 62
     0
 63
     7
283
     0
274
    -2
284
     1
 64
     0
275
    -2
285
     1
 65
     0
276
    -2
286
     1
 66
     0
277
    -2
287
     1
 67
     0
278
    -2
288
     1
 68
     0
279
    -2
289
     1
 69
     0
  0
DICTIONARYVAR
  5
33D3
102
{ACAD_REACTORS
330
30
102
}
330
30
100
DictionaryVariables
280
     0
  1
STANDARD
  0
DICTIONARYVAR
  5
5927
102
{ACAD_REACTORS
330
30
102
}
330
30
100
DictionaryVariables
280
     0
  1
1
  0
DICTIONARYVAR
  5
31
102
{ACAD_REACTORS
330
30
102
}
330
30
100
DictionaryVariables
280
     0
  1
0
  0
DICTIONARYVAR
  5
5928
102
{ACAD_REACTORS
330
30
102
}
330
30
100
DictionaryVariables
280
     0
  1

  0
DICTIONARY
  5
3B1F
102
{ACAD_REACTORS
330
47
102
}
330
47
100
AcDbDictionary
281
     1
  0
DICTIONARY
  5
4C
102
{ACAD_REACTORS
330
47
102
}
330
47
100
AcDbDictionary
281
     1
  0
XRECORD
  5
336D
102
{ACAD_REACTORS
330
47
102
}
330
47
100
AcDbXrecord
280
     1
 90
-1023410169
  0
XRECORD
  5
3D4F
102
{ACAD_REACTORS
330
3D4D
102
}
330
3D4D
100
AcDbXrecord
280
     1
330
0
330
0
  0
DICTIONARY
  5
592C
330
1E
100
AcDbDictionary
280
     1
281
     1
  3
ACAD_XREC_ROUNDTRIP
360
592D
  0
DICTIONARY
  5
5930
330
26
100
AcDbDictionary
280
     1
281
     1
  3
ACAD_XREC_ROUNDTRIP
360
5931
  0
DICTIONARY
  5
592E
330
22
100
AcDbDictionary
280
     1
281
     1
  3
ACAD_XREC_ROUNDTRIP
360
592F
  0
XRECORD
  5
592D
102
{ACAD_REACTORS
330
592C
102
}
330
592C
100
AcDbXrecord
280
     1
102
SHADEPLOT
 70
     0
102
SHADEPLOTRESLEVEL
 70
     2
102
SHADEPLOTCUSTOMDPI
 70
   300
  0
XRECORD
  5
5931
102
{ACAD_REACTORS
330
5930
102
}
330
5930
100
AcDbXrecord
280
     1
102
SHADEPLOT
 70
     0
102
SHADEPLOTRESLEVEL
 70
     2
102
SHADEPLOTCUSTOMDPI
 70
   300
  0
XRECORD
  5
592F
102
{ACAD_REACTORS
330
592E
102
}
330
592E
100
AcDbXrecord
280
     1
102
SHADEPLOT
 70
     0
102
SHADEPLOTRESLEVEL
 70
     2
102
SHADEPLOTCUSTOMDPI
 70
   300
  0
ENDSEC
  0
EOF
